  0
SECTION
  2
HEADER
  9
$ACADVER
  1
AC1018
  9
$ACADMAINTVER
 70
     0
  9
$DWGCODEPAGE
  3
ANSI_932
  9
$INSBASE
 10
0.0
 20
0.0
 30
0.0
  9
$EXTMIN
 10
236.4583280389727
 20
171.6287529652594
 30
-0.000000000000013
  9
$EXTMAX
 10
491.9215898802417
 20
367.0725832627541
 30
0.0000000000000023
  9
$LIMMIN
 10
0.0
 20
0.0
  9
$LIMMAX
 10
420.0
 20
297.0
  9
$ORTHOMODE
 70
     0
  9
$REGENMODE
 70
     1
  9
$FILLMODE
 70
     1
  9
$QTEXTMODE
 70
     0
  9
$MIRRTEXT
 70
     1
  9
$LTSCALE
 40
1.0
  9
$ATTMODE
 70
     1
  9
$TEXTSIZE
 40
3.0
  9
$TRACEWID
 40
1.0
  9
$TEXTSTYLE
  7
STYLE3
  9
$CLAYER
  8
寸法線
  9
$CELTYPE
  6
BYLAYER
  9
$CECOLOR
 62
   256
  9
$CELTSCALE
 40
1.0
  9
$DISPSILH
 70
     0
  9
$DIMSCALE
 40
1.0
  9
$DIMASZ
 40
2.5
  9
$DIMEXO
 40
0.0
  9
$DIMDLI
 40
3.75
  9
$DIMRND
 40
0.0
  9
$DIMDLE
 40
0.0
  9
$DIMEXE
 40
1.25
  9
$DIMTP
 40
0.0
  9
$DIMTM
 40
0.0
  9
$DIMTXT
 40
2.5
  9
$DIMCEN
 40
2.5
  9
$DIMTSZ
 40
0.0
  9
$DIMTOL
 70
     0
  9
$DIMLIM
 70
     0
  9
$DIMTIH
 70
     0
  9
$DIMTOH
 70
     0
  9
$DIMSE1
 70
     0
  9
$DIMSE2
 70
     0
  9
$DIMTAD
 70
     1
  9
$DIMZIN
 70
     8
  9
$DIMBLK
  1

  9
$DIMASO
 70
     1
  9
$DIMSHO
 70
     1
  9
$DIMPOST
  1

  9
$DIMAPOST
  1

  9
$DIMALT
 70
     0
  9
$DIMALTD
 70
     4
  9
$DIMALTF
 40
0.0394
  9
$DIMLFAC
 40
1.0
  9
$DIMTOFL
 70
     1
  9
$DIMTVP
 40
0.0
  9
$DIMTIX
 70
     0
  9
$DIMSOXD
 70
     0
  9
$DIMSAH
 70
     1
  9
$DIMBLK1
  1
OPEN
  9
$DIMBLK2
  1
OPEN
  9
$DIMSTYLE
  2
STYLE2
  9
$DIMCLRD
 70
     2
  9
$DIMCLRE
 70
     2
  9
$DIMCLRT
 70
     6
  9
$DIMTFAC
 40
1.0
  9
$DIMGAP
 40
0.625
  9
$DIMJUST
 70
     0
  9
$DIMSD1
 70
     0
  9
$DIMSD2
 70
     0
  9
$DIMTOLJ
 70
     1
  9
$DIMTZIN
 70
     0
  9
$DIMALTZ
 70
     0
  9
$DIMALTTZ
 70
     0
  9
$DIMUPT
 70
     0
  9
$DIMDEC
 70
     4
  9
$DIMTDEC
 70
     4
  9
$DIMALTU
 70
     8
  9
$DIMALTTD
 70
     4
  9
$DIMTXSTY
  7
STYLE3
  9
$DIMAUNIT
 70
     0
  9
$DIMADEC
 70
     5
  9
$DIMALTRND
 40
0.0
  9
$DIMAZIN
 70
     0
  9
$DIMDSEP
 70
    46
  9
$DIMATFIT
 70
     3
  9
$DIMFRAC
 70
     0
  9
$DIMLDRBLK
  1
OPEN
  9
$DIMLUNIT
 70
     2
  9
$DIMLWD
 70
    -2
  9
$DIMLWE
 70
    -2
  9
$DIMTMOVE
 70
     0
  9
$LUNITS
 70
     2
  9
$LUPREC
 70
     4
  9
$SKETCHINC
 40
1.0
  9
$FILLETRAD
 40
0.0
  9
$AUNITS
 70
     0
  9
$AUPREC
 70
     0
  9
$MENU
  1
.
  9
$ELEVATION
 40
0.0
  9
$PELEVATION
 40
0.0
  9
$THICKNESS
 40
0.0
  9
$LIMCHECK
 70
     0
  9
$CHAMFERA
 40
0.3
  9
$CHAMFERB
 40
0.3
  9
$CHAMFERC
 40
20.0
  9
$CHAMFERD
 40
0.0
  9
$SKPOLY
 70
     0
  9
$TDCREATE
 40
2450717.578556713
  9
$TDUCREATE
 40
2450717.203556713
  9
$TDUPDATE
 40
2455357.476214005
  9
$TDUUPDATE
 40
2455357.101214005
  9
$TDINDWG
 40
1.3212890509
  9
$TDUSRTIMER
 40
1.3212890509
  9
$USRTIMER
 70
     1
  9
$ANGBASE
 50
0.0
  9
$ANGDIR
 70
     0
  9
$PDMODE
 70
     0
  9
$PDSIZE
 40
0.0
  9
$PLINEWID
 40
0.0
  9
$SPLFRAME
 70
     0
  9
$SPLINETYPE
 70
     6
  9
$SPLINESEGS
 70
     8
  9
$HANDSEED
  5
22FE
  9
$SURFTAB1
 70
     6
  9
$SURFTAB2
 70
     6
  9
$SURFTYPE
 70
     6
  9
$SURFU
 70
     6
  9
$SURFV
 70
     6
  9
$UCSBASE
  2

  9
$UCSNAME
  2

  9
$UCSORG
 10
0.0
 20
0.0
 30
0.0
  9
$UCSXDIR
 10
1.0
 20
0.0
 30
0.0
  9
$UCSYDIR
 10
0.0
 20
1.0
 30
0.0
  9
$UCSORTHOREF
  2

  9
$UCSORTHOVIEW
 70
     0
  9
$UCSORGTOP
 10
0.0
 20
0.0
 30
0.0
  9
$UCSORGBOTTOM
 10
0.0
 20
0.0
 30
0.0
  9
$UCSORGLEFT
 10
0.0
 20
0.0
 30
0.0
  9
$UCSORGRIGHT
 10
0.0
 20
0.0
 30
0.0
  9
$UCSORGFRONT
 10
0.0
 20
0.0
 30
0.0
  9
$UCSORGBACK
 10
0.0
 20
0.0
 30
0.0
  9
$PUCSBASE
  2

  9
$PUCSNAME
  2

  9
$PUCSORG
 10
0.0
 20
0.0
 30
0.0
  9
$PUCSXDIR
 10
1.0
 20
0.0
 30
0.0
  9
$PUCSYDIR
 10
0.0
 20
1.0
 30
0.0
  9
$PUCSORTHOREF
  2

  9
$PUCSORTHOVIEW
 70
     0
  9
$PUCSORGTOP
 10
0.0
 20
0.0
 30
0.0
  9
$PUCSORGBOTTOM
 10
0.0
 20
0.0
 30
0.0
  9
$PUCSORGLEFT
 10
0.0
 20
0.0
 30
0.0
  9
$PUCSORGRIGHT
 10
0.0
 20
0.0
 30
0.0
  9
$PUCSORGFRONT
 10
0.0
 20
0.0
 30
0.0
  9
$PUCSORGBACK
 10
0.0
 20
0.0
 30
0.0
  9
$USERI1
 70
     0
  9
$USERI2
 70
     0
  9
$USERI3
 70
     0
  9
$USERI4
 70
     0
  9
$USERI5
 70
     0
  9
$USERR1
 40
0.0
  9
$USERR2
 40
0.0
  9
$USERR3
 40
0.0
  9
$USERR4
 40
0.0
  9
$USERR5
 40
0.0
  9
$WORLDVIEW
 70
     1
  9
$SHADEDGE
 70
     3
  9
$SHADEDIF
 70
    70
  9
$TILEMODE
 70
     1
  9
$MAXACTVP
 70
    48
  9
$PINSBASE
 10
0.0
 20
0.0
 30
0.0
  9
$PLIMCHECK
 70
     0
  9
$PEXTMIN
 10
1.000000000000000E+20
 20
1.000000000000000E+20
 30
1.000000000000000E+20
  9
$PEXTMAX
 10
-1.000000000000000E+20
 20
-1.000000000000000E+20
 30
-1.000000000000000E+20
  9
$PLIMMIN
 10
0.0
 20
0.0
  9
$PLIMMAX
 10
420.0
 20
297.0
  9
$UNITMODE
 70
     0
  9
$VISRETAIN
 70
     1
  9
$PLINEGEN
 70
     0
  9
$PSLTSCALE
 70
     1
  9
$TREEDEPTH
 70
  3020
  9
$CMLSTYLE
  2
STANDARD
  9
$CMLJUST
 70
     0
  9
$CMLSCALE
 40
20.0
  9
$PROXYGRAPHICS
 70
     1
  9
$MEASUREMENT
 70
     1
  9
$CELWEIGHT
370
    -1
  9
$ENDCAPS
280
     0
  9
$JOINSTYLE
280
     0
  9
$LWDISPLAY
290
     0
  9
$INSUNITS
 70
     0
  9
$HYPERLINKBASE
  1

  9
$STYLESHEET
  1
AutoCAD LT 98.ctb
  9
$XEDIT
290
     1
  9
$CEPSNTYPE
380
     0
  9
$PSTYLEMODE
290
     1
  9
$FINGERPRINTGUID
  2
{E4118C33-B1EB-41D5-8AB7-1D3466735144}
  9
$VERSIONGUID
  2
{727E4C76-0299-48C3-8F10-858342EFC2F4}
  9
$EXTNAMES
290
     1
  9
$PSVPSCALE
 40
0.0
  9
$OLESTARTUP
290
     0
  9
$SORTENTS
280
    96
  9
$INDEXCTL
280
     0
  9
$HIDETEXT
280
     0
  9
$XCLIPFRAME
290
     0
  9
$HALOGAP
280
     0
  9
$OBSCOLOR
 70
   257
  9
$OBSLTYPE
280
     0
  9
$INTERSECTIONDISPLAY
280
     0
  9
$INTERSECTIONCOLOR
 70
   257
  9
$DIMASSOC
280
     1
  9
$PROJECTNAME
  1

  0
ENDSEC
  0
SECTION
  2
CLASSES
  0
CLASS
  1
HATCH
  2
AcDbHatch
  3
ObjectDBX Classes
 90
        0
 91
       12
280
     0
281
     1
  0
CLASS
  1
LWPOLYLINE
  2
AcDbPolyline
  3
ObjectDBX Classes
 90
        0
 91
        2
280
     0
281
     1
  0
CLASS
  1
IMAGEDEF
  2
AcDbRasterImageDef
  3
ISM
 90
        0
 91
        1
280
     0
281
     0
  0
CLASS
  1
DICTIONARYVAR
  2
AcDbDictionaryVar
  3
ObjectDBX Classes
 90
        0
 91
        2
280
     0
281
     0
  0
CLASS
  1
ACDBDICTIONARYWDFLT
  2
AcDbDictionaryWithDefault
  3
ObjectDBX Classes
 90
        0
 91
        1
280
     0
281
     0
  0
CLASS
  1
TABLESTYLE
  2
AcDbTableStyle
  3
ObjectDBX Classes
 90
     2047
 91
        1
280
     0
281
     0
  0
CLASS
  1
SORTENTSTABLE
  2
AcDbSortentsTable
  3
ObjectDBX Classes
 90
        0
 91
        1
280
     0
281
     0
  0
ENDSEC
  0
SECTION
  2
TABLES
  0
TABLE
  2
VPORT
  5
8
330
0
100
AcDbSymbolTable
 70
     2
  0
VPORT
  5
22FD
330
8
100
AcDbSymbolTableRecord
100
AcDbViewportTableRecord
  2
*Active
 70
     0
 10
0.0
 20
0.0
 11
1.0
 21
1.0
 12
364.1899589596072
 22
269.3506681140068
 13
0.0
 23
0.0
 14
10.0
 24
10.0
 15
10.0
 25
10.0
 16
0.0
 26
0.0
 36
1.0
 17
0.0
 27
0.0
 37
0.0
 40
196.9300951666771
 41
1.530456852791878
 42
50.0
 43
0.0
 44
0.0
 50
0.0
 51
0.0
 71
     0
 72
   100
 73
     1
 74
     1
 75
     0
 76
     0
 77
     0
 78
     0
281
     0
 65
     1
110
0.0
120
0.0
130
0.0
111
1.0
121
0.0
131
0.0
112
0.0
122
1.0
132
0.0
 79
     0
146
0.0
  0
ENDTAB
  0
TABLE
  2
LTYPE
  5
5
330
0
100
AcDbSymbolTable
 70
     4
  0
LTYPE
  5
12
330
5
100
AcDbSymbolTableRecord
100
AcDbLinetypeTableRecord
  2
BYBLOCK
 70
     0
  3

 72
    65
 73
     0
 40
0.0
  0
LTYPE
  5
13
330
5
100
AcDbSymbolTableRecord
100
AcDbLinetypeTableRecord
  2
BYLAYER
 70
     0
  3

 72
    65
 73
     0
 40
0.0
  0
LTYPE
  5
14
330
5
100
AcDbSymbolTableRecord
100
AcDbLinetypeTableRecord
  2
CONTINUOUS
 70
     0
  3
Solid line
 72
    65
 73
     0
 40
0.0
  0
LTYPE
  5
22
330
5
100
AcDbSymbolTableRecord
100
AcDbLinetypeTableRecord
  2
CENTER2
 70
     0
  3
Center (.5x) ___ _ ___ _ ___ _ ___ _ ___ _ ___
 72
    65
 73
     4
 40
28.575
 49
19.05
 74
     0
 49
-3.174999999999999
 74
     0
 49
3.174999999999999
 74
     0
 49
-3.174999999999999
 74
     0
  0
ENDTAB
  0
TABLE
  2
LAYER
  5
2
330
0
100
AcDbSymbolTable
 70
    16
  0
LAYER
  5
E
330
2
100
AcDbSymbolTableRecord
100
AcDbLayerTableRecord
  2
0
 70
     0
 62
     7
  6
CONTINUOUS
370
    -3
390
1E97
  0
LAYER
  5
25
330
2
100
AcDbSymbolTableRecord
100
AcDbLayerTableRecord
  2
外形線
 70
     0
 62
     7
  6
CONTINUOUS
370
    -3
390
1E97
  0
LAYER
  5
26
330
2
100
AcDbSymbolTableRecord
100
AcDbLayerTableRecord
  2
寸法線
 70
     0
 62
     2
  6
CONTINUOUS
370
    -3
390
1E97
  0
LAYER
  5
27
330
2
100
AcDbSymbolTableRecord
100
AcDbLayerTableRecord
  2
中心線
 70
     0
 62
     4
  6
CENTER2
370
    -3
390
1E97
  0
LAYER
  5
2A
330
2
100
AcDbSymbolTableRecord
100
AcDbLayerTableRecord
  2
ﾊｯﾁﾝｸ
 70
     0
 62
     6
  6
CONTINUOUS
370
    -3
390
1E97
  0
LAYER
  5
2B
330
2
100
AcDbSymbolTableRecord
100
AcDbLayerTableRecord
  2
文字
 70
     0
 62
     6
  6
CONTINUOUS
370
    -3
390
1E97
  0
LAYER
  5
2C
330
2
100
AcDbSymbolTableRecord
100
AcDbLayerTableRecord
  2
目盛
 70
     0
 62
    70
  6
CONTINUOUS
370
    -3
390
1E97
  0
LAYER
  5
2D
330
2
100
AcDbSymbolTableRecord
100
AcDbLayerTableRecord
  2
針
 70
     0
 62
     5
  6
CONTINUOUS
370
    -3
390
1E97
  0
LAYER
  5
53
330
2
100
AcDbSymbolTableRecord
100
AcDbLayerTableRecord
  2
DEFPOINTS
 70
     0
 62
     7
  6
CONTINUOUS
290
     0
370
    -3
390
1E97
  0
LAYER
  5
A5
330
2
100
AcDbSymbolTableRecord
100
AcDbLayerTableRecord
  2
C
 70
     0
 62
     7
  6
CONTINUOUS
370
    -3
390
1E97
  0
LAYER
  5
E00
330
2
100
AcDbSymbolTableRecord
100
AcDbLayerTableRecord
  2
ROGO
 70
     0
 62
     6
  6
CONTINUOUS
370
    -3
390
1E97
  0
ENDTAB
  0
TABLE
  2
STYLE
  5
3
330
0
100
AcDbSymbolTable
 70
     3
  0
STYLE
  5
F
330
3
100
AcDbSymbolTableRecord
100
AcDbTextStyleTableRecord
  2
STANDARD
 70
     0
 40
0.0
 41
1.0
 50
0.0
 71
     0
 42
2.5
  3
txt
  4

  0
STYLE
  5
3F
330
3
100
AcDbSymbolTableRecord
100
AcDbTextStyleTableRecord
  2
STYLE3
 70
     0
 40
0.0
 41
1.0
 50
0.0
 71
     0
 42
3.0
  3
romans.shx
  4
bigfont.shx
  0
ENDTAB
  0
TABLE
  2
VIEW
  5
6
330
0
100
AcDbSymbolTable
 70
     0
  0
ENDTAB
  0
TABLE
  2
UCS
  5
7
330
0
100
AcDbSymbolTable
 70
     0
  0
ENDTAB
  0
TABLE
  2
APPID
  5
9
330
0
100
AcDbSymbolTable
 70
     3
  0
APPID
  5
10
330
9
100
AcDbSymbolTableRecord
100
AcDbRegAppTableRecord
  2
ACAD
 70
     0
  0
APPID
  5
1EA6
330
9
100
AcDbSymbolTableRecord
100
AcDbRegAppTableRecord
  2
ACAD_PSEXT
 70
     0
  0
APPID
  5
2150
330
9
100
AcDbSymbolTableRecord
100
AcDbRegAppTableRecord
  2
ACAD_DSTYLE_DIMTEXT_FILL
 70
     0
  0
ENDTAB
  0
TABLE
  2
DIMSTYLE
  5
A
330
0
100
AcDbSymbolTable
 70
     3
100
AcDbDimStyleTable
 71
     1
340
66
  0
DIMSTYLE
105
1D
330
A
100
AcDbSymbolTableRecord
100
AcDbDimStyleTableRecord
  2
STANDARD
 70
     0
 41
2.5
 42
0.625
 43
3.75
 44
1.25
 73
     0
 74
     0
 77
     1
 78
     8
140
2.5
141
2.5
143
0.0394
147
0.625
171
     4
172
     1
273
     8
274
     4
277
     6
340
F
  0
DIMSTYLE
105
66
102
{ACAD_REACTORS
330
1E6E
330
1E7B
330
1E88
102
}
330
A
100
AcDbSymbolTableRecord
100
AcDbDimStyleTableRecord
  2
STYLE2
 70
     0
 41
2.5
 42
0.0
 43
3.75
 44
1.25
 73
     0
 74
     0
 77
     1
 78
     8
140
2.5
141
2.5
143
0.0394
147
0.625
171
     4
172
     1
173
     1
176
     2
177
     2
178
     6
271
     1
273
     8
274
     4
340
3F
341
45
343
45
344
45
  0
ENDTAB
  0
TABLE
  2
BLOCK_RECORD
  5
1
330
0
100
AcDbSymbolTable
 70
     8
  0
BLOCK_RECORD
  5
18
102
{ACAD_XDICTIONARY
360
2222
102
}
330
1
100
AcDbSymbolTableRecord
100
AcDbBlockTableRecord
  2
*MODEL_SPACE
340
1E9E
  0
BLOCK_RECORD
  5
15
330
1
100
AcDbSymbolTableRecord
100
AcDbBlockTableRecord
  2
*PAPER_SPACE
340
1E9F
  0
BLOCK_RECORD
  5
45
330
1
100
AcDbSymbolTableRecord
100
AcDbBlockTableRecord
  2
_OPEN
340
0
102
{BLKREFS
331
836
331
837
331
F35
331
F36
331
1A42
331
1A44
331
1D07
331
1D08
331
1D12
331
1D13
331
1D1B
331
1D1C
331
1D28
331
1D29
331
1D3F
331
1D40
331
221F
331
2220
331
22DD
331
22DE
331
22E6
331
22E7
331
22EF
331
22F0
102
}
  0
BLOCK_RECORD
  5
1E62
330
1
100
AcDbSymbolTableRecord
100
AcDbBlockTableRecord
  2
*D2
340
0
  0
BLOCK_RECORD
  5
1E6F
330
1
100
AcDbSymbolTableRecord
100
AcDbBlockTableRecord
  2
*D3
340
0
  0
BLOCK_RECORD
  5
1E7C
330
1
100
AcDbSymbolTableRecord
100
AcDbBlockTableRecord
  2
*D4
340
0
  0
ENDTAB
  0
ENDSEC
  0
SECTION
  2
BLOCKS
  0
BLOCK
  5
19
330
18
100
AcDbEntity
  8
0
100
AcDbBlockBegin
  2
*MODEL_SPACE
 70
     0
 10
0.0
 20
0.0
 30
0.0
  3
*MODEL_SPACE
  1

  0
ENDBLK
  5
1A
330
18
100
AcDbEntity
  8
0
100
AcDbBlockEnd
  0
BLOCK
  5
16
330
15
100
AcDbEntity
 67
     1
  8
0
100
AcDbBlockBegin
  2
*PAPER_SPACE
 70
     0
 10
0.0
 20
0.0
 30
0.0
  3
*PAPER_SPACE
  1

  0
ENDBLK
  5
17
330
15
100
AcDbEntity
 67
     1
  8
0
100
AcDbBlockEnd
  0
BLOCK
  5
46
330
45
100
AcDbEntity
  8
0
100
AcDbBlockBegin
  2
_OPEN
 70
     0
 10
0.0
 20
0.0
 30
0.0
  3
_OPEN
  1

  0
LINE
  5
47
330
45
100
AcDbEntity
  8
0
  6
ByBlock
 62
     0
100
AcDbLine
 10
-1.0
 20
0.1666666666666666
 30
0.0
 11
0.0
 21
0.0
 31
0.0
  0
LINE
  5
48
330
45
100
AcDbEntity
  8
0
  6
ByBlock
 62
     0
100
AcDbLine
 10
0.0
 20
0.0
 30
0.0
 11
-1.0
 21
-0.1666666666666666
 31
0.0
  0
LINE
  5
49
330
45
100
AcDbEntity
  8
0
  6
ByBlock
 62
     0
100
AcDbLine
 10
0.0
 20
0.0
 30
0.0
 11
-1.0
 21
0.0
 31
0.0
  0
ENDBLK
  5
4A
330
45
100
AcDbEntity
  8
0
100
AcDbBlockEnd
  0
BLOCK
  5
1E63
330
1E62
100
AcDbEntity
  8
0
100
AcDbBlockBegin
  2
*D2
 70
     1
 10
0.0
 20
0.0
 30
0.0
  3
*D2
  1

  0
LINE
  5
22EC
330
1E62
100
AcDbEntity
  8
寸法線
 62
     2
370
    -2
100
AcDbLine
 10
417.8625889969325
 20
219.0622989768515
 30
0.0
 11
391.2285852634789
 21
219.0622989768515
 31
0.0
  0
LINE
  5
22ED
330
1E62
100
AcDbEntity
  8
寸法線
 62
     2
370
    -2
100
AcDbLine
 10
398.1921074934689
 20
232.0622989768515
 30
0.0
 11
391.2285852634789
 21
232.0622989768515
 31
0.0
  0
LINE
  5
22EE
330
1E62
100
AcDbEntity
  8
寸法線
 62
     2
370
    -2
100
AcDbLine
 10
392.4785852634789
 20
221.5622989768515
 30
0.0
 11
392.4785852634789
 21
229.5622989768515
 31
0.0
  0
INSERT
  5
22EF
330
1E62
100
AcDbEntity
  8
寸法線
 62
     2
370
    -2
100
AcDbBlockReference
  2
_OPEN
 10
392.4785852634789
 20
219.0622989768515
 30
0.0
 41
2.5
 42
2.5
 43
2.5
 50
270.0
  0
INSERT
  5
22F0
330
1E62
100
AcDbEntity
  8
寸法線
 62
     2
370
    -2
100
AcDbBlockReference
  2
_OPEN
 10
392.4785852634789
 20
232.0622989768515
 30
0.0
 41
2.5
 42
2.5
 43
2.5
 50
90.0
  0
MTEXT
  5
22F1
330
1E62
100
AcDbEntity
  8
寸法線
 62
     6
100
AcDbMText
 10
390.6035852634789
 20
225.5622989768516
 30
0.0
 40
2.5
 41
0.0
 71
     5
 72
     1
  1
\A1;13
  7
STYLE3
 11
0.0000000000000001
 21
1.0
 31
0.0
 73
     1
 44
1.0
  0
POINT
  5
22F2
330
1E62
100
AcDbEntity
  8
DEFPOINTS
 62
     0
100
AcDbPoint
 10
417.8625889969325
 20
219.0622989768515
 30
0.0
  0
POINT
  5
22F3
330
1E62
100
AcDbEntity
  8
DEFPOINTS
 62
     0
100
AcDbPoint
 10
398.1921074934689
 20
232.0622989768515
 30
0.0
  0
POINT
  5
22F4
330
1E62
100
AcDbEntity
  8
DEFPOINTS
 62
     0
100
AcDbPoint
 10
392.4785852634789
 20
232.0622989768515
 30
0.0
  0
ENDBLK
  5
1E6D
330
1E62
100
AcDbEntity
  8
0
100
AcDbBlockEnd
  0
BLOCK
  5
1E70
330
1E6F
100
AcDbEntity
  8
0
100
AcDbBlockBegin
  2
*D3
 70
     1
 10
0.0
 20
0.0
 30
0.0
  3
*D3
  1

  0
LINE
  5
22E3
330
1E6F
100
AcDbEntity
  8
寸法線
 62
     2
370
    -2
100
AcDbLine
 10
325.8264565446822
 20
219.0622989768515
 30
0.0
 11
290.3516786374257
 21
219.0622989768516
 31
0.0
  0
LINE
  5
22E4
330
1E6F
100
AcDbEntity
  8
寸法線
 62
     2
370
    -2
100
AcDbLine
 10
295.0992323120321
 20
288.4622989768515
 30
0.0
 11
290.3516786374257
 21
288.4622989768515
 31
0.0
  0
LINE
  5
22E5
330
1E6F
100
AcDbEntity
  8
寸法線
 62
     2
370
    -2
100
AcDbLine
 10
291.6016786374257
 20
221.5622989768516
 30
0.0
 11
291.6016786374257
 21
285.9622989768515
 31
0.0
  0
INSERT
  5
22E6
330
1E6F
100
AcDbEntity
  8
寸法線
 62
     2
370
    -2
100
AcDbBlockReference
  2
_OPEN
 10
291.6016786374257
 20
219.0622989768516
 30
0.0
 41
2.5
 42
2.5
 43
2.5
 50
270.0
  0
INSERT
  5
22E7
330
1E6F
100
AcDbEntity
  8
寸法線
 62
     2
370
    -2
100
AcDbBlockReference
  2
_OPEN
 10
291.6016786374257
 20
288.4622989768515
 30
0.0
 41
2.5
 42
2.5
 43
2.5
 50
90.0
  0
MTEXT
  5
22E8
330
1E6F
100
AcDbEntity
  8
寸法線
 62
     6
100
AcDbMText
 10
289.7266786374256
 20
253.7622989768515
 30
0.0
 40
2.5
 41
0.0
 71
     5
 72
     1
  1
\A1;69.4
  7
STYLE3
 11
0.0000000000000001
 21
1.0
 31
0.0
 73
     1
 44
1.0
  0
POINT
  5
22E9
330
1E6F
100
AcDbEntity
  8
DEFPOINTS
 62
     0
100
AcDbPoint
 10
325.8264565446822
 20
219.0622989768515
 30
0.0
  0
POINT
  5
22EA
330
1E6F
100
AcDbEntity
  8
DEFPOINTS
 62
     0
100
AcDbPoint
 10
295.0992323120321
 20
288.4622989768515
 30
0.0
  0
POINT
  5
22EB
330
1E6F
100
AcDbEntity
  8
DEFPOINTS
 62
     0
100
AcDbPoint
 10
291.6016786374257
 20
288.4622989768515
 30
0.0
  0
ENDBLK
  5
1E7A
330
1E6F
100
AcDbEntity
  8
0
100
AcDbBlockEnd
  0
BLOCK
  5
1E7D
330
1E7C
100
AcDbEntity
  8
0
100
AcDbBlockBegin
  2
*D4
 70
     1
 10
0.0
 20
0.0
 30
0.0
  3
*D4
  1

  0
LINE
  5
22DA
330
1E7C
100
AcDbEntity
  8
寸法線
 62
     2
370
    -2
100
AcDbLine
 10
290.3516786374257
 20
219.0622989768515
 30
0.0
 11
282.8428750741743
 21
219.0622989768515
 31
0.0
  0
LINE
  5
22DB
330
1E7C
100
AcDbEntity
  8
寸法線
 62
     2
370
    -2
100
AcDbLine
 10
285.9272679471506
 20
329.9622989768515
 30
0.0
 11
282.8428750741743
 21
329.9622989768515
 31
0.0
  0
LINE
  5
22DC
330
1E7C
100
AcDbEntity
  8
寸法線
 62
     2
370
    -2
100
AcDbLine
 10
284.0928750741743
 20
221.5622989768515
 30
0.0
 11
284.0928750741743
 21
327.4622989768515
 31
0.0
  0
INSERT
  5
22DD
330
1E7C
100
AcDbEntity
  8
寸法線
 62
     2
370
    -2
100
AcDbBlockReference
  2
_OPEN
 10
284.0928750741743
 20
219.0622989768515
 30
0.0
 41
2.5
 42
2.5
 43
2.5
 50
270.0
  0
INSERT
  5
22DE
330
1E7C
100
AcDbEntity
  8
寸法線
 62
     2
370
    -2
100
AcDbBlockReference
  2
_OPEN
 10
284.0928750741743
 20
329.9622989768515
 30
0.0
 41
2.5
 42
2.5
 43
2.5
 50
90.0
  0
MTEXT
  5
22DF
330
1E7C
100
AcDbEntity
  8
寸法線
 62
     6
100
AcDbMText
 10
282.2178750741742
 20
274.5122989768516
 30
0.0
 40
2.5
 41
0.0
 71
     5
 72
     1
  1
\A1;110.9
  7
STYLE3
 11
0.0000000000000001
 21
1.0
 31
0.0
 73
     1
 44
1.0
  0
POINT
  5
22E0
330
1E7C
100
AcDbEntity
  8
DEFPOINTS
 62
     0
100
AcDbPoint
 10
290.3516786374257
 20
219.0622989768515
 30
0.0
  0
POINT
  5
22E1
330
1E7C
100
AcDbEntity
  8
DEFPOINTS
 62
     0
100
AcDbPoint
 10
285.9272679471506
 20
329.9622989768515
 30
0.0
  0
POINT
  5
22E2
330
1E7C
100
AcDbEntity
  8
DEFPOINTS
 62
     0
100
AcDbPoint
 10
284.0928750741743
 20
329.9622989768515
 30
0.0
  0
ENDBLK
  5
1E87
330
1E7C
100
AcDbEntity
  8
0
100
AcDbBlockEnd
  0
ENDSEC
  0
SECTION
  2
ENTITIES
  0
LINE
  5
244
330
18
100
AcDbEntity
  8
中心線
 48
0.5
100
AcDbLine
 10
290.3516786374257
 20
288.4622989768515
 30
0.0
 11
355.9657522754685
 21
288.4622989768515
 31
0.0
  0
LINE
  5
245
330
18
100
AcDbEntity
  8
中心線
 48
0.5
100
AcDbLine
 10
325.8264565446822
 20
333.104107960667
 30
0.0
 11
325.8264565446822
 21
215.4513969530468
 31
0.0
  0
CIRCLE
  5
247
330
18
100
AcDbEntity
  8
外形線
100
AcDbCircle
 10
325.8264565446822
 20
288.4622989768515
 30
0.0
 40
23.0
  0
CIRCLE
  5
248
330
18
100
AcDbEntity
  8
外形線
100
AcDbCircle
 10
325.8264565446822
 20
288.4622989768515
 30
0.0
 40
26.4
  0
LINE
  5
2D5
330
18
100
AcDbEntity
  8
外形線
100
AcDbLine
 10
329.8264565446822
 20
262.3670886883714
 30
0.0
 11
329.8264565446822
 21
233.0622989768516
 31
0.0
  0
LINE
  5
2D6
330
18
100
AcDbEntity
  8
外形線
100
AcDbLine
 10
321.8264565446822
 20
262.3670886883714
 30
0.0
 11
321.8264565446822
 21
233.0622989768516
 31
0.0
  0
LINE
  5
5CF
330
18
100
AcDbEntity
  8
外形線
  6
Continuous
100
AcDbLine
 10
329.5264565446822
 20
328.9622989768514
 30
0.0
 11
329.5264565446822
 21
322.4622989768514
 31
0.0
  0
LINE
  5
5D0
330
18
100
AcDbEntity
  8
外形線
  6
Continuous
100
AcDbLine
 10
322.1264565446822
 20
328.9622989768514
 30
0.0
 11
322.1264565446822
 21
322.4622989768514
 31
0.0
  0
LINE
  5
5D1
330
18
100
AcDbEntity
  8
外形線
  6
Continuous
100
AcDbLine
 10
322.1264565446822
 20
328.9622989768514
 30
0.0
 11
329.5264565446822
 21
328.9622989768514
 31
0.0
  0
LINE
  5
5D2
330
18
100
AcDbEntity
  8
外形線
  6
Continuous
100
AcDbLine
 10
321.8264565446823
 20
322.4622989768514
 30
0.0
 11
329.8264565446822
 21
322.4622989768514
 31
0.0
  0
LINE
  5
5D3
330
18
100
AcDbEntity
  8
外形線
  6
Continuous
100
AcDbLine
 10
321.8264565446822
 20
316.4622989768514
 30
0.0
 11
329.8264565446822
 21
316.4622989768514
 31
0.0
  0
LINE
  5
5D4
330
18
100
AcDbEntity
  8
外形線
  6
Continuous
100
AcDbLine
 10
329.8264565446822
 20
322.4622989768514
 30
0.0
 11
329.8264565446822
 21
316.4622989768514
 31
0.0
  0
LINE
  5
5D5
330
18
100
AcDbEntity
  8
外形線
  6
Continuous
100
AcDbLine
 10
321.8264565446823
 20
322.4622989768514
 30
0.0
 11
321.8264565446823
 21
316.4622989768514
 31
0.0
  0
LINE
  5
5D6
330
18
100
AcDbEntity
  8
外形線
  6
Continuous
100
AcDbLine
 10
329.5264565446822
 20
316.4622989768514
 30
0.0
 11
329.5264565446822
 21
314.6017327886233
 31
0.0
  0
LINE
  5
5D7
330
18
100
AcDbEntity
  8
外形線
  6
Continuous
100
AcDbLine
 10
322.1264565446822
 20
316.4622989768514
 30
0.0
 11
322.1264565446822
 21
314.6017327886233
 31
0.0
  0
ARC
  5
5D9
330
18
100
AcDbEntity
  8
外形線
  6
Continuous
100
AcDbCircle
 10
325.8264565446822
 20
322.6172989768516
 30
0.0
 40
7.344999999999885
100
AcDbArc
 50
59.75198538337817
 51
120.2480146166212
  0
ARC
  5
692
330
18
100
AcDbEntity
  8
外形線
  6
Continuous
100
AcDbCircle
 10
509.0292556635987
 20
288.4622989768515
 30
0.0
 40
105.6666666666664
100
AcDbArc
 50
166.3144531747381
 51
193.685546825262
  0
LINE
  5
693
330
18
100
AcDbEntity
  8
外形線
  6
Continuous
100
AcDbLine
 10
406.3625889969324
 20
313.4622989768515
 30
0.0
 11
406.3625889969324
 21
263.4622989768515
 31
0.0
  0
LINE
  5
694
330
18
100
AcDbEntity
  8
外形線
  6
Continuous
100
AcDbLine
 10
407.5625889969324
 20
314.8622989768515
 30
0.0
 11
407.5625889969324
 21
262.0622989768516
 31
0.0
  0
LINE
  5
695
330
18
100
AcDbEntity
  8
外形線
  6
Continuous
100
AcDbLine
 10
411.3625889969323
 20
314.8622989768515
 30
0.0
 11
411.3625889969323
 21
262.0622989768516
 31
0.0
  0
LINE
  5
696
330
18
100
AcDbEntity
  8
外形線
  6
Continuous
100
AcDbLine
 10
412.8625889969324
 20
313.4622989768515
 30
0.0
 11
412.8625889969324
 21
263.4622989768515
 31
0.0
  0
LINE
  5
69C
330
18
100
AcDbEntity
  8
外形線
  6
Continuous
100
AcDbLine
 10
407.5625889969324
 20
262.9622989768515
 30
0.0
 11
406.3625889969324
 21
263.4622989768515
 31
0.0
  0
LINE
  5
6AD
330
18
100
AcDbEntity
  8
外形線
  6
CENTER2
100
AcDbLine
 10
412.8625889969324
 20
263.4622989768515
 30
0.0
 11
411.3625889969323
 21
263.4622989768515
 31
0.0
  0
LINE
  5
6AE
330
18
100
AcDbEntity
  8
外形線
  6
Continuous
100
AcDbLine
 10
407.5625889969324
 20
262.0622989768516
 30
0.0
 11
411.3625889969323
 21
262.0622989768516
 31
0.0
  0
LINE
  5
6AF
330
18
100
AcDbEntity
  8
外形線
  6
Continuous
 62
     4
100
AcDbLine
 10
407.5625889969324
 20
266.0622989768516
 30
0.0
 11
411.3625889969323
 21
266.0622989768516
 31
0.0
  0
LINE
  5
6B0
330
18
100
AcDbEntity
  8
外形線
  6
Continuous
 62
     4
100
AcDbLine
 10
407.5625889969324
 20
265.0622989768515
 30
0.0
 11
411.3625889969323
 21
265.0622989768515
 31
0.0
  0
LINE
  5
6B1
330
18
100
AcDbEntity
  8
外形線
  6
Continuous
 62
     4
100
AcDbLine
 10
407.5625889969324
 20
264.0622989768516
 30
0.0
 11
411.3625889969323
 21
264.0622989768516
 31
0.0
  0
LINE
  5
6B2
330
18
100
AcDbEntity
  8
外形線
  6
Continuous
 62
     4
100
AcDbLine
 10
407.5625889969324
 20
263.0622989768515
 30
0.0
 11
411.3625889969323
 21
263.0622989768515
 31
0.0
  0
ARC
  5
6B8
330
18
100
AcDbEntity
  8
外形線
  6
Continuous
100
AcDbCircle
 10
417.8625889969323
 20
322.6172989768516
 30
0.0
 40
7.344999999999885
100
AcDbArc
 50
59.75198538337879
 51
120.2480146166218
  0
LINE
  5
6B9
330
18
100
AcDbEntity
  8
外形線
  6
Continuous
100
AcDbLine
 10
407.5625889969324
 20
313.9622989768515
 30
0.0
 11
406.3625889969324
 21
313.4622989768515
 31
0.0
  0
LINE
  5
6BA
330
18
100
AcDbEntity
  8
外形線
  6
Continuous
 62
     4
100
AcDbLine
 10
407.5625889969324
 20
267.0622989768515
 30
0.0
 11
411.3625889969323
 21
267.0622989768515
 31
0.0
  0
LINE
  5
6BB
330
18
100
AcDbEntity
  8
外形線
  6
Continuous
 62
     4
100
AcDbLine
 10
411.3625889969323
 20
286.4622989768515
 30
0.0
 11
407.5625889969324
 21
286.4622989768515
 31
0.0
  0
LINE
  5
6BC
330
18
100
AcDbEntity
  8
外形線
  6
Continuous
 62
     4
100
AcDbLine
 10
411.3625889969323
 20
287.4622989768515
 30
0.0
 11
407.5625889969324
 21
287.4622989768515
 31
0.0
  0
LINE
  5
6BD
330
18
100
AcDbEntity
  8
外形線
  6
Continuous
 62
     4
100
AcDbLine
 10
411.3625889969323
 20
288.4622989768515
 30
0.0
 11
407.5625889969324
 21
288.4622989768515
 31
0.0
  0
LINE
  5
6BE
330
18
100
AcDbEntity
  8
外形線
  6
Continuous
 62
     4
100
AcDbLine
 10
411.3625889969323
 20
289.4622989768515
 30
0.0
 11
407.5625889969324
 21
289.4622989768515
 31
0.0
  0
LINE
  5
6BF
330
18
100
AcDbEntity
  8
外形線
  6
Continuous
 62
     4
100
AcDbLine
 10
411.3625889969323
 20
291.4622989768515
 30
0.0
 11
407.5625889969324
 21
291.4622989768515
 31
0.0
  0
LINE
  5
6C0
330
18
100
AcDbEntity
  8
外形線
  6
Continuous
 62
     4
100
AcDbLine
 10
411.3625889969323
 20
290.4622989768515
 30
0.0
 11
407.5625889969324
 21
290.4622989768515
 31
0.0
  0
LINE
  5
6C1
330
18
100
AcDbEntity
  8
外形線
  6
Continuous
 62
     4
100
AcDbLine
 10
407.5625889969324
 20
309.8622989768515
 30
0.0
 11
411.3625889969323
 21
309.8622989768515
 31
0.0
  0
LINE
  5
6C2
330
18
100
AcDbEntity
  8
外形線
  6
Continuous
 62
     4
100
AcDbLine
 10
407.5625889969324
 20
310.8622989768515
 30
0.0
 11
411.3625889969323
 21
310.8622989768515
 31
0.0
  0
LINE
  5
6C3
330
18
100
AcDbEntity
  8
外形線
  6
Continuous
 62
     4
100
AcDbLine
 10
407.5625889969324
 20
311.8622989768515
 30
0.0
 11
411.3625889969323
 21
311.8622989768515
 31
0.0
  0
LINE
  5
6C4
330
18
100
AcDbEntity
  8
外形線
  6
Continuous
 62
     4
100
AcDbLine
 10
407.5625889969324
 20
312.8622989768515
 30
0.0
 11
411.3625889969323
 21
312.8622989768515
 31
0.0
  0
LINE
  5
6C5
330
18
100
AcDbEntity
  8
外形線
  6
Continuous
100
AcDbLine
 10
421.5625889969324
 20
328.9622989768515
 30
0.0
 11
414.1625889969323
 21
328.9622989768515
 31
0.0
  0
LINE
  5
6C6
330
18
100
AcDbEntity
  8
外形線
  6
Continuous
100
AcDbLine
 10
421.8625889969323
 20
322.4622989768515
 30
0.0
 11
413.8625889969323
 21
322.4622989768515
 31
0.0
  0
LINE
  5
6C7
330
18
100
AcDbEntity
  8
外形線
  6
Continuous
100
AcDbLine
 10
421.8625889969323
 20
316.4622989768515
 30
0.0
 11
413.8625889969323
 21
316.4622989768515
 31
0.0
  0
LINE
  5
6C9
330
18
100
AcDbEntity
  8
外形線
  6
Continuous
100
AcDbLine
 10
421.8625889969323
 20
322.4622989768515
 30
0.0
 11
421.8625889969323
 21
316.4622989768515
 31
0.0
  0
LINE
  5
6CA
330
18
100
AcDbEntity
  8
外形線
  6
Continuous
100
AcDbLine
 10
421.5625889969324
 20
316.4622989768515
 30
0.0
 11
421.5625889969324
 21
312.9622989768515
 31
0.0
  0
LINE
  5
6CB
330
18
100
AcDbEntity
  8
外形線
  6
Continuous
100
AcDbLine
 10
421.5625889969324
 20
328.9622989768515
 30
0.0
 11
421.5625889969324
 21
322.4622989768515
 31
0.0
  0
LINE
  5
6CC
330
18
100
AcDbEntity
  8
外形線
  6
Continuous
100
AcDbLine
 10
413.8625889969323
 20
322.4622989768515
 30
0.0
 11
413.8625889969323
 21
316.4622989768515
 31
0.0
  0
LINE
  5
6CD
330
18
100
AcDbEntity
  8
外形線
  6
CENTER2
100
AcDbLine
 10
412.8625889969324
 20
313.4622989768515
 30
0.0
 11
411.3625889969323
 21
313.4622989768515
 31
0.0
  0
LINE
  5
6CE
330
18
100
AcDbEntity
  8
外形線
  6
Continuous
100
AcDbLine
 10
414.1625889969323
 20
316.4622989768515
 30
0.0
 11
414.1625889969322
 21
312.9622989768515
 31
0.0
  0
LINE
  5
6CF
330
18
100
AcDbEntity
  8
外形線
  6
Continuous
 62
     4
100
AcDbLine
 10
407.5625889969324
 20
313.8622989768515
 30
0.0
 11
411.3625889969323
 21
313.8622989768515
 31
0.0
  0
LINE
  5
6D0
330
18
100
AcDbEntity
  8
外形線
  6
Continuous
100
AcDbLine
 10
407.5625889969324
 20
314.8622989768515
 30
0.0
 11
411.3625889969323
 21
314.8622989768515
 31
0.0
  0
LINE
  5
6D1
330
18
100
AcDbEntity
  8
外形線
  6
Continuous
100
AcDbLine
 10
414.1625889969323
 20
328.9622989768515
 30
0.0
 11
414.1625889969323
 21
322.4622989768515
 31
0.0
  0
MTEXT
  5
778
330
18
100
AcDbEntity
  8
DEFPOINTS
  6
Continuous
100
AcDbMText
 10
735.8166661286731
 20
235.565234348894
 30
0.0
 40
1.0
 41
0.0
 71
     4
 72
     1
  1
\A1;
 73
     1
 44
1.0
  0
LINE
  5
789
330
18
100
AcDbEntity
  8
中心線
 48
0.5
100
AcDbLine
 10
417.8625889969324
 20
333.4152503210307
 30
0.0
 11
417.8625889969325
 21
216.0064798479642
 31
0.0
  0
LINE
  5
78E
330
18
100
AcDbEntity
  8
外形線
100
AcDbLine
 10
412.8625889969324
 20
263.9622989768515
 30
0.0
 11
424.3625889969324
 21
263.9622989768515
 31
0.0
  0
LINE
  5
78F
330
18
100
AcDbEntity
  8
外形線
100
AcDbLine
 10
412.8625889969324
 20
312.9622989768515
 30
0.0
 11
424.3625889969325
 21
312.9622989768515
 31
0.0
  0
LINE
  5
7D6
330
18
100
AcDbEntity
  8
中心線
 48
0.5
100
AcDbLine
 10
399.575671378609
 20
288.4622989768515
 30
0.0
 11
428.4761401840104
 21
288.4622989768515
 31
0.0
  0
LINE
  5
833
330
18
100
AcDbEntity
  8
0
  6
ByBlock
 62
     2
100
AcDbLine
 10
325.8264565446822
 20
329.9622989768515
 30
0.0
 11
283.2566420280235
 21
329.9622989768515
 31
0.0
  0
LINE
  5
835
330
18
100
AcDbEntity
  8
0
  6
ByBlock
 62
     2
100
AcDbLine
 10
291.6016786374257
 20
327.4622989768515
 30
0.0
 11
291.6016786374257
 21
290.9622989768515
 31
0.0
  0
INSERT
  5
836
330
18
100
AcDbEntity
  8
0
  6
ByBlock
 62
     2
100
AcDbBlockReference
  2
_OPEN
 10
291.6016786374257
 20
329.9622989768515
 30
0.0
 41
2.5
 42
2.5
 43
2.5
 50
90.0
  0
INSERT
  5
837
330
18
100
AcDbEntity
  8
0
  6
ByBlock
 62
     2
100
AcDbBlockReference
  2
_OPEN
 10
291.6016786374257
 20
288.4622989768515
 30
0.0
 41
2.5
 42
2.5
 43
2.5
 50
270.0
  0
MTEXT
  5
838
330
18
100
AcDbEntity
  8
0
  6
ByBlock
 62
     6
100
AcDbMText
 10
289.7266786374257
 20
309.2122989768515
 30
0.0
 40
2.5
 41
0.0
 71
     5
 72
     1
  1
\A1;41.5
  7
STYLE3
 11
0.0000000000000001
 21
1.0
 31
0.0
 73
     1
 44
1.0
  0
POINT
  5
839
330
18
100
AcDbEntity
  8
DEFPOINTS
  6
ByBlock
 62
     0
100
AcDbPoint
 10
325.8264565446822
 20
329.9622989768515
 30
0.0
  0
POINT
  5
83B
330
18
100
AcDbEntity
  8
DEFPOINTS
  6
ByBlock
 62
     0
100
AcDbPoint
 10
291.6016786374257
 20
288.4622989768515
 30
0.0
  0
POINT
  5
84A
330
18
100
AcDbEntity
  8
DEFPOINTS
  6
ByBlock
 62
     0
100
AcDbPoint
 10
290.3516786374257
 20
329.9622989768515
 30
0.0
  0
MTEXT
  5
887
330
18
100
AcDbEntity
  8
文字
100
AcDbMText
 10
302.9558756866726
 20
261.6432165871282
 30
0.0
 40
1.0
 41
6.927999999999999
 71
     1
 72
     5
  1

  7
STYLE3
 73
     1
 44
1.0
  0
TEXT
  5
93E
330
18
100
AcDbEntity
  8
文字
100
AcDbText
 10
437.1930752988135
 20
283.3552166898342
 30
0.0
 40
2.5
  1
φ
 50
90.0
  7
STYLE3
100
AcDbText
  0
LWPOLYLINE
  5
96E
330
18
100
AcDbEntity
  8
C
100
AcDbPolyline
 90
        5
 70
     0
 43
0.4
 10
236.6915604445414
 20
366.8501752555372
 10
491.6915604445414
 20
366.8501752555372
 10
491.6915604445414
 20
171.8501752555372
 10
236.6915604445414
 20
171.8501752555372
 10
236.6915604445414
 20
366.8501752555372
  0
MTEXT
  5
EB4
330
18
100
AcDbEntity
  8
DEFPOINTS
  6
Continuous
100
AcDbMText
 10
624.6916853418142
 20
184.890767874579
 30
0.0
 40
0.35
 41
0.0
 71
     4
 72
     1
  1
\A1;
 73
     1
 44
1.0
  0
LINE
  5
F32
330
18
100
AcDbEntity
  8
0
  6
ByBlock
 62
     2
100
AcDbLine
 10
424.3625889969325
 20
312.9622989768515
 30
0.0
 11
439.2415563438364
 21
312.9622989768515
 31
0.0
  0
LINE
  5
F33
330
18
100
AcDbEntity
  8
0
  6
ByBlock
 62
     2
100
AcDbLine
 10
424.3625889969324
 20
263.9622989768515
 30
0.0
 11
439.2415563438364
 21
263.9622989768515
 31
0.0
  0
LINE
  5
F34
330
18
100
AcDbEntity
  8
0
  6
ByBlock
 62
     2
100
AcDbLine
 10
437.9915563438363
 20
310.4622989768515
 30
0.0
 11
437.9915563438363
 21
266.4622989768515
 31
0.0
  0
INSERT
  5
F35
330
18
100
AcDbEntity
  8
0
  6
ByBlock
 62
     2
100
AcDbBlockReference
  2
_OPEN
 10
437.9915563438363
 20
312.9622989768515
 30
0.0
 41
2.5
 42
2.5
 43
2.5
 50
90.0
  0
INSERT
  5
F36
330
18
100
AcDbEntity
  8
0
  6
ByBlock
 62
     2
100
AcDbBlockReference
  2
_OPEN
 10
437.9915563438363
 20
263.9622989768515
 30
0.0
 41
2.5
 42
2.5
 43
2.5
 50
270.0
  0
MTEXT
  5
F37
330
18
100
AcDbEntity
  8
0
  6
ByBlock
 62
     6
100
AcDbMText
 10
436.1165563438364
 20
288.4622989768515
 30
0.0
 40
2.5
 41
0.0
 71
     5
 72
     1
  1
\A1;49
  7
STYLE3
 11
0.0000000000000001
 21
1.0
 31
0.0
 73
     1
 44
1.0
  0
POINT
  5
F3A
330
18
100
AcDbEntity
  8
DEFPOINTS
  6
ByBlock
 62
     0
100
AcDbPoint
 10
437.9915563438363
 20
263.9622989768515
 30
0.0
  0
LINE
  5
FF7
330
18
100
AcDbEntity
  8
外形線
  6
Continuous
100
AcDbLine
 10
425.4625889969323
 20
311.4622989768515
 30
0.0
 11
425.4625889969323
 21
265.4622989768515
 31
0.0
  0
LINE
  5
FF8
330
18
100
AcDbEntity
  8
外形線
100
AcDbLine
 10
424.3625889969325
 20
311.4622989768515
 30
0.0
 11
425.4625889969323
 21
311.4622989768515
 31
0.0
  0
LINE
  5
FF9
330
18
100
AcDbEntity
  8
外形線
100
AcDbLine
 10
424.3625889969324
 20
265.4622989768515
 30
0.0
 11
425.4625889969323
 21
265.4622989768515
 31
0.0
  0
POINT
  5
100E
330
18
100
AcDbEntity
  8
DEFPOINTS
  6
ByBlock
 62
     0
100
AcDbPoint
 10
425.4625889969323
 20
311.4622989768515
 30
0.0
  0
MTEXT
  5
13D2
330
18
100
AcDbEntity
  8
DEFPOINTS
  6
Continuous
100
AcDbMText
 10
1236.255313500774
 20
410.7784228578957
 30
0.0
 40
1.0
 41
0.0
 71
     4
 72
     1
  1
\A1;
 73
     1
 44
1.0
  0
MTEXT
  5
142F
330
18
100
AcDbEntity
  8
文字
100
AcDbMText
 10
803.3945230587734
 20
436.8564050961298
 30
0.0
 40
1.0
 41
6.927999999999999
 71
     1
 72
     5
  1

  7
STYLE3
 73
     1
 44
1.0
  0
MTEXT
  5
14AC
330
18
100
AcDbEntity
  8
DEFPOINTS
  6
Continuous
100
AcDbMText
 10
1125.130332713915
 20
360.1039563835807
 30
0.0
 40
0.35
 41
0.0
 71
     4
 72
     1
  1
\A1;
 73
     1
 44
1.0
  0
POINT
  5
1644
330
18
100
AcDbEntity
  8
DEFPOINTS
  6
ByBlock
 62
     0
100
AcDbPoint
 10
403.3625889969323
 20
288.4622989768515
 30
0.0
  0
POINT
  5
1645
330
18
100
AcDbEntity
  8
DEFPOINTS
  6
ByBlock
 62
     0
100
AcDbPoint
 10
417.8625889969323
 20
329.9622989768515
 30
0.0
  0
TEXT
  5
18E5
330
18
100
AcDbEntity
  8
文字
100
AcDbText
 10
340.0912707745663
 20
292.7188439398028
 30
0.0
 40
2.5
  1
20
  7
STYLE3
100
AcDbText
  0
TEXT
  5
18ED
330
18
100
AcDbEntity
  8
文字
100
AcDbText
 10
306.9719208251541
 20
281.0276663730014
 30
0.0
 40
2.5
  1
30
  7
STYLE3
100
AcDbText
  0
TEXT
  5
18EE
330
18
100
AcDbEntity
  8
文字
100
AcDbText
 10
306.6714239278699
 20
293.2237270524101
 30
0.0
 40
2.5
  1
20
  7
STYLE3
100
AcDbText
  0
TEXT
  5
18EF
330
18
100
AcDbEntity
  8
文字
100
AcDbText
 10
312.6852566829529
 20
301.6237968516049
 30
0.0
 40
2.5
  1
10
  7
STYLE3
100
AcDbText
  0
MTEXT
  5
18F1
330
18
100
AcDbEntity
  8
DEFPOINTS
  6
Continuous
100
AcDbMText
 10
1172.470139544913
 20
240.188441215189
 30
0.0
 40
1.0
 41
0.0
 71
     4
 72
     1
  1
\A1;
 73
     1
 44
1.0
  0
LINE
  5
1A1B
330
18
100
AcDbEntity
  8
外形線
100
AcDbLine
 10
322.8264565446822
 20
232.0622989768515
 30
0.0
 11
328.8264565446822
 21
232.0622989768515
 31
0.0
  0
ARC
  5
1A27
330
18
100
AcDbEntity
  8
外形線
100
AcDbCircle
 10
322.8264565446822
 20
233.0622989768516
 30
0.0
 40
1.0
100
AcDbArc
 50
180.0
 51
270.0
  0
ARC
  5
1A29
330
18
100
AcDbEntity
  8
外形線
100
AcDbCircle
 10
328.8264565446822
 20
233.0622989768516
 30
0.0
 40
1.0
100
AcDbArc
 50
270.0
 51
0.0
  0
LINE
  5
1A2A
330
18
100
AcDbEntity
  8
外形線
100
AcDbLine
 10
327.8264565446823
 20
232.0622989768515
 30
0.0
 11
327.8264565446822
 21
228.0622989768516
 31
0.0
  0
LINE
  5
1A2B
330
18
100
AcDbEntity
  8
外形線
100
AcDbLine
 10
323.8264565446822
 20
232.0622989768515
 30
0.0
 11
323.8264565446822
 21
228.0622989768515
 31
0.0
  0
LINE
  5
1A2C
330
18
100
AcDbEntity
  8
外形線
100
AcDbLine
 10
323.8264565446822
 20
228.0622989768515
 30
0.0
 11
327.8264565446823
 21
228.0622989768516
 31
0.0
  0
LINE
  5
1A36
330
18
100
AcDbEntity
  8
外形線
100
AcDbLine
 10
413.8625889969324
 20
263.9622989768515
 30
0.0
 11
413.8625889969324
 21
233.0622989768516
 31
0.0
  0
LINE
  5
1A37
330
18
100
AcDbEntity
  8
外形線
100
AcDbLine
 10
421.8625889969324
 20
263.9622989768515
 30
0.0
 11
421.8625889969324
 21
233.0622989768516
 31
0.0
  0
LINE
  5
1A38
330
18
100
AcDbEntity
  8
外形線
100
AcDbLine
 10
419.8625889969325
 20
232.0622989768515
 30
0.0
 11
419.8625889969323
 21
228.0622989768515
 31
0.0
  0
LINE
  5
1A39
330
18
100
AcDbEntity
  8
外形線
100
AcDbLine
 10
415.8625889969324
 20
232.0622989768515
 30
0.0
 11
415.8625889969324
 21
228.0622989768515
 31
0.0
  0
LINE
  5
1A3D
330
18
100
AcDbEntity
  8
外形線
100
AcDbLine
 10
414.8625889969324
 20
232.0622989768515
 30
0.0
 11
420.8625889969324
 21
232.0622989768515
 31
0.0
  0
ARC
  5
1A40
330
18
100
AcDbEntity
  8
外形線
100
AcDbCircle
 10
414.8625889969324
 20
233.0622989768516
 30
0.0
 40
1.0
100
AcDbArc
 50
180.0
 51
270.0
  0
ARC
  5
1A41
330
18
100
AcDbEntity
  8
外形線
100
AcDbCircle
 10
420.8625889969324
 20
233.0622989768516
 30
0.0
 40
1.0
100
AcDbArc
 50
270.0
 51
0.0
  0
INSERT
  5
1A42
330
18
100
AcDbEntity
  8
0
  6
ByBlock
 62
     2
100
AcDbBlockReference
  2
_OPEN
 10
421.8625889969324
 20
245.9015947557615
 30
0.0
 41
2.5
 42
2.5
 43
2.5
  0
MTEXT
  5
1A43
330
18
100
AcDbEntity
  8
0
  6
ByBlock
 62
     6
100
AcDbMText
 10
418.6736914870736
 20
247.7765947557616
 30
0.0
 40
2.5
 41
0.0
 71
     5
 72
     1
  1
8.0
  7
STYLE3
 73
     1
 44
1.0
  0
INSERT
  5
1A44
330
18
100
AcDbEntity
  8
0
  6
ByBlock
 62
     2
100
AcDbBlockReference
  2
_OPEN
 10
413.8625889969324
 20
245.9015947557615
 30
0.0
 41
2.5
 42
2.5
 43
2.5
 50
180.0
  0
POINT
  5
1A45
330
18
100
AcDbEntity
  8
DEFPOINTS
  6
ByBlock
 62
     0
100
AcDbPoint
 10
413.8625889969324
 20
245.3342918784928
 30
0.0
  0
LINE
  5
1A46
330
18
100
AcDbEntity
  8
0
  6
ByBlock
 62
     2
100
AcDbLine
 10
416.3625889969324
 20
245.9015947557615
 30
0.0
 11
419.3625889969324
 21
245.9015947557615
 31
0.0
  0
TEXT
  5
1A47
330
18
100
AcDbEntity
  8
文字
100
AcDbText
 10
413.799056936566
 20
247.8439169901762
 30
0.0
 40
2.5
  1
φ
  7
STYLE3
100
AcDbText
  0
POINT
  5
1AB6
330
18
100
AcDbEntity
  8
DEFPOINTS
  6
ByBlock
 62
     0
100
AcDbPoint
 10
415.8625889969324
 20
228.0622989768515
 30
0.0
  0
LINE
  5
1AB9
330
18
100
AcDbEntity
  8
0
  6
ByBlock
 62
     2
100
AcDbLine
 10
405.5050158869605
 20
232.0622989768515
 30
0.0
 11
396.5372687645618
 21
232.0622989768515
 31
0.0
  0
POINT
  5
1AC1
330
18
100
AcDbEntity
  8
DEFPOINTS
  6
ByBlock
 62
     0
100
AcDbPoint
 10
405.5050158869605
 20
232.0622989768515
 30
0.0
  0
POINT
  5
1AC2
330
18
100
AcDbEntity
  8
DEFPOINTS
  6
ByBlock
 62
     0
100
AcDbPoint
 10
415.8625889969324
 20
228.0622989768515
 30
0.0
  0
LINE
  5
1B4C
330
18
100
AcDbEntity
  8
目盛
100
AcDbLine
 10
337.7584971662193
 20
272.03925399104
 30
0.0
 11
339.345517347409
 21
269.8549081062276
 31
0.0
  0
LINE
  5
1B55
330
18
100
AcDbEntity
  8
目盛
100
AcDbLine
 10
339.4035875263292
 20
272.0503669057271
 30
0.0
 11
340.487208308902
 21
270.7404943930083
 31
0.0
  0
LINE
  5
1B56
330
18
100
AcDbEntity
  8
目盛
100
AcDbLine
 10
340.4073099009632
 20
272.9352672127754
 30
0.0
 11
341.571039981042
 21
271.6960205461589
 31
0.0
  0
LINE
  5
1B57
330
18
100
AcDbEntity
  8
目盛
100
AcDbLine
 10
341.3534883087582
 20
273.8814456205704
 30
0.0
 11
342.5927349753746
 21
272.7177155404916
 31
0.0
  0
LINE
  5
1B58
330
18
100
AcDbEntity
  8
目盛
100
AcDbLine
 10
342.2383886158065
 20
274.8851679952044
 30
0.0
 11
343.5482611285253
 21
273.8015472126315
 31
0.0
  0
LINE
  5
1BA5
330
18
100
AcDbEntity
  8
目盛
100
AcDbLine
 10
344.4917888296165
 20
278.2009457184849
 30
0.0
 11
345.981510185691
 21
277.3819644725119
 31
0.0
  0
LINE
  5
1BA6
330
18
100
AcDbEntity
  8
目盛
100
AcDbLine
 10
345.0992727622084
 20
279.3932000665154
 30
0.0
 11
346.6374787514006
 21
278.6693752708547
 31
0.0
  0
LINE
  5
1BA7
330
18
100
AcDbEntity
  8
目盛
100
AcDbLine
 10
343.8106413578751
 20
277.0491882437988
 30
0.0
 11
345.2459988312285
 21
276.1382826923345
 31
0.0
  0
LINE
  5
1BA8
330
18
100
AcDbEntity
  8
目盛
100
AcDbLine
 10
342.2495015304936
 20
276.5302583553142
 30
0.0
 11
344.433847415306
 21
274.9432381741245
 31
0.0
  0
LINE
  5
1BA9
330
18
100
AcDbEntity
  8
目盛
100
AcDbLine
 10
345.6306956941019
 20
280.6212460046678
 30
0.0
 11
347.2113157201119
 21
279.9954342651038
 31
0.0
  0
LINE
  5
1BAA
330
18
100
AcDbEntity
  8
目盛
100
AcDbLine
 10
346.7491749852034
 20
284.4710769761755
 30
0.0
 11
348.4190633114421
 21
284.1525287413797
 31
0.0
  0
LINE
  5
1BAB
330
18
100
AcDbEntity
  8
目盛
100
AcDbLine
 10
346.9584996826806
 20
285.7927011019318
 30
0.0
 11
348.6450946749152
 21
285.5796346048724
 31
0.0
  0
LINE
  5
1BAC
330
18
100
AcDbEntity
  8
目盛
100
AcDbLine
 10
346.457277876722
 20
283.1652043802399
 30
0.0
 11
348.1038692506407
 21
282.7424315720598
 31
0.0
  0
LINE
  5
1BAD
330
18
100
AcDbEntity
  8
目盛
100
AcDbLine
 10
345.1329038254739
 20
282.1892539910399
 30
0.0
 11
347.7007564194707
 21
281.3549081062276
 31
0.0
  0
LINE
  5
1BAE
330
18
100
AcDbEntity
  8
目盛
100
AcDbLine
 10
347.0844258602044
 20
287.124860910877
 30
0.0
 11
348.7810712985324
 21
287.0181170276771
 31
0.0
  0
LINE
  5
1BAF
330
18
100
AcDbEntity
  8
目盛
100
AcDbLine
 10
346.9584996826806
 20
291.1318968517711
 30
0.0
 11
348.6450946749152
 21
291.3449633488303
 31
0.0
  0
LINE
  5
1BB0
330
18
100
AcDbEntity
  8
目盛
100
AcDbLine
 10
346.7491749852033
 20
292.4535209775274
 30
0.0
 11
348.4190633114421
 21
292.772069212323
 31
0.0
  0
LINE
  5
1BB1
330
18
100
AcDbEntity
  8
目盛
100
AcDbLine
 10
347.0844258602044
 20
289.7997370428257
 30
0.0
 11
348.7810712985324
 21
289.9064809260256
 31
0.0
  0
LINE
  5
1BB2
330
18
100
AcDbEntity
  8
目盛
100
AcDbLine
 10
346.1264565446823
 20
288.4622989768514
 30
0.0
 11
348.8264565446822
 21
288.4622989768514
 31
0.0
  0
LINE
  5
1BB3
330
18
100
AcDbEntity
  8
目盛
100
AcDbLine
 10
346.457277876722
 20
293.7593935734629
 30
0.0
 11
348.1038692506408
 21
294.182166381643
 31
0.0
  0
LINE
  5
1BB4
330
18
100
AcDbEntity
  8
目盛
100
AcDbLine
 10
345.0992727622085
 20
297.5313978871875
 30
0.0
 11
346.6374787514007
 21
298.255222682848
 31
0.0
  0
LINE
  5
1BB5
330
18
100
AcDbEntity
  8
目盛
100
AcDbLine
 10
344.4917888296166
 20
298.723652235218
 30
0.0
 11
345.9815101856912
 21
299.5426334811908
 31
0.0
  0
LINE
  5
1BB6
330
18
100
AcDbEntity
  8
目盛
100
AcDbLine
 10
345.630695694102
 20
296.303351949035
 30
0.0
 11
347.2113157201121
 21
296.9291636885989
 31
0.0
  0
LINE
  5
1BB7
330
18
100
AcDbEntity
  8
目盛
100
AcDbLine
 10
345.1329038254739
 20
294.7353439626628
 30
0.0
 11
347.7007564194708
 21
295.5696898474752
 31
0.0
  0
LINE
  5
1BB8
330
18
100
AcDbEntity
  8
目盛
100
AcDbLine
 10
343.8106413578752
 20
299.875409709904
 30
0.0
 11
345.2459988312287
 21
300.7863152613682
 31
0.0
  0
LINE
  5
1BB9
330
18
100
AcDbEntity
  8
目盛
100
AcDbLine
 10
341.3534883087584
 20
303.0431523331325
 30
0.0
 11
342.5927349753749
 21
304.2068824132112
 31
0.0
  0
LINE
  5
1BBA
330
18
100
AcDbEntity
  8
目盛
100
AcDbLine
 10
340.4073099009634
 20
303.9893307409275
 30
0.0
 11
341.5710399810422
 21
305.2285774075439
 31
0.0
  0
LINE
  5
1BBB
330
18
100
AcDbEntity
  8
目盛
100
AcDbLine
 10
342.2383886158067
 20
302.0394299584985
 30
0.0
 11
343.5482611285255
 21
303.1230507410713
 31
0.0
  0
LINE
  5
1BBC
330
18
100
AcDbEntity
  8
目盛
100
AcDbLine
 10
342.2495015304938
 20
300.3943395983886
 30
0.0
 11
344.4338474153062
 21
301.9813597795783
 31
0.0
  0
LINE
  5
1BBD
330
18
100
AcDbEntity
  8
目盛
100
AcDbLine
 10
339.4035875263294
 20
304.8742310479757
 30
0.0
 11
340.4872083089023
 21
306.1841035606946
 31
0.0
  0
LINE
  5
1BBE
330
18
100
AcDbEntity
  8
目盛
100
AcDbLine
 10
336.0878098030488
 20
307.1276312617858
 30
0.0
 11
336.9067910490218
 21
308.6173526178603
 31
0.0
  0
LINE
  5
1BBF
330
18
100
AcDbEntity
  8
目盛
100
AcDbLine
 10
334.8955554550183
 20
307.7351151943777
 30
0.0
 11
335.619380250679
 21
309.2733211835699
 31
0.0
  0
LINE
  5
1BC0
330
18
100
AcDbEntity
  8
目盛
100
AcDbLine
 10
337.239567277735
 20
306.4464837900443
 30
0.0
 11
338.1504728291992
 21
307.8818412633978
 31
0.0
  0
LINE
  5
1BC1
330
18
100
AcDbEntity
  8
目盛
100
AcDbLine
 10
337.7584971662195
 20
304.8853439626628
 30
0.0
 11
339.3455173474092
 21
307.0696898474752
 31
0.0
  0
LINE
  5
1BC2
330
18
100
AcDbEntity
  8
目盛
100
AcDbLine
 10
333.667509516866
 20
308.2665381262712
 30
0.0
 11
334.2933212564299
 21
309.8471581522812
 31
0.0
  0
LINE
  5
1BC3
330
18
100
AcDbEntity
  8
目盛
100
AcDbLine
 10
329.8176785453583
 20
309.3850174173726
 30
0.0
 11
330.1362267801541
 21
311.0549057436113
 31
0.0
  0
LINE
  5
1BC4
330
18
100
AcDbEntity
  8
目盛
100
AcDbLine
 10
328.4960544196021
 20
309.5943421148499
 30
0.0
 11
328.7091209166614
 21
311.2809371070845
 31
0.0
  0
LINE
  5
1BC5
330
18
100
AcDbEntity
  8
目盛
100
AcDbLine
 10
331.1235511412939
 20
309.0931203088914
 30
0.0
 11
331.5463239494741
 21
310.73971168281
 31
0.0
  0
LINE
  5
1BC6
330
18
100
AcDbEntity
  8
目盛
100
AcDbLine
 10
332.0995015304939
 20
307.7687462576431
 30
0.0
 11
332.9338474153062
 21
310.3365988516399
 31
0.0
  0
LINE
  5
1BC7
330
18
100
AcDbEntity
  8
目盛
100
AcDbLine
 10
327.1638946106567
 20
309.7202682923736
 30
0.0
 11
327.2706384938566
 21
311.4169137307018
 31
0.0
  0
LINE
  5
1BC8
330
18
100
AcDbEntity
  8
目盛
100
AcDbLine
 10
323.1568586697627
 20
309.5943421148499
 30
0.0
 11
322.9437921727033
 21
311.2809371070845
 31
0.0
  0
LINE
  5
1BC9
330
18
100
AcDbEntity
  8
目盛
100
AcDbLine
 10
321.8352345440063
 20
309.3850174173726
 30
0.0
 11
321.5166863092107
 21
311.0549057436114
 31
0.0
  0
LINE
  5
1BCA
330
18
100
AcDbEntity
  8
目盛
100
AcDbLine
 10
324.489018478708
 20
309.7202682923737
 30
0.0
 11
324.3822745955081
 21
311.4169137307018
 31
0.0
  0
LINE
  5
1BCB
330
18
100
AcDbEntity
  8
目盛
100
AcDbLine
 10
325.8264565446824
 20
308.7622989768516
 30
0.0
 11
325.8264565446824
 21
311.4622989768515
 31
0.0
  0
LINE
  5
1BCC
330
18
100
AcDbEntity
  8
目盛
100
AcDbLine
 10
320.5293619480709
 20
309.0931203088914
 30
0.0
 11
320.1065891398907
 21
310.7397116828101
 31
0.0
  0
LINE
  5
1BCD
330
18
100
AcDbEntity
  8
目盛
100
AcDbLine
 10
316.7573576343463
 20
307.7351151943778
 30
0.0
 11
316.0335328386858
 21
309.2733211835701
 31
0.0
  0
LINE
  5
1BCE
330
18
100
AcDbEntity
  8
目盛
100
AcDbLine
 10
315.5651032863158
 20
307.1276312617859
 30
0.0
 11
314.7461220403429
 21
308.6173526178605
 31
0.0
  0
LINE
  5
1BCF
330
18
100
AcDbEntity
  8
目盛
100
AcDbLine
 10
317.9854035724988
 20
308.2665381262713
 30
0.0
 11
317.3595918329348
 21
309.8471581522813
 31
0.0
  0
LINE
  5
1BD0
330
18
100
AcDbEntity
  8
目盛
100
AcDbLine
 10
319.553411558871
 20
307.7687462576433
 30
0.0
 11
318.7190656740586
 21
310.3365988516401
 31
0.0
  0
LINE
  5
1BD1
330
18
100
AcDbEntity
  8
目盛
100
AcDbLine
 10
314.4133458116297
 20
306.4464837900445
 30
0.0
 11
313.5024402601655
 21
307.881841263398
 31
0.0
  0
LINE
  5
1BD2
330
18
100
AcDbEntity
  8
目盛
100
AcDbLine
 10
311.2456031884013
 20
303.9893307409277
 30
0.0
 11
310.0818731083226
 21
305.2285774075441
 31
0.0
  0
LINE
  5
1BD3
330
18
100
AcDbEntity
  8
目盛
100
AcDbLine
 10
310.2994247806063
 20
303.0431523331327
 30
0.0
 11
309.0601781139899
 21
304.2068824132115
 31
0.0
  0
LINE
  5
1BD4
330
18
100
AcDbEntity
  8
目盛
100
AcDbLine
 10
312.2493255630353
 20
304.874231047976
 30
0.0
 11
311.1657047804625
 21
306.1841035606948
 31
0.0
  0
LINE
  5
1BD5
330
18
100
AcDbEntity
  8
目盛
100
AcDbLine
 10
313.8944159231452
 20
304.8853439626631
 30
0.0
 11
312.3073957419555
 21
307.0696898474754
 31
0.0
  0
LINE
  5
1BD6
330
18
100
AcDbEntity
  8
目盛
100
AcDbLine
 10
309.4145244735581
 20
302.0394299584987
 30
0.0
 11
308.1046519608392
 21
303.1230507410715
 31
0.0
  0
LINE
  5
1BD7
330
18
100
AcDbEntity
  8
目盛
100
AcDbLine
 10
307.161124259748
 20
298.7236522352181
 30
0.0
 11
305.6714029036735
 21
299.5426334811912
 31
0.0
  0
LINE
  5
1BD8
330
18
100
AcDbEntity
  8
目盛
100
AcDbLine
 10
306.5536403271561
 20
297.5313978871877
 30
0.0
 11
305.0154343379639
 21
298.2552226828484
 31
0.0
  0
LINE
  5
1BD9
330
18
100
AcDbEntity
  8
目盛
100
AcDbLine
 10
307.8422717314895
 20
299.8754097099043
 30
0.0
 11
306.406914258136
 21
300.7863152613686
 31
0.0
  0
LINE
  5
1BDA
330
18
100
AcDbEntity
  8
目盛
100
AcDbLine
 10
309.403411558871
 20
300.3943395983889
 30
0.0
 11
307.2190656740586
 21
301.9813597795785
 31
0.0
  0
LINE
  5
1BDB
330
18
100
AcDbEntity
  8
目盛
100
AcDbLine
 10
306.0222173952626
 20
296.3033519490353
 30
0.0
 11
304.4415973692526
 21
296.9291636885993
 31
0.0
  0
LINE
  5
1BDC
330
18
100
AcDbEntity
  8
目盛
100
AcDbLine
 10
304.9037381041612
 20
292.4535209775275
 30
0.0
 11
303.2338497779224
 21
292.7720692123233
 31
0.0
  0
LINE
  5
1BDD
330
18
100
AcDbEntity
  8
目盛
100
AcDbLine
 10
304.6944134066838
 20
291.1318968517712
 30
0.0
 11
303.0078184144493
 21
291.3449633488306
 31
0.0
  0
LINE
  5
1BDE
330
18
100
AcDbEntity
  8
目盛
100
AcDbLine
 10
305.1956352126425
 20
293.759393573463
 30
0.0
 11
303.5490438387238
 21
294.1821663816432
 31
0.0
  0
LINE
  5
1BDF
330
18
100
AcDbEntity
  8
目盛
100
AcDbLine
 10
306.5200092638907
 20
294.735343962663
 30
0.0
 11
303.9521566698937
 21
295.5696898474755
 31
0.0
  0
LINE
  5
1BE0
330
18
100
AcDbEntity
  8
目盛
100
AcDbLine
 10
304.5684872291602
 20
289.7997370428259
 30
0.0
 11
302.871841790832
 21
289.9064809260258
 31
0.0
  0
LINE
  5
1BE1
330
18
100
AcDbEntity
  8
目盛
100
AcDbLine
 10
304.6944134066838
 20
285.792701101932
 30
0.0
 11
303.0078184144492
 21
285.5796346048726
 31
0.0
  0
LINE
  5
1BE2
330
18
100
AcDbEntity
  8
目盛
100
AcDbLine
 10
304.9037381041612
 20
284.4710769761757
 30
0.0
 11
303.2338497779224
 21
284.15252874138
 31
0.0
  0
LINE
  5
1BE3
330
18
100
AcDbEntity
  8
目盛
100
AcDbLine
 10
304.56848722916
 20
287.1248609108773
 30
0.0
 11
302.871841790832
 21
287.0181170276774
 31
0.0
  0
LINE
  5
1BE4
330
18
100
AcDbEntity
  8
目盛
100
AcDbLine
 10
305.5264565446822
 20
288.4622989768517
 30
0.0
 11
302.8264565446822
 21
288.4622989768518
 31
0.0
  0
LINE
  5
1BE5
330
18
100
AcDbEntity
  8
目盛
100
AcDbLine
 10
305.1956352126424
 20
283.1652043802403
 30
0.0
 11
303.5490438387237
 21
282.74243157206
 31
0.0
  0
LINE
  5
1BE6
330
18
100
AcDbEntity
  8
目盛
100
AcDbLine
 10
306.5536403271559
 20
279.3932000665156
 30
0.0
 11
305.0154343379637
 21
278.669375270855
 31
0.0
  0
LINE
  5
1BE7
330
18
100
AcDbEntity
  8
目盛
100
AcDbLine
 10
307.1611242597478
 20
278.2009457184851
 30
0.0
 11
305.6714029036732
 21
277.3819644725123
 31
0.0
  0
LINE
  5
1BE8
330
18
100
AcDbEntity
  8
目盛
100
AcDbLine
 10
306.0222173952624
 20
280.6212460046681
 30
0.0
 11
304.4415973692524
 21
279.9954342651041
 31
0.0
  0
LINE
  5
1BE9
330
18
100
AcDbEntity
  8
目盛
100
AcDbLine
 10
306.5200092638905
 20
282.1892539910402
 30
0.0
 11
303.9521566698936
 21
281.3549081062279
 31
0.0
  0
LINE
  5
1BEA
330
18
100
AcDbEntity
  8
目盛
100
AcDbLine
 10
307.8422717314893
 20
277.049188243799
 30
0.0
 11
306.4069142581358
 21
276.1382826923348
 31
0.0
  0
LINE
  5
1BEB
330
18
100
AcDbEntity
  8
目盛
100
AcDbLine
 10
310.2994247806061
 20
273.8814456205705
 30
0.0
 11
309.0601781139897
 21
272.7177155404918
 31
0.0
  0
LINE
  5
1BEC
330
18
100
AcDbEntity
  8
目盛
100
AcDbLine
 10
311.2456031884011
 20
272.9352672127755
 30
0.0
 11
310.0818731083223
 21
271.6960205461592
 31
0.0
  0
LINE
  5
1BED
330
18
100
AcDbEntity
  8
目盛
100
AcDbLine
 10
309.4145244735579
 20
274.8851679952045
 30
0.0
 11
308.104651960839
 21
273.8015472126317
 31
0.0
  0
LINE
  5
1BEE
330
18
100
AcDbEntity
  8
目盛
100
AcDbLine
 10
309.4034115588707
 20
276.5302583553144
 30
0.0
 11
307.2190656740584
 21
274.9432381741248
 31
0.0
  0
LINE
  5
1BEF
330
18
100
AcDbEntity
  8
目盛
100
AcDbLine
 10
312.2493255630351
 20
272.0503669057273
 30
0.0
 11
311.1657047804623
 21
270.7404943930085
 31
0.0
  0
LINE
  5
1BF3
330
18
100
AcDbEntity
  8
目盛
100
AcDbLine
 10
313.894415923145
 20
272.0392539910402
 30
0.0
 11
312.3073957419553
 21
269.8549081062278
 31
0.0
  0
TEXT
  5
1BF7
330
18
100
AcDbEntity
  8
文字
100
AcDbText
 10
340.1095284192262
 20
281.4190976753753
 30
0.0
 40
2.5
  1
30
  7
STYLE3
100
AcDbText
  0
TEXT
  5
1BF8
330
18
100
AcDbEntity
  8
文字
100
AcDbText
 10
333.9147615529386
 20
301.8062716475512
 30
0.0
 40
2.5
  1
10
  7
STYLE3
100
AcDbText
  0
TEXT
  5
1BF9
330
18
100
AcDbEntity
  8
文字
100
AcDbText
 10
324.6223098255895
 20
305.7818417111357
 30
0.0
 40
2.5
  1
0
  7
STYLE3
100
AcDbText
  0
POINT
  5
1C12
330
18
100
AcDbEntity
  8
DEFPOINTS
  6
ByBlock
 62
     0
100
AcDbPoint
 10
339.345517347409
 20
269.8549081062276
 30
0.0
  0
POINT
  5
1C13
330
18
100
AcDbEntity
  8
DEFPOINTS
  6
ByBlock
 62
     0
100
AcDbPoint
 10
312.3073957419555
 20
269.8549081062277
 30
0.0
  0
LINE
  5
1C7A
330
18
100
AcDbEntity
  8
外形線
100
AcDbLine
 10
424.3625889969325
 20
312.9622989768515
 30
0.0
 11
424.3625889969324
 21
263.9622989768515
 31
0.0
  0
LINE
  5
1D05
330
18
100
AcDbEntity
  8
0
  6
ByBlock
 62
     2
100
AcDbLine
 10
424.3625889969325
 20
312.9622989768515
 30
0.0
 11
424.3625889969325
 21
338.9151173458846
 31
0.0
  0
LINE
  5
1D06
330
18
100
AcDbEntity
  8
0
  6
ByBlock
 62
     2
100
AcDbLine
 10
420.3625889969323
 20
337.6651173458847
 30
0.0
 11
421.8625889969325
 21
337.6651173458847
 31
0.0
  0
INSERT
  5
1D07
330
18
100
AcDbEntity
  8
0
  6
ByBlock
 62
     2
100
AcDbBlockReference
  2
_OPEN
 10
417.8625889969324
 20
337.6651173458847
 30
0.0
 41
2.5
 42
2.5
 43
2.5
 50
180.0
  0
INSERT
  5
1D08
330
18
100
AcDbEntity
  8
0
  6
ByBlock
 62
     2
100
AcDbBlockReference
  2
_OPEN
 10
424.3625889969325
 20
337.6651173458847
 30
0.0
 41
2.5
 42
2.5
 43
2.5
  0
MTEXT
  5
1D09
330
18
100
AcDbEntity
  8
0
  6
ByBlock
 62
     6
100
AcDbMText
 10
421.1125889969324
 20
339.5401173458846
 30
0.0
 40
2.5
 41
0.0
 71
     5
 72
     1
  1
\A1;6.5
  7
STYLE3
 73
     1
 44
1.0
  0
POINT
  5
1D0A
330
18
100
AcDbEntity
  8
DEFPOINTS
  6
ByBlock
 62
     0
100
AcDbPoint
 10
417.8625889969324
 20
329.9622989768515
 30
0.0
  0
POINT
  5
1D0B
330
18
100
AcDbEntity
  8
DEFPOINTS
  6
ByBlock
 62
     0
100
AcDbPoint
 10
424.3625889969325
 20
312.9622989768515
 30
0.0
  0
POINT
  5
1D0C
330
18
100
AcDbEntity
  8
DEFPOINTS
  6
ByBlock
 62
     0
100
AcDbPoint
 10
424.3625889969325
 20
337.6651173458847
 30
0.0
  0
LINE
  5
1D0F
330
18
100
AcDbEntity
  8
0
  6
ByBlock
 62
     2
100
AcDbLine
 10
403.3625889969323
 20
288.4622989768515
 30
0.0
 11
403.3625889969323
 21
338.9151173458846
 31
0.0
  0
LINE
  5
1D10
330
18
100
AcDbEntity
  8
0
  6
ByBlock
 62
     2
100
AcDbLine
 10
417.8625889969324
 20
329.9622989768515
 30
0.0
 11
417.8625889969324
 21
338.9151173458846
 31
0.0
  0
LINE
  5
1D11
330
18
100
AcDbEntity
  8
0
  6
ByBlock
 62
     2
100
AcDbLine
 10
405.8625889969323
 20
337.6651173458847
 30
0.0
 11
415.3625889969323
 21
337.6651173458847
 31
0.0
  0
INSERT
  5
1D12
330
18
100
AcDbEntity
  8
0
  6
ByBlock
 62
     2
100
AcDbBlockReference
  2
_OPEN
 10
403.3625889969323
 20
337.6651173458847
 30
0.0
 41
2.5
 42
2.5
 43
2.5
 50
180.0
  0
INSERT
  5
1D13
330
18
100
AcDbEntity
  8
0
  6
ByBlock
 62
     2
100
AcDbBlockReference
  2
_OPEN
 10
417.8625889969324
 20
337.6651173458847
 30
0.0
 41
2.5
 42
2.5
 43
2.5
  0
MTEXT
  5
1D14
330
18
100
AcDbEntity
  8
0
  6
ByBlock
 62
     6
100
AcDbMText
 10
410.6125889969323
 20
339.5401173458846
 30
0.0
 40
2.5
 41
0.0
 71
     5
 72
     1
  1
\A1;14.5
  7
STYLE3
 73
     1
 44
1.0
  0
POINT
  5
1D15
330
18
100
AcDbEntity
  8
DEFPOINTS
  6
ByBlock
 62
     0
100
AcDbPoint
 10
403.3625889969323
 20
288.4622989768515
 30
0.0
  0
POINT
  5
1D16
330
18
100
AcDbEntity
  8
DEFPOINTS
  6
ByBlock
 62
     0
100
AcDbPoint
 10
417.8625889969324
 20
329.9622989768515
 30
0.0
  0
POINT
  5
1D17
330
18
100
AcDbEntity
  8
DEFPOINTS
  6
ByBlock
 62
     0
100
AcDbPoint
 10
417.8625889969324
 20
337.6651173458847
 30
0.0
  0
LINE
  5
1D18
330
18
100
AcDbEntity
  8
0
  6
ByBlock
 62
     2
100
AcDbLine
 10
407.5625889969324
 20
314.8622989768515
 30
0.0
 11
391.2285852634789
 21
314.8622989768515
 31
0.0
  0
LINE
  5
1D19
330
18
100
AcDbEntity
  8
0
  6
ByBlock
 62
     2
100
AcDbLine
 10
407.5625889969324
 20
262.0622989768516
 30
0.0
 11
391.2285852634789
 21
262.0622989768516
 31
0.0
  0
LINE
  5
1D1A
330
18
100
AcDbEntity
  8
0
  6
ByBlock
 62
     2
100
AcDbLine
 10
392.4785852634789
 20
312.3622989768515
 30
0.0
 11
392.4785852634789
 21
264.5622989768515
 31
0.0
  0
INSERT
  5
1D1B
330
18
100
AcDbEntity
  8
0
  6
ByBlock
 62
     2
100
AcDbBlockReference
  2
_OPEN
 10
392.4785852634789
 20
314.8622989768515
 30
0.0
 41
2.5
 42
2.5
 43
2.5
 50
90.0
  0
INSERT
  5
1D1C
330
18
100
AcDbEntity
  8
0
  6
ByBlock
 62
     2
100
AcDbBlockReference
  2
_OPEN
 10
392.4785852634789
 20
262.0622989768516
 30
0.0
 41
2.5
 42
2.5
 43
2.5
 50
270.0
  0
MTEXT
  5
1D1D
330
18
100
AcDbEntity
  8
0
  6
ByBlock
 62
     6
100
AcDbMText
 10
390.6035852634789
 20
288.4622989768515
 30
0.0
 40
2.5
 41
0.0
 71
     5
 72
     1
  1
\A1;φ53
  7
STYLE3
 11
0.0000000000000001
 21
1.0
 31
0.0
 73
     1
 44
1.0
  0
POINT
  5
1D1E
330
18
100
AcDbEntity
  8
DEFPOINTS
  6
ByBlock
 62
     0
100
AcDbPoint
 10
407.5625889969324
 20
314.8622989768515
 30
0.0
  0
POINT
  5
1D1F
330
18
100
AcDbEntity
  8
DEFPOINTS
  6
ByBlock
 62
     0
100
AcDbPoint
 10
407.5625889969324
 20
262.0622989768516
 30
0.0
  0
POINT
  5
1D20
330
18
100
AcDbEntity
  8
DEFPOINTS
  6
ByBlock
 62
     0
100
AcDbPoint
 10
392.4785852634789
 20
262.0622989768516
 30
0.0
  0
LINE
  5
1D23
330
18
100
AcDbEntity
  8
0
  6
ByBlock
 62
     2
100
AcDbLine
 10
323.8264565446822
 20
228.0622989768515
 30
0.0
 11
323.8264565446822
 21
230.9321177462837
 31
0.0
  0
LINE
  5
1D24
330
18
100
AcDbEntity
  8
0
  6
ByBlock
 62
     2
100
AcDbLine
 10
327.8264565446823
 20
228.0622989768516
 30
0.0
 11
327.8264565446823
 21
230.9321177462837
 31
0.0
  0
LINE
  5
1D25
330
18
100
AcDbEntity
  8
0
  6
ByBlock
 62
     2
100
AcDbLine
 10
321.3264565446822
 20
229.6821177462837
 30
0.0
 11
318.8264565446822
 21
229.6821177462837
 31
0.0
  0
LINE
  5
1D26
330
18
100
AcDbEntity
  8
0
  6
ByBlock
 62
     2
100
AcDbLine
 10
330.3264565446823
 20
229.6821177462837
 30
0.0
 11
338.7193136875394
 21
229.6821177462837
 31
0.0
  0
LINE
  5
1D27
330
18
100
AcDbEntity
  8
0
  6
ByBlock
 62
     2
100
AcDbLine
 10
323.8264565446822
 20
229.6821177462837
 30
0.0
 11
327.8264565446823
 21
229.6821177462837
 31
0.0
  0
INSERT
  5
1D28
330
18
100
AcDbEntity
  8
0
  6
ByBlock
 62
     2
100
AcDbBlockReference
  2
_OPEN
 10
323.8264565446822
 20
229.6821177462837
 30
0.0
 41
2.5
 42
2.5
 43
2.5
  0
INSERT
  5
1D29
330
18
100
AcDbEntity
  8
0
  6
ByBlock
 62
     2
100
AcDbBlockReference
  2
_OPEN
 10
327.8264565446823
 20
229.6821177462837
 30
0.0
 41
2.5
 42
2.5
 43
2.5
 50
180.0
  0
MTEXT
  5
1D2A
330
18
100
AcDbEntity
  8
0
  6
ByBlock
 62
     6
100
AcDbMText
 10
335.7728851161108
 20
231.5571177462837
 30
0.0
 40
2.5
 41
0.0
 71
     5
 72
     1
  1
\A1;φ4
  7
STYLE3
 73
     1
 44
1.0
  0
POINT
  5
1D2B
330
18
100
AcDbEntity
  8
DEFPOINTS
  6
ByBlock
 62
     0
100
AcDbPoint
 10
323.8264565446822
 20
228.0622989768515
 30
0.0
  0
POINT
  5
1D2C
330
18
100
AcDbEntity
  8
DEFPOINTS
  6
ByBlock
 62
     0
100
AcDbPoint
 10
327.8264565446823
 20
228.0622989768516
 30
0.0
  0
POINT
  5
1D2D
330
18
100
AcDbEntity
  8
DEFPOINTS
  6
ByBlock
 62
     0
100
AcDbPoint
 10
327.8264565446823
 20
229.6821177462837
 30
0.0
  0
LINE
  5
1D3D
330
18
100
AcDbEntity
  8
0
  6
ByBlock
 62
     2
100
AcDbLine
 10
415.8625889969324
 20
232.0622989768515
 30
0.0
 11
391.2285852634789
 21
232.0622989768515
 31
0.0
  0
LINE
  5
1D3E
330
18
100
AcDbEntity
  8
0
  6
ByBlock
 62
     2
100
AcDbLine
 10
392.4785852634789
 20
259.5622989768515
 30
0.0
 11
392.4785852634789
 21
234.5622989768515
 31
0.0
  0
INSERT
  5
1D3F
330
18
100
AcDbEntity
  8
0
  6
ByBlock
 62
     2
100
AcDbBlockReference
  2
_OPEN
 10
392.4785852634789
 20
262.0622989768516
 30
0.0
 41
2.5
 42
2.5
 43
2.5
 50
90.0
  0
INSERT
  5
1D40
330
18
100
AcDbEntity
  8
0
  6
ByBlock
 62
     2
100
AcDbBlockReference
  2
_OPEN
 10
392.4785852634789
 20
232.0622989768515
 30
0.0
 41
2.5
 42
2.5
 43
2.5
 50
270.0
  0
MTEXT
  5
1D41
330
18
100
AcDbEntity
  8
0
  6
ByBlock
 62
     6
100
AcDbMText
 10
390.6035852634789
 20
247.0622989768515
 30
0.0
 40
2.5
 41
0.0
 71
     5
 72
     1
  1
29.9
  7
STYLE3
 11
0.0000000000000001
 21
1.0
 31
0.0
 73
     1
 44
1.0
  0
POINT
  5
1D42
330
18
100
AcDbEntity
  8
DEFPOINTS
  6
ByBlock
 62
     0
100
AcDbPoint
 10
407.5625889969324
 20
262.0622989768516
 30
0.0
  0
POINT
  5
1D43
330
18
100
AcDbEntity
  8
DEFPOINTS
  6
ByBlock
 62
     0
100
AcDbPoint
 10
415.8625889969324
 20
232.0622989768515
 30
0.0
  0
POINT
  5
1D44
330
18
100
AcDbEntity
  8
DEFPOINTS
  6
ByBlock
 62
     0
100
AcDbPoint
 10
392.4785852634789
 20
232.0622989768515
 30
0.0
  0
POINT
  5
1D4A
330
18
100
AcDbEntity
  8
DEFPOINTS
  6
ByBlock
 62
     0
100
AcDbPoint
 10
415.8625889969324
 20
232.0622989768515
 30
0.0
  0
LINE
  5
1D55
330
18
100
AcDbEntity
  8
ﾊｯﾁﾝｸ
  6
Continuous
100
AcDbLine
 10
321.8264565446823
 20
322.2287927731492
 30
0.0
 11
322.0599627483845
 21
322.4622989768514
 31
0.0
  0
LINE
  5
1D56
330
18
100
AcDbEntity
  8
ﾊｯﾁﾝｸ
  6
Continuous
100
AcDbLine
 10
321.8264565446823
 20
320.4610258201828
 30
0.0
 11
323.8277297013508
 21
322.4622989768514
 31
0.0
  0
LINE
  5
1D57
330
18
100
AcDbEntity
  8
ﾊｯﾁﾝｸ
  6
Continuous
100
AcDbLine
 10
321.8264565446823
 20
318.6932588672165
 30
0.0
 11
325.5954966543172
 21
322.4622989768514
 31
0.0
  0
LINE
  5
1D58
330
18
100
AcDbEntity
  8
ﾊｯﾁﾝｸ
  6
Continuous
100
AcDbLine
 10
321.8264565446823
 20
316.9254919142501
 30
0.0
 11
325.8264565446823
 21
320.9254919142501
 31
0.0
  0
LINE
  5
1D59
330
18
100
AcDbEntity
  8
ﾊｯﾁﾝｸ
  6
Continuous
100
AcDbLine
 10
323.1310305602499
 20
316.4622989768514
 30
0.0
 11
325.8264565446823
 21
319.1577249612838
 31
0.0
  0
LINE
  5
1D5A
330
18
100
AcDbEntity
  8
ﾊｯﾁﾝｸ
  6
Continuous
100
AcDbLine
 10
324.8987975132163
 20
316.4622989768514
 30
0.0
 11
325.8264565446823
 21
317.3899580083173
 31
0.0
  0
LINE
  5
1D5B
330
18
100
AcDbEntity
  8
ﾊｯﾁﾝｸ
  6
Continuous
100
AcDbLine
 10
321.8780021910013
 20
316.4622989768513
 30
0.0
 11
321.8264565446823
 21
316.5138446231703
 31
0.0
  0
LINE
  5
1D5C
330
18
100
AcDbEntity
  8
ﾊｯﾁﾝｸ
  6
Continuous
100
AcDbLine
 10
323.6457691439676
 20
316.4622989768514
 30
0.0
 11
321.8264565446822
 21
318.2816115761367
 31
0.0
  0
LINE
  5
1D5D
330
18
100
AcDbEntity
  8
ﾊｯﾁﾝｸ
  6
Continuous
100
AcDbLine
 10
325.4135360969339
 20
316.4622989768514
 30
0.0
 11
321.8264565446822
 21
320.0493785291031
 31
0.0
  0
LINE
  5
1D5E
330
18
100
AcDbEntity
  8
ﾊｯﾁﾝｸ
  6
Continuous
100
AcDbLine
 10
325.8264565446823
 20
317.8171454820694
 30
0.0
 11
321.8264565446823
 21
321.8171454820694
 31
0.0
  0
LINE
  5
1D5F
330
18
100
AcDbEntity
  8
ﾊｯﾁﾝｸ
  6
Continuous
100
AcDbLine
 10
325.8264565446822
 20
319.5849124350358
 30
0.0
 11
322.9490700028667
 21
322.4622989768514
 31
0.0
  0
LINE
  5
1D60
330
18
100
AcDbEntity
  8
ﾊｯﾁﾝｸ
  6
Continuous
100
AcDbLine
 10
325.8264565446822
 20
321.3526793880022
 30
0.0
 11
324.7168369558331
 21
322.4622989768513
 31
0.0
  0
LINE
  5
1D61
330
18
100
AcDbEntity
  8
ﾊｯﾁﾝｸ
  6
Continuous
100
AcDbLine
 10
413.8625889969323
 20
322.2287927731492
 30
0.0
 11
414.0960952006345
 21
322.4622989768515
 31
0.0
  0
LINE
  5
1D62
330
18
100
AcDbEntity
  8
ﾊｯﾁﾝｸ
  6
Continuous
100
AcDbLine
 10
413.8625889969323
 20
320.4610258201829
 30
0.0
 11
415.8638621536008
 21
322.4622989768515
 31
0.0
  0
LINE
  5
1D63
330
18
100
AcDbEntity
  8
ﾊｯﾁﾝｸ
  6
Continuous
100
AcDbLine
 10
413.8625889969323
 20
318.6932588672165
 30
0.0
 11
417.6316291065672
 21
322.4622989768515
 31
0.0
  0
LINE
  5
1D64
330
18
100
AcDbEntity
  8
ﾊｯﾁﾝｸ
  6
Continuous
100
AcDbLine
 10
413.8625889969323
 20
316.9254919142501
 30
0.0
 11
417.8625889969323
 21
320.9254919142501
 31
0.0
  0
LINE
  5
1D65
330
18
100
AcDbEntity
  8
ﾊｯﾁﾝｸ
  6
Continuous
100
AcDbLine
 10
415.1671630124999
 20
316.4622989768515
 30
0.0
 11
417.8625889969323
 21
319.1577249612838
 31
0.0
  0
LINE
  5
1D66
330
18
100
AcDbEntity
  8
ﾊｯﾁﾝｸ
  6
Continuous
100
AcDbLine
 10
416.9349299654664
 20
316.4622989768515
 30
0.0
 11
417.8625889969323
 21
317.3899580083173
 31
0.0
  0
LINE
  5
1D67
330
18
100
AcDbEntity
  8
ﾊｯﾁﾝｸ
  6
Continuous
100
AcDbLine
 10
413.9141346432512
 20
316.4622989768515
 30
0.0
 11
413.8625889969323
 21
316.5138446231705
 31
0.0
  0
LINE
  5
1D68
330
18
100
AcDbEntity
  8
ﾊｯﾁﾝｸ
  6
Continuous
100
AcDbLine
 10
415.6819015962176
 20
316.4622989768514
 30
0.0
 11
413.8625889969323
 21
318.2816115761367
 31
0.0
  0
LINE
  5
1D69
330
18
100
AcDbEntity
  8
ﾊｯﾁﾝｸ
  6
Continuous
100
AcDbLine
 10
417.449668549184
 20
316.4622989768515
 30
0.0
 11
413.8625889969324
 21
320.0493785291032
 31
0.0
  0
LINE
  5
1D6A
330
18
100
AcDbEntity
  8
ﾊｯﾁﾝｸ
  6
Continuous
100
AcDbLine
 10
417.8625889969323
 20
317.8171454820696
 30
0.0
 11
413.8625889969323
 21
321.8171454820696
 31
0.0
  0
LINE
  5
1D6B
330
18
100
AcDbEntity
  8
ﾊｯﾁﾝｸ
  6
Continuous
100
AcDbLine
 10
417.8625889969323
 20
319.5849124350358
 30
0.0
 11
414.9852024551168
 21
322.4622989768514
 31
0.0
  0
LINE
  5
1D6C
330
18
100
AcDbEntity
  8
ﾊｯﾁﾝｸ
  6
Continuous
100
AcDbLine
 10
417.8625889969323
 20
321.3526793880023
 30
0.0
 11
416.7529694080831
 21
322.4622989768515
 31
0.0
  0
LINE
  5
1E31
330
18
100
AcDbEntity
  8
ﾊｯﾁﾝｸ
100
AcDbLine
 10
417.8625889969325
 20
225.0504237373577
 30
0.0
 11
415.3625889969324
 21
227.5504237373577
 31
0.0
  0
LINE
  5
1E32
330
18
100
AcDbEntity
  8
ﾊｯﾁﾝｸ
100
AcDbLine
 10
416.8036753392783
 20
224.7622989768515
 30
0.0
 11
415.3625889969324
 21
226.2033853191974
 31
0.0
  0
LINE
  5
1E33
330
18
100
AcDbEntity
  8
ﾊｯﾁﾝｸ
100
AcDbLine
 10
416.7108331468933
 20
224.7622989768515
 30
0.0
 11
417.8625889969325
 21
225.9140548268908
 31
0.0
  0
LINE
  5
1E34
330
18
100
AcDbEntity
  8
ﾊｯﾁﾝｸ
100
AcDbLine
 10
415.3637947287329
 20
224.7622989768515
 30
0.0
 11
417.8625889969326
 21
227.2610932450512
 31
0.0
  0
LINE
  5
1E35
330
18
100
AcDbEntity
  8
外形線
100
AcDbLine
 10
415.3625889969324
 20
227.8622989768515
 30
0.0
 11
415.3625889969324
 21
224.7622989768515
 31
0.0
  0
LINE
  5
1E36
330
18
100
AcDbEntity
  8
外形線
100
AcDbLine
 10
420.3625889969325
 20
227.8622989768515
 30
0.0
 11
420.3625889969323
 21
224.7622989768515
 31
0.0
  0
LINE
  5
1E37
330
18
100
AcDbEntity
  8
外形線
100
AcDbLine
 10
416.5625889969324
 20
220.0622989768515
 30
0.0
 11
419.1625889969325
 21
220.0622989768515
 31
0.0
  0
LINE
  5
1E39
330
18
100
AcDbEntity
  8
外形線
100
AcDbLine
 10
415.3625889969323
 20
224.7622989768515
 30
0.0
 11
420.3625889969325
 21
224.7622989768515
 31
0.0
  0
LINE
  5
1E3A
330
18
100
AcDbEntity
  8
外形線
100
AcDbLine
 10
415.6125889969325
 20
224.5622989768516
 30
0.0
 11
420.1125889969324
 21
224.5622989768516
 31
0.0
  0
LINE
  5
1E3B
330
18
100
AcDbEntity
  8
ﾊｯﾁﾝｸ
100
AcDbLine
 10
415.4566369211179
 20
224.7622989768515
 30
0.0
 11
415.3625889969324
 21
224.856346901037
 31
0.0
  0
LINE
  5
1E3C
330
18
100
AcDbEntity
  8
外形線
100
AcDbLine
 10
415.6125889969325
 20
224.5622989768516
 30
0.0
 11
416.5625889969324
 21
220.0622989768515
 31
0.0
  0
LINE
  5
1E3D
330
18
100
AcDbEntity
  8
外形線
100
AcDbLine
 10
415.3625889969324
 20
224.7622989768515
 30
0.0
 11
415.6125889969325
 21
224.5622989768516
 31
0.0
  0
POINT
  5
1E3E
330
18
100
AcDbEntity
  8
DEFPOINTS
  6
ByBlock
 62
     0
100
AcDbPoint
 10
417.8625889969325
 20
219.0622989768515
 30
0.0
  0
LINE
  5
1E3F
330
18
100
AcDbEntity
  8
外形線
100
AcDbLine
 10
420.1125889969325
 20
224.5622989768516
 30
0.0
 11
419.1625889969325
 21
220.0622989768515
 31
0.0
  0
LINE
  5
1E40
330
18
100
AcDbEntity
  8
外形線
100
AcDbLine
 10
420.3625889969325
 20
224.7622989768515
 30
0.0
 11
420.1125889969325
 21
224.5622989768516
 31
0.0
  0
LINE
  5
1E41
330
18
100
AcDbEntity
  8
ﾊｯﾁﾝｸ
100
AcDbLine
 10
417.8625889969325
 20
226.397462155518
 30
0.0
 11
416.397752175599
 21
227.8622989768515
 31
0.0
  0
LINE
  5
1E42
330
18
100
AcDbEntity
  8
ﾊｯﾁﾝｸ
100
AcDbLine
 10
415.3625889969324
 20
226.1081316632115
 30
0.0
 11
417.1167563105725
 21
227.8622989768515
 31
0.0
  0
LINE
  5
1E43
330
18
100
AcDbEntity
  8
外形線
100
AcDbLine
 10
415.3625889969323
 20
227.8622989768515
 30
0.0
 11
420.3625889969325
 21
227.8622989768515
 31
0.0
  0
LINE
  5
1E44
330
18
100
AcDbEntity
  8
外形線
100
AcDbLine
 10
415.6125889969325
 20
228.0622989768515
 30
0.0
 11
420.1125889969325
 21
228.0622989768515
 31
0.0
  0
LINE
  5
1E45
330
18
100
AcDbEntity
  8
ﾊｯﾁﾝｸ
100
AcDbLine
 10
415.3625889969324
 20
227.4551700813719
 30
0.0
 11
415.7697178924121
 21
227.8622989768515
 31
0.0
  0
LINE
  5
1E46
330
18
100
AcDbEntity
  8
外形線
100
AcDbLine
 10
415.6125889969325
 20
228.0622989768515
 30
0.0
 11
415.3625889969324
 21
227.8622989768515
 31
0.0
  0
LINE
  5
1E47
330
18
100
AcDbEntity
  8
ﾊｯﾁﾝｸ
100
AcDbLine
 10
417.8625889969326
 20
227.7445005736784
 30
0.0
 11
417.7447905937594
 21
227.8622989768515
 31
0.0
  0
LINE
  5
1E48
330
18
100
AcDbEntity
  8
外形線
100
AcDbLine
 10
420.1125889969325
 20
228.0622989768515
 30
0.0
 11
420.3625889969325
 21
227.8622989768515
 31
0.0
  0
LINE
  5
1E4A
330
18
100
AcDbEntity
  8
ﾊｯﾁﾝｸ
100
AcDbLine
 10
323.3264565446822
 20
226.1081316632115
 30
0.0
 11
325.0806238583222
 21
227.8622989768515
 31
0.0
  0
LINE
  5
1E4B
330
18
100
AcDbEntity
  8
外形線
100
AcDbLine
 10
328.3264565446822
 20
227.8622989768515
 30
0.0
 11
328.3264565446821
 21
224.7622989768515
 31
0.0
  0
LINE
  5
1E4C
330
18
100
AcDbEntity
  8
外形線
100
AcDbLine
 10
323.3264565446822
 20
227.8622989768515
 30
0.0
 11
323.3264565446822
 21
224.7622989768515
 31
0.0
  0
LINE
  5
1E4D
330
18
100
AcDbEntity
  8
ﾊｯﾁﾝｸ
100
AcDbLine
 10
323.3276622764826
 20
224.7622989768515
 30
0.0
 11
325.8264565446823
 21
227.2610932450512
 31
0.0
  0
LINE
  5
1E4E
330
18
100
AcDbEntity
  8
ﾊｯﾁﾝｸ
100
AcDbLine
 10
325.8264565446822
 20
225.0504237373577
 30
0.0
 11
323.3264565446822
 21
227.5504237373577
 31
0.0
  0
LINE
  5
1E4F
330
18
100
AcDbEntity
  8
外形線
100
AcDbLine
 10
323.5764565446822
 20
224.5622989768516
 30
0.0
 11
324.5264565446821
 21
220.0622989768515
 31
0.0
  0
LINE
  5
1E50
330
18
100
AcDbEntity
  8
外形線
100
AcDbLine
 10
323.5764565446822
 20
224.5622989768516
 30
0.0
 11
328.0764565446821
 21
224.5622989768516
 31
0.0
  0
LINE
  5
1E51
330
18
100
AcDbEntity
  8
外形線
100
AcDbLine
 10
323.3264565446821
 20
224.7622989768515
 30
0.0
 11
328.3264565446822
 21
224.7622989768515
 31
0.0
  0
LINE
  5
1E52
330
18
100
AcDbEntity
  8
ﾊｯﾁﾝｸ
100
AcDbLine
 10
324.7675428870281
 20
224.7622989768515
 30
0.0
 11
323.3264565446822
 21
226.2033853191974
 31
0.0
  0
LINE
  5
1E53
330
18
100
AcDbEntity
  8
外形線
100
AcDbLine
 10
323.3264565446822
 20
224.7622989768515
 30
0.0
 11
323.5764565446822
 21
224.5622989768516
 31
0.0
  0
LINE
  5
1E54
330
18
100
AcDbEntity
  8
ﾊｯﾁﾝｸ
100
AcDbLine
 10
323.4205044688676
 20
224.7622989768515
 30
0.0
 11
323.3264565446822
 21
224.856346901037
 31
0.0
  0
POINT
  5
1E56
330
18
100
AcDbEntity
  8
DEFPOINTS
  6
ByBlock
 62
     0
100
AcDbPoint
 10
325.8264565446822
 20
219.0622989768515
 30
0.0
  0
LINE
  5
1E57
330
18
100
AcDbEntity
  8
外形線
100
AcDbLine
 10
328.3264565446822
 20
224.7622989768515
 30
0.0
 11
328.0764565446822
 21
224.5622989768516
 31
0.0
  0
LINE
  5
1E58
330
18
100
AcDbEntity
  8
外形線
100
AcDbLine
 10
328.0764565446822
 20
224.5622989768516
 30
0.0
 11
327.1264565446822
 21
220.0622989768515
 31
0.0
  0
LINE
  5
1E59
330
18
100
AcDbEntity
  8
外形線
100
AcDbLine
 10
324.5264565446821
 20
220.0622989768515
 30
0.0
 11
327.1264565446822
 21
220.0622989768515
 31
0.0
  0
LINE
  5
1E5A
330
18
100
AcDbEntity
  8
ﾊｯﾁﾝｸ
100
AcDbLine
 10
324.674700694643
 20
224.7622989768515
 30
0.0
 11
325.8264565446822
 21
225.9140548268908
 31
0.0
  0
LINE
  5
1E5B
330
18
100
AcDbEntity
  8
外形線
100
AcDbLine
 10
323.5764565446822
 20
228.0622989768515
 30
0.0
 11
328.0764565446822
 21
228.0622989768515
 31
0.0
  0
LINE
  5
1E5C
330
18
100
AcDbEntity
  8
外形線
100
AcDbLine
 10
323.3264565446821
 20
227.8622989768515
 30
0.0
 11
328.3264565446822
 21
227.8622989768515
 31
0.0
  0
LINE
  5
1E5D
330
18
100
AcDbEntity
  8
外形線
100
AcDbLine
 10
323.5764565446822
 20
228.0622989768515
 30
0.0
 11
323.3264565446822
 21
227.8622989768515
 31
0.0
  0
LINE
  5
1E5E
330
18
100
AcDbEntity
  8
ﾊｯﾁﾝｸ
100
AcDbLine
 10
323.3264565446822
 20
227.4551700813719
 30
0.0
 11
323.7335854401619
 21
227.8622989768515
 31
0.0
  0
LINE
  5
1E5F
330
18
100
AcDbEntity
  8
外形線
100
AcDbLine
 10
328.0764565446822
 20
228.0622989768515
 30
0.0
 11
328.3264565446822
 21
227.8622989768515
 31
0.0
  0
LINE
  5
1E60
330
18
100
AcDbEntity
  8
ﾊｯﾁﾝｸ
100
AcDbLine
 10
325.8264565446823
 20
227.7445005736784
 30
0.0
 11
325.7086581415091
 21
227.8622989768515
 31
0.0
  0
LINE
  5
1E61
330
18
100
AcDbEntity
  8
ﾊｯﾁﾝｸ
100
AcDbLine
 10
325.8264565446822
 20
226.397462155518
 30
0.0
 11
324.3616197233488
 21
227.8622989768515
 31
0.0
  0
DIMENSION
  5
1E6E
330
18
100
AcDbEntity
  8
寸法線
100
AcDbDimension
  2
*D2
 10
392.4785852634789
 20
232.0622989768515
 30
0.0
 11
390.6035852634789
 21
225.5622989768516
 31
0.0
 70
    32
 71
     5
 42
12.99999999999997
  3
STYLE2
100
AcDbAlignedDimension
 13
417.8625889969325
 23
219.0622989768515
 33
0.0
 14
398.1921074934689
 24
232.0622989768515
 34
0.0
 50
90.0
100
AcDbRotatedDimension
  0
DIMENSION
  5
1E7B
330
18
100
AcDbEntity
  8
寸法線
100
AcDbDimension
  2
*D3
 10
291.6016786374257
 20
288.4622989768515
 30
0.0
 11
289.7266786374256
 21
253.7622989768515
 31
0.0
 70
    32
 71
     5
 42
69.39999999999995
  3
STYLE2
100
AcDbAlignedDimension
 13
325.8264565446822
 23
219.0622989768515
 33
0.0
 14
295.0992323120321
 24
288.4622989768515
 34
0.0
 50
90.0
100
AcDbRotatedDimension
  0
DIMENSION
  5
1E88
330
18
100
AcDbEntity
  8
寸法線
100
AcDbDimension
  2
*D4
 10
284.0928750741743
 20
329.9622989768515
 30
0.0
 11
282.2178750741742
 21
274.5122989768516
 31
0.0
 70
    32
 71
     5
 42
110.8999999999999
  3
STYLE2
100
AcDbAlignedDimension
 13
290.3516786374257
 23
219.0622989768515
 33
0.0
 14
285.9272679471506
 24
329.9622989768515
 34
0.0
 50
90.0
100
AcDbRotatedDimension
  0
TEXT
  5
2074
330
18
100
AcDbEntity
  8
文字
100
AcDbText
 10
423.8902118382893
 20
248.6868243708213
 30
0.0
 40
1.5
  1
0
  7
STYLE3
100
AcDbText
  0
TEXT
  5
2075
330
18
100
AcDbEntity
  8
文字
100
AcDbText
 10
422.0580542040297
 20
246.9355373413701
 30
0.0
 40
1.5
  1
-0.03
  7
STYLE3
100
AcDbText
  0
LINE
  5
20A2
102
{ACAD_REACTORS
330
20DE
102
}
330
18
100
AcDbEntity
  8
ROGO
 62
     4
100
AcDbLine
 10
319.1968283190465
 20
271.184537453914
 30
0.0
 11
320.7095894170659
 21
271.184537453914
 31
0.0
  0
LINE
  5
20A3
102
{ACAD_REACTORS
330
20DE
330
20EC
102
}
330
18
100
AcDbEntity
  8
ROGO
 62
     4
100
AcDbLine
 10
318.2443736656507
 20
269.2595727090449
 30
0.0
 11
331.2744691912418
 21
269.2595727090449
 31
0.0
  0
LINE
  5
20A4
102
{ACAD_REACTORS
330
20DE
102
}
330
18
100
AcDbEntity
  8
ROGO
 62
     4
100
AcDbLine
 10
319.1968283190465
 20
271.184537453914
 30
0.0
 11
318.2443736656507
 21
269.2595727090449
 31
0.0
  0
SPLINE
  5
20A5
102
{ACAD_REACTORS
330
20DE
102
}
330
18
100
AcDbEntity
  8
ROGO
 62
     4
100
AcDbSpline
210
0.0
220
0.0
230
1.0
 70
     8
 71
     3
 72
    18
 73
    14
 74
     0
 42
0.0000000001
 43
0.0000000001
 40
0.1087402787915014
 40
0.1087402787915014
 40
0.1087402787915014
 40
0.1087402787915014
 40
0.5992371417938475
 40
1.083176791562496
 40
1.448211145705696
 40
1.714037220764907
 40
2.164002567013297
 40
2.740236056362883
 40
3.395137510199602
 40
4.071816045172726
 40
4.784906178399433
 40
5.506895915094292
 40
6.060470601257719
 40
6.060470601257719
 40
6.060470601257719
 40
6.060470601257719
 10
320.709589417066
 20
271.1845374539141
 30
0.0
 10
320.7580536779263
 20
271.1667761144591
 30
0.0
 10
320.8533581469595
 20
271.1292259286339
 30
0.0
 10
320.9696745731873
 20
271.0435239968218
 30
0.0
 10
321.0331085296397
 20
270.9445881193285
 30
0.0
 10
321.0941248939592
 20
270.8471045267218
 30
0.0
 10
321.1026640227645
 20
270.7072478258219
 30
0.0
 10
321.08867635289
 20
270.5304350583695
 30
0.0
 10
320.9983732198536
 20
270.3459491815133
 30
0.0
 10
320.8534313801727
 20
270.1845906144519
 30
0.0
 10
320.673475971363
 20
270.055441321746
 30
0.0
 10
320.4837067855389
 20
269.9540624527726
 30
0.0
 10
320.3480597181665
 20
269.9530523301343
 30
0.0
 10
320.289191046852
 20
269.9526139529638
 30
0.0
  0
LINE
  5
20A6
102
{ACAD_REACTORS
330
20DE
102
}
330
18
100
AcDbEntity
  8
ROGO
 62
     4
100
AcDbLine
 10
320.289191047142
 20
269.9526139529638
 30
0.0
 11
319.4527310692497
 21
269.9526139529638
 31
0.0
  0
LINE
  5
20A7
102
{ACAD_REACTORS
330
20DE
102
}
330
18
100
AcDbEntity
  8
ROGO
 62
     4
100
AcDbLine
 10
319.7945566026118
 20
270.7081491025018
 30
0.0
 11
319.6463313809309
 21
270.3805276871953
 31
0.0
  0
SPLINE
  5
20A8
102
{ACAD_REACTORS
330
20DE
102
}
330
18
100
AcDbEntity
  8
ROGO
 62
     4
100
AcDbSpline
210
0.0
220
0.0
230
1.0
 70
     8
 71
     3
 72
    15
 73
    11
 74
     9
 42
0.0000000001
 43
0.0000000001
 44
0.0000000001
 40
0.0
 40
0.0
 40
0.0
 40
0.0
 40
0.1444470268156599
 40
0.2103069258834997
 40
0.2850622957513877
 40
0.3359891294319132
 40
0.4165304450834989
 40
0.4647724930146942
 40
0.5475400388213481
 40
0.5751292383652494
 40
0.5751292383652494
 40
0.5751292383652494
 40
0.5751292383652494
 10
320.1754322497927
 20
270.7081491025017
 30
0.0
 10
320.2296837519098
 20
270.70839760334
 30
0.0
 10
320.3086709549443
 20
270.7087594068921
 30
0.0
 10
320.35186397077
 20
270.6110520083159
 30
0.0
 10
320.3325028016269
 20
270.548143685801
 30
0.0
 10
320.3081642340531
 20
270.4835564456851
 30
0.0
 10
320.2651524728289
 20
270.4396684419124
 30
0.0
 10
320.2074243892068
 20
270.3973968957835
 30
0.0
 10
320.1528685914791
 20
270.3922797358415
 30
0.0
 10
320.117386169152
 20
270.3828780978246
 30
0.0
 10
320.1085155593241
 20
270.3805276871953
 30
0.0
 11
320.1754322497927
 21
270.7081491025017
 31
0.0
 11
320.315957415212
 21
270.6747182568684
 31
0.0
 11
320.3427241683563
 21
270.6145429527035
 31
0.0
 11
320.3293409841764
 21
270.5409953102852
 31
0.0
 11
320.3092660155143
 21
270.4941921263984
 31
0.0
 11
320.2557325092257
 21
270.4340168222336
 31
0.0
 11
320.2155825719013
 21
270.4072721457269
 31
0.0
 11
320.1352823124683
 21
270.3872138563219
 31
0.0
 11
320.1085155593241
 21
270.3805276871953
 31
0.0
  0
LINE
  5
20A9
102
{ACAD_REACTORS
330
20DE
102
}
330
18
100
AcDbEntity
  8
ROGO
 62
     4
100
AcDbLine
 10
320.1754322497927
 20
270.7081491025018
 30
0.0
 11
319.7945566026118
 21
270.7081491025018
 31
0.0
  0
LINE
  5
20AA
102
{ACAD_REACTORS
330
20DE
102
}
330
18
100
AcDbEntity
  8
ROGO
 62
     4
100
AcDbLine
 10
320.1085155593241
 20
270.3805276871953
 30
0.0
 11
319.6463313809309
 21
270.3805276871953
 31
0.0
  0
LINE
  5
20AB
102
{ACAD_REACTORS
330
20DE
102
}
330
18
100
AcDbEntity
  8
ROGO
 62
     4
100
AcDbLine
 10
319.4527310692497
 20
269.9526139529638
 30
0.0
 11
319.1391795515083
 21
269.2595727090449
 31
0.0
  0
LINE
  5
20AC
102
{ACAD_REACTORS
330
20DA
102
}
330
18
100
AcDbEntity
  8
ROGO
 62
     4
100
AcDbLine
 10
321.6032911383991
 20
271.184537453914
 30
0.0
 11
320.9937468471411
 21
269.9526139529638
 31
0.0
  0
LINE
  5
20AD
102
{ACAD_REACTORS
330
20DA
102
}
330
18
100
AcDbEntity
  8
ROGO
 62
     4
100
AcDbLine
 10
323.2695189243373
 20
271.184537453914
 30
0.0
 11
323.1298905107451
 21
270.9023405297994
 31
0.0
  0
LINE
  5
20AE
102
{ACAD_REACTORS
330
20DA
102
}
330
18
100
AcDbEntity
  8
ROGO
 62
     4
100
AcDbLine
 10
320.9937468471411
 20
269.9526139529638
 30
0.0
 11
322.6599746330794
 21
269.9526139529638
 31
0.0
  0
LINE
  5
20AF
102
{ACAD_REACTORS
330
20DA
102
}
330
18
100
AcDbEntity
  8
ROGO
 62
     4
100
AcDbLine
 10
322.2541632910977
 20
270.9023405297994
 30
0.0
 11
322.1449912226934
 21
270.6816976025444
 31
0.0
  0
LINE
  5
20B0
102
{ACAD_REACTORS
330
20DA
102
}
330
18
100
AcDbEntity
  8
ROGO
 62
     4
100
AcDbLine
 10
322.2541632910977
 20
270.9023405297994
 30
0.0
 11
323.1298905107451
 21
270.9023405297994
 31
0.0
  0
LINE
  5
20B1
102
{ACAD_REACTORS
330
20DA
102
}
330
18
100
AcDbEntity
  8
ROGO
 62
     4
100
AcDbLine
 10
322.1449912226934
 20
270.6816976025444
 30
0.0
 11
323.0207184423408
 21
270.6816976025444
 31
0.0
  0
LINE
  5
20B2
102
{ACAD_REACTORS
330
20DA
102
}
330
18
100
AcDbEntity
  8
ROGO
 62
     4
100
AcDbLine
 10
321.9238688035596
 20
270.2347966822592
 30
0.0
 11
322.7995960232071
 21
270.2347966822592
 31
0.0
  0
LINE
  5
20B3
102
{ACAD_REACTORS
330
20DA
102
}
330
18
100
AcDbEntity
  8
ROGO
 62
     4
100
AcDbLine
 10
322.0330454937845
 20
270.4554489504748
 30
0.0
 11
322.9087727134319
 21
270.4554489504749
 31
0.0
  0
LINE
  5
20B4
102
{ACAD_REACTORS
330
20DA
102
}
330
18
100
AcDbEntity
  8
ROGO
 62
     4
100
AcDbLine
 10
323.0207184423408
 20
270.6816976025444
 30
0.0
 11
322.9087727134319
 21
270.4554489504748
 31
0.0
  0
LINE
  5
20B5
102
{ACAD_REACTORS
330
20DA
102
}
330
18
100
AcDbEntity
  8
ROGO
 62
     4
100
AcDbLine
 10
322.7995960232071
 20
270.2347966822592
 30
0.0
 11
322.6599746330794
 21
269.9526139529638
 31
0.0
  0
LINE
  5
20B6
102
{ACAD_REACTORS
330
20DA
102
}
330
18
100
AcDbEntity
  8
ROGO
 62
     4
100
AcDbLine
 10
322.0330454937845
 20
270.4554489504748
 30
0.0
 11
321.9238688035596
 21
270.2347966822592
 31
0.0
  0
LINE
  5
20B7
102
{ACAD_REACTORS
330
20E2
102
}
330
18
100
AcDbEntity
  8
ROGO
 62
     4
100
AcDbLine
 10
323.7521903809693
 20
271.184537453914
 30
0.0
 11
322.8638264022801
 21
269.9526139529638
 31
0.0
  0
LINE
  5
20B8
102
{ACAD_REACTORS
330
20E2
102
}
330
18
100
AcDbEntity
  8
ROGO
 62
     4
100
AcDbLine
 10
324.1969921964032
 20
270.8552392952045
 30
0.0
 11
323.8936265338477
 21
270.4345521691519
 31
0.0
  0
LINE
  5
20B9
102
{ACAD_REACTORS
330
20E2
102
}
330
18
100
AcDbEntity
  8
ROGO
 62
     4
100
AcDbLine
 10
323.7152305248533
 20
270.1871645653905
 30
0.0
 11
324.4937774632687
 21
270.1871645653905
 31
0.0
  0
LINE
  5
20BA
102
{ACAD_REACTORS
330
20E2
102
}
330
18
100
AcDbEntity
  8
ROGO
 62
     4
100
AcDbLine
 10
323.8936265338477
 20
270.434552169152
 30
0.0
 11
324.3838780871584
 21
270.434552169152
 31
0.0
  0
LINE
  5
20BB
102
{ACAD_REACTORS
330
20E2
102
}
330
18
100
AcDbEntity
  8
ROGO
 62
     4
100
AcDbLine
 10
323.7152305248533
 20
270.1871645653905
 30
0.0
 11
323.5460915197946
 21
269.9526139529638
 31
0.0
  0
LINE
  5
20BC
102
{ACAD_REACTORS
330
20E2
102
}
330
18
100
AcDbEntity
  8
ROGO
 62
     4
100
AcDbLine
 10
322.8638264022801
 20
269.9526139529638
 30
0.0
 11
323.5460915197946
 21
269.9526139529638
 31
0.0
  0
LINE
  5
20BD
102
{ACAD_REACTORS
330
20E2
102
}
330
18
100
AcDbEntity
  8
ROGO
 62
     4
100
AcDbLine
 10
323.7521903809693
 20
271.184537453914
 30
0.0
 11
324.7376236761021
 21
271.184537453914
 31
0.0
  0
LINE
  5
20BE
102
{ACAD_REACTORS
330
20E2
102
}
330
18
100
AcDbEntity
  8
ROGO
 62
     4
100
AcDbLine
 10
325.2848929091251
 20
269.9526139529638
 30
0.0
 11
324.5979741391733
 21
269.9526139529638
 31
0.0
  0
LINE
  5
20BF
102
{ACAD_REACTORS
330
20DB
102
}
330
18
100
AcDbEntity
  8
ROGO
 62
     4
100
AcDbLine
 10
325.6222689278982
 20
269.9526139529638
 30
0.0
 11
326.6833408563784
 21
269.9526139529638
 31
0.0
  0
LINE
  5
20C0
102
{ACAD_REACTORS
330
20DB
102
}
330
18
100
AcDbEntity
  8
ROGO
 62
     4
100
AcDbLine
 10
327.2976177013775
 20
271.184537453914
 30
0.0
 11
327.0690668882592
 21
270.7261820395209
 31
0.0
  0
LINE
  5
20C1
102
{ACAD_REACTORS
330
20DB
102
}
330
18
100
AcDbEntity
  8
ROGO
 62
     4
100
AcDbLine
 10
326.2981283866347
 20
270.7261820395209
 30
0.0
 11
327.0690668882592
 21
270.7261820395209
 31
0.0
  0
LINE
  5
20C2
102
{ACAD_REACTORS
330
20DB
102
}
330
18
100
AcDbEntity
  8
ROGO
 62
     4
100
AcDbLine
 10
326.124144683589
 20
270.4109645134985
 30
0.0
 11
326.9118892492061
 21
270.4109645134985
 31
0.0
  0
SPLINE
  5
20C3
102
{ACAD_REACTORS
330
20DB
102
}
330
18
100
AcDbEntity
  8
ROGO
 62
     4
100
AcDbSpline
210
0.0
220
0.0
230
1.0
 70
     8
 71
     3
 72
    26
 73
    22
 74
    20
 42
0.0000000001
 43
0.0000000001
 44
0.0000000001
 40
0.0
 40
0.0
 40
0.0
 40
0.0
 40
0.2234850368020611
 40
0.3730909640173049
 40
0.4809690209812992
 40
0.5615180755186499
 40
0.6659944268058665
 40
0.7422519781245713
 40
0.8799553417461909
 40
0.9920439000268267
 40
1.068282079911162
 40
1.143037518666553
 40
1.276760465249744
 40
1.371318548977523
 40
1.422245382657944
 40
1.49458544554505
 40
1.546823828113403
 40
1.622499997844155
 40
1.665326164070649
 40
1.758520705595898
 40
1.801074142830069
 40
1.801074142830069
 40
1.801074142830069
 40
1.801074142830069
 10
326.0639197776027
 20
271.1845374539141
 30
0.0
 10
325.9880655030773
 20
271.1800118578195
 30
0.0
 10
325.8614326653157
 20
271.172456725566
 30
0.0
 10
325.722390579797
 20
271.0879901518148
 30
0.0
 10
325.620520207976
 20
271.0388849977106
 30
0.0
 10
325.5478663823372
 20
270.9721307241899
 30
0.0
 10
325.4946108336269
 20
270.9031784359503
 30
0.0
 10
325.4274722168049
 20
270.8210222900839
 30
0.0
 10
325.372722593274
 20
270.7253547827614
 30
0.0
 10
325.344841938454
 20
270.6199125116739
 30
0.0
 10
325.32014551903
 20
270.5358744098217
 30
0.0
 10
325.3018302409448
 20
270.4422249125034
 30
0.0
 10
325.3064901661884
 20
270.3410505112293
 30
0.0
 10
325.313163392405
 20
270.2470849069168
 30
0.0
 10
325.3429577247491
 20
270.180007534018
 30
0.0
 10
325.3768881918029
 20
270.132253066761
 30
0.0
 10
325.4184355840354
 20
270.079656815366
 30
0.0
 10
325.4638975168059
 20
270.0448224883803
 30
0.0
 10
325.5014982460688
 20
269.9817177642357
 30
0.0
 10
325.5673170542063
 20
269.9736651463203
 30
0.0
 10
325.6091541071605
 20
269.9576380332843
 30
0.0
 10
325.6222689278982
 20
269.9526139529638
 30
0.0
 11
326.0639197776027
 21
271.1845374539141
 31
0.0
 11
325.8430943527505
 21
271.1501616860937
 31
0.0
 11
325.709260587029
 21
271.083300212802
 31
0.0
 11
325.615577143416
 21
271.0298110777638
 31
0.0
 11
325.5553522374295
 21
270.9763217247505
 31
0.0
 11
325.4884355469611
 21
270.8960879132054
 31
0.0
 11
325.4415938251546
 21
270.8359126090406
 31
0.0
 11
325.3746767499017
 21
270.7155617827356
 31
0.0
 11
325.3412185970595
 21
270.6085832946839
 31
0.0
 11
325.3211436283974
 21
270.5350356522656
 31
0.0
 11
325.3077600594331
 21
270.4614880098473
 31
0.0
 11
325.3077600594331
 21
270.3277650632641
 31
0.0
 11
325.3211436283974
 21
270.2341589134659
 31
0.0
 11
325.3412185970595
 21
270.1873557295792
 31
0.0
 11
325.3813685343838
 21
270.1271804254141
 31
0.0
 11
325.4148270720103
 21
270.0870634106542
 31
0.0
 11
325.4683601935145
 21
270.0335742756159
 31
0.0
 11
325.495126946659
 21
270.0001434299825
 31
0.0
 11
325.5821189905738
 21
269.9667128023244
 31
0.0
 11
325.6222689278982
 21
269.9526139529638
 31
0.0
  0
SPLINE
  5
20C4
102
{ACAD_REACTORS
330
20DB
102
}
330
18
100
AcDbEntity
  8
ROGO
 62
     4
100
AcDbSpline
210
0.0
220
0.0
230
1.0
 70
     8
 71
     3
 72
    16
 73
    12
 74
    10
 42
0.0000000001
 43
0.0000000001
 44
0.0000000001
 40
0.0
 40
0.0
 40
0.0
 40
0.0
 40
0.1178225909324045
 40
0.1753704298790176
 40
0.2037490853281923
 40
0.2336555668943688
 40
0.2764815629657672
 40
0.315476765318778
 40
0.3561478528852858
 40
0.4243358699943621
 40
0.4918277573139375
 40
0.4918277573139375
 40
0.4918277573139375
 40
0.4918277573139375
 10
326.2981283866348
 20
270.7261820395209
 30
0.0
 10
326.2582283139074
 20
270.7200990042537
 30
0.0
 10
326.1988399330288
 20
270.7110448449338
 30
0.0
 10
326.1451349802644
 20
270.6685325951948
 30
0.0
 10
326.1148491157226
 20
270.643240636366
 30
0.0
 10
326.1045457296782
 20
270.6097469033891
 30
0.0
 10
326.0768740703373
 20
270.5840288579764
 30
0.0
 10
326.0540647520217
 20
270.5486839851854
 30
0.0
 10
326.0486184038478
 20
270.5001372299066
 30
0.0
 10
326.0526161481024
 20
270.4320092574352
 30
0.0
 10
326.1003835314347
 20
270.4179553928633
 30
0.0
 10
326.1241446835891
 20
270.4109645134984
 30
0.0
 11
326.2981283866348
 21
270.7261820395209
 31
0.0
 11
326.1843699743598
 21
270.6955032753556
 31
0.0
 11
326.1375282525533
 21
270.6620726476973
 31
0.0
 11
326.1174532838912
 21
270.6420141403172
 31
0.0
 11
326.104069714927
 21
270.6152694638105
 31
0.0
 11
326.0773029617826
 21
270.5818388361524
 31
0.0
 11
326.0572279931204
 21
270.548407990519
 31
0.0
 11
326.0505362086381
 21
270.508291193734
 31
0.0
 11
326.0639197776026
 21
270.4414295024673
 31
0.0
 11
326.1241446835891
 21
270.4109645134984
 31
0.0
  0
LINE
  5
20C5
102
{ACAD_REACTORS
330
20DB
102
}
330
18
100
AcDbEntity
  8
ROGO
 62
     4
100
AcDbLine
 10
326.9118892492061
 20
270.4109645134985
 30
0.0
 11
326.6833408563784
 21
269.9526139529638
 31
0.0
  0
LINE
  5
20C6
102
{ACAD_REACTORS
330
20DB
102
}
330
18
100
AcDbEntity
  8
ROGO
 62
     4
100
AcDbLine
 10
326.0639197776029
 20
271.1845374539141
 30
0.0
 11
327.2976177013775
 21
271.1845374539141
 31
0.0
  0
LINE
  5
20C7
330
18
100
AcDbEntity
  8
ROGO
 62
     4
100
AcDbLine
 10
329.5916360279584
 20
269.9526139529638
 30
0.0
 11
330.6527079564387
 21
269.9526139529638
 31
0.0
  0
LINE
  5
20C8
330
18
100
AcDbEntity
  8
ROGO
 62
     4
100
AcDbLine
 10
330.0332868776633
 20
271.184537453914
 30
0.0
 11
331.2669848014378
 21
271.184537453914
 31
0.0
  0
SPLINE
  5
20C9
330
18
100
AcDbEntity
  8
ROGO
 62
     4
100
AcDbSpline
210
0.0
220
0.0
230
1.0
 70
     8
 71
     3
 72
    16
 73
    12
 74
    10
 42
0.0000000001
 43
0.0000000001
 44
0.0000000001
 40
0.0
 40
0.0
 40
0.0
 40
0.0
 40
0.1178225909325142
 40
0.1753704298789753
 40
0.2037490853281099
 40
0.2336555668943627
 40
0.2764815629657256
 40
0.3154767653188144
 40
0.3561478528852567
 40
0.4243358699944445
 40
0.4918277573139686
 40
0.4918277573139686
 40
0.4918277573139686
 40
0.4918277573139686
 10
330.2674954866951
 20
270.7261820395209
 30
0.0
 10
330.2275954139676
 20
270.7200990042537
 30
0.0
 10
330.1682070330888
 20
270.711044844934
 30
0.0
 10
330.1145020803249
 20
270.6685325951946
 30
0.0
 10
330.084216215783
 20
270.643240636366
 30
0.0
 10
330.0739128297384
 20
270.6097469033891
 30
0.0
 10
330.0462411703977
 20
270.5840288579764
 30
0.0
 10
330.0234318520821
 20
270.5486839851854
 30
0.0
 10
330.0179855039081
 20
270.5001372299065
 30
0.0
 10
330.0219832481628
 20
270.4320092574351
 30
0.0
 10
330.0697506314952
 20
270.4179553928633
 30
0.0
 10
330.0935117836494
 20
270.4109645134984
 30
0.0
 11
330.2674954866951
 21
270.7261820395209
 31
0.0
 11
330.1537370744201
 21
270.6955032753556
 31
0.0
 11
330.1068953526138
 21
270.6620726476972
 31
0.0
 11
330.0868203839517
 21
270.6420141403172
 31
0.0
 11
330.0734368149873
 21
270.6152694638105
 31
0.0
 11
330.046670061843
 21
270.5818388361524
 31
0.0
 11
330.0265950931807
 21
270.5484079905189
 31
0.0
 11
330.0199033086985
 21
270.508291193734
 31
0.0
 11
330.0332868776629
 21
270.4414295024672
 31
0.0
 11
330.0935117836494
 21
270.4109645134984
 31
0.0
  0
SPLINE
  5
20CA
330
18
100
AcDbEntity
  8
ROGO
 62
     4
100
AcDbSpline
210
0.0
220
0.0
230
1.0
 70
     8
 71
     3
 72
    26
 73
    22
 74
    20
 42
0.0000000001
 43
0.0000000001
 44
0.0000000001
 40
0.0
 40
0.0
 40
0.0
 40
0.0
 40
0.2234850368019487
 40
0.3730909640170909
 40
0.4809690209811345
 40
0.5615180755184426
 40
0.6659944268057684
 40
0.7422519781244385
 40
0.8799553417461849
 40
0.9920439000266952
 40
1.068282079911015
 40
1.143037518666407
 40
1.276760465249598
 40
1.371318548977377
 40
1.42224538265788
 40
1.494585445544954
 40
1.546823828113199
 40
1.62249999784403
 40
1.665326164070453
 40
1.75852070559585
 40
1.801074142829983
 40
1.801074142829983
 40
1.801074142829983
 40
1.801074142829983
 10
330.0332868776629
 20
271.1845374539141
 30
0.0
 10
329.9574326031376
 20
271.1800118578195
 30
0.0
 10
329.8307997653762
 20
271.1724567255661
 30
0.0
 10
329.6917576798573
 20
271.0879901518147
 30
0.0
 10
329.5898873080365
 20
271.0388849977106
 30
0.0
 10
329.5172334823976
 20
270.9721307241898
 30
0.0
 10
329.4639779336872
 20
270.9031784359503
 30
0.0
 10
329.3968393168651
 20
270.8210222900839
 30
0.0
 10
329.3420896933343
 20
270.7253547827613
 30
0.0
 10
329.3142090385142
 20
270.6199125116738
 30
0.0
 10
329.2895126190903
 20
270.5358744098216
 30
0.0
 10
329.271197341005
 20
270.4422249125034
 30
0.0
 10
329.2758572662488
 20
270.3410505112292
 30
0.0
 10
329.2825304924654
 20
270.2470849069168
 30
0.0
 10
329.3123248248093
 20
270.1800075340179
 30
0.0
 10
329.3462552918634
 20
270.1322530667612
 30
0.0
 10
329.3878026840956
 20
270.0796568153659
 30
0.0
 10
329.4332646168664
 20
270.0448224883803
 30
0.0
 10
329.4708653461289
 20
269.9817177642356
 30
0.0
 10
329.5366841542668
 20
269.9736651463202
 30
0.0
 10
329.5785212072208
 20
269.9576380332842
 30
0.0
 10
329.5916360279585
 20
269.9526139529638
 30
0.0
 11
330.0332868776629
 21
271.1845374539141
 31
0.0
 11
329.8124614528108
 21
271.1501616860937
 31
0.0
 11
329.6786276870894
 21
271.083300212802
 31
0.0
 11
329.5849442434763
 21
271.0298110777638
 31
0.0
 11
329.5247193374899
 21
270.9763217247505
 31
0.0
 11
329.4578026470213
 21
270.8960879132054
 31
0.0
 11
329.410960925215
 21
270.8359126090406
 31
0.0
 11
329.344043849962
 21
270.7155617827354
 31
0.0
 11
329.3105856971198
 21
270.6085832946839
 31
0.0
 11
329.2905107284577
 21
270.5350356522656
 31
0.0
 11
329.2771271594935
 21
270.4614880098473
 31
0.0
 11
329.2771271594935
 21
270.3277650632641
 31
0.0
 11
329.2905107284577
 21
270.2341589134659
 31
0.0
 11
329.3105856971198
 21
270.1873557295791
 31
0.0
 11
329.3507356344442
 21
270.1271804254141
 31
0.0
 11
329.3841941720706
 21
270.0870634106542
 31
0.0
 11
329.4377272935748
 21
270.0335742756159
 31
0.0
 11
329.4644940467192
 21
270.0001434299825
 31
0.0
 11
329.5514860906342
 21
269.9667128023242
 31
0.0
 11
329.5916360279585
 21
269.9526139529638
 31
0.0
  0
LINE
  5
20CB
330
18
100
AcDbEntity
  8
ROGO
 62
     4
100
AcDbLine
 10
330.8812563492664
 20
270.4109645134984
 30
0.0
 11
330.6527079564387
 21
269.9526139529638
 31
0.0
  0
LINE
  5
20CC
330
18
100
AcDbEntity
  8
ROGO
 62
     4
100
AcDbLine
 10
330.0935117836493
 20
270.4109645134984
 30
0.0
 11
330.8812563492664
 21
270.4109645134984
 31
0.0
  0
LINE
  5
20CD
330
18
100
AcDbEntity
  8
ROGO
 62
     4
100
AcDbLine
 10
330.2674954866951
 20
270.7261820395209
 30
0.0
 11
331.0384339883196
 21
270.7261820395209
 31
0.0
  0
LINE
  5
20CE
330
18
100
AcDbEntity
  8
ROGO
 62
     4
100
AcDbLine
 10
331.2669848014378
 20
271.184537453914
 30
0.0
 11
331.0384339883196
 21
270.7261820395209
 31
0.0
  0
LINE
  5
20CF
102
{ACAD_REACTORS
330
20EC
102
}
330
18
100
AcDbEntity
  8
ROGO
 62
     4
100
AcDbLine
 10
331.5250007872442
 20
271.184537453914
 30
0.0
 11
332.2343187836072
 21
271.184537453914
 31
0.0
  0
LINE
  5
20D0
102
{ACAD_REACTORS
330
20EC
102
}
330
18
100
AcDbEntity
  8
ROGO
 62
     4
100
AcDbLine
 10
331.5250007872442
 20
271.184537453914
 30
0.0
 11
330.5651511948786
 21
269.2595727090449
 31
0.0
  0
LINE
  5
20D1
102
{ACAD_REACTORS
330
20EC
102
}
330
18
100
AcDbEntity
  8
ROGO
 62
     4
100
AcDbLine
 10
332.2343187836072
 20
271.184537453914
 30
0.0
 11
332.0612643999915
 21
270.8374793418358
 31
0.0
  0
LINE
  5
20D2
102
{ACAD_REACTORS
330
20EC
102
}
330
18
100
AcDbEntity
  8
ROGO
 62
     4
100
AcDbLine
 10
331.5250007872442
 20
269.7620102717803
 30
0.0
 11
331.7755323832468
 21
269.2595727090449
 31
0.0
  0
LINE
  5
20D3
102
{ACAD_REACTORS
330
20EC
102
}
330
18
100
AcDbEntity
  8
ROGO
 62
     4
100
AcDbLine
 10
332.0049100641197
 20
270.2220550814795
 30
0.0
 11
332.4848348603025
 21
269.2595727090449
 31
0.0
  0
LINE
  5
20D4
102
{ACAD_REACTORS
330
20EC
102
}
330
18
100
AcDbEntity
  8
ROGO
 62
     4
100
AcDbLine
 10
331.5250007872442
 20
269.7620102717803
 30
0.0
 11
331.2744691912417
 21
269.2595727090449
 31
0.0
  0
LINE
  5
20D5
102
{ACAD_REACTORS
330
20EC
102
}
330
18
100
AcDbEntity
  8
ROGO
 62
     4
100
AcDbLine
 10
332.0049100641197
 20
270.2220550814795
 30
0.0
 11
333.170941670593
 21
271.184537453914
 31
0.0
  0
LINE
  5
20D6
102
{ACAD_REACTORS
330
20EC
102
}
330
18
100
AcDbEntity
  8
ROGO
 62
     4
100
AcDbLine
 10
332.4616391935372
 20
271.184537453914
 30
0.0
 11
333.170941670593
 21
271.184537453914
 31
0.0
  0
LINE
  5
20D7
102
{ACAD_REACTORS
330
20EC
102
}
330
18
100
AcDbEntity
  8
ROGO
 62
     4
100
AcDbLine
 10
331.7755323832468
 20
269.2595727090449
 30
0.0
 11
332.4848348603025
 21
269.2595727090449
 31
0.0
  0
LINE
  5
20D8
102
{ACAD_REACTORS
330
20DA
102
}
330
18
100
AcDbEntity
  8
ROGO
 62
     4
100
AcDbLine
 10
321.6032911383991
 20
271.184537453914
 30
0.0
 11
323.2695189243373
 21
271.1845374539141
 31
0.0
  0
LINE
  5
20D9
330
18
100
AcDbEntity
  8
ROGO
 62
     4
100
AcDbLine
 10
319.2130939227283
 20
269.4525216781034
 30
0.0
 11
330.6613617825228
 21
269.4525216781034
 31
0.0
  0
HATCH
  5
20DA
330
18
100
AcDbEntity
  8
ROGO
 62
     4
100
AcDbHatch
 10
0.0
 20
0.0
 30
0.0
210
0.0
220
0.0
230
1.0
  2
SOLID
 70
     1
 71
     1
 91
        1
 92
        1
 93
       12
 72
     1
 10
321.6032911383991
 20
271.184537453914
 11
323.2695189243373
 21
271.1845374539141
 72
     1
 10
323.2695189243373
 20
271.184537453914
 11
323.1298905107451
 21
270.9023405297994
 72
     1
 10
323.1298905107451
 20
270.9023405297994
 11
322.2541632910977
 21
270.9023405297994
 72
     1
 10
322.2541632910977
 20
270.9023405297994
 11
322.1449912226934
 21
270.6816976025444
 72
     1
 10
322.1449912226934
 20
270.6816976025444
 11
323.0207184423408
 21
270.6816976025444
 72
     1
 10
323.0207184423408
 20
270.6816976025444
 11
322.9087727134319
 21
270.4554489504748
 72
     1
 10
322.9087727134319
 20
270.4554489504749
 11
322.0330454937845
 21
270.4554489504748
 72
     1
 10
322.0330454937845
 20
270.4554489504748
 11
321.9238688035596
 21
270.2347966822592
 72
     1
 10
321.9238688035596
 20
270.2347966822592
 11
322.7995960232071
 21
270.2347966822592
 72
     1
 10
322.7995960232071
 20
270.2347966822592
 11
322.6599746330794
 21
269.9526139529638
 72
     1
 10
322.6599746330794
 20
269.9526139529638
 11
320.9937468471411
 21
269.9526139529638
 72
     1
 10
320.9937468471411
 20
269.9526139529638
 11
321.6032911383991
 21
271.184537453914
 97
       12
330
20D8
330
20AD
330
20B0
330
20AF
330
20B1
330
20B4
330
20B3
330
20B6
330
20B2
330
20B5
330
20AE
330
20AC
 75
     0
 76
     1
 98
        1
 10
253.4467616089913
 20
186.0025398234528
450
        0
451
        0
460
0.0
461
0.0
452
        0
462
0.0
453
        0
470

  0
HATCH
  5
20DB
330
18
100
AcDbEntity
  8
ROGO
 62
     4
100
AcDbHatch
 10
0.0
 20
0.0
 30
0.0
210
0.0
220
0.0
230
1.0
  2
SOLID
 70
     1
 71
     1
 91
        1
 92
        5
 93
        8
 72
     1
 10
327.0690668882592
 20
270.7261820395209
 11
327.2976177013775
 21
271.1845374539141
 72
     1
 10
327.2976177013775
 20
271.1845374539141
 11
326.0639197776028
 21
271.1845374539141
 72
     4
 94
        3
 73
     0
 74
     0
 95
       26
 96
       22
 40
0.0
 40
0.0
 40
0.0
 40
0.0
 40
0.2234850368020611
 40
0.3730909640173049
 40
0.4809690209812992
 40
0.5615180755186499
 40
0.6659944268058665
 40
0.7422519781245713
 40
0.8799553417461909
 40
0.9920439000268267
 40
1.068282079911162
 40
1.143037518666553
 40
1.276760465249744
 40
1.371318548977523
 40
1.422245382657944
 40
1.49458544554505
 40
1.546823828113403
 40
1.622499997844155
 40
1.665326164070649
 40
1.758520705595898
 40
1.801074142830069
 40
1.801074142830069
 40
1.801074142830069
 40
1.801074142830069
 10
326.0639197776027
 20
271.1845374539141
 10
325.9880655030773
 20
271.1800118578195
 10
325.8614326653157
 20
271.172456725566
 10
325.722390579797
 20
271.0879901518148
 10
325.620520207976
 20
271.0388849977106
 10
325.5478663823372
 20
270.9721307241899
 10
325.4946108336269
 20
270.9031784359503
 10
325.4274722168049
 20
270.8210222900839
 10
325.372722593274
 20
270.7253547827614
 10
325.344841938454
 20
270.6199125116739
 10
325.32014551903
 20
270.5358744098217
 10
325.3018302409448
 20
270.4422249125034
 10
325.3064901661884
 20
270.3410505112293
 10
325.313163392405
 20
270.2470849069168
 10
325.3429577247491
 20
270.180007534018
 10
325.3768881918029
 20
270.132253066761
 10
325.4184355840354
 20
270.079656815366
 10
325.4638975168059
 20
270.0448224883803
 10
325.5014982460688
 20
269.9817177642357
 10
325.5673170542063
 20
269.9736651463203
 10
325.6091541071605
 20
269.9576380332843
 10
325.6222689278982
 20
269.9526139529638
 72
     1
 10
325.6222689278981
 20
269.9526139529638
 11
326.6833408563784
 21
269.9526139529638
 72
     1
 10
326.6833408563784
 20
269.9526139529638
 11
326.9118892492061
 21
270.4109645134986
 72
     1
 10
326.9118892492061
 20
270.4109645134986
 11
326.1241446835891
 21
270.4109645134985
 72
     4
 94
        3
 73
     0
 74
     0
 95
       16
 96
       12
 40
0.0
 40
0.0
 40
0.0
 40
0.0
 40
0.0674918873195754
 40
0.1356799044286516
 40
0.1763509919951594
 40
0.2153461943481703
 40
0.2581721904195687
 40
0.2880786719857451
 40
0.3164573274349199
 40
0.374005166381533
 40
0.4918277573139375
 40
0.4918277573139375
 40
0.4918277573139375
 40
0.4918277573139375
 10
326.1241446835891
 20
270.4109645134984
 10
326.1003835314347
 20
270.4179553928633
 10
326.0526161481024
 20
270.4320092574352
 10
326.0486184038478
 20
270.5001372299066
 10
326.0540647520217
 20
270.5486839851854
 10
326.0768740703373
 20
270.5840288579764
 10
326.1045457296782
 20
270.6097469033891
 10
326.1148491157226
 20
270.643240636366
 10
326.1451349802644
 20
270.6685325951948
 10
326.1988399330288
 20
270.7110448449338
 10
326.2582283139074
 20
270.7200990042537
 10
326.2981283866348
 20
270.7261820395209
 72
     1
 10
326.2981283866348
 20
270.7261820395209
 11
327.0690668882592
 21
270.7261820395209
 97
        8
330
20C6
330
20C3
330
20BF
330
20C5
330
20C2
330
20C4
330
20C1
330
20C0
 75
     0
 76
     1
 47
0.0514683685270805
 98
        1
 10
326.4953896184165
 20
270.9102968400063
450
        0
451
        0
460
0.0
461
0.0
452
        0
462
0.0
453
        0
470

  0
HATCH
  5
20DC
330
18
100
AcDbEntity
  8
ROGO
 62
     4
100
AcDbHatch
 10
0.0
 20
0.0
 30
0.0
210
0.0
220
0.0
230
1.0
  2
SOLID
 70
     1
 71
     0
 91
        1
 92
        5
 93
        8
 72
     4
 94
        3
 73
     0
 74
     0
 95
       26
 96
       22
 40
0.0
 40
0.0
 40
0.0
 40
0.0
 40
0.2234850368019487
 40
0.3730909640170909
 40
0.4809690209811345
 40
0.5615180755184426
 40
0.6659944268057684
 40
0.7422519781244385
 40
0.8799553417461849
 40
0.9920439000266952
 40
1.068282079911015
 40
1.143037518666407
 40
1.276760465249598
 40
1.371318548977377
 40
1.42224538265788
 40
1.494585445544954
 40
1.546823828113199
 40
1.62249999784403
 40
1.665326164070453
 40
1.75852070559585
 40
1.801074142829983
 40
1.801074142829983
 40
1.801074142829983
 40
1.801074142829983
 10
330.0332868776629
 20
271.1845374539141
 10
329.9574326031376
 20
271.1800118578195
 10
329.8307997653761
 20
271.1724567255661
 10
329.6917576798573
 20
271.0879901518147
 10
329.5898873080365
 20
271.0388849977106
 10
329.5172334823976
 20
270.9721307241899
 10
329.4639779336872
 20
270.9031784359503
 10
329.3968393168651
 20
270.8210222900839
 10
329.3420896933343
 20
270.7253547827613
 10
329.3142090385142
 20
270.6199125116738
 10
329.2895126190903
 20
270.5358744098216
 10
329.271197341005
 20
270.4422249125034
 10
329.2758572662488
 20
270.3410505112292
 10
329.2825304924654
 20
270.2470849069168
 10
329.3123248248093
 20
270.1800075340179
 10
329.3462552918635
 20
270.1322530667612
 10
329.3878026840955
 20
270.079656815366
 10
329.4332646168665
 20
270.0448224883804
 10
329.4708653461289
 20
269.9817177642356
 10
329.5366841542667
 20
269.9736651463202
 10
329.5785212072208
 20
269.9576380332842
 10
329.5916360279585
 20
269.9526139529638
 72
     1
 10
329.5916360279585
 20
269.9526139529638
 11
330.6527079564387
 21
269.9526139529639
 72
     1
 10
330.6527079564387
 20
269.9526139529639
 11
330.8812563492664
 21
270.4109645134984
 72
     1
 10
330.8812563492664
 20
270.4109645134984
 11
330.0935117836494
 21
270.4109645134984
 72
     4
 94
        3
 73
     0
 74
     0
 95
       16
 96
       12
 40
0.0
 40
0.0
 40
0.0
 40
0.0
 40
0.0674918873195241
 40
0.1356799044287118
 40
0.1763509919951541
 40
0.215346194348243
 40
0.2581721904196059
 40
0.2880786719858587
 40
0.3164573274349932
 40
0.3740051663814543
 40
0.4918277573139686
 40
0.4918277573139686
 40
0.4918277573139686
 40
0.4918277573139686
 10
330.0935117836494
 20
270.4109645134984
 10
330.0697506314952
 20
270.4179553928632
 10
330.0219832481628
 20
270.4320092574352
 10
330.0179855039081
 20
270.5001372299065
 10
330.023431852082
 20
270.5486839851854
 10
330.0462411703977
 20
270.5840288579764
 10
330.0739128297384
 20
270.6097469033892
 10
330.0842162157831
 20
270.643240636366
 10
330.1145020803249
 20
270.6685325951946
 10
330.1682070330888
 20
270.711044844934
 10
330.2275954139676
 20
270.7200990042537
 10
330.2674954866951
 20
270.7261820395209
 72
     1
 10
330.267495486695
 20
270.7261820395209
 11
331.0384339883196
 21
270.7261820395209
 72
     1
 10
331.0384339883196
 20
270.7261820395209
 11
331.2669848014377
 21
271.184537453914
 72
     1
 10
331.2669848014377
 20
271.184537453914
 11
330.0332868776626
 21
271.1845374539141
 97
        0
 75
     0
 76
     1
 47
0.0514683685270805
 98
        1
 10
330.2461688740815
 20
270.9589680707541
450
        0
451
        0
460
0.0
461
0.0
452
        0
462
0.0
453
        0
470

  0
HATCH
  5
20DD
330
18
100
AcDbEntity
  8
ROGO
 62
     4
100
AcDbHatch
 10
0.0
 20
0.0
 30
0.0
210
0.0
220
0.0
230
1.0
  2
SOLID
 70
     1
 71
     0
 91
        1
 92
        7
 72
     0
 73
     1
 93
        4
 10
319.2264751383522
 20
269.4525216781034
 10
319.1391795515083
 20
269.2595727090449
 10
330.5651511948786
 20
269.2595727090449
 10
330.6613617825227
 20
269.4525216781034
 97
        0
 75
     0
 76
     1
 47
0.0514683685270805
 98
        1
 10
326.4466782294951
 20
269.4014897767015
450
        0
451
        0
460
0.0
461
0.0
452
        0
462
0.0
453
        0
470

  0
HATCH
  5
20DE
330
18
100
AcDbEntity
  8
ROGO
 62
     4
100
AcDbHatch
 10
0.0
 20
0.0
 30
0.0
210
0.0
220
0.0
230
1.0
  2
SOLID
 70
     1
 71
     1
 91
        2
 92
        5
 93
        6
 72
     1
 10
318.2443736656507
 20
269.2595727090449
 11
319.1391795515083
 21
269.2595727090449
 72
     1
 10
319.1391795515083
 20
269.2595727090449
 11
319.4527310692497
 21
269.9526139529638
 72
     1
 10
319.4527310692497
 20
269.9526139529638
 11
320.2891910468522
 21
269.9526139529638
 72
     4
 94
        3
 73
     0
 74
     0
 95
       18
 96
       14
 40
0.108740278791501
 40
0.108740278791501
 40
0.108740278791501
 40
0.108740278791501
 40
0.6623149649549278
 40
1.384304701649787
 40
2.097394834876493
 40
2.774073369849618
 40
3.428974823686337
 40
4.005208313035923
 40
4.455173659284313
 40
4.720999734343524
 40
5.086034088486724
 40
5.569973738255373
 40
6.060470601257719
 40
6.060470601257719
 40
6.060470601257719
 40
6.060470601257719
 10
320.289191046852
 20
269.9526139529638
 10
320.3480597181665
 20
269.9530523301343
 10
320.4837067855389
 20
269.9540624527726
 10
320.673475971363
 20
270.055441321746
 10
320.8534313801727
 20
270.1845906144519
 10
320.9983732198536
 20
270.3459491815133
 10
321.08867635289
 20
270.5304350583695
 10
321.1026640227645
 20
270.7072478258219
 10
321.0941248939592
 20
270.8471045267218
 10
321.0331085296397
 20
270.9445881193285
 10
320.9696745731873
 20
271.0435239968218
 10
320.8533581469595
 20
271.1292259286339
 10
320.7580536779263
 20
271.1667761144591
 10
320.709589417066
 20
271.1845374539141
 72
     1
 10
320.709589417066
 20
271.1845374539141
 11
319.1968283190465
 21
271.184537453914
 72
     1
 10
319.1968283190465
 20
271.184537453914
 11
318.2443736656507
 21
269.2595727090449
 97
        6
330
20A5
330
20A2
330
20A4
330
20A3
330
20AB
330
20A6
 92
       20
 93
        4
 72
     1
 10
319.6463313809309
 20
270.3805276871953
 11
319.7945566026119
 21
270.7081491025018
 72
     1
 10
319.7945566026119
 20
270.7081491025018
 11
320.1754322497926
 21
270.7081491025018
 72
     4
 94
        3
 73
     0
 74
     0
 95
       15
 96
       11
 40
0.0
 40
0.0
 40
0.0
 40
0.0
 40
0.1444470268156599
 40
0.2103069258834997
 40
0.2850622957513877
 40
0.3359891294319132
 40
0.4165304450834989
 40
0.4647724930146942
 40
0.5475400388213481
 40
0.5751292383652494
 40
0.5751292383652494
 40
0.5751292383652494
 40
0.5751292383652494
 10
320.1754322497927
 20
270.7081491025017
 10
320.2296837519098
 20
270.70839760334
 10
320.3086709549443
 20
270.7087594068921
 10
320.35186397077
 20
270.6110520083159
 10
320.3325028016269
 20
270.548143685801
 10
320.3081642340531
 20
270.4835564456851
 10
320.2651524728289
 20
270.4396684419124
 10
320.2074243892068
 20
270.3973968957835
 10
320.1528685914791
 20
270.3922797358415
 10
320.117386169152
 20
270.3828780978246
 10
320.1085155593241
 20
270.3805276871953
 72
     1
 10
320.1085155593241
 20
270.3805276871952
 11
319.6463313809309
 21
270.3805276871953
 97
        4
330
20A7
330
20A9
330
20A8
330
20AA
 75
     0
 76
     1
 47
0.0514683685270805
 98
        2
 10
319.2049137924134
 20
270.5858223316465
 10
319.2049137924134
 20
270.5858223316465
450
        0
451
        0
460
0.0
461
0.0
452
        0
462
0.0
453
        0
470

  0
LINE
  5
20DF
102
{ACAD_REACTORS
330
20E2
102
}
330
18
100
AcDbEntity
  8
ROGO
 62
     4
100
AcDbLine
 10
324.7376236761021
 20
271.184537453914
 30
0.0
 11
325.2848929091251
 21
269.9526139529638
 31
0.0
  0
LINE
  5
20E0
102
{ACAD_REACTORS
330
20E2
102
}
330
18
100
AcDbEntity
  8
ROGO
 62
     4
100
AcDbLine
 10
324.1969921964032
 20
270.8552392952045
 30
0.0
 11
324.3838780871584
 21
270.4345521691519
 31
0.0
  0
LINE
  5
20E1
102
{ACAD_REACTORS
330
20E2
102
}
330
18
100
AcDbEntity
  8
ROGO
 62
     4
100
AcDbLine
 10
324.4937774632687
 20
270.1871645653905
 30
0.0
 11
324.5979741391733
 21
269.9526139529638
 31
0.0
  0
HATCH
  5
20E2
330
18
100
AcDbEntity
  8
ROGO
 62
     4
100
AcDbHatch
 10
0.0
 20
0.0
 30
0.0
210
0.0
220
0.0
230
1.0
  2
SOLID
 70
     1
 71
     1
 91
        2
 92
        7
 72
     0
 73
     1
 93
        8
 10
324.7376236761021
 20
271.184537453914
 10
323.7521903809693
 20
271.184537453914
 10
322.8638264022801
 20
269.9526139529638
 10
323.5460915197945
 20
269.9526139529638
 10
323.7152305248534
 20
270.1871645653905
 10
324.4937774632687
 20
270.1871645653905
 10
324.5979741391732
 20
269.9526139529638
 10
325.2848929091251
 20
269.9526139529638
 97
        8
330
20BD
330
20B7
330
20BC
330
20BB
330
20B9
330
20E1
330
20BE
330
20DF
 92
       22
 72
     0
 73
     1
 93
        3
 10
324.3838780871584
 20
270.434552169152
 10
323.8936265338478
 20
270.434552169152
 10
324.1969921964032
 20
270.8552392952045
 97
        3
330
20BA
330
20B8
330
20E0
 75
     0
 76
     1
 47
0.0128389261915577
 98
        2
 10
324.6604564626624
 20
270.8889816991225
 10
324.6604564626624
 20
270.8889816991225
450
        0
451
        0
460
0.0
461
0.0
452
        0
462
0.0
453
        0
470

  0
SPLINE
  5
20E3
102
{ACAD_REACTORS
330
20EA
102
}
330
18
100
AcDbEntity
  8
ROGO
 62
     4
100
AcDbSpline
210
0.0
220
0.0
230
1.0
 70
     8
 71
     3
 72
    38
 73
    34
 74
    32
 42
0.0000000001
 43
0.0000000001
 44
0.0000000001
 40
0.0
 40
0.0
 40
0.0
 40
0.0
 40
0.1695870429095464
 40
0.2228468679889985
 40
0.2912821220253952
 40
0.348311612018577
 40
0.3964299014800401
 40
0.4603419710655682
 40
0.4929985196839283
 40
0.5297783653748024
 40
0.583984936721121
 40
0.6453892195888884
 40
0.6852215765239728
 40
0.7284928789664047
 40
0.7765938613609417
 40
0.849589539512636
 40
0.9189430460054206
 40
0.9511851450558513
 40
0.9879529458657232
 40
1.031510647719719
 40
1.062518134121203
 40
1.088511337635065
 40
1.125623760137804
 40
1.166403955147492
 40
1.207183923099725
 40
1.242866451822257
 40
1.324585785261427
 40
1.356827884311857
 40
1.42131212071152
 40
1.478313317082646
 40
1.587437834126957
 40
1.722086189114383
 40
1.91653800761297
 40
1.91653800761297
 40
1.91653800761297
 40
1.91653800761297
 10
327.9817385385704
 20
271.1896758928336
 30
0.0
 10
327.9252100940196
 20
271.1856825566962
 30
0.0
 10
327.8509285533766
 20
271.1804350894619
 30
0.0
 10
327.7566083654603
 20
271.1545941700342
 30
0.0
 10
327.7051934276356
 20
271.1238093139596
 30
0.0
 10
327.6516859080605
 20
271.1011809691335
 30
0.0
 10
327.6060657641727
 20
271.0676728777481
 30
0.0
 10
327.559921951744
 20
271.0504064810827
 30
0.0
 10
327.5276106417423
 20
271.0192720816866
 30
0.0
 10
327.4902129359996
 20
271.0002538467511
 30
0.0
 10
327.4604324789389
 20
270.9576855079573
 30
0.0
 10
327.42714637454
 20
270.9178856537291
 30
0.0
 10
327.3885303058947
 20
270.8888335351485
 30
0.0
 10
327.3568375800949
 20
270.8583203107365
 30
0.0
 10
327.327763911005
 20
270.8112292372873
 30
0.0
 10
327.3105568124063
 20
270.7486591450088
 30
0.0
 10
327.2620528897007
 20
270.7091546452621
 30
0.0
 10
327.2547497175835
 20
270.6616584492835
 30
0.0
 10
327.2279207188087
 20
270.6336364928998
 30
0.0
 10
327.2162545318151
 20
270.5974641729126
 30
0.0
 10
327.2118114862575
 20
270.5643239384365
 30
0.0
 10
327.2064787721435
 20
270.533373253579
 30
0.0
 10
327.1925294019628
 20
270.5008145002942
 30
0.0
 10
327.1970825245181
 20
270.4605958596223
 30
0.0
 10
327.1957854765963
 20
270.421650814938
 30
0.0
 10
327.196548790821
 20
270.3690737918939
 30
0.0
 10
327.1937938840716
 20
270.3178835943347
 30
0.0
 10
327.2157631858051
 20
270.2621765179617
 30
0.0
 10
327.2287638894875
 20
270.2125213661975
 30
0.0
 10
327.2643684313724
 20
270.1437677872116
 30
0.0
 10
327.3257855199824
 20
270.0644410229919
 30
0.0
 10
327.4425752513955
 20
269.9681533609975
 30
0.0
 10
327.554871992784
 20
269.9583854258964
 30
0.0
 10
327.6212235396189
 20
269.9526139529638
 30
0.0
 11
327.9817385385704
 21
271.1896758928336
 31
0.0
 11
327.8133817614071
 21
271.1692856818
 31
0.0
 11
327.7623645683523
 21
271.153993364111
 31
0.0
 11
327.7011441771764
 21
271.123408274618
 31
0.0
 11
327.6501269841213
 21
271.0979208514123
 31
0.0
 11
327.6093133900042
 21
271.0724332011491
 31
0.0
 11
327.5531945978887
 21
271.0418483387136
 31
0.0
 11
327.5276858009528
 21
271.0214583547375
 31
0.0
 11
327.4970754049565
 21
271.0010681437039
 31
0.0
 11
327.4613634098996
 21
270.9602881757517
 31
0.0
 11
327.4205498157824
 21
270.9144107685698
 31
0.0
 11
327.3899394197859
 21
270.8889231183064
 31
0.0
 11
327.3593294246067
 21
270.858338255871
 31
0.0
 11
327.3338206276705
 21
270.8175582879188
 31
0.0
 11
327.3032106324913
 21
270.7512906697033
 31
0.0
 11
327.262396637557
 21
270.6952181570046
 31
0.0
 11
327.2521934394363
 21
270.6646330675117
 31
0.0
 11
327.2317866423775
 21
270.6340482050762
 31
0.0
 11
327.2164814443793
 21
270.5932680100664
 31
0.0
 11
327.2113794445021
 21
270.5626831476311
 31
0.0
 11
327.2062778454416
 21
270.5371954973679
 31
0.0
 11
327.1960746473208
 21
270.5015131957026
 31
0.0
 11
327.1960746473208
 21
270.4607330006929
 31
0.0
 11
327.1960746473208
 21
270.4199530327407
 31
0.0
 11
327.1960746473208
 21
270.3842705040182
 31
0.0
 11
327.2011762463812
 21
270.3027105681135
 31
0.0
 11
327.2113794445021
 21
270.2721254786207
 31
0.0
 11
327.2317866423775
 21
270.2109555266923
 31
0.0
 11
327.2572950384966
 21
270.1599804532233
 31
0.0
 11
327.3236174295498
 21
270.0733230780891
 31
0.0
 11
327.4307534147201
 21
269.9917629151271
 31
0.0
 11
327.6212235396189
 21
269.9526139529638
 31
0.0
  0
SPLINE
  5
20E4
102
{ACAD_REACTORS
330
20EA
102
}
330
18
100
AcDbEntity
  8
ROGO
 62
     4
100
AcDbSpline
210
0.0
220
0.0
230
1.0
 70
     8
 71
     3
 72
    25
 73
    21
 74
     0
 42
0.0000000001
 43
0.0000000001
 40
0.0
 40
0.0
 40
0.0
 40
0.0
 40
0.4087168505087288
 40
0.6887487002771746
 40
0.9415836120477687
 40
1.17452070575514
 40
1.41154617586699
 40
1.599156012919487
 40
1.80099909059943
 40
2.178735911501585
 40
2.521686161369157
 40
2.762704659361267
 40
3.06256558063785
 40
3.222432137207705
 40
3.399493810628493
 40
3.567459719866414
 40
3.743172740007509
 40
3.995988754699505
 40
4.17170091132118
 40
4.337226830236035
 40
4.337226830236035
 40
4.337226830236035
 40
4.337226830236035
 10
328.6857748407685
 20
271.1896758928336
 30
0.0
 10
328.7319505030479
 20
271.1881923164287
 30
0.0
 10
328.8097633638086
 20
271.1856922694663
 30
0.0
 10
328.893305069415
 20
271.1203946874738
 30
0.0
 10
328.9572287639844
 20
271.0662579890284
 30
0.0
 10
329.0026025958426
 20
271.0008092555803
 30
0.0
 10
329.0423740307566
 20
270.9406326315622
 30
0.0
 10
329.068580391022
 20
270.8770999625451
 30
0.0
 10
329.1042262186453
 20
270.8008665781732
 30
0.0
 10
329.1189818302754
 20
270.6988776357593
 30
0.0
 10
329.1090126600998
 20
270.59346265352
 30
0.0
 10
329.0829977806641
 20
270.5000219682889
 30
0.0
 10
329.0557102637515
 20
270.4283364695753
 30
0.0
 10
329.0235486768761
 20
270.3659297957207
 30
0.0
 10
328.9852079555268
 20
270.3255214695588
 30
0.0
 10
328.9586087040375
 20
270.2741426767646
 30
0.0
 10
328.907514944468
 20
270.2321175826739
 30
0.0
 10
328.8660955868855
 20
270.1802645149911
 30
0.0
 10
328.8190932420514
 20
270.1357584755955
 30
0.0
 10
328.7925931116843
 20
270.1082987856303
 30
0.0
 10
328.7786216038878
 20
270.096753245809
 30
0.0
  0
LINE
  5
20E5
102
{ACAD_REACTORS
330
20EA
102
}
330
18
100
AcDbEntity
  8
ROGO
 62
     4
100
AcDbLine
 10
327.9817385385703
 20
271.1896758928336
 30
0.0
 11
328.6857748407685
 21
271.1896758928336
 31
0.0
  0
LINE
  5
20E6
102
{ACAD_REACTORS
330
20EA
102
}
330
18
100
AcDbEntity
  8
ROGO
 62
     4
100
AcDbLine
 10
327.6212235396187
 20
269.9526139529638
 30
0.0
 11
328.3252598418169
 21
269.9526139529638
 31
0.0
  0
SPLINE
  5
20E7
102
{ACAD_REACTORS
330
20EA
102
}
330
18
100
AcDbEntity
  8
ROGO
 62
     4
100
AcDbSpline
210
0.0
220
0.0
230
1.0
 70
     8
 71
     3
 72
    11
 73
     7
 74
     0
 42
0.0000000001
 43
0.0000000001
 40
0.1647869275458134
 40
0.1647869275458134
 40
0.1647869275458134
 40
0.1647869275458134
 40
0.2895635144633836
 40
0.5387013147903714
 40
0.7953622617455423
 40
0.8850764140209602
 40
0.8850764140209602
 40
0.8850764140209602
 40
0.8850764140209602
 10
328.5598130702931
 20
269.9800795754795
 30
0.0
 10
328.5466991367244
 20
269.9764293070722
 30
0.0
 10
328.5060388795828
 20
269.9699302067361
 30
0.0
 10
328.4378367202906
 20
269.9610061786976
 30
0.0
 10
328.3730139790515
 20
269.9516936298498
 30
0.0
 10
328.3350840278635
 20
269.9524246201433
 30
0.0
 10
328.3252598418169
 20
269.9526139529638
 30
0.0
  0
SPLINE
  5
20E8
102
{ACAD_REACTORS
330
20EA
102
}
330
18
100
AcDbEntity
  8
ROGO
 62
     4
100
AcDbSpline
210
0.0
220
0.0
230
1.0
 70
     8
 71
     3
 72
     9
 73
     5
 74
     3
 42
0.0000000001
 43
0.0000000001
 44
0.0000000001
 40
0.0
 40
0.0
 40
0.0
 40
0.0
 40
0.1065541570915573
 40
0.2498228725988719
 40
0.2498228725988719
 40
0.2498228725988719
 40
0.2498228725988719
 10
328.5598130702931
 20
269.9800795754795
 30
0.0
 10
328.5940413484187
 20
269.9905514954561
 30
0.0
 10
328.6742916830736
 20
270.0151035655173
 30
0.0
 10
328.7405968427474
 20
270.0669946725632
 30
0.0
 10
328.7786216038878
 20
270.096753245809
 30
0.0
 11
328.5598130702931
 21
269.9800795754795
 31
0.0
 11
328.6599610220786
 21
270.0164688066703
 31
0.0
 11
328.7786216038878
 21
270.096753245809
 31
0.0
  0
ELLIPSE
  5
20E9
330
18
100
AcDbEntity
  8
ROGO
 62
     4
100
AcDbEllipse
 10
328.1435299329077
 20
270.5538971605044
 30
0.0
 11
0.1672573360709411
 21
0.1470818975306736
 31
0.0
210
0.0
220
0.0
230
1.0
 40
0.6788083417438791
 41
0.0
 42
6.283185307179586
  0
HATCH
  5
20EA
330
18
100
AcDbEntity
  8
ROGO
 62
     4
100
AcDbHatch
 10
0.0
 20
0.0
 30
0.0
210
0.0
220
0.0
230
1.0
  2
SOLID
 70
     1
 71
     1
 91
        1
 92
        5
 93
        6
 72
     4
 94
        3
 73
     0
 74
     0
 95
       38
 96
       34
 40
0.0
 40
0.0
 40
0.0
 40
0.0
 40
0.1695870429095464
 40
0.2228468679889985
 40
0.2912821220253952
 40
0.348311612018577
 40
0.3964299014800401
 40
0.4603419710655682
 40
0.4929985196839283
 40
0.5297783653748024
 40
0.583984936721121
 40
0.6453892195888884
 40
0.6852215765239728
 40
0.7284928789664047
 40
0.7765938613609417
 40
0.849589539512636
 40
0.9189430460054206
 40
0.9511851450558513
 40
0.9879529458657232
 40
1.031510647719719
 40
1.062518134121203
 40
1.088511337635065
 40
1.125623760137804
 40
1.166403955147492
 40
1.207183923099725
 40
1.242866451822257
 40
1.324585785261427
 40
1.356827884311857
 40
1.42131212071152
 40
1.478313317082646
 40
1.587437834126957
 40
1.722086189114383
 40
1.91653800761297
 40
1.91653800761297
 40
1.91653800761297
 40
1.91653800761297
 10
327.9817385385704
 20
271.1896758928336
 10
327.9252100940196
 20
271.1856825566962
 10
327.8509285533766
 20
271.1804350894619
 10
327.7566083654603
 20
271.1545941700342
 10
327.7051934276356
 20
271.1238093139596
 10
327.6516859080605
 20
271.1011809691335
 10
327.6060657641727
 20
271.0676728777481
 10
327.559921951744
 20
271.0504064810827
 10
327.5276106417423
 20
271.0192720816866
 10
327.4902129359996
 20
271.0002538467511
 10
327.4604324789389
 20
270.9576855079573
 10
327.42714637454
 20
270.9178856537291
 10
327.3885303058947
 20
270.8888335351485
 10
327.3568375800949
 20
270.8583203107365
 10
327.327763911005
 20
270.8112292372873
 10
327.3105568124063
 20
270.7486591450088
 10
327.2620528897007
 20
270.7091546452621
 10
327.2547497175835
 20
270.6616584492835
 10
327.2279207188087
 20
270.6336364928998
 10
327.2162545318151
 20
270.5974641729126
 10
327.2118114862575
 20
270.5643239384365
 10
327.2064787721435
 20
270.533373253579
 10
327.1925294019628
 20
270.5008145002942
 10
327.1970825245181
 20
270.4605958596223
 10
327.1957854765963
 20
270.421650814938
 10
327.196548790821
 20
270.3690737918939
 10
327.1937938840716
 20
270.3178835943347
 10
327.2157631858051
 20
270.2621765179617
 10
327.2287638894875
 20
270.2125213661975
 10
327.2643684313724
 20
270.1437677872116
 10
327.3257855199824
 20
270.0644410229919
 10
327.4425752513955
 20
269.9681533609975
 10
327.554871992784
 20
269.9583854258964
 10
327.6212235396189
 20
269.9526139529638
 72
     1
 10
327.6212235396189
 20
269.9526139529639
 11
328.3252598418167
 21
269.9526139529638
 72
     4
 94
        3
 73
     0
 74
     0
 95
       11
 96
        7
 40
0.1647869275458135
 40
0.1647869275458135
 40
0.1647869275458135
 40
0.1647869275458135
 40
0.2545010798212315
 40
0.5111620267764023
 40
0.7602998271033902
 40
0.8850764140209603
 40
0.8850764140209603
 40
0.8850764140209603
 40
0.8850764140209603
 10
328.3252598418169
 20
269.9526139529638
 10
328.3350840278635
 20
269.9524246201433
 10
328.3730139790515
 20
269.9516936298498
 10
328.4378367202906
 20
269.9610061786976
 10
328.5060388795828
 20
269.9699302067361
 10
328.5466991367244
 20
269.9764293070722
 10
328.5598130702931
 20
269.9800795754795
 72
     4
 94
        3
 73
     0
 74
     0
 95
        9
 96
        5
 40
0.0
 40
0.0
 40
0.0
 40
0.0
 40
0.1065541570915573
 40
0.2498228725988719
 40
0.2498228725988719
 40
0.2498228725988719
 40
0.2498228725988719
 10
328.5598130702931
 20
269.9800795754795
 10
328.5940413484187
 20
269.9905514954561
 10
328.6742916830736
 20
270.0151035655173
 10
328.7405968427474
 20
270.0669946725632
 10
328.7786216038878
 20
270.096753245809
 72
     4
 94
        3
 73
     0
 74
     0
 95
       25
 96
       21
 40
0.0
 40
0.0
 40
0.0
 40
0.0
 40
0.165525918914855
 40
0.3412380755365305
 40
0.5940540902285263
 40
0.7697671103696209
 40
0.9377330196075423
 40
1.11479469302833
 40
1.274661249598185
 40
1.574522170874768
 40
1.815540668866877
 40
2.15849091873445
 40
2.536227739636605
 40
2.738070817316548
 40
2.925680654369045
 40
3.162706124480894
 40
3.395643218188267
 40
3.648478129958861
 40
3.928509979727306
 40
4.337226830236035
 40
4.337226830236035
 40
4.337226830236035
 40
4.337226830236035
 10
328.7786216038878
 20
270.096753245809
 10
328.7925931116843
 20
270.1082987856303
 10
328.8190932420514
 20
270.1357584755955
 10
328.8660955868855
 20
270.1802645149911
 10
328.907514944468
 20
270.2321175826739
 10
328.9586087040375
 20
270.2741426767646
 10
328.9852079555268
 20
270.3255214695588
 10
329.0235486768761
 20
270.3659297957207
 10
329.0557102637515
 20
270.4283364695753
 10
329.0829977806641
 20
270.5000219682889
 10
329.1090126600998
 20
270.59346265352
 10
329.1189818302754
 20
270.6988776357593
 10
329.1042262186453
 20
270.8008665781732
 10
329.068580391022
 20
270.8770999625451
 10
329.0423740307566
 20
270.9406326315622
 10
329.0026025958426
 20
271.0008092555803
 10
328.9572287639844
 20
271.0662579890284
 10
328.893305069415
 20
271.1203946874738
 10
328.8097633638086
 20
271.1856922694663
 10
328.7319505030479
 20
271.1881923164287
 10
328.6857748407685
 20
271.1896758928336
 72
     1
 10
328.6857748407685
 20
271.1896758928336
 11
327.9817385385704
 21
271.1896758928336
 97
        6
330
20E4
330
20E5
330
20E3
330
20E6
330
20E7
330
20E8
 75
     0
 76
     1
 47
0.088756267210375
 98
        1
 10
328.1927181978898
 20
270.8479944277397
450
        0
451
        0
460
0.0
461
0.0
452
        0
462
0.0
453
        0
470

  0
LINE
  5
20EB
102
{ACAD_REACTORS
330
20EC
102
}
330
18
100
AcDbEntity
  8
ROGO
 62
     4
100
AcDbLine
 10
332.0612643999915
 20
270.8374793418358
 30
0.0
 11
332.4616391935372
 21
271.184537453914
 31
0.0
  0
HATCH
  5
20EC
330
18
100
AcDbEntity
  8
ROGO
 62
     4
100
AcDbHatch
 10
0.0
 20
0.0
 30
0.0
210
0.0
220
0.0
230
1.0
  2
SOLID
 70
     1
 71
     1
 91
        1
 92
        7
 72
     0
 73
     1
 93
       11
 10
332.0612643999916
 20
270.8374793418361
 10
332.2343187836073
 20
271.1845374539141
 10
331.5250007872442
 20
271.1845374539141
 10
330.5651511948787
 20
269.2595727090449
 10
331.2744691912417
 20
269.2595727090449
 10
331.5250007872442
 20
269.7620102717804
 10
331.7755323832469
 20
269.2595727090449
 10
332.4848348603025
 20
269.259572709045
 10
332.0049100641198
 20
270.2220550814796
 10
333.1709416705929
 20
271.184537453914
 10
332.4616391935372
 20
271.184537453914
 97
       11
330
20D6
330
20EB
330
20D1
330
20CF
330
20D0
330
20A3
330
20D4
330
20D2
330
20D7
330
20D3
330
20D5
 75
     0
 76
     1
 47
0.015942268611278
 98
        1
 10
331.9078958676514
 20
270.5600418619854
450
        0
451
        0
460
0.0
461
0.0
452
        0
462
0.0
453
        0
470

  0
TEXT
  5
20ED
330
18
100
AcDbEntity
  8
文字
100
AcDbText
 10
322.6749612087739
 20
273.6317142078877
 30
0.0
 40
1.0
  1
0.01mm
  7
STYLE3
100
AcDbText
  0
LINE
  5
20EE
102
{ACAD_REACTORS
330
20F0
102
}
330
18
100
AcDbEntity
  8
外形線
100
AcDbLine
 10
325.2578457395281
 20
275.9122989768515
 30
0.0
 11
324.0911790728614
 21
276.3369309168287
 31
0.0
  0
LINE
  5
20EF
102
{ACAD_REACTORS
330
20F0
102
}
330
18
100
AcDbEntity
  8
外形線
100
AcDbLine
 10
325.2578457395281
 20
275.9122989768515
 30
0.0
 11
324.0911790728614
 21
275.4876670368743
 31
0.0
  0
HATCH
  5
20F0
330
18
100
AcDbEntity
  8
外形線
100
AcDbHatch
 10
0.0
 20
0.0
 30
0.0
210
0.0
220
0.0
230
1.0
  2
SOLID
 70
     1
 71
     1
 91
        2
 92
        1
 93
        4
 72
     1
 10
325.4245124061948
 20
275.1622989768515
 11
325.2578457395281
 21
275.1622989768515
 72
     1
 10
325.2578457395281
 20
275.1622989768515
 11
325.2578457395281
 21
276.6622989768515
 72
     1
 10
325.2578457395281
 20
276.6622989768515
 11
325.4245124061948
 21
276.6622989768515
 72
     1
 10
325.4245124061948
 20
276.6622989768515
 11
325.4245124061948
 21
275.1622989768515
 97
        4
330
2104
330
2102
330
2103
330
20F9
 92
        1
 93
        7
 72
     1
 10
324.0911790728615
 20
275.7456323101848
 11
324.0911790728615
 21
275.4876670368743
 72
     1
 10
324.0911790728614
 20
275.4876670368743
 11
325.2578457395281
 21
275.9122989768515
 72
     1
 10
325.2578457395281
 20
275.9122989768515
 11
324.0911790728614
 21
276.3369309168287
 72
     1
 10
324.0911790728615
 20
276.3369309168287
 11
324.0911790728615
 21
276.0789656435182
 72
     1
 10
324.0911790728615
 20
276.0789656435181
 11
323.0911790728614
 21
276.0789656435181
 72
     1
 10
323.0911790728614
 20
276.0789656435181
 11
323.0911790728614
 21
275.7456323101848
 72
     1
 10
323.0911790728614
 20
275.7456323101848
 11
324.0911790728615
 21
275.7456323101848
 97
        7
330
20F5
330
20EF
330
20EE
330
20F4
330
20F1
330
20F2
330
20F3
 75
     0
 76
     1
 98
        1
 10
691.4265675097914
 20
38.15238592301302
450
        0
451
        0
460
0.0
461
0.0
452
        0
462
0.0
453
        0
470

  0
LINE
  5
20F1
102
{ACAD_REACTORS
330
20F0
102
}
330
18
100
AcDbEntity
  8
外形線
100
AcDbLine
 10
324.0911790728615
 20
276.0789656435181
 30
0.0
 11
323.0911790728614
 21
276.0789656435181
 31
0.0
  0
LINE
  5
20F2
102
{ACAD_REACTORS
330
20F0
102
}
330
18
100
AcDbEntity
  8
外形線
100
AcDbLine
 10
323.0911790728614
 20
276.0789656435181
 30
0.0
 11
323.0911790728614
 21
275.7456323101848
 31
0.0
  0
LINE
  5
20F3
102
{ACAD_REACTORS
330
20F0
102
}
330
18
100
AcDbEntity
  8
外形線
100
AcDbLine
 10
324.0911790728615
 20
275.7456323101848
 30
0.0
 11
323.0911790728614
 21
275.7456323101848
 31
0.0
  0
LINE
  5
20F4
102
{ACAD_REACTORS
330
20F0
102
}
330
18
100
AcDbEntity
  8
外形線
100
AcDbLine
 10
324.0911790728615
 20
276.3369309168287
 30
0.0
 11
324.0911790728615
 21
276.0789656435182
 31
0.0
  0
LINE
  5
20F5
102
{ACAD_REACTORS
330
20F0
102
}
330
18
100
AcDbEntity
  8
外形線
100
AcDbLine
 10
324.0911790728615
 20
275.7456323101848
 30
0.0
 11
324.0911790728615
 21
275.4876670368743
 31
0.0
  0
HATCH
  5
20F6
330
18
100
AcDbEntity
  8
外形線
100
AcDbHatch
 10
0.0
 20
0.0
 30
0.0
210
0.0
220
0.0
230
1.0
  2
SOLID
 70
     1
 71
     1
 91
        2
 92
        1
 93
        4
 72
     1
 10
326.2578457395281
 20
275.1622989768515
 11
326.4245124061947
 21
275.1622989768515
 72
     1
 10
326.4245124061947
 20
275.1622989768515
 11
326.4245124061947
 21
276.6622989768515
 72
     1
 10
326.4245124061947
 20
276.6622989768515
 11
326.2578457395281
 21
276.6622989768515
 72
     1
 10
326.2578457395281
 20
276.6622989768515
 11
326.2578457395281
 21
275.1622989768515
 97
        4
330
20FB
330
20FC
330
20FD
330
20FA
 92
        1
 93
        7
 72
     1
 10
327.5911790728614
 20
275.7456323101848
 11
327.5911790728614
 21
275.4876670368743
 72
     1
 10
327.5911790728614
 20
275.4876670368743
 11
326.4245124061947
 21
275.9122989768515
 72
     1
 10
326.4245124061947
 20
275.9122989768515
 11
327.5911790728614
 21
276.3369309168287
 72
     1
 10
327.5911790728614
 20
276.3369309168287
 11
327.5911790728614
 21
276.0789656435182
 72
     1
 10
327.5911790728614
 20
276.0789656435181
 11
328.5911790728614
 21
276.0789656435181
 72
     1
 10
328.5911790728614
 20
276.0789656435181
 11
328.5911790728614
 21
275.7456323101848
 72
     1
 10
328.5911790728614
 20
275.7456323101848
 11
327.5911790728614
 21
275.7456323101848
 97
        7
330
20FE
330
2100
330
2101
330
20FF
330
20F8
330
2105
330
20F7
 75
     0
 76
     1
 98
        1
 10
-39.74420936406853
 20
38.15238592301302
450
        0
451
        0
460
0.0
461
0.0
452
        0
462
0.0
453
        0
470

  0
LINE
  5
20F7
102
{ACAD_REACTORS
330
20F6
102
}
330
18
100
AcDbEntity
  8
外形線
100
AcDbLine
 10
327.5911790728614
 20
275.7456323101848
 30
0.0
 11
328.5911790728614
 21
275.7456323101848
 31
0.0
  0
LINE
  5
20F8
102
{ACAD_REACTORS
330
20F6
102
}
330
18
100
AcDbEntity
  8
外形線
100
AcDbLine
 10
327.5911790728614
 20
276.0789656435181
 30
0.0
 11
328.5911790728614
 21
276.0789656435181
 31
0.0
  0
LINE
  5
20F9
102
{ACAD_REACTORS
330
20F0
102
}
330
18
100
AcDbEntity
  8
外形線
100
AcDbLine
 10
325.4245124061948
 20
276.6622989768515
 30
0.0
 11
325.4245124061948
 21
275.1622989768515
 31
0.0
  0
LINE
  5
20FA
102
{ACAD_REACTORS
330
20F6
102
}
330
18
100
AcDbEntity
  8
外形線
100
AcDbLine
 10
326.2578457395281
 20
276.6622989768515
 30
0.0
 11
326.2578457395281
 21
275.1622989768515
 31
0.0
  0
LINE
  5
20FB
102
{ACAD_REACTORS
330
20F6
102
}
330
18
100
AcDbEntity
  8
外形線
100
AcDbLine
 10
326.2578457395281
 20
275.1622989768515
 30
0.0
 11
326.4245124061947
 21
275.1622989768515
 31
0.0
  0
LINE
  5
20FC
102
{ACAD_REACTORS
330
20F6
102
}
330
18
100
AcDbEntity
  8
外形線
100
AcDbLine
 10
326.4245124061947
 20
276.6622989768515
 30
0.0
 11
326.4245124061947
 21
275.1622989768515
 31
0.0
  0
LINE
  5
20FD
102
{ACAD_REACTORS
330
20F6
102
}
330
18
100
AcDbEntity
  8
外形線
100
AcDbLine
 10
326.2578457395281
 20
276.6622989768515
 30
0.0
 11
326.4245124061947
 21
276.6622989768515
 31
0.0
  0
LINE
  5
20FE
102
{ACAD_REACTORS
330
20F6
102
}
330
18
100
AcDbEntity
  8
外形線
100
AcDbLine
 10
327.5911790728614
 20
275.7456323101848
 30
0.0
 11
327.5911790728614
 21
275.4876670368743
 31
0.0
  0
LINE
  5
20FF
102
{ACAD_REACTORS
330
20F6
102
}
330
18
100
AcDbEntity
  8
外形線
100
AcDbLine
 10
327.5911790728614
 20
276.3369309168287
 30
0.0
 11
327.5911790728614
 21
276.0789656435182
 31
0.0
  0
LINE
  5
2100
102
{ACAD_REACTORS
330
20F6
102
}
330
18
100
AcDbEntity
  8
外形線
100
AcDbLine
 10
326.4245124061947
 20
275.9122989768515
 30
0.0
 11
327.5911790728614
 21
275.4876670368743
 31
0.0
  0
LINE
  5
2101
102
{ACAD_REACTORS
330
20F6
102
}
330
18
100
AcDbEntity
  8
外形線
100
AcDbLine
 10
326.4245124061947
 20
275.9122989768515
 30
0.0
 11
327.5911790728614
 21
276.3369309168287
 31
0.0
  0
LINE
  5
2102
102
{ACAD_REACTORS
330
20F0
102
}
330
18
100
AcDbEntity
  8
外形線
100
AcDbLine
 10
325.2578457395281
 20
276.6622989768515
 30
0.0
 11
325.2578457395281
 21
275.1622989768515
 31
0.0
  0
LINE
  5
2103
102
{ACAD_REACTORS
330
20F0
102
}
330
18
100
AcDbEntity
  8
外形線
100
AcDbLine
 10
325.4245124061948
 20
276.6622989768515
 30
0.0
 11
325.2578457395281
 21
276.6622989768515
 31
0.0
  0
LINE
  5
2104
102
{ACAD_REACTORS
330
20F0
102
}
330
18
100
AcDbEntity
  8
外形線
100
AcDbLine
 10
325.4245124061948
 20
275.1622989768515
 30
0.0
 11
325.2578457395281
 21
275.1622989768515
 31
0.0
  0
LINE
  5
2105
102
{ACAD_REACTORS
330
20F6
102
}
330
18
100
AcDbEntity
  8
外形線
100
AcDbLine
 10
328.5911790728614
 20
276.0789656435181
 30
0.0
 11
328.5911790728614
 21
275.7456323101848
 31
0.0
  0
LINE
  5
2106
330
18
100
AcDbEntity
  8
外形線
100
AcDbLine
 10
326.6354371986557
 20
286.7431275771663
 30
0.0
 11
335.6193802506788
 21
267.6512767701332
 31
0.0
  0
POINT
  5
2107
330
18
100
AcDbEntity
  8
DEFPOINTS
  6
ByBlock
 62
     0
100
AcDbPoint
 10
318.2443736656507
 20
269.2595727090449
 30
0.0
  0
POINT
  5
2108
330
18
100
AcDbEntity
  8
DEFPOINTS
  6
ByBlock
 62
     0
100
AcDbPoint
 10
333.170941670593
 20
271.184537453914
 30
0.0
  0
CIRCLE
  5
2109
330
18
100
AcDbEntity
  8
針
100
AcDbCircle
 10
325.8264565446821
 20
288.4622989768516
 30
0.0
 40
1.9
  0
CIRCLE
  5
210A
330
18
100
AcDbEntity
  8
針
100
AcDbCircle
 10
325.8264565446821
 20
288.4622989768516
 30
0.0
 40
1.5
  0
POINT
  5
210B
330
18
100
AcDbEntity
  8
DEFPOINTS
  6
ByBlock
 62
     0
100
AcDbPoint
 10
325.8264565446821
 20
288.4622989768514
 30
0.0
  0
POINT
  5
210C
330
18
100
AcDbEntity
  8
DEFPOINTS
  6
ByBlock
 62
     0
100
AcDbPoint
 10
325.8264565446821
 20
288.4622989768514
 30
0.0
  0
CIRCLE
  5
210D
330
18
100
AcDbEntity
  8
針
100
AcDbCircle
 10
325.8264565446821
 20
288.4622989768516
 30
0.0
 40
0.475
  0
ARC
  5
210E
330
18
100
AcDbEntity
  8
針
100
AcDbCircle
 10
329.2247781275823
 20
285.1435777744613
 30
0.0
 40
3.0
100
AcDbArc
 50
146.92772082296
 51
176.4000000000007
  0
HATCH
  5
210F
330
18
100
AcDbEntity
  8
針
100
AcDbHatch
 10
0.0
 20
0.0
 30
0.0
210
0.0
220
0.0
230
1.0
  2
SOLID
 70
     1
 71
     0
 91
        2
 92
        7
 72
     1
 73
     1
 93
        5
 10
324.3552427094787
 20
266.5113620981871
 42
0.0
 10
324.4450651150372
 20
266.5057109514294
 42
0.0
 10
324.5348875205958
 20
266.5000598046719
 42
0.0
 10
325.1182693570283
 20
272.9784857867086
 42
-0.0085634322047721
 10
324.5884230898097
 20
273.0118208883062
 42
0.0
 97
        0
 92
        7
 72
     1
 73
     1
 93
        6
 10
324.5884230898097
 20
273.0118208883062
 42
0.0085634322047721
 10
325.1182693570283
 20
272.9784857867086
 42
0.0
 10
326.2306979422975
 20
285.3319493330496
 42
-0.1293106770632391
 10
326.710829627344
 20
286.7806675515199
 42
-0.2805221108582334
 10
324.7382927037262
 20
286.9047690557148
 42
-0.1293106770632486
 10
325.0330658681834
 20
285.4072979564847
 42
0.0
 97
        0
 75
     0
 76
     1
 47
0.0423559757596284
 98
        2
 10
324.8543805487174
 20
272.3655920842014
 10
325.0040589533515
 20
276.7699061105524
450
        0
451
        0
460
0.0
461
0.0
452
        0
462
0.0
453
        0
470

  0
LINE
  5
2110
330
18
100
AcDbEntity
  8
針
100
AcDbLine
 10
324.5348875205958
 20
266.5000598046719
 30
0.0
 11
326.2306979422975
 21
285.3319493330491
 31
0.0
  0
ARC
  5
2111
330
18
100
AcDbEntity
  8
針
100
AcDbCircle
 10
322.0389856828985
 20
285.5956695150724
 30
0.0
 40
3.0
100
AcDbArc
 50
356.4000000000007
 51
25.87227917703917
  0
LINE
  5
2112
330
18
100
AcDbEntity
  8
針
100
AcDbLine
 10
324.4450651150373
 20
266.5057109514294
 30
0.0
 11
324.5348875205958
 21
266.5000598046719
 31
0.0
  0
LINE
  5
2113
330
18
100
AcDbEntity
  8
針
100
AcDbLine
 10
324.4450651150372
 20
266.5057109514294
 30
0.0
 11
324.3552427094787
 21
266.5113620981871
 31
0.0
  0
LINE
  5
2114
330
18
100
AcDbEntity
  8
針
100
AcDbLine
 10
324.3552427094787
 20
266.5113620981871
 30
0.0
 11
325.0330658681833
 21
285.4072979564843
 31
0.0
  0
POINT
  5
2115
330
18
100
AcDbEntity
  8
DEFPOINTS
  6
ByBlock
 62
     0
100
AcDbPoint
 10
325.1270198945813
 20
286.6957236536639
 30
0.0
  0
POINT
  5
2116
330
18
100
AcDbEntity
  8
DEFPOINTS
  6
ByBlock
 62
     0
100
AcDbPoint
 10
327.7227073286959
 20
288.3429969897457
 30
0.0
  0
LINE
  5
2118
330
18
100
AcDbEntity
  8
目盛
100
AcDbLine
 10
315.5651032863156
 20
269.7969666919172
 30
0.0
 11
314.7461220403426
 21
268.3072453358427
 31
0.0
  0
LINE
  5
2119
330
18
100
AcDbEntity
  8
目盛
100
AcDbLine
 10
316.7573576343461
 20
269.1894827593253
 30
0.0
 11
316.0335328386854
 21
267.6512767701331
 31
0.0
  0
LINE
  5
211A
330
18
100
AcDbEntity
  8
目盛
100
AcDbLine
 10
314.4133458116295
 20
270.4781141636587
 30
0.0
 11
313.5024402601652
 21
269.0427566903053
 31
0.0
  0
POINT
  5
211B
330
18
100
AcDbEntity
  8
DEFPOINTS
  6
ByBlock
 62
     0
100
AcDbPoint
 10
325.1270198945813
 20
286.6957236536639
 30
0.0
  0
POINT
  5
211C
330
18
100
AcDbEntity
  8
DEFPOINTS
  6
ByBlock
 62
     0
100
AcDbPoint
 10
327.290431705956
 20
287.2511933963289
 30
0.0
  0
POINT
  5
211D
330
18
100
AcDbEntity
  8
DEFPOINTS
  6
ByBlock
 62
     0
100
AcDbPoint
 10
339.345517347409
 20
269.8549081062276
 30
0.0
  0
LINE
  5
2120
330
18
100
AcDbEntity
  8
目盛
100
AcDbLine
 10
336.0878098030489
 20
269.7969666919172
 30
0.0
 11
336.9067910490218
 21
268.3072453358427
 31
0.0
  0
LINE
  5
2121
330
18
100
AcDbEntity
  8
目盛
100
AcDbLine
 10
337.239567277735
 20
270.4781141636587
 30
0.0
 11
338.1504728291993
 21
269.0427566903053
 31
0.0
  0
LINE
  5
2122
330
18
100
AcDbEntity
  8
外形線
100
AcDbLine
 10
325.0174758907087
 20
286.7431275771663
 30
0.0
 11
316.0335328386858
 21
267.6512767701331
 31
0.0
  0
LINE
  5
2123
330
18
100
AcDbEntity
  8
目盛
100
AcDbLine
 10
334.8955554550184
 20
269.1894827593253
 30
0.0
 11
335.6193802506791
 21
267.6512767701331
 31
0.0
  0
TEXT
  5
2124
330
18
100
AcDbEntity
  8
文字
100
AcDbText
 10
312.6573491995001
 20
272.6670872611235
 30
0.0
 40
2.5
  1
40
  7
STYLE3
100
AcDbText
  0
TEXT
  5
2125
330
18
100
AcDbEntity
  8
文字
100
AcDbText
 10
333.5692675458748
 20
272.7324047596602
 30
0.0
 40
2.5
  1
40
  7
STYLE3
100
AcDbText
  0
CIRCLE
  5
2126
330
18
100
AcDbEntity
  8
針
100
AcDbCircle
 10
325.8264565446821
 20
288.4622989768516
 30
0.0
 40
1.9
  0
CIRCLE
  5
2127
330
18
100
AcDbEntity
  8
針
100
AcDbCircle
 10
325.8264565446821
 20
288.4622989768516
 30
0.0
 40
1.5
  0
POINT
  5
2128
330
18
100
AcDbEntity
  8
DEFPOINTS
  6
ByBlock
 62
     0
100
AcDbPoint
 10
325.8264565446821
 20
288.4622989768514
 30
0.0
  0
POINT
  5
2129
330
18
100
AcDbEntity
  8
DEFPOINTS
  6
ByBlock
 62
     0
100
AcDbPoint
 10
325.8264565446821
 20
288.4622989768514
 30
0.0
  0
CIRCLE
  5
212A
330
18
100
AcDbEntity
  8
針
100
AcDbCircle
 10
325.8264565446821
 20
288.4622989768516
 30
0.0
 40
0.475
  0
ARC
  5
212B
330
18
100
AcDbEntity
  8
針
100
AcDbCircle
 10
329.2247781275823
 20
285.1435777744613
 30
0.0
 40
3.0
100
AcDbArc
 50
146.92772082296
 51
176.4000000000007
  0
HATCH
  5
212C
330
18
100
AcDbEntity
  8
針
100
AcDbHatch
 10
0.0
 20
0.0
 30
0.0
210
0.0
220
0.0
230
1.0
  2
SOLID
 70
     1
 71
     0
 91
        2
 92
        7
 72
     1
 73
     1
 93
        5
 10
324.3552427094787
 20
266.5113620981871
 42
0.0
 10
324.4450651150372
 20
266.5057109514294
 42
0.0
 10
324.5348875205958
 20
266.5000598046719
 42
0.0
 10
325.1182693570283
 20
272.9784857867086
 42
-0.0085634322047721
 10
324.5884230898097
 20
273.0118208883062
 42
0.0
 97
        0
 92
        7
 72
     1
 73
     1
 93
        6
 10
324.5884230898097
 20
273.0118208883062
 42
0.0085634322047721
 10
325.1182693570283
 20
272.9784857867086
 42
0.0
 10
326.2306979422975
 20
285.3319493330496
 42
-0.1293106770632391
 10
326.710829627344
 20
286.7806675515199
 42
-0.2805221108582334
 10
324.7382927037262
 20
286.9047690557148
 42
-0.1293106770632486
 10
325.0330658681834
 20
285.4072979564847
 42
0.0
 97
        0
 75
     0
 76
     1
 47
0.0423559757596284
 98
        2
 10
324.8543805487174
 20
272.3655920842014
 10
325.0040589533515
 20
276.7699061105524
450
        0
451
        0
460
0.0
461
0.0
452
        0
462
0.0
453
        0
470

  0
LINE
  5
212D
330
18
100
AcDbEntity
  8
針
100
AcDbLine
 10
324.5348875205958
 20
266.5000598046719
 30
0.0
 11
326.2306979422975
 21
285.3319493330491
 31
0.0
  0
ARC
  5
212E
330
18
100
AcDbEntity
  8
針
100
AcDbCircle
 10
322.0389856828985
 20
285.5956695150724
 30
0.0
 40
3.0
100
AcDbArc
 50
356.4000000000007
 51
25.87227917703917
  0
LINE
  5
212F
330
18
100
AcDbEntity
  8
針
100
AcDbLine
 10
324.4450651150373
 20
266.5057109514294
 30
0.0
 11
324.5348875205958
 21
266.5000598046719
 31
0.0
  0
LINE
  5
2130
330
18
100
AcDbEntity
  8
針
100
AcDbLine
 10
324.4450651150372
 20
266.5057109514294
 30
0.0
 11
324.3552427094787
 21
266.5113620981871
 31
0.0
  0
LINE
  5
2131
330
18
100
AcDbEntity
  8
針
100
AcDbLine
 10
324.3552427094787
 20
266.5113620981871
 30
0.0
 11
325.0330658681833
 21
285.4072979564843
 31
0.0
  0
POINT
  5
2132
330
18
100
AcDbEntity
  8
DEFPOINTS
  6
ByBlock
 62
     0
100
AcDbPoint
 10
325.1270198945813
 20
286.6957236536639
 30
0.0
  0
POINT
  5
2133
330
18
100
AcDbEntity
  8
DEFPOINTS
  6
ByBlock
 62
     0
100
AcDbPoint
 10
327.7227073286959
 20
288.3429969897457
 30
0.0
  0
POINT
  5
2134
330
18
100
AcDbEntity
  8
DEFPOINTS
  6
ByBlock
 62
     0
100
AcDbPoint
 10
325.1270198945813
 20
286.6957236536639
 30
0.0
  0
POINT
  5
2135
330
18
100
AcDbEntity
  8
DEFPOINTS
  6
ByBlock
 62
     0
100
AcDbPoint
 10
327.290431705956
 20
287.2511933963289
 30
0.0
  0
LINE
  5
221C
330
18
100
AcDbEntity
  8
寸法線
 62
     2
100
AcDbLine
 10
316.0335328386858
 20
267.6512767701331
 30
0.0
 11
310.1718399568933
 21
255.1945453184985
 31
0.0
  0
LINE
  5
221D
330
18
100
AcDbEntity
  8
寸法線
 62
     2
100
AcDbLine
 10
335.6193802506788
 20
267.6512767701332
 30
0.0
 11
341.4810731324712
 21
255.1945453184985
 31
0.0
  0
ARC
  5
221E
330
18
100
AcDbEntity
  8
寸法線
 62
     2
100
AcDbCircle
 10
325.8264565446822
 20
288.4622989768514
 30
0.0
 40
35.51697504532476
100
AcDbArc
 50
248.8338186360037
 51
291.1661813639964
  0
INSERT
  5
221F
330
18
100
AcDbEntity
  8
寸法線
 62
     2
100
AcDbBlockReference
  2
_OPEN
 10
310.7040640713496
 20
256.325579134081
 30
0.0
 41
2.5
 42
2.5
 43
2.5
 50
156.816909318002
  0
INSERT
  5
2220
330
18
100
AcDbEntity
  8
寸法線
 62
     2
100
AcDbBlockReference
  2
_OPEN
 10
340.9488490180148
 20
256.325579134081
 30
0.0
 41
2.5
 42
2.5
 43
2.5
 50
23.18309068199807
  0
MTEXT
  5
2221
330
18
100
AcDbEntity
  8
寸法線
 62
     6
100
AcDbMText
 10
328.3470507443547
 20
254.9148834306304
 30
0.0
 40
2.499999999999999
 41
0.0
 71
     5
 72
     1
  1
\A1;50.4°
  7
STYLE3
 11
0.9971892405550995
 21
0.0749240850537643
 31
0.0
 73
     1
 44
1.0
  0
ARC
  5
2290
330
18
100
AcDbEntity
  8
外形線
100
AcDbCircle
 10
325.8264565446822
 20
220.2622989768515
 30
0.0
 40
1.199999999999999
100
AcDbArc
 50
189.59406822686
 51
350.40593177314
  0
ARC
  5
2291
330
18
100
AcDbEntity
  8
外形線
100
AcDbCircle
 10
417.8625889969325
 20
220.2622989768515
 30
0.0
 40
1.199999999999999
100
AcDbArc
 50
189.59406822686
 51
350.40593177314
  0
TEXT
  5
22BF
330
18
100
AcDbEntity
  8
文字
100
AcDbText
 10
300.1133579442329
 20
356.6135697486616
 30
0.0
 40
3.5
  1
Model No.107Z-XB One Revolution Dial Gauge
  7
STYLE3
100
AcDbText
  0
LINE
  5
22C0
330
18
100
AcDbEntity
  8
外形線
100
AcDbLine
 10
299.7662649442329
 20
353.5685177486616
 30
0.0
 11
419.7662649442328
 21
353.5685177486616
 31
0.0
  0
LINE
  5
22C1
330
18
100
AcDbEntity
  8
外形線
100
AcDbLine
 10
299.7662649442329
 20
354.5685177486616
 30
0.0
 11
419.7662649442328
 21
354.5685177486616
 31
0.0
  0
LINE
  5
22C4
330
18
100
AcDbEntity
  8
外形線
100
AcDbLine
 10
350.3554012456043
 20
192.6533743261541
 30
0.0
 11
491.1468192456043
 21
192.6533743261541
 31
0.0
  0
LINE
  5
22C5
330
18
100
AcDbEntity
  8
外形線
100
AcDbLine
 10
350.3554012456043
 20
181.8731683261541
 30
0.0
 11
491.1468192456043
 21
181.8731683261541
 31
0.0
  0
TEXT
  5
22C6
330
18
100
AcDbEntity
  8
0
  6
Continuous
100
AcDbText
 10
351.8128682456043
 20
183.7711583261541
 30
0.0
 40
2.1
  1
Design and specifications are subject to change without notice for future improvement.
  7
STYLE3
100
AcDbText
  0
TEXT
  5
22C7
330
18
100
AcDbEntity
  8
0
  6
Continuous
100
AcDbText
 10
352.1043622456043
 20
187.7003063261541
 30
0.0
 40
3.5
  1
仕様及び外観は予告なく変更される場合がございますのでご了承下さい。
  7
STYLE3
100
AcDbText
  0
TEXT
  5
22C8
330
18
100
AcDbEntity
  8
0
  6
Continuous
100
AcDbText
 10
351.5213772456043
 20
174.0065303261541
 30
0.0
 40
2.1
  1
3RD Angle Projection
  7
STYLE3
100
AcDbText
  0
TEXT
  5
22C9
330
18
100
AcDbEntity
  8
0
  6
Continuous
100
AcDbText
 10
354.1448202456043
 20
177.5028133261541
 30
0.0
 40
3.0
  1
三　　角　　法
  7
STYLE3
100
AcDbText
  0
LINE
  5
22CA
330
18
100
AcDbEntity
  8
外形線
100
AcDbLine
 10
350.3554012456043
 20
172.2583903261541
 30
0.0
 11
350.3554012456043
 21
192.6533743261541
 31
0.0
  0
LINE
  5
22CB
330
18
100
AcDbEntity
  8
外形線
100
AcDbLine
 10
452.3781682456043
 20
181.8731683261541
 30
0.0
 11
452.3781682456043
 21
172.2583903261541
 31
0.0
  0
LINE
  5
22CC
330
18
100
AcDbEntity
  8
外形線
100
AcDbLine
 10
422.6458182456043
 20
181.8731683261541
 30
0.0
 11
422.6458182456043
 21
172.2583903261541
 31
0.0
  0
LINE
  5
22CD
330
18
100
AcDbEntity
  8
外形線
100
AcDbLine
 10
403.1157462456042
 20
181.8731683261541
 30
0.0
 11
403.1157462456042
 21
172.2583903261541
 31
0.0
  0
LINE
  5
22CE
330
18
100
AcDbEntity
  8
外形線
100
AcDbLine
 10
385.6261292456043
 20
181.8731683261541
 30
0.0
 11
385.6261292456043
 21
172.2583903261541
 31
0.0
  0
TEXT
  5
22CF
330
18
100
AcDbEntity
  8
0
  6
Continuous
100
AcDbText
 10
387.0835982456043
 20
177.5087683261541
 30
0.0
 40
3.0
  1
単位
  7
STYLE3
100
AcDbText
  0
TEXT
  5
22D0
330
18
100
AcDbEntity
  8
0
  6
Continuous
100
AcDbText
 10
387.2553192456043
 20
174.0065313261541
 30
0.0
 40
2.1
  1
Unit
  7
STYLE3
100
AcDbText
  0
TEXT
  5
22D1
330
18
100
AcDbEntity
  8
0
  6
Continuous
100
AcDbText
 10
404.4014942456042
 20
177.2174103261541
 30
0.0
 40
3.0
  1
尺 度
  7
STYLE3
100
AcDbText
  0
TEXT
  5
22D2
330
18
100
AcDbEntity
  8
0
  6
Continuous
100
AcDbText
 10
395.1256462456043
 20
175.7546743261541
 30
0.0
 40
2.399999999999999
  1
mm
  7
STYLE3
100
AcDbText
  0
TEXT
  5
22D3
330
18
100
AcDbEntity
  8
0
  6
Continuous
100
AcDbText
 10
404.8647092456042
 20
174.2978883261541
 30
0.0
 40
2.1
  1
Scale
  7
STYLE3
100
AcDbText
  0
TEXT
  5
22D4
330
18
100
AcDbEntity
  8
0
  6
Continuous
100
AcDbText
 10
414.4839982456042
 20
176.0460313261541
 30
0.0
 40
2.399999999999999
  1
1/1
  7
STYLE3
100
AcDbText
  0
TEXT
  5
22D5
330
18
100
AcDbEntity
  8
0
  6
Continuous
100
AcDbText
 10
424.5777692456043
 20
174.0065323261541
 30
0.0
 40
2.1
  1
Date
  7
STYLE3
100
AcDbText
  0
TEXT
  5
22D6
330
18
100
AcDbEntity
  8
0
  6
Continuous
100
AcDbText
 10
424.1944082456043
 20
177.3396153261541
 30
0.0
 40
3.0
  1
日 付
  7
STYLE3
100
AcDbText
  0
TEXT
  5
22D7
330
18
100
AcDbEntity
  8
0
  6
Continuous
100
AcDbText
 10
433.3225772456042
 20
175.7546733261541
 30
0.0
 40
2.1
  1
2010.06.09
  7
STYLE3
100
AcDbText
  0
TEXT
  5
22D8
330
18
100
AcDbEntity
  8
0
  6
Continuous
100
AcDbText
 10
453.7271312456042
 20
177.7941703261541
 30
0.0
 40
3.0
  1
株式会社　尾崎製作所
  7
STYLE3
100
AcDbText
  0
TEXT
  5
22D9
330
18
100
AcDbEntity
  8
0
  6
Continuous
100
AcDbText
 10
454.6016102456043
 20
174.0065313261541
 30
0.0
 40
2.1
  1
OZAKI MFG. CO., LTD.
  7
STYLE3
100
AcDbText
  0
ENDSEC
  0
SECTION
  2
OBJECTS
  0
DICTIONARY
  5
C
330
0
100
AcDbDictionary
281
     1
  3
ACAD_COLOR
350
1E99
  3
ACAD_GROUP
350
D
  3
ACAD_IMAGE_DICT
350
E58
  3
ACAD_LAYOUT
350
1E9C
  3
ACAD_MATERIAL
350
1E98
  3
ACAD_MLINESTYLE
350
1B
  3
ACAD_PLOTSETTINGS
350
1E9D
  3
ACAD_PLOTSTYLENAME
350
1E96
  3
ACAD_TABLESTYLE
350
1E9A
  3
ACDBVARIABLEDICTIONARY
350
101E
  0
DICTIONARY
  5
2222
330
18
100
AcDbDictionary
280
     1
281
     1
  3
ACAD_SORTENTS
360
2223
  0
DICTIONARY
  5
1E99
102
{ACAD_REACTORS
330
C
102
}
330
C
100
AcDbDictionary
281
     1
  0
DICTIONARY
  5
D
102
{ACAD_REACTORS
330
C
102
}
330
C
100
AcDbDictionary
281
     1
  0
DICTIONARY
  5
E58
102
{ACAD_REACTORS
330
C
102
}
330
C
100
AcDbDictionary
281
     1
  3
ROGO01
350
E59
  0
DICTIONARY
  5
1E9C
102
{ACAD_REACTORS
330
C
102
}
330
C
100
AcDbDictionary
281
     1
  3
Model
350
1E9E
  3
レイアウト1
350
1E9F
  0
DICTIONARY
  5
1E98
102
{ACAD_REACTORS
330
C
102
}
330
C
100
AcDbDictionary
281
     1
  0
DICTIONARY
  5
1B
102
{ACAD_REACTORS
330
C
102
}
330
C
100
AcDbDictionary
281
     1
  3
STANDARD
350
1C
  0
DICTIONARY
  5
1E9D
102
{ACAD_REACTORS
330
C
102
}
330
C
100
AcDbDictionary
281
     1
  0
ACDBDICTIONARYWDFLT
  5
1E96
102
{ACAD_REACTORS
330
C
102
}
330
C
100
AcDbDictionary
281
     1
  3
Normal
350
1E97
100
AcDbDictionaryWithDefault
340
1E97
  0
DICTIONARY
  5
1E9A
102
{ACAD_REACTORS
330
C
102
}
330
C
100
AcDbDictionary
281
     1
  3
Standard
350
1E9B
  0
DICTIONARY
  5
101E
102
{ACAD_REACTORS
330
C
102
}
330
C
100
AcDbDictionary
281
     1
  3
CTABLESTYLE
350
1EA5
  3
SORTENTS
350
101F
  0
SORTENTSTABLE
  5
2223
102
{ACAD_REACTORS
330
2222
102
}
330
2222
100
AcDbSortentsTable
330
18
331
789
  5
789
331
1645
  5
1645
331
9AF
  5
9AF
331
978
  5
978
331
6B2
  5
6B2
331
18E5
  5
18E5
331
1A44
  5
1A44
331
100E
  5
100E
331
6BA
  5
6BA
331
980
  5
980
331
18ED
  5
18ED
331
1BC2
  5
1BC2
331
1D08
  5
1D08
331
1BCA
  5
1BCA
331
1E4D
  5
1E4D
331
20B3
  5
20B3
331
1D57
  5
1D57
331
1C51
  5
1C51
331
1BD2
  5
1BD2
331
1D10
  5
1D10
331
20BB
  5
20BB
331
20C3
  5
20C3
331
1E5D
  5
1E5D
331
1D18
  5
1D18
331
1BDA
  5
1BDA
331
1D5F
  5
1D5F
331
20C9
  5
20C9
331
2108
  5
2108
331
20D1
  5
20D1
331
2110
  5
2110
331
221F
  5
221F
331
2118
  5
2118
331
20D9
  5
20D9
331
2120
  5
2120
331
20E1
  5
20E1
331
988
  5
988
331
6C2
  5
6C2
331
839
  5
839
331
102E
  5
102E
331
990
  5
990
331
5D3
  5
5D3
331
6CA
  5
6CA
331
998
  5
998
331
1C59
  5
1C59
331
F37
  5
F37
331
693
  5
693
331
9A0
  5
9A0
331
1BE2
  5
1BE2
331
1D20
  5
1D20
331
1D67
  5
1D67
331
1C61
  5
1C61
331
1BAB
  5
1BAB
331
1BEA
  5
1BEA
331
1D28
  5
1D28
331
1D6F
  5
1D6F
331
1C69
  5
1C69
331
1BB3
  5
1BB3
331
1E36
  5
1E36
331
2074
  5
2074
331
1D40
  5
1D40
331
1BBB
  5
1BBB
331
1E3E
  5
1E3E
331
20A4
  5
20A4
331
1E46
  5
1E46
331
20AC
  5
20AC
331
20E9
  5
20E9
331
2128
  5
2128
331
20F1
  5
20F1
331
2130
  5
2130
331
20F9
  5
20F9
331
2101
  5
2101
331
9A8
  5
9A8
331
9B0
  5
9B0
331
FF7
  5
FF7
331
1B4C
  5
1B4C
331
1A3D
  5
1A3D
331
979
  5
979
331
1A45
  5
1A45
331
981
  5
981
331
6BB
  5
6BB
331
18EE
  5
18EE
331
1BC3
  5
1BC3
331
1C12
  5
1C12
331
1D09
  5
1D09
331
1BCB
  5
1BCB
331
1E4E
  5
1E4E
331
20B4
  5
20B4
331
1D58
  5
1D58
331
1D11
  5
1D11
331
1BD3
  5
1BD3
331
1E56
  5
1E56
331
20BC
  5
20BC
331
20C4
  5
20C4
331
1E5E
  5
1E5E
331
1D19
  5
1D19
331
1BDB
  5
1BDB
331
2109
  5
2109
331
20CA
  5
20CA
331
2111
  5
2111
331
20D2
  5
20D2
331
2220
  5
2220
331
20DA
  5
20DA
331
2119
  5
2119
331
20E2
  5
20E2
331
2121
  5
2121
331
989
  5
989
331
6C3
  5
6C3
331
6CB
  5
6CB
331
5D4
  5
5D4
331
84A
  5
84A
331
991
  5
991
331
999
  5
999
331
1D60
  5
1D60
331
1C5A
  5
1C5A
331
142F
  5
142F
331
694
  5
694
331
9A1
  5
9A1
331
1BE3
  5
1BE3
331
1D29
  5
1D29
331
1BEB
  5
1BEB
331
1BAC
  5
1BAC
331
1C62
  5
1C62
331
1D68
  5
1D68
331
1E37
  5
1E37
331
1C6A
  5
1C6A
331
1BB4
  5
1BB4
331
1BF3
  5
1BF3
331
1D70
  5
1D70
331
1E6E
  5
1E6E
331
2075
  5
2075
331
1D41
  5
1D41
331
1C7A
  5
1C7A
331
1BBC
  5
1BBC
331
1E3F
  5
1E3F
331
20A5
  5
20A5
331
1E47
  5
1E47
331
20AD
  5
20AD
331
2129
  5
2129
331
20EA
  5
20EA
331
2131
  5
2131
331
20F2
  5
20F2
331
20FA
  5
20FA
331
2102
  5
2102
331
69C
  5
69C
331
9A9
  5
9A9
331
FF8
  5
FF8
331
9B1
  5
9B1
331
1A36
  5
1A36
331
1B55
  5
1B55
331
833
  5
833
331
97A
  5
97A
331
1C13
  5
1C13
331
18EF
  5
18EF
331
6BC
  5
6BC
331
982
  5
982
331
1A46
  5
1A46
331
1BC4
  5
1BC4
331
1D0A
  5
1D0A
331
1AB6
  5
1AB6
331
1BCC
  5
1BCC
331
1E4F
  5
1E4F
331
20B5
  5
20B5
331
1D59
  5
1D59
331
1BD4
  5
1BD4
331
1C53
  5
1C53
331
1D12
  5
1D12
331
1E57
  5
1E57
331
20BD
  5
20BD
331
20C5
  5
20C5
331
1E5F
  5
1E5F
331
1D1A
  5
1D1A
331
1BDC
  5
1BDC
331
20CB
  5
20CB
331
210A
  5
210A
331
20D3
  5
20D3
331
2112
  5
2112
331
2221
  5
2221
331
211A
  5
211A
331
20DB
  5
20DB
331
2122
  5
2122
331
20E3
  5
20E3
331
98A
  5
98A
331
6C4
  5
6C4
331
83B
  5
83B
331
992
  5
992
331
5D5
  5
5D5
331
6CC
  5
6CC
331
99A
  5
99A
331
1D61
  5
1D61
331
1D22
  5
1D22
331
1A27
  5
1A27
331
695
  5
695
331
9A2
  5
9A2
331
1BA5
  5
1BA5
331
1BE4
  5
1BE4
331
1D69
  5
1D69
331
1C63
  5
1C63
331
1BAD
  5
1BAD
331
1BEC
  5
1BEC
331
1D2A
  5
1D2A
331
1C6B
  5
1C6B
331
1BB5
  5
1BB5
331
1D42
  5
1D42
331
1BBD
  5
1BBD
331
1E40
  5
1E40
331
20A6
  5
20A6
331
20AE
  5
20AE
331
20EB
  5
20EB
331
212A
  5
212A
331
20F3
  5
20F3
331
2132
  5
2132
331
20FB
  5
20FB
331
2103
  5
2103
331
9AA
  5
9AA
331
6AD
  5
6AD
331
9B2
  5
9B2
331
FF9
  5
FF9
331
1A37
  5
1A37
331
1B56
  5
1B56
331
97B
  5
97B
331
1E48
  5
1E48
331
1A47
  5
1A47
331
983
  5
983
331
6BD
  5
6BD
331
1BC5
  5
1BC5
331
1D4A
  5
1D4A
331
1D0B
  5
1D0B
331
1BCD
  5
1BCD
331
1E50
  5
1E50
331
20B6
  5
20B6
331
1D5A
  5
1D5A
331
1C54
  5
1C54
331
1BD5
  5
1BD5
331
1D13
  5
1D13
331
1E58
  5
1E58
331
20BE
  5
20BE
331
1D1B
  5
1D1B
331
1BDD
  5
1BDD
331
20C6
  5
20C6
331
244
  5
244
331
210B
  5
210B
331
20CC
  5
20CC
331
2113
  5
2113
331
20D4
  5
20D4
331
20DC
  5
20DC
331
211B
  5
211B
331
20E4
  5
20E4
331
2123
  5
2123
331
6C5
  5
6C5
331
98B
  5
98B
331
6CD
  5
6CD
331
5D6
  5
5D6
331
993
  5
993
331
99B
  5
99B
331
F32
  5
F32
331
1D62
  5
1D62
331
1BE5
  5
1BE5
331
696
  5
696
331
9A3
  5
9A3
331
F3A
  5
F3A
331
1BA6
  5
1BA6
331
1D23
  5
1D23
331
1E60
  5
1E60
331
1BED
  5
1BED
331
1BAE
  5
1BAE
331
1D2B
  5
1D2B
331
1D6A
  5
1D6A
331
1E31
  5
1E31
331
1E39
  5
1E39
331
1BB6
  5
1BB6
331
1D43
  5
1D43
331
1BBE
  5
1BBE
331
1E41
  5
1E41
331
20A7
  5
20A7
331
20AF
  5
20AF
331
212B
  5
212B
331
20EC
  5
20EC
331
2133
  5
2133
331
20F4
  5
20F4
331
20FC
  5
20FC
331
2104
  5
2104
331
1A38
  5
1A38
331
6AE
  5
6AE
331
9B3
  5
9B3
331
1A40
  5
1A40
331
835
  5
835
331
97C
  5
97C
331
1B57
  5
1B57
331
984
  5
984
331
6BE
  5
6BE
331
1BC6
  5
1BC6
331
1D53
  5
1D53
331
1C4D
  5
1C4D
331
1BCE
  5
1BCE
331
1D0C
  5
1D0C
331
1E51
  5
1E51
331
1E88
  5
1E88
331
20B7
  5
20B7
331
1E59
  5
1E59
331
1D14
  5
1D14
331
1BD6
  5
1BD6
331
1C55
  5
1C55
331
1D5B
  5
1D5B
331
20BF
  5
20BF
331
1D1C
  5
1D1C
331
1BDE
  5
1BDE
331
20C7
  5
20C7
331
245
  5
245
331
2D5
  5
2D5
331
20CD
  5
20CD
331
210C
  5
210C
331
2114
  5
2114
331
20D5
  5
20D5
331
211C
  5
211C
331
20DD
  5
20DD
331
2124
  5
2124
331
20E5
  5
20E5
331
98C
  5
98C
331
5CF
  5
5CF
331
6C6
  5
6C6
331
18F1
  5
18F1
331
13D2
  5
13D2
331
994
  5
994
331
5D7
  5
5D7
331
6CE
  5
6CE
331
F33
  5
F33
331
99C
  5
99C
331
1D63
  5
1D63
331
1C5D
  5
1C5D
331
1A29
  5
1A29
331
9A4
  5
9A4
331
1BA7
  5
1BA7
331
1BE6
  5
1BE6
331
1D24
  5
1D24
331
1E61
  5
1E61
331
1D6B
  5
1D6B
331
1C65
  5
1C65
331
1BAF
  5
1BAF
331
1BEE
  5
1BEE
331
1D2C
  5
1D2C
331
1E32
  5
1E32
331
1E3A
  5
1E3A
331
1C6D
  5
1C6D
331
1BB7
  5
1BB7
331
1D44
  5
1D44
331
1BBF
  5
1BBF
331
1E42
  5
1E42
331
20A8
  5
20A8
331
20ED
  5
20ED
331
212C
  5
212C
331
20F5
  5
20F5
331
2134
  5
2134
331
20FD
  5
20FD
331
2105
  5
2105
331
9AC
  5
9AC
331
78E
  5
78E
331
975
  5
975
331
6AF
  5
6AF
331
7D6
  5
7D6
331
9B4
  5
9B4
331
1A39
  5
1A39
331
1A41
  5
1A41
331
97D
  5
97D
331
836
  5
836
331
1B58
  5
1B58
331
1D05
  5
1D05
331
985
  5
985
331
6BF
  5
6BF
331
1BC7
  5
1BC7
331
1E4A
  5
1E4A
331
20B0
  5
20B0
331
1D54
  5
1D54
331
1C4E
  5
1C4E
331
1BCF
  5
1BCF
331
1E52
  5
1E52
331
20B8
  5
20B8
331
1D5C
  5
1D5C
331
1C56
  5
1C56
331
1BD7
  5
1BD7
331
1D15
  5
1D15
331
1E5A
  5
1E5A
331
20C0
  5
20C0
331
1D1D
  5
1D1D
331
1BDF
  5
1BDF
331
2D6
  5
2D6
331
210D
  5
210D
331
20CE
  5
20CE
331
221C
  5
221C
331
2115
  5
2115
331
20D6
  5
20D6
331
20DE
  5
20DE
331
211D
  5
211D
331
2125
  5
2125
331
20E6
  5
20E6
331
1AB9
  5
1AB9
331
6C7
  5
6C7
331
5D0
  5
5D0
331
98D
  5
98D
331
1AC1
  5
1AC1
331
995
  5
995
331
6CF
  5
6CF
331
EB4
  5
EB4
331
99D
  5
99D
331
F34
  5
F34
331
1D25
  5
1D25
331
1BE7
  5
1BE7
331
1A2A
  5
1A2A
331
93E
  5
93E
331
9A5
  5
9A5
331
1B21
  5
1B21
331
1BA8
  5
1BA8
331
1C5E
  5
1C5E
331
1D64
  5
1D64
331
1D2D
  5
1D2D
331
1BEF
  5
1BEF
331
1BB0
  5
1BB0
331
1C66
  5
1C66
331
1D6C
  5
1D6C
331
1E33
  5
1E33
331
1E3B
  5
1E3B
331
1C6E
  5
1C6E
331
1BB8
  5
1BB8
331
1BF7
  5
1BF7
331
1D3D
  5
1D3D
331
1E43
  5
1E43
331
20A9
  5
20A9
331
212D
  5
212D
331
20EE
  5
20EE
331
2135
  5
2135
331
20F6
  5
20F6
331
20FE
  5
20FE
331
2106
  5
2106
331
78F
  5
78F
331
96E
  5
96E
331
9AD
  5
9AD
331
976
  5
976
331
6B0
  5
6B0
331
9B5
  5
9B5
331
1A42
  5
1A42
331
6B8
  5
6B8
331
837
  5
837
331
97E
  5
97E
331
1BC0
  5
1BC0
331
1D06
  5
1D06
331
986
  5
986
331
1BC8
  5
1BC8
331
1E4B
  5
1E4B
331
20B1
  5
20B1
331
1D55
  5
1D55
331
1C4F
  5
1C4F
331
1BD0
  5
1BD0
331
1E53
  5
1E53
331
20B9
  5
20B9
331
1E5B
  5
1E5B
331
1D16
  5
1D16
331
1BD8
  5
1BD8
331
1C57
  5
1C57
331
1D5D
  5
1D5D
331
20C1
  5
20C1
331
247
  5
247
331
1D1E
  5
1D1E
331
20CF
  5
20CF
331
210E
  5
210E
331
221D
  5
221D
331
2116
  5
2116
331
20D7
  5
20D7
331
211E
  5
211E
331
20DF
  5
20DF
331
2126
  5
2126
331
20E7
  5
20E7
331
6C0
  5
6C0
331
5D1
  5
5D1
331
98E
  5
98E
331
1A1B
  5
1A1B
331
996
  5
996
331
5D9
  5
5D9
331
6D0
  5
6D0
331
1AC2
  5
1AC2
331
F35
  5
F35
331
778
  5
778
331
887
  5
887
331
99E
  5
99E
331
1BE0
  5
1BE0
331
1D65
  5
1D65
331
1C5F
  5
1C5F
331
1A2B
  5
1A2B
331
9A6
  5
9A6
331
14AC
  5
14AC
331
1BA9
  5
1BA9
331
1BE8
  5
1BE8
331
1D26
  5
1D26
331
1D2E
  5
1D2E
331
1C67
  5
1C67
331
1BB1
  5
1BB1
331
1D6D
  5
1D6D
331
1E34
  5
1E34
331
1D3E
  5
1D3E
331
1BF8
  5
1BF8
331
1BB9
  5
1BB9
331
1C6F
  5
1C6F
331
1E3C
  5
1E3C
331
20A2
  5
20A2
331
1E7B
  5
1E7B
331
1E44
  5
1E44
331
20AA
  5
20AA
331
20EF
  5
20EF
331
212E
  5
212E
331
20F7
  5
20F7
331
20FF
  5
20FF
331
2107
  5
2107
331
9AE
  5
9AE
331
1644
  5
1644
331
977
  5
977
331
6B1
  5
6B1
331
9B6
  5
9B6
331
1A43
  5
1A43
331
97F
  5
97F
331
6B9
  5
6B9
331
1BC1
  5
1BC1
331
1D07
  5
1D07
331
987
  5
987
331
1BC9
  5
1BC9
331
1E4C
  5
1E4C
331
20B2
  5
20B2
331
1D56
  5
1D56
331
1C50
  5
1C50
331
1BD1
  5
1BD1
331
1D0F
  5
1D0F
331
1E54
  5
1E54
331
20BA
  5
20BA
331
1D5E
  5
1D5E
331
1D17
  5
1D17
331
1BD9
  5
1BD9
331
1E5C
  5
1E5C
331
20C2
  5
20C2
331
1D1F
  5
1D1F
331
248
  5
248
331
20C8
  5
20C8
331
210F
  5
210F
331
20D0
  5
20D0
331
221E
  5
221E
331
20D8
  5
20D8
331
2117
  5
2117
331
211F
  5
211F
331
20E0
  5
20E0
331
2127
  5
2127
331
838
  5
838
331
6C1
  5
6C1
331
102D
  5
102D
331
6C9
  5
6C9
331
5D2
  5
5D2
331
98F
  5
98F
331
997
  5
997
331
6D1
  5
6D1
331
1C58
  5
1C58
331
692
  5
692
331
99F
  5
99F
331
F36
  5
F36
331
1B13
  5
1B13
331
1BE1
  5
1BE1
331
1D27
  5
1D27
331
1BE9
  5
1BE9
331
1A2C
  5
1A2C
331
9A7
  5
9A7
331
1BAA
  5
1BAA
331
1C60
  5
1C60
331
1D66
  5
1D66
331
1D6E
  5
1D6E
331
1BB2
  5
1BB2
331
1C68
  5
1C68
331
1E35
  5
1E35
331
1D3F
  5
1D3F
331
1BBA
  5
1BBA
331
1BF9
  5
1BF9
331
1E3D
  5
1E3D
331
20A3
  5
20A3
331
1E45
  5
1E45
331
20AB
  5
20AB
331
20E8
  5
20E8
331
212F
  5
212F
331
20F0
  5
20F0
331
20F8
  5
20F8
331
2100
  5
2100
  0
IMAGEDEF
  5
E59
102
{ACAD_REACTORS
330
E58
102
}
330
E58
100
AcDbRasterImageDef
 90
        0
  1
D:\ﾃｽﾄ\rogo01.TIF
 10
3388.0
 20
4668.0
 11
0.0635
 21
0.0635
280
     1
281
     5
  0
LAYOUT
  5
1E9E
102
{ACAD_REACTORS
330
1E9C
102
}
330
1E9C
100
AcDbPlotSettings
  1

  2
A4 EPSON LP-6100.pc3
  4
A4
  6

 40
5.873749732971191
 41
5.873747825622558
 42
5.873748779296875
 43
5.873748779296875
 44
209.9733276367187
 45
297.0106506347656
 46
1.5
 47
25.0
 48
0.0
 49
0.0
140
0.0
141
0.0
142
1.0
143
1.0
 70
 28336
 72
     1
 73
     1
 74
     1
  7
AutoCAD LT 98.ctb
 75
    16
147
1.0
 76
     1
 77
     2
 78
   300
148
-236.4583261120649
149
-171.6287515666504
100
AcDbLayout
  1
Model
 70
     1
 71
     0
 10
0.0
 20
0.0
 11
12.0
 21
9.0
 12
0.0
 22
0.0
 32
0.0
 14
0.0
 24
0.0
 34
0.0
 15
0.0
 25
0.0
 35
0.0
146
0.0
 13
0.0
 23
0.0
 33
0.0
 16
1.0
 26
0.0
 36
0.0
 17
0.0
 27
1.0
 37
0.0
 76
     0
330
18
1001
ACAD_PSEXT
1000
A4 EPSON LP-6100.pc3
1000
EPSON LP-6100
1000
USB002
1000

1070
     0
  0
LAYOUT
  5
1E9F
102
{ACAD_REACTORS
330
1E9C
102
}
330
1E9C
100
AcDbPlotSettings
  1

  2
C:\Documents and Settings\佐藤\Application Data\Autodesk\AutoCAD LT 2005\R10\jpn\plotters\PEACOCK EPSON LP-6100.pc3
  4

  6

 40
0.0
 41
0.0
 42
0.0
 43
0.0
 44
0.0
 45
0.0
 46
0.0
 47
0.0
 48
0.0
 49
0.0
140
0.0
141
0.0
142
1.0
143
1.0
 70
   688
 72
     0
 73
     0
 74
     5
  7
AutoCAD LT 98.ctb
 75
    16
147
1.0
 76
     0
 77
     2
 78
   300
148
0.0
149
0.0
100
AcDbLayout
  1
レイアウト1
 70
     1
 71
     1
 10
0.0
 20
0.0
 11
420.0
 21
297.0
 12
0.0
 22
0.0
 32
0.0
 14
1.000000000000000E+20
 24
1.000000000000000E+20
 34
1.000000000000000E+20
 15
-1.000000000000000E+20
 25
-1.000000000000000E+20
 35
-1.000000000000000E+20
146
0.0
 13
0.0
 23
0.0
 33
0.0
 16
1.0
 26
0.0
 36
0.0
 17
0.0
 27
1.0
 37
0.0
 76
     0
330
15
  0
MLINESTYLE
  5
1C
102
{ACAD_REACTORS
330
1B
102
}
330
1B
100
AcDbMlineStyle
  2
STANDARD
 70
     0
  3

 62
   256
 51
90.0
 52
90.0
 71
     2
 49
0.5
 62
   256
  6
BYLAYER
 49
-0.5
 62
   256
  6
BYLAYER
  0
ACDBPLACEHOLDER
  5
1E97
102
{ACAD_REACTORS
330
1E96
102
}
330
1E96
  0
ACAD_PROXY_OBJECT
  5
1E9B
102
{ACAD_REACTORS
330
1E9A
102
}
330
1E9A
100
AcDbProxyObject
 90
      499
 91
      505
 95
  2555929
 70
     0
 93
     1849
310
4214DD185B99185C992420000000000000F83F0000000000003E0FC00000000000004901028000000C1008070000C3001FDFF8000000C1003FBFF000000182007F7FE00000030400FEFFC00000060801FDFF8000000C1003FBFF000000182000000000000000C2020B0000001820100E000186003FBFF000000182007F7FE0
310
0000030400FEFFC00000060801FDFF8000000C1003FBFF000000182007F7FE0000003040000000000000012404160000003040201C00030C007F7FE00000030400FEFFC00000060801FDFF8000000C1003FBFF000000182007F7FE00000030400FEFFC000000608035
340
F
340
F
340
F
 94
        0
  0
DICTIONARYVAR
  5
1EA5
102
{ACAD_REACTORS
330
101E
102
}
330
101E
100
DictionaryVariables
280
     0
  1
STANDARD
  0
DICTIONARYVAR
  5
101F
102
{ACAD_REACTORS
330
101E
102
}
330
101E
100
DictionaryVariables
280
     0
  1
96
  0
ENDSEC
  0
EOF
