  0
SECTION
  2
HEADER
  9
$ACADVER
  1
AC1018
  9
$ACADMAINTVER
 70
     0
  9
$DWGCODEPAGE
  3
ANSI_932
  9
$INSBASE
 10
0.0
 20
0.0
 30
0.0
  9
$EXTMIN
 10
236.4583261120651
 20
171.6287515666504
 30
-0.0000000349181948
  9
$EXTMAX
 10
491.9215858715545
 20
367.0725802714662
 30
0.0000000814935746
  9
$LIMMIN
 10
0.0
 20
0.0
  9
$LIMMAX
 10
420.0
 20
297.0
  9
$ORTHOMODE
 70
     0
  9
$REGENMODE
 70
     1
  9
$FILLMODE
 70
     1
  9
$QTEXTMODE
 70
     0
  9
$MIRRTEXT
 70
     1
  9
$LTSCALE
 40
1.0
  9
$ATTMODE
 70
     1
  9
$TEXTSIZE
 40
1.0
  9
$TRACEWID
 40
1.0
  9
$TEXTSTYLE
  7
STYLE3
  9
$CLAYER
  8
寸法線
  9
$CELTYPE
  6
BYLAYER
  9
$CECOLOR
 62
   256
  9
$CELTSCALE
 40
1.0
  9
$DISPSILH
 70
     0
  9
$DIMSCALE
 40
1.0
  9
$DIMASZ
 40
2.5
  9
$DIMEXO
 40
0.0
  9
$DIMDLI
 40
3.75
  9
$DIMRND
 40
0.0
  9
$DIMDLE
 40
0.0
  9
$DIMEXE
 40
1.25
  9
$DIMTP
 40
0.0
  9
$DIMTM
 40
0.0
  9
$DIMTXT
 40
2.5
  9
$DIMCEN
 40
2.5
  9
$DIMTSZ
 40
0.0
  9
$DIMTOL
 70
     0
  9
$DIMLIM
 70
     0
  9
$DIMTIH
 70
     0
  9
$DIMTOH
 70
     0
  9
$DIMSE1
 70
     0
  9
$DIMSE2
 70
     0
  9
$DIMTAD
 70
     1
  9
$DIMZIN
 70
     8
  9
$DIMBLK
  1

  9
$DIMASO
 70
     1
  9
$DIMSHO
 70
     1
  9
$DIMPOST
  1

  9
$DIMAPOST
  1

  9
$DIMALT
 70
     0
  9
$DIMALTD
 70
     4
  9
$DIMALTF
 40
0.0394
  9
$DIMLFAC
 40
1.0
  9
$DIMTOFL
 70
     1
  9
$DIMTVP
 40
0.0
  9
$DIMTIX
 70
     0
  9
$DIMSOXD
 70
     0
  9
$DIMSAH
 70
     1
  9
$DIMBLK1
  1
OPEN
  9
$DIMBLK2
  1
OPEN
  9
$DIMSTYLE
  2
STYLE2
  9
$DIMCLRD
 70
     2
  9
$DIMCLRE
 70
     2
  9
$DIMCLRT
 70
     6
  9
$DIMTFAC
 40
1.0
  9
$DIMGAP
 40
0.625
  9
$DIMJUST
 70
     0
  9
$DIMSD1
 70
     0
  9
$DIMSD2
 70
     0
  9
$DIMTOLJ
 70
     1
  9
$DIMTZIN
 70
     0
  9
$DIMALTZ
 70
     0
  9
$DIMALTTZ
 70
     0
  9
$DIMUPT
 70
     0
  9
$DIMDEC
 70
     1
  9
$DIMTDEC
 70
     4
  9
$DIMALTU
 70
     8
  9
$DIMALTTD
 70
     4
  9
$DIMTXSTY
  7
STYLE3
  9
$DIMAUNIT
 70
     0
  9
$DIMADEC
 70
     0
  9
$DIMALTRND
 40
0.0
  9
$DIMAZIN
 70
     0
  9
$DIMDSEP
 70
    46
  9
$DIMATFIT
 70
     3
  9
$DIMFRAC
 70
     0
  9
$DIMLDRBLK
  1

  9
$DIMLUNIT
 70
     2
  9
$DIMLWD
 70
    -2
  9
$DIMLWE
 70
    -2
  9
$DIMTMOVE
 70
     0
  9
$LUNITS
 70
     2
  9
$LUPREC
 70
     4
  9
$SKETCHINC
 40
1.0
  9
$FILLETRAD
 40
0.0
  9
$AUNITS
 70
     0
  9
$AUPREC
 70
     0
  9
$MENU
  1
.
  9
$ELEVATION
 40
0.0
  9
$PELEVATION
 40
0.0
  9
$THICKNESS
 40
0.0
  9
$LIMCHECK
 70
     0
  9
$CHAMFERA
 40
0.3
  9
$CHAMFERB
 40
0.3
  9
$CHAMFERC
 40
20.0
  9
$CHAMFERD
 40
0.0
  9
$SKPOLY
 70
     0
  9
$TDCREATE
 40
2450717.578556713
  9
$TDUCREATE
 40
2450717.203556713
  9
$TDUPDATE
 40
2455357.677694398
  9
$TDUUPDATE
 40
2455357.302694398
  9
$TDINDWG
 40
1.3204781134
  9
$TDUSRTIMER
 40
1.3204781134
  9
$USRTIMER
 70
     1
  9
$ANGBASE
 50
0.0
  9
$ANGDIR
 70
     0
  9
$PDMODE
 70
     0
  9
$PDSIZE
 40
0.0
  9
$PLINEWID
 40
0.0
  9
$SPLFRAME
 70
     0
  9
$SPLINETYPE
 70
     6
  9
$SPLINESEGS
 70
     8
  9
$HANDSEED
  5
3349
  9
$SURFTAB1
 70
     6
  9
$SURFTAB2
 70
     6
  9
$SURFTYPE
 70
     6
  9
$SURFU
 70
     6
  9
$SURFV
 70
     6
  9
$UCSBASE
  2

  9
$UCSNAME
  2

  9
$UCSORG
 10
0.0
 20
0.0
 30
0.0
  9
$UCSXDIR
 10
1.0
 20
0.0
 30
0.0
  9
$UCSYDIR
 10
0.0
 20
1.0
 30
0.0
  9
$UCSORTHOREF
  2

  9
$UCSORTHOVIEW
 70
     0
  9
$UCSORGTOP
 10
0.0
 20
0.0
 30
0.0
  9
$UCSORGBOTTOM
 10
0.0
 20
0.0
 30
0.0
  9
$UCSORGLEFT
 10
0.0
 20
0.0
 30
0.0
  9
$UCSORGRIGHT
 10
0.0
 20
0.0
 30
0.0
  9
$UCSORGFRONT
 10
0.0
 20
0.0
 30
0.0
  9
$UCSORGBACK
 10
0.0
 20
0.0
 30
0.0
  9
$PUCSBASE
  2

  9
$PUCSNAME
  2

  9
$PUCSORG
 10
0.0
 20
0.0
 30
0.0
  9
$PUCSXDIR
 10
1.0
 20
0.0
 30
0.0
  9
$PUCSYDIR
 10
0.0
 20
1.0
 30
0.0
  9
$PUCSORTHOREF
  2

  9
$PUCSORTHOVIEW
 70
     0
  9
$PUCSORGTOP
 10
0.0
 20
0.0
 30
0.0
  9
$PUCSORGBOTTOM
 10
0.0
 20
0.0
 30
0.0
  9
$PUCSORGLEFT
 10
0.0
 20
0.0
 30
0.0
  9
$PUCSORGRIGHT
 10
0.0
 20
0.0
 30
0.0
  9
$PUCSORGFRONT
 10
0.0
 20
0.0
 30
0.0
  9
$PUCSORGBACK
 10
0.0
 20
0.0
 30
0.0
  9
$USERI1
 70
     0
  9
$USERI2
 70
     0
  9
$USERI3
 70
     0
  9
$USERI4
 70
     0
  9
$USERI5
 70
     0
  9
$USERR1
 40
0.0
  9
$USERR2
 40
0.0
  9
$USERR3
 40
0.0
  9
$USERR4
 40
0.0
  9
$USERR5
 40
0.0
  9
$WORLDVIEW
 70
     1
  9
$SHADEDGE
 70
     3
  9
$SHADEDIF
 70
    70
  9
$TILEMODE
 70
     1
  9
$MAXACTVP
 70
    48
  9
$PINSBASE
 10
0.0
 20
0.0
 30
0.0
  9
$PLIMCHECK
 70
     0
  9
$PEXTMIN
 10
1.000000000000000E+20
 20
1.000000000000000E+20
 30
1.000000000000000E+20
  9
$PEXTMAX
 10
-1.000000000000000E+20
 20
-1.000000000000000E+20
 30
-1.000000000000000E+20
  9
$PLIMMIN
 10
0.0
 20
0.0
  9
$PLIMMAX
 10
420.0
 20
297.0
  9
$UNITMODE
 70
     0
  9
$VISRETAIN
 70
     1
  9
$PLINEGEN
 70
     0
  9
$PSLTSCALE
 70
     1
  9
$TREEDEPTH
 70
  3020
  9
$CMLSTYLE
  2
STANDARD
  9
$CMLJUST
 70
     0
  9
$CMLSCALE
 40
20.0
  9
$PROXYGRAPHICS
 70
     1
  9
$MEASUREMENT
 70
     1
  9
$CELWEIGHT
370
    -1
  9
$ENDCAPS
280
     0
  9
$JOINSTYLE
280
     0
  9
$LWDISPLAY
290
     0
  9
$INSUNITS
 70
     0
  9
$HYPERLINKBASE
  1

  9
$STYLESHEET
  1
AutoCAD LT 98.ctb
  9
$XEDIT
290
     1
  9
$CEPSNTYPE
380
     0
  9
$PSTYLEMODE
290
     1
  9
$FINGERPRINTGUID
  2
{A7644E1D-E9A2-42DD-88D9-731C299C84E2}
  9
$VERSIONGUID
  2
{1255D3DD-2E5F-42CB-B834-B1DBAF688A7F}
  9
$EXTNAMES
290
     1
  9
$PSVPSCALE
 40
0.0
  9
$OLESTARTUP
290
     0
  9
$SORTENTS
280
    96
  9
$INDEXCTL
280
     0
  9
$HIDETEXT
280
     0
  9
$XCLIPFRAME
290
     0
  9
$HALOGAP
280
     0
  9
$OBSCOLOR
 70
   257
  9
$OBSLTYPE
280
     0
  9
$INTERSECTIONDISPLAY
280
     0
  9
$INTERSECTIONCOLOR
 70
   257
  9
$DIMASSOC
280
     1
  9
$PROJECTNAME
  1

  0
ENDSEC
  0
SECTION
  2
CLASSES
  0
CLASS
  1
HATCH
  2
AcDbHatch
  3
ObjectDBX Classes
 90
        0
 91
       16
280
     0
281
     1
  0
CLASS
  1
LWPOLYLINE
  2
AcDbPolyline
  3
ObjectDBX Classes
 90
        0
 91
        3
280
     0
281
     1
  0
CLASS
  1
IMAGEDEF
  2
AcDbRasterImageDef
  3
ISM
 90
        0
 91
        1
280
     0
281
     0
  0
CLASS
  1
DICTIONARYVAR
  2
AcDbDictionaryVar
  3
ObjectDBX Classes
 90
        0
 91
        2
280
     0
281
     0
  0
CLASS
  1
ACDBDICTIONARYWDFLT
  2
AcDbDictionaryWithDefault
  3
ObjectDBX Classes
 90
        0
 91
        1
280
     0
281
     0
  0
CLASS
  1
TABLESTYLE
  2
AcDbTableStyle
  3
ObjectDBX Classes
 90
     2047
 91
        1
280
     0
281
     0
  0
CLASS
  1
SORTENTSTABLE
  2
AcDbSortentsTable
  3
ObjectDBX Classes
 90
        0
 91
        0
280
     0
281
     0
  0
ENDSEC
  0
SECTION
  2
TABLES
  0
TABLE
  2
VPORT
  5
8
330
0
100
AcDbSymbolTable
 70
     2
  0
VPORT
  5
3348
330
8
100
AcDbSymbolTableRecord
100
AcDbViewportTableRecord
  2
*Active
 70
     0
 10
0.0
 20
0.0
 11
1.0
 21
1.0
 12
364.1899559918098
 22
269.3506659190583
 13
0.0
 23
0.0
 14
10.0
 24
10.0
 15
10.0
 25
10.0
 16
0.0
 26
0.0
 36
1.0
 17
0.0
 27
0.0
 37
0.0
 40
196.9300935618867
 41
1.530456852791878
 42
50.0
 43
0.0
 44
0.0
 50
0.0
 51
0.0
 71
     0
 72
   100
 73
     1
 74
     1
 75
     0
 76
     0
 77
     0
 78
     0
281
     0
 65
     1
110
0.0
120
0.0
130
0.0
111
1.0
121
0.0
131
0.0
112
0.0
122
1.0
132
0.0
 79
     0
146
0.0
  0
ENDTAB
  0
TABLE
  2
LTYPE
  5
5
330
0
100
AcDbSymbolTable
 70
     4
  0
LTYPE
  5
12
330
5
100
AcDbSymbolTableRecord
100
AcDbLinetypeTableRecord
  2
BYBLOCK
 70
     0
  3

 72
    65
 73
     0
 40
0.0
  0
LTYPE
  5
13
330
5
100
AcDbSymbolTableRecord
100
AcDbLinetypeTableRecord
  2
BYLAYER
 70
     0
  3

 72
    65
 73
     0
 40
0.0
  0
LTYPE
  5
14
330
5
100
AcDbSymbolTableRecord
100
AcDbLinetypeTableRecord
  2
CONTINUOUS
 70
     0
  3
Solid line
 72
    65
 73
     0
 40
0.0
  0
LTYPE
  5
22
330
5
100
AcDbSymbolTableRecord
100
AcDbLinetypeTableRecord
  2
CENTER2
 70
     0
  3
Center (.5x) ___ _ ___ _ ___ _ ___ _ ___ _ ___
 72
    65
 73
     4
 40
28.575
 49
19.05
 74
     0
 49
-3.174999999999999
 74
     0
 49
3.174999999999999
 74
     0
 49
-3.174999999999999
 74
     0
  0
ENDTAB
  0
TABLE
  2
LAYER
  5
2
330
0
100
AcDbSymbolTable
 70
    16
  0
LAYER
  5
E
330
2
100
AcDbSymbolTableRecord
100
AcDbLayerTableRecord
  2
0
 70
     0
 62
     7
  6
CONTINUOUS
370
    -3
390
2B1B
  0
LAYER
  5
25
330
2
100
AcDbSymbolTableRecord
100
AcDbLayerTableRecord
  2
外形線
 70
     0
 62
     7
  6
CONTINUOUS
370
    -3
390
2B1B
  0
LAYER
  5
26
330
2
100
AcDbSymbolTableRecord
100
AcDbLayerTableRecord
  2
寸法線
 70
     0
 62
     2
  6
CONTINUOUS
370
    -3
390
2B1B
  0
LAYER
  5
27
330
2
100
AcDbSymbolTableRecord
100
AcDbLayerTableRecord
  2
中心線
 70
     0
 62
     4
  6
CENTER2
370
    -3
390
2B1B
  0
LAYER
  5
2A
330
2
100
AcDbSymbolTableRecord
100
AcDbLayerTableRecord
  2
ﾊｯﾁﾝｸ
 70
     0
 62
     4
  6
CONTINUOUS
370
    -3
390
2B1B
  0
LAYER
  5
2B
330
2
100
AcDbSymbolTableRecord
100
AcDbLayerTableRecord
  2
文字
 70
     0
 62
     6
  6
CONTINUOUS
370
    -3
390
2B1B
  0
LAYER
  5
2D
330
2
100
AcDbSymbolTableRecord
100
AcDbLayerTableRecord
  2
針
 70
     0
 62
     5
  6
CONTINUOUS
370
    -3
390
2B1B
  0
LAYER
  5
53
330
2
100
AcDbSymbolTableRecord
100
AcDbLayerTableRecord
  2
DEFPOINTS
 70
     0
 62
     7
  6
CONTINUOUS
290
     0
370
    -3
390
2B1B
  0
LAYER
  5
A5
330
2
100
AcDbSymbolTableRecord
100
AcDbLayerTableRecord
  2
C
 70
     0
 62
     7
  6
CONTINUOUS
370
    -3
390
2B1B
  0
LAYER
  5
E00
330
2
100
AcDbSymbolTableRecord
100
AcDbLayerTableRecord
  2
ROGO
 70
     0
 62
     6
  6
CONTINUOUS
370
    -3
390
2B1B
  0
ENDTAB
  0
TABLE
  2
STYLE
  5
3
330
0
100
AcDbSymbolTable
 70
     4
  0
STYLE
  5
F
330
3
100
AcDbSymbolTableRecord
100
AcDbTextStyleTableRecord
  2
STANDARD
 70
     0
 40
0.0
 41
1.0
 50
0.0
 71
     0
 42
2.5
  3
txt
  4

  0
STYLE
  5
3F
330
3
100
AcDbSymbolTableRecord
100
AcDbTextStyleTableRecord
  2
STYLE3
 70
     0
 40
0.0
 41
1.0
 50
0.0
 71
     0
 42
1.0
  3
romans.shx
  4
bigfont.shx
  0
ENDTAB
  0
TABLE
  2
VIEW
  5
6
330
0
100
AcDbSymbolTable
 70
     0
  0
ENDTAB
  0
TABLE
  2
UCS
  5
7
330
0
100
AcDbSymbolTable
 70
     0
  0
ENDTAB
  0
TABLE
  2
APPID
  5
9
330
0
100
AcDbSymbolTable
 70
     2
  0
APPID
  5
10
330
9
100
AcDbSymbolTableRecord
100
AcDbRegAppTableRecord
  2
ACAD
 70
     0
  0
APPID
  5
2B7A
330
9
100
AcDbSymbolTableRecord
100
AcDbRegAppTableRecord
  2
ACAD_PSEXT
 70
     0
  0
ENDTAB
  0
TABLE
  2
DIMSTYLE
  5
A
330
0
100
AcDbSymbolTable
 70
     4
100
AcDbDimStyleTable
 71
     1
340
66
  0
DIMSTYLE
105
1D
330
A
100
AcDbSymbolTableRecord
100
AcDbDimStyleTableRecord
  2
STANDARD
 70
     0
 41
2.5
 42
0.625
 43
3.75
 44
1.25
 73
     0
 74
     0
 77
     1
 78
     8
140
2.5
141
2.5
143
0.0394
147
0.625
171
     4
172
     1
273
     8
274
     4
277
     6
340
F
  0
DIMSTYLE
105
66
102
{ACAD_REACTORS
330
237F
330
2477
330
2484
330
2491
330
249E
330
24D2
330
30F9
330
3108
102
}
330
A
100
AcDbSymbolTableRecord
100
AcDbDimStyleTableRecord
  2
STYLE2
 70
     0
 41
2.5
 42
0.0
 43
3.75
 44
1.25
 73
     0
 74
     0
 77
     1
 78
     8
140
2.5
141
2.5
143
0.0394
147
0.625
171
     4
172
     1
173
     1
176
     2
177
     2
178
     6
271
     1
273
     8
274
     4
340
3F
341
45
343
45
344
45
  0
ENDTAB
  0
TABLE
  2
BLOCK_RECORD
  5
1
330
0
100
AcDbSymbolTable
 70
    13
  0
BLOCK_RECORD
  5
18
330
1
100
AcDbSymbolTableRecord
100
AcDbBlockTableRecord
  2
*MODEL_SPACE
340
2B22
  0
BLOCK_RECORD
  5
15
330
1
100
AcDbSymbolTableRecord
100
AcDbBlockTableRecord
  2
*PAPER_SPACE
340
2B23
  0
BLOCK_RECORD
  5
45
330
1
100
AcDbSymbolTableRecord
100
AcDbBlockTableRecord
  2
_OPEN
340
0
102
{BLKREFS
331
836
331
837
331
83E
331
83F
331
847
331
848
331
F35
331
F36
331
1C6C
331
1C6D
331
1C75
331
1C76
331
2400
331
2402
331
32F5
331
32F6
331
3300
331
3301
331
330D
331
330E
331
3316
331
3317
331
331F
331
3320
331
3328
331
3329
331
3331
331
3332
331
333A
331
333B
102
}
  0
BLOCK_RECORD
  5
2371
330
1
100
AcDbSymbolTableRecord
100
AcDbBlockTableRecord
  2
*D1
340
0
  0
BLOCK_RECORD
  5
246B
330
1
100
AcDbSymbolTableRecord
100
AcDbBlockTableRecord
  2
*D2
340
0
  0
BLOCK_RECORD
  5
2478
330
1
100
AcDbSymbolTableRecord
100
AcDbBlockTableRecord
  2
*D3
340
0
  0
BLOCK_RECORD
  5
2485
330
1
100
AcDbSymbolTableRecord
100
AcDbBlockTableRecord
  2
*D4
340
0
  0
BLOCK_RECORD
  5
2492
330
1
100
AcDbSymbolTableRecord
100
AcDbBlockTableRecord
  2
*D5
340
0
  0
BLOCK_RECORD
  5
24C6
330
1
100
AcDbSymbolTableRecord
100
AcDbBlockTableRecord
  2
*D6
340
0
  0
BLOCK_RECORD
  5
30FA
330
1
100
AcDbSymbolTableRecord
100
AcDbBlockTableRecord
  2
*D10
340
0
  0
BLOCK_RECORD
  5
3109
330
1
100
AcDbSymbolTableRecord
100
AcDbBlockTableRecord
  2
*D11
340
0
  0
ENDTAB
  0
ENDSEC
  0
SECTION
  2
BLOCKS
  0
BLOCK
  5
19
330
18
100
AcDbEntity
  8
0
100
AcDbBlockBegin
  2
*MODEL_SPACE
 70
     0
 10
0.0
 20
0.0
 30
0.0
  3
*MODEL_SPACE
  1

  0
ENDBLK
  5
1A
330
18
100
AcDbEntity
  8
0
100
AcDbBlockEnd
  0
BLOCK
  5
16
330
15
100
AcDbEntity
 67
     1
  8
0
100
AcDbBlockBegin
  2
*PAPER_SPACE
 70
     0
 10
0.0
 20
0.0
 30
0.0
  3
*PAPER_SPACE
  1

  0
ENDBLK
  5
17
330
15
100
AcDbEntity
 67
     1
  8
0
100
AcDbBlockEnd
  0
BLOCK
  5
46
330
45
100
AcDbEntity
  8
0
100
AcDbBlockBegin
  2
_OPEN
 70
     0
 10
0.0
 20
0.0
 30
0.0
  3
_OPEN
  1

  0
LINE
  5
47
330
45
100
AcDbEntity
  8
0
  6
ByBlock
 62
     0
100
AcDbLine
 10
-1.0
 20
0.1666666666666666
 30
0.0
 11
0.0
 21
0.0
 31
0.0
  0
LINE
  5
48
330
45
100
AcDbEntity
  8
0
  6
ByBlock
 62
     0
100
AcDbLine
 10
0.0
 20
0.0
 30
0.0
 11
-1.0
 21
-0.1666666666666666
 31
0.0
  0
LINE
  5
49
330
45
100
AcDbEntity
  8
0
  6
ByBlock
 62
     0
100
AcDbLine
 10
0.0
 20
0.0
 30
0.0
 11
-1.0
 21
0.0
 31
0.0
  0
ENDBLK
  5
4A
330
45
100
AcDbEntity
  8
0
100
AcDbBlockEnd
  0
BLOCK
  5
238D
330
2371
100
AcDbEntity
  8
0
100
AcDbBlockBegin
  2
*D1
 70
     1
 10
0.0
 20
0.0
 30
0.0
  3
*D1
  1

  0
LINE
  5
3308
330
2371
100
AcDbEntity
  8
ﾊｯﾁﾝｸ
 62
     2
370
    -2
100
AcDbLine
 10
331.650294025446
 20
236.5969995532091
 30
0.0
 11
331.650294025446
 21
235.0575380230947
 31
0.0
  0
LINE
  5
3309
330
2371
100
AcDbEntity
  8
ﾊｯﾁﾝｸ
 62
     2
370
    -2
100
AcDbLine
 10
335.6502940254461
 20
236.452268788152
 30
0.0
 11
335.6502940254461
 21
235.0575380230947
 31
0.0
  0
LINE
  5
330A
330
2371
100
AcDbEntity
  8
ﾊｯﾁﾝｸ
 62
     2
370
    -2
100
AcDbLine
 10
329.150294025446
 20
236.3075380230947
 30
0.0
 11
326.650294025446
 21
236.3075380230947
 31
0.0
  0
LINE
  5
330B
330
2371
100
AcDbEntity
  8
ﾊｯﾁﾝｸ
 62
     2
370
    -2
100
AcDbLine
 10
338.1502940254461
 20
236.3075380230947
 30
0.0
 11
346.5431511683032
 21
236.3075380230947
 31
0.0
  0
LINE
  5
330C
330
2371
100
AcDbEntity
  8
ﾊｯﾁﾝｸ
 62
     2
370
    -2
100
AcDbLine
 10
331.650294025446
 20
236.3075380230947
 30
0.0
 11
335.6502940254461
 21
236.3075380230947
 31
0.0
  0
INSERT
  5
330D
330
2371
100
AcDbEntity
  8
ﾊｯﾁﾝｸ
 62
     2
370
    -2
100
AcDbBlockReference
  2
_OPEN
 10
331.650294025446
 20
236.3075380230947
 30
0.0
 41
2.5
 42
2.5
 43
2.5
  0
INSERT
  5
330E
330
2371
100
AcDbEntity
  8
ﾊｯﾁﾝｸ
 62
     2
370
    -2
100
AcDbBlockReference
  2
_OPEN
 10
335.6502940254461
 20
236.3075380230947
 30
0.0
 41
2.5
 42
2.5
 43
2.5
 50
180.0
  0
MTEXT
  5
330F
330
2371
100
AcDbEntity
  8
ﾊｯﾁﾝｸ
 62
     6
100
AcDbMText
 10
343.5967225968747
 20
238.1825380230947
 30
0.0
 40
2.5
 41
0.0
 71
     5
 72
     1
  1
\A1;φ4
  7
STYLE3
 73
     1
 44
1.0
  0
POINT
  5
3310
330
2371
100
AcDbEntity
  8
DEFPOINTS
 62
     0
100
AcDbPoint
 10
331.650294025446
 20
236.5969995532091
 30
0.0
  0
POINT
  5
3311
330
2371
100
AcDbEntity
  8
DEFPOINTS
 62
     0
100
AcDbPoint
 10
335.6502940254461
 20
236.452268788152
 30
0.0
  0
POINT
  5
3312
330
2371
100
AcDbEntity
  8
DEFPOINTS
 62
     0
100
AcDbPoint
 10
335.6502940254461
 20
236.3075380230947
 30
0.0
  0
ENDBLK
  5
2399
330
2371
100
AcDbEntity
  8
0
100
AcDbBlockEnd
  0
BLOCK
  5
249F
330
246B
100
AcDbEntity
  8
0
100
AcDbBlockBegin
  2
*D2
 70
     1
 10
0.0
 20
0.0
 30
0.0
  3
*D2
  1

  0
LINE
  5
332E
330
246B
100
AcDbEntity
  8
ﾊｯﾁﾝｸ
 62
     2
370
    -2
100
AcDbLine
 10
397.85809789896
 20
256.8208138622202
 30
0.0
 11
402.2256535620617
 21
256.8208138622202
 31
0.0
  0
LINE
  5
332F
330
246B
100
AcDbEntity
  8
ﾊｯﾁﾝｸ
 62
     2
370
    -2
100
AcDbLine
 10
412.5029392924895
 20
242.7208138622201
 30
0.0
 11
399.7256535620617
 21
242.7208138622201
 31
0.0
  0
LINE
  5
3330
330
246B
100
AcDbEntity
  8
ﾊｯﾁﾝｸ
 62
     2
370
    -2
100
AcDbLine
 10
400.9756535620617
 20
254.3208138622202
 30
0.0
 11
400.9756535620617
 21
245.2208138622201
 31
0.0
  0
INSERT
  5
3331
330
246B
100
AcDbEntity
  8
ﾊｯﾁﾝｸ
 62
     2
370
    -2
100
AcDbBlockReference
  2
_OPEN
 10
400.9756535620617
 20
256.8208138622202
 30
0.0
 41
2.5
 42
2.5
 43
2.5
 50
90.0
  0
INSERT
  5
3332
330
246B
100
AcDbEntity
  8
ﾊｯﾁﾝｸ
 62
     2
370
    -2
100
AcDbBlockReference
  2
_OPEN
 10
400.9756535620617
 20
242.7208138622201
 30
0.0
 41
2.5
 42
2.5
 43
2.5
 50
270.0
  0
MTEXT
  5
3333
330
246B
100
AcDbEntity
  8
ﾊｯﾁﾝｸ
 62
     6
100
AcDbMText
 10
399.1006535620617
 20
249.7708138622202
 30
0.0
 40
2.5
 41
0.0
 71
     5
 72
     1
  1
\A1;14
  7
STYLE3
 11
0.0000000000000001
 21
1.0
 31
0.0
 73
     1
 44
1.0
  0
POINT
  5
3334
330
246B
100
AcDbEntity
  8
DEFPOINTS
 62
     0
100
AcDbPoint
 10
397.85809789896
 20
256.8208138622202
 30
0.0
  0
POINT
  5
3335
330
246B
100
AcDbEntity
  8
DEFPOINTS
 62
     0
100
AcDbPoint
 10
412.5029392924895
 20
242.7208138622201
 30
0.0
  0
POINT
  5
3336
330
246B
100
AcDbEntity
  8
DEFPOINTS
 62
     0
100
AcDbPoint
 10
400.9756535620617
 20
242.7208138622201
 30
0.0
  0
ENDBLK
  5
24A9
330
246B
100
AcDbEntity
  8
0
100
AcDbBlockEnd
  0
BLOCK
  5
24AA
330
2478
100
AcDbEntity
  8
0
100
AcDbBlockBegin
  2
*D3
 70
     1
 10
0.0
 20
0.0
 30
0.0
  3
*D3
  1

  0
LINE
  5
3325
330
2478
100
AcDbEntity
  8
ﾊｯﾁﾝｸ
 62
     2
370
    -2
100
AcDbLine
 10
393.7013562223282
 20
256.8208138622202
 30
0.0
 11
395.5286817854005
 21
256.8208138622202
 31
0.0
  0
LINE
  5
3326
330
2478
100
AcDbEntity
  8
ﾊｯﾁﾝｸ
 62
     2
370
    -2
100
AcDbLine
 10
412.9529392924895
 20
238.2208138622201
 30
0.0
 11
393.0286817854005
 21
238.2208138622201
 31
0.0
  0
LINE
  5
3327
330
2478
100
AcDbEntity
  8
ﾊｯﾁﾝｸ
 62
     2
370
    -2
100
AcDbLine
 10
394.2786817854005
 20
254.3208138622202
 30
0.0
 11
394.2786817854005
 21
240.7208138622201
 31
0.0
  0
INSERT
  5
3328
330
2478
100
AcDbEntity
  8
ﾊｯﾁﾝｸ
 62
     2
370
    -2
100
AcDbBlockReference
  2
_OPEN
 10
394.2786817854005
 20
256.8208138622202
 30
0.0
 41
2.5
 42
2.5
 43
2.5
 50
90.0
  0
INSERT
  5
3329
330
2478
100
AcDbEntity
  8
ﾊｯﾁﾝｸ
 62
     2
370
    -2
100
AcDbBlockReference
  2
_OPEN
 10
394.2786817854005
 20
238.2208138622201
 30
0.0
 41
2.5
 42
2.5
 43
2.5
 50
270.0
  0
MTEXT
  5
332A
330
2478
100
AcDbEntity
  8
ﾊｯﾁﾝｸ
 62
     6
100
AcDbMText
 10
392.4036817854004
 20
247.5208138622202
 30
0.0
 40
2.5
 41
0.0
 71
     5
 72
     1
  1
\A1;18.5
  7
STYLE3
 11
0.0000000000000001
 21
1.0
 31
0.0
 73
     1
 44
1.0
  0
POINT
  5
332B
330
2478
100
AcDbEntity
  8
DEFPOINTS
 62
     0
100
AcDbPoint
 10
393.7013562223282
 20
256.8208138622202
 30
0.0
  0
POINT
  5
332C
330
2478
100
AcDbEntity
  8
DEFPOINTS
 62
     0
100
AcDbPoint
 10
412.9529392924895
 20
238.2208138622201
 30
0.0
  0
POINT
  5
332D
330
2478
100
AcDbEntity
  8
DEFPOINTS
 62
     0
100
AcDbPoint
 10
394.2786817854005
 20
238.2208138622201
 30
0.0
  0
ENDBLK
  5
24B4
330
2478
100
AcDbEntity
  8
0
100
AcDbBlockEnd
  0
BLOCK
  5
24B5
330
2485
100
AcDbEntity
  8
0
100
AcDbBlockBegin
  2
*D4
 70
     1
 10
0.0
 20
0.0
 30
0.0
  3
*D4
  1

  0
LINE
  5
331C
330
2485
100
AcDbEntity
  8
ﾊｯﾁﾝｸ
 62
     2
370
    -2
100
AcDbLine
 10
390.3528703339975
 20
256.8208138622202
 30
0.0
 11
385.6832715555127
 21
256.8208138622202
 31
0.0
  0
LINE
  5
331D
330
2485
100
AcDbEntity
  8
ﾊｯﾁﾝｸ
 62
     2
370
    -2
100
AcDbLine
 10
416.3529392924896
 20
223.2208138622201
 30
0.0
 11
385.6832715555127
 21
223.2208138622201
 31
0.0
  0
LINE
  5
331E
330
2485
100
AcDbEntity
  8
ﾊｯﾁﾝｸ
 62
     2
370
    -2
100
AcDbLine
 10
386.9332715555127
 20
254.3208138622202
 30
0.0
 11
386.9332715555127
 21
225.7208138622201
 31
0.0
  0
INSERT
  5
331F
330
2485
100
AcDbEntity
  8
ﾊｯﾁﾝｸ
 62
     2
370
    -2
100
AcDbBlockReference
  2
_OPEN
 10
386.9332715555127
 20
256.8208138622202
 30
0.0
 41
2.5
 42
2.5
 43
2.5
 50
90.0
  0
INSERT
  5
3320
330
2485
100
AcDbEntity
  8
ﾊｯﾁﾝｸ
 62
     2
370
    -2
100
AcDbBlockReference
  2
_OPEN
 10
386.9332715555127
 20
223.2208138622201
 30
0.0
 41
2.5
 42
2.5
 43
2.5
 50
270.0
  0
MTEXT
  5
3321
330
2485
100
AcDbEntity
  8
ﾊｯﾁﾝｸ
 62
     6
100
AcDbMText
 10
385.0582715555126
 20
240.0208138622202
 30
0.0
 40
2.5
 41
0.0
 71
     5
 72
     1
  1
\A1;33.5
  7
STYLE3
 11
0.0000000000000001
 21
1.0
 31
0.0
 73
     1
 44
1.0
  0
POINT
  5
3322
330
2485
100
AcDbEntity
  8
DEFPOINTS
 62
     0
100
AcDbPoint
 10
390.3528703339975
 20
256.8208138622202
 30
0.0
  0
POINT
  5
3323
330
2485
100
AcDbEntity
  8
DEFPOINTS
 62
     0
100
AcDbPoint
 10
416.3529392924896
 20
223.2208138622201
 30
0.0
  0
POINT
  5
3324
330
2485
100
AcDbEntity
  8
DEFPOINTS
 62
     0
100
AcDbPoint
 10
386.9332715555127
 20
223.2208138622201
 30
0.0
  0
ENDBLK
  5
24BF
330
2485
100
AcDbEntity
  8
0
100
AcDbBlockEnd
  0
BLOCK
  5
2493
330
2492
100
AcDbEntity
  8
0
100
AcDbBlockBegin
  2
*D5
 70
     1
 10
0.0
 20
0.0
 30
0.0
  3
*D5
  1

  0
LINE
  5
3313
330
2492
100
AcDbEntity
  8
ﾊｯﾁﾝｸ
 62
     2
370
    -2
100
AcDbLine
 10
414.3529392924897
 20
232.2208138622201
 30
0.0
 11
399.7256535620617
 21
232.2208138622201
 31
0.0
  0
LINE
  5
3314
330
2492
100
AcDbEntity
  8
ﾊｯﾁﾝｸ
 62
     2
370
    -2
100
AcDbLine
 10
416.3529392924896
 20
223.2208138622201
 30
0.0
 11
399.7256535620617
 21
223.2208138622201
 31
0.0
  0
LINE
  5
3315
330
2492
100
AcDbEntity
  8
ﾊｯﾁﾝｸ
 62
     2
370
    -2
100
AcDbLine
 10
400.9756535620617
 20
229.7208138622201
 30
0.0
 11
400.9756535620617
 21
225.7208138622201
 31
0.0
  0
INSERT
  5
3316
330
2492
100
AcDbEntity
  8
ﾊｯﾁﾝｸ
 62
     2
370
    -2
100
AcDbBlockReference
  2
_OPEN
 10
400.9756535620617
 20
232.2208138622201
 30
0.0
 41
2.5
 42
2.5
 43
2.5
 50
90.0
  0
INSERT
  5
3317
330
2492
100
AcDbEntity
  8
ﾊｯﾁﾝｸ
 62
     2
370
    -2
100
AcDbBlockReference
  2
_OPEN
 10
400.9756535620617
 20
223.2208138622201
 30
0.0
 41
2.5
 42
2.5
 43
2.5
 50
270.0
  0
MTEXT
  5
3318
330
2492
100
AcDbEntity
  8
ﾊｯﾁﾝｸ
 62
     6
100
AcDbMText
 10
399.1006535620617
 20
227.7208138622202
 30
0.0
 40
2.5
 41
0.0
 71
     5
 72
     1
  1
\A1;9
  7
STYLE3
 11
0.0000000000000001
 21
1.0
 31
0.0
 73
     1
 44
1.0
  0
POINT
  5
3319
330
2492
100
AcDbEntity
  8
DEFPOINTS
 62
     0
100
AcDbPoint
 10
414.3529392924897
 20
232.2208138622201
 30
0.0
  0
POINT
  5
331A
330
2492
100
AcDbEntity
  8
DEFPOINTS
 62
     0
100
AcDbPoint
 10
416.3529392924896
 20
223.2208138622201
 30
0.0
  0
POINT
  5
331B
330
2492
100
AcDbEntity
  8
DEFPOINTS
 62
     0
100
AcDbPoint
 10
400.9756535620617
 20
223.2208138622201
 30
0.0
  0
ENDBLK
  5
249D
330
2492
100
AcDbEntity
  8
0
100
AcDbBlockEnd
  0
BLOCK
  5
24C7
330
24C6
100
AcDbEntity
  8
0
100
AcDbBlockBegin
  2
*D6
 70
     1
 10
0.0
 20
0.0
 30
0.0
  3
*D6
  1

  0
LINE
  5
3337
330
24C6
100
AcDbEntity
  8
ﾊｯﾁﾝｸ
 62
     2
370
    -2
100
AcDbLine
 10
416.3529392924896
 20
324.7208138622202
 30
0.0
 11
416.3529392924896
 21
331.786372622093
 31
0.0
  0
LINE
  5
3338
330
24C6
100
AcDbEntity
  8
ﾊｯﾁﾝｸ
 62
     2
370
    -2
100
AcDbLine
 10
423.9529392924896
 20
306.2208138622202
 30
0.0
 11
423.9529392924896
 21
331.786372622093
 31
0.0
  0
LINE
  5
3339
330
24C6
100
AcDbEntity
  8
ﾊｯﾁﾝｸ
 62
     2
370
    -2
100
AcDbLine
 10
418.8529392924896
 20
330.536372622093
 30
0.0
 11
421.4529392924895
 21
330.536372622093
 31
0.0
  0
INSERT
  5
333A
330
24C6
100
AcDbEntity
  8
ﾊｯﾁﾝｸ
 62
     2
370
    -2
100
AcDbBlockReference
  2
_OPEN
 10
416.3529392924896
 20
330.536372622093
 30
0.0
 41
2.5
 42
2.5
 43
2.5
 50
180.0
  0
INSERT
  5
333B
330
24C6
100
AcDbEntity
  8
ﾊｯﾁﾝｸ
 62
     2
370
    -2
100
AcDbBlockReference
  2
_OPEN
 10
423.9529392924896
 20
330.536372622093
 30
0.0
 41
2.5
 42
2.5
 43
2.5
  0
MTEXT
  5
333C
330
24C6
100
AcDbEntity
  8
ﾊｯﾁﾝｸ
 62
     6
100
AcDbMText
 10
420.1529392924896
 20
332.411372622093
 30
0.0
 40
2.5
 41
0.0
 71
     5
 72
     1
  1
\A1;7.6
  7
STYLE3
 73
     1
 44
1.0
  0
POINT
  5
333D
330
24C6
100
AcDbEntity
  8
DEFPOINTS
 62
     0
100
AcDbPoint
 10
416.3529392924896
 20
324.7208138622202
 30
0.0
  0
POINT
  5
333E
330
24C6
100
AcDbEntity
  8
DEFPOINTS
 62
     0
100
AcDbPoint
 10
423.9529392924896
 20
306.2208138622202
 30
0.0
  0
POINT
  5
333F
330
24C6
100
AcDbEntity
  8
DEFPOINTS
 62
     0
100
AcDbPoint
 10
423.9529392924896
 20
330.536372622093
 30
0.0
  0
ENDBLK
  5
24D1
330
24C6
100
AcDbEntity
  8
0
100
AcDbBlockEnd
  0
BLOCK
  5
3106
330
30FA
100
AcDbEntity
  8
0
100
AcDbBlockBegin
  2
*D10
 70
     1
 10
0.0
 20
0.0
 30
0.0
  3
*D10
  1

  0
LINE
  5
32FB
330
30FA
100
AcDbEntity
  8
寸法線
 62
     2
370
    -2
100
AcDbLine
 10
328.8683251366376
 20
260.7234190453425
 30
0.0
 11
326.719824013551
 21
250.6155159714213
 31
0.0
  0
LINE
  5
32FC
330
30FA
100
AcDbEntity
  8
寸法線
 62
     2
370
    -2
100
AcDbLine
 10
338.4322629142545
 20
260.7234190453425
 30
0.0
 11
340.580764037341
 21
250.6155159714213
 31
0.0
  0
ARC
  5
32FD
330
30FA
100
AcDbEntity
  8
寸法線
 62
     2
370
    -2
100
AcDbCircle
 10
333.650294025446
 20
283.2208138622199
 30
0.0
 40
32.0837196414306
100
AcDbArc
 50
249.0686346238416
 51
253.5343173119208
  0
ARC
  5
32FE
330
30FA
100
AcDbEntity
  8
寸法線
 62
     2
370
    -2
100
AcDbCircle
 10
333.650294025446
 20
283.2208138622199
 30
0.0
 40
32.0837196414306
100
AcDbArc
 50
286.4656826880793
 51
290.9313653761586
  0
ARC
  5
32FF
330
30FA
100
AcDbEntity
  8
寸法線
 62
     2
370
    -2
100
AcDbCircle
 10
333.650294025446
 20
283.2208138622199
 30
0.0
 40
32.0837196414306
100
AcDbArc
 50
258.0
 51
282.0000000000001
  0
INSERT
  5
3300
330
30FA
100
AcDbEntity
  8
寸法線
 62
     2
370
    -2
100
AcDbBlockReference
  2
_OPEN
 10
326.9797136270732
 20
251.8382004723385
 30
0.0
 41
2.5
 42
2.5
 43
2.5
 50
345.7671586559605
  0
INSERT
  5
3301
330
30FA
100
AcDbEntity
  8
寸法線
 62
     2
370
    -2
100
AcDbBlockReference
  2
_OPEN
 10
340.3208744238189
 20
251.8382004723386
 30
0.0
 41
2.5
 42
2.5
 43
2.5
 50
194.2328413440397
  0
MTEXT
  5
3302
330
30FA
100
AcDbEntity
  8
寸法線
 62
     6
100
AcDbMText
 10
333.650294025446
 20
253.0120942207893
 30
0.0
 40
2.5
 41
0.0
 71
     5
 72
     1
  1
\A1;24°
  7
STYLE3
 73
     1
 44
1.0
  0
POINT
  5
3303
330
30FA
100
AcDbEntity
  8
DEFPOINTS
 62
     0
100
AcDbPoint
 10
331.4122468786647
 20
251.2152485493138
 30
0.0
  0
POINT
  5
3304
330
30FA
100
AcDbEntity
  8
DEFPOINTS
 62
     0
100
AcDbPoint
 10
333.2552618128923
 20
281.3623334208259
 30
0.0
  0
POINT
  5
3305
330
30FA
100
AcDbEntity
  8
DEFPOINTS
 62
     0
100
AcDbPoint
 10
334.0453262379997
 20
281.3623334208259
 30
0.0
  0
POINT
  5
3306
330
30FA
100
AcDbEntity
  8
DEFPOINTS
 62
     0
100
AcDbPoint
 10
338.4322629142545
 20
260.7234190453425
 30
0.0
  0
POINT
  5
3307
330
30FA
100
AcDbEntity
  8
DEFPOINTS
 62
     0
100
AcDbPoint
 10
328.8683251366376
 20
260.7234190453425
 30
0.0
  0
ENDBLK
  5
3107
330
30FA
100
AcDbEntity
  8
0
100
AcDbBlockEnd
  0
BLOCK
  5
3113
330
3109
100
AcDbEntity
  8
0
100
AcDbBlockBegin
  2
*D11
 70
     1
 10
0.0
 20
0.0
 30
0.0
  3
*D11
  1

  0
LINE
  5
32F2
330
3109
100
AcDbEntity
  8
寸法線
 62
     2
370
    -2
100
AcDbLine
 10
333.650294025446
 20
260.2208138622202
 30
0.0
 11
300.1181729632937
 21
260.2208138622202
 31
0.0
  0
LINE
  5
32F3
330
3109
100
AcDbEntity
  8
寸法線
 62
     2
370
    -2
100
AcDbLine
 10
333.650294025446
 20
306.2208138622202
 30
0.0
 11
300.1181729632937
 21
306.2208138622202
 31
0.0
  0
LINE
  5
32F4
330
3109
100
AcDbEntity
  8
寸法線
 62
     2
370
    -2
100
AcDbLine
 10
301.3681729632937
 20
262.7208138622202
 30
0.0
 11
301.3681729632937
 21
303.7208138622201
 31
0.0
  0
INSERT
  5
32F5
330
3109
100
AcDbEntity
  8
寸法線
 62
     2
370
    -2
100
AcDbBlockReference
  2
_OPEN
 10
301.3681729632937
 20
260.2208138622202
 30
0.0
 41
2.5
 42
2.5
 43
2.5
 50
270.0
  0
INSERT
  5
32F6
330
3109
100
AcDbEntity
  8
寸法線
 62
     2
370
    -2
100
AcDbBlockReference
  2
_OPEN
 10
301.3681729632937
 20
306.2208138622202
 30
0.0
 41
2.5
 42
2.5
 43
2.5
 50
90.0
  0
MTEXT
  5
32F7
330
3109
100
AcDbEntity
  8
寸法線
 62
     6
100
AcDbMText
 10
299.4931729632936
 20
283.2208138622202
 30
0.0
 40
2.5
 41
0.0
 71
     5
 72
     1
  1
\A1;φ46
  7
STYLE3
 11
0.0000000000000001
 21
1.0
 31
0.0
 73
     1
 44
1.0
  0
POINT
  5
32F8
330
3109
100
AcDbEntity
  8
DEFPOINTS
 62
     0
100
AcDbPoint
 10
333.650294025446
 20
260.2208138622202
 30
0.0
  0
POINT
  5
32F9
330
3109
100
AcDbEntity
  8
DEFPOINTS
 62
     0
100
AcDbPoint
 10
333.650294025446
 20
306.2208138622202
 30
0.0
  0
POINT
  5
32FA
330
3109
100
AcDbEntity
  8
DEFPOINTS
 62
     0
100
AcDbPoint
 10
301.3681729632937
 20
306.2208138622202
 30
0.0
  0
ENDBLK
  5
3114
330
3109
100
AcDbEntity
  8
0
100
AcDbBlockEnd
  0
ENDSEC
  0
SECTION
  2
ENTITIES
  0
LINE
  5
244
330
18
100
AcDbEntity
  8
中心線
 48
0.5
100
AcDbLine
 10
292.1062442008871
 20
283.2208138622202
 30
0.0
 11
363.7895897562323
 21
283.2208138622202
 31
0.0
  0
LINE
  5
245
330
18
100
AcDbEntity
  8
中心線
 48
0.5
100
AcDbLine
 10
333.650294025446
 20
327.8626228460357
 30
0.0
 11
333.650294025446
 21
221.4529293187266
 31
0.0
  0
CIRCLE
  5
247
330
18
100
AcDbEntity
  8
外形線
100
AcDbCircle
 10
333.650294025446
 20
283.2208138622202
 30
0.0
 40
23.0
  0
CIRCLE
  5
248
330
18
100
AcDbEntity
  8
外形線
100
AcDbCircle
 10
333.650294025446
 20
283.2208138622202
 30
0.0
 40
26.4
  0
LINE
  5
5CF
330
18
100
AcDbEntity
  8
外形線
  6
Continuous
100
AcDbLine
 10
337.350294025446
 20
323.7208138622201
 30
0.0
 11
337.350294025446
 21
317.22081386222
 31
0.0
  0
LINE
  5
5D0
330
18
100
AcDbEntity
  8
外形線
  6
Continuous
100
AcDbLine
 10
329.950294025446
 20
323.7208138622201
 30
0.0
 11
329.950294025446
 21
317.22081386222
 31
0.0
  0
LINE
  5
5D1
330
18
100
AcDbEntity
  8
外形線
  6
Continuous
100
AcDbLine
 10
329.950294025446
 20
323.7208138622201
 30
0.0
 11
337.350294025446
 21
323.7208138622201
 31
0.0
  0
LINE
  5
5D2
330
18
100
AcDbEntity
  8
外形線
  6
Continuous
100
AcDbLine
 10
329.6502940254461
 20
317.22081386222
 30
0.0
 11
337.650294025446
 21
317.22081386222
 31
0.0
  0
LINE
  5
5D3
330
18
100
AcDbEntity
  8
外形線
  6
Continuous
100
AcDbLine
 10
329.650294025446
 20
311.2208138622201
 30
0.0
 11
337.650294025446
 21
311.2208138622201
 31
0.0
  0
LINE
  5
5D4
330
18
100
AcDbEntity
  8
外形線
  6
Continuous
100
AcDbLine
 10
337.650294025446
 20
317.22081386222
 30
0.0
 11
337.650294025446
 21
311.2208138622201
 31
0.0
  0
LINE
  5
5D5
330
18
100
AcDbEntity
  8
外形線
  6
Continuous
100
AcDbLine
 10
329.6502940254461
 20
317.22081386222
 30
0.0
 11
329.6502940254461
 21
311.2208138622201
 31
0.0
  0
LINE
  5
5D6
330
18
100
AcDbEntity
  8
外形線
  6
Continuous
100
AcDbLine
 10
337.350294025446
 20
311.2208138622201
 30
0.0
 11
337.350294025446
 21
309.360247673992
 31
0.0
  0
LINE
  5
5D7
330
18
100
AcDbEntity
  8
外形線
  6
Continuous
100
AcDbLine
 10
329.950294025446
 20
311.2208138622201
 30
0.0
 11
329.950294025446
 21
309.360247673992
 31
0.0
  0
ARC
  5
5D9
330
18
100
AcDbEntity
  8
外形線
  6
Continuous
100
AcDbCircle
 10
333.650294025446
 20
317.3758138622202
 30
0.0
 40
7.344999999999885
100
AcDbArc
 50
59.75198538337817
 51
120.2480146166212
  0
ARC
  5
692
330
18
100
AcDbEntity
  8
外形線
  6
Continuous
100
AcDbCircle
 10
507.5196059591559
 20
283.2208138622202
 30
0.0
 40
105.6666666666664
100
AcDbArc
 50
166.3144531747381
 51
193.685546825262
  0
LINE
  5
693
330
18
100
AcDbEntity
  8
外形線
  6
Continuous
100
AcDbLine
 10
404.8529392924895
 20
308.2208138622202
 30
0.0
 11
404.8529392924895
 21
258.2208138622202
 31
0.0
  0
LINE
  5
694
330
18
100
AcDbEntity
  8
外形線
  6
Continuous
100
AcDbLine
 10
406.0529392924896
 20
309.6208138622202
 30
0.0
 11
406.0529392924896
 21
256.8208138622202
 31
0.0
  0
LINE
  5
695
330
18
100
AcDbEntity
  8
外形線
  6
Continuous
100
AcDbLine
 10
409.8529392924895
 20
309.6208138622202
 30
0.0
 11
409.8529392924895
 21
256.8208138622202
 31
0.0
  0
LINE
  5
696
330
18
100
AcDbEntity
  8
外形線
  6
Continuous
100
AcDbLine
 10
411.3529392924895
 20
308.2208138622202
 30
0.0
 11
411.3529392924895
 21
258.2208138622202
 31
0.0
  0
LINE
  5
69C
330
18
100
AcDbEntity
  8
外形線
  6
Continuous
100
AcDbLine
 10
406.0529392924896
 20
257.7208138622201
 30
0.0
 11
404.8529392924895
 21
258.2208138622202
 31
0.0
  0
LINE
  5
6AD
330
18
100
AcDbEntity
  8
外形線
  6
CENTER2
100
AcDbLine
 10
411.3529392924895
 20
258.2208138622202
 30
0.0
 11
409.8529392924895
 21
258.2208138622202
 31
0.0
  0
LINE
  5
6AE
330
18
100
AcDbEntity
  8
外形線
  6
Continuous
100
AcDbLine
 10
406.0529392924896
 20
256.8208138622202
 30
0.0
 11
409.8529392924895
 21
256.8208138622202
 31
0.0
  0
LINE
  5
6AF
330
18
100
AcDbEntity
  8
外形線
  6
Continuous
100
AcDbLine
 10
406.0529392924896
 20
260.8208138622202
 30
0.0
 11
409.8529392924895
 21
260.8208138622202
 31
0.0
  0
LINE
  5
6B0
330
18
100
AcDbEntity
  8
外形線
  6
Continuous
100
AcDbLine
 10
406.0529392924896
 20
259.8208138622202
 30
0.0
 11
409.8529392924895
 21
259.8208138622202
 31
0.0
  0
LINE
  5
6B1
330
18
100
AcDbEntity
  8
外形線
  6
Continuous
100
AcDbLine
 10
406.0529392924896
 20
258.8208138622202
 30
0.0
 11
409.8529392924895
 21
258.8208138622202
 31
0.0
  0
LINE
  5
6B2
330
18
100
AcDbEntity
  8
外形線
  6
Continuous
100
AcDbLine
 10
406.0529392924896
 20
257.8208138622202
 30
0.0
 11
409.8529392924895
 21
257.8208138622202
 31
0.0
  0
ARC
  5
6B8
330
18
100
AcDbEntity
  8
外形線
  6
Continuous
100
AcDbCircle
 10
416.3529392924894
 20
317.3758138622203
 30
0.0
 40
7.344999999999885
100
AcDbArc
 50
59.75198538337879
 51
120.2480146166218
  0
LINE
  5
6B9
330
18
100
AcDbEntity
  8
外形線
  6
Continuous
100
AcDbLine
 10
406.0529392924896
 20
308.7208138622202
 30
0.0
 11
404.8529392924895
 21
308.2208138622202
 31
0.0
  0
LINE
  5
6BA
330
18
100
AcDbEntity
  8
外形線
  6
Continuous
100
AcDbLine
 10
406.0529392924896
 20
261.8208138622202
 30
0.0
 11
409.8529392924895
 21
261.8208138622202
 31
0.0
  0
LINE
  5
6BB
330
18
100
AcDbEntity
  8
外形線
  6
Continuous
100
AcDbLine
 10
409.8529392924895
 20
281.2208138622202
 30
0.0
 11
406.0529392924896
 21
281.2208138622202
 31
0.0
  0
LINE
  5
6BC
330
18
100
AcDbEntity
  8
外形線
  6
Continuous
100
AcDbLine
 10
409.8529392924895
 20
282.2208138622201
 30
0.0
 11
406.0529392924896
 21
282.2208138622201
 31
0.0
  0
LINE
  5
6BD
330
18
100
AcDbEntity
  8
外形線
  6
Continuous
100
AcDbLine
 10
409.8529392924895
 20
283.2208138622202
 30
0.0
 11
406.0529392924896
 21
283.2208138622202
 31
0.0
  0
LINE
  5
6BE
330
18
100
AcDbEntity
  8
外形線
  6
Continuous
100
AcDbLine
 10
409.8529392924895
 20
284.2208138622202
 30
0.0
 11
406.0529392924896
 21
284.2208138622202
 31
0.0
  0
LINE
  5
6BF
330
18
100
AcDbEntity
  8
外形線
  6
Continuous
100
AcDbLine
 10
409.8529392924895
 20
286.2208138622202
 30
0.0
 11
406.0529392924896
 21
286.2208138622202
 31
0.0
  0
LINE
  5
6C0
330
18
100
AcDbEntity
  8
外形線
  6
Continuous
100
AcDbLine
 10
409.8529392924895
 20
285.2208138622202
 30
0.0
 11
406.0529392924896
 21
285.2208138622202
 31
0.0
  0
LINE
  5
6C1
330
18
100
AcDbEntity
  8
外形線
  6
Continuous
100
AcDbLine
 10
406.0529392924896
 20
304.6208138622201
 30
0.0
 11
409.8529392924895
 21
304.6208138622201
 31
0.0
  0
LINE
  5
6C2
330
18
100
AcDbEntity
  8
外形線
  6
Continuous
100
AcDbLine
 10
406.0529392924896
 20
305.6208138622201
 30
0.0
 11
409.8529392924895
 21
305.6208138622201
 31
0.0
  0
LINE
  5
6C3
330
18
100
AcDbEntity
  8
外形線
  6
Continuous
100
AcDbLine
 10
406.0529392924896
 20
306.6208138622201
 30
0.0
 11
409.8529392924895
 21
306.6208138622201
 31
0.0
  0
LINE
  5
6C4
330
18
100
AcDbEntity
  8
外形線
  6
Continuous
100
AcDbLine
 10
406.0529392924896
 20
307.6208138622201
 30
0.0
 11
409.8529392924895
 21
307.6208138622201
 31
0.0
  0
LINE
  5
6C5
330
18
100
AcDbEntity
  8
外形線
  6
Continuous
100
AcDbLine
 10
420.0529392924895
 20
323.7208138622201
 30
0.0
 11
412.6529392924894
 21
323.7208138622201
 31
0.0
  0
LINE
  5
6C6
330
18
100
AcDbEntity
  8
外形線
  6
Continuous
100
AcDbLine
 10
420.3529392924894
 20
317.2208138622201
 30
0.0
 11
412.3529392924894
 21
317.2208138622201
 31
0.0
  0
LINE
  5
6C7
330
18
100
AcDbEntity
  8
外形線
  6
Continuous
100
AcDbLine
 10
420.3529392924894
 20
311.2208138622201
 30
0.0
 11
412.3529392924894
 21
311.2208138622201
 31
0.0
  0
LINE
  5
6C9
330
18
100
AcDbEntity
  8
外形線
  6
Continuous
100
AcDbLine
 10
420.3529392924894
 20
317.2208138622201
 30
0.0
 11
420.3529392924894
 21
311.2208138622201
 31
0.0
  0
LINE
  5
6CA
330
18
100
AcDbEntity
  8
外形線
  6
Continuous
100
AcDbLine
 10
420.0529392924895
 20
311.2208138622201
 30
0.0
 11
420.0529392924895
 21
307.7208138622201
 31
0.0
  0
LINE
  5
6CB
330
18
100
AcDbEntity
  8
外形線
  6
Continuous
100
AcDbLine
 10
420.0529392924895
 20
323.7208138622201
 30
0.0
 11
420.0529392924895
 21
317.2208138622201
 31
0.0
  0
LINE
  5
6CC
330
18
100
AcDbEntity
  8
外形線
  6
Continuous
100
AcDbLine
 10
412.3529392924894
 20
317.2208138622201
 30
0.0
 11
412.3529392924894
 21
311.2208138622201
 31
0.0
  0
LINE
  5
6CD
330
18
100
AcDbEntity
  8
外形線
  6
CENTER2
100
AcDbLine
 10
411.3529392924895
 20
308.2208138622202
 30
0.0
 11
409.8529392924895
 21
308.2208138622202
 31
0.0
  0
LINE
  5
6CE
330
18
100
AcDbEntity
  8
外形線
  6
Continuous
100
AcDbLine
 10
412.6529392924894
 20
311.2208138622201
 30
0.0
 11
412.6529392924894
 21
307.7208138622201
 31
0.0
  0
LINE
  5
6CF
330
18
100
AcDbEntity
  8
外形線
  6
Continuous
100
AcDbLine
 10
406.0529392924896
 20
308.6208138622201
 30
0.0
 11
409.8529392924895
 21
308.6208138622201
 31
0.0
  0
LINE
  5
6D0
330
18
100
AcDbEntity
  8
外形線
  6
Continuous
100
AcDbLine
 10
406.0529392924896
 20
309.6208138622202
 30
0.0
 11
409.8529392924895
 21
309.6208138622202
 31
0.0
  0
LINE
  5
6D1
330
18
100
AcDbEntity
  8
外形線
  6
Continuous
100
AcDbLine
 10
412.6529392924894
 20
323.7208138622201
 30
0.0
 11
412.6529392924894
 21
317.2208138622201
 31
0.0
  0
MTEXT
  5
778
330
18
100
AcDbEntity
  8
DEFPOINTS
  6
Continuous
100
AcDbMText
 10
735.8166661286731
 20
235.565234348894
 30
0.0
 40
1.0
 41
0.0
 71
     4
 72
     1
  1
\A1;
 73
     1
 44
1.0
  0
LINE
  5
789
330
18
100
AcDbEntity
  8
中心線
 48
0.5
100
AcDbLine
 10
416.3529392924896
 20
328.1737652063993
 30
0.0
 11
416.3529392924896
 21
221.4529293187266
 31
0.0
  0
LINE
  5
78E
330
18
100
AcDbEntity
  8
外形線
100
AcDbLine
 10
411.3529392924895
 20
258.7208138622202
 30
0.0
 11
422.8529392924896
 21
258.7208138622202
 31
0.0
  0
LINE
  5
78F
330
18
100
AcDbEntity
  8
外形線
100
AcDbLine
 10
411.3529392924895
 20
307.7208138622201
 30
0.0
 11
422.8529392924897
 21
307.7208138622201
 31
0.0
  0
LINE
  5
7D6
330
18
100
AcDbEntity
  8
中心線
 48
0.5
100
AcDbLine
 10
397.015625182325
 20
283.2208138622202
 30
0.0
 11
426.9664904795676
 21
283.2208138622202
 31
0.0
  0
LINE
  5
833
330
18
100
AcDbEntity
  8
0
  6
ByBlock
 62
     2
100
AcDbLine
 10
333.650294025446
 20
324.7208138622202
 30
0.0
 11
285.0112075914849
 21
324.7208138622202
 31
0.0
  0
LINE
  5
835
330
18
100
AcDbEntity
  8
0
  6
ByBlock
 62
     2
100
AcDbLine
 10
293.3562442008871
 20
322.2208138622201
 30
0.0
 11
293.3562442008871
 21
285.7208138622202
 31
0.0
  0
INSERT
  5
836
330
18
100
AcDbEntity
  8
0
  6
ByBlock
 62
     2
100
AcDbBlockReference
  2
_OPEN
 10
293.3562442008871
 20
324.7208138622202
 30
0.0
 41
2.5
 42
2.5
 43
2.5
 50
90.0
  0
INSERT
  5
837
330
18
100
AcDbEntity
  8
0
  6
ByBlock
 62
     2
100
AcDbBlockReference
  2
_OPEN
 10
293.3562442008871
 20
283.2208138622202
 30
0.0
 41
2.5
 42
2.5
 43
2.5
 50
270.0
  0
MTEXT
  5
838
330
18
100
AcDbEntity
  8
0
  6
ByBlock
 62
     6
100
AcDbMText
 10
291.4812442008871
 20
303.9708138622202
 30
0.0
 40
2.5
 41
0.0
 71
     5
 72
     1
  1
\A1;41.5
  7
STYLE3
 11
0.0000000000000001
 21
1.0
 31
0.0
 73
     1
 44
1.0
  0
POINT
  5
839
330
18
100
AcDbEntity
  8
DEFPOINTS
  6
ByBlock
 62
     0
100
AcDbPoint
 10
333.650294025446
 20
324.7208138622202
 30
0.0
  0
POINT
  5
83B
330
18
100
AcDbEntity
  8
DEFPOINTS
  6
ByBlock
 62
     0
100
AcDbPoint
 10
293.3562442008871
 20
283.2208138622202
 30
0.0
  0
LINE
  5
83C
330
18
100
AcDbEntity
  8
0
  6
ByBlock
 62
     2
100
AcDbLine
 10
333.650294025446
 20
223.2208138622201
 30
0.0
 11
285.011207591485
 21
223.2208138622201
 31
0.0
  0
LINE
  5
83D
330
18
100
AcDbEntity
  8
0
  6
ByBlock
 62
     2
100
AcDbLine
 10
293.3562442008871
 20
280.7208138622201
 30
0.0
 11
293.3562442008871
 21
225.7208138622201
 31
0.0
  0
INSERT
  5
83E
330
18
100
AcDbEntity
  8
0
  6
ByBlock
 62
     2
100
AcDbBlockReference
  2
_OPEN
 10
293.3562442008871
 20
283.2208138622202
 30
0.0
 41
2.5
 42
2.5
 43
2.5
 50
90.0
  0
INSERT
  5
83F
330
18
100
AcDbEntity
  8
0
  6
ByBlock
 62
     2
100
AcDbBlockReference
  2
_OPEN
 10
293.3562442008871
 20
223.2208138622201
 30
0.0
 41
2.5
 42
2.5
 43
2.5
 50
270.0
  0
MTEXT
  5
840
330
18
100
AcDbEntity
  8
0
  6
ByBlock
 62
     6
100
AcDbMText
 10
291.4688758499541
 20
256.4528653316784
 30
0.0
 40
2.5
 41
0.0
 71
     5
 72
     1
  1
60
  7
STYLE3
 11
0.0000000000000001
 21
1.0
 31
0.0
 73
     1
 44
1.0
  0
POINT
  5
843
330
18
100
AcDbEntity
  8
DEFPOINTS
  6
ByBlock
 62
     0
100
AcDbPoint
 10
293.3562442008871
 20
223.2208138622201
 30
0.0
  0
LINE
  5
846
330
18
100
AcDbEntity
  8
0
  6
ByBlock
 62
     2
100
AcDbLine
 10
286.2612075914849
 20
322.2208138622201
 30
0.0
 11
286.2612075914849
 21
225.7208138622201
 31
0.0
  0
INSERT
  5
847
330
18
100
AcDbEntity
  8
0
  6
ByBlock
 62
     2
100
AcDbBlockReference
  2
_OPEN
 10
286.2612075914849
 20
324.7208138622202
 30
0.0
 41
2.5
 42
2.5
 43
2.5
 50
90.0
  0
INSERT
  5
848
330
18
100
AcDbEntity
  8
0
  6
ByBlock
 62
     2
100
AcDbBlockReference
  2
_OPEN
 10
286.2612075914849
 20
223.2208138622201
 30
0.0
 41
2.5
 42
2.5
 43
2.5
 50
270.0
  0
MTEXT
  5
849
330
18
100
AcDbEntity
  8
0
  6
ByBlock
 62
     6
100
AcDbMText
 10
284.3862075914849
 20
276.9833255048816
 30
0.0
 40
2.5
 41
0.0
 71
     5
 72
     1
  1
101.5
  7
STYLE3
 11
0.0000000000000001
 21
1.0
 31
0.0
 73
     1
 44
1.0
  0
POINT
  5
84A
330
18
100
AcDbEntity
  8
DEFPOINTS
  6
ByBlock
 62
     0
100
AcDbPoint
 10
292.1062442008871
 20
324.7208138622202
 30
0.0
  0
POINT
  5
84B
330
18
100
AcDbEntity
  8
DEFPOINTS
  6
ByBlock
 62
     0
100
AcDbPoint
 10
292.1062442008871
 20
223.2208138622201
 30
0.0
  0
POINT
  5
84C
330
18
100
AcDbEntity
  8
DEFPOINTS
  6
ByBlock
 62
     0
100
AcDbPoint
 10
286.2612075914849
 20
223.2208138622201
 30
0.0
  0
MTEXT
  5
887
330
18
100
AcDbEntity
  8
文字
100
AcDbMText
 10
302.9558756866726
 20
261.6432165871282
 30
0.0
 40
1.0
 41
6.927999999999999
 71
     1
 72
     5
  1

  7
STYLE3
 73
     1
 44
1.0
  0
TEXT
  5
93E
330
18
100
AcDbEntity
  8
文字
100
AcDbText
 10
434.1779961429294
 20
278.1137315752029
 30
0.0
 40
2.5
  1
φ
 50
90.0
  7
STYLE3
100
AcDbText
  0
LWPOLYLINE
  5
96E
330
18
100
AcDbEntity
  8
C
100
AcDbPolyline
 90
        5
 70
     0
 43
0.4
 10
236.6915604445414
 20
366.8501752555372
 10
491.6915604445414
 20
366.8501752555372
 10
491.6915604445414
 20
171.8501752555372
 10
236.6915604445414
 20
171.8501752555372
 10
236.6915604445414
 20
366.8501752555372
  0
MTEXT
  5
EB4
330
18
100
AcDbEntity
  8
DEFPOINTS
  6
Continuous
100
AcDbMText
 10
624.6916853418142
 20
184.890767874579
 30
0.0
 40
0.35
 41
0.0
 71
     4
 72
     1
  1
\A1;
 73
     1
 44
1.0
  0
LINE
  5
F32
330
18
100
AcDbEntity
  8
0
  6
ByBlock
 62
     2
100
AcDbLine
 10
422.8529392924897
 20
307.7208138622201
 30
0.0
 11
436.2264771879522
 21
307.7208138622201
 31
0.0
  0
LINE
  5
F33
330
18
100
AcDbEntity
  8
0
  6
ByBlock
 62
     2
100
AcDbLine
 10
422.8529392924896
 20
258.7208138622202
 30
0.0
 11
436.2264771879522
 21
258.7208138622202
 31
0.0
  0
LINE
  5
F34
330
18
100
AcDbEntity
  8
0
  6
ByBlock
 62
     2
100
AcDbLine
 10
434.9764771879523
 20
305.2208138622201
 30
0.0
 11
434.9764771879523
 21
261.2208138622202
 31
0.0
  0
INSERT
  5
F35
330
18
100
AcDbEntity
  8
0
  6
ByBlock
 62
     2
100
AcDbBlockReference
  2
_OPEN
 10
434.9764771879523
 20
307.7208138622201
 30
0.0
 41
2.5
 42
2.5
 43
2.5
 50
90.0
  0
INSERT
  5
F36
330
18
100
AcDbEntity
  8
0
  6
ByBlock
 62
     2
100
AcDbBlockReference
  2
_OPEN
 10
434.9764771879523
 20
258.7208138622202
 30
0.0
 41
2.5
 42
2.5
 43
2.5
 50
270.0
  0
MTEXT
  5
F37
330
18
100
AcDbEntity
  8
0
  6
ByBlock
 62
     6
100
AcDbMText
 10
433.1014771879522
 20
283.2208138622202
 30
0.0
 40
2.5
 41
0.0
 71
     5
 72
     1
  1
\A1;49
  7
STYLE3
 11
0.0000000000000001
 21
1.0
 31
0.0
 73
     1
 44
1.0
  0
POINT
  5
F3A
330
18
100
AcDbEntity
  8
DEFPOINTS
  6
ByBlock
 62
     0
100
AcDbPoint
 10
434.9764771879523
 20
258.7208138622202
 30
0.0
  0
LINE
  5
FF7
330
18
100
AcDbEntity
  8
外形線
  6
Continuous
100
AcDbLine
 10
423.9529392924896
 20
306.2208138622202
 30
0.0
 11
423.9529392924896
 21
260.2208138622202
 31
0.0
  0
LINE
  5
FF8
330
18
100
AcDbEntity
  8
外形線
100
AcDbLine
 10
422.8529392924897
 20
306.2208138622202
 30
0.0
 11
423.9529392924896
 21
306.2208138622202
 31
0.0
  0
LINE
  5
FF9
330
18
100
AcDbEntity
  8
外形線
100
AcDbLine
 10
422.8529392924896
 20
260.2208138622202
 30
0.0
 11
423.9529392924896
 21
260.2208138622202
 31
0.0
  0
POINT
  5
100E
330
18
100
AcDbEntity
  8
DEFPOINTS
  6
ByBlock
 62
     0
100
AcDbPoint
 10
423.9529392924896
 20
306.2208138622202
 30
0.0
  0
MTEXT
  5
13D2
330
18
100
AcDbEntity
  8
DEFPOINTS
  6
Continuous
100
AcDbMText
 10
1236.255313500774
 20
410.7784228578957
 30
0.0
 40
1.0
 41
0.0
 71
     4
 72
     1
  1
\A1;
 73
     1
 44
1.0
  0
MTEXT
  5
142F
330
18
100
AcDbEntity
  8
文字
100
AcDbMText
 10
803.3945230587734
 20
436.8564050961298
 30
0.0
 40
1.0
 41
6.927999999999999
 71
     1
 72
     5
  1

  7
STYLE3
 73
     1
 44
1.0
  0
MTEXT
  5
14AC
330
18
100
AcDbEntity
  8
DEFPOINTS
  6
Continuous
100
AcDbMText
 10
1125.130332713915
 20
360.1039563835807
 30
0.0
 40
0.35
 41
0.0
 71
     4
 72
     1
  1
\A1;
 73
     1
 44
1.0
  0
POINT
  5
1644
330
18
100
AcDbEntity
  8
DEFPOINTS
  6
ByBlock
 62
     0
100
AcDbPoint
 10
401.8529392924895
 20
283.2208138622202
 30
0.0
  0
POINT
  5
1645
330
18
100
AcDbEntity
  8
DEFPOINTS
  6
ByBlock
 62
     0
100
AcDbPoint
 10
416.3529392924894
 20
324.7208138622202
 30
0.0
  0
MTEXT
  5
18F1
330
18
100
AcDbEntity
  8
DEFPOINTS
  6
Continuous
100
AcDbMText
 10
1172.470139544913
 20
240.188441215189
 30
0.0
 40
1.0
 41
0.0
 71
     4
 72
     1
  1
\A1;
 73
     1
 44
1.0
  0
MTEXT
  5
1AC0
330
18
100
AcDbEntity
  8
0
  6
ByBlock
 62
     6
100
AcDbMText
 10
365.2186902367128
 20
234.0558116767514
 30
0.0
 40
2.5
 41
0.0
 71
     5
 72
     1
  1

  7
STYLE3
 11
0.0000000000000001
 21
1.0
 31
0.0
 73
     1
 44
1.0
  0
POINT
  5
1AC1
330
18
100
AcDbEntity
  8
DEFPOINTS
  6
ByBlock
 62
     0
100
AcDbPoint
 10
403.9953661825177
 20
238.2208138622201
 30
0.0
  0
LINE
  5
1BE5
330
18
100
AcDbEntity
  8
外形線
  6
Continuous
100
AcDbLine
 10
422.8529392924897
 20
307.7208138622201
 30
0.0
 11
422.8529392924896
 21
258.7208138622202
 31
0.0
  0
LINE
  5
1C69
330
18
100
AcDbEntity
  8
0
  6
ByBlock
 62
     2
100
AcDbLine
 10
401.8529392924895
 20
283.2208138622202
 30
0.0
 11
401.8529392924895
 21
331.786372622093
 31
0.0
  0
LINE
  5
1C6A
330
18
100
AcDbEntity
  8
0
  6
ByBlock
 62
     2
100
AcDbLine
 10
416.3529392924896
 20
324.7208138622202
 30
0.0
 11
416.3529392924896
 21
331.786372622093
 31
0.0
  0
LINE
  5
1C6B
330
18
100
AcDbEntity
  8
0
  6
ByBlock
 62
     2
100
AcDbLine
 10
404.3529392924894
 20
330.536372622093
 30
0.0
 11
413.8529392924896
 21
330.536372622093
 31
0.0
  0
INSERT
  5
1C6C
330
18
100
AcDbEntity
  8
0
  6
ByBlock
 62
     2
100
AcDbBlockReference
  2
_OPEN
 10
401.8529392924895
 20
330.536372622093
 30
0.0
 41
2.5
 42
2.5
 43
2.5
 50
180.0
  0
INSERT
  5
1C6D
330
18
100
AcDbEntity
  8
0
  6
ByBlock
 62
     2
100
AcDbBlockReference
  2
_OPEN
 10
416.3529392924896
 20
330.536372622093
 30
0.0
 41
2.5
 42
2.5
 43
2.5
  0
MTEXT
  5
1C6E
330
18
100
AcDbEntity
  8
0
  6
ByBlock
 62
     6
100
AcDbMText
 10
409.1029392924895
 20
332.411372622093
 30
0.0
 40
2.5
 41
0.0
 71
     5
 72
     1
  1
\A1;14.5
  7
STYLE3
 73
     1
 44
1.0
  0
POINT
  5
1C6F
330
18
100
AcDbEntity
  8
DEFPOINTS
  6
ByBlock
 62
     0
100
AcDbPoint
 10
401.8529392924895
 20
283.2208138622202
 30
0.0
  0
POINT
  5
1C70
330
18
100
AcDbEntity
  8
DEFPOINTS
  6
ByBlock
 62
     0
100
AcDbPoint
 10
416.3529392924896
 20
324.7208138622202
 30
0.0
  0
POINT
  5
1C71
330
18
100
AcDbEntity
  8
DEFPOINTS
  6
ByBlock
 62
     0
100
AcDbPoint
 10
416.3529392924896
 20
330.536372622093
 30
0.0
  0
LINE
  5
1C72
330
18
100
AcDbEntity
  8
0
  6
ByBlock
 62
     2
100
AcDbLine
 10
406.0529392924896
 20
309.6208138622202
 30
0.0
 11
385.6832715555127
 21
309.6208138622202
 31
0.0
  0
LINE
  5
1C73
330
18
100
AcDbEntity
  8
0
  6
ByBlock
 62
     2
100
AcDbLine
 10
406.0529392924896
 20
256.8208138622202
 30
0.0
 11
385.6832715555127
 21
256.8208138622202
 31
0.0
  0
LINE
  5
1C74
330
18
100
AcDbEntity
  8
0
  6
ByBlock
 62
     2
100
AcDbLine
 10
386.9332715555127
 20
307.1208138622201
 30
0.0
 11
386.9332715555127
 21
259.3208138622202
 31
0.0
  0
INSERT
  5
1C75
330
18
100
AcDbEntity
  8
0
  6
ByBlock
 62
     2
100
AcDbBlockReference
  2
_OPEN
 10
386.9332715555127
 20
309.6208138622202
 30
0.0
 41
2.5
 42
2.5
 43
2.5
 50
90.0
  0
INSERT
  5
1C76
330
18
100
AcDbEntity
  8
0
  6
ByBlock
 62
     2
100
AcDbBlockReference
  2
_OPEN
 10
386.9332715555127
 20
256.8208138622202
 30
0.0
 41
2.5
 42
2.5
 43
2.5
 50
270.0
  0
MTEXT
  5
1C77
330
18
100
AcDbEntity
  8
0
  6
ByBlock
 62
     6
100
AcDbMText
 10
385.0582715555127
 20
283.2208138622202
 30
0.0
 40
2.5
 41
0.0
 71
     5
 72
     1
  1
\A1;φ53
  7
STYLE3
 11
0.0000000000000001
 21
1.0
 31
0.0
 73
     1
 44
1.0
  0
POINT
  5
1C78
330
18
100
AcDbEntity
  8
DEFPOINTS
  6
ByBlock
 62
     0
100
AcDbPoint
 10
406.0529392924896
 20
309.6208138622202
 30
0.0
  0
POINT
  5
1C79
330
18
100
AcDbEntity
  8
DEFPOINTS
  6
ByBlock
 62
     0
100
AcDbPoint
 10
406.0529392924896
 20
256.8208138622202
 30
0.0
  0
POINT
  5
1C7A
330
18
100
AcDbEntity
  8
DEFPOINTS
  6
ByBlock
 62
     0
100
AcDbPoint
 10
386.9332715555127
 20
256.8208138622202
 30
0.0
  0
POINT
  5
1C9C
330
18
100
AcDbEntity
  8
DEFPOINTS
  6
ByBlock
 62
     0
100
AcDbPoint
 10
406.0529392924896
 20
256.8208138622202
 30
0.0
  0
LINE
  5
1CB4
330
18
100
AcDbEntity
  8
ﾊｯﾁﾝｸ
  6
Continuous
100
AcDbLine
 10
329.6502940254461
 20
316.9873076585179
 30
0.0
 11
329.8838002291482
 21
317.22081386222
 31
0.0
  0
LINE
  5
1CB5
330
18
100
AcDbEntity
  8
ﾊｯﾁﾝｸ
  6
Continuous
100
AcDbLine
 10
329.6502940254461
 20
315.2195407055515
 30
0.0
 11
331.6515671821146
 21
317.22081386222
 31
0.0
  0
LINE
  5
1CB6
330
18
100
AcDbEntity
  8
ﾊｯﾁﾝｸ
  6
Continuous
100
AcDbLine
 10
329.6502940254461
 20
313.4517737525852
 30
0.0
 11
333.419334135081
 21
317.22081386222
 31
0.0
  0
LINE
  5
1CB7
330
18
100
AcDbEntity
  8
ﾊｯﾁﾝｸ
  6
Continuous
100
AcDbLine
 10
329.6502940254461
 20
311.6840067996188
 30
0.0
 11
333.6502940254461
 21
315.6840067996188
 31
0.0
  0
LINE
  5
1CB8
330
18
100
AcDbEntity
  8
ﾊｯﾁﾝｸ
  6
Continuous
100
AcDbLine
 10
330.9548680410137
 20
311.2208138622201
 30
0.0
 11
333.6502940254461
 21
313.9162398466524
 31
0.0
  0
LINE
  5
1CB9
330
18
100
AcDbEntity
  8
ﾊｯﾁﾝｸ
  6
Continuous
100
AcDbLine
 10
332.7226349939801
 20
311.2208138622201
 30
0.0
 11
333.6502940254461
 21
312.1484728936861
 31
0.0
  0
LINE
  5
1CBA
330
18
100
AcDbEntity
  8
ﾊｯﾁﾝｸ
  6
Continuous
100
AcDbLine
 10
329.7018396717651
 20
311.22081386222
 30
0.0
 11
329.6502940254461
 21
311.272359508539
 31
0.0
  0
LINE
  5
1CBB
330
18
100
AcDbEntity
  8
ﾊｯﾁﾝｸ
  6
Continuous
100
AcDbLine
 10
331.4696066247314
 20
311.2208138622201
 30
0.0
 11
329.6502940254461
 21
313.0401264615053
 31
0.0
  0
LINE
  5
1CBC
330
18
100
AcDbEntity
  8
ﾊｯﾁﾝｸ
  6
Continuous
100
AcDbLine
 10
333.2373735776977
 20
311.2208138622201
 30
0.0
 11
329.6502940254461
 21
314.8078934144717
 31
0.0
  0
LINE
  5
1CBD
330
18
100
AcDbEntity
  8
ﾊｯﾁﾝｸ
  6
Continuous
100
AcDbLine
 10
333.6502940254461
 20
312.5756603674381
 30
0.0
 11
329.6502940254461
 21
316.5756603674381
 31
0.0
  0
LINE
  5
1CBE
330
18
100
AcDbEntity
  8
ﾊｯﾁﾝｸ
  6
Continuous
100
AcDbLine
 10
333.6502940254461
 20
314.3434273204044
 30
0.0
 11
330.7729074836304
 21
317.2208138622201
 31
0.0
  0
LINE
  5
1CBF
330
18
100
AcDbEntity
  8
ﾊｯﾁﾝｸ
  6
Continuous
100
AcDbLine
 10
333.6502940254461
 20
316.1111942733707
 30
0.0
 11
332.5406744365968
 21
317.22081386222
 31
0.0
  0
POINT
  5
1CC5
330
18
100
AcDbEntity
  8
DEFPOINTS
  6
ByBlock
 62
     0
100
AcDbPoint
 10
416.3529392924896
 20
324.7208138622202
 30
0.0
  0
POINT
  5
1CC6
330
18
100
AcDbEntity
  8
DEFPOINTS
  6
ByBlock
 62
     0
100
AcDbPoint
 10
422.8529392924897
 20
307.7208138622201
 30
0.0
  0
LINE
  5
1CC8
330
18
100
AcDbEntity
  8
ﾊｯﾁﾝｸ
  6
Continuous
100
AcDbLine
 10
412.3529392924894
 20
316.987307658518
 30
0.0
 11
412.5864454961917
 21
317.2208138622201
 31
0.0
  0
LINE
  5
1CC9
330
18
100
AcDbEntity
  8
ﾊｯﾁﾝｸ
  6
Continuous
100
AcDbLine
 10
412.3529392924894
 20
315.2195407055515
 30
0.0
 11
414.3542124491579
 21
317.2208138622201
 31
0.0
  0
LINE
  5
1CCA
330
18
100
AcDbEntity
  8
ﾊｯﾁﾝｸ
  6
Continuous
100
AcDbLine
 10
412.3529392924894
 20
313.4517737525852
 30
0.0
 11
416.1219794021244
 21
317.2208138622201
 31
0.0
  0
LINE
  5
1CCB
330
18
100
AcDbEntity
  8
ﾊｯﾁﾝｸ
  6
Continuous
100
AcDbLine
 10
412.3529392924894
 20
311.6840067996188
 30
0.0
 11
416.3529392924894
 21
315.6840067996188
 31
0.0
  0
LINE
  5
1CCC
330
18
100
AcDbEntity
  8
ﾊｯﾁﾝｸ
  6
Continuous
100
AcDbLine
 10
413.6575133080571
 20
311.2208138622201
 30
0.0
 11
416.3529392924894
 21
313.9162398466524
 31
0.0
  0
LINE
  5
1CCD
330
18
100
AcDbEntity
  8
ﾊｯﾁﾝｸ
  6
Continuous
100
AcDbLine
 10
415.4252802610235
 20
311.2208138622201
 30
0.0
 11
416.3529392924894
 21
312.1484728936861
 31
0.0
  0
LINE
  5
1CCE
330
18
100
AcDbEntity
  8
ﾊｯﾁﾝｸ
  6
Continuous
100
AcDbLine
 10
412.4044849388083
 20
311.2208138622202
 30
0.0
 11
412.3529392924894
 21
311.2723595085391
 31
0.0
  0
LINE
  5
1CCF
330
18
100
AcDbEntity
  8
ﾊｯﾁﾝｸ
  6
Continuous
100
AcDbLine
 10
414.1722518917748
 20
311.2208138622201
 30
0.0
 11
412.3529392924894
 21
313.0401264615054
 31
0.0
  0
LINE
  5
1CD0
330
18
100
AcDbEntity
  8
ﾊｯﾁﾝｸ
  6
Continuous
100
AcDbLine
 10
415.9400188447412
 20
311.2208138622201
 30
0.0
 11
412.3529392924895
 21
314.8078934144718
 31
0.0
  0
LINE
  5
1CD1
330
18
100
AcDbEntity
  8
ﾊｯﾁﾝｸ
  6
Continuous
100
AcDbLine
 10
416.3529392924894
 20
312.5756603674382
 30
0.0
 11
412.3529392924894
 21
316.5756603674382
 31
0.0
  0
LINE
  5
1CD2
330
18
100
AcDbEntity
  8
ﾊｯﾁﾝｸ
  6
Continuous
100
AcDbLine
 10
416.3529392924894
 20
314.3434273204045
 30
0.0
 11
413.4755527506739
 21
317.22081386222
 31
0.0
  0
LINE
  5
1CD3
330
18
100
AcDbEntity
  8
ﾊｯﾁﾝｸ
  6
Continuous
100
AcDbLine
 10
416.3529392924894
 20
316.1111942733709
 30
0.0
 11
415.2433197036403
 21
317.2208138622201
 31
0.0
  0
LINE
  5
22E4
330
18
100
AcDbEntity
  8
外形線
100
AcDbLine
 10
335.6502940254461
 20
238.2208138622201
 30
0.0
 11
335.6502940254461
 21
232.2208138622201
 31
0.0
  0
LINE
  5
22E5
330
18
100
AcDbEntity
  8
外形線
100
AcDbLine
 10
331.650294025446
 20
238.2208138622201
 30
0.0
 11
331.650294025446
 21
232.2208138622201
 31
0.0
  0
LINE
  5
22E6
330
18
100
AcDbEntity
  8
外形線
100
AcDbLine
 10
335.900294025446
 20
228.7208138622201
 30
0.0
 11
334.950294025446
 21
224.2208138622201
 31
0.0
  0
LINE
  5
22E7
330
18
100
AcDbEntity
  8
外形線
100
AcDbLine
 10
331.150294025446
 20
228.9208138622201
 30
0.0
 11
336.1502940254461
 21
228.9208138622201
 31
0.0
  0
LINE
  5
22E8
330
18
100
AcDbEntity
  8
外形線
100
AcDbLine
 10
331.150294025446
 20
232.0208138622201
 30
0.0
 11
336.1502940254461
 21
232.0208138622201
 31
0.0
  0
LINE
  5
22E9
330
18
100
AcDbEntity
  8
外形線
100
AcDbLine
 10
331.400294025446
 20
228.7208138622201
 30
0.0
 11
335.9002940254459
 21
228.7208138622201
 31
0.0
  0
LINE
  5
22EA
330
18
100
AcDbEntity
  8
外形線
100
AcDbLine
 10
331.400294025446
 20
232.2208138622201
 30
0.0
 11
335.900294025446
 21
232.2208138622201
 31
0.0
  0
HATCH
  5
22EB
330
18
100
AcDbEntity
  8
ﾊｯﾁﾝｸ
100
AcDbHatch
 10
0.0
 20
0.0
 30
0.0
210
0.0
220
0.0
230
1.0
  2
ANSI37
 70
     0
 71
     0
 91
        1
 92
        7
 72
     0
 73
     1
 93
        4
 10
331.150294025446
 20
228.9208138622201
 10
333.650294025446
 20
228.9208138622201
 10
333.6502940254461
 20
232.0208138622201
 10
331.150294025446
 20
232.0208138622201
 97
        0
 75
     0
 76
     1
 52
0.0
 41
0.3
 77
     0
 78
     2
 53
45.0
 43
83.34285191193032
 44
158.9212372140733
 45
-0.6735192090801864
 46
0.6735192090801866
 79
     0
 53
135.0
 43
83.34285191193032
 44
158.9212372140733
 45
-0.6735192090801866
 46
-0.6735192090801864
 79
     0
 47
0.0297960672888047
 98
        1
 10
331.6884357090466
 20
230.509452046892
  0
LINE
  5
22EC
330
18
100
AcDbEntity
  8
外形線
100
AcDbLine
 10
331.150294025446
 20
232.0208138622201
 30
0.0
 11
331.150294025446
 21
228.9208138622201
 31
0.0
  0
POINT
  5
22ED
330
18
100
AcDbEntity
  8
DEFPOINTS
  6
ByBlock
 62
     0
100
AcDbPoint
 10
333.650294025446
 20
223.2208138622201
 30
0.0
  0
LINE
  5
22EE
330
18
100
AcDbEntity
  8
外形線
100
AcDbLine
 10
331.400294025446
 20
228.7208138622201
 30
0.0
 11
332.350294025446
 21
224.2208138622201
 31
0.0
  0
LINE
  5
22EF
330
18
100
AcDbEntity
  8
外形線
100
AcDbLine
 10
332.350294025446
 20
224.2208138622201
 30
0.0
 11
334.950294025446
 21
224.2208138622201
 31
0.0
  0
LINE
  5
22F1
330
18
100
AcDbEntity
  8
外形線
100
AcDbLine
 10
331.150294025446
 20
228.9208138622201
 30
0.0
 11
331.400294025446
 21
228.7208138622201
 31
0.0
  0
LINE
  5
22F2
330
18
100
AcDbEntity
  8
外形線
100
AcDbLine
 10
331.400294025446
 20
232.2208138622201
 30
0.0
 11
331.150294025446
 21
232.0208138622201
 31
0.0
  0
LINE
  5
22F3
330
18
100
AcDbEntity
  8
外形線
100
AcDbLine
 10
336.1502940254461
 20
232.0208138622201
 30
0.0
 11
336.1502940254459
 21
228.9208138622201
 31
0.0
  0
LINE
  5
22F4
330
18
100
AcDbEntity
  8
外形線
100
AcDbLine
 10
336.1502940254461
 20
228.9208138622201
 30
0.0
 11
335.900294025446
 21
228.7208138622201
 31
0.0
  0
LINE
  5
22F5
330
18
100
AcDbEntity
  8
外形線
100
AcDbLine
 10
335.900294025446
 20
232.2208138622201
 30
0.0
 11
336.1502940254461
 21
232.0208138622201
 31
0.0
  0
LINE
  5
2301
330
18
100
AcDbEntity
  8
外形線
100
AcDbLine
 10
418.3529392924897
 20
238.2208138622201
 30
0.0
 11
418.3529392924897
 21
232.2208138622201
 31
0.0
  0
LINE
  5
2302
330
18
100
AcDbEntity
  8
外形線
100
AcDbLine
 10
414.3529392924897
 20
238.2208138622201
 30
0.0
 11
414.3529392924897
 21
232.2208138622201
 31
0.0
  0
LINE
  5
2303
330
18
100
AcDbEntity
  8
外形線
100
AcDbLine
 10
418.6029392924896
 20
228.7208138622201
 30
0.0
 11
417.6529392924896
 21
224.2208138622201
 31
0.0
  0
LINE
  5
2304
330
18
100
AcDbEntity
  8
外形線
100
AcDbLine
 10
413.8529392924895
 20
228.9208138622201
 30
0.0
 11
418.8529392924897
 21
228.9208138622201
 31
0.0
  0
LINE
  5
2305
330
18
100
AcDbEntity
  8
外形線
100
AcDbLine
 10
413.8529392924895
 20
232.0208138622201
 30
0.0
 11
418.8529392924897
 21
232.0208138622201
 31
0.0
  0
LINE
  5
2306
330
18
100
AcDbEntity
  8
外形線
100
AcDbLine
 10
414.1029392924896
 20
228.7208138622201
 30
0.0
 11
418.6029392924895
 21
228.7208138622201
 31
0.0
  0
LINE
  5
2307
330
18
100
AcDbEntity
  8
外形線
100
AcDbLine
 10
414.1029392924896
 20
232.2208138622201
 30
0.0
 11
418.6029392924896
 21
232.2208138622201
 31
0.0
  0
HATCH
  5
2308
330
18
100
AcDbEntity
  8
ﾊｯﾁﾝｸ
100
AcDbHatch
 10
0.0
 20
0.0
 30
0.0
210
0.0
220
0.0
230
1.0
  2
ANSI37
 70
     0
 71
     0
 91
        1
 92
        7
 72
     0
 73
     1
 93
        4
 10
413.8529392924897
 20
228.9208138622201
 10
416.3529392924896
 20
228.9208138622201
 10
416.3529392924897
 20
232.0208138622201
 10
413.8529392924897
 20
232.0208138622201
 97
        0
 75
     0
 76
     1
 52
0.0
 41
0.3
 77
     0
 78
     2
 53
45.0
 43
166.0454971789739
 44
158.9212372140733
 45
-0.6735192090801864
 46
0.6735192090801866
 79
     0
 53
135.0
 43
166.0454971789739
 44
158.9212372140733
 45
-0.6735192090801866
 46
-0.6735192090801864
 79
     0
 47
0.0297960672888047
 98
        1
 10
414.3910809760901
 20
230.509452046892
  0
LINE
  5
2309
330
18
100
AcDbEntity
  8
外形線
100
AcDbLine
 10
413.8529392924897
 20
232.0208138622201
 30
0.0
 11
413.8529392924897
 21
228.9208138622201
 31
0.0
  0
POINT
  5
230A
330
18
100
AcDbEntity
  8
DEFPOINTS
  6
ByBlock
 62
     0
100
AcDbPoint
 10
416.3529392924896
 20
223.2208138622201
 30
0.0
  0
LINE
  5
230B
330
18
100
AcDbEntity
  8
外形線
100
AcDbLine
 10
414.1029392924896
 20
228.7208138622201
 30
0.0
 11
415.0529392924895
 21
224.2208138622201
 31
0.0
  0
LINE
  5
230C
330
18
100
AcDbEntity
  8
外形線
100
AcDbLine
 10
415.0529392924895
 20
224.2208138622201
 30
0.0
 11
417.6529392924896
 21
224.2208138622201
 31
0.0
  0
LINE
  5
230E
330
18
100
AcDbEntity
  8
外形線
100
AcDbLine
 10
413.8529392924897
 20
228.9208138622201
 30
0.0
 11
414.1029392924896
 21
228.7208138622201
 31
0.0
  0
LINE
  5
230F
330
18
100
AcDbEntity
  8
外形線
100
AcDbLine
 10
414.1029392924896
 20
232.2208138622201
 30
0.0
 11
413.8529392924897
 21
232.0208138622201
 31
0.0
  0
LINE
  5
2310
330
18
100
AcDbEntity
  8
外形線
100
AcDbLine
 10
418.8529392924897
 20
232.0208138622201
 30
0.0
 11
418.8529392924896
 21
228.9208138622201
 31
0.0
  0
LINE
  5
2311
330
18
100
AcDbEntity
  8
外形線
100
AcDbLine
 10
418.8529392924897
 20
228.9208138622201
 30
0.0
 11
418.6029392924896
 21
228.7208138622201
 31
0.0
  0
LINE
  5
2312
330
18
100
AcDbEntity
  8
外形線
100
AcDbLine
 10
418.6029392924896
 20
232.2208138622201
 30
0.0
 11
418.8529392924897
 21
232.0208138622201
 31
0.0
  0
DIMENSION
  5
237F
330
18
100
AcDbEntity
  8
ﾊｯﾁﾝｸ
100
AcDbDimension
  2
*D1
 10
335.6502940254461
 20
236.3075380230947
 30
0.0
 11
343.5967225968747
 21
236.3075380230947
 31
0.0
 70
   160
  1
φ4
 71
     5
 42
4.000000000000056
  3
STYLE2
100
AcDbAlignedDimension
 13
331.650294025446
 23
236.5969995532091
 33
0.0
 14
335.6502940254461
 24
236.452268788152
 34
0.0
100
AcDbRotatedDimension
  0
LINE
  5
23F1
330
18
100
AcDbEntity
  8
外形線
100
AcDbLine
 10
329.650294025446
 20
257.12560357374
 30
0.0
 11
329.650294025446
 21
242.7208138622201
 31
0.0
  0
LINE
  5
23F2
330
18
100
AcDbEntity
  8
外形線
100
AcDbLine
 10
337.650294025446
 20
257.12560357374
 30
0.0
 11
337.650294025446
 21
242.7208138622202
 31
0.0
  0
LINE
  5
23F3
330
18
100
AcDbEntity
  8
外形線
100
AcDbLine
 10
329.800294025446
 20
241.2208138622202
 30
0.0
 11
337.5002940254461
 21
241.2208138622201
 31
0.0
  0
LINE
  5
23F4
330
18
100
AcDbEntity
  8
外形線
100
AcDbLine
 10
330.0502940254461
 20
240.2208138622201
 30
0.0
 11
337.2502940254461
 21
240.2208138622202
 31
0.0
  0
LINE
  5
23F5
330
18
100
AcDbEntity
  8
外形線
100
AcDbLine
 10
329.650294025446
 20
242.7208138622201
 30
0.0
 11
337.650294025446
 21
242.7208138622202
 31
0.0
  0
LINE
  5
23F6
330
18
100
AcDbEntity
  8
外形線
100
AcDbLine
 10
330.250294025446
 20
238.2208138622201
 30
0.0
 11
337.0502940254461
 21
238.2208138622201
 31
0.0
  0
LINE
  5
23F7
330
18
100
AcDbEntity
  8
外形線
100
AcDbLine
 10
330.050294025446
 20
240.2208138622202
 30
0.0
 11
330.050294025446
 21
238.4208138622201
 31
0.0
  0
LINE
  5
23F8
330
18
100
AcDbEntity
  8
外形線
100
AcDbLine
 10
330.050294025446
 20
238.4208138622201
 30
0.0
 11
330.250294025446
 21
238.2208138622201
 31
0.0
  0
ARC
  5
23F9
330
18
100
AcDbEntity
  8
外形線
100
AcDbCircle
 10
329.925294025446
 20
240.7208138622201
 30
0.0
 40
0.5153882032022076
100
AcDbArc
 50
284.0362434679264
 51
104.0362434679264
  0
LINE
  5
23FA
330
18
100
AcDbEntity
  8
外形線
100
AcDbLine
 10
329.800294025446
 20
242.7208138622201
 30
0.0
 11
329.800294025446
 21
241.2208138622201
 31
0.0
  0
LINE
  5
23FB
330
18
100
AcDbEntity
  8
外形線
100
AcDbLine
 10
337.2502940254461
 20
238.4208138622201
 30
0.0
 11
337.2502940254461
 21
240.2208138622202
 31
0.0
  0
LINE
  5
23FC
330
18
100
AcDbEntity
  8
外形線
100
AcDbLine
 10
337.2502940254461
 20
238.4208138622201
 30
0.0
 11
337.0502940254461
 21
238.2208138622201
 31
0.0
  0
ARC
  5
23FD
330
18
100
AcDbEntity
  8
外形線
100
AcDbCircle
 10
337.3752940254461
 20
240.7208138622201
 30
0.0
 40
0.5153882032022076
100
AcDbArc
 50
75.96375653207353
 51
255.9637565320735
  0
LINE
  5
23FE
330
18
100
AcDbEntity
  8
外形線
100
AcDbLine
 10
337.5002940254461
 20
242.7208138622201
 30
0.0
 11
337.5002940254461
 21
241.2208138622201
 31
0.0
  0
MTEXT
  5
23FF
330
18
100
AcDbEntity
  8
0
  6
ByBlock
 62
     6
100
AcDbMText
 10
334.4613965155872
 20
247.2144509466232
 30
0.0
 40
2.5
 41
0.0
 71
     5
 72
     1
  1
\A1;8.0
  7
STYLE3
 73
     1
 44
1.0
  0
INSERT
  5
2400
330
18
100
AcDbEntity
  8
0
  6
ByBlock
 62
     2
100
AcDbBlockReference
  2
_OPEN
 10
337.650294025446
 20
245.3394509466232
 30
0.0
 41
2.5
 42
2.5
 43
2.5
  0
TEXT
  5
2401
330
18
100
AcDbEntity
  8
文字
100
AcDbText
 10
329.6627378153857
 20
247.1823111764698
 30
0.0
 40
2.5
  1
φ
  7
STYLE3
100
AcDbText
  0
INSERT
  5
2402
330
18
100
AcDbEntity
  8
0
  6
ByBlock
 62
     2
100
AcDbBlockReference
  2
_OPEN
 10
329.650294025446
 20
245.3394509466232
 30
0.0
 41
2.5
 42
2.5
 43
2.5
 50
180.0
  0
POINT
  5
2403
330
18
100
AcDbEntity
  8
DEFPOINTS
  6
ByBlock
 62
     0
100
AcDbPoint
 10
329.650294025446
 20
244.7721480693545
 30
0.0
  0
LINE
  5
2404
330
18
100
AcDbEntity
  8
0
  6
ByBlock
 62
     2
100
AcDbLine
 10
332.1502940254461
 20
245.3394509466232
 30
0.0
 11
335.150294025446
 21
245.3394509466232
 31
0.0
  0
TEXT
  5
2405
330
18
100
AcDbEntity
  8
文字
100
AcDbText
 10
337.7908450608756
 20
246.6813286109649
 30
0.0
 40
1.5
  1
-0.03
  7
STYLE3
100
AcDbText
  0
TEXT
  5
2406
330
18
100
AcDbEntity
  8
文字
100
AcDbText
 10
339.6122501528203
 20
248.448175811015
 30
0.0
 40
1.5
  1
0
  7
STYLE3
100
AcDbText
  0
POINT
  5
2407
330
18
100
AcDbEntity
  8
DEFPOINTS
  6
ByBlock
 62
     0
100
AcDbPoint
 10
337.650294025446
 20
245.3394509466232
 30
0.0
  0
POINT
  5
2408
330
18
100
AcDbEntity
  8
DEFPOINTS
  6
ByBlock
 62
     0
100
AcDbPoint
 10
337.650294025446
 20
244.6100617280088
 30
0.0
  0
LINE
  5
2409
330
18
100
AcDbEntity
  8
外形線
100
AcDbLine
 10
412.9529392924895
 20
238.2208138622201
 30
0.0
 11
419.7529392924896
 21
238.2208138622201
 31
0.0
  0
LINE
  5
240A
330
18
100
AcDbEntity
  8
外形線
100
AcDbLine
 10
412.3529392924896
 20
242.7208138622201
 30
0.0
 11
420.3529392924896
 21
242.7208138622202
 31
0.0
  0
LINE
  5
240B
330
18
100
AcDbEntity
  8
外形線
100
AcDbLine
 10
412.7529392924897
 20
240.2208138622201
 30
0.0
 11
419.9529392924896
 21
240.2208138622202
 31
0.0
  0
LINE
  5
240C
330
18
100
AcDbEntity
  8
外形線
100
AcDbLine
 10
412.5029392924895
 20
241.2208138622202
 30
0.0
 11
420.2029392924896
 21
241.2208138622201
 31
0.0
  0
LINE
  5
240D
330
18
100
AcDbEntity
  8
外形線
100
AcDbLine
 10
412.7529392924896
 20
240.2208138622202
 30
0.0
 11
412.7529392924896
 21
238.4208138622201
 31
0.0
  0
LINE
  5
240E
330
18
100
AcDbEntity
  8
外形線
100
AcDbLine
 10
412.7529392924896
 20
238.4208138622201
 30
0.0
 11
412.9529392924895
 21
238.2208138622201
 31
0.0
  0
LINE
  5
240F
330
18
100
AcDbEntity
  8
外形線
100
AcDbLine
 10
412.5029392924895
 20
242.7208138622201
 30
0.0
 11
412.5029392924895
 21
241.2208138622201
 31
0.0
  0
ARC
  5
2410
330
18
100
AcDbEntity
  8
外形線
100
AcDbCircle
 10
412.6279392924896
 20
240.7208138622201
 30
0.0
 40
0.5153882032022076
100
AcDbArc
 50
284.0362434679264
 51
104.0362434679264
  0
LINE
  5
2411
330
18
100
AcDbEntity
  8
外形線
100
AcDbLine
 10
419.9529392924896
 20
238.4208138622201
 30
0.0
 11
419.9529392924896
 21
240.2208138622202
 31
0.0
  0
LINE
  5
2412
330
18
100
AcDbEntity
  8
外形線
100
AcDbLine
 10
419.9529392924896
 20
238.4208138622201
 30
0.0
 11
419.7529392924896
 21
238.2208138622201
 31
0.0
  0
ARC
  5
2413
330
18
100
AcDbEntity
  8
外形線
100
AcDbCircle
 10
420.0779392924896
 20
240.7208138622201
 30
0.0
 40
0.5153882032022076
100
AcDbArc
 50
75.96375653207353
 51
255.9637565320735
  0
LINE
  5
2414
330
18
100
AcDbEntity
  8
外形線
100
AcDbLine
 10
420.2029392924896
 20
242.7208138622201
 30
0.0
 11
420.2029392924896
 21
241.2208138622201
 31
0.0
  0
LINE
  5
2415
330
18
100
AcDbEntity
  8
外形線
100
AcDbLine
 10
420.3529392924896
 20
258.7208138622202
 30
0.0
 11
420.3529392924896
 21
242.7208138622202
 31
0.0
  0
LINE
  5
2416
330
18
100
AcDbEntity
  8
外形線
100
AcDbLine
 10
412.3529392924896
 20
258.7208138622202
 30
0.0
 11
412.3529392924896
 21
242.7208138622201
 31
0.0
  0
DIMENSION
  5
2477
330
18
100
AcDbEntity
  8
ﾊｯﾁﾝｸ
100
AcDbDimension
  2
*D2
 10
400.9756535620617
 20
242.7208138622201
 30
0.0
 11
399.1006535620617
 21
249.7708138622202
 31
0.0
 70
    32
  1
14
 71
     5
 42
14.10000000000005
  3
STYLE2
100
AcDbAlignedDimension
 13
397.85809789896
 23
256.8208138622202
 33
0.0
 14
412.5029392924895
 24
242.7208138622201
 34
0.0
 50
90.0
100
AcDbRotatedDimension
  0
DIMENSION
  5
2484
330
18
100
AcDbEntity
  8
ﾊｯﾁﾝｸ
100
AcDbDimension
  2
*D3
 10
394.2786817854005
 20
238.2208138622201
 30
0.0
 11
392.4036817854004
 21
247.5208138622202
 31
0.0
 70
    32
  1
18.5
 71
     5
 42
18.60000000000008
  3
STYLE2
100
AcDbAlignedDimension
 13
393.7013562223282
 23
256.8208138622202
 33
0.0
 14
412.9529392924895
 24
238.2208138622201
 34
0.0
 50
90.0
100
AcDbRotatedDimension
  0
DIMENSION
  5
2491
330
18
100
AcDbEntity
  8
ﾊｯﾁﾝｸ
100
AcDbDimension
  2
*D4
 10
386.9332715555127
 20
223.2208138622201
 30
0.0
 11
385.0582715555126
 21
240.0208138622202
 31
0.0
 70
    32
  1
33.5
 71
     5
 42
33.60000000000008
  3
STYLE2
100
AcDbAlignedDimension
 13
390.3528703339975
 23
256.8208138622202
 33
0.0
 14
416.3529392924896
 24
223.2208138622201
 34
0.0
 50
90.0
100
AcDbRotatedDimension
  0
DIMENSION
  5
249E
330
18
100
AcDbEntity
  8
ﾊｯﾁﾝｸ
100
AcDbDimension
  2
*D5
 10
400.9756535620617
 20
223.2208138622201
 30
0.0
 11
399.1006535620617
 21
227.7208138622202
 31
0.0
 70
    32
 71
     5
 42
9.0
  3
STYLE2
100
AcDbAlignedDimension
 13
414.3529392924897
 23
232.2208138622201
 33
0.0
 14
416.3529392924896
 24
223.2208138622201
 34
0.0
 50
90.0
100
AcDbRotatedDimension
  0
DIMENSION
  5
24D2
330
18
100
AcDbEntity
  8
ﾊｯﾁﾝｸ
100
AcDbDimension
  2
*D6
 10
423.9529392924896
 20
330.536372622093
 30
0.0
 11
420.1529392924896
 21
332.411372622093
 31
0.0
 70
    32
 71
     5
 42
7.599999999999965
  3
STYLE2
100
AcDbAlignedDimension
 13
416.3529392924896
 23
324.7208138622202
 33
0.0
 14
423.9529392924896
 24
306.2208138622202
 34
0.0
100
AcDbRotatedDimension
  0
TEXT
  5
283B
330
18
100
AcDbEntity
  8
文字
100
AcDbText
 10
328.4320181783048
 20
291.5287543146493
 30
0.0
 40
1.0
  1
MADE IN JAPAN
  7
STYLE3
100
AcDbText
  0
LINE
  5
283C
330
18
100
AcDbEntity
  8
外形線
100
AcDbLine
 10
311.7759941506575
 20
290.3282047328439
 30
0.0
 11
313.4878958799888
 21
289.7719741429691
 31
0.0
  0
LINE
  5
283D
330
18
100
AcDbEntity
  8
外形線
100
AcDbLine
 10
355.5245939002345
 20
290.328204732844
 30
0.0
 11
353.8126921709033
 21
289.7719741429691
 31
0.0
  0
TEXT
  5
2844
330
18
100
AcDbEntity
  8
文字
100
AcDbText
 10
321.0929532714137
 20
268.1379445948345
 30
0.0
 40
2.299999999999999
  1
70
  7
STYLE3
100
AcDbText
  0
LINE
  5
2845
330
18
100
AcDbEntity
  8
外形線
100
AcDbLine
 10
325.7838307289556
 20
261.6078835841443
 30
0.0
 11
326.8098911589327
 21
264.426961446502
 31
0.0
  0
LINE
  5
2846
330
18
100
AcDbEntity
  8
外形線
100
AcDbLine
 10
328.0860904266535
 20
260.9040121578722
 30
0.0
 11
328.521549838733
 21
262.650544465169
 31
0.0
  0
LINE
  5
284D
330
18
100
AcDbEntity
  8
外形線
100
AcDbLine
 10
312.0373637473702
 20
275.3543505657298
 30
0.0
 11
314.8564416097278
 21
276.3804109957068
 31
0.0
  0
LINE
  5
284E
330
18
100
AcDbEntity
  8
外形線
100
AcDbLine
 10
314.1451878138483
 20
271.0326707848564
 30
0.0
 11
315.6716743869298
 21
271.9865254604762
 31
0.0
  0
LINE
  5
284F
330
18
100
AcDbEntity
  8
外形線
100
AcDbLine
 10
313.7317097384039
 20
271.7208138622202
 30
0.0
 11
316.3297859497572
 21
273.2208138622202
 31
0.0
  0
LINE
  5
2850
330
18
100
AcDbEntity
  8
外形線
100
AcDbLine
 10
314.5824298566801
 20
270.3593770823929
 30
0.0
 11
316.0746974872793
 21
271.3659243086402
 31
0.0
  0
LINE
  5
2851
330
18
100
AcDbEntity
  8
外形線
100
AcDbLine
 10
315.0429031548222
 20
269.7017530594933
 30
0.0
 11
316.4991337446972
 21
270.7597665136197
 31
0.0
  0
LINE
  5
2852
330
18
100
AcDbEntity
  8
外形線
100
AcDbLine
 10
315.5260466924914
 20
269.0605999297301
 30
0.0
 11
316.9444660489834
 21
270.1687905853162
 31
0.0
  0
LINE
  5
2853
330
18
100
AcDbEntity
  8
外形線
100
AcDbLine
 10
312.9780309605652
 20
273.1382774860714
 30
0.0
 11
314.5958602439036
 21
273.9273455502917
 31
0.0
  0
LINE
  5
2854
330
18
100
AcDbEntity
  8
外形線
100
AcDbLine
 10
313.3424993896907
 20
272.4229679181447
 30
0.0
 11
314.9318050568367
 21
273.2680167311593
 31
0.0
  0
LINE
  5
2855
330
18
100
AcDbEntity
  8
外形線
100
AcDbLine
 10
312.6387484996662
 20
273.8658710714768
 30
0.0
 11
314.2831303234229
 21
274.5979970290132
 31
0.0
  0
LINE
  5
2856
330
18
100
AcDbEntity
  8
外形線
100
AcDbLine
 10
312.32506537041
 20
274.6048622136542
 30
0.0
 11
313.9939963086301
 21
275.2791540818029
 31
0.0
  0
LINE
  5
2857
330
18
100
AcDbEntity
  8
外形線
100
AcDbLine
 10
316.0312718337096
 20
268.4366988394298
 30
0.0
 11
318.3294051630664
 21
270.3650616684893
 31
0.0
  0
LINE
  5
2858
330
18
100
AcDbEntity
  8
外形線
100
AcDbLine
 10
316.557963039466
 20
267.8308099159665
 30
0.0
 11
317.8956237253253
 21
269.0352450074124
 31
0.0
  0
LINE
  5
2859
330
18
100
AcDbEntity
  8
外形線
100
AcDbLine
 10
317.1054786176571
 20
267.2436713416632
 30
0.0
 11
318.4002902582666
 21
268.4940564084894
 31
0.0
  0
LINE
  5
285A
330
18
100
AcDbEntity
  8
外形線
100
AcDbLine
 10
319.4900800929559
 20
265.0965665292655
 30
0.0
 11
320.598270748542
 21
266.5149858857577
 31
0.0
  0
LINE
  5
285B
330
18
100
AcDbEntity
  8
外形線
100
AcDbLine
 10
320.1312332227191
 20
264.6134229915964
 30
0.0
 11
321.1892466768456
 21
266.0696535814712
 31
0.0
  0
LINE
  5
285C
330
18
100
AcDbEntity
  8
外形線
100
AcDbLine
 10
318.8661790026557
 20
265.6017916704837
 30
0.0
 11
320.7945418317151
 21
267.8999249998406
 31
0.0
  0
LINE
  5
285D
330
18
100
AcDbEntity
  8
外形線
100
AcDbLine
 10
317.6731515048891
 20
266.6759984544313
 30
0.0
 11
318.9235365717153
 21
267.9708100950407
 31
0.0
  0
LINE
  5
285E
330
18
100
AcDbEntity
  8
外形線
100
AcDbLine
 10
318.2602900791923
 20
266.1284828762401
 30
0.0
 11
319.4647251706383
 21
267.4661435620993
 31
0.0
  0
LINE
  5
2860
330
18
100
AcDbEntity
  8
外形線
100
AcDbLine
 10
322.1502940254461
 20
263.302229575178
 30
0.0
 11
323.6502940254459
 21
265.9003057865313
 31
0.0
  0
LINE
  5
2861
330
18
100
AcDbEntity
  8
外形線
100
AcDbLine
 10
321.4621509480823
 20
263.7157076506224
 30
0.0
 11
322.4160056237021
 21
265.2421942237038
 31
0.0
  0
LINE
  5
2862
330
18
100
AcDbEntity
  8
外形線
100
AcDbLine
 10
320.7888572456189
 20
264.1529496934542
 30
0.0
 11
321.7954044718662
 21
265.6452173240532
 31
0.0
  0
LINE
  5
2864
330
18
100
AcDbEntity
  8
外形線
100
AcDbLine
 10
322.8524480813704
 20
262.9130192264649
 30
0.0
 11
323.697496894385
 21
264.5023248936109
 31
0.0
  0
LINE
  5
2865
330
18
100
AcDbEntity
  8
外形線
100
AcDbLine
 10
323.5677576492971
 20
262.5485507973394
 30
0.0
 11
324.3568257135175
 21
264.1663800806778
 31
0.0
  0
TEXT
  5
2866
330
18
100
AcDbEntity
  8
文字
100
AcDbText
 10
316.8122475524541
 20
272.6257812980156
 30
0.0
 40
2.299999999999999
  1
60
  7
STYLE3
100
AcDbText
  0
TEXT
  5
2867
330
18
100
AcDbEntity
  8
文字
100
AcDbText
 10
314.463816618575
 20
285.2479276312315
 30
0.0
 40
2.299999999999999
  1
40
  7
STYLE3
100
AcDbText
  0
TEXT
  5
2868
330
18
100
AcDbEntity
  8
文字
100
AcDbText
 10
314.6433840952536
 20
278.685380711142
 30
0.0
 40
2.299999999999999
  1
50
  7
STYLE3
100
AcDbText
  0
LINE
  5
2869
330
18
100
AcDbEntity
  8
外形線
100
AcDbLine
 10
310.6643050040069
 20
282.4181254380627
 30
0.0
 11
312.4632084926412
 21
282.4809445321272
 31
0.0
  0
LINE
  5
286A
330
18
100
AcDbEntity
  8
外形線
100
AcDbLine
 10
310.7762904319757
 20
280.8166592070642
 30
0.0
 11
312.5664298436386
 21
281.004810440946
 31
0.0
  0
LINE
  5
286B
330
18
100
AcDbEntity
  8
外形線
100
AcDbLine
 10
310.8741284443899
 20
280.0198325401387
 30
0.0
 11
312.6566109681248
 21
280.2703441218668
 31
0.0
  0
LINE
  5
286C
330
18
100
AcDbEntity
  8
外形線
100
AcDbLine
 10
310.7063208694701
 20
281.6164149661054
 30
0.0
 11
312.5019361599378
 21
281.7419766188448
 31
0.0
  0
LINE
  5
286D
330
18
100
AcDbEntity
  8
外形線
100
AcDbLine
 10
311.5412750188647
 20
276.8811546784291
 30
0.0
 11
313.2715460715537
 21
277.3773019188997
 31
0.0
  0
LINE
  5
286E
330
18
100
AcDbEntity
  8
外形線
100
AcDbLine
 10
311.7759941506575
 20
276.1134229915965
 30
0.0
 11
313.4878958799888
 21
276.6696535814713
 31
0.0
  0
LINE
  5
286F
330
18
100
AcDbEntity
  8
外形線
100
AcDbLine
 10
311.3334923210981
 20
277.6566102634279
 30
0.0
 11
313.0800246283949
 21
278.0920696755071
 31
0.0
  0
LINE
  5
2870
330
18
100
AcDbEntity
  8
外形線
100
AcDbLine
 10
311.1528992085685
 20
278.4388449734117
 30
0.0
 11
312.9135648898893
 21
278.8130860168838
 31
0.0
  0
LINE
  5
2871
330
18
100
AcDbEntity
  8
外形線
100
AcDbLine
 10
310.9997157061652
 20
279.2269057758808
 30
0.0
 11
313.9541389652018
 21
279.7478503088815
 31
0.0
  0
LINE
  5
2872
330
18
100
AcDbEntity
  8
外形線
100
AcDbLine
 10
310.650294025446
 20
283.2208138622202
 30
0.0
 11
313.6502940254461
 21
283.2208138622202
 31
0.0
  0
LINE
  5
2873
330
18
100
AcDbEntity
  8
外形線
100
AcDbLine
 10
310.8741284443899
 20
286.4217951843017
 30
0.0
 11
312.6566109681248
 21
286.1712836025736
 31
0.0
  0
LINE
  5
2874
330
18
100
AcDbEntity
  8
外形線
100
AcDbLine
 10
310.7762904319757
 20
285.6249685173762
 30
0.0
 11
312.5664298436386
 21
285.4368172834944
 31
0.0
  0
LINE
  5
2875
330
18
100
AcDbEntity
  8
外形線
100
AcDbLine
 10
310.7063208694701
 20
284.825212758335
 30
0.0
 11
312.5019361599378
 21
284.6996511055956
 31
0.0
  0
LINE
  5
2876
330
18
100
AcDbEntity
  8
外形線
100
AcDbLine
 10
310.6643050040069
 20
284.0235022863777
 30
0.0
 11
312.4632084926412
 21
283.9606831923132
 31
0.0
  0
LINE
  5
2878
330
18
100
AcDbEntity
  8
外形線
100
AcDbLine
 10
310.9997157061653
 20
287.2147219485596
 30
0.0
 11
313.9541389652018
 21
286.6937774155588
 31
0.0
  0
LINE
  5
2879
330
18
100
AcDbEntity
  8
外形線
100
AcDbLine
 10
311.3334923210981
 20
288.7850174610124
 30
0.0
 11
313.0800246283949
 21
288.3495580489332
 31
0.0
  0
LINE
  5
287A
330
18
100
AcDbEntity
  8
外形線
100
AcDbLine
 10
311.5412750188647
 20
289.5604730460112
 30
0.0
 11
313.2715460715537
 21
289.0643258055406
 31
0.0
  0
LINE
  5
287B
330
18
100
AcDbEntity
  8
外形線
100
AcDbLine
 10
311.1528992085685
 20
288.0027827510286
 30
0.0
 11
312.9135648898893
 21
287.6285417075566
 31
0.0
  0
TEXT
  5
2894
330
18
100
AcDbEntity
  8
文字
100
AcDbText
 10
342.4488276326978
 20
268.6791548523211
 30
0.0
 40
2.299999999999999
  1
70
  7
STYLE3
100
AcDbText
  0
LINE
  5
2895
330
18
100
AcDbEntity
  8
外形線
100
AcDbLine
 10
344.4481399695214
 20
262.9130192264648
 30
0.0
 11
343.6030911565069
 21
264.5023248936109
 31
0.0
  0
LINE
  5
2896
330
18
100
AcDbEntity
  8
外形線
100
AcDbLine
 10
345.1502940254461
 20
263.3022295751781
 30
0.0
 11
343.650294025446
 21
265.9003057865313
 31
0.0
  0
LINE
  5
2898
330
18
100
AcDbEntity
  8
外形線
100
AcDbLine
 10
333.2552618128923
 20
281.3623334208259
 30
0.0
 11
328.8683251366376
 21
260.7234190453425
 31
0.0
  0
LINE
  5
2899
330
18
100
AcDbEntity
  8
外形線
100
AcDbLine
 10
334.0453262379997
 20
281.3623334208259
 30
0.0
 11
338.4322629142545
 21
260.7234190453425
 31
0.0
  0
LINE
  5
289A
102
{ACAD_REACTORS
330
289C
102
}
330
18
100
AcDbEntity
  8
外形線
100
AcDbLine
 10
342.8902170823183
 20
284.5450009510886
 30
0.0
 11
344.0568837489851
 21
284.9696328910658
 31
0.0
  0
LINE
  5
289B
102
{ACAD_REACTORS
330
289C
102
}
330
18
100
AcDbEntity
  8
外形線
100
AcDbLine
 10
342.8902170823183
 20
284.5450009510886
 30
0.0
 11
344.0568837489851
 21
284.1203690111113
 31
0.0
  0
HATCH
  5
289C
330
18
100
AcDbEntity
  8
外形線
100
AcDbHatch
 10
0.0
 20
0.0
 30
0.0
210
0.0
220
0.0
230
1.0
  2
SOLID
 70
     1
 71
     1
 91
        2
 92
        1
 93
        4
 72
     1
 10
342.7235504156517
 20
283.7950009510886
 11
342.8902170823183
 21
283.7950009510886
 72
     1
 10
342.8902170823183
 20
283.7950009510886
 11
342.8902170823183
 21
285.2950009510885
 72
     1
 10
342.8902170823183
 20
285.2950009510885
 11
342.7235504156517
 21
285.2950009510885
 72
     1
 10
342.7235504156517
 20
285.2950009510885
 11
342.7235504156517
 21
283.7950009510886
 97
        4
330
28B4
330
28AB
330
28BA
330
28AC
 92
        1
 93
        7
 72
     1
 10
344.0568837489849
 20
284.3783342844219
 11
344.0568837489849
 21
284.1203690111114
 72
     1
 10
344.0568837489851
 20
284.1203690111113
 11
342.8902170823183
 21
284.5450009510886
 72
     1
 10
342.8902170823183
 20
284.5450009510886
 11
344.0568837489851
 21
284.9696328910658
 72
     1
 10
344.0568837489849
 20
284.9696328910658
 11
344.0568837489849
 21
284.7116676177553
 72
     1
 10
344.0568837489849
 20
284.7116676177552
 11
345.0568837489849
 21
284.7116676177551
 72
     1
 10
345.0568837489849
 20
284.7116676177551
 11
345.0568837489849
 21
284.3783342844219
 72
     1
 10
345.0568837489849
 20
284.3783342844219
 11
344.0568837489849
 21
284.3783342844219
 97
        7
330
28C4
330
289B
330
289A
330
28C6
330
28C7
330
28C3
330
28C5
 75
     0
 76
     1
 98
        1
 10
-23.27850468794492
 20
46.78508789725009
450
        0
451
        0
460
0.0
461
0.0
452
        0
462
0.0
453
        0
470

  0
TEXT
  5
289D
330
18
100
AcDbEntity
  8
文字
100
AcDbText
 10
338.841143385044
 20
282.0642927711887
 30
0.0
 40
1.0
  1
0.001mm
  7
STYLE3
100
AcDbText
  0
LINE
  5
28AA
102
{ACAD_REACTORS
330
28AF
102
}
330
18
100
AcDbEntity
  8
外形線
100
AcDbLine
 10
341.7235504156517
 20
285.2950009510885
 30
0.0
 11
341.7235504156517
 21
283.7950009510886
 31
0.0
  0
LINE
  5
28AB
102
{ACAD_REACTORS
330
289C
102
}
330
18
100
AcDbEntity
  8
外形線
100
AcDbLine
 10
342.8902170823183
 20
285.2950009510885
 30
0.0
 11
342.8902170823183
 21
283.7950009510886
 31
0.0
  0
LINE
  5
28AC
102
{ACAD_REACTORS
330
289C
102
}
330
18
100
AcDbEntity
  8
外形線
100
AcDbLine
 10
342.7235504156517
 20
285.2950009510885
 30
0.0
 11
342.7235504156517
 21
283.7950009510886
 31
0.0
  0
LINE
  5
28AD
102
{ACAD_REACTORS
330
28AF
102
}
330
18
100
AcDbEntity
  8
外形線
100
AcDbLine
 10
341.8902170823184
 20
285.2950009510885
 30
0.0
 11
341.8902170823184
 21
283.7950009510886
 31
0.0
  0
LINE
  5
28AE
102
{ACAD_REACTORS
330
28AF
102
}
330
18
100
AcDbEntity
  8
外形線
100
AcDbLine
 10
339.5568837489849
 20
284.7116676177551
 30
0.0
 11
339.5568837489849
 21
284.3783342844219
 31
0.0
  0
HATCH
  5
28AF
330
18
100
AcDbEntity
  8
外形線
100
AcDbHatch
 10
0.0
 20
0.0
 30
0.0
210
0.0
220
0.0
230
1.0
  2
SOLID
 70
     1
 71
     1
 91
        2
 92
        1
 93
        4
 72
     1
 10
341.8902170823184
 20
283.7950009510886
 11
341.7235504156517
 21
283.7950009510886
 72
     1
 10
341.7235504156517
 20
283.7950009510886
 11
341.7235504156517
 21
285.2950009510885
 72
     1
 10
341.7235504156517
 20
285.2950009510885
 11
341.8902170823184
 21
285.2950009510885
 72
     1
 10
341.8902170823184
 20
285.2950009510885
 11
341.8902170823184
 21
283.7950009510886
 97
        4
330
28B3
330
28AA
330
28B9
330
28AD
 92
        1
 93
        7
 72
     1
 10
340.556883748985
 20
284.3783342844219
 11
340.556883748985
 21
284.1203690111114
 72
     1
 10
340.556883748985
 20
284.1203690111113
 11
341.7235504156517
 21
284.5450009510886
 72
     1
 10
341.7235504156517
 20
284.5450009510886
 11
340.556883748985
 21
284.9696328910658
 72
     1
 10
340.556883748985
 20
284.9696328910658
 11
340.556883748985
 21
284.7116676177553
 72
     1
 10
340.556883748985
 20
284.7116676177552
 11
339.5568837489849
 21
284.7116676177551
 72
     1
 10
339.5568837489849
 20
284.7116676177551
 11
339.5568837489849
 21
284.3783342844219
 72
     1
 10
339.5568837489849
 20
284.3783342844219
 11
340.556883748985
 21
284.3783342844219
 97
        7
330
28B1
330
28B0
330
28B5
330
28B6
330
28B7
330
28AE
330
28B2
 75
     0
 76
     1
 98
        1
 10
707.8922721859149
 20
46.78508789725009
450
        0
451
        0
460
0.0
461
0.0
452
        0
462
0.0
453
        0
470

  0
LINE
  5
28B0
102
{ACAD_REACTORS
330
28AF
102
}
330
18
100
AcDbEntity
  8
外形線
100
AcDbLine
 10
341.7235504156517
 20
284.5450009510886
 30
0.0
 11
340.556883748985
 21
284.1203690111113
 31
0.0
  0
LINE
  5
28B1
102
{ACAD_REACTORS
330
28AF
102
}
330
18
100
AcDbEntity
  8
外形線
100
AcDbLine
 10
340.556883748985
 20
284.3783342844219
 30
0.0
 11
340.556883748985
 21
284.1203690111114
 31
0.0
  0
LINE
  5
28B2
102
{ACAD_REACTORS
330
28AF
102
}
330
18
100
AcDbEntity
  8
外形線
100
AcDbLine
 10
340.556883748985
 20
284.3783342844219
 30
0.0
 11
339.5568837489849
 21
284.3783342844219
 31
0.0
  0
LINE
  5
28B3
102
{ACAD_REACTORS
330
28AF
102
}
330
18
100
AcDbEntity
  8
外形線
100
AcDbLine
 10
341.8902170823184
 20
283.7950009510886
 30
0.0
 11
341.7235504156517
 21
283.7950009510886
 31
0.0
  0
LINE
  5
28B4
102
{ACAD_REACTORS
330
289C
102
}
330
18
100
AcDbEntity
  8
外形線
100
AcDbLine
 10
342.7235504156517
 20
283.7950009510886
 30
0.0
 11
342.8902170823183
 21
283.7950009510886
 31
0.0
  0
LINE
  5
28B5
102
{ACAD_REACTORS
330
28AF
102
}
330
18
100
AcDbEntity
  8
外形線
100
AcDbLine
 10
341.7235504156517
 20
284.5450009510886
 30
0.0
 11
340.556883748985
 21
284.9696328910658
 31
0.0
  0
LINE
  5
28B6
102
{ACAD_REACTORS
330
28AF
102
}
330
18
100
AcDbEntity
  8
外形線
100
AcDbLine
 10
340.556883748985
 20
284.9696328910658
 30
0.0
 11
340.556883748985
 21
284.7116676177553
 31
0.0
  0
LINE
  5
28B7
102
{ACAD_REACTORS
330
28AF
102
}
330
18
100
AcDbEntity
  8
外形線
100
AcDbLine
 10
340.556883748985
 20
284.7116676177552
 30
0.0
 11
339.5568837489849
 21
284.7116676177551
 31
0.0
  0
POINT
  5
28B8
330
18
100
AcDbEntity
  8
DEFPOINTS
  6
ByBlock
 62
     0
100
AcDbPoint
 10
342.3219524818405
 20
284.5771307362982
 30
0.0
  0
LINE
  5
28B9
102
{ACAD_REACTORS
330
28AF
102
}
330
18
100
AcDbEntity
  8
外形線
100
AcDbLine
 10
341.8902170823184
 20
285.2950009510885
 30
0.0
 11
341.7235504156517
 21
285.2950009510885
 31
0.0
  0
LINE
  5
28BA
102
{ACAD_REACTORS
330
289C
102
}
330
18
100
AcDbEntity
  8
外形線
100
AcDbLine
 10
342.7235504156517
 20
285.2950009510885
 30
0.0
 11
342.8902170823183
 21
285.2950009510885
 31
0.0
  0
LINE
  5
28BF
330
18
100
AcDbEntity
  8
外形線
100
AcDbLine
 10
342.2662456740119
 20
261.895585207184
 30
0.0
 11
341.5919538058633
 21
263.5645161454042
 31
0.0
  0
LINE
  5
28C1
330
18
100
AcDbEntity
  8
外形線
100
AcDbLine
 10
343.7328304015949
 20
262.5485507973393
 30
0.0
 11
342.9437623373744
 21
264.1663800806778
 31
0.0
  0
LINE
  5
28C2
330
18
100
AcDbEntity
  8
外形線
100
AcDbLine
 10
343.0052368161895
 20
262.2092683364404
 30
0.0
 11
342.2731108586531
 21
263.853650160197
 31
0.0
  0
LINE
  5
28C3
102
{ACAD_REACTORS
330
289C
102
}
330
18
100
AcDbEntity
  8
外形線
100
AcDbLine
 10
345.0568837489849
 20
284.7116676177551
 30
0.0
 11
345.0568837489849
 21
284.3783342844219
 31
0.0
  0
LINE
  5
28C4
102
{ACAD_REACTORS
330
289C
102
}
330
18
100
AcDbEntity
  8
外形線
100
AcDbLine
 10
344.0568837489849
 20
284.3783342844219
 30
0.0
 11
344.0568837489849
 21
284.1203690111114
 31
0.0
  0
LINE
  5
28C5
102
{ACAD_REACTORS
330
289C
102
}
330
18
100
AcDbEntity
  8
外形線
100
AcDbLine
 10
344.0568837489849
 20
284.3783342844219
 30
0.0
 11
345.0568837489849
 21
284.3783342844219
 31
0.0
  0
LINE
  5
28C6
102
{ACAD_REACTORS
330
289C
102
}
330
18
100
AcDbEntity
  8
外形線
100
AcDbLine
 10
344.0568837489849
 20
284.9696328910658
 30
0.0
 11
344.0568837489849
 21
284.7116676177553
 31
0.0
  0
LINE
  5
28C7
102
{ACAD_REACTORS
330
289C
102
}
330
18
100
AcDbEntity
  8
外形線
100
AcDbLine
 10
344.0568837489849
 20
284.7116676177552
 30
0.0
 11
345.0568837489849
 21
284.7116676177551
 31
0.0
  0
TEXT
  5
28C9
330
18
100
AcDbEntity
  8
文字
100
AcDbText
 10
330.3758176042526
 20
289.3069529547707
 30
0.0
 40
1.3
  1
No.15Z
  7
STYLE3
100
AcDbText
  0
TEXT
  5
28D5
330
18
100
AcDbEntity
  8
文字
100
AcDbText
 10
346.3065698081602
 20
273.227787123023
 30
0.0
 40
2.299999999999999
  1
60
  7
STYLE3
100
AcDbText
  0
LINE
  5
28D6
330
18
100
AcDbEntity
  8
外形線
100
AcDbLine
 10
355.2632243035219
 20
275.3543505657297
 30
0.0
 11
352.4441464411641
 21
276.3804109957068
 31
0.0
  0
LINE
  5
28D7
330
18
100
AcDbEntity
  8
外形線
100
AcDbLine
 10
354.6618395512259
 20
273.8658710714767
 30
0.0
 11
353.017457727469
 21
274.5979970290132
 31
0.0
  0
LINE
  5
28D8
330
18
100
AcDbEntity
  8
外形線
100
AcDbLine
 10
354.9755226804823
 20
274.6048622136543
 30
0.0
 11
353.3065917422618
 21
275.2791540818029
 31
0.0
  0
LINE
  5
28D9
330
18
100
AcDbEntity
  8
外形線
100
AcDbLine
 10
353.9580886612014
 20
272.4229679181447
 30
0.0
 11
352.3687829940552
 21
273.2680167311593
 31
0.0
  0
LINE
  5
28DA
330
18
100
AcDbEntity
  8
外形線
100
AcDbLine
 10
354.3225570903268
 20
273.1382774860712
 30
0.0
 11
352.7047278069883
 21
273.9273455502917
 31
0.0
  0
LINE
  5
28DB
330
18
100
AcDbEntity
  8
外形線
100
AcDbLine
 10
353.568878312488
 20
271.7208138622201
 30
0.0
 11
350.9708021011347
 21
273.2208138622202
 31
0.0
  0
LINE
  5
28DC
330
18
100
AcDbEntity
  8
外形線
100
AcDbLine
 10
350.195109433235
 20
267.2436713416632
 30
0.0
 11
348.9002977926254
 21
268.4940564084894
 31
0.0
  0
LINE
  5
28DD
330
18
100
AcDbEntity
  8
外形線
100
AcDbLine
 10
350.7426250114262
 20
267.8308099159665
 30
0.0
 11
349.4049643255668
 21
269.0352450074124
 31
0.0
  0
LINE
  5
28DE
330
18
100
AcDbEntity
  8
外形線
100
AcDbLine
 10
351.2693162171826
 20
268.4366988394298
 30
0.0
 11
348.9711828878255
 21
270.3650616684893
 31
0.0
  0
LINE
  5
28DF
330
18
100
AcDbEntity
  8
外形線
100
AcDbLine
 10
349.0402979716998
 20
266.1284828762401
 30
0.0
 11
347.8358628802538
 21
267.4661435620993
 31
0.0
  0
LINE
  5
28E0
330
18
100
AcDbEntity
  8
外形線
100
AcDbLine
 10
349.6274365460029
 20
266.6759984544311
 30
0.0
 11
348.3770514791767
 21
267.9708100950407
 31
0.0
  0
LINE
  5
28E1
330
18
100
AcDbEntity
  8
外形線
100
AcDbLine
 10
345.8384371028096
 20
263.7157076506223
 30
0.0
 11
344.88458242719
 21
265.2421942237038
 31
0.0
  0
LINE
  5
28E2
330
18
100
AcDbEntity
  8
外形線
100
AcDbLine
 10
346.5117308052733
 20
264.1529496934542
 30
0.0
 11
345.5051835790259
 21
265.6452173240532
 31
0.0
  0
LINE
  5
28E3
330
18
100
AcDbEntity
  8
外形線
100
AcDbLine
 10
347.1693548281728
 20
264.6134229915963
 30
0.0
 11
346.1113413740464
 21
266.0696535814712
 31
0.0
  0
LINE
  5
28E4
330
18
100
AcDbEntity
  8
外形線
100
AcDbLine
 10
348.4344090482364
 20
265.6017916704836
 30
0.0
 11
346.5060462191768
 21
267.8999249998406
 31
0.0
  0
LINE
  5
28E5
330
18
100
AcDbEntity
  8
外形線
100
AcDbLine
 10
347.8105079579362
 20
265.0965665292655
 30
0.0
 11
346.7023173023501
 21
266.5149858857577
 31
0.0
  0
LINE
  5
28E6
330
18
100
AcDbEntity
  8
外形線
100
AcDbLine
 10
353.1554002370438
 20
271.0326707848564
 30
0.0
 11
351.6289136639622
 21
271.9865254604762
 31
0.0
  0
LINE
  5
28E7
330
18
100
AcDbEntity
  8
外形線
100
AcDbLine
 10
351.7745413584005
 20
269.0605999297299
 30
0.0
 11
350.3561220019084
 21
270.1687905853162
 31
0.0
  0
LINE
  5
28E8
330
18
100
AcDbEntity
  8
外形線
100
AcDbLine
 10
352.2576848960699
 20
269.7017530594933
 30
0.0
 11
350.8014543061949
 21
270.7597665136197
 31
0.0
  0
LINE
  5
28E9
330
18
100
AcDbEntity
  8
外形線
100
AcDbLine
 10
352.718158194212
 20
270.3593770823929
 30
0.0
 11
351.2258905636128
 21
271.3659243086402
 31
0.0
  0
LINE
  5
290D
330
18
100
AcDbEntity
  8
外形線
100
AcDbLine
 10
356.650294025446
 20
283.2208138622202
 30
0.0
 11
353.650294025446
 21
283.2208138622202
 31
0.0
  0
LINE
  5
290E
330
18
100
AcDbEntity
  8
外形線
100
AcDbLine
 10
356.3008723447269
 20
279.2269057758808
 30
0.0
 11
353.3464490856902
 21
279.7478503088815
 31
0.0
  0
LINE
  5
290F
330
18
100
AcDbEntity
  8
外形線
100
AcDbLine
 10
356.3008723447268
 20
287.2147219485596
 30
0.0
 11
353.3464490856902
 21
286.6937774155588
 31
0.0
  0
TEXT
  5
2910
330
18
100
AcDbEntity
  8
文字
100
AcDbText
 10
348.4371361112768
 20
279.0186951591161
 30
0.0
 40
2.299999999999999
  1
50
  7
STYLE3
100
AcDbText
  0
TEXT
  5
2911
330
18
100
AcDbEntity
  8
文字
100
AcDbText
 10
348.475433265361
 20
284.8125785752602
 30
0.0
 40
2.299999999999999
  1
40
  7
STYLE3
100
AcDbText
  0
LINE
  5
2914
330
18
100
AcDbEntity
  8
外形線
100
AcDbLine
 10
355.9670957297939
 20
277.6566102634276
 30
0.0
 11
354.2205634224972
 21
278.0920696755071
 31
0.0
  0
LINE
  5
2915
330
18
100
AcDbEntity
  8
外形線
100
AcDbLine
 10
356.1476888423236
 20
278.4388449734116
 30
0.0
 11
354.3870231610025
 21
278.8130860168838
 31
0.0
  0
LINE
  5
2916
330
18
100
AcDbEntity
  8
外形線
100
AcDbLine
 10
355.5245939002346
 20
276.1134229915963
 30
0.0
 11
353.8126921709033
 21
276.6696535814713
 31
0.0
  0
LINE
  5
2917
330
18
100
AcDbEntity
  8
外形線
100
AcDbLine
 10
355.7593130320274
 20
276.8811546784291
 30
0.0
 11
354.0290419793383
 21
277.3773019188997
 31
0.0
  0
LINE
  5
2918
330
18
100
AcDbEntity
  8
外形線
100
AcDbLine
 10
356.594267181422
 20
281.6164149661053
 30
0.0
 11
354.7986518909542
 21
281.7419766188448
 31
0.0
  0
LINE
  5
2919
330
18
100
AcDbEntity
  8
外形線
100
AcDbLine
 10
356.6362830468853
 20
282.4181254380627
 30
0.0
 11
354.8373795582508
 21
282.4809445321272
 31
0.0
  0
LINE
  5
291A
330
18
100
AcDbEntity
  8
外形線
100
AcDbLine
 10
356.4264596065022
 20
280.0198325401387
 30
0.0
 11
354.6439770827673
 21
280.2703441218668
 31
0.0
  0
LINE
  5
291B
330
18
100
AcDbEntity
  8
外形線
100
AcDbLine
 10
356.5242976189164
 20
280.8166592070641
 30
0.0
 11
354.7341582072534
 21
281.004810440946
 31
0.0
  0
LINE
  5
2920
330
18
100
AcDbEntity
  8
外形線
100
AcDbLine
 10
356.4264596065022
 20
286.4217951843017
 30
0.0
 11
354.6439770827673
 21
286.1712836025736
 31
0.0
  0
LINE
  5
2921
330
18
100
AcDbEntity
  8
外形線
100
AcDbLine
 10
356.6362830468853
 20
284.0235022863778
 30
0.0
 11
354.8373795582508
 21
283.9606831923132
 31
0.0
  0
LINE
  5
2922
330
18
100
AcDbEntity
  8
外形線
100
AcDbLine
 10
356.594267181422
 20
284.8252127583351
 30
0.0
 11
354.7986518909542
 21
284.6996511055956
 31
0.0
  0
LINE
  5
2923
330
18
100
AcDbEntity
  8
外形線
100
AcDbLine
 10
356.5242976189164
 20
285.6249685173763
 30
0.0
 11
354.7341582072534
 21
285.4368172834944
 31
0.0
  0
LINE
  5
2924
330
18
100
AcDbEntity
  8
外形線
100
AcDbLine
 10
356.1476888423236
 20
288.0027827510286
 30
0.0
 11
354.3870231610028
 21
287.6285417075566
 31
0.0
  0
LINE
  5
2925
330
18
100
AcDbEntity
  8
外形線
100
AcDbLine
 10
355.9670957297939
 20
288.7850174610125
 30
0.0
 11
354.2205634224972
 21
288.3495580489332
 31
0.0
  0
LINE
  5
2926
330
18
100
AcDbEntity
  8
外形線
100
AcDbLine
 10
355.7593130320274
 20
289.5604730460112
 30
0.0
 11
354.0290419793384
 21
289.0643258055406
 31
0.0
  0
LINE
  5
2946
330
18
100
AcDbEntity
  8
外形線
100
AcDbLine
 10
324.2953512347025
 20
304.2323593879999
 30
0.0
 11
325.027477192239
 21
302.5879775642433
 31
0.0
  0
LINE
  5
2947
330
18
100
AcDbEntity
  8
外形線
100
AcDbLine
 10
325.0343423768801
 20
304.5460425172563
 30
0.0
 11
325.7086342450288
 21
302.8771115790361
 31
0.0
  0
LINE
  5
2949
330
18
100
AcDbEntity
  8
外形線
100
AcDbLine
 10
323.5677576492972
 20
303.893076927101
 30
0.0
 11
324.3568257135175
 21
302.2752476437625
 31
0.0
  0
LINE
  5
294A
330
18
100
AcDbEntity
  8
外形線
100
AcDbLine
 10
314.1451878138482
 20
295.4089569395838
 30
0.0
 11
315.6716743869296
 21
294.4551022639641
 31
0.0
  0
LINE
  5
294B
330
18
100
AcDbEntity
  8
外形線
100
AcDbLine
 10
313.7317097384038
 20
294.7208138622201
 30
0.0
 11
316.3297859497572
 21
293.2208138622201
 31
0.0
  0
LINE
  5
294C
330
18
100
AcDbEntity
  8
外形線
100
AcDbLine
 10
314.5824298566801
 20
296.0822506420473
 30
0.0
 11
316.074697487279
 21
295.0757034158
 31
0.0
  0
LINE
  5
294D
330
18
100
AcDbEntity
  8
外形線
100
AcDbLine
 10
315.5260466924914
 20
297.3810277947102
 30
0.0
 11
316.9444660489834
 21
296.2728371391241
 31
0.0
  0
LINE
  5
294E
330
18
100
AcDbEntity
  8
外形線
100
AcDbLine
 10
315.0429031548223
 20
296.7398746649472
 30
0.0
 11
316.4991337446972
 21
295.6818612108206
 31
0.0
  0
LINE
  5
294F
330
18
100
AcDbEntity
  8
外形線
100
AcDbLine
 10
313.3424993896908
 20
294.0186598062957
 30
0.0
 11
314.9318050568367
 21
293.1736109932811
 31
0.0
  0
LINE
  5
2950
330
18
100
AcDbEntity
  8
外形線
100
AcDbLine
 10
312.9780309605652
 20
293.3033502383688
 30
0.0
 11
314.5958602439036
 21
292.5142821741485
 31
0.0
  0
LINE
  5
2951
330
18
100
AcDbEntity
  8
外形線
100
AcDbLine
 10
312.0373637473702
 20
291.0872771587105
 30
0.0
 11
314.8564416097278
 21
290.0612167287335
 31
0.0
  0
LINE
  5
2952
330
18
100
AcDbEntity
  8
外形線
100
AcDbLine
 10
312.6387484996662
 20
292.5757566529635
 30
0.0
 11
314.2831303234229
 21
291.8436306954271
 31
0.0
  0
LINE
  5
2953
330
18
100
AcDbEntity
  8
外形線
100
AcDbLine
 10
312.32506537041
 20
291.8367655107861
 30
0.0
 11
313.9939963086301
 21
291.1624736426375
 31
0.0
  0
TEXT
  5
2954
330
18
100
AcDbEntity
  8
文字
100
AcDbText
 10
320.5159512166694
 20
295.6355094070231
 30
0.0
 40
2.299999999999999
  1
20
  7
STYLE3
100
AcDbText
  0
LINE
  5
2955
330
18
100
AcDbEntity
  8
外形線
100
AcDbLine
 10
316.0312718337096
 20
298.0049288850105
 30
0.0
 11
318.3294051630664
 21
296.0765660559509
 31
0.0
  0
TEXT
  5
2956
330
18
100
AcDbEntity
  8
文字
100
AcDbText
 10
316.7131013816653
 20
290.8466697913383
 30
0.0
 40
2.299999999999999
  1
30
  7
STYLE3
100
AcDbText
  0
LINE
  5
2957
330
18
100
AcDbEntity
  8
外形線
100
AcDbLine
 10
319.4900800929559
 20
301.3450611951748
 30
0.0
 11
320.598270748542
 21
299.9266418386826
 31
0.0
  0
LINE
  5
2958
330
18
100
AcDbEntity
  8
外形線
100
AcDbLine
 10
318.8661790026557
 20
300.8398360539567
 30
0.0
 11
320.7945418317151
 21
298.5417027245997
 31
0.0
  0
LINE
  5
2959
330
18
100
AcDbEntity
  8
外形線
100
AcDbLine
 10
320.1312332227191
 20
301.8282047328439
 30
0.0
 11
321.1892466768456
 21
300.371974142969
 31
0.0
  0
LINE
  5
295A
330
18
100
AcDbEntity
  8
外形線
100
AcDbLine
 10
318.2602900791923
 20
300.3131448482002
 30
0.0
 11
319.4647251706383
 21
298.9754841623409
 31
0.0
  0
LINE
  5
295B
330
18
100
AcDbEntity
  8
外形線
100
AcDbLine
 10
317.6731515048889
 20
299.765629270009
 30
0.0
 11
318.9235365717152
 21
298.4708176293995
 31
0.0
  0
LINE
  5
295C
330
18
100
AcDbEntity
  8
外形線
100
AcDbLine
 10
317.1054786176571
 20
299.1979563827771
 30
0.0
 11
318.4002902582665
 21
297.9475713159508
 31
0.0
  0
LINE
  5
295D
330
18
100
AcDbEntity
  8
外形線
100
AcDbLine
 10
316.557963039466
 20
298.6108178084739
 30
0.0
 11
317.8956237253253
 21
297.4063827170279
 31
0.0
  0
LINE
  5
295E
330
18
100
AcDbEntity
  8
外形線
100
AcDbLine
 10
322.1502940254461
 20
303.1393981492622
 30
0.0
 11
323.6502940254461
 21
300.5413219379089
 31
0.0
  0
LINE
  5
295F
330
18
100
AcDbEntity
  8
外形線
100
AcDbLine
 10
321.4621509480823
 20
302.725920073818
 30
0.0
 11
322.4160056237021
 21
301.1994335007365
 31
0.0
  0
LINE
  5
2960
330
18
100
AcDbEntity
  8
外形線
100
AcDbLine
 10
320.788857245619
 20
302.2886780309862
 30
0.0
 11
321.7954044718662
 21
300.7964104003871
 31
0.0
  0
LINE
  5
2961
330
18
100
AcDbEntity
  8
外形線
100
AcDbLine
 10
322.8524480813705
 20
303.5286084979755
 30
0.0
 11
323.6974968943852
 21
301.9393028308294
 31
0.0
  0
TEXT
  5
2965
330
18
100
AcDbEntity
  8
文字
100
AcDbText
 10
342.9394500582231
 20
294.9982166664943
 30
0.0
 40
2.299999999999999
  1
20
  7
STYLE3
100
AcDbText
  0
LINE
  5
2966
330
18
100
AcDbEntity
  8
外形線
100
AcDbLine
 10
344.4481399695215
 20
303.5286084979755
 30
0.0
 11
343.6030911565069
 21
301.9393028308294
 31
0.0
  0
LINE
  5
2967
330
18
100
AcDbEntity
  8
外形線
100
AcDbLine
 10
345.1502940254459
 20
303.1393981492623
 30
0.0
 11
343.650294025446
 21
300.5413219379089
 31
0.0
  0
LINE
  5
296A
330
18
100
AcDbEntity
  8
外形線
100
AcDbLine
 10
328.0860904266536
 20
305.537615566568
 30
0.0
 11
328.521549838733
 21
303.7910832592713
 31
0.0
  0
LINE
  5
296B
330
18
100
AcDbEntity
  8
外形線
100
AcDbLine
 10
328.8683251366375
 20
305.7182086790977
 30
0.0
 11
329.2425661801096
 21
303.9575429977769
 31
0.0
  0
LINE
  5
296C
330
18
100
AcDbEntity
  8
外形線
100
AcDbLine
 10
325.7838307289557
 20
304.833744140296
 30
0.0
 11
326.8098911589327
 21
302.0146662779383
 31
0.0
  0
LINE
  5
296D
330
18
100
AcDbEntity
  8
外形線
100
AcDbLine
 10
329.6563859391065
 20
305.8713921815009
 30
0.0
 11
330.1773304721074
 21
302.9169689224643
 31
0.0
  0
LINE
  5
296E
330
18
100
AcDbEntity
  8
外形線
100
AcDbLine
 10
326.5429031548221
 20
305.0951137370086
 30
0.0
 11
327.0991337446971
 21
303.3832120076774
 31
0.0
  0
LINE
  5
296F
330
18
100
AcDbEntity
  8
外形線
100
AcDbLine
 10
327.3106348416549
 20
305.3298328688014
 30
0.0
 11
327.8067820821256
 21
303.5995618161125
 31
0.0
  0
LINE
  5
2970
330
18
100
AcDbEntity
  8
外形線
100
AcDbLine
 10
343.7328304015947
 20
303.893076927101
 30
0.0
 11
342.9437623373744
 21
302.2752476437625
 31
0.0
  0
LINE
  5
2971
330
18
100
AcDbEntity
  8
外形線
100
AcDbLine
 10
343.0052368161895
 20
304.2323593879999
 30
0.0
 11
342.2731108586531
 21
302.5879775642433
 31
0.0
  0
LINE
  5
2972
330
18
100
AcDbEntity
  8
外形線
100
AcDbLine
 10
342.2662456740119
 20
304.5460425172563
 30
0.0
 11
341.5919538058633
 21
302.8771115790361
 31
0.0
  0
LINE
  5
2973
330
18
100
AcDbEntity
  8
外形線
100
AcDbLine
 10
340.7576848960697
 20
305.0951137370087
 30
0.0
 11
340.201454306195
 21
303.3832120076774
 31
0.0
  0
LINE
  5
2974
330
18
100
AcDbEntity
  8
外形線
100
AcDbLine
 10
339.989953209237
 20
305.3298328688015
 30
0.0
 11
339.4938059687664
 21
303.5995618161125
 31
0.0
  0
LINE
  5
2975
330
18
100
AcDbEntity
  8
外形線
100
AcDbLine
 10
339.2144976242384
 20
305.5376155665681
 30
0.0
 11
338.7790382121589
 21
303.7910832592713
 31
0.0
  0
LINE
  5
2976
330
18
100
AcDbEntity
  8
外形線
100
AcDbLine
 10
338.4322629142544
 20
305.7182086790977
 30
0.0
 11
338.0580218707825
 21
303.9575429977769
 31
0.0
  0
LINE
  5
2977
330
18
100
AcDbEntity
  8
外形線
100
AcDbLine
 10
337.6442021117854
 20
305.8713921815009
 30
0.0
 11
337.1232575787846
 21
302.9169689224643
 31
0.0
  0
LINE
  5
2978
330
18
100
AcDbEntity
  8
外形線
100
AcDbLine
 10
341.5167573219364
 20
304.833744140296
 30
0.0
 11
340.4906968919594
 21
302.0146662779383
 31
0.0
  0
LINE
  5
2979
330
18
100
AcDbEntity
  8
外形線
100
AcDbLine
 10
333.650294025446
 20
306.2208138622202
 30
0.0
 11
333.650294025446
 21
303.2208138622201
 31
0.0
  0
HATCH
  5
297D
330
18
100
AcDbEntity
  8
ROGO
 62
     4
100
AcDbHatch
 10
0.0
 20
0.0
 30
0.0
210
0.0
220
0.0
230
1.0
  2
SOLID
 70
     1
 71
     0
 91
        1
 92
        7
 72
     0
 73
     1
 93
        4
 10
328.6388812866838
 20
293.9123687727343
 10
328.5677725874343
 20
293.7551975948165
 10
337.8750699044761
 20
293.7551975948165
 10
337.9534405299424
 20
293.9123687727343
 97
        0
 75
     0
 76
     1
 47
0.0514683685270805
 98
        1
 10
334.5202696671358
 20
293.8707995220986
450
        0
451
        0
460
0.0
461
0.0
452
        0
462
0.0
453
        0
470

  0
HATCH
  5
297E
330
18
100
AcDbEntity
  8
ROGO
 62
     4
100
AcDbHatch
 10
0.0
 20
0.0
 30
0.0
210
0.0
220
0.0
230
1.0
  2
SOLID
 70
     1
 71
     1
 91
        1
 92
        5
 93
        8
 72
     1
 10
335.0272511716131
 20
294.9498591529526
 11
335.2134226794846
 21
295.3232234716982
 72
     1
 10
335.2134226794846
 20
295.3232234716982
 11
334.2084846545729
 21
295.3232234716982
 72
     4
 94
        3
 73
     0
 74
     0
 95
       26
 96
       22
 40
0.0
 40
0.0
 40
0.0
 40
0.0
 40
0.1820450591292226
 40
0.3039101300786076
 40
0.3917847705456432
 40
0.4573979212329786
 40
0.5425016213279394
 40
0.604619025864254
 40
0.716788580173203
 40
0.8080929847628938
 40
0.8701946098360517
 40
0.9310884328104698
 40
1.040015643625253
 40
1.117040182671343
 40
1.158523847892436
 40
1.217450168930034
 40
1.260002187532959
 40
1.321646013851026
 40
1.356531087476309
 40
1.432444920747885
 40
1.467107836477287
 40
1.467107836477287
 40
1.467107836477287
 40
1.467107836477287
 10
334.2084846545727
 20
295.3232234716982
 10
334.1466957487526
 20
295.3195370396201
 10
334.0435439549328
 20
295.3133828267139
 10
333.9302839128202
 20
295.2445785674535
 10
333.8473029753623
 20
295.2045787947152
 10
333.7881210714028
 20
295.1502025114343
 10
333.7447404958947
 20
295.0940357829174
 10
333.6900511366243
 20
295.0271135377142
 10
333.6454535268889
 20
294.9491852912577
 10
333.6227426755142
 20
294.8632947781856
 10
333.6026256189156
 20
294.7948395409146
 10
333.5877064729639
 20
294.7185551125668
 10
333.5915023260497
 20
294.6361410944927
 10
333.5969381613905
 20
294.5595991736644
 10
333.6212078443675
 20
294.5049597020904
 10
333.6488467143765
 20
294.4660601634909
 10
333.6826901321901
 20
294.4232166343125
 10
333.7197222322261
 20
294.3948415036702
 10
333.7503508017261
 20
294.3434380477492
 10
333.8039650794009
 20
294.3368785960494
 10
333.8380444472538
 20
294.3238233294325
 10
333.8487274368215
 20
294.3197308451567
 72
     1
 10
333.8487274368215
 20
294.3197308451567
 11
334.7130488460963
 21
294.3197308451566
 72
     1
 10
334.7130488460963
 20
294.3197308451566
 11
334.8992183824626
 21
294.6930912100762
 72
     1
 10
334.8992183824626
 20
294.6930912100762
 11
334.2575422860286
 21
294.6930912100762
 72
     4
 94
        3
 73
     0
 74
     0
 95
       16
 96
       12
 40
0.0
 40
0.0
 40
0.0
 40
0.0
 40
0.0549771241674338
 40
0.1105212974336147
 40
0.1436509004121261
 40
0.1754153711779662
 40
0.2103003061993708
 40
0.2346613429961386
 40
0.2577778526434522
 40
0.3046548153865167
 40
0.400630012831368
 40
0.400630012831368
 40
0.400630012831368
 40
0.400630012831368
 10
334.2575422860286
 20
294.6930912100762
 10
334.2381870736581
 20
294.6987857973539
 10
334.1992770139619
 20
294.7102337074404
 10
334.1960205561713
 20
294.7657289699169
 10
334.2004570087836
 20
294.8052738855933
 10
334.2190368822324
 20
294.8340648934801
 10
334.2415774913622
 20
294.8550141398585
 10
334.2499703598446
 20
294.8822972577239
 10
334.2746404320794
 20
294.9028994251278
 10
334.3183870803625
 20
294.9375287906024
 10
334.3667633003696
 20
294.9449040717054
 10
334.3992648548489
 20
294.9498591529526
 72
     1
 10
334.3992648548489
 20
294.9498591529527
 11
335.0272511716131
 21
294.9498591529526
 97
        8
330
2980
330
29A4
330
2983
330
29BD
330
2981
330
29A3
330
2982
330
29BE
 75
     0
 76
     1
 47
0.0514683685270805
 98
        1
 10
334.5599486890665
 20
295.0998342484694
450
        0
451
        0
460
0.0
461
0.0
452
        0
462
0.0
453
        0
470

  0
LINE
  5
297F
330
18
100
AcDbEntity
  8
ROGO
 62
     4
100
AcDbLine
 10
328.6279812988174
 20
293.9123687727343
 30
0.0
 11
337.9534405299425
 21
293.9123687727343
 31
0.0
  0
LINE
  5
2980
102
{ACAD_REACTORS
330
297E
102
}
330
18
100
AcDbEntity
  8
ROGO
 62
     4
100
AcDbLine
 10
334.2084846545728
 20
295.3232234716982
 30
0.0
 11
335.2134226794846
 21
295.3232234716982
 31
0.0
  0
LINE
  5
2981
102
{ACAD_REACTORS
330
297E
102
}
330
18
100
AcDbEntity
  8
ROGO
 62
     4
100
AcDbLine
 10
334.2575422860286
 20
294.6930912100762
 30
0.0
 11
334.8992183824625
 21
294.6930912100762
 31
0.0
  0
LINE
  5
2982
102
{ACAD_REACTORS
330
297E
102
}
330
18
100
AcDbEntity
  8
ROGO
 62
     4
100
AcDbLine
 10
334.3992648548488
 20
294.9498591529526
 30
0.0
 11
335.0272511716132
 21
294.9498591529527
 31
0.0
  0
LINE
  5
2983
102
{ACAD_REACTORS
330
297E
102
}
330
18
100
AcDbEntity
  8
ROGO
 62
     4
100
AcDbLine
 10
333.8487274368215
 20
294.3197308451567
 30
0.0
 11
334.7130488460964
 21
294.3197308451567
 31
0.0
  0
LINE
  5
2984
102
{ACAD_REACTORS
330
2985
330
29AE
102
}
330
18
100
AcDbEntity
  8
ROGO
 62
     4
100
AcDbLine
 10
327.8388871428824
 20
293.7551975948165
 30
0.0
 11
338.4528617711582
 21
293.7551975948165
 31
0.0
  0
HATCH
  5
2985
330
18
100
AcDbEntity
  8
ROGO
 62
     4
100
AcDbHatch
 10
0.0
 20
0.0
 30
0.0
210
0.0
220
0.0
230
1.0
  2
SOLID
 70
     1
 71
     1
 91
        2
 92
        5
 93
        6
 72
     1
 10
327.8388871428824
 20
293.7551975948165
 11
328.5677725874344
 21
293.7551975948165
 72
     1
 10
328.5677725874344
 20
293.7551975948165
 11
328.8231834435887
 21
294.3197308451567
 72
     1
 10
328.8231834435887
 20
294.3197308451567
 11
329.5045418390358
 21
294.3197308451567
 72
     4
 94
        3
 73
     0
 74
     0
 95
       18
 96
       14
 40
0.108740278791501
 40
0.108740278791501
 40
0.108740278791501
 40
0.108740278791501
 40
0.6623149649549278
 40
1.384304701649787
 40
2.097394834876493
 40
2.774073369849618
 40
3.428974823686337
 40
4.005208313035923
 40
4.455173659284313
 40
4.720999734343524
 40
5.086034088486724
 40
5.569973738255373
 40
6.060470601257719
 40
6.060470601257719
 40
6.060470601257719
 40
6.060470601257719
 10
329.5045418390359
 20
294.3197308451567
 10
329.5524947172403
 20
294.320087935721
 10
329.6629892664677
 20
294.3209107551726
 10
329.817570276224
 20
294.4034913272807
 10
329.9641572401933
 20
294.5086929594061
 10
330.0822230675641
 20
294.6401314230366
 10
330.1557816351909
 20
294.7904087876486
 10
330.1671756248101
 20
294.9344358382569
 10
330.1602198740783
 20
295.0483594447285
 10
330.1105175413882
 20
295.1277670267043
 10
330.0588459014502
 20
295.2083576019213
 10
329.9640975863355
 20
295.2781681515111
 10
329.8864650613634
 20
295.3087555496504
 10
329.8469873434803
 20
295.3232234716982
 72
     1
 10
329.8469873434803
 20
295.3232234716982
 11
328.6147317639654
 21
295.3232234716982
 72
     1
 10
328.6147317639654
 20
295.3232234716982
 11
327.8388871428824
 21
293.7551975948165
 97
        6
330
2986
330
2987
330
298E
330
2984
330
2988
330
298D
 92
       20
 93
        4
 72
     1
 10
328.9808851881519
 20
294.6682981683436
 11
329.1016255725259
 21
294.9351699946408
 72
     1
 10
329.1016255725259
 20
294.9351699946408
 11
329.4118769016714
 21
294.9351699946408
 72
     4
 94
        3
 73
     0
 74
     0
 95
       15
 96
       11
 40
0.0
 40
0.0
 40
0.0
 40
0.0
 40
0.1176627657671122
 40
0.1713105150375296
 40
0.232204281898033
 40
0.2736879471192233
 40
0.3392947939127791
 40
0.3785915029624473
 40
0.4460117785475685
 40
0.4684852180859382
 40
0.4684852180859382
 40
0.4684852180859382
 40
0.4684852180859382
 10
329.4118769016714
 20
294.9351699946407
 10
329.4560687547462
 20
294.9353724169167
 10
329.5204096620956
 20
294.9356671326165
 10
329.5555935617985
 20
294.8560772441584
 10
329.5398224603776
 20
294.8048337718622
 10
329.5199969005258
 20
294.7522226972502
 10
329.4849606460752
 20
294.7164726785633
 10
329.4379368607392
 20
294.6820393839473
 10
329.3934971364278
 20
294.6778710794488
 10
329.3645940842907
 20
294.6702127512977
 10
329.3573683177976
 20
294.6682981683434
 72
     1
 10
329.3573683177977
 20
294.6682981683435
 11
328.9808851881519
 21
294.6682981683436
 97
        4
330
298C
330
298A
330
298B
330
2989
 75
     0
 76
     1
 47
0.0514683685270805
 98
        2
 10
328.6213179788557
 20
294.8355258101706
 10
328.6213179788557
 20
294.8355258101706
450
        0
451
        0
460
0.0
461
0.0
452
        0
462
0.0
453
        0
470

  0
SPLINE
  5
2986
102
{ACAD_REACTORS
330
2985
102
}
330
18
100
AcDbEntity
  8
ROGO
 62
     4
100
AcDbSpline
210
0.0
220
0.0
230
1.0
 70
     8
 71
     3
 72
    18
 73
    14
 74
     0
 42
0.0000000001
 43
0.0000000001
 40
0.1087402787915014
 40
0.1087402787915014
 40
0.1087402787915014
 40
0.1087402787915014
 40
0.5992371417938475
 40
1.083176791562496
 40
1.448211145705696
 40
1.714037220764907
 40
2.164002567013297
 40
2.740236056362883
 40
3.395137510199602
 40
4.071816045172726
 40
4.784906178399433
 40
5.506895915094292
 40
6.060470601257719
 40
6.060470601257719
 40
6.060470601257719
 40
6.060470601257719
 10
329.8469873434803
 20
295.3232234716982
 30
0.0
 10
329.8864650613634
 20
295.3087555496504
 30
0.0
 10
329.9640975863355
 20
295.2781681515111
 30
0.0
 10
330.0588459014502
 20
295.2083576019213
 30
0.0
 10
330.1105175413882
 20
295.1277670267043
 30
0.0
 10
330.1602198740783
 20
295.0483594447285
 30
0.0
 10
330.1671756248101
 20
294.9344358382569
 30
0.0
 10
330.1557816351909
 20
294.7904087876486
 30
0.0
 10
330.0822230675641
 20
294.6401314230366
 30
0.0
 10
329.9641572401933
 20
294.5086929594061
 30
0.0
 10
329.817570276224
 20
294.4034913272807
 30
0.0
 10
329.6629892664677
 20
294.3209107551726
 30
0.0
 10
329.5524947172403
 20
294.320087935721
 30
0.0
 10
329.5045418390359
 20
294.3197308451567
 30
0.0
  0
LINE
  5
2987
102
{ACAD_REACTORS
330
2985
102
}
330
18
100
AcDbEntity
  8
ROGO
 62
     4
100
AcDbLine
 10
328.6147317639654
 20
295.3232234716982
 30
0.0
 11
329.8469873434802
 21
295.3232234716982
 31
0.0
  0
LINE
  5
2988
102
{ACAD_REACTORS
330
2985
102
}
330
18
100
AcDbEntity
  8
ROGO
 62
     4
100
AcDbLine
 10
328.8231834435887
 20
294.3197308451567
 30
0.0
 11
328.5677725874344
 21
293.7551975948165
 31
0.0
  0
LINE
  5
2989
102
{ACAD_REACTORS
330
2985
102
}
330
18
100
AcDbEntity
  8
ROGO
 62
     4
100
AcDbLine
 10
329.3573683177976
 20
294.6682981683435
 30
0.0
 11
328.9808851881518
 21
294.6682981683435
 31
0.0
  0
LINE
  5
298A
102
{ACAD_REACTORS
330
2985
102
}
330
18
100
AcDbEntity
  8
ROGO
 62
     4
100
AcDbLine
 10
329.4118769016714
 20
294.9351699946408
 30
0.0
 11
329.101625572526
 21
294.9351699946408
 31
0.0
  0
SPLINE
  5
298B
102
{ACAD_REACTORS
330
2985
102
}
330
18
100
AcDbEntity
  8
ROGO
 62
     4
100
AcDbSpline
210
0.0
220
0.0
230
1.0
 70
     8
 71
     3
 72
    15
 73
    11
 74
     9
 42
0.0000000001
 43
0.0000000001
 44
0.0000000001
 40
0.0
 40
0.0
 40
0.0
 40
0.0
 40
0.1176627657671122
 40
0.1713105150375296
 40
0.232204281898033
 40
0.2736879471192233
 40
0.3392947939127791
 40
0.3785915029624473
 40
0.4460117785475685
 40
0.4684852180859382
 40
0.4684852180859382
 40
0.4684852180859382
 40
0.4684852180859382
 10
329.4118769016714
 20
294.9351699946407
 30
0.0
 10
329.4560687547462
 20
294.9353724169167
 30
0.0
 10
329.5204096620956
 20
294.9356671326165
 30
0.0
 10
329.5555935617985
 20
294.8560772441584
 30
0.0
 10
329.5398224603776
 20
294.8048337718622
 30
0.0
 10
329.5199969005258
 20
294.7522226972502
 30
0.0
 10
329.4849606460752
 20
294.7164726785633
 30
0.0
 10
329.4379368607392
 20
294.6820393839473
 30
0.0
 10
329.3934971364278
 20
294.6778710794488
 30
0.0
 10
329.3645940842907
 20
294.6702127512977
 30
0.0
 10
329.3573683177976
 20
294.6682981683434
 30
0.0
 11
329.4118769016714
 21
294.9351699946407
 31
0.0
 11
329.5263450218371
 21
294.9079381031586
 31
0.0
 11
329.5481485180738
 21
294.8589208760477
 31
0.0
 11
329.5372469266732
 21
294.7990108923439
 31
0.0
 11
329.5208943828545
 21
294.760886244269
 31
0.0
 11
329.4772873903814
 21
294.711869017158
 31
0.0
 11
329.444582302744
 21
294.6900835039723
 31
0.0
 11
329.3791718140341
 21
294.6737445466398
 31
0.0
 11
329.3573683177976
 21
294.6682981683434
 31
0.0
  0
LINE
  5
298C
102
{ACAD_REACTORS
330
2985
102
}
330
18
100
AcDbEntity
  8
ROGO
 62
     4
100
AcDbLine
 10
329.101625572526
 20
294.9351699946408
 30
0.0
 11
328.9808851881518
 21
294.6682981683435
 31
0.0
  0
LINE
  5
298D
102
{ACAD_REACTORS
330
2985
102
}
330
18
100
AcDbEntity
  8
ROGO
 62
     4
100
AcDbLine
 10
329.5045418392721
 20
294.3197308451567
 30
0.0
 11
328.8231834435887
 21
294.3197308451567
 31
0.0
  0
LINE
  5
298E
102
{ACAD_REACTORS
330
2985
102
}
330
18
100
AcDbEntity
  8
ROGO
 62
     4
100
AcDbLine
 10
328.6147317639654
 20
295.3232234716982
 30
0.0
 11
327.8388871428824
 21
293.7551975948165
 31
0.0
  0
HATCH
  5
298F
330
18
100
AcDbEntity
  8
ROGO
 62
     4
100
AcDbHatch
 10
0.0
 20
0.0
 30
0.0
210
0.0
220
0.0
230
1.0
  2
SOLID
 70
     1
 71
     1
 91
        2
 92
        7
 72
     0
 73
     1
 93
        8
 10
333.1281185787247
 20
295.3232234716982
 10
332.3254104196129
 20
295.3232234716982
 10
331.6017723839621
 20
294.3197308451567
 10
332.1575276839008
 20
294.3197308451567
 10
332.295303888597
 20
294.5107896324429
 10
332.9294878387479
 20
294.5107896324429
 10
333.0143637225993
 20
294.3197308451567
 10
333.5739097659598
 20
294.3197308451567
 97
        8
330
29A6
330
2991
330
2994
330
2990
330
29A8
330
29A0
330
29A5
330
29A2
 92
       22
 72
     0
 73
     1
 93
        3
 10
332.8399666846314
 20
294.71230509674
 10
332.440620606309
 20
294.71230509674
 10
332.6877343315408
 20
295.0549858141295
 97
        3
330
29A7
330
29A9
330
29A1
 75
     0
 76
     1
 47
0.0128389261915577
 98
        2
 10
333.0652601872435
 20
295.0824714928323
 10
333.0652601872435
 20
295.0824714928323
450
        0
451
        0
460
0.0
461
0.0
452
        0
462
0.0
453
        0
470

  0
LINE
  5
2990
102
{ACAD_REACTORS
330
298F
102
}
330
18
100
AcDbEntity
  8
ROGO
 62
     4
100
AcDbLine
 10
332.295303888597
 20
294.5107896324429
 30
0.0
 11
332.1575276839008
 21
294.3197308451567
 31
0.0
  0
LINE
  5
2991
102
{ACAD_REACTORS
330
298F
102
}
330
18
100
AcDbEntity
  8
ROGO
 62
     4
100
AcDbLine
 10
332.3254104196128
 20
295.3232234716982
 30
0.0
 11
331.601772383962
 21
294.3197308451567
 31
0.0
  0
HATCH
  5
2992
330
18
100
AcDbEntity
  8
ROGO
 62
     4
100
AcDbHatch
 10
0.0
 20
0.0
 30
0.0
210
0.0
220
0.0
230
1.0
  2
SOLID
 70
     1
 71
     1
 91
        1
 92
        1
 93
       12
 72
     1
 10
330.5749733645225
 20
295.3232234716982
 11
331.9322388895636
 21
295.3232234716982
 72
     1
 10
331.9322388895636
 20
295.3232234716982
 11
331.8185012399551
 21
295.0933532465069
 72
     1
 10
331.8185012399551
 20
295.0933532465069
 11
331.1051567773322
 21
295.0933532465069
 72
     1
 10
331.1051567773322
 20
295.0933532465069
 11
331.016228069029
 21
294.9136232953955
 72
     1
 10
331.016228069029
 20
294.9136232953955
 11
331.7295725316518
 21
294.9136232953955
 72
     1
 10
331.7295725316518
 20
294.9136232953955
 11
331.6383844721285
 21
294.7293270676332
 72
     1
 10
331.6383844721285
 20
294.7293270676333
 11
330.9250400095055
 21
294.7293270676332
 72
     1
 10
330.9250400095055
 20
294.7293270676332
 11
330.8361075363882
 21
294.5495895076197
 72
     1
 10
330.8361075363882
 20
294.5495895076197
 11
331.5494519990111
 21
294.5495895076197
 72
     1
 10
331.5494519990111
 20
294.5495895076197
 11
331.435720070533
 21
294.3197308451567
 72
     1
 10
331.435720070533
 20
294.3197308451567
 11
330.0784545454919
 21
294.3197308451567
 72
     1
 10
330.0784545454919
 20
294.3197308451567
 11
330.5749733645225
 21
295.3232234716982
 97
       12
330
2993
330
299E
330
299B
330
299C
330
299A
330
2997
330
2998
330
2995
330
2999
330
2996
330
299D
330
299F
 75
     0
 76
     1
 98
        1
 10
275.0564490562632
 20
225.9361986521271
450
        0
451
        0
460
0.0
461
0.0
452
        0
462
0.0
453
        0
470

  0
LINE
  5
2993
102
{ACAD_REACTORS
330
2992
102
}
330
18
100
AcDbEntity
  8
ROGO
 62
     4
100
AcDbLine
 10
330.5749733645225
 20
295.3232234716982
 30
0.0
 11
331.9322388895636
 21
295.3232234716982
 31
0.0
  0
LINE
  5
2994
102
{ACAD_REACTORS
330
298F
102
}
330
18
100
AcDbEntity
  8
ROGO
 62
     4
100
AcDbLine
 10
331.601772383962
 20
294.3197308451567
 30
0.0
 11
332.1575276839008
 21
294.3197308451567
 31
0.0
  0
LINE
  5
2995
102
{ACAD_REACTORS
330
2992
102
}
330
18
100
AcDbEntity
  8
ROGO
 62
     4
100
AcDbLine
 10
330.9250400095055
 20
294.7293270676332
 30
0.0
 11
330.8361075363882
 21
294.5495895076197
 31
0.0
  0
LINE
  5
2996
102
{ACAD_REACTORS
330
2992
102
}
330
18
100
AcDbEntity
  8
ROGO
 62
     4
100
AcDbLine
 10
331.5494519990111
 20
294.5495895076197
 30
0.0
 11
331.435720070533
 21
294.3197308451567
 31
0.0
  0
LINE
  5
2997
102
{ACAD_REACTORS
330
2992
102
}
330
18
100
AcDbEntity
  8
ROGO
 62
     4
100
AcDbLine
 10
331.7295725316518
 20
294.9136232953955
 30
0.0
 11
331.6383844721285
 21
294.7293270676332
 31
0.0
  0
LINE
  5
2998
102
{ACAD_REACTORS
330
2992
102
}
330
18
100
AcDbEntity
  8
ROGO
 62
     4
100
AcDbLine
 10
330.9250400095055
 20
294.7293270676332
 30
0.0
 11
331.6383844721285
 21
294.7293270676333
 31
0.0
  0
LINE
  5
2999
102
{ACAD_REACTORS
330
2992
102
}
330
18
100
AcDbEntity
  8
ROGO
 62
     4
100
AcDbLine
 10
330.8361075363882
 20
294.5495895076197
 30
0.0
 11
331.5494519990111
 21
294.5495895076197
 31
0.0
  0
LINE
  5
299A
102
{ACAD_REACTORS
330
2992
102
}
330
18
100
AcDbEntity
  8
ROGO
 62
     4
100
AcDbLine
 10
331.016228069029
 20
294.9136232953955
 30
0.0
 11
331.7295725316518
 21
294.9136232953955
 31
0.0
  0
LINE
  5
299B
102
{ACAD_REACTORS
330
2992
102
}
330
18
100
AcDbEntity
  8
ROGO
 62
     4
100
AcDbLine
 10
331.1051567773322
 20
295.0933532465069
 30
0.0
 11
331.8185012399551
 21
295.0933532465069
 31
0.0
  0
LINE
  5
299C
102
{ACAD_REACTORS
330
2992
102
}
330
18
100
AcDbEntity
  8
ROGO
 62
     4
100
AcDbLine
 10
331.1051567773322
 20
295.0933532465069
 30
0.0
 11
331.016228069029
 21
294.9136232953955
 31
0.0
  0
LINE
  5
299D
102
{ACAD_REACTORS
330
2992
102
}
330
18
100
AcDbEntity
  8
ROGO
 62
     4
100
AcDbLine
 10
330.0784545454919
 20
294.3197308451567
 30
0.0
 11
331.435720070533
 21
294.3197308451567
 31
0.0
  0
LINE
  5
299E
102
{ACAD_REACTORS
330
2992
102
}
330
18
100
AcDbEntity
  8
ROGO
 62
     4
100
AcDbLine
 10
331.9322388895636
 20
295.3232234716982
 30
0.0
 11
331.8185012399551
 21
295.0933532465069
 31
0.0
  0
LINE
  5
299F
102
{ACAD_REACTORS
330
2992
102
}
330
18
100
AcDbEntity
  8
ROGO
 62
     4
100
AcDbLine
 10
330.5749733645225
 20
295.3232234716982
 30
0.0
 11
330.0784545454919
 21
294.3197308451567
 31
0.0
  0
LINE
  5
29A0
102
{ACAD_REACTORS
330
298F
102
}
330
18
100
AcDbEntity
  8
ROGO
 62
     4
100
AcDbLine
 10
332.9294878387479
 20
294.5107896324429
 30
0.0
 11
333.0143637225993
 21
294.3197308451567
 31
0.0
  0
LINE
  5
29A1
102
{ACAD_REACTORS
330
298F
102
}
330
18
100
AcDbEntity
  8
ROGO
 62
     4
100
AcDbLine
 10
332.6877343315408
 20
295.0549858141295
 30
0.0
 11
332.8399666846315
 21
294.7123050967399
 31
0.0
  0
LINE
  5
29A2
102
{ACAD_REACTORS
330
298F
102
}
330
18
100
AcDbEntity
  8
ROGO
 62
     4
100
AcDbLine
 10
333.1281185787246
 20
295.3232234716982
 30
0.0
 11
333.5739097659598
 21
294.3197308451567
 31
0.0
  0
SPLINE
  5
29A3
102
{ACAD_REACTORS
330
297E
102
}
330
18
100
AcDbEntity
  8
ROGO
 62
     4
100
AcDbSpline
210
0.0
220
0.0
230
1.0
 70
     8
 71
     3
 72
    16
 73
    12
 74
    10
 42
0.0000000001
 43
0.0000000001
 44
0.0000000001
 40
0.0
 40
0.0
 40
0.0
 40
0.0
 40
0.0959751974448513
 40
0.1428521601879158
 40
0.1659686698352294
 40
0.1903297066319972
 40
0.2252146416534018
 40
0.2569791124192419
 40
0.2901087153977533
 40
0.3456528886639342
 40
0.400630012831368
 40
0.400630012831368
 40
0.400630012831368
 40
0.400630012831368
 10
334.3992648548489
 20
294.9498591529526
 30
0.0
 10
334.3667633003696
 20
294.9449040717054
 30
0.0
 10
334.3183870803625
 20
294.9375287906024
 30
0.0
 10
334.2746404320794
 20
294.9028994251278
 30
0.0
 10
334.2499703598446
 20
294.8822972577239
 30
0.0
 10
334.2415774913622
 20
294.8550141398585
 30
0.0
 10
334.2190368822324
 20
294.8340648934801
 30
0.0
 10
334.2004570087836
 20
294.8052738855933
 30
0.0
 10
334.1960205561713
 20
294.7657289699169
 30
0.0
 10
334.1992770139619
 20
294.7102337074404
 30
0.0
 10
334.2381870736581
 20
294.6987857973539
 30
0.0
 10
334.2575422860286
 20
294.6930912100762
 30
0.0
 11
334.3992648548489
 21
294.9498591529526
 31
0.0
 11
334.3066002309198
 21
294.9248690349725
 31
0.0
 11
334.2684441908645
 21
294.8976373210472
 31
0.0
 11
334.2520916470458
 21
294.8812981861578
 31
0.0
 11
334.24118974221
 21
294.8595126729721
 31
0.0
 11
334.2193862459733
 21
294.8322809590469
 31
0.0
 11
334.2030337021546
 21
294.8050490675648
 31
0.0
 11
334.1975827497367
 21
294.7723709753431
 31
0.0
 11
334.2084846545726
 21
294.7179071923789
 31
0.0
 11
334.2575422860286
 21
294.6930912100762
 31
0.0
  0
SPLINE
  5
29A4
102
{ACAD_REACTORS
330
297E
102
}
330
18
100
AcDbEntity
  8
ROGO
 62
     4
100
AcDbSpline
210
0.0
220
0.0
230
1.0
 70
     8
 71
     3
 72
    26
 73
    22
 74
    20
 42
0.0000000001
 43
0.0000000001
 44
0.0000000001
 40
0.0
 40
0.0
 40
0.0
 40
0.0
 40
0.1820450591292226
 40
0.3039101300786076
 40
0.3917847705456432
 40
0.4573979212329786
 40
0.5425016213279394
 40
0.604619025864254
 40
0.716788580173203
 40
0.8080929847628938
 40
0.8701946098360517
 40
0.9310884328104698
 40
1.040015643625253
 40
1.117040182671343
 40
1.158523847892436
 40
1.217450168930034
 40
1.260002187532959
 40
1.321646013851026
 40
1.356531087476309
 40
1.432444920747885
 40
1.467107836477287
 40
1.467107836477287
 40
1.467107836477287
 40
1.467107836477287
 10
334.2084846545727
 20
295.3232234716982
 30
0.0
 10
334.1466957487526
 20
295.3195370396201
 30
0.0
 10
334.0435439549328
 20
295.3133828267139
 30
0.0
 10
333.9302839128202
 20
295.2445785674535
 30
0.0
 10
333.8473029753623
 20
295.2045787947152
 30
0.0
 10
333.7881210714028
 20
295.1502025114343
 30
0.0
 10
333.7447404958947
 20
295.0940357829174
 30
0.0
 10
333.6900511366243
 20
295.0271135377142
 30
0.0
 10
333.6454535268889
 20
294.9491852912577
 30
0.0
 10
333.6227426755142
 20
294.8632947781856
 30
0.0
 10
333.6026256189156
 20
294.7948395409146
 30
0.0
 10
333.5877064729639
 20
294.7185551125668
 30
0.0
 10
333.5915023260497
 20
294.6361410944927
 30
0.0
 10
333.5969381613905
 20
294.5595991736644
 30
0.0
 10
333.6212078443675
 20
294.5049597020904
 30
0.0
 10
333.6488467143765
 20
294.4660601634909
 30
0.0
 10
333.6826901321901
 20
294.4232166343125
 30
0.0
 10
333.7197222322261
 20
294.3948415036702
 30
0.0
 10
333.7503508017261
 20
294.3434380477492
 30
0.0
 10
333.8039650794009
 20
294.3368785960494
 30
0.0
 10
333.8380444472538
 20
294.3238233294325
 30
0.0
 10
333.8487274368215
 20
294.3197308451567
 30
0.0
 11
334.2084846545727
 21
295.3232234716982
 31
0.0
 11
334.0286060456971
 21
295.2952218713449
 31
0.0
 11
333.919588564514
 21
295.2407582659375
 31
0.0
 11
333.8432764844035
 21
295.1971874171229
 31
0.0
 11
333.7942188529475
 21
295.1536163907516
 31
0.0
 11
333.7397102690736
 21
295.0882600287513
 31
0.0
 11
333.7015542290184
 21
295.0392428016404
 31
0.0
 11
333.6470453317092
 21
294.9412081698617
 31
0.0
 11
333.6197911964898
 21
294.8540662946758
 31
0.0
 11
333.6034386526712
 21
294.794156310972
 31
0.0
 11
333.5925367478353
 21
294.7342463272682
 31
0.0
 11
333.5925367478353
 21
294.6253191164534
 31
0.0
 11
333.6034386526712
 21
294.5490699978604
 31
0.0
 11
333.6197911964898
 21
294.5109453497855
 31
0.0
 11
333.6524962841271
 21
294.4619281226744
 31
0.0
 11
333.6797507327818
 21
294.4292498528959
 31
0.0
 11
333.7233574118197
 21
294.3856790040814
 31
0.0
 11
333.7451609080564
 21
294.3584471125993
 31
0.0
 11
333.816022349184
 21
294.331215398674
 31
0.0
 11
333.8487274368215
 21
294.3197308451567
 31
0.0
  0
LINE
  5
29A5
102
{ACAD_REACTORS
330
298F
102
}
330
18
100
AcDbEntity
  8
ROGO
 62
     4
100
AcDbLine
 10
333.5739097659598
 20
294.3197308451567
 30
0.0
 11
333.0143637225993
 21
294.3197308451567
 31
0.0
  0
LINE
  5
29A6
102
{ACAD_REACTORS
330
298F
102
}
330
18
100
AcDbEntity
  8
ROGO
 62
     4
100
AcDbLine
 10
332.3254104196128
 20
295.3232234716982
 30
0.0
 11
333.1281185787246
 21
295.3232234716982
 31
0.0
  0
LINE
  5
29A7
102
{ACAD_REACTORS
330
298F
102
}
330
18
100
AcDbEntity
  8
ROGO
 62
     4
100
AcDbLine
 10
332.440620606309
 20
294.71230509674
 30
0.0
 11
332.8399666846315
 21
294.71230509674
 31
0.0
  0
LINE
  5
29A8
102
{ACAD_REACTORS
330
298F
102
}
330
18
100
AcDbEntity
  8
ROGO
 62
     4
100
AcDbLine
 10
332.295303888597
 20
294.5107896324429
 30
0.0
 11
332.9294878387479
 21
294.5107896324429
 31
0.0
  0
LINE
  5
29A9
102
{ACAD_REACTORS
330
298F
102
}
330
18
100
AcDbEntity
  8
ROGO
 62
     4
100
AcDbLine
 10
332.6877343315408
 20
295.0549858141295
 30
0.0
 11
332.440620606309
 21
294.7123050967399
 31
0.0
  0
TEXT
  5
29AA
330
18
100
AcDbEntity
  8
文字
100
AcDbText
 10
325.6515219193888
 20
298.8653404112868
 30
0.0
 40
2.299999999999999
  1
10
  7
STYLE3
100
AcDbText
  0
TEXT
  5
29AB
330
18
100
AcDbEntity
  8
文字
100
AcDbText
 10
332.4602293430725
 20
300.1109366225512
 30
0.0
 40
2.299999999999999
  1
0
  7
STYLE3
100
AcDbText
  0
POINT
  5
29AC
330
18
100
AcDbEntity
  8
DEFPOINTS
  6
ByBlock
 62
     0
100
AcDbPoint
 10
333.650294025446
 20
303.2208138622201
 30
0.0
  0
POINT
  5
29AD
330
18
100
AcDbEntity
  8
DEFPOINTS
  6
ByBlock
 62
     0
100
AcDbPoint
 10
333.650294025446
 20
303.2208138622201
 30
0.0
  0
HATCH
  5
29AE
330
18
100
AcDbEntity
  8
ROGO
 62
     4
100
AcDbHatch
 10
0.0
 20
0.0
 30
0.0
210
0.0
220
0.0
230
1.0
  2
SOLID
 70
     1
 71
     1
 91
        1
 92
        7
 72
     0
 73
     1
 93
       11
 10
339.0937645463462
 20
295.0405190211512
 10
339.2347301158929
 20
295.3232234716982
 10
338.6569382492109
 20
295.3232234716982
 10
337.875069904476
 20
293.7551975948165
 10
338.4528617711581
 20
293.7551975948164
 10
338.6569382492109
 20
294.1644700773315
 10
338.8610147272637
 20
293.7551975948165
 10
339.4387939523242
 20
293.7551975948166
 10
339.0478597799569
 20
294.5392105332573
 10
339.9976785946055
 20
295.3232234716982
 10
339.4198993695447
 20
295.3232234716982
 97
       11
330
29CB
330
29AF
330
29C1
330
29C3
330
29C2
330
2984
330
29BF
330
29C0
330
29B0
330
29B2
330
29B1
 75
     0
 76
     1
 47
0.015942268611278
 98
        1
 10
338.9688345557845
 20
294.814525714634
450
        0
451
        0
460
0.0
461
0.0
452
        0
462
0.0
453
        0
470

  0
LINE
  5
29AF
102
{ACAD_REACTORS
330
29AE
102
}
330
18
100
AcDbEntity
  8
ROGO
 62
     4
100
AcDbLine
 10
339.0937645463464
 20
295.0405190211514
 30
0.0
 11
339.4198993695447
 21
295.3232234716982
 31
0.0
  0
LINE
  5
29B0
102
{ACAD_REACTORS
330
29AE
102
}
330
18
100
AcDbEntity
  8
ROGO
 62
     4
100
AcDbLine
 10
338.8610147272636
 20
293.7551975948165
 30
0.0
 11
339.4387939523241
 21
293.7551975948165
 31
0.0
  0
LINE
  5
29B1
102
{ACAD_REACTORS
330
29AE
102
}
330
18
100
AcDbEntity
  8
ROGO
 62
     4
100
AcDbLine
 10
339.0478597799569
 20
294.5392105332573
 30
0.0
 11
339.9976785946055
 21
295.3232234716982
 31
0.0
  0
LINE
  5
29B2
102
{ACAD_REACTORS
330
29AE
102
}
330
18
100
AcDbEntity
  8
ROGO
 62
     4
100
AcDbLine
 10
339.0478597799569
 20
294.5392105332573
 30
0.0
 11
339.4387939523241
 21
293.7551975948165
 31
0.0
  0
HATCH
  5
29B3
330
18
100
AcDbEntity
  8
ROGO
 62
     4
100
AcDbHatch
 10
0.0
 20
0.0
 30
0.0
210
0.0
220
0.0
230
1.0
  2
SOLID
 70
     1
 71
     0
 91
        1
 92
        5
 93
        8
 72
     4
 94
        3
 73
     0
 74
     0
 95
       26
 96
       22
 40
0.0
 40
0.0
 40
0.0
 40
0.0
 40
0.1820450591292226
 40
0.303910130078506
 40
0.3917847705456402
 40
0.4573979212328906
 40
0.5425016213278515
 40
0.6046190258642359
 40
0.7167885801732346
 40
0.8080929847628372
 40
0.870194609835995
 40
0.9310884328104133
 40
1.040015643625197
 40
1.117040182671286
 40
1.158523847892432
 40
1.217450168929983
 40
1.260002187532834
 40
1.321646013850941
 40
1.35653108747611
 40
1.432444920747918
 40
1.467107836477301
 40
1.467107836477301
 40
1.467107836477301
 40
1.467107836477301
 10
337.4418271582872
 20
295.3232234716982
 10
337.3800382524671
 20
295.3195370396202
 10
337.2768864586472
 20
295.3133828267141
 10
337.1636264165347
 20
295.2445785674533
 10
337.0806454790767
 20
295.2045787947153
 10
337.0214635751173
 20
295.1502025114342
 10
336.9780829996092
 20
295.0940357829173
 10
336.9233936403387
 20
295.0271135377144
 10
336.8787960306033
 20
294.9491852912576
 10
336.8560851792287
 20
294.8632947781856
 10
336.8359681226302
 20
294.7948395409147
 10
336.8210489766785
 20
294.7185551125668
 10
336.8248448297641
 20
294.6361410944927
 10
336.8302806651052
 20
294.5595991736646
 10
336.8545503480818
 20
294.5049597020902
 10
336.8821892180911
 20
294.466060163491
 10
336.9160326359046
 20
294.4232166343124
 10
336.9530647359406
 20
294.3948415036702
 10
336.9836933054405
 20
294.3434380477491
 10
337.0373075831152
 20
294.3368785960492
 10
337.0713869509683
 20
294.3238233294324
 10
337.082069940536
 20
294.3197308451567
 72
     1
 10
337.0820699405359
 20
294.3197308451567
 11
337.9463913498106
 21
294.3197308451566
 72
     1
 10
337.9463913498106
 20
294.3197308451566
 11
338.1325608861768
 21
294.6930912100762
 72
     1
 10
338.1325608861768
 20
294.6930912100762
 11
337.4908847897431
 21
294.6930912100762
 72
     4
 94
        3
 73
     0
 74
     0
 95
       16
 96
       12
 40
0.0
 40
0.0
 40
0.0
 40
0.0
 40
0.0549771241674081
 40
0.1105212974336671
 40
0.1436509004121224
 40
0.1754153711780113
 40
0.2103003061994158
 40
0.2346613429962854
 40
0.2577778526434784
 40
0.3046548153863909
 40
0.400630012831352
 40
0.400630012831352
 40
0.400630012831352
 40
0.400630012831352
 10
337.4908847897431
 20
294.6930912100762
 10
337.4715295773727
 20
294.6987857973539
 10
337.4326195176765
 20
294.7102337074404
 10
337.4293630598858
 20
294.7657289699169
 10
337.4337995124979
 20
294.8052738855933
 10
337.4523793859469
 20
294.8340648934801
 10
337.4749199950764
 20
294.8550141398586
 10
337.4833128635593
 20
294.8822972577239
 10
337.5079829357939
 20
294.9028994251278
 10
337.5517295840769
 20
294.9375287906025
 10
337.6001058040841
 20
294.9449040717055
 10
337.6326073585634
 20
294.9498591529526
 72
     1
 10
337.6326073585634
 20
294.9498591529525
 11
338.2605936753277
 21
294.9498591529525
 72
     1
 10
338.2605936753277
 20
294.9498591529525
 11
338.4467651831992
 21
295.3232234716982
 72
     1
 10
338.4467651831992
 20
295.3232234716982
 11
337.4418271582869
 21
295.3232234716982
 97
        0
 75
     0
 76
     1
 47
0.0514683685270805
 98
        1
 10
337.6152352583555
 20
295.1394805586034
450
        0
451
        0
460
0.0
461
0.0
452
        0
462
0.0
453
        0
470

  0
SPLINE
  5
29B4
330
18
100
AcDbEntity
  8
ROGO
 62
     4
100
AcDbSpline
210
0.0
220
0.0
230
1.0
 70
     8
 71
     3
 72
    26
 73
    22
 74
    20
 42
0.0000000001
 43
0.0000000001
 44
0.0000000001
 40
0.0
 40
0.0
 40
0.0
 40
0.0
 40
0.1820450591292226
 40
0.303910130078506
 40
0.3917847705456402
 40
0.4573979212328906
 40
0.5425016213278515
 40
0.6046190258642359
 40
0.7167885801732346
 40
0.8080929847628372
 40
0.870194609835995
 40
0.9310884328104133
 40
1.040015643625197
 40
1.117040182671286
 40
1.158523847892432
 40
1.217450168929983
 40
1.260002187532834
 40
1.321646013850941
 40
1.35653108747611
 40
1.432444920747918
 40
1.467107836477301
 40
1.467107836477301
 40
1.467107836477301
 40
1.467107836477301
 10
337.4418271582872
 20
295.3232234716982
 30
0.0
 10
337.3800382524671
 20
295.3195370396202
 30
0.0
 10
337.2768864586472
 20
295.3133828267141
 30
0.0
 10
337.1636264165346
 20
295.2445785674533
 30
0.0
 10
337.0806454790768
 20
295.2045787947153
 30
0.0
 10
337.0214635751173
 20
295.1502025114342
 30
0.0
 10
336.9780829996092
 20
295.0940357829173
 30
0.0
 10
336.9233936403388
 20
295.0271135377144
 30
0.0
 10
336.8787960306033
 20
294.9491852912576
 30
0.0
 10
336.8560851792288
 20
294.8632947781856
 30
0.0
 10
336.8359681226301
 20
294.7948395409147
 30
0.0
 10
336.8210489766785
 20
294.7185551125668
 30
0.0
 10
336.8248448297642
 20
294.6361410944927
 30
0.0
 10
336.8302806651052
 20
294.5595991736646
 30
0.0
 10
336.8545503480818
 20
294.5049597020902
 30
0.0
 10
336.8821892180911
 20
294.466060163491
 30
0.0
 10
336.9160326359045
 20
294.4232166343124
 30
0.0
 10
336.9530647359406
 20
294.3948415036702
 30
0.0
 10
336.9836933054405
 20
294.3434380477491
 30
0.0
 10
337.0373075831153
 20
294.3368785960492
 30
0.0
 10
337.0713869509683
 20
294.3238233294324
 30
0.0
 10
337.082069940536
 20
294.3197308451567
 30
0.0
 11
337.4418271582872
 21
295.3232234716982
 31
0.0
 11
337.2619485494116
 21
295.2952218713449
 31
0.0
 11
337.1529310682285
 21
295.2407582659375
 31
0.0
 11
337.0766189881179
 21
295.1971874171229
 31
0.0
 11
337.027561356662
 21
295.1536163907516
 31
0.0
 11
336.9730527727881
 21
295.0882600287513
 31
0.0
 11
336.9348967327328
 21
295.0392428016404
 31
0.0
 11
336.8803878354236
 21
294.9412081698616
 31
0.0
 11
336.8531337002043
 21
294.8540662946758
 31
0.0
 11
336.8367811563857
 21
294.794156310972
 31
0.0
 11
336.8258792515498
 21
294.7342463272682
 31
0.0
 11
336.8258792515498
 21
294.6253191164534
 31
0.0
 11
336.8367811563857
 21
294.5490699978604
 31
0.0
 11
336.8531337002043
 21
294.5109453497854
 31
0.0
 11
336.8858387878417
 21
294.4619281226744
 31
0.0
 11
336.9130932364962
 21
294.4292498528959
 31
0.0
 11
336.9566999155341
 21
294.3856790040813
 31
0.0
 11
336.9785034117708
 21
294.3584471125993
 31
0.0
 11
337.0493648528986
 21
294.331215398674
 31
0.0
 11
337.082069940536
 21
294.3197308451567
 31
0.0
  0
HATCH
  5
29B5
330
18
100
AcDbEntity
  8
ROGO
 62
     4
100
AcDbHatch
 10
0.0
 20
0.0
 30
0.0
210
0.0
220
0.0
230
1.0
  2
SOLID
 70
     1
 71
     1
 91
        1
 92
        5
 93
        6
 72
     4
 94
        3
 73
     0
 74
     0
 95
       38
 96
       34
 40
0.0
 40
0.0
 40
0.0
 40
0.0
 40
0.1381411645978196
 40
0.1815252235243583
 40
0.2372707895177101
 40
0.2837255187759409
 40
0.3229214174167573
 40
0.3749825157938131
 40
0.4015836852021079
 40
0.4315435844391638
 40
0.4756988380844737
 40
0.5257171590665433
 40
0.5581635540344408
 40
0.5934112239656189
 40
0.6325930247227455
 40
0.6920533927879421
 40
0.7485469431883099
 40
0.7748105128307479
 40
0.8047606006230108
 40
0.8402415640154924
 40
0.8654994505218706
 40
0.8866728334845303
 40
0.916903641084051
 40
0.9501221201288705
 40
0.983340414218677
 40
1.012406467785982
 40
1.078972897023472
 40
1.105236466665856
 40
1.157763637147931
 40
1.204195319162552
 40
1.29308529337311
 40
1.402766317642609
 40
1.561161677362905
 40
1.561161677362905
 40
1.561161677362905
 40
1.561161677362905
 10
335.7706896000824
 20
295.3274091094944
 10
335.724643009322
 20
295.3241562424405
 10
335.664135211341
 20
295.3198817930338
 10
335.5873044559937
 20
295.2988324567005
 10
335.5454231939174
 20
295.2737559190289
 10
335.5018373695407
 20
295.255323461846
 10
335.4646763948715
 20
295.2280286479968
 10
335.427088853521
 20
295.2139638933857
 10
335.4007689064498
 20
295.1886026268771
 10
335.370305714593
 20
295.1731108706821
 10
335.3460473340584
 20
295.1384358165324
 10
335.3189333449962
 20
295.1060158974185
 10
335.2874777066209
 20
295.0823508023387
 10
335.2616616420434
 20
295.0574955287069
 10
335.237978992483
 20
295.0191363733326
 10
335.2239625405244
 20
294.9681684145307
 10
335.1844525151405
 20
294.9359890834438
 10
335.1785035423639
 20
294.8972999258649
 10
335.1566493424668
 20
294.8744739739364
 10
335.1471463720151
 20
294.8450089492297
 10
335.1435271834428
 20
294.8180137819869
 10
335.1391832941604
 20
294.7928021645309
 10
335.1278205024687
 20
294.7662806566406
 10
335.1315293568812
 20
294.7335196050555
 10
335.1304728156065
 20
294.701795991413
 10
335.1310945913871
 20
294.6589681251459
 10
335.1288505164847
 20
294.617269930605
 10
335.146746134421
 20
294.5718924048551
 10
335.1573361672235
 20
294.5314446184244
 10
335.1863386947548
 20
294.4754397532625
 10
335.2363674469593
 20
294.4108222482628
 10
335.3315013040847
 20
294.3323888400489
 10
335.4229752891829
 20
294.3244321358842
 10
335.4770235218508
 20
294.3197308451567
 72
     1
 10
335.4770235218508
 20
294.3197308451567
 11
336.0505130587636
 21
294.3197308451566
 72
     4
 94
        3
 73
     0
 74
     0
 95
       11
 96
        7
 40
0.1647869275458135
 40
0.1647869275458135
 40
0.1647869275458135
 40
0.1647869275458135
 40
0.2545010798212315
 40
0.5111620267764023
 40
0.7602998271033902
 40
0.8850764140209603
 40
0.8850764140209603
 40
0.8850764140209603
 40
0.8850764140209603
 10
336.0505130587647
 20
294.3197308451567
 10
336.0585155834765
 20
294.3195766195986
 10
336.0894123285365
 20
294.3189811740462
 10
336.1422152361972
 20
294.3265669324929
 10
336.1977709293155
 20
294.3338362120616
 10
336.2308917101135
 20
294.3391302090196
 10
336.2415739770164
 20
294.3421036220836
 72
     4
 94
        3
 73
     0
 74
     0
 95
        9
 96
        5
 40
0.0
 40
0.0
 40
0.0
 40
0.0
 40
0.0867962262967473
 40
0.2034991705256571
 40
0.2034991705256571
 40
0.2034991705256571
 40
0.2034991705256571
 10
336.2415739770164
 20
294.3421036220836
 10
336.2694554361263
 20
294.3506337738944
 10
336.3348252574192
 20
294.3706332472818
 10
336.3888357043204
 20
294.4129023843374
 10
336.419809679085
 20
294.4371429388894
 72
     4
 94
        3
 73
     0
 74
     0
 95
       25
 96
       21
 40
0.0
 40
0.0
 40
0.0
 40
0.0
 40
0.165525918914855
 40
0.3412380755365305
 40
0.5940540902285263
 40
0.7697671103696209
 40
0.9377330196075423
 40
1.11479469302833
 40
1.274661249598185
 40
1.574522170874768
 40
1.815540668866877
 40
2.15849091873445
 40
2.536227739636605
 40
2.738070817316548
 40
2.925680654369045
 40
3.162706124480894
 40
3.395643218188267
 40
3.648478129958861
 40
3.928509979727306
 40
4.337226830236035
 40
4.337226830236035
 40
4.337226830236035
 40
4.337226830236035
 10
336.419809679085
 20
294.4371429388894
 10
336.4311905034986
 20
294.4465476333133
 10
336.4527768158023
 20
294.46891557774
 10
336.4910636951701
 20
294.5051690320621
 10
336.5248028193105
 20
294.5474071832485
 10
336.56642245799
 20
294.5816397244877
 10
336.5880895117645
 20
294.6234915437685
 10
336.619320859442
 20
294.6564071081871
 10
336.6455188459748
 20
294.7072419506199
 10
336.667746542741
 20
294.7656350808212
 10
336.6889375823421
 20
294.8417494163105
 10
336.6970582073292
 20
294.9276177006013
 10
336.685038672464
 20
295.0106952225596
 10
336.6560025146511
 20
295.0727929413339
 10
336.6346554997801
 20
295.1245449899425
 10
336.6022587302953
 20
295.1735632921712
 10
336.5652983949557
 20
295.226876116694
 10
336.5132278271712
 20
295.2709744537039
 10
336.4451769412842
 20
295.3241641542088
 10
336.3817926224014
 20
295.3262006270018
 10
336.3441791369964
 20
295.3274091094944
 72
     1
 10
336.3441791369964
 20
295.3274091094944
 11
335.7706896000825
 21
295.3274091094944
 97
        6
330
29BB
330
29BA
330
29BC
330
29B9
330
29B8
330
29B7
 75
     0
 76
     1
 47
0.088756267210375
 98
        1
 10
335.9425481061616
 20
295.0490843347962
450
        0
451
        0
460
0.0
461
0.0
452
        0
462
0.0
453
        0
470

  0
ELLIPSE
  5
29B6
330
18
100
AcDbEntity
  8
ROGO
 62
     4
100
AcDbEllipse
 10
335.9024806334787
 20
294.8095204017036
 30
0.0
 11
0.1362434464093806
 21
0.1198090624587669
 31
0.0
210
0.0
220
0.0
230
1.0
 40
0.6788083417438794
 41
0.0
 42
6.283185307179586
  0
SPLINE
  5
29B7
102
{ACAD_REACTORS
330
29B5
102
}
330
18
100
AcDbEntity
  8
ROGO
 62
     4
100
AcDbSpline
210
0.0
220
0.0
230
1.0
 70
     8
 71
     3
 72
     9
 73
     5
 74
     3
 42
0.0000000001
 43
0.0000000001
 44
0.0000000001
 40
0.0
 40
0.0
 40
0.0
 40
0.0
 40
0.0867962262967473
 40
0.2034991705256571
 40
0.2034991705256571
 40
0.2034991705256571
 40
0.2034991705256571
 10
336.2415739770164
 20
294.3421036220836
 30
0.0
 10
336.2694554361263
 20
294.3506337738944
 30
0.0
 10
336.3348252574192
 20
294.3706332472818
 30
0.0
 10
336.3888357043204
 20
294.4129023843374
 30
0.0
 10
336.419809679085
 20
294.4371429388894
 30
0.0
 11
336.2415739770164
 21
294.3421036220836
 31
0.0
 11
336.3231518762142
 21
294.3717453369769
 31
0.0
 11
336.419809679085
 21
294.4371429388894
 31
0.0
  0
SPLINE
  5
29B8
102
{ACAD_REACTORS
330
29B5
102
}
330
18
100
AcDbEntity
  8
ROGO
 62
     4
100
AcDbSpline
210
0.0
220
0.0
230
1.0
 70
     8
 71
     3
 72
    11
 73
     7
 74
     0
 42
0.0000000001
 43
0.0000000001
 40
0.1647869275458134
 40
0.1647869275458134
 40
0.1647869275458134
 40
0.1647869275458134
 40
0.2895635144633836
 40
0.5387013147903714
 40
0.7953622617455423
 40
0.8850764140209602
 40
0.8850764140209602
 40
0.8850764140209602
 40
0.8850764140209602
 10
336.2415739770164
 20
294.3421036220836
 30
0.0
 10
336.2308917101135
 20
294.3391302090196
 30
0.0
 10
336.1977709293155
 20
294.3338362120616
 30
0.0
 10
336.1422152361972
 20
294.3265669324929
 30
0.0
 10
336.0894123285365
 20
294.3189811740462
 30
0.0
 10
336.0585155834765
 20
294.3195766195986
 30
0.0
 10
336.0505130587647
 20
294.3197308451567
 30
0.0
  0
LINE
  5
29B9
102
{ACAD_REACTORS
330
29B5
102
}
330
18
100
AcDbEntity
  8
ROGO
 62
     4
100
AcDbLine
 10
335.4770235218506
 20
294.3197308451567
 30
0.0
 11
336.0505130587646
 21
294.3197308451567
 31
0.0
  0
LINE
  5
29BA
102
{ACAD_REACTORS
330
29B5
102
}
330
18
100
AcDbEntity
  8
ROGO
 62
     4
100
AcDbLine
 10
335.7706896000824
 20
295.3274091094944
 30
0.0
 11
336.3441791369964
 21
295.3274091094944
 31
0.0
  0
SPLINE
  5
29BB
102
{ACAD_REACTORS
330
29B5
102
}
330
18
100
AcDbEntity
  8
ROGO
 62
     4
100
AcDbSpline
210
0.0
220
0.0
230
1.0
 70
     8
 71
     3
 72
    25
 73
    21
 74
     0
 42
0.0000000001
 43
0.0000000001
 40
0.0
 40
0.0
 40
0.0
 40
0.0
 40
0.4087168505087288
 40
0.6887487002771746
 40
0.9415836120477687
 40
1.17452070575514
 40
1.41154617586699
 40
1.599156012919487
 40
1.80099909059943
 40
2.178735911501585
 40
2.521686161369157
 40
2.762704659361267
 40
3.06256558063785
 40
3.222432137207705
 40
3.399493810628493
 40
3.567459719866414
 40
3.743172740007509
 40
3.995988754699505
 40
4.17170091132118
 40
4.337226830236035
 40
4.337226830236035
 40
4.337226830236035
 40
4.337226830236035
 10
336.3441791369964
 20
295.3274091094944
 30
0.0
 10
336.3817926224014
 20
295.3262006270018
 30
0.0
 10
336.4451769412842
 20
295.3241641542088
 30
0.0
 10
336.5132278271712
 20
295.2709744537039
 30
0.0
 10
336.5652983949557
 20
295.226876116694
 30
0.0
 10
336.6022587302953
 20
295.1735632921712
 30
0.0
 10
336.6346554997801
 20
295.1245449899425
 30
0.0
 10
336.6560025146511
 20
295.0727929413339
 30
0.0
 10
336.685038672464
 20
295.0106952225596
 30
0.0
 10
336.6970582073292
 20
294.9276177006013
 30
0.0
 10
336.6889375823421
 20
294.8417494163105
 30
0.0
 10
336.667746542741
 20
294.7656350808212
 30
0.0
 10
336.6455188459748
 20
294.7072419506199
 30
0.0
 10
336.619320859442
 20
294.6564071081871
 30
0.0
 10
336.5880895117645
 20
294.6234915437685
 30
0.0
 10
336.56642245799
 20
294.5816397244877
 30
0.0
 10
336.5248028193105
 20
294.5474071832485
 30
0.0
 10
336.4910636951701
 20
294.5051690320621
 30
0.0
 10
336.4527768158023
 20
294.46891557774
 30
0.0
 10
336.4311905034986
 20
294.4465476333133
 30
0.0
 10
336.419809679085
 20
294.4371429388894
 30
0.0
  0
SPLINE
  5
29BC
102
{ACAD_REACTORS
330
29B5
102
}
330
18
100
AcDbEntity
  8
ROGO
 62
     4
100
AcDbSpline
210
0.0
220
0.0
230
1.0
 70
     8
 71
     3
 72
    38
 73
    34
 74
    32
 42
0.0000000001
 43
0.0000000001
 44
0.0000000001
 40
0.0
 40
0.0
 40
0.0
 40
0.0
 40
0.1381411645978196
 40
0.1815252235243583
 40
0.2372707895177101
 40
0.2837255187759409
 40
0.3229214174167573
 40
0.3749825157938131
 40
0.4015836852021079
 40
0.4315435844391638
 40
0.4756988380844737
 40
0.5257171590665433
 40
0.5581635540344408
 40
0.5934112239656189
 40
0.6325930247227455
 40
0.6920533927879421
 40
0.7485469431883099
 40
0.7748105128307479
 40
0.8047606006230108
 40
0.8402415640154924
 40
0.8654994505218706
 40
0.8866728334845303
 40
0.916903641084051
 40
0.9501221201288705
 40
0.983340414218677
 40
1.012406467785982
 40
1.078972897023472
 40
1.105236466665856
 40
1.157763637147931
 40
1.204195319162552
 40
1.29308529337311
 40
1.402766317642609
 40
1.561161677362905
 40
1.561161677362905
 40
1.561161677362905
 40
1.561161677362905
 10
335.7706896000824
 20
295.3274091094944
 30
0.0
 10
335.724643009322
 20
295.3241562424405
 30
0.0
 10
335.664135211341
 20
295.3198817930338
 30
0.0
 10
335.5873044559937
 20
295.2988324567005
 30
0.0
 10
335.5454231939174
 20
295.2737559190289
 30
0.0
 10
335.5018373695407
 20
295.255323461846
 30
0.0
 10
335.4646763948715
 20
295.2280286479968
 30
0.0
 10
335.427088853521
 20
295.2139638933857
 30
0.0
 10
335.4007689064498
 20
295.1886026268771
 30
0.0
 10
335.370305714593
 20
295.1731108706821
 30
0.0
 10
335.3460473340584
 20
295.1384358165324
 30
0.0
 10
335.3189333449962
 20
295.1060158974185
 30
0.0
 10
335.2874777066209
 20
295.0823508023387
 30
0.0
 10
335.2616616420434
 20
295.0574955287069
 30
0.0
 10
335.237978992483
 20
295.0191363733326
 30
0.0
 10
335.2239625405244
 20
294.9681684145307
 30
0.0
 10
335.1844525151405
 20
294.9359890834438
 30
0.0
 10
335.1785035423639
 20
294.8972999258649
 30
0.0
 10
335.1566493424668
 20
294.8744739739364
 30
0.0
 10
335.1471463720151
 20
294.8450089492297
 30
0.0
 10
335.1435271834428
 20
294.8180137819869
 30
0.0
 10
335.1391832941604
 20
294.7928021645309
 30
0.0
 10
335.1278205024687
 20
294.7662806566406
 30
0.0
 10
335.1315293568812
 20
294.7335196050555
 30
0.0
 10
335.1304728156065
 20
294.701795991413
 30
0.0
 10
335.1310945913871
 20
294.6589681251459
 30
0.0
 10
335.1288505164847
 20
294.617269930605
 30
0.0
 10
335.146746134421
 20
294.5718924048551
 30
0.0
 10
335.1573361672235
 20
294.5314446184244
 30
0.0
 10
335.1863386947548
 20
294.4754397532625
 30
0.0
 10
335.2363674469593
 20
294.4108222482628
 30
0.0
 10
335.3315013040847
 20
294.3323888400489
 30
0.0
 10
335.4229752891829
 20
294.3244321358842
 30
0.0
 10
335.4770235218508
 20
294.3197308451567
 30
0.0
 11
335.7706896000824
 21
295.3274091094944
 31
0.0
 11
335.6335505777476
 21
295.3107997774946
 31
0.0
 11
335.5919933081461
 21
295.2983430559271
 31
0.0
 11
335.5421247805211
 21
295.2734292428823
 31
0.0
 11
335.5005675109195
 21
295.2526678553149
 31
0.0
 11
335.4673218258362
 21
295.2319062827926
 31
0.0
 11
335.421608927223
 21
295.2069926547027
 31
0.0
 11
335.4008301291747
 21
295.1903835076578
 31
0.0
 11
335.3758957021148
 21
295.1737741756578
 31
0.0
 11
335.3468056460432
 21
295.1405558815681
 31
0.0
 11
335.3135599609598
 21
295.1031853469558
 31
0.0
 11
335.2886255338999
 21
295.0824237744334
 31
0.0
 11
335.2636914333349
 21
295.0575101463437
 31
0.0
 11
335.2429126352866
 21
295.0242918522538
 31
0.0
 11
335.2179785347218
 21
294.9703119856416
 31
0.0
 11
335.1847325231433
 21
294.9246367850295
 31
0.0
 11
335.17642126512
 21
294.8997229719846
 31
0.0
 11
335.1597984225784
 21
294.8748093438947
 31
0.0
 11
335.1473312090484
 21
294.8415908648499
 31
0.0
 11
335.1431752535418
 21
294.8166772367601
 31
0.0
 11
335.1390196245301
 21
294.7959156642377
 31
0.0
 11
335.1307083665069
 21
294.7668497956254
 31
0.0
 11
335.1307083665069
 21
294.7336313165806
 31
0.0
 11
335.1307083665069
 21
294.7004130224907
 31
0.0
 11
335.1307083665069
 21
294.6713469689234
 31
0.0
 11
335.1348639955185
 21
294.6049103807439
 31
0.0
 11
335.1431752535418
 21
294.579996567699
 31
0.0
 11
335.1597984225784
 21
294.5301691265643
 31
0.0
 11
335.1805768941316
 21
294.4886461664745
 31
0.0
 11
335.2346013772632
 21
294.4180573377725
 31
0.0
 11
335.3218715454781
 21
294.3516205646379
 31
0.0
 11
335.4770235218508
 21
294.3197308451567
 31
0.0
  0
LINE
  5
29BD
102
{ACAD_REACTORS
330
297E
102
}
330
18
100
AcDbEntity
  8
ROGO
 62
     4
100
AcDbLine
 10
334.8992183824625
 20
294.6930912100762
 30
0.0
 11
334.7130488460964
 21
294.3197308451567
 31
0.0
  0
LINE
  5
29BE
102
{ACAD_REACTORS
330
297E
102
}
330
18
100
AcDbEntity
  8
ROGO
 62
     4
100
AcDbLine
 10
335.2134226794846
 20
295.3232234716982
 30
0.0
 11
335.0272511716132
 21
294.9498591529526
 31
0.0
  0
LINE
  5
29BF
102
{ACAD_REACTORS
330
29AE
102
}
330
18
100
AcDbEntity
  8
ROGO
 62
     4
100
AcDbLine
 10
338.6569382492109
 20
294.1644700773315
 30
0.0
 11
338.4528617711582
 21
293.7551975948165
 31
0.0
  0
LINE
  5
29C0
102
{ACAD_REACTORS
330
29AE
102
}
330
18
100
AcDbEntity
  8
ROGO
 62
     4
100
AcDbLine
 10
338.6569382492109
 20
294.1644700773315
 30
0.0
 11
338.8610147272636
 21
293.7551975948165
 31
0.0
  0
LINE
  5
29C1
102
{ACAD_REACTORS
330
29AE
102
}
330
18
100
AcDbEntity
  8
ROGO
 62
     4
100
AcDbLine
 10
339.2347301158929
 20
295.3232234716982
 30
0.0
 11
339.0937645463464
 21
295.0405190211514
 31
0.0
  0
LINE
  5
29C2
102
{ACAD_REACTORS
330
29AE
102
}
330
18
100
AcDbEntity
  8
ROGO
 62
     4
100
AcDbLine
 10
338.6569382492109
 20
295.3232234716982
 30
0.0
 11
337.8750699044761
 21
293.7551975948165
 31
0.0
  0
LINE
  5
29C3
102
{ACAD_REACTORS
330
29AE
102
}
330
18
100
AcDbEntity
  8
ROGO
 62
     4
100
AcDbLine
 10
338.6569382492109
 20
295.3232234716982
 30
0.0
 11
339.2347301158929
 21
295.3232234716982
 31
0.0
  0
LINE
  5
29C4
330
18
100
AcDbEntity
  8
ROGO
 62
     4
100
AcDbLine
 10
338.4467651831991
 20
295.3232234716982
 30
0.0
 11
338.2605936753277
 21
294.9498591529526
 31
0.0
  0
LINE
  5
29C5
330
18
100
AcDbEntity
  8
ROGO
 62
     4
100
AcDbLine
 10
337.6326073585634
 20
294.9498591529526
 30
0.0
 11
338.2605936753277
 21
294.9498591529526
 31
0.0
  0
LINE
  5
29C6
330
18
100
AcDbEntity
  8
ROGO
 62
     4
100
AcDbLine
 10
337.490884789743
 20
294.6930912100762
 30
0.0
 11
338.1325608861768
 21
294.6930912100762
 31
0.0
  0
LINE
  5
29C7
330
18
100
AcDbEntity
  8
ROGO
 62
     4
100
AcDbLine
 10
338.1325608861768
 20
294.6930912100762
 30
0.0
 11
337.9463913498107
 21
294.3197308451567
 31
0.0
  0
SPLINE
  5
29C8
330
18
100
AcDbEntity
  8
ROGO
 62
     4
100
AcDbSpline
210
0.0
220
0.0
230
1.0
 70
     8
 71
     3
 72
    16
 73
    12
 74
    10
 42
0.0000000001
 43
0.0000000001
 44
0.0000000001
 40
0.0
 40
0.0
 40
0.0
 40
0.0
 40
0.095975197444961
 40
0.1428521601878736
 40
0.1659686698350665
 40
0.1903297066319361
 40
0.2252146416533407
 40
0.2569791124192295
 40
0.2901087153976849
 40
0.3456528886639438
 40
0.400630012831352
 40
0.400630012831352
 40
0.400630012831352
 40
0.400630012831352
 10
337.6326073585634
 20
294.9498591529526
 30
0.0
 10
337.600105804084
 20
294.9449040717055
 30
0.0
 10
337.5517295840767
 20
294.9375287906025
 30
0.0
 10
337.5079829357939
 20
294.9028994251278
 30
0.0
 10
337.4833128635592
 20
294.8822972577239
 30
0.0
 10
337.4749199950764
 20
294.8550141398586
 30
0.0
 10
337.4523793859468
 20
294.8340648934801
 30
0.0
 10
337.4337995124979
 20
294.8052738855933
 30
0.0
 10
337.4293630598858
 20
294.7657289699169
 30
0.0
 10
337.4326195176765
 20
294.7102337074404
 30
0.0
 10
337.4715295773727
 20
294.6987857973539
 30
0.0
 10
337.4908847897431
 20
294.6930912100762
 30
0.0
 11
337.6326073585634
 21
294.9498591529526
 31
0.0
 11
337.5399427346342
 21
294.9248690349725
 31
0.0
 11
337.501786694579
 21
294.8976373210471
 31
0.0
 11
337.4854341507604
 21
294.8812981861578
 31
0.0
 11
337.4745322459244
 21
294.8595126729721
 31
0.0
 11
337.4527287496878
 21
294.8322809590469
 31
0.0
 11
337.4363762058691
 21
294.8050490675647
 31
0.0
 11
337.4309252534511
 21
294.7723709753431
 31
0.0
 11
337.4418271582872
 21
294.7179071923788
 31
0.0
 11
337.4908847897431
 21
294.6930912100762
 31
0.0
  0
LINE
  5
29C9
330
18
100
AcDbEntity
  8
ROGO
 62
     4
100
AcDbLine
 10
337.4418271582874
 20
295.3232234716982
 30
0.0
 11
338.4467651831991
 21
295.3232234716982
 31
0.0
  0
LINE
  5
29CA
330
18
100
AcDbEntity
  8
ROGO
 62
     4
100
AcDbLine
 10
337.0820699405357
 20
294.3197308451567
 30
0.0
 11
337.9463913498107
 21
294.3197308451567
 31
0.0
  0
LINE
  5
29CB
102
{ACAD_REACTORS
330
29AE
102
}
330
18
100
AcDbEntity
  8
ROGO
 62
     4
100
AcDbLine
 10
339.4198993695447
 20
295.3232234716982
 30
0.0
 11
339.9976785946055
 21
295.3232234716982
 31
0.0
  0
TEXT
  5
29CC
330
18
100
AcDbEntity
  8
文字
100
AcDbText
 10
337.4447411079804
 20
298.6123785128286
 30
0.0
 40
2.299999999999999
  1
10
  7
STYLE3
100
AcDbText
  0
LINE
  5
29D7
330
18
100
AcDbEntity
  8
外形線
100
AcDbLine
 10
330.4493127033646
 20
305.9969794432763
 30
0.0
 11
330.6998242850926
 21
304.2144969195414
 31
0.0
  0
LINE
  5
29D8
330
18
100
AcDbEntity
  8
外形線
100
AcDbLine
 10
331.2461393702901
 20
306.0948174556905
 30
0.0
 11
331.4342906041717
 21
304.3046780440275
 31
0.0
  0
LINE
  5
29D9
330
18
100
AcDbEntity
  8
外形線
100
AcDbLine
 10
332.045895129331
 20
306.1647870181961
 30
0.0
 11
332.1714567820704
 21
304.3691717277284
 31
0.0
  0
LINE
  5
29DB
330
18
100
AcDbEntity
  8
外形線
100
AcDbLine
 10
332.8476056012884
 20
306.2068028836594
 30
0.0
 11
332.910424695353
 21
304.407899395025
 31
0.0
  0
LINE
  5
29DC
330
18
100
AcDbEntity
  8
外形線
100
AcDbLine
 10
334.4529824496035
 20
306.2068028836594
 30
0.0
 11
334.390163355539
 21
304.407899395025
 31
0.0
  0
POINT
  5
29E3
330
18
100
AcDbEntity
  8
DEFPOINTS
  6
ByBlock
 62
     0
100
AcDbPoint
 10
335.8662974467204
 20
304.3046780440275
 30
0.0
  0
LINE
  5
29E4
330
18
100
AcDbEntity
  8
外形線
100
AcDbLine
 10
336.8512753475275
 20
305.9969794432763
 30
0.0
 11
336.6007637657994
 21
304.2144969195414
 31
0.0
  0
LINE
  5
29E5
330
18
100
AcDbEntity
  8
外形線
100
AcDbLine
 10
336.054448680602
 20
306.0948174556905
 30
0.0
 11
335.8662974467204
 21
304.3046780440275
 31
0.0
  0
LINE
  5
29E6
330
18
100
AcDbEntity
  8
外形線
100
AcDbLine
 10
335.254692921561
 20
306.1647870181961
 30
0.0
 11
335.1291312688215
 21
304.3691717277284
 31
0.0
  0
LINE
  5
29EB
330
18
100
AcDbEntity
  8
外形線
100
AcDbLine
 10
354.9755226804821
 20
291.8367655107861
 30
0.0
 11
353.3065917422619
 21
291.1624736426375
 31
0.0
  0
LINE
  5
29EC
330
18
100
AcDbEntity
  8
外形線
100
AcDbLine
 10
354.6618395512259
 20
292.5757566529636
 30
0.0
 11
353.0174577274692
 21
291.8436306954271
 31
0.0
  0
LINE
  5
29ED
330
18
100
AcDbEntity
  8
外形線
100
AcDbLine
 10
354.322557090327
 20
293.3033502383689
 30
0.0
 11
352.7047278069885
 21
292.5142821741485
 31
0.0
  0
LINE
  5
29EE
330
18
100
AcDbEntity
  8
外形線
100
AcDbLine
 10
353.9580886612014
 20
294.0186598062956
 30
0.0
 11
352.3687829940552
 21
293.1736109932811
 31
0.0
  0
LINE
  5
29EF
330
18
100
AcDbEntity
  8
外形線
100
AcDbLine
 10
355.2632243035219
 20
291.0872771587106
 30
0.0
 11
352.4441464411643
 21
290.0612167287335
 31
0.0
  0
LINE
  5
29F0
330
18
100
AcDbEntity
  8
外形線
100
AcDbLine
 10
353.5688783124882
 20
294.7208138622202
 30
0.0
 11
350.9708021011349
 21
293.2208138622201
 31
0.0
  0
LINE
  5
29F1
330
18
100
AcDbEntity
  8
外形線
100
AcDbLine
 10
351.7745413584007
 20
297.3810277947103
 30
0.0
 11
350.3561220019084
 21
296.2728371391241
 31
0.0
  0
LINE
  5
29F2
330
18
100
AcDbEntity
  8
外形線
100
AcDbLine
 10
351.2693162171825
 20
298.0049288850106
 30
0.0
 11
348.9711828878255
 21
296.0765660559509
 31
0.0
  0
TEXT
  5
29F3
330
18
100
AcDbEntity
  8
文字
100
AcDbText
 10
346.4410335595978
 20
290.5584214323098
 30
0.0
 40
2.299999999999999
  1
30
  7
STYLE3
100
AcDbText
  0
LINE
  5
29F4
330
18
100
AcDbEntity
  8
外形線
100
AcDbLine
 10
352.2576848960699
 20
296.739874664947
 30
0.0
 11
350.8014543061949
 21
295.6818612108206
 31
0.0
  0
LINE
  5
29F5
330
18
100
AcDbEntity
  8
外形線
100
AcDbLine
 10
352.718158194212
 20
296.0822506420474
 30
0.0
 11
351.2258905636128
 21
295.0757034158
 31
0.0
  0
LINE
  5
29F6
330
18
100
AcDbEntity
  8
外形線
100
AcDbLine
 10
353.1554002370438
 20
295.4089569395839
 30
0.0
 11
351.6289136639622
 21
294.4551022639641
 31
0.0
  0
LINE
  5
29F7
330
18
100
AcDbEntity
  8
外形線
100
AcDbLine
 10
350.1951094332349
 20
299.1979563827772
 30
0.0
 11
348.9002977926254
 21
297.9475713159508
 31
0.0
  0
LINE
  5
29F8
330
18
100
AcDbEntity
  8
外形線
100
AcDbLine
 10
349.6274365460029
 20
299.7656292700091
 30
0.0
 11
348.3770514791768
 21
298.4708176293995
 31
0.0
  0
LINE
  5
29F9
330
18
100
AcDbEntity
  8
外形線
100
AcDbLine
 10
349.0402979716998
 20
300.3131448482002
 30
0.0
 11
347.8358628802538
 21
298.9754841623409
 31
0.0
  0
LINE
  5
29FA
330
18
100
AcDbEntity
  8
外形線
100
AcDbLine
 10
347.8105079579362
 20
301.3450611951748
 30
0.0
 11
346.70231730235
 21
299.9266418386826
 31
0.0
  0
LINE
  5
29FB
330
18
100
AcDbEntity
  8
外形線
100
AcDbLine
 10
347.169354828173
 20
301.828204732844
 30
0.0
 11
346.1113413740464
 21
300.371974142969
 31
0.0
  0
LINE
  5
29FC
330
18
100
AcDbEntity
  8
外形線
100
AcDbLine
 10
348.4344090482364
 20
300.8398360539567
 30
0.0
 11
346.5060462191768
 21
298.5417027245997
 31
0.0
  0
LINE
  5
29FD
330
18
100
AcDbEntity
  8
外形線
100
AcDbLine
 10
346.5117308052732
 20
302.2886780309861
 30
0.0
 11
345.5051835790259
 21
300.7964104003871
 31
0.0
  0
LINE
  5
29FE
330
18
100
AcDbEntity
  8
外形線
100
AcDbLine
 10
345.8384371028096
 20
302.725920073818
 30
0.0
 11
344.88458242719
 21
301.1994335007365
 31
0.0
  0
LINE
  5
29FF
330
18
100
AcDbEntity
  8
外形線
100
AcDbLine
 10
350.742625011426
 20
298.6108178084739
 30
0.0
 11
349.4049643255668
 21
297.4063827170279
 31
0.0
  0
ARC
  5
2ADD
330
18
100
AcDbEntity
  8
針
100
AcDbCircle
 10
330.0299500359836
 20
280.1458163991376
 30
0.0
 40
3.0
100
AcDbArc
 50
359.6223969463337
 51
29.0946761233733
  0
CIRCLE
  5
2ADE
330
18
100
AcDbEntity
  8
針
100
AcDbCircle
 10
333.650294025446
 20
283.2208138622202
 30
0.0
 40
1.9
  0
CIRCLE
  5
2ADF
330
18
100
AcDbEntity
  8
針
100
AcDbCircle
 10
333.650294025446
 20
283.2208138622202
 30
0.0
 40
1.5
  0
POINT
  5
2AE1
330
18
100
AcDbEntity
  8
DEFPOINTS
  6
ByBlock
 62
     0
100
AcDbPoint
 10
333.3084521155841
 20
281.3518183810426
 30
0.0
  0
POINT
  5
2AE3
330
18
100
AcDbEntity
  8
DEFPOINTS
  6
ByBlock
 62
     0
100
AcDbPoint
 10
333.650294025446
 20
283.2208138622201
 30
0.0
  0
POINT
  5
2AE4
330
18
100
AcDbEntity
  8
DEFPOINTS
  6
ByBlock
 62
     0
100
AcDbPoint
 10
333.650294025446
 20
283.2208138622201
 30
0.0
  0
CIRCLE
  5
2AE5
330
18
100
AcDbEntity
  8
針
100
AcDbCircle
 10
333.650294025446
 20
283.2208138622202
 30
0.0
 40
0.475
  0
POINT
  5
2AE6
330
18
100
AcDbEntity
  8
DEFPOINTS
  6
ByBlock
 62
     0
100
AcDbPoint
 10
333.650294025446
 20
283.2208138622202
 30
0.0
  0
POINT
  5
2AE7
330
18
100
AcDbEntity
  8
DEFPOINTS
  6
ByBlock
 62
     0
100
AcDbPoint
 10
333.650294025446
 20
283.2208138622202
 30
0.0
  0
POINT
  5
2AE8
330
18
100
AcDbEntity
  8
DEFPOINTS
  6
ByBlock
 62
     0
100
AcDbPoint
 10
333.650294025446
 20
283.2208138622202
 30
0.0
  0
POINT
  5
2AE9
330
18
100
AcDbEntity
  8
DEFPOINTS
  6
ByBlock
 62
     0
100
AcDbPoint
 10
333.650294025446
 20
283.2208138622202
 30
0.0
  0
POINT
  5
2AEA
330
18
100
AcDbEntity
  8
DEFPOINTS
  6
ByBlock
 62
     0
100
AcDbPoint
 10
333.6502940254461
 20
283.22081386222
 30
0.0
  0
POINT
  5
2AEB
330
18
100
AcDbEntity
  8
DEFPOINTS
  6
ByBlock
 62
     0
100
AcDbPoint
 10
333.650294025446
 20
283.2208138622202
 30
0.0
  0
LINE
  5
30BB
330
18
100
AcDbEntity
  8
外形線
100
AcDbLine
 10
324.2953512347027
 20
262.2092683364404
 30
0.0
 11
325.027477192239
 21
263.853650160197
 31
0.0
  0
LINE
  5
30BC
330
18
100
AcDbEntity
  8
外形線
100
AcDbLine
 10
325.0343423768799
 20
261.8955852071841
 30
0.0
 11
325.7086342450286
 21
263.5645161454042
 31
0.0
  0
LINE
  5
30BD
330
18
100
AcDbEntity
  8
外形線
100
AcDbLine
 10
326.5429031548221
 20
261.3465139874317
 30
0.0
 11
327.099133744697
 21
263.0584157167628
 31
0.0
  0
TEXT
  5
30BE
330
18
100
AcDbEntity
  8
文字
100
AcDbText
 10
328.5108510672437
 20
286.7709286094148
 30
0.0
 40
1.0
  1
SHOCK PROOF
  7
STYLE3
100
AcDbText
  0
LINE
  5
30D6
330
18
100
AcDbEntity
  8
外形線
100
AcDbLine
 10
327.3106348416549
 20
261.1117948556388
 30
0.0
 11
327.8067820821255
 21
262.8420659083277
 31
0.0
  0
LINE
  5
30D7
330
18
100
AcDbEntity
  8
外形線
100
AcDbLine
 10
341.5167573219364
 20
261.6078835841443
 30
0.0
 11
340.4906968919594
 21
264.426961446502
 31
0.0
  0
LINE
  5
30D8
330
18
100
AcDbEntity
  8
外形線
100
AcDbLine
 10
339.2144976242386
 20
260.9040121578722
 30
0.0
 11
338.7790382121592
 21
262.650544465169
 31
0.0
  0
LINE
  5
30D9
330
18
100
AcDbEntity
  8
外形線
100
AcDbLine
 10
340.75768489607
 20
261.3465139874317
 30
0.0
 11
340.201454306195
 21
263.0584157167628
 31
0.0
  0
LINE
  5
30DA
330
18
100
AcDbEntity
  8
外形線
100
AcDbLine
 10
339.9899532092372
 20
261.1117948556388
 30
0.0
 11
339.4938059687665
 21
262.8420659083277
 31
0.0
  0
TEXT
  5
30DB
330
18
100
AcDbEntity
  8
文字
100
AcDbText
 10
325.4287836958794
 20
264.82855269102
 30
0.0
 40
2.299999999999999
  1
80
  7
STYLE3
100
AcDbText
  0
TEXT
  5
30DC
330
18
100
AcDbEntity
  8
文字
100
AcDbText
 10
337.8844399616316
 20
264.82855269102
 30
0.0
 40
2.299999999999999
  1
80
  7
STYLE3
100
AcDbText
  0
DIMENSION
  5
30F9
330
18
100
AcDbEntity
  8
寸法線
100
AcDbDimension
  2
*D10
 10
328.8683251366376
 20
260.7234190453425
 30
0.0
 11
333.650294025446
 21
253.0120942207893
 31
0.0
 70
    34
 71
     5
 42
0.4188790204786397
  3
STYLE2
100
AcDb2LineAngularDimension
 13
334.0453262379997
 23
281.3623334208259
 33
0.0
 14
338.4322629142545
 24
260.7234190453425
 34
0.0
 15
333.2552618128923
 25
281.3623334208259
 35
0.0
 16
331.4122468786647
 26
251.2152485493138
 36
0.0
1001
ACAD
1000
DSTYLE
1002
{
1070
   341
1005
0
1002
}
  0
DIMENSION
  5
3108
330
18
100
AcDbEntity
  8
寸法線
100
AcDbDimension
  2
*D11
 10
301.3681729632937
 20
306.2208138622202
 30
0.0
 11
299.4931729632936
 21
283.2208138622202
 31
0.0
 70
    32
  1
φ<>
 71
     5
 42
46.0
  3
STYLE2
100
AcDbAlignedDimension
 13
333.650294025446
 23
260.2208138622202
 33
0.0
 14
333.650294025446
 24
306.2208138622202
 34
0.0
 50
90.0
100
AcDbRotatedDimension
1001
ACAD
1000
DSTYLE
1002
{
1070
   341
1005
0
1002
}
  0
ARC
  5
321D
330
18
100
AcDbEntity
  8
針
100
AcDbCircle
 10
329.5663495323572
 20
280.7951392390751
 30
0.0
 40
3.0
100
AcDbArc
 50
349.9873103153912
 51
19.45958949243062
  0
CIRCLE
  5
321E
330
18
100
AcDbEntity
  8
針
100
AcDbCircle
 10
333.650294025446
 20
283.2208138622202
 30
0.0
 40
1.9
  0
CIRCLE
  5
321F
330
18
100
AcDbEntity
  8
針
100
AcDbCircle
 10
333.650294025446
 20
283.2208138622202
 30
0.0
 40
1.5
  0
POINT
  5
3220
330
18
100
AcDbEntity
  8
DEFPOINTS
  6
ByBlock
 62
     0
100
AcDbPoint
 10
334.3001322977648
 20
281.435397882727
 30
0.0
  0
POINT
  5
3221
330
18
100
AcDbEntity
  8
DEFPOINTS
  6
ByBlock
 62
     0
100
AcDbPoint
 10
333.0004557531274
 20
281.4353978827269
 30
0.0
  0
ARC
  5
3222
330
18
100
AcDbEntity
  8
針
100
AcDbCircle
 10
336.6566882750638
 20
279.5433019838077
 30
0.0
 40
3.0
100
AcDbArc
 50
140.5150311383539
 51
169.9873103153912
  0
CIRCLE
  5
3225
330
18
100
AcDbEntity
  8
針
100
AcDbCircle
 10
333.650294025446
 20
283.2208138622202
 30
0.0
 40
0.475
  0
HATCH
  5
322C
330
18
100
AcDbEntity
  8
針
100
AcDbHatch
 10
0.0
 20
0.0
 30
0.0
210
0.0
220
0.0
230
1.0
  2
SOLID
 70
     1
 71
     0
 91
        2
 92
        7
 72
     1
 73
     1
 93
        5
 10
329.7366065111786
 20
261.5715378918632
 42
0.0
 10
329.8252357454624
 20
261.5558899261723
 42
0.0
 10
329.9138649797462
 20
261.5402419604816
 42
0.0
 10
331.2171658046547
 20
267.9129764231436
 42
-0.0085634322047721
 10
330.6943578408765
 20
268.0052809674198
 42
0.0
 97
        0
 92
        7
 72
     1
 73
     1
 93
        6
 10
330.6943578408765
 20
268.0052809674198
 42
0.0085634322047721
 10
331.2171658046547
 20
267.9129764231436
 42
0.0
 10
333.7023804656029
 20
280.0649008401695
 42
-0.1293106770632391
 10
334.3413139928375
 20
281.4509292883944
 42
-0.2805221108582334
 10
332.3949796005473
 20
281.7945650428897
 42
-0.1293106770632486
 10
332.5206573418183
 20
280.273540382714
 42
0.0
 97
        0
 75
     0
 76
     1
 47
0.0423559757596284
 98
        2
 10
330.8864745933239
 20
267.3333909536284
 10
331.5271300349084
 20
271.693430663619
450
        0
451
        0
460
0.0
461
0.0
452
        0
462
0.0
453
        0
470

  0
LINE
  5
322D
330
18
100
AcDbEntity
  8
針
100
AcDbLine
 10
329.9138649797462
 20
261.5402419604816
 30
0.0
 11
333.7023804656028
 21
280.0649008401691
 31
0.0
  0
LINE
  5
322E
330
18
100
AcDbEntity
  8
針
100
AcDbLine
 10
329.7366065111786
 20
261.5715378918632
 30
0.0
 11
332.5206573418181
 21
280.2735403827137
 31
0.0
  0
ARC
  5
3238
330
18
100
AcDbEntity
  8
針
100
AcDbCircle
 10
330.0299500359836
 20
280.1458163991376
 30
0.0
 40
3.0
100
AcDbArc
 50
359.6223969463337
 51
29.0946761233733
  0
CIRCLE
  5
3239
330
18
100
AcDbEntity
  8
針
100
AcDbCircle
 10
333.650294025446
 20
283.2208138622202
 30
0.0
 40
1.9
  0
CIRCLE
  5
323A
330
18
100
AcDbEntity
  8
針
100
AcDbCircle
 10
333.650294025446
 20
283.2208138622202
 30
0.0
 40
1.5
  0
POINT
  5
323C
330
18
100
AcDbEntity
  8
DEFPOINTS
  6
ByBlock
 62
     0
100
AcDbPoint
 10
333.3084521155841
 20
281.3518183810426
 30
0.0
  0
POINT
  5
323D
330
18
100
AcDbEntity
  8
DEFPOINTS
  6
ByBlock
 62
     0
100
AcDbPoint
 10
333.650294025446
 20
283.2208138622201
 30
0.0
  0
POINT
  5
323E
330
18
100
AcDbEntity
  8
DEFPOINTS
  6
ByBlock
 62
     0
100
AcDbPoint
 10
333.650294025446
 20
283.2208138622201
 30
0.0
  0
CIRCLE
  5
323F
330
18
100
AcDbEntity
  8
針
100
AcDbCircle
 10
333.650294025446
 20
283.2208138622202
 30
0.0
 40
0.475
  0
POINT
  5
3240
330
18
100
AcDbEntity
  8
DEFPOINTS
  6
ByBlock
 62
     0
100
AcDbPoint
 10
333.650294025446
 20
283.2208138622202
 30
0.0
  0
POINT
  5
3241
330
18
100
AcDbEntity
  8
DEFPOINTS
  6
ByBlock
 62
     0
100
AcDbPoint
 10
333.650294025446
 20
283.2208138622202
 30
0.0
  0
POINT
  5
3242
330
18
100
AcDbEntity
  8
DEFPOINTS
  6
ByBlock
 62
     0
100
AcDbPoint
 10
333.650294025446
 20
283.2208138622202
 30
0.0
  0
POINT
  5
3243
330
18
100
AcDbEntity
  8
DEFPOINTS
  6
ByBlock
 62
     0
100
AcDbPoint
 10
333.650294025446
 20
283.2208138622202
 30
0.0
  0
POINT
  5
3244
330
18
100
AcDbEntity
  8
DEFPOINTS
  6
ByBlock
 62
     0
100
AcDbPoint
 10
333.6502940254461
 20
283.22081386222
 30
0.0
  0
POINT
  5
3245
330
18
100
AcDbEntity
  8
DEFPOINTS
  6
ByBlock
 62
     0
100
AcDbPoint
 10
333.650294025446
 20
283.2208138622202
 30
0.0
  0
ARC
  5
3246
330
18
100
AcDbEntity
  8
針
100
AcDbCircle
 10
329.5663495323572
 20
280.7951392390751
 30
0.0
 40
3.0
100
AcDbArc
 50
349.9873103153912
 51
19.45958949243062
  0
CIRCLE
  5
3247
330
18
100
AcDbEntity
  8
針
100
AcDbCircle
 10
333.650294025446
 20
283.2208138622202
 30
0.0
 40
1.9
  0
CIRCLE
  5
3248
330
18
100
AcDbEntity
  8
針
100
AcDbCircle
 10
333.650294025446
 20
283.2208138622202
 30
0.0
 40
1.5
  0
POINT
  5
3249
330
18
100
AcDbEntity
  8
DEFPOINTS
  6
ByBlock
 62
     0
100
AcDbPoint
 10
334.3001322977648
 20
281.435397882727
 30
0.0
  0
POINT
  5
324A
330
18
100
AcDbEntity
  8
DEFPOINTS
  6
ByBlock
 62
     0
100
AcDbPoint
 10
333.0004557531274
 20
281.4353978827269
 30
0.0
  0
ARC
  5
324B
330
18
100
AcDbEntity
  8
針
100
AcDbCircle
 10
336.6566882750638
 20
279.5433019838077
 30
0.0
 40
3.0
100
AcDbArc
 50
140.5150311383539
 51
169.9873103153912
  0
CIRCLE
  5
324C
330
18
100
AcDbEntity
  8
針
100
AcDbCircle
 10
333.650294025446
 20
283.2208138622202
 30
0.0
 40
0.475
  0
HATCH
  5
324D
330
18
100
AcDbEntity
  8
針
100
AcDbHatch
 10
0.0
 20
0.0
 30
0.0
210
0.0
220
0.0
230
1.0
  2
SOLID
 70
     1
 71
     0
 91
        2
 92
        7
 72
     1
 73
     1
 93
        5
 10
329.7366065111786
 20
261.5715378918632
 42
0.0
 10
329.8252357454624
 20
261.5558899261723
 42
0.0
 10
329.9138649797462
 20
261.5402419604816
 42
0.0
 10
331.2171658046547
 20
267.9129764231436
 42
-0.0085634322047721
 10
330.6943578408765
 20
268.0052809674198
 42
0.0
 97
        0
 92
        7
 72
     1
 73
     1
 93
        6
 10
330.6943578408765
 20
268.0052809674198
 42
0.0085634322047721
 10
331.2171658046547
 20
267.9129764231436
 42
0.0
 10
333.7023804656029
 20
280.0649008401695
 42
-0.1293106770632391
 10
334.3413139928375
 20
281.4509292883944
 42
-0.2805221108582334
 10
332.3949796005473
 20
281.7945650428897
 42
-0.1293106770632486
 10
332.5206573418183
 20
280.273540382714
 42
0.0
 97
        0
 75
     0
 76
     1
 47
0.0423559757596284
 98
        2
 10
330.8864745933239
 20
267.3333909536284
 10
331.5271300349084
 20
271.693430663619
450
        0
451
        0
460
0.0
461
0.0
452
        0
462
0.0
453
        0
470

  0
LINE
  5
324E
330
18
100
AcDbEntity
  8
針
100
AcDbLine
 10
329.9138649797462
 20
261.5402419604816
 30
0.0
 11
333.7023804656028
 21
280.0649008401691
 31
0.0
  0
LINE
  5
324F
330
18
100
AcDbEntity
  8
針
100
AcDbLine
 10
329.7366065111786
 20
261.5715378918632
 30
0.0
 11
332.5206573418181
 21
280.2735403827137
 31
0.0
  0
ARC
  5
32B1
330
18
100
AcDbEntity
  8
外形線
100
AcDbCircle
 10
333.650294025446
 20
224.4208138622201
 30
0.0
 40
1.199999999999999
100
AcDbArc
 50
189.59406822686
 51
350.40593177314
  0
ARC
  5
32B2
330
18
100
AcDbEntity
  8
外形線
100
AcDbCircle
 10
416.3529392924896
 20
224.4208138622201
 30
0.0
 40
1.199999999999999
100
AcDbArc
 50
189.59406822686
 51
350.40593177314
  0
TEXT
  5
32D9
330
18
100
AcDbEntity
  8
文字
100
AcDbText
 10
310.5232192113062
 20
355.1292544169824
 30
0.0
 40
3.5
  1
Model No.15Z One Revolution Dial Gauge
  7
STYLE3
100
AcDbText
  0
LINE
  5
32DA
330
18
100
AcDbEntity
  8
外形線
100
AcDbLine
 10
310.0041372113062
 20
352.0355744169824
 30
0.0
 11
416.0041372113061
 21
352.0355744169824
 31
0.0
  0
LINE
  5
32DB
330
18
100
AcDbEntity
  8
外形線
100
AcDbLine
 10
310.0041372113062
 20
353.0355744169824
 30
0.0
 11
416.0041372113061
 21
353.0355744169824
 31
0.0
  0
TEXT
  5
32DC
330
18
100
AcDbEntity
  8
0
  6
Continuous
100
AcDbText
 10
351.8749042113062
 20
184.0207515334541
 30
0.0
 40
2.1
  1
Design and specifications are subject to change without notice for future improvement.
  7
STYLE3
100
AcDbText
  0
LINE
  5
32DD
330
18
100
AcDbEntity
  8
外形線
100
AcDbLine
 10
350.4174372113062
 20
172.5079835334541
 30
0.0
 11
350.4174372113062
 21
192.9029665334541
 31
0.0
  0
TEXT
  5
32DE
330
18
100
AcDbEntity
  8
0
  6
Continuous
100
AcDbText
 10
395.1876812113063
 20
176.0042665334541
 30
0.0
 40
2.399999999999999
  1
mm
  7
STYLE3
100
AcDbText
  0
LINE
  5
32DF
330
18
100
AcDbEntity
  8
外形線
100
AcDbLine
 10
350.4174372113062
 20
182.1227605334541
 30
0.0
 11
491.2088542113062
 21
182.1227605334541
 31
0.0
  0
TEXT
  5
32E0
330
18
100
AcDbEntity
  8
0
  6
Continuous
100
AcDbText
 10
354.2068552113062
 20
177.7524065334541
 30
0.0
 40
3.0
  1
三　　角　　法
  7
STYLE3
100
AcDbText
  0
TEXT
  5
32E1
330
18
100
AcDbEntity
  8
0
  6
Continuous
100
AcDbText
 10
351.5834122113062
 20
174.2561235334541
 30
0.0
 40
2.1
  1
3RD Angle Projection
  7
STYLE3
100
AcDbText
  0
TEXT
  5
32E2
330
18
100
AcDbEntity
  8
0
  6
Continuous
100
AcDbText
 10
387.3173542113062
 20
174.2561245334541
 30
0.0
 40
2.1
  1
Unit
  7
STYLE3
100
AcDbText
  0
TEXT
  5
32E3
330
18
100
AcDbEntity
  8
0
  6
Continuous
100
AcDbText
 10
387.1456332113062
 20
177.7583605334541
 30
0.0
 40
3.0
  1
単位
  7
STYLE3
100
AcDbText
  0
LINE
  5
32E4
330
18
100
AcDbEntity
  8
外形線
100
AcDbLine
 10
385.6881642113062
 20
182.1227605334541
 30
0.0
 11
385.6881642113062
 21
172.5079835334541
 31
0.0
  0
TEXT
  5
32E5
330
18
100
AcDbEntity
  8
0
  6
Continuous
100
AcDbText
 10
453.7891672113062
 20
178.0437635334541
 30
0.0
 40
3.0
  1
株式会社　尾崎製作所
  7
STYLE3
100
AcDbText
  0
TEXT
  5
32E6
330
18
100
AcDbEntity
  8
0
  6
Continuous
100
AcDbText
 10
454.6636452113061
 20
174.2561245334541
 30
0.0
 40
2.1
  1
OZAKI MFG. CO., LTD.
  7
STYLE3
100
AcDbText
  0
TEXT
  5
32E7
330
18
100
AcDbEntity
  8
0
  6
Continuous
100
AcDbText
 10
433.3846122113063
 20
176.0042655334541
 30
0.0
 40
2.1
  1
2010.06.09
  7
STYLE3
100
AcDbText
  0
TEXT
  5
32E8
330
18
100
AcDbEntity
  8
0
  6
Continuous
100
AcDbText
 10
414.5460332113062
 20
176.2956235334541
 30
0.0
 40
2.399999999999999
  1
1/1
  7
STYLE3
100
AcDbText
  0
TEXT
  5
32E9
330
18
100
AcDbEntity
  8
0
  6
Continuous
100
AcDbText
 10
404.9267442113062
 20
174.5474815334541
 30
0.0
 40
2.1
  1
Scale
  7
STYLE3
100
AcDbText
  0
TEXT
  5
32EA
330
18
100
AcDbEntity
  8
0
  6
Continuous
100
AcDbText
 10
404.4635292113062
 20
177.4670035334541
 30
0.0
 40
3.0
  1
尺 度
  7
STYLE3
100
AcDbText
  0
LINE
  5
32EB
330
18
100
AcDbEntity
  8
外形線
100
AcDbLine
 10
403.1777822113062
 20
182.1227605334541
 30
0.0
 11
403.1777822113062
 21
172.5079835334541
 31
0.0
  0
TEXT
  5
32EC
330
18
100
AcDbEntity
  8
0
  6
Continuous
100
AcDbText
 10
424.6398052113062
 20
174.2561255334541
 30
0.0
 40
2.1
  1
Date
  7
STYLE3
100
AcDbText
  0
TEXT
  5
32ED
330
18
100
AcDbEntity
  8
0
  6
Continuous
100
AcDbText
 10
424.2564442113062
 20
177.5892085334541
 30
0.0
 40
3.0
  1
日 付
  7
STYLE3
100
AcDbText
  0
LINE
  5
32EE
330
18
100
AcDbEntity
  8
外形線
100
AcDbLine
 10
422.7078542113062
 20
182.1227605334541
 30
0.0
 11
422.7078542113062
 21
172.5079835334541
 31
0.0
  0
LINE
  5
32EF
330
18
100
AcDbEntity
  8
外形線
100
AcDbLine
 10
452.4402032113062
 20
182.1227605334541
 30
0.0
 11
452.4402032113062
 21
172.5079835334541
 31
0.0
  0
LINE
  5
32F0
330
18
100
AcDbEntity
  8
外形線
100
AcDbLine
 10
350.4174372113062
 20
192.9029665334541
 30
0.0
 11
491.2088542113062
 21
192.9029665334541
 31
0.0
  0
TEXT
  5
32F1
330
18
100
AcDbEntity
  8
0
  6
Continuous
100
AcDbText
 10
352.1663982113062
 20
187.9498995334541
 30
0.0
 40
3.5
  1
仕様及び外観は予告なく変更される場合がございますのでご了承下さい。
  7
STYLE3
100
AcDbText
  0
ENDSEC
  0
SECTION
  2
OBJECTS
  0
DICTIONARY
  5
C
330
0
100
AcDbDictionary
281
     1
  3
ACAD_COLOR
350
2B1D
  3
ACAD_GROUP
350
D
  3
ACAD_IMAGE_DICT
350
E58
  3
ACAD_LAYOUT
350
2B20
  3
ACAD_MATERIAL
350
2B1C
  3
ACAD_MLINESTYLE
350
1B
  3
ACAD_PLOTSETTINGS
350
2B21
  3
ACAD_PLOTSTYLENAME
350
2B1A
  3
ACAD_TABLESTYLE
350
2B1E
  3
ACDBVARIABLEDICTIONARY
350
101E
  0
DICTIONARY
  5
2B1D
102
{ACAD_REACTORS
330
C
102
}
330
C
100
AcDbDictionary
281
     1
  0
DICTIONARY
  5
D
102
{ACAD_REACTORS
330
C
102
}
330
C
100
AcDbDictionary
281
     1
  0
DICTIONARY
  5
E58
102
{ACAD_REACTORS
330
C
102
}
330
C
100
AcDbDictionary
281
     1
  3
ROGO01
350
E59
  0
DICTIONARY
  5
2B20
102
{ACAD_REACTORS
330
C
102
}
330
C
100
AcDbDictionary
281
     1
  3
Model
350
2B22
  3
レイアウト1
350
2B23
  0
DICTIONARY
  5
2B1C
102
{ACAD_REACTORS
330
C
102
}
330
C
100
AcDbDictionary
281
     1
  0
DICTIONARY
  5
1B
102
{ACAD_REACTORS
330
C
102
}
330
C
100
AcDbDictionary
281
     1
  3
STANDARD
350
1C
  0
DICTIONARY
  5
2B21
102
{ACAD_REACTORS
330
C
102
}
330
C
100
AcDbDictionary
281
     1
  0
ACDBDICTIONARYWDFLT
  5
2B1A
102
{ACAD_REACTORS
330
C
102
}
330
C
100
AcDbDictionary
281
     1
  3
Normal
350
2B1B
100
AcDbDictionaryWithDefault
340
2B1B
  0
DICTIONARY
  5
2B1E
102
{ACAD_REACTORS
330
C
102
}
330
C
100
AcDbDictionary
281
     1
  3
Standard
350
2B1F
  0
DICTIONARY
  5
101E
102
{ACAD_REACTORS
330
C
102
}
330
C
100
AcDbDictionary
281
     1
  3
CTABLESTYLE
350
2B29
  3
SORTENTS
350
101F
  0
IMAGEDEF
  5
E59
102
{ACAD_REACTORS
330
E58
102
}
330
E58
100
AcDbRasterImageDef
 90
        0
  1
D:\ﾃｽﾄ\rogo01.TIF
 10
3388.0
 20
4668.0
 11
0.0635
 21
0.0635
280
     1
281
     5
  0
LAYOUT
  5
2B22
102
{ACAD_REACTORS
330
2B20
102
}
330
2B20
100
AcDbPlotSettings
  1

  2
A4 EPSON LP-6100.pc3
  4
A4
  6

 40
5.873749732971191
 41
5.873747825622558
 42
5.873748779296875
 43
5.873748779296875
 44
209.9733276367187
 45
297.0106506347656
 46
1.5
 47
25.0
 48
0.0
 49
0.0
140
0.0
141
0.0
142
1.0
143
1.0
 70
 28336
 72
     1
 73
     1
 74
     1
  7
AutoCAD LT 98.ctb
 75
    16
147
1.0
 76
     1
 77
     2
 78
   300
148
-236.4799362989631
149
-171.6235136330668
100
AcDbLayout
  1
Model
 70
     1
 71
     0
 10
0.0
 20
0.0
 11
12.0
 21
9.0
 12
0.0
 22
0.0
 32
0.0
 14
0.0
 24
0.0
 34
0.0
 15
0.0
 25
0.0
 35
0.0
146
0.0
 13
0.0
 23
0.0
 33
0.0
 16
1.0
 26
0.0
 36
0.0
 17
0.0
 27
1.0
 37
0.0
 76
     0
330
18
1001
ACAD_PSEXT
1000
A4 EPSON LP-6100.pc3
1000
EPSON LP-6100
1000
USB002
1000

1070
     0
  0
LAYOUT
  5
2B23
102
{ACAD_REACTORS
330
2B20
102
}
330
2B20
100
AcDbPlotSettings
  1

  2
C:\Documents and Settings\佐藤\Application Data\Autodesk\AutoCAD LT 2005\R10\jpn\plotters\PEACOCK EPSON LP-6100.pc3
  4

  6

 40
0.0
 41
0.0
 42
0.0
 43
0.0
 44
0.0
 45
0.0
 46
0.0
 47
0.0
 48
0.0
 49
0.0
140
0.0
141
0.0
142
1.0
143
1.0
 70
   688
 72
     0
 73
     0
 74
     5
  7
AutoCAD LT 98.ctb
 75
    16
147
1.0
 76
     0
 77
     2
 78
   300
148
0.0
149
0.0
100
AcDbLayout
  1
レイアウト1
 70
     1
 71
     1
 10
0.0
 20
0.0
 11
420.0
 21
297.0
 12
0.0
 22
0.0
 32
0.0
 14
1.000000000000000E+20
 24
1.000000000000000E+20
 34
1.000000000000000E+20
 15
-1.000000000000000E+20
 25
-1.000000000000000E+20
 35
-1.000000000000000E+20
146
0.0
 13
0.0
 23
0.0
 33
0.0
 16
1.0
 26
0.0
 36
0.0
 17
0.0
 27
1.0
 37
0.0
 76
     0
330
15
  0
MLINESTYLE
  5
1C
102
{ACAD_REACTORS
330
1B
102
}
330
1B
100
AcDbMlineStyle
  2
STANDARD
 70
     0
  3

 62
   256
 51
90.0
 52
90.0
 71
     2
 49
0.5
 62
   256
  6
BYLAYER
 49
-0.5
 62
   256
  6
BYLAYER
  0
ACDBPLACEHOLDER
  5
2B1B
102
{ACAD_REACTORS
330
2B1A
102
}
330
2B1A
  0
ACAD_PROXY_OBJECT
  5
2B1F
102
{ACAD_REACTORS
330
2B1E
102
}
330
2B1E
100
AcDbProxyObject
 90
      499
 91
      505
 95
  2555929
 70
     0
 93
     1849
310
4214DD185B99185C992420000000000000F83F0000000000003E0FC00000000000004901028000000C1008070000C3001FDFF8000000C1003FBFF000000182007F7FE00000030400FEFFC00000060801FDFF8000000C1003FBFF000000182000000000000000C2020B0000001820100E000186003FBFF000000182007F7FE0
310
0000030400FEFFC00000060801FDFF8000000C1003FBFF000000182007F7FE0000003040000000000000012404160000003040201C00030C007F7FE00000030400FEFFC00000060801FDFF8000000C1003FBFF000000182007F7FE00000030400FEFFC000000608065
340
F
340
F
340
F
 94
        0
  0
DICTIONARYVAR
  5
2B29
102
{ACAD_REACTORS
330
101E
102
}
330
101E
100
DictionaryVariables
280
     0
  1
STANDARD
  0
DICTIONARYVAR
  5
101F
102
{ACAD_REACTORS
330
101E
102
}
330
101E
100
DictionaryVariables
280
     0
  1
96
  0
ENDSEC
  0
EOF
