  0
SECTION
  2
HEADER
  9
$ACADVER
  1
AC1018
  9
$ACADMAINTVER
 70
     0
  9
$DWGCODEPAGE
  3
ANSI_932
  9
$INSBASE
 10
0.0
 20
0.0
 30
0.0
  9
$EXTMIN
 10
-0.2256454072593215
 20
-0.2181385412601458
 30
-1.000061032362211
  9
$EXTMAX
 10
255.2259969900183
 20
195.2198623512278
 30
0.0000610416757212
  9
$LIMMIN
 10
0.0
 20
0.0
  9
$LIMMAX
 10
420.0
 20
297.0
  9
$ORTHOMODE
 70
     0
  9
$REGENMODE
 70
     1
  9
$FILLMODE
 70
     1
  9
$QTEXTMODE
 70
     0
  9
$MIRRTEXT
 70
     1
  9
$LTSCALE
 40
1.0
  9
$ATTMODE
 70
     1
  9
$TEXTSIZE
 40
3.0
  9
$TRACEWID
 40
1.0
  9
$TEXTSTYLE
  7
STYLE3
  9
$CLAYER
  8
寸法線
  9
$CELTYPE
  6
BYLAYER
  9
$CECOLOR
 62
   256
  9
$CELTSCALE
 40
1.0
  9
$DISPSILH
 70
     0
  9
$DIMSCALE
 40
1.0
  9
$DIMASZ
 40
2.5
  9
$DIMEXO
 40
0.0
  9
$DIMDLI
 40
3.75
  9
$DIMRND
 40
0.0
  9
$DIMDLE
 40
0.0
  9
$DIMEXE
 40
1.25
  9
$DIMTP
 40
0.0
  9
$DIMTM
 40
0.0
  9
$DIMTXT
 40
2.5
  9
$DIMCEN
 40
2.5
  9
$DIMTSZ
 40
0.0
  9
$DIMTOL
 70
     0
  9
$DIMLIM
 70
     0
  9
$DIMTIH
 70
     0
  9
$DIMTOH
 70
     0
  9
$DIMSE1
 70
     0
  9
$DIMSE2
 70
     0
  9
$DIMTAD
 70
     1
  9
$DIMZIN
 70
     8
  9
$DIMBLK
  1

  9
$DIMASO
 70
     1
  9
$DIMSHO
 70
     1
  9
$DIMPOST
  1

  9
$DIMAPOST
  1

  9
$DIMALT
 70
     0
  9
$DIMALTD
 70
     4
  9
$DIMALTF
 40
0.0394
  9
$DIMLFAC
 40
1.0
  9
$DIMTOFL
 70
     1
  9
$DIMTVP
 40
0.0
  9
$DIMTIX
 70
     0
  9
$DIMSOXD
 70
     0
  9
$DIMSAH
 70
     1
  9
$DIMBLK1
  1
OPEN
  9
$DIMBLK2
  1
OPEN
  9
$DIMSTYLE
  2
STYLE3
  9
$DIMCLRD
 70
     2
  9
$DIMCLRE
 70
     2
  9
$DIMCLRT
 70
     6
  9
$DIMTFAC
 40
1.0
  9
$DIMGAP
 40
0.625
  9
$DIMJUST
 70
     0
  9
$DIMSD1
 70
     0
  9
$DIMSD2
 70
     0
  9
$DIMTOLJ
 70
     1
  9
$DIMTZIN
 70
     0
  9
$DIMALTZ
 70
     0
  9
$DIMALTTZ
 70
     0
  9
$DIMUPT
 70
     0
  9
$DIMDEC
 70
     2
  9
$DIMTDEC
 70
     4
  9
$DIMALTU
 70
     8
  9
$DIMALTTD
 70
     4
  9
$DIMTXSTY
  7
STYLE3
  9
$DIMAUNIT
 70
     0
  9
$DIMADEC
 70
     0
  9
$DIMALTRND
 40
0.0
  9
$DIMAZIN
 70
     0
  9
$DIMDSEP
 70
    46
  9
$DIMATFIT
 70
     3
  9
$DIMFRAC
 70
     0
  9
$DIMLDRBLK
  1

  9
$DIMLUNIT
 70
     2
  9
$DIMLWD
 70
    -2
  9
$DIMLWE
 70
    -2
  9
$DIMTMOVE
 70
     0
  9
$LUNITS
 70
     2
  9
$LUPREC
 70
     4
  9
$SKETCHINC
 40
1.0
  9
$FILLETRAD
 40
0.5
  9
$AUNITS
 70
     0
  9
$AUPREC
 70
     0
  9
$MENU
  1
.
  9
$ELEVATION
 40
0.0
  9
$PELEVATION
 40
0.0
  9
$THICKNESS
 40
0.0
  9
$LIMCHECK
 70
     0
  9
$CHAMFERA
 40
0.3
  9
$CHAMFERB
 40
0.3
  9
$CHAMFERC
 40
20.0
  9
$CHAMFERD
 40
0.0
  9
$SKPOLY
 70
     0
  9
$TDCREATE
 40
2451223.640404514
  9
$TDUCREATE
 40
2451223.265404514
  9
$TDUPDATE
 40
2455357.437290579
  9
$TDUUPDATE
 40
2455357.062290579
  9
$TDINDWG
 40
0.2266048958
  9
$TDUSRTIMER
 40
0.2266048958
  9
$USRTIMER
 70
     1
  9
$ANGBASE
 50
0.0
  9
$ANGDIR
 70
     0
  9
$PDMODE
 70
     0
  9
$PDSIZE
 40
0.0
  9
$PLINEWID
 40
0.0
  9
$SPLFRAME
 70
     0
  9
$SPLINETYPE
 70
     6
  9
$SPLINESEGS
 70
     8
  9
$HANDSEED
  5
1B36
  9
$SURFTAB1
 70
     6
  9
$SURFTAB2
 70
     6
  9
$SURFTYPE
 70
     6
  9
$SURFU
 70
     6
  9
$SURFV
 70
     6
  9
$UCSBASE
  2

  9
$UCSNAME
  2

  9
$UCSORG
 10
0.0
 20
0.0
 30
0.0
  9
$UCSXDIR
 10
1.0
 20
0.0
 30
0.0
  9
$UCSYDIR
 10
0.0
 20
1.0
 30
0.0
  9
$UCSORTHOREF
  2

  9
$UCSORTHOVIEW
 70
     0
  9
$UCSORGTOP
 10
0.0
 20
0.0
 30
0.0
  9
$UCSORGBOTTOM
 10
0.0
 20
0.0
 30
0.0
  9
$UCSORGLEFT
 10
0.0
 20
0.0
 30
0.0
  9
$UCSORGRIGHT
 10
0.0
 20
0.0
 30
0.0
  9
$UCSORGFRONT
 10
0.0
 20
0.0
 30
0.0
  9
$UCSORGBACK
 10
0.0
 20
0.0
 30
0.0
  9
$PUCSBASE
  2

  9
$PUCSNAME
  2

  9
$PUCSORG
 10
0.0
 20
0.0
 30
0.0
  9
$PUCSXDIR
 10
1.0
 20
0.0
 30
0.0
  9
$PUCSYDIR
 10
0.0
 20
1.0
 30
0.0
  9
$PUCSORTHOREF
  2

  9
$PUCSORTHOVIEW
 70
     0
  9
$PUCSORGTOP
 10
0.0
 20
0.0
 30
0.0
  9
$PUCSORGBOTTOM
 10
0.0
 20
0.0
 30
0.0
  9
$PUCSORGLEFT
 10
0.0
 20
0.0
 30
0.0
  9
$PUCSORGRIGHT
 10
0.0
 20
0.0
 30
0.0
  9
$PUCSORGFRONT
 10
0.0
 20
0.0
 30
0.0
  9
$PUCSORGBACK
 10
0.0
 20
0.0
 30
0.0
  9
$USERI1
 70
     0
  9
$USERI2
 70
     0
  9
$USERI3
 70
     0
  9
$USERI4
 70
     0
  9
$USERI5
 70
     0
  9
$USERR1
 40
0.0
  9
$USERR2
 40
0.0
  9
$USERR3
 40
0.0
  9
$USERR4
 40
0.0
  9
$USERR5
 40
0.0
  9
$WORLDVIEW
 70
     1
  9
$SHADEDGE
 70
     3
  9
$SHADEDIF
 70
    70
  9
$TILEMODE
 70
     1
  9
$MAXACTVP
 70
    48
  9
$PINSBASE
 10
0.0
 20
0.0
 30
0.0
  9
$PLIMCHECK
 70
     0
  9
$PEXTMIN
 10
-0.2
 20
-0.2
 30
0.0
  9
$PEXTMAX
 10
255.2
 20
195.2
 30
0.0
  9
$PLIMMIN
 10
0.0
 20
0.0
  9
$PLIMMAX
 10
420.0
 20
297.0
  9
$UNITMODE
 70
     0
  9
$VISRETAIN
 70
     1
  9
$PLINEGEN
 70
     0
  9
$PSLTSCALE
 70
     1
  9
$TREEDEPTH
 70
  3020
  9
$CMLSTYLE
  2
STANDARD
  9
$CMLJUST
 70
     0
  9
$CMLSCALE
 40
20.0
  9
$PROXYGRAPHICS
 70
     1
  9
$MEASUREMENT
 70
     1
  9
$CELWEIGHT
370
    -1
  9
$ENDCAPS
280
     0
  9
$JOINSTYLE
280
     0
  9
$LWDISPLAY
290
     0
  9
$INSUNITS
 70
     0
  9
$HYPERLINKBASE
  1

  9
$STYLESHEET
  1
monochrome.ctb
  9
$XEDIT
290
     1
  9
$CEPSNTYPE
380
     0
  9
$PSTYLEMODE
290
     1
  9
$FINGERPRINTGUID
  2
{2BA633A6-83D3-40B4-9F10-2BE7B454E2E7}
  9
$VERSIONGUID
  2
{6F7BEC58-F438-4235-89B8-DDB7523C577E}
  9
$EXTNAMES
290
     1
  9
$PSVPSCALE
 40
0.0
  9
$OLESTARTUP
290
     0
  9
$SORTENTS
280
    96
  9
$INDEXCTL
280
     0
  9
$HIDETEXT
280
     0
  9
$XCLIPFRAME
290
     0
  9
$HALOGAP
280
     0
  9
$OBSCOLOR
 70
   257
  9
$OBSLTYPE
280
     0
  9
$INTERSECTIONDISPLAY
280
     0
  9
$INTERSECTIONCOLOR
 70
   257
  9
$DIMASSOC
280
     1
  9
$PROJECTNAME
  1

  0
ENDSEC
  0
SECTION
  2
CLASSES
  0
CLASS
  1
HATCH
  2
AcDbHatch
  3
ObjectDBX Classes
 90
        0
 91
       12
280
     0
281
     1
  0
CLASS
  1
DICTIONARYVAR
  2
AcDbDictionaryVar
  3
ObjectDBX Classes
 90
        0
 91
        2
280
     0
281
     0
  0
CLASS
  1
ACDBDICTIONARYWDFLT
  2
AcDbDictionaryWithDefault
  3
ObjectDBX Classes
 90
        0
 91
        1
280
     0
281
     0
  0
CLASS
  1
TABLESTYLE
  2
AcDbTableStyle
  3
ObjectDBX Classes
 90
     2047
 91
        1
280
     0
281
     0
  0
CLASS
  1
SORTENTSTABLE
  2
AcDbSortentsTable
  3
ObjectDBX Classes
 90
        0
 91
        1
280
     0
281
     0
  0
ENDSEC
  0
SECTION
  2
TABLES
  0
TABLE
  2
VPORT
  5
8
330
0
100
AcDbSymbolTable
 70
     2
  0
VPORT
  5
1B35
330
8
100
AcDbSymbolTableRecord
100
AcDbViewportTableRecord
  2
*Active
 70
     0
 10
0.0
 20
0.0
 11
1.0
 21
1.0
 12
127.5001757913795
 22
97.50086190498384
 13
0.0
 23
0.0
 14
10.0
 24
10.0
 15
10.0
 25
10.0
 16
0.0
 26
0.0
 36
1.0
 17
0.0
 27
0.0
 37
0.0
 40
196.9242214315943
 41
1.530456852791878
 42
50.0
 43
0.0
 44
0.0
 50
0.0
 51
0.0
 71
     0
 72
   100
 73
     1
 74
     1
 75
     0
 76
     0
 77
     0
 78
     0
281
     0
 65
     1
110
0.0
120
0.0
130
0.0
111
1.0
121
0.0
131
0.0
112
0.0
122
1.0
132
0.0
 79
     0
146
0.0
  0
ENDTAB
  0
TABLE
  2
LTYPE
  5
5
330
0
100
AcDbSymbolTable
 70
     4
  0
LTYPE
  5
12
330
5
100
AcDbSymbolTableRecord
100
AcDbLinetypeTableRecord
  2
BYBLOCK
 70
     0
  3

 72
    65
 73
     0
 40
0.0
  0
LTYPE
  5
13
330
5
100
AcDbSymbolTableRecord
100
AcDbLinetypeTableRecord
  2
BYLAYER
 70
     0
  3

 72
    65
 73
     0
 40
0.0
  0
LTYPE
  5
14
330
5
100
AcDbSymbolTableRecord
100
AcDbLinetypeTableRecord
  2
CONTINUOUS
 70
     0
  3
Solid line
 72
    65
 73
     0
 40
0.0
  0
LTYPE
  5
22
330
5
100
AcDbSymbolTableRecord
100
AcDbLinetypeTableRecord
  2
CENTER2
 70
     0
  3
Center (.5x) ___ _ ___ _ ___ _ ___ _ ___ _ ___
 72
    65
 73
     4
 40
28.575
 49
19.05
 74
     0
 49
-3.174999999999999
 74
     0
 49
3.174999999999999
 74
     0
 49
-3.174999999999999
 74
     0
  0
ENDTAB
  0
TABLE
  2
LAYER
  5
2
330
0
100
AcDbSymbolTable
 70
    16
  0
LAYER
  5
E
330
2
100
AcDbSymbolTableRecord
100
AcDbLayerTableRecord
  2
0
 70
     0
 62
     7
  6
CONTINUOUS
370
    -3
390
762
  0
LAYER
  5
25
330
2
100
AcDbSymbolTableRecord
100
AcDbLayerTableRecord
  2
外形線
 70
     0
 62
     7
  6
CONTINUOUS
370
    -3
390
762
  0
LAYER
  5
27
330
2
100
AcDbSymbolTableRecord
100
AcDbLayerTableRecord
  2
中心線
 70
     0
 62
     4
  6
CENTER2
370
    -3
390
762
  0
LAYER
  5
2A
330
2
100
AcDbSymbolTableRecord
100
AcDbLayerTableRecord
  2
ﾊｯﾁﾝｸ
 70
     0
 62
     4
  6
CONTINUOUS
370
    -3
390
762
  0
LAYER
  5
2B
330
2
100
AcDbSymbolTableRecord
100
AcDbLayerTableRecord
  2
文字
 70
     0
 62
     6
  6
CONTINUOUS
370
    -3
390
762
  0
LAYER
  5
2C
330
2
100
AcDbSymbolTableRecord
100
AcDbLayerTableRecord
  2
目盛
 70
     0
 62
    70
  6
CONTINUOUS
370
    -3
390
762
  0
LAYER
  5
2D
330
2
100
AcDbSymbolTableRecord
100
AcDbLayerTableRecord
  2
針
 70
     0
 62
     5
  6
CONTINUOUS
370
    -3
390
762
  0
LAYER
  5
53
330
2
100
AcDbSymbolTableRecord
100
AcDbLayerTableRecord
  2
DEFPOINTS
 70
     0
 62
     7
  6
CONTINUOUS
290
     0
370
    -3
390
762
  0
LAYER
  5
A5
330
2
100
AcDbSymbolTableRecord
100
AcDbLayerTableRecord
  2
C
 70
     0
 62
     7
  6
CONTINUOUS
370
    -3
390
762
  0
LAYER
  5
5B5
330
2
100
AcDbSymbolTableRecord
100
AcDbLayerTableRecord
  2
ROGO
 70
     0
 62
     6
  6
CONTINUOUS
370
    -3
390
762
  0
LAYER
  5
74A
330
2
100
AcDbSymbolTableRecord
100
AcDbLayerTableRecord
  2
寸法線
 70
     0
 62
     2
  6
CONTINUOUS
370
    -3
390
762
  0
ENDTAB
  0
TABLE
  2
STYLE
  5
3
330
0
100
AcDbSymbolTable
 70
     3
  0
STYLE
  5
F
330
3
100
AcDbSymbolTableRecord
100
AcDbTextStyleTableRecord
  2
STANDARD
 70
     0
 40
0.0
 41
1.0
 50
0.0
 71
     0
 42
2.5
  3
txt
  4

  0
STYLE
  5
3F
330
3
100
AcDbSymbolTableRecord
100
AcDbTextStyleTableRecord
  2
STYLE3
 70
     0
 40
0.0
 41
1.0
 50
0.0
 71
     0
 42
3.0
  3
romans.shx
  4
bigfont.shx
  0
ENDTAB
  0
TABLE
  2
VIEW
  5
6
330
0
100
AcDbSymbolTable
 70
     0
  0
ENDTAB
  0
TABLE
  2
UCS
  5
7
330
0
100
AcDbSymbolTable
 70
     0
  0
ENDTAB
  0
TABLE
  2
APPID
  5
9
330
0
100
AcDbSymbolTable
 70
     2
  0
APPID
  5
10
330
9
100
AcDbSymbolTableRecord
100
AcDbRegAppTableRecord
  2
ACAD
 70
     0
  0
APPID
  5
7BB
330
9
100
AcDbSymbolTableRecord
100
AcDbRegAppTableRecord
  2
ACAD_PSEXT
 70
     0
  0
ENDTAB
  0
TABLE
  2
DIMSTYLE
  5
A
330
0
100
AcDbSymbolTable
 70
     8
100
AcDbDimStyleTable
 71
     3
340
E1D
340
8F
340
E1E
  0
DIMSTYLE
105
1D
330
A
100
AcDbSymbolTableRecord
100
AcDbDimStyleTableRecord
  2
STANDARD
 70
     0
 41
2.5
 42
0.625
 43
3.75
 44
1.25
 73
     0
 74
     0
 77
     1
 78
     8
140
2.5
141
2.5
143
0.0394
147
0.625
171
     4
172
     1
273
     8
274
     4
277
     6
340
F
  0
DIMSTYLE
105
8F
102
{ACAD_REACTORS
330
BBF
330
BC0
330
BC2
330
BC3
330
BD9
330
D31
102
}
330
A
100
AcDbSymbolTableRecord
100
AcDbDimStyleTableRecord
  2
STYLE3
 70
     0
 41
2.5
 42
0.0
 43
3.75
 44
1.25
 73
     0
 74
     0
 77
     1
 78
     8
140
2.5
141
2.5
143
0.0394
147
0.625
171
     4
172
     1
173
     1
176
     2
177
     2
178
     6
271
     1
273
     8
274
     4
340
3F
341
45
343
45
344
45
  0
DIMSTYLE
105
E1D
102
{ACAD_REACTORS
330
199A
102
}
330
A
100
AcDbSymbolTableRecord
100
AcDbDimStyleTableRecord
  2
.0 type現尺
 70
     0
 41
2.5
 42
0.0
 43
3.75
 44
1.25
 73
     0
 74
     0
 77
     1
 78
     1
140
2.5
141
2.5
143
0.0394
147
0.625
171
     4
172
     1
173
     1
176
     2
177
     2
178
     6
271
     1
272
     1
273
     8
274
     4
340
3F
343
45
344
45
  0
DIMSTYLE
105
E1E
102
{ACAD_REACTORS
330
D47
330
1971
102
}
330
A
100
AcDbSymbolTableRecord
100
AcDbDimStyleTableRecord
  2
φ
 70
     0
  3
%%C<>
 41
2.5
 42
0.0
 43
3.75
 44
1.25
 73
     0
 74
     0
 77
     1
 78
     8
140
2.5
141
2.5
143
0.0394
147
0.625
171
     4
172
     1
173
     1
176
     2
177
     2
178
     6
271
     1
272
     1
273
     8
274
     4
340
3F
343
45
344
45
  0
ENDTAB
  0
TABLE
  2
BLOCK_RECORD
  5
1
330
0
100
AcDbSymbolTable
 70
    13
  0
BLOCK_RECORD
  5
18
102
{ACAD_XDICTIONARY
360
CB5
102
}
330
1
100
AcDbSymbolTableRecord
100
AcDbBlockTableRecord
  2
*MODEL_SPACE
340
769
  0
BLOCK_RECORD
  5
15
330
1
100
AcDbSymbolTableRecord
100
AcDbBlockTableRecord
  2
*PAPER_SPACE
340
76A
  0
BLOCK_RECORD
  5
45
330
1
100
AcDbSymbolTableRecord
100
AcDbBlockTableRecord
  2
_OPEN
340
0
102
{BLKREFS
331
A35
331
A36
331
A3F
331
A48
331
A49
331
A50
331
A51
331
A56
331
A57
331
A5B
331
A5E
331
A5F
331
A69
331
A6A
331
B10
331
B11
331
B23
331
B24
331
BB9
331
BBA
331
CDD
331
CDE
331
1AE0
331
1AE1
331
1AE9
331
1AEA
331
1AF4
331
1AF5
331
1AFD
331
1AFE
331
1B06
331
1B07
331
1B10
331
1B11
331
1B19
331
1B1A
331
1B24
331
1B25
331
1B2D
331
1B2E
102
}
  0
BLOCK_RECORD
  5
BDA
330
1
100
AcDbSymbolTableRecord
100
AcDbBlockTableRecord
  2
*D1
340
0
  0
BLOCK_RECORD
  5
BE6
330
1
100
AcDbSymbolTableRecord
100
AcDbBlockTableRecord
  2
*D2
340
0
  0
BLOCK_RECORD
  5
C02
330
1
100
AcDbSymbolTableRecord
100
AcDbBlockTableRecord
  2
*D3
340
0
  0
BLOCK_RECORD
  5
C0E
330
1
100
AcDbSymbolTableRecord
100
AcDbBlockTableRecord
  2
*D4
340
0
  0
BLOCK_RECORD
  5
C1A
330
1
100
AcDbSymbolTableRecord
100
AcDbBlockTableRecord
  2
*D5
340
0
  0
BLOCK_RECORD
  5
D32
330
1
100
AcDbSymbolTableRecord
100
AcDbBlockTableRecord
  2
*D6
340
0
  0
BLOCK_RECORD
  5
D48
330
1
100
AcDbSymbolTableRecord
100
AcDbBlockTableRecord
  2
*D7
340
0
  0
BLOCK_RECORD
  5
1972
330
1
100
AcDbSymbolTableRecord
100
AcDbBlockTableRecord
  2
*D9
340
0
  0
BLOCK_RECORD
  5
199B
330
1
100
AcDbSymbolTableRecord
100
AcDbBlockTableRecord
  2
*D10
340
0
  0
ENDTAB
  0
ENDSEC
  0
SECTION
  2
BLOCKS
  0
BLOCK
  5
19
330
18
100
AcDbEntity
  8
0
100
AcDbBlockBegin
  2
*MODEL_SPACE
 70
     0
 10
0.0
 20
0.0
 30
0.0
  3
*MODEL_SPACE
  1

  0
ENDBLK
  5
1A
330
18
100
AcDbEntity
  8
0
100
AcDbBlockEnd
  0
BLOCK
  5
16
330
15
100
AcDbEntity
 67
     1
  8
0
100
AcDbBlockBegin
  2
*PAPER_SPACE
 70
     0
 10
0.0
 20
0.0
 30
0.0
  3
*PAPER_SPACE
  1

  0
ENDBLK
  5
17
330
15
100
AcDbEntity
 67
     1
  8
0
100
AcDbBlockEnd
  0
BLOCK
  5
46
330
45
100
AcDbEntity
  8
0
100
AcDbBlockBegin
  2
_OPEN
 70
     0
 10
0.0
 20
0.0
 30
0.0
  3
_OPEN
  1

  0
LINE
  5
47
330
45
100
AcDbEntity
  8
0
  6
ByBlock
 62
     0
100
AcDbLine
 10
-1.0
 20
0.1666666666666666
 30
0.0
 11
0.0
 21
0.0
 31
0.0
  0
LINE
  5
48
330
45
100
AcDbEntity
  8
0
  6
ByBlock
 62
     0
100
AcDbLine
 10
0.0
 20
0.0
 30
0.0
 11
-1.0
 21
-0.1666666666666666
 31
0.0
  0
LINE
  5
49
330
45
100
AcDbEntity
  8
0
  6
ByBlock
 62
     0
100
AcDbLine
 10
0.0
 20
0.0
 30
0.0
 11
-1.0
 21
0.0
 31
0.0
  0
ENDBLK
  5
4A
330
45
100
AcDbEntity
  8
0
100
AcDbBlockEnd
  0
BLOCK
  5
BE4
330
BDA
100
AcDbEntity
  8
0
100
AcDbBlockBegin
  2
*D1
 70
     1
 10
0.0
 20
0.0
 30
0.0
  3
*D1
  1

  0
LINE
  5
1AFA
330
BDA
100
AcDbEntity
  8
寸法線
 62
     2
370
    -2
100
AcDbLine
 10
97.82719393958338
 20
113.0006538408195
 30
0.0
 11
54.10706904211429
 21
113.0006538408195
 31
0.0
  0
LINE
  5
1AFB
330
BDA
100
AcDbEntity
  8
寸法線
 62
     2
370
    -2
100
AcDbLine
 10
97.82719393958338
 20
143.0006538408195
 30
0.0
 11
54.10706904211429
 21
143.0006538408195
 31
0.0
  0
LINE
  5
1AFC
330
BDA
100
AcDbEntity
  8
寸法線
 62
     2
370
    -2
100
AcDbLine
 10
55.35706904211429
 20
115.5006538408195
 30
0.0
 11
55.35706904211429
 21
140.5006538408195
 31
0.0
  0
INSERT
  5
1AFD
330
BDA
100
AcDbEntity
  8
寸法線
 62
     2
370
    -2
100
AcDbBlockReference
  2
_OPEN
 10
55.35706904211429
 20
113.0006538408195
 30
0.0
 41
2.5
 42
2.5
 43
2.5
 50
270.0
  0
INSERT
  5
1AFE
330
BDA
100
AcDbEntity
  8
寸法線
 62
     2
370
    -2
100
AcDbBlockReference
  2
_OPEN
 10
55.35706904211429
 20
143.0006538408195
 30
0.0
 41
2.5
 42
2.5
 43
2.5
 50
90.0
  0
MTEXT
  5
1AFF
330
BDA
100
AcDbEntity
  8
寸法線
 62
     6
100
AcDbMText
 10
53.48206904211426
 20
128.0006538408195
 30
0.0
 40
2.5
 41
0.0
 71
     5
 72
     1
  1
\A1;φ30
  7
STYLE3
 11
0.0000000000000001
 21
1.0
 31
0.0
 73
     1
 44
1.0
  0
POINT
  5
1B00
330
BDA
100
AcDbEntity
  8
DEFPOINTS
 62
     0
100
AcDbPoint
 10
97.82719393958338
 20
113.0006538408195
 30
0.0
  0
POINT
  5
1B01
330
BDA
100
AcDbEntity
  8
DEFPOINTS
 62
     0
100
AcDbPoint
 10
97.82719393958338
 20
143.0006538408195
 30
0.0
  0
POINT
  5
1B02
330
BDA
100
AcDbEntity
  8
DEFPOINTS
 62
     0
100
AcDbPoint
 10
55.35706904211429
 20
143.0006538408195
 30
0.0
  0
ENDBLK
  5
BE5
330
BDA
100
AcDbEntity
  8
0
100
AcDbBlockEnd
  0
BLOCK
  5
BF2
330
BE6
100
AcDbEntity
  8
0
100
AcDbBlockBegin
  2
*D2
 70
     1
 10
0.0
 20
0.0
 30
0.0
  3
*D2
  1

  0
LINE
  5
1B1F
330
BE6
100
AcDbEntity
  8
寸法線
 62
     2
370
    -2
100
AcDbLine
 10
99.32219393958337
 20
112.0006538408195
 30
0.0
 11
85.18776588953505
 21
112.0006538408195
 31
0.0
  0
LINE
  5
1B20
330
BE6
100
AcDbEntity
  8
寸法線
 62
     2
370
    -2
100
AcDbLine
 10
85.30175750413707
 20
113.0006538408195
 30
0.0
 11
87.68776588953505
 21
113.0006538408195
 31
0.0
  0
LINE
  5
1B21
330
BE6
100
AcDbEntity
  8
寸法線
 62
     2
370
    -2
100
AcDbLine
 10
86.43776588953505
 20
109.5006538408195
 30
0.0
 11
86.43776588953505
 21
107.0006538408195
 31
0.0
  0
LINE
  5
1B22
330
BE6
100
AcDbEntity
  8
寸法線
 62
     2
370
    -2
100
AcDbLine
 10
86.43776588953505
 20
115.5006538408195
 30
0.0
 11
86.43776588953505
 21
119.8458919360576
 31
0.0
  0
LINE
  5
1B23
330
BE6
100
AcDbEntity
  8
寸法線
 62
     2
370
    -2
100
AcDbLine
 10
86.43776588953505
 20
112.0006538408195
 30
0.0
 11
86.43776588953505
 21
113.0006538408195
 31
0.0
  0
INSERT
  5
1B24
330
BE6
100
AcDbEntity
  8
寸法線
 62
     2
370
    -2
100
AcDbBlockReference
  2
_OPEN
 10
86.43776588953505
 20
112.0006538408195
 30
0.0
 41
2.5
 42
2.5
 43
2.5
 50
90.0
  0
INSERT
  5
1B25
330
BE6
100
AcDbEntity
  8
寸法線
 62
     2
370
    -2
100
AcDbBlockReference
  2
_OPEN
 10
86.43776588953505
 20
113.0006538408195
 30
0.0
 41
2.5
 42
2.5
 43
2.5
 50
270.0
  0
MTEXT
  5
1B26
330
BE6
100
AcDbEntity
  8
寸法線
 62
     6
100
AcDbMText
 10
84.56276588953505
 20
118.9232728884385
 30
0.0
 40
2.5
 41
0.0
 71
     5
 72
     1
  1
\A1;1
  7
STYLE3
 11
0.0000000000000001
 21
1.0
 31
0.0
 73
     1
 44
1.0
  0
POINT
  5
1B27
330
BE6
100
AcDbEntity
  8
DEFPOINTS
 62
     0
100
AcDbPoint
 10
99.32219393958337
 20
112.0006538408195
 30
0.0
  0
POINT
  5
1B28
330
BE6
100
AcDbEntity
  8
DEFPOINTS
 62
     0
100
AcDbPoint
 10
85.30175750413707
 20
113.0006538408195
 30
0.0
  0
POINT
  5
1B29
330
BE6
100
AcDbEntity
  8
DEFPOINTS
 62
     0
100
AcDbPoint
 10
86.43776588953505
 20
113.0006538408195
 30
0.0
  0
ENDBLK
  5
BF3
330
BE6
100
AcDbEntity
  8
0
100
AcDbBlockEnd
  0
BLOCK
  5
C0C
330
C02
100
AcDbEntity
  8
0
100
AcDbBlockBegin
  2
*D3
 70
     1
 10
0.0
 20
0.0
 30
0.0
  3
*D3
  1

  0
LINE
  5
1ADD
330
C02
100
AcDbEntity
  8
寸法線
 62
     2
370
    -2
100
AcDbLine
 10
108.6271939395833
 20
146.5006538408195
 30
0.0
 11
108.6271939395833
 21
150.1076801781001
 31
0.0
  0
LINE
  5
1ADE
330
C02
100
AcDbEntity
  8
寸法線
 62
     2
370
    -2
100
AcDbLine
 10
96.82719393958336
 20
149.4690872010214
 30
0.0
 11
96.82719393958336
 21
147.6076801781001
 31
0.0
  0
LINE
  5
1ADF
330
C02
100
AcDbEntity
  8
寸法線
 62
     2
370
    -2
100
AcDbLine
 10
106.1271939395833
 20
148.8576801781001
 30
0.0
 11
99.32719393958336
 21
148.8576801781001
 31
0.0
  0
INSERT
  5
1AE0
330
C02
100
AcDbEntity
  8
寸法線
 62
     2
370
    -2
100
AcDbBlockReference
  2
_OPEN
 10
108.6271939395833
 20
148.8576801781001
 30
0.0
 41
2.5
 42
2.5
 43
2.5
  0
INSERT
  5
1AE1
330
C02
100
AcDbEntity
  8
寸法線
 62
     2
370
    -2
100
AcDbBlockReference
  2
_OPEN
 10
96.82719393958336
 20
148.8576801781001
 30
0.0
 41
2.5
 42
2.5
 43
2.5
 50
180.0
  0
MTEXT
  5
1AE2
330
C02
100
AcDbEntity
  8
寸法線
 62
     6
100
AcDbMText
 10
102.7271939395834
 20
150.7326801781001
 30
0.0
 40
2.5
 41
0.0
 71
     5
 72
     1
  1
\A1;11.8
  7
STYLE3
 73
     1
 44
1.0
  0
POINT
  5
1AE3
330
C02
100
AcDbEntity
  8
DEFPOINTS
 62
     0
100
AcDbPoint
 10
108.6271939395833
 20
146.5006538408195
 30
0.0
  0
POINT
  5
1AE4
330
C02
100
AcDbEntity
  8
DEFPOINTS
 62
     0
100
AcDbPoint
 10
96.82719393958336
 20
149.4690872010214
 30
0.0
  0
POINT
  5
1AE5
330
C02
100
AcDbEntity
  8
DEFPOINTS
 62
     0
100
AcDbPoint
 10
96.82719393958336
 20
148.8576801781001
 30
0.0
  0
ENDBLK
  5
C0D
330
C02
100
AcDbEntity
  8
0
100
AcDbBlockEnd
  0
BLOCK
  5
C18
330
C0E
100
AcDbEntity
  8
0
100
AcDbBlockBegin
  2
*D4
 70
     1
 10
0.0
 20
0.0
 30
0.0
  3
*D4
  1

  0
LINE
  5
1B0C
330
C0E
100
AcDbEntity
  8
寸法線
 62
     2
370
    -2
100
AcDbLine
 10
98.82219393958337
 20
112.5006538408195
 30
0.0
 11
98.82219393958337
 21
101.1076387965909
 31
0.0
  0
LINE
  5
1B0D
330
C0E
100
AcDbEntity
  8
寸法線
 62
     2
370
    -2
100
AcDbLine
 10
108.6271939395833
 20
109.5006538408195
 30
0.0
 11
108.6271939395833
 21
101.1076387965909
 31
0.0
  0
LINE
  5
1B0E
330
C0E
100
AcDbEntity
  8
寸法線
 62
     2
370
    -2
100
AcDbLine
 10
106.1271939395833
 20
102.3576387965909
 30
0.0
 11
101.3221939395833
 21
102.3576387965909
 31
0.0
  0
LINE
  5
1B0F
330
C0E
100
AcDbEntity
  8
寸法線
 62
     2
370
    -2
100
AcDbLine
 10
98.82219393958337
 20
102.3576387965909
 30
0.0
 11
89.83409870148813
 21
102.3576387965909
 31
0.0
  0
INSERT
  5
1B10
330
C0E
100
AcDbEntity
  8
寸法線
 62
     2
370
    -2
100
AcDbBlockReference
  2
_OPEN
 10
108.6271939395833
 20
102.3576387965909
 30
0.0
 41
2.5
 42
2.5
 43
2.5
  0
INSERT
  5
1B11
330
C0E
100
AcDbEntity
  8
寸法線
 62
     2
370
    -2
100
AcDbBlockReference
  2
_OPEN
 10
98.82219393958337
 20
102.3576387965909
 30
0.0
 41
2.5
 42
2.5
 43
2.5
 50
180.0
  0
MTEXT
  5
1B12
330
C0E
100
AcDbEntity
  8
寸法線
 62
     6
100
AcDbMText
 10
93.07814632053576
 20
104.2326387965909
 30
0.0
 40
2.5
 41
0.0
 71
     5
 72
     1
  1
\A1;9.8
  7
STYLE3
 73
     1
 44
1.0
  0
POINT
  5
1B13
330
C0E
100
AcDbEntity
  8
DEFPOINTS
 62
     0
100
AcDbPoint
 10
98.82219393958337
 20
112.5006538408195
 30
0.0
  0
POINT
  5
1B14
330
C0E
100
AcDbEntity
  8
DEFPOINTS
 62
     0
100
AcDbPoint
 10
108.6271939395833
 20
109.5006538408195
 30
0.0
  0
POINT
  5
1B15
330
C0E
100
AcDbEntity
  8
DEFPOINTS
 62
     0
100
AcDbPoint
 10
108.6271939395833
 20
102.3576387965909
 30
0.0
  0
ENDBLK
  5
C19
330
C0E
100
AcDbEntity
  8
0
100
AcDbBlockEnd
  0
BLOCK
  5
C24
330
C1A
100
AcDbEntity
  8
0
100
AcDbBlockBegin
  2
*D5
 70
     1
 10
0.0
 20
0.0
 30
0.0
  3
*D5
  1

  0
LINE
  5
1B03
330
C1A
100
AcDbEntity
  8
寸法線
 62
     2
370
    -2
100
AcDbLine
 10
102.8271939395833
 20
36.76531279125101
 30
0.0
 11
88.04635911828972
 21
36.76531279125101
 31
0.0
  0
LINE
  5
1B04
330
C1A
100
AcDbEntity
  8
寸法線
 62
     2
370
    -2
100
AcDbLine
 10
102.8271939395833
 20
44.765312791251
 30
0.0
 11
88.04635911828972
 21
44.765312791251
 31
0.0
  0
LINE
  5
1B05
330
C1A
100
AcDbEntity
  8
寸法線
 62
     2
370
    -2
100
AcDbLine
 10
89.29635911828972
 20
39.265312791251
 30
0.0
 11
89.29635911828972
 21
42.265312791251
 31
0.0
  0
INSERT
  5
1B06
330
C1A
100
AcDbEntity
  8
寸法線
 62
     2
370
    -2
100
AcDbBlockReference
  2
_OPEN
 10
89.29635911828972
 20
36.76531279125101
 30
0.0
 41
2.5
 42
2.5
 43
2.5
 50
270.0
  0
INSERT
  5
1B07
330
C1A
100
AcDbEntity
  8
寸法線
 62
     2
370
    -2
100
AcDbBlockReference
  2
_OPEN
 10
89.29635911828972
 20
44.765312791251
 30
0.0
 41
2.5
 42
2.5
 43
2.5
 50
90.0
  0
MTEXT
  5
1B08
330
C1A
100
AcDbEntity
  8
寸法線
 62
     6
100
AcDbMText
 10
87.42135911828972
 20
40.76531279125101
 30
0.0
 40
2.5
 41
0.0
 71
     5
 72
     1
  1
\A1;8
  7
STYLE3
 11
0.0000000000000001
 21
1.0
 31
0.0
 73
     1
 44
1.0
  0
POINT
  5
1B09
330
C1A
100
AcDbEntity
  8
DEFPOINTS
 62
     0
100
AcDbPoint
 10
102.8271939395833
 20
36.76531279125101
 30
0.0
  0
POINT
  5
1B0A
330
C1A
100
AcDbEntity
  8
DEFPOINTS
 62
     0
100
AcDbPoint
 10
102.8271939395833
 20
44.765312791251
 30
0.0
  0
POINT
  5
1B0B
330
C1A
100
AcDbEntity
  8
DEFPOINTS
 62
     0
100
AcDbPoint
 10
89.29635911828972
 20
44.765312791251
 30
0.0
  0
ENDBLK
  5
C25
330
C1A
100
AcDbEntity
  8
0
100
AcDbBlockEnd
  0
BLOCK
  5
D3C
330
D32
100
AcDbEntity
  8
0
100
AcDbBlockBegin
  2
*D6
 70
     1
 10
0.0
 20
0.0
 30
0.0
  3
*D6
  1

  0
LINE
  5
1B16
330
D32
100
AcDbEntity
  8
寸法線
 62
     2
370
    -2
100
AcDbLine
 10
112.4771939395834
 20
147.0006538408195
 30
0.0
 11
138.489211293182
 21
147.0006538408195
 31
0.0
  0
LINE
  5
1B17
330
D32
100
AcDbEntity
  8
寸法線
 62
     2
370
    -2
100
AcDbLine
 10
106.0021939395833
 20
71.0006538408195
 30
0.0
 11
138.489211293182
 21
71.0006538408195
 31
0.0
  0
LINE
  5
1B18
330
D32
100
AcDbEntity
  8
寸法線
 62
     2
370
    -2
100
AcDbLine
 10
137.239211293182
 20
144.5006538408195
 30
0.0
 11
137.239211293182
 21
73.5006538408195
 31
0.0
  0
INSERT
  5
1B19
330
D32
100
AcDbEntity
  8
寸法線
 62
     2
370
    -2
100
AcDbBlockReference
  2
_OPEN
 10
137.239211293182
 20
147.0006538408195
 30
0.0
 41
2.5
 42
2.5
 43
2.5
 50
90.0
  0
INSERT
  5
1B1A
330
D32
100
AcDbEntity
  8
寸法線
 62
     2
370
    -2
100
AcDbBlockReference
  2
_OPEN
 10
137.239211293182
 20
71.0006538408195
 30
0.0
 41
2.5
 42
2.5
 43
2.5
 50
270.0
  0
MTEXT
  5
1B1B
330
D32
100
AcDbEntity
  8
寸法線
 62
     6
100
AcDbMText
 10
135.364211293182
 20
109.0006538408195
 30
0.0
 40
2.5
 41
0.0
 71
     5
 72
     1
  1
\A1;76
  7
STYLE3
 11
0.0000000000000001
 21
1.0
 31
0.0
 73
     1
 44
1.0
  0
POINT
  5
1B1C
330
D32
100
AcDbEntity
  8
DEFPOINTS
 62
     0
100
AcDbPoint
 10
112.4771939395834
 20
147.0006538408195
 30
0.0
  0
POINT
  5
1B1D
330
D32
100
AcDbEntity
  8
DEFPOINTS
 62
     0
100
AcDbPoint
 10
106.0021939395833
 20
71.0006538408195
 30
0.0
  0
POINT
  5
1B1E
330
D32
100
AcDbEntity
  8
DEFPOINTS
 62
     0
100
AcDbPoint
 10
137.239211293182
 20
71.0006538408195
 30
0.0
  0
ENDBLK
  5
D3D
330
D32
100
AcDbEntity
  8
0
100
AcDbBlockEnd
  0
BLOCK
  5
D52
330
D48
100
AcDbEntity
  8
0
100
AcDbBlockBegin
  2
*D7
 70
     1
 10
0.0
 20
0.0
 30
0.0
  3
*D7
  1

  0
LINE
  5
1B2A
330
D48
100
AcDbEntity
  8
寸法線
 62
     2
370
    -2
100
AcDbLine
 10
113.061994682304
 20
147.0006538408195
 30
0.0
 11
129.0235686379042
 21
147.0006538408195
 31
0.0
  0
LINE
  5
1B2B
330
D48
100
AcDbEntity
  8
寸法線
 62
     2
370
    -2
100
AcDbLine
 10
113.061994682304
 20
109.0006538408195
 30
0.0
 11
129.0235686379042
 21
109.0006538408195
 31
0.0
  0
LINE
  5
1B2C
330
D48
100
AcDbEntity
  8
寸法線
 62
     2
370
    -2
100
AcDbLine
 10
127.7735686379042
 20
144.5006538408195
 30
0.0
 11
127.7735686379042
 21
111.5006538408195
 31
0.0
  0
INSERT
  5
1B2D
330
D48
100
AcDbEntity
  8
寸法線
 62
     2
370
    -2
100
AcDbBlockReference
  2
_OPEN
 10
127.7735686379042
 20
147.0006538408195
 30
0.0
 41
2.5
 42
2.5
 43
2.5
 50
90.0
  0
INSERT
  5
1B2E
330
D48
100
AcDbEntity
  8
寸法線
 62
     2
370
    -2
100
AcDbBlockReference
  2
_OPEN
 10
127.7735686379042
 20
109.0006538408195
 30
0.0
 41
2.5
 42
2.5
 43
2.5
 50
270.0
  0
MTEXT
  5
1B2F
330
D48
100
AcDbEntity
  8
寸法線
 62
     6
100
AcDbMText
 10
125.8985686379042
 20
128.0006538408195
 30
0.0
 40
2.5
 41
0.0
 71
     5
 72
     1
  1
\A1;%%C38
  7
STYLE3
 11
0.0000000000000001
 21
1.0
 31
0.0
 73
     1
 44
1.0
  0
POINT
  5
1B30
330
D48
100
AcDbEntity
  8
DEFPOINTS
 62
     0
100
AcDbPoint
 10
113.061994682304
 20
147.0006538408195
 30
0.0
  0
POINT
  5
1B31
330
D48
100
AcDbEntity
  8
DEFPOINTS
 62
     0
100
AcDbPoint
 10
113.061994682304
 20
109.0006538408195
 30
0.0
  0
POINT
  5
1B32
330
D48
100
AcDbEntity
  8
DEFPOINTS
 62
     0
100
AcDbPoint
 10
127.7735686379042
 20
109.0006538408195
 30
0.0
  0
ENDBLK
  5
D53
330
D48
100
AcDbEntity
  8
0
100
AcDbBlockEnd
  0
BLOCK
  5
197C
330
1972
100
AcDbEntity
  8
0
100
AcDbBlockBegin
  2
*D9
 70
     1
 10
0.0
 20
0.0
 30
0.0
  3
*D9
  1

  0
LINE
  5
1AE6
330
1972
100
AcDbEntity
  8
寸法線
 62
     2
370
    -2
100
AcDbLine
 10
162.4103988766065
 20
128.0006538408195
 30
0.0
 11
162.4103988766065
 21
155.6318323611895
 31
0.0
  0
LINE
  5
1AE7
330
1972
100
AcDbEntity
  8
寸法線
 62
     2
370
    -2
100
AcDbLine
 10
195.4103988766064
 20
128.0006538408195
 30
0.0
 11
195.4103988766064
 21
155.6318323611895
 31
0.0
  0
LINE
  5
1AE8
330
1972
100
AcDbEntity
  8
寸法線
 62
     2
370
    -2
100
AcDbLine
 10
164.9103988766064
 20
154.3818323611894
 30
0.0
 11
192.9103988766064
 21
154.3818323611894
 31
0.0
  0
INSERT
  5
1AE9
330
1972
100
AcDbEntity
  8
寸法線
 62
     2
370
    -2
100
AcDbBlockReference
  2
_OPEN
 10
162.4103988766065
 20
154.3818323611894
 30
0.0
 41
2.5
 42
2.5
 43
2.5
 50
180.0
  0
INSERT
  5
1AEA
330
1972
100
AcDbEntity
  8
寸法線
 62
     2
370
    -2
100
AcDbBlockReference
  2
_OPEN
 10
195.4103988766064
 20
154.3818323611894
 30
0.0
 41
2.5
 42
2.5
 43
2.5
  0
MTEXT
  5
1AEB
330
1972
100
AcDbEntity
  8
寸法線
 62
     6
100
AcDbMText
 10
178.9103988766064
 20
156.2568323611895
 30
0.0
 40
2.5
 41
0.0
 71
     5
 72
     1
  1
\A1;%%C33
  7
STYLE3
 73
     1
 44
1.0
  0
POINT
  5
1AEC
330
1972
100
AcDbEntity
  8
DEFPOINTS
 62
     0
100
AcDbPoint
 10
162.4103988766065
 20
128.0006538408195
 30
0.0
  0
POINT
  5
1AED
330
1972
100
AcDbEntity
  8
DEFPOINTS
 62
     0
100
AcDbPoint
 10
195.4103988766064
 20
128.0006538408195
 30
0.0
  0
POINT
  5
1AEE
330
1972
100
AcDbEntity
  8
DEFPOINTS
 62
     0
100
AcDbPoint
 10
195.4103988766064
 20
154.3818323611894
 30
0.0
  0
ENDBLK
  5
197D
330
1972
100
AcDbEntity
  8
0
100
AcDbBlockEnd
  0
BLOCK
  5
19A7
330
199B
100
AcDbEntity
  8
0
100
AcDbBlockBegin
  2
*D10
 70
     1
 10
0.0
 20
0.0
 30
0.0
  3
*D10
  1

  0
LINE
  5
1AEF
330
199B
100
AcDbEntity
  8
寸法線
 62
     2
370
    -2
100
AcDbLine
 10
91.57127695160374
 20
135.5006538408194
 30
0.0
 11
67.61424537680716
 21
135.5006538408194
 31
0.0
  0
LINE
  5
1AF0
330
199B
100
AcDbEntity
  8
寸法線
 62
     2
370
    -2
100
AcDbLine
 10
91.57127695160374
 20
129.5006538408195
 30
0.0
 11
67.61424537680716
 21
129.5006538408195
 31
0.0
  0
LINE
  5
1AF1
330
199B
100
AcDbEntity
  8
寸法線
 62
     2
370
    -2
100
AcDbLine
 10
68.86424537680716
 20
127.0006538408195
 30
0.0
 11
68.86424537680716
 21
124.5006538408195
 31
0.0
  0
LINE
  5
1AF2
330
199B
100
AcDbEntity
  8
寸法線
 62
     2
370
    -2
100
AcDbLine
 10
68.86424537680716
 20
138.0006538408194
 30
0.0
 11
68.86424537680716
 21
157.024463364629
 31
0.0
  0
LINE
  5
1AF3
330
199B
100
AcDbEntity
  8
寸法線
 62
     2
370
    -2
100
AcDbLine
 10
68.86424537680716
 20
129.5006538408195
 30
0.0
 11
68.86424537680716
 21
135.5006538408194
 31
0.0
  0
INSERT
  5
1AF4
330
199B
100
AcDbEntity
  8
寸法線
 62
     2
370
    -2
100
AcDbBlockReference
  2
_OPEN
 10
68.86424537680716
 20
129.5006538408195
 30
0.0
 41
2.5
 42
2.5
 43
2.5
 50
90.0
  0
INSERT
  5
1AF5
330
199B
100
AcDbEntity
  8
寸法線
 62
     2
370
    -2
100
AcDbBlockReference
  2
_OPEN
 10
68.86424537680716
 20
135.5006538408194
 30
0.0
 41
2.5
 42
2.5
 43
2.5
 50
270.0
  0
MTEXT
  5
1AF6
330
199B
100
AcDbEntity
  8
寸法線
 62
     6
100
AcDbMText
 10
66.19757871014048
 20
148.7625586027242
 30
0.0
 40
2.5
 41
0.0
 71
     5
 72
     1
  1
\A1;%%c6.0{\H1.750000;\S 0^ -0.03;}
  7
STYLE3
 11
0.0000000000000001
 21
1.0
 31
0.0
 73
     1
 44
1.0
  0
POINT
  5
1AF7
330
199B
100
AcDbEntity
  8
DEFPOINTS
 62
     0
100
AcDbPoint
 10
91.57127695160374
 20
135.5006538408194
 30
0.0
  0
POINT
  5
1AF8
330
199B
100
AcDbEntity
  8
DEFPOINTS
 62
     0
100
AcDbPoint
 10
91.57127695160374
 20
129.5006538408195
 30
0.0
  0
POINT
  5
1AF9
330
199B
100
AcDbEntity
  8
DEFPOINTS
 62
     0
100
AcDbPoint
 10
68.86424537680716
 20
129.5006538408195
 30
0.0
  0
ENDBLK
  5
19A8
330
199B
100
AcDbEntity
  8
0
100
AcDbBlockEnd
  0
ENDSEC
  0
SECTION
  2
ENTITIES
  0
LWPOLYLINE
  5
26C
330
18
100
AcDbEntity
  8
C
100
AcDbPolyline
 90
        5
 70
     0
 43
0.4
 10
0.0
 20
195.0
 10
255.0
 20
195.0
 10
255.0
 20
0.0
 10
0.0
 20
0.0
 10
0.0
 20
195.0
  0
LINE
  5
9CE
330
18
100
AcDbEntity
  8
中心線
 48
0.5
100
AcDbLine
 10
92.45168274751586
 20
128.0006538408195
 30
0.0
 11
121.0494806296495
 21
128.0006538408195
 31
0.0
  0
LINE
  5
9CF
330
18
100
AcDbEntity
  8
中心線
 48
0.5
100
AcDbLine
 10
102.8271939395833
 20
145.9131594352963
 30
0.0
 11
102.8271939395833
 21
69.16159437322733
 31
0.0
  0
LINE
  5
9D0
330
18
100
AcDbEntity
  8
外形線
100
AcDbLine
 10
106.0021939395833
 20
112.0006538408195
 30
0.0
 11
106.0021939395833
 21
71.50065384081949
 31
0.0
  0
LINE
  5
9D1
330
18
100
AcDbEntity
  8
外形線
100
AcDbLine
 10
99.65219393958337
 20
112.0006538408195
 30
0.0
 11
99.65219393958335
 21
71.50065384081949
 31
0.0
  0
LINE
  5
9D2
330
18
100
AcDbEntity
  8
外形線
100
AcDbLine
 10
97.82719393958338
 20
143.0006538408195
 30
0.0
 11
108.6271939395833
 21
143.0006538408195
 31
0.0
  0
LINE
  5
9D3
330
18
100
AcDbEntity
  8
外形線
100
AcDbLine
 10
97.82719393958338
 20
113.0006538408195
 30
0.0
 11
108.6271939395833
 21
113.0006538408195
 31
0.0
  0
LINE
  5
9D4
330
18
100
AcDbEntity
  8
外形線
100
AcDbLine
 10
96.82719393958336
 20
126.0006538408195
 30
0.0
 11
96.82719393958336
 21
114.0006538408195
 31
0.0
  0
LINE
  5
9D5
330
18
100
AcDbEntity
  8
外形線
100
AcDbLine
 10
99.32219393958337
 20
112.0006538408195
 30
0.0
 11
108.6271939395833
 21
112.0006538408195
 31
0.0
  0
ARC
  5
9D6
330
18
100
AcDbEntity
  8
外形線
100
AcDbCircle
 10
97.82719393958338
 20
114.0006538408195
 30
0.0
 40
1.0
100
AcDbArc
 50
180.0
 51
270.0
  0
LINE
  5
9D7
330
18
100
AcDbEntity
  8
中心線
 48
0.5
100
AcDbLine
 10
73.4229880167436
 20
132.5006538408195
 30
0.0
 11
98.83671985195599
 21
132.5006538408195
 31
0.0
  0
LINE
  5
9D8
330
18
100
AcDbEntity
  8
外形線
100
AcDbLine
 10
94.72719393958337
 20
137.0006538408195
 30
0.0
 11
94.72719393958337
 21
128.0006538408195
 31
0.0
  0
LINE
  5
9D9
330
18
100
AcDbEntity
  8
外形線
100
AcDbLine
 10
95.22719393958338
 20
127.5006538408195
 30
0.0
 11
95.32719393958336
 21
127.5006538408195
 31
0.0
  0
LINE
  5
9DA
330
18
100
AcDbEntity
  8
外形線
100
AcDbLine
 10
95.22719393958338
 20
137.5006538408195
 30
0.0
 11
95.32719393958336
 21
137.5006538408195
 31
0.0
  0
ARC
  5
9DB
330
18
100
AcDbEntity
  8
外形線
100
AcDbCircle
 10
95.22719393958338
 20
128.0006538408195
 30
0.0
 40
0.5
100
AcDbArc
 50
180.0
 51
270.0
  0
ARC
  5
9DC
330
18
100
AcDbEntity
  8
外形線
100
AcDbCircle
 10
95.22719393958338
 20
137.0006538408195
 30
0.0
 40
0.5
100
AcDbArc
 50
90.0
 51
180.0
  0
ARC
  5
9DD
330
18
100
AcDbEntity
  8
外形線
100
AcDbCircle
 10
95.32719393958336
 20
126.0006538408195
 30
0.0
 40
1.5
100
AcDbArc
 50
0.0
 51
90.0
  0
ARC
  5
9DE
330
18
100
AcDbEntity
  8
外形線
100
AcDbCircle
 10
95.32719393958336
 20
139.0006538408195
 30
0.0
 40
1.5
100
AcDbArc
 50
270.0
 51
0.0
  0
LINE
  5
9DF
330
18
100
AcDbEntity
  8
外形線
100
AcDbLine
 10
96.82719393958336
 20
126.0006538408195
 30
0.0
 11
96.82719393958336
 21
142.0006538408195
 31
0.0
  0
ARC
  5
9E0
330
18
100
AcDbEntity
  8
外形線
100
AcDbCircle
 10
97.82719393958338
 20
142.0006538408195
 30
0.0
 40
1.0
100
AcDbArc
 50
90.0
 51
180.0
  0
LINE
  5
9E1
330
18
100
AcDbEntity
  8
外形線
100
AcDbLine
 10
90.22719393958338
 20
135.5006538408194
 30
0.0
 11
94.72719393958337
 21
135.5006538408195
 31
0.0
  0
LINE
  5
9E2
330
18
100
AcDbEntity
  8
外形線
100
AcDbLine
 10
90.22719393958336
 20
129.5006538408195
 30
0.0
 11
94.72719393958337
 21
129.5006538408195
 31
0.0
  0
LINE
  5
9E3
330
18
100
AcDbEntity
  8
外形線
100
AcDbLine
 10
89.22719393958336
 20
134.5006538408194
 30
0.0
 11
89.22719393958335
 21
130.5006538408195
 31
0.0
  0
ARC
  5
9E4
330
18
100
AcDbEntity
  8
外形線
100
AcDbCircle
 10
90.22719393958338
 20
134.5006538408194
 30
0.0
 40
1.0
100
AcDbArc
 50
90.0
 51
180.0
  0
ARC
  5
9E5
330
18
100
AcDbEntity
  8
外形線
100
AcDbCircle
 10
90.22719393958336
 20
130.5006538408195
 30
0.0
 40
1.0
100
AcDbArc
 50
180.0
 51
270.0
  0
LINE
  5
9E6
330
18
100
AcDbEntity
  8
外形線
100
AcDbLine
 10
83.72719393958337
 20
134.2506538408195
 30
0.0
 11
89.22719393958335
 21
134.2506538408195
 31
0.0
  0
LINE
  5
9E7
330
18
100
AcDbEntity
  8
外形線
100
AcDbLine
 10
83.72719393958337
 20
130.7506538408195
 30
0.0
 11
89.22719393958335
 21
130.7506538408195
 31
0.0
  0
LINE
  5
9E8
330
18
100
AcDbEntity
  8
外形線
100
AcDbLine
 10
83.72719393958337
 20
134.5006538408195
 30
0.0
 11
83.72719393958334
 21
130.5006538408195
 31
0.0
  0
LINE
  5
9E9
330
18
100
AcDbEntity
  8
外形線
100
AcDbLine
 10
80.22719393958338
 20
130.2506538408195
 30
0.0
 11
75.72719393958337
 21
131.2006538408195
 31
0.0
  0
LINE
  5
9EA
330
18
100
AcDbEntity
  8
外形線
100
AcDbLine
 10
80.42719393958336
 20
135.0006538408196
 30
0.0
 11
80.42719393958334
 21
130.0006538408195
 31
0.0
  0
LINE
  5
9EB
330
18
100
AcDbEntity
  8
外形線
100
AcDbLine
 10
83.52719393958338
 20
135.0006538408196
 30
0.0
 11
83.52719393958338
 21
130.0006538408195
 31
0.0
  0
LINE
  5
9EC
330
18
100
AcDbEntity
  8
外形線
100
AcDbLine
 10
80.22719393958338
 20
134.7506538408195
 30
0.0
 11
80.22719393958338
 21
130.2506538408196
 31
0.0
  0
LINE
  5
9ED
330
18
100
AcDbEntity
  8
外形線
100
AcDbLine
 10
83.72719393958337
 20
134.7506538408195
 30
0.0
 11
83.72719393958337
 21
130.2506538408195
 31
0.0
  0
LINE
  5
9EE
330
18
100
AcDbEntity
  8
外形線
100
AcDbLine
 10
83.52719393958338
 20
135.0006538408195
 30
0.0
 11
80.42719393958336
 21
135.0006538408195
 31
0.0
  0
POINT
  5
9EF
330
18
100
AcDbEntity
  8
DEFPOINTS
  6
ByBlock
 62
     0
100
AcDbPoint
 10
74.72719393958337
 20
132.5006538408195
 30
0.0
  0
LINE
  5
9F0
330
18
100
AcDbEntity
  8
外形線
100
AcDbLine
 10
80.22719393958338
 20
134.7506538408195
 30
0.0
 11
75.72719393958337
 21
133.8006538408195
 31
0.0
  0
LINE
  5
9F1
330
18
100
AcDbEntity
  8
外形線
100
AcDbLine
 10
75.72719393958337
 20
133.8006538408195
 30
0.0
 11
75.72719393958337
 21
131.2006538408195
 31
0.0
  0
LINE
  5
9F3
330
18
100
AcDbEntity
  8
外形線
100
AcDbLine
 10
80.42719393958336
 20
135.0006538408195
 30
0.0
 11
80.22719393958338
 21
134.7506538408195
 31
0.0
  0
LINE
  5
9F4
330
18
100
AcDbEntity
  8
外形線
100
AcDbLine
 10
83.72719393958337
 20
134.7506538408195
 30
0.0
 11
83.52719393958338
 21
135.0006538408195
 31
0.0
  0
LINE
  5
9F5
330
18
100
AcDbEntity
  8
外形線
100
AcDbLine
 10
83.52719393958338
 20
130.0006538408195
 30
0.0
 11
80.42719393958334
 21
130.0006538408196
 31
0.0
  0
LINE
  5
9F6
330
18
100
AcDbEntity
  8
外形線
100
AcDbLine
 10
80.42719393958334
 20
130.0006538408195
 30
0.0
 11
80.22719393958338
 21
130.2506538408195
 31
0.0
  0
LINE
  5
9F7
330
18
100
AcDbEntity
  8
外形線
100
AcDbLine
 10
83.72719393958337
 20
130.2506538408195
 30
0.0
 11
83.52719393958338
 21
130.0006538408195
 31
0.0
  0
LINE
  5
9F8
330
18
100
AcDbEntity
  8
外形線
100
AcDbLine
 10
98.82219393958337
 20
113.0006538408195
 30
0.0
 11
98.82219393958337
 21
112.5006538408195
 31
0.0
  0
ARC
  5
9F9
330
18
100
AcDbEntity
  8
外形線
100
AcDbCircle
 10
99.32219393958337
 20
112.5006538408195
 30
0.0
 40
0.5
100
AcDbArc
 50
180.0
 51
270.0
  0
LINE
  5
9FA
330
18
100
AcDbEntity
  8
外形線
100
AcDbLine
 10
108.6271939395833
 20
146.5006538408195
 30
0.0
 11
108.6271939395833
 21
128.0006538408195
 31
0.0
  0
LINE
  5
9FB
330
18
100
AcDbEntity
  8
外形線
100
AcDbLine
 10
109.8271939395834
 20
146.5006538408195
 30
0.0
 11
109.8271939395834
 21
128.0006538408195
 31
0.0
  0
LINE
  5
9FC
330
18
100
AcDbEntity
  8
外形線
100
AcDbLine
 10
114.9271939395833
 20
146.7006538408195
 30
0.0
 11
114.9271939395833
 21
128.0006538408195
 31
0.0
  0
LINE
  5
9FD
330
18
100
AcDbEntity
  8
外形線
100
AcDbLine
 10
108.6271939395833
 20
146.5006538408195
 30
0.0
 11
109.8271939395834
 21
146.5006538408195
 31
0.0
  0
LINE
  5
9FE
330
18
100
AcDbEntity
  8
外形線
100
AcDbLine
 10
110.3271939395834
 20
147.0006538408195
 30
0.0
 11
114.6271939395834
 21
147.0006538408195
 31
0.0
  0
LINE
  5
9FF
330
18
100
AcDbEntity
  8
外形線
100
AcDbLine
 10
109.8271939395834
 20
146.5006538408195
 30
0.0
 11
110.3271939395834
 21
147.0006538408195
 31
0.0
  0
LINE
  5
A01
330
18
100
AcDbEntity
  8
外形線
100
AcDbLine
 10
115.4271939395834
 20
145.7506538408194
 30
0.0
 11
115.4271939395833
 21
128.0006538408195
 31
0.0
  0
LINE
  5
A02
330
18
100
AcDbEntity
  8
外形線
100
AcDbLine
 10
114.9271939395833
 20
146.5006538408195
 30
0.0
 11
115.4271939395834
 21
145.7506538408194
 31
0.0
  0
LINE
  5
A03
330
18
100
AcDbEntity
  8
外形線
100
AcDbLine
 10
110.3271939395834
 20
147.0006538408195
 30
0.0
 11
110.3271939395834
 21
128.0006538408195
 31
0.0
  0
LINE
  5
A04
330
18
100
AcDbEntity
  8
ﾊｯﾁﾝｸ
100
AcDbLine
 10
110.3271939395834
 20
146.1006538408195
 30
0.0
 11
114.9271939395833
 21
146.1006538408195
 31
0.0
  0
LINE
  5
A05
330
18
100
AcDbEntity
  8
ﾊｯﾁﾝｸ
100
AcDbLine
 10
110.3271939395834
 20
145.1006538408195
 30
0.0
 11
114.9271939395833
 21
145.1006538408195
 31
0.0
  0
LINE
  5
A06
330
18
100
AcDbEntity
  8
ﾊｯﾁﾝｸ
100
AcDbLine
 10
110.3271939395834
 20
144.0006538408195
 30
0.0
 11
114.9271939395833
 21
144.0006538408195
 31
0.0
  0
LINE
  5
A07
330
18
100
AcDbEntity
  8
ﾊｯﾁﾝｸ
100
AcDbLine
 10
110.3271939395834
 20
142.8006538408195
 30
0.0
 11
114.9271939395833
 21
142.8006538408195
 31
0.0
  0
LINE
  5
A08
330
18
100
AcDbEntity
  8
外形線
100
AcDbLine
 10
108.6271939395833
 20
109.5006538408195
 30
0.0
 11
108.6271939395833
 21
128.0006538408195
 31
0.0
  0
LINE
  5
A09
330
18
100
AcDbEntity
  8
外形線
100
AcDbLine
 10
110.3271939395834
 20
109.0006538408194
 30
0.0
 11
110.3271939395834
 21
128.0006538408195
 31
0.0
  0
LINE
  5
A0A
330
18
100
AcDbEntity
  8
外形線
100
AcDbLine
 10
109.8271939395834
 20
109.5006538408194
 30
0.0
 11
109.8271939395834
 21
128.0006538408195
 31
0.0
  0
LINE
  5
A0B
330
18
100
AcDbEntity
  8
外形線
100
AcDbLine
 10
114.9271939395833
 20
109.3006538408195
 30
0.0
 11
114.9271939395833
 21
128.0006538408195
 31
0.0
  0
LINE
  5
A0C
330
18
100
AcDbEntity
  8
外形線
100
AcDbLine
 10
115.4271939395834
 20
110.2506538408195
 30
0.0
 11
115.4271939395833
 21
128.0006538408195
 31
0.0
  0
LINE
  5
A0D
330
18
100
AcDbEntity
  8
外形線
100
AcDbLine
 10
108.6271939395833
 20
109.5006538408195
 30
0.0
 11
109.8271939395834
 21
109.5006538408195
 31
0.0
  0
LINE
  5
A0E
330
18
100
AcDbEntity
  8
ﾊｯﾁﾝｸ
100
AcDbLine
 10
110.3271939395834
 20
113.2006538408194
 30
0.0
 11
114.9271939395833
 21
113.2006538408194
 31
0.0
  0
LINE
  5
A0F
330
18
100
AcDbEntity
  8
ﾊｯﾁﾝｸ
100
AcDbLine
 10
110.3271939395834
 20
112.0006538408194
 30
0.0
 11
114.9271939395833
 21
112.0006538408195
 31
0.0
  0
LINE
  5
A10
330
18
100
AcDbEntity
  8
ﾊｯﾁﾝｸ
100
AcDbLine
 10
110.3271939395834
 20
110.9006538408195
 30
0.0
 11
114.9271939395833
 21
110.9006538408195
 31
0.0
  0
LINE
  5
A11
330
18
100
AcDbEntity
  8
ﾊｯﾁﾝｸ
100
AcDbLine
 10
110.3271939395834
 20
109.9006538408195
 30
0.0
 11
114.9271939395833
 21
109.9006538408195
 31
0.0
  0
LINE
  5
A12
330
18
100
AcDbEntity
  8
外形線
100
AcDbLine
 10
110.3271939395834
 20
109.0006538408194
 30
0.0
 11
114.6271939395834
 21
109.0006538408194
 31
0.0
  0
LINE
  5
A13
330
18
100
AcDbEntity
  8
外形線
100
AcDbLine
 10
109.8271939395834
 20
109.5006538408194
 30
0.0
 11
110.3271939395834
 21
109.0006538408194
 31
0.0
  0
LINE
  5
A14
330
18
100
AcDbEntity
  8
外形線
100
AcDbLine
 10
114.9271939395833
 20
109.5006538408195
 30
0.0
 11
115.4271939395834
 21
110.2506538408195
 31
0.0
  0
LINE
  5
A15
330
18
100
AcDbEntity
  8
外形線
100
AcDbLine
 10
114.6271939395834
 20
109.0006538408194
 30
0.0
 11
114.9271939395833
 21
109.3006538408195
 31
0.0
  0
LINE
  5
A16
330
18
100
AcDbEntity
  8
ﾊｯﾁﾝｸ
100
AcDbLine
 10
110.3271939395834
 20
128.0006538408195
 30
0.0
 11
114.9271939395833
 21
128.0006538408195
 31
0.0
  0
LINE
  5
A17
330
18
100
AcDbEntity
  8
ﾊｯﾁﾝｸ
100
AcDbLine
 10
110.3271939395834
 20
129.1006538408195
 30
0.0
 11
114.9271939395833
 21
129.1006538408195
 31
0.0
  0
LINE
  5
A18
330
18
100
AcDbEntity
  8
ﾊｯﾁﾝｸ
100
AcDbLine
 10
110.3271939395834
 20
126.9006538408195
 30
0.0
 11
114.9271939395833
 21
126.9006538408195
 31
0.0
  0
LINE
  5
A19
330
18
100
AcDbEntity
  8
ﾊｯﾁﾝｸ
100
AcDbLine
 10
110.3271939395834
 20
130.1006538408195
 30
0.0
 11
114.9271939395833
 21
130.1006538408195
 31
0.0
  0
LINE
  5
A1A
330
18
100
AcDbEntity
  8
ﾊｯﾁﾝｸ
100
AcDbLine
 10
110.3271939395834
 20
125.9006538408195
 30
0.0
 11
114.9271939395833
 21
125.9006538408195
 31
0.0
  0
ARC
  5
A1B
330
18
100
AcDbEntity
  8
外形線
100
AcDbCircle
 10
71.99196666685594
 20
128.0006538408195
 30
0.0
 40
46.73522727272742
100
AcDbArc
 50
338.3398409131859
 51
21.66015908681406
  0
LINE
  5
A1C
330
18
100
AcDbEntity
  8
外形線
100
AcDbLine
 10
100.1521939395833
 20
71.0006538408195
 30
0.0
 11
105.5021939395833
 21
71.0006538408195
 31
0.0
  0
ARC
  5
A1D
330
18
100
AcDbEntity
  8
外形線
 48
0.5
100
AcDbCircle
 10
100.1521939395833
 20
71.50065384081949
 30
0.0
 40
0.5
100
AcDbArc
 50
180.0
 51
270.0
  0
ARC
  5
A1E
330
18
100
AcDbEntity
  8
外形線
100
AcDbCircle
 10
105.5021939395833
 20
71.50065384081949
 30
0.0
 40
0.5
100
AcDbArc
 50
270.0
 51
0.0
  0
LINE
  5
A1F
330
18
100
AcDbEntity
  8
中心線
 48
0.5
100
AcDbLine
 10
157.5083356424427
 20
128.0006538408195
 30
0.0
 11
200.2111022928193
 21
128.0006538408195
 31
0.0
  0
LINE
  5
A20
330
18
100
AcDbEntity
  8
中心線
 48
0.5
100
AcDbLine
 10
178.9103988766064
 20
148.5672987667359
 30
0.0
 11
178.9103988766064
 21
69.16159437322733
 31
0.0
  0
LINE
  5
A21
330
18
100
AcDbEntity
  8
外形線
100
AcDbLine
 10
182.0853988766064
 20
109.2678116912683
 30
0.0
 11
182.0853988766064
 21
71.50065384081949
 31
0.0
  0
LINE
  5
A22
330
18
100
AcDbEntity
  8
外形線
100
AcDbLine
 10
175.7353988766064
 20
109.2678116912683
 30
0.0
 11
175.7353988766064
 21
71.50065384081949
 31
0.0
  0
LINE
  5
A23
330
18
100
AcDbEntity
  8
外形線
100
AcDbLine
 10
176.2353988766064
 20
71.0006538408195
 30
0.0
 11
181.5853988766065
 21
71.0006538408195
 31
0.0
  0
ARC
  5
A24
330
18
100
AcDbEntity
  8
外形線
 48
0.5
100
AcDbCircle
 10
176.2353988766064
 20
71.50065384081949
 30
0.0
 40
0.5
100
AcDbArc
 50
180.0
 51
270.0
  0
ARC
  5
A25
330
18
100
AcDbEntity
  8
外形線
100
AcDbCircle
 10
181.5853988766065
 20
71.50065384081949
 30
0.0
 40
0.5
100
AcDbArc
 50
270.0
 51
0.0
  0
CIRCLE
  5
A26
330
18
100
AcDbEntity
  8
外形線
100
AcDbCircle
 10
178.9103988766064
 20
128.0006538408195
 30
0.0
 40
19.0
  0
CIRCLE
  5
A27
330
18
100
AcDbEntity
  8
外形線
100
AcDbCircle
 10
178.9103988766064
 20
128.0006538408195
 30
0.0
 40
16.5
  0
LINE
  5
A28
330
18
100
AcDbEntity
  8
0
  6
ByBlock
 62
     2
100
AcDbLine
 10
102.8271939395833
 20
145.9131594352963
 30
0.0
 11
102.8271939395833
 21
155.7049378003177
 31
0.0
  0
LINE
  5
A29
330
18
100
AcDbEntity
  8
0
  6
ByBlock
 62
     2
100
AcDbLine
 10
94.32719393958336
 20
154.4549378003177
 30
0.0
 11
91.82719393958336
 21
154.4549378003177
 31
0.0
  0
LINE
  5
A2A
330
18
100
AcDbEntity
  8
0
  6
ByBlock
 62
     2
100
AcDbLine
 10
102.8271939395833
 20
154.4549378003177
 30
0.0
 11
106.7732940676281
 21
154.4549378003177
 31
0.0
  0
LINE
  5
A2B
330
18
100
AcDbEntity
  8
0
  6
ByBlock
 62
     2
100
AcDbLine
 10
96.82719393958336
 20
154.4549378003177
 30
0.0
 11
102.8271939395833
 21
154.4549378003177
 31
0.0
  0
MTEXT
  5
A2C
330
18
100
AcDbEntity
  8
0
  6
ByBlock
 62
     6
100
AcDbMText
 10
105.4128636527988
 20
156.2246297781381
 30
0.0
 40
2.5
 41
0.0
 71
     5
 72
     1
  1
\A1;6
  7
STYLE3
 73
     1
 44
1.0
  0
POINT
  5
A2D
330
18
100
AcDbEntity
  8
DEFPOINTS
  6
ByBlock
 62
     0
100
AcDbPoint
 10
96.82719393958336
 20
142.0006538408195
 30
0.0
  0
POINT
  5
A2E
330
18
100
AcDbEntity
  8
DEFPOINTS
  6
ByBlock
 62
     0
100
AcDbPoint
 10
102.8271939395833
 20
145.9131594352963
 30
0.0
  0
POINT
  5
A2F
330
18
100
AcDbEntity
  8
DEFPOINTS
  6
ByBlock
 62
     0
100
AcDbPoint
 10
102.8271939395833
 20
154.4549378003177
 30
0.0
  0
LINE
  5
A30
330
18
100
AcDbEntity
  8
0
  6
ByBlock
 62
     2
100
AcDbLine
 10
96.82719393958336
 20
142.0006538408195
 30
0.0
 11
96.82719393958336
 21
155.7049378003177
 31
0.0
  0
LINE
  5
A31
330
18
100
AcDbEntity
  8
0
  6
ByBlock
 62
     2
100
AcDbLine
 10
92.22719393958337
 20
154.4549378003177
 30
0.0
 11
89.72719393958337
 21
154.4549378003177
 31
0.0
  0
LINE
  5
A32
330
18
100
AcDbEntity
  8
0
  6
ByBlock
 62
     2
100
AcDbLine
 10
99.32719393958336
 20
154.4549378003177
 30
0.0
 11
101.8271939395833
 21
154.4549378003177
 31
0.0
  0
LINE
  5
A33
330
18
100
AcDbEntity
  8
0
  6
ByBlock
 62
     2
100
AcDbLine
 10
94.72719393958337
 20
154.4549378003177
 30
0.0
 11
96.82719393958336
 21
154.4549378003177
 31
0.0
  0
LINE
  5
A34
330
18
100
AcDbEntity
  8
0
  6
ByBlock
 62
     2
100
AcDbLine
 10
94.72719393958337
 20
154.4549378003177
 30
0.0
 11
96.82719393958336
 21
154.4549378003177
 31
0.0
  0
INSERT
  5
A35
330
18
100
AcDbEntity
  8
0
  6
ByBlock
 62
     2
100
AcDbBlockReference
  2
_OPEN
 10
94.72719393958337
 20
154.4549378003177
 30
0.0
 41
2.5
 42
2.5
 43
2.5
  0
INSERT
  5
A36
330
18
100
AcDbEntity
  8
0
  6
ByBlock
 62
     2
100
AcDbBlockReference
  2
_OPEN
 10
96.82719393958336
 20
154.4549378003177
 30
0.0
 41
2.5
 42
2.5
 43
2.5
 50
180.0
  0
POINT
  5
A37
330
18
100
AcDbEntity
  8
DEFPOINTS
  6
ByBlock
 62
     0
100
AcDbPoint
 10
94.72719393958337
 20
137.0006538408195
 30
0.0
  0
POINT
  5
A38
330
18
100
AcDbEntity
  8
DEFPOINTS
  6
ByBlock
 62
     0
100
AcDbPoint
 10
96.82719393958336
 20
142.0006538408195
 30
0.0
  0
POINT
  5
A39
330
18
100
AcDbEntity
  8
DEFPOINTS
  6
ByBlock
 62
     0
100
AcDbPoint
 10
96.82719393958336
 20
154.4549378003177
 30
0.0
  0
LINE
  5
A3A
330
18
100
AcDbEntity
  8
0
  6
ByBlock
 62
     2
100
AcDbLine
 10
94.72719393958337
 20
137.0006538408195
 30
0.0
 11
94.72719393958337
 21
155.7049378003177
 31
0.0
  0
LINE
  5
A3B
330
18
100
AcDbEntity
  8
0
  6
ByBlock
 62
     2
100
AcDbLine
 10
86.72719393958335
 20
154.4549378003177
 30
0.0
 11
84.22719393958335
 21
154.4549378003177
 31
0.0
  0
LINE
  5
A3C
330
18
100
AcDbEntity
  8
0
  6
ByBlock
 62
     2
100
AcDbLine
 10
97.22719393958337
 20
154.4549378003177
 30
0.0
 11
99.72719393958337
 21
154.4549378003177
 31
0.0
  0
LINE
  5
A3D
330
18
100
AcDbEntity
  8
0
  6
ByBlock
 62
     2
100
AcDbLine
 10
89.22719393958335
 20
154.4549378003177
 30
0.0
 11
94.72719393958337
 21
154.4549378003177
 31
0.0
  0
LINE
  5
A3E
330
18
100
AcDbEntity
  8
0
  6
ByBlock
 62
     2
100
AcDbLine
 10
89.22719393958335
 20
154.4549378003177
 30
0.0
 11
94.72719393958337
 21
154.4549378003177
 31
0.0
  0
INSERT
  5
A3F
330
18
100
AcDbEntity
  8
0
  6
ByBlock
 62
     2
100
AcDbBlockReference
  2
_OPEN
 10
89.22719393958335
 20
154.4549378003177
 30
0.0
 41
2.5
 42
2.5
 43
2.5
  0
POINT
  5
A40
330
18
100
AcDbEntity
  8
DEFPOINTS
  6
ByBlock
 62
     0
100
AcDbPoint
 10
89.22719393958335
 20
134.2506538408195
 30
0.0
  0
POINT
  5
A41
330
18
100
AcDbEntity
  8
DEFPOINTS
  6
ByBlock
 62
     0
100
AcDbPoint
 10
94.72719393958337
 20
137.0006538408195
 30
0.0
  0
POINT
  5
A42
330
18
100
AcDbEntity
  8
DEFPOINTS
  6
ByBlock
 62
     0
100
AcDbPoint
 10
94.72719393958337
 20
154.4549378003177
 30
0.0
  0
LINE
  5
A43
330
18
100
AcDbEntity
  8
0
  6
ByBlock
 62
     2
100
AcDbLine
 10
89.22719393958335
 20
134.2506538408195
 30
0.0
 11
89.22719393958335
 21
155.7049378003177
 31
0.0
  0
LINE
  5
A44
330
18
100
AcDbEntity
  8
0
  6
ByBlock
 62
     2
100
AcDbLine
 10
81.22719393958337
 20
154.4549378003177
 30
0.0
 11
78.72719393958337
 21
154.4549378003177
 31
0.0
  0
LINE
  5
A45
330
18
100
AcDbEntity
  8
0
  6
ByBlock
 62
     2
100
AcDbLine
 10
91.72719393958336
 20
154.4549378003177
 30
0.0
 11
94.22719393958336
 21
154.4549378003177
 31
0.0
  0
LINE
  5
A46
330
18
100
AcDbEntity
  8
0
  6
ByBlock
 62
     2
100
AcDbLine
 10
83.72719393958337
 20
154.4549378003177
 30
0.0
 11
89.22719393958335
 21
154.4549378003177
 31
0.0
  0
LINE
  5
A47
330
18
100
AcDbEntity
  8
0
  6
ByBlock
 62
     2
100
AcDbLine
 10
83.72719393958337
 20
154.4549378003177
 30
0.0
 11
89.22719393958335
 21
154.4549378003177
 31
0.0
  0
INSERT
  5
A48
330
18
100
AcDbEntity
  8
0
  6
ByBlock
 62
     2
100
AcDbBlockReference
  2
_OPEN
 10
83.72719393958337
 20
154.4549378003177
 30
0.0
 41
2.5
 42
2.5
 43
2.5
  0
INSERT
  5
A49
330
18
100
AcDbEntity
  8
0
  6
ByBlock
 62
     2
100
AcDbBlockReference
  2
_OPEN
 10
89.22719393958335
 20
154.4549378003177
 30
0.0
 41
2.5
 42
2.5
 43
2.5
 50
180.0
  0
POINT
  5
A4A
330
18
100
AcDbEntity
  8
DEFPOINTS
  6
ByBlock
 62
     0
100
AcDbPoint
 10
83.72719393958337
 20
134.7506538408195
 30
0.0
  0
POINT
  5
A4B
330
18
100
AcDbEntity
  8
DEFPOINTS
  6
ByBlock
 62
     0
100
AcDbPoint
 10
89.22719393958335
 20
134.2506538408195
 30
0.0
  0
POINT
  5
A4C
330
18
100
AcDbEntity
  8
DEFPOINTS
  6
ByBlock
 62
     0
100
AcDbPoint
 10
89.22719393958335
 20
154.4549378003177
 30
0.0
  0
LINE
  5
A4D
330
18
100
AcDbEntity
  8
0
  6
ByBlock
 62
     2
100
AcDbLine
 10
74.72719393958337
 20
132.5006538408195
 30
0.0
 11
74.72719393958337
 21
155.7049378003177
 31
0.0
  0
LINE
  5
A4E
330
18
100
AcDbEntity
  8
0
  6
ByBlock
 62
     2
100
AcDbLine
 10
83.72719393958337
 20
134.7506538408195
 30
0.0
 11
83.72719393958337
 21
155.7049378003177
 31
0.0
  0
LINE
  5
A4F
330
18
100
AcDbEntity
  8
0
  6
ByBlock
 62
     2
100
AcDbLine
 10
77.22719393958337
 20
154.4549378003177
 30
0.0
 11
81.22719393958337
 21
154.4549378003177
 31
0.0
  0
INSERT
  5
A50
330
18
100
AcDbEntity
  8
0
  6
ByBlock
 62
     2
100
AcDbBlockReference
  2
_OPEN
 10
74.72719393958337
 20
154.4549378003177
 30
0.0
 41
2.5
 42
2.5
 43
2.5
 50
180.0
  0
INSERT
  5
A51
330
18
100
AcDbEntity
  8
0
  6
ByBlock
 62
     2
100
AcDbBlockReference
  2
_OPEN
 10
83.72719393958337
 20
154.4549378003177
 30
0.0
 41
2.5
 42
2.5
 43
2.5
  0
MTEXT
  5
A52
330
18
100
AcDbEntity
  8
0
  6
ByBlock
 62
     6
100
AcDbMText
 10
79.22719393958337
 20
156.3299378003176
 30
0.0
 40
2.5
 41
0.0
 71
     5
 72
     1
  1
\A1;9
  7
STYLE3
 73
     1
 44
1.0
  0
POINT
  5
A53
330
18
100
AcDbEntity
  8
DEFPOINTS
  6
ByBlock
 62
     0
100
AcDbPoint
 10
74.72719393958337
 20
132.5006538408195
 30
0.0
  0
POINT
  5
A54
330
18
100
AcDbEntity
  8
DEFPOINTS
  6
ByBlock
 62
     0
100
AcDbPoint
 10
83.72719393958337
 20
134.7506538408195
 30
0.0
  0
POINT
  5
A55
330
18
100
AcDbEntity
  8
DEFPOINTS
  6
ByBlock
 62
     0
100
AcDbPoint
 10
83.72719393958337
 20
154.4549378003177
 30
0.0
  0
INSERT
  5
A56
330
18
100
AcDbEntity
  8
0
  6
ByBlock
 62
     2
100
AcDbBlockReference
  2
_OPEN
 10
83.72719393958337
 20
154.4549378003177
 30
0.0
 41
-2.5
 42
2.5
 43
2.5
  0
INSERT
  5
A57
330
18
100
AcDbEntity
  8
0
  6
ByBlock
 62
     2
100
AcDbBlockReference
  2
_OPEN
 10
83.72719393958337
 20
154.4549378003177
 30
0.0
 41
-2.5
 42
2.5
 43
2.5
  0
TEXT
  5
A58
330
18
100
AcDbEntity
  8
外形線
 62
     6
100
AcDbText
 10
89.90382227588957
 20
150.9558155219716
 30
0.0
 40
2.5
  1
5.5
 41
0.7
  7
STYLE3
100
AcDbText
  0
TEXT
  5
A59
330
18
100
AcDbEntity
  8
外形線
 62
     6
100
AcDbText
 10
84.40382227588935
 20
155.3260897979378
 30
0.0
 40
2.5
  1
5.5
 41
0.7
  7
STYLE3
100
AcDbText
  0
TEXT
  5
A5A
330
18
100
AcDbEntity
  8
外形線
 62
     6
100
AcDbText
 10
93.59843189684124
 20
156.1685526104555
 30
0.0
 40
2.5
  1
2.1
 41
0.7
  7
STYLE3
100
AcDbText
  0
INSERT
  5
A5B
330
18
100
AcDbEntity
  8
0
  6
ByBlock
 62
     2
100
AcDbBlockReference
  2
_OPEN
 10
102.8271939395833
 20
154.4549378003177
 30
0.0
 41
-2.5
 42
2.5
 43
2.5
 50
180.0
  0
LINE
  5
A5C
330
18
100
AcDbEntity
  8
0
  6
ByBlock
 62
     2
100
AcDbLine
 10
100.1521939395833
 20
71.0006538408195
 30
0.0
 11
61.46945358351945
 21
71.0006538408195
 31
0.0
  0
LINE
  5
A5D
330
18
100
AcDbEntity
  8
0
  6
ByBlock
 62
     2
100
AcDbLine
 10
62.71945358351945
 20
125.5006538408195
 30
0.0
 11
62.71945358351945
 21
73.5006538408195
 31
0.0
  0
INSERT
  5
A5E
330
18
100
AcDbEntity
  8
0
  6
ByBlock
 62
     2
100
AcDbBlockReference
  2
_OPEN
 10
62.71945358351945
 20
128.0006538408195
 30
0.0
 41
2.5
 42
2.5
 43
2.5
 50
90.0
  0
INSERT
  5
A5F
330
18
100
AcDbEntity
  8
0
  6
ByBlock
 62
     2
100
AcDbBlockReference
  2
_OPEN
 10
62.71945358351945
 20
71.0006538408195
 30
0.0
 41
2.5
 42
2.5
 43
2.5
 50
270.0
  0
MTEXT
  5
A60
330
18
100
AcDbEntity
  8
0
  6
ByBlock
 62
     6
100
AcDbMText
 10
60.84445358351945
 20
99.5006538408195
 30
0.0
 40
2.5
 41
0.0
 71
     5
 72
     1
  1
\A1;57
  7
STYLE3
 11
0.0000000000000001
 21
1.0
 31
0.0
 73
     1
 44
1.0
  0
POINT
  5
A61
330
18
100
AcDbEntity
  8
DEFPOINTS
  6
ByBlock
 62
     0
100
AcDbPoint
 10
92.45168274751586
 20
128.0006538408195
 30
0.0
  0
POINT
  5
A62
330
18
100
AcDbEntity
  8
DEFPOINTS
  6
ByBlock
 62
     0
100
AcDbPoint
 10
100.1521939395833
 20
71.0006538408195
 30
0.0
  0
POINT
  5
A63
330
18
100
AcDbEntity
  8
DEFPOINTS
  6
ByBlock
 62
     0
100
AcDbPoint
 10
62.71945358351945
 20
71.0006538408195
 30
0.0
  0
LINE
  5
A64
330
18
100
AcDbEntity
  8
0
  6
ByBlock
 62
     2
100
AcDbLine
 10
73.4229880167436
 20
132.5006538408195
 30
0.0
 11
61.46945358351945
 21
132.5006538408195
 31
0.0
  0
LINE
  5
A65
330
18
100
AcDbEntity
  8
0
  6
ByBlock
 62
     2
100
AcDbLine
 10
92.45168274751586
 20
128.0006538408195
 30
0.0
 11
61.46945358351945
 21
128.0006538408195
 31
0.0
  0
LINE
  5
A66
330
18
100
AcDbEntity
  8
0
  6
ByBlock
 62
     2
100
AcDbLine
 10
62.71945358351945
 20
135.0006538408195
 30
0.0
 11
62.71945358351945
 21
137.5006538408195
 31
0.0
  0
LINE
  5
A67
330
18
100
AcDbEntity
  8
0
  6
ByBlock
 62
     2
100
AcDbLine
 10
62.71945358351945
 20
125.5006538408195
 30
0.0
 11
62.71945358351945
 21
116.5125586027242
 31
0.0
  0
LINE
  5
A68
330
18
100
AcDbEntity
  8
0
  6
ByBlock
 62
     2
100
AcDbLine
 10
62.71945358351945
 20
132.5006538408195
 30
0.0
 11
62.71945358351945
 21
128.0006538408195
 31
0.0
  0
INSERT
  5
A69
330
18
100
AcDbEntity
  8
0
  6
ByBlock
 62
     2
100
AcDbBlockReference
  2
_OPEN
 10
62.71945358351945
 20
132.5006538408195
 30
0.0
 41
2.5
 42
2.5
 43
2.5
 50
270.0
  0
INSERT
  5
A6A
330
18
100
AcDbEntity
  8
0
  6
ByBlock
 62
     2
100
AcDbBlockReference
  2
_OPEN
 10
62.71945358351945
 20
128.0006538408195
 30
0.0
 41
2.5
 42
2.5
 43
2.5
 50
90.0
  0
MTEXT
  5
A6B
330
18
100
AcDbEntity
  8
0
  6
ByBlock
 62
     6
100
AcDbMText
 10
59.70629987276391
 20
130.2314299418215
 30
0.0
 40
2.5
 41
0.0
 71
     5
 72
     1
  1
\A1;4.5
  7
STYLE3
 11
0.0000000000000001
 21
1.0
 31
0.0
 73
     1
 44
1.0
  0
POINT
  5
A6C
330
18
100
AcDbEntity
  8
DEFPOINTS
  6
ByBlock
 62
     0
100
AcDbPoint
 10
73.4229880167436
 20
132.5006538408195
 30
0.0
  0
POINT
  5
A6D
330
18
100
AcDbEntity
  8
DEFPOINTS
  6
ByBlock
 62
     0
100
AcDbPoint
 10
92.45168274751586
 20
128.0006538408195
 30
0.0
  0
POINT
  5
A6E
330
18
100
AcDbEntity
  8
DEFPOINTS
  6
ByBlock
 62
     0
100
AcDbPoint
 10
62.71945358351945
 20
128.0006538408195
 30
0.0
  0
CIRCLE
  5
A6F
330
18
100
AcDbEntity
  8
外形線
100
AcDbCircle
 10
178.9103988766064
 20
128.0006538408195
 30
0.0
 40
10.5
  0
LINE
  5
A70
330
18
100
AcDbEntity
  8
目盛
100
AcDbLine
 10
178.9103988766064
 20
144.5006538408195
 30
0.0
 11
178.9103988766064
 21
141.5006538408195
 31
0.0
  0
LINE
  5
A71
330
18
100
AcDbEntity
  8
目盛
100
AcDbLine
 10
179.9464424488401
 20
144.468094859886
 30
0.0
 11
179.8334195136874
 21
142.6716467487151
 31
0.0
  0
LINE
  5
A72
330
18
100
AcDbEntity
  8
目盛
100
AcDbLine
 10
180.9783972304174
 20
144.3705464125083
 30
0.0
 11
180.7527974100017
 21
142.5847399501423
 31
0.0
  0
LINE
  5
A73
330
18
100
AcDbEntity
  8
目盛
100
AcDbLine
 10
182.0021905672709
 20
144.2083934778428
 30
0.0
 11
181.6649042010166
 21
142.4402764265312
 31
0.0
  0
LINE
  5
A74
330
18
100
AcDbEntity
  8
目盛
100
AcDbLine
 10
183.0137820148266
 20
143.9822759994419
 30
0.0
 11
182.5661402179298
 21
142.2388263094104
 31
0.0
  0
LINE
  5
A75
330
18
100
AcDbEntity
  8
目盛
100
AcDbLine
 10
184.0091792837931
 20
143.6930863596895
 30
0.0
 11
183.0821283006682
 21
140.839916810804
 31
0.0
  0
LINE
  5
A76
330
18
100
AcDbEntity
  8
目盛
100
AcDbLine
 10
184.9844539959036
 20
143.3419658579756
 30
0.0
 11
184.3218298010712
 21
141.6683681833768
 31
0.0
  0
LINE
  5
A77
330
18
100
AcDbEntity
  8
目盛
100
AcDbLine
 10
185.9357571874301
 20
142.9303002065088
 30
0.0
 11
185.169354462613
 21
141.3016115120699
 31
0.0
  0
LINE
  5
A78
330
18
100
AcDbEntity
  8
目盛
100
AcDbLine
 10
186.8593344992847
 20
142.4597140615432
 30
0.0
 11
185.9921778859017
 21
140.8823620374642
 31
0.0
  0
LINE
  5
A79
330
18
100
AcDbEntity
  8
目盛
100
AcDbLine
 10
187.7515409937599
 20
141.9320646116027
 30
0.0
 11
186.7870527627977
 21
140.4122743456991
 31
0.0
  0
LINE
  5
A7A
330
18
100
AcDbEntity
  8
目盛
100
AcDbLine
 10
172.8363437573093
 20
143.3419658579756
 30
0.0
 11
173.4989679521417
 21
141.6683681833768
 31
0.0
  0
LINE
  5
A7B
330
18
100
AcDbEntity
  8
目盛
100
AcDbLine
 10
171.8850405657827
 20
142.9303002065088
 30
0.0
 11
172.6514432905998
 21
141.30161151207
 31
0.0
  0
LINE
  5
A7C
330
18
100
AcDbEntity
  8
目盛
100
AcDbLine
 10
170.9614632539282
 20
142.4597140615432
 30
0.0
 11
171.8286198673112
 21
140.8823620374643
 31
0.0
  0
LINE
  5
A7D
330
18
100
AcDbEntity
  8
目盛
100
AcDbLine
 10
170.069256759453
 20
141.9320646116027
 30
0.0
 11
171.0337449904152
 21
140.4122743456991
 31
0.0
  0
LINE
  5
A7E
330
18
100
AcDbEntity
  8
目盛
100
AcDbLine
 10
169.2119422137806
 20
141.3494342480061
 30
0.0
 11
170.975297970658
 21
138.9223832648812
 31
0.0
  0
LINE
  5
A7F
330
18
100
AcDbEntity
  8
目盛
100
AcDbLine
 10
177.8743553043728
 20
144.468094859886
 30
0.0
 11
177.9873782395255
 21
142.6716467487151
 31
0.0
  0
LINE
  5
A80
330
18
100
AcDbEntity
  8
目盛
100
AcDbLine
 10
176.8424005227954
 20
144.3705464125084
 30
0.0
 11
177.0680003432111
 21
142.5847399501423
 31
0.0
  0
LINE
  5
A81
330
18
100
AcDbEntity
  8
目盛
100
AcDbLine
 10
175.8186071859419
 20
144.2083934778428
 30
0.0
 11
176.1558935521963
 21
142.4402764265312
 31
0.0
  0
LINE
  5
A82
330
18
100
AcDbEntity
  8
目盛
100
AcDbLine
 10
174.8070157383863
 20
143.9822759994419
 30
0.0
 11
175.254657535283
 21
142.2388263094103
 31
0.0
  0
LINE
  5
A83
330
18
100
AcDbEntity
  8
目盛
100
AcDbLine
 10
173.8116184694198
 20
143.6930863596895
 30
0.0
 11
174.7386694525447
 21
140.839916810804
 31
0.0
  0
LINE
  5
A84
330
18
100
AcDbEntity
  8
目盛
100
AcDbLine
 10
164.9789881058232
 20
136.8417959579729
 30
0.0
 11
166.4987783717268
 21
135.8773077270107
 31
0.0
  0
LINE
  5
A85
330
18
100
AcDbEntity
  8
目盛
100
AcDbLine
 10
164.4513386558827
 20
135.9495894634977
 30
0.0
 11
166.0286906799616
 21
135.0824328501147
 31
0.0
  0
LINE
  5
A86
330
18
100
AcDbEntity
  8
目盛
100
AcDbLine
 10
163.9807525109171
 20
135.0260121516432
 30
0.0
 11
165.6094412053559
 21
134.259609426826
 31
0.0
  0
LINE
  5
A87
330
18
100
AcDbEntity
  8
目盛
100
AcDbLine
 10
163.5690868594503
 20
134.0747089601167
 30
0.0
 11
165.2426845340492
 21
133.4120847652843
 31
0.0
  0
LINE
  5
A88
330
18
100
AcDbEntity
  8
目盛
100
AcDbLine
 10
163.2179663577364
 20
133.0994342480061
 30
0.0
 11
166.0711359066219
 21
132.1723832648813
 31
0.0
  0
LINE
  5
A89
330
18
100
AcDbEntity
  8
目盛
100
AcDbLine
 10
168.3929030457531
 20
140.71412234662
 30
0.0
 11
169.5402662273007
 21
139.3271985096236
 31
0.0
  0
LINE
  5
A8A
330
18
100
AcDbEntity
  8
目盛
100
AcDbLine
 10
167.6153716287831
 20
140.0286361932728
 30
0.0
 11
168.8475564194547
 21
138.7164926639142
 31
0.0
  0
LINE
  5
A8B
330
18
100
AcDbEntity
  8
目盛
100
AcDbLine
 10
166.8824165241531
 20
139.2956810886428
 30
0.0
 11
168.1945600535117
 21
138.0634962979712
 31
0.0
  0
LINE
  5
A8C
330
18
100
AcDbEntity
  8
目盛
100
AcDbLine
 10
166.1969303708059
 20
138.5181496716729
 30
0.0
 11
167.5838542078023
 21
137.3707864901252
 31
0.0
  0
LINE
  5
A8D
330
18
100
AcDbEntity
  8
目盛
100
AcDbLine
 10
165.5616184694198
 20
137.6991105036453
 30
0.0
 11
167.9886694525447
 21
135.9357547467678
 31
0.0
  0
LINE
  5
A8E
330
18
100
AcDbEntity
  8
目盛
100
AcDbLine
 10
162.4429578575399
 20
126.9646102685858
 30
0.0
 11
164.2394059687109
 21
127.0776332037385
 31
0.0
  0
LINE
  5
A8F
330
18
100
AcDbEntity
  8
目盛
100
AcDbLine
 10
162.5405063049176
 20
125.9326554870084
 30
0.0
 11
164.3263127672836
 21
126.1582553074242
 31
0.0
  0
LINE
  5
A90
330
18
100
AcDbEntity
  8
目盛
100
AcDbLine
 10
162.7026592395831
 20
124.908862150155
 30
0.0
 11
164.4707762908947
 21
125.2461485164093
 31
0.0
  0
LINE
  5
A91
330
18
100
AcDbEntity
  8
目盛
100
AcDbLine
 10
162.928776717984
 20
123.8972707025994
 30
0.0
 11
164.6722264080155
 21
124.3449124994961
 31
0.0
  0
LINE
  5
A92
330
18
100
AcDbEntity
  8
目盛
100
AcDbLine
 10
163.2179663577364
 20
122.9018734336328
 30
0.0
 11
166.0711359066219
 21
123.8289244167577
 31
0.0
  0
LINE
  5
A93
330
18
100
AcDbEntity
  8
目盛
100
AcDbLine
 10
162.928776717984
 20
132.1040369790396
 30
0.0
 11
164.6722264080155
 21
131.6563951821429
 31
0.0
  0
LINE
  5
A94
330
18
100
AcDbEntity
  8
目盛
100
AcDbLine
 10
162.7026592395831
 20
131.0924455314839
 30
0.0
 11
164.4707762908947
 21
130.7551591652296
 31
0.0
  0
LINE
  5
A95
330
18
100
AcDbEntity
  8
目盛
100
AcDbLine
 10
162.5405063049175
 20
130.0686521946305
 30
0.0
 11
164.3263127672836
 21
129.8430523742148
 31
0.0
  0
LINE
  5
A96
330
18
100
AcDbEntity
  8
目盛
100
AcDbLine
 10
162.4429578575399
 20
129.0366974130531
 30
0.0
 11
164.2394059687108
 21
128.9236744779003
 31
0.0
  0
LINE
  5
A97
330
18
100
AcDbEntity
  8
目盛
100
AcDbLine
 10
162.4103988766065
 20
128.0006538408195
 30
0.0
 11
165.4103988766065
 21
128.0006538408195
 31
0.0
  0
LINE
  5
A98
330
18
100
AcDbEntity
  8
目盛
100
AcDbLine
 10
166.1969303708058
 20
117.4831580099661
 30
0.0
 11
167.5838542078023
 21
118.6305211915137
 31
0.0
  0
LINE
  5
A99
330
18
100
AcDbEntity
  8
目盛
100
AcDbLine
 10
166.8824165241531
 20
116.7056265929961
 30
0.0
 11
168.1945600535116
 21
117.9378113836677
 31
0.0
  0
LINE
  5
A9A
330
18
100
AcDbEntity
  8
目盛
100
AcDbLine
 10
167.615371628783
 20
115.9726714883662
 30
0.0
 11
168.8475564194547
 21
117.2848150177247
 31
0.0
  0
LINE
  5
A9B
330
18
100
AcDbEntity
  8
目盛
100
AcDbLine
 10
168.392903045753
 20
115.2871853350189
 30
0.0
 11
169.5402662273006
 21
116.6741091720154
 31
0.0
  0
LINE
  5
A9C
330
18
100
AcDbEntity
  8
目盛
100
AcDbLine
 10
169.2119422137806
 20
114.6518734336328
 30
0.0
 11
170.975297970658
 21
117.0789244167576
 31
0.0
  0
LINE
  5
A9D
330
18
100
AcDbEntity
  8
目盛
100
AcDbLine
 10
163.5690868594502
 20
121.9265987215223
 30
0.0
 11
165.2426845340491
 21
122.5892229163547
 31
0.0
  0
LINE
  5
A9E
330
18
100
AcDbEntity
  8
目盛
100
AcDbLine
 10
163.980752510917
 20
120.9752955299957
 30
0.0
 11
165.6094412053559
 21
121.7416982548129
 31
0.0
  0
LINE
  5
A9F
330
18
100
AcDbEntity
  8
目盛
100
AcDbLine
 10
164.4513386558826
 20
120.0517182181411
 30
0.0
 11
166.0286906799616
 21
120.9188748315243
 31
0.0
  0
LINE
  5
AA0
330
18
100
AcDbEntity
  8
目盛
100
AcDbLine
 10
164.9789881058232
 20
119.159511723666
 30
0.0
 11
166.4987783717268
 21
120.1239999546282
 31
0.0
  0
LINE
  5
AA1
330
18
100
AcDbEntity
  8
目盛
100
AcDbLine
 10
165.5616184694198
 20
118.3021971779937
 30
0.0
 11
167.9886694525446
 21
120.0655529348711
 31
0.0
  0
LINE
  5
AA2
330
18
100
AcDbEntity
  8
目盛
100
AcDbLine
 10
174.8070157383863
 20
112.0190316821971
 30
0.0
 11
175.254657535283
 21
113.7624813722286
 31
0.0
  0
LINE
  5
AA3
330
18
100
AcDbEntity
  8
目盛
100
AcDbLine
 10
175.8186071859419
 20
111.7929142037962
 30
0.0
 11
176.1558935521962
 21
113.5610312551078
 31
0.0
  0
LINE
  5
AA4
330
18
100
AcDbEntity
  8
目盛
100
AcDbLine
 10
176.8424005227954
 20
111.6307612691306
 30
0.0
 11
177.0680003432111
 21
113.4165677314967
 31
0.0
  0
LINE
  5
AA5
330
18
100
AcDbEntity
  8
目盛
100
AcDbLine
 10
177.8743553043727
 20
111.533212821753
 30
0.0
 11
177.9873782395255
 21
113.3296609329239
 31
0.0
  0
LINE
  5
AA6
330
18
100
AcDbEntity
  8
目盛
100
AcDbLine
 10
178.9103988766064
 20
111.5006538408195
 30
0.0
 11
178.9103988766064
 21
114.5006538408195
 31
0.0
  0
LINE
  5
AA7
330
18
100
AcDbEntity
  8
目盛
100
AcDbLine
 10
170.0692567594529
 20
114.0692430700362
 30
0.0
 11
171.0337449904151
 21
115.5890333359399
 31
0.0
  0
LINE
  5
AA8
330
18
100
AcDbEntity
  8
目盛
100
AcDbLine
 10
170.9614632539281
 20
113.5415936200957
 30
0.0
 11
171.8286198673112
 21
115.1189456441747
 31
0.0
  0
LINE
  5
AA9
330
18
100
AcDbEntity
  8
目盛
100
AcDbLine
 10
171.8850405657827
 20
113.0710074751302
 30
0.0
 11
172.6514432905998
 21
114.699696169569
 31
0.0
  0
LINE
  5
AAA
330
18
100
AcDbEntity
  8
目盛
100
AcDbLine
 10
172.8363437573092
 20
112.6593418236633
 30
0.0
 11
173.4989679521417
 21
114.3329394982622
 31
0.0
  0
LINE
  5
AAB
330
18
100
AcDbEntity
  8
目盛
100
AcDbLine
 10
173.8116184694198
 20
112.3082213219495
 30
0.0
 11
174.7386694525446
 21
115.1613908708349
 31
0.0
  0
LINE
  5
AAC
330
18
100
AcDbEntity
  8
目盛
100
AcDbLine
 10
184.9844539959036
 20
112.6593418236633
 30
0.0
 11
184.3218298010712
 21
114.3329394982622
 31
0.0
  0
LINE
  5
AAD
330
18
100
AcDbEntity
  8
目盛
100
AcDbLine
 10
185.9357571874301
 20
113.0710074751302
 30
0.0
 11
185.169354462613
 21
114.699696169569
 31
0.0
  0
LINE
  5
AAE
330
18
100
AcDbEntity
  8
目盛
100
AcDbLine
 10
186.8593344992847
 20
113.5415936200958
 30
0.0
 11
185.9921778859017
 21
115.1189456441747
 31
0.0
  0
LINE
  5
AAF
330
18
100
AcDbEntity
  8
目盛
100
AcDbLine
 10
187.7515409937599
 20
114.0692430700362
 30
0.0
 11
186.7870527627976
 21
115.5890333359398
 31
0.0
  0
LINE
  5
AB0
330
18
100
AcDbEntity
  8
目盛
100
AcDbLine
 10
188.6088555394322
 20
114.6518734336329
 30
0.0
 11
186.8454997825548
 21
117.0789244167577
 31
0.0
  0
LINE
  5
AB1
330
18
100
AcDbEntity
  8
目盛
100
AcDbLine
 10
179.9464424488401
 20
111.533212821753
 30
0.0
 11
179.8334195136873
 21
113.3296609329239
 31
0.0
  0
LINE
  5
AB2
330
18
100
AcDbEntity
  8
目盛
100
AcDbLine
 10
180.9783972304174
 20
111.6307612691306
 30
0.0
 11
180.7527974100016
 21
113.4165677314967
 31
0.0
  0
LINE
  5
AB3
330
18
100
AcDbEntity
  8
目盛
100
AcDbLine
 10
182.0021905672708
 20
111.7929142037961
 30
0.0
 11
181.6649042010165
 21
113.5610312551078
 31
0.0
  0
LINE
  5
AB4
330
18
100
AcDbEntity
  8
目盛
100
AcDbLine
 10
183.0137820148265
 20
112.019031682197
 30
0.0
 11
182.5661402179298
 21
113.7624813722286
 31
0.0
  0
LINE
  5
AB5
330
18
100
AcDbEntity
  8
目盛
100
AcDbLine
 10
184.009179283793
 20
112.3082213219495
 30
0.0
 11
183.0821283006682
 21
115.1613908708349
 31
0.0
  0
LINE
  5
AB6
330
18
100
AcDbEntity
  8
目盛
100
AcDbLine
 10
192.8418096473897
 20
119.159511723666
 30
0.0
 11
191.3220193814861
 21
120.1239999546282
 31
0.0
  0
LINE
  5
AB7
330
18
100
AcDbEntity
  8
目盛
100
AcDbLine
 10
193.3694590973301
 20
120.0517182181412
 30
0.0
 11
191.7921070732512
 21
120.9188748315243
 31
0.0
  0
LINE
  5
AB8
330
18
100
AcDbEntity
  8
目盛
100
AcDbLine
 10
193.8400452422957
 20
120.9752955299958
 30
0.0
 11
192.2113565478569
 21
121.7416982548129
 31
0.0
  0
LINE
  5
AB9
330
18
100
AcDbEntity
  8
目盛
100
AcDbLine
 10
194.2517108937626
 20
121.9265987215223
 30
0.0
 11
192.5781132191637
 21
122.5892229163547
 31
0.0
  0
LINE
  5
ABA
330
18
100
AcDbEntity
  8
目盛
100
AcDbLine
 10
194.6028313954764
 20
122.9018734336329
 30
0.0
 11
191.749661846591
 21
123.8289244167577
 31
0.0
  0
LINE
  5
ABB
330
18
100
AcDbEntity
  8
目盛
100
AcDbLine
 10
189.4278947074598
 20
115.287185335019
 30
0.0
 11
188.2805315259122
 21
116.6741091720154
 31
0.0
  0
LINE
  5
ABC
330
18
100
AcDbEntity
  8
目盛
100
AcDbLine
 10
190.2054261244298
 20
115.9726714883662
 30
0.0
 11
188.9732413337581
 21
117.2848150177247
 31
0.0
  0
LINE
  5
ABD
330
18
100
AcDbEntity
  8
目盛
100
AcDbLine
 10
190.9383812290597
 20
116.7056265929961
 30
0.0
 11
189.6262376997011
 21
117.9378113836678
 31
0.0
  0
LINE
  5
ABE
330
18
100
AcDbEntity
  8
目盛
100
AcDbLine
 10
191.6238673824069
 20
117.4831580099661
 30
0.0
 11
190.2369435454105
 21
118.6305211915137
 31
0.0
  0
LINE
  5
ABF
330
18
100
AcDbEntity
  8
目盛
100
AcDbLine
 10
192.259179283793
 20
118.3021971779937
 30
0.0
 11
189.8321283006682
 21
120.0655529348711
 31
0.0
  0
LINE
  5
AC0
330
18
100
AcDbEntity
  8
目盛
100
AcDbLine
 10
195.3778398956729
 20
129.0366974130531
 30
0.0
 11
193.581391784502
 21
128.9236744779004
 31
0.0
  0
LINE
  5
AC1
330
18
100
AcDbEntity
  8
目盛
100
AcDbLine
 10
195.2802914482953
 20
130.0686521946305
 30
0.0
 11
193.4944849859293
 21
129.8430523742147
 31
0.0
  0
LINE
  5
AC2
330
18
100
AcDbEntity
  8
目盛
100
AcDbLine
 10
195.1181385136298
 20
131.0924455314839
 30
0.0
 11
193.3500214623182
 21
130.7551591652296
 31
0.0
  0
LINE
  5
AC3
330
18
100
AcDbEntity
  8
目盛
100
AcDbLine
 10
194.8920210352288
 20
132.1040369790396
 30
0.0
 11
193.1485713451973
 21
131.6563951821428
 31
0.0
  0
LINE
  5
AC4
330
18
100
AcDbEntity
  8
目盛
100
AcDbLine
 10
194.6028313954765
 20
133.0994342480061
 30
0.0
 11
191.749661846591
 21
132.1723832648812
 31
0.0
  0
LINE
  5
AC5
330
18
100
AcDbEntity
  8
目盛
100
AcDbLine
 10
194.8920210352289
 20
123.8972707025993
 30
0.0
 11
193.1485713451973
 21
124.3449124994961
 31
0.0
  0
LINE
  5
AC6
330
18
100
AcDbEntity
  8
目盛
100
AcDbLine
 10
195.1181385136298
 20
124.908862150155
 30
0.0
 11
193.3500214623181
 21
125.2461485164093
 31
0.0
  0
LINE
  5
AC7
330
18
100
AcDbEntity
  8
目盛
100
AcDbLine
 10
195.2802914482953
 20
125.9326554870084
 30
0.0
 11
193.4944849859292
 21
126.1582553074242
 31
0.0
  0
LINE
  5
AC8
330
18
100
AcDbEntity
  8
目盛
100
AcDbLine
 10
195.3778398956729
 20
126.9646102685858
 30
0.0
 11
193.581391784502
 21
127.0776332037386
 31
0.0
  0
LINE
  5
AC9
330
18
100
AcDbEntity
  8
目盛
100
AcDbLine
 10
195.4103988766064
 20
128.0006538408194
 30
0.0
 11
192.4103988766064
 21
128.0006538408195
 31
0.0
  0
LINE
  5
ACA
330
18
100
AcDbEntity
  8
目盛
100
AcDbLine
 10
191.623867382407
 20
138.5181496716728
 30
0.0
 11
190.2369435454105
 21
137.3707864901252
 31
0.0
  0
LINE
  5
ACB
330
18
100
AcDbEntity
  8
目盛
100
AcDbLine
 10
190.9383812290597
 20
139.2956810886428
 30
0.0
 11
189.6262376997012
 21
138.0634962979712
 31
0.0
  0
LINE
  5
ACC
330
18
100
AcDbEntity
  8
目盛
100
AcDbLine
 10
190.2054261244298
 20
140.0286361932727
 30
0.0
 11
188.9732413337581
 21
138.7164926639142
 31
0.0
  0
LINE
  5
ACD
330
18
100
AcDbEntity
  8
目盛
100
AcDbLine
 10
189.4278947074598
 20
140.71412234662
 30
0.0
 11
188.2805315259122
 21
139.3271985096236
 31
0.0
  0
LINE
  5
ACE
330
18
100
AcDbEntity
  8
目盛
100
AcDbLine
 10
188.6088555394322
 20
141.3494342480061
 30
0.0
 11
186.8454997825548
 21
138.9223832648813
 31
0.0
  0
LINE
  5
ACF
330
18
100
AcDbEntity
  8
目盛
100
AcDbLine
 10
194.2517108937626
 20
134.0747089601167
 30
0.0
 11
192.5781132191637
 21
133.4120847652842
 31
0.0
  0
LINE
  5
AD0
330
18
100
AcDbEntity
  8
目盛
100
AcDbLine
 10
193.8400452422958
 20
135.0260121516432
 30
0.0
 11
192.2113565478569
 21
134.259609426826
 31
0.0
  0
LINE
  5
AD1
330
18
100
AcDbEntity
  8
目盛
100
AcDbLine
 10
193.3694590973302
 20
135.9495894634978
 30
0.0
 11
191.7921070732512
 21
135.0824328501147
 31
0.0
  0
LINE
  5
AD2
330
18
100
AcDbEntity
  8
目盛
100
AcDbLine
 10
192.8418096473897
 20
136.8417959579729
 30
0.0
 11
191.322019381486
 21
135.8773077270107
 31
0.0
  0
LINE
  5
AD3
330
18
100
AcDbEntity
  8
目盛
100
AcDbLine
 10
192.259179283793
 20
137.6991105036453
 30
0.0
 11
189.8321283006682
 21
135.9357547467679
 31
0.0
  0
TEXT
  5
AD4
330
18
100
AcDbEntity
  8
文字
100
AcDbText
 10
178.1449650722484
 20
139.1481369682024
 30
0.0
 40
1.9
  1
0
 41
0.8
  7
STYLE3
100
AcDbText
  0
TEXT
  5
AD5
330
18
100
AcDbEntity
  8
文字
100
AcDbText
 10
184.756392572741
 20
136.664514191608
 30
0.0
 40
1.9
  1
10
 41
0.8
  7
STYLE3
100
AcDbText
  0
TEXT
  5
AD6
330
18
100
AcDbEntity
  8
文字
100
AcDbText
 10
188.8913785343106
 20
131.1162200469843
 30
0.0
 40
1.9
  1
20
 41
0.8
  7
STYLE3
100
AcDbText
  0
TEXT
  5
AD7
330
18
100
AcDbEntity
  8
文字
100
AcDbText
 10
188.7783713204579
 20
122.9914504410761
 30
0.0
 40
1.9
  1
30
 41
0.8
  7
STYLE3
100
AcDbText
  0
TEXT
  5
AD8
330
18
100
AcDbEntity
  8
文字
100
AcDbText
 10
184.9183038002387
 20
117.3608303192239
 30
0.0
 40
1.9
  1
40
 41
0.8
  7
STYLE3
100
AcDbText
  0
TEXT
  5
AD9
330
18
100
AcDbEntity
  8
文字
100
AcDbText
 10
177.4968483714805
 20
115.0868221916859
 30
0.0
 40
1.9
  1
50
 41
0.8
  7
STYLE3
100
AcDbText
  0
TEXT
  5
ADA
330
18
100
AcDbEntity
  8
文字
100
AcDbText
 10
169.9868953380543
 20
117.5509093428746
 30
0.0
 40
1.9
  1
60
 41
0.8
  7
STYLE3
100
AcDbText
  0
TEXT
  5
ADB
330
18
100
AcDbEntity
  8
文字
100
AcDbText
 10
166.0149044688384
 20
122.8800471472593
 30
0.0
 40
1.9
  1
70
 41
0.8
  7
STYLE3
100
AcDbText
  0
TEXT
  5
ADC
330
18
100
AcDbEntity
  8
文字
100
AcDbText
 10
166.1153316402711
 20
131.0649173053402
 30
0.0
 40
1.9
  1
80
 41
0.8
  7
STYLE3
100
AcDbText
  0
TEXT
  5
ADD
330
18
100
AcDbEntity
  8
文字
100
AcDbText
 10
170.2324342235717
 20
136.7401852805603
 30
0.0
 40
1.9
  1
90
 41
0.8
  7
STYLE3
100
AcDbText
  0
LINE
  5
ADE
330
18
100
AcDbEntity
  8
中心線
 48
0.5
100
AcDbLine
 10
168.1664044211571
 20
128.3906538408195
 30
0.0
 11
178.1521994587159
 21
128.3906538408195
 31
0.0
  0
ARC
  5
ADF
330
18
100
AcDbEntity
  8
外形線
100
AcDbCircle
 10
173.3039472358625
 20
128.3906538408195
 30
0.0
 40
4.0
100
AcDbArc
 50
30.00000000000008
 51
330.0000000000003
  0
LINE
  5
AE0
330
18
100
AcDbEntity
  8
中心線
100
AcDbLine
 10
173.3039472358625
 20
123.616486492489
 30
0.0
 11
173.3039472358625
 21
133.0461781396822
 31
0.0
  0
LINE
  5
AE1
330
18
100
AcDbEntity
  8
目盛
100
AcDbLine
 10
173.3039472358625
 20
132.3906538408195
 30
0.0
 11
173.3039472358625
 21
131.8906538408195
 31
0.0
  0
LINE
  5
AE2
330
18
100
AcDbEntity
  8
目盛
100
AcDbLine
 10
169.8398456207248
 20
130.3906538408195
 30
0.0
 11
170.272858322617
 21
130.1406538408194
 31
0.0
  0
LINE
  5
AE3
330
18
100
AcDbEntity
  8
目盛
100
AcDbLine
 10
169.8398456207248
 20
126.3906538408195
 30
0.0
 11
170.272858322617
 21
126.6406538408195
 31
0.0
  0
LINE
  5
AE4
330
18
100
AcDbEntity
  8
目盛
100
AcDbLine
 10
173.3039472358625
 20
124.3906538408195
 30
0.0
 11
173.3039472358625
 21
124.8906538408195
 31
0.0
  0
LINE
  5
AE5
330
18
100
AcDbEntity
  8
目盛
100
AcDbLine
 10
176.7680488510003
 20
126.3906538408195
 30
0.0
 11
176.3350361491081
 21
126.6406538408195
 31
0.0
  0
LINE
  5
AE6
330
18
100
AcDbEntity
  8
目盛
100
AcDbLine
 10
176.7680488510003
 20
130.3906538408195
 30
0.0
 11
176.3350361491081
 21
130.1406538408194
 31
0.0
  0
TEXT
  5
AE7
330
18
100
AcDbEntity
  8
文字
100
AcDbText
 10
172.662643820866
 20
130.4919981692766
 30
0.0
 40
1.0
  1
1
  7
STYLE3
100
AcDbText
  0
TEXT
  5
AE8
330
18
100
AcDbEntity
  8
文字
100
AcDbText
 10
175.1182375873111
 20
129.3461985698436
 30
0.0
 40
1.0
  1
0
  7
STYLE3
100
AcDbText
  0
TEXT
  5
AE9
330
18
100
AcDbEntity
  8
文字
100
AcDbText
 10
174.9987898807719
 20
126.5055690408094
 30
0.0
 40
1.0
  1
5
  7
STYLE3
100
AcDbText
  0
TEXT
  5
AEA
330
18
100
AcDbEntity
  8
文字
100
AcDbText
 10
172.5670858123758
 20
125.4075106553372
 30
0.0
 40
1.0
  1
4
  7
STYLE3
100
AcDbText
  0
TEXT
  5
AEB
330
18
100
AcDbEntity
  8
文字
100
AcDbText
 10
170.7225762501109
 20
126.4816979788561
 30
0.0
 40
1.0
  1
3
  7
STYLE3
100
AcDbText
  0
TEXT
  5
AEC
330
18
100
AcDbEntity
  8
文字
100
AcDbText
 10
170.5314602331303
 20
129.2507152319765
 30
0.0
 40
1.0
  1
2
  7
STYLE3
100
AcDbText
  0
TEXT
  5
AED
330
18
100
AcDbEntity
  8
文字
100
AcDbText
 10
175.9970074692778
 20
121.4933448689714
 30
0.0
 40
1.0
  1
NO.196
  7
STYLE3
100
AcDbText
  0
CIRCLE
  5
AEE
330
18
100
AcDbEntity
  8
針
100
AcDbCircle
 10
178.9103988766064
 20
128.0006538408195
 30
0.0
 40
1.5
  0
LINE
  5
AEF
330
18
100
AcDbEntity
  8
針
100
AcDbLine
 10
170.0936200922193
 20
140.1359087564437
 30
0.0
 11
170.1502512818256
 21
140.1770537241042
 31
0.0
  0
CIRCLE
  5
AF0
330
18
100
AcDbEntity
  8
針
100
AcDbCircle
 10
178.9103988766064
 20
128.0006538408195
 30
0.0
 40
1.3
  0
LINE
  5
AF1
330
18
100
AcDbEntity
  8
針
100
AcDbLine
 10
177.9130975759458
 20
129.7938190513871
 30
0.0
 11
170.1502512818256
 21
140.1770537241042
 31
0.0
  0
ARC
  5
AF2
330
18
100
AcDbEntity
  8
針
100
AcDbCircle
 10
178.714006712684
 20
130.3926049519303
 30
0.0
 40
1.0
100
AcDbArc
 50
216.7829935738393
 51
254.6754659060523
  0
LINE
  5
AF3
330
18
100
AcDbEntity
  8
針
100
AcDbLine
 10
177.5131804687187
 20
129.5032622653098
 30
0.0
 11
170.0369889026131
 21
140.0947637887832
 31
0.0
  0
ARC
  5
AF4
330
18
100
AcDbEntity
  8
針
100
AcDbCircle
 10
176.6962067019392
 20
128.9265874311146
 30
0.0
 40
1.0
100
AcDbArc
 50
357.3245340939473
 51
35.21700642616085
  0
LINE
  5
AF5
330
18
100
AcDbEntity
  8
針
100
AcDbLine
 10
170.0936200922193
 20
140.1359087564437
 30
0.0
 11
170.0369889026131
 21
140.0947637887832
 31
0.0
  0
CIRCLE
  5
AF6
330
18
100
AcDbEntity
  8
針
100
AcDbCircle
 10
178.9103988766064
 20
128.0006538408195
 30
0.0
 40
0.3
  0
HATCH
  5
AF7
330
18
100
AcDbEntity
  8
針
100
AcDbHatch
 10
0.0
 20
0.0
 30
0.0
210
0.0
220
0.0
230
1.0
  2
SOLID
 70
     1
 71
     0
 91
        1
 92
        7
 72
     1
 73
     1
 93
        7
 10
177.5131804687187
 20
129.5032622653097
 42
-0.166860330303522
 10
177.6951166563404
 20
128.8799087100725
 42
-0.1594072402788452
 10
178.4497206627431
 20
129.4281606125273
 42
-0.1668603303035367
 10
177.9130975759458
 20
129.7938190513871
 42
0.0
 10
170.1502512818256
 20
140.1770537241042
 42
0.0
 10
170.0936200922193
 20
140.1359087564437
 42
0.0
 10
170.0369889026131
 20
140.0947637887832
 42
0.0
 97
        0
 75
     0
 76
     1
 47
0.0506089553640833
 98
        1
 10
176.0834190741739
 20
131.8079194173067
450
        0
451
        0
460
0.0
461
0.0
452
        0
462
0.0
453
        0
470

  0
CIRCLE
  5
AF8
330
18
100
AcDbEntity
  8
針
100
AcDbCircle
 10
173.3039472358625
 20
128.3906538408195
 30
0.0
 40
0.7
  0
CIRCLE
  5
AF9
330
18
100
AcDbEntity
  8
針
100
AcDbCircle
 10
173.3039472358625
 20
128.3906538408195
 30
0.0
 40
0.275
  0
CIRCLE
  5
AFA
330
18
100
AcDbEntity
  8
針
100
AcDbCircle
 10
173.3039472358625
 20
128.3906538408195
 30
0.0
 40
0.4
  0
LINE
  5
AFB
330
18
100
AcDbEntity
  8
針
100
AcDbLine
 10
176.5478362319803
 20
130.1703122858211
 30
0.0
 11
176.5959351088722
 21
130.0826396102504
 31
0.0
  0
LINE
  5
AFC
330
18
100
AcDbEntity
  8
針
100
AcDbLine
 10
174.2555951093449
 20
128.7572326442673
 30
0.0
 11
176.5959351088722
 21
130.0826396102504
 31
0.0
  0
ARC
  5
AFD
330
18
100
AcDbEntity
  8
針
100
AcDbCircle
 10
174.5019908264793
 20
128.3221589142194
 30
0.0
 40
0.5
100
AcDbArc
 50
119.5242201649267
 51
176.7278297118105
  0
LINE
  5
AFE
330
18
100
AcDbEntity
  8
針
100
AcDbLine
 10
174.124436692613
 20
128.9963028692197
 30
0.0
 11
176.4997373550884
 21
130.2579849613919
 31
0.0
  0
ARC
  5
AFF
330
18
100
AcDbEntity
  8
針
100
AcDbCircle
 10
173.8898875527073
 20
129.4378758540925
 30
0.0
 40
0.5
100
AcDbArc
 50
240.7721702881902
 51
297.9757798350734
  0
LINE
  5
B00
330
18
100
AcDbEntity
  8
針
100
AcDbLine
 10
176.5478362319803
 20
130.1703122858211
 30
0.0
 11
176.4997373550884
 21
130.2579849613919
 31
0.0
  0
HATCH
  5
B01
330
18
100
AcDbEntity
  8
針
100
AcDbHatch
 10
0.0
 20
0.0
 30
0.0
210
0.0
220
0.0
230
1.0
  2
SOLID
 70
     1
 71
     0
 91
        1
 92
        7
 72
     1
 73
     1
 93
        8
 10
176.5959351088722
 20
130.0826396102504
 42
0.0
 10
176.5478362319803
 20
130.1703122858211
 42
0.0
 10
176.4997373550883
 20
130.2579849613919
 42
0.0
 10
174.124436692613
 20
128.9963028692197
 42
-0.2549126604385726
 10
173.6457472557106
 20
129.0015325083402
 42
-0.2715629374459081
 10
174.0039472358625
 20
128.3906538408195
 42
-0.0142778933762944
 10
174.002806095032
 20
128.3507001806572
 42
-0.2549126627183762
 10
174.2555951093449
 20
128.7572326442673
 42
0.0
 97
        0
 75
     0
 76
     1
 47
0.0080572292577995
 98
        1
 10
174.9189018808206
 20
129.2515806699825
450
        0
451
        0
460
0.0
461
0.0
452
        0
462
0.0
453
        0
470

  0
TEXT
  5
B02
330
18
100
AcDbEntity
  8
文字
100
AcDbText
 10
120.017062935575
 20
66.50090967279954
 30
0.0
 40
1.5
  1
-0.01
  7
STYLE3
100
AcDbText
  0
TEXT
  5
B03
330
18
100
AcDbEntity
  8
文字
100
AcDbText
 10
120.0044548122057
 20
64.80504452784424
 30
0.0
 40
1.5
  1
-0.03
  7
STYLE3
100
AcDbText
  0
POINT
  5
B0A
330
18
100
AcDbEntity
  8
DEFPOINTS
  6
ByBlock
 62
     0
100
AcDbPoint
 10
162.4103988766064
 20
128.0006538408195
 30
0.0
  0
POINT
  5
B0B
330
18
100
AcDbEntity
  8
DEFPOINTS
  6
ByBlock
 62
     0
100
AcDbPoint
 10
195.4103988766064
 20
128.0006538408195
 30
0.0
  0
LINE
  5
B0D
330
18
100
AcDbEntity
  8
0
  6
ByBlock
 62
     2
100
AcDbLine
 10
74.72719393958337
 20
161.9962308618884
 30
0.0
 11
74.72719393958337
 21
168.6807296829356
 31
0.0
  0
LINE
  5
B0E
330
18
100
AcDbEntity
  8
0
  6
ByBlock
 62
     2
100
AcDbLine
 10
118.7271939395833
 20
128.0006538408195
 30
0.0
 11
118.7271939395833
 21
168.6807296829356
 31
0.0
  0
LINE
  5
B0F
330
18
100
AcDbEntity
  8
0
  6
ByBlock
 62
     2
100
AcDbLine
 10
77.22719393958337
 20
167.4307296829356
 30
0.0
 11
116.2271939395834
 21
167.4307296829356
 31
0.0
  0
INSERT
  5
B10
330
18
100
AcDbEntity
  8
0
  6
ByBlock
 62
     2
100
AcDbBlockReference
  2
_OPEN
 10
74.72719393958337
 20
167.4307296829356
 30
0.0
 41
2.5
 42
2.5
 43
2.5
 50
180.0
  0
INSERT
  5
B11
330
18
100
AcDbEntity
  8
0
  6
ByBlock
 62
     2
100
AcDbBlockReference
  2
_OPEN
 10
118.7271939395833
 20
167.4307296829356
 30
0.0
 41
2.5
 42
2.5
 43
2.5
  0
MTEXT
  5
B12
330
18
100
AcDbEntity
  8
0
  6
ByBlock
 62
     6
100
AcDbMText
 10
96.72719393958338
 20
169.3057296829356
 30
0.0
 40
2.5
 41
0.0
 71
     5
 72
     1
  1
\A1;44
  7
STYLE3
 73
     1
 44
1.0
  0
POINT
  5
B13
330
18
100
AcDbEntity
  8
DEFPOINTS
  6
ByBlock
 62
     0
100
AcDbPoint
 10
74.72719393958337
 20
161.9962308618884
 30
0.0
  0
POINT
  5
B14
330
18
100
AcDbEntity
  8
DEFPOINTS
  6
ByBlock
 62
     0
100
AcDbPoint
 10
118.7271939395833
 20
128.0006538408195
 30
0.0
  0
POINT
  5
B15
330
18
100
AcDbEntity
  8
DEFPOINTS
  6
ByBlock
 62
     0
100
AcDbPoint
 10
118.7271939395833
 20
167.4307296829356
 30
0.0
  0
LINE
  5
B16
330
18
100
AcDbEntity
  8
ﾊｯﾁﾝｸ
100
AcDbLine
 10
83.12006504410375
 20
135.0006538408195
 30
0.0
 11
83.52719393958338
 21
134.5935249453398
 31
0.0
  0
LINE
  5
B17
330
18
100
AcDbEntity
  8
ﾊｯﾁﾝｸ
100
AcDbLine
 10
81.77302662594334
 20
135.0006538408194
 30
0.0
 11
83.52719393958336
 21
133.2464865271795
 31
0.0
  0
LINE
  5
B18
330
18
100
AcDbEntity
  8
ﾊｯﾁﾝｸ
100
AcDbLine
 10
80.42719393958336
 20
134.9994481090191
 30
0.0
 11
82.925988207783
 21
132.5006538408194
 31
0.0
  0
LINE
  5
B19
330
18
100
AcDbEntity
  8
ﾊｯﾁﾝｸ
100
AcDbLine
 10
80.42719393958334
 20
133.6524096908587
 30
0.0
 11
81.57894978962261
 21
132.5006538408194
 31
0.0
  0
LINE
  5
B1A
330
18
100
AcDbEntity
  8
ﾊｯﾁﾝｸ
100
AcDbLine
 10
80.42719393958334
 20
134.906605916634
 30
0.0
 11
80.52124186376881
 21
135.0006538408195
 31
0.0
  0
LINE
  5
B1B
330
18
100
AcDbEntity
  8
ﾊｯﾁﾝｸ
100
AcDbLine
 10
80.42719393958334
 20
133.5595674984736
 30
0.0
 11
81.86828028192918
 21
135.0006538408195
 31
0.0
  0
LINE
  5
B1C
330
18
100
AcDbEntity
  8
ﾊｯﾁﾝｸ
100
AcDbLine
 10
80.71531870008954
 20
132.5006538408195
 30
0.0
 11
83.21531870008954
 21
135.0006538408195
 31
0.0
  0
LINE
  5
B1D
330
18
100
AcDbEntity
  8
ﾊｯﾁﾝｸ
100
AcDbLine
 10
82.06235711824991
 20
132.5006538408195
 30
0.0
 11
83.52719393958336
 21
133.9654906621529
 31
0.0
  0
LINE
  5
B1E
330
18
100
AcDbEntity
  8
ﾊｯﾁﾝｸ
100
AcDbLine
 10
83.40939553641021
 20
132.5006538408194
 30
0.0
 11
83.52719393958333
 21
132.6184522439926
 31
0.0
  0
LINE
  5
B1F
330
18
100
AcDbEntity
  8
0
  6
ByBlock
 62
     2
100
AcDbLine
 10
99.65219393958335
 20
71.50065384081949
 30
0.0
 11
99.65219393958335
 21
61.97711493276267
 31
0.0
  0
LINE
  5
B20
330
18
100
AcDbEntity
  8
0
  6
ByBlock
 62
     2
100
AcDbLine
 10
106.0021939395833
 20
71.50065384081949
 30
0.0
 11
106.0021939395833
 21
61.97711493276267
 31
0.0
  0
LINE
  5
B21
330
18
100
AcDbEntity
  8
0
  6
ByBlock
 62
     2
100
AcDbLine
 10
102.1521939395833
 20
63.22711493276267
 30
0.0
 11
103.5021939395833
 21
63.22711493276267
 31
0.0
  0
LINE
  5
B22
330
18
100
AcDbEntity
  8
0
  6
ByBlock
 62
     2
100
AcDbLine
 10
106.0021939395833
 20
63.22711493276267
 30
0.0
 11
120.2283844157738
 21
63.22711493276267
 31
0.0
  0
INSERT
  5
B23
330
18
100
AcDbEntity
  8
0
  6
ByBlock
 62
     2
100
AcDbBlockReference
  2
_OPEN
 10
99.65219393958335
 20
63.22711493276267
 30
0.0
 41
2.5
 42
2.5
 43
2.5
 50
180.0
  0
INSERT
  5
B24
330
18
100
AcDbEntity
  8
0
  6
ByBlock
 62
     2
100
AcDbBlockReference
  2
_OPEN
 10
106.0021939395833
 20
63.22711493276267
 30
0.0
 41
2.5
 42
2.5
 43
2.5
  0
MTEXT
  5
B25
330
18
100
AcDbEntity
  8
0
  6
ByBlock
 62
     6
100
AcDbMText
 10
114.3652891776786
 20
65.10211493276267
 30
0.0
 40
2.5
 41
0.0
 71
     5
 72
     1
  1
\A1;φ6.35
  7
STYLE3
 73
     1
 44
1.0
  0
POINT
  5
B26
330
18
100
AcDbEntity
  8
DEFPOINTS
  6
ByBlock
 62
     0
100
AcDbPoint
 10
99.65219393958335
 20
71.50065384081949
 30
0.0
  0
POINT
  5
B27
330
18
100
AcDbEntity
  8
DEFPOINTS
  6
ByBlock
 62
     0
100
AcDbPoint
 10
106.0021939395833
 20
71.50065384081949
 30
0.0
  0
POINT
  5
B28
330
18
100
AcDbEntity
  8
DEFPOINTS
  6
ByBlock
 62
     0
100
AcDbPoint
 10
106.0021939395833
 20
63.22711493276267
 30
0.0
  0
LINE
  5
B2A
330
18
100
AcDbEntity
  8
0
  6
ByBlock
 62
     2
100
AcDbLine
 10
105.5021939395833
 20
71.0006538408195
 30
0.0
 11
138.8338628309105
 21
71.00065384081948
 31
0.0
  0
POINT
  5
B30
330
18
100
AcDbEntity
  8
DEFPOINTS
  6
ByBlock
 62
     0
100
AcDbPoint
 10
105.5021939395833
 20
71.0006538408195
 30
0.0
  0
POINT
  5
B39
330
18
100
AcDbEntity
  8
DEFPOINTS
  6
ByBlock
 62
     0
100
AcDbPoint
 10
114.6271939395834
 20
109.0006538408194
 30
0.0
  0
LINE
  5
B3B
102
{ACAD_REACTORS
330
B3E
102
}
330
18
100
AcDbEntity
  8
外形線
100
AcDbLine
 10
186.6786151075332
 20
129.5402371741527
 30
0.0
 11
185.6786151075332
 21
129.5402371741527
 31
0.0
  0
LINE
  5
B3C
102
{ACAD_REACTORS
330
B3E
102
}
330
18
100
AcDbEntity
  8
外形線
100
AcDbLine
 10
186.6786151075332
 20
129.361070507486
 30
0.0
 11
185.6786151075332
 21
129.3610705074861
 31
0.0
  0
TEXT
  5
B3D
330
18
100
AcDbEntity
  8
文字
100
AcDbText
 10
180.9083614903194
 20
126.9643636064069
 30
0.0
 40
1.0
  1
0.01mm
  7
STYLE3
100
AcDbText
  0
HATCH
  5
B3E
330
18
100
AcDbEntity
  8
外形線
100
AcDbHatch
 10
0.0
 20
0.0
 30
0.0
210
0.0
220
0.0
230
1.0
  2
SOLID
 70
     1
 71
     1
 91
        2
 92
        1
 93
        7
 72
     1
 10
184.5119484408664
 20
129.4506538408194
 11
185.6786151075332
 21
129.0260219008422
 72
     1
 10
185.6786151075332
 20
129.0260219008422
 11
185.6786151075332
 21
129.3610705074861
 72
     1
 10
185.6786151075332
 20
129.3610705074861
 11
186.6786151075332
 21
129.361070507486
 72
     1
 10
186.6786151075332
 20
129.361070507486
 11
186.6786151075332
 21
129.5402371741527
 72
     1
 10
186.6786151075332
 20
129.5402371741527
 11
185.6786151075332
 21
129.5402371741527
 72
     1
 10
185.6786151075332
 20
129.5402371741527
 11
185.6786151075332
 21
129.8752857807966
 72
     1
 10
185.6786151075332
 20
129.8752857807966
 11
184.5119484408664
 21
129.4506538408194
 97
        7
330
B47
330
B4A
330
B3C
330
B63
330
B3B
330
B46
330
B4D
 92
        1
 93
        4
 72
     1
 10
184.5119484408664
 20
130.2006538408194
 11
184.5119484408664
 21
128.7006538408194
 72
     1
 10
184.5119484408664
 20
128.7006538408194
 11
184.3452817741998
 21
128.7006538408194
 72
     1
 10
184.3452817741998
 20
128.7006538408194
 11
184.3452817741998
 21
130.2006538408194
 72
     1
 10
184.3452817741998
 20
130.2006538408194
 11
184.5119484408664
 21
130.2006538408194
 97
        4
330
B4C
330
B59
330
B4B
330
B43
 75
     0
 76
     1
 98
        1
 10
92.18239173438616
 20
60.78850303363839
450
        0
451
        0
460
0.0
461
0.0
452
        0
462
0.0
453
        0
470

  0
LINE
  5
B3F
102
{ACAD_REACTORS
330
B41
102
}
330
18
100
AcDbEntity
  8
外形線
100
AcDbLine
 10
181.1786151075331
 20
129.5402371741527
 30
0.0
 11
182.1786151075331
 21
129.5402371741527
 31
0.0
  0
LINE
  5
B40
102
{ACAD_REACTORS
330
B41
102
}
330
18
100
AcDbEntity
  8
外形線
100
AcDbLine
 10
181.1786151075331
 20
129.361070507486
 30
0.0
 11
182.1786151075331
 21
129.3610705074861
 31
0.0
  0
HATCH
  5
B41
330
18
100
AcDbEntity
  8
外形線
100
AcDbHatch
 10
0.0
 20
0.0
 30
0.0
210
0.0
220
0.0
230
1.0
  2
SOLID
 70
     1
 71
     1
 91
        2
 92
        1
 93
        7
 72
     1
 10
183.3452817741999
 20
129.4506538408194
 11
182.1786151075331
 21
129.0260219008422
 72
     1
 10
182.1786151075331
 20
129.0260219008422
 11
182.1786151075331
 21
129.3610705074861
 72
     1
 10
182.1786151075331
 20
129.3610705074861
 11
181.1786151075331
 21
129.361070507486
 72
     1
 10
181.1786151075331
 20
129.361070507486
 11
181.1786151075331
 21
129.5402371741527
 72
     1
 10
181.1786151075331
 20
129.5402371741527
 11
182.1786151075331
 21
129.5402371741527
 72
     1
 10
182.1786151075331
 20
129.5402371741527
 11
182.1786151075331
 21
129.8752857807966
 72
     1
 10
182.1786151075331
 20
129.8752857807966
 11
183.3452817741999
 21
129.4506538408194
 97
        7
330
B55
330
B52
330
B40
330
B42
330
B3F
330
B4F
330
B56
 92
        1
 93
        4
 72
     1
 10
183.3452817741999
 20
130.2006538408194
 11
183.3452817741999
 21
128.7006538408194
 72
     1
 10
183.3452817741999
 20
128.7006538408194
 11
183.5119484408664
 21
128.7006538408194
 72
     1
 10
183.5119484408664
 20
128.7006538408194
 11
183.5119484408664
 21
130.2006538408194
 72
     1
 10
183.5119484408664
 20
130.2006538408194
 11
183.3452817741999
 21
130.2006538408194
 97
        4
330
B57
330
B62
330
B58
330
B4E
 75
     0
 76
     1
 98
        1
 10
275.6748384806802
 20
60.78850303363839
450
        0
451
        0
460
0.0
461
0.0
452
        0
462
0.0
453
        0
470

  0
LINE
  5
B42
102
{ACAD_REACTORS
330
B41
102
}
330
18
100
AcDbEntity
  8
外形線
100
AcDbLine
 10
181.1786151075331
 20
129.5402371741527
 30
0.0
 11
181.1786151075331
 21
129.361070507486
 31
0.0
  0
LINE
  5
B43
102
{ACAD_REACTORS
330
B3E
102
}
330
18
100
AcDbEntity
  8
外形線
100
AcDbLine
 10
184.3452817741998
 20
130.2006538408194
 30
0.0
 11
184.5119484408664
 21
130.2006538408194
 31
0.0
  0
POINT
  5
B44
330
18
100
AcDbEntity
  8
DEFPOINTS
  6
ByBlock
 62
     0
100
AcDbPoint
 10
185.6786151075332
 20
129.8752857807966
 30
0.0
  0
POINT
  5
B45
330
18
100
AcDbEntity
  8
DEFPOINTS
  6
ByBlock
 62
     0
100
AcDbPoint
 10
185.6786151075332
 20
129.8752857807966
 30
0.0
  0
LINE
  5
B46
102
{ACAD_REACTORS
330
B3E
102
}
330
18
100
AcDbEntity
  8
外形線
100
AcDbLine
 10
185.6786151075332
 20
129.8752857807966
 30
0.0
 11
185.6786151075332
 21
129.5402371741527
 31
0.0
  0
LINE
  5
B47
102
{ACAD_REACTORS
330
B3E
102
}
330
18
100
AcDbEntity
  8
外形線
100
AcDbLine
 10
184.5119484408664
 20
129.4506538408194
 30
0.0
 11
185.6786151075332
 21
129.0260219008422
 31
0.0
  0
POINT
  5
B48
330
18
100
AcDbEntity
  8
DEFPOINTS
  6
ByBlock
 62
     0
100
AcDbPoint
 10
185.6786151075332
 20
129.0260219008422
 30
0.0
  0
POINT
  5
B49
330
18
100
AcDbEntity
  8
DEFPOINTS
  6
ByBlock
 62
     0
100
AcDbPoint
 10
185.6786151075332
 20
129.0260219008422
 30
0.0
  0
LINE
  5
B4A
102
{ACAD_REACTORS
330
B3E
102
}
330
18
100
AcDbEntity
  8
外形線
100
AcDbLine
 10
185.6786151075332
 20
129.3610705074861
 30
0.0
 11
185.6786151075332
 21
129.0260219008422
 31
0.0
  0
LINE
  5
B4B
102
{ACAD_REACTORS
330
B3E
102
}
330
18
100
AcDbEntity
  8
外形線
100
AcDbLine
 10
184.3452817741998
 20
130.2006538408194
 30
0.0
 11
184.3452817741998
 21
128.7006538408194
 31
0.0
  0
LINE
  5
B4C
102
{ACAD_REACTORS
330
B3E
102
}
330
18
100
AcDbEntity
  8
外形線
100
AcDbLine
 10
184.5119484408664
 20
130.2006538408194
 30
0.0
 11
184.5119484408664
 21
128.7006538408194
 31
0.0
  0
LINE
  5
B4D
102
{ACAD_REACTORS
330
B3E
102
}
330
18
100
AcDbEntity
  8
外形線
100
AcDbLine
 10
184.5119484408664
 20
129.4506538408194
 30
0.0
 11
185.6786151075332
 21
129.8752857807966
 31
0.0
  0
LINE
  5
B4E
102
{ACAD_REACTORS
330
B41
102
}
330
18
100
AcDbEntity
  8
外形線
100
AcDbLine
 10
183.5119484408664
 20
130.2006538408194
 30
0.0
 11
183.3452817741999
 21
130.2006538408194
 31
0.0
  0
LINE
  5
B4F
102
{ACAD_REACTORS
330
B41
102
}
330
18
100
AcDbEntity
  8
外形線
100
AcDbLine
 10
182.1786151075331
 20
129.8752857807966
 30
0.0
 11
182.1786151075331
 21
129.5402371741527
 31
0.0
  0
POINT
  5
B50
330
18
100
AcDbEntity
  8
DEFPOINTS
  6
ByBlock
 62
     0
100
AcDbPoint
 10
182.1786151075331
 20
129.8752857807966
 30
0.0
  0
POINT
  5
B51
330
18
100
AcDbEntity
  8
DEFPOINTS
  6
ByBlock
 62
     0
100
AcDbPoint
 10
182.1786151075331
 20
129.8752857807966
 30
0.0
  0
LINE
  5
B52
102
{ACAD_REACTORS
330
B41
102
}
330
18
100
AcDbEntity
  8
外形線
100
AcDbLine
 10
182.1786151075331
 20
129.3610705074861
 30
0.0
 11
182.1786151075331
 21
129.0260219008422
 31
0.0
  0
POINT
  5
B53
330
18
100
AcDbEntity
  8
DEFPOINTS
  6
ByBlock
 62
     0
100
AcDbPoint
 10
182.1786151075331
 20
129.0260219008422
 30
0.0
  0
POINT
  5
B54
330
18
100
AcDbEntity
  8
DEFPOINTS
  6
ByBlock
 62
     0
100
AcDbPoint
 10
182.1786151075331
 20
129.0260219008422
 30
0.0
  0
LINE
  5
B55
102
{ACAD_REACTORS
330
B41
102
}
330
18
100
AcDbEntity
  8
外形線
100
AcDbLine
 10
183.3452817741999
 20
129.4506538408194
 30
0.0
 11
182.1786151075331
 21
129.0260219008422
 31
0.0
  0
LINE
  5
B56
102
{ACAD_REACTORS
330
B41
102
}
330
18
100
AcDbEntity
  8
外形線
100
AcDbLine
 10
183.3452817741999
 20
129.4506538408194
 30
0.0
 11
182.1786151075331
 21
129.8752857807966
 31
0.0
  0
LINE
  5
B57
102
{ACAD_REACTORS
330
B41
102
}
330
18
100
AcDbEntity
  8
外形線
100
AcDbLine
 10
183.3452817741999
 20
130.2006538408194
 30
0.0
 11
183.3452817741999
 21
128.7006538408194
 31
0.0
  0
LINE
  5
B58
102
{ACAD_REACTORS
330
B41
102
}
330
18
100
AcDbEntity
  8
外形線
100
AcDbLine
 10
183.5119484408664
 20
130.2006538408194
 30
0.0
 11
183.5119484408664
 21
128.7006538408194
 31
0.0
  0
LINE
  5
B59
102
{ACAD_REACTORS
330
B3E
102
}
330
18
100
AcDbEntity
  8
外形線
100
AcDbLine
 10
184.3452817741998
 20
128.7006538408194
 30
0.0
 11
184.5119484408664
 21
128.7006538408194
 31
0.0
  0
POINT
  5
B5A
330
18
100
AcDbEntity
  8
DEFPOINTS
  6
ByBlock
 62
     0
100
AcDbPoint
 10
184.5119484408664
 20
128.7006538408194
 30
0.0
  0
POINT
  5
B5B
330
18
100
AcDbEntity
  8
DEFPOINTS
  6
ByBlock
 62
     0
100
AcDbPoint
 10
184.3452817741998
 20
128.7006538408194
 30
0.0
  0
POINT
  5
B5C
330
18
100
AcDbEntity
  8
DEFPOINTS
  6
ByBlock
 62
     0
100
AcDbPoint
 10
184.5119484408664
 20
128.7006538408194
 30
0.0
  0
POINT
  5
B5D
330
18
100
AcDbEntity
  8
DEFPOINTS
  6
ByBlock
 62
     0
100
AcDbPoint
 10
184.3452817741998
 20
128.7006538408194
 30
0.0
  0
POINT
  5
B5E
330
18
100
AcDbEntity
  8
DEFPOINTS
  6
ByBlock
 62
     0
100
AcDbPoint
 10
183.5119484408664
 20
128.7006538408194
 30
0.0
  0
POINT
  5
B5F
330
18
100
AcDbEntity
  8
DEFPOINTS
  6
ByBlock
 62
     0
100
AcDbPoint
 10
183.3452817741999
 20
128.7006538408194
 30
0.0
  0
POINT
  5
B60
330
18
100
AcDbEntity
  8
DEFPOINTS
  6
ByBlock
 62
     0
100
AcDbPoint
 10
183.5119484408664
 20
128.7006538408194
 30
0.0
  0
POINT
  5
B61
330
18
100
AcDbEntity
  8
DEFPOINTS
  6
ByBlock
 62
     0
100
AcDbPoint
 10
183.3452817741999
 20
128.7006538408194
 30
0.0
  0
LINE
  5
B62
102
{ACAD_REACTORS
330
B41
102
}
330
18
100
AcDbEntity
  8
外形線
100
AcDbLine
 10
183.5119484408664
 20
128.7006538408194
 30
0.0
 11
183.3452817741999
 21
128.7006538408194
 31
0.0
  0
LINE
  5
B63
102
{ACAD_REACTORS
330
B3E
102
}
330
18
100
AcDbEntity
  8
外形線
100
AcDbLine
 10
186.6786151075332
 20
129.5402371741527
 30
0.0
 11
186.6786151075332
 21
129.361070507486
 31
0.0
  0
HATCH
  5
B64
330
18
100
AcDbEntity
  8
ROGO
 62
     4
100
AcDbHatch
 10
0.0
 20
0.0
 30
0.0
210
0.0
220
0.0
230
1.0
  2
SOLID
 70
     1
 71
     1
 91
        1
 92
        7
 72
     0
 73
     1
 93
       11
 10
183.1700840990658
 20
133.123707625105
 10
183.7817251329022
 20
133.123707625105
 10
183.9977571596849
 20
133.556956791044
 10
184.2137891864675
 20
133.123707625105
 10
184.8254168380901
 20
133.123707625105
 10
184.4115803077805
 20
133.9536509175968
 10
185.41704299296
 20
134.7835942100887
 10
184.8054153413374
 20
134.7835942100887
 10
184.5190331379471
 20
134.6023683726948
 10
184.6093981935213
 20
134.7835942100886
 10
183.9977571596849
 20
134.7835942100887
 97
       11
330
BB2
330
BB5
330
BB4
330
BB3
330
B69
330
B66
330
BAF
330
BAE
330
BB0
330
BAD
330
BB1
 75
     0
 76
     1
 47
0.0514683685270805
 98
        1
 10
183.9451171646869
 20
134.0714705191191
450
        0
451
        0
460
0.0
461
0.0
452
        0
462
0.0
453
        0
470

  0
HATCH
  5
B65
330
18
100
AcDbEntity
  8
ROGO
 62
     4
100
AcDbHatch
 10
0.0
 20
0.0
 30
0.0
210
0.0
220
0.0
230
1.0
  2
SOLID
 70
     1
 71
     0
 91
        1
 92
        5
 93
        8
 72
     4
 94
        3
 73
     0
 74
     0
 95
       26
 96
       22
 40
0.0
 40
0.0
 40
0.0
 40
0.0
 40
0.1927099265173959
 40
0.3217143003795198
 40
0.4147369596493893
 40
0.4841939694029764
 40
0.5742833564486624
 40
0.6400398264178277
 40
0.758780684707226
 40
0.8554340362639585
 40
0.9211738023510489
 40
0.9856350088615993
 40
1.100943575280602
 40
1.182480494385236
 40
1.226394424895991
 40
1.288772865988465
 40
1.333817737941425
 40
1.399072885742907
 40
1.436001654955441
 40
1.516362799066899
 40
1.553056395558967
 40
1.553056395558967
 40
1.553056395558967
 40
1.553056395558967
 10
182.7114604034729
 20
134.7835942100887
 10
182.6460516768799
 20
134.7796918132959
 10
182.5368568725704
 20
134.7731770640213
 10
182.4169616417013
 20
134.7003419988479
 10
182.3291193765152
 20
134.6579988926853
 10
182.2664703795156
 20
134.6004370472527
 10
182.2205484107545
 20
134.540979865734
 10
182.1626551481924
 20
134.4701370699057
 10
182.1154448468745
 20
134.3876435008952
 10
182.0914035105124
 20
134.2967212064819
 10
182.0701079229398
 20
134.2242556102865
 10
182.0543147586881
 20
134.14350216028
 10
182.0583329867725
 20
134.0562600266949
 10
182.0640872732886
 20
133.9752339993538
 10
182.0897787633267
 20
133.9173935470924
 10
182.1190368197328
 20
133.8762151308206
 10
182.1548629091151
 20
133.8308616705331
 10
182.1940644854219
 20
133.800824220645
 10
182.2264873888825
 20
133.7464093617046
 10
182.2832425876253
 20
133.7394656332613
 10
182.3193184498657
 20
133.7256455412334
 10
182.3306272881523
 20
133.7213133042156
 72
     1
 10
182.3306272881523
 20
133.7213133042155
 11
183.2455838163077
 21
133.7213133042156
 72
     1
 10
183.2455838163077
 20
133.7213133042156
 11
183.4426598470689
 21
134.1165464889682
 72
     1
 10
183.4426598470689
 20
134.1165464889682
 11
182.7633920109454
 21
134.1165464889682
 72
     4
 94
        3
 73
     0
 74
     0
 95
       16
 96
       12
 40
0.0
 40
0.0
 40
0.0
 40
0.0
 40
0.0581978857823591
 40
0.1169960404798265
 40
0.1520664971353178
 40
0.1856918471252147
 40
0.2226204696139978
 40
0.2484086653137579
 40
0.2728794248980214
 40
0.3225026120845842
 40
0.4241003886766431
 40
0.4241003886766431
 40
0.4241003886766431
 40
0.4241003886766431
 10
182.7633920109454
 20
134.1165464889682
 10
182.7429028992305
 20
134.122574686059
 10
182.7017133454974
 20
134.1346932567146
 10
182.6982661124632
 20
134.1934396352489
 10
182.7029624687444
 20
134.2353012371544
 10
182.7226308193394
 20
134.2657789279018
 10
182.7464919400409
 20
134.2879554579845
 10
182.7553764935483
 20
134.3168369209813
 10
182.7814918291156
 20
134.3386460389299
 10
182.8278013165378
 20
134.3753041196701
 10
182.879011592979
 20
134.3831114717961
 10
182.9134172077502
 20
134.3883568398803
 72
     1
 10
182.9134172077502
 20
134.3883568398803
 11
183.5781932666908
 21
134.3883568398803
 72
     1
 10
183.5781932666908
 20
134.3883568398803
 11
183.7752713844555
 21
134.7835942100886
 72
     1
 10
183.7752713844555
 20
134.7835942100886
 11
182.7114604034729
 21
134.7835942100886
 97
        0
 75
     0
 76
     1
 47
0.0514683685270805
 98
        1
 10
182.8950273861834
 20
134.589086963092
450
        0
451
        0
460
0.0
461
0.0
452
        0
462
0.0
453
        0
470

  0
LINE
  5
B66
102
{ACAD_REACTORS
330
B64
330
B6F
102
}
330
18
100
AcDbEntity
  8
ROGO
 62
     4
100
AcDbLine
 10
172.5459449340005
 20
133.123707625105
 30
0.0
 11
183.7817251329023
 21
133.123707625105
 31
0.0
  0
LINE
  5
B67
330
18
100
AcDbEntity
  8
ROGO
 62
     4
100
AcDbLine
 10
182.7114604034733
 20
134.7835942100887
 30
0.0
 11
183.7752713844555
 21
134.7835942100887
 31
0.0
  0
LINE
  5
B68
330
18
100
AcDbEntity
  8
ROGO
 62
     4
100
AcDbLine
 10
183.7752713844555
 20
134.7835942100887
 30
0.0
 11
183.5781932666909
 21
134.3883568398803
 31
0.0
  0
LINE
  5
B69
102
{ACAD_REACTORS
330
B64
102
}
330
18
100
AcDbEntity
  8
ROGO
 62
     4
100
AcDbLine
 10
183.9977571596849
 20
134.7835942100887
 30
0.0
 11
183.1700840990658
 21
133.123707625105
 31
0.0
  0
HATCH
  5
B6A
330
18
100
AcDbEntity
  8
ROGO
 62
     4
100
AcDbHatch
 10
0.0
 20
0.0
 30
0.0
210
0.0
220
0.0
230
1.0
  2
SOLID
 70
     1
 71
     0
 91
        1
 92
        7
 72
     0
 73
     1
 93
        4
 10
183.2530459632712
 20
133.2900864672008
 10
173.3928056694894
 20
133.2900864672008
 10
173.3175311617787
 20
133.1237076251049
 10
183.1700840990658
 20
133.1237076251049
 97
        0
 75
     0
 76
     1
 47
0.0514683685270805
 98
        1
 10
179.618747356884
 20
133.2460819373679
450
        0
451
        0
460
0.0
461
0.0
452
        0
462
0.0
453
        0
470

  0
HATCH
  5
B6B
330
18
100
AcDbEntity
  8
ROGO
 62
     4
100
AcDbHatch
 10
0.0
 20
0.0
 30
0.0
210
0.0
220
0.0
230
1.0
  2
SOLID
 70
     1
 71
     1
 91
        1
 92
        7
 72
     0
 73
     1
 93
        8
 10
177.909262018946
 20
134.7835942100887
 10
177.2953052028962
 20
134.7835942100887
 10
176.5292737964825
 20
133.7213133042156
 10
177.1175872806557
 20
133.7213133042156
 10
177.263434920849
 20
133.9235650161518
 10
177.9411323009932
 20
133.9235650161518
 10
178.0869799411866
 20
133.7213133042156
 10
178.6752934253597
 20
133.7213133042156
 97
        8
330
B6D
330
B75
330
B7A
330
B76
330
B6C
330
B8E
330
B94
330
B8D
 75
     0
 76
     1
 47
0.0514683685270805
 98
        1
 10
177.9806073422343
 20
134.2393460768501
450
        0
451
        0
460
0.0
461
0.0
452
        0
462
0.0
453
        0
470

  0
LINE
  5
B6C
102
{ACAD_REACTORS
330
B6B
102
}
330
18
100
AcDbEntity
  8
ROGO
 62
     4
100
AcDbLine
 10
177.263434920849
 20
133.9235650161518
 30
0.0
 11
177.9411323009932
 21
133.9235650161518
 31
0.0
  0
LINE
  5
B6D
102
{ACAD_REACTORS
330
B6B
102
}
330
18
100
AcDbEntity
  8
ROGO
 62
     4
100
AcDbLine
 10
177.2953052028962
 20
134.7835942100887
 30
0.0
 11
177.909262018946
 21
134.7835942100887
 31
0.0
  0
LINE
  5
B6E
330
18
100
AcDbEntity
  8
ROGO
 62
     4
100
AcDbLine
 10
173.3812671203476
 20
133.2900864672008
 30
0.0
 11
183.2530459632712
 21
133.2900864672008
 31
0.0
  0
HATCH
  5
B6F
330
18
100
AcDbEntity
  8
ROGO
 62
     4
100
AcDbHatch
 10
0.0
 20
0.0
 30
0.0
210
0.0
220
0.0
230
1.0
  2
SOLID
 70
     1
 71
     1
 91
        2
 92
        5
 93
        6
 72
     1
 10
172.5459449340005
 20
133.123707625105
 11
173.3175311617787
 21
133.123707625105
 72
     1
 10
173.3175311617787
 20
133.123707625105
 11
173.5879049228502
 21
133.7213133042156
 72
     1
 10
173.5879049228502
 20
133.7213133042156
 11
174.3091797926361
 21
133.7213133042155
 72
     4
 94
        3
 73
     0
 74
     0
 95
       18
 96
       14
 40
0.108740278791501
 40
0.108740278791501
 40
0.108740278791501
 40
0.108740278791501
 40
0.6623149649549278
 40
1.384304701649787
 40
2.097394834876493
 40
2.774073369849618
 40
3.428974823686337
 40
4.005208313035923
 40
4.455173659284313
 40
4.720999734343524
 40
5.086034088486724
 40
5.569973738255373
 40
6.060470601257719
 40
6.060470601257719
 40
6.060470601257719
 40
6.060470601257719
 10
174.309179792636
 20
133.7213133042156
 10
174.3599419263588
 20
133.7216913144552
 10
174.4769096516244
 20
133.7225623376887
 10
174.6405465840057
 20
133.8099807826541
 10
174.7957211500723
 20
133.921345512317
 10
174.9207037067298
 20
134.0604841233232
 10
174.9985716050945
 20
134.2195652872401
 10
175.010633096424
 20
134.37202997083
 10
175.0032698522975
 20
134.4926276400925
 10
174.9506557746275
 20
134.5766872095236
 10
174.8959570204667
 20
134.6619990762799
 10
174.7956580014727
 20
134.7358993839615
 10
174.7134774783962
 20
134.7682787040924
 10
174.6716870109771
 20
134.7835942100887
 72
     1
 10
174.6716870109771
 20
134.7835942100887
 11
173.3672413791385
 21
134.7835942100886
 72
     1
 10
173.3672413791385
 20
134.7835942100886
 11
172.5459449340005
 21
133.123707625105
 97
        6
330
B71
330
B7B
330
B72
330
B66
330
B78
330
B77
 92
       20
 93
        4
 72
     1
 10
173.7548454141317
 20
134.0903009798986
 11
173.8826592131533
 21
134.372807136788
 72
     1
 10
173.8826592131533
 20
134.372807136788
 11
174.2110862033035
 21
134.372807136788
 72
     4
 94
        3
 73
     0
 74
     0
 95
       15
 96
       11
 40
0.0
 40
0.0
 40
0.0
 40
0.0
 40
0.1245558822265139
 40
0.181346513453614
 40
0.245807660562926
 40
0.2897215910737068
 40
0.3591719276283951
 40
0.4007707820523203
 40
0.4721407847095255
 40
0.4959308007789699
 40
0.4959308007789699
 40
0.4959308007789699
 40
0.4959308007789699
 10
174.2110862033035
 20
134.372807136788
 10
174.2578669772473
 20
134.3730214177035
 10
174.325977210981
 20
134.3733333989302
 10
174.3632223125993
 20
134.289080842834
 10
174.3465272822014
 20
134.2348353399464
 10
174.3255402683243
 20
134.1791421155821
 10
174.2884514615589
 20
134.1412977296533
 10
174.2386728503733
 20
134.1048472063215
 10
174.1916296839866
 20
134.1004347072544
 10
174.1610333850256
 20
134.0923277261459
 10
174.1533843066239
 20
134.0903009798986
 72
     1
 10
174.1533843066239
 20
134.0903009798986
 11
173.7548454141317
 21
134.0903009798986
 97
        4
330
B7E
330
B7C
330
B80
330
B7D
 75
     0
 76
     1
 47
0.0514683685270805
 98
        2
 10
173.3742134386585
 20
134.2673254304513
 10
173.3742134386585
 20
134.2673254304513
450
        0
451
        0
460
0.0
461
0.0
452
        0
462
0.0
453
        0
470

  0
HATCH
  5
B70
330
18
100
AcDbEntity
  8
ROGO
 62
     4
100
AcDbHatch
 10
0.0
 20
0.0
 30
0.0
210
0.0
220
0.0
230
1.0
  2
SOLID
 70
     1
 71
     1
 91
        1
 92
        1
 93
       12
 72
     1
 10
175.4423211237168
 20
134.7835942100887
 11
176.8791002422841
 21
134.7835942100887
 72
     1
 10
176.8791002422841
 20
134.7835942100887
 11
176.7586994239199
 21
134.5402573438368
 72
     1
 10
176.7586994239199
 20
134.5402573438368
 11
176.0035646258036
 21
134.5402573438368
 72
     1
 10
176.0035646258036
 20
134.5402573438368
 11
175.9094261475368
 21
134.3499981528579
 72
     1
 10
175.9094261475368
 20
134.3499981528579
 11
176.6645609456532
 21
134.3499981528579
 72
     1
 10
176.6645609456532
 20
134.3499981528579
 11
176.5680307550835
 21
134.1549051759907
 72
     1
 10
176.5680307550835
 20
134.1549051759907
 11
175.8128959569672
 21
134.1549051759907
 72
     1
 10
175.8128959569672
 20
134.1549051759907
 11
175.7187534933298
 21
133.9646379303522
 72
     1
 10
175.7187534933298
 20
133.9646379303522
 11
176.4738882914461
 21
133.9646379303522
 72
     1
 10
176.4738882914461
 20
133.9646379303522
 11
176.3534935293772
 21
133.7213133042156
 72
     1
 10
176.3534935293772
 20
133.7213133042156
 11
174.9167144108099
 21
133.7213133042156
 72
     1
 10
174.9167144108099
 20
133.7213133042156
 11
175.4423211237169
 21
134.7835942100887
 97
       12
330
B7F
330
B81
330
B83
330
B82
330
B84
330
B87
330
B86
330
B88
330
B85
330
B74
330
B79
330
B73
 75
     0
 76
     1
 98
        1
 10
116.6713179942024
 20
61.33162293332233
450
        0
451
        0
460
0.0
461
0.0
452
        0
462
0.0
453
        0
470

  0
SPLINE
  5
B71
102
{ACAD_REACTORS
330
B6F
102
}
330
18
100
AcDbEntity
  8
ROGO
 62
     4
100
AcDbSpline
210
0.0
220
0.0
230
1.0
 70
     8
 71
     3
 72
    18
 73
    14
 74
     0
 42
0.0000000001
 43
0.0000000001
 40
0.1087402787915014
 40
0.1087402787915014
 40
0.1087402787915014
 40
0.1087402787915014
 40
0.5992371417938475
 40
1.083176791562496
 40
1.448211145705696
 40
1.714037220764907
 40
2.164002567013297
 40
2.740236056362883
 40
3.395137510199602
 40
4.071816045172726
 40
4.784906178399433
 40
5.506895915094292
 40
6.060470601257719
 40
6.060470601257719
 40
6.060470601257719
 40
6.060470601257719
 10
174.6716870109771
 20
134.7835942100887
 30
0.0
 10
174.7134774783962
 20
134.7682787040924
 30
0.0
 10
174.7956580014727
 20
134.7358993839615
 30
0.0
 10
174.8959570204667
 20
134.6619990762799
 30
0.0
 10
174.9506557746275
 20
134.5766872095236
 30
0.0
 10
175.0032698522975
 20
134.4926276400925
 30
0.0
 10
175.010633096424
 20
134.37202997083
 30
0.0
 10
174.9985716050945
 20
134.2195652872401
 30
0.0
 10
174.9207037067298
 20
134.0604841233232
 30
0.0
 10
174.7957211500723
 20
133.921345512317
 30
0.0
 10
174.6405465840057
 20
133.8099807826541
 30
0.0
 10
174.4769096516244
 20
133.7225623376887
 30
0.0
 10
174.3599419263588
 20
133.7216913144552
 30
0.0
 10
174.309179792636
 20
133.7213133042156
 30
0.0
  0
LINE
  5
B72
102
{ACAD_REACTORS
330
B6F
102
}
330
18
100
AcDbEntity
  8
ROGO
 62
     4
100
AcDbLine
 10
173.3672413791385
 20
134.7835942100887
 30
0.0
 11
172.5459449340005
 21
133.123707625105
 31
0.0
  0
LINE
  5
B73
102
{ACAD_REACTORS
330
B70
102
}
330
18
100
AcDbEntity
  8
ROGO
 62
     4
100
AcDbLine
 10
175.4423211237169
 20
134.7835942100887
 30
0.0
 11
174.9167144108099
 21
133.7213133042156
 31
0.0
  0
LINE
  5
B74
102
{ACAD_REACTORS
330
B70
102
}
330
18
100
AcDbEntity
  8
ROGO
 62
     4
100
AcDbLine
 10
176.4738882914461
 20
133.9646379303522
 30
0.0
 11
176.3534935293772
 21
133.7213133042156
 31
0.0
  0
LINE
  5
B75
102
{ACAD_REACTORS
330
B6B
102
}
330
18
100
AcDbEntity
  8
ROGO
 62
     4
100
AcDbLine
 10
177.2953052028962
 20
134.7835942100887
 30
0.0
 11
176.5292737964825
 21
133.7213133042156
 31
0.0
  0
LINE
  5
B76
102
{ACAD_REACTORS
330
B6B
102
}
330
18
100
AcDbEntity
  8
ROGO
 62
     4
100
AcDbLine
 10
177.263434920849
 20
133.9235650161518
 30
0.0
 11
177.1175872806557
 21
133.7213133042156
 31
0.0
  0
LINE
  5
B77
102
{ACAD_REACTORS
330
B6F
102
}
330
18
100
AcDbEntity
  8
ROGO
 62
     4
100
AcDbLine
 10
174.309179792886
 20
133.7213133042156
 30
0.0
 11
173.5879049228501
 21
133.7213133042156
 31
0.0
  0
LINE
  5
B78
102
{ACAD_REACTORS
330
B6F
102
}
330
18
100
AcDbEntity
  8
ROGO
 62
     4
100
AcDbLine
 10
173.5879049228501
 20
133.7213133042156
 30
0.0
 11
173.3175311617787
 21
133.123707625105
 31
0.0
  0
LINE
  5
B79
102
{ACAD_REACTORS
330
B70
102
}
330
18
100
AcDbEntity
  8
ROGO
 62
     4
100
AcDbLine
 10
174.9167144108099
 20
133.7213133042156
 30
0.0
 11
176.3534935293772
 21
133.7213133042156
 31
0.0
  0
LINE
  5
B7A
102
{ACAD_REACTORS
330
B6B
102
}
330
18
100
AcDbEntity
  8
ROGO
 62
     4
100
AcDbLine
 10
176.5292737964825
 20
133.7213133042156
 30
0.0
 11
177.1175872806557
 21
133.7213133042156
 31
0.0
  0
LINE
  5
B7B
102
{ACAD_REACTORS
330
B6F
102
}
330
18
100
AcDbEntity
  8
ROGO
 62
     4
100
AcDbLine
 10
173.3672413791385
 20
134.7835942100887
 30
0.0
 11
174.6716870109771
 21
134.7835942100887
 31
0.0
  0
LINE
  5
B7C
102
{ACAD_REACTORS
330
B6F
102
}
330
18
100
AcDbEntity
  8
ROGO
 62
     4
100
AcDbLine
 10
174.2110862033035
 20
134.372807136788
 30
0.0
 11
173.8826592131534
 21
134.372807136788
 31
0.0
  0
LINE
  5
B7D
102
{ACAD_REACTORS
330
B6F
102
}
330
18
100
AcDbEntity
  8
ROGO
 62
     4
100
AcDbLine
 10
174.1533843066239
 20
134.0903009798986
 30
0.0
 11
173.7548454141317
 21
134.0903009798986
 31
0.0
  0
LINE
  5
B7E
102
{ACAD_REACTORS
330
B6F
102
}
330
18
100
AcDbEntity
  8
ROGO
 62
     4
100
AcDbLine
 10
173.8826592131534
 20
134.372807136788
 30
0.0
 11
173.7548454141317
 21
134.0903009798986
 31
0.0
  0
LINE
  5
B7F
102
{ACAD_REACTORS
330
B70
102
}
330
18
100
AcDbEntity
  8
ROGO
 62
     4
100
AcDbLine
 10
175.4423211237168
 20
134.7835942100887
 30
0.0
 11
176.8791002422841
 21
134.7835942100887
 31
0.0
  0
SPLINE
  5
B80
102
{ACAD_REACTORS
330
B6F
102
}
330
18
100
AcDbEntity
  8
ROGO
 62
     4
100
AcDbSpline
210
0.0
220
0.0
230
1.0
 70
     8
 71
     3
 72
    15
 73
    11
 74
     9
 42
0.0000000001
 43
0.0000000001
 44
0.0000000001
 40
0.0
 40
0.0
 40
0.0
 40
0.0
 40
0.1245558822265139
 40
0.181346513453614
 40
0.245807660562926
 40
0.2897215910737068
 40
0.3591719276283951
 40
0.4007707820523203
 40
0.4721407847095255
 40
0.4959308007789699
 40
0.4959308007789699
 40
0.4959308007789699
 40
0.4959308007789699
 10
174.2110862033035
 20
134.372807136788
 30
0.0
 10
174.2578669772473
 20
134.3730214177035
 30
0.0
 10
174.325977210981
 20
134.3733333989302
 30
0.0
 10
174.3632223125993
 20
134.289080842834
 30
0.0
 10
174.3465272822014
 20
134.2348353399464
 30
0.0
 10
174.3255402683243
 20
134.1791421155821
 30
0.0
 10
174.2884514615589
 20
134.1412977296533
 30
0.0
 10
174.2386728503733
 20
134.1048472063215
 30
0.0
 10
174.1916296839866
 20
134.1004347072544
 30
0.0
 10
174.1610333850256
 20
134.0923277261459
 30
0.0
 10
174.1533843066239
 20
134.0903009798986
 30
0.0
 11
174.2110862033035
 21
134.372807136788
 31
0.0
 11
174.3322602858699
 21
134.3439799012039
 31
0.0
 11
174.3553411109012
 21
134.2920910651113
 31
0.0
 11
174.3438008642842
 21
134.2286713347849
 31
0.0
 11
174.3264903284602
 21
134.1883132049671
 31
0.0
 11
174.2803286783975
 21
134.1364243688745
 31
0.0
 11
174.2457076067493
 21
134.1133625804072
 31
0.0
 11
174.1764651316553
 21
134.0960664270155
 31
0.0
 11
174.1533843066239
 21
134.0903009798986
 31
0.0
  0
LINE
  5
B81
102
{ACAD_REACTORS
330
B70
102
}
330
18
100
AcDbEntity
  8
ROGO
 62
     4
100
AcDbLine
 10
176.8791002422841
 20
134.7835942100887
 30
0.0
 11
176.7586994239199
 21
134.5402573438368
 31
0.0
  0
LINE
  5
B82
102
{ACAD_REACTORS
330
B70
102
}
330
18
100
AcDbEntity
  8
ROGO
 62
     4
100
AcDbLine
 10
176.0035646258036
 20
134.5402573438368
 30
0.0
 11
175.9094261475368
 21
134.3499981528579
 31
0.0
  0
LINE
  5
B83
102
{ACAD_REACTORS
330
B70
102
}
330
18
100
AcDbEntity
  8
ROGO
 62
     4
100
AcDbLine
 10
176.0035646258036
 20
134.5402573438368
 30
0.0
 11
176.7586994239199
 21
134.5402573438368
 31
0.0
  0
LINE
  5
B84
102
{ACAD_REACTORS
330
B70
102
}
330
18
100
AcDbEntity
  8
ROGO
 62
     4
100
AcDbLine
 10
175.9094261475368
 20
134.3499981528579
 30
0.0
 11
176.6645609456532
 21
134.3499981528579
 31
0.0
  0
LINE
  5
B85
102
{ACAD_REACTORS
330
B70
102
}
330
18
100
AcDbEntity
  8
ROGO
 62
     4
100
AcDbLine
 10
175.7187534933298
 20
133.9646379303522
 30
0.0
 11
176.4738882914461
 21
133.9646379303522
 31
0.0
  0
LINE
  5
B86
102
{ACAD_REACTORS
330
B70
102
}
330
18
100
AcDbEntity
  8
ROGO
 62
     4
100
AcDbLine
 10
175.8128959569672
 20
134.1549051759907
 30
0.0
 11
176.5680307550835
 21
134.1549051759907
 31
0.0
  0
LINE
  5
B87
102
{ACAD_REACTORS
330
B70
102
}
330
18
100
AcDbEntity
  8
ROGO
 62
     4
100
AcDbLine
 10
176.6645609456532
 20
134.3499981528579
 30
0.0
 11
176.5680307550835
 21
134.1549051759907
 31
0.0
  0
LINE
  5
B88
102
{ACAD_REACTORS
330
B70
102
}
330
18
100
AcDbEntity
  8
ROGO
 62
     4
100
AcDbLine
 10
175.8128959569672
 20
134.1549051759907
 30
0.0
 11
175.7187534933298
 21
133.9646379303522
 31
0.0
  0
HATCH
  5
B89
330
18
100
AcDbEntity
  8
ROGO
 62
     4
100
AcDbHatch
 10
0.0
 20
0.0
 30
0.0
210
0.0
220
0.0
230
1.0
  2
SOLID
 70
     1
 71
     1
 91
        1
 92
        7
 72
     1
 73
     1
 93
        4
 10
181.3204793531897
 20
134.7835942100887
 42
0.0
 10
180.8909313896425
 20
134.7835942100887
 42
0.9597396185056165
 10
180.8909313896423
 20
133.7213133042156
 42
0.0
 10
181.3513485657826
 20
133.7213133042156
 42
0.9713627655772839
 97
        4
330
BA9
330
B91
330
B96
330
B92
 75
     0
 76
     1
 47
0.0514683685270805
 98
        1
 10
181.4249016299191
 20
134.3512631153374
450
        0
451
        0
460
0.0
461
0.0
452
        0
462
0.0
453
        0
470

  0
HATCH
  5
B8A
330
18
100
AcDbEntity
  8
ROGO
 62
     4
100
AcDbHatch
 10
0.0
 20
0.0
 30
0.0
210
0.0
220
0.0
230
1.0
  2
SOLID
 70
     1
 71
     0
 91
        1
 92
        5
 93
        8
 72
     1
 10
180.1554296977333
 20
134.3883568398804
 11
180.352507815498
 21
134.7835942100887
 72
     1
 10
180.352507815498
 20
134.7835942100887
 11
179.2886968345154
 21
134.7835942100887
 72
     4
 94
        3
 73
     0
 74
     0
 95
       26
 96
       22
 40
0.0
 40
0.0
 40
0.0
 40
0.0
 40
0.1927099265173915
 40
0.3217143003795154
 40
0.414736959649385
 40
0.4841939694030122
 40
0.5742833564486799
 40
0.6400398264178452
 40
0.7587806847072436
 40
0.8554340362639674
 40
0.9211738023510106
 40
0.9856350088616169
 40
1.10094357528062
 40
1.182480494385226
 40
1.226394424896018
 40
1.288772865988476
 40
1.333817737941436
 40
1.399072885742898
 40
1.436001654955432
 40
1.516362799066879
 40
1.553056395558966
 40
1.553056395558966
 40
1.553056395558966
 40
1.553056395558966
 10
179.2886968345154
 20
134.7835942100887
 10
179.2232881079224
 20
134.7796918132959
 10
179.1140933036128
 20
134.7731770640214
 10
178.9941980727437
 20
134.7003419988479
 10
178.9063558075576
 20
134.6579988926854
 10
178.8437068105579
 20
134.6004370472527
 10
178.797784841797
 20
134.540979865734
 10
178.7398915792348
 20
134.4701370699057
 10
178.6926812779169
 20
134.3876435008952
 10
178.668639941555
 20
134.2967212064818
 10
178.6473443539821
 20
134.2242556102866
 10
178.6315511897305
 20
134.14350216028
 10
178.6355694178149
 20
134.0562600266949
 10
178.6413237043311
 20
133.9752339993538
 10
178.6670151943691
 20
133.9173935470924
 10
178.6962732507752
 20
133.8762151308205
 10
178.7320993401575
 20
133.8308616705332
 10
178.7713009164643
 20
133.800824220645
 10
178.8037238199249
 20
133.7464093617046
 10
178.8604790186677
 20
133.7394656332614
 10
178.8965548809082
 20
133.7256455412334
 10
178.9078637191947
 20
133.7213133042156
 72
     1
 10
178.9078637191947
 20
133.7213133042156
 11
179.8228202473502
 21
133.7213133042156
 72
     1
 10
179.8228202473502
 20
133.7213133042156
 11
180.0198962781114
 21
134.1165464889682
 72
     1
 10
180.0198962781114
 20
134.1165464889682
 11
179.3406284419878
 21
134.1165464889682
 72
     4
 94
        3
 73
     0
 74
     0
 95
       16
 96
       12
 40
0.0
 40
0.0
 40
0.0
 40
0.0
 40
0.0581978857823208
 40
0.1169960404798217
 40
0.1520664971352849
 40
0.1856918471251819
 40
0.2226204696139649
 40
0.2484086653137504
 40
0.2728794248979939
 40
0.3225026120845566
 40
0.424100388676623
 40
0.424100388676623
 40
0.424100388676623
 40
0.424100388676623
 10
179.3406284419878
 20
134.1165464889682
 10
179.320139330273
 20
134.122574686059
 10
179.2789497765399
 20
134.1346932567146
 10
179.2755025435056
 20
134.1934396352489
 10
179.2801988997868
 20
134.2353012371543
 10
179.2998672503818
 20
134.2657789279018
 10
179.3237283710834
 20
134.2879554579845
 10
179.3326129245907
 20
134.3168369209813
 10
179.358728260158
 20
134.3386460389299
 10
179.4050377475801
 20
134.3753041196701
 10
179.4562480240214
 20
134.3831114717961
 10
179.4906536387926
 20
134.3883568398803
 72
     1
 10
179.4906536387926
 20
134.3883568398803
 11
180.1554296977333
 21
134.3883568398804
 97
        0
 75
     0
 76
     1
 47
0.0514683685270805
 98
        1
 10
179.6607509214804
 20
134.5471180266696
450
        0
451
        0
460
0.0
461
0.0
452
        0
462
0.0
453
        0
470

  0
SPLINE
  5
B8B
330
18
100
AcDbEntity
  8
ROGO
 62
     4
100
AcDbSpline
210
0.0
220
0.0
230
1.0
 70
     8
 71
     3
 72
    26
 73
    22
 74
    20
 42
0.0000000001
 43
0.0000000001
 44
0.0000000001
 40
0.0
 40
0.0
 40
0.0
 40
0.0
 40
0.1927099265173959
 40
0.3217143003795198
 40
0.4147369596493893
 40
0.4841939694029764
 40
0.5742833564486624
 40
0.6400398264178277
 40
0.758780684707226
 40
0.8554340362639585
 40
0.9211738023510489
 40
0.9856350088615993
 40
1.100943575280602
 40
1.182480494385236
 40
1.226394424895991
 40
1.288772865988465
 40
1.333817737941425
 40
1.399072885742907
 40
1.436001654955441
 40
1.516362799066899
 40
1.553056395558967
 40
1.553056395558967
 40
1.553056395558967
 40
1.553056395558967
 10
182.7114604034729
 20
134.7835942100887
 30
0.0
 10
182.6460516768799
 20
134.7796918132959
 30
0.0
 10
182.5368568725703
 20
134.7731770640213
 30
0.0
 10
182.4169616417013
 20
134.7003419988479
 30
0.0
 10
182.3291193765152
 20
134.6579988926853
 30
0.0
 10
182.2664703795156
 20
134.6004370472527
 30
0.0
 10
182.2205484107545
 20
134.540979865734
 30
0.0
 10
182.1626551481924
 20
134.4701370699057
 30
0.0
 10
182.1154448468745
 20
134.3876435008952
 30
0.0
 10
182.0914035105124
 20
134.2967212064818
 30
0.0
 10
182.0701079229398
 20
134.2242556102865
 30
0.0
 10
182.054314758688
 20
134.14350216028
 30
0.0
 10
182.0583329867725
 20
134.0562600266949
 30
0.0
 10
182.0640872732886
 20
133.9752339993538
 30
0.0
 10
182.0897787633267
 20
133.9173935470924
 30
0.0
 10
182.1190368197328
 20
133.8762151308205
 30
0.0
 10
182.1548629091151
 20
133.8308616705332
 30
0.0
 10
182.1940644854219
 20
133.800824220645
 30
0.0
 10
182.2264873888826
 20
133.7464093617046
 30
0.0
 10
182.2832425876253
 20
133.7394656332613
 30
0.0
 10
182.3193184498657
 20
133.7256455412334
 30
0.0
 10
182.3306272881523
 20
133.7213133042156
 30
0.0
 11
182.7114604034729
 21
134.7835942100887
 31
0.0
 11
182.5210438458126
 21
134.753952173264
 31
0.0
 11
182.4056397206559
 21
134.6962978900545
 31
0.0
 11
182.324856998945
 21
134.6501745010787
 31
0.0
 11
182.2729253914726
 21
134.6040509241441
 31
0.0
 11
182.215223494793
 21
134.5348657467009
 31
0.0
 11
182.1748321339376
 21
134.4829769106083
 31
0.0
 11
182.1171299054606
 21
134.3791990504642
 31
0.0
 11
182.0882791230194
 21
134.2869520845537
 31
0.0
 11
182.0709685871953
 21
134.2235323542274
 31
0.0
 11
182.0594280087809
 21
134.1601126239011
 31
0.0
 11
182.0594280087809
 21
134.0448040574821
 31
0.0
 11
182.0709685871953
 21
133.9640879858053
 31
0.0
 11
182.0882791230194
 21
133.9237298559875
 31
0.0
 11
182.1229001946677
 21
133.8718410198948
 31
0.0
 11
182.1517513089063
 21
133.8372483371939
 31
0.0
 11
182.1979126271714
 21
133.791124948218
 31
0.0
 11
182.2209934522028
 21
133.7622977126339
 31
0.0
 11
182.296006216504
 21
133.7334706650085
 31
0.0
 11
182.3306272881523
 21
133.7213133042156
 31
0.0
  0
SPLINE
  5
B8C
330
18
100
AcDbEntity
  8
ROGO
 62
     4
100
AcDbSpline
210
0.0
220
0.0
230
1.0
 70
     8
 71
     3
 72
    26
 73
    22
 74
    20
 42
0.0000000001
 43
0.0000000001
 44
0.0000000001
 40
0.0
 40
0.0
 40
0.0
 40
0.0
 40
0.1927099265173915
 40
0.3217143003795154
 40
0.414736959649385
 40
0.4841939694030122
 40
0.5742833564486799
 40
0.6400398264178452
 40
0.7587806847072436
 40
0.8554340362639674
 40
0.9211738023510106
 40
0.9856350088616169
 40
1.10094357528062
 40
1.182480494385226
 40
1.226394424896018
 40
1.288772865988476
 40
1.333817737941436
 40
1.399072885742898
 40
1.436001654955432
 40
1.516362799066879
 40
1.553056395558966
 40
1.553056395558966
 40
1.553056395558966
 40
1.553056395558966
 10
179.2886968345154
 20
134.7835942100887
 30
0.0
 10
179.2232881079224
 20
134.7796918132959
 30
0.0
 10
179.1140933036128
 20
134.7731770640214
 30
0.0
 10
178.9941980727437
 20
134.7003419988479
 30
0.0
 10
178.9063558075576
 20
134.6579988926854
 30
0.0
 10
178.843706810558
 20
134.6004370472527
 30
0.0
 10
178.7977848417969
 20
134.540979865734
 30
0.0
 10
178.7398915792348
 20
134.4701370699057
 30
0.0
 10
178.6926812779169
 20
134.3876435008952
 30
0.0
 10
178.6686399415549
 20
134.2967212064819
 30
0.0
 10
178.6473443539822
 20
134.2242556102865
 30
0.0
 10
178.6315511897305
 20
134.14350216028
 30
0.0
 10
178.6355694178149
 20
134.0562600266949
 30
0.0
 10
178.6413237043311
 20
133.9752339993538
 30
0.0
 10
178.6670151943691
 20
133.9173935470924
 30
0.0
 10
178.6962732507751
 20
133.8762151308205
 30
0.0
 10
178.7320993401575
 20
133.8308616705332
 30
0.0
 10
178.7713009164642
 20
133.8008242206451
 30
0.0
 10
178.8037238199249
 20
133.7464093617046
 30
0.0
 10
178.8604790186677
 20
133.7394656332614
 30
0.0
 10
178.8965548809082
 20
133.7256455412334
 30
0.0
 10
178.9078637191947
 20
133.7213133042156
 30
0.0
 11
179.2886968345154
 21
134.7835942100887
 31
0.0
 11
179.098280276855
 21
134.753952173264
 31
0.0
 11
178.9828761516984
 21
134.6962978900545
 31
0.0
 11
178.9020934299875
 21
134.6501745010787
 31
0.0
 11
178.850161822515
 21
134.6040509241441
 31
0.0
 11
178.7924599258355
 21
134.5348657467009
 31
0.0
 11
178.75206856498
 21
134.4829769106083
 31
0.0
 11
178.694366336503
 21
134.3791990504642
 31
0.0
 11
178.6655155540619
 21
134.2869520845537
 31
0.0
 11
178.6482050182377
 21
134.2235323542274
 31
0.0
 11
178.6366644398234
 21
134.1601126239011
 31
0.0
 11
178.6366644398234
 21
134.0448040574821
 31
0.0
 11
178.6482050182377
 21
133.9640879858053
 31
0.0
 11
178.6655155540619
 21
133.9237298559875
 31
0.0
 11
178.7001366257101
 21
133.8718410198948
 31
0.0
 11
178.7289877399487
 21
133.8372483371939
 31
0.0
 11
178.7751490582139
 21
133.791124948218
 31
0.0
 11
178.7982298832452
 21
133.7622977126339
 31
0.0
 11
178.8732426475464
 21
133.7334706650086
 31
0.0
 11
178.9078637191947
 21
133.7213133042156
 31
0.0
  0
LINE
  5
B8D
102
{ACAD_REACTORS
330
B6B
102
}
330
18
100
AcDbEntity
  8
ROGO
 62
     4
100
AcDbLine
 10
177.909262018946
 20
134.7835942100887
 30
0.0
 11
178.6752934253597
 21
133.7213133042156
 31
0.0
  0
LINE
  5
B8E
102
{ACAD_REACTORS
330
B6B
102
}
330
18
100
AcDbEntity
  8
ROGO
 62
     4
100
AcDbLine
 10
177.9411323009932
 20
133.9235650161518
 30
0.0
 11
178.0869799411865
 21
133.7213133042156
 31
0.0
  0
LINE
  5
B8F
330
18
100
AcDbEntity
  8
ROGO
 62
     4
100
AcDbLine
 10
180.0198962781114
 20
134.1165464889682
 30
0.0
 11
179.8228202473501
 21
133.7213133042156
 31
0.0
  0
LINE
  5
B90
330
18
100
AcDbEntity
  8
ROGO
 62
     4
100
AcDbLine
 10
183.442659847069
 20
134.1165464889682
 30
0.0
 11
183.2455838163077
 21
133.7213133042156
 31
0.0
  0
ARC
  5
B91
102
{ACAD_REACTORS
330
B89
102
}
330
18
100
AcDbEntity
  8
ROGO
 62
     4
100
AcDbCircle
 10
180.9127638268214
 20
134.2524537571521
 30
0.0
 40
0.5315889728529103
100
AcDbArc
 50
92.3538081120342
 51
270.0
  0
ARC
  5
B92
102
{ACAD_REACTORS
330
B89
102
}
330
18
100
AcDbEntity
  8
ROGO
 62
     4
100
AcDbCircle
 10
181.3204793531897
 20
134.2520052372358
 30
0.0
 40
0.5315889728529103
100
AcDbArc
 50
273.3290215232075
 51
90.0
  0
LINE
  5
B93
330
18
100
AcDbEntity
  8
ROGO
 62
     4
100
AcDbLine
 10
178.9078637191946
 20
133.7213133042156
 30
0.0
 11
179.8228202473501
 21
133.7213133042156
 31
0.0
  0
LINE
  5
B94
102
{ACAD_REACTORS
330
B6B
102
}
330
18
100
AcDbEntity
  8
ROGO
 62
     4
100
AcDbLine
 10
178.6752934253597
 20
133.7213133042156
 30
0.0
 11
178.0869799411865
 21
133.7213133042156
 31
0.0
  0
LINE
  5
B95
330
18
100
AcDbEntity
  8
ROGO
 62
     4
100
AcDbLine
 10
180.8909313896429
 20
133.7213133042156
 30
0.0
 11
181.3513485657822
 21
133.7213133042156
 31
0.0
  0
LINE
  5
B96
102
{ACAD_REACTORS
330
B89
102
}
330
18
100
AcDbEntity
  8
ROGO
 62
     4
100
AcDbLine
 10
180.8909313896425
 20
133.7213133042156
 30
0.0
 11
181.3513485657826
 21
133.7213133042156
 31
0.0
  0
LINE
  5
B97
330
18
100
AcDbEntity
  8
ROGO
 62
     4
100
AcDbLine
 10
182.3306272881522
 20
133.7213133042156
 30
0.0
 11
183.2455838163077
 21
133.7213133042156
 31
0.0
  0
LINE
  5
B98
330
18
100
AcDbEntity
  8
ROGO
 62
     4
100
AcDbLine
 10
177.6022836109211
 20
134.3934576216375
 30
0.0
 11
177.4172648249726
 21
134.136885995598
 31
0.0
  0
LINE
  5
B99
330
18
100
AcDbEntity
  8
ROGO
 62
     4
100
AcDbLine
 10
177.4172648249726
 20
134.1368859955981
 30
0.0
 11
177.7873023968696
 21
134.1368859955981
 31
0.0
  0
LINE
  5
B9A
330
18
100
AcDbEntity
  8
ROGO
 62
     4
100
AcDbLine
 10
177.6022836109211
 20
134.3934576216375
 30
0.0
 11
177.7873023968696
 21
134.136885995598
 31
0.0
  0
SPLINE
  5
B9B
330
18
100
AcDbEntity
  8
ROGO
 62
     4
100
AcDbSpline
210
0.0
220
0.0
230
1.0
 70
     8
 71
     3
 72
    16
 73
    12
 74
    10
 42
0.0000000001
 43
0.0000000001
 44
0.0000000001
 40
0.0
 40
0.0
 40
0.0
 40
0.0
 40
0.1015977765920663
 40
0.1512209637786291
 40
0.1756917233628725
 40
0.201479919062658
 40
0.2384085415514411
 40
0.2720338915413381
 40
0.3071043481968013
 40
0.3659025028943021
 40
0.424100388676623
 40
0.424100388676623
 40
0.424100388676623
 40
0.424100388676623
 10
179.4906536387926
 20
134.3883568398803
 30
0.0
 10
179.4562480240214
 20
134.3831114717961
 30
0.0
 10
179.4050377475801
 20
134.3753041196701
 30
0.0
 10
179.358728260158
 20
134.3386460389299
 30
0.0
 10
179.3326129245907
 20
134.3168369209813
 30
0.0
 10
179.3237283710834
 20
134.2879554579845
 30
0.0
 10
179.2998672503818
 20
134.2657789279018
 30
0.0
 10
179.2801988997868
 20
134.2353012371543
 30
0.0
 10
179.2755025435056
 20
134.1934396352489
 30
0.0
 10
179.2789497765399
 20
134.1346932567146
 30
0.0
 10
179.320139330273
 20
134.122574686059
 30
0.0
 10
179.3406284419878
 20
134.1165464889682
 30
0.0
 11
179.4906536387926
 21
134.3883568398803
 31
0.0
 11
179.3925603812576
 21
134.3619027091137
 31
0.0
 11
179.3521690204021
 21
134.3330756614883
 31
0.0
 11
179.334858484578
 21
134.3157793201378
 31
0.0
 11
179.3233179061636
 21
134.2927175316705
 31
0.0
 11
179.3002370811323
 21
134.2638904840452
 31
0.0
 11
179.2829265453081
 21
134.2350632484611
 31
0.0
 11
179.2771562561009
 21
134.2004707537189
 31
0.0
 11
179.2886968345154
 21
134.1428162825506
 31
0.0
 11
179.3406284419878
 21
134.1165464889682
 31
0.0
  0
LINE
  5
B9C
330
18
100
AcDbEntity
  8
ROGO
 62
     4
100
AcDbLine
 10
180.352507815498
 20
134.7835942100887
 30
0.0
 11
180.1554296977333
 21
134.3883568398803
 31
0.0
  0
LINE
  5
B9D
330
18
100
AcDbEntity
  8
ROGO
 62
     4
100
AcDbLine
 10
179.4906536387926
 20
134.3883568398803
 30
0.0
 11
180.1554296977333
 21
134.3883568398804
 31
0.0
  0
LINE
  5
B9E
330
18
100
AcDbEntity
  8
ROGO
 62
     4
100
AcDbLine
 10
179.3406284419877
 20
134.1165464889682
 30
0.0
 11
180.0198962781114
 21
134.1165464889682
 31
0.0
  0
LINE
  5
B9F
330
18
100
AcDbEntity
  8
ROGO
 62
     4
100
AcDbLine
 10
179.2886968345157
 20
134.7835942100887
 30
0.0
 11
180.352507815498
 21
134.7835942100887
 31
0.0
  0
LINE
  5
BA0
330
18
100
AcDbEntity
  8
ROGO
 62
     4
100
AcDbLine
 10
181.1242607213529
 20
134.3542047910105
 30
0.0
 11
181.1627570919473
 21
134.3488240375341
 31
0.0
  0
LINE
  5
BA1
330
18
100
AcDbEntity
  8
ROGO
 62
     4
100
AcDbLine
 10
181.2551688783204
 20
134.2463007508285
 30
0.0
 11
181.2410321517821
 21
134.1451601454844
 31
0.0
  0
LINE
  5
BA2
330
18
100
AcDbEntity
  8
ROGO
 62
     4
100
AcDbLine
 10
180.9880137213289
 20
134.1825440529584
 30
0.0
 11
181.0021504478673
 21
134.2836846583024
 31
0.0
  0
LINE
  5
BA3
330
18
100
AcDbEntity
  8
ROGO
 62
     4
100
AcDbLine
 10
181.0875484020552
 20
134.091548072903
 30
0.0
 11
181.1260447726496
 21
134.0861673194265
 31
0.0
  0
ARC
  5
BA4
330
18
100
AcDbEntity
  8
ROGO
 62
     4
100
AcDbCircle
 10
181.1437712992905
 20
134.2388003281274
 30
0.0
 40
0.1116497960339707
100
AcDbArc
 50
3.851923331663648
 51
80.20940670206369
  0
ARC
  5
BA5
330
18
100
AcDbEntity
  8
ROGO
 62
     4
100
AcDbCircle
 10
181.109278418471
 20
134.2391665658958
 30
0.0
 40
0.1160097523366473
100
AcDbArc
 50
82.57970078354366
 51
157.4341870372614
  0
ARC
  5
BA6
330
18
100
AcDbEntity
  8
ROGO
 62
     4
100
AcDbCircle
 10
181.0939510374582
 20
134.1984868057072
 30
0.0
 40
0.107130230625527
100
AcDbArc
 50
188.5583509056649
 51
266.5736774635921
  0
ARC
  5
BA7
330
18
100
AcDbEntity
  8
ROGO
 62
     4
100
AcDbCircle
 10
181.1490869840674
 20
134.1828157142176
 30
0.0
 40
0.0993572127362309
100
AcDbArc
 50
256.5902863289752
 51
337.7287536965502
  0
LINE
  5
BA8
330
18
100
AcDbEntity
  8
ROGO
 62
     4
100
AcDbLine
 10
180.8909313896427
 20
134.7835942100887
 30
0.0
 11
181.1919744644322
 21
134.7835942100887
 31
0.0
  0
LINE
  5
BA9
102
{ACAD_REACTORS
330
B89
102
}
330
18
100
AcDbEntity
  8
ROGO
 62
     4
100
AcDbLine
 10
180.8909313896425
 20
134.7835942100887
 30
0.0
 11
181.3204793531897
 21
134.7835942100887
 31
0.0
  0
SPLINE
  5
BAA
330
18
100
AcDbEntity
  8
ROGO
 62
     4
100
AcDbSpline
210
0.0
220
0.0
230
1.0
 70
     8
 71
     3
 72
    16
 73
    12
 74
    10
 42
0.0000000001
 43
0.0000000001
 44
0.0000000001
 40
0.0
 40
0.0
 40
0.0
 40
0.0
 40
0.1015977765920589
 40
0.1512209637786217
 40
0.1756917233628852
 40
0.2014799190626453
 40
0.2384085415514284
 40
0.2720338915413254
 40
0.3071043481968166
 40
0.3659025028942841
 40
0.4241003886766431
 40
0.4241003886766431
 40
0.4241003886766431
 40
0.4241003886766431
 10
182.9134172077502
 20
134.3883568398803
 30
0.0
 10
182.879011592979
 20
134.3831114717961
 30
0.0
 10
182.8278013165377
 20
134.3753041196701
 30
0.0
 10
182.7814918291156
 20
134.3386460389299
 30
0.0
 10
182.7553764935483
 20
134.3168369209813
 30
0.0
 10
182.746491940041
 20
134.2879554579844
 30
0.0
 10
182.7226308193394
 20
134.2657789279018
 30
0.0
 10
182.7029624687444
 20
134.2353012371543
 30
0.0
 10
182.6982661124633
 20
134.1934396352489
 30
0.0
 10
182.7017133454974
 20
134.1346932567146
 30
0.0
 10
182.7429028992305
 20
134.122574686059
 30
0.0
 10
182.7633920109454
 20
134.1165464889682
 30
0.0
 11
182.9134172077502
 21
134.3883568398803
 31
0.0
 11
182.8153239502151
 21
134.3619027091137
 31
0.0
 11
182.7749325893597
 21
134.3330756614883
 31
0.0
 11
182.7576220535356
 21
134.3157793201378
 31
0.0
 11
182.7460814751212
 21
134.2927175316705
 31
0.0
 11
182.7230006500899
 21
134.2638904840452
 31
0.0
 11
182.7056901142657
 21
134.2350632484611
 31
0.0
 11
182.6999198250585
 21
134.2004707537188
 31
0.0
 11
182.7114604034729
 21
134.1428162825506
 31
0.0
 11
182.7633920109454
 21
134.1165464889682
 31
0.0
  0
LINE
  5
BAB
330
18
100
AcDbEntity
  8
ROGO
 62
     4
100
AcDbLine
 10
182.7633920109453
 20
134.1165464889682
 30
0.0
 11
183.442659847069
 21
134.1165464889682
 31
0.0
  0
LINE
  5
BAC
330
18
100
AcDbEntity
  8
ROGO
 62
     4
100
AcDbLine
 10
182.9134172077502
 20
134.3883568398803
 30
0.0
 11
183.5781932666909
 21
134.3883568398803
 31
0.0
  0
LINE
  5
BAD
102
{ACAD_REACTORS
330
B64
102
}
330
18
100
AcDbEntity
  8
ROGO
 62
     4
100
AcDbLine
 10
184.4115803077805
 20
133.9536509175968
 30
0.0
 11
184.8254168380901
 21
133.123707625105
 31
0.0
  0
LINE
  5
BAE
102
{ACAD_REACTORS
330
B64
102
}
330
18
100
AcDbEntity
  8
ROGO
 62
     4
100
AcDbLine
 10
183.9977571596849
 20
133.556956791044
 30
0.0
 11
184.2137891864675
 21
133.123707625105
 31
0.0
  0
LINE
  5
BAF
102
{ACAD_REACTORS
330
B64
102
}
330
18
100
AcDbEntity
  8
ROGO
 62
     4
100
AcDbLine
 10
183.9977571596849
 20
133.5569567910439
 30
0.0
 11
183.7817251329023
 21
133.123707625105
 31
0.0
  0
LINE
  5
BB0
102
{ACAD_REACTORS
330
B64
102
}
330
18
100
AcDbEntity
  8
ROGO
 62
     4
100
AcDbLine
 10
184.2137891864675
 20
133.123707625105
 30
0.0
 11
184.8254168380901
 21
133.123707625105
 31
0.0
  0
LINE
  5
BB1
102
{ACAD_REACTORS
330
B64
102
}
330
18
100
AcDbEntity
  8
ROGO
 62
     4
100
AcDbLine
 10
184.4115803077805
 20
133.9536509175968
 30
0.0
 11
185.41704299296
 21
134.7835942100887
 31
0.0
  0
LINE
  5
BB2
102
{ACAD_REACTORS
330
B64
102
}
330
18
100
AcDbEntity
  8
ROGO
 62
     4
100
AcDbLine
 10
184.8054153413374
 20
134.7835942100887
 30
0.0
 11
185.41704299296
 21
134.7835942100887
 31
0.0
  0
LINE
  5
BB3
102
{ACAD_REACTORS
330
B64
102
}
330
18
100
AcDbEntity
  8
ROGO
 62
     4
100
AcDbLine
 10
183.9977571596849
 20
134.7835942100887
 30
0.0
 11
184.6093981935213
 21
134.7835942100886
 31
0.0
  0
LINE
  5
BB4
102
{ACAD_REACTORS
330
B64
102
}
330
18
100
AcDbEntity
  8
ROGO
 62
     4
100
AcDbLine
 10
184.6093981935213
 20
134.7835942100886
 30
0.0
 11
184.5190331379471
 21
134.6023683726948
 31
0.0
  0
LINE
  5
BB5
102
{ACAD_REACTORS
330
B64
102
}
330
18
100
AcDbEntity
  8
ROGO
 62
     4
100
AcDbLine
 10
184.5190331379471
 20
134.6023683726948
 30
0.0
 11
184.8054153413374
 21
134.7835942100887
 31
0.0
  0
LINE
  5
BB6
330
18
100
AcDbEntity
  8
0
  6
ByBlock
 62
     2
100
AcDbLine
 10
74.72719393958337
 20
155.7049378003177
 30
0.0
 11
74.72719393958337
 21
161.9962308618884
 31
0.0
  0
LINE
  5
BB7
330
18
100
AcDbEntity
  8
0
  6
ByBlock
 62
     2
100
AcDbLine
 10
102.8271939395833
 20
155.7049378003177
 30
0.0
 11
102.8271939395833
 21
161.9962308618884
 31
0.0
  0
LINE
  5
BB8
330
18
100
AcDbEntity
  8
0
  6
ByBlock
 62
     2
100
AcDbLine
 10
77.22719393958337
 20
160.7462308618884
 30
0.0
 11
100.3271939395833
 21
160.7462308618884
 31
0.0
  0
INSERT
  5
BB9
330
18
100
AcDbEntity
  8
0
  6
ByBlock
 62
     2
100
AcDbBlockReference
  2
_OPEN
 10
74.72719393958337
 20
160.7462308618884
 30
0.0
 41
2.5
 42
2.5
 43
2.5
 50
180.0
  0
INSERT
  5
BBA
330
18
100
AcDbEntity
  8
0
  6
ByBlock
 62
     2
100
AcDbBlockReference
  2
_OPEN
 10
102.8271939395833
 20
160.7462308618884
 30
0.0
 41
2.5
 42
2.5
 43
2.5
  0
MTEXT
  5
BBB
330
18
100
AcDbEntity
  8
0
  6
ByBlock
 62
     6
100
AcDbMText
 10
88.77719393958335
 20
162.6212308618884
 30
0.0
 40
2.5
 41
0.0
 71
     5
 72
     1
  1
\A1;28.1
  7
STYLE3
 73
     1
 44
1.0
  0
POINT
  5
BBC
330
18
100
AcDbEntity
  8
DEFPOINTS
  6
ByBlock
 62
     0
100
AcDbPoint
 10
74.72719393958337
 20
155.7049378003177
 30
0.0
  0
POINT
  5
BBD
330
18
100
AcDbEntity
  8
DEFPOINTS
  6
ByBlock
 62
     0
100
AcDbPoint
 10
102.8271939395833
 20
155.7049378003177
 30
0.0
  0
POINT
  5
BBE
330
18
100
AcDbEntity
  8
DEFPOINTS
  6
ByBlock
 62
     0
100
AcDbPoint
 10
102.8271939395833
 20
160.7462308618884
 30
0.0
  0
DIMENSION
  5
BBF
330
18
100
AcDbEntity
  8
寸法線
100
AcDbDimension
  2
*D1
 10
55.35706904211429
 20
143.0006538408195
 30
0.0
 11
53.48206904211426
 21
128.0006538408195
 31
0.0
 70
    32
  1
φ<>
 71
     5
 42
30.0
  3
STYLE3
100
AcDbAlignedDimension
 13
97.82719393958338
 23
113.0006538408195
 33
0.0
 14
97.82719393958338
 24
143.0006538408195
 34
0.0
 50
90.0
100
AcDbRotatedDimension
1001
ACAD
1000
DSTYLE
1002
{
1070
   271
1070
     2
1070
   341
1005
0
1002
}
  0
DIMENSION
  5
BC0
330
18
100
AcDbEntity
  8
寸法線
100
AcDbDimension
  2
*D2
 10
86.43776588953505
 20
113.0006538408195
 30
0.0
 11
84.56276588953505
 21
118.9232728884385
 31
0.0
 70
    32
 71
     5
 42
0.9999999999999857
  3
STYLE3
100
AcDbAlignedDimension
 13
99.32219393958337
 23
112.0006538408195
 33
0.0
 14
85.30175750413707
 24
113.0006538408195
 34
0.0
 50
90.0
100
AcDbRotatedDimension
1001
ACAD
1000
DSTYLE
1002
{
1070
   271
1070
     2
1070
   341
1005
0
1002
}
  0
DIMENSION
  5
BC2
330
18
100
AcDbEntity
  8
寸法線
100
AcDbDimension
  2
*D3
 10
96.82719393958336
 20
148.8576801781001
 30
0.0
 11
102.7271939395834
 21
150.7326801781001
 31
0.0
 70
    32
 71
     5
 42
11.79999999999999
  3
STYLE3
100
AcDbAlignedDimension
 13
108.6271939395833
 23
146.5006538408195
 33
0.0
 14
96.82719393958336
 24
149.4690872010214
 34
0.0
100
AcDbRotatedDimension
1001
ACAD
1000
DSTYLE
1002
{
1070
   271
1070
     2
1070
   341
1005
0
1002
}
  0
DIMENSION
  5
BC3
330
18
100
AcDbEntity
  8
寸法線
100
AcDbDimension
  2
*D4
 10
108.6271939395833
 20
102.3576387965909
 30
0.0
 11
93.07814632053576
 21
102.3576387965909
 31
0.0
 70
   160
 71
     5
 42
9.804999999999992
  3
STYLE3
100
AcDbAlignedDimension
 13
98.82219393958337
 23
112.5006538408195
 33
0.0
 14
108.6271939395833
 24
109.5006538408195
 34
0.0
100
AcDbRotatedDimension
1001
ACAD
1000
DSTYLE
1002
{
1070
   271
1070
     2
1070
   341
1005
0
1002
}
  0
LINE
  5
BC4
330
18
100
AcDbEntity
  8
中心線
 48
0.5
100
AcDbLine
 10
102.8271939395833
 20
53.1188751347268
 30
0.0
 11
102.8271939395833
 21
27.94395865487735
 31
0.0
  0
LINE
  5
BC5
330
18
100
AcDbEntity
  8
中心線
 48
0.5
100
AcDbLine
 10
92.98858887941856
 20
40.765312791251
 30
0.0
 11
123.2613335614492
 21
40.765312791251
 31
0.0
  0
CIRCLE
  5
BC6
330
18
100
AcDbEntity
  8
外形線
100
AcDbCircle
 10
102.8271939395833
 20
40.765312791251
 30
0.0
 40
3.174999999999999
  0
ARC
  5
BC7
330
18
100
AcDbEntity
  8
外形線
100
AcDbCircle
 10
102.8271939395833
 20
40.765312791251
 30
0.0
 40
4.0
100
AcDbArc
 50
90.0
 51
270.0
  0
LINE
  5
BC8
330
18
100
AcDbEntity
  8
外形線
100
AcDbLine
 10
108.6271939395834
 20
50.26012742010894
 30
0.0
 11
108.6271939395833
 21
40.765312791251
 31
0.0
  0
LINE
  5
BC9
330
18
100
AcDbEntity
  8
外形線
100
AcDbLine
 10
109.8271939395834
 20
50.28403808025025
 30
0.0
 11
109.8271939395834
 21
40.765312791251
 31
0.0
  0
LINE
  5
BCA
330
18
100
AcDbEntity
  8
外形線
100
AcDbLine
 10
114.9271939395833
 20
50.05023340170877
 30
0.0
 11
114.9271939395833
 21
40.765312791251
 31
0.0
  0
LINE
  5
BCB
330
18
100
AcDbEntity
  8
外形線
100
AcDbLine
 10
115.4271939395834
 20
50.17003908614452
 30
0.0
 11
115.4271939395833
 21
40.765312791251
 31
0.0
  0
LINE
  5
BCC
330
18
100
AcDbEntity
  8
外形線
100
AcDbLine
 10
110.3271939395834
 20
50.25274694378879
 30
0.0
 11
110.3271939395834
 21
40.765312791251
 31
0.0
  0
LINE
  5
BCD
330
18
100
AcDbEntity
  8
外形線
100
AcDbLine
 10
108.6271939395833
 20
32.05097387073725
 30
0.0
 11
108.6271939395833
 21
40.765312791251
 31
0.0
  0
LINE
  5
BCE
330
18
100
AcDbEntity
  8
外形線
100
AcDbLine
 10
110.3271939395834
 20
32.04642404798994
 30
0.0
 11
110.3271939395834
 21
40.765312791251
 31
0.0
  0
LINE
  5
BCF
330
18
100
AcDbEntity
  8
外形線
100
AcDbLine
 10
109.8271939395834
 20
32.07605752184934
 30
0.0
 11
109.8271939395834
 21
40.765312791251
 31
0.0
  0
LINE
  5
BD0
330
18
100
AcDbEntity
  8
外形線
100
AcDbLine
 10
114.9271939395833
 20
31.81220897183763
 30
0.0
 11
114.9271939395833
 21
40.765312791251
 31
0.0
  0
LINE
  5
BD1
330
18
100
AcDbEntity
  8
外形線
100
AcDbLine
 10
115.4271939395834
 20
31.9160993195591
 30
0.0
 11
115.4271939395833
 21
40.765312791251
 31
0.0
  0
ARC
  5
BD2
330
18
100
AcDbEntity
  8
外形線
100
AcDbCircle
 10
71.99196666685594
 20
40.765312791251
 30
0.0
 40
46.73522727272742
100
AcDbArc
 50
350.1126295637192
 51
12.53536269707461
  0
LINE
  5
BD3
330
18
100
AcDbEntity
  8
外形線
100
AcDbLine
 10
96.82719393958336
 20
39.07187370429665
 30
0.0
 11
96.82719393958336
 21
30.83078442661756
 31
0.0
  0
LINE
  5
BD4
330
18
100
AcDbEntity
  8
外形線
100
AcDbLine
 10
96.82719393958336
 20
39.07187370429665
 30
0.0
 11
96.82719393958336
 21
49.0371073224164
 31
0.0
  0
LINE
  5
BD7
330
18
100
AcDbEntity
  8
外形線
100
AcDbLine
 10
102.8271939395833
 20
44.765312791251
 30
0.0
 11
108.6271939395833
 21
44.76531279125099
 31
0.0
  0
LINE
  5
BD8
330
18
100
AcDbEntity
  8
外形線
100
AcDbLine
 10
102.8271939395833
 20
36.76531279125101
 30
0.0
 11
108.6271939395833
 21
36.76531279125099
 31
0.0
  0
DIMENSION
  5
BD9
330
18
100
AcDbEntity
  8
寸法線
100
AcDbDimension
  2
*D5
 10
89.29635911828972
 20
44.765312791251
 30
0.0
 11
87.42135911828972
 21
40.76531279125101
 31
0.0
 70
    32
 71
     5
 42
8.0
  3
STYLE3
100
AcDbAlignedDimension
 13
102.8271939395833
 23
36.76531279125101
 33
0.0
 14
102.8271939395833
 24
44.765312791251
 34
0.0
 50
90.0
100
AcDbRotatedDimension
1001
ACAD
1000
DSTYLE
1002
{
1070
   271
1070
     2
1070
   341
1005
0
1002
}
  0
LINE
  5
CD9
330
18
100
AcDbEntity
  8
寸法線
100
AcDbLine
 10
93.6985998203886
 20
126.0006538408195
 30
0.0
 11
93.6985998203886
 21
118.0086074766585
 31
0.0
  0
LINE
  5
CDA
330
18
100
AcDbEntity
  8
寸法線
 62
     2
100
AcDbLine
 10
96.82719393958336
 20
126.0006538408195
 30
0.0
 11
92.4485998203886
 21
126.0006538408195
 31
0.0
  0
LINE
  5
CDB
330
18
100
AcDbEntity
  8
寸法線
 62
     2
100
AcDbLine
 10
96.82719393958336
 20
139.0006538408195
 30
0.0
 11
92.4485998203886
 21
139.0006538408195
 31
0.0
  0
LINE
  5
CDC
330
18
100
AcDbEntity
  8
寸法線
 62
     2
100
AcDbLine
 10
93.6985998203886
 20
128.5006538408195
 30
0.0
 11
93.6985998203886
 21
136.5006538408195
 31
0.0
  0
INSERT
  5
CDD
330
18
100
AcDbEntity
  8
寸法線
 62
     2
100
AcDbBlockReference
  2
_OPEN
 10
93.6985998203886
 20
126.0006538408195
 30
0.0
 41
2.5
 42
2.5
 43
2.5
 50
270.0
  0
INSERT
  5
CDE
330
18
100
AcDbEntity
  8
寸法線
 62
     2
100
AcDbBlockReference
  2
_OPEN
 10
93.6985998203886
 20
139.0006538408195
 30
0.0
 41
2.5
 42
2.5
 43
2.5
 50
90.0
  0
MTEXT
  5
CDF
330
18
100
AcDbEntity
  8
寸法線
 62
     6
100
AcDbMText
 10
91.82359982038859
 20
121.9943604979236
 30
0.0
 40
2.5
 41
0.0
 71
     5
 72
     1
  1
\A1;φ13
  7
STYLE3
 11
0.0000000000000001
 21
1.0
 31
0.0
 73
     1
 44
1.0
  0
DIMENSION
  5
D31
330
18
100
AcDbEntity
  8
寸法線
100
AcDbDimension
  2
*D6
 10
137.239211293182
 20
71.0006538408195
 30
0.0
 11
135.364211293182
 21
109.0006538408195
 31
0.0
 70
    32
 71
     5
 42
76.00000000000003
  3
STYLE3
100
AcDbAlignedDimension
 13
112.4771939395834
 23
147.0006538408195
 33
0.0
 14
106.0021939395833
 24
71.0006538408195
 34
0.0
 50
90.0
100
AcDbRotatedDimension
1001
ACAD
1000
DSTYLE
1002
{
1070
   271
1070
     2
1070
   341
1005
0
1002
}
  0
DIMENSION
  5
D47
330
18
100
AcDbEntity
  8
寸法線
100
AcDbDimension
  2
*D7
 10
127.7735686379042
 20
109.0006538408195
 30
0.0
 11
125.8985686379042
 21
128.0006538408195
 31
0.0
 70
    32
 71
     5
 42
38.00000000000004
  3
φ
100
AcDbAlignedDimension
 13
113.061994682304
 23
147.0006538408195
 33
0.0
 14
113.061994682304
 24
109.0006538408195
 34
0.0
 50
90.0
100
AcDbRotatedDimension
  0
DIMENSION
  5
1971
330
18
100
AcDbEntity
  8
寸法線
100
AcDbDimension
  2
*D9
 10
195.4103988766064
 20
154.3818323611894
 30
0.0
 11
178.9103988766064
 21
156.2568323611895
 31
0.0
 70
    32
 71
     5
 42
32.99999999999997
  3
φ
100
AcDbAlignedDimension
 13
162.4103988766065
 23
128.0006538408195
 33
0.0
 14
195.4103988766064
 24
128.0006538408195
 34
0.0
100
AcDbRotatedDimension
  0
DIMENSION
  5
199A
330
18
100
AcDbEntity
  8
寸法線
100
AcDbDimension
  2
*D10
 10
68.86424537680716
 20
129.5006538408195
 30
0.0
 11
68.86424537680714
 21
148.7625586027242
 31
0.0
 70
   160
  1
%%c<>
 71
     5
 42
5.999999999999971
  3
.0 type現尺
100
AcDbAlignedDimension
 13
91.57127695160374
 23
135.5006538408194
 33
0.0
 14
91.57127695160374
 24
129.5006538408195
 34
0.0
 50
90.0
100
AcDbRotatedDimension
1001
ACAD
1000
DSTYLE
1002
{
1070
   146
1040
0.7
1070
   284
1070
     8
1070
   272
1070
     2
1070
    48
1040
0.03
1070
   147
1040
0.625
1070
    72
1070
     0
1070
    71
1070
     1
1002
}
  0
SPLINE
  5
1A17
330
18
100
AcDbEntity
  8
寸法線
100
AcDbSpline
210
0.0
220
0.0
230
1.0
 70
     8
 71
     3
 72
    12
 73
     8
 74
     6
 42
0.0000000001
 43
0.0000000001
 44
0.0000000001
 40
0.0
 40
0.0
 40
0.0
 40
0.0
 40
4.158247945797544
 40
7.432792886143087
 40
11.29727423824369
 40
17.53764370629519
 40
21.17734170883556
 40
21.17734170883556
 40
21.17734170883556
 40
21.17734170883556
 10
117.6131306037558
 20
50.90882644658714
 30
0.0
 10
116.2784274214096
 20
50.40935249109847
 30
0.0
 10
113.8926696580031
 20
49.51655184246907
 30
0.0
 10
110.1333254722932
 20
50.48918813883668
 30
0.0
 10
105.6593692173194
 20
49.98733259778923
 30
0.0
 10
101.2905942101955
 20
47.88811698169708
 30
0.0
 10
98.02879977230064
 20
48.72778406852083
 30
0.0
 10
96.82719393958336
 20
49.0371073224164
 30
0.0
 11
117.6131306037558
 21
50.90882644658714
 31
0.0
 11
113.5815977465527
 21
49.89011706701859
 31
0.0
 11
110.3271939395834
 21
50.25274694378879
 31
0.0
 11
106.478285578178
 21
49.9061628324439
 31
0.0
 11
100.4155410906322
 21
48.42787315294152
 31
0.0
 11
96.82719393958336
 21
49.0371073224164
 31
0.0
  0
SPLINE
  5
1A18
330
18
100
AcDbEntity
  8
寸法線
100
AcDbSpline
210
0.0
220
0.0
230
1.0
 70
     8
 71
     3
 72
    12
 73
     8
 74
     6
 42
0.0000000001
 43
0.0000000001
 44
0.0000000001
 40
0.0
 40
0.0
 40
0.0
 40
0.0
 40
4.575108755977688
 40
7.849653696323231
 40
11.71413504842383
 40
17.95450451647533
 40
21.59420251901571
 40
21.59420251901571
 40
21.59420251901571
 40
21.59420251901571
 10
118.0330449614936
 20
32.7403157382588
 30
0.0
 10
116.5580634722943
 20
32.21198079708363
 30
0.0
 10
114.0273927240693
 20
31.30550041703285
 30
0.0
 10
110.1344158687991
 20
32.2743577406117
 30
0.0
 10
105.6588343969687
 20
31.78518248263202
 30
0.0
 10
101.2906796125645
 20
29.68112775868856
 30
0.0
 10
98.02882276373729
 20
30.52128178870686
 30
0.0
 10
96.82719393958336
 20
30.83078442661757
 30
0.0
 11
118.0330449614936
 21
32.7403157382588
 31
0.0
 11
113.5815977465526
 21
31.68379417121975
 31
0.0
 11
110.3271939395834
 21
32.04642404798995
 31
0.0
 11
106.4782855781779
 21
31.69983993664506
 31
0.0
 11
100.4155410906322
 21
30.22155025714268
 31
0.0
 11
96.82719393958336
 21
30.83078442661757
 31
0.0
  0
ARC
  5
1A3D
330
18
100
AcDbEntity
  8
外形線
100
AcDbCircle
 10
75.92719393958337
 20
132.5006538408195
 30
0.0
 40
1.199999999999999
100
AcDbArc
 50
99.59406822685991
 51
260.4059317731401
  0
TEXT
  5
1A6B
330
18
100
AcDbEntity
  8
文字
100
AcDbText
 10
71.30674951110197
 20
186.2026004532945
 30
0.0
 40
3.5
  1
Model No.196A Back Plunger Type Dial Gauge
  7
STYLE3
100
AcDbText
  0
LINE
  5
1A6C
330
18
100
AcDbEntity
  8
外形線
100
AcDbLine
 10
70.56930751110195
 20
182.7930024532945
 30
0.0
 11
190.569307511102
 21
182.7930024532945
 31
0.0
  0
LINE
  5
1A6D
330
18
100
AcDbEntity
  8
外形線
100
AcDbLine
 10
70.56930751110195
 20
183.7930024532945
 30
0.0
 11
190.569307511102
 21
183.7930024532945
 31
0.0
  0
LINE
  5
1A6F
330
18
100
AcDbEntity
  8
外形線
100
AcDbLine
 10
113.5929885111019
 20
20.80646445329453
 30
0.0
 11
254.3844065111019
 21
20.80646445329453
 31
0.0
  0
LINE
  5
1A70
330
18
100
AcDbEntity
  8
外形線
100
AcDbLine
 10
113.5929885111019
 20
10.02625845329452
 30
0.0
 11
254.3844065111019
 21
10.02625845329452
 31
0.0
  0
TEXT
  5
1A71
330
18
100
AcDbEntity
  8
0
  6
Continuous
100
AcDbText
 10
115.0504555111019
 20
11.92424845329452
 30
0.0
 40
2.1
  1
Design and specifications are subject to change without notice for future improvement.
  7
STYLE3
100
AcDbText
  0
TEXT
  5
1A72
330
18
100
AcDbEntity
  8
0
  6
Continuous
100
AcDbText
 10
115.3419495111019
 20
15.85339645329452
 30
0.0
 40
3.5
  1
仕様及び外観は予告なく変更される場合がございますのでご了承下さい。
  7
STYLE3
100
AcDbText
  0
TEXT
  5
1A73
330
18
100
AcDbEntity
  8
0
  6
Continuous
100
AcDbText
 10
114.7589645111019
 20
2.159620453294523
 30
0.0
 40
2.1
  1
3RD Angle Projection
  7
STYLE3
100
AcDbText
  0
TEXT
  5
1A74
330
18
100
AcDbEntity
  8
0
  6
Continuous
100
AcDbText
 10
117.3824075111019
 20
5.655903453294523
 30
0.0
 40
3.0
  1
三　　角　　法
  7
STYLE3
100
AcDbText
  0
LINE
  5
1A75
330
18
100
AcDbEntity
  8
外形線
100
AcDbLine
 10
113.5929885111019
 20
0.4114804532945233
 30
0.0
 11
113.5929885111019
 21
20.80646445329453
 31
0.0
  0
LINE
  5
1A76
330
18
100
AcDbEntity
  8
外形線
100
AcDbLine
 10
215.615755511102
 20
10.02625845329452
 30
0.0
 11
215.615755511102
 21
0.4114804532945233
 31
0.0
  0
LINE
  5
1A77
330
18
100
AcDbEntity
  8
外形線
100
AcDbLine
 10
185.8834055111019
 20
10.02625845329452
 30
0.0
 11
185.8834055111019
 21
0.4114804532945233
 31
0.0
  0
LINE
  5
1A78
330
18
100
AcDbEntity
  8
外形線
100
AcDbLine
 10
166.3533335111019
 20
10.02625845329452
 30
0.0
 11
166.3533335111019
 21
0.4114804532945233
 31
0.0
  0
LINE
  5
1A79
330
18
100
AcDbEntity
  8
外形線
100
AcDbLine
 10
148.8637165111019
 20
10.02625845329452
 30
0.0
 11
148.8637165111019
 21
0.4114804532945233
 31
0.0
  0
TEXT
  5
1A7A
330
18
100
AcDbEntity
  8
0
  6
Continuous
100
AcDbText
 10
150.3211855111019
 20
5.661858453294522
 30
0.0
 40
3.0
  1
単位
  7
STYLE3
100
AcDbText
  0
TEXT
  5
1A7B
330
18
100
AcDbEntity
  8
0
  6
Continuous
100
AcDbText
 10
150.4929065111019
 20
2.159621453294523
 30
0.0
 40
2.1
  1
Unit
  7
STYLE3
100
AcDbText
  0
TEXT
  5
1A7C
330
18
100
AcDbEntity
  8
0
  6
Continuous
100
AcDbText
 10
167.6390815111019
 20
5.370500453294522
 30
0.0
 40
3.0
  1
尺 度
  7
STYLE3
100
AcDbText
  0
TEXT
  5
1A7D
330
18
100
AcDbEntity
  8
0
  6
Continuous
100
AcDbText
 10
158.3632335111019
 20
3.907764453294523
 30
0.0
 40
2.399999999999999
  1
mm
  7
STYLE3
100
AcDbText
  0
TEXT
  5
1A7E
330
18
100
AcDbEntity
  8
0
  6
Continuous
100
AcDbText
 10
168.1022965111019
 20
2.450978453294523
 30
0.0
 40
2.1
  1
Scale
  7
STYLE3
100
AcDbText
  0
TEXT
  5
1A7F
330
18
100
AcDbEntity
  8
0
  6
Continuous
100
AcDbText
 10
177.7215855111019
 20
4.199121453294523
 30
0.0
 40
2.399999999999999
  1
1/1
  7
STYLE3
100
AcDbText
  0
TEXT
  5
1A80
330
18
100
AcDbEntity
  8
0
  6
Continuous
100
AcDbText
 10
187.8153565111019
 20
2.159622453294522
 30
0.0
 40
2.1
  1
Date
  7
STYLE3
100
AcDbText
  0
TEXT
  5
1A81
330
18
100
AcDbEntity
  8
0
  6
Continuous
100
AcDbText
 10
187.4319955111019
 20
5.492705453294522
 30
0.0
 40
3.0
  1
日 付
  7
STYLE3
100
AcDbText
  0
TEXT
  5
1A82
330
18
100
AcDbEntity
  8
0
  6
Continuous
100
AcDbText
 10
196.5601645111019
 20
3.907763453294523
 30
0.0
 40
2.1
  1
2010.06.09
  7
STYLE3
100
AcDbText
  0
TEXT
  5
1A83
330
18
100
AcDbEntity
  8
0
  6
Continuous
100
AcDbText
 10
216.964718511102
 20
5.947260453294522
 30
0.0
 40
3.0
  1
株式会社　尾崎製作所
  7
STYLE3
100
AcDbText
  0
TEXT
  5
1A84
330
18
100
AcDbEntity
  8
0
  6
Continuous
100
AcDbText
 10
217.8391975111019
 20
2.159621453294523
 30
0.0
 40
2.1
  1
OZAKI MFG. CO., LTD.
  7
STYLE3
100
AcDbText
  0
VIEWPORT
  5
177
330
15
100
AcDbEntity
 67
     1
  8
0
100
AcDbViewport
 10
127.5041203589828
 20
97.49391214526822
 30
0.0
 40
418.3086347473814
 41
243.0346063651093
 68
     1
 69
     1
 12
127.5041203589828
 22
97.49391214526822
 13
0.0
 23
0.0
 14
10.0
 24
10.0
 15
10.0
 25
10.0
 16
0.0
 26
0.0
 36
1.0
 17
0.0
 27
0.0
 37
0.0
 42
50.0
 43
0.0
 44
0.0
 45
243.0346063651093
 50
0.0
 51
0.0
 72
   100
 90
    32800
  1

281
     0
 71
     1
 74
     0
110
0.0
120
0.0
130
0.0
111
1.0
121
0.0
131
0.0
112
0.0
122
1.0
132
0.0
 79
     0
146
0.0
170
     0
  0
ENDSEC
  0
SECTION
  2
OBJECTS
  0
DICTIONARY
  5
C
330
0
100
AcDbDictionary
281
     1
  3
ACAD_COLOR
350
764
  3
ACAD_GROUP
350
D
  3
ACAD_LAYOUT
350
767
  3
ACAD_MATERIAL
350
763
  3
ACAD_MLINESTYLE
350
1B
  3
ACAD_PLOTSETTINGS
350
768
  3
ACAD_PLOTSTYLENAME
350
761
  3
ACAD_TABLESTYLE
350
765
  3
ACDBVARIABLEDICTIONARY
350
61E
  0
DICTIONARY
  5
CB5
330
18
100
AcDbDictionary
280
     1
281
     1
  3
ACAD_SORTENTS
360
CB6
  0
DICTIONARY
  5
764
102
{ACAD_REACTORS
330
C
102
}
330
C
100
AcDbDictionary
281
     1
  0
DICTIONARY
  5
D
102
{ACAD_REACTORS
330
C
102
}
330
C
100
AcDbDictionary
281
     1
  0
DICTIONARY
  5
767
102
{ACAD_REACTORS
330
C
102
}
330
C
100
AcDbDictionary
281
     1
  3
Model
350
769
  3
レイアウト1
350
76A
  0
DICTIONARY
  5
763
102
{ACAD_REACTORS
330
C
102
}
330
C
100
AcDbDictionary
281
     1
  0
DICTIONARY
  5
1B
102
{ACAD_REACTORS
330
C
102
}
330
C
100
AcDbDictionary
281
     1
  3
STANDARD
350
1C
  0
DICTIONARY
  5
768
102
{ACAD_REACTORS
330
C
102
}
330
C
100
AcDbDictionary
281
     1
  0
ACDBDICTIONARYWDFLT
  5
761
102
{ACAD_REACTORS
330
C
102
}
330
C
100
AcDbDictionary
281
     1
  3
Normal
350
762
100
AcDbDictionaryWithDefault
340
762
  0
DICTIONARY
  5
765
102
{ACAD_REACTORS
330
C
102
}
330
C
100
AcDbDictionary
281
     1
  3
Standard
350
766
  0
DICTIONARY
  5
61E
102
{ACAD_REACTORS
330
C
102
}
330
C
100
AcDbDictionary
281
     1
  3
CTABLESTYLE
350
CA1
  3
SORTENTS
350
61F
  0
SORTENTSTABLE
  5
CB6
102
{ACAD_REACTORS
330
CB5
102
}
330
CB5
100
AcDbSortentsTable
330
18
331
298
  5
298
331
A8A
  5
A8C
331
A14
  5
A16
331
9DD
  5
9DF
331
2A0
  5
2A0
331
A53
  5
A55
331
AC9
  5
ACB
331
A92
  5
A94
331
A1C
  5
A1E
331
9E5
  5
9E7
331
64F
  5
64F
331
2A8
  5
2A8
331
A5B
  5
A5D
331
AD1
  5
AD3
331
AD9
  5
ADB
331
A63
  5
A65
331
A24
  5
A26
331
9ED
  5
9EF
331
2B0
  5
2B0
331
657
  5
657
331
A9A
  5
A9C
331
A2C
  5
A2E
331
AA2
  5
AA4
331
26B
  5
26B
331
273
  5
273
331
BD3
  5
BD5
331
B5D
  5
B5F
331
AE7
  5
AE9
331
B26
  5
B28
331
B9C
  5
B9E
331
B65
  5
B67
331
AEF
  5
AF1
331
BA4
  5
BA6
331
BAC
  5
BAE
331
AF7
  5
AF9
331
B6D
  5
B6F
331
BB4
  5
BB6
331
B75
  5
B77
331
AFF
  5
B01
331
B3E
  5
B40
331
CD9
  5
CDF
331
279
  5
279
331
AAA
  5
AAC
331
A34
  5
A36
331
281
  5
281
331
65F
  5
65F
331
9F5
  5
9F7
331
A6B
  5
A6D
331
AB2
  5
AB4
331
A73
  5
A75
331
667
  5
667
331
289
  5
289
331
9FD
  5
9FF
331
A3C
  5
A3E
331
A7B
  5
A7D
331
A05
  5
A07
331
9CE
  5
9CE
331
291
  5
291
331
A44
  5
A46
331
ABA
  5
ABC
331
A83
  5
A85
331
A4C
  5
A4E
331
9D6
  5
9D6
331
A0D
  5
A0F
331
AC2
  5
AC4
331
B7D
  5
B7F
331
B46
  5
B48
331
BBC
  5
BBE
331
B85
  5
B87
331
B4E
  5
B50
331
B0F
  5
B11
331
BC4
  5
BC6
331
BCC
  5
BCE
331
B56
  5
B58
331
B17
  5
B19
331
B8D
  5
B8F
331
B1F
  5
B21
331
B95
  5
B97
331
640
  5
640
331
299
  5
299
331
A8B
  5
A8D
331
A54
  5
A56
331
A15
  5
A17
331
2A1
  5
2A1
331
73F
  5
73F
331
9DE
  5
9E0
331
ACA
  5
ACC
331
AD2
  5
AD4
331
A93
  5
A95
331
A1D
  5
A1F
331
9E6
  5
9E8
331
2A9
  5
2A9
331
650
  5
650
331
A5C
  5
A5E
331
A9B
  5
A9D
331
A25
  5
A27
331
9EE
  5
9F0
331
A64
  5
A66
331
ADA
  5
ADC
331
AA3
  5
AA5
331
A2D
  5
A2F
331
26C
  5
26C
331
274
  5
274
331
AE0
  5
AE2
331
BD4
  5
BD6
331
B9D
  5
B9F
331
B5E
  5
B60
331
AE8
  5
AEA
331
B27
  5
B29
331
BA5
  5
BA7
331
B66
  5
B68
331
AF0
  5
AF2
331
B6E
  5
B70
331
AF8
  5
AFA
331
BAD
  5
BAF
331
B76
  5
B78
331
B3F
  5
B41
331
BB5
  5
BB7
331
CDA
  5
CD9
331
658
  5
658
331
27A
  5
27A
331
A6C
  5
A6E
331
9F6
  5
9F8
331
282
  5
282
331
660
  5
660
331
A35
  5
A37
331
AAB
  5
AAD
331
A74
  5
A76
331
A3D
  5
A3F
331
668
  5
668
331
9FE
  5
A00
331
AB3
  5
AB5
331
ABB
  5
ABD
331
A45
  5
A47
331
A06
  5
A08
331
292
  5
292
331
680
  5
680
331
9CF
  5
9CF
331
A7C
  5
A7E
331
AC3
  5
AC5
331
A84
  5
A86
331
A0E
  5
A10
331
9D7
  5
9D7
331
A4D
  5
A4F
331
B00
  5
B02
331
BBD
  5
BBF
331
B47
  5
B49
331
B7E
  5
B80
331
BC5
  5
BC7
331
B86
  5
B88
331
B10
  5
B12
331
B4F
  5
B51
331
B8E
  5
B90
331
B57
  5
B59
331
B18
  5
B1A
331
BCD
  5
BCF
331
B96
  5
B98
331
641
  5
641
331
29A
  5
29A
331
A8C
  5
A8E
331
A16
  5
A18
331
740
  5
740
331
2A2
  5
2A2
331
9DF
  5
9E1
331
A55
  5
A57
331
ACB
  5
ACD
331
A94
  5
A96
331
A5D
  5
A5F
331
9E7
  5
9E9
331
651
  5
651
331
2AA
  5
2AA
331
A1E
  5
A20
331
AD3
  5
AD5
331
ADB
  5
ADD
331
A65
  5
A67
331
A26
  5
A28
331
9EF
  5
9F1
331
A9C
  5
A9E
331
A2E
  5
A30
331
AA4
  5
AA6
331
275
  5
275
331
AE1
  5
AE3
331
B20
  5
B22
331
B5F
  5
B61
331
AE9
  5
AEB
331
B28
  5
B2A
331
B9E
  5
BA0
331
B67
  5
B69
331
B30
  5
B32
331
AF1
  5
AF3
331
BA6
  5
BA8
331
BAE
  5
BB0
331
B6F
  5
B71
331
AF9
  5
AFB
331
BB6
  5
BB8
331
B77
  5
B79
331
CDB
  5
CDA
331
27B
  5
27B
331
659
  5
659
331
AAC
  5
AAE
331
A36
  5
A38
331
283
  5
283
331
661
  5
661
331
9F7
  5
9F9
331
A6D
  5
A6F
331
AB4
  5
AB6
331
A75
  5
A77
331
669
  5
669
331
28B
  5
28B
331
9FF
  5
A01
331
A3E
  5
A40
331
A7D
  5
A7F
331
A07
  5
A09
331
9D0
  5
9D0
331
293
  5
293
331
681
  5
681
331
A46
  5
A48
331
ABC
  5
ABE
331
A85
  5
A87
331
A4E
  5
A50
331
A0F
  5
A11
331
AC4
  5
AC6
331
B01
  5
B03
331
B40
  5
B42
331
B7F
  5
B81
331
B48
  5
B4A
331
BBE
  5
BC0
331
B87
  5
B89
331
B50
  5
B52
331
B11
  5
B13
331
BC6
  5
BC8
331
BCE
  5
BD0
331
B19
  5
B1B
331
B8F
  5
B91
331
B97
  5
B99
331
9D8
  5
9DA
331
642
  5
642
331
29B
  5
29B
331
ACC
  5
ACE
331
A56
  5
A58
331
A17
  5
A19
331
9E0
  5
9E2
331
2A3
  5
2A3
331
64A
  5
64A
331
A8D
  5
A8F
331
AD4
  5
AD6
331
A95
  5
A97
331
A1F
  5
A21
331
9E8
  5
9EA
331
652
  5
652
331
2AB
  5
2AB
331
A5E
  5
A60
331
A9D
  5
A9F
331
A66
  5
A68
331
A27
  5
A29
331
ADC
  5
ADE
331
AA5
  5
AA7
331
A2F
  5
A31
331
276
  5
276
331
B58
  5
B5A
331
B21
  5
B23
331
AE2
  5
AE4
331
B9F
  5
BA1
331
B60
  5
B62
331
AEA
  5
AEC
331
B68
  5
B6A
331
AF2
  5
AF4
331
BA7
  5
BA9
331
B70
  5
B72
331
AFA
  5
AFC
331
B39
  5
B3B
331
BAF
  5
BB1
331
BB7
  5
BB9
331
CDC
  5
CDB
331
65A
  5
65A
331
27C
  5
27C
331
9F0
  5
9F2
331
A6E
  5
A70
331
9F8
  5
9FA
331
284
  5
284
331
662
  5
662
331
A37
  5
A39
331
AAD
  5
AAF
331
A76
  5
A78
331
A3F
  5
A41
331
28C
  5
28C
331
66A
  5
66A
331
AB5
  5
AB7
331
ABD
  5
ABF
331
A47
  5
A49
331
A08
  5
A0A
331
294
  5
294
331
682
  5
682
331
9D1
  5
9D1
331
A7E
  5
A80
331
AC5
  5
AC7
331
A86
  5
A88
331
A4F
  5
A51
331
B78
  5
B7A
331
B41
  5
B43
331
B02
  5
B04
331
BBF
  5
BC1
331
B80
  5
B82
331
B0A
  5
B0C
331
B49
  5
B4B
331
BC7
  5
BC9
331
B88
  5
B8A
331
B12
  5
B14
331
B51
  5
B53
331
B90
  5
B92
331
B1A
  5
B1C
331
BCF
  5
BD1
331
A10
  5
A12
331
9D9
  5
9DB
331
29C
  5
29C
331
A8E
  5
A90
331
A18
  5
A1A
331
9E1
  5
9E3
331
64B
  5
64B
331
2A4
  5
2A4
331
A57
  5
A59
331
ACD
  5
ACF
331
A96
  5
A98
331
A5F
  5
A61
331
9E9
  5
9EB
331
653
  5
653
331
2AC
  5
2AC
331
A20
  5
A22
331
AD5
  5
AD7
331
ADD
  5
ADF
331
A67
  5
A69
331
A28
  5
A2A
331
A9E
  5
AA0
331
AA6
  5
AA8
331
277
  5
277
331
B59
  5
B5B
331
AE3
  5
AE5
331
B22
  5
B24
331
B98
  5
B9A
331
BD7
  5
BD9
331
B61
  5
B63
331
B2A
  5
B2C
331
AEB
  5
AED
331
BA0
  5
BA2
331
B69
  5
B6B
331
AF3
  5
AF5
331
BA8
  5
BAA
331
BB0
  5
BB2
331
B71
  5
B73
331
AFB
  5
AFD
331
CDD
  5
CDC
331
A30
  5
A32
331
65B
  5
65B
331
27D
  5
27D
331
2C4
  5
2C4
331
9F1
  5
9F3
331
AAE
  5
AB0
331
A6F
  5
A71
331
285
  5
285
331
663
  5
663
331
9F9
  5
9FB
331
A38
  5
A3A
331
AB6
  5
AB8
331
A77
  5
A79
331
66B
  5
66B
331
28D
  5
28D
331
A01
  5
A03
331
A40
  5
A42
331
A7F
  5
A81
331
A09
  5
A0B
331
9D2
  5
9D2
331
295
  5
295
331
683
  5
683
331
A48
  5
A4A
331
ABE
  5
AC0
331
A87
  5
A89
331
AC6
  5
AC8
331
B79
  5
B7B
331
B03
  5
B05
331
B42
  5
B44
331
BB8
  5
BBA
331
B81
  5
B83
331
B0B
  5
B0D
331
B4A
  5
B4C
331
BC0
  5
BC2
331
BC8
  5
BCA
331
B52
  5
B54
331
B13
  5
B15
331
B89
  5
B8B
331
B1B
  5
B1D
331
B91
  5
B93
331
A50
  5
A52
331
A11
  5
A13
331
9DA
  5
9DC
331
ACE
  5
AD0
331
A58
  5
A5A
331
A19
  5
A1B
331
9E2
  5
9E4
331
2A5
  5
2A5
331
64C
  5
64C
331
A8F
  5
A91
331
AD6
  5
AD8
331
A97
  5
A99
331
A21
  5
A23
331
9EA
  5
9EC
331
654
  5
654
331
2AD
  5
2AD
331
A60
  5
A62
331
A9F
  5
AA1
331
A29
  5
A2B
331
ADE
  5
AE0
331
AA7
  5
AA9
331
BD0
  5
BD2
331
B99
  5
B9B
331
B23
  5
B25
331
AE4
  5
AE6
331
B5A
  5
B5C
331
BD8
  5
CB4
331
BA1
  5
BA3
331
B62
  5
B64
331
AEC
  5
AEE
331
B6A
  5
B6C
331
AF4
  5
AF6
331
BA9
  5
BAB
331
B72
  5
B74
331
B3B
  5
B3D
331
AFC
  5
AFE
331
BB1
  5
BB3
331
CDE
  5
CDD
331
A68
  5
A6A
331
65C
  5
65C
331
2C5
  5
2C5
331
27E
  5
27E
331
A31
  5
A33
331
A70
  5
A72
331
9FA
  5
9FC
331
286
  5
286
331
664
  5
664
331
A39
  5
A3B
331
AAF
  5
AB1
331
A78
  5
A7A
331
A41
  5
A43
331
28E
  5
28E
331
66C
  5
66C
331
A02
  5
A04
331
AB7
  5
AB9
331
ABF
  5
AC1
331
A80
  5
A82
331
A0A
  5
A0C
331
9D3
  5
9D3
331
A49
  5
A4B
331
AC7
  5
AC9
331
B7A
  5
B7C
331
B43
  5
B45
331
BB9
  5
BBB
331
B82
  5
B84
331
B4B
  5
B4D
331
B8A
  5
B8C
331
B14
  5
B16
331
B53
  5
B55
331
BC9
  5
BCB
331
B92
  5
B94
331
B1C
  5
B1E
331
A88
  5
A8A
331
A12
  5
A14
331
9DB
  5
9DD
331
A51
  5
A53
331
A90
  5
A92
331
A1A
  5
A1C
331
9E3
  5
9E5
331
64D
  5
64D
331
2A6
  5
2A6
331
A59
  5
A5B
331
ACF
  5
AD1
331
AD7
  5
AD9
331
A61
  5
A63
331
A22
  5
A24
331
655
  5
655
331
2AE
  5
2AE
331
9EB
  5
9ED
331
A98
  5
A9A
331
ADF
  5
AE1
331
A2A
  5
A2C
331
AA0
  5
AA2
331
BD1
  5
BD3
331
B5B
  5
B5D
331
AE5
  5
AE7
331
B24
  5
B26
331
B9A
  5
B9C
331
BD9
  5
CB7
331
B63
  5
B65
331
AED
  5
AEF
331
BA2
  5
BA4
331
BAA
  5
BAC
331
AF5
  5
AF7
331
B6B
  5
B6D
331
BB2
  5
BB4
331
B73
  5
B75
331
AFD
  5
AFF
331
B3C
  5
B3E
331
CDF
  5
CDE
331
A69
  5
A6B
331
A32
  5
A34
331
65D
  5
65D
331
27F
  5
27F
331
2C6
  5
2C6
331
9F3
  5
9F5
331
AA8
  5
AAA
331
AB0
  5
AB2
331
A71
  5
A73
331
287
  5
287
331
665
  5
665
331
9FB
  5
9FD
331
A3A
  5
A3C
331
A79
  5
A7B
331
66D
  5
66D
331
28F
  5
28F
331
A03
  5
A05
331
A42
  5
A44
331
AB8
  5
ABA
331
A81
  5
A83
331
A0B
  5
A0D
331
9D4
  5
9D4
331
63E
  5
63E
331
297
  5
297
331
A4A
  5
A4C
331
AC0
  5
AC2
331
B7B
  5
B7D
331
B44
  5
B46
331
BBA
  5
BBC
331
B83
  5
B85
331
B4C
  5
B4E
331
B0D
  5
B0F
331
BC2
  5
BC4
331
BCA
  5
BCC
331
B54
  5
B56
331
B15
  5
B17
331
B8B
  5
B8D
331
B1D
  5
B1F
331
B93
  5
B95
331
A89
  5
A8B
331
A52
  5
A54
331
A13
  5
A15
331
29F
  5
29F
331
9DC
  5
9DE
331
AC8
  5
ACA
331
AD0
  5
AD2
331
A91
  5
A93
331
A1B
  5
A1D
331
9E4
  5
9E6
331
2A7
  5
2A7
331
64E
  5
64E
331
A5A
  5
A5C
331
AD8
  5
ADA
331
A99
  5
A9B
331
A23
  5
A25
331
9EC
  5
9EE
331
656
  5
656
331
2AF
  5
2AF
331
A62
  5
A64
331
AA1
  5
AA3
331
A2B
  5
A2D
331
26A
  5
26A
331
BD2
  5
BD4
331
B9B
  5
B9D
331
B25
  5
B27
331
AE6
  5
AE8
331
B5C
  5
B5E
331
BA3
  5
BA5
331
B64
  5
B66
331
AEE
  5
AF0
331
B6C
  5
B6E
331
AF6
  5
AF8
331
BAB
  5
BAD
331
B74
  5
B76
331
B3D
  5
B3F
331
AFE
  5
B00
331
BB3
  5
BB5
331
278
  5
278
331
A6A
  5
A6C
331
65E
  5
65E
331
280
  5
280
331
9F4
  5
9F6
331
A33
  5
A35
331
AA9
  5
AAB
331
A72
  5
A74
331
A3B
  5
A3D
331
288
  5
288
331
666
  5
666
331
9FC
  5
9FE
331
AB1
  5
AB3
331
A7A
  5
A7C
331
A43
  5
A45
331
290
  5
290
331
A04
  5
A06
331
AB9
  5
ABB
331
AC1
  5
AC3
331
A82
  5
A84
331
A0C
  5
A0E
331
9D5
  5
9D5
331
63F
  5
63F
331
A4B
  5
A4D
331
BBB
  5
BBD
331
B45
  5
B47
331
B7C
  5
B7E
331
BC3
  5
BC5
331
B84
  5
B86
331
B0E
  5
B10
331
B4D
  5
B4F
331
B8C
  5
B8E
331
B55
  5
B57
331
B16
  5
B18
331
BCB
  5
BCD
331
B94
  5
B96
331
B1E
  5
B20
  0
LAYOUT
  5
769
102
{ACAD_REACTORS
330
767
102
}
330
767
100
AcDbPlotSettings
  1

  2
A4 EPSON LP-6100.pc3
  4
A4
  6

 40
5.873749732971191
 41
5.873747825622558
 42
5.873748779296875
 43
5.873748779296875
 44
209.9733276367187
 45
297.0106506347656
 46
1.5
 47
25.0
 48
0.0
 49
0.0
140
0.0
141
0.0
142
1.0
143
1.0
 70
 28336
 72
     1
 73
     1
 74
     1
  7
AutoCAD LT 98.ctb
 75
    16
147
1.0
 76
     1
 77
     2
 78
   300
148
0.2128225079886761
149
0.2090691322566727
100
AcDbLayout
  1
Model
 70
     1
 71
     0
 10
0.0
 20
0.0
 11
12.0
 21
9.0
 12
0.0
 22
0.0
 32
0.0
 14
0.0
 24
0.0
 34
0.0
 15
0.0
 25
0.0
 35
0.0
146
0.0
 13
0.0
 23
0.0
 33
0.0
 16
1.0
 26
0.0
 36
0.0
 17
0.0
 27
1.0
 37
0.0
 76
     0
330
18
1001
ACAD_PSEXT
1000
A4 EPSON LP-6100.pc3
1000
EPSON LP-6100
1000
USB002
1000

1070
     0
  0
LAYOUT
  5
76A
102
{ACAD_REACTORS
330
767
102
}
330
767
100
AcDbPlotSettings
  1

  2
C:\Documents and Settings\佐藤\Application Data\Autodesk\AutoCAD LT 2005\R10\jpn\plotters\PEACOCK EPSON LP-6100.pc3
  4

  6

 40
0.0
 41
0.0
 42
0.0
 43
0.0
 44
0.0
 45
0.0
 46
0.0
 47
0.0
 48
0.0
 49
0.0
140
0.0
141
0.0
142
1.0
143
1.0
 70
   688
 72
     0
 73
     0
 74
     5
  7
AutoCAD LT 98.ctb
 75
    16
147
1.0
 76
     0
 77
     2
 78
   300
148
0.0
149
0.0
100
AcDbLayout
  1
レイアウト1
 70
     1
 71
     1
 10
0.0
 20
0.0
 11
420.0
 21
297.0
 12
0.0
 22
0.0
 32
0.0
 14
-0.2
 24
-0.2
 34
0.0
 15
255.2
 25
195.2
 35
0.0
146
0.0
 13
0.0
 23
0.0
 33
0.0
 16
1.0
 26
0.0
 36
0.0
 17
0.0
 27
1.0
 37
0.0
 76
     0
330
15
331
177
  0
MLINESTYLE
  5
1C
102
{ACAD_REACTORS
330
1B
102
}
330
1B
100
AcDbMlineStyle
  2
STANDARD
 70
     0
  3

 62
   256
 51
90.0
 52
90.0
 71
     2
 49
0.5
 62
   256
  6
BYLAYER
 49
-0.5
 62
   256
  6
BYLAYER
  0
ACDBPLACEHOLDER
  5
762
102
{ACAD_REACTORS
330
761
102
}
330
761
  0
ACAD_PROXY_OBJECT
  5
766
102
{ACAD_REACTORS
330
765
102
}
330
765
100
AcDbProxyObject
 90
      499
 91
      503
 95
  2555929
 70
     0
 93
     1849
310
4214DD185B99185C992420000000000000F83F0000000000003E0FC00000000000004901028000000C1008070000C3001FDFF8000000C1003FBFF000000182007F7FE00000030400FEFFC00000060801FDFF8000000C1003FBFF000000182000000000000000C2020B0000001820100E000186003FBFF000000182007F7FE0
310
0000030400FEFFC00000060801FDFF8000000C1003FBFF000000182007F7FE0000003040000000000000012404160000003040201C00030C007F7FE00000030400FEFFC00000060801FDFF8000000C1003FBFF000000182007F7FE00000030400FEFFC000000608000
340
F
340
F
340
F
 94
        0
  0
DICTIONARYVAR
  5
CA1
102
{ACAD_REACTORS
330
61E
102
}
330
61E
100
DictionaryVariables
280
     0
  1
STANDARD
  0
DICTIONARYVAR
  5
61F
102
{ACAD_REACTORS
330
61E
102
}
330
61E
100
DictionaryVariables
280
     0
  1
96
  0
ENDSEC
  0
EOF
