  0
SECTION
  2
HEADER
  9
$ACADVER
  1
AC1018
  9
$ACADMAINTVER
 70
     0
  9
$DWGCODEPAGE
  3
ANSI_932
  9
$INSBASE
 10
0.0
 20
0.0
 30
0.0
  9
$EXTMIN
 10
236.4633676384287
 20
171.6339896600951
 30
-0.0000000000112498
  9
$EXTMAX
 10
491.8945438349594
 20
367.055777876885
 30
0.0000000000002956
  9
$LIMMIN
 10
0.0
 20
0.0
  9
$LIMMAX
 10
420.0
 20
297.0
  9
$ORTHOMODE
 70
     0
  9
$REGENMODE
 70
     1
  9
$FILLMODE
 70
     1
  9
$QTEXTMODE
 70
     0
  9
$MIRRTEXT
 70
     1
  9
$LTSCALE
 40
1.0
  9
$ATTMODE
 70
     1
  9
$TEXTSIZE
 40
2.5
  9
$TRACEWID
 40
1.0
  9
$TEXTSTYLE
  7
STYLE3
  9
$CLAYER
  8
寸法線
  9
$CELTYPE
  6
BYLAYER
  9
$CECOLOR
 62
   256
  9
$CELTSCALE
 40
1.0
  9
$DISPSILH
 70
     0
  9
$DIMSCALE
 40
1.0
  9
$DIMASZ
 40
2.5
  9
$DIMEXO
 40
0.0
  9
$DIMDLI
 40
3.75
  9
$DIMRND
 40
0.0
  9
$DIMDLE
 40
0.0
  9
$DIMEXE
 40
1.25
  9
$DIMTP
 40
0.0
  9
$DIMTM
 40
0.0
  9
$DIMTXT
 40
2.5
  9
$DIMCEN
 40
2.5
  9
$DIMTSZ
 40
0.0
  9
$DIMTOL
 70
     0
  9
$DIMLIM
 70
     0
  9
$DIMTIH
 70
     0
  9
$DIMTOH
 70
     0
  9
$DIMSE1
 70
     0
  9
$DIMSE2
 70
     0
  9
$DIMTAD
 70
     1
  9
$DIMZIN
 70
     8
  9
$DIMBLK
  1

  9
$DIMASO
 70
     1
  9
$DIMSHO
 70
     1
  9
$DIMPOST
  1

  9
$DIMAPOST
  1

  9
$DIMALT
 70
     0
  9
$DIMALTD
 70
     4
  9
$DIMALTF
 40
0.0394
  9
$DIMLFAC
 40
1.0
  9
$DIMTOFL
 70
     1
  9
$DIMTVP
 40
0.0
  9
$DIMTIX
 70
     0
  9
$DIMSOXD
 70
     0
  9
$DIMSAH
 70
     1
  9
$DIMBLK1
  1
OPEN
  9
$DIMBLK2
  1
OPEN
  9
$DIMSTYLE
  2
STYLE3
  9
$DIMCLRD
 70
     2
  9
$DIMCLRE
 70
     2
  9
$DIMCLRT
 70
     6
  9
$DIMTFAC
 40
1.0
  9
$DIMGAP
 40
0.625
  9
$DIMJUST
 70
     0
  9
$DIMSD1
 70
     0
  9
$DIMSD2
 70
     0
  9
$DIMTOLJ
 70
     1
  9
$DIMTZIN
 70
     0
  9
$DIMALTZ
 70
     0
  9
$DIMALTTZ
 70
     0
  9
$DIMUPT
 70
     0
  9
$DIMDEC
 70
     1
  9
$DIMTDEC
 70
     4
  9
$DIMALTU
 70
     8
  9
$DIMALTTD
 70
     4
  9
$DIMTXSTY
  7
STYLE3
  9
$DIMAUNIT
 70
     0
  9
$DIMADEC
 70
     0
  9
$DIMALTRND
 40
0.0
  9
$DIMAZIN
 70
     0
  9
$DIMDSEP
 70
    46
  9
$DIMATFIT
 70
     3
  9
$DIMFRAC
 70
     0
  9
$DIMLDRBLK
  1
OPEN
  9
$DIMLUNIT
 70
     2
  9
$DIMLWD
 70
    -2
  9
$DIMLWE
 70
    -2
  9
$DIMTMOVE
 70
     0
  9
$LUNITS
 70
     2
  9
$LUPREC
 70
     4
  9
$SKETCHINC
 40
1.0
  9
$FILLETRAD
 40
3.0
  9
$AUNITS
 70
     0
  9
$AUPREC
 70
     0
  9
$MENU
  1
.
  9
$ELEVATION
 40
0.0
  9
$PELEVATION
 40
0.0
  9
$THICKNESS
 40
0.0
  9
$LIMCHECK
 70
     0
  9
$CHAMFERA
 40
0.5
  9
$CHAMFERB
 40
0.5
  9
$CHAMFERC
 40
20.0
  9
$CHAMFERD
 40
0.0
  9
$SKPOLY
 70
     0
  9
$TDCREATE
 40
2451197.720910995
  9
$TDUCREATE
 40
2451197.345910995
  9
$TDUPDATE
 40
2455356.577112443
  9
$TDUUPDATE
 40
2455356.202112442
  9
$TDINDWG
 40
0.1637925694
  9
$TDUSRTIMER
 40
0.1637925694
  9
$USRTIMER
 70
     1
  9
$ANGBASE
 50
0.0
  9
$ANGDIR
 70
     0
  9
$PDMODE
 70
     0
  9
$PDSIZE
 40
0.0
  9
$PLINEWID
 40
0.0
  9
$SPLFRAME
 70
     0
  9
$SPLINETYPE
 70
     6
  9
$SPLINESEGS
 70
     8
  9
$HANDSEED
  5
21AD
  9
$SURFTAB1
 70
     6
  9
$SURFTAB2
 70
     6
  9
$SURFTYPE
 70
     6
  9
$SURFU
 70
     6
  9
$SURFV
 70
     6
  9
$UCSBASE
  2

  9
$UCSNAME
  2

  9
$UCSORG
 10
0.0
 20
0.0
 30
0.0
  9
$UCSXDIR
 10
1.0
 20
0.0
 30
0.0
  9
$UCSYDIR
 10
0.0
 20
1.0
 30
0.0
  9
$UCSORTHOREF
  2

  9
$UCSORTHOVIEW
 70
     0
  9
$UCSORGTOP
 10
0.0
 20
0.0
 30
0.0
  9
$UCSORGBOTTOM
 10
0.0
 20
0.0
 30
0.0
  9
$UCSORGLEFT
 10
0.0
 20
0.0
 30
0.0
  9
$UCSORGRIGHT
 10
0.0
 20
0.0
 30
0.0
  9
$UCSORGFRONT
 10
0.0
 20
0.0
 30
0.0
  9
$UCSORGBACK
 10
0.0
 20
0.0
 30
0.0
  9
$PUCSBASE
  2

  9
$PUCSNAME
  2

  9
$PUCSORG
 10
0.0
 20
0.0
 30
0.0
  9
$PUCSXDIR
 10
1.0
 20
0.0
 30
0.0
  9
$PUCSYDIR
 10
0.0
 20
1.0
 30
0.0
  9
$PUCSORTHOREF
  2

  9
$PUCSORTHOVIEW
 70
     0
  9
$PUCSORGTOP
 10
0.0
 20
0.0
 30
0.0
  9
$PUCSORGBOTTOM
 10
0.0
 20
0.0
 30
0.0
  9
$PUCSORGLEFT
 10
0.0
 20
0.0
 30
0.0
  9
$PUCSORGRIGHT
 10
0.0
 20
0.0
 30
0.0
  9
$PUCSORGFRONT
 10
0.0
 20
0.0
 30
0.0
  9
$PUCSORGBACK
 10
0.0
 20
0.0
 30
0.0
  9
$USERI1
 70
     0
  9
$USERI2
 70
     0
  9
$USERI3
 70
     0
  9
$USERI4
 70
     0
  9
$USERI5
 70
     0
  9
$USERR1
 40
0.0
  9
$USERR2
 40
0.0
  9
$USERR3
 40
0.0
  9
$USERR4
 40
0.0
  9
$USERR5
 40
0.0
  9
$WORLDVIEW
 70
     1
  9
$SHADEDGE
 70
     3
  9
$SHADEDIF
 70
    70
  9
$TILEMODE
 70
     1
  9
$MAXACTVP
 70
    48
  9
$PINSBASE
 10
0.0
 20
0.0
 30
0.0
  9
$PLIMCHECK
 70
     0
  9
$PEXTMIN
 10
1.000000000000000E+20
 20
1.000000000000000E+20
 30
1.000000000000000E+20
  9
$PEXTMAX
 10
-1.000000000000000E+20
 20
-1.000000000000000E+20
 30
-1.000000000000000E+20
  9
$PLIMMIN
 10
0.0
 20
0.0
  9
$PLIMMAX
 10
420.0
 20
297.0
  9
$UNITMODE
 70
     0
  9
$VISRETAIN
 70
     1
  9
$PLINEGEN
 70
     0
  9
$PSLTSCALE
 70
     1
  9
$TREEDEPTH
 70
  3020
  9
$CMLSTYLE
  2
STANDARD
  9
$CMLJUST
 70
     0
  9
$CMLSCALE
 40
20.0
  9
$PROXYGRAPHICS
 70
     1
  9
$MEASUREMENT
 70
     1
  9
$CELWEIGHT
370
    -1
  9
$ENDCAPS
280
     0
  9
$JOINSTYLE
280
     0
  9
$LWDISPLAY
290
     0
  9
$INSUNITS
 70
     0
  9
$HYPERLINKBASE
  1

  9
$STYLESHEET
  1

  9
$XEDIT
290
     1
  9
$CEPSNTYPE
380
     0
  9
$PSTYLEMODE
290
     1
  9
$FINGERPRINTGUID
  2
{864B8F26-856F-4B14-9FAA-6CA9A34318B6}
  9
$VERSIONGUID
  2
{AA84B023-A143-45E0-BCBB-7E9DD1D9A5DA}
  9
$EXTNAMES
290
     1
  9
$PSVPSCALE
 40
0.0
  9
$OLESTARTUP
290
     0
  9
$SORTENTS
280
    96
  9
$INDEXCTL
280
     0
  9
$HIDETEXT
280
     0
  9
$XCLIPFRAME
290
     0
  9
$HALOGAP
280
     0
  9
$OBSCOLOR
 70
   257
  9
$OBSLTYPE
280
     0
  9
$INTERSECTIONDISPLAY
280
     0
  9
$INTERSECTIONCOLOR
 70
   257
  9
$DIMASSOC
280
     1
  9
$PROJECTNAME
  1

  0
ENDSEC
  0
SECTION
  2
CLASSES
  0
CLASS
  1
HATCH
  2
AcDbHatch
  3
ObjectDBX Classes
 90
        0
 91
       14
280
     0
281
     1
  0
CLASS
  1
LWPOLYLINE
  2
AcDbPolyline
  3
ObjectDBX Classes
 90
        0
 91
        1
280
     0
281
     1
  0
CLASS
  1
DICTIONARYVAR
  2
AcDbDictionaryVar
  3
ObjectDBX Classes
 90
        0
 91
        2
280
     0
281
     0
  0
CLASS
  1
ACDBDICTIONARYWDFLT
  2
AcDbDictionaryWithDefault
  3
ObjectDBX Classes
 90
        0
 91
        1
280
     0
281
     0
  0
CLASS
  1
TABLESTYLE
  2
AcDbTableStyle
  3
ObjectDBX Classes
 90
     2047
 91
        1
280
     0
281
     0
  0
ENDSEC
  0
SECTION
  2
TABLES
  0
TABLE
  2
VPORT
  5
8
330
0
100
AcDbSymbolTable
 70
     2
  0
VPORT
  5
21AC
330
8
100
AcDbSymbolTableRecord
100
AcDbViewportTableRecord
  2
*Active
 70
     0
 10
0.0
 20
0.0
 11
1.0
 21
1.0
 12
364.1789557366941
 22
269.3448837684901
 13
0.0
 23
0.0
 14
10.0
 24
10.0
 15
10.0
 25
10.0
 16
0.0
 26
0.0
 36
1.0
 17
0.0
 27
0.0
 37
0.0
 40
196.9078854655868
 41
1.530456852791878
 42
50.0
 43
0.0
 44
0.0
 50
0.0
 51
0.0
 71
     0
 72
   100
 73
     1
 74
     1
 75
     0
 76
     0
 77
     0
 78
     0
281
     0
 65
     1
110
0.0
120
0.0
130
0.0
111
1.0
121
0.0
131
0.0
112
0.0
122
1.0
132
0.0
 79
     0
146
0.0
  0
ENDTAB
  0
TABLE
  2
LTYPE
  5
5
330
0
100
AcDbSymbolTable
 70
     5
  0
LTYPE
  5
12
330
5
100
AcDbSymbolTableRecord
100
AcDbLinetypeTableRecord
  2
BYBLOCK
 70
     0
  3

 72
    65
 73
     0
 40
0.0
  0
LTYPE
  5
13
330
5
100
AcDbSymbolTableRecord
100
AcDbLinetypeTableRecord
  2
BYLAYER
 70
     0
  3

 72
    65
 73
     0
 40
0.0
  0
LTYPE
  5
14
330
5
100
AcDbSymbolTableRecord
100
AcDbLinetypeTableRecord
  2
CONTINUOUS
 70
     0
  3
Solid line
 72
    65
 73
     0
 40
0.0
  0
LTYPE
  5
22
330
5
100
AcDbSymbolTableRecord
100
AcDbLinetypeTableRecord
  2
CENTER2
 70
     0
  3
Center (.5x) ___ _ ___ _ ___ _ ___ _ ___ _ ___
 72
    65
 73
     4
 40
28.575
 49
19.05
 74
     0
 49
-3.174999999999999
 74
     0
 49
3.174999999999999
 74
     0
 49
-3.174999999999999
 74
     0
  0
LTYPE
  5
24
330
5
100
AcDbSymbolTableRecord
100
AcDbLinetypeTableRecord
  2
PHANTOM2
 70
     0
  3
Phantom (.5x) ___ _ _ ___ _ _ ___ _ _ ___ _ _
 72
    65
 73
     6
 40
31.75
 49
15.875
 74
     0
 49
-3.174999999999999
 74
     0
 49
3.174999999999999
 74
     0
 49
-3.174999999999999
 74
     0
 49
3.174999999999999
 74
     0
 49
-3.174999999999999
 74
     0
  0
ENDTAB
  0
TABLE
  2
LAYER
  5
2
330
0
100
AcDbSymbolTable
 70
    16
  0
LAYER
  5
E
330
2
100
AcDbSymbolTableRecord
100
AcDbLayerTableRecord
  2
0
 70
     0
 62
     7
  6
CONTINUOUS
370
    -3
390
1475
  0
LAYER
  5
25
330
2
100
AcDbSymbolTableRecord
100
AcDbLayerTableRecord
  2
外形線
 70
     0
 62
     7
  6
CONTINUOUS
370
    -3
390
1475
  0
LAYER
  5
26
330
2
100
AcDbSymbolTableRecord
100
AcDbLayerTableRecord
  2
寸法線
 70
     0
 62
     2
  6
CONTINUOUS
370
    -3
390
1475
  0
LAYER
  5
27
330
2
100
AcDbSymbolTableRecord
100
AcDbLayerTableRecord
  2
中心線
 70
     0
 62
     4
  6
CENTER2
370
    -3
390
1475
  0
LAYER
  5
29
330
2
100
AcDbSymbolTableRecord
100
AcDbLayerTableRecord
  2
想像線
 70
     0
 62
     1
  6
PHANTOM2
370
    -3
390
1475
  0
LAYER
  5
2B
330
2
100
AcDbSymbolTableRecord
100
AcDbLayerTableRecord
  2
文字
 70
     0
 62
     6
  6
CONTINUOUS
370
    -3
390
1475
  0
LAYER
  5
2C
330
2
100
AcDbSymbolTableRecord
100
AcDbLayerTableRecord
  2
目盛
 70
     0
 62
    70
  6
CONTINUOUS
370
    -3
390
1475
  0
LAYER
  5
2D
330
2
100
AcDbSymbolTableRecord
100
AcDbLayerTableRecord
  2
針
 70
     0
 62
     5
  6
CONTINUOUS
370
    -3
390
1475
  0
LAYER
  5
53
330
2
100
AcDbSymbolTableRecord
100
AcDbLayerTableRecord
  2
DEFPOINTS
 70
     0
 62
     7
  6
CONTINUOUS
290
     0
370
    -3
390
1475
  0
LAYER
  5
A5
330
2
100
AcDbSymbolTableRecord
100
AcDbLayerTableRecord
  2
C
 70
     0
 62
     7
  6
CONTINUOUS
370
    -3
390
1475
  0
LAYER
  5
991
330
2
100
AcDbSymbolTableRecord
100
AcDbLayerTableRecord
  2
ROGO
 70
     0
 62
     6
  6
CONTINUOUS
370
    -3
390
1475
  0
ENDTAB
  0
TABLE
  2
STYLE
  5
3
330
0
100
AcDbSymbolTable
 70
     3
  0
STYLE
  5
F
330
3
100
AcDbSymbolTableRecord
100
AcDbTextStyleTableRecord
  2
STANDARD
 70
     0
 40
0.0
 41
1.0
 50
0.0
 71
     0
 42
2.5
  3
txt
  4

  0
STYLE
  5
3F
330
3
100
AcDbSymbolTableRecord
100
AcDbTextStyleTableRecord
  2
STYLE3
 70
     0
 40
0.0
 41
1.0
 50
0.0
 71
     0
 42
2.5
  3
romans.shx
  4
bigfont.shx
  0
ENDTAB
  0
TABLE
  2
VIEW
  5
6
330
0
100
AcDbSymbolTable
 70
     0
  0
ENDTAB
  0
TABLE
  2
UCS
  5
7
330
0
100
AcDbSymbolTable
 70
     0
  0
ENDTAB
  0
TABLE
  2
APPID
  5
9
330
0
100
AcDbSymbolTable
 70
     2
  0
APPID
  5
10
330
9
100
AcDbSymbolTableRecord
100
AcDbRegAppTableRecord
  2
ACAD
 70
     0
  0
APPID
  5
1528
330
9
100
AcDbSymbolTableRecord
100
AcDbRegAppTableRecord
  2
ACAD_PSEXT
 70
     0
  0
ENDTAB
  0
TABLE
  2
DIMSTYLE
  5
A
330
0
100
AcDbSymbolTable
 70
     8
100
AcDbDimStyleTable
 71
     2
340
8F
340
1525
  0
DIMSTYLE
105
1D
330
A
100
AcDbSymbolTableRecord
100
AcDbDimStyleTableRecord
  2
STANDARD
 70
     0
 41
2.5
 42
0.625
 43
3.75
 44
1.25
 73
     0
 74
     0
 77
     1
 78
     8
140
2.5
141
2.5
143
0.0394
147
0.625
171
     4
172
     1
273
     8
274
     4
277
     6
340
F
  0
DIMSTYLE
105
8F
102
{ACAD_REACTORS
330
1FFB
330
2008
330
209F
102
}
330
A
100
AcDbSymbolTableRecord
100
AcDbDimStyleTableRecord
  2
STYLE3
 70
     0
 41
2.5
 42
0.0
 43
3.75
 44
1.25
 73
     0
 74
     0
 77
     1
 78
     8
140
2.5
141
2.5
143
0.0394
147
0.625
171
     4
172
     1
173
     1
176
     2
177
     2
178
     6
271
     1
273
     8
274
     4
340
3F
341
45
343
45
344
45
  0
DIMSTYLE
105
1523
102
{ACAD_REACTORS
330
206F
102
}
330
A
100
AcDbSymbolTableRecord
100
AcDbDimStyleTableRecord
  2
STYLE2
 70
     0
 41
2.5
 42
0.0
 43
3.75
 44
1.25
 73
     0
 74
     0
 77
     1
 78
     8
140
2.5
141
2.5
143
0.0394
147
0.625
171
     4
172
     1
173
     1
176
     2
177
     2
178
     6
271
     1
273
     8
274
     4
340
3F
341
45
343
45
344
45
  0
DIMSTYLE
105
1524
102
{ACAD_REACTORS
330
2053
102
}
330
A
100
AcDbSymbolTableRecord
100
AcDbDimStyleTableRecord
  2
.0 type現尺
 70
     0
 41
2.5
 42
0.0
 43
3.75
 44
1.25
 73
     0
 74
     0
 77
     1
 78
     1
140
2.5
141
2.5
143
0.0394
147
0.625
171
     4
172
     1
173
     1
176
     2
177
     2
178
     6
271
     1
272
     1
273
     8
274
     4
340
3F
343
45
344
45
  0
DIMSTYLE
105
1525
102
{ACAD_REACTORS
330
1FDC
330
2015
330
2034
102
}
330
A
100
AcDbSymbolTableRecord
100
AcDbDimStyleTableRecord
  2
φ
 70
     0
  3
%%C<>
 41
2.5
 42
0.0
 43
3.75
 44
1.25
 73
     0
 74
     0
 77
     1
 78
     8
140
2.5
141
2.5
143
0.0394
147
0.625
171
     4
172
     1
173
     1
176
     2
177
     2
178
     6
271
     1
272
     1
273
     8
274
     4
340
3F
343
45
344
45
  0
ENDTAB
  0
TABLE
  2
BLOCK_RECORD
  5
1
330
0
100
AcDbSymbolTable
 70
    12
  0
BLOCK_RECORD
  5
18
330
1
100
AcDbSymbolTableRecord
100
AcDbBlockTableRecord
  2
*MODEL_SPACE
340
147C
  0
BLOCK_RECORD
  5
15
330
1
100
AcDbSymbolTableRecord
100
AcDbBlockTableRecord
  2
*PAPER_SPACE
340
147D
  0
BLOCK_RECORD
  5
45
330
1
100
AcDbSymbolTableRecord
100
AcDbBlockTableRecord
  2
_OPEN
340
0
102
{BLKREFS
331
12BC
331
12BD
331
12EE
331
13A7
331
13A8
331
13B9
331
13BA
331
13CB
331
13CC
331
1405
331
1406
331
143E
331
143F
331
215B
331
215C
331
2164
331
2165
331
216D
331
216E
331
2176
331
2177
331
217E
331
217F
331
2189
331
218A
331
2192
331
2193
331
219B
331
219C
102
}
  0
BLOCK_RECORD
  5
1FDD
330
1
100
AcDbSymbolTableRecord
100
AcDbBlockTableRecord
  2
*D2
340
0
  0
BLOCK_RECORD
  5
1FFC
330
1
100
AcDbSymbolTableRecord
100
AcDbBlockTableRecord
  2
*D3
340
0
  0
BLOCK_RECORD
  5
2009
330
1
100
AcDbSymbolTableRecord
100
AcDbBlockTableRecord
  2
*D4
340
0
  0
BLOCK_RECORD
  5
2016
330
1
100
AcDbSymbolTableRecord
100
AcDbBlockTableRecord
  2
*D5
340
0
  0
BLOCK_RECORD
  5
2035
330
1
100
AcDbSymbolTableRecord
100
AcDbBlockTableRecord
  2
*D6
340
0
  0
BLOCK_RECORD
  5
2054
330
1
100
AcDbSymbolTableRecord
100
AcDbBlockTableRecord
  2
*D7
340
0
  0
BLOCK_RECORD
  5
2070
330
1
100
AcDbSymbolTableRecord
100
AcDbBlockTableRecord
  2
*D8
340
0
  0
BLOCK_RECORD
  5
20A0
330
1
100
AcDbSymbolTableRecord
100
AcDbBlockTableRecord
  2
*D9
340
0
  0
ENDTAB
  0
ENDSEC
  0
SECTION
  2
BLOCKS
  0
BLOCK
  5
19
330
18
100
AcDbEntity
  8
0
100
AcDbBlockBegin
  2
*MODEL_SPACE
 70
     0
 10
0.0
 20
0.0
 30
0.0
  3
*MODEL_SPACE
  1

  0
ENDBLK
  5
1A
330
18
100
AcDbEntity
  8
0
100
AcDbBlockEnd
  0
BLOCK
  5
16
330
15
100
AcDbEntity
 67
     1
  8
0
100
AcDbBlockBegin
  2
*PAPER_SPACE
 70
     0
 10
0.0
 20
0.0
 30
0.0
  3
*PAPER_SPACE
  1

  0
ENDBLK
  5
17
330
15
100
AcDbEntity
 67
     1
  8
0
100
AcDbBlockEnd
  0
BLOCK
  5
46
330
45
100
AcDbEntity
  8
0
100
AcDbBlockBegin
  2
_OPEN
 70
     0
 10
0.0
 20
0.0
 30
0.0
  3
_OPEN
  1

  0
LINE
  5
47
330
45
100
AcDbEntity
  8
0
  6
ByBlock
 62
     0
100
AcDbLine
 10
-1.0
 20
0.1666666666666666
 30
0.0
 11
0.0
 21
0.0
 31
0.0
  0
LINE
  5
48
330
45
100
AcDbEntity
  8
0
  6
ByBlock
 62
     0
100
AcDbLine
 10
0.0
 20
0.0
 30
0.0
 11
-1.0
 21
-0.1666666666666666
 31
0.0
  0
LINE
  5
49
330
45
100
AcDbEntity
  8
0
  6
ByBlock
 62
     0
100
AcDbLine
 10
0.0
 20
0.0
 30
0.0
 11
-1.0
 21
0.0
 31
0.0
  0
ENDBLK
  5
4A
330
45
100
AcDbEntity
  8
0
100
AcDbBlockEnd
  0
BLOCK
  5
1FE7
330
1FDD
100
AcDbEntity
  8
0
100
AcDbBlockBegin
  2
*D2
 70
     1
 10
0.0
 20
0.0
 30
0.0
  3
*D2
  1

  0
LINE
  5
216A
330
1FDD
100
AcDbEntity
  8
寸法線
 62
     2
370
    -2
100
AcDbLine
 10
293.5424188241684
 20
292.6593826858847
 30
0.0
 11
293.5424188241684
 21
345.1131297611461
 31
0.0
  0
LINE
  5
216B
330
1FDD
100
AcDbEntity
  8
寸法線
 62
     2
370
    -2
100
AcDbLine
 10
351.5424188241684
 20
292.6593826858847
 30
0.0
 11
351.5424188241684
 21
345.1131297611461
 31
0.0
  0
LINE
  5
216C
330
1FDD
100
AcDbEntity
  8
寸法線
 62
     2
370
    -2
100
AcDbLine
 10
296.0424188241684
 20
343.8631297611461
 30
0.0
 11
349.0424188241684
 21
343.8631297611461
 31
0.0
  0
INSERT
  5
216D
330
1FDD
100
AcDbEntity
  8
寸法線
 62
     2
370
    -2
100
AcDbBlockReference
  2
_OPEN
 10
293.5424188241684
 20
343.8631297611461
 30
0.0
 41
2.5
 42
2.5
 43
2.5
 50
180.0
  0
INSERT
  5
216E
330
1FDD
100
AcDbEntity
  8
寸法線
 62
     2
370
    -2
100
AcDbBlockReference
  2
_OPEN
 10
351.5424188241684
 20
343.8631297611461
 30
0.0
 41
2.5
 42
2.5
 43
2.5
  0
MTEXT
  5
216F
330
1FDD
100
AcDbEntity
  8
寸法線
 62
     6
100
AcDbMText
 10
322.5424188241684
 20
345.7381297611461
 30
0.0
 40
2.5
 41
0.0
 71
     5
 72
     1
  1
\A1;%%C58
  7
STYLE3
 73
     1
 44
1.0
  0
POINT
  5
2170
330
1FDD
100
AcDbEntity
  8
DEFPOINTS
 62
     0
100
AcDbPoint
 10
293.5424188241684
 20
292.6593826858847
 30
0.0
  0
POINT
  5
2171
330
1FDD
100
AcDbEntity
  8
DEFPOINTS
 62
     0
100
AcDbPoint
 10
351.5424188241684
 20
292.6593826858847
 30
0.0
  0
POINT
  5
2172
330
1FDD
100
AcDbEntity
  8
DEFPOINTS
 62
     0
100
AcDbPoint
 10
351.5424188241684
 20
343.8631297611461
 30
0.0
  0
ENDBLK
  5
1FE8
330
1FDD
100
AcDbEntity
  8
0
100
AcDbBlockEnd
  0
BLOCK
  5
2006
330
1FFC
100
AcDbEntity
  8
0
100
AcDbBlockBegin
  2
*D3
 70
     1
 10
0.0
 20
0.0
 30
0.0
  3
*D3
  1

  0
LINE
  5
2158
330
1FFC
100
AcDbEntity
  8
寸法線
 62
     2
370
    -2
100
AcDbLine
 10
394.7938484437447
 20
292.6593826858847
 30
0.0
 11
394.7938484437447
 21
345.1753500058681
 31
0.0
  0
LINE
  5
2159
330
1FFC
100
AcDbEntity
  8
寸法線
 62
     2
370
    -2
100
AcDbLine
 10
409.2938484437446
 20
336.2992347980119
 30
0.0
 11
409.2938484437446
 21
345.1753500058681
 31
0.0
  0
LINE
  5
215A
330
1FFC
100
AcDbEntity
  8
寸法線
 62
     2
370
    -2
100
AcDbLine
 10
397.2938484437447
 20
343.9253500058681
 30
0.0
 11
406.7938484437446
 21
343.9253500058681
 31
0.0
  0
INSERT
  5
215B
330
1FFC
100
AcDbEntity
  8
寸法線
 62
     2
370
    -2
100
AcDbBlockReference
  2
_OPEN
 10
394.7938484437447
 20
343.9253500058681
 30
0.0
 41
2.5
 42
2.5
 43
2.5
 50
180.0
  0
INSERT
  5
215C
330
1FFC
100
AcDbEntity
  8
寸法線
 62
     2
370
    -2
100
AcDbBlockReference
  2
_OPEN
 10
409.2938484437446
 20
343.9253500058681
 30
0.0
 41
2.5
 42
2.5
 43
2.5
  0
MTEXT
  5
215D
330
1FFC
100
AcDbEntity
  8
寸法線
 62
     6
100
AcDbMText
 10
402.0438484437447
 20
345.8003500058681
 30
0.0
 40
2.5
 41
0.0
 71
     5
 72
     1
  1
\A1;14.5
  7
STYLE3
 73
     1
 44
1.0
  0
POINT
  5
215E
330
1FFC
100
AcDbEntity
  8
DEFPOINTS
 62
     0
100
AcDbPoint
 10
394.7938484437447
 20
292.6593826858847
 30
0.0
  0
POINT
  5
215F
330
1FFC
100
AcDbEntity
  8
DEFPOINTS
 62
     0
100
AcDbPoint
 10
409.2938484437446
 20
336.2992347980119
 30
0.0
  0
POINT
  5
2160
330
1FFC
100
AcDbEntity
  8
DEFPOINTS
 62
     0
100
AcDbPoint
 10
409.2938484437446
 20
343.9253500058681
 30
0.0
  0
ENDBLK
  5
2007
330
1FFC
100
AcDbEntity
  8
0
100
AcDbBlockEnd
  0
BLOCK
  5
2013
330
2009
100
AcDbEntity
  8
0
100
AcDbBlockBegin
  2
*D4
 70
     1
 10
0.0
 20
0.0
 30
0.0
  3
*D4
  1

  0
LINE
  5
2198
330
2009
100
AcDbEntity
  8
寸法線
 62
     2
370
    -2
100
AcDbLine
 10
409.2938484437446
 20
336.2992347980119
 30
0.0
 11
409.2938484437446
 21
345.1753500058681
 31
0.0
  0
LINE
  5
2199
330
2009
100
AcDbEntity
  8
寸法線
 62
     2
370
    -2
100
AcDbLine
 10
416.7938484437446
 20
323.9093826858848
 30
0.0
 11
416.7938484437446
 21
345.1753500058681
 31
0.0
  0
LINE
  5
219A
330
2009
100
AcDbEntity
  8
寸法線
 62
     2
370
    -2
100
AcDbLine
 10
411.7938484437446
 20
343.9253500058681
 30
0.0
 11
414.2938484437447
 21
343.9253500058681
 31
0.0
  0
INSERT
  5
219B
330
2009
100
AcDbEntity
  8
寸法線
 62
     2
370
    -2
100
AcDbBlockReference
  2
_OPEN
 10
409.2938484437446
 20
343.9253500058681
 30
0.0
 41
2.5
 42
2.5
 43
2.5
 50
180.0
  0
INSERT
  5
219C
330
2009
100
AcDbEntity
  8
寸法線
 62
     2
370
    -2
100
AcDbBlockReference
  2
_OPEN
 10
416.7938484437446
 20
343.9253500058681
 30
0.0
 41
2.5
 42
2.5
 43
2.5
  0
MTEXT
  5
219D
330
2009
100
AcDbEntity
  8
寸法線
 62
     6
100
AcDbMText
 10
413.0438484437446
 20
345.8003500058681
 30
0.0
 40
2.5
 41
0.0
 71
     5
 72
     1
  1
\A1;7.5
  7
STYLE3
 73
     1
 44
1.0
  0
POINT
  5
219E
330
2009
100
AcDbEntity
  8
DEFPOINTS
 62
     0
100
AcDbPoint
 10
409.2938484437446
 20
336.2992347980119
 30
0.0
  0
POINT
  5
219F
330
2009
100
AcDbEntity
  8
DEFPOINTS
 62
     0
100
AcDbPoint
 10
416.7938484437446
 20
323.9093826858848
 30
0.0
  0
POINT
  5
21A0
330
2009
100
AcDbEntity
  8
DEFPOINTS
 62
     0
100
AcDbPoint
 10
416.7938484437446
 20
343.9253500058681
 30
0.0
  0
ENDBLK
  5
2014
330
2009
100
AcDbEntity
  8
0
100
AcDbBlockEnd
  0
BLOCK
  5
2020
330
2016
100
AcDbEntity
  8
0
100
AcDbBlockBegin
  2
*D5
 70
     1
 10
0.0
 20
0.0
 30
0.0
  3
*D5
  1

  0
LINE
  5
2173
330
2016
100
AcDbEntity
  8
寸法線
 62
     2
370
    -2
100
AcDbLine
 10
398.6033864891112
 20
325.9093826858847
 30
0.0
 11
382.0229980392361
 21
325.9093826858848
 31
0.0
  0
LINE
  5
2174
330
2016
100
AcDbEntity
  8
寸法線
 62
     2
370
    -2
100
AcDbLine
 10
398.6033864891112
 20
259.4093826858847
 30
0.0
 11
382.0229980392361
 21
259.4093826858848
 31
0.0
  0
LINE
  5
2175
330
2016
100
AcDbEntity
  8
寸法線
 62
     2
370
    -2
100
AcDbLine
 10
383.2729980392361
 20
323.4093826858847
 30
0.0
 11
383.2729980392361
 21
261.9093826858847
 31
0.0
  0
INSERT
  5
2176
330
2016
100
AcDbEntity
  8
寸法線
 62
     2
370
    -2
100
AcDbBlockReference
  2
_OPEN
 10
383.2729980392361
 20
325.9093826858848
 30
0.0
 41
2.5
 42
2.5
 43
2.5
 50
90.0
  0
INSERT
  5
2177
330
2016
100
AcDbEntity
  8
寸法線
 62
     2
370
    -2
100
AcDbBlockReference
  2
_OPEN
 10
383.2729980392361
 20
259.4093826858848
 30
0.0
 41
2.5
 42
2.5
 43
2.5
 50
270.0
  0
MTEXT
  5
2178
330
2016
100
AcDbEntity
  8
寸法線
 62
     6
100
AcDbMText
 10
381.3979980392361
 20
292.6593826858848
 30
0.0
 40
2.5
 41
0.0
 71
     5
 72
     1
  1
\A1;%%C66.5
  7
STYLE3
 11
0.0000000000000001
 21
1.0
 31
0.0
 73
     1
 44
1.0
  0
POINT
  5
2179
330
2016
100
AcDbEntity
  8
DEFPOINTS
 62
     0
100
AcDbPoint
 10
398.6033864891112
 20
325.9093826858847
 30
0.0
  0
POINT
  5
217A
330
2016
100
AcDbEntity
  8
DEFPOINTS
 62
     0
100
AcDbPoint
 10
398.6033864891112
 20
259.4093826858847
 30
0.0
  0
POINT
  5
217B
330
2016
100
AcDbEntity
  8
DEFPOINTS
 62
     0
100
AcDbPoint
 10
383.2729980392361
 20
259.4093826858848
 30
0.0
  0
ENDBLK
  5
2021
330
2016
100
AcDbEntity
  8
0
100
AcDbBlockEnd
  0
BLOCK
  5
203F
330
2035
100
AcDbEntity
  8
0
100
AcDbBlockBegin
  2
*D6
 70
     1
 10
0.0
 20
0.0
 30
0.0
  3
*D6
  1

  0
LINE
  5
218F
330
2035
100
AcDbEntity
  8
寸法線
 62
     2
370
    -2
100
AcDbLine
 10
416.7938484437446
 20
323.9093826858848
 30
0.0
 11
453.0810165493699
 21
323.9093826858848
 31
0.0
  0
LINE
  5
2190
330
2035
100
AcDbEntity
  8
寸法線
 62
     2
370
    -2
100
AcDbLine
 10
416.7938484437446
 20
261.4093826858847
 30
0.0
 11
453.0810165493699
 21
261.4093826858847
 31
0.0
  0
LINE
  5
2191
330
2035
100
AcDbEntity
  8
寸法線
 62
     2
370
    -2
100
AcDbLine
 10
451.8310165493699
 20
321.4093826858847
 30
0.0
 11
451.8310165493699
 21
263.9093826858847
 31
0.0
  0
INSERT
  5
2192
330
2035
100
AcDbEntity
  8
寸法線
 62
     2
370
    -2
100
AcDbBlockReference
  2
_OPEN
 10
451.8310165493699
 20
323.9093826858848
 30
0.0
 41
2.5
 42
2.5
 43
2.5
 50
90.0
  0
INSERT
  5
2193
330
2035
100
AcDbEntity
  8
寸法線
 62
     2
370
    -2
100
AcDbBlockReference
  2
_OPEN
 10
451.8310165493699
 20
261.4093826858847
 30
0.0
 41
2.5
 42
2.5
 43
2.5
 50
270.0
  0
MTEXT
  5
2194
330
2035
100
AcDbEntity
  8
寸法線
 62
     6
100
AcDbMText
 10
449.9560165493698
 20
292.6593826858848
 30
0.0
 40
2.5
 41
0.0
 71
     5
 72
     1
  1
\A1;%%C62.5
  7
STYLE3
 11
0.0000000000000001
 21
1.0
 31
0.0
 73
     1
 44
1.0
  0
POINT
  5
2195
330
2035
100
AcDbEntity
  8
DEFPOINTS
 62
     0
100
AcDbPoint
 10
416.7938484437446
 20
323.9093826858848
 30
0.0
  0
POINT
  5
2196
330
2035
100
AcDbEntity
  8
DEFPOINTS
 62
     0
100
AcDbPoint
 10
416.7938484437446
 20
261.4093826858847
 30
0.0
  0
POINT
  5
2197
330
2035
100
AcDbEntity
  8
DEFPOINTS
 62
     0
100
AcDbPoint
 10
451.8310165493699
 20
261.4093826858847
 30
0.0
  0
ENDBLK
  5
2040
330
2035
100
AcDbEntity
  8
0
100
AcDbBlockEnd
  0
BLOCK
  5
205D
330
2054
100
AcDbEntity
  8
0
100
AcDbBlockBegin
  2
*D7
 70
     1
 10
0.0
 20
0.0
 30
0.0
  3
*D7
  1

  0
LINE
  5
217C
330
2054
100
AcDbEntity
  8
寸法線
 62
     2
370
    -2
100
AcDbLine
 10
321.0424188241684
 20
245.9899709823981
 30
0.0
 11
324.0424188241684
 21
245.9899709823981
 31
0.0
  0
LINE
  5
217D
330
2054
100
AcDbEntity
  8
寸法線
 62
     2
370
    -2
100
AcDbLine
 10
326.5424188241684
 20
245.9899709823981
 30
0.0
 11
345.566228347978
 21
245.9899709823981
 31
0.0
  0
INSERT
  5
217E
330
2054
100
AcDbEntity
  8
寸法線
 62
     2
370
    -2
100
AcDbBlockReference
  2
_OPEN
 10
318.5424188241684
 20
245.9899709823981
 30
0.0
 41
2.5
 42
2.5
 43
2.5
 50
180.0
  0
INSERT
  5
217F
330
2054
100
AcDbEntity
  8
寸法線
 62
     2
370
    -2
100
AcDbBlockReference
  2
_OPEN
 10
326.5424188241684
 20
245.9899709823981
 30
0.0
 41
2.5
 42
2.5
 43
2.5
  0
MTEXT
  5
2180
330
2054
100
AcDbEntity
  8
寸法線
 62
     6
100
AcDbMText
 10
337.3043235860733
 20
248.6566376490648
 30
0.0
 40
2.5
 41
0.0
 71
     5
 72
     1
  1
%%C8.0{\H1.750000;\S 0^ -0.03;}
  7
STYLE3
 73
     1
 44
1.0
  0
POINT
  5
2181
330
2054
100
AcDbEntity
  8
DEFPOINTS
 62
     0
100
AcDbPoint
 10
318.5424188241684
 20
249.4068991930283
 30
0.0
  0
POINT
  5
2182
330
2054
100
AcDbEntity
  8
DEFPOINTS
 62
     0
100
AcDbPoint
 10
326.5424188241684
 20
249.533242547353
 30
0.0
  0
POINT
  5
2183
330
2054
100
AcDbEntity
  8
DEFPOINTS
 62
     0
100
AcDbPoint
 10
326.5424188241684
 20
245.9899709823981
 30
0.0
  0
ENDBLK
  5
205E
330
2054
100
AcDbEntity
  8
0
100
AcDbBlockEnd
  0
BLOCK
  5
207C
330
2070
100
AcDbEntity
  8
0
100
AcDbBlockBegin
  2
*D8
 70
     1
 10
0.0
 20
0.0
 30
0.0
  3
*D8
  1

  0
LINE
  5
2184
330
2070
100
AcDbEntity
  8
寸法線
 62
     2
370
    -2
100
AcDbLine
 10
320.0424188241685
 20
226.5810915506066
 30
0.0
 11
320.0424188241685
 21
227.8310915506066
 31
0.0
  0
LINE
  5
2185
330
2070
100
AcDbEntity
  8
寸法線
 62
     2
370
    -2
100
AcDbLine
 10
325.0424188241684
 20
227.3771807523289
 30
0.0
 11
325.0424188241684
 21
225.3310915506066
 31
0.0
  0
LINE
  5
2186
330
2070
100
AcDbEntity
  8
寸法線
 62
     2
370
    -2
100
AcDbLine
 10
317.5424188241685
 20
226.5810915506066
 30
0.0
 11
315.0424188241685
 21
226.5810915506066
 31
0.0
  0
LINE
  5
2187
330
2070
100
AcDbEntity
  8
寸法線
 62
     2
370
    -2
100
AcDbLine
 10
327.5424188241684
 20
226.5810915506066
 30
0.0
 11
336.506704538454
 21
226.5810915506066
 31
0.0
  0
LINE
  5
2188
330
2070
100
AcDbEntity
  8
寸法線
 62
     2
370
    -2
100
AcDbLine
 10
320.0424188241685
 20
226.5810915506066
 30
0.0
 11
325.0424188241684
 21
226.5810915506066
 31
0.0
  0
INSERT
  5
2189
330
2070
100
AcDbEntity
  8
寸法線
 62
     2
370
    -2
100
AcDbBlockReference
  2
_OPEN
 10
320.0424188241685
 20
226.5810915506066
 30
0.0
 41
2.5
 42
2.5
 43
2.5
  0
INSERT
  5
218A
330
2070
100
AcDbEntity
  8
寸法線
 62
     2
370
    -2
100
AcDbBlockReference
  2
_OPEN
 10
325.0424188241684
 20
226.5810915506066
 30
0.0
 41
2.5
 42
2.5
 43
2.5
 50
180.0
  0
MTEXT
  5
218B
330
2070
100
AcDbEntity
  8
寸法線
 62
     6
100
AcDbMText
 10
333.9174188241683
 20
228.4560915506066
 30
0.0
 40
2.5
 41
0.0
 71
     5
 72
     1
  1
\A1;%%C5
  7
STYLE3
 73
     1
 44
1.0
  0
POINT
  5
218C
330
2070
100
AcDbEntity
  8
DEFPOINTS
 62
     0
100
AcDbPoint
 10
320.0424188241685
 20
226.5810915506066
 30
0.0
  0
POINT
  5
218D
330
2070
100
AcDbEntity
  8
DEFPOINTS
 62
     0
100
AcDbPoint
 10
325.0424188241684
 20
227.3771807523289
 30
0.0
  0
POINT
  5
218E
330
2070
100
AcDbEntity
  8
DEFPOINTS
 62
     0
100
AcDbPoint
 10
325.0424188241684
 20
226.5810915506066
 30
0.0
  0
ENDBLK
  5
207D
330
2070
100
AcDbEntity
  8
0
100
AcDbBlockEnd
  0
BLOCK
  5
20AA
330
20A0
100
AcDbEntity
  8
0
100
AcDbBlockBegin
  2
*D9
 70
     1
 10
0.0
 20
0.0
 30
0.0
  3
*D9
  1

  0
LINE
  5
2161
330
20A0
100
AcDbEntity
  8
寸法線
 62
     2
370
    -2
100
AcDbLine
 10
409.2938484437446
 20
211.6593826858847
 30
0.0
 11
393.716740057627
 21
211.6593826858847
 31
0.0
  0
LINE
  5
2162
330
20A0
100
AcDbEntity
  8
寸法線
 62
     2
370
    -2
100
AcDbLine
 10
409.2938484437446
 20
202.6593826858847
 30
0.0
 11
393.716740057627
 21
202.6593826858847
 31
0.0
  0
LINE
  5
2163
330
20A0
100
AcDbEntity
  8
寸法線
 62
     2
370
    -2
100
AcDbLine
 10
394.966740057627
 20
209.1593826858847
 30
0.0
 11
394.966740057627
 21
205.1593826858847
 31
0.0
  0
INSERT
  5
2164
330
20A0
100
AcDbEntity
  8
寸法線
 62
     2
370
    -2
100
AcDbBlockReference
  2
_OPEN
 10
394.966740057627
 20
211.6593826858847
 30
0.0
 41
2.5
 42
2.5
 43
2.5
 50
90.0
  0
INSERT
  5
2165
330
20A0
100
AcDbEntity
  8
寸法線
 62
     2
370
    -2
100
AcDbBlockReference
  2
_OPEN
 10
394.966740057627
 20
202.6593826858847
 30
0.0
 41
2.5
 42
2.5
 43
2.5
 50
270.0
  0
MTEXT
  5
2166
330
20A0
100
AcDbEntity
  8
寸法線
 62
     6
100
AcDbMText
 10
393.091740057627
 20
207.1593826858847
 30
0.0
 40
2.5
 41
0.0
 71
     5
 72
     1
  1
\A1;9
  7
STYLE3
 11
0.0000000000000001
 21
1.0
 31
0.0
 73
     1
 44
1.0
  0
POINT
  5
2167
330
20A0
100
AcDbEntity
  8
DEFPOINTS
 62
     0
100
AcDbPoint
 10
409.2938484437446
 20
211.6593826858847
 30
0.0
  0
POINT
  5
2168
330
20A0
100
AcDbEntity
  8
DEFPOINTS
 62
     0
100
AcDbPoint
 10
409.2938484437446
 20
202.6593826858847
 30
0.0
  0
POINT
  5
2169
330
20A0
100
AcDbEntity
  8
DEFPOINTS
 62
     0
100
AcDbPoint
 10
394.966740057627
 20
202.6593826858847
 30
0.0
  0
ENDBLK
  5
20AB
330
20A0
100
AcDbEntity
  8
0
100
AcDbBlockEnd
  0
ENDSEC
  0
SECTION
  2
ENTITIES
  0
LWPOLYLINE
  5
10B
330
18
100
AcDbEntity
  8
C
100
AcDbPolyline
 90
        5
 70
     0
 43
0.4
 10
236.6915604445414
 20
366.8501752555372
 10
491.6915604445414
 20
366.8501752555372
 10
491.6915604445414
 20
171.8501752555372
 10
236.6915604445414
 20
171.8501752555372
 10
236.6915604445414
 20
366.8501752555372
  0
LINE
  5
175
330
18
100
AcDbEntity
  8
中心線
100
AcDbLine
 10
282.6728259893406
 20
292.6593826858847
 30
0.0
 11
362.7656113004183
 21
292.6593826858847
 31
0.0
  0
LINE
  5
176
330
18
100
AcDbEntity
  8
中心線
100
AcDbLine
 10
322.5424188241684
 20
335.7477262573886
 30
0.0
 11
322.5424188241684
 21
200.6468529730208
 31
0.0
  0
CIRCLE
  5
177
330
18
100
AcDbEntity
  8
外形線
100
AcDbCircle
 10
322.5424188241684
 20
292.6593826858847
 30
0.0
 40
33.25
  0
LINE
  5
179
330
18
100
AcDbEntity
  8
中心線
100
AcDbLine
 10
409.2938484437446
 20
336.2992347980119
 30
0.0
 11
409.2938484437446
 21
200.6468529730208
 31
0.0
  0
LINE
  5
17A
330
18
100
AcDbEntity
  8
中心線
100
AcDbLine
 10
391.5794346644868
 20
292.6593826858847
 30
0.0
 11
440.6370267161291
 21
292.6593826858847
 31
0.0
  0
LINE
  5
17C
330
18
100
AcDbEntity
  8
外形線
100
AcDbLine
 10
416.7938484437446
 20
323.9093826858848
 30
0.0
 11
416.7938484437446
 21
261.4093826858847
 31
0.0
  0
LINE
  5
17E
330
18
100
AcDbEntity
  8
外形線
100
AcDbLine
 10
402.3438484437447
 20
323.9093826858848
 30
0.0
 11
416.7938484437446
 21
323.9093826858848
 31
0.0
  0
LINE
  5
17F
330
18
100
AcDbEntity
  8
外形線
100
AcDbLine
 10
402.3438484437447
 20
261.4093826858848
 30
0.0
 11
416.7938484437446
 21
261.4093826858847
 31
0.0
  0
LINE
  5
183
330
18
100
AcDbEntity
  8
外形線
100
AcDbLine
 10
398.0938484437447
 20
325.9093826858847
 30
0.0
 11
401.3938484437447
 21
325.9093826858847
 31
0.0
  0
LINE
  5
186
330
18
100
AcDbEntity
  8
外形線
100
AcDbLine
 10
405.6938484437447
 20
234.4093826858847
 30
0.0
 11
412.8938484437446
 21
234.4093826858847
 31
0.0
  0
LINE
  5
187
330
18
100
AcDbEntity
  8
外形線
100
AcDbLine
 10
413.2938484437446
 20
261.4093826858848
 30
0.0
 11
413.2938484437446
 21
239.4093826858847
 31
0.0
  0
LINE
  5
188
330
18
100
AcDbEntity
  8
外形線
100
AcDbLine
 10
405.2938484437446
 20
261.4093826858848
 30
0.0
 11
405.2938484437446
 21
239.4093826858847
 31
0.0
  0
LINE
  5
189
330
18
100
AcDbEntity
  8
外形線
100
AcDbLine
 10
405.2938484437446
 20
239.4093826858847
 30
0.0
 11
413.2938484437446
 21
239.4093826858847
 31
0.0
  0
LINE
  5
18B
330
18
100
AcDbEntity
  8
外形線
100
AcDbLine
 10
413.1938484437446
 20
239.4093826858847
 30
0.0
 11
413.1938484437446
 21
234.7093826858847
 31
0.0
  0
LINE
  5
18C
330
18
100
AcDbEntity
  8
外形線
100
AcDbLine
 10
405.3938484437447
 20
239.4093826858847
 30
0.0
 11
405.3938484437447
 21
234.7093826858847
 31
0.0
  0
LINE
  5
18D
330
18
100
AcDbEntity
  8
外形線
100
AcDbLine
 10
405.3938484437447
 20
234.7093826858847
 30
0.0
 11
405.6938484437447
 21
234.4093826858847
 31
0.0
  0
LINE
  5
18E
330
18
100
AcDbEntity
  8
外形線
100
AcDbLine
 10
412.8938484437446
 20
234.4093826858847
 30
0.0
 11
413.1938484437446
 21
234.7093826858847
 31
0.0
  0
LINE
  5
18F
330
18
100
AcDbEntity
  8
外形線
 62
     4
100
AcDbLine
 10
405.3938484437447
 20
234.7093826858847
 30
0.0
 11
413.1938484437446
 21
234.7093826858847
 31
0.0
  0
LINE
  5
190
330
18
100
AcDbEntity
  8
外形線
100
AcDbLine
 10
411.7938484437446
 20
234.4093826858847
 30
0.0
 11
411.7938484437446
 21
211.6593826858847
 31
0.0
  0
LINE
  5
191
330
18
100
AcDbEntity
  8
外形線
100
AcDbLine
 10
406.7938484437447
 20
234.4093826858847
 30
0.0
 11
406.7938484437447
 21
211.6593826858847
 31
0.0
  0
LINE
  5
C7C
330
18
100
AcDbEntity
  8
外形線
100
AcDbLine
 10
406.7938484437447
 20
211.6593826858847
 30
0.0
 11
411.7938484437446
 21
211.6593826858847
 31
0.0
  0
LINE
  5
C81
330
18
100
AcDbEntity
  8
外形線
100
AcDbLine
 10
411.7938484437446
 20
211.4593826858847
 30
0.0
 11
411.7938484437446
 21
208.3593826858847
 31
0.0
  0
LINE
  5
C82
330
18
100
AcDbEntity
  8
外形線
100
AcDbLine
 10
406.7938484437446
 20
211.4593826858847
 30
0.0
 11
406.7938484437446
 21
208.3593826858847
 31
0.0
  0
LINE
  5
C83
330
18
100
AcDbEntity
  8
外形線
100
AcDbLine
 10
407.0438484437446
 20
208.1593826858847
 30
0.0
 11
411.5438484437446
 21
208.1593826858847
 31
0.0
  0
LINE
  5
C84
330
18
100
AcDbEntity
  8
外形線
100
AcDbLine
 10
406.7938484437446
 20
211.4593826858847
 30
0.0
 11
411.7938484437446
 21
211.4593826858847
 31
0.0
  0
LINE
  5
C85
330
18
100
AcDbEntity
  8
外形線
100
AcDbLine
 10
406.7938484437446
 20
208.3593826858847
 30
0.0
 11
411.7938484437446
 21
208.3593826858847
 31
0.0
  0
LINE
  5
C86
330
18
100
AcDbEntity
  8
外形線
100
AcDbLine
 10
411.5438484437446
 20
211.6593826858847
 30
0.0
 11
411.7938484437446
 21
211.4593826858847
 31
0.0
  0
LINE
  5
C87
330
18
100
AcDbEntity
  8
外形線
100
AcDbLine
 10
407.0438484437446
 20
211.6593826858847
 30
0.0
 11
406.7938484437446
 21
211.4593826858847
 31
0.0
  0
LINE
  5
C88
330
18
100
AcDbEntity
  8
外形線
100
AcDbLine
 10
411.7938484437446
 20
208.3593826858847
 30
0.0
 11
411.5438484437446
 21
208.1593826858847
 31
0.0
  0
LINE
  5
C89
330
18
100
AcDbEntity
  8
外形線
100
AcDbLine
 10
406.7938484437446
 20
208.3593826858847
 30
0.0
 11
407.0438484437446
 21
208.1593826858847
 31
0.0
  0
LINE
  5
C8B
330
18
100
AcDbEntity
  8
外形線
100
AcDbLine
 10
407.9938484437446
 20
203.6593826858847
 30
0.0
 11
410.5938484437445
 21
203.6593826858847
 31
0.0
  0
LINE
  5
C8C
330
18
100
AcDbEntity
  8
外形線
100
AcDbLine
 10
411.5438484437446
 20
208.1593826858847
 30
0.0
 11
410.5938484437445
 21
203.6593826858847
 31
0.0
  0
LINE
  5
C8D
330
18
100
AcDbEntity
  8
外形線
100
AcDbLine
 10
407.0438484437446
 20
208.1593826858847
 30
0.0
 11
407.9938484437446
 21
203.6593826858847
 31
0.0
  0
MTEXT
  5
CCF
330
18
100
AcDbEntity
  8
DEFPOINTS
  6
Continuous
100
AcDbMText
 10
1020.150236874081
 20
235.6127542084339
 30
0.0
 40
1.0
 41
0.0
 71
     4
 72
     1
  1
\A1;
 73
     1
 44
1.0
  0
POINT
  5
D0E
330
18
100
AcDbEntity
  8
DEFPOINTS
  6
ByBlock
 62
     0
100
AcDbPoint
 10
409.2938484437446
 20
202.6593826858847
 30
0.0
  0
MTEXT
  5
D2A
330
18
100
AcDbEntity
  8
文字
100
AcDbMText
 10
587.2894464320802
 20
261.690736446668
 30
0.0
 40
1.0
 41
6.927999999999999
 71
     1
 72
     5
  1

  7
STYLE3
 73
     1
 44
1.0
  0
MTEXT
  5
DA6
330
18
100
AcDbEntity
  8
DEFPOINTS
  6
Continuous
100
AcDbMText
 10
909.0252560872217
 20
184.9382877341189
 30
0.0
 40
0.35
 41
0.0
 71
     4
 72
     1
  1
\A1;
 73
     1
 44
1.0
  0
LINE
  5
EAD
330
18
100
AcDbEntity
  8
外形線
100
AcDbLine
 10
416.7938484437446
 20
262.8593826858846
 30
0.0
 11
416.9938484437446
 21
262.8593826858846
 31
0.0
  0
LINE
  5
EBD
330
18
100
AcDbEntity
  8
外形線
100
AcDbLine
 10
402.3438484437447
 20
324.5593826858847
 30
0.0
 11
402.3438484437447
 21
260.7593826858848
 31
0.0
  0
LINE
  5
EBE
330
18
100
AcDbEntity
  8
外形線
100
AcDbLine
 10
396.6438484437447
 20
323.6093826858846
 30
0.0
 11
396.6438484437447
 21
261.7093826858847
 31
0.0
  0
LINE
  5
EBF
330
18
100
AcDbEntity
  8
外形線
100
AcDbLine
 10
401.6438484437447
 20
324.5593826858847
 30
0.0
 11
402.3438484437447
 21
324.5593826858847
 31
0.0
  0
LINE
  5
EC0
330
18
100
AcDbEntity
  8
外形線
100
AcDbLine
 10
401.6438484437446
 20
325.6593826858847
 30
0.0
 11
401.6438484437447
 21
324.5593826858847
 31
0.0
  0
LINE
  5
EC1
330
18
100
AcDbEntity
  8
外形線
100
AcDbLine
 10
401.3938484437447
 20
325.9093826858847
 30
0.0
 11
401.6438484437446
 21
325.6593826858847
 31
0.0
  0
LINE
  5
EC2
330
18
100
AcDbEntity
  8
外形線
100
AcDbLine
 10
397.8438484437447
 20
325.6593826858847
 30
0.0
 11
397.8438484437447
 21
259.6593826858848
 31
0.0
  0
LINE
  5
EC3
330
18
100
AcDbEntity
  8
外形線
100
AcDbLine
 10
397.8438484437447
 20
325.6593826858847
 30
0.0
 11
398.0938484437447
 21
325.9093826858847
 31
0.0
  0
LINE
  5
EC7
330
18
100
AcDbEntity
  8
外形線
100
AcDbLine
 10
396.6438484437447
 20
323.6093826858846
 30
0.0
 11
397.8438484437447
 21
324.6593826858847
 31
0.0
  0
LINE
  5
EC8
330
18
100
AcDbEntity
  8
外形線
100
AcDbLine
 10
398.0938484437447
 20
259.4093826858847
 30
0.0
 11
401.3938484437447
 21
259.4093826858847
 31
0.0
  0
LINE
  5
EC9
330
18
100
AcDbEntity
  8
外形線
100
AcDbLine
 10
396.6438484437447
 20
261.7093826858847
 30
0.0
 11
397.8438484437447
 21
260.6593826858847
 31
0.0
  0
LINE
  5
ECA
330
18
100
AcDbEntity
  8
外形線
100
AcDbLine
 10
397.8438484437447
 20
259.6593826858847
 30
0.0
 11
398.0938484437447
 21
259.4093826858847
 31
0.0
  0
LINE
  5
ECB
330
18
100
AcDbEntity
  8
外形線
100
AcDbLine
 10
401.6438484437447
 20
260.7593826858847
 30
0.0
 11
402.3438484437447
 21
260.7593826858847
 31
0.0
  0
LINE
  5
ECC
330
18
100
AcDbEntity
  8
外形線
100
AcDbLine
 10
401.6438484437446
 20
259.6593826858847
 30
0.0
 11
401.6438484437447
 21
260.7593826858847
 31
0.0
  0
LINE
  5
ECD
330
18
100
AcDbEntity
  8
外形線
100
AcDbLine
 10
401.3938484437447
 20
259.4093826858847
 30
0.0
 11
401.6438484437446
 21
259.6593826858847
 31
0.0
  0
LINE
  5
ECE
330
18
100
AcDbEntity
  8
外形線
100
AcDbLine
 10
401.6438484437447
 20
324.5593826858847
 30
0.0
 11
401.6438484437447
 21
260.7593826858847
 31
0.0
  0
ARC
  5
ED2
330
18
100
AcDbEntity
  8
外形線
100
AcDbCircle
 10
642.624422768074
 20
292.6593826858847
 30
0.0
 40
247.8305743243293
100
AcDbArc
 50
172.9948638173551
 51
187.0051361826449
  0
LINE
  5
ED8
330
18
100
AcDbEntity
  8
外形線
100
AcDbLine
 10
397.8438484437447
 20
324.9093826858847
 30
0.0
 11
401.6438484437447
 21
324.9093826858847
 31
0.0
  0
LINE
  5
ED9
330
18
100
AcDbEntity
  8
外形線
100
AcDbLine
 10
397.8438484437447
 20
323.7093826858846
 30
0.0
 11
401.6438484437447
 21
323.7093826858847
 31
0.0
  0
LINE
  5
EDA
330
18
100
AcDbEntity
  8
外形線
100
AcDbLine
 10
397.8438484437447
 20
322.5093826858847
 30
0.0
 11
401.6438484437447
 21
322.5093826858847
 31
0.0
  0
LINE
  5
EDB
330
18
100
AcDbEntity
  8
外形線
100
AcDbLine
 10
397.8438484437447
 20
321.1093826858847
 30
0.0
 11
401.6438484437447
 21
321.1093826858847
 31
0.0
  0
LINE
  5
EDC
330
18
100
AcDbEntity
  8
外形線
100
AcDbLine
 10
397.8438484437447
 20
319.7093826858847
 30
0.0
 11
401.6438484437447
 21
319.7093826858847
 31
0.0
  0
LINE
  5
EDD
330
18
100
AcDbEntity
  8
外形線
100
AcDbLine
 10
397.8438484437447
 20
294.0593826858846
 30
0.0
 11
401.6438484437447
 21
294.0593826858847
 31
0.0
  0
LINE
  5
EDE
330
18
100
AcDbEntity
  8
外形線
100
AcDbLine
 10
397.8438484437447
 20
295.4593826858847
 30
0.0
 11
401.6438484437447
 21
295.4593826858847
 31
0.0
  0
LINE
  5
EDF
330
18
100
AcDbEntity
  8
外形線
100
AcDbLine
 10
397.8438484437447
 20
291.2593826858848
 30
0.0
 11
401.6438484437447
 21
291.2593826858848
 31
0.0
  0
LINE
  5
EE0
330
18
100
AcDbEntity
  8
外形線
100
AcDbLine
 10
397.8438484437447
 20
289.8593826858847
 30
0.0
 11
401.6438484437447
 21
289.8593826858847
 31
0.0
  0
LINE
  5
EE1
330
18
100
AcDbEntity
  8
外形線
100
AcDbLine
 10
397.8438484437447
 20
292.6593826858848
 30
0.0
 11
401.6438484437447
 21
292.6593826858847
 31
0.0
  0
LINE
  5
EE2
330
18
100
AcDbEntity
  8
外形線
100
AcDbLine
 10
397.8438484437447
 20
265.6093826858846
 30
0.0
 11
401.6438484437447
 21
265.6093826858846
 31
0.0
  0
LINE
  5
EE3
330
18
100
AcDbEntity
  8
外形線
100
AcDbLine
 10
397.8438484437447
 20
264.2093826858846
 30
0.0
 11
401.6438484437447
 21
264.2093826858846
 31
0.0
  0
LINE
  5
EE4
330
18
100
AcDbEntity
  8
外形線
100
AcDbLine
 10
397.8438484437447
 20
262.8093826858846
 30
0.0
 11
401.6438484437447
 21
262.8093826858846
 31
0.0
  0
LINE
  5
EE5
330
18
100
AcDbEntity
  8
外形線
100
AcDbLine
 10
397.8438484437447
 20
261.6093826858847
 30
0.0
 11
401.6438484437447
 21
261.6093826858847
 31
0.0
  0
LINE
  5
EE6
330
18
100
AcDbEntity
  8
外形線
100
AcDbLine
 10
397.8438484437447
 20
260.4093826858847
 30
0.0
 11
401.6438484437447
 21
260.4093826858847
 31
0.0
  0
LINE
  5
EEA
330
18
100
AcDbEntity
  8
外形線
100
AcDbLine
 10
413.2938484437446
 20
327.1593826858847
 30
0.0
 11
413.2938484437446
 21
323.9093826858848
 31
0.0
  0
LINE
  5
EEB
330
18
100
AcDbEntity
  8
外形線
100
AcDbLine
 10
405.2938484437446
 20
327.1593826858847
 30
0.0
 11
405.2938484437445
 21
323.9093826858848
 31
0.0
  0
LINE
  5
EEC
330
18
100
AcDbEntity
  8
外形線
100
AcDbLine
 10
405.7938484437446
 20
327.6593826858847
 30
0.0
 11
412.7938484437446
 21
327.6593826858847
 31
0.0
  0
ARC
  5
EED
330
18
100
AcDbEntity
  8
外形線
100
AcDbCircle
 10
405.7938484437446
 20
327.1593826858847
 30
0.0
 40
0.5
100
AcDbArc
 50
90.0
 51
180.0
  0
ARC
  5
EEE
330
18
100
AcDbEntity
  8
外形線
100
AcDbCircle
 10
412.7938484437446
 20
327.1593826858847
 30
0.0
 40
0.5
100
AcDbArc
 50
0.0
 51
90.0
  0
LINE
  5
EF0
330
18
100
AcDbEntity
  8
外形線
100
AcDbLine
 10
405.7938484437445
 20
333.1593826858847
 30
0.0
 11
412.7938484437446
 21
333.1593826858847
 31
0.0
  0
LINE
  5
EF1
330
18
100
AcDbEntity
  8
外形線
100
AcDbLine
 10
412.7938484437446
 20
333.1593826858847
 30
0.0
 11
412.7938484437446
 21
328.1593826858847
 31
0.0
  0
LINE
  5
EF2
330
18
100
AcDbEntity
  8
外形線
100
AcDbLine
 10
405.7938484437445
 20
333.1593826858847
 30
0.0
 11
405.7938484437446
 21
328.1593826858847
 31
0.0
  0
ARC
  5
EF3
330
18
100
AcDbEntity
  8
外形線
100
AcDbCircle
 10
409.2938484437446
 20
321.1593826858848
 30
0.0
 40
12.49999999999989
100
AcDbArc
 50
73.73979529168789
 51
106.2602047083121
  0
LINE
  5
EF4
330
18
100
AcDbEntity
  8
外形線
100
AcDbLine
 10
405.7938484437446
 20
328.1593826858847
 30
0.0
 11
412.7938484437446
 21
328.1593826858847
 31
0.0
  0
LINE
  5
EF5
330
18
100
AcDbEntity
  8
外形線
100
AcDbLine
 10
405.7938484437446
 20
328.1593826858847
 30
0.0
 11
406.2938484437446
 21
327.6593826858847
 31
0.0
  0
LINE
  5
EF6
330
18
100
AcDbEntity
  8
外形線
100
AcDbLine
 10
412.2938484437446
 20
327.6593826858847
 30
0.0
 11
412.7938484437446
 21
328.1593826858847
 31
0.0
  0
LINE
  5
EF8
330
18
100
AcDbEntity
  8
寸法線
 62
     2
100
AcDbLine
 10
405.7938484437446
 20
329.1483085677088
 30
0.0
 11
408.1096431656131
 21
333.1593826858847
 31
0.0
  0
LINE
  5
EF9
330
18
100
AcDbEntity
  8
寸法線
 62
     2
100
AcDbLine
 10
406.3775923580441
 20
328.1593826858848
 30
0.0
 11
409.2643437039923
 21
333.1593826858847
 31
0.0
  0
LINE
  5
EFA
330
18
100
AcDbEntity
  8
寸法線
 62
     2
100
AcDbLine
 10
407.5258992513134
 20
328.1483085677088
 30
0.0
 11
409.2938484437446
 21
331.2104863942
 31
0.0
  0
LINE
  5
EFB
330
18
100
AcDbEntity
  8
寸法線
 62
     2
100
AcDbLine
 10
408.6869934348026
 20
328.1593826858848
 30
0.0
 11
409.2938484437446
 21
329.2104863941999
 31
0.0
  0
LINE
  5
EFC
330
18
100
AcDbEntity
  8
寸法線
 62
     2
100
AcDbLine
 10
405.7938484437445
 20
331.1483085677086
 30
0.0
 11
406.9549426272338
 21
333.1593826858847
 31
0.0
  0
LINE
  5
EFD
330
18
100
AcDbEntity
  8
寸法線
 62
     2
100
AcDbLine
 10
405.7938484437444
 20
333.1483085677086
 30
0.0
 11
405.8002420888545
 21
333.1593826858847
 31
0.0
  0
LINE
  5
EFE
330
18
100
AcDbEntity
  8
寸法線
 62
     2
100
AcDbLine
 10
406.2223332319324
 20
328.1593826858848
 30
0.0
 11
405.7938484437446
 21
328.9015401092964
 31
0.0
  0
LINE
  5
EFF
330
18
100
AcDbEntity
  8
寸法線
 62
     2
100
AcDbLine
 10
407.3834274154215
 20
328.1483085677088
 30
0.0
 11
405.7938484437446
 21
330.9015401092964
 31
0.0
  0
LINE
  5
F00
330
18
100
AcDbEntity
  8
寸法線
 62
     2
100
AcDbLine
 10
408.5317343086908
 20
328.1593826858848
 30
0.0
 11
405.7938484437445
 21
332.9015401092963
 31
0.0
  0
LINE
  5
F01
330
18
100
AcDbEntity
  8
寸法線
 62
     2
100
AcDbLine
 10
409.2938484437446
 20
328.8393622828051
 30
0.0
 11
406.7996835011219
 21
333.1593826858847
 31
0.0
  0
LINE
  5
F02
330
18
100
AcDbEntity
  8
寸法線
 62
     2
100
AcDbLine
 10
409.2938484437446
 20
332.8393622828051
 30
0.0
 11
409.1090845778804
 21
333.1593826858847
 31
0.0
  0
LINE
  5
F03
330
18
100
AcDbEntity
  8
寸法線
 62
     2
100
AcDbLine
 10
409.2938484437446
 20
330.8393622828052
 30
0.0
 11
407.9543840395011
 21
333.1593826858847
 31
0.0
  0
ARC
  5
F04
330
18
100
AcDbEntity
  8
外形線
100
AcDbCircle
 10
322.5424188241684
 20
321.1593826858848
 30
0.0
 40
12.49999999999989
100
AcDbArc
 50
73.73979529168789
 51
106.2602047083121
  0
LINE
  5
F05
330
18
100
AcDbEntity
  8
外形線
100
AcDbLine
 10
319.0424188241684
 20
333.1593826858847
 30
0.0
 11
326.0424188241684
 21
333.1593826858847
 31
0.0
  0
LINE
  5
F06
330
18
100
AcDbEntity
  8
外形線
100
AcDbLine
 10
319.0424188241684
 20
328.1593826858847
 30
0.0
 11
326.0424188241684
 21
328.1593826858847
 31
0.0
  0
LINE
  5
F07
330
18
100
AcDbEntity
  8
外形線
100
AcDbLine
 10
325.5424188241684
 20
327.6593826858847
 30
0.0
 11
326.0424188241684
 21
328.1593826858847
 31
0.0
  0
LINE
  5
F08
330
18
100
AcDbEntity
  8
外形線
100
AcDbLine
 10
319.0424188241684
 20
327.6593826858847
 30
0.0
 11
326.0424188241684
 21
327.6593826858847
 31
0.0
  0
LINE
  5
F09
330
18
100
AcDbEntity
  8
外形線
100
AcDbLine
 10
319.0424188241684
 20
328.1593826858847
 30
0.0
 11
319.5424188241684
 21
327.6593826858847
 31
0.0
  0
LINE
  5
F0A
330
18
100
AcDbEntity
  8
外形線
100
AcDbLine
 10
318.5424188241684
 20
327.1593826858847
 30
0.0
 11
318.5424188241683
 21
325.6679043128827
 31
0.0
  0
ARC
  5
F0B
330
18
100
AcDbEntity
  8
外形線
100
AcDbCircle
 10
319.0424188241684
 20
327.1593826858847
 30
0.0
 40
0.5
100
AcDbArc
 50
90.0
 51
180.0
  0
LINE
  5
F0C
330
18
100
AcDbEntity
  8
寸法線
 62
     2
100
AcDbLine
 10
321.7803046891146
 20
328.1593826858848
 30
0.0
 11
319.0424188241683
 21
332.9015401092963
 31
0.0
  0
LINE
  5
F0D
330
18
100
AcDbEntity
  8
寸法線
 62
     2
100
AcDbLine
 10
322.5424188241685
 20
328.8393622828051
 30
0.0
 11
320.0482538815457
 21
333.1593826858847
 31
0.0
  0
LINE
  5
F0E
330
18
100
AcDbEntity
  8
寸法線
 62
     2
100
AcDbLine
 10
319.0424188241684
 20
329.1483085677088
 30
0.0
 11
321.3582135460369
 21
333.1593826858847
 31
0.0
  0
LINE
  5
F0F
330
18
100
AcDbEntity
  8
寸法線
 62
     2
100
AcDbLine
 10
320.7744696317373
 20
328.1483085677088
 30
0.0
 11
322.5424188241685
 21
331.2104863942
 31
0.0
  0
LINE
  5
F10
330
18
100
AcDbEntity
  8
寸法線
 62
     2
100
AcDbLine
 10
319.6261627384679
 20
328.1593826858848
 30
0.0
 11
322.512914084416
 21
333.1593826858847
 31
0.0
  0
LINE
  5
F11
330
18
100
AcDbEntity
  8
寸法線
 62
     2
100
AcDbLine
 10
319.4709036123562
 20
328.1593826858848
 30
0.0
 11
319.0424188241684
 21
328.9015401092964
 31
0.0
  0
LINE
  5
F12
330
18
100
AcDbEntity
  8
寸法線
 62
     2
100
AcDbLine
 10
320.6319977958453
 20
328.1483085677088
 30
0.0
 11
319.0424188241684
 21
330.9015401092964
 31
0.0
  0
LINE
  5
F13
330
18
100
AcDbEntity
  8
寸法線
 62
     2
100
AcDbLine
 10
319.0424188241684
 20
331.1483085677086
 30
0.0
 11
320.2035130076576
 21
333.1593826858847
 31
0.0
  0
LINE
  5
F14
330
18
100
AcDbEntity
  8
寸法線
 62
     2
100
AcDbLine
 10
319.0424188241682
 20
333.1483085677086
 30
0.0
 11
319.0488124692783
 21
333.1593826858847
 31
0.0
  0
LINE
  5
F15
330
18
100
AcDbEntity
  8
外形線
100
AcDbLine
 10
319.0424188241684
 20
333.1593826858847
 30
0.0
 11
319.0424188241684
 21
328.1593826858847
 31
0.0
  0
LINE
  5
F16
330
18
100
AcDbEntity
  8
寸法線
 62
     2
100
AcDbLine
 10
322.5424188241684
 20
332.8393622828051
 30
0.0
 11
322.3576549583042
 21
333.1593826858847
 31
0.0
  0
LINE
  5
F17
330
18
100
AcDbEntity
  8
寸法線
 62
     2
100
AcDbLine
 10
322.5424188241684
 20
330.8393622828052
 30
0.0
 11
321.2029544199249
 21
333.1593826858847
 31
0.0
  0
LINE
  5
F18
330
18
100
AcDbEntity
  8
寸法線
 62
     2
100
AcDbLine
 10
321.9355638152264
 20
328.1593826858848
 30
0.0
 11
322.5424188241684
 21
329.2104863941999
 31
0.0
  0
LINE
  5
F19
330
18
100
AcDbEntity
  8
外形線
100
AcDbLine
 10
326.5424188241684
 20
327.1593826858847
 30
0.0
 11
326.5424188241684
 21
325.6679043128827
 31
0.0
  0
ARC
  5
F1A
330
18
100
AcDbEntity
  8
外形線
100
AcDbCircle
 10
326.0424188241684
 20
327.1593826858847
 30
0.0
 40
0.5
100
AcDbArc
 50
0.0
 51
90.0
  0
LINE
  5
F1B
330
18
100
AcDbEntity
  8
外形線
100
AcDbLine
 10
326.0424188241684
 20
333.1593826858847
 30
0.0
 11
326.0424188241684
 21
328.1593826858847
 31
0.0
  0
LINE
  5
F1C
330
18
100
AcDbEntity
  8
外形線
100
AcDbLine
 10
325.0424188241684
 20
234.4093826858847
 30
0.0
 11
325.0424188241684
 21
211.6593826858847
 31
0.0
  0
LINE
  5
F1D
330
18
100
AcDbEntity
  8
外形線
100
AcDbLine
 10
320.0424188241685
 20
234.4093826858847
 30
0.0
 11
320.0424188241685
 21
211.6593826858847
 31
0.0
  0
LINE
  5
F1E
330
18
100
AcDbEntity
  8
外形線
100
AcDbLine
 10
324.7924188241684
 20
208.1593826858847
 30
0.0
 11
323.8424188241684
 21
203.6593826858847
 31
0.0
  0
LINE
  5
F1F
330
18
100
AcDbEntity
  8
外形線
100
AcDbLine
 10
320.2924188241684
 20
208.1593826858847
 30
0.0
 11
321.2424188241684
 21
203.6593826858847
 31
0.0
  0
POINT
  5
F20
330
18
100
AcDbEntity
  8
DEFPOINTS
  6
ByBlock
 62
     0
100
AcDbPoint
 10
322.5424188241684
 20
202.6593826858847
 30
0.0
  0
LINE
  5
F22
330
18
100
AcDbEntity
  8
外形線
100
AcDbLine
 10
321.2424188241684
 20
203.6593826858847
 30
0.0
 11
323.8424188241684
 21
203.6593826858847
 31
0.0
  0
LINE
  5
F23
330
18
100
AcDbEntity
  8
外形線
100
AcDbLine
 10
320.0424188241685
 20
211.6593826858847
 30
0.0
 11
325.0424188241684
 21
211.6593826858847
 31
0.0
  0
LINE
  5
F25
330
18
100
AcDbEntity
  8
外形線
100
AcDbLine
 10
320.0424188241684
 20
211.4593826858847
 30
0.0
 11
325.0424188241684
 21
211.4593826858847
 31
0.0
  0
LINE
  5
F26
330
18
100
AcDbEntity
  8
外形線
100
AcDbLine
 10
320.2924188241684
 20
208.1593826858847
 30
0.0
 11
324.7924188241684
 21
208.1593826858847
 31
0.0
  0
LINE
  5
F27
330
18
100
AcDbEntity
  8
外形線
100
AcDbLine
 10
320.0424188241684
 20
208.3593826858847
 30
0.0
 11
325.0424188241684
 21
208.3593826858847
 31
0.0
  0
LINE
  5
F28
330
18
100
AcDbEntity
  8
外形線
100
AcDbLine
 10
320.2924188241684
 20
211.6593826858847
 30
0.0
 11
320.0424188241684
 21
211.4593826858847
 31
0.0
  0
LINE
  5
F29
330
18
100
AcDbEntity
  8
外形線
100
AcDbLine
 10
320.0424188241684
 20
208.3593826858847
 30
0.0
 11
320.2924188241684
 21
208.1593826858847
 31
0.0
  0
LINE
  5
F2A
330
18
100
AcDbEntity
  8
外形線
100
AcDbLine
 10
320.0424188241684
 20
211.4593826858847
 30
0.0
 11
320.0424188241684
 21
208.3593826858847
 31
0.0
  0
LINE
  5
F2B
330
18
100
AcDbEntity
  8
外形線
100
AcDbLine
 10
324.7924188241684
 20
211.6593826858847
 30
0.0
 11
325.0424188241684
 21
211.4593826858847
 31
0.0
  0
LINE
  5
F2C
330
18
100
AcDbEntity
  8
外形線
100
AcDbLine
 10
325.0424188241684
 20
208.3593826858847
 30
0.0
 11
324.7924188241684
 21
208.1593826858847
 31
0.0
  0
LINE
  5
F2D
330
18
100
AcDbEntity
  8
外形線
100
AcDbLine
 10
325.0424188241684
 20
211.4593826858847
 30
0.0
 11
325.0424188241684
 21
208.3593826858847
 31
0.0
  0
LINE
  5
F2E
330
18
100
AcDbEntity
  8
外形線
100
AcDbLine
 10
318.5424188241684
 20
259.6508610588866
 30
0.0
 11
318.5424188241684
 21
239.4093826858847
 31
0.0
  0
LINE
  5
F2F
330
18
100
AcDbEntity
  8
外形線
100
AcDbLine
 10
326.5424188241684
 20
259.6508610588866
 30
0.0
 11
326.5424188241685
 21
239.4093826858847
 31
0.0
  0
LINE
  5
F30
330
18
100
AcDbEntity
  8
外形線
 62
     4
100
AcDbLine
 10
318.6424188241685
 20
234.7093826858847
 30
0.0
 11
326.4424188241684
 21
234.7093826858847
 31
0.0
  0
LINE
  5
F31
330
18
100
AcDbEntity
  8
外形線
100
AcDbLine
 10
318.9424188241685
 20
234.4093826858847
 30
0.0
 11
326.1424188241684
 21
234.4093826858847
 31
0.0
  0
LINE
  5
F32
330
18
100
AcDbEntity
  8
外形線
100
AcDbLine
 10
318.5424188241684
 20
239.4093826858847
 30
0.0
 11
326.5424188241685
 21
239.4093826858847
 31
0.0
  0
LINE
  5
F33
330
18
100
AcDbEntity
  8
外形線
100
AcDbLine
 10
318.6424188241685
 20
239.4093826858847
 30
0.0
 11
318.6424188241685
 21
234.7093826858847
 31
0.0
  0
LINE
  5
F34
330
18
100
AcDbEntity
  8
外形線
100
AcDbLine
 10
318.6424188241685
 20
234.7093826858847
 30
0.0
 11
318.9424188241685
 21
234.4093826858847
 31
0.0
  0
LINE
  5
F35
330
18
100
AcDbEntity
  8
外形線
100
AcDbLine
 10
326.4424188241684
 20
239.4093826858847
 30
0.0
 11
326.4424188241684
 21
234.7093826858847
 31
0.0
  0
LINE
  5
F36
330
18
100
AcDbEntity
  8
外形線
100
AcDbLine
 10
326.1424188241684
 20
234.4093826858847
 30
0.0
 11
326.4424188241684
 21
234.7093826858847
 31
0.0
  0
CIRCLE
  5
FFF
330
18
100
AcDbEntity
  8
外形線
100
AcDbCircle
 10
322.5424188241684
 20
292.6593826858847
 30
0.0
 40
15.5
  0
CIRCLE
  5
100D
330
18
100
AcDbEntity
  8
外形線
100
AcDbCircle
 10
322.5424188241684
 20
292.6593826858847
 30
0.0
 40
29.0
  0
LINE
  5
101C
330
18
100
AcDbEntity
  8
目盛
100
AcDbLine
 10
322.5424188241684
 20
321.6593826858847
 30
0.0
 11
322.5424188241684
 21
316.9093826858847
 31
0.0
  0
LINE
  5
101D
330
18
100
AcDbEntity
  8
目盛
100
AcDbLine
 10
324.3633438905185
 20
321.6021578103046
 30
0.0
 11
324.1906699618129
 21
318.8575843071268
 31
0.0
  0
LINE
  5
101E
330
18
100
AcDbEntity
  8
目盛
100
AcDbLine
 10
326.1770825975333
 20
321.4307090240046
 30
0.0
 11
325.8324162052314
 21
318.7023935953897
 31
0.0
  0
LINE
  5
101F
330
18
100
AcDbEntity
  8
目盛
100
AcDbLine
 10
327.9764769471544
 20
321.1457129570167
 30
0.0
 11
327.4611783320437
 21
318.4444230175127
 31
0.0
  0
LINE
  5
1020
330
18
100
AcDbEntity
  8
目盛
100
AcDbLine
 10
329.7544255519492
 20
320.7482943586149
 30
0.0
 11
329.0705283622458
 21
318.0846906655113
 31
0.0
  0
LINE
  5
1022
330
18
100
AcDbEntity
  8
目盛
100
AcDbLine
 10
315.3304120963876
 20
320.7482943586149
 30
0.0
 11
316.0143092860911
 21
318.0846906655113
 31
0.0
  0
LINE
  5
1023
330
18
100
AcDbEntity
  8
目盛
100
AcDbLine
 10
317.1083607011825
 20
321.1457129570167
 30
0.0
 11
317.6236593162932
 21
318.4444230175127
 31
0.0
  0
LINE
  5
1024
330
18
100
AcDbEntity
  8
目盛
100
AcDbLine
 10
318.9077550508037
 20
321.4307090240045
 30
0.0
 11
319.2524214431054
 21
318.7023935953896
 31
0.0
  0
LINE
  5
1025
330
18
100
AcDbEntity
  8
目盛
100
AcDbLine
 10
313.5809259872949
 20
320.2400216584441
 30
0.0
 11
315.048756710576
 21
315.7225032060421
 31
0.0
  0
LINE
  5
1026
330
18
100
AcDbEntity
  8
目盛
100
AcDbLine
 10
320.7214937578184
 20
321.6021578103045
 30
0.0
 11
320.894167686524
 21
318.8575843071267
 31
0.0
  0
LINE
  5
1027
330
18
100
AcDbEntity
  8
目盛
100
AcDbLine
 10
307.0034417697775
 20
317.1448925254432
 30
0.0
 11
308.4769654559698
 21
314.8229907303127
 31
0.0
  0
LINE
  5
1028
330
18
100
AcDbEntity
  8
目盛
100
AcDbLine
 10
308.5715622752186
 20
318.0722764071568
 30
0.0
 11
309.8963848789984
 21
315.6624330370361
 31
0.0
  0
LINE
  5
1029
330
18
100
AcDbEntity
  8
目盛
100
AcDbLine
 10
310.1948193687813
 20
318.8993672073993
 30
0.0
 11
311.3657124205853
 21
316.4110928131178
 31
0.0
  0
LINE
  5
102A
330
18
100
AcDbEntity
  8
目盛
100
AcDbLine
 10
305.4966465076867
 20
316.1208755227582
 30
0.0
 11
308.2886264560759
 21
312.2780447994772
 31
0.0
  0
LINE
  5
102B
330
18
100
AcDbEntity
  8
目盛
100
AcDbLine
 10
311.8668067963128
 20
319.622900776644
 30
0.0
 11
312.8791493161956
 21
317.0660154404513
 31
0.0
  0
LINE
  5
102C
330
18
100
AcDbEntity
  8
目盛
100
AcDbLine
 10
300.1975347836705
 20
311.1446783885967
 30
0.0
 11
302.3164462013041
 21
309.3917624167878
 31
0.0
  0
LINE
  5
102D
330
18
100
AcDbEntity
  8
目盛
100
AcDbLine
 10
301.4023286289475
 20
312.5112487578167
 30
0.0
 11
303.4069923543564
 21
310.6287442165128
 31
0.0
  0
LINE
  5
102E
330
18
100
AcDbEntity
  8
目盛
100
AcDbLine
 10
302.6905527522365
 20
313.7994728811056
 30
0.0
 11
304.5730572935404
 21
311.7948091556968
 31
0.0
  0
LINE
  5
102F
330
18
100
AcDbEntity
  8
目盛
100
AcDbLine
 10
299.0809259872949
 20
309.7051550023664
 30
0.0
 11
302.923756710576
 21
306.9131750539772
 31
0.0
  0
LINE
  5
1030
330
18
100
AcDbEntity
  8
目盛
100
AcDbLine
 10
304.0571231214565
 20
315.0042667263826
 30
0.0
 11
305.8100390932653
 21
312.8853553087491
 31
0.0
  0
LINE
  5
1031
330
18
100
AcDbEntity
  8
目盛
100
AcDbLine
 10
295.5789007334091
 20
303.3349947137403
 30
0.0
 11
298.1357860696018
 21
302.3226521938576
 31
0.0
  0
LINE
  5
1032
330
18
100
AcDbEntity
  8
目盛
100
AcDbLine
 10
296.3024343026538
 20
305.0069821412719
 30
0.0
 11
298.7907086969354
 21
303.8360890894679
 31
0.0
  0
LINE
  5
1033
330
18
100
AcDbEntity
  8
目盛
100
AcDbLine
 10
297.1295251028963
 20
306.6302392348344
 30
0.0
 11
299.539368473017
 21
305.3054166310547
 31
0.0
  0
LINE
  5
1034
330
18
100
AcDbEntity
  8
目盛
100
AcDbLine
 10
294.961779851609
 20
301.6208755227582
 30
0.0
 11
299.4792983040109
 21
300.1530447994772
 31
0.0
  0
LINE
  5
1035
330
18
100
AcDbEntity
  8
目盛
100
AcDbLine
 10
298.05690898461
 20
308.1983597402756
 30
0.0
 11
300.3788107797405
 21
306.7248360540834
 31
0.0
  0
LINE
  5
1036
330
18
100
AcDbEntity
  8
目盛
100
AcDbLine
 10
293.5996436997485
 20
294.4803077522347
 30
0.0
 11
296.3442172029263
 21
294.3076338235292
 31
0.0
  0
LINE
  5
1037
330
18
100
AcDbEntity
  8
目盛
100
AcDbLine
 10
293.7710924860485
 20
296.2940464592496
 30
0.0
 11
296.4994079146634
 21
295.9493800669477
 31
0.0
  0
LINE
  5
1038
330
18
100
AcDbEntity
  8
目盛
100
AcDbLine
 10
294.0560885530364
 20
298.0934408088707
 30
0.0
 11
296.7573784925404
 21
297.5781421937599
 31
0.0
  0
LINE
  5
1039
330
18
100
AcDbEntity
  8
目盛
100
AcDbLine
 10
293.5424188241684
 20
292.6593826858847
 30
0.0
 11
298.2924188241684
 21
292.6593826858847
 31
0.0
  0
LINE
  5
103A
330
18
100
AcDbEntity
  8
目盛
100
AcDbLine
 10
294.4535071514382
 20
299.8713894136655
 30
0.0
 11
297.1171108445418
 21
299.1874922239621
 31
0.0
  0
LINE
  5
103B
330
18
100
AcDbEntity
  8
目盛
100
AcDbLine
 10
294.4535071514381
 20
285.4473759581039
 30
0.0
 11
297.1171108445419
 21
286.1312731478073
 31
0.0
  0
LINE
  5
103C
330
18
100
AcDbEntity
  8
目盛
100
AcDbLine
 10
294.0560885530363
 20
287.2253245628987
 30
0.0
 11
296.7573784925404
 21
287.7406231780095
 31
0.0
  0
LINE
  5
103D
330
18
100
AcDbEntity
  8
目盛
100
AcDbLine
 10
293.7710924860486
 20
289.0247189125199
 30
0.0
 11
296.4994079146634
 21
289.3693853048217
 31
0.0
  0
LINE
  5
103E
330
18
100
AcDbEntity
  8
目盛
100
AcDbLine
 10
294.961779851609
 20
283.6978898490112
 30
0.0
 11
299.479298304011
 21
285.1657205722922
 31
0.0
  0
LINE
  5
103F
330
18
100
AcDbEntity
  8
目盛
100
AcDbLine
 10
293.5996436997486
 20
290.8384576195347
 30
0.0
 11
296.3442172029263
 21
291.0111315482402
 31
0.0
  0
LINE
  5
1040
330
18
100
AcDbEntity
  8
目盛
100
AcDbLine
 10
298.05690898461
 20
277.1204056314938
 30
0.0
 11
300.3788107797405
 21
278.593929317686
 31
0.0
  0
LINE
  5
1041
330
18
100
AcDbEntity
  8
目盛
100
AcDbLine
 10
297.1295251028963
 20
278.6885261369349
 30
0.0
 11
299.539368473017
 21
280.0133487407147
 31
0.0
  0
LINE
  5
1042
330
18
100
AcDbEntity
  8
目盛
100
AcDbLine
 10
296.3024343026539
 20
280.3117832304975
 30
0.0
 11
298.7907086969354
 21
281.4826762823015
 31
0.0
  0
LINE
  5
1043
330
18
100
AcDbEntity
  8
目盛
100
AcDbLine
 10
299.0809259872949
 20
275.613610369403
 30
0.0
 11
302.9237567105759
 21
278.4055903177922
 31
0.0
  0
LINE
  5
1044
330
18
100
AcDbEntity
  8
目盛
100
AcDbLine
 10
295.5789007334091
 20
281.9837706580291
 30
0.0
 11
298.1357860696018
 21
282.9961131779119
 31
0.0
  0
LINE
  5
1045
330
18
100
AcDbEntity
  8
目盛
100
AcDbLine
 10
304.0571231214564
 20
270.3144986453868
 30
0.0
 11
305.8100390932652
 21
272.4334100630202
 31
0.0
  0
LINE
  5
1046
330
18
100
AcDbEntity
  8
目盛
100
AcDbLine
 10
302.6905527522363
 20
271.5192924906637
 30
0.0
 11
304.5730572935403
 21
273.5239562160726
 31
0.0
  0
LINE
  5
1047
330
18
100
AcDbEntity
  8
目盛
100
AcDbLine
 10
301.4023286289474
 20
272.8075166139527
 30
0.0
 11
303.4069923543563
 21
274.6900211552566
 31
0.0
  0
LINE
  5
1048
330
18
100
AcDbEntity
  8
目盛
100
AcDbLine
 10
305.4966465076867
 20
269.1978898490112
 30
0.0
 11
308.2886264560759
 21
273.0407205722922
 31
0.0
  0
LINE
  5
1049
330
18
100
AcDbEntity
  8
目盛
100
AcDbLine
 10
300.1975347836705
 20
274.1740869831727
 30
0.0
 11
302.3164462013038
 21
275.9270029549816
 31
0.0
  0
LINE
  5
104A
330
18
100
AcDbEntity
  8
目盛
100
AcDbLine
 10
311.8668067963128
 20
265.6958645951254
 30
0.0
 11
312.8791493161955
 21
268.2527499313181
 31
0.0
  0
LINE
  5
104B
330
18
100
AcDbEntity
  8
目盛
100
AcDbLine
 10
310.1948193687812
 20
266.41939816437
 30
0.0
 11
311.3657124205852
 21
268.9076725586517
 31
0.0
  0
LINE
  5
104C
330
18
100
AcDbEntity
  8
目盛
100
AcDbLine
 10
308.5715622752186
 20
267.2464889646126
 30
0.0
 11
309.8963848789983
 21
269.6563323347333
 31
0.0
  0
LINE
  5
104D
330
18
100
AcDbEntity
  8
目盛
100
AcDbLine
 10
313.5809259872949
 20
265.0787437133252
 30
0.0
 11
315.0487567105759
 21
269.5962621657272
 31
0.0
  0
LINE
  5
104E
330
18
100
AcDbEntity
  8
目盛
100
AcDbLine
 10
307.0034417697775
 20
268.1738728463263
 30
0.0
 11
308.4769654559697
 21
270.4957746414568
 31
0.0
  0
LINE
  5
104F
330
18
100
AcDbEntity
  8
目盛
100
AcDbLine
 10
320.7214937578183
 20
263.7166075614648
 30
0.0
 11
320.8941676865238
 21
266.4611810646426
 31
0.0
  0
LINE
  5
1050
330
18
100
AcDbEntity
  8
目盛
100
AcDbLine
 10
318.9077550508035
 20
263.8880563477648
 30
0.0
 11
319.2524214431053
 21
266.6163717763797
 31
0.0
  0
LINE
  5
1051
330
18
100
AcDbEntity
  8
目盛
100
AcDbLine
 10
317.1083607011823
 20
264.1730524147527
 30
0.0
 11
317.6236593162931
 21
266.8743423542567
 31
0.0
  0
LINE
  5
1052
330
18
100
AcDbEntity
  8
目盛
100
AcDbLine
 10
322.5424188241683
 20
263.6593826858848
 30
0.0
 11
322.5424188241683
 21
268.4093826858847
 31
0.0
  0
LINE
  5
1053
330
18
100
AcDbEntity
  8
目盛
100
AcDbLine
 10
315.3304120963875
 20
264.5704710131545
 30
0.0
 11
316.0143092860909
 21
267.2340747062582
 31
0.0
  0
LINE
  5
1054
330
18
100
AcDbEntity
  8
目盛
100
AcDbLine
 10
329.7544255519492
 20
264.5704710131544
 30
0.0
 11
329.0705283622458
 21
267.2340747062582
 31
0.0
  0
LINE
  5
1055
330
18
100
AcDbEntity
  8
目盛
100
AcDbLine
 10
327.9764769471544
 20
264.1730524147527
 30
0.0
 11
327.4611783320437
 21
266.8743423542567
 31
0.0
  0
LINE
  5
1056
330
18
100
AcDbEntity
  8
目盛
100
AcDbLine
 10
326.1770825975333
 20
263.8880563477648
 30
0.0
 11
325.8324162052314
 21
266.6163717763796
 31
0.0
  0
LINE
  5
1057
330
18
100
AcDbEntity
  8
目盛
100
AcDbLine
 10
331.5039116610419
 20
265.0787437133252
 30
0.0
 11
330.0360809377609
 21
269.5962621657272
 31
0.0
  0
LINE
  5
1058
330
18
100
AcDbEntity
  8
目盛
100
AcDbLine
 10
324.3633438905185
 20
263.7166075614649
 30
0.0
 11
324.1906699618129
 21
266.4611810646426
 31
0.0
  0
LINE
  5
1059
330
18
100
AcDbEntity
  8
目盛
100
AcDbLine
 10
338.0813958785593
 20
268.1738728463262
 30
0.0
 11
336.607872192367
 21
270.4957746414567
 31
0.0
  0
LINE
  5
105A
330
18
100
AcDbEntity
  8
目盛
100
AcDbLine
 10
336.5132753731182
 20
267.2464889646125
 30
0.0
 11
335.1884527693384
 21
269.6563323347332
 31
0.0
  0
LINE
  5
105B
330
18
100
AcDbEntity
  8
目盛
100
AcDbLine
 10
334.8900182795556
 20
266.41939816437
 30
0.0
 11
333.7191252277516
 21
268.9076725586516
 31
0.0
  0
LINE
  5
105C
330
18
100
AcDbEntity
  8
目盛
100
AcDbLine
 10
339.5881911406501
 20
269.1978898490112
 30
0.0
 11
336.7962111922609
 21
273.0407205722922
 31
0.0
  0
LINE
  5
105D
330
18
100
AcDbEntity
  8
目盛
100
AcDbLine
 10
333.2180308520241
 20
265.6958645951254
 30
0.0
 11
332.2056883321412
 21
268.252749931318
 31
0.0
  0
LINE
  5
105E
330
18
100
AcDbEntity
  8
目盛
100
AcDbLine
 10
344.8873028646663
 20
274.1740869831726
 30
0.0
 11
342.7683914470329
 21
275.9270029549815
 31
0.0
  0
LINE
  5
105F
330
18
100
AcDbEntity
  8
目盛
100
AcDbLine
 10
343.6825090193894
 20
272.8075166139525
 30
0.0
 11
341.6778452939805
 21
274.6900211552565
 31
0.0
  0
LINE
  5
1060
330
18
100
AcDbEntity
  8
目盛
100
AcDbLine
 10
342.3942848961003
 20
271.5192924906637
 30
0.0
 11
340.5117803547964
 21
273.5239562160726
 31
0.0
  0
LINE
  5
1061
330
18
100
AcDbEntity
  8
目盛
100
AcDbLine
 10
346.0039116610419
 20
275.6136103694029
 30
0.0
 11
342.1610809377609
 21
278.4055903177922
 31
0.0
  0
LINE
  5
1062
330
18
100
AcDbEntity
  8
目盛
100
AcDbLine
 10
341.0277145268803
 20
270.3144986453867
 30
0.0
 11
339.2747985550715
 21
272.4334100630201
 31
0.0
  0
LINE
  5
1063
330
18
100
AcDbEntity
  8
目盛
100
AcDbLine
 10
349.5059369149277
 20
281.9837706580291
 30
0.0
 11
346.949051578735
 21
282.9961131779119
 31
0.0
  0
LINE
  5
1064
330
18
100
AcDbEntity
  8
目盛
100
AcDbLine
 10
348.782403345683
 20
280.3117832304975
 30
0.0
 11
346.2941289514014
 21
281.4826762823015
 31
0.0
  0
LINE
  5
1065
330
18
100
AcDbEntity
  8
目盛
100
AcDbLine
 10
347.9553125454405
 20
278.6885261369349
 30
0.0
 11
345.5454691753198
 21
280.0133487407147
 31
0.0
  0
LINE
  5
1066
330
18
100
AcDbEntity
  8
目盛
100
AcDbLine
 10
350.1230577967278
 20
283.6978898490113
 30
0.0
 11
345.6055393443259
 21
285.1657205722923
 31
0.0
  0
LINE
  5
1067
330
18
100
AcDbEntity
  8
目盛
100
AcDbLine
 10
347.0279286637268
 20
277.1204056314938
 30
0.0
 11
344.7060268685963
 21
278.593929317686
 31
0.0
  0
LINE
  5
1068
330
18
100
AcDbEntity
  8
目盛
100
AcDbLine
 10
351.4851939485883
 20
290.8384576195345
 30
0.0
 11
348.7406204454105
 21
291.0111315482401
 31
0.0
  0
LINE
  5
1069
330
18
100
AcDbEntity
  8
目盛
100
AcDbLine
 10
351.3137451622883
 20
289.0247189125197
 30
0.0
 11
348.5854297336735
 21
289.3693853048216
 31
0.0
  0
LINE
  5
106A
330
18
100
AcDbEntity
  8
目盛
100
AcDbLine
 10
351.0287490953004
 20
287.2253245628986
 30
0.0
 11
348.3274591557965
 21
287.7406231780094
 31
0.0
  0
LINE
  5
106B
330
18
100
AcDbEntity
  8
目盛
100
AcDbLine
 10
351.5424188241684
 20
292.6593826858846
 30
0.0
 11
346.7924188241684
 21
292.6593826858846
 31
0.0
  0
LINE
  5
106C
330
18
100
AcDbEntity
  8
目盛
100
AcDbLine
 10
350.6313304968987
 20
285.4473759581038
 30
0.0
 11
347.967726803795
 21
286.1312731478072
 31
0.0
  0
LINE
  5
106D
330
18
100
AcDbEntity
  8
目盛
100
AcDbLine
 10
350.6313304968987
 20
299.8713894136655
 30
0.0
 11
347.9677268037949
 21
299.1874922239621
 31
0.0
  0
LINE
  5
106E
330
18
100
AcDbEntity
  8
目盛
100
AcDbLine
 10
351.0287490953004
 20
298.0934408088706
 30
0.0
 11
348.3274591557964
 21
297.5781421937599
 31
0.0
  0
LINE
  5
106F
330
18
100
AcDbEntity
  8
目盛
100
AcDbLine
 10
351.3137451622882
 20
296.2940464592495
 30
0.0
 11
348.5854297336734
 21
295.9493800669477
 31
0.0
  0
LINE
  5
1070
330
18
100
AcDbEntity
  8
目盛
100
AcDbLine
 10
350.1230577967278
 20
301.6208755227582
 30
0.0
 11
345.6055393443258
 21
300.1530447994771
 31
0.0
  0
LINE
  5
1071
330
18
100
AcDbEntity
  8
目盛
100
AcDbLine
 10
351.4851939485882
 20
294.4803077522347
 30
0.0
 11
348.7406204454105
 21
294.3076338235292
 31
0.0
  0
LINE
  5
1072
330
18
100
AcDbEntity
  8
目盛
100
AcDbLine
 10
347.0279286637269
 20
308.1983597402756
 30
0.0
 11
344.7060268685963
 21
306.7248360540832
 31
0.0
  0
LINE
  5
1073
330
18
100
AcDbEntity
  8
目盛
100
AcDbLine
 10
347.9553125454405
 20
306.6302392348344
 30
0.0
 11
345.5454691753199
 21
305.3054166310547
 31
0.0
  0
LINE
  5
1074
330
18
100
AcDbEntity
  8
目盛
100
AcDbLine
 10
348.782403345683
 20
305.0069821412717
 30
0.0
 11
346.2941289514014
 21
303.8360890894678
 31
0.0
  0
LINE
  5
1075
330
18
100
AcDbEntity
  8
目盛
100
AcDbLine
 10
346.0039116610419
 20
309.7051550023664
 30
0.0
 11
342.1610809377609
 21
306.9131750539772
 31
0.0
  0
LINE
  5
1076
330
18
100
AcDbEntity
  8
目盛
100
AcDbLine
 10
349.5059369149277
 20
303.3349947137403
 30
0.0
 11
346.9490515787351
 21
302.3226521938574
 31
0.0
  0
LINE
  5
1077
330
18
100
AcDbEntity
  8
目盛
100
AcDbLine
 10
341.0277145268803
 20
315.0042667263826
 30
0.0
 11
339.2747985550715
 21
312.8853553087491
 31
0.0
  0
LINE
  5
1078
330
18
100
AcDbEntity
  8
目盛
100
AcDbLine
 10
342.3942848961004
 20
313.7994728811057
 30
0.0
 11
340.5117803547964
 21
311.7948091556967
 31
0.0
  0
LINE
  5
1079
330
18
100
AcDbEntity
  8
目盛
100
AcDbLine
 10
343.6825090193893
 20
312.5112487578166
 30
0.0
 11
341.6778452939805
 21
310.6287442165128
 31
0.0
  0
LINE
  5
107A
330
18
100
AcDbEntity
  8
目盛
100
AcDbLine
 10
339.5881911406501
 20
316.1208755227582
 30
0.0
 11
336.7962111922608
 21
312.2780447994771
 31
0.0
  0
LINE
  5
107B
330
18
100
AcDbEntity
  8
目盛
100
AcDbLine
 10
344.8873028646663
 20
311.1446783885967
 30
0.0
 11
342.7683914470329
 21
309.3917624167878
 31
0.0
  0
LINE
  5
107C
330
18
100
AcDbEntity
  8
目盛
100
AcDbLine
 10
333.2180308520241
 20
319.622900776644
 30
0.0
 11
332.2056883321413
 21
317.0660154404513
 31
0.0
  0
LINE
  5
107D
330
18
100
AcDbEntity
  8
目盛
100
AcDbLine
 10
334.8900182795556
 20
318.8993672073993
 30
0.0
 11
333.7191252277516
 21
316.4110928131177
 31
0.0
  0
LINE
  5
107E
330
18
100
AcDbEntity
  8
目盛
100
AcDbLine
 10
336.5132753731182
 20
318.0722764071568
 30
0.0
 11
335.1884527693384
 21
315.6624330370361
 31
0.0
  0
LINE
  5
107F
330
18
100
AcDbEntity
  8
目盛
100
AcDbLine
 10
331.5039116610419
 20
320.2400216584441
 30
0.0
 11
330.0360809377609
 21
315.7225032060422
 31
0.0
  0
LINE
  5
1080
330
18
100
AcDbEntity
  8
目盛
100
AcDbLine
 10
338.0813958785594
 20
317.1448925254431
 30
0.0
 11
336.6078721923671
 21
314.8229907303126
 31
0.0
  0
TEXT
  5
1085
330
18
100
AcDbEntity
  8
文字
100
AcDbText
 10
321.0430615804788
 20
312.9227674269007
 30
0.0
 40
3.0
  1
0
  7
STYLE3
100
AcDbText
  0
TEXT
  5
1086
330
18
100
AcDbEntity
  8
文字
100
AcDbText
 10
321.7925058123879
 20
309.8761497528347
 30
0.0
 40
1.5
  1
0
  7
STYLE3
100
AcDbText
  0
TEXT
  5
1087
330
18
100
AcDbEntity
  8
文字
100
AcDbText
 10
332.0727228282732
 20
308.0312032548061
 30
0.0
 40
3.0
  1
10
  7
STYLE3
100
AcDbText
  0
TEXT
  5
1088
330
18
100
AcDbEntity
  8
文字
100
AcDbText
 10
339.2294897275009
 20
297.8712786858323
 30
0.0
 40
3.0
  1
20
  7
STYLE3
100
AcDbText
  0
TEXT
  5
1089
330
18
100
AcDbEntity
  8
文字
100
AcDbText
 10
307.7384762836866
 20
308.3995484803238
 30
0.0
 40
3.0
  1
90
  7
STYLE3
100
AcDbText
  0
TEXT
  5
108A
330
18
100
AcDbEntity
  8
文字
100
AcDbText
 10
339.0744826573972
 20
284.2314537517914
 30
0.0
 40
3.0
  1
30
  7
STYLE3
100
AcDbText
  0
TEXT
  5
108B
330
18
100
AcDbEntity
  8
文字
100
AcDbText
 10
332.3145317352054
 20
274.5595121594307
 30
0.0
 40
3.0
  1
40
  7
STYLE3
100
AcDbText
  0
TEXT
  5
108C
330
18
100
AcDbEntity
  8
文字
100
AcDbText
 10
319.624897518191
 20
269.5941656610206
 30
0.0
 40
3.0
  1
50
  7
STYLE3
100
AcDbText
  0
TEXT
  5
108D
330
18
100
AcDbEntity
  8
文字
100
AcDbText
 10
307.377734486381
 20
274.0655678855723
 30
0.0
 40
3.0
  1
60
  7
STYLE3
100
AcDbText
  0
TEXT
  5
108E
330
18
100
AcDbEntity
  8
文字
100
AcDbText
 10
299.7989588430779
 20
283.9686638859299
 30
0.0
 40
3.0
  1
70
  7
STYLE3
100
AcDbText
  0
TEXT
  5
108F
330
18
100
AcDbEntity
  8
文字
100
AcDbText
 10
299.9714379456995
 20
298.364978176568
 30
0.0
 40
3.0
  1
80
  7
STYLE3
100
AcDbText
  0
TEXT
  5
1090
330
18
100
AcDbEntity
  8
文字
100
AcDbText
 10
309.7358593690406
 20
305.4267126724547
 30
0.0
 40
1.5
  1
10
  7
STYLE3
100
AcDbText
  0
TEXT
  5
1091
330
18
100
AcDbEntity
  8
文字
100
AcDbText
 10
303.2210997783521
 20
295.9460322807936
 30
0.0
 40
1.5
  1
20
  7
STYLE3
100
AcDbText
  0
TEXT
  5
1092
330
18
100
AcDbEntity
  8
文字
100
AcDbText
 10
332.4405700138367
 20
305.3106891533645
 30
0.0
 40
1.5
  1
90
  7
STYLE3
100
AcDbText
  0
TEXT
  5
1093
330
18
100
AcDbEntity
  8
文字
100
AcDbText
 10
338.4281378308586
 20
295.2470766204627
 30
0.0
 40
1.5
  1
80
  7
STYLE3
100
AcDbText
  0
TEXT
  5
1094
330
18
100
AcDbEntity
  8
文字
100
AcDbText
 10
338.1491293812094
 20
288.4856081944604
 30
0.0
 40
1.5
  1
70
  7
STYLE3
100
AcDbText
  0
TEXT
  5
1095
330
18
100
AcDbEntity
  8
文字
100
AcDbText
 10
332.0988231716548
 20
278.2119142276684
 30
0.0
 40
1.5
  1
60
  7
STYLE3
100
AcDbText
  0
TEXT
  5
1096
330
18
100
AcDbEntity
  8
文字
100
AcDbText
 10
321.0285783726697
 20
273.9550984587209
 30
0.0
 40
1.5
  1
50
  7
STYLE3
100
AcDbText
  0
TEXT
  5
1097
330
18
100
AcDbEntity
  8
文字
100
AcDbText
 10
309.8664973015957
 20
278.2006496028496
 30
0.0
 40
1.5
  1
40
  7
STYLE3
100
AcDbText
  0
TEXT
  5
1098
330
18
100
AcDbEntity
  8
文字
100
AcDbText
 10
304.1014021053147
 20
287.8255146155297
 30
0.0
 40
1.5
  1
30
  7
STYLE3
100
AcDbText
  0
TEXT
  5
1207
330
18
100
AcDbEntity
  8
文字
100
AcDbText
 10
322.436939640647
 20
283.1675474449885
 30
0.0
 40
1.0
  1
8
  7
STYLE3
100
AcDbText
  0
TEXT
  5
1208
330
18
100
AcDbEntity
  8
文字
100
AcDbText
 10
327.6851105149313
 20
278.6451781559554
 30
0.0
 40
1.0
  1
H
 50
18.23738476941725
  7
STYLE3
100
AcDbText
  0
TEXT
  5
1209
330
18
100
AcDbEntity
  8
文字
100
AcDbText
 10
318.8244672013163
 20
278.6625185640017
 30
0.0
 40
1.0
  1
5
  7
STYLE3
100
AcDbText
  0
TEXT
  5
120A
330
18
100
AcDbEntity
  8
文字
100
AcDbText
 10
316.7209756319441
 20
279.1372565495332
 30
0.0
 40
1.0
  1
4
  7
STYLE3
100
AcDbText
  0
TEXT
  5
120B
330
18
100
AcDbEntity
  8
文字
100
AcDbText
 10
326.8588728730615
 20
278.3262703344911
 30
0.0
 40
1.0
  1
S
 50
16.64756315607699
  7
STYLE3
100
AcDbText
  0
TEXT
  5
120C
330
18
100
AcDbEntity
  8
文字
100
AcDbText
 10
320.9368561870014
 20
279.2598003206247
 30
0.0
 40
1.0
  1
6
  7
STYLE3
100
AcDbText
  0
TEXT
  5
120D
330
18
100
AcDbEntity
  8
文字
100
AcDbText
 10
322.376752708701
 20
280.8639200599139
 30
0.0
 40
1.0
  1
7
  7
STYLE3
100
AcDbText
  0
LINE
  5
120E
330
18
100
AcDbEntity
  8
目盛
100
AcDbLine
 10
323.8599372765702
 20
284.0532419976518
 30
0.0
 11
323.3844090184228
 21
283.8987335004642
 31
0.0
  0
LINE
  5
120F
330
18
100
AcDbEntity
  8
目盛
100
AcDbLine
 10
323.8599372765702
 20
281.1175805510897
 30
0.0
 11
323.3844090184228
 21
281.2720890482772
 31
0.0
  0
LINE
  5
1210
330
18
100
AcDbEntity
  8
目盛
100
AcDbLine
 10
322.1343987725577
 20
278.7425805510898
 30
0.0
 11
321.8405061464114
 21
279.1470890482773
 31
0.0
  0
LINE
  5
1211
330
18
100
AcDbEntity
  8
目盛
100
AcDbLine
 10
319.3424188241684
 20
277.8354112743707
 30
0.0
 11
319.3424188241684
 21
278.3354112743708
 31
0.0
  0
TEXT
  5
1212
330
18
100
AcDbEntity
  8
文字
100
AcDbText
 10
332.4963085526766
 20
281.624108730755
 30
0.0
 40
1.0
  1
R
 50
42.70954987785008
  7
STYLE3
100
AcDbText
  0
TEXT
  5
1213
330
18
100
AcDbEntity
  8
文字
100
AcDbText
 10
331.7797745475149
 20
280.9277828221523
 30
0.0
 40
1.0
  1
P
 50
39.8880959569344
  7
STYLE3
100
AcDbText
  0
TEXT
  5
1214
330
18
100
AcDbEntity
  8
文字
100
AcDbText
 10
330.4261955772898
 20
279.9531778276904
 30
0.0
 40
1.0
  1
K
 50
27.79294973078954
  7
STYLE3
100
AcDbText
  0
TEXT
  5
1215
330
18
100
AcDbEntity
  8
文字
100
AcDbText
 10
329.491931696292
 20
279.4935078230041
 30
0.0
 40
1.0
  1
C
 50
22.33477093476176
  7
STYLE3
100
AcDbText
  0
TEXT
  5
1216
330
18
100
AcDbEntity
  8
文字
100
AcDbText
 10
328.5646548546098
 20
279.0262822429464
 30
0.0
 40
1.0
  1
O
 50
18.40849330041778
  7
STYLE3
100
AcDbText
  0
TEXT
  5
1217
330
18
100
AcDbEntity
  8
文字
100
AcDbText
 10
318.856042385038
 20
285.6131852028456
 30
0.0
 40
1.0
  1
0
  7
STYLE3
100
AcDbText
  0
TEXT
  5
1218
330
18
100
AcDbEntity
  8
文字
100
AcDbText
 10
316.915928610341
 20
284.9374611341612
 30
0.0
 40
1.0
  1
1
  7
STYLE3
100
AcDbText
  0
TEXT
  5
1219
330
18
100
AcDbEntity
  8
文字
100
AcDbText
 10
320.9395421227998
 20
284.8868552223873
 30
0.0
 40
1.0
  1
9
  7
STYLE3
100
AcDbText
  0
LINE
  5
121A
330
18
100
AcDbEntity
  8
目盛
100
AcDbLine
 10
322.1343987725576
 20
286.4282419976518
 30
0.0
 11
321.8405061464114
 21
286.0237335004643
 31
0.0
  0
LINE
  5
121B
330
18
100
AcDbEntity
  8
目盛
100
AcDbLine
 10
319.3424188241684
 20
287.3354112743708
 30
0.0
 11
319.3424188241684
 21
286.8354112743708
 31
0.0
  0
TEXT
  5
121C
330
18
100
AcDbEntity
  8
文字
100
AcDbText
 10
334.7779802313665
 20
283.9822931686048
 30
0.0
 40
1.0
  1
F
 50
51.93911242081387
  7
STYLE3
100
AcDbText
  0
TEXT
  5
121D
330
18
100
AcDbEntity
  8
文字
100
AcDbText
 10
333.9915390913445
 20
283.1725478463996
 30
0.0
 40
1.0
  1
O
 50
44.29712092491818
  7
STYLE3
100
AcDbText
  0
TEXT
  5
121E
330
18
100
AcDbEntity
  8
文字
100
AcDbText
 10
333.2443110114324
 20
282.3489381876069
 30
0.0
 40
1.0
  1
O
 50
44.38534059546582
  7
STYLE3
100
AcDbText
  0
TEXT
  5
121F
330
18
100
AcDbEntity
  8
文字
100
AcDbText
 10
315.5556462633956
 20
283.1352931279997
 30
0.0
 40
1.0
  1
2
  7
STYLE3
100
AcDbText
  0
LINE
  5
1220
330
18
100
AcDbEntity
  8
目盛
100
AcDbLine
 10
316.550438875779
 20
278.7425805510898
 30
0.0
 11
316.8443315019252
 21
279.1470890482772
 31
0.0
  0
LINE
  5
1221
330
18
100
AcDbEntity
  8
目盛
100
AcDbLine
 10
316.550438875779
 20
286.4282419976518
 30
0.0
 11
316.8443315019254
 21
286.0237335004643
 31
0.0
  0
TEXT
  5
1222
330
18
100
AcDbEntity
  8
文字
100
AcDbText
 10
315.526403259362
 20
280.8724513783604
 30
0.0
 40
1.0
  1
3
  7
STYLE3
100
AcDbText
  0
LINE
  5
1223
330
18
100
AcDbEntity
  8
目盛
100
AcDbLine
 10
314.8249003717662
 20
281.1175805510897
 30
0.0
 11
315.3004286299139
 21
281.2720890482772
 31
0.0
  0
LINE
  5
1224
330
18
100
AcDbEntity
  8
目盛
100
AcDbLine
 10
314.8249003717662
 20
284.0532419976518
 30
0.0
 11
315.300428629914
 21
283.8987335004643
 31
0.0
  0
CIRCLE
  5
1225
330
18
100
AcDbEntity
  8
外形線
100
AcDbCircle
 10
319.3424188241684
 20
282.5854112743708
 30
0.0
 40
4.75
  0
LINE
  5
1226
330
18
100
AcDbEntity
  8
中心線
 48
0.2
100
AcDbLine
 10
319.3424188241684
 20
290.4486186930925
 30
0.0
 11
319.3424188241684
 21
274.759024671057
 31
0.0
  0
LINE
  5
1227
330
18
100
AcDbEntity
  8
中心線
 48
0.2
100
AcDbLine
 10
312.3831436372386
 20
282.5854112743708
 30
0.0
 11
326.9111310852188
 21
282.5854112743708
 31
0.0
  0
TEXT
  5
1229
330
18
100
AcDbEntity
  8
文字
100
AcDbText
 10
316.2642623227845
 20
298.0560580217399
 30
0.0
 40
1.0
  1
MADE  IN  JAPAN
  7
STYLE3
100
AcDbText
  0
TEXT
  5
122A
330
18
100
AcDbEntity
  8
文字
100
AcDbText
 10
319.8892961905993
 20
295.9613759074528
 30
0.0
 40
1.0
  1
NO.207
  7
STYLE3
100
AcDbText
  0
HATCH
  5
122B
330
18
100
AcDbEntity
  8
ROGO
 62
     4
100
AcDbHatch
 10
0.0
 20
0.0
 30
0.0
210
0.0
220
0.0
230
1.0
  2
SOLID
 70
     1
 71
     0
 91
        1
 92
        7
 72
     0
 73
     1
 93
        4
 10
315.9066441605924
 20
300.1781407483765
 10
315.8135931251704
 20
299.9724705420852
 10
327.9928856937535
 20
299.9724705420852
 10
328.0954395011396
 20
300.1781407483765
 97
        0
 75
     0
 76
     1
 47
0.0514683685270805
 98
        1
 10
323.6028794214807
 20
300.1237442841717
450
        0
451
        0
460
0.0
461
0.0
452
        0
462
0.0
453
        0
470

  0
HATCH
  5
122C
330
18
100
AcDbEntity
  8
ROGO
 62
     4
100
AcDbHatch
 10
0.0
 20
0.0
 30
0.0
210
0.0
220
0.0
230
1.0
  2
SOLID
 70
     1
 71
     1
 91
        1
 92
        5
 93
        8
 72
     1
 10
324.2663025248327
 20
301.5357742747743
 11
324.5099218253734
 21
302.0243493269912
 72
     1
 10
324.5099218253734
 20
302.0243493269912
 11
323.1948854832672
 21
302.0243493269913
 72
     4
 94
        3
 73
     0
 74
     0
 95
       26
 96
       22
 40
0.0
 40
0.0
 40
0.0
 40
0.0
 40
0.2382195346591896
 40
0.397689067266058
 40
0.5126795869787669
 40
0.5985392873135731
 40
0.7099038249249733
 40
0.7911890807494741
 40
0.9379713068543702
 40
1.057449928673087
 40
1.138714535893316
 40
1.218398644003506
 40
1.36093802187036
 40
1.461730374800257
 40
1.516014844108008
 40
1.593124329220501
 40
1.648806818593631
 40
1.729472362005518
 40
1.775122082164342
 40
1.874460993765092
 40
1.919820003751207
 40
1.919820003751207
 40
1.919820003751207
 40
1.919820003751207
 10
323.194885483267
 20
302.0243493269912
 10
323.1140300925084
 20
302.0195253557261
 10
322.9790482784425
 20
302.0114721092293
 10
322.8308390677306
 20
301.921436605371
 10
322.7222523233205
 20
301.8690939200285
 10
322.6448083888962
 20
301.797938498609
 10
322.5880416710287
 20
301.7244401460877
 10
322.5164765663312
 20
301.6368673979623
 10
322.4581172684253
 20
301.5348924764978
 10
322.4283984258921
 20
301.4224983354345
 10
322.4020737572384
 20
301.3329195528754
 10
322.3825509422654
 20
301.233095689983
 10
322.3875180990783
 20
301.1252508018607
 10
322.3946312949629
 20
301.0250899908569
 10
322.4263899848868
 20
300.9535901679304
 10
322.4625575072769
 20
300.9026872210009
 10
322.5068441431318
 20
300.8466232683022
 10
322.5553034074492
 20
300.8094922939719
 10
322.5953831745598
 20
300.7422270388314
 10
322.6655414548223
 20
300.7336435071551
 10
322.7101368488981
 20
300.7165597172782
 10
322.7241163373595
 20
300.7112043964337
 72
     1
 10
322.7241163373594
 20
300.7112043964336
 11
323.8551453523641
 21
300.7112043964336
 72
     1
 10
323.8551453523641
 20
300.7112043964336
 11
324.0987620730429
 21
301.1997742747743
 72
     1
 10
324.0987620730429
 20
301.1997742747743
 11
323.2590810521708
 21
301.1997742747743
 72
     4
 94
        3
 73
     0
 74
     0
 95
       16
 96
       12
 40
0.0
 40
0.0
 40
0.0
 40
0.0
 40
0.0719416665231651
 40
0.1446253590759065
 40
0.1879779149910977
 40
0.2295440936104405
 40
0.2751936323958134
 40
0.3070718656052443
 40
0.3373215422372259
 40
0.3986635435212919
 40
0.5242542460842631
 40
0.5242542460842631
 40
0.5242542460842631
 40
0.5242542460842631
 10
323.2590810521708
 20
301.1997742747743
 10
323.2337533134991
 20
301.2072260668629
 10
323.1828365989301
 20
301.2222065108622
 10
323.1785752810825
 20
301.2948261999996
 10
323.1843807101441
 20
301.3465736709586
 10
323.2086938600215
 20
301.3842488516749
 10
323.2381899278819
 20
301.4116625027103
 10
323.2491726221338
 20
301.4473644968926
 10
323.2814552512576
 20
301.4743239692091
 10
323.338701002649
 20
301.5196390761849
 10
323.4020048938603
 20
301.5292901814704
 10
323.4445356014816
 20
301.5357742747743
 72
     1
 10
323.4445356014816
 20
301.5357742747743
 11
324.2663025248327
 21
301.5357742747743
 97
        8
330
122E
330
124C
330
124D
330
122F
330
1230
330
124B
330
1231
330
126D
 75
     0
 76
     1
 47
0.0514683685270805
 98
        1
 10
323.654802380474
 20
301.7320278706443
450
        0
451
        0
460
0.0
461
0.0
452
        0
462
0.0
453
        0
470

  0
LINE
  5
122D
330
18
100
AcDbEntity
  8
ROGO
 62
     4
100
AcDbLine
 10
315.8923807136757
 20
300.1781407483765
 30
0.0
 11
328.0954395011396
 21
300.1781407483765
 31
0.0
  0
LINE
  5
122E
102
{ACAD_REACTORS
330
122C
102
}
330
18
100
AcDbEntity
  8
ROGO
 62
     4
100
AcDbLine
 10
323.1948854832674
 20
302.0243493269912
 30
0.0
 11
324.5099218253733
 21
302.0243493269912
 31
0.0
  0
LINE
  5
122F
102
{ACAD_REACTORS
330
122C
102
}
330
18
100
AcDbEntity
  8
ROGO
 62
     4
100
AcDbLine
 10
324.0987620730429
 20
301.1997742747743
 30
0.0
 11
323.8551453523641
 21
300.7112043964337
 31
0.0
  0
LINE
  5
1230
102
{ACAD_REACTORS
330
122C
102
}
330
18
100
AcDbEntity
  8
ROGO
 62
     4
100
AcDbLine
 10
323.2590810521708
 20
301.1997742747743
 30
0.0
 11
324.0987620730429
 21
301.1997742747743
 31
0.0
  0
LINE
  5
1231
102
{ACAD_REACTORS
330
122C
102
}
330
18
100
AcDbEntity
  8
ROGO
 62
     4
100
AcDbLine
 10
323.4445356014816
 20
301.5357742747743
 30
0.0
 11
324.2663025248327
 21
301.5357742747743
 31
0.0
  0
LINE
  5
1232
102
{ACAD_REACTORS
330
1259
330
123A
102
}
330
18
100
AcDbEntity
  8
ROGO
 62
     4
100
AcDbLine
 10
314.8597921692339
 20
299.9724705420852
 30
0.0
 11
328.7489694362577
 21
299.9724705420852
 31
0.0
  0
HATCH
  5
1233
330
18
100
AcDbEntity
  8
ROGO
 62
     4
100
AcDbHatch
 10
0.0
 20
0.0
 30
0.0
210
0.0
220
0.0
230
1.0
  2
SOLID
 70
     1
 71
     1
 91
        1
 92
        1
 93
       12
 72
     1
 10
318.4401650155173
 20
302.0243493269912
 11
320.2162481640012
 21
302.0243493269912
 72
     1
 10
320.2162481640012
 20
302.0243493269912
 11
320.0674139682667
 21
301.7235469962991
 72
     1
 10
320.0674139682667
 20
301.7235469962991
 11
319.1339495460487
 21
301.7235469962991
 72
     1
 10
319.1339495460487
 20
301.7235469962991
 11
319.0175796999723
 21
301.4883569531149
 72
     1
 10
319.0175796999723
 20
301.4883569531149
 11
319.9510441221902
 21
301.4883569531149
 72
     1
 10
319.9510441221902
 20
301.4883569531149
 11
319.8317177465663
 21
301.2471915964337
 72
     1
 10
319.8317177465663
 20
301.2471915964337
 11
318.8982533243484
 21
301.2471915964337
 72
     1
 10
318.8982533243484
 20
301.2471915964337
 11
318.781878551732
 21
301.0119915964338
 72
     1
 10
318.7818785517321
 20
301.0119915964338
 11
319.71534297395
 21
301.0119915964338
 72
     1
 10
319.71534297395
 20
301.0119915964338
 11
319.5665162647411
 21
300.7112043964337
 72
     1
 10
319.5665162647411
 20
300.7112043964337
 11
317.7904331162573
 21
300.7112043964337
 72
     1
 10
317.7904331162573
 20
300.7112043964337
 11
318.4401650155173
 21
302.0243493269912
 97
       12
330
1234
330
1258
330
1238
330
123C
330
1237
330
1257
330
1235
330
123B
330
1236
330
1256
330
1239
330
123D
 75
     0
 76
     1
 98
        1
 10
245.7900360368084
 20
211.2262532788799
450
        0
451
        0
460
0.0
461
0.0
452
        0
462
0.0
453
        0
470

  0
LINE
  5
1234
102
{ACAD_REACTORS
330
1233
102
}
330
18
100
AcDbEntity
  8
ROGO
 62
     4
100
AcDbLine
 10
318.4401650155173
 20
302.0243493269912
 30
0.0
 11
320.2162481640012
 21
302.0243493269912
 31
0.0
  0
LINE
  5
1235
102
{ACAD_REACTORS
330
1233
102
}
330
18
100
AcDbEntity
  8
ROGO
 62
     4
100
AcDbLine
 10
318.8982533243484
 20
301.2471915964337
 30
0.0
 11
319.8317177465663
 21
301.2471915964337
 31
0.0
  0
LINE
  5
1236
102
{ACAD_REACTORS
330
1233
102
}
330
18
100
AcDbEntity
  8
ROGO
 62
     4
100
AcDbLine
 10
318.7818785517321
 20
301.0119915964338
 30
0.0
 11
319.71534297395
 21
301.0119915964338
 31
0.0
  0
LINE
  5
1237
102
{ACAD_REACTORS
330
1233
102
}
330
18
100
AcDbEntity
  8
ROGO
 62
     4
100
AcDbLine
 10
319.0175796999723
 20
301.4883569531149
 30
0.0
 11
319.9510441221902
 21
301.4883569531149
 31
0.0
  0
LINE
  5
1238
102
{ACAD_REACTORS
330
1233
102
}
330
18
100
AcDbEntity
  8
ROGO
 62
     4
100
AcDbLine
 10
319.1339495460487
 20
301.7235469962991
 30
0.0
 11
320.0674139682667
 21
301.7235469962991
 31
0.0
  0
LINE
  5
1239
102
{ACAD_REACTORS
330
1233
102
}
330
18
100
AcDbEntity
  8
ROGO
 62
     4
100
AcDbLine
 10
317.7904331162573
 20
300.7112043964337
 30
0.0
 11
319.5665162647411
 21
300.7112043964337
 31
0.0
  0
HATCH
  5
123A
330
18
100
AcDbEntity
  8
ROGO
 62
     4
100
AcDbHatch
 10
0.0
 20
0.0
 30
0.0
210
0.0
220
0.0
230
1.0
  2
SOLID
 70
     1
 71
     1
 91
        2
 92
        5
 93
        6
 72
     1
 10
314.8597921692339
 20
299.9724705420852
 11
315.8135931251704
 21
299.9724705420852
 72
     1
 10
315.8135931251704
 20
299.9724705420852
 11
316.1478172759989
 21
300.7112043964337
 72
     1
 10
316.1478172759989
 20
300.7112043964337
 11
317.0394255441709
 21
300.7112043964337
 72
     4
 94
        3
 73
     0
 74
     0
 95
       18
 96
       14
 40
0.108740278791501
 40
0.108740278791501
 40
0.108740278791501
 40
0.108740278791501
 40
0.6623149649549278
 40
1.384304701649787
 40
2.097394834876493
 40
2.774073369849618
 40
3.428974823686337
 40
4.005208313035923
 40
4.455173659284313
 40
4.720999734343524
 40
5.086034088486724
 40
5.569973738255373
 40
6.060470601257719
 40
6.060470601257719
 40
6.060470601257719
 40
6.060470601257719
 10
317.039425544171
 20
300.7112043964337
 10
317.1021754610657
 20
300.7116716760648
 10
317.2467658181193
 20
300.7127483966734
 10
317.4490465962265
 20
300.8208112331688
 10
317.6408665693196
 20
300.9584754135105
 10
317.795364508401
 20
301.1304724443124
 10
317.8916213792771
 20
301.3271215818331
 10
317.9065312643241
 20
301.5155917174048
 10
317.8974291458132
 20
301.6646692515613
 10
317.8323899372702
 20
301.7685799938641
 10
317.7647737433455
 20
301.8740387710368
 10
317.6407885077983
 20
301.9653910808282
 10
317.5392005599478
 20
302.0054169721435
 10
317.4875410223117
 20
302.0243493269912
 72
     1
 10
317.4875410223118
 20
302.0243493269912
 11
315.8750427093265
 21
302.0243493269912
 72
     1
 10
315.8750427093265
 20
302.0243493269912
 11
314.8597921692339
 21
299.9724705420852
 97
        6
330
1244
330
1246
330
1245
330
1232
330
123E
330
1243
 92
       20
 93
        4
 72
     1
 10
316.3541817683091
 20
301.1673307308925
 11
316.5121795646665
 21
301.5165524157778
 72
     1
 10
316.5121795646665
 20
301.5165524157778
 11
316.9181665637638
 21
301.5165524157778
 72
     4
 94
        3
 73
     0
 74
     0
 95
       15
 96
       11
 40
0.0
 40
0.0
 40
0.0
 40
0.0
 40
0.1539705029175028
 40
0.2241725832587281
 40
0.3038566179396687
 40
0.3581410872474193
 40
0.443992538467216
 40
0.4954152125469665
 40
0.5836396705646186
 40
0.6130478420065743
 40
0.6130478420065743
 40
0.6130478420065743
 40
0.6130478420065743
 10
316.9181665637639
 20
301.5165524157778
 10
316.9759948988231
 20
301.5168173004203
 10
317.0601897738813
 20
301.51720295789
 10
317.1062305302458
 20
301.4130536539604
 10
317.0855928680123
 20
301.3459977493231
 10
317.0596496445881
 20
301.2771522350752
 10
317.0138020930459
 20
301.2303706698059
 10
316.9522679634507
 20
301.185312136169
 10
316.894115270395
 20
301.1798575989094
 10
316.8562934714223
 20
301.1698361054552
 10
316.846838017153
 20
301.1673307308925
 72
     1
 10
316.8468380171531
 20
301.1673307308925
 11
316.3541817683091
 21
301.1673307308925
 97
        4
330
1242
330
1240
330
1241
330
123F
 75
     0
 76
     1
 47
0.0514683685270805
 98
        2
 10
315.8836612626335
 20
301.3861605701022
 10
315.8836612626335
 20
301.3861605701022
450
        0
451
        0
460
0.0
461
0.0
452
        0
462
0.0
453
        0
470

  0
LINE
  5
123B
102
{ACAD_REACTORS
330
1233
102
}
330
18
100
AcDbEntity
  8
ROGO
 62
     4
100
AcDbLine
 10
318.8982533243484
 20
301.2471915964337
 30
0.0
 11
318.781878551732
 21
301.0119915964338
 31
0.0
  0
LINE
  5
123C
102
{ACAD_REACTORS
330
1233
102
}
330
18
100
AcDbEntity
  8
ROGO
 62
     4
100
AcDbLine
 10
319.1339495460487
 20
301.7235469962991
 30
0.0
 11
319.0175796999723
 21
301.4883569531149
 31
0.0
  0
LINE
  5
123D
102
{ACAD_REACTORS
330
1233
102
}
330
18
100
AcDbEntity
  8
ROGO
 62
     4
100
AcDbLine
 10
318.4401650155173
 20
302.0243493269912
 30
0.0
 11
317.7904331162573
 21
300.7112043964337
 31
0.0
  0
LINE
  5
123E
102
{ACAD_REACTORS
330
123A
102
}
330
18
100
AcDbEntity
  8
ROGO
 62
     4
100
AcDbLine
 10
316.1478172759989
 20
300.7112043964337
 30
0.0
 11
315.8135931251704
 21
299.9724705420852
 31
0.0
  0
LINE
  5
123F
102
{ACAD_REACTORS
330
123A
102
}
330
18
100
AcDbEntity
  8
ROGO
 62
     4
100
AcDbLine
 10
316.8468380171531
 20
301.1673307308925
 30
0.0
 11
316.354181768309
 21
301.1673307308925
 31
0.0
  0
LINE
  5
1240
102
{ACAD_REACTORS
330
123A
102
}
330
18
100
AcDbEntity
  8
ROGO
 62
     4
100
AcDbLine
 10
316.9181665637639
 20
301.5165524157778
 30
0.0
 11
316.5121795646665
 21
301.5165524157778
 31
0.0
  0
SPLINE
  5
1241
102
{ACAD_REACTORS
330
123A
102
}
330
18
100
AcDbEntity
  8
ROGO
 62
     4
100
AcDbSpline
210
0.0
220
0.0
230
1.0
 70
     8
 71
     3
 72
    15
 73
    11
 74
     9
 42
0.0000000001
 43
0.0000000001
 44
0.0000000001
 40
0.0
 40
0.0
 40
0.0
 40
0.0
 40
0.1539705029175028
 40
0.2241725832587281
 40
0.3038566179396687
 40
0.3581410872474193
 40
0.443992538467216
 40
0.4954152125469665
 40
0.5836396705646186
 40
0.6130478420065743
 40
0.6130478420065743
 40
0.6130478420065743
 40
0.6130478420065743
 10
316.9181665637639
 20
301.5165524157778
 30
0.0
 10
316.9759948988231
 20
301.5168173004203
 30
0.0
 10
317.0601897738813
 20
301.51720295789
 30
0.0
 10
317.1062305302458
 20
301.4130536539604
 30
0.0
 10
317.0855928680123
 20
301.3459977493231
 30
0.0
 10
317.0596496445881
 20
301.2771522350752
 30
0.0
 10
317.0138020930459
 20
301.2303706698059
 30
0.0
 10
316.9522679634507
 20
301.185312136169
 30
0.0
 10
316.894115270395
 20
301.1798575989094
 30
0.0
 10
316.8562934714223
 20
301.1698361054552
 30
0.0
 10
316.846838017153
 20
301.1673307308925
 30
0.0
 11
316.9181665637639
 21
301.5165524157778
 31
0.0
 11
317.0679566346927
 21
301.4809174551379
 31
0.0
 11
317.0964881353677
 21
301.4167747583325
 31
0.0
 11
317.0822225901068
 21
301.3383780772711
 31
0.0
 11
317.060824067139
 21
301.2884891323753
 31
0.0
 11
317.0037610657889
 21
301.2243464355699
 31
0.0
 11
316.960964019853
 21
301.195838467058
 31
0.0
 11
316.8753695178281
 21
301.1744577230204
 31
0.0
 11
316.846838017153
 21
301.1673307308925
 31
0.0
  0
LINE
  5
1242
102
{ACAD_REACTORS
330
123A
102
}
330
18
100
AcDbEntity
  8
ROGO
 62
     4
100
AcDbLine
 10
316.5121795646665
 20
301.5165524157778
 30
0.0
 11
316.354181768309
 21
301.1673307308925
 31
0.0
  0
LINE
  5
1243
102
{ACAD_REACTORS
330
123A
102
}
330
18
100
AcDbEntity
  8
ROGO
 62
     4
100
AcDbLine
 10
317.0394255444801
 20
300.7112043964337
 30
0.0
 11
316.1478172759989
 21
300.7112043964337
 31
0.0
  0
SPLINE
  5
1244
102
{ACAD_REACTORS
330
123A
102
}
330
18
100
AcDbEntity
  8
ROGO
 62
     4
100
AcDbSpline
210
0.0
220
0.0
230
1.0
 70
     8
 71
     3
 72
    18
 73
    14
 74
     0
 42
0.0000000001
 43
0.0000000001
 40
0.1087402787915014
 40
0.1087402787915014
 40
0.1087402787915014
 40
0.1087402787915014
 40
0.5992371417938475
 40
1.083176791562496
 40
1.448211145705696
 40
1.714037220764907
 40
2.164002567013297
 40
2.740236056362883
 40
3.395137510199602
 40
4.071816045172726
 40
4.784906178399433
 40
5.506895915094292
 40
6.060470601257719
 40
6.060470601257719
 40
6.060470601257719
 40
6.060470601257719
 10
317.4875410223117
 20
302.0243493269912
 30
0.0
 10
317.5392005599478
 20
302.0054169721435
 30
0.0
 10
317.6407885077983
 20
301.9653910808282
 30
0.0
 10
317.7647737433455
 20
301.8740387710368
 30
0.0
 10
317.8323899372702
 20
301.7685799938641
 30
0.0
 10
317.8974291458132
 20
301.6646692515613
 30
0.0
 10
317.9065312643241
 20
301.5155917174048
 30
0.0
 10
317.8916213792771
 20
301.3271215818331
 30
0.0
 10
317.795364508401
 20
301.1304724443124
 30
0.0
 10
317.6408665693196
 20
300.9584754135105
 30
0.0
 10
317.4490465962265
 20
300.8208112331688
 30
0.0
 10
317.2467658181193
 20
300.7127483966734
 30
0.0
 10
317.1021754610657
 20
300.7116716760648
 30
0.0
 10
317.039425544171
 20
300.7112043964337
 30
0.0
  0
LINE
  5
1245
102
{ACAD_REACTORS
330
123A
102
}
330
18
100
AcDbEntity
  8
ROGO
 62
     4
100
AcDbLine
 10
315.8750427093266
 20
302.0243493269912
 30
0.0
 11
314.8597921692339
 21
299.9724705420852
 31
0.0
  0
LINE
  5
1246
102
{ACAD_REACTORS
330
123A
102
}
330
18
100
AcDbEntity
  8
ROGO
 62
     4
100
AcDbLine
 10
315.8750427093266
 20
302.0243493269912
 30
0.0
 11
317.4875410223117
 21
302.0243493269912
 31
0.0
  0
HATCH
  5
1247
330
18
100
AcDbEntity
  8
ROGO
 62
     4
100
AcDbHatch
 10
0.0
 20
0.0
 30
0.0
210
0.0
220
0.0
230
1.0
  2
SOLID
 70
     1
 71
     1
 91
        2
 92
        7
 72
     0
 73
     1
 93
        8
 10
321.7811459119705
 20
302.0243493269912
 10
320.7307424291989
 20
302.0243493269911
 10
319.7838080990998
 20
300.7112043964336
 10
320.5110553507914
 20
300.7112043964337
 10
320.6913457883723
 20
300.9612190665245
 10
321.5212227771567
 20
300.9612190665245
 10
321.6322892002255
 20
300.7112043964337
 10
322.3644969223536
 20
300.7112043964337
 97
        8
330
124F
330
1255
330
1250
330
1251
330
1253
330
1248
330
124E
330
124A
 92
       22
 72
     0
 73
     1
 93
        3
 10
321.4040776715561
 20
301.2249170782206
 10
320.8815035495174
 20
301.2249170782206
 10
321.2048702858307
 20
301.6733403500396
 97
        3
330
1252
330
1254
330
1249
 75
     0
 76
     1
 47
0.0128389261915577
 98
        2
 10
321.6988910194746
 20
301.7093074101822
 10
321.6988910194746
 20
301.7093074101822
450
        0
451
        0
460
0.0
461
0.0
452
        0
462
0.0
453
        0
470

  0
LINE
  5
1248
102
{ACAD_REACTORS
330
1247
102
}
330
18
100
AcDbEntity
  8
ROGO
 62
     4
100
AcDbLine
 10
321.5212227771567
 20
300.9612190665245
 30
0.0
 11
321.6322892002255
 21
300.7112043964337
 31
0.0
  0
LINE
  5
1249
102
{ACAD_REACTORS
330
1247
102
}
330
18
100
AcDbEntity
  8
ROGO
 62
     4
100
AcDbLine
 10
321.2048702858307
 20
301.6733403500394
 30
0.0
 11
321.4040776715561
 21
301.2249170782205
 31
0.0
  0
LINE
  5
124A
102
{ACAD_REACTORS
330
1247
102
}
330
18
100
AcDbEntity
  8
ROGO
 62
     4
100
AcDbLine
 10
321.7811459119704
 20
302.0243493269912
 30
0.0
 11
322.3644969223537
 21
300.7112043964337
 31
0.0
  0
SPLINE
  5
124B
102
{ACAD_REACTORS
330
122C
102
}
330
18
100
AcDbEntity
  8
ROGO
 62
     4
100
AcDbSpline
210
0.0
220
0.0
230
1.0
 70
     8
 71
     3
 72
    16
 73
    12
 74
    10
 42
0.0000000001
 43
0.0000000001
 44
0.0000000001
 40
0.0
 40
0.0
 40
0.0
 40
0.0
 40
0.1255907025629711
 40
0.1869327038470372
 40
0.2171823804790188
 40
0.2490606136884497
 40
0.2947101524738226
 40
0.3362763310931653
 40
0.3796288870083566
 40
0.452312579561098
 40
0.5242542460842631
 40
0.5242542460842631
 40
0.5242542460842631
 40
0.5242542460842631
 10
323.4445356014816
 20
301.5357742747743
 30
0.0
 10
323.4020048938603
 20
301.5292901814704
 30
0.0
 10
323.338701002649
 20
301.5196390761849
 30
0.0
 10
323.2814552512576
 20
301.4743239692091
 30
0.0
 10
323.2491726221338
 20
301.4473644968926
 30
0.0
 10
323.2381899278819
 20
301.4116625027103
 30
0.0
 10
323.2086938600215
 20
301.3842488516749
 30
0.0
 10
323.1843807101441
 20
301.3465736709586
 30
0.0
 10
323.1785752810825
 20
301.2948261999996
 30
0.0
 10
323.1828365989301
 20
301.2222065108622
 30
0.0
 10
323.2337533134991
 20
301.2072260668629
 30
0.0
 10
323.2590810521708
 20
301.1997742747743
 30
0.0
 11
323.4445356014816
 21
301.5357742747743
 31
0.0
 11
323.3232770312278
 21
301.5030728419269
 31
0.0
 11
323.273347007585
 21
301.4674381136334
 31
0.0
 11
323.2519484846171
 21
301.4460571372493
 31
0.0
 11
323.2376825292029
 21
301.4175491687375
 31
0.0
 11
323.2091510285278
 21
301.381914440444
 31
0.0
 11
323.1877525055599
 21
301.3462794798041
 31
0.0
 11
323.1806195278528
 21
301.3035177593826
 31
0.0
 11
323.194885483267
 21
301.2322478381029
 31
0.0
 11
323.2590810521708
 21
301.1997742747743
 31
0.0
  0
SPLINE
  5
124C
102
{ACAD_REACTORS
330
122C
102
}
330
18
100
AcDbEntity
  8
ROGO
 62
     4
100
AcDbSpline
210
0.0
220
0.0
230
1.0
 70
     8
 71
     3
 72
    26
 73
    22
 74
    20
 42
0.0000000001
 43
0.0000000001
 44
0.0000000001
 40
0.0
 40
0.0
 40
0.0
 40
0.0
 40
0.2382195346591896
 40
0.397689067266058
 40
0.5126795869787669
 40
0.5985392873135731
 40
0.7099038249249733
 40
0.7911890807494741
 40
0.9379713068543702
 40
1.057449928673087
 40
1.138714535893316
 40
1.218398644003506
 40
1.36093802187036
 40
1.461730374800257
 40
1.516014844108008
 40
1.593124329220501
 40
1.648806818593631
 40
1.729472362005518
 40
1.775122082164342
 40
1.874460993765092
 40
1.919820003751207
 40
1.919820003751207
 40
1.919820003751207
 40
1.919820003751207
 10
323.194885483267
 20
302.0243493269912
 30
0.0
 10
323.1140300925084
 20
302.0195253557261
 30
0.0
 10
322.9790482784425
 20
302.0114721092293
 30
0.0
 10
322.8308390677306
 20
301.921436605371
 30
0.0
 10
322.7222523233205
 20
301.8690939200285
 30
0.0
 10
322.6448083888962
 20
301.797938498609
 30
0.0
 10
322.5880416710287
 20
301.7244401460877
 30
0.0
 10
322.5164765663312
 20
301.6368673979623
 30
0.0
 10
322.4581172684253
 20
301.5348924764978
 30
0.0
 10
322.4283984258921
 20
301.4224983354345
 30
0.0
 10
322.4020737572384
 20
301.3329195528754
 30
0.0
 10
322.3825509422654
 20
301.233095689983
 30
0.0
 10
322.3875180990783
 20
301.1252508018607
 30
0.0
 10
322.3946312949629
 20
301.0250899908569
 30
0.0
 10
322.4263899848868
 20
300.9535901679304
 30
0.0
 10
322.4625575072769
 20
300.9026872210009
 30
0.0
 10
322.5068441431318
 20
300.8466232683022
 30
0.0
 10
322.5553034074492
 20
300.8094922939719
 30
0.0
 10
322.5953831745598
 20
300.7422270388314
 30
0.0
 10
322.6655414548223
 20
300.7336435071551
 30
0.0
 10
322.7101368488981
 20
300.7165597172782
 30
0.0
 10
322.7241163373595
 20
300.7112043964337
 30
0.0
 11
323.194885483267
 21
302.0243493269912
 31
0.0
 11
322.9595009103132
 21
301.9877071448974
 31
0.0
 11
322.8168434069382
 21
301.9164374559641
 31
0.0
 11
322.7169833596524
 21
301.8594217512866
 31
0.0
 11
322.6527877907486
 21
301.8024058142628
 31
0.0
 11
322.5814592441379
 21
301.7168821410734
 31
0.0
 11
322.5315292204949
 21
301.652739444268
 31
0.0
 11
322.4602002637307
 21
301.5244538183108
 31
0.0
 11
322.4245361955019
 21
301.4104221766096
 31
0.0
 11
322.4031376725341
 21
301.3320254955481
 31
0.0
 11
322.3888717171198
 21
301.2536288144868
 31
0.0
 11
322.3888717171198
 21
301.1110894366199
 31
0.0
 11
322.4031376725341
 21
301.0113117791747
 31
0.0
 11
322.4245361955019
 21
300.9614228342788
 31
0.0
 11
322.4673332414377
 21
300.8972801374733
 31
0.0
 11
322.5029977198199
 21
300.8545181847055
 31
0.0
 11
322.5600603110164
 21
300.797502480028
 31
0.0
 11
322.5885918116916
 21
300.7618675193882
 31
0.0
 11
322.6813192914237
 21
300.7262327910946
 31
0.0
 11
322.7241163373595
 21
300.7112043964337
 31
0.0
  0
LINE
  5
124D
102
{ACAD_REACTORS
330
122C
102
}
330
18
100
AcDbEntity
  8
ROGO
 62
     4
100
AcDbLine
 10
322.7241163373595
 20
300.7112043964337
 30
0.0
 11
323.8551453523641
 21
300.7112043964337
 31
0.0
  0
LINE
  5
124E
102
{ACAD_REACTORS
330
1247
102
}
330
18
100
AcDbEntity
  8
ROGO
 62
     4
100
AcDbLine
 10
322.3644969223537
 20
300.7112043964337
 30
0.0
 11
321.6322892002255
 21
300.7112043964337
 31
0.0
  0
LINE
  5
124F
102
{ACAD_REACTORS
330
1247
102
}
330
18
100
AcDbEntity
  8
ROGO
 62
     4
100
AcDbLine
 10
320.7307424291989
 20
302.0243493269912
 30
0.0
 11
321.7811459119704
 21
302.0243493269912
 31
0.0
  0
LINE
  5
1250
102
{ACAD_REACTORS
330
1247
102
}
330
18
100
AcDbEntity
  8
ROGO
 62
     4
100
AcDbLine
 10
319.7838080990998
 20
300.7112043964337
 30
0.0
 11
320.5110553507914
 21
300.7112043964337
 31
0.0
  0
LINE
  5
1251
102
{ACAD_REACTORS
330
1247
102
}
330
18
100
AcDbEntity
  8
ROGO
 62
     4
100
AcDbLine
 10
320.6913457883723
 20
300.9612190665245
 30
0.0
 11
320.5110553507914
 21
300.7112043964337
 31
0.0
  0
LINE
  5
1252
102
{ACAD_REACTORS
330
1247
102
}
330
18
100
AcDbEntity
  8
ROGO
 62
     4
100
AcDbLine
 10
320.8815035495174
 20
301.2249170782206
 30
0.0
 11
321.4040776715561
 21
301.2249170782206
 31
0.0
  0
LINE
  5
1253
102
{ACAD_REACTORS
330
1247
102
}
330
18
100
AcDbEntity
  8
ROGO
 62
     4
100
AcDbLine
 10
320.6913457883723
 20
300.9612190665245
 30
0.0
 11
321.5212227771567
 21
300.9612190665245
 31
0.0
  0
LINE
  5
1254
102
{ACAD_REACTORS
330
1247
102
}
330
18
100
AcDbEntity
  8
ROGO
 62
     4
100
AcDbLine
 10
321.2048702858306
 20
301.6733403500394
 30
0.0
 11
320.8815035495174
 21
301.2249170782205
 31
0.0
  0
LINE
  5
1255
102
{ACAD_REACTORS
330
1247
102
}
330
18
100
AcDbEntity
  8
ROGO
 62
     4
100
AcDbLine
 10
320.7307424291989
 20
302.0243493269912
 30
0.0
 11
319.7838080990998
 21
300.7112043964337
 31
0.0
  0
LINE
  5
1256
102
{ACAD_REACTORS
330
1233
102
}
330
18
100
AcDbEntity
  8
ROGO
 62
     4
100
AcDbLine
 10
319.71534297395
 20
301.0119915964338
 30
0.0
 11
319.5665162647411
 21
300.7112043964337
 31
0.0
  0
LINE
  5
1257
102
{ACAD_REACTORS
330
1233
102
}
330
18
100
AcDbEntity
  8
ROGO
 62
     4
100
AcDbLine
 10
319.9510441221902
 20
301.4883569531149
 30
0.0
 11
319.8317177465663
 21
301.2471915964337
 31
0.0
  0
LINE
  5
1258
102
{ACAD_REACTORS
330
1233
102
}
330
18
100
AcDbEntity
  8
ROGO
 62
     4
100
AcDbLine
 10
320.2162481640012
 20
302.0243493269912
 30
0.0
 11
320.0674139682667
 21
301.7235469962991
 31
0.0
  0
HATCH
  5
1259
330
18
100
AcDbEntity
  8
ROGO
 62
     4
100
AcDbHatch
 10
0.0
 20
0.0
 30
0.0
210
0.0
220
0.0
230
1.0
  2
SOLID
 70
     1
 71
     1
 91
        1
 92
        7
 72
     0
 73
     1
 93
       11
 10
327.9928856937535
 20
299.9724705420852
 10
328.7489694362577
 20
299.9724705420852
 10
329.0160187254233
 20
300.5080341042046
 10
329.2830680145891
 20
299.9724705420853
 10
330.039135214589
 20
299.9724705420852
 10
329.5275686987541
 20
300.9984099345382
 10
330.7704774440854
 20
302.0243493269912
 10
330.0144102440853
 20
302.0243493269912
 10
329.6603971610065
 20
301.8003259181695
 10
329.7721024679276
 20
302.0243493269912
 10
329.0160187254233
 20
302.0243493269911
 97
       11
330
126F
330
1273
330
1274
330
1275
330
125B
330
1232
330
125A
330
1272
330
126E
330
1271
330
1270
 75
     0
 76
     1
 47
0.0514683685270805
 98
        1
 10
328.9509474790195
 20
301.1440533435497
450
        0
451
        0
460
0.0
461
0.0
452
        0
462
0.0
453
        0
470

  0
LINE
  5
125A
102
{ACAD_REACTORS
330
1259
102
}
330
18
100
AcDbEntity
  8
ROGO
 62
     4
100
AcDbLine
 10
329.0160187254234
 20
300.5080341042047
 30
0.0
 11
328.7489694362577
 21
299.9724705420852
 31
0.0
  0
LINE
  5
125B
102
{ACAD_REACTORS
330
1259
102
}
330
18
100
AcDbEntity
  8
ROGO
 62
     4
100
AcDbLine
 10
329.0160187254234
 20
302.0243493269912
 30
0.0
 11
327.9928856937535
 21
299.9724705420852
 31
0.0
  0
HATCH
  5
125C
330
18
100
AcDbEntity
  8
ROGO
 62
     4
100
AcDbHatch
 10
0.0
 20
0.0
 30
0.0
210
0.0
220
0.0
230
1.0
  2
SOLID
 70
     1
 71
     1
 91
        2
 92
        5
 93
        6
 72
     4
 94
        3
 73
     0
 74
     0
 95
       38
 96
       34
 40
0.0
 40
0.0
 40
0.0
 40
0.0
 40
0.1807680148264315
 40
0.2375392910068956
 40
0.3104865209606157
 40
0.3712759982447458
 40
0.422566754387306
 40
0.490692583720658
 40
0.5255021974951946
 40
0.5647069597052371
 40
0.622487401681883
 40
0.6879401044674746
 40
0.7303986317551266
 40
0.7765228362185534
 40
0.8277951442290254
 40
0.9056034697002209
 40
0.9795294930264187
 40
1.013897332332996
 40
1.053089255536027
 40
1.099518741889647
 40
1.132570569820733
 40
1.160277520290299
 40
1.19983678629386
 40
1.243305643169139
 40
1.286774258016964
 40
1.324809356515675
 40
1.411916492917645
 40
1.446284332224223
 40
1.5150200516612
 40
1.575779369908399
 40
1.69209852953623
 40
1.835624328519098
 40
2.042896467983898
 40
2.042896467983898
 40
2.042896467983898
 40
2.042896467983898
 10
325.2391471454161
 20
302.0298265461635
 10
325.1788917477904
 20
302.0255699270626
 10
325.0997127821693
 20
302.0199764912754
 10
324.9991740096598
 20
301.9924318650706
 10
324.9443692552187
 20
301.9596173456126
 10
324.8873339539016
 20
301.9354971009121
 10
324.8387060475165
 20
301.8997798016628
 10
324.7895199468207
 20
301.8813750214694
 10
324.7550783334449
 20
301.848187913097
 10
324.7152149753119
 20
301.8279157949217
 10
324.6834710754766
 20
301.7825409009075
 10
324.6479903989449
 20
301.7401170192491
 10
324.6068283505378
 20
301.7091494776715
 10
324.5730461049783
 20
301.6766244987092
 10
324.542055592054
 20
301.6264286835252
 10
324.5237140194829
 20
301.5597333088397
 10
324.4720122050735
 20
301.5176242545545
 10
324.4642275305904
 20
301.4669966068784
 10
324.4356296803947
 20
301.4371271466877
 10
324.4231943349389
 20
301.3985699647028
 10
324.4184583568149
 20
301.3632447753819
 10
324.4127740537726
 20
301.3302534939537
 10
324.3979049935401
 20
301.295548123216
 10
324.4027583061015
 20
301.2526778442809
 10
324.4013757430593
 20
301.2111651302544
 10
324.4021893830325
 20
301.1551216736429
 10
324.3992528436866
 20
301.1005564767235
 10
324.4226705942016
 20
301.041176600555
 10
324.4365284418045
 20
300.9882476558885
 10
324.474480411748
 20
300.914961113637
 10
324.539946764566
 20
300.8304042899281
 10
324.6644365105834
 20
300.7277683266353
 10
324.7841370411427
 20
300.717356385918
 10
324.854863183873
 20
300.7112043964337
 72
     1
 10
324.8548631838729
 20
300.7112043964337
 11
325.6053170070587
 21
300.7112043964336
 72
     4
 94
        3
 73
     0
 74
     0
 95
       11
 96
        7
 40
0.1647869275458135
 40
0.1647869275458135
 40
0.1647869275458135
 40
0.1647869275458135
 40
0.2545010798212315
 40
0.5111620267764023
 40
0.7602998271033902
 40
0.8850764140209603
 40
0.8850764140209603
 40
0.8850764140209603
 40
0.8850764140209603
 10
325.6053170070583
 20
300.7112043964337
 10
325.6157889073783
 20
300.7110025807907
 10
325.6562196022068
 20
300.710223395884
 10
325.7253161443032
 20
300.7201499264685
 10
325.7980149114413
 20
300.7296623208419
 10
325.8413559228755
 20
300.7365899106258
 10
325.8553344656763
 20
300.7404808433423
 72
     4
 94
        3
 73
     0
 74
     0
 95
        9
 96
        5
 40
0.0
 40
0.0
 40
0.0
 40
0.0
 40
0.1135793343552172
 40
0.2662938392177403
 40
0.2662938392177403
 40
0.2662938392177403
 40
0.2662938392177403
 10
325.8553344656763
 20
300.7404808433423
 10
325.8918194339943
 20
300.7516431830655
 10
325.9773607196718
 20
300.7778139853194
 10
326.0480374169085
 20
300.8331263030939
 10
326.0885691725644
 20
300.8648468763019
 72
     4
 94
        3
 73
     0
 74
     0
 95
       25
 96
       21
 40
0.0
 40
0.0
 40
0.0
 40
0.0
 40
0.165525918914855
 40
0.3412380755365305
 40
0.5940540902285263
 40
0.7697671103696209
 40
0.9377330196075423
 40
1.11479469302833
 40
1.274661249598185
 40
1.574522170874768
 40
1.815540668866877
 40
2.15849091873445
 40
2.536227739636605
 40
2.738070817316548
 40
2.925680654369045
 40
3.162706124480894
 40
3.395643218188267
 40
3.648478129958861
 40
3.928509979727306
 40
4.337226830236035
 40
4.337226830236035
 40
4.337226830236035
 40
4.337226830236035
 10
326.0885691725644
 20
300.8648468763019
 10
326.1034618299581
 20
300.8771536202475
 10
326.1317091292621
 20
300.9064237434692
 10
326.1818103659018
 20
300.9538640918078
 10
326.2259605257084
 20
301.0091358622618
 10
326.2804229264256
 20
301.0539316951352
 10
326.3087758819646
 20
301.1086979214828
 10
326.3496444292687
 20
301.1517703919818
 10
326.3839264481861
 20
301.2182915739724
 10
326.4130130468861
 20
301.2947033391165
 10
326.4407431023836
 20
301.39430462282
 10
326.4513695457202
 20
301.5066696758656
 10
326.435641088073
 20
301.6153828082966
 10
326.3976451103982
 20
301.6966423038335
 10
326.3697109496291
 20
301.7643637184996
 10
326.3273173609866
 20
301.8285078221767
 10
326.278952006126
 20
301.8982716285109
 10
326.2108137853667
 20
301.9559775908259
 10
326.1217641267455
 20
302.0255802802014
 10
326.038821019027
 20
302.0282451567074
 10
325.9896009686015
 20
302.0298265461635
 72
     1
 10
325.9896009686015
 20
302.0298265461635
 11
325.2391471454161
 21
302.0298265461636
 97
        6
330
1262
330
1261
330
1263
330
1260
330
125F
330
125E
 92
       20
 93
        1
 72
     3
 10
325.4116055400468
 20
301.3521305539445
 11
0.1782847090673272
 21
0.1567790921840611
 40
0.678808341743879
 50
0.0
 51
360.0
 73
     1
 97
        1
330
125D
 75
     0
 76
     1
 47
0.088756267210375
 98
        2
 10
325.4640368158155
 20
301.6656178242685
 10
325.4640368158155
 20
301.6656178242685
450
        0
451
        0
460
0.0
461
0.0
452
        0
462
0.0
453
        0
470

  0
ELLIPSE
  5
125D
102
{ACAD_REACTORS
330
125C
102
}
330
18
100
AcDbEntity
  8
ROGO
 62
     4
100
AcDbEllipse
 10
325.4116055400468
 20
301.3521305539445
 30
0.0
 11
0.1782847090673272
 21
0.1567790921840611
 31
0.0
210
0.0
220
0.0
230
0.9999999999999998
 40
0.6788083417438792
 41
0.0
 42
6.283185307179586
  0
SPLINE
  5
125E
102
{ACAD_REACTORS
330
125C
102
}
330
18
100
AcDbEntity
  8
ROGO
 62
     4
100
AcDbSpline
210
0.0
220
0.0
230
1.0
 70
     8
 71
     3
 72
     9
 73
     5
 74
     3
 42
0.0000000001
 43
0.0000000001
 44
0.0000000001
 40
0.0
 40
0.0
 40
0.0
 40
0.0
 40
0.1135793343552172
 40
0.2662938392177403
 40
0.2662938392177403
 40
0.2662938392177403
 40
0.2662938392177403
 10
325.8553344656763
 20
300.7404808433423
 30
0.0
 10
325.8918194339943
 20
300.7516431830655
 30
0.0
 10
325.9773607196718
 20
300.7778139853194
 30
0.0
 10
326.0480374169085
 20
300.8331263030939
 30
0.0
 10
326.0885691725644
 20
300.8648468763019
 30
0.0
 11
325.8553344656763
 21
300.7404808433423
 31
0.0
 11
325.962085229901
 21
300.779269237612
 31
0.0
 11
326.0885691725644
 21
300.8648468763019
 31
0.0
  0
SPLINE
  5
125F
102
{ACAD_REACTORS
330
125C
102
}
330
18
100
AcDbEntity
  8
ROGO
 62
     4
100
AcDbSpline
210
0.0
220
0.0
230
1.0
 70
     8
 71
     3
 72
    11
 73
     7
 74
     0
 42
0.0000000001
 43
0.0000000001
 40
0.1647869275458134
 40
0.1647869275458134
 40
0.1647869275458134
 40
0.1647869275458134
 40
0.2895635144633836
 40
0.5387013147903714
 40
0.7953622617455423
 40
0.8850764140209602
 40
0.8850764140209602
 40
0.8850764140209602
 40
0.8850764140209602
 10
325.8553344656763
 20
300.7404808433423
 30
0.0
 10
325.8413559228755
 20
300.7365899106258
 30
0.0
 10
325.7980149114413
 20
300.7296623208419
 30
0.0
 10
325.7253161443032
 20
300.7201499264685
 30
0.0
 10
325.6562196022068
 20
300.710223395884
 30
0.0
 10
325.6157889073783
 20
300.7110025807907
 30
0.0
 10
325.6053170070583
 20
300.7112043964337
 30
0.0
  0
LINE
  5
1260
102
{ACAD_REACTORS
330
125C
102
}
330
18
100
AcDbEntity
  8
ROGO
 62
     4
100
AcDbLine
 10
324.854863183873
 20
300.7112043964337
 30
0.0
 11
325.6053170070583
 21
300.7112043964337
 31
0.0
  0
LINE
  5
1261
102
{ACAD_REACTORS
330
125C
102
}
330
18
100
AcDbEntity
  8
ROGO
 62
     4
100
AcDbLine
 10
325.2391471454161
 20
302.0298265461635
 30
0.0
 11
325.9896009686015
 21
302.0298265461635
 31
0.0
  0
SPLINE
  5
1262
102
{ACAD_REACTORS
330
125C
102
}
330
18
100
AcDbEntity
  8
ROGO
 62
     4
100
AcDbSpline
210
0.0
220
0.0
230
1.0
 70
     8
 71
     3
 72
    25
 73
    21
 74
     0
 42
0.0000000001
 43
0.0000000001
 40
0.0
 40
0.0
 40
0.0
 40
0.0
 40
0.4087168505087288
 40
0.6887487002771746
 40
0.9415836120477687
 40
1.17452070575514
 40
1.41154617586699
 40
1.599156012919487
 40
1.80099909059943
 40
2.178735911501585
 40
2.521686161369157
 40
2.762704659361267
 40
3.06256558063785
 40
3.222432137207705
 40
3.399493810628493
 40
3.567459719866414
 40
3.743172740007509
 40
3.995988754699505
 40
4.17170091132118
 40
4.337226830236035
 40
4.337226830236035
 40
4.337226830236035
 40
4.337226830236035
 10
325.9896009686015
 20
302.0298265461635
 30
0.0
 10
326.038821019027
 20
302.0282451567074
 30
0.0
 10
326.1217641267455
 20
302.0255802802014
 30
0.0
 10
326.2108137853667
 20
301.9559775908259
 30
0.0
 10
326.278952006126
 20
301.8982716285109
 30
0.0
 10
326.3273173609866
 20
301.8285078221767
 30
0.0
 10
326.3697109496291
 20
301.7643637184996
 30
0.0
 10
326.3976451103982
 20
301.6966423038335
 30
0.0
 10
326.435641088073
 20
301.6153828082966
 30
0.0
 10
326.4513695457202
 20
301.5066696758656
 30
0.0
 10
326.4407431023836
 20
301.39430462282
 30
0.0
 10
326.4130130468861
 20
301.2947033391165
 30
0.0
 10
326.3839264481861
 20
301.2182915739724
 30
0.0
 10
326.3496444292687
 20
301.1517703919818
 30
0.0
 10
326.3087758819646
 20
301.1086979214828
 30
0.0
 10
326.2804229264256
 20
301.0539316951352
 30
0.0
 10
326.2259605257084
 20
301.0091358622618
 30
0.0
 10
326.1818103659018
 20
300.9538640918078
 30
0.0
 10
326.1317091292621
 20
300.9064237434692
 30
0.0
 10
326.1034618299581
 20
300.8771536202475
 30
0.0
 10
326.0885691725644
 20
300.8648468763019
 30
0.0
  0
SPLINE
  5
1263
102
{ACAD_REACTORS
330
125C
102
}
330
18
100
AcDbEntity
  8
ROGO
 62
     4
100
AcDbSpline
210
0.0
220
0.0
230
1.0
 70
     8
 71
     3
 72
    38
 73
    34
 74
    32
 42
0.0000000001
 43
0.0000000001
 44
0.0000000001
 40
0.0
 40
0.0
 40
0.0
 40
0.0
 40
0.1807680148264315
 40
0.2375392910068956
 40
0.3104865209606157
 40
0.3712759982447458
 40
0.422566754387306
 40
0.490692583720658
 40
0.5255021974951946
 40
0.5647069597052371
 40
0.622487401681883
 40
0.6879401044674746
 40
0.7303986317551266
 40
0.7765228362185534
 40
0.8277951442290254
 40
0.9056034697002209
 40
0.9795294930264187
 40
1.013897332332996
 40
1.053089255536027
 40
1.099518741889647
 40
1.132570569820733
 40
1.160277520290299
 40
1.19983678629386
 40
1.243305643169139
 40
1.286774258016964
 40
1.324809356515675
 40
1.411916492917645
 40
1.446284332224223
 40
1.5150200516612
 40
1.575779369908399
 40
1.69209852953623
 40
1.835624328519098
 40
2.042896467983898
 40
2.042896467983898
 40
2.042896467983898
 40
2.042896467983898
 10
325.2391471454161
 20
302.0298265461635
 30
0.0
 10
325.1788917477904
 20
302.0255699270626
 30
0.0
 10
325.0997127821693
 20
302.0199764912754
 30
0.0
 10
324.9991740096598
 20
301.9924318650706
 30
0.0
 10
324.9443692552187
 20
301.9596173456126
 30
0.0
 10
324.8873339539016
 20
301.9354971009121
 30
0.0
 10
324.8387060475165
 20
301.8997798016628
 30
0.0
 10
324.7895199468207
 20
301.8813750214694
 30
0.0
 10
324.7550783334449
 20
301.848187913097
 30
0.0
 10
324.7152149753119
 20
301.8279157949217
 30
0.0
 10
324.6834710754766
 20
301.7825409009075
 30
0.0
 10
324.6479903989449
 20
301.7401170192491
 30
0.0
 10
324.6068283505378
 20
301.7091494776715
 30
0.0
 10
324.5730461049783
 20
301.6766244987092
 30
0.0
 10
324.542055592054
 20
301.6264286835252
 30
0.0
 10
324.5237140194829
 20
301.5597333088397
 30
0.0
 10
324.4720122050735
 20
301.5176242545545
 30
0.0
 10
324.4642275305904
 20
301.4669966068784
 30
0.0
 10
324.4356296803947
 20
301.4371271466877
 30
0.0
 10
324.4231943349389
 20
301.3985699647028
 30
0.0
 10
324.4184583568149
 20
301.3632447753819
 30
0.0
 10
324.4127740537726
 20
301.3302534939537
 30
0.0
 10
324.3979049935401
 20
301.295548123216
 30
0.0
 10
324.4027583061015
 20
301.2526778442809
 30
0.0
 10
324.4013757430593
 20
301.2111651302544
 30
0.0
 10
324.4021893830325
 20
301.1551216736429
 30
0.0
 10
324.3992528436866
 20
301.1005564767235
 30
0.0
 10
324.4226705942016
 20
301.041176600555
 30
0.0
 10
324.4365284418045
 20
300.9882476558885
 30
0.0
 10
324.474480411748
 20
300.914961113637
 30
0.0
 10
324.539946764566
 20
300.8304042899281
 30
0.0
 10
324.6644365105834
 20
300.7277683266353
 30
0.0
 10
324.7841370411427
 20
300.717356385918
 30
0.0
 10
324.854863183873
 20
300.7112043964337
 30
0.0
 11
325.2391471454161
 21
302.0298265461635
 31
0.0
 11
325.0596905084688
 21
302.0080919967121
 31
0.0
 11
325.0053097223406
 21
301.9917914476648
 31
0.0
 11
324.9400530353327
 21
301.9591898655152
 31
0.0
 11
324.8856722492045
 21
301.9320220417421
 31
0.0
 11
324.8421677911992
 21
301.9048539759416
 31
0.0
 11
324.7823490546311
 21
301.8722526358195
 31
0.0
 11
324.7551584479455
 21
301.8505183283956
 31
0.0
 11
324.72252989082
 21
301.8287837789442
 31
0.0
 11
324.6844633832546
 21
301.7853151640963
 31
0.0
 11
324.6409589252493
 21
301.7364130328994
 31
0.0
 11
324.6083303681237
 21
301.7092449670989
 31
0.0
 11
324.5757022382413
 21
301.6766436269768
 31
0.0
 11
324.5485116315557
 21
301.633175012129
 31
0.0
 11
324.5158835016733
 21
301.5625383314807
 31
0.0
 11
324.4723786164248
 21
301.502768925558
 31
0.0
 11
324.4615027155451
 21
301.4701673434085
 31
0.0
 11
324.4397504865424
 21
301.4375660032862
 31
0.0
 11
324.4234362079796
 21
301.3940971464109
 31
0.0
 11
324.4179978302967
 21
301.3614958062888
 31
0.0
 11
324.4125598798567
 21
301.3343277404883
 31
0.0
 11
324.4016839789769
 21
301.296292884017
 31
0.0
 11
324.4016839789769
 21
301.2528240271417
 31
0.0
 11
324.4016839789769
 21
301.2093554122939
 31
0.0
 11
324.4016839789769
 21
301.1713203137952
 31
0.0
 11
324.4071219294169
 21
301.0843830840995
 31
0.0
 11
324.4179978302967
 21
301.0517815019499
 31
0.0
 11
324.4397504865424
 21
300.9865785796782
 31
0.0
 11
324.466940665985
 21
300.9322426901047
 31
0.0
 11
324.5376357306759
 21
300.8398719440598
 31
0.0
 11
324.6518352533722
 21
300.7529344723367
 31
0.0
 11
324.854863183873
 21
300.7112043964337
 31
0.0
  0
HATCH
  5
1264
330
18
100
AcDbEntity
  8
ROGO
 62
     4
100
AcDbHatch
 10
0.0
 20
0.0
 30
0.0
210
0.0
220
0.0
230
1.0
  2
SOLID
 70
     1
 71
     1
 91
        1
 92
        5
 93
        8
 72
     4
 94
        3
 73
     0
 74
     0
 95
       26
 96
       22
 40
0.0
 40
0.0
 40
0.0
 40
0.0
 40
0.2382195346591896
 40
0.397689067266058
 40
0.5126795869787176
 40
0.5985392873135238
 40
0.7099038249250041
 40
0.7911890807494602
 40
0.9379713068544059
 40
1.057449928673177
 40
1.138714535893296
 40
1.218398644003487
 40
1.36093802187034
 40
1.461730374800238
 40
1.51601484410804
 40
1.593124329220486
 40
1.648806818593696
 40
1.729472362005543
 40
1.775122082164332
 40
1.874460993765135
 40
1.919820003751196
 40
1.919820003751196
 40
1.919820003751196
 40
1.919820003751196
 10
327.4259552541949
 20
302.0243493269912
 10
327.3450998634363
 20
302.0195253557261
 10
327.2101180493703
 20
302.0114721092294
 10
327.0619088386586
 20
301.921436605371
 10
326.9533220942483
 20
301.8690939200285
 10
326.8758781598241
 20
301.7979384986089
 10
326.8191114419567
 20
301.7244401460877
 10
326.7475463372589
 20
301.6368673979622
 10
326.6891870393532
 20
301.5348924764977
 10
326.65946819682
 20
301.4224983354342
 10
326.6331435281663
 20
301.3329195528755
 10
326.6136207131932
 20
301.233095689983
 10
326.6185878700062
 20
301.1252508018607
 10
326.6257010658907
 20
301.0250899908569
 10
326.6574597558146
 20
300.9535901679303
 10
326.6936272782049
 20
300.9026872210009
 10
326.7379139140595
 20
300.8466232683022
 10
326.7863731783771
 20
300.8094922939719
 10
326.8264529454877
 20
300.7422270388314
 10
326.8966112257501
 20
300.7336435071551
 10
326.9412066198259
 20
300.7165597172781
 10
326.9551861082874
 20
300.7112043964337
 72
     1
 10
326.9551861082874
 20
300.7112043964337
 11
328.0862151232919
 21
300.7112043964337
 72
     1
 10
328.0862151232919
 20
300.7112043964337
 11
328.3298318439709
 21
301.1997742747743
 72
     1
 10
328.3298318439709
 20
301.1997742747743
 11
327.4901508230986
 21
301.1997742747743
 72
     4
 94
        3
 73
     0
 74
     0
 95
       16
 96
       12
 40
0.0
 40
0.0
 40
0.0
 40
0.0
 40
0.0719416665231652
 40
0.1446253590759511
 40
0.1879779149910863
 40
0.229544093610429
 40
0.2751936323958108
 40
0.3070718656052417
 40
0.3373215422371831
 40
0.3986635435213285
 40
0.5242542460842448
 40
0.5242542460842448
 40
0.5242542460842448
 40
0.5242542460842448
 10
327.4901508230986
 20
301.1997742747742
 10
327.4648230844269
 20
301.2072260668629
 10
327.4139063698578
 20
301.2222065108621
 10
327.4096450520103
 20
301.2948261999995
 10
327.415450481072
 20
301.3465736709586
 10
327.4397636309493
 20
301.3842488516747
 10
327.4692596988099
 20
301.4116625027104
 10
327.4802423930615
 20
301.4473644968926
 10
327.5125250221856
 20
301.4743239692091
 10
327.5697707735767
 20
301.5196390761848
 10
327.6330746647881
 20
301.5292901814703
 10
327.6756053724095
 20
301.5357742747743
 72
     1
 10
327.6756053724095
 20
301.5357742747743
 11
328.4973722957606
 21
301.5357742747743
 72
     1
 10
328.4973722957606
 20
301.5357742747743
 11
328.7409915963012
 21
302.0243493269912
 72
     1
 10
328.7409915963012
 20
302.0243493269912
 11
327.4259552541947
 21
302.0243493269911
 97
        8
330
126B
330
1269
330
126C
330
1268
330
1267
330
126A
330
1266
330
1265
 75
     0
 76
     1
 47
0.0514683685270805
 98
        1
 10
327.6528726838798
 20
301.7839080238121
450
        0
451
        0
460
0.0
461
0.0
452
        0
462
0.0
453
        0
470

  0
LINE
  5
1265
102
{ACAD_REACTORS
330
1264
102
}
330
18
100
AcDbEntity
  8
ROGO
 62
     4
100
AcDbLine
 10
328.7409915963012
 20
302.0243493269912
 30
0.0
 11
328.4973722957606
 21
301.5357742747743
 31
0.0
  0
LINE
  5
1266
102
{ACAD_REACTORS
330
1264
102
}
330
18
100
AcDbEntity
  8
ROGO
 62
     4
100
AcDbLine
 10
327.6756053724094
 20
301.5357742747743
 30
0.0
 11
328.4973722957606
 21
301.5357742747743
 31
0.0
  0
LINE
  5
1267
102
{ACAD_REACTORS
330
1264
102
}
330
18
100
AcDbEntity
  8
ROGO
 62
     4
100
AcDbLine
 10
327.4901508230986
 20
301.1997742747743
 30
0.0
 11
328.3298318439708
 21
301.1997742747743
 31
0.0
  0
LINE
  5
1268
102
{ACAD_REACTORS
330
1264
102
}
330
18
100
AcDbEntity
  8
ROGO
 62
     4
100
AcDbLine
 10
328.3298318439708
 20
301.1997742747743
 30
0.0
 11
328.0862151232919
 21
300.7112043964337
 31
0.0
  0
SPLINE
  5
1269
102
{ACAD_REACTORS
330
1264
102
}
330
18
100
AcDbEntity
  8
ROGO
 62
     4
100
AcDbSpline
210
0.0
220
0.0
230
1.0
 70
     8
 71
     3
 72
    26
 73
    22
 74
    20
 42
0.0000000001
 43
0.0000000001
 44
0.0000000001
 40
0.0
 40
0.0
 40
0.0
 40
0.0
 40
0.2382195346591896
 40
0.397689067266058
 40
0.5126795869787176
 40
0.5985392873135238
 40
0.7099038249250041
 40
0.7911890807494602
 40
0.9379713068544059
 40
1.057449928673177
 40
1.138714535893296
 40
1.218398644003487
 40
1.36093802187034
 40
1.461730374800238
 40
1.51601484410804
 40
1.593124329220486
 40
1.648806818593696
 40
1.729472362005543
 40
1.775122082164332
 40
1.874460993765135
 40
1.919820003751196
 40
1.919820003751196
 40
1.919820003751196
 40
1.919820003751196
 10
327.4259552541949
 20
302.0243493269912
 30
0.0
 10
327.3450998634363
 20
302.0195253557261
 30
0.0
 10
327.2101180493703
 20
302.0114721092294
 30
0.0
 10
327.0619088386586
 20
301.921436605371
 30
0.0
 10
326.9533220942483
 20
301.8690939200285
 30
0.0
 10
326.8758781598241
 20
301.7979384986089
 30
0.0
 10
326.8191114419567
 20
301.7244401460877
 30
0.0
 10
326.7475463372589
 20
301.6368673979622
 30
0.0
 10
326.6891870393532
 20
301.5348924764977
 30
0.0
 10
326.65946819682
 20
301.4224983354342
 30
0.0
 10
326.6331435281663
 20
301.3329195528755
 30
0.0
 10
326.6136207131932
 20
301.233095689983
 30
0.0
 10
326.6185878700062
 20
301.1252508018607
 30
0.0
 10
326.6257010658907
 20
301.0250899908569
 30
0.0
 10
326.6574597558146
 20
300.9535901679303
 30
0.0
 10
326.6936272782049
 20
300.9026872210009
 30
0.0
 10
326.7379139140595
 20
300.8466232683022
 30
0.0
 10
326.7863731783771
 20
300.8094922939719
 30
0.0
 10
326.8264529454877
 20
300.7422270388314
 30
0.0
 10
326.8966112257501
 20
300.7336435071551
 30
0.0
 10
326.9412066198259
 20
300.7165597172781
 30
0.0
 10
326.9551861082874
 20
300.7112043964337
 30
0.0
 11
327.4259552541949
 21
302.0243493269912
 31
0.0
 11
327.1905706812411
 21
301.9877071448974
 31
0.0
 11
327.0479131778661
 21
301.9164374559641
 31
0.0
 11
326.9480531305803
 21
301.8594217512866
 31
0.0
 11
326.8838575616765
 21
301.8024058142628
 31
0.0
 11
326.8125290150657
 21
301.7168821410734
 31
0.0
 11
326.7625989914228
 21
301.652739444268
 31
0.0
 11
326.6912700346586
 21
301.5244538183107
 31
0.0
 11
326.6556059664298
 21
301.4104221766095
 31
0.0
 11
326.634207443462
 21
301.3320254955481
 31
0.0
 11
326.6199414880477
 21
301.2536288144868
 31
0.0
 11
326.6199414880477
 21
301.1110894366199
 31
0.0
 11
326.634207443462
 21
301.0113117791747
 31
0.0
 11
326.6556059664298
 21
300.9614228342788
 31
0.0
 11
326.6984030123656
 21
300.8972801374733
 31
0.0
 11
326.7340674907478
 21
300.8545181847054
 31
0.0
 11
326.7911300819443
 21
300.797502480028
 31
0.0
 11
326.8196615826194
 21
300.7618675193882
 31
0.0
 11
326.9123890623516
 21
300.7262327910946
 31
0.0
 11
326.9551861082874
 21
300.7112043964337
 31
0.0
  0
SPLINE
  5
126A
102
{ACAD_REACTORS
330
1264
102
}
330
18
100
AcDbEntity
  8
ROGO
 62
     4
100
AcDbSpline
210
0.0
220
0.0
230
1.0
 70
     8
 71
     3
 72
    16
 73
    12
 74
    10
 42
0.0000000001
 43
0.0000000001
 44
0.0000000001
 40
0.0
 40
0.0
 40
0.0
 40
0.0
 40
0.1255907025629163
 40
0.1869327038470616
 40
0.217182380479003
 40
0.2490606136884339
 40
0.2947101524738157
 40
0.3362763310931585
 40
0.3796288870082937
 40
0.4523125795610796
 40
0.5242542460842448
 40
0.5242542460842448
 40
0.5242542460842448
 40
0.5242542460842448
 10
327.6756053724095
 20
301.5357742747743
 30
0.0
 10
327.6330746647881
 20
301.5292901814703
 30
0.0
 10
327.5697707735767
 20
301.5196390761848
 30
0.0
 10
327.5125250221856
 20
301.4743239692091
 30
0.0
 10
327.4802423930615
 20
301.4473644968926
 30
0.0
 10
327.4692596988099
 20
301.4116625027104
 30
0.0
 10
327.4397636309493
 20
301.3842488516747
 30
0.0
 10
327.415450481072
 20
301.3465736709586
 30
0.0
 10
327.4096450520103
 20
301.2948261999995
 30
0.0
 10
327.4139063698578
 20
301.2222065108621
 30
0.0
 10
327.4648230844269
 20
301.2072260668629
 30
0.0
 10
327.4901508230986
 20
301.1997742747742
 30
0.0
 11
327.6756053724095
 21
301.5357742747743
 31
0.0
 11
327.5543468021557
 21
301.5030728419269
 31
0.0
 11
327.5044167785128
 21
301.4674381136333
 31
0.0
 11
327.4830182555449
 21
301.4460571372493
 31
0.0
 11
327.4687523001307
 21
301.4175491687375
 31
0.0
 11
327.4402207994557
 21
301.381914440444
 31
0.0
 11
327.4188222764878
 21
301.3462794798041
 31
0.0
 11
327.4116892987807
 21
301.3035177593826
 31
0.0
 11
327.4259552541949
 21
301.2322478381028
 31
0.0
 11
327.4901508230986
 21
301.1997742747742
 31
0.0
  0
LINE
  5
126B
102
{ACAD_REACTORS
330
1264
102
}
330
18
100
AcDbEntity
  8
ROGO
 62
     4
100
AcDbLine
 10
327.4259552541952
 20
302.0243493269912
 30
0.0
 11
328.7409915963012
 21
302.0243493269912
 31
0.0
  0
LINE
  5
126C
102
{ACAD_REACTORS
330
1264
102
}
330
18
100
AcDbEntity
  8
ROGO
 62
     4
100
AcDbLine
 10
326.9551861082873
 20
300.7112043964337
 30
0.0
 11
328.086215123292
 21
300.7112043964337
 31
0.0
  0
LINE
  5
126D
102
{ACAD_REACTORS
330
122C
102
}
330
18
100
AcDbEntity
  8
ROGO
 62
     4
100
AcDbLine
 10
324.5099218253733
 20
302.0243493269912
 30
0.0
 11
324.2663025248327
 21
301.5357742747743
 31
0.0
  0
LINE
  5
126E
102
{ACAD_REACTORS
330
1259
102
}
330
18
100
AcDbEntity
  8
ROGO
 62
     4
100
AcDbLine
 10
329.2830680145891
 20
299.9724705420852
 30
0.0
 11
330.039135214589
 21
299.9724705420852
 31
0.0
  0
LINE
  5
126F
102
{ACAD_REACTORS
330
1259
102
}
330
18
100
AcDbEntity
  8
ROGO
 62
     4
100
AcDbLine
 10
330.0144102440853
 20
302.0243493269912
 30
0.0
 11
330.7704774440854
 21
302.0243493269912
 31
0.0
  0
LINE
  5
1270
102
{ACAD_REACTORS
330
1259
102
}
330
18
100
AcDbEntity
  8
ROGO
 62
     4
100
AcDbLine
 10
329.5275686987541
 20
300.9984099345382
 30
0.0
 11
330.7704774440854
 21
302.0243493269912
 31
0.0
  0
LINE
  5
1271
102
{ACAD_REACTORS
330
1259
102
}
330
18
100
AcDbEntity
  8
ROGO
 62
     4
100
AcDbLine
 10
329.5275686987541
 20
300.9984099345382
 30
0.0
 11
330.039135214589
 21
299.9724705420852
 31
0.0
  0
LINE
  5
1272
102
{ACAD_REACTORS
330
1259
102
}
330
18
100
AcDbEntity
  8
ROGO
 62
     4
100
AcDbLine
 10
329.0160187254234
 20
300.5080341042047
 30
0.0
 11
329.2830680145891
 21
299.9724705420852
 31
0.0
  0
LINE
  5
1273
102
{ACAD_REACTORS
330
1259
102
}
330
18
100
AcDbEntity
  8
ROGO
 62
     4
100
AcDbLine
 10
329.6603971610065
 20
301.8003259181696
 30
0.0
 11
330.0144102440853
 21
302.0243493269912
 31
0.0
  0
LINE
  5
1274
102
{ACAD_REACTORS
330
1259
102
}
330
18
100
AcDbEntity
  8
ROGO
 62
     4
100
AcDbLine
 10
329.7721024679276
 20
302.0243493269912
 30
0.0
 11
329.6603971610065
 21
301.8003259181696
 31
0.0
  0
LINE
  5
1275
102
{ACAD_REACTORS
330
1259
102
}
330
18
100
AcDbEntity
  8
ROGO
 62
     4
100
AcDbLine
 10
329.0160187254234
 20
302.0243493269912
 30
0.0
 11
329.7721024679276
 21
302.0243493269912
 31
0.0
  0
LINE
  5
1282
330
18
100
AcDbEntity
  8
中心線
 48
0.5
100
AcDbLine
 10
429.2938484437446
 20
302.8069175338666
 30
0.0
 11
429.2938484437446
 21
282.1300839210279
 31
0.0
  0
CIRCLE
  5
1283
330
18
100
AcDbEntity
  8
外形線
100
AcDbCircle
 10
429.2938484437446
 20
292.6593826858847
 30
0.0
 40
3.25
  0
ARC
  5
1284
330
18
100
AcDbEntity
  8
外形線
100
AcDbCircle
 10
429.2938484437446
 20
292.6593826858847
 30
0.0
 40
8.0
100
AcDbArc
 50
270.0
 51
90.00000000000447
  0
LINE
  5
128B
330
18
100
AcDbEntity
  8
外形線
100
AcDbLine
 10
418.2938484437446
 20
304.9848837864748
 30
0.0
 11
418.2938484437446
 21
304.8556339186261
 31
0.0
  0
LINE
  5
128E
330
18
100
AcDbEntity
  8
外形線
100
AcDbLine
 10
421.4769733325958
 20
301.3700076959892
 30
0.0
 11
429.2938484437446
 21
300.6593826858847
 31
0.0
  0
ARC
  5
1291
330
18
100
AcDbEntity
  8
外形線
100
AcDbCircle
 10
421.7938484437446
 20
304.8556339186261
 30
0.0
 40
3.5
100
AcDbArc
 50
178.6319081918533
 51
264.8055710922652
  0
LINE
  5
1293
330
18
100
AcDbEntity
  8
外形線
100
AcDbLine
 10
418.1485420698988
 20
305.3046890597304
 30
0.0
 11
417.9324285136744
 21
305.5208026159549
 31
0.0
  0
ARC
  5
1294
330
18
100
AcDbEntity
  8
外形線
100
AcDbCircle
 10
145.2265356847309
 20
298.1835684836408
 30
0.0
 40
272.6532446783106
100
AcDbArc
 50
358.8390595143408
 51
5.028737861739205
  0
ARC
  5
1296
330
18
100
AcDbEntity
  8
外形線
100
AcDbCircle
 10
416.6309257422201
 20
322.0672789770159
 30
0.0
 40
0.2
100
AcDbArc
 50
4.535957030696843
 51
35.45083569158889
  0
ARC
  5
1297
330
18
100
AcDbEntity
  8
外形線
100
AcDbCircle
 10
417.7949886793056
 20
304.9511356691372
 30
0.0
 40
0.5
100
AcDbArc
 50
358.6319081918515
 51
45.0
  0
ARC
  5
1298
330
18
100
AcDbEntity
  8
外形線
100
AcDbCircle
 10
418.2859819042676
 20
305.8743560065481
 30
0.0
 40
0.5
100
AcDbArc
 50
182.2072769008187
 51
225.0
  0
LINE
  5
1299
330
18
100
AcDbEntity
  8
外形線
100
AcDbLine
 10
421.4769733325958
 20
283.9487576757802
 30
0.0
 11
429.2938484437446
 21
284.6593826858847
 31
0.0
  0
ARC
  5
129A
330
18
100
AcDbEntity
  8
外形線
100
AcDbCircle
 10
145.2265356847533
 20
287.1351968881281
 30
0.0
 40
272.6532446782883
100
AcDbArc
 50
354.9712621382604
 51
1.160940485659371
  0
ARC
  5
129B
330
18
100
AcDbEntity
  8
外形線
100
AcDbCircle
 10
421.7938484437446
 20
280.4631314531432
 30
0.0
 40
3.5
100
AcDbArc
 50
95.19442890773484
 51
181.3680918081467
  0
LINE
  5
129C
330
18
100
AcDbEntity
  8
外形線
100
AcDbLine
 10
418.2938484437446
 20
280.3338815852946
 30
0.0
 11
418.2938484437446
 21
280.4631314531432
 31
0.0
  0
ARC
  5
129D
330
18
100
AcDbEntity
  8
外形線
100
AcDbCircle
 10
418.2859819042676
 20
279.4444093652213
 30
0.0
 40
0.5
100
AcDbArc
 50
135.0
 51
177.7927230991813
  0
LINE
  5
129E
330
18
100
AcDbEntity
  8
外形線
100
AcDbLine
 10
418.1485420698988
 20
280.0140763120389
 30
0.0
 11
417.9324285136744
 21
279.7979627558145
 31
0.0
  0
ARC
  5
129F
330
18
100
AcDbEntity
  8
外形線
100
AcDbCircle
 10
417.7949886793056
 20
280.3676297026322
 30
0.0
 40
0.5
100
AcDbArc
 50
315.0
 51
1.368091808148501
  0
ARC
  5
12A0
330
18
100
AcDbEntity
  8
外形線
100
AcDbCircle
 10
416.6309257422201
 20
263.2514863947534
 30
0.0
 40
0.2
100
AcDbArc
 50
324.5491643084112
 51
355.4640429693032
  0
LINE
  5
12A1
330
18
100
AcDbEntity
  8
外形線
100
AcDbLine
 10
418.2948461498605
 20
304.9391979503233
 30
0.0
 11
418.2948461498605
 21
280.379567421445
 31
0.0
  0
LINE
  5
12A2
330
18
100
AcDbEntity
  8
外形線
100
AcDbLine
 10
417.7863528878307
 20
305.855098646027
 30
0.0
 11
417.7691433183127
 21
305.9500900923254
 31
0.0
  0
LINE
  5
12A3
330
18
100
AcDbEntity
  8
外形線
100
AcDbLine
 10
417.7863528878307
 20
279.4636667257424
 30
0.0
 11
417.7687908716588
 21
279.3563170694018
 31
0.0
  0
LINE
  5
12A4
330
18
100
AcDbEntity
  8
想像線
 48
0.5
100
AcDbLine
 10
420.0928517994968
 20
301.7967762206843
 30
0.0
 11
420.0928517994968
 21
283.521989151085
 31
0.0
  0
LINE
  5
12A6
330
18
100
AcDbEntity
  8
想像線
 48
0.5
100
AcDbLine
 10
425.0928517994969
 20
301.0412914717254
 30
0.0
 11
425.0928517994969
 21
284.277473900044
 31
0.0
  0
LINE
  5
12B7
330
18
100
AcDbEntity
  8
0
  6
ByBlock
 62
     2
100
AcDbLine
 10
420.0928517994968
 20
301.7967762206843
 30
0.0
 11
420.0928517994968
 21
311.3252273788666
 31
0.0
  0
LINE
  5
12B8
330
18
100
AcDbEntity
  8
0
  6
ByBlock
 62
     2
100
AcDbLine
 10
425.0928517994969
 20
301.0412914717254
 30
0.0
 11
425.0928517994969
 21
311.3252273788666
 31
0.0
  0
LINE
  5
12B9
330
18
100
AcDbEntity
  8
0
  6
ByBlock
 62
     2
100
AcDbLine
 10
417.5928517994968
 20
310.0752273788665
 30
0.0
 11
415.0928517994969
 21
310.0752273788665
 31
0.0
  0
LINE
  5
12BA
330
18
100
AcDbEntity
  8
0
  6
ByBlock
 62
     2
100
AcDbLine
 10
427.5928517994969
 20
310.0752273788665
 30
0.0
 11
430.0928517994969
 21
310.0752273788665
 31
0.0
  0
LINE
  5
12BB
330
18
100
AcDbEntity
  8
0
  6
ByBlock
 62
     2
100
AcDbLine
 10
420.0928517994968
 20
310.0752273788665
 30
0.0
 11
425.0928517994969
 21
310.0752273788665
 31
0.0
  0
INSERT
  5
12BC
330
18
100
AcDbEntity
  8
0
  6
ByBlock
 62
     2
100
AcDbBlockReference
  2
_OPEN
 10
420.0928517994968
 20
310.0752273788665
 30
0.0
 41
2.5
 42
2.5
 43
2.5
  0
INSERT
  5
12BD
330
18
100
AcDbEntity
  8
0
  6
ByBlock
 62
     2
100
AcDbBlockReference
  2
_OPEN
 10
425.0928517994969
 20
310.0752273788665
 30
0.0
 41
2.5
 42
2.5
 43
2.5
 50
180.0
  0
POINT
  5
12BF
330
18
100
AcDbEntity
  8
DEFPOINTS
  6
ByBlock
 62
     0
100
AcDbPoint
 10
420.0928517994968
 20
301.7967762206843
 30
0.0
  0
POINT
  5
12C0
330
18
100
AcDbEntity
  8
DEFPOINTS
  6
ByBlock
 62
     0
100
AcDbPoint
 10
425.0928517994969
 20
301.0412914717254
 30
0.0
  0
POINT
  5
12C1
330
18
100
AcDbEntity
  8
DEFPOINTS
  6
ByBlock
 62
     0
100
AcDbPoint
 10
425.0928517994969
 20
310.0752273788665
 30
0.0
  0
TEXT
  5
12C2
330
18
100
AcDbEntity
  8
寸法線
 62
     6
100
AcDbText
 10
419.5344266929887
 20
311.5739068350846
 30
0.0
 40
2.5
  1
5.0
  7
STYLE3
100
AcDbText
  0
LINE
  5
12E9
330
18
100
AcDbEntity
  8
0
  6
ByBlock
 62
     2
100
AcDbLine
 10
439.440882614416
 20
310.0752273788665
 30
0.0
 11
432.1885079110346
 21
297.6276264971754
 31
0.0
  0
INSERT
  5
12EE
330
18
100
AcDbEntity
  8
0
  6
ByBlock
 62
     2
100
AcDbBlockReference
  2
_OPEN
 10
430.9299603165607
 20
295.4675204922663
 30
0.0
 41
2.5
 42
2.5
 43
2.5
 50
239.7735393033029
  0
POINT
  5
12EF
330
18
100
AcDbEntity
  8
DEFPOINTS
  6
ByBlock
 62
     0
100
AcDbPoint
 10
430.9299603165607
 20
295.4675204922663
 30
0.0
  0
POINT
  5
12F0
330
18
100
AcDbEntity
  8
DEFPOINTS
  6
ByBlock
 62
     0
100
AcDbPoint
 10
427.6577365709285
 20
289.8512448795029
 30
0.0
  0
LINE
  5
12F1
330
18
100
AcDbEntity
  8
寸法線
100
AcDbLine
 10
439.440882614416
 20
310.0752273788665
 30
0.0
 11
448.4433804360348
 21
310.0752273788665
 31
0.0
  0
TEXT
  5
12F2
330
18
100
AcDbEntity
  8
文字
100
AcDbText
 10
439.7804072200921
 20
310.7380307560187
 30
0.0
 40
2.5
  1
φ6.5
  7
STYLE3
100
AcDbText
  0
CIRCLE
  5
1303
330
18
100
AcDbEntity
  8
針
100
AcDbCircle
 10
322.5424188241684
 20
292.6593826858847
 30
0.0
 40
1.9
  0
CIRCLE
  5
1305
330
18
100
AcDbEntity
  8
針
100
AcDbCircle
 10
322.5424188241684
 20
292.6593826858847
 30
0.0
 40
1.7
  0
CIRCLE
  5
1306
330
18
100
AcDbEntity
  8
針
100
AcDbCircle
 10
322.5424188241684
 20
292.6593826858847
 30
0.0
 40
0.475
  0
LINE
  5
1308
330
18
100
AcDbEntity
  8
針
100
AcDbLine
 10
306.6722170122716
 20
314.5028415340082
 30
0.0
 11
306.7531187117091
 21
314.5616200592375
 31
0.0
  0
LINE
  5
130A
330
18
100
AcDbEntity
  8
針
100
AcDbLine
 10
321.1616686985426
 20
295.5806031655067
 30
0.0
 11
306.7531187117091
 21
314.5616200592375
 31
0.0
  0
ARC
  5
130C
330
18
100
AcDbEntity
  8
針
100
AcDbCircle
 10
323.5887196816675
 20
297.3439589223842
 30
0.0
 40
3.0
100
AcDbArc
 50
216.0
 51
248.2155415681863
  0
LINE
  5
130D
330
18
100
AcDbEntity
  8
針
100
AcDbLine
 10
320.1908483052926
 20
294.8752608627557
 30
0.0
 11
306.5913153128341
 21
314.444063008779
 31
0.0
  0
ARC
  5
130E
330
18
100
AcDbEntity
  8
針
100
AcDbCircle
 10
317.7637973221678
 20
293.1119051058782
 30
0.0
 40
3.0
100
AcDbArc
 50
3.784458431813719
 51
36.00000000000001
  0
LINE
  5
130F
330
18
100
AcDbEntity
  8
針
100
AcDbLine
 10
306.6722170122716
 20
314.5028415340082
 30
0.0
 11
306.5913153128341
 21
314.444063008779
 31
0.0
  0
HATCH
  5
1334
330
18
100
AcDbEntity
  8
針
100
AcDbHatch
 10
0.0
 20
0.0
 30
0.0
210
0.0
220
0.0
230
1.0
  2
SOLID
 70
     1
 71
     0
 91
        1
 92
        7
 72
     1
 73
     1
 93
        7
 10
320.190848305294
 20
294.8752608627538
 42
-0.1415000153294117
 10
320.7572555476116
 20
293.3099148342316
 42
-0.305518198173085
 10
322.4753717756133
 20
294.5581993419313
 42
-0.1415000153293935
 10
321.161668698544
 20
295.5806031655048
 42
0.0
 10
306.7531187117091
 20
314.5616200592375
 42
0.0
 10
306.6722170122716
 20
314.5028415340082
 42
0.0
 10
306.5913153128341
 20
314.444063008779
 42
0.0
 97
        0
 75
     0
 76
     1
 47
0.070338108143851
 98
        1
 10
317.4571493531127
 20
299.3176070066359
450
        0
451
        0
460
0.0
461
0.0
452
        0
462
0.0
453
        0
470

  0
POINT
  5
13A2
330
18
100
AcDbEntity
  8
DEFPOINTS
  6
ByBlock
 62
     0
100
AcDbPoint
 10
409.2938484437446
 20
202.6593826858847
 30
0.0
  0
POINT
  5
13A3
330
18
100
AcDbEntity
  8
DEFPOINTS
  6
ByBlock
 62
     0
100
AcDbPoint
 10
406.7938484437447
 20
211.6593826858847
 30
0.0
  0
LINE
  5
13A5
330
18
100
AcDbEntity
  8
0
  6
ByBlock
 62
     2
100
AcDbLine
 10
406.7938484437447
 20
234.4093826858847
 30
0.0
 11
382.0229980392361
 21
234.4093826858847
 31
0.0
  0
LINE
  5
13A6
330
18
100
AcDbEntity
  8
0
  6
ByBlock
 62
     2
100
AcDbLine
 10
383.2729980392361
 20
256.9093826858847
 30
0.0
 11
383.2729980392361
 21
236.9093826858847
 31
0.0
  0
INSERT
  5
13A7
330
18
100
AcDbEntity
  8
0
  6
ByBlock
 62
     2
100
AcDbBlockReference
  2
_OPEN
 10
383.2729980392361
 20
259.4093826858847
 30
0.0
 41
2.5
 42
2.5
 43
2.5
 50
90.0
  0
INSERT
  5
13A8
330
18
100
AcDbEntity
  8
0
  6
ByBlock
 62
     2
100
AcDbBlockReference
  2
_OPEN
 10
383.2729980392361
 20
234.4093826858847
 30
0.0
 41
2.5
 42
2.5
 43
2.5
 50
270.0
  0
MTEXT
  5
13A9
330
18
100
AcDbEntity
  8
0
  6
ByBlock
 62
     6
100
AcDbMText
 10
381.3979980392361
 20
246.9093826858847
 30
0.0
 40
2.5
 41
0.0
 71
     5
 72
     1
  1
\A1;25
  7
STYLE3
 11
0.0000000000000001
 21
1.0
 31
0.0
 73
     1
 44
1.0
  0
POINT
  5
13AA
330
18
100
AcDbEntity
  8
DEFPOINTS
  6
ByBlock
 62
     0
100
AcDbPoint
 10
398.0938484437447
 20
259.4093826858847
 30
0.0
  0
POINT
  5
13AB
330
18
100
AcDbEntity
  8
DEFPOINTS
  6
ByBlock
 62
     0
100
AcDbPoint
 10
406.7938484437447
 20
234.4093826858847
 30
0.0
  0
POINT
  5
13AC
330
18
100
AcDbEntity
  8
DEFPOINTS
  6
ByBlock
 62
     0
100
AcDbPoint
 10
383.2729980392361
 20
234.4093826858847
 30
0.0
  0
POINT
  5
13B3
330
18
100
AcDbEntity
  8
DEFPOINTS
  6
ByBlock
 62
     0
100
AcDbPoint
 10
394.7938484437447
 20
292.6593826858848
 30
0.0
  0
POINT
  5
13B4
330
18
100
AcDbEntity
  8
DEFPOINTS
  6
ByBlock
 62
     0
100
AcDbPoint
 10
409.2938484437446
 20
333.6593826858847
 30
0.0
  0
LINE
  5
13B6
330
18
100
AcDbEntity
  8
0
  6
ByBlock
 62
     2
100
AcDbLine
 10
276.7388056696057
 20
333.6593826858847
 30
0.0
 11
269.8763208488847
 21
333.6593826858847
 31
0.0
  0
LINE
  5
13B7
330
18
100
AcDbEntity
  8
0
  6
ByBlock
 62
     2
100
AcDbLine
 10
276.7388056696057
 20
202.6593826858847
 30
0.0
 11
269.8763208488847
 21
202.6593826858847
 31
0.0
  0
LINE
  5
13B8
330
18
100
AcDbEntity
  8
0
  6
ByBlock
 62
     2
100
AcDbLine
 10
271.1263208488848
 20
331.1593826858847
 30
0.0
 11
271.1263208488848
 21
205.1593826858847
 31
0.0
  0
INSERT
  5
13B9
330
18
100
AcDbEntity
  8
0
  6
ByBlock
 62
     2
100
AcDbBlockReference
  2
_OPEN
 10
271.1263208488848
 20
333.6593826858847
 30
0.0
 41
2.5
 42
2.5
 43
2.5
 50
90.0
  0
INSERT
  5
13BA
330
18
100
AcDbEntity
  8
0
  6
ByBlock
 62
     2
100
AcDbBlockReference
  2
_OPEN
 10
271.1263208488848
 20
202.6593826858847
 30
0.0
 41
2.5
 42
2.5
 43
2.5
 50
270.0
  0
MTEXT
  5
13BB
330
18
100
AcDbEntity
  8
0
  6
ByBlock
 62
     6
100
AcDbMText
 10
269.2513208488847
 20
268.1593826858847
 30
0.0
 40
2.5
 41
0.0
 71
     5
 72
     1
  1
\A1;131
  7
STYLE3
 11
0.0000000000000001
 21
1.0
 31
0.0
 73
     1
 44
1.0
  0
POINT
  5
13BC
330
18
100
AcDbEntity
  8
DEFPOINTS
  6
ByBlock
 62
     0
100
AcDbPoint
 10
276.7388056696057
 20
333.6593826858847
 30
0.0
  0
POINT
  5
13BD
330
18
100
AcDbEntity
  8
DEFPOINTS
  6
ByBlock
 62
     0
100
AcDbPoint
 10
276.7388056696057
 20
202.6593826858847
 30
0.0
  0
POINT
  5
13BE
330
18
100
AcDbEntity
  8
DEFPOINTS
  6
ByBlock
 62
     0
100
AcDbPoint
 10
271.1263208488848
 20
202.6593826858847
 30
0.0
  0
LINE
  5
13C0
330
18
100
AcDbEntity
  8
0
  6
ByBlock
 62
     2
100
AcDbLine
 10
398.0938484437447
 20
259.4093826858847
 30
0.0
 11
382.0229980392361
 21
259.4093826858847
 31
0.0
  0
POINT
  5
13C5
330
18
100
AcDbEntity
  8
DEFPOINTS
  6
ByBlock
 62
     0
100
AcDbPoint
 10
398.0938484437447
 20
325.9093826858847
 30
0.0
  0
POINT
  5
13C6
330
18
100
AcDbEntity
  8
DEFPOINTS
  6
ByBlock
 62
     0
100
AcDbPoint
 10
398.0938484437447
 20
259.4093826858847
 30
0.0
  0
POINT
  5
13C7
330
18
100
AcDbEntity
  8
DEFPOINTS
  6
ByBlock
 62
     0
100
AcDbPoint
 10
383.2729980392361
 20
259.4093826858847
 30
0.0
  0
LINE
  5
13C8
330
18
100
AcDbEntity
  8
0
  6
ByBlock
 62
     2
100
AcDbLine
 10
322.5424188241684
 20
333.6593826858847
 30
0.0
 11
276.7388056696057
 21
333.6593826858847
 31
0.0
  0
LINE
  5
13C9
330
18
100
AcDbEntity
  8
0
  6
ByBlock
 62
     2
100
AcDbLine
 10
289.2924188241684
 20
292.6593826858847
 30
0.0
 11
276.7388056696057
 21
292.6593826858847
 31
0.0
  0
LINE
  5
13CA
330
18
100
AcDbEntity
  8
0
  6
ByBlock
 62
     2
100
AcDbLine
 10
277.9888056696057
 20
331.1593826858847
 30
0.0
 11
277.9888056696057
 21
295.1593826858847
 31
0.0
  0
INSERT
  5
13CB
330
18
100
AcDbEntity
  8
0
  6
ByBlock
 62
     2
100
AcDbBlockReference
  2
_OPEN
 10
277.9888056696057
 20
333.6593826858847
 30
0.0
 41
2.5
 42
2.5
 43
2.5
 50
90.0
  0
INSERT
  5
13CC
330
18
100
AcDbEntity
  8
0
  6
ByBlock
 62
     2
100
AcDbBlockReference
  2
_OPEN
 10
277.9888056696057
 20
292.6593826858847
 30
0.0
 41
2.5
 42
2.5
 43
2.5
 50
270.0
  0
MTEXT
  5
13CD
330
18
100
AcDbEntity
  8
0
  6
ByBlock
 62
     6
100
AcDbMText
 10
276.1138056696057
 20
313.1593826858847
 30
0.0
 40
2.5
 41
0.0
 71
     5
 72
     1
  1
\A1;41
  7
STYLE3
 11
0.0000000000000001
 21
1.0
 31
0.0
 73
     1
 44
1.0
  0
POINT
  5
13CE
330
18
100
AcDbEntity
  8
DEFPOINTS
  6
ByBlock
 62
     0
100
AcDbPoint
 10
322.5424188241684
 20
333.6593826858847
 30
0.0
  0
POINT
  5
13CF
330
18
100
AcDbEntity
  8
DEFPOINTS
  6
ByBlock
 62
     0
100
AcDbPoint
 10
289.2924188241684
 20
292.6593826858847
 30
0.0
  0
POINT
  5
13D0
330
18
100
AcDbEntity
  8
DEFPOINTS
  6
ByBlock
 62
     0
100
AcDbPoint
 10
277.9888056696057
 20
292.6593826858847
 30
0.0
  0
POINT
  5
13D7
330
18
100
AcDbEntity
  8
DEFPOINTS
  6
ByBlock
 62
     0
100
AcDbPoint
 10
293.5424188241684
 20
292.6593826858847
 30
0.0
  0
POINT
  5
13D8
330
18
100
AcDbEntity
  8
DEFPOINTS
  6
ByBlock
 62
     0
100
AcDbPoint
 10
351.5424188241684
 20
292.6593826858847
 30
0.0
  0
LINE
  5
13DA
102
{ACAD_REACTORS
330
13DD
102
}
330
18
100
AcDbEntity
  8
外形線
100
AcDbLine
 10
334.3812077616359
 20
294.1989660192179
 30
0.0
 11
333.3812077616359
 21
294.1989660192179
 31
0.0
  0
LINE
  5
13DB
102
{ACAD_REACTORS
330
13DD
102
}
330
18
100
AcDbEntity
  8
外形線
100
AcDbLine
 10
334.3812077616359
 20
294.0197993525512
 30
0.0
 11
333.3812077616359
 21
294.0197993525513
 31
0.0
  0
TEXT
  5
13DC
330
18
100
AcDbEntity
  8
文字
100
AcDbText
 10
328.6109541444222
 20
291.6230924514721
 30
0.0
 40
1.0
  1
0.01mm
  7
STYLE3
100
AcDbText
  0
HATCH
  5
13DD
330
18
100
AcDbEntity
  8
外形線
100
AcDbHatch
 10
0.0
 20
0.0
 30
0.0
210
0.0
220
0.0
230
1.0
  2
SOLID
 70
     1
 71
     1
 91
        2
 92
        1
 93
        7
 72
     1
 10
332.2145410949691
 20
294.1093826858846
 11
333.3812077616359
 21
293.6847507459074
 72
     1
 10
333.3812077616359
 20
293.6847507459074
 11
333.3812077616359
 21
294.0197993525513
 72
     1
 10
333.3812077616359
 20
294.0197993525513
 11
334.3812077616359
 21
294.0197993525512
 72
     1
 10
334.3812077616359
 20
294.0197993525512
 11
334.3812077616359
 21
294.1989660192179
 72
     1
 10
334.3812077616359
 20
294.1989660192179
 11
333.3812077616359
 21
294.1989660192179
 72
     1
 10
333.3812077616359
 20
294.1989660192179
 11
333.3812077616359
 21
294.5340146258618
 72
     1
 10
333.3812077616359
 20
294.5340146258618
 11
332.2145410949691
 21
294.1093826858846
 97
        7
330
13E6
330
13E9
330
13DB
330
1402
330
13DA
330
13E5
330
13EC
 92
        1
 93
        4
 72
     1
 10
332.2145410949691
 20
294.8593826858846
 11
332.2145410949691
 21
293.3593826858846
 72
     1
 10
332.2145410949691
 20
293.3593826858846
 11
332.0478744283025
 21
293.3593826858846
 72
     1
 10
332.0478744283025
 20
293.3593826858846
 11
332.0478744283025
 21
294.8593826858846
 72
     1
 10
332.0478744283025
 20
294.8593826858846
 11
332.2145410949691
 21
294.8593826858846
 97
        4
330
13EB
330
13F8
330
13EA
330
13E2
 75
     0
 76
     1
 98
        1
 10
239.8849843884889
 20
225.4472318787036
450
        0
451
        0
460
0.0
461
0.0
452
        0
462
0.0
453
        0
470

  0
LINE
  5
13DE
102
{ACAD_REACTORS
330
13E0
102
}
330
18
100
AcDbEntity
  8
外形線
100
AcDbLine
 10
328.8812077616359
 20
294.1989660192179
 30
0.0
 11
329.8812077616359
 21
294.1989660192179
 31
0.0
  0
LINE
  5
13DF
102
{ACAD_REACTORS
330
13E0
102
}
330
18
100
AcDbEntity
  8
外形線
100
AcDbLine
 10
328.8812077616359
 20
294.0197993525512
 30
0.0
 11
329.8812077616359
 21
294.0197993525513
 31
0.0
  0
HATCH
  5
13E0
330
18
100
AcDbEntity
  8
外形線
100
AcDbHatch
 10
0.0
 20
0.0
 30
0.0
210
0.0
220
0.0
230
1.0
  2
SOLID
 70
     1
 71
     1
 91
        2
 92
        1
 93
        7
 72
     1
 10
331.0478744283027
 20
294.1093826858846
 11
329.8812077616359
 21
293.6847507459074
 72
     1
 10
329.8812077616359
 20
293.6847507459074
 11
329.8812077616359
 21
294.0197993525513
 72
     1
 10
329.8812077616359
 20
294.0197993525513
 11
328.8812077616359
 21
294.0197993525512
 72
     1
 10
328.8812077616359
 20
294.0197993525512
 11
328.8812077616359
 21
294.1989660192179
 72
     1
 10
328.8812077616359
 20
294.1989660192179
 11
329.8812077616359
 21
294.1989660192179
 72
     1
 10
329.8812077616359
 20
294.1989660192179
 11
329.8812077616359
 21
294.5340146258618
 72
     1
 10
329.8812077616359
 20
294.5340146258618
 11
331.0478744283027
 21
294.1093826858846
 97
        7
330
13F4
330
13F1
330
13DF
330
13E1
330
13DE
330
13EE
330
13F5
 92
        1
 93
        4
 72
     1
 10
331.0478744283027
 20
294.8593826858846
 11
331.0478744283027
 21
293.3593826858846
 72
     1
 10
331.0478744283027
 20
293.3593826858846
 11
331.2145410949692
 21
293.3593826858846
 72
     1
 10
331.2145410949692
 20
293.3593826858846
 11
331.2145410949692
 21
294.8593826858846
 72
     1
 10
331.2145410949692
 20
294.8593826858846
 11
331.0478744283027
 21
294.8593826858846
 97
        4
330
13F6
330
1401
330
13F7
330
13ED
 75
     0
 76
     1
 98
        1
 10
423.3774311347828
 20
225.4472318787036
450
        0
451
        0
460
0.0
461
0.0
452
        0
462
0.0
453
        0
470

  0
LINE
  5
13E1
102
{ACAD_REACTORS
330
13E0
102
}
330
18
100
AcDbEntity
  8
外形線
100
AcDbLine
 10
328.8812077616359
 20
294.1989660192179
 30
0.0
 11
328.8812077616359
 21
294.0197993525512
 31
0.0
  0
LINE
  5
13E2
102
{ACAD_REACTORS
330
13DD
102
}
330
18
100
AcDbEntity
  8
外形線
100
AcDbLine
 10
332.0478744283025
 20
294.8593826858846
 30
0.0
 11
332.2145410949691
 21
294.8593826858846
 31
0.0
  0
POINT
  5
13E3
330
18
100
AcDbEntity
  8
DEFPOINTS
  6
ByBlock
 62
     0
100
AcDbPoint
 10
333.3812077616359
 20
294.5340146258618
 30
0.0
  0
POINT
  5
13E4
330
18
100
AcDbEntity
  8
DEFPOINTS
  6
ByBlock
 62
     0
100
AcDbPoint
 10
333.3812077616359
 20
294.5340146258618
 30
0.0
  0
LINE
  5
13E5
102
{ACAD_REACTORS
330
13DD
102
}
330
18
100
AcDbEntity
  8
外形線
100
AcDbLine
 10
333.3812077616359
 20
294.5340146258618
 30
0.0
 11
333.3812077616359
 21
294.1989660192179
 31
0.0
  0
LINE
  5
13E6
102
{ACAD_REACTORS
330
13DD
102
}
330
18
100
AcDbEntity
  8
外形線
100
AcDbLine
 10
332.2145410949691
 20
294.1093826858846
 30
0.0
 11
333.3812077616359
 21
293.6847507459074
 31
0.0
  0
POINT
  5
13E7
330
18
100
AcDbEntity
  8
DEFPOINTS
  6
ByBlock
 62
     0
100
AcDbPoint
 10
333.3812077616359
 20
293.6847507459074
 30
0.0
  0
POINT
  5
13E8
330
18
100
AcDbEntity
  8
DEFPOINTS
  6
ByBlock
 62
     0
100
AcDbPoint
 10
333.3812077616359
 20
293.6847507459074
 30
0.0
  0
LINE
  5
13E9
102
{ACAD_REACTORS
330
13DD
102
}
330
18
100
AcDbEntity
  8
外形線
100
AcDbLine
 10
333.3812077616359
 20
294.0197993525513
 30
0.0
 11
333.3812077616359
 21
293.6847507459074
 31
0.0
  0
LINE
  5
13EA
102
{ACAD_REACTORS
330
13DD
102
}
330
18
100
AcDbEntity
  8
外形線
100
AcDbLine
 10
332.0478744283025
 20
294.8593826858846
 30
0.0
 11
332.0478744283025
 21
293.3593826858846
 31
0.0
  0
LINE
  5
13EB
102
{ACAD_REACTORS
330
13DD
102
}
330
18
100
AcDbEntity
  8
外形線
100
AcDbLine
 10
332.2145410949691
 20
294.8593826858846
 30
0.0
 11
332.2145410949691
 21
293.3593826858846
 31
0.0
  0
LINE
  5
13EC
102
{ACAD_REACTORS
330
13DD
102
}
330
18
100
AcDbEntity
  8
外形線
100
AcDbLine
 10
332.2145410949691
 20
294.1093826858846
 30
0.0
 11
333.3812077616359
 21
294.5340146258618
 31
0.0
  0
LINE
  5
13ED
102
{ACAD_REACTORS
330
13E0
102
}
330
18
100
AcDbEntity
  8
外形線
100
AcDbLine
 10
331.2145410949692
 20
294.8593826858846
 30
0.0
 11
331.0478744283027
 21
294.8593826858846
 31
0.0
  0
LINE
  5
13EE
102
{ACAD_REACTORS
330
13E0
102
}
330
18
100
AcDbEntity
  8
外形線
100
AcDbLine
 10
329.8812077616359
 20
294.5340146258618
 30
0.0
 11
329.8812077616359
 21
294.1989660192179
 31
0.0
  0
POINT
  5
13EF
330
18
100
AcDbEntity
  8
DEFPOINTS
  6
ByBlock
 62
     0
100
AcDbPoint
 10
329.8812077616359
 20
294.5340146258618
 30
0.0
  0
POINT
  5
13F0
330
18
100
AcDbEntity
  8
DEFPOINTS
  6
ByBlock
 62
     0
100
AcDbPoint
 10
329.8812077616359
 20
294.5340146258618
 30
0.0
  0
LINE
  5
13F1
102
{ACAD_REACTORS
330
13E0
102
}
330
18
100
AcDbEntity
  8
外形線
100
AcDbLine
 10
329.8812077616359
 20
294.0197993525513
 30
0.0
 11
329.8812077616359
 21
293.6847507459074
 31
0.0
  0
POINT
  5
13F2
330
18
100
AcDbEntity
  8
DEFPOINTS
  6
ByBlock
 62
     0
100
AcDbPoint
 10
329.8812077616359
 20
293.6847507459074
 30
0.0
  0
POINT
  5
13F3
330
18
100
AcDbEntity
  8
DEFPOINTS
  6
ByBlock
 62
     0
100
AcDbPoint
 10
329.8812077616359
 20
293.6847507459074
 30
0.0
  0
LINE
  5
13F4
102
{ACAD_REACTORS
330
13E0
102
}
330
18
100
AcDbEntity
  8
外形線
100
AcDbLine
 10
331.0478744283027
 20
294.1093826858846
 30
0.0
 11
329.8812077616359
 21
293.6847507459074
 31
0.0
  0
LINE
  5
13F5
102
{ACAD_REACTORS
330
13E0
102
}
330
18
100
AcDbEntity
  8
外形線
100
AcDbLine
 10
331.0478744283027
 20
294.1093826858846
 30
0.0
 11
329.8812077616359
 21
294.5340146258618
 31
0.0
  0
LINE
  5
13F6
102
{ACAD_REACTORS
330
13E0
102
}
330
18
100
AcDbEntity
  8
外形線
100
AcDbLine
 10
331.0478744283027
 20
294.8593826858846
 30
0.0
 11
331.0478744283027
 21
293.3593826858846
 31
0.0
  0
LINE
  5
13F7
102
{ACAD_REACTORS
330
13E0
102
}
330
18
100
AcDbEntity
  8
外形線
100
AcDbLine
 10
331.2145410949692
 20
294.8593826858846
 30
0.0
 11
331.2145410949692
 21
293.3593826858846
 31
0.0
  0
LINE
  5
13F8
102
{ACAD_REACTORS
330
13DD
102
}
330
18
100
AcDbEntity
  8
外形線
100
AcDbLine
 10
332.0478744283025
 20
293.3593826858846
 30
0.0
 11
332.2145410949691
 21
293.3593826858846
 31
0.0
  0
POINT
  5
13F9
330
18
100
AcDbEntity
  8
DEFPOINTS
  6
ByBlock
 62
     0
100
AcDbPoint
 10
332.2145410949691
 20
293.3593826858846
 30
0.0
  0
POINT
  5
13FA
330
18
100
AcDbEntity
  8
DEFPOINTS
  6
ByBlock
 62
     0
100
AcDbPoint
 10
332.0478744283025
 20
293.3593826858846
 30
0.0
  0
POINT
  5
13FB
330
18
100
AcDbEntity
  8
DEFPOINTS
  6
ByBlock
 62
     0
100
AcDbPoint
 10
332.2145410949691
 20
293.3593826858846
 30
0.0
  0
POINT
  5
13FC
330
18
100
AcDbEntity
  8
DEFPOINTS
  6
ByBlock
 62
     0
100
AcDbPoint
 10
332.0478744283025
 20
293.3593826858846
 30
0.0
  0
POINT
  5
13FD
330
18
100
AcDbEntity
  8
DEFPOINTS
  6
ByBlock
 62
     0
100
AcDbPoint
 10
331.2145410949692
 20
293.3593826858846
 30
0.0
  0
POINT
  5
13FE
330
18
100
AcDbEntity
  8
DEFPOINTS
  6
ByBlock
 62
     0
100
AcDbPoint
 10
331.0478744283027
 20
293.3593826858846
 30
0.0
  0
POINT
  5
13FF
330
18
100
AcDbEntity
  8
DEFPOINTS
  6
ByBlock
 62
     0
100
AcDbPoint
 10
331.2145410949692
 20
293.3593826858846
 30
0.0
  0
POINT
  5
1400
330
18
100
AcDbEntity
  8
DEFPOINTS
  6
ByBlock
 62
     0
100
AcDbPoint
 10
331.0478744283027
 20
293.3593826858846
 30
0.0
  0
LINE
  5
1401
102
{ACAD_REACTORS
330
13E0
102
}
330
18
100
AcDbEntity
  8
外形線
100
AcDbLine
 10
331.2145410949692
 20
293.3593826858846
 30
0.0
 11
331.0478744283027
 21
293.3593826858846
 31
0.0
  0
LINE
  5
1402
102
{ACAD_REACTORS
330
13DD
102
}
330
18
100
AcDbEntity
  8
外形線
100
AcDbLine
 10
334.3812077616359
 20
294.1989660192179
 30
0.0
 11
334.3812077616359
 21
294.0197993525512
 31
0.0
  0
LINE
  5
1403
330
18
100
AcDbEntity
  8
0
  6
ByBlock
 62
     2
100
AcDbLine
 10
322.5424188241684
 20
202.6593826858847
 30
0.0
 11
276.7388056696057
 21
202.6593826858847
 31
0.0
  0
LINE
  5
1404
330
18
100
AcDbEntity
  8
0
  6
ByBlock
 62
     2
100
AcDbLine
 10
277.9888056696057
 20
290.1593826858847
 30
0.0
 11
277.9888056696057
 21
205.1593826858847
 31
0.0
  0
INSERT
  5
1405
330
18
100
AcDbEntity
  8
0
  6
ByBlock
 62
     2
100
AcDbBlockReference
  2
_OPEN
 10
277.9888056696057
 20
292.6593826858847
 30
0.0
 41
2.5
 42
2.5
 43
2.5
 50
90.0
  0
INSERT
  5
1406
330
18
100
AcDbEntity
  8
0
  6
ByBlock
 62
     2
100
AcDbBlockReference
  2
_OPEN
 10
277.9888056696057
 20
202.6593826858847
 30
0.0
 41
2.5
 42
2.5
 43
2.5
 50
270.0
  0
MTEXT
  5
1407
330
18
100
AcDbEntity
  8
0
  6
ByBlock
 62
     6
100
AcDbMText
 10
276.1138056696057
 20
247.6593826858846
 30
0.0
 40
2.5
 41
0.0
 71
     5
 72
     1
  1
\A1;90
  7
STYLE3
 11
0.0000000000000001
 21
1.0
 31
0.0
 73
     1
 44
1.0
  0
POINT
  5
1408
330
18
100
AcDbEntity
  8
DEFPOINTS
  6
ByBlock
 62
     0
100
AcDbPoint
 10
289.2924188241684
 20
292.6593826858847
 30
0.0
  0
POINT
  5
1409
330
18
100
AcDbEntity
  8
DEFPOINTS
  6
ByBlock
 62
     0
100
AcDbPoint
 10
322.5424188241684
 20
202.6593826858847
 30
0.0
  0
POINT
  5
140A
330
18
100
AcDbEntity
  8
DEFPOINTS
  6
ByBlock
 62
     0
100
AcDbPoint
 10
277.9888056696057
 20
202.6593826858847
 30
0.0
  0
LINE
  5
140B
330
18
100
AcDbEntity
  8
寸法線
100
AcDbLine
 10
320.0424188241684
 20
211.052253790405
 30
0.0
 11
320.4495477196481
 21
211.4593826858847
 31
0.0
  0
LINE
  5
140C
330
18
100
AcDbEntity
  8
寸法線
100
AcDbLine
 10
320.0424188241684
 20
209.7052153722446
 30
0.0
 11
321.7965861378085
 21
211.4593826858847
 31
0.0
  0
LINE
  5
140D
330
18
100
AcDbEntity
  8
寸法線
100
AcDbLine
 10
320.0436245559688
 20
208.3593826858847
 30
0.0
 11
322.5424188241685
 21
210.8581769540843
 31
0.0
  0
LINE
  5
140E
330
18
100
AcDbEntity
  8
寸法線
100
AcDbLine
 10
321.3906629741292
 20
208.3593826858847
 30
0.0
 11
322.5424188241685
 21
209.5111385359239
 31
0.0
  0
LINE
  5
140F
330
18
100
AcDbEntity
  8
寸法線
100
AcDbLine
 10
320.1364667483539
 20
208.3593826858847
 30
0.0
 11
320.0424188241684
 21
208.4534306100702
 31
0.0
  0
LINE
  5
1410
330
18
100
AcDbEntity
  8
寸法線
100
AcDbLine
 10
321.4835051665143
 20
208.3593826858846
 30
0.0
 11
320.0424188241684
 21
209.8004690282305
 31
0.0
  0
LINE
  5
1411
330
18
100
AcDbEntity
  8
寸法線
100
AcDbLine
 10
322.5424188241684
 20
208.6475074463909
 30
0.0
 11
320.0424188241684
 21
211.1475074463909
 31
0.0
  0
LINE
  5
1412
330
18
100
AcDbEntity
  8
寸法線
100
AcDbLine
 10
322.5424188241685
 20
209.9945458645512
 30
0.0
 11
321.077582002835
 21
211.4593826858846
 31
0.0
  0
LINE
  5
1413
330
18
100
AcDbEntity
  8
寸法線
100
AcDbLine
 10
322.5424188241685
 20
211.3415842827115
 30
0.0
 11
322.4246204209953
 21
211.4593826858847
 31
0.0
  0
HATCH
  5
1414
330
18
100
AcDbEntity
  8
針
100
AcDbHatch
 10
0.0
 20
0.0
 30
0.0
210
0.0
220
0.0
230
1.0
  2
SOLID
 70
     1
 71
     0
 91
        2
 92
        7
 72
     1
 73
     1
 93
        5
 10
319.6950931138126
 20
281.5434799688501
 42
0.31735696877887
 10
320.4422916639447
 20
282.5686859545696
 42
0.0
 10
320.080960986662
 20
282.8353940046618
 42
0.0
 10
320.0528265324779
 20
282.82587101731
 42
-0.4142135623731173
 10
319.5828785671076
 20
281.8750035660612
 42
0.0
 97
        0
 92
        7
 72
     1
 73
     1
 93
        4
 10
319.6950931138126
 20
281.5434799688501
 42
0.0
 10
319.5828785671076
 20
281.8750035660612
 42
-0.4142135623730728
 10
318.6320111158589
 20
282.3449515314315
 42
0.0
 10
318.3004875186477
 20
282.2327369847265
 42
0.4142135623730844
 97
        0
 75
     0
 76
     1
 47
0.0161501285364394
 98
        2
 10
320.0039658359945
 20
281.8890814719671
 10
319.3251707650773
 20
281.6763719300165
450
        0
451
        0
460
0.0
461
0.0
452
        0
462
0.0
453
        0
470

  0
HATCH
  5
1415
330
18
100
AcDbEntity
  8
針
100
AcDbHatch
 10
0.0
 20
0.0
 30
0.0
210
0.0
220
0.0
230
1.0
  2
SOLID
 70
     1
 71
     0
 91
        4
 92
        7
 72
     1
 73
     1
 93
        4
 10
318.2545013744702
 20
282.7480016266134
 42
0.0
 10
318.6006569266469
 20
282.6962683327181
 42
-0.4142135623730951
 10
319.4532758825155
 20
283.3271731718922
 42
0.0
 10
319.5050091764108
 20
283.6733287240689
 42
0.4142135623730996
 97
        0
 92
        7
 72
     1
 73
     1
 93
        5
 10
318.6006569266469
 20
282.6962683327181
 42
0.0
 10
318.2545013744702
 20
282.7480016266134
 42
0.3173569687788799
 10
318.8247934557987
 20
281.6148114711458
 42
0.0
 10
319.2271714660079
 20
281.8142731948665
 42
0.0
 10
319.231561765821
 20
281.8436493768493
 42
-0.4142135623730839
 97
        0
 92
        7
 72
     1
 73
     1
 93
        4
 10
319.5050091764108
 20
283.6733287240689
 42
0.0
 10
319.4532758825155
 20
283.3271731718922
 42
-0.4142135623730951
 10
320.0841807216898
 20
282.4745542160235
 42
0.0
 10
320.4303362738664
 20
282.4228209221282
 42
0.4142135623730996
 97
        0
 92
        7
 72
     1
 73
     1
 93
        4
 10
320.0841807216898
 20
282.4745542160235
 42
-0.1036385141593389
 10
319.977288891581
 20
282.1861118910713
 42
0.0
 10
320.4282905294591
 20
282.4096767027895
 42
0.003023315109616
 10
320.4303362738664
 20
282.4228209221282
 42
0.0
 97
        0
 75
     0
 76
     1
 47
0.0223982890607777
 98
        4
 10
318.8383633231693
 20
283.4371664624394
 10
318.5110083359067
 20
282.3075272613364
 10
319.7697986733605
 20
283.456614933246
 10
320.1556701300898
 20
282.4017004865329
450
        0
451
        0
460
0.0
461
0.0
452
        0
462
0.0
453
        0
470

  0
CIRCLE
  5
1416
330
18
100
AcDbEntity
  8
針
100
AcDbCircle
 10
319.3424188241684
 20
282.5854112743708
 30
0.0
 40
1.1
  0
CIRCLE
  5
1417
330
18
100
AcDbEntity
  8
針
100
AcDbCircle
 10
319.3424188241684
 20
282.5854112743708
 30
0.0
 40
0.75
  0
HATCH
  5
1418
330
18
100
AcDbEntity
  8
針
100
AcDbHatch
 10
0.0
 20
0.0
 30
0.0
210
0.0
220
0.0
230
1.0
  2
SOLID
 70
     1
 71
     0
 91
        1
 92
        7
 72
     1
 73
     1
 93
        7
 10
319.4424188241685
 20
287.2854112743709
 42
0.0
 10
319.3424188241683
 20
287.2854112743707
 42
0.0
 10
319.2424188241683
 20
287.2854112743707
 42
0.0
 10
319.19751046653
 20
284.0427806197003
 42
-0.2935495917910092
 10
318.8990772899932
 20
283.5921129601122
 42
-0.2104432563350663
 10
319.7857596787262
 20
283.592113259409
 42
-0.2935491884945053
 10
319.4873271818067
 20
284.0427806197003
 42
0.0
 97
        0
 75
     0
 76
     1
 47
0.0140573597042523
 98
        1
 10
319.4010205400658
 20
285.479971319671
450
        0
451
        0
460
0.0
461
0.0
452
        0
462
0.0
453
        0
470

  0
LINE
  5
1419
330
18
100
AcDbEntity
  8
針
100
AcDbLine
 10
319.4873271818067
 20
284.0427806197003
 30
0.0
 11
319.4424188241683
 21
287.2854112743707
 31
0.0
  0
LINE
  5
141A
330
18
100
AcDbEntity
  8
針
100
AcDbLine
 10
319.19751046653
 20
284.0427806197003
 30
0.0
 11
319.2424188241683
 21
287.2854112743707
 31
0.0
  0
CIRCLE
  5
141B
330
18
100
AcDbEntity
  8
針
 62
     4
100
AcDbCircle
 10
319.3424188241684
 20
282.5854112743708
 30
0.0
 40
0.4
  0
ARC
  5
141C
330
18
100
AcDbEntity
  8
針
100
AcDbCircle
 10
319.9872792375139
 20
284.0497046354489
 30
0.0
 40
0.5
100
AcDbArc
 50
180.7934591207347
 51
246.2317787024804
  0
ARC
  5
141D
330
18
100
AcDbEntity
  8
針
100
AcDbCircle
 10
318.6975584108227
 20
284.0497046354489
 30
0.0
 40
0.5
100
AcDbArc
 50
293.7682212975196
 51
359.2065408792653
  0
LINE
  5
141E
330
18
100
AcDbEntity
  8
文字
100
AcDbLine
 10
319.4424188241683
 20
287.2854112743707
 30
0.0
 11
319.2424188241683
 21
287.2854112743707
 31
0.0
  0
POINT
  5
1427
330
18
100
AcDbEntity
  8
DEFPOINTS
  6
ByBlock
 62
     0
100
AcDbPoint
 10
416.7938484437446
 20
323.9093826858848
 30
0.0
  0
POINT
  5
1428
330
18
100
AcDbEntity
  8
DEFPOINTS
  6
ByBlock
 62
     0
100
AcDbPoint
 10
416.7938484437446
 20
261.4093826858847
 30
0.0
  0
LINE
  5
142E
330
18
100
AcDbEntity
  8
寸法線
100
AcDbLine
 10
406.7938484437446
 20
211.052253790405
 30
0.0
 11
407.2009773392243
 21
211.4593826858847
 31
0.0
  0
LINE
  5
142F
330
18
100
AcDbEntity
  8
寸法線
100
AcDbLine
 10
406.7938484437446
 20
209.7052153722446
 30
0.0
 11
408.5480157573847
 21
211.4593826858847
 31
0.0
  0
LINE
  5
1430
330
18
100
AcDbEntity
  8
寸法線
100
AcDbLine
 10
406.795054175545
 20
208.3593826858847
 30
0.0
 11
409.2938484437447
 21
210.8581769540843
 31
0.0
  0
LINE
  5
1431
330
18
100
AcDbEntity
  8
寸法線
100
AcDbLine
 10
408.1420925937053
 20
208.3593826858846
 30
0.0
 11
409.2938484437446
 21
209.5111385359239
 31
0.0
  0
LINE
  5
1432
330
18
100
AcDbEntity
  8
寸法線
100
AcDbLine
 10
406.8878963679301
 20
208.3593826858847
 30
0.0
 11
406.7938484437446
 21
208.4534306100703
 31
0.0
  0
LINE
  5
1433
330
18
100
AcDbEntity
  8
寸法線
100
AcDbLine
 10
408.2349347860905
 20
208.3593826858846
 30
0.0
 11
406.7938484437446
 21
209.8004690282305
 31
0.0
  0
LINE
  5
1434
330
18
100
AcDbEntity
  8
寸法線
100
AcDbLine
 10
409.2938484437446
 20
208.6475074463909
 30
0.0
 11
406.7938484437446
 21
211.1475074463909
 31
0.0
  0
LINE
  5
1435
330
18
100
AcDbEntity
  8
寸法線
100
AcDbLine
 10
409.2938484437446
 20
209.9945458645513
 30
0.0
 11
407.8290116224112
 21
211.4593826858846
 31
0.0
  0
LINE
  5
1436
330
18
100
AcDbEntity
  8
寸法線
100
AcDbLine
 10
409.2938484437447
 20
211.3415842827115
 30
0.0
 11
409.1760500405716
 21
211.4593826858847
 31
0.0
  0
LINE
  5
143B
330
18
100
AcDbEntity
  8
0
  6
ByBlock
 62
     2
100
AcDbLine
 10
409.2938484437446
 20
254.1738931921374
 30
0.0
 11
409.2938484437446
 21
255.6170551095895
 31
0.0
  0
LINE
  5
143C
330
18
100
AcDbEntity
  8
0
  6
ByBlock
 62
     2
100
AcDbLine
 10
429.2938484437446
 20
282.1300839210279
 30
0.0
 11
429.2938484437446
 21
253.1170551095895
 31
0.0
  0
LINE
  5
143D
330
18
100
AcDbEntity
  8
0
  6
ByBlock
 62
     2
100
AcDbLine
 10
411.7938484437446
 20
254.3670551095895
 30
0.0
 11
426.7938484437445
 21
254.3670551095895
 31
0.0
  0
INSERT
  5
143E
330
18
100
AcDbEntity
  8
0
  6
ByBlock
 62
     2
100
AcDbBlockReference
  2
_OPEN
 10
409.2938484437446
 20
254.3670551095895
 30
0.0
 41
2.5
 42
2.5
 43
2.5
 50
180.0
  0
INSERT
  5
143F
330
18
100
AcDbEntity
  8
0
  6
ByBlock
 62
     2
100
AcDbBlockReference
  2
_OPEN
 10
429.2938484437446
 20
254.3670551095895
 30
0.0
 41
2.5
 42
2.5
 43
2.5
  0
MTEXT
  5
1440
330
18
100
AcDbEntity
  8
0
  6
ByBlock
 62
     6
100
AcDbMText
 10
419.2938484437446
 20
256.2420551095895
 30
0.0
 40
2.5
 41
0.0
 71
     5
 72
     1
  1
\A1;20
  7
STYLE3
 73
     1
 44
1.0
  0
POINT
  5
1441
330
18
100
AcDbEntity
  8
DEFPOINTS
  6
ByBlock
 62
     0
100
AcDbPoint
 10
409.2938484437446
 20
254.1738931921374
 30
0.0
  0
POINT
  5
1442
330
18
100
AcDbEntity
  8
DEFPOINTS
  6
ByBlock
 62
     0
100
AcDbPoint
 10
429.2938484437446
 20
282.1300839210279
 30
0.0
  0
POINT
  5
1443
330
18
100
AcDbEntity
  8
DEFPOINTS
  6
ByBlock
 62
     0
100
AcDbPoint
 10
429.2938484437446
 20
254.3670551095895
 30
0.0
  0
POINT
  5
1449
330
18
100
AcDbEntity
  8
DEFPOINTS
  6
ByBlock
 62
     0
100
AcDbPoint
 10
409.2938484437446
 20
333.6593826858847
 30
0.0
  0
POINT
  5
144A
330
18
100
AcDbEntity
  8
DEFPOINTS
  6
ByBlock
 62
     0
100
AcDbPoint
 10
416.7938484437446
 20
323.9093826858848
 30
0.0
  0
DIMENSION
  5
1FDC
330
18
100
AcDbEntity
  8
寸法線
100
AcDbDimension
  2
*D2
 10
351.5424188241684
 20
343.8631297611461
 30
0.0
 11
322.5424188241684
 21
345.7381297611461
 31
0.0
 70
    32
 71
     5
 42
58.0
  3
φ
100
AcDbAlignedDimension
 13
293.5424188241684
 23
292.6593826858847
 33
0.0
 14
351.5424188241684
 24
292.6593826858847
 34
0.0
100
AcDbRotatedDimension
  0
DIMENSION
  5
1FFB
330
18
100
AcDbEntity
  8
寸法線
100
AcDbDimension
  2
*D3
 10
409.2938484437446
 20
343.9253500058681
 30
0.0
 11
402.0438484437447
 21
345.8003500058681
 31
0.0
 70
    32
 71
     5
 42
14.49999999999994
  3
STYLE3
100
AcDbAlignedDimension
 13
394.7938484437447
 23
292.6593826858847
 33
0.0
 14
409.2938484437446
 24
336.2992347980119
 34
0.0
100
AcDbRotatedDimension
  0
DIMENSION
  5
2008
330
18
100
AcDbEntity
  8
寸法線
100
AcDbDimension
  2
*D4
 10
416.7938484437446
 20
343.9253500058681
 30
0.0
 11
413.0438484437446
 21
345.8003500058681
 31
0.0
 70
    32
 71
     5
 42
7.500000000000056
  3
STYLE3
100
AcDbAlignedDimension
 13
409.2938484437446
 23
336.2992347980119
 33
0.0
 14
416.7938484437446
 24
323.9093826858848
 34
0.0
100
AcDbRotatedDimension
1001
ACAD
1000
DSTYLE
1002
{
1070
   279
1070
     1
1002
}
  0
DIMENSION
  5
2015
330
18
100
AcDbEntity
  8
寸法線
100
AcDbDimension
  2
*D5
 10
383.2729980392361
 20
259.4093826858848
 30
0.0
 11
381.3979980392361
 21
292.6593826858848
 31
0.0
 70
    32
 71
     5
 42
66.5
  3
φ
100
AcDbAlignedDimension
 13
398.6033864891112
 23
325.9093826858847
 33
0.0
 14
398.6033864891112
 24
259.4093826858847
 34
0.0
 50
90.0
100
AcDbRotatedDimension
  0
DIMENSION
  5
2034
330
18
100
AcDbEntity
  8
寸法線
100
AcDbDimension
  2
*D6
 10
451.8310165493699
 20
261.4093826858847
 30
0.0
 11
449.9560165493698
 21
292.6593826858848
 31
0.0
 70
    32
 71
     5
 42
62.50000000000006
  3
φ
100
AcDbAlignedDimension
 13
416.7938484437446
 23
323.9093826858848
 33
0.0
 14
416.7938484437446
 24
261.4093826858847
 34
0.0
 50
90.0
100
AcDbRotatedDimension
  0
DIMENSION
  5
2053
330
18
100
AcDbEntity
  8
寸法線
100
AcDbDimension
  2
*D7
 10
326.5424188241684
 20
245.9899709823981
 30
0.0
 11
337.3043235860733
 21
245.9899709823981
 31
0.0
 70
   160
  1
%%C<>
 71
     5
 42
8.0
  3
.0 type現尺
100
AcDbAlignedDimension
 13
318.5424188241684
 23
249.4068991930283
 33
0.0
 14
326.5424188241684
 24
249.533242547353
 34
0.0
100
AcDbRotatedDimension
1001
ACAD
1000
DSTYLE
1002
{
1070
    76
1070
     1
1070
    75
1070
     1
1070
   146
1040
0.7
1070
   284
1070
     8
1070
   272
1070
     2
1070
   283
1070
     0
1070
    48
1040
0.03
1070
   147
1040
0.625
1070
    72
1070
     0
1070
    71
1070
     1
1002
}
  0
DIMENSION
  5
206F
330
18
100
AcDbEntity
  8
寸法線
100
AcDbDimension
  2
*D8
 10
325.0424188241684
 20
226.5810915506066
 30
0.0
 11
333.9174188241683
 21
226.5810915506066
 31
0.0
 70
   160
  1
%%C<>
 71
     5
 42
4.999999999999943
  3
STYLE2
100
AcDbAlignedDimension
 13
320.0424188241685
 23
226.5810915506066
 33
0.0
 14
325.0424188241684
 24
227.3771807523289
 34
0.0
100
AcDbRotatedDimension
  0
DIMENSION
  5
209F
330
18
100
AcDbEntity
  8
寸法線
100
AcDbDimension
  2
*D9
 10
394.966740057627
 20
202.6593826858847
 30
0.0
 11
393.091740057627
 21
207.1593826858847
 31
0.0
 70
    32
 71
     5
 42
8.999999999999971
  3
STYLE3
100
AcDbAlignedDimension
 13
409.2938484437446
 23
211.6593826858847
 33
0.0
 14
409.2938484437446
 24
202.6593826858847
 34
0.0
 50
90.0
100
AcDbRotatedDimension
  0
ARC
  5
20BE
330
18
100
AcDbEntity
  8
外形線
100
AcDbCircle
 10
322.5424188241684
 20
203.8593826858847
 30
0.0
 40
1.199999999999999
100
AcDbArc
 50
189.5940682268601
 51
350.4059317731399
  0
ARC
  5
20BF
330
18
100
AcDbEntity
  8
外形線
100
AcDbCircle
 10
409.2938484437446
 20
203.8593826858847
 30
0.0
 40
1.199999999999999
100
AcDbArc
 50
189.5940682268601
 51
350.4059317731399
  0
TEXT
  5
20EA
330
18
100
AcDbEntity
  8
文字
100
AcDbText
 10
309.6403525751532
 20
359.3497011711808
 30
0.0
 40
4.0
  1
Model No.207 Long Travel Dial Gauge
  7
STYLE3
100
AcDbText
  0
LINE
  5
20EB
330
18
100
AcDbEntity
  8
外形線
100
AcDbLine
 10
308.7508675751532
 20
355.9668081711809
 30
0.0
 11
420.7508675751531
 21
355.9668081711809
 31
0.0
  0
LINE
  5
20EC
330
18
100
AcDbEntity
  8
外形線
100
AcDbLine
 10
308.7508675751532
 20
356.9668081711808
 30
0.0
 11
420.7508675751531
 21
356.9668081711808
 31
0.0
  0
LINE
  5
20EE
330
18
100
AcDbEntity
  8
外形線
100
AcDbLine
 10
350.8667445751532
 20
192.9081060919912
 30
0.0
 11
491.6581625751532
 21
192.9081060919912
 31
0.0
  0
LINE
  5
20EF
330
18
100
AcDbEntity
  8
外形線
100
AcDbLine
 10
350.8667445751532
 20
182.1279000919912
 30
0.0
 11
491.6581625751532
 21
182.1279000919912
 31
0.0
  0
TEXT
  5
20F0
330
18
100
AcDbEntity
  8
0
  6
Continuous
100
AcDbText
 10
352.3242115751533
 20
184.0258900919912
 30
0.0
 40
2.1
  1
Design and specifications are subject to change without notice for future improvement.
  7
STYLE3
100
AcDbText
  0
TEXT
  5
20F1
330
18
100
AcDbEntity
  8
0
  6
Continuous
100
AcDbText
 10
352.6157055751533
 20
187.9550380919912
 30
0.0
 40
3.5
  1
仕様及び外観は予告なく変更される場合がございますのでご了承下さい。
  7
STYLE3
100
AcDbText
  0
TEXT
  5
20F2
330
18
100
AcDbEntity
  8
0
  6
Continuous
100
AcDbText
 10
352.0327205751532
 20
174.2612620919912
 30
0.0
 40
2.1
  1
3RD Angle Projection
  7
STYLE3
100
AcDbText
  0
TEXT
  5
20F3
330
18
100
AcDbEntity
  8
0
  6
Continuous
100
AcDbText
 10
354.6561635751532
 20
177.7575450919912
 30
0.0
 40
3.0
  1
三　　角　　法
  7
STYLE3
100
AcDbText
  0
LINE
  5
20F4
330
18
100
AcDbEntity
  8
外形線
100
AcDbLine
 10
350.8667445751532
 20
172.5131220919912
 30
0.0
 11
350.8667445751532
 21
192.9081060919912
 31
0.0
  0
LINE
  5
20F5
330
18
100
AcDbEntity
  8
外形線
100
AcDbLine
 10
452.8895115751532
 20
182.1279000919912
 30
0.0
 11
452.8895115751532
 21
172.5131220919912
 31
0.0
  0
LINE
  5
20F6
330
18
100
AcDbEntity
  8
外形線
100
AcDbLine
 10
423.1571615751532
 20
182.1279000919912
 30
0.0
 11
423.1571615751532
 21
172.5131220919912
 31
0.0
  0
LINE
  5
20F7
330
18
100
AcDbEntity
  8
外形線
100
AcDbLine
 10
403.6270895751532
 20
182.1279000919912
 30
0.0
 11
403.6270895751532
 21
172.5131220919912
 31
0.0
  0
LINE
  5
20F8
330
18
100
AcDbEntity
  8
外形線
100
AcDbLine
 10
386.1374725751533
 20
182.1279000919912
 30
0.0
 11
386.1374725751533
 21
172.5131220919912
 31
0.0
  0
TEXT
  5
20F9
330
18
100
AcDbEntity
  8
0
  6
Continuous
100
AcDbText
 10
387.5949415751533
 20
177.7635000919912
 30
0.0
 40
3.0
  1
単位
  7
STYLE3
100
AcDbText
  0
TEXT
  5
20FA
330
18
100
AcDbEntity
  8
0
  6
Continuous
100
AcDbText
 10
387.7666625751532
 20
174.2612630919912
 30
0.0
 40
2.1
  1
Unit
  7
STYLE3
100
AcDbText
  0
TEXT
  5
20FB
330
18
100
AcDbEntity
  8
0
  6
Continuous
100
AcDbText
 10
404.9128375751532
 20
177.4721420919912
 30
0.0
 40
3.0
  1
尺 度
  7
STYLE3
100
AcDbText
  0
TEXT
  5
20FC
330
18
100
AcDbEntity
  8
0
  6
Continuous
100
AcDbText
 10
395.6369895751532
 20
176.0094060919912
 30
0.0
 40
2.399999999999999
  1
mm
  7
STYLE3
100
AcDbText
  0
TEXT
  5
20FD
330
18
100
AcDbEntity
  8
0
  6
Continuous
100
AcDbText
 10
405.3760525751532
 20
174.5526200919912
 30
0.0
 40
2.1
  1
Scale
  7
STYLE3
100
AcDbText
  0
TEXT
  5
20FE
330
18
100
AcDbEntity
  8
0
  6
Continuous
100
AcDbText
 10
414.9953415751532
 20
176.3007630919912
 30
0.0
 40
2.399999999999999
  1
1/1
  7
STYLE3
100
AcDbText
  0
TEXT
  5
20FF
330
18
100
AcDbEntity
  8
0
  6
Continuous
100
AcDbText
 10
425.0891125751532
 20
174.2612640919912
 30
0.0
 40
2.1
  1
Date
  7
STYLE3
100
AcDbText
  0
TEXT
  5
2100
330
18
100
AcDbEntity
  8
0
  6
Continuous
100
AcDbText
 10
424.7057515751532
 20
177.5943470919911
 30
0.0
 40
3.0
  1
日 付
  7
STYLE3
100
AcDbText
  0
TEXT
  5
2101
330
18
100
AcDbEntity
  8
0
  6
Continuous
100
AcDbText
 10
433.8339205751532
 20
176.0094050919912
 30
0.0
 40
2.1
  1
2010.06.08
  7
STYLE3
100
AcDbText
  0
TEXT
  5
2102
330
18
100
AcDbEntity
  8
0
  6
Continuous
100
AcDbText
 10
454.2384745751532
 20
178.0489020919912
 30
0.0
 40
3.0
  1
株式会社　尾崎製作所
  7
STYLE3
100
AcDbText
  0
TEXT
  5
2103
330
18
100
AcDbEntity
  8
0
  6
Continuous
100
AcDbText
 10
455.1129535751532
 20
174.2612630919912
 30
0.0
 40
2.1
  1
OZAKI MFG. CO., LTD.
  7
STYLE3
100
AcDbText
  0
ENDSEC
  0
SECTION
  2
OBJECTS
  0
DICTIONARY
  5
C
330
0
100
AcDbDictionary
281
     1
  3
ACAD_COLOR
350
1477
  3
ACAD_GROUP
350
D
  3
ACAD_LAYOUT
350
147A
  3
ACAD_MATERIAL
350
1476
  3
ACAD_MLINESTYLE
350
1B
  3
ACAD_PLOTSETTINGS
350
147B
  3
ACAD_PLOTSTYLENAME
350
1474
  3
ACAD_TABLESTYLE
350
1478
  3
ACDBVARIABLEDICTIONARY
350
1310
  0
DICTIONARY
  5
1477
102
{ACAD_REACTORS
330
C
102
}
330
C
100
AcDbDictionary
281
     1
  0
DICTIONARY
  5
D
102
{ACAD_REACTORS
330
C
102
}
330
C
100
AcDbDictionary
281
     1
  0
DICTIONARY
  5
147A
102
{ACAD_REACTORS
330
C
102
}
330
C
100
AcDbDictionary
281
     1
  3
Model
350
147C
  3
レイアウト1
350
147D
  0
DICTIONARY
  5
1476
102
{ACAD_REACTORS
330
C
102
}
330
C
100
AcDbDictionary
281
     1
  0
DICTIONARY
  5
1B
102
{ACAD_REACTORS
330
C
102
}
330
C
100
AcDbDictionary
281
     1
  3
STANDARD
350
1C
  0
DICTIONARY
  5
147B
102
{ACAD_REACTORS
330
C
102
}
330
C
100
AcDbDictionary
281
     1
  0
ACDBDICTIONARYWDFLT
  5
1474
102
{ACAD_REACTORS
330
C
102
}
330
C
100
AcDbDictionary
281
     1
  3
Normal
350
1475
100
AcDbDictionaryWithDefault
340
1475
  0
DICTIONARY
  5
1478
102
{ACAD_REACTORS
330
C
102
}
330
C
100
AcDbDictionary
281
     1
  3
Standard
350
1479
  0
DICTIONARY
  5
1310
102
{ACAD_REACTORS
330
C
102
}
330
C
100
AcDbDictionary
281
     1
  3
CTABLESTYLE
350
20B7
  3
SORTENTS
350
1311
  0
LAYOUT
  5
147C
102
{ACAD_REACTORS
330
147A
102
}
330
147A
100
AcDbPlotSettings
  1

  2
WIDR Printer
  4

  6

 40
0.0
 41
0.0
 42
0.0
 43
0.0
 44
0.0
 45
0.0
 46
0.0
 47
0.0
 48
0.0
 49
0.0
140
0.0
141
0.0
142
1.0
143
1.0
 70
  1712
 72
     0
 73
     0
 74
     0
  7
AutoCad LT 98.ctb
 75
     0
147
1.0
 76
     0
 77
     2
 78
   300
148
0.0
149
0.0
100
AcDbLayout
  1
Model
 70
     1
 71
     0
 10
0.0
 20
0.0
 11
12.0
 21
9.0
 12
0.0
 22
0.0
 32
0.0
 14
0.0
 24
0.0
 34
0.0
 15
0.0
 25
0.0
 35
0.0
146
0.0
 13
0.0
 23
0.0
 33
0.0
 16
1.0
 26
0.0
 36
0.0
 17
0.0
 27
1.0
 37
0.0
 76
     0
330
18
  0
LAYOUT
  5
147D
102
{ACAD_REACTORS
330
147A
102
}
330
147A
100
AcDbPlotSettings
  1

  2
WIDR Printer
  4

  6

 40
0.0
 41
0.0
 42
0.0
 43
0.0
 44
0.0
 45
0.0
 46
0.0
 47
0.0
 48
0.0
 49
0.0
140
0.0
141
0.0
142
1.0
143
1.0
 70
   688
 72
     0
 73
     0
 74
     5
  7
AutoCad LT 98.ctb
 75
    16
147
1.0
 76
     0
 77
     2
 78
   300
148
0.0
149
0.0
100
AcDbLayout
  1
レイアウト1
 70
     1
 71
     1
 10
0.0
 20
0.0
 11
420.0
 21
297.0
 12
0.0
 22
0.0
 32
0.0
 14
1.000000000000000E+20
 24
1.000000000000000E+20
 34
1.000000000000000E+20
 15
-1.000000000000000E+20
 25
-1.000000000000000E+20
 35
-1.000000000000000E+20
146
0.0
 13
0.0
 23
0.0
 33
0.0
 16
1.0
 26
0.0
 36
0.0
 17
0.0
 27
1.0
 37
0.0
 76
     0
330
15
  0
MLINESTYLE
  5
1C
102
{ACAD_REACTORS
330
1B
102
}
330
1B
100
AcDbMlineStyle
  2
STANDARD
 70
     0
  3

 62
   256
 51
90.0
 52
90.0
 71
     2
 49
0.5
 62
   256
  6
BYLAYER
 49
-0.5
 62
   256
  6
BYLAYER
  0
ACDBPLACEHOLDER
  5
1475
102
{ACAD_REACTORS
330
1474
102
}
330
1474
  0
ACAD_PROXY_OBJECT
  5
1479
102
{ACAD_REACTORS
330
1478
102
}
330
1478
100
AcDbProxyObject
 90
      499
 91
      504
 95
  2555929
 70
     0
 93
     1849
310
4214DD185B99185C992420000000000000F83F0000000000003E0FC00000000000004901028000000C1008070000C3001FDFF8000000C1003FBFF000000182007F7FE00000030400FEFFC00000060801FDFF8000000C1003FBFF000000182000000000000000C2020B0000001820100E000186003FBFF000000182007F7FE0
310
0000030400FEFFC00000060801FDFF8000000C1003FBFF000000182007F7FE0000003040000000000000012404160000003040201C00030C007F7FE00000030400FEFFC00000060801FDFF8000000C1003FBFF000000182007F7FE00000030400FEFFC000000608000
340
F
340
F
340
F
 94
        0
  0
DICTIONARYVAR
  5
20B7
102
{ACAD_REACTORS
330
1310
102
}
330
1310
100
DictionaryVariables
280
     0
  1
STANDARD
  0
DICTIONARYVAR
  5
1311
102
{ACAD_REACTORS
330
1310
102
}
330
1310
100
DictionaryVariables
280
     0
  1
96
  0
ENDSEC
  0
EOF
