  0
SECTION
  2
HEADER
  9
$ACADVER
  1
AC1018
  9
$ACADMAINTVER
 70
     0
  9
$DWGCODEPAGE
  3
ANSI_932
  9
$INSBASE
 10
0.0
 20
0.0
 30
0.0
  9
$EXTMIN
 10
296.4787634917252
 20
37.53740002719849
 30
-1.000015248078273
  9
$EXTMAX
 10
551.9172441640448
 20
232.9512182683115
 30
0.0000152620489651
  9
$LIMMIN
 10
0.0
 20
0.0
  9
$LIMMAX
 10
420.0
 20
297.0
  9
$ORTHOMODE
 70
     0
  9
$REGENMODE
 70
     1
  9
$FILLMODE
 70
     1
  9
$QTEXTMODE
 70
     0
  9
$MIRRTEXT
 70
     1
  9
$LTSCALE
 40
1.0
  9
$ATTMODE
 70
     1
  9
$TEXTSIZE
 40
2.5
  9
$TRACEWID
 40
1.0
  9
$TEXTSTYLE
  7
STYLE3
  9
$CLAYER
  8
寸法線
  9
$CELTYPE
  6
BYLAYER
  9
$CECOLOR
 62
   256
  9
$CELTSCALE
 40
1.0
  9
$DISPSILH
 70
     0
  9
$DIMSCALE
 40
1.0
  9
$DIMASZ
 40
2.5
  9
$DIMEXO
 40
0.0
  9
$DIMDLI
 40
3.75
  9
$DIMRND
 40
0.0
  9
$DIMDLE
 40
0.0
  9
$DIMEXE
 40
1.25
  9
$DIMTP
 40
0.0
  9
$DIMTM
 40
0.0
  9
$DIMTXT
 40
2.5
  9
$DIMCEN
 40
2.5
  9
$DIMTSZ
 40
0.0
  9
$DIMTOL
 70
     0
  9
$DIMLIM
 70
     0
  9
$DIMTIH
 70
     0
  9
$DIMTOH
 70
     0
  9
$DIMSE1
 70
     0
  9
$DIMSE2
 70
     0
  9
$DIMTAD
 70
     1
  9
$DIMZIN
 70
     8
  9
$DIMBLK
  1

  9
$DIMASO
 70
     1
  9
$DIMSHO
 70
     1
  9
$DIMPOST
  1

  9
$DIMAPOST
  1

  9
$DIMALT
 70
     0
  9
$DIMALTD
 70
     4
  9
$DIMALTF
 40
0.0394
  9
$DIMLFAC
 40
1.0
  9
$DIMTOFL
 70
     1
  9
$DIMTVP
 40
0.0
  9
$DIMTIX
 70
     0
  9
$DIMSOXD
 70
     0
  9
$DIMSAH
 70
     1
  9
$DIMBLK1
  1
OPEN
  9
$DIMBLK2
  1
OPEN
  9
$DIMSTYLE
  2
STYLE3
  9
$DIMCLRD
 70
     2
  9
$DIMCLRE
 70
     2
  9
$DIMCLRT
 70
     6
  9
$DIMTFAC
 40
1.0
  9
$DIMGAP
 40
0.625
  9
$DIMJUST
 70
     0
  9
$DIMSD1
 70
     0
  9
$DIMSD2
 70
     0
  9
$DIMTOLJ
 70
     1
  9
$DIMTZIN
 70
     0
  9
$DIMALTZ
 70
     0
  9
$DIMALTTZ
 70
     0
  9
$DIMUPT
 70
     0
  9
$DIMDEC
 70
     2
  9
$DIMTDEC
 70
     4
  9
$DIMALTU
 70
     8
  9
$DIMALTTD
 70
     4
  9
$DIMTXSTY
  7
STYLE3
  9
$DIMAUNIT
 70
     0
  9
$DIMADEC
 70
     0
  9
$DIMALTRND
 40
0.0
  9
$DIMAZIN
 70
     0
  9
$DIMDSEP
 70
    46
  9
$DIMATFIT
 70
     3
  9
$DIMFRAC
 70
     0
  9
$DIMLDRBLK
  1

  9
$DIMLUNIT
 70
     2
  9
$DIMLWD
 70
    -2
  9
$DIMLWE
 70
    -2
  9
$DIMTMOVE
 70
     0
  9
$LUNITS
 70
     2
  9
$LUPREC
 70
     4
  9
$SKETCHINC
 40
1.0
  9
$FILLETRAD
 40
0.0
  9
$AUNITS
 70
     0
  9
$AUPREC
 70
     0
  9
$MENU
  1
.
  9
$ELEVATION
 40
0.0
  9
$PELEVATION
 40
0.0
  9
$THICKNESS
 40
0.0
  9
$LIMCHECK
 70
     0
  9
$CHAMFERA
 40
10.0
  9
$CHAMFERB
 40
10.0
  9
$CHAMFERC
 40
20.0
  9
$CHAMFERD
 40
0.0
  9
$SKPOLY
 70
     0
  9
$TDCREATE
 40
2451219.631998495
  9
$TDUCREATE
 40
2451219.256998495
  9
$TDUPDATE
 40
2455356.666100613
  9
$TDUUPDATE
 40
2455356.291100613
  9
$TDINDWG
 40
0.1195131597
  9
$TDUSRTIMER
 40
0.1195131597
  9
$USRTIMER
 70
     1
  9
$ANGBASE
 50
0.0
  9
$ANGDIR
 70
     0
  9
$PDMODE
 70
     0
  9
$PDSIZE
 40
0.0
  9
$PLINEWID
 40
0.0
  9
$SPLFRAME
 70
     0
  9
$SPLINETYPE
 70
     6
  9
$SPLINESEGS
 70
     8
  9
$HANDSEED
  5
1DF2
  9
$SURFTAB1
 70
     6
  9
$SURFTAB2
 70
     6
  9
$SURFTYPE
 70
     6
  9
$SURFU
 70
     6
  9
$SURFV
 70
     6
  9
$UCSBASE
  2

  9
$UCSNAME
  2

  9
$UCSORG
 10
0.0
 20
0.0
 30
0.0
  9
$UCSXDIR
 10
1.0
 20
0.0
 30
0.0
  9
$UCSYDIR
 10
0.0
 20
1.0
 30
0.0
  9
$UCSORTHOREF
  2

  9
$UCSORTHOVIEW
 70
     0
  9
$UCSORGTOP
 10
0.0
 20
0.0
 30
0.0
  9
$UCSORGBOTTOM
 10
0.0
 20
0.0
 30
0.0
  9
$UCSORGLEFT
 10
0.0
 20
0.0
 30
0.0
  9
$UCSORGRIGHT
 10
0.0
 20
0.0
 30
0.0
  9
$UCSORGFRONT
 10
0.0
 20
0.0
 30
0.0
  9
$UCSORGBACK
 10
0.0
 20
0.0
 30
0.0
  9
$PUCSBASE
  2

  9
$PUCSNAME
  2

  9
$PUCSORG
 10
0.0
 20
0.0
 30
0.0
  9
$PUCSXDIR
 10
1.0
 20
0.0
 30
0.0
  9
$PUCSYDIR
 10
0.0
 20
1.0
 30
0.0
  9
$PUCSORTHOREF
  2

  9
$PUCSORTHOVIEW
 70
     0
  9
$PUCSORGTOP
 10
0.0
 20
0.0
 30
0.0
  9
$PUCSORGBOTTOM
 10
0.0
 20
0.0
 30
0.0
  9
$PUCSORGLEFT
 10
0.0
 20
0.0
 30
0.0
  9
$PUCSORGRIGHT
 10
0.0
 20
0.0
 30
0.0
  9
$PUCSORGFRONT
 10
0.0
 20
0.0
 30
0.0
  9
$PUCSORGBACK
 10
0.0
 20
0.0
 30
0.0
  9
$USERI1
 70
     0
  9
$USERI2
 70
     0
  9
$USERI3
 70
     0
  9
$USERI4
 70
     0
  9
$USERI5
 70
     0
  9
$USERR1
 40
0.0
  9
$USERR2
 40
0.0
  9
$USERR3
 40
0.0
  9
$USERR4
 40
0.0
  9
$USERR5
 40
0.0
  9
$WORLDVIEW
 70
     1
  9
$SHADEDGE
 70
     3
  9
$SHADEDIF
 70
    70
  9
$TILEMODE
 70
     1
  9
$MAXACTVP
 70
    48
  9
$PINSBASE
 10
0.0
 20
0.0
 30
0.0
  9
$PLIMCHECK
 70
     0
  9
$PEXTMIN
 10
-0.2
 20
-0.2
 30
0.0
  9
$PEXTMAX
 10
255.2
 20
195.2
 30
0.0
  9
$PLIMMIN
 10
0.0
 20
0.0
  9
$PLIMMAX
 10
420.0
 20
297.0
  9
$UNITMODE
 70
     0
  9
$VISRETAIN
 70
     1
  9
$PLINEGEN
 70
     0
  9
$PSLTSCALE
 70
     1
  9
$TREEDEPTH
 70
  3020
  9
$CMLSTYLE
  2
STANDARD
  9
$CMLJUST
 70
     0
  9
$CMLSCALE
 40
20.0
  9
$PROXYGRAPHICS
 70
     1
  9
$MEASUREMENT
 70
     1
  9
$CELWEIGHT
370
    -1
  9
$ENDCAPS
280
     0
  9
$JOINSTYLE
280
     0
  9
$LWDISPLAY
290
     0
  9
$INSUNITS
 70
     0
  9
$HYPERLINKBASE
  1

  9
$STYLESHEET
  1

  9
$XEDIT
290
     1
  9
$CEPSNTYPE
380
     0
  9
$PSTYLEMODE
290
     1
  9
$FINGERPRINTGUID
  2
{C54003C0-0F86-4F9C-A9D9-72C79BE0B5F5}
  9
$VERSIONGUID
  2
{D7E0357E-8A7F-4624-BF24-EF1A1F6FE37C}
  9
$EXTNAMES
290
     1
  9
$PSVPSCALE
 40
0.0
  9
$OLESTARTUP
290
     0
  9
$SORTENTS
280
   127
  9
$INDEXCTL
280
     0
  9
$HIDETEXT
280
     0
  9
$XCLIPFRAME
290
     0
  9
$HALOGAP
280
     0
  9
$OBSCOLOR
 70
   257
  9
$OBSLTYPE
280
     0
  9
$INTERSECTIONDISPLAY
280
     0
  9
$INTERSECTIONCOLOR
 70
   257
  9
$DIMASSOC
280
     1
  9
$PROJECTNAME
  1

  0
ENDSEC
  0
SECTION
  2
CLASSES
  0
CLASS
  1
HATCH
  2
AcDbHatch
  3
ObjectDBX Classes
 90
        0
 91
       14
280
     0
281
     1
  0
CLASS
  1
LWPOLYLINE
  2
AcDbPolyline
  3
ObjectDBX Classes
 90
        0
 91
        1
280
     0
281
     1
  0
CLASS
  1
ACDBDICTIONARYWDFLT
  2
AcDbDictionaryWithDefault
  3
ObjectDBX Classes
 90
        0
 91
        1
280
     0
281
     0
  0
CLASS
  1
TABLESTYLE
  2
AcDbTableStyle
  3
ObjectDBX Classes
 90
     2047
 91
        1
280
     0
281
     0
  0
CLASS
  1
SORTENTSTABLE
  2
AcDbSortentsTable
  3
ObjectDBX Classes
 90
        0
 91
        1
280
     0
281
     0
  0
CLASS
  1
DICTIONARYVAR
  2
AcDbDictionaryVar
  3
ObjectDBX Classes
 90
        0
 91
        1
280
     0
281
     0
  0
ENDSEC
  0
SECTION
  2
TABLES
  0
TABLE
  2
VPORT
  5
8
330
0
100
AcDbSymbolTable
 70
     2
  0
VPORT
  5
1DF1
330
8
100
AcDbSymbolTableRecord
100
AcDbViewportTableRecord
  2
*Active
 70
     0
 10
0.0
 20
0.0
 11
1.0
 21
1.0
 12
424.198003827885
 22
135.244309147755
 13
0.0
 23
0.0
 14
10.0
 24
10.0
 15
10.0
 25
10.0
 16
0.0
 26
0.0
 36
1.0
 17
0.0
 27
0.0
 37
0.0
 40
196.8998548817299
 41
1.530456852791878
 42
50.0
 43
0.0
 44
0.0
 50
0.0
 51
0.0
 71
     0
 72
   100
 73
     1
 74
     1
 75
     0
 76
     0
 77
     0
 78
     0
281
     0
 65
     1
110
0.0
120
0.0
130
0.0
111
1.0
121
0.0
131
0.0
112
0.0
122
1.0
132
0.0
 79
     0
146
0.0
  0
ENDTAB
  0
TABLE
  2
LTYPE
  5
5
330
0
100
AcDbSymbolTable
 70
     5
  0
LTYPE
  5
12
330
5
100
AcDbSymbolTableRecord
100
AcDbLinetypeTableRecord
  2
BYBLOCK
 70
     0
  3

 72
    65
 73
     0
 40
0.0
  0
LTYPE
  5
13
330
5
100
AcDbSymbolTableRecord
100
AcDbLinetypeTableRecord
  2
BYLAYER
 70
     0
  3

 72
    65
 73
     0
 40
0.0
  0
LTYPE
  5
14
330
5
100
AcDbSymbolTableRecord
100
AcDbLinetypeTableRecord
  2
CONTINUOUS
 70
     0
  3
Solid line
 72
    65
 73
     0
 40
0.0
  0
LTYPE
  5
22
330
5
100
AcDbSymbolTableRecord
100
AcDbLinetypeTableRecord
  2
CENTER2
 70
     0
  3
Center (.5x) ___ _ ___ _ ___ _ ___ _ ___ _ ___
 72
    65
 73
     4
 40
28.575
 49
19.05
 74
     0
 49
-3.174999999999999
 74
     0
 49
3.174999999999999
 74
     0
 49
-3.174999999999999
 74
     0
  0
LTYPE
  5
24
330
5
100
AcDbSymbolTableRecord
100
AcDbLinetypeTableRecord
  2
PHANTOM2
 70
     0
  3
Phantom (.5x) ___ _ _ ___ _ _ ___ _ _ ___ _ _
 72
    65
 73
     6
 40
31.75
 49
15.875
 74
     0
 49
-3.174999999999999
 74
     0
 49
3.174999999999999
 74
     0
 49
-3.174999999999999
 74
     0
 49
3.174999999999999
 74
     0
 49
-3.174999999999999
 74
     0
  0
ENDTAB
  0
TABLE
  2
LAYER
  5
2
330
0
100
AcDbSymbolTable
 70
    16
  0
LAYER
  5
E
330
2
100
AcDbSymbolTableRecord
100
AcDbLayerTableRecord
  2
0
 70
     0
 62
     7
  6
CONTINUOUS
370
    -3
390
1585
  0
LAYER
  5
25
330
2
100
AcDbSymbolTableRecord
100
AcDbLayerTableRecord
  2
外形線
 70
     0
 62
     7
  6
CONTINUOUS
370
    -3
390
1585
  0
LAYER
  5
26
330
2
100
AcDbSymbolTableRecord
100
AcDbLayerTableRecord
  2
寸法線
 70
     0
 62
     2
  6
CONTINUOUS
370
    -3
390
1585
  0
LAYER
  5
27
330
2
100
AcDbSymbolTableRecord
100
AcDbLayerTableRecord
  2
中心線
 70
     0
 62
     4
  6
CENTER2
370
    -3
390
1585
  0
LAYER
  5
29
330
2
100
AcDbSymbolTableRecord
100
AcDbLayerTableRecord
  2
想像線
 70
     0
 62
     1
  6
PHANTOM2
370
    -3
390
1585
  0
LAYER
  5
2A
330
2
100
AcDbSymbolTableRecord
100
AcDbLayerTableRecord
  2
ﾊｯﾁﾝｸ
 70
     0
 62
     6
  6
CONTINUOUS
370
    -3
390
1585
  0
LAYER
  5
2B
330
2
100
AcDbSymbolTableRecord
100
AcDbLayerTableRecord
  2
文字
 70
     0
 62
     6
  6
CONTINUOUS
370
    -3
390
1585
  0
LAYER
  5
2C
330
2
100
AcDbSymbolTableRecord
100
AcDbLayerTableRecord
  2
目盛
 70
     0
 62
    70
  6
CONTINUOUS
370
    -3
390
1585
  0
LAYER
  5
2D
330
2
100
AcDbSymbolTableRecord
100
AcDbLayerTableRecord
  2
針
 70
     0
 62
     5
  6
CONTINUOUS
370
    -3
390
1585
  0
LAYER
  5
53
330
2
100
AcDbSymbolTableRecord
100
AcDbLayerTableRecord
  2
DEFPOINTS
 70
     0
 62
     7
  6
CONTINUOUS
290
     0
370
    -3
390
1585
  0
LAYER
  5
A5
330
2
100
AcDbSymbolTableRecord
100
AcDbLayerTableRecord
  2
C
 70
     0
 62
     7
  6
CONTINUOUS
370
    -3
390
1585
  0
LAYER
  5
BC6
330
2
100
AcDbSymbolTableRecord
100
AcDbLayerTableRecord
  2
ROGO
 70
     0
 62
     6
  6
CONTINUOUS
370
    -3
390
1585
  0
ENDTAB
  0
TABLE
  2
STYLE
  5
3
330
0
100
AcDbSymbolTable
 70
     3
  0
STYLE
  5
F
330
3
100
AcDbSymbolTableRecord
100
AcDbTextStyleTableRecord
  2
STANDARD
 70
     0
 40
0.0
 41
1.0
 50
0.0
 71
     0
 42
2.5
  3
txt
  4

  0
STYLE
  5
3F
330
3
100
AcDbSymbolTableRecord
100
AcDbTextStyleTableRecord
  2
STYLE3
 70
     0
 40
0.0
 41
1.0
 50
0.0
 71
     0
 42
2.5
  3
romans.shx
  4
bigfont.shx
  0
ENDTAB
  0
TABLE
  2
VIEW
  5
6
330
0
100
AcDbSymbolTable
 70
     0
  0
ENDTAB
  0
TABLE
  2
UCS
  5
7
330
0
100
AcDbSymbolTable
 70
     0
  0
ENDTAB
  0
TABLE
  2
APPID
  5
9
330
0
100
AcDbSymbolTable
 70
     1
  0
APPID
  5
10
330
9
100
AcDbSymbolTableRecord
100
AcDbRegAppTableRecord
  2
ACAD
 70
     0
  0
ENDTAB
  0
TABLE
  2
DIMSTYLE
  5
A
330
0
100
AcDbSymbolTable
 70
     5
100
AcDbDimStyleTable
 71
     2
340
8F
340
15DD
  0
DIMSTYLE
105
1D
330
A
100
AcDbSymbolTableRecord
100
AcDbDimStyleTableRecord
  2
STANDARD
 70
     0
 41
2.5
 42
0.625
 43
3.75
 44
1.25
 73
     0
 74
     0
 77
     1
 78
     8
140
2.5
141
2.5
143
0.0394
147
0.625
171
     4
172
     1
273
     8
274
     4
277
     6
340
F
  0
DIMSTYLE
105
8F
102
{ACAD_REACTORS
330
1C5D
330
1C6A
102
}
330
A
100
AcDbSymbolTableRecord
100
AcDbDimStyleTableRecord
  2
STYLE3
 70
     0
 41
2.5
 42
0.0
 43
3.75
 44
1.25
 73
     0
 74
     0
 77
     1
 78
     8
140
2.5
141
2.5
143
0.0394
147
0.625
171
     4
172
     1
173
     1
176
     2
177
     2
178
     6
271
     1
273
     8
274
     4
340
3F
341
45
343
45
344
45
  0
DIMSTYLE
105
15DB
102
{ACAD_REACTORS
330
1CC5
102
}
330
A
100
AcDbSymbolTableRecord
100
AcDbDimStyleTableRecord
  2
STYLE2
 70
     0
 41
2.5
 42
0.0
 43
3.75
 44
1.25
 73
     0
 74
     0
 77
     1
 78
     8
140
2.5
141
2.5
143
0.0394
147
0.625
171
     4
172
     1
173
     1
176
     2
177
     2
178
     6
271
     1
273
     8
274
     4
340
3F
341
45
343
45
344
45
  0
DIMSTYLE
105
15DC
102
{ACAD_REACTORS
330
1CC4
102
}
330
A
100
AcDbSymbolTableRecord
100
AcDbDimStyleTableRecord
  2
.0 type現尺
 70
     0
 41
2.5
 42
0.0
 43
3.75
 44
1.25
 73
     0
 74
     0
 77
     1
 78
     1
140
2.5
141
2.5
143
0.0394
147
0.625
171
     4
172
     1
173
     1
176
     2
177
     2
178
     6
271
     1
272
     1
273
     8
274
     4
340
3F
343
45
344
45
  0
DIMSTYLE
105
15DD
102
{ACAD_REACTORS
330
1C04
330
1C23
330
1C9C
102
}
330
A
100
AcDbSymbolTableRecord
100
AcDbDimStyleTableRecord
  2
φ
 70
     0
  3
%%C<>
 41
2.5
 42
0.0
 43
3.75
 44
1.25
 73
     0
 74
     0
 77
     1
 78
     8
140
2.5
141
2.5
143
0.0394
147
0.625
171
     4
172
     1
173
     1
176
     2
177
     2
178
     6
271
     1
272
     1
273
     8
274
     4
340
3F
343
45
344
45
  0
ENDTAB
  0
TABLE
  2
BLOCK_RECORD
  5
1
330
0
100
AcDbSymbolTable
 70
    11
  0
BLOCK_RECORD
  5
18
102
{ACAD_XDICTIONARY
360
1D2C
102
}
330
1
100
AcDbSymbolTableRecord
100
AcDbBlockTableRecord
  2
*MODEL_SPACE
340
158C
  0
BLOCK_RECORD
  5
15
330
1
100
AcDbSymbolTableRecord
100
AcDbBlockTableRecord
  2
*PAPER_SPACE
340
158D
  0
BLOCK_RECORD
  5
45
330
1
100
AcDbSymbolTableRecord
100
AcDbBlockTableRecord
  2
_OPEN
340
0
102
{BLKREFS
331
145D
331
145E
331
14B3
331
14B4
331
14C4
331
14C5
331
14D7
331
14D8
331
14E3
331
14E4
331
14EA
331
14EB
331
1512
331
1513
331
152F
331
1530
331
154C
331
154D
331
1557
331
1558
331
1D29
331
1D2A
331
1D57
331
1DA6
331
1DA7
331
1DAE
331
1DAF
331
1DB7
331
1DB8
331
1DC6
331
1DC7
331
1DCE
331
1DCF
331
1DD7
331
1DD8
331
1DE0
331
1DE1
102
}
  0
BLOCK_RECORD
  5
1C05
330
1
100
AcDbSymbolTableRecord
100
AcDbBlockTableRecord
  2
*D1
340
0
  0
BLOCK_RECORD
  5
1C24
330
1
100
AcDbSymbolTableRecord
100
AcDbBlockTableRecord
  2
*D2
340
0
  0
BLOCK_RECORD
  5
1C5E
330
1
100
AcDbSymbolTableRecord
100
AcDbBlockTableRecord
  2
*D3
340
0
  0
BLOCK_RECORD
  5
1C6B
330
1
100
AcDbSymbolTableRecord
100
AcDbBlockTableRecord
  2
*D4
340
0
  0
BLOCK_RECORD
  5
1C9D
330
1
100
AcDbSymbolTableRecord
100
AcDbBlockTableRecord
  2
*D5
340
0
  0
BLOCK_RECORD
  5
1CC6
330
1
100
AcDbSymbolTableRecord
100
AcDbBlockTableRecord
  2
*D6
340
0
  0
BLOCK_RECORD
  5
1CD1
330
1
100
AcDbSymbolTableRecord
100
AcDbBlockTableRecord
  2
*D7
340
0
  0
ENDTAB
  0
ENDSEC
  0
SECTION
  2
BLOCKS
  0
BLOCK
  5
19
330
18
100
AcDbEntity
  8
0
100
AcDbBlockBegin
  2
*MODEL_SPACE
 70
     0
 10
0.0
 20
0.0
 30
0.0
  3
*MODEL_SPACE
  1

  0
ENDBLK
  5
1A
330
18
100
AcDbEntity
  8
0
100
AcDbBlockEnd
  0
BLOCK
  5
16
330
15
100
AcDbEntity
 67
     1
  8
0
100
AcDbBlockBegin
  2
*PAPER_SPACE
 70
     0
 10
0.0
 20
0.0
 30
0.0
  3
*PAPER_SPACE
  1

  0
ENDBLK
  5
17
330
15
100
AcDbEntity
 67
     1
  8
0
100
AcDbBlockEnd
  0
BLOCK
  5
46
330
45
100
AcDbEntity
  8
0
100
AcDbBlockBegin
  2
_OPEN
 70
     0
 10
0.0
 20
0.0
 30
0.0
  3
_OPEN
  1

  0
LINE
  5
47
330
45
100
AcDbEntity
  8
0
  6
ByBlock
 62
     0
100
AcDbLine
 10
-1.0
 20
0.1666666666666666
 30
0.0
 11
0.0
 21
0.0
 31
0.0
  0
LINE
  5
48
330
45
100
AcDbEntity
  8
0
  6
ByBlock
 62
     0
100
AcDbLine
 10
0.0
 20
0.0
 30
0.0
 11
-1.0
 21
-0.1666666666666666
 31
0.0
  0
LINE
  5
49
330
45
100
AcDbEntity
  8
0
  6
ByBlock
 62
     0
100
AcDbLine
 10
0.0
 20
0.0
 30
0.0
 11
-1.0
 21
0.0
 31
0.0
  0
ENDBLK
  5
4A
330
45
100
AcDbEntity
  8
0
100
AcDbBlockEnd
  0
BLOCK
  5
1C0F
330
1C05
100
AcDbEntity
  8
0
100
AcDbBlockBegin
  2
*D1
 70
     1
 10
0.0
 20
0.0
 30
0.0
  3
*D1
  1

  0
LINE
  5
1DDD
330
1C05
100
AcDbEntity
  8
寸法線
 62
     2
370
    -2
100
AcDbLine
 10
366.2093856666839
 20
149.0842796216664
 30
0.0
 11
366.2093856666839
 21
191.2645564296371
 31
0.0
  0
LINE
  5
1DDE
330
1C05
100
AcDbEntity
  8
寸法線
 62
     2
370
    -2
100
AcDbLine
 10
400.5093856666839
 20
149.0842796216664
 30
0.0
 11
400.5093856666839
 21
191.2645564296371
 31
0.0
  0
LINE
  5
1DDF
330
1C05
100
AcDbEntity
  8
寸法線
 62
     2
370
    -2
100
AcDbLine
 10
368.709385666684
 20
190.0145564296371
 30
0.0
 11
398.0093856666839
 21
190.0145564296371
 31
0.0
  0
INSERT
  5
1DE0
330
1C05
100
AcDbEntity
  8
寸法線
 62
     2
370
    -2
100
AcDbBlockReference
  2
_OPEN
 10
366.2093856666839
 20
190.0145564296371
 30
0.0
 41
2.5
 42
2.5
 43
2.5
 50
180.0
  0
INSERT
  5
1DE1
330
1C05
100
AcDbEntity
  8
寸法線
 62
     2
370
    -2
100
AcDbBlockReference
  2
_OPEN
 10
400.5093856666839
 20
190.0145564296371
 30
0.0
 41
2.5
 42
2.5
 43
2.5
  0
MTEXT
  5
1DE2
330
1C05
100
AcDbEntity
  8
寸法線
 62
     6
100
AcDbMText
 10
383.3593856666839
 20
191.8895564296371
 30
0.0
 40
2.5
 41
0.0
 71
     5
 72
     1
  1
\A1;%%C34.3
  7
STYLE3
 73
     1
 44
1.0
  0
POINT
  5
1DE3
330
1C05
100
AcDbEntity
  8
DEFPOINTS
 62
     0
100
AcDbPoint
 10
366.2093856666839
 20
149.0842796216664
 30
0.0
  0
POINT
  5
1DE4
330
1C05
100
AcDbEntity
  8
DEFPOINTS
 62
     0
100
AcDbPoint
 10
400.5093856666839
 20
149.0842796216664
 30
0.0
  0
POINT
  5
1DE5
330
1C05
100
AcDbEntity
  8
DEFPOINTS
 62
     0
100
AcDbPoint
 10
400.5093856666839
 20
190.0145564296371
 30
0.0
  0
ENDBLK
  5
1C10
330
1C05
100
AcDbEntity
  8
0
100
AcDbBlockEnd
  0
BLOCK
  5
1C2E
330
1C24
100
AcDbEntity
  8
0
100
AcDbBlockBegin
  2
*D2
 70
     1
 10
0.0
 20
0.0
 30
0.0
  3
*D2
  1

  0
LINE
  5
1DD4
330
1C24
100
AcDbEntity
  8
寸法線
 62
     2
370
    -2
100
AcDbLine
 10
451.2271741507553
 20
169.4842796216665
 30
0.0
 11
435.8376459734507
 21
169.4842796216665
 31
0.0
  0
LINE
  5
1DD5
330
1C24
100
AcDbEntity
  8
寸法線
 62
     2
370
    -2
100
AcDbLine
 10
451.2271741507553
 20
128.6842796216664
 30
0.0
 11
435.8376459734507
 21
128.6842796216664
 31
0.0
  0
LINE
  5
1DD6
330
1C24
100
AcDbEntity
  8
寸法線
 62
     2
370
    -2
100
AcDbLine
 10
437.0876459734506
 20
166.9842796216665
 30
0.0
 11
437.0876459734506
 21
131.1842796216664
 31
0.0
  0
INSERT
  5
1DD7
330
1C24
100
AcDbEntity
  8
寸法線
 62
     2
370
    -2
100
AcDbBlockReference
  2
_OPEN
 10
437.0876459734506
 20
169.4842796216665
 30
0.0
 41
2.5
 42
2.5
 43
2.5
 50
90.0
  0
INSERT
  5
1DD8
330
1C24
100
AcDbEntity
  8
寸法線
 62
     2
370
    -2
100
AcDbBlockReference
  2
_OPEN
 10
437.0876459734506
 20
128.6842796216664
 30
0.0
 41
2.5
 42
2.5
 43
2.5
 50
270.0
  0
MTEXT
  5
1DD9
330
1C24
100
AcDbEntity
  8
寸法線
 62
     6
100
AcDbMText
 10
435.2126459734505
 20
149.0842796216665
 30
0.0
 40
2.5
 41
0.0
 71
     5
 72
     1
  1
\A1;%%C40.8
  7
STYLE3
 11
0.0000000000000001
 21
1.0
 31
0.0
 73
     1
 44
1.0
  0
POINT
  5
1DDA
330
1C24
100
AcDbEntity
  8
DEFPOINTS
 62
     0
100
AcDbPoint
 10
451.2271741507553
 20
169.4842796216665
 30
0.0
  0
POINT
  5
1DDB
330
1C24
100
AcDbEntity
  8
DEFPOINTS
 62
     0
100
AcDbPoint
 10
451.2271741507553
 20
128.6842796216664
 30
0.0
  0
POINT
  5
1DDC
330
1C24
100
AcDbEntity
  8
DEFPOINTS
 62
     0
100
AcDbPoint
 10
437.0876459734506
 20
128.6842796216664
 30
0.0
  0
ENDBLK
  5
1C2F
330
1C24
100
AcDbEntity
  8
0
100
AcDbBlockEnd
  0
BLOCK
  5
1C68
330
1C5E
100
AcDbEntity
  8
0
100
AcDbBlockBegin
  2
*D3
 70
     1
 10
0.0
 20
0.0
 30
0.0
  3
*D3
  1

  0
LINE
  5
1DCB
330
1C5E
100
AcDbEntity
  8
寸法線
 62
     2
370
    -2
100
AcDbLine
 10
447.5271741507553
 20
149.0842796216664
 30
0.0
 11
447.5271741507553
 21
191.2645564296371
 31
0.0
  0
LINE
  5
1DCC
330
1C5E
100
AcDbEntity
  8
寸法線
 62
     2
370
    -2
100
AcDbLine
 10
460.0271741507553
 20
182.9728520145066
 30
0.0
 11
460.0271741507553
 21
191.2645564296371
 31
0.0
  0
LINE
  5
1DCD
330
1C5E
100
AcDbEntity
  8
寸法線
 62
     2
370
    -2
100
AcDbLine
 10
450.0271741507553
 20
190.0145564296371
 30
0.0
 11
457.5271741507553
 21
190.0145564296371
 31
0.0
  0
INSERT
  5
1DCE
330
1C5E
100
AcDbEntity
  8
寸法線
 62
     2
370
    -2
100
AcDbBlockReference
  2
_OPEN
 10
447.5271741507553
 20
190.0145564296371
 30
0.0
 41
2.5
 42
2.5
 43
2.5
 50
180.0
  0
INSERT
  5
1DCF
330
1C5E
100
AcDbEntity
  8
寸法線
 62
     2
370
    -2
100
AcDbBlockReference
  2
_OPEN
 10
460.0271741507553
 20
190.0145564296371
 30
0.0
 41
2.5
 42
2.5
 43
2.5
  0
MTEXT
  5
1DD0
330
1C5E
100
AcDbEntity
  8
寸法線
 62
     6
100
AcDbMText
 10
453.7771741507553
 20
191.8895564296371
 30
0.0
 40
2.5
 41
0.0
 71
     5
 72
     1
  1
\A1;12.5
  7
STYLE3
 73
     1
 44
1.0
  0
POINT
  5
1DD1
330
1C5E
100
AcDbEntity
  8
DEFPOINTS
 62
     0
100
AcDbPoint
 10
447.5271741507553
 20
149.0842796216664
 30
0.0
  0
POINT
  5
1DD2
330
1C5E
100
AcDbEntity
  8
DEFPOINTS
 62
     0
100
AcDbPoint
 10
460.0271741507553
 20
182.9728520145066
 30
0.0
  0
POINT
  5
1DD3
330
1C5E
100
AcDbEntity
  8
DEFPOINTS
 62
     0
100
AcDbPoint
 10
460.0271741507553
 20
190.0145564296371
 30
0.0
  0
ENDBLK
  5
1C69
330
1C5E
100
AcDbEntity
  8
0
100
AcDbBlockEnd
  0
BLOCK
  5
1C7A
330
1C6B
100
AcDbEntity
  8
0
100
AcDbBlockBegin
  2
*D4
 70
     1
 10
0.0
 20
0.0
 30
0.0
  3
*D4
  1

  0
LINE
  5
1DBD
330
1C6B
100
AcDbEntity
  8
寸法線
 62
     2
370
    -2
100
AcDbLine
 10
460.0271741507553
 20
182.9728520145066
 30
0.0
 11
460.0271741507553
 21
191.2645564296371
 31
0.0
  0
LINE
  5
1DBE
330
1C6B
100
AcDbEntity
  8
寸法線
 62
     2
370
    -2
100
AcDbLine
 10
465.1271741507553
 20
167.5842796216664
 30
0.0
 11
465.1271741507553
 21
191.2645564296371
 31
0.0
  0
LINE
  5
1DBF
330
1C6B
100
AcDbEntity
  8
寸法線
 62
     2
370
    -2
100
AcDbLine
 10
457.5271741507553
 20
190.0145564296371
 30
0.0
 11
455.0271741507552
 21
190.0145564296371
 31
0.0
  0
LINE
  5
1DC0
330
1C6B
100
AcDbEntity
  8
寸法線
 62
     2
370
    -2
100
AcDbLine
 10
467.6271741507553
 20
190.0145564296371
 30
0.0
 11
470.1271741507553
 21
190.0145564296371
 31
0.0
  0
LINE
  5
1DC1
330
1C6B
100
AcDbEntity
  8
寸法線
 62
     2
370
    -2
100
AcDbLine
 10
462.5771741507553
 20
190.0145564296371
 30
0.0
 11
463.6084241507553
 21
193.4520564296371
 31
0.0
  0
LINE
  5
1DC2
330
1C6B
100
AcDbEntity
  8
寸法線
 62
     2
370
    -2
100
AcDbLine
 10
463.6084241507553
 20
193.4520564296371
 30
0.0
 11
469.3822336745649
 21
193.4520564296371
 31
0.0
  0
MTEXT
  5
1DC3
330
1C6B
100
AcDbEntity
  8
寸法線
 62
     6
100
AcDbMText
 10
466.4953289126601
 20
195.3270564296371
 30
0.0
 40
2.5
 41
0.0
 71
     5
 72
     1
  1
\A1;5.1
  7
STYLE3
 73
     1
 44
1.0
  0
LINE
  5
1DC4
330
1C6B
100
AcDbEntity
  8
寸法線
 62
     2
370
    -2
100
AcDbLine
 10
460.0271741507553
 20
190.0145564296371
 30
0.0
 11
465.1271741507553
 21
190.0145564296371
 31
0.0
  0
LINE
  5
1DC5
330
1C6B
100
AcDbEntity
  8
寸法線
 62
     2
370
    -2
100
AcDbLine
 10
460.0271741507553
 20
190.0145564296371
 30
0.0
 11
465.1271741507553
 21
190.0145564296371
 31
0.0
  0
INSERT
  5
1DC6
330
1C6B
100
AcDbEntity
  8
寸法線
 62
     2
370
    -2
100
AcDbBlockReference
  2
_OPEN
 10
460.0271741507553
 20
190.0145564296371
 30
0.0
 41
2.5
 42
2.5
 43
2.5
  0
INSERT
  5
1DC7
330
1C6B
100
AcDbEntity
  8
寸法線
 62
     2
370
    -2
100
AcDbBlockReference
  2
_OPEN
 10
465.1271741507553
 20
190.0145564296371
 30
0.0
 41
2.5
 42
2.5
 43
2.5
 50
180.0
  0
POINT
  5
1DC8
330
1C6B
100
AcDbEntity
  8
DEFPOINTS
 62
     0
100
AcDbPoint
 10
460.0271741507553
 20
182.9728520145066
 30
0.0
  0
POINT
  5
1DC9
330
1C6B
100
AcDbEntity
  8
DEFPOINTS
 62
     0
100
AcDbPoint
 10
465.1271741507553
 20
167.5842796216664
 30
0.0
  0
POINT
  5
1DCA
330
1C6B
100
AcDbEntity
  8
DEFPOINTS
 62
     0
100
AcDbPoint
 10
465.1271741507553
 20
190.0145564296371
 30
0.0
  0
ENDBLK
  5
1C7B
330
1C6B
100
AcDbEntity
  8
0
100
AcDbBlockEnd
  0
BLOCK
  5
1CA7
330
1C9D
100
AcDbEntity
  8
0
100
AcDbBlockBegin
  2
*D5
 70
     1
 10
0.0
 20
0.0
 30
0.0
  3
*D5
  1

  0
LINE
  5
1DB4
330
1C9D
100
AcDbEntity
  8
寸法線
 62
     2
370
    -2
100
AcDbLine
 10
465.1271741507553
 20
167.5842796216664
 30
0.0
 11
502.5121050881853
 21
167.5842796216664
 31
0.0
  0
LINE
  5
1DB5
330
1C9D
100
AcDbEntity
  8
寸法線
 62
     2
370
    -2
100
AcDbLine
 10
465.1271741507553
 20
130.5842796216664
 30
0.0
 11
502.5121050881853
 21
130.5842796216664
 31
0.0
  0
LINE
  5
1DB6
330
1C9D
100
AcDbEntity
  8
寸法線
 62
     2
370
    -2
100
AcDbLine
 10
501.2621050881853
 20
165.0842796216664
 30
0.0
 11
501.2621050881853
 21
133.0842796216664
 31
0.0
  0
INSERT
  5
1DB7
330
1C9D
100
AcDbEntity
  8
寸法線
 62
     2
370
    -2
100
AcDbBlockReference
  2
_OPEN
 10
501.2621050881853
 20
167.5842796216664
 30
0.0
 41
2.5
 42
2.5
 43
2.5
 50
90.0
  0
INSERT
  5
1DB8
330
1C9D
100
AcDbEntity
  8
寸法線
 62
     2
370
    -2
100
AcDbBlockReference
  2
_OPEN
 10
501.2621050881853
 20
130.5842796216664
 30
0.0
 41
2.5
 42
2.5
 43
2.5
 50
270.0
  0
MTEXT
  5
1DB9
330
1C9D
100
AcDbEntity
  8
寸法線
 62
     6
100
AcDbMText
 10
499.3871050881852
 20
149.0842796216665
 30
0.0
 40
2.5
 41
0.0
 71
     5
 72
     1
  1
\A1;%%C37
  7
STYLE3
 11
0.0000000000000001
 21
1.0
 31
0.0
 73
     1
 44
1.0
  0
POINT
  5
1DBA
330
1C9D
100
AcDbEntity
  8
DEFPOINTS
 62
     0
100
AcDbPoint
 10
465.1271741507553
 20
167.5842796216664
 30
0.0
  0
POINT
  5
1DBB
330
1C9D
100
AcDbEntity
  8
DEFPOINTS
 62
     0
100
AcDbPoint
 10
465.1271741507553
 20
130.5842796216664
 30
0.0
  0
POINT
  5
1DBC
330
1C9D
100
AcDbEntity
  8
DEFPOINTS
 62
     0
100
AcDbPoint
 10
501.2621050881853
 20
130.5842796216664
 30
0.0
  0
ENDBLK
  5
1CA8
330
1C9D
100
AcDbEntity
  8
0
100
AcDbBlockEnd
  0
BLOCK
  5
1CCF
330
1CC6
100
AcDbEntity
  8
0
100
AcDbBlockBegin
  2
*D6
 70
     1
 10
0.0
 20
0.0
 30
0.0
  3
*D6
  1

  0
LINE
  5
1DAC
330
1CC6
100
AcDbEntity
  8
寸法線
 62
     2
370
    -2
100
AcDbLine
 10
381.8593856666839
 20
121.2718411524586
 30
0.0
 11
384.8593856666839
 21
121.2718411524586
 31
0.0
  0
LINE
  5
1DAD
330
1CC6
100
AcDbEntity
  8
寸法線
 62
     2
370
    -2
100
AcDbLine
 10
387.3593856666839
 20
121.2718411524586
 30
0.0
 11
406.3831951904934
 21
121.2718411524586
 31
0.0
  0
INSERT
  5
1DAE
330
1CC6
100
AcDbEntity
  8
寸法線
 62
     2
370
    -2
100
AcDbBlockReference
  2
_OPEN
 10
379.3593856666839
 20
121.2718411524586
 30
0.0
 41
2.5
 42
2.5
 43
2.5
 50
180.0
  0
INSERT
  5
1DAF
330
1CC6
100
AcDbEntity
  8
寸法線
 62
     2
370
    -2
100
AcDbBlockReference
  2
_OPEN
 10
387.3593856666839
 20
121.2718411524586
 30
0.0
 41
2.5
 42
2.5
 43
2.5
  0
MTEXT
  5
1DB0
330
1CC6
100
AcDbEntity
  8
寸法線
 62
     6
100
AcDbMText
 10
398.1212904285887
 20
123.9385078191253
 30
0.0
 40
2.5
 41
0.0
 71
     5
 72
     1
  1
%%C8.0{\H1.750000;\S 0^ -0.03;}
  7
STYLE3
 73
     1
 44
1.0
  0
POINT
  5
1DB1
330
1CC6
100
AcDbEntity
  8
DEFPOINTS
 62
     0
100
AcDbPoint
 10
379.3593856666839
 20
118.68179612881
 30
0.0
  0
POINT
  5
1DB2
330
1CC6
100
AcDbEntity
  8
DEFPOINTS
 62
     0
100
AcDbPoint
 10
387.3593856666839
 20
118.8081394831348
 30
0.0
  0
POINT
  5
1DB3
330
1CC6
100
AcDbEntity
  8
DEFPOINTS
 62
     0
100
AcDbPoint
 10
387.3593856666839
 20
121.2718411524586
 30
0.0
  0
ENDBLK
  5
1CD0
330
1CC6
100
AcDbEntity
  8
0
100
AcDbBlockEnd
  0
BLOCK
  5
1CDD
330
1CD1
100
AcDbEntity
  8
0
100
AcDbBlockBegin
  2
*D7
 70
     1
 10
0.0
 20
0.0
 30
0.0
  3
*D7
  1

  0
LINE
  5
1DA1
330
1CD1
100
AcDbEntity
  8
寸法線
 62
     2
370
    -2
100
AcDbLine
 10
381.3593856666839
 20
112.7368980494597
 30
0.0
 11
381.3593856666839
 21
113.9868980494597
 31
0.0
  0
LINE
  5
1DA2
330
1CD1
100
AcDbEntity
  8
寸法線
 62
     2
370
    -2
100
AcDbLine
 10
385.3593856666839
 20
112.7368980494597
 30
0.0
 11
385.3593856666839
 21
113.9868980494597
 31
0.0
  0
LINE
  5
1DA3
330
1CD1
100
AcDbEntity
  8
寸法線
 62
     2
370
    -2
100
AcDbLine
 10
378.8593856666839
 20
112.7368980494597
 30
0.0
 11
376.3593856666839
 21
112.7368980494597
 31
0.0
  0
LINE
  5
1DA4
330
1CD1
100
AcDbEntity
  8
寸法線
 62
     2
370
    -2
100
AcDbLine
 10
387.8593856666839
 20
112.7368980494597
 30
0.0
 11
395.657004714303
 21
112.7368980494597
 31
0.0
  0
LINE
  5
1DA5
330
1CD1
100
AcDbEntity
  8
寸法線
 62
     2
370
    -2
100
AcDbLine
 10
381.3593856666839
 20
112.7368980494597
 30
0.0
 11
385.3593856666839
 21
112.7368980494597
 31
0.0
  0
INSERT
  5
1DA6
330
1CD1
100
AcDbEntity
  8
寸法線
 62
     2
370
    -2
100
AcDbBlockReference
  2
_OPEN
 10
381.3593856666839
 20
112.7368980494597
 30
0.0
 41
2.5
 42
2.5
 43
2.5
  0
INSERT
  5
1DA7
330
1CD1
100
AcDbEntity
  8
寸法線
 62
     2
370
    -2
100
AcDbBlockReference
  2
_OPEN
 10
385.3593856666839
 20
112.7368980494597
 30
0.0
 41
2.5
 42
2.5
 43
2.5
 50
180.0
  0
MTEXT
  5
1DA8
330
1CD1
100
AcDbEntity
  8
寸法線
 62
     6
100
AcDbMText
 10
393.0081951904934
 20
114.6118980494597
 30
0.0
 40
2.5
 41
0.0
 71
     5
 72
     1
  1
\A1;%%C4
  7
STYLE3
 73
     1
 44
1.0
  0
POINT
  5
1DA9
330
1CD1
100
AcDbEntity
  8
DEFPOINTS
 62
     0
100
AcDbPoint
 10
381.3593856666839
 20
112.7368980494597
 30
0.0
  0
POINT
  5
1DAA
330
1CD1
100
AcDbEntity
  8
DEFPOINTS
 62
     0
100
AcDbPoint
 10
385.3593856666839
 20
112.7368980494597
 30
0.0
  0
POINT
  5
1DAB
330
1CD1
100
AcDbEntity
  8
DEFPOINTS
 62
     0
100
AcDbPoint
 10
385.3593856666839
 20
112.7368980494597
 30
0.0
  0
ENDBLK
  5
1CDE
330
1CD1
100
AcDbEntity
  8
0
100
AcDbBlockEnd
  0
ENDSEC
  0
SECTION
  2
ENTITIES
  0
LWPOLYLINE
  5
EE7
330
18
100
AcDbEntity
  8
C
100
AcDbPolyline
 90
        5
 70
     0
 43
0.4
 10
296.7088198767266
 20
232.7406190896847
 10
551.7088198767265
 20
232.7406190896847
 10
551.7088198767265
 20
37.74061908968474
 10
296.7088198767266
 20
37.74061908968474
 10
296.7088198767266
 20
232.7406190896847
  0
LINE
  5
F2B
330
18
100
AcDbEntity
  8
中心線
 48
0.5
100
AcDbLine
 10
360.5544063052467
 20
149.0842796216664
 30
0.0
 11
406.0633395658037
 21
149.0842796216664
 31
0.0
  0
LINE
  5
F2C
330
18
100
AcDbEntity
  8
中心線
 48
0.5
100
AcDbLine
 10
383.3593856666839
 20
181.7236195826571
 30
0.0
 11
383.3593856666839
 21
100.2235670049756
 31
0.0
  0
CIRCLE
  5
F2D
330
18
100
AcDbEntity
  8
外形線
100
AcDbCircle
 10
383.3593856666839
 20
149.0842796216664
 30
0.0
 40
20.4
  0
CIRCLE
  5
F2E
330
18
100
AcDbEntity
  8
外形線
100
AcDbCircle
 10
383.3593856666839
 20
149.0842796216664
 30
0.0
 40
17.15
  0
LINE
  5
F2F
330
18
100
AcDbEntity
  8
外形線
100
AcDbLine
 10
379.3593856666839
 20
178.5124828519419
 30
0.0
 11
387.3593856666839
 21
178.5124828519419
 31
0.0
  0
LINE
  5
F30
330
18
100
AcDbEntity
  8
外形線
100
AcDbLine
 10
387.3593856666839
 20
178.5124828519419
 30
0.0
 11
387.3593856666839
 21
169.0882792217464
 31
0.0
  0
LINE
  5
F31
330
18
100
AcDbEntity
  8
外形線
100
AcDbLine
 10
379.3593856666839
 20
178.5124828519419
 30
0.0
 11
379.3593856666839
 21
169.0882792217464
 31
0.0
  0
LINE
  5
F32
330
18
100
AcDbEntity
  8
外形線
100
AcDbLine
 10
387.3593856666839
 20
129.0802800215864
 30
0.0
 11
387.3593856666839
 21
116.7842796216664
 31
0.0
  0
LINE
  5
F33
330
18
100
AcDbEntity
  8
外形線
100
AcDbLine
 10
379.3593856666839
 20
129.0802800215864
 30
0.0
 11
379.3593856666839
 21
116.7842796216664
 31
0.0
  0
LINE
  5
F34
330
18
100
AcDbEntity
  8
外形線
100
AcDbLine
 10
383.3593856666839
 20
110.3842796216664
 30
0.0
 11
385.6093856666839
 21
110.3842796216664
 31
0.0
  0
LINE
  5
F35
330
18
100
AcDbEntity
  8
外形線
100
AcDbLine
 10
380.3593856666839
 20
115.7842796216664
 30
0.0
 11
386.3593856666839
 21
115.7842796216664
 31
0.0
  0
LINE
  5
F36
330
18
100
AcDbEntity
  8
外形線
100
AcDbLine
 10
385.3593856666839
 20
115.7842796216664
 30
0.0
 11
385.3593856666839
 21
110.3842796216664
 31
0.0
  0
LINE
  5
F37
330
18
100
AcDbEntity
  8
外形線
100
AcDbLine
 10
381.3593856666839
 20
115.7842796216664
 30
0.0
 11
381.3593856666839
 21
110.3842796216664
 31
0.0
  0
LINE
  5
F3E
330
18
100
AcDbEntity
  8
外形線
100
AcDbLine
 10
385.5972078401928
 20
107.3842796216664
 30
0.0
 11
384.659385666684
 21
103.8842796216664
 31
0.0
  0
LINE
  5
F3F
330
18
100
AcDbEntity
  8
外形線
100
AcDbLine
 10
383.3593856666839
 20
103.8842796216664
 30
0.0
 11
384.659385666684
 21
103.8842796216664
 31
0.0
  0
LINE
  5
F40
330
18
100
AcDbEntity
  8
外形線
100
AcDbLine
 10
383.3593856666839
 20
107.3842796216664
 30
0.0
 11
385.8593856666839
 21
107.3842796216664
 31
0.0
  0
LINE
  5
F41
330
18
100
AcDbEntity
  8
外形線
100
AcDbLine
 10
385.8593856666839
 20
109.8842796216664
 30
0.0
 11
385.8593856666839
 21
107.3842796216664
 31
0.0
  0
LINE
  5
F42
330
18
100
AcDbEntity
  8
外形線
100
AcDbLine
 10
383.3593856666839
 20
109.8842796216664
 30
0.0
 11
385.8593856666839
 21
109.8842796216664
 31
0.0
  0
LINE
  5
F43
330
18
100
AcDbEntity
  8
外形線
100
AcDbLine
 10
385.6093856666839
 20
110.3842796216664
 30
0.0
 11
385.6093856666839
 21
109.8842796216664
 31
0.0
  0
LINE
  5
F44
330
18
100
AcDbEntity
  8
外形線
100
AcDbLine
 10
383.3593856666839
 20
109.8842796216664
 30
0.0
 11
380.8593856666839
 21
109.8842796216664
 31
0.0
  0
LINE
  5
F45
330
18
100
AcDbEntity
  8
外形線
100
AcDbLine
 10
383.3593856666839
 20
107.3842796216664
 30
0.0
 11
380.8593856666839
 21
107.3842796216664
 31
0.0
  0
LINE
  5
F46
330
18
100
AcDbEntity
  8
外形線
100
AcDbLine
 10
381.121563493175
 20
107.3842796216664
 30
0.0
 11
382.0593856666839
 21
103.8842796216664
 31
0.0
  0
LINE
  5
F47
330
18
100
AcDbEntity
  8
外形線
100
AcDbLine
 10
383.3593856666839
 20
110.3842796216664
 30
0.0
 11
381.1093856666839
 21
110.3842796216664
 31
0.0
  0
LINE
  5
F48
330
18
100
AcDbEntity
  8
外形線
100
AcDbLine
 10
383.3593856666839
 20
103.8842796216664
 30
0.0
 11
382.0593856666839
 21
103.8842796216664
 31
0.0
  0
LINE
  5
F49
330
18
100
AcDbEntity
  8
外形線
100
AcDbLine
 10
380.8593856666839
 20
109.8842796216664
 30
0.0
 11
380.8593856666839
 21
107.3842796216664
 31
0.0
  0
LINE
  5
F4A
330
18
100
AcDbEntity
  8
外形線
100
AcDbLine
 10
381.1093856666839
 20
110.3842796216664
 30
0.0
 11
381.1093856666839
 21
109.8842796216664
 31
0.0
  0
LINE
  5
F4B
330
18
100
AcDbEntity
  8
外形線
 62
     4
100
AcDbLine
 10
381.9370304583417
 20
107.3842796216664
 30
0.0
 11
383.3804061313158
 21
109.8842796216664
 31
0.0
  0
LINE
  5
F4C
330
18
100
AcDbEntity
  8
外形線
 62
     4
100
AcDbLine
 10
380.8593856666839
 20
107.5177440900031
 30
0.0
 11
382.2257055929366
 21
109.8842796216664
 31
0.0
  0
LINE
  5
F4D
330
18
100
AcDbEntity
  8
外形線
 62
     4
100
AcDbLine
 10
380.8593856666839
 20
109.5177440900031
 30
0.0
 11
381.0710050545573
 21
109.8842796216664
 31
0.0
  0
LINE
  5
F4E
330
18
100
AcDbEntity
  8
外形線
 62
     4
100
AcDbLine
 10
383.091730996721
 20
107.3842796216664
 30
0.0
 11
383.3593856666839
 21
107.8478711089253
 31
0.0
  0
LINE
  5
F4F
330
18
100
AcDbEntity
  8
外形線
 62
     4
100
AcDbLine
 10
381.223804525078
 20
107.3842796216664
 30
0.0
 11
380.8593856666839
 21
108.0154715996412
 31
0.0
  0
LINE
  5
F50
330
18
100
AcDbEntity
  8
外形線
 62
     4
100
AcDbLine
 10
382.3785050634573
 20
107.3842796216664
 30
0.0
 11
380.9351293904832
 21
109.8842796216664
 31
0.0
  0
LINE
  5
F51
330
18
100
AcDbEntity
  8
外形線
 62
     4
100
AcDbLine
 10
383.3593856666839
 20
107.685344580719
 30
0.0
 11
382.0898299288625
 21
109.8842796216664
 31
0.0
  0
LINE
  5
F52
330
18
100
AcDbEntity
  8
外形線
 62
     4
100
AcDbLine
 10
383.3593856666839
 20
109.6853445807191
 30
0.0
 11
383.2445304672418
 21
109.8842796216664
 31
0.0
  0
LINE
  5
F56
330
18
100
AcDbEntity
  8
外形線
100
AcDbLine
 10
459.9771741507553
 20
109.8842796216664
 30
0.0
 11
462.4771741507553
 21
109.8842796216664
 31
0.0
  0
LINE
  5
F57
330
18
100
AcDbEntity
  8
外形線
100
AcDbLine
 10
459.9771741507553
 20
107.3842796216664
 30
0.0
 11
462.4771741507553
 21
107.3842796216664
 31
0.0
  0
LINE
  5
F58
330
18
100
AcDbEntity
  8
外形線
100
AcDbLine
 10
462.2149963242642
 20
107.3842796216664
 30
0.0
 11
461.2771741507553
 21
103.8842796216664
 31
0.0
  0
LINE
  5
F59
330
18
100
AcDbEntity
  8
外形線
100
AcDbLine
 10
459.9771741507553
 20
110.3842796216664
 30
0.0
 11
462.2271741507553
 21
110.3842796216664
 31
0.0
  0
LINE
  5
F5A
330
18
100
AcDbEntity
  8
外形線
100
AcDbLine
 10
457.0271741507553
 20
115.7842796216664
 30
0.0
 11
463.0271741507553
 21
115.7842796216664
 31
0.0
  0
LINE
  5
F5B
330
18
100
AcDbEntity
  8
外形線
 62
     4
100
AcDbLine
 10
457.4771741507553
 20
107.5177440900031
 30
0.0
 11
458.8434940770079
 21
109.8842796216664
 31
0.0
  0
LINE
  5
F5C
330
18
100
AcDbEntity
  8
外形線
 62
     4
100
AcDbLine
 10
459.9771741507553
 20
107.685344580719
 30
0.0
 11
458.7076184129339
 21
109.8842796216664
 31
0.0
  0
LINE
  5
F5D
330
18
100
AcDbEntity
  8
外形線
 62
     4
100
AcDbLine
 10
458.9962935475287
 20
107.3842796216664
 30
0.0
 11
457.5529178745546
 21
109.8842796216664
 31
0.0
  0
LINE
  5
F5E
330
18
100
AcDbEntity
  8
外形線
 62
     4
100
AcDbLine
 10
458.5548189424131
 20
107.3842796216664
 30
0.0
 11
459.9981946153872
 21
109.8842796216664
 31
0.0
  0
LINE
  5
F5F
330
18
100
AcDbEntity
  8
外形線
100
AcDbLine
 10
457.4771741507553
 20
109.8842796216664
 30
0.0
 11
457.4771741507553
 21
107.3842796216664
 31
0.0
  0
LINE
  5
F60
330
18
100
AcDbEntity
  8
外形線
 62
     4
100
AcDbLine
 10
457.8415930091494
 20
107.3842796216664
 30
0.0
 11
457.4771741507553
 21
108.0154715996412
 31
0.0
  0
LINE
  5
F61
330
18
100
AcDbEntity
  8
外形線
 62
     4
100
AcDbLine
 10
459.7095194807923
 20
107.3842796216664
 30
0.0
 11
459.9771741507553
 21
107.8478711089253
 31
0.0
  0
LINE
  5
F62
330
18
100
AcDbEntity
  8
外形線
100
AcDbLine
 10
459.9771741507553
 20
103.8842796216664
 30
0.0
 11
458.6771741507553
 21
103.8842796216664
 31
0.0
  0
LINE
  5
F63
330
18
100
AcDbEntity
  8
外形線
100
AcDbLine
 10
457.7393519772464
 20
107.3842796216664
 30
0.0
 11
458.6771741507553
 21
103.8842796216664
 31
0.0
  0
LINE
  5
F64
330
18
100
AcDbEntity
  8
外形線
100
AcDbLine
 10
459.9771741507553
 20
107.3842796216664
 30
0.0
 11
457.4771741507553
 21
107.3842796216664
 31
0.0
  0
LINE
  5
F65
330
18
100
AcDbEntity
  8
外形線
100
AcDbLine
 10
459.9771741507553
 20
103.8842796216664
 30
0.0
 11
461.2771741507553
 21
103.8842796216664
 31
0.0
  0
LINE
  5
F67
330
18
100
AcDbEntity
  8
外形線
 62
     4
100
AcDbLine
 10
459.9771741507553
 20
109.6853445807191
 30
0.0
 11
459.8623189513132
 21
109.8842796216664
 31
0.0
  0
LINE
  5
F68
330
18
100
AcDbEntity
  8
外形線
 62
     4
100
AcDbLine
 10
457.4771741507553
 20
109.5177440900031
 30
0.0
 11
457.6887935386287
 21
109.8842796216664
 31
0.0
  0
LINE
  5
F69
330
18
100
AcDbEntity
  8
外形線
100
AcDbLine
 10
457.7271741507553
 20
110.3842796216664
 30
0.0
 11
457.7271741507553
 21
109.8842796216664
 31
0.0
  0
LINE
  5
F6A
330
18
100
AcDbEntity
  8
外形線
100
AcDbLine
 10
459.9771741507553
 20
110.3842796216664
 30
0.0
 11
457.7271741507553
 21
110.3842796216664
 31
0.0
  0
LINE
  5
F6B
330
18
100
AcDbEntity
  8
外形線
100
AcDbLine
 10
459.9771741507553
 20
109.8842796216664
 30
0.0
 11
457.4771741507553
 21
109.8842796216664
 31
0.0
  0
LINE
  5
F6C
330
18
100
AcDbEntity
  8
外形線
100
AcDbLine
 10
458.0271741507553
 20
115.7842796216664
 30
0.0
 11
457.9771741507553
 21
110.3842796216664
 31
0.0
  0
LINE
  5
F6D
330
18
100
AcDbEntity
  8
外形線
100
AcDbLine
 10
462.4771741507553
 20
109.8842796216664
 30
0.0
 11
462.4771741507553
 21
107.3842796216664
 31
0.0
  0
LINE
  5
F6E
330
18
100
AcDbEntity
  8
外形線
100
AcDbLine
 10
462.2271741507553
 20
110.3842796216664
 30
0.0
 11
462.2271741507553
 21
109.8842796216664
 31
0.0
  0
LINE
  5
F70
330
18
100
AcDbEntity
  8
外形線
100
AcDbLine
 10
462.0271741507553
 20
115.7842796216664
 30
0.0
 11
461.9771741507553
 21
110.3842796216664
 31
0.0
  0
LINE
  5
F72
330
18
100
AcDbEntity
  8
外形線
100
AcDbLine
 10
456.0271741507553
 20
130.5842796216664
 30
0.0
 11
456.0271741507554
 21
116.7842796216664
 31
0.0
  0
LINE
  5
F73
330
18
100
AcDbEntity
  8
外形線
100
AcDbLine
 10
464.0271741507553
 20
130.5842796216664
 30
0.0
 11
464.0271741507553
 21
116.7842796216664
 31
0.0
  0
LINE
  5
F74
330
18
100
AcDbEntity
  8
中心線
 48
0.5
100
AcDbLine
 10
445.545043403981
 20
149.0842796216664
 30
0.0
 11
490.8085407754549
 21
149.0842796216664
 31
0.0
  0
LINE
  5
F75
330
18
100
AcDbEntity
  8
中心線
 48
0.5
100
AcDbLine
 10
460.0271741507553
 20
182.9728520145066
 30
0.0
 11
460.0271741507553
 21
100.2629728867661
 31
0.0
  0
LINE
  5
F76
330
18
100
AcDbEntity
  8
外形線
100
AcDbLine
 10
465.1271741507553
 20
167.5842796216664
 30
0.0
 11
465.1271741507553
 21
130.5842796216664
 31
0.0
  0
LINE
  5
F77
330
18
100
AcDbEntity
  8
外形線
100
AcDbLine
 10
454.8271741507553
 20
167.5842796216664
 30
0.0
 11
465.1271741507553
 21
167.5842796216664
 31
0.0
  0
LINE
  5
F78
330
18
100
AcDbEntity
  8
外形線
100
AcDbLine
 10
454.8271741507553
 20
130.5842796216664
 30
0.0
 11
465.1271741507553
 21
130.5842796216664
 31
0.0
  0
LINE
  5
F79
330
18
100
AcDbEntity
  8
外形線
100
AcDbLine
 10
454.8271741507553
 20
169.2842796216664
 30
0.0
 11
454.8271741507553
 21
149.0842796216664
 31
0.0
  0
LINE
  5
F7A
330
18
100
AcDbEntity
  8
外形線
100
AcDbLine
 10
451.2271741507553
 20
169.4842796216665
 30
0.0
 11
454.6271741507553
 21
169.4842796216665
 31
0.0
  0
LINE
  5
F7B
330
18
100
AcDbEntity
  8
外形線
100
AcDbLine
 10
454.8271741507553
 20
169.2842796216664
 30
0.0
 11
454.6271741507553
 21
169.4842796216665
 31
0.0
  0
LINE
  5
F7C
330
18
100
AcDbEntity
  8
外形線
100
AcDbLine
 10
451.0271741507553
 20
169.2842796216664
 30
0.0
 11
451.0271741507547
 21
149.0842796216664
 31
0.0
  0
LINE
  5
F7D
330
18
100
AcDbEntity
  8
外形線
100
AcDbLine
 10
451.2271741507553
 20
169.4842796216665
 30
0.0
 11
451.0271741507553
 21
169.2842796216664
 31
0.0
  0
LINE
  5
F7E
330
18
100
AcDbEntity
  8
外形線
100
AcDbLine
 10
449.8271741507553
 20
167.9342796216664
 30
0.0
 11
451.0271741507552
 21
168.2842796216664
 31
0.0
  0
LINE
  5
F7F
330
18
100
AcDbEntity
  8
外形線
100
AcDbLine
 10
449.8271741507553
 20
167.9342796216664
 30
0.0
 11
449.8271741507553
 21
149.0842796216664
 31
0.0
  0
LINE
  5
F80
330
18
100
AcDbEntity
  8
外形線
100
AcDbLine
 10
449.8271741507553
 20
130.2342796216664
 30
0.0
 11
449.8271741507553
 21
149.0842796216664
 31
0.0
  0
LINE
  5
F81
330
18
100
AcDbEntity
  8
外形線
100
AcDbLine
 10
451.0271741507553
 20
128.8842796216664
 30
0.0
 11
451.0271741507547
 21
149.0842796216664
 31
0.0
  0
LINE
  5
F82
330
18
100
AcDbEntity
  8
外形線
100
AcDbLine
 10
454.8271741507553
 20
128.8842796216664
 30
0.0
 11
454.8271741507553
 21
149.0842796216664
 31
0.0
  0
LINE
  5
F83
330
18
100
AcDbEntity
  8
外形線
100
AcDbLine
 10
451.2271741507553
 20
128.6842796216664
 30
0.0
 11
454.6271741507553
 21
128.6842796216664
 31
0.0
  0
LINE
  5
F84
330
18
100
AcDbEntity
  8
外形線
100
AcDbLine
 10
449.8271741507553
 20
130.2342796216664
 30
0.0
 11
451.0271741507552
 21
129.8842796216664
 31
0.0
  0
LINE
  5
F85
330
18
100
AcDbEntity
  8
外形線
100
AcDbLine
 10
451.2271741507553
 20
128.6842796216664
 30
0.0
 11
451.0271741507553
 21
128.8842796216664
 31
0.0
  0
LINE
  5
F86
330
18
100
AcDbEntity
  8
外形線
100
AcDbLine
 10
454.8271741507553
 20
128.8842796216664
 30
0.0
 11
454.6271741507553
 21
128.6842796216664
 31
0.0
  0
ARC
  5
F87
330
18
100
AcDbEntity
  8
外形線
100
AcDbCircle
 10
516.3994567594491
 20
149.0842796216664
 30
0.0
 40
68.87228260869386
100
AcDbArc
 50
165.1510621681627
 51
194.8489378318372
  0
LINE
  5
F88
330
18
100
AcDbEntity
  8
ﾊｯﾁﾝｸ
 62
     4
100
AcDbLine
 10
451.0271741507552
 20
168.5842796216664
 30
0.0
 11
454.8271741507553
 21
168.5842796216665
 31
0.0
  0
LINE
  5
F89
330
18
100
AcDbEntity
  8
ﾊｯﾁﾝｸ
 62
     4
100
AcDbLine
 10
451.0271741507552
 20
167.5842796216664
 30
0.0
 11
454.8271741507553
 21
167.5842796216665
 31
0.0
  0
LINE
  5
F8A
330
18
100
AcDbEntity
  8
ﾊｯﾁﾝｸ
 62
     4
100
AcDbLine
 10
451.0271741507552
 20
166.4842796216665
 30
0.0
 11
454.8271741507553
 21
166.4842796216665
 31
0.0
  0
LINE
  5
F8B
330
18
100
AcDbEntity
  8
ﾊｯﾁﾝｸ
 62
     4
100
AcDbLine
 10
451.0271741507551
 20
165.2842796216664
 30
0.0
 11
454.8271741507553
 21
165.2842796216665
 31
0.0
  0
LINE
  5
F8C
330
18
100
AcDbEntity
  8
ﾊｯﾁﾝｸ
 62
     4
100
AcDbLine
 10
451.0271741507552
 20
129.5842796216664
 30
0.0
 11
454.8271741507553
 21
129.5842796216664
 31
0.0
  0
LINE
  5
F8D
330
18
100
AcDbEntity
  8
ﾊｯﾁﾝｸ
 62
     4
100
AcDbLine
 10
451.0271741507552
 20
130.5842796216664
 30
0.0
 11
454.8271741507553
 21
130.5842796216664
 31
0.0
  0
LINE
  5
F8E
330
18
100
AcDbEntity
  8
ﾊｯﾁﾝｸ
 62
     4
100
AcDbLine
 10
451.0271741507552
 20
131.6842796216664
 30
0.0
 11
454.8271741507553
 21
131.6842796216664
 31
0.0
  0
LINE
  5
F8F
330
18
100
AcDbEntity
  8
ﾊｯﾁﾝｸ
 62
     4
100
AcDbLine
 10
451.0271741507551
 20
132.8842796216664
 30
0.0
 11
454.8271741507553
 21
132.8842796216664
 31
0.0
  0
LINE
  5
F90
330
18
100
AcDbEntity
  8
ﾊｯﾁﾝｸ
 62
     4
100
AcDbLine
 10
451.0271741507547
 20
149.0842796216664
 30
0.0
 11
454.8271741507553
 21
149.0842796216664
 31
0.0
  0
LINE
  5
F91
330
18
100
AcDbEntity
  8
ﾊｯﾁﾝｸ
 62
     4
100
AcDbLine
 10
451.0271741507547
 20
150.1842796216664
 30
0.0
 11
454.8271741507553
 21
150.1842796216664
 31
0.0
  0
LINE
  5
F92
330
18
100
AcDbEntity
  8
ﾊｯﾁﾝｸ
 62
     4
100
AcDbLine
 10
451.0271741507547
 20
147.9842796216664
 30
0.0
 11
454.8271741507553
 21
147.9842796216664
 31
0.0
  0
LINE
  5
F93
330
18
100
AcDbEntity
  8
ﾊｯﾁﾝｸ
 62
     4
100
AcDbLine
 10
451.0271741507547
 20
151.1842796216664
 30
0.0
 11
454.8271741507553
 21
151.1842796216664
 31
0.0
  0
LINE
  5
F94
330
18
100
AcDbEntity
  8
ﾊｯﾁﾝｸ
 62
     4
100
AcDbLine
 10
451.0271741507547
 20
146.9842796216664
 30
0.0
 11
454.8271741507553
 21
146.9842796216664
 31
0.0
  0
LINE
  5
F95
330
18
100
AcDbEntity
  8
ﾊｯﾁﾝｸ
 62
     4
100
AcDbLine
 10
451.0271741507547
 20
152.0842796216664
 30
0.0
 11
454.8271741507553
 21
152.0842796216664
 31
0.0
  0
LINE
  5
F96
330
18
100
AcDbEntity
  8
ﾊｯﾁﾝｸ
 62
     4
100
AcDbLine
 10
451.0271741507547
 20
146.0842796216664
 30
0.0
 11
454.8271741507553
 21
146.0842796216664
 31
0.0
  0
CIRCLE
  5
105F
330
18
100
AcDbEntity
  8
外形線
100
AcDbCircle
 10
383.3593856666839
 20
149.0842796216664
 30
0.0
 40
10.5
  0
HATCH
  5
1088
330
18
100
AcDbEntity
  8
ROGO
 62
     4
100
AcDbHatch
 10
0.0
 20
0.0
 30
0.0
210
0.0
220
0.0
230
1.0
  2
SOLID
 70
     1
 71
     1
 91
        1
 92
        7
 72
     0
 73
     1
 93
       11
 10
387.2203772005569
 20
142.2869422630018
 10
387.7880831542086
 20
142.2869422630018
 10
387.9885972809582
 20
142.6890705004998
 10
388.1891114077078
 20
142.2869422630018
 10
388.7568049404096
 20
142.2869422630018
 10
388.3726949002091
 20
143.0572695011622
 10
389.3059337134565
 20
143.8275967393227
 10
388.7382401807545
 20
143.8275967393227
 10
388.4724292346433
 20
143.6593886218936
 10
388.5563032346098
 20
143.8275967393227
 10
387.9885972809582
 20
143.8275967393227
 97
       11
330
10CE
330
10D1
330
10D2
330
108A
330
10BE
330
1091
330
10BD
330
1089
330
10CD
330
10D0
330
10CF
 75
     0
 76
     1
 47
0.0514683685270805
 98
        1
 10
387.9397384946647
 20
143.1666259464312
450
        0
451
        0
460
0.0
461
0.0
452
        0
462
0.0
453
        0
470

  0
LINE
  5
1089
102
{ACAD_REACTORS
330
1088
102
}
330
18
100
AcDbEntity
  8
ROGO
 62
     4
100
AcDbLine
 10
387.9885972809582
 20
142.6890705004998
 30
0.0
 11
388.1891114077078
 21
142.2869422630018
 31
0.0
  0
LINE
  5
108A
102
{ACAD_REACTORS
330
1088
102
}
330
18
100
AcDbEntity
  8
ROGO
 62
     4
100
AcDbLine
 10
387.9885972809582
 20
143.8275967393227
 30
0.0
 11
388.5563032346098
 21
143.8275967393227
 31
0.0
  0
HATCH
  5
108B
330
18
100
AcDbEntity
  8
ROGO
 62
     4
100
AcDbHatch
 10
0.0
 20
0.0
 30
0.0
210
0.0
220
0.0
230
1.0
  2
SOLID
 70
     1
 71
     1
 91
        2
 92
        5
 93
        6
 72
     1
 10
377.359385666684
 20
142.2869422630018
 11
378.0755477144094
 21
142.2869422630018
 72
     1
 10
378.0755477144094
 20
142.2869422630018
 11
378.3265001282928
 21
142.8416210422182
 72
     1
 10
378.3265001282928
 20
142.8416210422182
 11
378.9959647572899
 21
142.8416210422182
 72
     4
 94
        3
 73
     0
 74
     0
 95
       18
 96
       14
 40
0.108740278791501
 40
0.108740278791501
 40
0.108740278791501
 40
0.108740278791501
 40
0.6623149649549278
 40
1.384304701649787
 40
2.097394834876493
 40
2.774073369849618
 40
3.428974823686337
 40
4.005208313035923
 40
4.455173659284313
 40
4.720999734343524
 40
5.086034088486724
 40
5.569973738255373
 40
6.060470601257719
 40
6.060470601257719
 40
6.060470601257719
 40
6.060470601257719
 10
378.9959647572899
 20
142.8416210422182
 10
379.0430805718613
 20
142.8419718994232
 10
379.1516463324053
 20
142.8427803557694
 10
379.3035289818859
 20
142.9239194045257
 10
379.4475571293415
 20
143.027284640929
 10
379.5635620040832
 20
143.1564287196962
 10
379.6358365361281
 20
143.3040828483
 10
379.6470316326943
 20
143.4455957681456
 10
379.640197301285
 20
143.5575307284398
 10
379.5913625706394
 20
143.63555217466
 10
379.5405929088991
 20
143.7147359638359
 10
379.4474985167992
 20
143.7833279031053
 10
379.3712211422548
 20
143.8133813687764
 10
379.3324325459258
 20
143.8275967393227
 72
     1
 10
379.3324325459258
 20
143.8275967393227
 11
378.121687173326
 21
143.8275967393227
 72
     1
 10
378.121687173326
 20
143.8275967393227
 11
377.359385666684
 21
142.2869422630018
 97
        6
330
10B3
330
1092
330
1095
330
1091
330
1093
330
1090
 92
       20
 93
        4
 72
     1
 10
378.4814490371514
 20
143.1841037873596
 11
378.6000817819303
 21
143.4463171091234
 72
     1
 10
378.6000817819303
 20
143.4463171091234
 11
378.9049173755768
 21
143.4463171091234
 72
     4
 94
        3
 73
     0
 74
     0
 95
       15
 96
       11
 40
0.0
 40
0.0
 40
0.0
 40
0.0
 40
0.1156088489662582
 40
0.1683201251490143
 40
0.2281509327120859
 40
0.2689104606378715
 40
0.3333720767885836
 40
0.3719828239672797
 40
0.4382262137648758
 40
0.4603073577904129
 40
0.4603073577904129
 40
0.4603073577904129
 40
0.4603073577904129
 10
378.9049173755768
 20
143.4463171091234
 10
378.9483378173312
 20
143.4465159979238
 10
379.0115555922289
 20
143.4468055690774
 10
379.0461253231059
 20
143.3686049987099
 10
379.0306295214362
 20
143.3182560305333
 10
379.0111500358095
 20
143.2665633328552
 10
378.9767253728949
 20
143.2314373651461
 10
378.9305224329821
 20
143.197605136822
 10
378.886858446822
 20
143.1935095940897
 10
378.8584599252727
 20
143.185984949426
 10
378.8513602914869
 20
143.1841037873596
 72
     1
 10
378.8513602914869
 20
143.1841037873596
 11
378.4814490371514
 21
143.1841037873596
 97
        4
330
1094
330
108F
330
10B2
330
108E
 75
     0
 76
     1
 47
0.0514683685270805
 98
        2
 10
378.1281584194978
 20
143.3484123097786
 10
378.1281584194978
 20
143.3484123097786
450
        0
451
        0
460
0.0
461
0.0
452
        0
462
0.0
453
        0
470

  0
HATCH
  5
108C
330
18
100
AcDbEntity
  8
ROGO
 62
     4
100
AcDbHatch
 10
0.0
 20
0.0
 30
0.0
210
0.0
220
0.0
230
1.0
  2
SOLID
 70
     1
 71
     0
 91
        1
 92
        7
 72
     0
 73
     1
 93
        4
 10
378.145415142887
 20
142.4413698667664
 10
378.0755477144094
 20
142.2869422630018
 10
387.2203772005569
 20
142.2869422630018
 10
387.2973797913414
 20
142.4413698667664
 97
        0
 75
     0
 76
     1
 47
0.0514683685270805
 98
        1
 10
383.9241382296162
 20
142.4005262474017
450
        0
451
        0
460
0.0
461
0.0
452
        0
462
0.0
453
        0
470

  0
LINE
  5
108D
330
18
100
AcDbEntity
  8
ROGO
 62
     4
100
AcDbLine
 10
378.1347054247977
 20
142.4413698667664
 30
0.0
 11
387.2973797913414
 21
142.4413698667664
 31
0.0
  0
LINE
  5
108E
102
{ACAD_REACTORS
330
108B
102
}
330
18
100
AcDbEntity
  8
ROGO
 62
     4
100
AcDbLine
 10
378.851360291487
 20
143.1841037873596
 30
0.0
 11
378.4814490371514
 21
143.1841037873596
 31
0.0
  0
LINE
  5
108F
102
{ACAD_REACTORS
330
108B
102
}
330
18
100
AcDbEntity
  8
ROGO
 62
     4
100
AcDbLine
 10
378.9049173755768
 20
143.4463171091234
 30
0.0
 11
378.6000817819303
 21
143.4463171091234
 31
0.0
  0
LINE
  5
1090
102
{ACAD_REACTORS
330
108B
102
}
330
18
100
AcDbEntity
  8
ROGO
 62
     4
100
AcDbLine
 10
378.995964757522
 20
142.8416210422182
 30
0.0
 11
378.3265001282928
 21
142.8416210422182
 31
0.0
  0
LINE
  5
1091
102
{ACAD_REACTORS
330
108B
330
1088
102
}
330
18
100
AcDbEntity
  8
ROGO
 62
     4
100
AcDbLine
 10
377.3593856666839
 20
142.2869422630018
 30
0.0
 11
387.7880831542086
 21
142.2869422630018
 31
0.0
  0
LINE
  5
1092
102
{ACAD_REACTORS
330
108B
102
}
330
18
100
AcDbEntity
  8
ROGO
 62
     4
100
AcDbLine
 10
378.121687173326
 20
143.8275967393227
 30
0.0
 11
379.3324325459258
 21
143.8275967393227
 31
0.0
  0
LINE
  5
1093
102
{ACAD_REACTORS
330
108B
102
}
330
18
100
AcDbEntity
  8
ROGO
 62
     4
100
AcDbLine
 10
378.3265001282928
 20
142.8416210422182
 30
0.0
 11
378.0755477144094
 21
142.2869422630018
 31
0.0
  0
LINE
  5
1094
102
{ACAD_REACTORS
330
108B
102
}
330
18
100
AcDbEntity
  8
ROGO
 62
     4
100
AcDbLine
 10
378.6000817819303
 20
143.4463171091234
 30
0.0
 11
378.4814490371514
 21
143.1841037873596
 31
0.0
  0
LINE
  5
1095
102
{ACAD_REACTORS
330
108B
102
}
330
18
100
AcDbEntity
  8
ROGO
 62
     4
100
AcDbLine
 10
378.121687173326
 20
143.8275967393227
 30
0.0
 11
377.3593856666839
 21
142.2869422630018
 31
0.0
  0
HATCH
  5
1096
330
18
100
AcDbEntity
  8
ROGO
 62
     4
100
AcDbHatch
 10
0.0
 20
0.0
 30
0.0
210
0.0
220
0.0
230
1.0
  2
SOLID
 70
     1
 71
     1
 91
        1
 92
        5
 93
        8
 72
     1
 10
384.422269884075
 20
143.4607498540418
 11
384.6051915891274
 21
143.8275967393227
 72
     1
 10
384.6051915891274
 20
143.8275967393227
 11
383.6177957244719
 21
143.8275967393227
 72
     4
 94
        3
 73
     0
 74
     0
 95
       26
 96
       22
 40
0.0
 40
0.0
 40
0.0
 40
0.0
 40
0.1788672874439025
 40
0.2986050863114078
 40
0.3849457903691007
 40
0.4494136003730423
 40
0.5330317334891365
 40
0.5940648189551028
 40
0.7042763457550083
 40
0.7939869441021301
 40
0.8550045255505416
 40
0.9148353882480543
 40
1.021861169779601
 40
1.097541171377479
 40
1.13830069930319
 40
1.196198404703419
 40
1.238007636874677
 40
1.298575410885722
 40
1.332851531981694
 40
1.407440216243285
 40
1.441498057423176
 40
1.441498057423176
 40
1.441498057423176
 40
1.441498057423176
 10
383.6177957244719
 20
143.8275967393227
 10
383.557085403461
 20
143.8239746574639
 10
383.4557342234632
 20
143.8179278722662
 10
383.3444512443738
 20
143.7503246575599
 10
383.2629188190298
 20
143.711023119346
 10
383.2047699921538
 20
143.6575960264148
 10
383.1621466663354
 20
143.6024097421921
 10
383.1084119624573
 20
143.5366556891771
 10
383.0645928469155
 20
143.4600877552511
 10
383.0422784353055
 20
143.3756965437355
 10
383.0225125412884
 20
143.3084362585042
 10
383.0078538233855
 20
143.2334834482601
 10
383.0115834162029
 20
143.1525080461768
 10
383.0169243638073
 20
143.0773022382315
 10
383.0407703961134
 20
143.0236165512121
 10
383.0679268030502
 20
142.9853960414912
 10
383.101179451439
 20
142.943300387342
 10
383.1375651205337
 20
142.91542057191
 10
383.1676590388797
 20
142.8649144127764
 10
383.2203374277458
 20
142.8584694626182
 10
383.253821907439
 20
142.8456420882429
 10
383.2643184151437
 20
142.8416210422182
 72
     1
 10
383.2643184151437
 20
142.8416210422182
 11
384.1135522625005
 21
142.8416210422182
 72
     1
 10
384.1135522625005
 20
142.8416210422182
 11
384.2964720304621
 21
143.2084640426908
 72
     1
 10
384.2964720304621
 20
143.2084640426908
 11
383.6659970077636
 21
143.2084640426909
 72
     4
 94
        3
 73
     0
 74
     0
 95
       16
 96
       12
 40
0.0
 40
0.0
 40
0.0
 40
0.0
 40
0.0540174455616886
 40
0.1085920418344853
 40
0.1411433357130011
 40
0.1723533270752968
 40
0.2066293119868672
 40
0.2305651034442044
 40
0.2532780921710005
 40
0.2993367724205433
 40
0.3936366304390786
 40
0.3936366304390786
 40
0.3936366304390786
 40
0.3936366304390786
 10
383.6659970077636
 20
143.2084640426908
 10
383.6469796592503
 20
143.2140592254679
 10
383.6087488120884
 20
143.2253073012679
 10
383.6055491989021
 20
143.2798338405358
 10
383.6099082089648
 20
143.3186884616558
 10
383.6281637528437
 20
143.3469768947949
 10
383.6503108939504
 20
143.3675604519188
 10
383.6585572568377
 20
143.3943673167077
 10
383.6827966892217
 20
143.4146098534547
 10
383.7257796976626
 20
143.4486347300315
 10
383.7733114641981
 20
143.4558812685058
 10
383.8052456727684
 20
143.4607498540418
 72
     1
 10
383.8052456727684
 20
143.4607498540418
 11
384.422269884075
 21
143.4607498540418
 97
        8
330
10C7
330
1097
330
1098
330
10C8
330
10CA
330
10C9
330
10CB
330
10CC
 75
     0
 76
     1
 47
0.0514683685270805
 98
        1
 10
383.963124616037
 20
143.6081069899483
450
        0
451
        0
460
0.0
461
0.0
452
        0
462
0.0
453
        0
470

  0
SPLINE
  5
1097
102
{ACAD_REACTORS
330
1096
102
}
330
18
100
AcDbEntity
  8
ROGO
 62
     4
100
AcDbSpline
210
0.0
220
0.0
230
1.0
 70
     8
 71
     3
 72
    26
 73
    22
 74
    20
 42
0.0000000001
 43
0.0000000001
 44
0.0000000001
 40
0.0
 40
0.0
 40
0.0
 40
0.0
 40
0.1788672874439025
 40
0.2986050863114078
 40
0.3849457903691007
 40
0.4494136003730423
 40
0.5330317334891365
 40
0.5940648189551028
 40
0.7042763457550083
 40
0.7939869441021301
 40
0.8550045255505416
 40
0.9148353882480543
 40
1.021861169779601
 40
1.097541171377479
 40
1.13830069930319
 40
1.196198404703419
 40
1.238007636874677
 40
1.298575410885722
 40
1.332851531981694
 40
1.407440216243285
 40
1.441498057423176
 40
1.441498057423176
 40
1.441498057423176
 40
1.441498057423176
 10
383.6177957244719
 20
143.8275967393227
 30
0.0
 10
383.557085403461
 20
143.8239746574639
 30
0.0
 10
383.4557342234632
 20
143.8179278722662
 30
0.0
 10
383.3444512443738
 20
143.7503246575599
 30
0.0
 10
383.2629188190298
 20
143.711023119346
 30
0.0
 10
383.2047699921538
 20
143.6575960264148
 30
0.0
 10
383.1621466663354
 20
143.6024097421921
 30
0.0
 10
383.1084119624573
 20
143.5366556891771
 30
0.0
 10
383.0645928469155
 20
143.4600877552511
 30
0.0
 10
383.0422784353055
 20
143.3756965437355
 30
0.0
 10
383.0225125412884
 20
143.3084362585042
 30
0.0
 10
383.0078538233855
 20
143.2334834482601
 30
0.0
 10
383.0115834162029
 20
143.1525080461768
 30
0.0
 10
383.0169243638073
 20
143.0773022382315
 30
0.0
 10
383.0407703961134
 20
143.0236165512121
 30
0.0
 10
383.0679268030502
 20
142.9853960414912
 30
0.0
 10
383.101179451439
 20
142.943300387342
 30
0.0
 10
383.1375651205337
 20
142.91542057191
 30
0.0
 10
383.1676590388797
 20
142.8649144127764
 30
0.0
 10
383.2203374277458
 20
142.8584694626182
 30
0.0
 10
383.253821907439
 20
142.8456420882429
 30
0.0
 10
383.2643184151437
 20
142.8416210422182
 30
0.0
 11
383.6177957244719
 21
143.8275967393227
 31
0.0
 11
383.4410570698077
 21
143.8000839338489
 31
0.0
 11
383.3339425936641
 21
143.7465710430831
 31
0.0
 11
383.2589626143454
 21
143.7037607653621
 31
0.0
 11
383.2107613310537
 21
143.6609503131835
 31
0.0
 11
383.1572042469639
 21
143.5967348093731
 31
0.0
 11
383.1197142573046
 21
143.5485732251297
 31
0.0
 11
383.0661568652508
 21
143.4522498821854
 31
0.0
 11
383.0393784771878
 21
143.3666291522857
 31
0.0
 11
383.0233113827573
 21
143.3077649549976
 31
0.0
 11
383.012599781161
 21
143.2489007577095
 31
0.0
 11
383.012599781161
 21
143.141874976178
 31
0.0
 11
383.0233113827573
 21
143.066956859323
 31
0.0
 11
383.0393784771878
 21
143.0294977136669
 31
0.0
 11
383.0715126660489
 21
142.9813361294233
 31
0.0
 11
383.0982913620758
 21
142.9492282902894
 31
0.0
 11
383.1411368445693
 21
142.9064180125684
 31
0.0
 11
383.1625597397982
 21
142.8796614799567
 31
0.0
 11
383.2321842262825
 21
142.8529051218026
 31
0.0
 11
383.2643184151437
 21
142.8416210422182
 31
0.0
  0
LINE
  5
1098
102
{ACAD_REACTORS
330
1096
102
}
330
18
100
AcDbEntity
  8
ROGO
 62
     4
100
AcDbLine
 10
383.2643184151436
 20
142.8416210422182
 30
0.0
 11
384.1135522625005
 21
142.8416210422182
 31
0.0
  0
HATCH
  5
1099
330
18
100
AcDbEntity
  8
ROGO
 62
     4
100
AcDbHatch
 10
0.0
 20
0.0
 30
0.0
210
0.0
220
0.0
230
1.0
  2
SOLID
 70
     1
 71
     1
 91
        2
 92
        7
 72
     0
 73
     1
 93
        8
 10
382.5562884780923
 20
143.8275967393227
 10
381.7675923623278
 20
143.8275967393227
 10
381.0565861249316
 20
142.8416210422182
 10
381.6026401813179
 20
142.8416210422182
 10
381.7380113697818
 20
143.0293447145203
 10
382.3611250288204
 20
143.0293447145203
 10
382.4445193224447
 20
142.8416210422183
 10
382.9942979511784
 20
142.8416210422182
 97
        8
330
10A0
330
10A6
330
10A1
330
10A2
330
10A4
330
109A
330
109F
330
109C
 92
       22
 72
     0
 73
     1
 93
        3
 10
382.2731665525935
 20
143.2273425324739
 10
381.880791444351
 20
143.2273425324738
 10
382.123591561716
 20
143.5640414281866
 97
        3
330
10A3
330
10A5
330
109B
 75
     0
 76
     1
 47
0.0128389261915577
 98
        2
 10
382.4945273403218
 20
143.5910473179187
 10
382.4945273403218
 20
143.5910473179187
450
        0
451
        0
460
0.0
461
0.0
452
        0
462
0.0
453
        0
470

  0
LINE
  5
109A
102
{ACAD_REACTORS
330
1099
102
}
330
18
100
AcDbEntity
  8
ROGO
 62
     4
100
AcDbLine
 10
382.3611250288204
 20
143.0293447145203
 30
0.0
 11
382.4445193224448
 21
142.8416210422182
 31
0.0
  0
LINE
  5
109B
102
{ACAD_REACTORS
330
1099
102
}
330
18
100
AcDbEntity
  8
ROGO
 62
     4
100
AcDbLine
 10
382.123591561716
 20
143.5640414281865
 30
0.0
 11
382.2731665525935
 21
143.2273425324738
 31
0.0
  0
LINE
  5
109C
102
{ACAD_REACTORS
330
1099
102
}
330
18
100
AcDbEntity
  8
ROGO
 62
     4
100
AcDbLine
 10
382.5562884780923
 20
143.8275967393227
 30
0.0
 11
382.9942979511785
 21
142.8416210422182
 31
0.0
  0
HATCH
  5
109D
330
18
100
AcDbEntity
  8
ROGO
 62
     4
100
AcDbHatch
 10
0.0
 20
0.0
 30
0.0
210
0.0
220
0.0
230
1.0
  2
SOLID
 70
     1
 71
     1
 91
        1
 92
        1
 93
       12
 72
     1
 10
380.0477108704444
 20
143.8275967393227
 11
381.3812840196766
 21
143.8275967393227
 72
     1
 10
381.3812840196766
 20
143.8275967393227
 11
381.2695317701895
 21
143.6017391201116
 72
     1
 10
381.2695317701895
 20
143.6017391201116
 11
380.5686394215987
 21
143.6017391201116
 72
     1
 10
380.5686394215987
 20
143.6017391201116
 11
380.4812630494732
 21
143.4251465282474
 72
     1
 10
380.4812630494732
 20
143.4251465282474
 11
381.182155398064
 21
143.4251465282474
 72
     1
 10
381.182155398064
 20
143.4251465282474
 11
381.092559113868
 21
143.2440673684853
 72
     1
 10
381.092559113868
 20
143.2440673684853
 11
380.3916667652773
 21
143.2440673684853
 72
     1
 10
380.3916667652773
 20
143.2440673684853
 11
380.3042866940561
 21
143.0674673005397
 72
     1
 10
380.3042866940561
 20
143.0674673005397
 11
381.0051790426469
 21
143.0674673005397
 72
     1
 10
381.0051790426469
 20
143.0674673005397
 11
380.8934324144224
 21
142.8416210422182
 72
     1
 10
380.8934324144224
 20
142.8416210422182
 11
379.5598592651902
 21
142.8416210422182
 72
     1
 10
379.5598592651902
 20
142.8416210422182
 11
380.0477108704444
 21
143.8275967393227
 97
       12
330
109E
330
10B0
330
10AD
330
10AE
330
10AC
330
10A9
330
10AA
330
10A7
330
10AB
330
10A8
330
10AF
330
10B1
 75
     0
 76
     1
 98
        1
 10
325.4983158283462
 20
75.65178920771683
450
        0
451
        0
460
0.0
461
0.0
452
        0
462
0.0
453
        0
470

  0
LINE
  5
109E
102
{ACAD_REACTORS
330
109D
102
}
330
18
100
AcDbEntity
  8
ROGO
 62
     4
100
AcDbLine
 10
380.0477108704444
 20
143.8275967393227
 30
0.0
 11
381.3812840196766
 21
143.8275967393227
 31
0.0
  0
LINE
  5
109F
102
{ACAD_REACTORS
330
1099
102
}
330
18
100
AcDbEntity
  8
ROGO
 62
     4
100
AcDbLine
 10
382.9942979511785
 20
142.8416210422182
 30
0.0
 11
382.4445193224448
 21
142.8416210422182
 31
0.0
  0
LINE
  5
10A0
102
{ACAD_REACTORS
330
1099
102
}
330
18
100
AcDbEntity
  8
ROGO
 62
     4
100
AcDbLine
 10
381.7675923623278
 20
143.8275967393227
 30
0.0
 11
382.5562884780923
 21
143.8275967393227
 31
0.0
  0
LINE
  5
10A1
102
{ACAD_REACTORS
330
1099
102
}
330
18
100
AcDbEntity
  8
ROGO
 62
     4
100
AcDbLine
 10
381.0565861249316
 20
142.8416210422182
 30
0.0
 11
381.6026401813179
 21
142.8416210422182
 31
0.0
  0
LINE
  5
10A2
102
{ACAD_REACTORS
330
1099
102
}
330
18
100
AcDbEntity
  8
ROGO
 62
     4
100
AcDbLine
 10
381.7380113697818
 20
143.0293447145203
 30
0.0
 11
381.6026401813179
 21
142.8416210422182
 31
0.0
  0
LINE
  5
10A3
102
{ACAD_REACTORS
330
1099
102
}
330
18
100
AcDbEntity
  8
ROGO
 62
     4
100
AcDbLine
 10
381.8807914443508
 20
143.2273425324738
 30
0.0
 11
382.2731665525935
 21
143.2273425324738
 31
0.0
  0
LINE
  5
10A4
102
{ACAD_REACTORS
330
1099
102
}
330
18
100
AcDbEntity
  8
ROGO
 62
     4
100
AcDbLine
 10
381.7380113697818
 20
143.0293447145203
 30
0.0
 11
382.3611250288204
 21
143.0293447145203
 31
0.0
  0
LINE
  5
10A5
102
{ACAD_REACTORS
330
1099
102
}
330
18
100
AcDbEntity
  8
ROGO
 62
     4
100
AcDbLine
 10
382.123591561716
 20
143.5640414281865
 30
0.0
 11
381.8807914443508
 21
143.2273425324738
 31
0.0
  0
LINE
  5
10A6
102
{ACAD_REACTORS
330
1099
102
}
330
18
100
AcDbEntity
  8
ROGO
 62
     4
100
AcDbLine
 10
381.7675923623278
 20
143.8275967393227
 30
0.0
 11
381.0565861249316
 21
142.8416210422182
 31
0.0
  0
LINE
  5
10A7
102
{ACAD_REACTORS
330
109D
102
}
330
18
100
AcDbEntity
  8
ROGO
 62
     4
100
AcDbLine
 10
380.3916667652773
 20
143.2440673684853
 30
0.0
 11
380.3042866940561
 21
143.0674673005397
 31
0.0
  0
LINE
  5
10A8
102
{ACAD_REACTORS
330
109D
102
}
330
18
100
AcDbEntity
  8
ROGO
 62
     4
100
AcDbLine
 10
381.0051790426469
 20
143.0674673005397
 30
0.0
 11
380.8934324144224
 21
142.8416210422182
 31
0.0
  0
LINE
  5
10A9
102
{ACAD_REACTORS
330
109D
102
}
330
18
100
AcDbEntity
  8
ROGO
 62
     4
100
AcDbLine
 10
381.182155398064
 20
143.4251465282474
 30
0.0
 11
381.092559113868
 21
143.2440673684853
 31
0.0
  0
LINE
  5
10AA
102
{ACAD_REACTORS
330
109D
102
}
330
18
100
AcDbEntity
  8
ROGO
 62
     4
100
AcDbLine
 10
380.3916667652773
 20
143.2440673684853
 30
0.0
 11
381.092559113868
 21
143.2440673684853
 31
0.0
  0
LINE
  5
10AB
102
{ACAD_REACTORS
330
109D
102
}
330
18
100
AcDbEntity
  8
ROGO
 62
     4
100
AcDbLine
 10
380.3042866940561
 20
143.0674673005397
 30
0.0
 11
381.0051790426469
 21
143.0674673005397
 31
0.0
  0
LINE
  5
10AC
102
{ACAD_REACTORS
330
109D
102
}
330
18
100
AcDbEntity
  8
ROGO
 62
     4
100
AcDbLine
 10
380.4812630494732
 20
143.4251465282474
 30
0.0
 11
381.182155398064
 21
143.4251465282474
 31
0.0
  0
LINE
  5
10AD
102
{ACAD_REACTORS
330
109D
102
}
330
18
100
AcDbEntity
  8
ROGO
 62
     4
100
AcDbLine
 10
380.5686394215987
 20
143.6017391201116
 30
0.0
 11
381.2695317701895
 21
143.6017391201116
 31
0.0
  0
LINE
  5
10AE
102
{ACAD_REACTORS
330
109D
102
}
330
18
100
AcDbEntity
  8
ROGO
 62
     4
100
AcDbLine
 10
380.5686394215987
 20
143.6017391201116
 30
0.0
 11
380.4812630494732
 21
143.4251465282474
 31
0.0
  0
LINE
  5
10AF
102
{ACAD_REACTORS
330
109D
102
}
330
18
100
AcDbEntity
  8
ROGO
 62
     4
100
AcDbLine
 10
379.5598592651902
 20
142.8416210422182
 30
0.0
 11
380.8934324144224
 21
142.8416210422182
 31
0.0
  0
LINE
  5
10B0
102
{ACAD_REACTORS
330
109D
102
}
330
18
100
AcDbEntity
  8
ROGO
 62
     4
100
AcDbLine
 10
381.3812840196766
 20
143.8275967393227
 30
0.0
 11
381.2695317701895
 21
143.6017391201116
 31
0.0
  0
LINE
  5
10B1
102
{ACAD_REACTORS
330
109D
102
}
330
18
100
AcDbEntity
  8
ROGO
 62
     4
100
AcDbLine
 10
380.0477108704444
 20
143.8275967393227
 30
0.0
 11
379.5598592651902
 21
142.8416210422182
 31
0.0
  0
SPLINE
  5
10B2
102
{ACAD_REACTORS
330
108B
102
}
330
18
100
AcDbEntity
  8
ROGO
 62
     4
100
AcDbSpline
210
0.0
220
0.0
230
1.0
 70
     8
 71
     3
 72
    15
 73
    11
 74
     9
 42
0.0000000001
 43
0.0000000001
 44
0.0000000001
 40
0.0
 40
0.0
 40
0.0
 40
0.0
 40
0.1156088489662582
 40
0.1683201251490143
 40
0.2281509327120859
 40
0.2689104606378715
 40
0.3333720767885836
 40
0.3719828239672797
 40
0.4382262137648758
 40
0.4603073577904129
 40
0.4603073577904129
 40
0.4603073577904129
 40
0.4603073577904129
 10
378.9049173755768
 20
143.4463171091234
 30
0.0
 10
378.9483378173312
 20
143.4465159979238
 30
0.0
 10
379.0115555922289
 20
143.4468055690774
 30
0.0
 10
379.0461253231059
 20
143.3686049987099
 30
0.0
 10
379.0306295214362
 20
143.3182560305333
 30
0.0
 10
379.0111500358095
 20
143.2665633328552
 30
0.0
 10
378.9767253728949
 20
143.2314373651461
 30
0.0
 10
378.9305224329821
 20
143.197605136822
 30
0.0
 10
378.886858446822
 20
143.1935095940897
 30
0.0
 10
378.8584599252727
 20
143.185984949426
 30
0.0
 10
378.8513602914869
 20
143.1841037873596
 30
0.0
 11
378.9049173755768
 21
143.4463171091234
 31
0.0
 11
379.0173873445548
 21
143.4195605765117
 31
0.0
 11
379.0388102397835
 21
143.3713989922683
 31
0.0
 11
379.0280989461511
 21
143.3125347949802
 31
0.0
 11
379.0120318517205
 21
143.275075649324
 31
0.0
 11
378.969186061263
 21
143.2269140650806
 31
0.0
 11
378.9370518724019
 21
143.2055088389913
 31
0.0
 11
378.8727831867157
 21
143.1894550938818
 31
0.0
 11
378.8513602914869
 21
143.1841037873596
 31
0.0
  0
SPLINE
  5
10B3
102
{ACAD_REACTORS
330
108B
102
}
330
18
100
AcDbEntity
  8
ROGO
 62
     4
100
AcDbSpline
210
0.0
220
0.0
230
1.0
 70
     8
 71
     3
 72
    18
 73
    14
 74
     0
 42
0.0000000001
 43
0.0000000001
 40
0.1087402787915014
 40
0.1087402787915014
 40
0.1087402787915014
 40
0.1087402787915014
 40
0.5992371417938475
 40
1.083176791562496
 40
1.448211145705696
 40
1.714037220764907
 40
2.164002567013297
 40
2.740236056362883
 40
3.395137510199602
 40
4.071816045172726
 40
4.784906178399433
 40
5.506895915094292
 40
6.060470601257719
 40
6.060470601257719
 40
6.060470601257719
 40
6.060470601257719
 10
379.3324325459258
 20
143.8275967393227
 30
0.0
 10
379.3712211422548
 20
143.8133813687764
 30
0.0
 10
379.4474985167992
 20
143.7833279031053
 30
0.0
 10
379.5405929088991
 20
143.7147359638359
 30
0.0
 10
379.5913625706394
 20
143.63555217466
 30
0.0
 10
379.640197301285
 20
143.5575307284398
 30
0.0
 10
379.6470316326943
 20
143.4455957681456
 30
0.0
 10
379.6358365361281
 20
143.3040828483
 30
0.0
 10
379.5635620040832
 20
143.1564287196962
 30
0.0
 10
379.4475571293415
 20
143.027284640929
 30
0.0
 10
379.3035289818859
 20
142.9239194045257
 30
0.0
 10
379.1516463324053
 20
142.8427803557694
 30
0.0
 10
379.0430805718613
 20
142.8419718994232
 30
0.0
 10
378.9959647572899
 20
142.8416210422182
 30
0.0
  0
HATCH
  5
10B4
330
18
100
AcDbEntity
  8
ROGO
 62
     4
100
AcDbHatch
 10
0.0
 20
0.0
 30
0.0
210
0.0
220
0.0
230
1.0
  2
SOLID
 70
     1
 71
     1
 91
        2
 92
        5
 93
        6
 72
     4
 94
        3
 73
     0
 74
     0
 95
       38
 96
       34
 40
0.0
 40
0.0
 40
0.0
 40
0.0
 40
0.1357297776392472
 40
0.1783565260696803
 40
0.2331289995657126
 40
0.2787728168223356
 40
0.3172845133349857
 40
0.3684368351424421
 40
0.394573655541001
 40
0.4240105759070257
 40
0.4673950571103002
 40
0.516540260167967
 40
0.5484202720892082
 40
0.5830526600236579
 40
0.6215505047446177
 40
0.6799729348677249
 40
0.735480335983191
 40
0.7612854497446523
 40
0.7907127299341113
 40
0.8255743389678581
 40
0.8503913247602358
 40
0.8711951059485215
 40
0.9008982057109113
 40
0.9335368242385532
 40
0.9661752610396609
 40
0.9947339386723063
 40
1.060138386831908
 40
1.085943500593297
 40
1.137553758768808
 40
1.183174931093528
 40
1.270513245267282
 40
1.378279681714248
 40
1.533910098009842
 40
1.533910098009842
 40
1.533910098009842
 40
1.533910098009842
 10
385.1527308793794
 20
143.8317093127835
 10
385.1074880761702
 20
143.828513227654
 10
385.0480365000283
 20
143.8243133928748
 10
384.9725468994486
 20
143.8036314929628
 10
384.9313967151034
 20
143.7789926903869
 10
384.8885717232328
 20
143.7608819894812
 10
384.8520594291358
 20
143.7340636328731
 10
384.8151280144891
 20
143.7202443920878
 10
384.7892675074214
 20
143.6953258308909
 10
384.7593360798925
 20
143.6801044982077
 10
384.7355011527335
 20
143.6460347304952
 10
384.7088604644416
 20
143.6141807322664
 10
384.6779539145034
 20
143.5909287341939
 10
384.6525884941753
 20
143.566507333281
 10
384.6293192480524
 20
143.528817773876
 10
384.6155474667501
 20
143.4787395098406
 10
384.5767271268794
 20
143.4471218999431
 10
384.5708819991471
 20
143.4091080988396
 10
384.549409285339
 20
143.3866805958669
 10
384.5400721983812
 20
143.3577299115202
 10
384.536516186228
 20
143.3312059708985
 10
384.532248123713
 20
143.3064344464859
 10
384.5210836804845
 20
143.2803758970369
 10
384.5247277932741
 20
143.2481867211323
 10
384.5236896949442
 20
143.2170168736931
 10
384.52430061703
 20
143.174936609044
 10
384.5220957146149
 20
143.1339662966143
 10
384.5396789473193
 20
143.0893808792421
 10
384.5500841209087
 20
143.0496391478458
 10
384.5785803814135
 20
142.9946119014975
 10
384.6277358336065
 20
142.9311223572277
 10
384.7212090377104
 20
142.8540580796293
 10
384.811086256375
 20
142.8462402673923
 10
384.8641910251321
 20
142.8416210422182
 72
     1
 10
384.8641910251321
 20
142.8416210422182
 11
385.4276697503213
 21
142.8416210422182
 72
     4
 94
        3
 73
     0
 74
     0
 95
       11
 96
        7
 40
0.1647869275458135
 40
0.1647869275458135
 40
0.1647869275458135
 40
0.1647869275458135
 40
0.2545010798212315
 40
0.5111620267764023
 40
0.7602998271033902
 40
0.8850764140209603
 40
0.8850764140209603
 40
0.8850764140209603
 40
0.8850764140209603
 10
385.4276697503219
 20
142.8416210422182
 10
385.4355325832642
 20
142.8414695088158
 10
385.4658899959079
 20
142.8408844573384
 10
385.5177711780041
 20
142.8483377990719
 10
385.5723570930388
 20
142.8554801863706
 10
385.6048997187365
 20
142.8606817715174
 10
385.6153955163914
 20
142.8636032807951
 72
     4
 94
        3
 73
     0
 74
     0
 95
        9
 96
        5
 40
0.0
 40
0.0
 40
0.0
 40
0.0
 40
0.0852811146443373
 40
0.1999468966809951
 40
0.1999468966809951
 40
0.1999468966809951
 40
0.1999468966809951
 10
385.6153955163914
 20
142.8636032807951
 10
385.6427902778027
 20
142.8719845305976
 10
385.7070190059608
 20
142.891634893932
 10
385.7600866485381
 20
142.9331661825255
 10
385.7905199427677
 20
142.9569835948716
 72
     4
 94
        3
 73
     0
 74
     0
 95
       25
 96
       21
 40
0.0
 40
0.0
 40
0.0
 40
0.0
 40
0.165525918914855
 40
0.3412380755365305
 40
0.5940540902285263
 40
0.7697671103696209
 40
0.9377330196075423
 40
1.11479469302833
 40
1.274661249598185
 40
1.574522170874768
 40
1.815540668866877
 40
2.15849091873445
 40
2.536227739636605
 40
2.738070817316548
 40
2.925680654369045
 40
3.162706124480894
 40
3.395643218188267
 40
3.648478129958861
 40
3.928509979727306
 40
4.337226830236035
 40
4.337226830236035
 40
4.337226830236035
 40
4.337226830236035
 10
385.7905199427677
 20
142.9569835948716
 10
385.8017021039395
 20
142.9662241213043
 10
385.82291160639
 20
142.9882016117369
 10
385.8605301514357
 20
143.0238222271279
 10
385.8936803266979
 20
143.0653230707403
 10
385.9345734545343
 20
143.0989580500309
 10
385.9558622890355
 20
143.140079305533
 10
385.9865484634859
 20
143.1724202971007
 10
386.0122891389541
 20
143.2223677684415
 10
386.034128829884
 20
143.2797415903646
 10
386.0549499594971
 20
143.3545272768846
 10
386.0629288311607
 20
143.4388966476438
 10
386.0511191088427
 20
143.5205239715124
 10
386.0225898051054
 20
143.5815377148502
 10
386.0016154229207
 20
143.6323863816504
 10
385.9697841702221
 20
143.6805490222444
 10
385.9334690131022
 20
143.7329312201132
 10
385.8823073871846
 20
143.7762597782157
 10
385.8154443949949
 20
143.8285210013148
 10
385.7531665103915
 20
143.8305219255156
 10
385.7162096045691
 20
143.8317093127835
 72
     1
 10
385.7162096045692
 20
143.8317093127835
 11
385.1527308793794
 21
143.8317093127835
 97
        6
330
10BA
330
10B9
330
10BB
330
10B8
330
10B7
330
10B6
 92
       20
 93
        1
 72
     3
 10
385.2822213734677
 20
143.322860850741
 11
0.1338651859479742
 21
0.1177176799836958
 40
0.678808341743879
 50
0.0
 51
360.0
 73
     1
 97
        1
330
10B5
 75
     0
 76
     1
 47
0.088756267210375
 98
        2
 10
385.321589429859
 20
143.5582429648538
 10
385.321589429859
 20
143.5582429648538
450
        0
451
        0
460
0.0
461
0.0
452
        0
462
0.0
453
        0
470

  0
ELLIPSE
  5
10B5
102
{ACAD_REACTORS
330
10B4
102
}
330
18
100
AcDbEntity
  8
ROGO
 62
     4
100
AcDbEllipse
 10
385.2822213734677
 20
143.322860850741
 30
0.0
 11
0.1338651859479742
 21
0.1177176799836958
 31
0.0
210
0.0
220
0.0
230
1.0
 40
0.678808341743879
 41
0.0
 42
6.283185307179586
  0
SPLINE
  5
10B6
102
{ACAD_REACTORS
330
10B4
102
}
330
18
100
AcDbEntity
  8
ROGO
 62
     4
100
AcDbSpline
210
0.0
220
0.0
230
1.0
 70
     8
 71
     3
 72
     9
 73
     5
 74
     3
 42
0.0000000001
 43
0.0000000001
 44
0.0000000001
 40
0.0
 40
0.0
 40
0.0
 40
0.0
 40
0.0852811146443373
 40
0.1999468966809951
 40
0.1999468966809951
 40
0.1999468966809951
 40
0.1999468966809951
 10
385.6153955163914
 20
142.8636032807951
 30
0.0
 10
385.6427902778027
 20
142.8719845305976
 30
0.0
 10
385.7070190059608
 20
142.891634893932
 30
0.0
 10
385.7600866485381
 20
142.9331661825255
 30
0.0
 10
385.7905199427677
 20
142.9569835948716
 30
0.0
 11
385.6153955163914
 21
142.8636032807951
 31
0.0
 11
385.6955493948579
 21
142.8927275710312
 31
0.0
 11
385.7905199427677
 21
142.9569835948716
 31
0.0
  0
SPLINE
  5
10B7
102
{ACAD_REACTORS
330
10B4
102
}
330
18
100
AcDbEntity
  8
ROGO
 62
     4
100
AcDbSpline
210
0.0
220
0.0
230
1.0
 70
     8
 71
     3
 72
    11
 73
     7
 74
     0
 42
0.0000000001
 43
0.0000000001
 40
0.1647869275458134
 40
0.1647869275458134
 40
0.1647869275458134
 40
0.1647869275458134
 40
0.2895635144633836
 40
0.5387013147903714
 40
0.7953622617455423
 40
0.8850764140209602
 40
0.8850764140209602
 40
0.8850764140209602
 40
0.8850764140209602
 10
385.6153955163914
 20
142.8636032807951
 30
0.0
 10
385.6048997187365
 20
142.8606817715174
 30
0.0
 10
385.5723570930388
 20
142.8554801863706
 30
0.0
 10
385.5177711780041
 20
142.8483377990719
 30
0.0
 10
385.4658899959079
 20
142.8408844573384
 30
0.0
 10
385.4355325832642
 20
142.8414695088158
 30
0.0
 10
385.4276697503219
 20
142.8416210422182
 30
0.0
  0
LINE
  5
10B8
102
{ACAD_REACTORS
330
10B4
102
}
330
18
100
AcDbEntity
  8
ROGO
 62
     4
100
AcDbLine
 10
384.8641910251321
 20
142.8416210422182
 30
0.0
 11
385.4276697503219
 21
142.8416210422182
 31
0.0
  0
LINE
  5
10B9
102
{ACAD_REACTORS
330
10B4
102
}
330
18
100
AcDbEntity
  8
ROGO
 62
     4
100
AcDbLine
 10
385.1527308793794
 20
143.8317093127835
 30
0.0
 11
385.7162096045691
 21
143.8317093127835
 31
0.0
  0
SPLINE
  5
10BA
102
{ACAD_REACTORS
330
10B4
102
}
330
18
100
AcDbEntity
  8
ROGO
 62
     4
100
AcDbSpline
210
0.0
220
0.0
230
1.0
 70
     8
 71
     3
 72
    25
 73
    21
 74
     0
 42
0.0000000001
 43
0.0000000001
 40
0.0
 40
0.0
 40
0.0
 40
0.0
 40
0.4087168505087288
 40
0.6887487002771746
 40
0.9415836120477687
 40
1.17452070575514
 40
1.41154617586699
 40
1.599156012919487
 40
1.80099909059943
 40
2.178735911501585
 40
2.521686161369157
 40
2.762704659361267
 40
3.06256558063785
 40
3.222432137207705
 40
3.399493810628493
 40
3.567459719866414
 40
3.743172740007509
 40
3.995988754699505
 40
4.17170091132118
 40
4.337226830236035
 40
4.337226830236035
 40
4.337226830236035
 40
4.337226830236035
 10
385.7162096045691
 20
143.8317093127835
 30
0.0
 10
385.7531665103915
 20
143.8305219255156
 30
0.0
 10
385.8154443949949
 20
143.8285210013148
 30
0.0
 10
385.8823073871846
 20
143.7762597782157
 30
0.0
 10
385.9334690131022
 20
143.7329312201132
 30
0.0
 10
385.9697841702221
 20
143.6805490222444
 30
0.0
 10
386.0016154229207
 20
143.6323863816504
 30
0.0
 10
386.0225898051054
 20
143.5815377148502
 30
0.0
 10
386.0511191088427
 20
143.5205239715124
 30
0.0
 10
386.0629288311607
 20
143.4388966476438
 30
0.0
 10
386.0549499594971
 20
143.3545272768846
 30
0.0
 10
386.034128829884
 20
143.2797415903646
 30
0.0
 10
386.0122891389541
 20
143.2223677684415
 30
0.0
 10
385.9865484634859
 20
143.1724202971007
 30
0.0
 10
385.9558622890355
 20
143.140079305533
 30
0.0
 10
385.9345734545343
 20
143.0989580500309
 30
0.0
 10
385.8936803266979
 20
143.0653230707403
 30
0.0
 10
385.8605301514357
 20
143.0238222271279
 30
0.0
 10
385.82291160639
 20
142.9882016117369
 30
0.0
 10
385.8017021039395
 20
142.9662241213043
 30
0.0
 10
385.7905199427677
 20
142.9569835948716
 30
0.0
  0
SPLINE
  5
10BB
102
{ACAD_REACTORS
330
10B4
102
}
330
18
100
AcDbEntity
  8
ROGO
 62
     4
100
AcDbSpline
210
0.0
220
0.0
230
1.0
 70
     8
 71
     3
 72
    38
 73
    34
 74
    32
 42
0.0000000001
 43
0.0000000001
 44
0.0000000001
 40
0.0
 40
0.0
 40
0.0
 40
0.0
 40
0.1357297776392472
 40
0.1783565260696803
 40
0.2331289995657126
 40
0.2787728168223356
 40
0.3172845133349857
 40
0.3684368351424421
 40
0.394573655541001
 40
0.4240105759070257
 40
0.4673950571103002
 40
0.516540260167967
 40
0.5484202720892082
 40
0.5830526600236579
 40
0.6215505047446177
 40
0.6799729348677249
 40
0.735480335983191
 40
0.7612854497446523
 40
0.7907127299341113
 40
0.8255743389678581
 40
0.8503913247602358
 40
0.8711951059485215
 40
0.9008982057109113
 40
0.9335368242385532
 40
0.9661752610396609
 40
0.9947339386723063
 40
1.060138386831908
 40
1.085943500593297
 40
1.137553758768808
 40
1.183174931093528
 40
1.270513245267282
 40
1.378279681714248
 40
1.533910098009842
 40
1.533910098009842
 40
1.533910098009842
 40
1.533910098009842
 10
385.1527308793794
 20
143.8317093127835
 30
0.0
 10
385.1074880761702
 20
143.828513227654
 30
0.0
 10
385.0480365000283
 20
143.8243133928748
 30
0.0
 10
384.9725468994486
 20
143.8036314929628
 30
0.0
 10
384.9313967151034
 20
143.7789926903869
 30
0.0
 10
384.8885717232328
 20
143.7608819894812
 30
0.0
 10
384.8520594291358
 20
143.7340636328731
 30
0.0
 10
384.8151280144891
 20
143.7202443920878
 30
0.0
 10
384.7892675074214
 20
143.6953258308909
 30
0.0
 10
384.7593360798925
 20
143.6801044982077
 30
0.0
 10
384.7355011527335
 20
143.6460347304952
 30
0.0
 10
384.7088604644416
 20
143.6141807322664
 30
0.0
 10
384.6779539145034
 20
143.5909287341939
 30
0.0
 10
384.6525884941753
 20
143.566507333281
 30
0.0
 10
384.6293192480524
 20
143.528817773876
 30
0.0
 10
384.6155474667501
 20
143.4787395098406
 30
0.0
 10
384.5767271268794
 20
143.4471218999431
 30
0.0
 10
384.5708819991471
 20
143.4091080988396
 30
0.0
 10
384.549409285339
 20
143.3866805958669
 30
0.0
 10
384.5400721983812
 20
143.3577299115202
 30
0.0
 10
384.536516186228
 20
143.3312059708985
 30
0.0
 10
384.532248123713
 20
143.3064344464859
 30
0.0
 10
384.5210836804845
 20
143.2803758970369
 30
0.0
 10
384.5247277932741
 20
143.2481867211323
 30
0.0
 10
384.5236896949442
 20
143.2170168736931
 30
0.0
 10
384.52430061703
 20
143.174936609044
 30
0.0
 10
384.5220957146149
 20
143.1339662966143
 30
0.0
 10
384.5396789473193
 20
143.0893808792421
 30
0.0
 10
384.5500841209087
 20
143.0496391478458
 30
0.0
 10
384.5785803814135
 20
142.9946119014975
 30
0.0
 10
384.6277358336065
 20
142.9311223572277
 30
0.0
 10
384.7212090377104
 20
142.8540580796293
 30
0.0
 10
384.811086256375
 20
142.8462402673923
 30
0.0
 10
384.8641910251321
 20
142.8416210422182
 30
0.0
 11
385.1527308793794
 21
143.8317093127835
 31
0.0
 11
385.0179857506455
 21
143.8153899126564
 31
0.0
 11
384.9771539031745
 21
143.8031506351509
 31
0.0
 11
384.9281558786868
 21
143.7786717166868
 31
0.0
 11
384.8873240312159
 21
143.7582727391176
 31
0.0
 11
384.8546586815573
 21
143.737873579822
 31
0.0
 11
384.8097437455781
 21
143.7133948430845
 31
0.0
 11
384.7893276614446
 21
143.6970756246839
 31
0.0
 11
384.764828488803
 21
143.6807562245568
 31
0.0
 11
384.7362462276528
 21
143.6481177877556
 31
0.0
 11
384.7035808779943
 21
143.611399591786
 31
0.0
 11
384.6790817053525
 21
143.5910004324904
 31
0.0
 11
384.6545828535066
 21
143.5665216957528
 31
0.0
 11
384.6341667693732
 21
143.5338832589517
 31
0.0
 11
384.6096679175273
 21
143.4808456628549
 31
0.0
 11
384.577002247073
 21
143.4359677668217
 31
0.0
 11
384.5688360700563
 21
143.4114888483576
 31
0.0
 11
384.552503395227
 21
143.38701011162
 31
0.0
 11
384.5402538089061
 21
143.3543714930924
 31
0.0
 11
384.536170399602
 21
143.3298927563547
 31
0.0
 11
384.5320873110936
 21
143.3094935970592
 31
0.0
 11
384.5239211340769
 21
143.280935101153
 31
0.0
 11
384.5239211340769
 21
143.2482964826253
 31
0.0
 11
384.5239211340769
 21
143.2156580458242
 31
0.0
 11
384.5239211340769
 21
143.1870993681916
 31
0.0
 11
384.5280042225853
 21
143.1218224945892
 31
0.0
 11
384.536170399602
 21
143.0973435761251
 31
0.0
 11
384.552503395227
 21
143.0483859209234
 31
0.0
 11
384.5729191585646
 21
143.0075877840588
 31
0.0
 11
384.6260005923564
 21
142.9382311512878
 31
0.0
 11
384.7117473758069
 21
142.8729540959592
 31
0.0
 11
384.8641910251321
 21
142.8416210422182
 31
0.0
  0
HATCH
  5
10BC
330
18
100
AcDbEntity
  8
ROGO
 62
     4
100
AcDbHatch
 10
0.0
 20
0.0
 30
0.0
210
0.0
220
0.0
230
1.0
  2
SOLID
 70
     1
 71
     1
 91
        1
 92
        5
 93
        8
 72
     4
 94
        3
 73
     0
 74
     0
 95
       26
 96
       22
 40
0.0
 40
0.0
 40
0.0
 40
0.0
 40
0.1788672874438463
 40
0.2986050863114024
 40
0.3849457903689966
 40
0.4494136003729807
 40
0.5330317334891114
 40
0.5940648189550428
 40
0.7042763457549482
 40
0.7939869441021241
 40
0.8550045255504958
 40
0.9148353882480085
 40
1.021861169779555
 40
1.097541171377434
 40
1.138300699303219
 40
1.196198404703369
 40
1.238007636874699
 40
1.298575410885704
 40
1.332851531981642
 40
1.407440216243285
 40
1.441498057423123
 40
1.441498057423123
 40
1.441498057423123
 40
1.441498057423123
 10
386.7946971234035
 20
143.8275967393227
 10
386.7339868023926
 20
143.8239746574639
 10
386.6326356223947
 20
143.8179278722662
 10
386.5213526433054
 20
143.75032465756
 10
386.4398202179614
 20
143.711023119346
 10
386.3816713910854
 20
143.6575960264148
 10
386.3390480652669
 20
143.6024097421922
 10
386.285313361389
 20
143.5366556891771
 10
386.2414942458471
 20
143.4600877552511
 10
386.2191798342374
 20
143.3756965437355
 10
386.1994139402199
 20
143.3084362585042
 10
386.1847552223173
 20
143.2334834482602
 10
386.1884848151344
 20
143.1525080461768
 10
386.1938257627389
 20
143.0773022382314
 10
386.2176717950451
 20
143.0236165512121
 10
386.2448282019818
 20
142.9853960414912
 10
386.2780808503707
 20
142.943300387342
 10
386.3144665194653
 20
142.91542057191
 10
386.3445604378112
 20
142.8649144127763
 10
386.3972388266773
 20
142.8584694626182
 10
386.4307233063706
 20
142.8456420882429
 10
386.4412198140753
 20
142.8416210422182
 72
     1
 10
386.4412198140752
 20
142.8416210422182
 11
387.2904536614321
 21
142.8416210422182
 72
     1
 10
387.2904536614321
 20
142.8416210422182
 11
387.4733734293938
 21
143.2084640426908
 72
     1
 10
387.4733734293938
 20
143.2084640426908
 11
386.8428984066952
 21
143.2084640426908
 72
     4
 94
        3
 73
     0
 74
     0
 95
       16
 96
       12
 40
0.0
 40
0.0
 40
0.0
 40
0.0
 40
0.0540174455617137
 40
0.108592041834555
 40
0.1411433357130708
 40
0.1723533270753665
 40
0.2066293119869014
 40
0.2305651034442386
 40
0.2532780921710347
 40
0.2993367724206105
 40
0.3936366304390909
 40
0.3936366304390909
 40
0.3936366304390909
 40
0.3936366304390909
 10
386.8428984066952
 20
143.2084640426908
 10
386.8238810581819
 20
143.2140592254679
 10
386.7856502110199
 20
143.2253073012677
 10
386.7824505978337
 20
143.2798338405358
 10
386.7868096078965
 20
143.3186884616558
 10
386.8050651517751
 20
143.3469768947948
 10
386.8272122928821
 20
143.3675604519188
 10
386.8354586557692
 20
143.3943673167078
 10
386.8596980881534
 20
143.4146098534545
 10
386.9026810965942
 20
143.4486347300316
 10
386.9502128631297
 20
143.4558812685059
 10
386.9821470716999
 20
143.4607498540418
 72
     1
 10
386.9821470716999
 20
143.4607498540418
 11
387.5991712830066
 21
143.4607498540418
 72
     1
 10
387.5991712830066
 20
143.4607498540418
 11
387.782092988059
 21
143.8275967393227
 72
     1
 10
387.782092988059
 20
143.8275967393227
 11
386.7946971234035
 21
143.8275967393227
 97
        8
330
10C5
330
10C3
330
10C6
330
10C2
330
10C1
330
10C4
330
10C0
330
10BF
 75
     0
 76
     1
 47
0.0514683685270805
 98
        1
 10
386.9650782182181
 20
143.6470612355881
450
        0
451
        0
460
0.0
461
0.0
452
        0
462
0.0
453
        0
470

  0
LINE
  5
10BD
102
{ACAD_REACTORS
330
1088
102
}
330
18
100
AcDbEntity
  8
ROGO
 62
     4
100
AcDbLine
 10
387.9885972809582
 20
142.6890705004998
 30
0.0
 11
387.7880831542086
 21
142.2869422630018
 31
0.0
  0
LINE
  5
10BE
102
{ACAD_REACTORS
330
1088
102
}
330
18
100
AcDbEntity
  8
ROGO
 62
     4
100
AcDbLine
 10
387.9885972809582
 20
143.8275967393227
 30
0.0
 11
387.220377200557
 21
142.2869422630018
 31
0.0
  0
LINE
  5
10BF
102
{ACAD_REACTORS
330
10BC
102
}
330
18
100
AcDbEntity
  8
ROGO
 62
     4
100
AcDbLine
 10
387.7820929880591
 20
143.8275967393227
 30
0.0
 11
387.5991712830066
 21
143.4607498540418
 31
0.0
  0
LINE
  5
10C0
102
{ACAD_REACTORS
330
10BC
102
}
330
18
100
AcDbEntity
  8
ROGO
 62
     4
100
AcDbLine
 10
386.9821470716999
 20
143.4607498540418
 30
0.0
 11
387.5991712830066
 21
143.4607498540418
 31
0.0
  0
LINE
  5
10C1
102
{ACAD_REACTORS
330
10BC
102
}
330
18
100
AcDbEntity
  8
ROGO
 62
     4
100
AcDbLine
 10
386.8428984066952
 20
143.2084640426908
 30
0.0
 11
387.4733734293938
 21
143.2084640426908
 31
0.0
  0
LINE
  5
10C2
102
{ACAD_REACTORS
330
10BC
102
}
330
18
100
AcDbEntity
  8
ROGO
 62
     4
100
AcDbLine
 10
387.4733734293938
 20
143.2084640426908
 30
0.0
 11
387.2904536614321
 21
142.8416210422182
 31
0.0
  0
SPLINE
  5
10C3
102
{ACAD_REACTORS
330
10BC
102
}
330
18
100
AcDbEntity
  8
ROGO
 62
     4
100
AcDbSpline
210
0.0
220
0.0
230
1.0
 70
     8
 71
     3
 72
    26
 73
    22
 74
    20
 42
0.0000000001
 43
0.0000000001
 44
0.0000000001
 40
0.0
 40
0.0
 40
0.0
 40
0.0
 40
0.1788672874438463
 40
0.2986050863114024
 40
0.3849457903689966
 40
0.4494136003729807
 40
0.5330317334891114
 40
0.5940648189550428
 40
0.7042763457549482
 40
0.7939869441021241
 40
0.8550045255504958
 40
0.9148353882480085
 40
1.021861169779555
 40
1.097541171377434
 40
1.138300699303219
 40
1.196198404703369
 40
1.238007636874699
 40
1.298575410885704
 40
1.332851531981642
 40
1.407440216243285
 40
1.441498057423123
 40
1.441498057423123
 40
1.441498057423123
 40
1.441498057423123
 10
386.7946971234035
 20
143.8275967393227
 30
0.0
 10
386.7339868023926
 20
143.8239746574639
 30
0.0
 10
386.6326356223947
 20
143.8179278722662
 30
0.0
 10
386.5213526433054
 20
143.75032465756
 30
0.0
 10
386.4398202179614
 20
143.711023119346
 30
0.0
 10
386.3816713910854
 20
143.6575960264148
 30
0.0
 10
386.3390480652669
 20
143.6024097421922
 30
0.0
 10
386.285313361389
 20
143.5366556891771
 30
0.0
 10
386.2414942458471
 20
143.4600877552511
 30
0.0
 10
386.2191798342374
 20
143.3756965437355
 30
0.0
 10
386.1994139402199
 20
143.3084362585042
 30
0.0
 10
386.1847552223173
 20
143.2334834482602
 30
0.0
 10
386.1884848151344
 20
143.1525080461768
 30
0.0
 10
386.1938257627389
 20
143.0773022382314
 30
0.0
 10
386.2176717950451
 20
143.0236165512121
 30
0.0
 10
386.2448282019818
 20
142.9853960414912
 30
0.0
 10
386.2780808503707
 20
142.943300387342
 30
0.0
 10
386.3144665194653
 20
142.91542057191
 30
0.0
 10
386.3445604378112
 20
142.8649144127763
 30
0.0
 10
386.3972388266773
 20
142.8584694626182
 30
0.0
 10
386.4307233063706
 20
142.8456420882429
 30
0.0
 10
386.4412198140753
 20
142.8416210422182
 30
0.0
 11
386.7946971234035
 21
143.8275967393227
 31
0.0
 11
386.6179584687393
 21
143.8000839338489
 31
0.0
 11
386.5108439925957
 21
143.7465710430831
 31
0.0
 11
386.4358640132771
 21
143.7037607653621
 31
0.0
 11
386.3876627299854
 21
143.6609503131835
 31
0.0
 11
386.3341056458955
 21
143.5967348093731
 31
0.0
 11
386.2966156562362
 21
143.5485732251297
 31
0.0
 11
386.2430582641824
 21
143.4522498821854
 31
0.0
 11
386.2162798761194
 21
143.3666291522857
 31
0.0
 11
386.2002127816889
 21
143.3077649549976
 31
0.0
 11
386.1895011800925
 21
143.2489007577095
 31
0.0
 11
386.1895011800925
 21
143.141874976178
 31
0.0
 11
386.2002127816889
 21
143.066956859323
 31
0.0
 11
386.2162798761194
 21
143.0294977136668
 31
0.0
 11
386.2484140649805
 21
142.9813361294233
 31
0.0
 11
386.2751927610075
 21
142.9492282902894
 31
0.0
 11
386.318038243501
 21
142.9064180125684
 31
0.0
 11
386.3394611387298
 21
142.8796614799567
 31
0.0
 11
386.4090856252141
 21
142.8529051218026
 31
0.0
 11
386.4412198140753
 21
142.8416210422182
 31
0.0
  0
SPLINE
  5
10C4
102
{ACAD_REACTORS
330
10BC
102
}
330
18
100
AcDbEntity
  8
ROGO
 62
     4
100
AcDbSpline
210
0.0
220
0.0
230
1.0
 70
     8
 71
     3
 72
    16
 73
    12
 74
    10
 42
0.0000000001
 43
0.0000000001
 44
0.0000000001
 40
0.0
 40
0.0
 40
0.0
 40
0.0
 40
0.0942998580184804
 40
0.1403585382680561
 40
0.1630715269948523
 40
0.1870073184521895
 40
0.2212833033637244
 40
0.2524932947260201
 40
0.2850445886045359
 40
0.3396191848773772
 40
0.3936366304390909
 40
0.3936366304390909
 40
0.3936366304390909
 40
0.3936366304390909
 10
386.9821470716999
 20
143.4607498540418
 30
0.0
 10
386.9502128631297
 20
143.4558812685059
 30
0.0
 10
386.9026810965942
 20
143.4486347300316
 30
0.0
 10
386.8596980881534
 20
143.4146098534545
 30
0.0
 10
386.8354586557692
 20
143.3943673167078
 30
0.0
 10
386.8272122928821
 20
143.3675604519188
 30
0.0
 10
386.8050651517751
 20
143.3469768947948
 30
0.0
 10
386.7868096078965
 20
143.3186884616558
 30
0.0
 10
386.7824505978337
 20
143.2798338405358
 30
0.0
 10
386.7856502110199
 20
143.2253073012677
 30
0.0
 10
386.8238810581819
 20
143.2140592254679
 30
0.0
 10
386.8428984066952
 20
143.2084640426908
 30
0.0
 11
386.9821470716999
 21
143.4607498540418
 31
0.0
 11
386.8910999979508
 21
143.4361959626184
 31
0.0
 11
386.8536100082915
 21
143.4094396044642
 31
0.0
 11
386.8375429138609
 21
143.3933856848972
 31
0.0
 11
386.8268313122646
 21
143.3719804588081
 31
0.0
 11
386.8054084170359
 21
143.3452241006538
 31
0.0
 11
386.7893413226053
 21
143.3184675680423
 31
0.0
 11
386.7839855218072
 21
143.2863599033658
 31
0.0
 11
386.7946971234035
 21
143.2328468381426
 31
0.0
 11
386.8428984066952
 21
143.2084640426908
 31
0.0
  0
LINE
  5
10C5
102
{ACAD_REACTORS
330
10BC
102
}
330
18
100
AcDbEntity
  8
ROGO
 62
     4
100
AcDbLine
 10
386.7946971234037
 20
143.8275967393227
 30
0.0
 11
387.7820929880591
 21
143.8275967393227
 31
0.0
  0
LINE
  5
10C6
102
{ACAD_REACTORS
330
10BC
102
}
330
18
100
AcDbEntity
  8
ROGO
 62
     4
100
AcDbLine
 10
386.4412198140752
 20
142.8416210422182
 30
0.0
 11
387.2904536614321
 21
142.8416210422182
 31
0.0
  0
LINE
  5
10C7
102
{ACAD_REACTORS
330
1096
102
}
330
18
100
AcDbEntity
  8
ROGO
 62
     4
100
AcDbLine
 10
383.6177957244722
 20
143.8275967393227
 30
0.0
 11
384.6051915891274
 21
143.8275967393227
 31
0.0
  0
LINE
  5
10C8
102
{ACAD_REACTORS
330
1096
102
}
330
18
100
AcDbEntity
  8
ROGO
 62
     4
100
AcDbLine
 10
384.2964720304621
 20
143.2084640426908
 30
0.0
 11
384.1135522625005
 21
142.8416210422182
 31
0.0
  0
SPLINE
  5
10C9
102
{ACAD_REACTORS
330
1096
102
}
330
18
100
AcDbEntity
  8
ROGO
 62
     4
100
AcDbSpline
210
0.0
220
0.0
230
1.0
 70
     8
 71
     3
 72
    16
 73
    12
 74
    10
 42
0.0000000001
 43
0.0000000001
 44
0.0000000001
 40
0.0
 40
0.0
 40
0.0
 40
0.0
 40
0.0942998580185353
 40
0.140358538268078
 40
0.1630715269948742
 40
0.1870073184522114
 40
0.2212833033637818
 40
0.2524932947260774
 40
0.2850445886045932
 40
0.33961918487739
 40
0.3936366304390786
 40
0.3936366304390786
 40
0.3936366304390786
 40
0.3936366304390786
 10
383.8052456727684
 20
143.4607498540418
 30
0.0
 10
383.7733114641981
 20
143.4558812685058
 30
0.0
 10
383.7257796976626
 20
143.4486347300315
 30
0.0
 10
383.6827966892217
 20
143.4146098534547
 30
0.0
 10
383.6585572568377
 20
143.3943673167077
 30
0.0
 10
383.6503108939504
 20
143.3675604519188
 30
0.0
 10
383.6281637528437
 20
143.3469768947949
 30
0.0
 10
383.6099082089648
 20
143.3186884616558
 30
0.0
 10
383.6055491989021
 20
143.2798338405358
 30
0.0
 10
383.6087488120884
 20
143.2253073012679
 30
0.0
 10
383.6469796592503
 20
143.2140592254679
 30
0.0
 10
383.6659970077636
 20
143.2084640426908
 30
0.0
 11
383.8052456727684
 21
143.4607498540418
 31
0.0
 11
383.7141985990192
 21
143.4361959626184
 31
0.0
 11
383.6767086093599
 21
143.4094396044643
 31
0.0
 11
383.6606415149294
 21
143.3933856848972
 31
0.0
 11
383.649929913333
 21
143.3719804588081
 31
0.0
 11
383.6285070181043
 21
143.3452241006538
 31
0.0
 11
383.6124399236737
 21
143.3184675680423
 31
0.0
 11
383.6070841228755
 21
143.2863599033658
 31
0.0
 11
383.6177957244719
 21
143.2328468381427
 31
0.0
 11
383.6659970077636
 21
143.2084640426908
 31
0.0
  0
LINE
  5
10CA
102
{ACAD_REACTORS
330
1096
102
}
330
18
100
AcDbEntity
  8
ROGO
 62
     4
100
AcDbLine
 10
383.6659970077636
 20
143.2084640426908
 30
0.0
 11
384.2964720304621
 21
143.2084640426908
 31
0.0
  0
LINE
  5
10CB
102
{ACAD_REACTORS
330
1096
102
}
330
18
100
AcDbEntity
  8
ROGO
 62
     4
100
AcDbLine
 10
383.8052456727684
 20
143.4607498540418
 30
0.0
 11
384.4222698840749
 21
143.4607498540418
 31
0.0
  0
LINE
  5
10CC
102
{ACAD_REACTORS
330
1096
102
}
330
18
100
AcDbEntity
  8
ROGO
 62
     4
100
AcDbLine
 10
384.6051915891274
 20
143.8275967393227
 30
0.0
 11
384.4222698840749
 21
143.4607498540418
 31
0.0
  0
LINE
  5
10CD
102
{ACAD_REACTORS
330
1088
102
}
330
18
100
AcDbEntity
  8
ROGO
 62
     4
100
AcDbLine
 10
388.1891114077078
 20
142.2869422630018
 30
0.0
 11
388.7568049404097
 21
142.2869422630018
 31
0.0
  0
LINE
  5
10CE
102
{ACAD_REACTORS
330
1088
102
}
330
18
100
AcDbEntity
  8
ROGO
 62
     4
100
AcDbLine
 10
388.7382401807545
 20
143.8275967393227
 30
0.0
 11
389.3059337134564
 21
143.8275967393227
 31
0.0
  0
LINE
  5
10CF
102
{ACAD_REACTORS
330
1088
102
}
330
18
100
AcDbEntity
  8
ROGO
 62
     4
100
AcDbLine
 10
388.3726949002091
 20
143.0572695011622
 30
0.0
 11
389.3059337134564
 21
143.8275967393227
 31
0.0
  0
LINE
  5
10D0
102
{ACAD_REACTORS
330
1088
102
}
330
18
100
AcDbEntity
  8
ROGO
 62
     4
100
AcDbLine
 10
388.3726949002091
 20
143.0572695011622
 30
0.0
 11
388.7568049404097
 21
142.2869422630018
 31
0.0
  0
LINE
  5
10D1
102
{ACAD_REACTORS
330
1088
102
}
330
18
100
AcDbEntity
  8
ROGO
 62
     4
100
AcDbLine
 10
388.4724292346432
 20
143.6593886218935
 30
0.0
 11
388.7382401807545
 21
143.8275967393227
 31
0.0
  0
LINE
  5
10D2
102
{ACAD_REACTORS
330
1088
102
}
330
18
100
AcDbEntity
  8
ROGO
 62
     4
100
AcDbLine
 10
388.5563032346098
 20
143.8275967393227
 30
0.0
 11
388.4724292346432
 21
143.6593886218935
 31
0.0
  0
TEXT
  5
10D3
330
18
100
AcDbEntity
  8
文字
100
AcDbText
 10
374.0885423664947
 20
148.0479893872539
 30
0.0
 40
1.0
  1
0.01mm
  7
STYLE3
100
AcDbText
  0
HATCH
  5
10D4
330
18
100
AcDbEntity
  8
外形線
100
AcDbHatch
 10
0.0
 20
0.0
 30
0.0
210
0.0
220
0.0
230
1.0
  2
SOLID
 70
     1
 71
     0
 91
        2
 92
        1
 93
        7
 72
     1
 10
376.3779430439829
 20
150.5342796216664
 11
375.2112763773161
 21
150.1096476816892
 72
     1
 10
375.2112763773161
 20
150.1096476816892
 11
375.2112763773162
 21
150.4446962883331
 72
     1
 10
375.2112763773163
 20
150.4446962883331
 11
374.2112763773162
 21
150.4446962883331
 72
     1
 10
374.2112763773162
 20
150.4446962883331
 11
374.2112763773162
 21
150.6238629549997
 72
     1
 10
374.2112763773162
 20
150.6238629549997
 11
375.2112763773161
 21
150.6238629549997
 72
     1
 10
375.2112763773161
 20
150.6238629549997
 11
375.2112763773161
 21
150.9589115616436
 72
     1
 10
375.2112763773161
 20
150.9589115616436
 11
376.3779430439829
 21
150.5342796216664
 97
        0
 92
        1
 93
        4
 72
     1
 10
376.3779430439829
 20
151.2842796216663
 11
376.3779430439829
 21
149.7842796216664
 72
     1
 10
376.3779430439829
 20
149.7842796216664
 11
376.5446097106495
 21
149.7842796216664
 72
     1
 10
376.5446097106495
 20
149.7842796216664
 11
376.5446097106495
 21
151.2842796216663
 72
     1
 10
376.5446097106495
 20
151.2842796216663
 11
376.3779430439829
 21
151.2842796216663
 97
        0
 75
     0
 76
     1
 98
        1
 10
468.7074997504631
 20
81.87212881448539
450
        0
451
        0
460
0.0
461
0.0
452
        0
462
0.0
453
        0
470

  0
LINE
  5
10D5
330
18
100
AcDbEntity
  8
外形線
100
AcDbLine
 10
376.5446097106495
 20
151.2842796216663
 30
0.0
 11
376.5446097106495
 21
149.7842796216664
 31
0.0
  0
LINE
  5
10D6
330
18
100
AcDbEntity
  8
外形線
100
AcDbLine
 10
376.3779430439829
 20
151.2842796216663
 30
0.0
 11
376.3779430439829
 21
149.7842796216664
 31
0.0
  0
LINE
  5
10D7
330
18
100
AcDbEntity
  8
外形線
100
AcDbLine
 10
376.3779430439829
 20
150.5342796216664
 30
0.0
 11
375.2112763773161
 21
150.9589115616436
 31
0.0
  0
LINE
  5
10D8
330
18
100
AcDbEntity
  8
外形線
100
AcDbLine
 10
374.2112763773162
 20
150.6238629549997
 30
0.0
 11
374.2112763773162
 21
150.4446962883331
 31
0.0
  0
LINE
  5
10D9
330
18
100
AcDbEntity
  8
外形線
100
AcDbLine
 10
376.3779430439829
 20
150.5342796216664
 30
0.0
 11
375.2112763773161
 21
150.1096476816892
 31
0.0
  0
POINT
  5
10DA
330
18
100
AcDbEntity
  8
DEFPOINTS
  6
ByBlock
 62
     0
100
AcDbPoint
 10
375.2112763773161
 20
150.1096476816892
 30
0.0
  0
POINT
  5
10DB
330
18
100
AcDbEntity
  8
DEFPOINTS
  6
ByBlock
 62
     0
100
AcDbPoint
 10
375.2112763773161
 20
150.1096476816892
 30
0.0
  0
LINE
  5
10DC
330
18
100
AcDbEntity
  8
外形線
100
AcDbLine
 10
375.2112763773163
 20
150.4446962883331
 30
0.0
 11
375.2112763773161
 21
150.1096476816892
 31
0.0
  0
LINE
  5
10DD
330
18
100
AcDbEntity
  8
外形線
100
AcDbLine
 10
374.2112763773162
 20
150.4446962883331
 30
0.0
 11
375.2112763773163
 21
150.4446962883331
 31
0.0
  0
LINE
  5
10DE
330
18
100
AcDbEntity
  8
外形線
100
AcDbLine
 10
376.5446097106495
 20
149.7842796216664
 30
0.0
 11
376.3779430439829
 21
149.7842796216664
 31
0.0
  0
POINT
  5
10DF
330
18
100
AcDbEntity
  8
DEFPOINTS
  6
ByBlock
 62
     0
100
AcDbPoint
 10
376.3779430439829
 20
149.7842796216664
 30
0.0
  0
POINT
  5
10E0
330
18
100
AcDbEntity
  8
DEFPOINTS
  6
ByBlock
 62
     0
100
AcDbPoint
 10
376.5446097106495
 20
149.7842796216664
 30
0.0
  0
POINT
  5
10E1
330
18
100
AcDbEntity
  8
DEFPOINTS
  6
ByBlock
 62
     0
100
AcDbPoint
 10
376.3779430439829
 20
149.7842796216664
 30
0.0
  0
POINT
  5
10E2
330
18
100
AcDbEntity
  8
DEFPOINTS
  6
ByBlock
 62
     0
100
AcDbPoint
 10
376.5446097106495
 20
149.7842796216664
 30
0.0
  0
LINE
  5
10E3
330
18
100
AcDbEntity
  8
外形線
100
AcDbLine
 10
375.2112763773161
 20
150.9589115616436
 30
0.0
 11
375.2112763773161
 21
150.6238629549997
 31
0.0
  0
LINE
  5
10E4
330
18
100
AcDbEntity
  8
外形線
100
AcDbLine
 10
374.2112763773162
 20
150.6238629549997
 30
0.0
 11
375.2112763773161
 21
150.6238629549997
 31
0.0
  0
HATCH
  5
10E5
330
18
100
AcDbEntity
  8
外形線
100
AcDbHatch
 10
0.0
 20
0.0
 30
0.0
210
0.0
220
0.0
230
1.0
  2
SOLID
 70
     1
 71
     0
 91
        2
 92
        1
 93
        7
 72
     1
 10
377.5446097106495
 20
150.5342796216664
 11
378.7112763773162
 21
150.1096476816892
 72
     1
 10
378.7112763773162
 20
150.1096476816892
 11
378.7112763773162
 21
150.4446962883331
 72
     1
 10
378.7112763773162
 20
150.4446962883331
 11
379.7112763773161
 21
150.4446962883331
 72
     1
 10
379.7112763773161
 20
150.4446962883331
 11
379.7112763773161
 21
150.6238629549997
 72
     1
 10
379.7112763773161
 20
150.6238629549997
 11
378.7112763773161
 21
150.6238629549997
 72
     1
 10
378.7112763773162
 20
150.6238629549997
 11
378.7112763773162
 21
150.9589115616436
 72
     1
 10
378.7112763773162
 20
150.9589115616436
 11
377.5446097106495
 21
150.5342796216664
 97
        0
 92
        1
 93
        4
 72
     1
 10
377.5446097106495
 20
151.2842796216663
 11
377.5446097106495
 21
149.7842796216664
 72
     1
 10
377.5446097106495
 20
149.7842796216664
 11
377.3779430439828
 21
149.7842796216664
 72
     1
 10
377.3779430439828
 20
149.7842796216664
 11
377.3779430439828
 21
151.2842796216663
 72
     1
 10
377.3779430439828
 20
151.2842796216663
 11
377.5446097106495
 21
151.2842796216663
 97
        0
 75
     0
 76
     1
 98
        1
 10
285.2150530041691
 20
81.87212881448539
450
        0
451
        0
460
0.0
461
0.0
452
        0
462
0.0
453
        0
470

  0
LINE
  5
10E6
330
18
100
AcDbEntity
  8
外形線
100
AcDbLine
 10
379.7112763773161
 20
150.6238629549997
 30
0.0
 11
379.7112763773161
 21
150.4446962883331
 31
0.0
  0
LINE
  5
10E7
330
18
100
AcDbEntity
  8
外形線
100
AcDbLine
 10
377.5446097106495
 20
150.5342796216664
 30
0.0
 11
378.7112763773162
 21
150.9589115616436
 31
0.0
  0
LINE
  5
10E8
330
18
100
AcDbEntity
  8
外形線
100
AcDbLine
 10
377.5446097106495
 20
151.2842796216663
 30
0.0
 11
377.5446097106495
 21
149.7842796216664
 31
0.0
  0
LINE
  5
10E9
330
18
100
AcDbEntity
  8
外形線
100
AcDbLine
 10
377.3779430439828
 20
151.2842796216663
 30
0.0
 11
377.3779430439828
 21
149.7842796216664
 31
0.0
  0
LINE
  5
10EA
330
18
100
AcDbEntity
  8
外形線
100
AcDbLine
 10
379.7112763773161
 20
150.4446962883331
 30
0.0
 11
378.7112763773162
 21
150.4446962883331
 31
0.0
  0
LINE
  5
10EB
330
18
100
AcDbEntity
  8
外形線
100
AcDbLine
 10
378.7112763773162
 20
150.4446962883331
 30
0.0
 11
378.7112763773162
 21
150.1096476816892
 31
0.0
  0
POINT
  5
10EC
330
18
100
AcDbEntity
  8
DEFPOINTS
  6
ByBlock
 62
     0
100
AcDbPoint
 10
377.3779430439828
 20
149.7842796216664
 30
0.0
  0
POINT
  5
10ED
330
18
100
AcDbEntity
  8
DEFPOINTS
  6
ByBlock
 62
     0
100
AcDbPoint
 10
377.5446097106495
 20
149.7842796216664
 30
0.0
  0
POINT
  5
10EE
330
18
100
AcDbEntity
  8
DEFPOINTS
  6
ByBlock
 62
     0
100
AcDbPoint
 10
377.3779430439828
 20
149.7842796216664
 30
0.0
  0
POINT
  5
10EF
330
18
100
AcDbEntity
  8
DEFPOINTS
  6
ByBlock
 62
     0
100
AcDbPoint
 10
378.7112763773162
 20
150.1096476816892
 30
0.0
  0
POINT
  5
10F0
330
18
100
AcDbEntity
  8
DEFPOINTS
  6
ByBlock
 62
     0
100
AcDbPoint
 10
377.5446097106495
 20
149.7842796216664
 30
0.0
  0
POINT
  5
10F1
330
18
100
AcDbEntity
  8
DEFPOINTS
  6
ByBlock
 62
     0
100
AcDbPoint
 10
378.7112763773162
 20
150.1096476816892
 30
0.0
  0
LINE
  5
10F2
330
18
100
AcDbEntity
  8
外形線
100
AcDbLine
 10
377.5446097106495
 20
150.5342796216664
 30
0.0
 11
378.7112763773162
 21
150.1096476816892
 31
0.0
  0
LINE
  5
10F3
330
18
100
AcDbEntity
  8
外形線
100
AcDbLine
 10
377.3779430439828
 20
149.7842796216664
 30
0.0
 11
377.5446097106495
 21
149.7842796216664
 31
0.0
  0
LINE
  5
10F4
330
18
100
AcDbEntity
  8
外形線
100
AcDbLine
 10
379.7112763773161
 20
150.6238629549997
 30
0.0
 11
378.7112763773162
 21
150.6238629549997
 31
0.0
  0
LINE
  5
10F5
330
18
100
AcDbEntity
  8
外形線
100
AcDbLine
 10
378.7112763773162
 20
150.9589115616436
 30
0.0
 11
378.7112763773162
 21
150.6238629549997
 31
0.0
  0
POINT
  5
10F6
330
18
100
AcDbEntity
  8
中心線
  6
ByBlock
100
AcDbPoint
 10
435.751640660419
 20
65.67567033140057
 30
0.0
  0
POINT
  5
10F7
330
18
100
AcDbEntity
  8
中心線
  6
ByBlock
100
AcDbPoint
 10
435.751640660419
 20
65.67567033140057
 30
0.0
  0
LINE
  5
1109
330
18
100
AcDbEntity
  8
外形線
100
AcDbLine
 10
376.3779430439829
 20
151.2842796216663
 30
0.0
 11
376.5446097106495
 21
151.2842796216664
 31
0.0
  0
LINE
  5
110A
330
18
100
AcDbEntity
  8
外形線
100
AcDbLine
 10
377.3779430439828
 20
151.2842796216664
 30
0.0
 11
377.5446097106495
 21
151.2842796216663
 31
0.0
  0
ARC
  5
110B
330
18
100
AcDbEntity
  8
外形線
100
AcDbCircle
 10
383.3593856666839
 20
171.5842796216664
 30
0.0
 40
8.0
100
AcDbArc
 50
59.99999999999988
 51
120.0000000000001
  0
LINE
  5
110C
330
18
100
AcDbEntity
  8
外形線
100
AcDbLine
 10
464.0271741507553
 20
178.5124828519419
 30
0.0
 11
464.0271741507553
 21
167.5842796216664
 31
0.0
  0
LINE
  5
110D
330
18
100
AcDbEntity
  8
外形線
100
AcDbLine
 10
456.0271741507553
 20
178.5124828519419
 30
0.0
 11
456.0271741507553
 21
167.5842796216664
 31
0.0
  0
LINE
  5
110E
330
18
100
AcDbEntity
  8
外形線
100
AcDbLine
 10
456.0271741507553
 20
178.5124828519419
 30
0.0
 11
464.0271741507553
 21
178.5124828519419
 31
0.0
  0
ARC
  5
110F
330
18
100
AcDbEntity
  8
外形線
100
AcDbCircle
 10
460.0271741507553
 20
171.5842796216664
 30
0.0
 40
8.0
100
AcDbArc
 50
59.99999999999988
 51
120.0000000000001
  0
LINE
  5
1110
330
18
100
AcDbEntity
  8
針
100
AcDbLine
 10
367.7620587994435
 20
154.1521583294156
 30
0.0
 11
367.7821449040778
 21
154.2139770029748
 31
0.0
  0
LINE
  5
1111
330
18
100
AcDbEntity
  8
針
100
AcDbLine
 10
381.3874632596086
 20
149.985149815023
 30
0.0
 11
367.7821449040778
 21
154.2139770029748
 31
0.0
  0
CIRCLE
  5
1112
330
18
100
AcDbEntity
  8
針
100
AcDbCircle
 10
383.3593856666839
 20
149.0842796216664
 30
0.0
 40
0.375
  0
CIRCLE
  5
1113
330
18
100
AcDbEntity
  8
針
100
AcDbCircle
 10
383.3593856666839
 20
149.0842796216664
 30
0.0
 40
1.5
  0
ARC
  5
1114
330
18
100
AcDbEntity
  8
針
100
AcDbCircle
 10
381.6842777586922
 20
150.9400849715304
 30
0.0
 40
1.0
100
AcDbArc
 50
252.7336253748568
 51
312.0703962457775
  0
CIRCLE
  5
1115
330
18
100
AcDbEntity
  8
針
100
AcDbCircle
 10
383.3593856666839
 20
149.0842796216664
 30
0.0
 40
1.299999999999999
  0
ARC
  5
1116
330
18
100
AcDbEntity
  8
針
100
AcDbCircle
 10
380.9133798859313
 20
148.5675052796906
 30
0.0
 40
1.0
100
AcDbArc
 50
11.92960375422259
 51
71.26637462514324
  0
LINE
  5
1117
330
18
100
AcDbEntity
  8
針
100
AcDbLine
 10
381.2345487138864
 20
149.514527235059
 30
0.0
 11
367.741972694809
 21
154.0903396558564
 31
0.0
  0
LINE
  5
1118
330
18
100
AcDbEntity
  8
針
100
AcDbLine
 10
367.7620587994435
 20
154.1521583294156
 30
0.0
 11
367.741972694809
 21
154.0903396558564
 31
0.0
  0
HATCH
  5
1119
330
18
100
AcDbEntity
  8
針
100
AcDbHatch
 10
0.0
 20
0.0
 30
0.0
210
0.0
220
0.0
230
1.0
  2
SOLID
 70
     1
 71
     0
 91
        1
 92
        7
 72
     1
 73
     1
 93
        8
 10
367.7821449040778
 20
154.2139770029748
 42
0.0
 10
367.7620587994435
 20
154.1521583294156
 42
0.0
 10
367.7419726948091
 20
154.0903396558563
 42
0.0
 10
381.2345487138864
 20
149.514527235059
 42
-0.264849932537075
 10
381.8917821982323
 20
148.7742150164809
 42
-0.0520997790215862
 10
381.8593856666839
 20
149.0842796216664
 42
-0.2122355434022088
 10
382.3543209218889
 20
150.1977628315848
 42
-0.2648499325370577
 10
381.3874632596087
 20
149.985149815023
 42
0.0
 97
        0
 75
     0
 76
     1
 47
0.0335067966205447
 98
        1
 10
377.5633250137746
 20
151.084254157211
450
        0
451
        0
460
0.0
461
0.0
452
        0
462
0.0
453
        0
470

  0
LINE
  5
111A
330
18
100
AcDbEntity
  8
外形線
100
AcDbLine
 10
467.1271741507553
 20
166.9842796216664
 30
0.0
 11
467.1271741507553
 21
131.1842796216664
 31
0.0
  0
LINE
  5
111B
330
18
100
AcDbEntity
  8
外形線
100
AcDbLine
 10
465.1271741507554
 20
166.9842796216664
 30
0.0
 11
467.1271741507553
 21
166.9842796216664
 31
0.0
  0
LINE
  5
111C
330
18
100
AcDbEntity
  8
外形線
100
AcDbLine
 10
465.1271741507554
 20
131.1842796216664
 30
0.0
 11
467.1271741507553
 21
131.1842796216664
 31
0.0
  0
LINE
  5
111D
330
18
100
AcDbEntity
  8
外形線
100
AcDbLine
 10
467.1271741507553
 20
158.5842796216664
 30
0.0
 11
467.6271741507553
 21
158.5842796216664
 31
0.0
  0
CIRCLE
  5
111E
330
18
100
AcDbEntity
  8
外形線
100
AcDbCircle
 10
479.0271741507553
 20
149.0842796216664
 30
0.0
 40
3.25
  0
CIRCLE
  5
111F
330
18
100
AcDbEntity
  8
外形線
 62
     4
100
AcDbCircle
 10
479.0271741507553
 20
149.0842796216664
 30
0.0
 40
2.95
  0
ARC
  5
1120
330
18
100
AcDbEntity
  8
外形線
100
AcDbCircle
 10
479.0271741507553
 20
149.0842796216664
 30
0.0
 40
8.0
100
AcDbArc
 50
270.0
 51
90.0
  0
LINE
  5
1121
330
18
100
AcDbEntity
  8
外形線
100
AcDbLine
 10
479.0271741507553
 20
157.0842796216664
 30
0.0
 11
469.0271741507553
 21
157.0842796216664
 31
0.0
  0
LINE
  5
1122
330
18
100
AcDbEntity
  8
外形線
100
AcDbLine
 10
467.6271741507553
 20
158.5842796216664
 30
0.0
 11
467.6271741507552
 21
149.0842796216664
 31
0.0
  0
LINE
  5
1123
330
18
100
AcDbEntity
  8
外形線
100
AcDbLine
 10
469.0271741507553
 20
157.5842796216664
 30
0.0
 11
469.0271741507553
 21
149.0842796216664
 31
0.0
  0
ARC
  5
1124
330
18
100
AcDbEntity
  8
外形線
100
AcDbCircle
 10
469.0271741507553
 20
159.0842796216664
 30
0.0
 40
1.5
100
AcDbArc
 50
201.0394697813182
 51
270.0
  0
LINE
  5
1125
330
18
100
AcDbEntity
  8
外形線
100
AcDbLine
 10
467.6271741507553
 20
139.5842796216664
 30
0.0
 11
467.6271741507552
 21
149.0842796216664
 31
0.0
  0
LINE
  5
1126
330
18
100
AcDbEntity
  8
外形線
100
AcDbLine
 10
469.0271741507553
 20
140.5842796216664
 30
0.0
 11
469.0271741507553
 21
149.0842796216664
 31
0.0
  0
LINE
  5
1127
330
18
100
AcDbEntity
  8
外形線
100
AcDbLine
 10
467.1271741507553
 20
139.5842796216664
 30
0.0
 11
467.6271741507553
 21
139.5842796216664
 31
0.0
  0
ARC
  5
1128
330
18
100
AcDbEntity
  8
外形線
100
AcDbCircle
 10
469.0271741507553
 20
139.0842796216664
 30
0.0
 40
1.5
100
AcDbArc
 50
90.00000000000003
 51
158.9605302186818
  0
LINE
  5
1129
330
18
100
AcDbEntity
  8
外形線
100
AcDbLine
 10
479.0271741507553
 20
141.0842796216664
 30
0.0
 11
469.0271741507553
 21
141.0842796216664
 31
0.0
  0
LINE
  5
112A
330
18
100
AcDbEntity
  8
中心線
 48
0.5
100
AcDbLine
 10
479.0271741507553
 20
159.222846619122
 30
0.0
 11
479.0271741507553
 21
138.9460519682687
 31
0.0
  0
LINE
  5
112B
330
18
100
AcDbEntity
  8
想像線
 48
0.5
100
AcDbLine
 10
469.9485302718493
 20
157.0842796216664
 30
0.0
 11
469.9485302718494
 21
141.0842796216664
 31
0.0
  0
LINE
  5
112C
330
18
100
AcDbEntity
  8
想像線
 48
0.5
100
AcDbLine
 10
474.9485302718493
 20
157.0842796216664
 30
0.0
 11
474.9485302718493
 21
141.0842796216664
 31
0.0
  0
POINT
  5
1133
330
18
100
AcDbEntity
  8
DEFPOINTS
  6
ByBlock
 62
     0
100
AcDbPoint
 10
480.683857660268
 20
151.880330363214
 30
0.0
  0
POINT
  5
1134
330
18
100
AcDbEntity
  8
DEFPOINTS
  6
ByBlock
 62
     0
100
AcDbPoint
 10
477.3704906412426
 20
146.2882288801188
 30
0.0
  0
POINT
  5
113B
330
18
100
AcDbEntity
  8
DEFPOINTS
  6
ByBlock
 62
     0
100
AcDbPoint
 10
383.3593856666839
 20
179.5842796216664
 30
0.0
  0
POINT
  5
114D
330
18
100
AcDbEntity
  8
DEFPOINTS
  6
ByBlock
 62
     0
100
AcDbPoint
 10
383.3593856666839
 20
102.8842796216664
 30
0.0
  0
POINT
  5
115E
330
18
100
AcDbEntity
  8
DEFPOINTS
  6
ByBlock
 62
     0
100
AcDbPoint
 10
465.1271741507553
 20
167.5842796216664
 30
0.0
  0
POINT
  5
115F
330
18
100
AcDbEntity
  8
DEFPOINTS
  6
ByBlock
 62
     0
100
AcDbPoint
 10
465.1271741507553
 20
130.5842796216664
 30
0.0
  0
POINT
  5
1167
330
18
100
AcDbEntity
  8
DEFPOINTS
  6
ByBlock
 62
     0
100
AcDbPoint
 10
465.1271741507553
 20
167.5842796216664
 30
0.0
  0
POINT
  5
116F
330
18
100
AcDbEntity
  8
DEFPOINTS
  6
ByBlock
 62
     0
100
AcDbPoint
 10
447.5271741507553
 20
149.0842796216664
 30
0.0
  0
POINT
  5
1179
330
18
100
AcDbEntity
  8
DEFPOINTS
  6
ByBlock
 62
     0
100
AcDbPoint
 10
479.0271741507553
 20
138.9460519682687
 30
0.0
  0
POINT
  5
1181
330
18
100
AcDbEntity
  8
DEFPOINTS
  6
ByBlock
 62
     0
100
AcDbPoint
 10
451.2271741507553
 20
169.4842796216665
 30
0.0
  0
POINT
  5
1182
330
18
100
AcDbEntity
  8
DEFPOINTS
  6
ByBlock
 62
     0
100
AcDbPoint
 10
451.2271741507553
 20
128.6842796216664
 30
0.0
  0
POINT
  5
118D
330
18
100
AcDbEntity
  8
DEFPOINTS
  6
ByBlock
 62
     0
100
AcDbPoint
 10
457.7271741507553
 20
110.3842796216664
 30
0.0
  0
POINT
  5
1194
330
18
100
AcDbEntity
  8
DEFPOINTS
  6
ByBlock
 62
     0
100
AcDbPoint
 10
457.7271741507553
 20
110.3842796216664
 30
0.0
  0
POINT
  5
1195
330
18
100
AcDbEntity
  8
DEFPOINTS
  6
ByBlock
 62
     0
100
AcDbPoint
 10
459.9771741507553
 20
102.8842796216664
 30
0.0
  0
POINT
  5
119C
330
18
100
AcDbEntity
  8
DEFPOINTS
  6
ByBlock
 62
     0
100
AcDbPoint
 10
451.2271741507553
 20
128.6842796216664
 30
0.0
  0
POINT
  5
11AF
330
18
100
AcDbEntity
  8
DEFPOINTS
  6
ByBlock
 62
     0
100
AcDbPoint
 10
469.0271741507553
 20
157.5842796216664
 30
0.0
  0
POINT
  5
11B0
330
18
100
AcDbEntity
  8
DEFPOINTS
  6
ByBlock
 62
     0
100
AcDbPoint
 10
479.0271741507553
 20
158.0088474811236
 30
0.0
  0
POINT
  5
11B8
330
18
100
AcDbEntity
  8
DEFPOINTS
  6
ByBlock
 62
     0
100
AcDbPoint
 10
469.9485302718493
 20
157.0842796216664
 30
0.0
  0
POINT
  5
11B9
330
18
100
AcDbEntity
  8
DEFPOINTS
  6
ByBlock
 62
     0
100
AcDbPoint
 10
474.9485302718493
 20
157.0842796216664
 30
0.0
  0
ARC
  5
1220
330
18
100
AcDbEntity
  8
外形線
100
AcDbCircle
 10
380.3593856666839
 20
116.7842796216664
 30
0.0
 40
1.0
100
AcDbArc
 50
180.0
 51
270.0000000000002
  0
ARC
  5
1221
330
18
100
AcDbEntity
  8
外形線
100
AcDbCircle
 10
386.3593856666839
 20
116.7842796216664
 30
0.0
 40
1.0
100
AcDbArc
 50
270.0000000000002
 51
0.0
  0
ARC
  5
1223
330
18
100
AcDbEntity
  8
外形線
100
AcDbCircle
 10
457.0271741507553
 20
116.7842796216664
 30
0.0
 40
1.0
100
AcDbArc
 50
180.0
 51
270.0000000000002
  0
ARC
  5
1224
330
18
100
AcDbEntity
  8
外形線
100
AcDbCircle
 10
463.0271741507553
 20
116.7842796216664
 30
0.0
 40
1.0
100
AcDbArc
 50
270.0000000000002
 51
0.0000000000002926
  0
LINE
  5
1235
330
18
100
AcDbEntity
  8
目盛
100
AcDbLine
 10
383.3593856666839
 20
166.2342796216664
 30
0.0
 11
383.3593856666839
 21
163.5842796216664
 31
0.0
  0
LINE
  5
1236
330
18
100
AcDbEntity
  8
目盛
100
AcDbLine
 10
385.5088506223117
 20
166.0990467492097
 30
0.0
 11
385.3020507869306
 21
164.4620574920408
 31
0.0
  0
LINE
  5
1237
330
18
100
AcDbEntity
  8
目盛
100
AcDbLine
 10
387.6244172315612
 20
165.6954808350224
 30
0.0
 11
387.2140789177391
 21
164.0973186191602
 31
0.0
  0
LINE
  5
1238
330
18
100
AcDbEntity
  8
目盛
100
AcDbLine
 10
389.6727217452262
 20
165.0299463546499
 30
0.0
 11
389.0653162332964
 21
163.4958151529343
 31
0.0
  0
LINE
  5
1239
330
18
100
AcDbEntity
  8
目盛
100
AcDbLine
 10
391.6214611775283
 20
164.1129391844187
 30
0.0
 11
390.8265676152605
 21
162.6670331623463
 31
0.0
  0
LINE
  5
123B
330
18
100
AcDbEntity
  8
目盛
100
AcDbLine
 10
375.0973101558395
 20
164.1129391844187
 30
0.0
 11
375.8922037181073
 21
162.6670331623463
 31
0.0
  0
LINE
  5
123C
330
18
100
AcDbEntity
  8
目盛
100
AcDbLine
 10
373.278868589868
 20
162.9589210751968
 30
0.0
 11
374.8364995084431
 21
160.8150260401032
 31
0.0
  0
LINE
  5
123D
330
18
100
AcDbEntity
  8
目盛
100
AcDbLine
 10
381.2099207110561
 20
166.0990467492098
 30
0.0
 11
381.4167205464372
 21
164.4620574920408
 31
0.0
  0
LINE
  5
123E
330
18
100
AcDbEntity
  8
目盛
100
AcDbLine
 10
379.0943541018067
 20
165.6954808350224
 30
0.0
 11
379.5046924156287
 21
164.0973186191602
 31
0.0
  0
LINE
  5
123F
330
18
100
AcDbEntity
  8
目盛
100
AcDbLine
 10
377.0460495881417
 20
165.0299463546499
 30
0.0
 11
377.6534551000714
 21
163.4958151529343
 31
0.0
  0
LINE
  5
1240
330
18
100
AcDbEntity
  8
目盛
100
AcDbLine
 10
367.8416017168917
 20
156.3863944720074
 30
0.0
 11
369.3345663534606
 21
155.6838586409249
 31
0.0
  0
LINE
  5
1241
330
18
100
AcDbEntity
  8
目盛
100
AcDbLine
 10
367.048766412222
 20
154.3839210751968
 30
0.0
 11
369.5690661804042
 21
153.5650260401031
 31
0.0
  0
LINE
  5
1242
330
18
100
AcDbEntity
  8
目盛
100
AcDbLine
 10
371.6194028000069
 20
161.5860915819436
 30
0.0
 11
372.7489055247892
 21
160.3832933466982
 31
0.0
  0
LINE
  5
1243
330
18
100
AcDbEntity
  8
目盛
100
AcDbLine
 10
370.1450835530792
 20
160.0161010458564
 30
0.0
 11
371.4164304036592
 21
158.9643514627711
 31
0.0
  0
LINE
  5
1244
330
18
100
AcDbEntity
  8
目盛
100
AcDbLine
 10
368.8791617443243
 20
158.2737091555561
 30
0.0
 11
370.2723028214027
 21
157.3895949438408
 31
0.0
  0
LINE
  5
1245
330
18
100
AcDbEntity
  8
目盛
100
AcDbLine
 10
366.5131593166869
 20
145.8706900765212
 30
0.0
 11
368.1339332803892
 21
146.1798692455876
 31
0.0
  0
LINE
  5
1246
330
18
100
AcDbEntity
  8
目盛
100
AcDbLine
 10
367.048766412222
 20
143.7846381681361
 30
0.0
 11
369.5690661804042
 21
144.6035332032297
 31
0.0
  0
LINE
  5
1247
330
18
100
AcDbEntity
  8
目盛
100
AcDbLine
 10
366.5131593166869
 20
152.2978691668115
 30
0.0
 11
368.1339332803893
 21
151.9886899977451
 31
0.0
  0
LINE
  5
1248
330
18
100
AcDbEntity
  8
目盛
100
AcDbLine
 10
366.243227274139
 20
150.1611370315941
 30
0.0
 11
367.8899713760457
 21
150.0575326743707
 31
0.0
  0
LINE
  5
1249
330
18
100
AcDbEntity
  8
目盛
100
AcDbLine
 10
366.243227274139
 20
148.0074222117386
 30
0.0
 11
367.8899713760456
 21
148.1110265689619
 31
0.0
  0
LINE
  5
124A
330
18
100
AcDbEntity
  8
目盛
100
AcDbLine
 10
371.6194028000069
 20
136.5824676613893
 30
0.0
 11
372.7489055247892
 21
137.7852658966345
 31
0.0
  0
LINE
  5
124B
330
18
100
AcDbEntity
  8
目盛
100
AcDbLine
 10
373.278868589868
 20
135.2096381681361
 30
0.0
 11
374.836499508443
 21
137.3535332032297
 31
0.0
  0
LINE
  5
124C
330
18
100
AcDbEntity
  8
目盛
100
AcDbLine
 10
367.8416017168917
 20
141.7821647713254
 30
0.0
 11
369.3345663534606
 21
142.4847006024078
 31
0.0
  0
LINE
  5
124D
330
18
100
AcDbEntity
  8
目盛
100
AcDbLine
 10
368.8791617443243
 20
139.8948500877766
 30
0.0
 11
370.2723028214027
 21
140.7789642994919
 31
0.0
  0
LINE
  5
124E
330
18
100
AcDbEntity
  8
目盛
100
AcDbLine
 10
370.1450835530792
 20
138.1524581974764
 30
0.0
 11
371.4164304036592
 21
139.2042077805617
 31
0.0
  0
LINE
  5
124F
330
18
100
AcDbEntity
  8
目盛
100
AcDbLine
 10
381.2099207110561
 20
132.0695124941231
 30
0.0
 11
381.4167205464372
 21
133.706501751292
 31
0.0
  0
LINE
  5
1250
330
18
100
AcDbEntity
  8
目盛
100
AcDbLine
 10
383.3593856666839
 20
131.9342796216664
 30
0.0
 11
383.3593856666839
 21
134.5842796216664
 31
0.0
  0
LINE
  5
1251
330
18
100
AcDbEntity
  8
目盛
100
AcDbLine
 10
375.0973101558395
 20
134.0556200589142
 30
0.0
 11
375.8922037181073
 21
135.5015260809866
 31
0.0
  0
LINE
  5
1252
330
18
100
AcDbEntity
  8
目盛
100
AcDbLine
 10
377.0460495881417
 20
133.1386128886829
 30
0.0
 11
377.6534551000714
 21
134.6727440903985
 31
0.0
  0
LINE
  5
1253
330
18
100
AcDbEntity
  8
目盛
100
AcDbLine
 10
379.0943541018067
 20
132.4730784083104
 30
0.0
 11
379.5046924156287
 21
134.0712406241726
 31
0.0
  0
LINE
  5
1254
330
18
100
AcDbEntity
  8
目盛
100
AcDbLine
 10
391.6214611775283
 20
134.0556200589141
 30
0.0
 11
390.8265676152606
 21
135.5015260809866
 31
0.0
  0
LINE
  5
1255
330
18
100
AcDbEntity
  8
目盛
100
AcDbLine
 10
393.4399027434998
 20
135.2096381681361
 30
0.0
 11
391.8822718249248
 21
137.3535332032297
 31
0.0
  0
LINE
  5
1256
330
18
100
AcDbEntity
  8
目盛
100
AcDbLine
 10
385.5088506223117
 20
132.0695124941231
 30
0.0
 11
385.3020507869306
 21
133.706501751292
 31
0.0
  0
LINE
  5
1257
330
18
100
AcDbEntity
  8
目盛
100
AcDbLine
 10
387.6244172315612
 20
132.4730784083104
 30
0.0
 11
387.2140789177391
 21
134.0712406241727
 31
0.0
  0
LINE
  5
1258
330
18
100
AcDbEntity
  8
目盛
100
AcDbLine
 10
389.6727217452261
 20
133.1386128886829
 30
0.0
 11
389.0653162332965
 21
134.6727440903985
 31
0.0
  0
LINE
  5
1259
330
18
100
AcDbEntity
  8
目盛
100
AcDbLine
 10
398.8771696164761
 20
141.7821647713254
 30
0.0
 11
397.3842049799072
 21
142.4847006024078
 31
0.0
  0
LINE
  5
125A
330
18
100
AcDbEntity
  8
目盛
100
AcDbLine
 10
399.6700049211458
 20
143.7846381681361
 30
0.0
 11
397.1497051529636
 21
144.6035332032297
 31
0.0
  0
LINE
  5
125B
330
18
100
AcDbEntity
  8
目盛
100
AcDbLine
 10
395.0993685333609
 20
136.5824676613892
 30
0.0
 11
393.9698658085786
 21
137.7852658966346
 31
0.0
  0
LINE
  5
125C
330
18
100
AcDbEntity
  8
目盛
100
AcDbLine
 10
396.5736877802886
 20
138.1524581974764
 30
0.0
 11
395.3023409297086
 21
139.2042077805617
 31
0.0
  0
LINE
  5
125D
330
18
100
AcDbEntity
  8
目盛
100
AcDbLine
 10
397.8396095890435
 20
139.8948500877767
 30
0.0
 11
396.4464685119651
 21
140.778964299492
 31
0.0
  0
LINE
  5
125E
330
18
100
AcDbEntity
  8
目盛
100
AcDbLine
 10
400.2056120166809
 20
152.2978691668116
 30
0.0
 11
398.5848380529786
 21
151.9886899977452
 31
0.0
  0
LINE
  5
125F
330
18
100
AcDbEntity
  8
目盛
100
AcDbLine
 10
399.6700049211458
 20
154.3839210751968
 30
0.0
 11
397.1497051529636
 21
153.5650260401032
 31
0.0
  0
LINE
  5
1260
330
18
100
AcDbEntity
  8
目盛
100
AcDbLine
 10
400.2056120166809
 20
145.8706900765213
 30
0.0
 11
398.5848380529785
 21
146.1798692455877
 31
0.0
  0
LINE
  5
1261
330
18
100
AcDbEntity
  8
目盛
100
AcDbLine
 10
400.4755440592287
 20
148.0074222117387
 30
0.0
 11
398.8287999573221
 21
148.111026568962
 31
0.0
  0
LINE
  5
1262
330
18
100
AcDbEntity
  8
目盛
100
AcDbLine
 10
400.4755440592287
 20
150.1611370315942
 30
0.0
 11
398.8287999573221
 21
150.0575326743708
 31
0.0
  0
LINE
  5
1263
330
18
100
AcDbEntity
  8
目盛
100
AcDbLine
 10
395.099368533361
 20
161.5860915819436
 30
0.0
 11
393.9698658085786
 21
160.3832933466983
 31
0.0
  0
LINE
  5
1264
330
18
100
AcDbEntity
  8
目盛
100
AcDbLine
 10
393.4399027434999
 20
162.9589210751968
 30
0.0
 11
391.8822718249248
 21
160.8150260401031
 31
0.0
  0
LINE
  5
1265
330
18
100
AcDbEntity
  8
目盛
100
AcDbLine
 10
398.8771696164762
 20
156.3863944720074
 30
0.0
 11
397.3842049799073
 21
155.683858640925
 31
0.0
  0
LINE
  5
1266
330
18
100
AcDbEntity
  8
目盛
100
AcDbLine
 10
397.8396095890436
 20
158.2737091555562
 30
0.0
 11
396.4464685119652
 21
157.3895949438409
 31
0.0
  0
LINE
  5
1267
330
18
100
AcDbEntity
  8
目盛
100
AcDbLine
 10
396.5736877802888
 20
160.0161010458565
 30
0.0
 11
395.3023409297086
 21
158.9643514627711
 31
0.0
  0
TEXT
  5
126C
330
18
100
AcDbEntity
  8
文字
100
AcDbText
 10
382.4664556996004
 20
161.3604993285616
 30
0.0
 40
1.8
  1
0
  7
STYLE3
100
AcDbText
  0
TEXT
  5
126D
330
18
100
AcDbEntity
  8
文字
100
AcDbText
 10
382.8801481568921
 20
159.9481462348972
 30
0.0
 40
1.0
  1
0
  7
STYLE3
100
AcDbText
  0
TEXT
  5
126E
330
18
100
AcDbEntity
  8
文字
100
AcDbText
 10
390.3920289023846
 20
158.7487785358453
 30
0.0
 40
1.8
  1
5
  7
STYLE3
100
AcDbText
  0
TEXT
  5
126F
330
18
100
AcDbEntity
  8
文字
100
AcDbText
 10
393.7224565187279
 20
151.8403551627158
 30
0.0
 40
1.8
  1
10
  7
STYLE3
100
AcDbText
  0
TEXT
  5
1270
330
18
100
AcDbEntity
  8
文字
100
AcDbText
 10
393.5517325258668
 20
143.8027129532248
 30
0.0
 40
1.8
  1
15
  7
STYLE3
100
AcDbText
  0
TEXT
  5
1271
330
18
100
AcDbEntity
  8
文字
100
AcDbText
 10
389.8840457922216
 20
137.7367797914689
 30
0.0
 40
1.8
  1
20
  7
STYLE3
100
AcDbText
  0
TEXT
  5
1272
330
18
100
AcDbEntity
  8
文字
100
AcDbText
 10
381.6212150383608
 20
135.0829343744382
 30
0.0
 40
1.8
  1
25
  7
STYLE3
100
AcDbText
  0
TEXT
  5
1273
330
18
100
AcDbEntity
  8
文字
100
AcDbText
 10
373.6346820142117
 20
137.7852459723389
 30
0.0
 40
1.8
  1
30
  7
STYLE3
100
AcDbText
  0
TEXT
  5
1274
330
18
100
AcDbEntity
  8
文字
100
AcDbText
 10
369.4189520537339
 20
143.7669303404491
 30
0.0
 40
1.8
  1
35
  7
STYLE3
100
AcDbText
  0
TEXT
  5
1275
330
18
100
AcDbEntity
  8
文字
100
AcDbText
 10
369.292480178413
 20
152.0654631310742
 30
0.0
 40
1.8
  1
40
  7
STYLE3
100
AcDbText
  0
TEXT
  5
1276
330
18
100
AcDbEntity
  8
文字
100
AcDbText
 10
373.6469267602629
 20
158.6200546744092
 30
0.0
 40
1.8
  1
45
  7
STYLE3
100
AcDbText
  0
TEXT
  5
1277
330
18
100
AcDbEntity
  8
文字
100
AcDbText
 10
390.2998338583924
 20
157.0415530719795
 30
0.0
 40
1.0
  1
45
  7
STYLE3
100
AcDbText
  0
TEXT
  5
1278
330
18
100
AcDbEntity
  8
文字
100
AcDbText
 10
393.7145752751708
 20
150.2595035717933
 30
0.0
 40
1.0
  1
40
  7
STYLE3
100
AcDbText
  0
TEXT
  5
1279
330
18
100
AcDbEntity
  8
文字
100
AcDbText
 10
393.5856452099129
 20
145.9779919721719
 30
0.0
 40
1.0
  1
35
  7
STYLE3
100
AcDbText
  0
TEXT
  5
127A
330
18
100
AcDbEntity
  8
文字
100
AcDbText
 10
390.1709045762468
 20
139.912058810416
 30
0.0
 40
1.0
  1
30
  7
STYLE3
100
AcDbText
  0
TEXT
  5
127B
330
18
100
AcDbEntity
  8
文字
100
AcDbText
 10
382.3296451738976
 20
137.2582133933852
 30
0.0
 40
1.0
  1
25
  7
STYLE3
100
AcDbText
  0
TEXT
  5
127C
330
18
100
AcDbEntity
  8
文字
100
AcDbText
 10
374.6148584299819
 20
140.080557307674
 30
0.0
 40
1.0
  1
20
  7
STYLE3
100
AcDbText
  0
TEXT
  5
127D
330
18
100
AcDbEntity
  8
文字
100
AcDbText
 10
371.1158024296562
 20
146.1043653901321
 30
0.0
 40
1.0
  1
15
  7
STYLE3
100
AcDbText
  0
TEXT
  5
127E
330
18
100
AcDbEntity
  8
文字
100
AcDbText
 10
371.0315332666301
 20
150.4643320266783
 30
0.0
 40
1.0
  1
10
  7
STYLE3
100
AcDbText
  0
TEXT
  5
127F
330
18
100
AcDbEntity
  8
文字
100
AcDbText
 10
375.3737351024289
 20
156.9936346909438
 30
0.0
 40
1.0
  1
5
  7
STYLE3
100
AcDbText
  0
LINE
  5
1280
330
18
100
AcDbEntity
  8
中心線
 48
0.5
100
AcDbLine
 10
386.5593856666838
 20
157.5576717279466
 30
0.0
 11
386.5593856666838
 21
150.4948950234722
 31
0.0
  0
LINE
  5
1287
330
18
100
AcDbEntity
  8
中心線
 48
0.5
100
AcDbLine
 10
382.7853276839846
 20
155.5782796216664
 30
0.0
 11
390.668229205412
 21
155.5782796216664
 31
0.0
  0
TEXT
  5
128C
330
18
100
AcDbEntity
  8
文字
100
AcDbText
 10
380.9151130960962
 20
145.0970324719242
 30
0.0
 40
1.0
  1
NO.36B
  7
STYLE3
100
AcDbText
  0
ARC
  5
12A1
330
18
100
AcDbEntity
  8
外形線
100
AcDbCircle
 10
386.5593856666839
 20
155.5782796216664
 30
0.0
 40
4.75
100
AcDbArc
 50
215.8999999999994
 51
324.0000000000001
  0
LINE
  5
12A2
330
18
100
AcDbEntity
  8
目盛
100
AcDbLine
 10
389.9977078927774
 20
153.0801922994234
 30
0.0
 11
390.4022163899649
 21
152.7862996732771
 31
0.0
  0
LINE
  5
12A4
330
18
100
AcDbEntity
  8
目盛
100
AcDbLine
 10
389.0564727158588
 20
152.1392308769053
 30
0.0
 11
389.3502476628206
 21
151.7346369069334
 31
0.0
  0
LINE
  5
12A5
330
18
100
AcDbEntity
  8
目盛
100
AcDbLine
 10
387.87035613608
 20
151.5355260515893
 30
0.0
 11
388.024587956009
 21
151.0599079845213
 31
0.0
  0
LINE
  5
12A6
330
18
100
AcDbEntity
  8
目盛
100
AcDbLine
 10
386.5556768424942
 20
151.3282812399463
 30
0.0
 11
386.5552405102365
 21
150.8282814303321
 31
0.0
  0
LINE
  5
12A7
330
18
100
AcDbEntity
  8
目盛
100
AcDbLine
 10
385.2413612615274
 20
151.5378202830005
 30
0.0
 11
385.0862995668031
 21
151.0624721255104
 31
0.0
  0
LINE
  5
12A8
330
18
100
AcDbEntity
  8
目盛
100
AcDbLine
 10
384.0563001514631
 20
152.1435943517337
 30
0.0
 11
383.7618195026136
 21
151.7395137317417
 31
0.0
  0
LINE
  5
12A9
330
18
100
AcDbEntity
  8
目盛
100
AcDbLine
 10
383.1167086947893
 20
153.0861971055392
 30
0.0
 11
382.7116878745663
 21
152.7930109271714
 31
0.0
  0
TEXT
  5
12B1
330
18
100
AcDbEntity
  8
文字
100
AcDbText
 10
388.8811732118279
 20
153.2992621426455
 30
0.0
 40
1.0
  1
0
  7
STYLE3
100
AcDbText
  0
TEXT
  5
12B2
330
18
100
AcDbEntity
  8
文字
100
AcDbText
 10
387.0593482715625
 20
151.9689630034229
 30
0.0
 40
1.0
  1
1
  7
STYLE3
100
AcDbText
  0
TEXT
  5
12B3
330
18
100
AcDbEntity
  8
文字
100
AcDbText
 10
384.922206241343
 20
152.0389785560206
 30
0.0
 40
1.0
  1
2
  7
STYLE3
100
AcDbText
  0
TEXT
  5
12B4
330
18
100
AcDbEntity
  8
文字
100
AcDbText
 10
383.3806603744148
 20
153.1942388137489
 30
0.0
 40
1.0
  1
3
  7
STYLE3
100
AcDbText
  0
LINE
  5
1458
330
18
100
AcDbEntity
  8
寸法線
100
AcDbLine
 10
487.4386114054515
 20
163.5084279393279
 30
0.0
 11
497.3668988508389
 21
163.5084279393279
 31
0.0
  0
LINE
  5
1459
330
18
100
AcDbEntity
  8
0
  6
ByBlock
 62
     2
100
AcDbLine
 10
487.4386114054515
 20
163.5084279393279
 30
0.0
 11
481.923751836561
 21
154.0514053207094
 31
0.0
  0
LINE
  5
145A
330
18
100
AcDbEntity
  8
0
  6
ByBlock
 62
     2
100
AcDbLine
 10
476.1305964649498
 20
144.1171539226235
 30
0.0
 11
474.8712148624256
 21
141.9575340534743
 31
0.0
  0
LINE
  5
145C
330
18
100
AcDbEntity
  8
0
  6
ByBlock
 62
     2
100
AcDbLine
 10
477.389978067474
 20
146.2767737917726
 30
0.0
 11
480.6643702340368
 21
151.8917854515603
 31
0.0
  0
INSERT
  5
145D
330
18
100
AcDbEntity
  8
0
  6
ByBlock
 62
     2
100
AcDbBlockReference
  2
_OPEN
 10
477.389978067474
 20
146.2767737917726
 30
0.0
 41
2.5
 42
2.5
 43
2.5
 50
59.7514151490588
  0
INSERT
  5
145E
330
18
100
AcDbEntity
  8
0
  6
ByBlock
 62
     2
100
AcDbBlockReference
  2
_OPEN
 10
480.6643702340368
 20
151.8917854515603
 30
0.0
 41
2.5
 42
2.5
 43
2.5
 50
239.7514151490588
  0
POINT
  5
145F
330
18
100
AcDbEntity
  8
DEFPOINTS
  6
ByBlock
 62
     0
100
AcDbPoint
 10
480.6643702340368
 20
151.8917854515603
 30
0.0
  0
POINT
  5
1460
330
18
100
AcDbEntity
  8
DEFPOINTS
  6
ByBlock
 62
     0
100
AcDbPoint
 10
477.389978067474
 20
146.2767737917726
 30
0.0
  0
TEXT
  5
1461
330
18
100
AcDbEntity
  8
文字
100
AcDbText
 10
488.0420078786622
 20
164.2538397393377
 30
0.0
 40
2.5
  1
φ6.5
  7
STYLE3
100
AcDbText
  0
LINE
  5
14B0
330
18
100
AcDbEntity
  8
0
  6
ByBlock
 62
     2
100
AcDbLine
 10
351.4857894211875
 20
179.5842796216664
 30
0.0
 11
344.2836969867079
 21
179.5842796216664
 31
0.0
  0
LINE
  5
14B1
330
18
100
AcDbEntity
  8
0
  6
ByBlock
 62
     2
100
AcDbLine
 10
351.4857894211875
 20
102.8842796216664
 30
0.0
 11
344.2836969867079
 21
102.8842796216664
 31
0.0
  0
LINE
  5
14B2
330
18
100
AcDbEntity
  8
0
  6
ByBlock
 62
     2
100
AcDbLine
 10
345.5336969867079
 20
177.0842796216664
 30
0.0
 11
345.5336969867079
 21
105.3842796216664
 31
0.0
  0
INSERT
  5
14B3
330
18
100
AcDbEntity
  8
0
  6
ByBlock
 62
     2
100
AcDbBlockReference
  2
_OPEN
 10
345.5336969867079
 20
179.5842796216664
 30
0.0
 41
2.5
 42
2.5
 43
2.5
 50
90.0
  0
INSERT
  5
14B4
330
18
100
AcDbEntity
  8
0
  6
ByBlock
 62
     2
100
AcDbBlockReference
  2
_OPEN
 10
345.5336969867079
 20
102.8842796216664
 30
0.0
 41
2.5
 42
2.5
 43
2.5
 50
270.0
  0
MTEXT
  5
14B5
330
18
100
AcDbEntity
  8
0
  6
ByBlock
 62
     6
100
AcDbMText
 10
343.6586969867079
 20
141.2342796216664
 30
0.0
 40
2.5
 41
0.0
 71
     5
 72
     1
  1
\A1;76.7
  7
STYLE3
 11
0.0000000000000001
 21
1.0
 31
0.0
 73
     1
 44
1.0
  0
POINT
  5
14B6
330
18
100
AcDbEntity
  8
DEFPOINTS
  6
ByBlock
 62
     0
100
AcDbPoint
 10
351.4857894211875
 20
179.5842796216664
 30
0.0
  0
POINT
  5
14B7
330
18
100
AcDbEntity
  8
DEFPOINTS
  6
ByBlock
 62
     0
100
AcDbPoint
 10
351.4857894211875
 20
102.8842796216664
 30
0.0
  0
POINT
  5
14B8
330
18
100
AcDbEntity
  8
DEFPOINTS
  6
ByBlock
 62
     0
100
AcDbPoint
 10
345.5336969867079
 20
102.8842796216664
 30
0.0
  0
POINT
  5
14BF
330
18
100
AcDbEntity
  8
DEFPOINTS
  6
ByBlock
 62
     0
100
AcDbPoint
 10
465.1271741507553
 20
167.5842796216664
 30
0.0
  0
POINT
  5
14C0
330
18
100
AcDbEntity
  8
DEFPOINTS
  6
ByBlock
 62
     0
100
AcDbPoint
 10
465.1271741507553
 20
130.5842796216664
 30
0.0
  0
LINE
  5
14C2
330
18
100
AcDbEntity
  8
0
  6
ByBlock
 62
     2
100
AcDbLine
 10
383.3593856666839
 20
102.8842796216664
 30
0.0
 11
351.4857894211875
 21
102.8842796216664
 31
0.0
  0
LINE
  5
14C3
330
18
100
AcDbEntity
  8
0
  6
ByBlock
 62
     2
100
AcDbLine
 10
352.7357894211875
 20
146.5842796216664
 30
0.0
 11
352.7357894211875
 21
105.3842796216664
 31
0.0
  0
INSERT
  5
14C4
330
18
100
AcDbEntity
  8
0
  6
ByBlock
 62
     2
100
AcDbBlockReference
  2
_OPEN
 10
352.7357894211875
 20
149.0842796216664
 30
0.0
 41
2.5
 42
2.5
 43
2.5
 50
90.0
  0
INSERT
  5
14C5
330
18
100
AcDbEntity
  8
0
  6
ByBlock
 62
     2
100
AcDbBlockReference
  2
_OPEN
 10
352.7357894211875
 20
102.8842796216664
 30
0.0
 41
2.5
 42
2.5
 43
2.5
 50
270.0
  0
MTEXT
  5
14C6
330
18
100
AcDbEntity
  8
0
  6
ByBlock
 62
     6
100
AcDbMText
 10
350.8607894211875
 20
125.9842796216664
 30
0.0
 40
2.5
 41
0.0
 71
     5
 72
     1
  1
\A1;46.2
  7
STYLE3
 11
0.0000000000000001
 21
1.0
 31
0.0
 73
     1
 44
1.0
  0
POINT
  5
14C7
330
18
100
AcDbEntity
  8
DEFPOINTS
  6
ByBlock
 62
     0
100
AcDbPoint
 10
360.5544063052467
 20
149.0842796216664
 30
0.0
  0
POINT
  5
14C8
330
18
100
AcDbEntity
  8
DEFPOINTS
  6
ByBlock
 62
     0
100
AcDbPoint
 10
383.3593856666839
 20
102.8842796216664
 30
0.0
  0
POINT
  5
14C9
330
18
100
AcDbEntity
  8
DEFPOINTS
  6
ByBlock
 62
     0
100
AcDbPoint
 10
352.7357894211875
 20
102.8842796216664
 30
0.0
  0
LINE
  5
14CA
330
18
100
AcDbEntity
  8
0
  6
ByBlock
 62
     2
100
AcDbLine
 10
451.2271741507553
 20
169.4842796216665
 30
0.0
 11
435.8376459734507
 21
169.4842796216665
 31
0.0
  0
LINE
  5
14CB
330
18
100
AcDbEntity
  8
0
  6
ByBlock
 62
     2
100
AcDbLine
 10
451.2271741507553
 20
128.6842796216664
 30
0.0
 11
435.8376459734507
 21
128.6842796216664
 31
0.0
  0
POINT
  5
14D0
330
18
100
AcDbEntity
  8
DEFPOINTS
  6
ByBlock
 62
     0
100
AcDbPoint
 10
451.2271741507553
 20
169.4842796216665
 30
0.0
  0
POINT
  5
14D1
330
18
100
AcDbEntity
  8
DEFPOINTS
  6
ByBlock
 62
     0
100
AcDbPoint
 10
451.2271741507553
 20
128.6842796216664
 30
0.0
  0
POINT
  5
14D2
330
18
100
AcDbEntity
  8
DEFPOINTS
  6
ByBlock
 62
     0
100
AcDbPoint
 10
437.0876459734506
 20
128.6842796216664
 30
0.0
  0
LINE
  5
14D5
330
18
100
AcDbEntity
  8
0
  6
ByBlock
 62
     2
100
AcDbLine
 10
460.0271741507553
 20
102.8842796216664
 30
0.0
 11
435.8376459734507
 21
102.8842796216664
 31
0.0
  0
LINE
  5
14D6
330
18
100
AcDbEntity
  8
0
  6
ByBlock
 62
     2
100
AcDbLine
 10
437.0876459734506
 20
107.8842796216664
 30
0.0
 11
437.0876459734506
 21
105.3842796216664
 31
0.0
  0
INSERT
  5
14D7
330
18
100
AcDbEntity
  8
0
  6
ByBlock
 62
     2
100
AcDbBlockReference
  2
_OPEN
 10
437.0876459734506
 20
110.3842796216664
 30
0.0
 41
2.5
 42
2.5
 43
2.5
 50
90.0
  0
INSERT
  5
14D8
330
18
100
AcDbEntity
  8
0
  6
ByBlock
 62
     2
100
AcDbBlockReference
  2
_OPEN
 10
437.0876459734506
 20
102.8842796216664
 30
0.0
 41
2.5
 42
2.5
 43
2.5
 50
270.0
  0
MTEXT
  5
14D9
330
18
100
AcDbEntity
  8
0
  6
ByBlock
 62
     6
100
AcDbMText
 10
435.2126459734506
 20
106.6342796216664
 30
0.0
 40
2.5
 41
0.0
 71
     5
 72
     1
  1
\A1;7.5
  7
STYLE3
 11
0.0000000000000001
 21
1.0
 31
0.0
 73
     1
 44
1.0
  0
POINT
  5
14DA
330
18
100
AcDbEntity
  8
DEFPOINTS
  6
ByBlock
 62
     0
100
AcDbPoint
 10
457.7271741507553
 20
110.3842796216664
 30
0.0
  0
POINT
  5
14DB
330
18
100
AcDbEntity
  8
DEFPOINTS
  6
ByBlock
 62
     0
100
AcDbPoint
 10
459.9771741507553
 20
102.8842796216664
 30
0.0
  0
POINT
  5
14DC
330
18
100
AcDbEntity
  8
DEFPOINTS
  6
ByBlock
 62
     0
100
AcDbPoint
 10
437.0876459734506
 20
102.8842796216664
 30
0.0
  0
LINE
  5
14DD
330
18
100
AcDbEntity
  8
0
  6
ByBlock
 62
     2
100
AcDbLine
 10
457.7271741507553
 20
110.3842796216664
 30
0.0
 11
435.8376459734507
 21
110.3842796216664
 31
0.0
  0
LINE
  5
14DE
330
18
100
AcDbEntity
  8
0
  6
ByBlock
 62
     2
100
AcDbLine
 10
437.0876459734506
 20
118.2842796216664
 30
0.0
 11
437.0876459734506
 21
120.7842796216664
 31
0.0
  0
LINE
  5
14DF
330
18
100
AcDbEntity
  8
0
  6
ByBlock
 62
     2
100
AcDbLine
 10
437.0876459734506
 20
107.8842796216664
 30
0.0
 11
437.0876459734506
 21
105.3842796216664
 31
0.0
  0
LINE
  5
14E1
330
18
100
AcDbEntity
  8
0
  6
ByBlock
 62
     2
100
AcDbLine
 10
437.0876459734506
 20
115.7842796216664
 30
0.0
 11
437.0876459734506
 21
110.3842796216664
 31
0.0
  0
LINE
  5
14E2
330
18
100
AcDbEntity
  8
0
  6
ByBlock
 62
     2
100
AcDbLine
 10
437.0876459734506
 20
115.7842796216664
 30
0.0
 11
437.0876459734506
 21
110.3842796216664
 31
0.0
  0
INSERT
  5
14E3
330
18
100
AcDbEntity
  8
0
  6
ByBlock
 62
     2
100
AcDbBlockReference
  2
_OPEN
 10
437.0876459734506
 20
115.7842796216664
 30
0.0
 41
2.5
 42
2.5
 43
2.5
 50
270.0
  0
INSERT
  5
14E4
330
18
100
AcDbEntity
  8
0
  6
ByBlock
 62
     2
100
AcDbBlockReference
  2
_OPEN
 10
437.0876459734506
 20
110.3842796216664
 30
0.0
 41
2.5
 42
2.5
 43
2.5
 50
90.0
  0
POINT
  5
14E5
330
18
100
AcDbEntity
  8
DEFPOINTS
  6
ByBlock
 62
     0
100
AcDbPoint
 10
457.0271741507553
 20
115.7842796216664
 30
0.0
  0
POINT
  5
14E6
330
18
100
AcDbEntity
  8
DEFPOINTS
  6
ByBlock
 62
     0
100
AcDbPoint
 10
457.7271741507553
 20
110.3842796216664
 30
0.0
  0
POINT
  5
14E7
330
18
100
AcDbEntity
  8
DEFPOINTS
  6
ByBlock
 62
     0
100
AcDbPoint
 10
437.0876459734506
 20
110.3842796216664
 30
0.0
  0
LINE
  5
14E8
330
18
100
AcDbEntity
  8
0
  6
ByBlock
 62
     2
100
AcDbLine
 10
457.0271741507553
 20
115.7842796216664
 30
0.0
 11
435.8376459734507
 21
115.7842796216664
 31
0.0
  0
LINE
  5
14E9
330
18
100
AcDbEntity
  8
0
  6
ByBlock
 62
     2
100
AcDbLine
 10
437.0876459734506
 20
126.1842796216664
 30
0.0
 11
437.0876459734506
 21
118.2842796216664
 31
0.0
  0
INSERT
  5
14EA
330
18
100
AcDbEntity
  8
0
  6
ByBlock
 62
     2
100
AcDbBlockReference
  2
_OPEN
 10
437.0876459734506
 20
128.6842796216664
 30
0.0
 41
2.5
 42
2.5
 43
2.5
 50
90.0
  0
INSERT
  5
14EB
330
18
100
AcDbEntity
  8
0
  6
ByBlock
 62
     2
100
AcDbBlockReference
  2
_OPEN
 10
437.0876459734506
 20
115.7842796216664
 30
0.0
 41
2.5
 42
2.5
 43
2.5
 50
270.0
  0
MTEXT
  5
14EC
330
18
100
AcDbEntity
  8
0
  6
ByBlock
 62
     6
100
AcDbMText
 10
435.2126459734506
 20
122.2342796216664
 30
0.0
 40
2.5
 41
0.0
 71
     5
 72
     1
  1
\A1;12.9
  7
STYLE3
 11
0.0000000000000001
 21
1.0
 31
0.0
 73
     1
 44
1.0
  0
POINT
  5
14ED
330
18
100
AcDbEntity
  8
DEFPOINTS
  6
ByBlock
 62
     0
100
AcDbPoint
 10
451.2271741507553
 20
128.6842796216664
 30
0.0
  0
POINT
  5
14EE
330
18
100
AcDbEntity
  8
DEFPOINTS
  6
ByBlock
 62
     0
100
AcDbPoint
 10
457.0271741507553
 20
115.7842796216664
 30
0.0
  0
POINT
  5
14EF
330
18
100
AcDbEntity
  8
DEFPOINTS
  6
ByBlock
 62
     0
100
AcDbPoint
 10
437.0876459734506
 20
115.7842796216664
 30
0.0
  0
LINE
  5
150F
330
18
100
AcDbEntity
  8
0
  6
ByBlock
 62
     2
100
AcDbLine
 10
460.0271741507553
 20
121.8031362084253
 30
0.0
 11
460.0271741507553
 21
119.4676649216355
 31
0.0
  0
LINE
  5
1510
330
18
100
AcDbEntity
  8
0
  6
ByBlock
 62
     2
100
AcDbLine
 10
479.0271741507553
 20
138.9460519682687
 30
0.0
 11
479.0271741507553
 21
119.4676649216355
 31
0.0
  0
LINE
  5
1511
330
18
100
AcDbEntity
  8
0
  6
ByBlock
 62
     2
100
AcDbLine
 10
462.5271741507552
 20
120.7176649216355
 30
0.0
 11
476.5271741507553
 21
120.7176649216355
 31
0.0
  0
INSERT
  5
1512
330
18
100
AcDbEntity
  8
0
  6
ByBlock
 62
     2
100
AcDbBlockReference
  2
_OPEN
 10
460.0271741507553
 20
120.7176649216355
 30
0.0
 41
2.5
 42
2.5
 43
2.5
 50
180.0
  0
INSERT
  5
1513
330
18
100
AcDbEntity
  8
0
  6
ByBlock
 62
     2
100
AcDbBlockReference
  2
_OPEN
 10
479.0271741507553
 20
120.7176649216355
 30
0.0
 41
2.5
 42
2.5
 43
2.5
  0
MTEXT
  5
1514
330
18
100
AcDbEntity
  8
0
  6
ByBlock
 62
     6
100
AcDbMText
 10
469.5271741507553
 20
122.5926649216355
 30
0.0
 40
2.5
 41
0.0
 71
     5
 72
     1
  1
\A1;19
  7
STYLE3
 73
     1
 44
1.0
  0
POINT
  5
1515
330
18
100
AcDbEntity
  8
DEFPOINTS
  6
ByBlock
 62
     0
100
AcDbPoint
 10
460.0271741507553
 20
121.8031362084253
 30
0.0
  0
POINT
  5
1516
330
18
100
AcDbEntity
  8
DEFPOINTS
  6
ByBlock
 62
     0
100
AcDbPoint
 10
479.0271741507553
 20
138.9460519682687
 30
0.0
  0
POINT
  5
1517
330
18
100
AcDbEntity
  8
DEFPOINTS
  6
ByBlock
 62
     0
100
AcDbPoint
 10
479.0271741507553
 20
120.7176649216355
 30
0.0
  0
POINT
  5
1520
330
18
100
AcDbEntity
  8
DEFPOINTS
  6
ByBlock
 62
     0
100
AcDbPoint
 10
460.0271741507553
 20
182.9728520145066
 30
0.0
  0
POINT
  5
1521
330
18
100
AcDbEntity
  8
DEFPOINTS
  6
ByBlock
 62
     0
100
AcDbPoint
 10
465.1271741507553
 20
167.5842796216664
 30
0.0
  0
POINT
  5
1529
330
18
100
AcDbEntity
  8
DEFPOINTS
  6
ByBlock
 62
     0
100
AcDbPoint
 10
447.5271741507553
 20
149.0842796216664
 30
0.0
  0
POINT
  5
152A
330
18
100
AcDbEntity
  8
DEFPOINTS
  6
ByBlock
 62
     0
100
AcDbPoint
 10
460.0271741507553
 20
182.9728520145066
 30
0.0
  0
LINE
  5
152C
330
18
100
AcDbEntity
  8
0
  6
ByBlock
 62
     2
100
AcDbLine
 10
383.3593856666839
 20
179.5842796216664
 30
0.0
 11
351.4857894211875
 21
179.5842796216664
 31
0.0
  0
LINE
  5
152D
330
18
100
AcDbEntity
  8
0
  6
ByBlock
 62
     2
100
AcDbLine
 10
360.5544063052467
 20
149.0842796216664
 30
0.0
 11
351.4857894211875
 21
149.0842796216664
 31
0.0
  0
LINE
  5
152E
330
18
100
AcDbEntity
  8
0
  6
ByBlock
 62
     2
100
AcDbLine
 10
352.7357894211875
 20
177.0842796216664
 30
0.0
 11
352.7357894211875
 21
151.5842796216664
 31
0.0
  0
INSERT
  5
152F
330
18
100
AcDbEntity
  8
0
  6
ByBlock
 62
     2
100
AcDbBlockReference
  2
_OPEN
 10
352.7357894211875
 20
179.5842796216664
 30
0.0
 41
2.5
 42
2.5
 43
2.5
 50
90.0
  0
INSERT
  5
1530
330
18
100
AcDbEntity
  8
0
  6
ByBlock
 62
     2
100
AcDbBlockReference
  2
_OPEN
 10
352.7357894211875
 20
149.0842796216664
 30
0.0
 41
2.5
 42
2.5
 43
2.5
 50
270.0
  0
MTEXT
  5
1531
330
18
100
AcDbEntity
  8
0
  6
ByBlock
 62
     6
100
AcDbMText
 10
350.8607894211875
 20
164.3342796216664
 30
0.0
 40
2.5
 41
0.0
 71
     5
 72
     1
  1
\A1;30.5
  7
STYLE3
 11
0.0000000000000001
 21
1.0
 31
0.0
 73
     1
 44
1.0
  0
POINT
  5
1532
330
18
100
AcDbEntity
  8
DEFPOINTS
  6
ByBlock
 62
     0
100
AcDbPoint
 10
383.3593856666839
 20
179.5842796216664
 30
0.0
  0
POINT
  5
1533
330
18
100
AcDbEntity
  8
DEFPOINTS
  6
ByBlock
 62
     0
100
AcDbPoint
 10
360.5544063052467
 20
149.0842796216664
 30
0.0
  0
POINT
  5
1534
330
18
100
AcDbEntity
  8
DEFPOINTS
  6
ByBlock
 62
     0
100
AcDbPoint
 10
352.7357894211875
 20
149.0842796216664
 30
0.0
  0
POINT
  5
153B
330
18
100
AcDbEntity
  8
DEFPOINTS
  6
ByBlock
 62
     0
100
AcDbPoint
 10
366.2093856666839
 20
149.0842796216664
 30
0.0
  0
POINT
  5
153C
330
18
100
AcDbEntity
  8
DEFPOINTS
  6
ByBlock
 62
     0
100
AcDbPoint
 10
400.5093856666839
 20
149.0842796216664
 30
0.0
  0
HATCH
  5
153E
330
18
100
AcDbEntity
  8
針
100
AcDbHatch
 10
0.0
 20
0.0
 30
0.0
210
0.0
220
0.0
230
1.0
  2
SOLID
 70
     1
 71
     0
 91
        2
 92
        7
 72
     1
 73
     1
 93
        5
 10
385.5010635007177
 20
155.8782032669911
 42
0.31735696877887
 10
385.9222750830402
 20
154.6815689078855
 42
0.0
 10
386.3467936690852
 20
154.828119282951
 42
0.0
 10
386.3548922721442
 20
154.8566963266895
 42
-0.4142135623731173
 10
385.837802371707
 20
155.782773016206
 42
0.0
 97
        0
 92
        7
 72
     1
 73
     1
 93
        4
 10
385.5010635007177
 20
155.8782032669911
 42
0.0
 10
385.837802371707
 20
155.782773016206
 42
-0.4142135623730728
 10
386.7638790612233
 20
156.2998629166432
 42
0.0
 10
386.8593093120085
 20
156.6366017876324
 42
0.4142135623730844
 97
        0
 75
     0
 76
     1
 47
0.0161501285364394
 98
        2
 10
385.6107585798523
 20
155.4278592350794
 10
385.8201996530206
 20
156.1076698957847
450
        0
451
        0
460
0.0
461
0.0
452
        0
462
0.0
453
        0
470

  0
HATCH
  5
153F
330
18
100
AcDbEntity
  8
針
100
AcDbHatch
 10
0.0
 20
0.0
 30
0.0
210
0.0
220
0.0
230
1.0
  2
SOLID
 70
     1
 71
     0
 91
        4
 92
        7
 72
     1
 73
     1
 93
        4
 10
387.3098995357963
 20
156.3824742077399
 42
0.0
 10
387.0710996683514
 20
156.126594112171
 42
-0.4142135623730951
 10
387.1077001571885
 20
155.0665656199989
 42
0.0
 10
387.3635802527573
 20
154.827765752554
 42
0.4142135623730996
 97
        0
 92
        7
 72
     1
 73
     1
 93
        5
 10
387.0710996683514
 20
156.126594112171
 42
0.0
 10
387.3098995357963
 20
156.3824742077399
 42
0.3173569687788799
 10
386.0530584028321
 20
156.5548208147968
 42
0.0
 10
385.9893561402482
 20
156.1102591609497
 42
0.0
 10
386.0110711761791
 20
156.089993623334
 42
-0.4142135623730839
 97
        0
 92
        7
 72
     1
 73
     1
 93
        4
 10
387.3635802527573
 20
154.827765752554
 42
0.0
 10
387.1077001571885
 20
155.0665656199989
 42
-0.4142135623730951
 10
386.0476716650163
 20
155.0299651311617
 42
0.0
 10
385.8088717975714
 20
154.7740850355929
 42
0.4142135623730996
 97
        0
 92
        7
 72
     1
 73
     1
 93
        4
 10
386.0476716650163
 20
155.0299651311617
 42
-0.1036385141593389
 10
385.8706016954221
 20
155.2815025320304
 42
0.0
 10
385.7992016088543
 20
154.7832197508253
 42
0.003023315109616
 10
385.8088717975714
 20
154.7740850355929
 42
0.0
 97
        0
 75
     0
 76
     1
 47
0.0223982890607777
 98
        4
 10
387.5468132186473
 20
155.5108579774207
 10
386.8016209224825
 20
156.4207670135838
 10
387.0349648760337
 20
154.7324227978674
 10
385.9471320320294
 20
155.0123531008145
450
        0
451
        0
460
0.0
461
0.0
452
        0
462
0.0
453
        0
470

  0
CIRCLE
  5
1540
330
18
100
AcDbEntity
  8
針
100
AcDbCircle
 10
386.5593856666838
 20
155.5782796216663
 30
0.0
 40
1.1
  0
CIRCLE
  5
1541
330
18
100
AcDbEntity
  8
針
100
AcDbCircle
 10
386.5593856666838
 20
155.5782796216663
 30
0.0
 40
0.75
  0
HATCH
  5
1542
330
18
100
AcDbEntity
  8
針
100
AcDbHatch
 10
0.0
 20
0.0
 30
0.0
210
0.0
220
0.0
230
1.0
  2
SOLID
 70
     1
 71
     0
 91
        1
 92
        7
 72
     1
 73
     1
 93
        7
 10
390.3750607169585
 20
152.8322599730272
 42
0.0
 10
390.4317336800516
 20
152.9146503562905
 42
0.0
 10
390.4884066431447
 20
152.9970407395537
 42
0.0
 10
387.8422417159037
 20
154.8717357816961
 42
-0.2935495917910092
 10
387.6400658279222
 20
155.3730227360202
 42
-0.2104432563350663
 10
387.1375568915942
 20
154.6424815479958
 42
-0.2935491884945053
 10
387.6779939958171
 20
154.632954679219
 42
0.0
 97
        0
 75
     0
 76
     1
 47
0.0140573597042523
 98
        1
 10
388.9110134529661
 20
153.889564497159
450
        0
451
        0
460
0.0
461
0.0
452
        0
462
0.0
453
        0
470

  0
LINE
  5
1543
330
18
100
AcDbEntity
  8
針
100
AcDbLine
 10
387.6779939958172
 20
154.6329546792189
 30
0.0
 11
390.3750607169585
 21
152.8322599730274
 31
0.0
  0
LINE
  5
1544
330
18
100
AcDbEntity
  8
針
100
AcDbLine
 10
387.8422417159037
 20
154.8717357816961
 30
0.0
 11
390.4884066431447
 21
152.9970407395538
 31
0.0
  0
CIRCLE
  5
1545
330
18
100
AcDbEntity
  8
針
 62
     4
100
AcDbCircle
 10
386.5593856666838
 20
155.5782796216663
 30
0.0
 40
0.4
  0
ARC
  5
1546
330
18
100
AcDbEntity
  8
針
100
AcDbCircle
 10
387.4003610749155
 20
154.2171182195001
 30
0.0
 40
0.5
100
AcDbArc
 50
56.27097274463936
 51
121.709292326385
  0
ARC
  5
1547
330
18
100
AcDbEntity
  8
針
100
AcDbCircle
 10
388.1312840830302
 20
155.2797241516355
 30
0.0
 40
0.5
100
AcDbArc
 50
169.2457349214242
 51
234.6840545031699
  0
LINE
  5
1548
330
18
100
AcDbEntity
  8
文字
100
AcDbLine
 10
390.3750607169585
 20
152.8322599730274
 30
0.0
 11
390.4884066431447
 21
152.9970407395538
 31
0.0
  0
LINE
  5
1549
330
18
100
AcDbEntity
  8
0
  6
ByBlock
 62
     2
100
AcDbLine
 10
469.0271741507553
 20
157.5842796216664
 30
0.0
 11
469.0271741507553
 21
179.7624828519419
 31
0.0
  0
LINE
  5
154A
330
18
100
AcDbEntity
  8
0
  6
ByBlock
 62
     2
100
AcDbLine
 10
479.0271741507553
 20
149.0842796216664
 30
0.0
 11
479.0271741507553
 21
179.7624828519419
 31
0.0
  0
LINE
  5
154B
330
18
100
AcDbEntity
  8
0
  6
ByBlock
 62
     2
100
AcDbLine
 10
471.5271741507553
 20
178.5124828519419
 30
0.0
 11
476.5271741507553
 21
178.5124828519419
 31
0.0
  0
INSERT
  5
154C
330
18
100
AcDbEntity
  8
0
  6
ByBlock
 62
     2
100
AcDbBlockReference
  2
_OPEN
 10
469.0271741507553
 20
178.5124828519419
 30
0.0
 41
2.5
 42
2.5
 43
2.5
 50
180.0
  0
INSERT
  5
154D
330
18
100
AcDbEntity
  8
0
  6
ByBlock
 62
     2
100
AcDbBlockReference
  2
_OPEN
 10
479.0271741507553
 20
178.5124828519419
 30
0.0
 41
2.5
 42
2.5
 43
2.5
  0
MTEXT
  5
154E
330
18
100
AcDbEntity
  8
0
  6
ByBlock
 62
     6
100
AcDbMText
 10
474.0271741507553
 20
180.3874828519419
 30
0.0
 40
2.5
 41
0.0
 71
     5
 72
     1
  1
\A1;10
  7
STYLE3
 73
     1
 44
1.0
  0
POINT
  5
154F
330
18
100
AcDbEntity
  8
DEFPOINTS
  6
ByBlock
 62
     0
100
AcDbPoint
 10
469.0271741507553
 20
157.5842796216664
 30
0.0
  0
POINT
  5
1550
330
18
100
AcDbEntity
  8
DEFPOINTS
  6
ByBlock
 62
     0
100
AcDbPoint
 10
479.0271741507553
 20
149.0842796216664
 30
0.0
  0
POINT
  5
1551
330
18
100
AcDbEntity
  8
DEFPOINTS
  6
ByBlock
 62
     0
100
AcDbPoint
 10
479.0271741507553
 20
178.5124828519419
 30
0.0
  0
LINE
  5
1552
330
18
100
AcDbEntity
  8
0
  6
ByBlock
 62
     2
100
AcDbLine
 10
469.9485302718493
 20
157.0842796216664
 30
0.0
 11
469.9485302718493
 21
164.7584279393279
 31
0.0
  0
LINE
  5
1553
330
18
100
AcDbEntity
  8
0
  6
ByBlock
 62
     2
100
AcDbLine
 10
474.9485302718493
 20
157.0842796216664
 30
0.0
 11
474.9485302718493
 21
164.7584279393279
 31
0.0
  0
LINE
  5
1554
330
18
100
AcDbEntity
  8
0
  6
ByBlock
 62
     2
100
AcDbLine
 10
467.4485302718493
 20
163.5084279393279
 30
0.0
 11
464.9485302718494
 21
163.5084279393279
 31
0.0
  0
LINE
  5
1555
330
18
100
AcDbEntity
  8
0
  6
ByBlock
 62
     2
100
AcDbLine
 10
477.4485302718494
 20
163.5084279393279
 30
0.0
 11
479.9485302718493
 21
163.5084279393279
 31
0.0
  0
LINE
  5
1556
330
18
100
AcDbEntity
  8
0
  6
ByBlock
 62
     2
100
AcDbLine
 10
469.9485302718493
 20
163.5084279393279
 30
0.0
 11
474.9485302718493
 21
163.5084279393279
 31
0.0
  0
INSERT
  5
1557
330
18
100
AcDbEntity
  8
0
  6
ByBlock
 62
     2
100
AcDbBlockReference
  2
_OPEN
 10
469.9485302718493
 20
163.5084279393279
 30
0.0
 41
2.5
 42
2.5
 43
2.5
  0
INSERT
  5
1558
330
18
100
AcDbEntity
  8
0
  6
ByBlock
 62
     2
100
AcDbBlockReference
  2
_OPEN
 10
474.9485302718493
 20
163.5084279393279
 30
0.0
 41
2.5
 42
2.5
 43
2.5
 50
180.0
  0
MTEXT
  5
1559
330
18
100
AcDbEntity
  8
0
  6
ByBlock
 62
     6
100
AcDbMText
 10
472.4485302718494
 20
165.3834279393279
 30
0.0
 40
2.5
 41
0.0
 71
     5
 72
     1
  1
\A1;5
  7
STYLE3
 73
     1
 44
1.0
  0
POINT
  5
155A
330
18
100
AcDbEntity
  8
DEFPOINTS
  6
ByBlock
 62
     0
100
AcDbPoint
 10
469.9485302718493
 20
157.0842796216664
 30
0.0
  0
POINT
  5
155B
330
18
100
AcDbEntity
  8
DEFPOINTS
  6
ByBlock
 62
     0
100
AcDbPoint
 10
474.9485302718493
 20
157.0842796216664
 30
0.0
  0
POINT
  5
155C
330
18
100
AcDbEntity
  8
DEFPOINTS
  6
ByBlock
 62
     0
100
AcDbPoint
 10
474.9485302718493
 20
163.5084279393279
 30
0.0
  0
DIMENSION
  5
1C04
330
18
100
AcDbEntity
  8
寸法線
100
AcDbDimension
  2
*D1
 10
400.5093856666839
 20
190.0145564296371
 30
0.0
 11
383.3593856666839
 21
191.8895564296371
 31
0.0
 70
    32
 71
     5
 42
34.29999999999996
  3
φ
100
AcDbAlignedDimension
 13
366.2093856666839
 23
149.0842796216664
 33
0.0
 14
400.5093856666839
 24
149.0842796216664
 34
0.0
100
AcDbRotatedDimension
  0
DIMENSION
  5
1C23
330
18
100
AcDbEntity
  8
寸法線
100
AcDbDimension
  2
*D2
 10
437.0876459734506
 20
128.6842796216664
 30
0.0
 11
435.2126459734505
 21
149.0842796216665
 31
0.0
 70
    32
 71
     5
 42
40.80000000000007
  3
φ
100
AcDbAlignedDimension
 13
451.2271741507553
 23
169.4842796216665
 33
0.0
 14
451.2271741507553
 24
128.6842796216664
 34
0.0
 50
90.0
100
AcDbRotatedDimension
  0
DIMENSION
  5
1C5D
330
18
100
AcDbEntity
  8
寸法線
100
AcDbDimension
  2
*D3
 10
460.0271741507553
 20
190.0145564296371
 30
0.0
 11
453.7771741507553
 21
191.8895564296371
 31
0.0
 70
    32
 71
     5
 42
12.49999999999994
  3
STYLE3
100
AcDbAlignedDimension
 13
447.5271741507553
 23
149.0842796216664
 33
0.0
 14
460.0271741507553
 24
182.9728520145066
 34
0.0
100
AcDbRotatedDimension
1001
ACAD
1000
DSTYLE
1002
{
1070
   271
1070
     2
1070
   341
1005
0
1002
}
  0
DIMENSION
  5
1C6A
330
18
100
AcDbEntity
  8
寸法線
100
AcDbDimension
  2
*D4
 10
465.1271741507553
 20
190.0145564296371
 30
0.0
 11
464.2334241507553
 21
195.3270564296371
 31
0.0
 70
    32
 71
     5
 42
5.100000000000079
  3
STYLE3
100
AcDbAlignedDimension
 13
460.0271741507553
 23
182.9728520145066
 33
0.0
 14
465.1271741507553
 24
167.5842796216664
 34
0.0
100
AcDbRotatedDimension
1001
ACAD
1000
DSTYLE
1002
{
1070
   279
1070
     1
1070
   271
1070
     2
1070
   341
1005
0
1002
}
  0
DIMENSION
  5
1C9C
330
18
100
AcDbEntity
  8
寸法線
100
AcDbDimension
  2
*D5
 10
501.2621050881853
 20
130.5842796216664
 30
0.0
 11
499.3871050881852
 21
149.0842796216665
 31
0.0
 70
    32
 71
     5
 42
37.0
  3
φ
100
AcDbAlignedDimension
 13
465.1271741507553
 23
167.5842796216664
 33
0.0
 14
465.1271741507553
 24
130.5842796216664
 34
0.0
 50
90.0
100
AcDbRotatedDimension
  0
DIMENSION
  5
1CC4
330
18
100
AcDbEntity
  8
寸法線
100
AcDbDimension
  2
*D6
 10
387.3593856666839
 20
121.2718411524586
 30
0.0
 11
398.1212904285887
 21
121.2718411524586
 31
0.0
 70
   160
  1
%%C<>
 71
     5
 42
8.0
  3
.0 type現尺
100
AcDbAlignedDimension
 13
379.3593856666839
 23
118.68179612881
 33
0.0
 14
387.3593856666839
 24
118.8081394831348
 34
0.0
100
AcDbRotatedDimension
1001
ACAD
1000
DSTYLE
1002
{
1070
    76
1070
     1
1070
    75
1070
     1
1070
   146
1040
0.7
1070
   284
1070
     8
1070
   272
1070
     2
1070
   283
1070
     0
1070
    48
1040
0.03
1070
   147
1040
0.625
1070
    72
1070
     0
1070
    71
1070
     1
1002
}
  0
DIMENSION
  5
1CC5
330
18
100
AcDbEntity
  8
寸法線
100
AcDbDimension
  2
*D7
 10
385.3593856666839
 20
112.7368980494597
 30
0.0
 11
393.0081951904934
 21
112.7368980494597
 31
0.0
 70
   160
  1
%%C<>
 71
     5
 42
4.0
  3
STYLE2
100
AcDbAlignedDimension
 13
381.3593856666839
 23
112.7368980494597
 33
0.0
 14
385.3593856666839
 24
112.7368980494597
 34
0.0
100
AcDbRotatedDimension
  0
LINE
  5
1D22
330
18
100
AcDbEntity
  8
寸法線
100
AcDbLine
 10
437.0876459734506
 20
113.0842796216664
 30
0.0
 11
431.2470377819939
 21
114.7125507626167
 31
0.0
  0
LINE
  5
1D23
330
18
100
AcDbEntity
  8
寸法線
100
AcDbLine
 10
431.2470377819939
 20
114.7125507626167
 30
0.0
 11
431.2470377819939
 21
120.6015088426931
 31
0.0
  0
LINE
  5
1D24
330
18
100
AcDbEntity
  8
寸法線
 62
     2
100
AcDbLine
 10
457.7271741507553
 20
110.3842796216664
 30
0.0
 11
435.8376459734507
 21
110.3842796216664
 31
0.0
  0
LINE
  5
1D25
330
18
100
AcDbEntity
  8
寸法線
 62
     2
100
AcDbLine
 10
458.0271741507553
 20
115.7842796216664
 30
0.0
 11
435.8376459734507
 21
115.7842796216664
 31
0.0
  0
LINE
  5
1D26
330
18
100
AcDbEntity
  8
寸法線
 62
     2
100
AcDbLine
 10
437.0876459734506
 20
107.8842796216664
 30
0.0
 11
437.0876459734506
 21
105.3842796216664
 31
0.0
  0
LINE
  5
1D27
330
18
100
AcDbEntity
  8
寸法線
 62
     2
100
AcDbLine
 10
437.0876459734506
 20
118.2842796216664
 30
0.0
 11
437.0876459734506
 21
120.7842796216664
 31
0.0
  0
LINE
  5
1D28
330
18
100
AcDbEntity
  8
寸法線
 62
     2
100
AcDbLine
 10
437.0876459734506
 20
110.3842796216664
 30
0.0
 11
437.0876459734506
 21
115.7842796216664
 31
0.0
  0
INSERT
  5
1D29
330
18
100
AcDbEntity
  8
寸法線
 62
     2
100
AcDbBlockReference
  2
_OPEN
 10
437.0876459734506
 20
110.3842796216664
 30
0.0
 41
2.5
 42
2.5
 43
2.5
 50
90.0
  0
INSERT
  5
1D2A
330
18
100
AcDbEntity
  8
寸法線
 62
     2
100
AcDbBlockReference
  2
_OPEN
 10
437.0876459734506
 20
115.7842796216664
 30
0.0
 41
2.5
 42
2.5
 43
2.5
 50
270.0
  0
MTEXT
  5
1D2B
330
18
100
AcDbEntity
  8
寸法線
 62
     6
100
AcDbMText
 10
429.3658585604582
 20
118.0267982586546
 30
0.0
 40
2.5
 41
0.0
 71
     5
 72
     1
  1
\A1;5.4
  7
STYLE3
 11
0.0000000000000001
 21
1.0
 31
0.0
 73
     1
 44
1.0
  0
ARC
  5
1D40
330
18
100
AcDbEntity
  8
外形線
100
AcDbCircle
 10
383.3593856666839
 20
104.0842796216664
 30
0.0
 40
1.199999999999999
100
AcDbArc
 50
189.59406822686
 51
350.40593177314
  0
ARC
  5
1D41
330
18
100
AcDbEntity
  8
外形線
100
AcDbCircle
 10
460.0271741507553
 20
104.0842796216664
 30
0.0
 40
1.199999999999999
100
AcDbArc
 50
189.59406822686
 51
350.40593177314
  0
TEXT
  5
1D87
330
18
100
AcDbEntity
  8
文字
100
AcDbText
 10
371.0987929034803
 20
221.4692235391555
 30
0.0
 40
4.0
  1
Model No.36B Miniature Dial Gauge
  7
STYLE3
100
AcDbText
  0
LINE
  5
1D88
330
18
100
AcDbEntity
  8
外形線
100
AcDbLine
 10
370.0205049034803
 20
218.0584825391555
 30
0.0
 11
476.0205049034802
 21
218.0584825391555
 31
0.0
  0
LINE
  5
1D89
330
18
100
AcDbEntity
  8
外形線
100
AcDbLine
 10
370.0205049034803
 20
219.0584825391555
 30
0.0
 11
476.0205049034802
 21
219.0584825391555
 31
0.0
  0
LINE
  5
1D8B
330
18
100
AcDbEntity
  8
外形線
100
AcDbLine
 10
410.7533009034803
 20
58.31236853915552
 30
0.0
 11
551.5447189034802
 21
58.31236853915552
 31
0.0
  0
LINE
  5
1D8C
330
18
100
AcDbEntity
  8
外形線
100
AcDbLine
 10
410.7533009034803
 20
47.53216253915552
 30
0.0
 11
551.5447189034802
 21
47.53216253915552
 31
0.0
  0
TEXT
  5
1D8D
330
18
100
AcDbEntity
  8
0
  6
Continuous
100
AcDbText
 10
412.2107679034803
 20
49.43015253915552
 30
0.0
 40
2.1
  1
Design and specifications are subject to change without notice for future improvement.
  7
STYLE3
100
AcDbText
  0
TEXT
  5
1D8E
330
18
100
AcDbEntity
  8
0
  6
Continuous
100
AcDbText
 10
412.5022619034803
 20
53.35930053915552
 30
0.0
 40
3.5
  1
仕様及び外観は予告なく変更される場合がございますのでご了承下さい。
  7
STYLE3
100
AcDbText
  0
TEXT
  5
1D8F
330
18
100
AcDbEntity
  8
0
  6
Continuous
100
AcDbText
 10
411.9192769034802
 20
39.66552453915552
 30
0.0
 40
2.1
  1
3RD Angle Projection
  7
STYLE3
100
AcDbText
  0
TEXT
  5
1D90
330
18
100
AcDbEntity
  8
0
  6
Continuous
100
AcDbText
 10
414.5427199034803
 20
43.16180753915552
 30
0.0
 40
3.0
  1
三　　角　　法
  7
STYLE3
100
AcDbText
  0
LINE
  5
1D91
330
18
100
AcDbEntity
  8
外形線
100
AcDbLine
 10
410.7533009034803
 20
37.91738453915552
 30
0.0
 11
410.7533009034803
 21
58.31236853915552
 31
0.0
  0
LINE
  5
1D92
330
18
100
AcDbEntity
  8
外形線
100
AcDbLine
 10
512.7760679034803
 20
47.53216253915552
 30
0.0
 11
512.7760679034803
 21
37.91738453915552
 31
0.0
  0
LINE
  5
1D93
330
18
100
AcDbEntity
  8
外形線
100
AcDbLine
 10
483.0437179034802
 20
47.53216253915552
 30
0.0
 11
483.0437179034802
 21
37.91738453915552
 31
0.0
  0
LINE
  5
1D94
330
18
100
AcDbEntity
  8
外形線
100
AcDbLine
 10
463.5136459034803
 20
47.53216253915552
 30
0.0
 11
463.5136459034803
 21
37.91738453915552
 31
0.0
  0
LINE
  5
1D95
330
18
100
AcDbEntity
  8
外形線
100
AcDbLine
 10
446.0240289034802
 20
47.53216253915552
 30
0.0
 11
446.0240289034802
 21
37.91738453915552
 31
0.0
  0
TEXT
  5
1D96
330
18
100
AcDbEntity
  8
0
  6
Continuous
100
AcDbText
 10
447.4814979034802
 20
43.16776253915551
 30
0.0
 40
3.0
  1
単位
  7
STYLE3
100
AcDbText
  0
TEXT
  5
1D97
330
18
100
AcDbEntity
  8
0
  6
Continuous
100
AcDbText
 10
447.6532189034803
 20
39.66552553915552
 30
0.0
 40
2.1
  1
Unit
  7
STYLE3
100
AcDbText
  0
TEXT
  5
1D98
330
18
100
AcDbEntity
  8
0
  6
Continuous
100
AcDbText
 10
464.7993939034803
 20
42.87640453915552
 30
0.0
 40
3.0
  1
尺 度
  7
STYLE3
100
AcDbText
  0
TEXT
  5
1D99
330
18
100
AcDbEntity
  8
0
  6
Continuous
100
AcDbText
 10
455.5235459034802
 20
41.41366853915552
 30
0.0
 40
2.399999999999999
  1
mm
  7
STYLE3
100
AcDbText
  0
TEXT
  5
1D9A
330
18
100
AcDbEntity
  8
0
  6
Continuous
100
AcDbText
 10
465.2626089034803
 20
39.95688253915552
 30
0.0
 40
2.1
  1
Scale
  7
STYLE3
100
AcDbText
  0
TEXT
  5
1D9B
330
18
100
AcDbEntity
  8
0
  6
Continuous
100
AcDbText
 10
474.8818979034803
 20
41.70502553915552
 30
0.0
 40
2.399999999999999
  1
1/1
  7
STYLE3
100
AcDbText
  0
TEXT
  5
1D9C
330
18
100
AcDbEntity
  8
0
  6
Continuous
100
AcDbText
 10
484.9756689034803
 20
39.66552653915552
 30
0.0
 40
2.1
  1
Date
  7
STYLE3
100
AcDbText
  0
TEXT
  5
1D9D
330
18
100
AcDbEntity
  8
0
  6
Continuous
100
AcDbText
 10
484.5923079034802
 20
42.99860953915552
 30
0.0
 40
3.0
  1
日 付
  7
STYLE3
100
AcDbText
  0
TEXT
  5
1D9E
330
18
100
AcDbEntity
  8
0
  6
Continuous
100
AcDbText
 10
493.7204769034803
 20
41.41366753915551
 30
0.0
 40
2.1
  1
2010.06.08
  7
STYLE3
100
AcDbText
  0
TEXT
  5
1D9F
330
18
100
AcDbEntity
  8
0
  6
Continuous
100
AcDbText
 10
514.1250309034802
 20
43.45316453915552
 30
0.0
 40
3.0
  1
株式会社　尾崎製作所
  7
STYLE3
100
AcDbText
  0
TEXT
  5
1DA0
330
18
100
AcDbEntity
  8
0
  6
Continuous
100
AcDbText
 10
514.9995099034803
 20
39.66552553915552
 30
0.0
 40
2.1
  1
OZAKI MFG. CO., LTD.
  7
STYLE3
100
AcDbText
  0
VIEWPORT
  5
177
330
15
100
AcDbEntity
 67
     1
  8
0
100
AcDbViewport
 10
127.5041203589828
 20
97.49391214526822
 30
0.0
 40
418.3086347473814
 41
243.0346063651093
 68
     1
 69
     1
 12
127.5041203589828
 22
97.49391214526822
 13
0.0
 23
0.0
 14
10.0
 24
10.0
 15
10.0
 25
10.0
 16
0.0
 26
0.0
 36
1.0
 17
0.0
 27
0.0
 37
0.0
 42
50.0
 43
0.0
 44
0.0
 45
243.0346063651093
 50
0.0
 51
0.0
 72
   100
 90
    32800
  1

281
     0
 71
     1
 74
     0
110
0.0
120
0.0
130
0.0
111
1.0
121
0.0
131
0.0
112
0.0
122
1.0
132
0.0
 79
     0
146
0.0
170
     0
  0
ENDSEC
  0
SECTION
  2
OBJECTS
  0
DICTIONARY
  5
C
330
0
100
AcDbDictionary
281
     1
  3
ACAD_COLOR
350
1587
  3
ACAD_GROUP
350
D
  3
ACAD_LAYOUT
350
158A
  3
ACAD_MATERIAL
350
1586
  3
ACAD_MLINESTYLE
350
1B
  3
ACAD_PLOTSETTINGS
350
158B
  3
ACAD_PLOTSTYLENAME
350
1584
  3
ACAD_TABLESTYLE
350
1588
  3
AcDbVariableDictionary
350
1D30
  0
DICTIONARY
  5
1D2C
330
18
100
AcDbDictionary
280
     1
281
     1
  3
ACAD_SORTENTS
360
1D2D
  0
DICTIONARY
  5
1587
102
{ACAD_REACTORS
330
C
102
}
330
C
100
AcDbDictionary
281
     1
  0
DICTIONARY
  5
D
102
{ACAD_REACTORS
330
C
102
}
330
C
100
AcDbDictionary
281
     1
  0
DICTIONARY
  5
158A
102
{ACAD_REACTORS
330
C
102
}
330
C
100
AcDbDictionary
281
     1
  3
Model
350
158C
  3
レイアウト1
350
158D
  0
DICTIONARY
  5
1586
102
{ACAD_REACTORS
330
C
102
}
330
C
100
AcDbDictionary
281
     1
  0
DICTIONARY
  5
1B
102
{ACAD_REACTORS
330
C
102
}
330
C
100
AcDbDictionary
281
     1
  3
STANDARD
350
1C
  0
DICTIONARY
  5
158B
102
{ACAD_REACTORS
330
C
102
}
330
C
100
AcDbDictionary
281
     1
  0
ACDBDICTIONARYWDFLT
  5
1584
102
{ACAD_REACTORS
330
C
102
}
330
C
100
AcDbDictionary
281
     1
  3
Normal
350
1585
100
AcDbDictionaryWithDefault
340
1585
  0
DICTIONARY
  5
1588
102
{ACAD_REACTORS
330
C
102
}
330
C
100
AcDbDictionary
281
     1
  3
Standard
350
1589
  0
DICTIONARY
  5
1D30
102
{ACAD_REACTORS
330
C
102
}
330
C
100
AcDbDictionary
281
     1
  3
CTABLESTYLE
350
1D31
  0
SORTENTSTABLE
  5
1D2D
102
{ACAD_REACTORS
330
1D2C
102
}
330
1D2C
100
AcDbSortentsTable
330
18
331
10D8
  5
10D8
331
10A1
  5
10A1
331
F7A
  5
F7A
331
F43
  5
F43
331
1532
  5
1532
331
F04
  5
F04
331
14E3
  5
14E3
331
145C
  5
145C
331
1275
  5
1275
331
1236
  5
1236
331
10E0
  5
10E0
331
10A9
  5
10A9
331
F82
  5
F82
331
F4B
  5
F4B
331
F0C
  5
F0C
331
14EB
  5
14EB
331
127D
  5
127D
331
123E
  5
123E
331
11D5
  5
11D5
331
10E8
  5
10E8
331
10B1
  5
10B1
331
1542
  5
1542
331
F8A
  5
F8A
331
14B4
  5
14B4
331
1246
  5
1246
331
F14
  5
F14
331
10F0
  5
10F0
331
154A
  5
154A
331
F92
  5
F92
331
124E
  5
124E
331
F1C
  5
F1C
331
1D24
  5
1D22
331
10B9
  5
10B9
331
F5B
  5
F5B
331
1552
  5
1552
331
F24
  5
F24
331
150B
  5
150B
331
EE5
  5
EE5
331
14C4
  5
14C4
331
1256
  5
1256
331
11E7
  5
11E7
331
1110
  5
1110
331
10C1
  5
10C1
331
108A
  5
108A
331
F63
  5
F63
331
155A
  5
155A
331
F2C
  5
F2C
331
1513
  5
1513
331
12A5
  5
12A5
331
125E
  5
125E
331
11EF
  5
11EF
331
115F
  5
115F
331
1118
  5
1118
331
10C9
  5
10C9
331
1092
  5
1092
331
F6B
  5
F6B
331
14D4
  5
14D4
331
F34
  5
F34
331
1266
  5
1266
331
EF5
  5
EF5
331
1167
  5
1167
331
1120
  5
1120
331
10D1
  5
10D1
331
109A
  5
109A
331
14DC
  5
14DC
331
F73
  5
F73
331
126E
  5
126E
331
EFD
  5
EFD
331
1CC5
  5
1CC5
331
11BE
  5
11BE
331
116F
  5
116F
331
1128
  5
1128
331
10D9
  5
10D9
331
10A2
  5
10A2
331
F7B
  5
F7B
331
F44
  5
F44
331
1533
  5
1533
331
14E4
  5
14E4
331
145D
  5
145D
331
1276
  5
1276
331
1237
  5
1237
331
10E1
  5
10E1
331
10AA
  5
10AA
331
F83
  5
F83
331
F4C
  5
F4C
331
153B
  5
153B
331
F0D
  5
F0D
331
14EC
  5
14EC
331
127E
  5
127E
331
123F
  5
123F
331
11D6
  5
11D6
331
10E9
  5
10E9
331
10B2
  5
10B2
331
1543
  5
1543
331
F8B
  5
F8B
331
14B5
  5
14B5
331
1247
  5
1247
331
F15
  5
F15
331
11DE
  5
11DE
331
10F1
  5
10F1
331
154B
  5
154B
331
F93
  5
F93
331
124F
  5
124F
331
F1D
  5
F1D
331
1D25
  5
1D23
331
11E0
  5
11E0
331
1109
  5
1109
331
10BA
  5
10BA
331
F5C
  5
F5C
331
1553
  5
1553
331
F25
  5
F25
331
150C
  5
150C
331
EE6
  5
EE6
331
14C5
  5
14C5
331
1257
  5
1257
331
11E8
  5
11E8
331
1111
  5
1111
331
10C2
  5
10C2
331
108B
  5
108B
331
F64
  5
F64
331
155B
  5
155B
331
F2D
  5
F2D
331
EEE
  5
EEE
331
1514
  5
1514
331
12A6
  5
12A6
331
125F
  5
125F
331
11F0
  5
11F0
331
11AF
  5
11AF
331
1119
  5
1119
331
10CA
  5
10CA
331
1093
  5
1093
331
F6C
  5
F6C
331
14D5
  5
14D5
331
F35
  5
F35
331
1267
  5
1267
331
1220
  5
1220
331
EF6
  5
EF6
331
1121
  5
1121
331
10D2
  5
10D2
331
109B
  5
109B
331
152C
  5
152C
331
14DD
  5
14DD
331
F74
  5
F74
331
126F
  5
126F
331
EFE
  5
EFE
331
1129
  5
1129
331
10DA
  5
10DA
331
10A3
  5
10A3
331
F7C
  5
F7C
331
F45
  5
F45
331
1534
  5
1534
331
F06
  5
F06
331
14E5
  5
14E5
331
145E
  5
145E
331
1277
  5
1277
331
1238
  5
1238
331
10E2
  5
10E2
331
10AB
  5
10AB
331
F84
  5
F84
331
F4D
  5
F4D
331
153C
  5
153C
331
F0E
  5
F0E
331
14ED
  5
14ED
331
127F
  5
127F
331
1240
  5
1240
331
11CF
  5
11CF
331
11D7
  5
11D7
331
1C6A
  5
1C6A
331
10EA
  5
10EA
331
10B3
  5
10B3
331
1544
  5
1544
331
F8C
  5
F8C
331
14B6
  5
14B6
331
1287
  5
1287
331
1248
  5
1248
331
F16
  5
F16
331
11DF
  5
11DF
331
10F2
  5
10F2
331
154C
  5
154C
331
F94
  5
F94
331
F1E
  5
F1E
331
1D26
  5
1D24
331
1250
  5
1250
331
110A
  5
110A
331
10BB
  5
10BB
331
F5D
  5
F5D
331
1554
  5
1554
331
F26
  5
F26
331
150D
  5
150D
331
EE7
  5
EE7
331
14C6
  5
14C6
331
1258
  5
1258
331
10C3
  5
10C3
331
108C
  5
108C
331
F65
  5
F65
331
155C
  5
155C
331
F2E
  5
F2E
331
EEF
  5
EEF
331
1515
  5
1515
331
12A7
  5
12A7
331
1260
  5
1260
331
11F1
  5
11F1
331
1112
  5
1112
331
11B0
  5
11B0
331
111A
  5
111A
331
1C23
  5
1C23
331
10CB
  5
10CB
331
1094
  5
1094
331
F6D
  5
F6D
331
14D6
  5
14D6
331
F36
  5
F36
331
1221
  5
1221
331
EF7
  5
EF7
331
11B8
  5
11B8
331
1122
  5
1122
331
10D3
  5
10D3
331
109C
  5
109C
331
152D
  5
152D
331
F75
  5
F75
331
14DE
  5
14DE
331
F3E
  5
F3E
331
EFF
  5
EFF
331
1270
  5
1270
331
11C8
  5
11C8
331
1179
  5
1179
331
112A
  5
112A
331
10DB
  5
10DB
331
10A4
  5
10A4
331
F7D
  5
F7D
331
F46
  5
F46
331
F07
  5
F07
331
14E6
  5
14E6
331
145F
  5
145F
331
1278
  5
1278
331
1239
  5
1239
331
11D0
  5
11D0
331
1181
  5
1181
331
10AC
  5
10AC
331
F85
  5
F85
331
F4E
  5
F4E
331
F0F
  5
F0F
331
14EE
  5
14EE
331
1280
  5
1280
331
1241
  5
1241
331
10E3
  5
10E3
331
10EB
  5
10EB
331
1C04
  5
1C04
331
10B4
  5
10B4
331
1545
  5
1545
331
F8D
  5
F8D
331
14B7
  5
14B7
331
1249
  5
1249
331
F56
  5
F56
331
10F3
  5
10F3
331
154D
  5
154D
331
F95
  5
F95
331
14BF
  5
14BF
331
F1F
  5
F1F
331
1D27
  5
1D25
331
1251
  5
1251
331
11E2
  5
11E2
331
110B
  5
110B
331
10BC
  5
10BC
331
F5E
  5
F5E
331
1555
  5
1555
331
F27
  5
F27
331
150E
  5
150E
331
14C7
  5
14C7
331
1259
  5
1259
331
1113
  5
1113
331
108D
  5
108D
331
F2F
  5
F2F
331
EF0
  5
EF0
331
1516
  5
1516
331
12A8
  5
12A8
331
1261
  5
1261
331
10C4
  5
10C4
331
111B
  5
111B
331
10CC
  5
10CC
331
1095
  5
1095
331
F6E
  5
F6E
331
14D7
  5
14D7
331
F37
  5
F37
331
EF8
  5
EF8
331
11B9
  5
11B9
331
1123
  5
1123
331
10D4
  5
10D4
331
109D
  5
109D
331
152E
  5
152E
331
F76
  5
F76
331
14DF
  5
14DF
331
F3F
  5
F3F
331
F00
  5
F00
331
1458
  5
1458
331
1271
  5
1271
331
11C9
  5
11C9
331
112B
  5
112B
331
10DC
  5
10DC
331
10A5
  5
10A5
331
F7E
  5
F7E
331
F47
  5
F47
331
F08
  5
F08
331
14E7
  5
14E7
331
1460
  5
1460
331
1279
  5
1279
331
11D1
  5
11D1
331
1182
  5
1182
331
1133
  5
1133
331
10E4
  5
10E4
331
F86
  5
F86
331
F4F
  5
F4F
331
153E
  5
153E
331
F10
  5
F10
331
14EF
  5
14EF
331
14B0
  5
14B0
331
1242
  5
1242
331
10AD
  5
10AD
331
11D9
  5
11D9
331
113B
  5
113B
331
10EC
  5
10EC
331
10B5
  5
10B5
331
1546
  5
1546
331
F8E
  5
F8E
331
1507
  5
1507
331
14B8
  5
14B8
331
124A
  5
124A
331
F57
  5
F57
331
10F4
  5
10F4
331
154E
  5
154E
331
F96
  5
F96
331
F20
  5
F20
331
14C0
  5
14C0
331
11E3
  5
11E3
331
1252
  5
1252
331
110C
  5
110C
331
10BD
  5
10BD
331
F5F
  5
F5F
331
1556
  5
1556
331
F28
  5
F28
331
150F
  5
150F
331
14C8
  5
14C8
331
12A1
  5
12A1
331
125A
  5
125A
331
1114
  5
1114
331
10C5
  5
10C5
331
F67
  5
F67
331
F30
  5
F30
331
1517
  5
1517
331
EF1
  5
EF1
331
14D0
  5
14D0
331
12A9
  5
12A9
331
1262
  5
1262
331
108E
  5
108E
331
111C
  5
111C
331
10CD
  5
10CD
331
14D8
  5
14D8
331
1096
  5
1096
331
12B1
  5
12B1
331
1223
  5
1223
331
EF9
  5
EF9
331
1D28
  5
1D26
331
1C9C
  5
1C9C
331
1124
  5
1124
331
10D5
  5
10D5
331
109E
  5
109E
331
152F
  5
152F
331
F77
  5
F77
331
F40
  5
F40
331
F01
  5
F01
331
1459
  5
1459
331
1272
  5
1272
331
11CA
  5
11CA
331
112C
  5
112C
331
10DD
  5
10DD
331
10A6
  5
10A6
331
F7F
  5
F7F
331
F48
  5
F48
331
F09
  5
F09
331
14E8
  5
14E8
331
1461
  5
1461
331
127A
  5
127A
331
123B
  5
123B
331
11D2
  5
11D2
331
1134
  5
1134
331
1C5D
  5
1C5D
331
10E5
  5
10E5
331
10AE
  5
10AE
331
F50
  5
F50
331
F11
  5
F11
331
153F
  5
153F
331
14B1
  5
14B1
331
1243
  5
1243
331
F87
  5
F87
331
11DA
  5
11DA
331
10ED
  5
10ED
331
10B6
  5
10B6
331
1547
  5
1547
331
F8F
  5
F8F
331
124B
  5
124B
331
F19
  5
F19
331
154F
  5
154F
331
10F5
  5
10F5
331
F58
  5
F58
331
F21
  5
F21
331
1508
  5
1508
331
1253
  5
1253
331
11E4
  5
11E4
331
110D
  5
110D
331
10BE
  5
10BE
331
105F
  5
105F
331
F60
  5
F60
331
1557
  5
1557
331
F29
  5
F29
331
1510
  5
1510
331
14C9
  5
14C9
331
12A2
  5
12A2
331
125B
  5
125B
331
1115
  5
1115
331
10C6
  5
10C6
331
108F
  5
108F
331
F31
  5
F31
331
1520
  5
1520
331
EF2
  5
EF2
331
14D1
  5
14D1
331
1263
  5
1263
331
F68
  5
F68
331
111D
  5
111D
331
10CE
  5
10CE
331
1097
  5
1097
331
14D9
  5
14D9
331
F70
  5
F70
331
12B2
  5
12B2
331
1224
  5
1224
331
EFA
  5
EFA
331
1D29
  5
1D27
331
1125
  5
1125
331
10D6
  5
10D6
331
109F
  5
109F
331
F78
  5
F78
331
F41
  5
F41
331
1530
  5
1530
331
F02
  5
F02
331
14E1
  5
14E1
331
145A
  5
145A
331
1273
  5
1273
331
11CB
  5
11CB
331
10DE
  5
10DE
331
10A7
  5
10A7
331
F80
  5
F80
331
F49
  5
F49
331
F0A
  5
F0A
331
14E9
  5
14E9
331
127B
  5
127B
331
123C
  5
123C
331
11D3
  5
11D3
331
10E6
  5
10E6
331
10AF
  5
10AF
331
1540
  5
1540
331
F88
  5
F88
331
F12
  5
F12
331
14B2
  5
14B2
331
1244
  5
1244
331
F51
  5
F51
331
11DB
  5
11DB
331
10EE
  5
10EE
331
10B7
  5
10B7
331
1548
  5
1548
331
F90
  5
F90
331
124C
  5
124C
331
F1A
  5
F1A
331
1194
  5
1194
331
10F6
  5
10F6
331
1D22
  5
1D2A
331
F59
  5
F59
331
1550
  5
1550
331
F22
  5
F22
331
1509
  5
1509
331
14C2
  5
14C2
331
1254
  5
1254
331
11E5
  5
11E5
331
119C
  5
119C
331
114D
  5
114D
331
110E
  5
110E
331
10BF
  5
10BF
331
1088
  5
1088
331
F61
  5
F61
331
1558
  5
1558
331
F2A
  5
F2A
331
1511
  5
1511
331
14CA
  5
14CA
331
125C
  5
125C
331
11ED
  5
11ED
331
1116
  5
1116
331
10C7
  5
10C7
331
1090
  5
1090
331
1521
  5
1521
331
F69
  5
F69
331
EF3
  5
EF3
331
14D2
  5
14D2
331
1264
  5
1264
331
F32
  5
F32
331
111E
  5
111E
331
10CF
  5
10CF
331
1529
  5
1529
331
14DA
  5
14DA
331
1098
  5
1098
331
12B3
  5
12B3
331
126C
  5
126C
331
EFB
  5
EFB
331
1D2A
  5
1D28
331
11BC
  5
11BC
331
1126
  5
1126
331
10D7
  5
10D7
331
10A0
  5
10A0
331
F79
  5
F79
331
F42
  5
F42
331
1531
  5
1531
331
F03
  5
F03
331
14E2
  5
14E2
331
1274
  5
1274
331
1235
  5
1235
331
11CC
  5
11CC
331
10DF
  5
10DF
331
10A8
  5
10A8
331
F81
  5
F81
331
F4A
  5
F4A
331
F0B
  5
F0B
331
14EA
  5
14EA
331
127C
  5
127C
331
123D
  5
123D
331
10E7
  5
10E7
331
10B0
  5
10B0
331
1541
  5
1541
331
F89
  5
F89
331
F52
  5
F52
331
14B3
  5
14B3
331
1245
  5
1245
331
F13
  5
F13
331
11DC
  5
11DC
331
118D
  5
118D
331
10EF
  5
10EF
331
1549
  5
1549
331
F91
  5
F91
331
124D
  5
124D
331
F1B
  5
F1B
331
1195
  5
1195
331
10F7
  5
10F7
331
1D23
  5
1D2B
331
10B8
  5
10B8
331
F5A
  5
F5A
331
1551
  5
1551
331
F23
  5
F23
331
150A
  5
150A
331
14C3
  5
14C3
331
128C
  5
128C
331
1255
  5
1255
331
11E6
  5
11E6
331
110F
  5
110F
331
10C0
  5
10C0
331
1089
  5
1089
331
F62
  5
F62
331
1559
  5
1559
331
F2B
  5
F2B
331
1512
  5
1512
331
14CB
  5
14CB
331
12A4
  5
12A4
331
125D
  5
125D
331
115E
  5
115E
331
1117
  5
1117
331
10C8
  5
10C8
331
1091
  5
1091
331
F6A
  5
F6A
331
14D3
  5
14D3
331
F33
  5
F33
331
1265
  5
1265
331
EF4
  5
EF4
331
111F
  5
111F
331
10D0
  5
10D0
331
1099
  5
1099
331
152A
  5
152A
331
14DB
  5
14DB
331
F72
  5
F72
331
12B4
  5
12B4
331
126D
  5
126D
331
EFC
  5
EFC
331
1D2B
  5
1D29
331
1CC4
  5
1CC4
331
11BD
  5
11BD
331
1127
  5
1127
  0
LAYOUT
  5
158C
102
{ACAD_REACTORS
330
158A
102
}
330
158A
100
AcDbPlotSettings
  1

  2
WIDR Printer
  4

  6

 40
0.0
 41
0.0
 42
0.0
 43
0.0
 44
0.0
 45
0.0
 46
0.0
 47
0.0
 48
0.0
 49
0.0
140
0.0
141
0.0
142
1.0
143
1.0
 70
  1712
 72
     0
 73
     0
 74
     0
  7
AutoCad LT 98.ctb
 75
     0
147
1.0
 76
     0
 77
     2
 78
   300
148
0.0
149
0.0
100
AcDbLayout
  1
Model
 70
     1
 71
     0
 10
0.0
 20
0.0
 11
12.0
 21
9.0
 12
0.0
 22
0.0
 32
0.0
 14
0.0
 24
0.0
 34
0.0
 15
0.0
 25
0.0
 35
0.0
146
0.0
 13
0.0
 23
0.0
 33
0.0
 16
1.0
 26
0.0
 36
0.0
 17
0.0
 27
1.0
 37
0.0
 76
     0
330
18
  0
LAYOUT
  5
158D
102
{ACAD_REACTORS
330
158A
102
}
330
158A
100
AcDbPlotSettings
  1

  2
WIDR Printer
  4

  6

 40
0.0
 41
0.0
 42
0.0
 43
0.0
 44
0.0
 45
0.0
 46
0.0
 47
0.0
 48
0.0
 49
0.0
140
0.0
141
0.0
142
1.0
143
1.0
 70
   688
 72
     0
 73
     0
 74
     5
  7
AutoCad LT 98.ctb
 75
    16
147
1.0
 76
     0
 77
     2
 78
   300
148
0.0
149
0.0
100
AcDbLayout
  1
レイアウト1
 70
     1
 71
     1
 10
0.0
 20
0.0
 11
420.0
 21
297.0
 12
0.0
 22
0.0
 32
0.0
 14
-0.2
 24
-0.2
 34
0.0
 15
255.2
 25
195.2
 35
0.0
146
0.0
 13
0.0
 23
0.0
 33
0.0
 16
1.0
 26
0.0
 36
0.0
 17
0.0
 27
1.0
 37
0.0
 76
     0
330
15
331
177
  0
MLINESTYLE
  5
1C
102
{ACAD_REACTORS
330
1B
102
}
330
1B
100
AcDbMlineStyle
  2
STANDARD
 70
     0
  3

 62
   256
 51
90.0
 52
90.0
 71
     2
 49
0.5
 62
   256
  6
BYLAYER
 49
-0.5
 62
   256
  6
BYLAYER
  0
ACDBPLACEHOLDER
  5
1585
102
{ACAD_REACTORS
330
1584
102
}
330
1584
  0
ACAD_PROXY_OBJECT
  5
1589
102
{ACAD_REACTORS
330
1588
102
}
330
1588
100
AcDbProxyObject
 90
      499
 91
      503
 95
  2555929
 70
     0
 93
     1849
310
4214DD185B99185C992420000000000000F83F0000000000003E0FC00000000000004901028000000C1008070000C3001FDFF8000000C1003FBFF000000182007F7FE00000030400FEFFC00000060801FDFF8000000C1003FBFF000000182000000000000000C2020B0000001820100E000186003FBFF000000182007F7FE0
310
0000030400FEFFC00000060801FDFF8000000C1003FBFF000000182007F7FE0000003040000000000000012404160000003040201C00030C007F7FE00000030400FEFFC00000060801FDFF8000000C1003FBFF000000182007F7FE00000030400FEFFC000000608000
340
F
340
F
340
F
 94
        0
  0
DICTIONARYVAR
  5
1D31
102
{ACAD_REACTORS
330
1D30
102
}
330
1D30
100
DictionaryVariables
280
     0
  1
STANDARD
  0
ENDSEC
  0
EOF
