  0
SECTION
  2
HEADER
  9
$ACADVER
  1
AC1018
  9
$ACADMAINTVER
 70
     0
  9
$DWGCODEPAGE
  3
ANSI_932
  9
$INSBASE
 10
0.0
 20
0.0
 30
0.0
  9
$EXTMIN
 10
-0.2256390475530452
 20
-0.2181340431527587
 30
-1.000061017226833
  9
$EXTMAX
 10
255.2259994837125
 20
195.2198638915711
 30
0.0000610486609247
  9
$LIMMIN
 10
0.0
 20
0.0
  9
$LIMMAX
 10
420.0
 20
297.0
  9
$ORTHOMODE
 70
     0
  9
$REGENMODE
 70
     1
  9
$FILLMODE
 70
     1
  9
$QTEXTMODE
 70
     0
  9
$MIRRTEXT
 70
     1
  9
$LTSCALE
 40
1.0
  9
$ATTMODE
 70
     1
  9
$TEXTSIZE
 40
3.0
  9
$TRACEWID
 40
1.0
  9
$TEXTSTYLE
  7
STYLE3
  9
$CLAYER
  8
寸法線
  9
$CELTYPE
  6
BYLAYER
  9
$CECOLOR
 62
   256
  9
$CELTSCALE
 40
1.0
  9
$DISPSILH
 70
     0
  9
$DIMSCALE
 40
1.0
  9
$DIMASZ
 40
2.5
  9
$DIMEXO
 40
0.0
  9
$DIMDLI
 40
3.75
  9
$DIMRND
 40
0.0
  9
$DIMDLE
 40
0.0
  9
$DIMEXE
 40
1.25
  9
$DIMTP
 40
0.0
  9
$DIMTM
 40
0.0
  9
$DIMTXT
 40
2.5
  9
$DIMCEN
 40
2.5
  9
$DIMTSZ
 40
0.0
  9
$DIMTOL
 70
     0
  9
$DIMLIM
 70
     0
  9
$DIMTIH
 70
     0
  9
$DIMTOH
 70
     0
  9
$DIMSE1
 70
     0
  9
$DIMSE2
 70
     0
  9
$DIMTAD
 70
     1
  9
$DIMZIN
 70
     8
  9
$DIMBLK
  1

  9
$DIMASO
 70
     1
  9
$DIMSHO
 70
     1
  9
$DIMPOST
  1

  9
$DIMAPOST
  1

  9
$DIMALT
 70
     0
  9
$DIMALTD
 70
     4
  9
$DIMALTF
 40
0.0394
  9
$DIMLFAC
 40
1.0
  9
$DIMTOFL
 70
     1
  9
$DIMTVP
 40
0.0
  9
$DIMTIX
 70
     0
  9
$DIMSOXD
 70
     0
  9
$DIMSAH
 70
     1
  9
$DIMBLK1
  1
OPEN
  9
$DIMBLK2
  1
OPEN
  9
$DIMSTYLE
  2
STYLE3
  9
$DIMCLRD
 70
     2
  9
$DIMCLRE
 70
     2
  9
$DIMCLRT
 70
     6
  9
$DIMTFAC
 40
1.0
  9
$DIMGAP
 40
0.625
  9
$DIMJUST
 70
     0
  9
$DIMSD1
 70
     0
  9
$DIMSD2
 70
     0
  9
$DIMTOLJ
 70
     1
  9
$DIMTZIN
 70
     0
  9
$DIMALTZ
 70
     0
  9
$DIMALTTZ
 70
     0
  9
$DIMUPT
 70
     0
  9
$DIMDEC
 70
     2
  9
$DIMTDEC
 70
     4
  9
$DIMALTU
 70
     8
  9
$DIMALTTD
 70
     4
  9
$DIMTXSTY
  7
STYLE3
  9
$DIMAUNIT
 70
     0
  9
$DIMADEC
 70
     0
  9
$DIMALTRND
 40
0.0
  9
$DIMAZIN
 70
     0
  9
$DIMDSEP
 70
    46
  9
$DIMATFIT
 70
     3
  9
$DIMFRAC
 70
     0
  9
$DIMLDRBLK
  1

  9
$DIMLUNIT
 70
     2
  9
$DIMLWD
 70
    -2
  9
$DIMLWE
 70
    -2
  9
$DIMTMOVE
 70
     0
  9
$LUNITS
 70
     2
  9
$LUPREC
 70
     4
  9
$SKETCHINC
 40
1.0
  9
$FILLETRAD
 40
0.0
  9
$AUNITS
 70
     0
  9
$AUPREC
 70
     0
  9
$MENU
  1
.
  9
$ELEVATION
 40
0.0
  9
$PELEVATION
 40
0.0
  9
$THICKNESS
 40
0.0
  9
$LIMCHECK
 70
     0
  9
$CHAMFERA
 40
1.0
  9
$CHAMFERB
 40
1.0
  9
$CHAMFERC
 40
20.0
  9
$CHAMFERD
 40
0.0
  9
$SKPOLY
 70
     0
  9
$TDCREATE
 40
2451220.390506829
  9
$TDUCREATE
 40
2451220.015506829
  9
$TDUPDATE
 40
2455357.692513021
  9
$TDUUPDATE
 40
2455357.317513021
  9
$TDINDWG
 40
0.4264972917
  9
$TDUSRTIMER
 40
0.4264972917
  9
$USRTIMER
 70
     1
  9
$ANGBASE
 50
0.0
  9
$ANGDIR
 70
     0
  9
$PDMODE
 70
     0
  9
$PDSIZE
 40
0.0
  9
$PLINEWID
 40
0.0
  9
$SPLFRAME
 70
     0
  9
$SPLINETYPE
 70
     6
  9
$SPLINESEGS
 70
     8
  9
$HANDSEED
  5
1E89
  9
$SURFTAB1
 70
     6
  9
$SURFTAB2
 70
     6
  9
$SURFTYPE
 70
     6
  9
$SURFU
 70
     6
  9
$SURFV
 70
     6
  9
$UCSBASE
  2

  9
$UCSNAME
  2

  9
$UCSORG
 10
0.0
 20
0.0
 30
0.0
  9
$UCSXDIR
 10
1.0
 20
0.0
 30
0.0
  9
$UCSYDIR
 10
0.0
 20
1.0
 30
0.0
  9
$UCSORTHOREF
  2

  9
$UCSORTHOVIEW
 70
     0
  9
$UCSORGTOP
 10
0.0
 20
0.0
 30
0.0
  9
$UCSORGBOTTOM
 10
0.0
 20
0.0
 30
0.0
  9
$UCSORGLEFT
 10
0.0
 20
0.0
 30
0.0
  9
$UCSORGRIGHT
 10
0.0
 20
0.0
 30
0.0
  9
$UCSORGFRONT
 10
0.0
 20
0.0
 30
0.0
  9
$UCSORGBACK
 10
0.0
 20
0.0
 30
0.0
  9
$PUCSBASE
  2

  9
$PUCSNAME
  2

  9
$PUCSORG
 10
0.0
 20
0.0
 30
0.0
  9
$PUCSXDIR
 10
1.0
 20
0.0
 30
0.0
  9
$PUCSYDIR
 10
0.0
 20
1.0
 30
0.0
  9
$PUCSORTHOREF
  2

  9
$PUCSORTHOVIEW
 70
     0
  9
$PUCSORGTOP
 10
0.0
 20
0.0
 30
0.0
  9
$PUCSORGBOTTOM
 10
0.0
 20
0.0
 30
0.0
  9
$PUCSORGLEFT
 10
0.0
 20
0.0
 30
0.0
  9
$PUCSORGRIGHT
 10
0.0
 20
0.0
 30
0.0
  9
$PUCSORGFRONT
 10
0.0
 20
0.0
 30
0.0
  9
$PUCSORGBACK
 10
0.0
 20
0.0
 30
0.0
  9
$USERI1
 70
     0
  9
$USERI2
 70
     0
  9
$USERI3
 70
     0
  9
$USERI4
 70
     0
  9
$USERI5
 70
     0
  9
$USERR1
 40
0.0
  9
$USERR2
 40
0.0
  9
$USERR3
 40
0.0
  9
$USERR4
 40
0.0
  9
$USERR5
 40
0.0
  9
$WORLDVIEW
 70
     1
  9
$SHADEDGE
 70
     3
  9
$SHADEDIF
 70
    70
  9
$TILEMODE
 70
     1
  9
$MAXACTVP
 70
    48
  9
$PINSBASE
 10
0.0
 20
0.0
 30
0.0
  9
$PLIMCHECK
 70
     0
  9
$PEXTMIN
 10
-0.2
 20
-0.2
 30
0.0
  9
$PEXTMAX
 10
255.2
 20
195.2
 30
0.0
  9
$PLIMMIN
 10
0.0
 20
0.0
  9
$PLIMMAX
 10
420.0
 20
297.0
  9
$UNITMODE
 70
     0
  9
$VISRETAIN
 70
     1
  9
$PLINEGEN
 70
     0
  9
$PSLTSCALE
 70
     1
  9
$TREEDEPTH
 70
  3020
  9
$CMLSTYLE
  2
STANDARD
  9
$CMLJUST
 70
     0
  9
$CMLSCALE
 40
20.0
  9
$PROXYGRAPHICS
 70
     1
  9
$MEASUREMENT
 70
     1
  9
$CELWEIGHT
370
    -1
  9
$ENDCAPS
280
     0
  9
$JOINSTYLE
280
     0
  9
$LWDISPLAY
290
     0
  9
$INSUNITS
 70
     0
  9
$HYPERLINKBASE
  1

  9
$STYLESHEET
  1
AutoCAD LT 98.ctb
  9
$XEDIT
290
     1
  9
$CEPSNTYPE
380
     0
  9
$PSTYLEMODE
290
     1
  9
$FINGERPRINTGUID
  2
{F949F498-D15D-430B-BE17-1E15D0A68D4A}
  9
$VERSIONGUID
  2
{843540AD-82FE-4E5D-9AF3-BD778BA3EB18}
  9
$EXTNAMES
290
     1
  9
$PSVPSCALE
 40
0.0
  9
$OLESTARTUP
290
     0
  9
$SORTENTS
280
    96
  9
$INDEXCTL
280
     0
  9
$HIDETEXT
280
     0
  9
$XCLIPFRAME
290
     0
  9
$HALOGAP
280
     0
  9
$OBSCOLOR
 70
   257
  9
$OBSLTYPE
280
     0
  9
$INTERSECTIONDISPLAY
280
     0
  9
$INTERSECTIONCOLOR
 70
   257
  9
$DIMASSOC
280
     1
  9
$PROJECTNAME
  1

  0
ENDSEC
  0
SECTION
  2
CLASSES
  0
CLASS
  1
HATCH
  2
AcDbHatch
  3
ObjectDBX Classes
 90
        0
 91
       36
280
     0
281
     1
  0
CLASS
  1
LWPOLYLINE
  2
AcDbPolyline
  3
ObjectDBX Classes
 90
        0
 91
        3
280
     0
281
     1
  0
CLASS
  1
DICTIONARYVAR
  2
AcDbDictionaryVar
  3
ObjectDBX Classes
 90
        0
 91
        2
280
     0
281
     0
  0
CLASS
  1
ACDBDICTIONARYWDFLT
  2
AcDbDictionaryWithDefault
  3
ObjectDBX Classes
 90
        0
 91
        1
280
     0
281
     0
  0
CLASS
  1
TABLESTYLE
  2
AcDbTableStyle
  3
ObjectDBX Classes
 90
     2047
 91
        1
280
     0
281
     0
  0
CLASS
  1
SORTENTSTABLE
  2
AcDbSortentsTable
  3
ObjectDBX Classes
 90
        0
 91
        0
280
     0
281
     0
  0
ENDSEC
  0
SECTION
  2
TABLES
  0
TABLE
  2
VPORT
  5
8
330
0
100
AcDbSymbolTable
 70
     2
  0
VPORT
  5
1E88
330
8
100
AcDbSymbolTableRecord
100
AcDbViewportTableRecord
  2
*Active
 70
     0
 10
0.0
 20
0.0
 11
1.0
 21
1.0
 12
127.5001802180797
 22
97.50086492420916
 13
0.0
 23
0.0
 14
10.0
 24
10.0
 15
10.0
 25
10.0
 16
0.0
 26
0.0
 36
1.0
 17
0.0
 27
0.0
 37
0.0
 40
196.9242184513377
 41
1.530456852791878
 42
50.0
 43
0.0
 44
0.0
 50
0.0
 51
0.0
 71
     0
 72
   100
 73
     1
 74
     1
 75
     0
 76
     0
 77
     0
 78
     0
281
     0
 65
     1
110
0.0
120
0.0
130
0.0
111
1.0
121
0.0
131
0.0
112
0.0
122
1.0
132
0.0
 79
     0
146
0.0
  0
ENDTAB
  0
TABLE
  2
LTYPE
  5
5
330
0
100
AcDbSymbolTable
 70
     5
  0
LTYPE
  5
12
330
5
100
AcDbSymbolTableRecord
100
AcDbLinetypeTableRecord
  2
BYBLOCK
 70
     0
  3

 72
    65
 73
     0
 40
0.0
  0
LTYPE
  5
13
330
5
100
AcDbSymbolTableRecord
100
AcDbLinetypeTableRecord
  2
BYLAYER
 70
     0
  3

 72
    65
 73
     0
 40
0.0
  0
LTYPE
  5
14
330
5
100
AcDbSymbolTableRecord
100
AcDbLinetypeTableRecord
  2
CONTINUOUS
 70
     0
  3
Solid line
 72
    65
 73
     0
 40
0.0
  0
LTYPE
  5
22
330
5
100
AcDbSymbolTableRecord
100
AcDbLinetypeTableRecord
  2
CENTER2
 70
     0
  3
Center (.5x) ___ _ ___ _ ___ _ ___ _ ___ _ ___
 72
    65
 73
     4
 40
28.575
 49
19.05
 74
     0
 49
-3.174999999999999
 74
     0
 49
3.174999999999999
 74
     0
 49
-3.174999999999999
 74
     0
  0
ENDTAB
  0
TABLE
  2
LAYER
  5
2
330
0
100
AcDbSymbolTable
 70
    16
  0
LAYER
  5
E
330
2
100
AcDbSymbolTableRecord
100
AcDbLayerTableRecord
  2
0
 70
     0
 62
     7
  6
CONTINUOUS
370
    -3
390
1631
  0
LAYER
  5
25
330
2
100
AcDbSymbolTableRecord
100
AcDbLayerTableRecord
  2
外形線
 70
     0
 62
     7
  6
CONTINUOUS
370
    -3
390
1631
  0
LAYER
  5
26
330
2
100
AcDbSymbolTableRecord
100
AcDbLayerTableRecord
  2
寸法線
 70
     0
 62
     2
  6
CONTINUOUS
370
    -3
390
1631
  0
LAYER
  5
27
330
2
100
AcDbSymbolTableRecord
100
AcDbLayerTableRecord
  2
中心線
 70
     0
 62
     4
  6
CENTER2
370
    -3
390
1631
  0
LAYER
  5
2A
330
2
100
AcDbSymbolTableRecord
100
AcDbLayerTableRecord
  2
ﾊｯﾁﾝｸ
 70
     0
 62
     4
  6
CONTINUOUS
370
    -3
390
1631
  0
LAYER
  5
2B
330
2
100
AcDbSymbolTableRecord
100
AcDbLayerTableRecord
  2
文字
 70
     0
 62
     6
  6
CONTINUOUS
370
    -3
390
1631
  0
LAYER
  5
2C
330
2
100
AcDbSymbolTableRecord
100
AcDbLayerTableRecord
  2
目盛
 70
     0
 62
    70
  6
CONTINUOUS
370
    -3
390
1631
  0
LAYER
  5
2D
330
2
100
AcDbSymbolTableRecord
100
AcDbLayerTableRecord
  2
針
 70
     0
 62
     5
  6
CONTINUOUS
370
    -3
390
1631
  0
LAYER
  5
53
330
2
100
AcDbSymbolTableRecord
100
AcDbLayerTableRecord
  2
DEFPOINTS
 70
     0
 62
     7
  6
CONTINUOUS
290
     0
370
    -3
390
1631
  0
LAYER
  5
A5
330
2
100
AcDbSymbolTableRecord
100
AcDbLayerTableRecord
  2
C
 70
     0
 62
     7
  6
CONTINUOUS
370
    -3
390
1631
  0
LAYER
  5
C1B
330
2
100
AcDbSymbolTableRecord
100
AcDbLayerTableRecord
  2
ROGO
 70
     0
 62
     6
  6
CONTINUOUS
370
    -3
390
1631
  0
ENDTAB
  0
TABLE
  2
STYLE
  5
3
330
0
100
AcDbSymbolTable
 70
     4
  0
STYLE
  5
F
330
3
100
AcDbSymbolTableRecord
100
AcDbTextStyleTableRecord
  2
STANDARD
 70
     0
 40
0.0
 41
1.0
 50
0.0
 71
     0
 42
2.5
  3
txt
  4

  0
STYLE
  5
3F
330
3
100
AcDbSymbolTableRecord
100
AcDbTextStyleTableRecord
  2
STYLE3
 70
     0
 40
0.0
 41
1.0
 50
0.0
 71
     0
 42
3.0
  3
romans.shx
  4
bigfont.shx
  0
ENDTAB
  0
TABLE
  2
VIEW
  5
6
330
0
100
AcDbSymbolTable
 70
     0
  0
ENDTAB
  0
TABLE
  2
UCS
  5
7
330
0
100
AcDbSymbolTable
 70
     0
  0
ENDTAB
  0
TABLE
  2
APPID
  5
9
330
0
100
AcDbSymbolTable
 70
     2
  0
APPID
  5
10
330
9
100
AcDbSymbolTableRecord
100
AcDbRegAppTableRecord
  2
ACAD
 70
     0
  0
APPID
  5
164E
330
9
100
AcDbSymbolTableRecord
100
AcDbRegAppTableRecord
  2
ACAD_PSEXT
 70
     0
  0
ENDTAB
  0
TABLE
  2
DIMSTYLE
  5
A
330
0
100
AcDbSymbolTable
 70
     3
100
AcDbDimStyleTable
 71
     1
340
8F
  0
DIMSTYLE
105
1D
330
A
100
AcDbSymbolTableRecord
100
AcDbDimStyleTableRecord
  2
STANDARD
 70
     0
 41
2.5
 42
0.625
 43
3.75
 44
1.25
 73
     0
 74
     0
 77
     1
 78
     8
140
2.5
141
2.5
143
0.0394
147
0.625
171
     4
172
     1
273
     8
274
     4
277
     6
340
F
  0
DIMSTYLE
105
8F
102
{ACAD_REACTORS
330
121C
330
12A2
330
12BA
330
12D2
330
12DF
330
1830
330
1D5C
102
}
330
A
100
AcDbSymbolTableRecord
100
AcDbDimStyleTableRecord
  2
STYLE3
 70
     0
 41
2.5
 42
0.0
 43
3.75
 44
1.25
 73
     0
 74
     0
 77
     1
 78
     8
140
2.5
141
2.5
143
0.0394
147
0.625
171
     4
172
     1
173
     1
176
     2
177
     2
178
     6
271
     1
273
     8
274
     4
340
3F
341
45
343
45
344
45
  0
ENDTAB
  0
TABLE
  2
BLOCK_RECORD
  5
1
330
0
100
AcDbSymbolTable
 70
    13
  0
BLOCK_RECORD
  5
18
330
1
100
AcDbSymbolTableRecord
100
AcDbBlockTableRecord
  2
*MODEL_SPACE
340
1638
  0
BLOCK_RECORD
  5
15
330
1
100
AcDbSymbolTableRecord
100
AcDbBlockTableRecord
  2
*PAPER_SPACE
340
1639
  0
BLOCK_RECORD
  5
45
330
1
100
AcDbSymbolTableRecord
100
AcDbBlockTableRecord
  2
_OPEN
340
0
102
{BLKREFS
331
100B
331
100C
331
101D
331
101E
331
1037
331
1038
331
1049
331
104A
331
1052
331
1053
331
113E
331
113F
331
1148
331
1149
331
14C1
331
14C2
331
14CA
331
150F
331
1DFF
331
1E46
331
1E47
331
1E4F
331
1E50
331
1E58
331
1E59
331
1E63
331
1E64
331
1E6C
331
1E6D
331
1E75
331
1E76
331
1E7E
331
1E7F
102
}
  0
BLOCK_RECORD
  5
1210
330
1
100
AcDbSymbolTableRecord
100
AcDbBlockTableRecord
  2
*D1
340
0
  0
BLOCK_RECORD
  5
1296
330
1
100
AcDbSymbolTableRecord
100
AcDbBlockTableRecord
  2
*D3
340
0
  0
BLOCK_RECORD
  5
12AE
330
1
100
AcDbSymbolTableRecord
100
AcDbBlockTableRecord
  2
*D4
340
0
  0
BLOCK_RECORD
  5
12C6
330
1
100
AcDbSymbolTableRecord
100
AcDbBlockTableRecord
  2
*D5
340
0
  0
BLOCK_RECORD
  5
12D3
330
1
100
AcDbSymbolTableRecord
100
AcDbBlockTableRecord
  2
*D6
340
0
  0
BLOCK_RECORD
  5
1839
330
1
100
AcDbSymbolTableRecord
100
AcDbBlockTableRecord
  2
*D9
340
0
  0
BLOCK_RECORD
  5
1D5D
330
1
100
AcDbSymbolTableRecord
100
AcDbBlockTableRecord
  2
*D10
340
0
  0
ENDTAB
  0
ENDSEC
  0
SECTION
  2
BLOCKS
  0
BLOCK
  5
19
330
18
100
AcDbEntity
  8
0
100
AcDbBlockBegin
  2
*MODEL_SPACE
 70
     0
 10
0.0
 20
0.0
 30
0.0
  3
*MODEL_SPACE
  1

  0
ENDBLK
  5
1A
330
18
100
AcDbEntity
  8
0
100
AcDbBlockEnd
  0
BLOCK
  5
16
330
15
100
AcDbEntity
 67
     1
  8
0
100
AcDbBlockBegin
  2
*PAPER_SPACE
 70
     0
 10
0.0
 20
0.0
 30
0.0
  3
*PAPER_SPACE
  1

  0
ENDBLK
  5
17
330
15
100
AcDbEntity
 67
     1
  8
0
100
AcDbBlockEnd
  0
BLOCK
  5
46
330
45
100
AcDbEntity
  8
0
100
AcDbBlockBegin
  2
_OPEN
 70
     0
 10
0.0
 20
0.0
 30
0.0
  3
_OPEN
  1

  0
LINE
  5
47
330
45
100
AcDbEntity
  8
0
  6
ByBlock
 62
     0
100
AcDbLine
 10
-1.0
 20
0.1666666666666666
 30
0.0
 11
0.0
 21
0.0
 31
0.0
  0
LINE
  5
48
330
45
100
AcDbEntity
  8
0
  6
ByBlock
 62
     0
100
AcDbLine
 10
0.0
 20
0.0
 30
0.0
 11
-1.0
 21
-0.1666666666666666
 31
0.0
  0
LINE
  5
49
330
45
100
AcDbEntity
  8
0
  6
ByBlock
 62
     0
100
AcDbLine
 10
0.0
 20
0.0
 30
0.0
 11
-1.0
 21
0.0
 31
0.0
  0
ENDBLK
  5
4A
330
45
100
AcDbEntity
  8
0
100
AcDbBlockEnd
  0
BLOCK
  5
121D
330
1210
100
AcDbEntity
  8
0
100
AcDbBlockBegin
  2
*D1
 70
     1
 10
0.0
 20
0.0
 30
0.0
  3
*D1
  1

  0
LINE
  5
1E7B
330
1210
100
AcDbEntity
  8
文字
 62
     2
370
    -2
100
AcDbLine
 10
187.6917090131953
 20
163.0565510882645
 30
0.0
 11
187.6917090131953
 21
167.4191243779965
 31
0.0
  0
LINE
  5
1E7C
330
1210
100
AcDbEntity
  8
文字
 62
     2
370
    -2
100
AcDbLine
 10
200.6917090131953
 20
151.5014296892875
 30
0.0
 11
200.6917090131953
 21
167.4191243779965
 31
0.0
  0
LINE
  5
1E7D
330
1210
100
AcDbEntity
  8
文字
 62
     2
370
    -2
100
AcDbLine
 10
190.1917090131953
 20
166.1691243779965
 30
0.0
 11
198.1917090131953
 21
166.1691243779965
 31
0.0
  0
INSERT
  5
1E7E
330
1210
100
AcDbEntity
  8
文字
 62
     2
370
    -2
100
AcDbBlockReference
  2
_OPEN
 10
187.6917090131953
 20
166.1691243779965
 30
0.0
 41
2.5
 42
2.5
 43
2.5
 50
180.0
  0
INSERT
  5
1E7F
330
1210
100
AcDbEntity
  8
文字
 62
     2
370
    -2
100
AcDbBlockReference
  2
_OPEN
 10
200.6917090131953
 20
166.1691243779965
 30
0.0
 41
2.5
 42
2.5
 43
2.5
  0
MTEXT
  5
1E80
330
1210
100
AcDbEntity
  8
文字
 62
     6
100
AcDbMText
 10
194.1917090131953
 20
168.0441243779965
 30
0.0
 40
2.5
 41
0.0
 71
     5
 72
     1
  1
\A1;6.5
  7
STYLE3
 73
     1
 44
1.0
  0
POINT
  5
1E81
330
1210
100
AcDbEntity
  8
DEFPOINTS
 62
     0
100
AcDbPoint
 10
187.6917090131953
 20
163.0565510882645
 30
0.0
  0
POINT
  5
1E82
330
1210
100
AcDbEntity
  8
DEFPOINTS
 62
     0
100
AcDbPoint
 10
200.6917090131953
 20
151.5014296892875
 30
0.0
  0
POINT
  5
1E83
330
1210
100
AcDbEntity
  8
DEFPOINTS
 62
     0
100
AcDbPoint
 10
200.6917090131953
 20
166.1691243779965
 30
0.0
  0
ENDBLK
  5
1227
330
1210
100
AcDbEntity
  8
0
100
AcDbBlockEnd
  0
BLOCK
  5
12A3
330
1296
100
AcDbEntity
  8
0
100
AcDbBlockBegin
  2
*D3
 70
     1
 10
0.0
 20
0.0
 30
0.0
  3
*D3
  1

  0
LINE
  5
1E72
330
1296
100
AcDbEntity
  8
寸法線
 62
     2
370
    -2
100
AcDbLine
 10
183.1917090131953
 20
56.30142968928751
 30
0.0
 11
170.5898549087178
 21
56.30142968928752
 31
0.0
  0
LINE
  5
1E73
330
1296
100
AcDbEntity
  8
寸法線
 62
     2
370
    -2
100
AcDbLine
 10
172.4503378690019
 20
38.30142968928752
 30
0.0
 11
170.5898549087178
 21
38.30142968928752
 31
0.0
  0
LINE
  5
1E74
330
1296
100
AcDbEntity
  8
寸法線
 62
     2
370
    -2
100
AcDbLine
 10
171.8398549087178
 20
53.80142968928752
 30
0.0
 11
171.8398549087178
 21
40.80142968928751
 31
0.0
  0
INSERT
  5
1E75
330
1296
100
AcDbEntity
  8
寸法線
 62
     2
370
    -2
100
AcDbBlockReference
  2
_OPEN
 10
171.8398549087178
 20
56.30142968928752
 30
0.0
 41
2.5
 42
2.5
 43
2.5
 50
90.0
  0
INSERT
  5
1E76
330
1296
100
AcDbEntity
  8
寸法線
 62
     2
370
    -2
100
AcDbBlockReference
  2
_OPEN
 10
171.8398549087178
 20
38.30142968928752
 30
0.0
 41
2.5
 42
2.5
 43
2.5
 50
270.0
  0
MTEXT
  5
1E77
330
1296
100
AcDbEntity
  8
寸法線
 62
     6
100
AcDbMText
 10
169.9648549087178
 20
47.30142968928755
 30
0.0
 40
2.5
 41
0.0
 71
     5
 72
     1
  1
\A1;9
  7
STYLE3
 11
0.0000000000000001
 21
1.0
 31
0.0
 73
     1
 44
1.0
  0
POINT
  5
1E78
330
1296
100
AcDbEntity
  8
DEFPOINTS
 62
     0
100
AcDbPoint
 10
183.1917090131953
 20
56.30142968928751
 30
0.0
  0
POINT
  5
1E79
330
1296
100
AcDbEntity
  8
DEFPOINTS
 62
     0
100
AcDbPoint
 10
172.4503378690019
 20
38.30142968928752
 30
0.0
  0
POINT
  5
1E7A
330
1296
100
AcDbEntity
  8
DEFPOINTS
 62
     0
100
AcDbPoint
 10
171.8398549087178
 20
38.30142968928752
 30
0.0
  0
ENDBLK
  5
12AD
330
1296
100
AcDbEntity
  8
0
100
AcDbBlockEnd
  0
BLOCK
  5
12BB
330
12AE
100
AcDbEntity
  8
0
100
AcDbBlockBegin
  2
*D4
 70
     1
 10
0.0
 20
0.0
 30
0.0
  3
*D4
  1

  0
LINE
  5
1E69
330
12AE
100
AcDbEntity
  8
寸法線
 62
     2
370
    -2
100
AcDbLine
 10
155.6585121877553
 20
38.30142968928752
 30
0.0
 11
151.6534720017993
 21
38.30142968928752
 31
0.0
  0
LINE
  5
1E6A
330
12AE
100
AcDbEntity
  8
寸法線
 62
     2
370
    -2
100
AcDbLine
 10
158.9996089212709
 20
84.50142968928748
 30
0.0
 11
151.6534720017994
 21
84.50142968928748
 31
0.0
  0
LINE
  5
1E6B
330
12AE
100
AcDbEntity
  8
寸法線
 62
     2
370
    -2
100
AcDbLine
 10
152.9034720017993
 20
40.80142968928751
 30
0.0
 11
152.9034720017994
 21
82.00142968928748
 31
0.0
  0
INSERT
  5
1E6C
330
12AE
100
AcDbEntity
  8
寸法線
 62
     2
370
    -2
100
AcDbBlockReference
  2
_OPEN
 10
152.9034720017993
 20
38.30142968928752
 30
0.0
 41
2.5
 42
2.5
 43
2.5
 50
270.0
  0
INSERT
  5
1E6D
330
12AE
100
AcDbEntity
  8
寸法線
 62
     2
370
    -2
100
AcDbBlockReference
  2
_OPEN
 10
152.9034720017994
 20
84.50142968928748
 30
0.0
 41
2.5
 42
2.5
 43
2.5
 50
90.0
  0
MTEXT
  5
1E6E
330
12AE
100
AcDbEntity
  8
寸法線
 62
     6
100
AcDbMText
 10
151.0284720017994
 20
61.40142968928752
 30
0.0
 40
2.5
 41
0.0
 71
     5
 72
     1
  1
\A1;23.1
  7
STYLE3
 11
0.0000000000000001
 21
1.0
 31
0.0
 73
     1
 44
1.0
  0
POINT
  5
1E6F
330
12AE
100
AcDbEntity
  8
DEFPOINTS
 62
     0
100
AcDbPoint
 10
155.6585121877553
 20
38.30142968928752
 30
0.0
  0
POINT
  5
1E70
330
12AE
100
AcDbEntity
  8
DEFPOINTS
 62
     0
100
AcDbPoint
 10
158.9996089212709
 20
84.50142968928748
 30
0.0
  0
POINT
  5
1E71
330
12AE
100
AcDbEntity
  8
DEFPOINTS
 62
     0
100
AcDbPoint
 10
152.9034720017994
 20
84.50142968928748
 30
0.0
  0
ENDBLK
  5
12C5
330
12AE
100
AcDbEntity
  8
0
100
AcDbBlockEnd
  0
BLOCK
  5
12E0
330
12C6
100
AcDbEntity
  8
0
100
AcDbBlockBegin
  2
*D5
 70
     1
 10
0.0
 20
0.0
 30
0.0
  3
*D5
  1

  0
LINE
  5
1E60
330
12C6
100
AcDbEntity
  8
寸法線
 62
     2
370
    -2
100
AcDbLine
 10
88.31161213630391
 20
38.30142968928752
 30
0.0
 11
39.20548233577618
 21
38.30142968928753
 31
0.0
  0
LINE
  5
1E61
330
12C6
100
AcDbEntity
  8
寸法線
 62
     2
370
    -2
100
AcDbLine
 10
44.36041054701274
 20
120.5014296892874
 30
0.0
 11
39.20548233577619
 21
120.5014296892874
 31
0.0
  0
LINE
  5
1E62
330
12C6
100
AcDbEntity
  8
寸法線
 62
     2
370
    -2
100
AcDbLine
 10
40.45548233577617
 20
40.80142968928753
 30
0.0
 11
40.45548233577619
 21
118.0014296892875
 31
0.0
  0
INSERT
  5
1E63
330
12C6
100
AcDbEntity
  8
寸法線
 62
     2
370
    -2
100
AcDbBlockReference
  2
_OPEN
 10
40.45548233577617
 20
38.30142968928753
 30
0.0
 41
2.5
 42
2.5
 43
2.5
 50
270.0
  0
INSERT
  5
1E64
330
12C6
100
AcDbEntity
  8
寸法線
 62
     2
370
    -2
100
AcDbBlockReference
  2
_OPEN
 10
40.45548233577619
 20
120.5014296892874
 30
0.0
 41
2.5
 42
2.5
 43
2.5
 50
90.0
  0
MTEXT
  5
1E65
330
12C6
100
AcDbEntity
  8
寸法線
 62
     6
100
AcDbMText
 10
38.58048233577618
 20
79.40142968928751
 30
0.0
 40
2.5
 41
0.0
 71
     5
 72
     1
  1
\A1;41.1
  7
STYLE3
 11
0.0000000000000001
 21
1.0
 31
0.0
 73
     1
 44
1.0
  0
POINT
  5
1E66
330
12C6
100
AcDbEntity
  8
DEFPOINTS
 62
     0
100
AcDbPoint
 10
88.31161213630391
 20
38.30142968928752
 30
0.0
  0
POINT
  5
1E67
330
12C6
100
AcDbEntity
  8
DEFPOINTS
 62
     0
100
AcDbPoint
 10
44.36041054701274
 20
120.5014296892874
 30
0.0
  0
POINT
  5
1E68
330
12C6
100
AcDbEntity
  8
DEFPOINTS
 62
     0
100
AcDbPoint
 10
40.45548233577619
 20
120.5014296892874
 30
0.0
  0
ENDBLK
  5
12EA
330
12C6
100
AcDbEntity
  8
0
100
AcDbBlockEnd
  0
BLOCK
  5
12EB
330
12D3
100
AcDbEntity
  8
0
100
AcDbBlockBegin
  2
*D6
 70
     1
 10
0.0
 20
0.0
 30
0.0
  3
*D6
  1

  0
LINE
  5
1E4C
330
12D3
100
AcDbEntity
  8
寸法線
 62
     2
370
    -2
100
AcDbLine
 10
39.20548233577619
 20
38.30142968928753
 30
0.0
 11
32.18353598413009
 21
38.30142968928753
 31
0.0
  0
LINE
  5
1E4D
330
12D3
100
AcDbEntity
  8
寸法線
 62
     2
370
    -2
100
AcDbLine
 10
34.22930470546532
 20
160.5014296892875
 30
0.0
 11
32.18353598413012
 21
160.5014296892875
 31
0.0
  0
LINE
  5
1E4E
330
12D3
100
AcDbEntity
  8
寸法線
 62
     2
370
    -2
100
AcDbLine
 10
33.43353598413009
 20
40.80142968928752
 30
0.0
 11
33.43353598413012
 21
158.0014296892874
 31
0.0
  0
INSERT
  5
1E4F
330
12D3
100
AcDbEntity
  8
寸法線
 62
     2
370
    -2
100
AcDbBlockReference
  2
_OPEN
 10
33.43353598413009
 20
38.30142968928753
 30
0.0
 41
2.5
 42
2.5
 43
2.5
 50
270.0
  0
INSERT
  5
1E50
330
12D3
100
AcDbEntity
  8
寸法線
 62
     2
370
    -2
100
AcDbBlockReference
  2
_OPEN
 10
33.43353598413012
 20
160.5014296892875
 30
0.0
 41
2.5
 42
2.5
 43
2.5
 50
90.0
  0
MTEXT
  5
1E51
330
12D3
100
AcDbEntity
  8
寸法線
 62
     6
100
AcDbMText
 10
31.55853598413009
 20
99.40142968928752
 30
0.0
 40
2.5
 41
0.0
 71
     5
 72
     1
  1
\A1;61.1
  7
STYLE3
 11
0.0000000000000001
 21
1.0
 31
0.0
 73
     1
 44
1.0
  0
POINT
  5
1E52
330
12D3
100
AcDbEntity
  8
DEFPOINTS
 62
     0
100
AcDbPoint
 10
39.20548233577619
 20
38.30142968928753
 30
0.0
  0
POINT
  5
1E53
330
12D3
100
AcDbEntity
  8
DEFPOINTS
 62
     0
100
AcDbPoint
 10
34.22930470546532
 20
160.5014296892875
 30
0.0
  0
POINT
  5
1E54
330
12D3
100
AcDbEntity
  8
DEFPOINTS
 62
     0
100
AcDbPoint
 10
33.43353598413012
 20
160.5014296892875
 30
0.0
  0
ENDBLK
  5
12F5
330
12D3
100
AcDbEntity
  8
0
100
AcDbBlockEnd
  0
BLOCK
  5
1845
330
1839
100
AcDbEntity
  8
0
100
AcDbBlockBegin
  2
*D9
 70
     1
 10
0.0
 20
0.0
 30
0.0
  3
*D9
  1

  0
LINE
  5
1E55
330
1839
100
AcDbEntity
  8
寸法線
 62
     2
370
    -2
100
AcDbLine
 10
75.11245409778661
 20
92.45179106284089
 30
0.0
 11
69.36212143368976
 21
80.23171211999596
 31
0.0
  0
LINE
  5
1E56
330
1839
100
AcDbEntity
  8
寸法線
 62
     2
370
    -2
100
AcDbLine
 10
101.5107701748211
 20
92.45179106284089
 30
0.0
 11
107.261102838918
 21
80.23171211999596
 31
0.0
  0
ARC
  5
1E57
330
1839
100
AcDbEntity
  8
寸法線
 62
     2
370
    -2
100
AcDbCircle
 10
88.31161213630389
 20
120.5014296892872
 30
0.0
 40
43.25543057873884
100
AcDbArc
 50
248.111940048169
 51
291.888059951831
  0
INSERT
  5
1E58
330
1839
100
AcDbEntity
  8
寸法線
 62
     2
370
    -2
100
AcDbBlockReference
  2
_OPEN
 10
69.89434554814611
 20
81.36274593557848
 30
0.0
 41
2.5
 42
2.5
 43
2.5
 50
156.4559700240844
  0
INSERT
  5
1E59
330
1839
100
AcDbEntity
  8
寸法線
 62
     2
370
    -2
100
AcDbBlockReference
  2
_OPEN
 10
106.7288787244617
 20
81.36274593557848
 30
0.0
 41
2.5
 42
2.5
 43
2.5
 50
23.54402997591563
  0
MTEXT
  5
1E5A
330
1839
100
AcDbEntity
  8
寸法線
 62
     6
100
AcDbMText
 10
88.31161213630387
 20
79.12099911054835
 30
0.0
 40
2.5
 41
0.0
 71
     5
 72
     1
  1
\A1;50.4°
  7
STYLE3
 73
     1
 44
1.0
  0
POINT
  5
1E5B
330
1839
100
AcDbEntity
  8
DEFPOINTS
 62
     0
100
AcDbPoint
 10
81.99272783559051
 20
77.71002896733965
 30
0.0
  0
POINT
  5
1E5C
330
1839
100
AcDbEntity
  8
DEFPOINTS
 62
     0
100
AcDbPoint
 10
75.11245409778661
 20
92.45179106284089
 30
0.0
  0
POINT
  5
1E5D
330
1839
100
AcDbEntity
  8
DEFPOINTS
 62
     0
100
AcDbPoint
 10
101.5107701748211
 20
92.45179106284089
 30
0.0
  0
POINT
  5
1E5E
330
1839
100
AcDbEntity
  8
DEFPOINTS
 62
     0
100
AcDbPoint
 10
89.58895001099902
 20
117.7869485318894
 30
0.0
  0
POINT
  5
1E5F
330
1839
100
AcDbEntity
  8
DEFPOINTS
 62
     0
100
AcDbPoint
 10
87.03427426160876
 20
117.7869485318894
 30
0.0
  0
ENDBLK
  5
1846
330
1839
100
AcDbEntity
  8
0
100
AcDbBlockEnd
  0
BLOCK
  5
1D67
330
1D5D
100
AcDbEntity
  8
0
100
AcDbBlockBegin
  2
*D10
 70
     1
 10
0.0
 20
0.0
 30
0.0
  3
*D10
  1

  0
LINE
  5
1E43
330
1D5D
100
AcDbEntity
  8
寸法線
 62
     2
370
    -2
100
AcDbLine
 10
88.31161213630389
 20
89.50142968928748
 30
0.0
 11
46.59026206947838
 21
89.50142968928748
 31
0.0
  0
LINE
  5
1E44
330
1D5D
100
AcDbEntity
  8
寸法線
 62
     2
370
    -2
100
AcDbLine
 10
88.31161213630389
 20
151.5014296892875
 30
0.0
 11
46.5902620694784
 21
151.5014296892875
 31
0.0
  0
LINE
  5
1E45
330
1D5D
100
AcDbEntity
  8
寸法線
 62
     2
370
    -2
100
AcDbLine
 10
47.84026206947838
 20
92.00142968928748
 30
0.0
 11
47.8402620694784
 21
149.0014296892875
 31
0.0
  0
INSERT
  5
1E46
330
1D5D
100
AcDbEntity
  8
寸法線
 62
     2
370
    -2
100
AcDbBlockReference
  2
_OPEN
 10
47.84026206947838
 20
89.50142968928748
 30
0.0
 41
2.5
 42
2.5
 43
2.5
 50
270.0
  0
INSERT
  5
1E47
330
1D5D
100
AcDbEntity
  8
寸法線
 62
     2
370
    -2
100
AcDbBlockReference
  2
_OPEN
 10
47.8402620694784
 20
151.5014296892875
 30
0.0
 41
2.5
 42
2.5
 43
2.5
 50
90.0
  0
MTEXT
  5
1E48
330
1D5D
100
AcDbEntity
  8
寸法線
 62
     6
100
AcDbMText
 10
45.96526206947837
 20
120.5014296892875
 30
0.0
 40
2.5
 41
0.0
 71
     5
 72
     1
  1
\A1;φ31
  7
STYLE3
 11
0.0000000000000001
 21
1.0
 31
0.0
 73
     1
 44
1.0
  0
POINT
  5
1E49
330
1D5D
100
AcDbEntity
  8
DEFPOINTS
 62
     0
100
AcDbPoint
 10
88.31161213630389
 20
89.50142968928748
 30
0.0
  0
POINT
  5
1E4A
330
1D5D
100
AcDbEntity
  8
DEFPOINTS
 62
     0
100
AcDbPoint
 10
88.31161213630389
 20
151.5014296892875
 30
0.0
  0
POINT
  5
1E4B
330
1D5D
100
AcDbEntity
  8
DEFPOINTS
 62
     0
100
AcDbPoint
 10
47.8402620694784
 20
151.5014296892875
 30
0.0
  0
ENDBLK
  5
1D68
330
1D5D
100
AcDbEntity
  8
0
100
AcDbBlockEnd
  0
ENDSEC
  0
SECTION
  2
ENTITIES
  0
LWPOLYLINE
  5
26C
330
18
100
AcDbEntity
  8
C
100
AcDbPolyline
 90
        5
 70
     0
 43
0.4
 10
0.0
 20
195.0
 10
255.0
 20
195.0
 10
255.0
 20
0.0
 10
0.0
 20
0.0
 10
0.0
 20
195.0
  0
LINE
  5
2C4
330
18
100
AcDbEntity
  8
中心線
100
AcDbLine
 10
43.96632525334337
 20
120.5014296892874
 30
0.0
 11
128.3283290690512
 21
120.5014296892874
 31
0.0
  0
LINE
  5
2C5
330
18
100
AcDbEntity
  8
中心線
100
AcDbLine
 10
88.31161213630389
 20
163.8070590067638
 30
0.0
 11
88.31161213630389
 21
35.18349062363404
 31
0.0
  0
CIRCLE
  5
2C7
330
18
100
AcDbEntity
  8
外形線
100
AcDbCircle
 10
88.31161213630389
 20
120.5014296892874
 30
0.0
 40
36.0
  0
LINE
  5
2C9
330
18
100
AcDbEntity
  8
外形線
100
AcDbLine
 10
82.31161213630389
 20
65.1014296892875
 30
0.0
 11
94.31161213630389
 21
65.1014296892875
 31
0.0
  0
LINE
  5
2CD
330
18
100
AcDbEntity
  8
外形線
100
AcDbLine
 10
96.3116121363039
 20
85.401572139719
 30
0.0
 11
96.3116121363039
 21
67.10142968928749
 31
0.0
  0
LINE
  5
2CE
330
18
100
AcDbEntity
  8
外形線
100
AcDbLine
 10
80.31161213630388
 20
85.40157213971898
 30
0.0
 11
80.31161213630388
 21
67.10142968928749
 31
0.0
  0
LINE
  5
2CF
330
18
100
AcDbEntity
  8
外形線
100
AcDbLine
 10
91.81161213630389
 20
65.10142968928747
 30
0.0
 11
91.81161213630389
 21
56.30142968928751
 31
0.0
  0
LINE
  5
2D0
330
18
100
AcDbEntity
  8
外形線
100
AcDbLine
 10
84.81161213630389
 20
65.10142968928747
 30
0.0
 11
84.81161213630391
 21
56.30142968928751
 31
0.0
  0
ARC
  5
2F7
330
18
100
AcDbEntity
  8
外形線
100
AcDbCircle
 10
82.31161213630389
 20
67.10142968928749
 30
0.0
 40
2.0
100
AcDbArc
 50
180.0000000000001
 51
270.0
  0
ARC
  5
2F8
330
18
100
AcDbEntity
  8
外形線
100
AcDbCircle
 10
94.31161213630389
 20
67.10142968928749
 30
0.0
 40
2.0
100
AcDbArc
 50
270.0
 51
0.0
  0
LINE
  5
2F9
330
18
100
AcDbEntity
  8
中心線
100
AcDbLine
 10
187.6917090131953
 20
163.8035503679908
 30
0.0
 11
187.6917090131953
 21
34.66161106706869
 31
0.0
  0
LINE
  5
2FB
330
18
100
AcDbEntity
  8
中心線
100
AcDbLine
 10
158.9734598817031
 20
120.5014296892874
 30
0.0
 11
204.4037851726673
 21
120.5014296892874
 31
0.0
  0
LINE
  5
2FE
330
18
100
AcDbEntity
  8
外形線
100
AcDbLine
 10
195.6917090131953
 20
88.50142968928748
 30
0.0
 11
195.6917090131953
 21
67.10142968928749
 31
0.0
  0
LINE
  5
2FF
330
18
100
AcDbEntity
  8
外形線
100
AcDbLine
 10
179.6917090131953
 20
88.50142968928748
 30
0.0
 11
179.6917090131953
 21
67.10142968928749
 31
0.0
  0
LINE
  5
300
330
18
100
AcDbEntity
  8
外形線
100
AcDbLine
 10
184.1917090131953
 20
65.10142968928747
 30
0.0
 11
184.1917090131953
 21
56.30142968928751
 31
0.0
  0
LINE
  5
301
330
18
100
AcDbEntity
  8
外形線
100
AcDbLine
 10
191.1917090131953
 20
65.10142968928747
 30
0.0
 11
191.1917090131953
 21
56.30142968928751
 31
0.0
  0
LINE
  5
303
330
18
100
AcDbEntity
  8
外形線
100
AcDbLine
 10
181.6917090131953
 20
65.1014296892875
 30
0.0
 11
193.6917090131953
 21
65.1014296892875
 31
0.0
  0
ARC
  5
304
330
18
100
AcDbEntity
  8
外形線
100
AcDbCircle
 10
181.6917090131953
 20
67.10142968928749
 30
0.0
 40
2.0
100
AcDbArc
 50
180.0000000000001
 51
270.0
  0
ARC
  5
305
330
18
100
AcDbEntity
  8
外形線
100
AcDbCircle
 10
193.6917090131953
 20
67.10142968928749
 30
0.0
 40
2.0
100
AcDbArc
 50
270.0
 51
0.0
  0
LINE
  5
308
330
18
100
AcDbEntity
  8
外形線
100
AcDbLine
 10
175.6917090131953
 20
152.5014296892875
 30
0.0
 11
199.2917090131953
 21
152.5014296892874
 31
0.0
  0
LINE
  5
309
330
18
100
AcDbEntity
  8
外形線
100
AcDbLine
 10
175.6917090131953
 20
88.50142968928745
 30
0.0
 11
199.2917090131953
 21
88.50142968928748
 31
0.0
  0
ARC
  5
30A
330
18
100
AcDbEntity
  8
外形線
100
AcDbCircle
 10
187.6917090131953
 20
149.5014296892875
 30
0.0
 40
11.0
100
AcDbArc
 50
64.12790403705495
 51
115.8720959629453
  0
LINE
  5
30E
330
18
100
AcDbEntity
  8
外形線
100
AcDbLine
 10
182.8917090131953
 20
159.3989041146143
 30
0.0
 11
192.4917090131953
 21
159.3989041146143
 31
0.0
  0
LINE
  5
30F
330
18
100
AcDbEntity
  8
外形線
100
AcDbLine
 10
199.2917090131953
 20
152.5014296892874
 30
0.0
 11
199.2917090131953
 21
88.50142968928748
 31
0.0
  0
LINE
  5
312
330
18
100
AcDbEntity
  8
外形線
100
AcDbLine
 10
192.4917090131953
 20
159.3989041146143
 30
0.0
 11
192.4917090131953
 21
152.5014296892874
 31
0.0
  0
LINE
  5
313
330
18
100
AcDbEntity
  8
外形線
100
AcDbLine
 10
182.8917090131953
 20
159.3989041146143
 30
0.0
 11
182.8917090131953
 21
152.5014296892875
 31
0.0
  0
LINE
  5
316
330
18
100
AcDbEntity
  8
ﾊｯﾁﾝｸ
100
AcDbLine
 10
182.8917090131954
 20
154.0158567403331
 30
0.0
 11
185.9996128637971
 21
159.3989041146143
 31
0.0
  0
LINE
  5
319
330
18
100
AcDbEntity
  8
ﾊｯﾁﾝｸ
100
AcDbLine
 10
184.3267552243646
 20
152.5014296892875
 30
0.0
 11
187.6917090131953
 21
158.3297006166636
 31
0.0
  0
LINE
  5
31A
330
18
100
AcDbEntity
  8
ﾊｯﾁﾝｸ
100
AcDbLine
 10
186.6361563011231
 20
152.5014296892875
 30
0.0
 11
187.6917090131953
 21
154.3297006166636
 31
0.0
  0
LINE
  5
31B
330
18
100
AcDbEntity
  8
ﾊｯﾁﾝｸ
100
AcDbLine
 10
182.8917090131954
 20
158.0158567403331
 30
0.0
 11
183.6902117870386
 21
159.3989041146143
 31
0.0
  0
LINE
  5
31C
330
18
100
AcDbEntity
  8
ﾊｯﾁﾝｸ
100
AcDbLine
 10
184.7461626510541
 20
152.5014296892875
 30
0.0
 11
182.8917090131953
 21
155.7134376103397
 31
0.0
  0
LINE
  5
31D
330
18
100
AcDbEntity
  8
ﾊｯﾁﾝｸ
100
AcDbLine
 10
187.0555637278126
 20
152.5014296892875
 30
0.0
 11
183.0733050116215
 21
159.3989041146143
 31
0.0
  0
LINE
  5
31E
330
18
100
AcDbEntity
  8
ﾊｯﾁﾝｸ
100
AcDbLine
 10
187.6917090131954
 20
155.3995937340092
 30
0.0
 11
185.3827060883802
 21
159.3989041146143
 31
0.0
  0
LINE
  5
320
330
18
100
AcDbEntity
  8
ﾊｯﾁﾝｸ
100
AcDbLine
 10
85.43263585708771
 20
156.386126923397
 30
0.0
 11
83.69320813473013
 21
159.3989041146143
 31
0.0
  0
LINE
  5
321
330
18
100
AcDbEntity
  8
ﾊｯﾁﾝｸ
100
AcDbLine
 10
87.24696844992214
 20
156.4856836598931
 30
0.0
 11
88.31161213630389
 21
158.3297006166636
 31
0.0
  0
LINE
  5
324
330
18
100
AcDbEntity
  8
外形線
100
AcDbLine
 10
83.51161213630389
 20
159.3989041146143
 30
0.0
 11
83.51161213630389
 21
156.1799946828519
 31
0.0
  0
LINE
  5
325
330
18
100
AcDbEntity
  8
外形線
100
AcDbLine
 10
93.1116121363039
 20
159.3989041146143
 30
0.0
 11
93.1116121363039
 21
156.1799946828519
 31
0.0
  0
LINE
  5
326
330
18
100
AcDbEntity
  8
ﾊｯﾁﾝｸ
100
AcDbLine
 10
84.85036900054405
 20
156.3346516481786
 30
0.0
 11
86.61951598690569
 21
159.3989041146143
 31
0.0
  0
LINE
  5
327
330
18
100
AcDbEntity
  8
外形線
100
AcDbLine
 10
83.51161213630389
 20
159.3989041146143
 30
0.0
 11
93.1116121363039
 21
159.3989041146143
 31
0.0
  0
ARC
  5
328
330
18
100
AcDbEntity
  8
外形線
100
AcDbCircle
 10
88.31161213630389
 20
149.5014296892875
 30
0.0
 40
11.0
100
AcDbArc
 50
64.12790403705495
 51
115.8720959629453
  0
LINE
  5
329
330
18
100
AcDbEntity
  8
ﾊｯﾁﾝｸ
100
AcDbLine
 10
83.51161213630394
 20
158.0158567403331
 30
0.0
 11
84.3101149101472
 21
159.3989041146143
 31
0.0
  0
LINE
  5
32A
330
18
100
AcDbEntity
  8
ﾊｯﾁﾝｸ
100
AcDbLine
 10
87.67867944237897
 20
156.4958653176587
 30
0.0
 11
86.00260921148873
 21
159.3989041146143
 31
0.0
  0
LINE
  5
32C
330
18
100
AcDbEntity
  8
外形線
100
AcDbLine
 10
175.6917090131953
 20
155.5014296892875
 30
0.0
 11
175.6917090131953
 21
120.5014296892874
 31
0.0
  0
LINE
  5
32D
330
18
100
AcDbEntity
  8
外形線
100
AcDbLine
 10
167.2917090131953
 20
156.5014296892875
 30
0.0
 11
174.6917090131953
 21
156.5014296892875
 31
0.0
  0
LINE
  5
32E
330
18
100
AcDbEntity
  8
外形線
100
AcDbLine
 10
175.6917090131953
 20
155.5014296892875
 30
0.0
 11
174.6917090131953
 21
156.5014296892875
 31
0.0
  0
LINE
  5
32F
330
18
100
AcDbEntity
  8
外形線
100
AcDbLine
 10
165.2917090131954
 20
154.5014296892875
 30
0.0
 11
165.2917090131954
 21
120.5014296892874
 31
0.0
  0
LINE
  5
330
330
18
100
AcDbEntity
  8
外形線
100
AcDbLine
 10
165.2917090131954
 20
154.5014296892875
 30
0.0
 11
167.2917090131953
 21
156.5014296892875
 31
0.0
  0
LINE
  5
331
330
18
100
AcDbEntity
  8
外形線
100
AcDbLine
 10
167.2917090131953
 20
156.5014296892875
 30
0.0
 11
167.2917090131953
 21
120.5014296892874
 31
0.0
  0
LINE
  5
332
330
18
100
AcDbEntity
  8
外形線
100
AcDbLine
 10
174.6917090131953
 20
156.5014296892875
 30
0.0
 11
174.6917090131953
 21
120.5014296892874
 31
0.0
  0
LINE
  5
333
330
18
100
AcDbEntity
  8
ﾊｯﾁﾝｸ
100
AcDbLine
 10
167.2917090131953
 20
154.7014296892874
 30
0.0
 11
174.6917090131953
 21
154.7014296892874
 31
0.0
  0
LINE
  5
334
330
18
100
AcDbEntity
  8
ﾊｯﾁﾝｸ
100
AcDbLine
 10
167.2917090131953
 20
152.7014296892874
 30
0.0
 11
174.6917090131953
 21
152.7014296892874
 31
0.0
  0
LINE
  5
335
330
18
100
AcDbEntity
  8
ﾊｯﾁﾝｸ
100
AcDbLine
 10
167.2917090131953
 20
150.5014296892874
 30
0.0
 11
174.6917090131953
 21
150.5014296892874
 31
0.0
  0
LINE
  5
336
330
18
100
AcDbEntity
  8
ﾊｯﾁﾝｸ
100
AcDbLine
 10
167.2917090131953
 20
148.1014296892875
 30
0.0
 11
174.6917090131953
 21
148.1014296892875
 31
0.0
  0
LINE
  5
337
330
18
100
AcDbEntity
  8
外形線
100
AcDbLine
 10
174.6917090131953
 20
84.50142968928748
 30
0.0
 11
174.6917090131953
 21
120.5014296892875
 31
0.0
  0
LINE
  5
338
330
18
100
AcDbEntity
  8
外形線
100
AcDbLine
 10
167.2917090131953
 20
84.50142968928748
 30
0.0
 11
167.2917090131953
 21
120.5014296892874
 31
0.0
  0
LINE
  5
339
330
18
100
AcDbEntity
  8
外形線
100
AcDbLine
 10
165.2917090131954
 20
86.50142968928747
 30
0.0
 11
165.2917090131954
 21
120.5014296892874
 31
0.0
  0
LINE
  5
33A
330
18
100
AcDbEntity
  8
外形線
100
AcDbLine
 10
175.6917090131953
 20
85.50142968928748
 30
0.0
 11
175.6917090131953
 21
120.5014296892875
 31
0.0
  0
LINE
  5
33B
330
18
100
AcDbEntity
  8
ﾊｯﾁﾝｸ
100
AcDbLine
 10
167.2917090131953
 20
92.90142968928746
 30
0.0
 11
174.6917090131953
 21
92.90142968928746
 31
0.0
  0
LINE
  5
33C
330
18
100
AcDbEntity
  8
ﾊｯﾁﾝｸ
100
AcDbLine
 10
167.2917090131953
 20
90.50142968928748
 30
0.0
 11
174.6917090131953
 21
90.50142968928748
 31
0.0
  0
LINE
  5
33D
330
18
100
AcDbEntity
  8
ﾊｯﾁﾝｸ
100
AcDbLine
 10
167.2917090131953
 20
88.30142968928749
 30
0.0
 11
174.6917090131953
 21
88.30142968928749
 31
0.0
  0
LINE
  5
33E
330
18
100
AcDbEntity
  8
ﾊｯﾁﾝｸ
100
AcDbLine
 10
167.2917090131953
 20
86.30142968928749
 30
0.0
 11
174.6917090131953
 21
86.30142968928749
 31
0.0
  0
LINE
  5
33F
330
18
100
AcDbEntity
  8
外形線
100
AcDbLine
 10
167.2917090131953
 20
84.50142968928748
 30
0.0
 11
174.6917090131953
 21
84.50142968928748
 31
0.0
  0
LINE
  5
340
330
18
100
AcDbEntity
  8
外形線
100
AcDbLine
 10
165.2917090131954
 20
86.50142968928747
 30
0.0
 11
167.2917090131953
 21
84.50142968928748
 31
0.0
  0
LINE
  5
341
330
18
100
AcDbEntity
  8
外形線
100
AcDbLine
 10
175.6917090131953
 20
85.50142968928748
 30
0.0
 11
174.6917090131953
 21
84.50142968928748
 31
0.0
  0
LINE
  5
342
330
18
100
AcDbEntity
  8
ﾊｯﾁﾝｸ
100
AcDbLine
 10
167.2917090131953
 20
120.5014296892874
 30
0.0
 11
174.6917090131953
 21
120.5014296892874
 31
0.0
  0
LINE
  5
343
330
18
100
AcDbEntity
  8
ﾊｯﾁﾝｸ
100
AcDbLine
 10
167.2917090131953
 20
122.7014296892875
 30
0.0
 11
174.6917090131953
 21
122.7014296892875
 31
0.0
  0
LINE
  5
344
330
18
100
AcDbEntity
  8
ﾊｯﾁﾝｸ
100
AcDbLine
 10
167.2917090131953
 20
118.3014296892875
 30
0.0
 11
174.6917090131953
 21
118.3014296892875
 31
0.0
  0
LINE
  5
345
330
18
100
AcDbEntity
  8
ﾊｯﾁﾝｸ
100
AcDbLine
 10
167.2917090131953
 20
124.7014296892874
 30
0.0
 11
174.6917090131953
 21
124.7014296892874
 31
0.0
  0
LINE
  5
346
330
18
100
AcDbEntity
  8
ﾊｯﾁﾝｸ
100
AcDbLine
 10
167.2917090131953
 20
116.3014296892875
 30
0.0
 11
174.6917090131953
 21
116.3014296892875
 31
0.0
  0
ARC
  5
349
330
18
100
AcDbEntity
  8
外形線
100
AcDbCircle
 10
305.713931235412
 20
120.5014296892874
 30
0.0
 40
144.0222222222168
100
AcDbArc
 50
167.1624265395219
 51
192.8375734604781
  0
LINE
  5
FF7
330
18
100
AcDbEntity
  8
0
  6
ByBlock
 62
     2
100
AcDbLine
 10
39.20548233577619
 20
160.5014296892875
 30
0.0
 11
32.74804814925531
 21
160.5014296892875
 31
0.0
  0
POINT
  5
FFD
330
18
100
AcDbEntity
  8
DEFPOINTS
  6
ByBlock
 62
     0
100
AcDbPoint
 10
39.20548233577619
 20
160.5014296892875
 30
0.0
  0
POINT
  5
1005
330
18
100
AcDbEntity
  8
DEFPOINTS
  6
ByBlock
 62
     0
100
AcDbPoint
 10
43.96632525334337
 20
120.5014296892874
 30
0.0
  0
LINE
  5
1008
330
18
100
AcDbEntity
  8
0
  6
ByBlock
 62
     2
100
AcDbLine
 10
88.31161213630389
 20
160.5014296892875
 30
0.0
 11
39.20548233577619
 21
160.5014296892875
 31
0.0
  0
LINE
  5
1009
330
18
100
AcDbEntity
  8
0
  6
ByBlock
 62
     2
100
AcDbLine
 10
43.96632525334337
 20
120.5014296892874
 30
0.0
 11
39.20548233577619
 21
120.5014296892874
 31
0.0
  0
LINE
  5
100A
330
18
100
AcDbEntity
  8
0
  6
ByBlock
 62
     2
100
AcDbLine
 10
40.45548233577619
 20
158.0014296892874
 30
0.0
 11
40.45548233577619
 21
123.0014296892875
 31
0.0
  0
INSERT
  5
100B
330
18
100
AcDbEntity
  8
0
  6
ByBlock
 62
     2
100
AcDbBlockReference
  2
_OPEN
 10
40.45548233577619
 20
160.5014296892875
 30
0.0
 41
2.5
 42
2.5
 43
2.5
 50
90.0
  0
INSERT
  5
100C
330
18
100
AcDbEntity
  8
0
  6
ByBlock
 62
     2
100
AcDbBlockReference
  2
_OPEN
 10
40.45548233577619
 20
120.5014296892874
 30
0.0
 41
2.5
 42
2.5
 43
2.5
 50
270.0
  0
MTEXT
  5
100D
330
18
100
AcDbEntity
  8
0
  6
ByBlock
 62
     6
100
AcDbMText
 10
38.58048233577619
 20
140.5014296892874
 30
0.0
 40
2.5
 41
0.0
 71
     5
 72
     1
  1
\A1;20
  7
STYLE3
 11
0.0000000000000001
 21
1.0
 31
0.0
 73
     1
 44
1.0
  0
POINT
  5
100E
330
18
100
AcDbEntity
  8
DEFPOINTS
  6
ByBlock
 62
     0
100
AcDbPoint
 10
88.31161213630389
 20
160.5014296892875
 30
0.0
  0
POINT
  5
100F
330
18
100
AcDbEntity
  8
DEFPOINTS
  6
ByBlock
 62
     0
100
AcDbPoint
 10
43.96632525334337
 20
120.5014296892874
 30
0.0
  0
POINT
  5
1010
330
18
100
AcDbEntity
  8
DEFPOINTS
  6
ByBlock
 62
     0
100
AcDbPoint
 10
40.45548233577619
 20
120.5014296892874
 30
0.0
  0
LINE
  5
101A
330
18
100
AcDbEntity
  8
0
  6
ByBlock
 62
     2
100
AcDbLine
 10
161.6917090131952
 20
120.5014296892875
 30
0.0
 11
161.6917090131952
 21
167.4191243779965
 31
0.0
  0
LINE
  5
101B
330
18
100
AcDbEntity
  8
0
  6
ByBlock
 62
     2
100
AcDbLine
 10
187.6917090131953
 20
163.8070590067638
 30
0.0
 11
187.6917090131953
 21
167.4191243779965
 31
0.0
  0
LINE
  5
101C
330
18
100
AcDbEntity
  8
0
  6
ByBlock
 62
     2
100
AcDbLine
 10
164.1917090131952
 20
166.1691243779965
 30
0.0
 11
185.1917090131953
 21
166.1691243779965
 31
0.0
  0
INSERT
  5
101D
330
18
100
AcDbEntity
  8
0
  6
ByBlock
 62
     2
100
AcDbBlockReference
  2
_OPEN
 10
161.6917090131952
 20
166.1691243779965
 30
0.0
 41
2.5
 42
2.5
 43
2.5
 50
180.0
  0
INSERT
  5
101E
330
18
100
AcDbEntity
  8
0
  6
ByBlock
 62
     2
100
AcDbBlockReference
  2
_OPEN
 10
187.6917090131953
 20
166.1691243779965
 30
0.0
 41
2.5
 42
2.5
 43
2.5
  0
MTEXT
  5
101F
330
18
100
AcDbEntity
  8
0
  6
ByBlock
 62
     6
100
AcDbMText
 10
174.6917090131953
 20
168.0441243779965
 30
0.0
 40
2.5
 41
0.0
 71
     5
 72
     1
  1
\A1;13
  7
STYLE3
 73
     1
 44
1.0
  0
POINT
  5
1020
330
18
100
AcDbEntity
  8
DEFPOINTS
  6
ByBlock
 62
     0
100
AcDbPoint
 10
161.6917090131952
 20
120.5014296892875
 30
0.0
  0
POINT
  5
1021
330
18
100
AcDbEntity
  8
DEFPOINTS
  6
ByBlock
 62
     0
100
AcDbPoint
 10
187.6917090131953
 20
163.8070590067638
 30
0.0
  0
POINT
  5
1022
330
18
100
AcDbEntity
  8
DEFPOINTS
  6
ByBlock
 62
     0
100
AcDbPoint
 10
187.6917090131953
 20
166.1691243779965
 30
0.0
  0
POINT
  5
1028
330
18
100
AcDbEntity
  8
DEFPOINTS
  6
ByBlock
 62
     0
100
AcDbPoint
 10
187.6917090131953
 20
163.8070590067638
 30
0.0
  0
POINT
  5
1029
330
18
100
AcDbEntity
  8
外形線
100
AcDbPoint
 10
199.2917090131953
 20
152.5014296892874
 30
0.0
  0
LINE
  5
1034
330
18
100
AcDbEntity
  8
0
  6
ByBlock
 62
     2
100
AcDbLine
 10
199.2917090131953
 20
152.5014296892874
 30
0.0
 11
215.0550058518006
 21
152.5014296892874
 31
0.0
  0
LINE
  5
1035
330
18
100
AcDbEntity
  8
0
  6
ByBlock
 62
     2
100
AcDbLine
 10
199.2917090131953
 20
88.50142968928748
 30
0.0
 11
215.0550058518006
 21
88.50142968928748
 31
0.0
  0
LINE
  5
1036
330
18
100
AcDbEntity
  8
0
  6
ByBlock
 62
     2
100
AcDbLine
 10
213.8050058518006
 20
150.0014296892874
 30
0.0
 11
213.8050058518006
 21
91.00142968928748
 31
0.0
  0
INSERT
  5
1037
330
18
100
AcDbEntity
  8
0
  6
ByBlock
 62
     2
100
AcDbBlockReference
  2
_OPEN
 10
213.8050058518006
 20
152.5014296892874
 30
0.0
 41
2.5
 42
2.5
 43
2.5
 50
90.0
  0
INSERT
  5
1038
330
18
100
AcDbEntity
  8
0
  6
ByBlock
 62
     2
100
AcDbBlockReference
  2
_OPEN
 10
213.8050058518006
 20
88.50142968928748
 30
0.0
 41
2.5
 42
2.5
 43
2.5
 50
270.0
  0
MTEXT
  5
1039
330
18
100
AcDbEntity
  8
0
  6
ByBlock
 62
     6
100
AcDbMText
 10
211.9300058518006
 20
120.5014296892874
 30
0.0
 40
2.5
 41
0.0
 71
     5
 72
     1
  1
\A1;φ32
  7
STYLE3
 11
0.0000000000000001
 21
1.0
 31
0.0
 73
     1
 44
1.0
  0
POINT
  5
103A
330
18
100
AcDbEntity
  8
外形線
100
AcDbPoint
 10
199.2917090131953
 20
152.5014296892874
 30
0.0
  0
POINT
  5
103B
330
18
100
AcDbEntity
  8
外形線
100
AcDbPoint
 10
199.2917090131953
 20
88.50142968928748
 30
0.0
  0
POINT
  5
103C
330
18
100
AcDbEntity
  8
DEFPOINTS
  6
ByBlock
 62
     0
100
AcDbPoint
 10
213.8050058518006
 20
88.50142968928748
 30
0.0
  0
LINE
  5
1046
330
18
100
AcDbEntity
  8
0
  6
ByBlock
 62
     2
100
AcDbLine
 10
167.2917090131953
 20
156.5014296892875
 30
0.0
 11
151.6534720017994
 21
156.5014296892875
 31
0.0
  0
LINE
  5
1047
330
18
100
AcDbEntity
  8
0
  6
ByBlock
 62
     2
100
AcDbLine
 10
167.2917090131953
 20
84.50142968928748
 30
0.0
 11
151.6534720017994
 21
84.50142968928748
 31
0.0
  0
LINE
  5
1048
330
18
100
AcDbEntity
  8
0
  6
ByBlock
 62
     2
100
AcDbLine
 10
152.9034720017994
 20
154.0014296892874
 30
0.0
 11
152.9034720017994
 21
87.00142968928748
 31
0.0
  0
INSERT
  5
1049
330
18
100
AcDbEntity
  8
0
  6
ByBlock
 62
     2
100
AcDbBlockReference
  2
_OPEN
 10
152.9034720017994
 20
156.5014296892875
 30
0.0
 41
2.5
 42
2.5
 43
2.5
 50
90.0
  0
INSERT
  5
104A
330
18
100
AcDbEntity
  8
0
  6
ByBlock
 62
     2
100
AcDbBlockReference
  2
_OPEN
 10
152.9034720017994
 20
84.50142968928748
 30
0.0
 41
2.5
 42
2.5
 43
2.5
 50
270.0
  0
MTEXT
  5
104B
330
18
100
AcDbEntity
  8
0
  6
ByBlock
 62
     6
100
AcDbMText
 10
151.0284720017994
 20
120.5014296892874
 30
0.0
 40
2.5
 41
0.0
 71
     5
 72
     1
  1
\A1;φ36
  7
STYLE3
 11
0.0000000000000001
 21
1.0
 31
0.0
 73
     1
 44
1.0
  0
POINT
  5
104C
330
18
100
AcDbEntity
  8
DEFPOINTS
  6
ByBlock
 62
     0
100
AcDbPoint
 10
167.2917090131953
 20
156.5014296892875
 30
0.0
  0
POINT
  5
104D
330
18
100
AcDbEntity
  8
DEFPOINTS
  6
ByBlock
 62
     0
100
AcDbPoint
 10
167.2917090131953
 20
84.50142968928748
 30
0.0
  0
POINT
  5
104E
330
18
100
AcDbEntity
  8
DEFPOINTS
  6
ByBlock
 62
     0
100
AcDbPoint
 10
152.9034720017994
 20
84.50142968928748
 30
0.0
  0
LINE
  5
104F
330
18
100
AcDbEntity
  8
0
  6
ByBlock
 62
     2
100
AcDbLine
 10
163.5939536265682
 20
84.50142968928748
 30
0.0
 11
160.8245572552444
 21
84.50142968928748
 31
0.0
  0
LINE
  5
1050
330
18
100
AcDbEntity
  8
0
  6
ByBlock
 62
     2
100
AcDbLine
 10
181.6917090131953
 20
65.1014296892875
 30
0.0
 11
160.8245572552444
 21
65.1014296892875
 31
0.0
  0
LINE
  5
1051
330
18
100
AcDbEntity
  8
0
  6
ByBlock
 62
     2
100
AcDbLine
 10
162.0745572552444
 20
82.00142968928748
 30
0.0
 11
162.0745572552444
 21
67.6014296892875
 31
0.0
  0
INSERT
  5
1052
330
18
100
AcDbEntity
  8
0
  6
ByBlock
 62
     2
100
AcDbBlockReference
  2
_OPEN
 10
162.0745572552444
 20
84.50142968928748
 30
0.0
 41
2.5
 42
2.5
 43
2.5
 50
90.0
  0
INSERT
  5
1053
330
18
100
AcDbEntity
  8
0
  6
ByBlock
 62
     2
100
AcDbBlockReference
  2
_OPEN
 10
162.0745572552444
 20
65.1014296892875
 30
0.0
 41
2.5
 42
2.5
 43
2.5
 50
270.0
  0
MTEXT
  5
1054
330
18
100
AcDbEntity
  8
0
  6
ByBlock
 62
     6
100
AcDbMText
 10
160.1995572552444
 20
74.80142968928749
 30
0.0
 40
2.5
 41
0.0
 71
     5
 72
     1
  1
\A1;9.7
  7
STYLE3
 11
0.0000000000000001
 21
1.0
 31
0.0
 73
     1
 44
1.0
  0
POINT
  5
1055
330
18
100
AcDbEntity
  8
DEFPOINTS
  6
ByBlock
 62
     0
100
AcDbPoint
 10
163.5939536265682
 20
84.50142968928748
 30
0.0
  0
POINT
  5
1056
330
18
100
AcDbEntity
  8
DEFPOINTS
  6
ByBlock
 62
     0
100
AcDbPoint
 10
181.6917090131953
 20
65.1014296892875
 30
0.0
  0
POINT
  5
1057
330
18
100
AcDbEntity
  8
DEFPOINTS
  6
ByBlock
 62
     0
100
AcDbPoint
 10
162.0745572552444
 20
65.1014296892875
 30
0.0
  0
POINT
  5
105D
330
18
100
AcDbEntity
  8
DEFPOINTS
  6
ByBlock
 62
     0
100
AcDbPoint
 10
167.2917090131953
 20
84.50142968928748
 30
0.0
  0
LINE
  5
113B
330
18
100
AcDbEntity
  8
0
  6
ByBlock
 62
     2
100
AcDbLine
 10
179.6917090131953
 20
75.11433038850412
 30
0.0
 11
179.6917090131953
 21
72.32162707382252
 31
0.0
  0
LINE
  5
113C
330
18
100
AcDbEntity
  8
0
  6
ByBlock
 62
     2
100
AcDbLine
 10
195.6917090131953
 20
76.39991542231323
 30
0.0
 11
195.6917090131953
 21
72.32162707382252
 31
0.0
  0
LINE
  5
113D
330
18
100
AcDbEntity
  8
0
  6
ByBlock
 62
     2
100
AcDbLine
 10
182.1917090131953
 20
73.57162707382252
 30
0.0
 11
193.1917090131953
 21
73.57162707382252
 31
0.0
  0
INSERT
  5
113E
330
18
100
AcDbEntity
  8
0
  6
ByBlock
 62
     2
100
AcDbBlockReference
  2
_OPEN
 10
179.6917090131953
 20
73.57162707382252
 30
0.0
 41
2.5
 42
2.5
 43
2.5
 50
180.0
  0
INSERT
  5
113F
330
18
100
AcDbEntity
  8
0
  6
ByBlock
 62
     2
100
AcDbBlockReference
  2
_OPEN
 10
195.6917090131953
 20
73.57162707382252
 30
0.0
 41
2.5
 42
2.5
 43
2.5
  0
MTEXT
  5
1140
330
18
100
AcDbEntity
  8
0
  6
ByBlock
 62
     6
100
AcDbMText
 10
185.9292950735373
 20
75.44662707382252
 30
0.0
 40
2.5
 41
0.0
 71
     5
 72
     1
  1
\A1;φ8.0
  7
STYLE3
 73
     1
 44
1.0
  0
POINT
  5
1141
330
18
100
AcDbEntity
  8
DEFPOINTS
  6
ByBlock
 62
     0
100
AcDbPoint
 10
179.6917090131953
 20
75.11433038850412
 30
0.0
  0
POINT
  5
1142
330
18
100
AcDbEntity
  8
DEFPOINTS
  6
ByBlock
 62
     0
100
AcDbPoint
 10
195.6917090131953
 20
76.39991542231323
 30
0.0
  0
POINT
  5
1143
330
18
100
AcDbEntity
  8
DEFPOINTS
  6
ByBlock
 62
     0
100
AcDbPoint
 10
195.6917090131953
 20
73.57162707382252
 30
0.0
  0
LINE
  5
1144
330
18
100
AcDbEntity
  8
0
  6
ByBlock
 62
     2
100
AcDbLine
 10
84.81161213630389
 20
60.20153653367009
 30
0.0
 11
84.81161213630389
 21
58.43730179208313
 31
0.0
  0
LINE
  5
1145
330
18
100
AcDbEntity
  8
0
  6
ByBlock
 62
     2
100
AcDbLine
 10
91.81161213630389
 20
60.45865299438441
 30
0.0
 11
91.81161213630389
 21
58.43730179208313
 31
0.0
  0
LINE
  5
1146
330
18
100
AcDbEntity
  8
0
  6
ByBlock
 62
     2
100
AcDbLine
 10
87.31161213630389
 20
59.68730179208313
 30
0.0
 11
89.31161213630389
 21
59.68730179208313
 31
0.0
  0
LINE
  5
1147
330
18
100
AcDbEntity
  8
0
  6
ByBlock
 62
     2
100
AcDbLine
 10
91.81161213630389
 20
59.68730179208313
 30
0.0
 11
103.656850231542
 21
59.68730179208313
 31
0.0
  0
INSERT
  5
1148
330
18
100
AcDbEntity
  8
0
  6
ByBlock
 62
     2
100
AcDbBlockReference
  2
_OPEN
 10
84.81161213630389
 20
59.68730179208313
 30
0.0
 41
2.5
 42
2.5
 43
2.5
 50
180.0
  0
INSERT
  5
1149
330
18
100
AcDbEntity
  8
0
  6
ByBlock
 62
     2
100
AcDbBlockReference
  2
_OPEN
 10
91.81161213630389
 20
59.68730179208313
 30
0.0
 41
2.5
 42
2.5
 43
2.5
  0
MTEXT
  5
114A
330
18
100
AcDbEntity
  8
0
  6
ByBlock
 62
     6
100
AcDbMText
 10
98.98423118392294
 20
61.56230179208313
 30
0.0
 40
2.5
 41
0.0
 71
     5
 72
     1
  1
\A1;φ3.5
  7
STYLE3
 73
     1
 44
1.0
  0
POINT
  5
114B
330
18
100
AcDbEntity
  8
DEFPOINTS
  6
ByBlock
 62
     0
100
AcDbPoint
 10
84.81161213630389
 20
60.20153653367009
 30
0.0
  0
POINT
  5
114C
330
18
100
AcDbEntity
  8
DEFPOINTS
  6
ByBlock
 62
     0
100
AcDbPoint
 10
91.81161213630389
 20
60.45865299438441
 30
0.0
  0
POINT
  5
114D
330
18
100
AcDbEntity
  8
DEFPOINTS
  6
ByBlock
 62
     0
100
AcDbPoint
 10
91.81161213630389
 20
59.68730179208313
 30
0.0
  0
TEXT
  5
118D
330
18
100
AcDbEntity
  8
文字
100
AcDbText
 10
190.5132051594556
 20
78.55718093373861
 30
0.0
 40
1.5
  1
0
  7
STYLE3
100
AcDbText
  0
TEXT
  5
118E
330
18
100
AcDbEntity
  8
文字
100
AcDbText
 10
188.5966532853853
 20
76.7825743914571
 30
0.0
 40
1.5
  1
-0.03
  7
STYLE3
100
AcDbText
  0
LINE
  5
1200
330
18
100
AcDbEntity
  8
外形線
100
AcDbLine
 10
200.6917090131953
 20
151.5014296892875
 30
0.0
 11
200.6917090131953
 21
89.50142968928746
 31
0.0
  0
LINE
  5
1201
330
18
100
AcDbEntity
  8
外形線
100
AcDbLine
 10
199.2917090131953
 20
151.5014296892875
 30
0.0
 11
200.6917090131953
 21
151.5014296892875
 31
0.0
  0
LINE
  5
1202
330
18
100
AcDbEntity
  8
外形線
100
AcDbLine
 10
199.2917090131953
 20
89.50142968928746
 30
0.0
 11
200.6917090131953
 21
89.50142968928746
 31
0.0
  0
DIMENSION
  5
121C
330
18
100
AcDbEntity
  8
文字
100
AcDbDimension
  2
*D1
 10
200.6917090131953
 20
166.1691243779965
 30
0.0
 11
194.1917090131953
 21
168.0441243779965
 31
0.0
 70
    32
  1
6.5
 71
     5
 42
13.0
  3
STYLE3
100
AcDbAlignedDimension
 13
187.6917090131953
 23
163.0565510882645
 33
0.0
 14
200.6917090131953
 24
151.5014296892875
 34
0.0
100
AcDbRotatedDimension
1001
ACAD
1000
DSTYLE
1002
{
1070
   271
1070
     2
1002
}
  0
LINE
  5
126F
330
18
100
AcDbEntity
  8
外形線
100
AcDbLine
 10
192.6917090131953
 20
55.90142968928754
 30
0.0
 11
192.6917090131951
 21
49.70142968928749
 31
0.0
  0
LINE
  5
1270
330
18
100
AcDbEntity
  8
外形線
100
AcDbLine
 10
182.6917090131953
 20
55.90142968928754
 30
0.0
 11
182.6917090131953
 21
49.70142968928749
 31
0.0
  0
HATCH
  5
1271
330
18
100
AcDbEntity
  8
ﾊｯﾁﾝｸ
100
AcDbHatch
 10
0.0
 20
0.0
 30
0.0
210
0.0
220
0.0
230
1.0
  2
ANSI37
 70
     0
 71
     0
 91
        1
 92
        7
 72
     0
 73
     1
 93
        4
 10
182.6917090131953
 20
49.70142968928749
 10
187.6917090131953
 20
49.70142968928744
 10
187.6917090131954
 20
55.90142968928748
 10
182.6917090131953
 20
55.90142968928754
 97
        0
 75
     0
 76
     1
 52
0.0
 41
0.6
 77
     0
 78
     2
 53
45.0
 43
-312.9231752138361
 44
-90.29772360700619
 45
-1.347038418160372
 46
1.347038418160372
 79
     0
 53
135.0
 43
-312.9231752138361
 44
-90.29772360700619
 45
-1.347038418160372
 46
-1.347038418160372
 79
     0
 47
0.0297960672888047
 98
        1
 10
183.7679923803964
 20
52.87870605863137
  0
LINE
  5
1273
330
18
100
AcDbEntity
  8
外形線
100
AcDbLine
 10
185.0917090131952
 20
40.30142968928752
 30
0.0
 11
190.2917090131952
 21
40.30142968928752
 31
0.0
  0
LINE
  5
1274
330
18
100
AcDbEntity
  8
外形線
100
AcDbLine
 10
183.1917090131953
 20
49.30142968928752
 30
0.0
 11
192.1917090131951
 21
49.30142968928752
 31
0.0
  0
LINE
  5
1275
330
18
100
AcDbEntity
  8
外形線
100
AcDbLine
 10
182.6917090131951
 20
49.70142968928749
 30
0.0
 11
192.6917090131953
 21
49.70142968928749
 31
0.0
  0
LINE
  5
1276
330
18
100
AcDbEntity
  8
外形線
100
AcDbLine
 10
183.1917090131953
 20
49.30142968928752
 30
0.0
 11
185.0917090131952
 21
40.30142968928752
 31
0.0
  0
LINE
  5
1277
330
18
100
AcDbEntity
  8
外形線
100
AcDbLine
 10
182.6917090131953
 20
49.70142968928749
 30
0.0
 11
183.1917090131953
 21
49.30142968928752
 31
0.0
  0
LINE
  5
127A
330
18
100
AcDbEntity
  8
外形線
100
AcDbLine
 10
192.1917090131953
 20
49.30142968928752
 30
0.0
 11
190.2917090131952
 21
40.30142968928752
 31
0.0
  0
POINT
  5
127B
330
18
100
AcDbEntity
  8
DEFPOINTS
  6
ByBlock
 62
     0
100
AcDbPoint
 10
187.6917090131953
 20
38.30142968928752
 30
0.0
  0
LINE
  5
127C
330
18
100
AcDbEntity
  8
外形線
100
AcDbLine
 10
192.6917090131953
 20
49.70142968928749
 30
0.0
 11
192.1917090131953
 21
49.30142968928752
 31
0.0
  0
LINE
  5
127D
330
18
100
AcDbEntity
  8
外形線
100
AcDbLine
 10
183.1917090131953
 20
56.30142968928751
 30
0.0
 11
192.1917090131953
 21
56.30142968928751
 31
0.0
  0
LINE
  5
127E
330
18
100
AcDbEntity
  8
外形線
100
AcDbLine
 10
182.6917090131951
 20
55.90142968928754
 30
0.0
 11
192.6917090131953
 21
55.90142968928754
 31
0.0
  0
LINE
  5
127F
330
18
100
AcDbEntity
  8
外形線
100
AcDbLine
 10
183.1917090131953
 20
56.30142968928751
 30
0.0
 11
182.6917090131953
 21
55.90142968928754
 31
0.0
  0
LINE
  5
1280
330
18
100
AcDbEntity
  8
外形線
100
AcDbLine
 10
192.1917090131953
 20
56.30142968928751
 30
0.0
 11
192.6917090131953
 21
55.90142968928754
 31
0.0
  0
LINE
  5
1285
330
18
100
AcDbEntity
  8
外形線
100
AcDbLine
 10
93.31161213630391
 20
55.90142968928754
 30
0.0
 11
93.31161213630368
 21
49.70142968928749
 31
0.0
  0
HATCH
  5
1286
330
18
100
AcDbEntity
  8
ﾊｯﾁﾝｸ
100
AcDbHatch
 10
0.0
 20
0.0
 30
0.0
210
0.0
220
0.0
230
1.0
  2
ANSI37
 70
     0
 71
     0
 91
        1
 92
        7
 72
     0
 73
     1
 93
        4
 10
83.31161213630391
 20
49.70142968928749
 10
88.31161213630391
 20
49.70142968928744
 10
88.31161213630402
 20
55.90142968928748
 10
83.31161213630391
 20
55.90142968928754
 97
        0
 75
     0
 76
     1
 52
0.0
 41
0.6
 77
     0
 78
     2
 53
45.0
 43
-412.3032720907275
 44
-90.29772360700619
 45
-1.347038418160372
 46
1.347038418160372
 79
     0
 53
135.0
 43
-412.3032720907275
 44
-90.29772360700619
 45
-1.347038418160372
 46
-1.347038418160372
 79
     0
 47
0.0297960672888047
 98
        1
 10
84.38789550350499
 20
52.87870605863137
  0
LINE
  5
1287
330
18
100
AcDbEntity
  8
外形線
100
AcDbLine
 10
83.31161213630391
 20
55.90142968928754
 30
0.0
 11
83.31161213630391
 21
49.70142968928749
 31
0.0
  0
LINE
  5
1288
330
18
100
AcDbEntity
  8
外形線
100
AcDbLine
 10
83.31161213630368
 20
49.70142968928749
 30
0.0
 11
93.31161213630391
 21
49.70142968928749
 31
0.0
  0
LINE
  5
1289
330
18
100
AcDbEntity
  8
外形線
100
AcDbLine
 10
83.8116121363039
 20
49.30142968928752
 30
0.0
 11
92.81161213630367
 21
49.30142968928752
 31
0.0
  0
LINE
  5
128A
330
18
100
AcDbEntity
  8
外形線
100
AcDbLine
 10
92.8116121363039
 20
49.30142968928752
 30
0.0
 11
90.91161213630382
 21
40.30142968928752
 31
0.0
  0
POINT
  5
128C
330
18
100
AcDbEntity
  8
DEFPOINTS
  6
ByBlock
 62
     0
100
AcDbPoint
 10
88.31161213630391
 20
38.30142968928752
 30
0.0
  0
LINE
  5
128D
330
18
100
AcDbEntity
  8
外形線
100
AcDbLine
 10
83.8116121363039
 20
49.30142968928752
 30
0.0
 11
85.71161213630377
 21
40.30142968928752
 31
0.0
  0
LINE
  5
128E
330
18
100
AcDbEntity
  8
外形線
100
AcDbLine
 10
83.31161213630391
 20
49.70142968928749
 30
0.0
 11
83.8116121363039
 21
49.30142968928752
 31
0.0
  0
LINE
  5
128F
330
18
100
AcDbEntity
  8
外形線
100
AcDbLine
 10
85.71161213630377
 20
40.30142968928752
 30
0.0
 11
90.91161213630382
 21
40.30142968928752
 31
0.0
  0
LINE
  5
1290
330
18
100
AcDbEntity
  8
外形線
100
AcDbLine
 10
93.31161213630391
 20
49.70142968928749
 30
0.0
 11
92.8116121363039
 21
49.30142968928752
 31
0.0
  0
LINE
  5
1291
330
18
100
AcDbEntity
  8
外形線
100
AcDbLine
 10
83.31161213630368
 20
55.90142968928754
 30
0.0
 11
93.31161213630391
 21
55.90142968928754
 31
0.0
  0
LINE
  5
1292
330
18
100
AcDbEntity
  8
外形線
100
AcDbLine
 10
83.8116121363039
 20
56.30142968928751
 30
0.0
 11
92.8116121363039
 21
56.30142968928751
 31
0.0
  0
LINE
  5
1293
330
18
100
AcDbEntity
  8
外形線
100
AcDbLine
 10
83.8116121363039
 20
56.30142968928751
 30
0.0
 11
83.31161213630391
 21
55.90142968928754
 31
0.0
  0
LINE
  5
1294
330
18
100
AcDbEntity
  8
外形線
100
AcDbLine
 10
92.8116121363039
 20
56.30142968928751
 30
0.0
 11
93.31161213630391
 21
55.90142968928754
 31
0.0
  0
LINE
  5
1295
330
18
100
AcDbEntity
  8
寸法線
100
AcDbLine
 10
187.6917090131953
 20
38.30142968928752
 30
0.0
 11
151.6534720017994
 21
38.30142968928752
 31
0.0
  0
DIMENSION
  5
12A2
330
18
100
AcDbEntity
  8
寸法線
100
AcDbDimension
  2
*D3
 10
171.8398549087178
 20
38.30142968928752
 30
0.0
 11
169.9648549087178
 21
47.30142968928755
 31
0.0
 70
    32
  1
9
 71
     5
 42
18.0
  3
STYLE3
100
AcDbAlignedDimension
 13
183.1917090131953
 23
56.30142968928751
 33
0.0
 14
172.4503378690019
 24
38.30142968928752
 34
0.0
 50
90.0
100
AcDbRotatedDimension
1001
ACAD
1000
DSTYLE
1002
{
1070
   271
1070
     2
1002
}
  0
DIMENSION
  5
12BA
330
18
100
AcDbEntity
  8
寸法線
100
AcDbDimension
  2
*D4
 10
152.9034720017994
 20
84.50142968928748
 30
0.0
 11
151.0284720017994
 21
61.40142968928752
 31
0.0
 70
    32
  1
23.1
 71
     5
 42
46.19999999999995
  3
STYLE3
100
AcDbAlignedDimension
 13
155.6585121877553
 23
38.30142968928752
 33
0.0
 14
158.9996089212709
 24
84.50142968928748
 34
0.0
 50
90.0
100
AcDbRotatedDimension
1001
ACAD
1000
DSTYLE
1002
{
1070
   271
1070
     2
1002
}
  0
DIMENSION
  5
12D2
330
18
100
AcDbEntity
  8
寸法線
100
AcDbDimension
  2
*D5
 10
40.45548233577619
 20
120.5014296892874
 30
0.0
 11
38.58048233577618
 21
79.40142968928751
 31
0.0
 70
    32
  1
41.1
 71
     5
 42
82.19999999999997
  3
STYLE3
100
AcDbAlignedDimension
 13
88.31161213630391
 23
38.30142968928752
 33
0.0
 14
44.36041054701274
 24
120.5014296892874
 34
0.0
 50
90.0
100
AcDbRotatedDimension
1001
ACAD
1000
DSTYLE
1002
{
1070
   271
1070
     2
1002
}
  0
DIMENSION
  5
12DF
330
18
100
AcDbEntity
  8
寸法線
100
AcDbDimension
  2
*D6
 10
33.43353598413012
 20
160.5014296892875
 30
0.0
 11
31.55853598413009
 21
99.40142968928752
 31
0.0
 70
    32
  1
61.1
 71
     5
 42
122.1999999999999
  3
STYLE3
100
AcDbAlignedDimension
 13
39.20548233577619
 23
38.30142968928753
 33
0.0
 14
34.22930470546532
 24
160.5014296892875
 34
0.0
 50
90.0
100
AcDbRotatedDimension
1001
ACAD
1000
DSTYLE
1002
{
1070
   271
1070
     2
1002
}
  0
CIRCLE
  5
13D6
330
18
100
AcDbEntity
  8
外形線
100
AcDbCircle
 10
88.31161213630389
 20
120.5014296892874
 30
0.0
 40
31.0
  0
LINE
  5
13D9
330
18
100
AcDbEntity
  8
目盛
100
AcDbLine
 10
61.14610505494411
 20
105.5670657921343
 30
0.0
 11
63.2492410870494
 21
106.7232746099784
 31
0.0
  0
LINE
  5
13DA
330
18
100
AcDbEntity
  8
目盛
100
AcDbLine
 10
62.13744644574143
 20
103.8907990449386
 30
0.0
 11
64.16383346694624
 21
105.1767833528882
 31
0.0
  0
LINE
  5
13DB
330
18
100
AcDbEntity
  8
目盛
100
AcDbLine
 10
65.71358468624012
 20
99.28046940549814
 30
0.0
 11
67.46310939205148
 21
100.923382459727
 31
0.0
  0
LINE
  5
13DC
330
18
100
AcDbEntity
  8
目盛
100
AcDbLine
 10
67.09065185251455
 20
97.90340223922374
 30
0.0
 11
68.73356490674339
 21
99.6529269450351
 31
0.0
  0
LINE
  5
13DE
330
18
100
AcDbEntity
  8
目盛
100
AcDbLine
 10
63.23208531068056
 20
102.2800868682208
 30
0.0
 11
66.79176008593029
 21
104.8663419783077
 31
0.0
  0
LINE
  5
13DF
330
18
100
AcDbEntity
  8
目盛
100
AcDbLine
 10
64.42570161025443
 20
100.7412860070781
 30
0.0
 11
66.27493339291632
 21
102.2711035824749
 31
0.0
  0
LINE
  5
13E0
330
18
100
AcDbEntity
  8
目盛
100
AcDbLine
 10
58.82886013115413
 20
110.9219028636641
 30
0.0
 11
63.01350880285278
 21
112.2815776389139
 31
0.0
  0
LINE
  5
13E1
330
18
100
AcDbEntity
  8
目盛
100
AcDbLine
 10
59.48854107376812
 20
109.0895685560625
 30
0.0
 11
61.72000463989988
 21
109.9730674825057
 31
0.0
  0
LINE
  5
13E2
330
18
100
AcDbEntity
  8
目盛
100
AcDbLine
 10
60.26197350985729
 20
107.3022716507702
 30
0.0
 11
62.43355843577572
 21
108.3241419505264
 31
0.0
  0
LINE
  5
13E3
330
18
100
AcDbEntity
  8
目盛
100
AcDbLine
 10
57.86070736371456
 20
114.69260893713
 30
0.0
 11
60.2181967654634
 21
115.1423240921357
 31
0.0
  0
LINE
  5
13E4
330
18
100
AcDbEntity
  8
目盛
100
AcDbLine
 10
58.28553414131633
 20
112.7920431871769
 30
0.0
 11
60.61013372802509
 21
113.3888989163726
 31
0.0
  0
LINE
  5
13E5
330
18
100
AcDbEntity
  8
目盛
100
AcDbLine
 10
57.55605639555509
 20
116.616099448794
 30
0.0
 11
59.93713167870985
 21
116.9168992093484
 31
0.0
  0
TEXT
  5
13E6
330
18
100
AcDbEntity
  8
文字
100
AcDbText
 10
63.4982673110785
 20
110.8965863706277
 30
0.0
 40
4.0
  1
30
  7
STYLE3
100
AcDbText
  0
LINE
  5
145E
330
18
100
AcDbEntity
  8
目盛
100
AcDbLine
 10
115.4771192176637
 20
105.5670657921343
 30
0.0
 11
113.3739831855584
 21
106.7232746099784
 31
0.0
  0
LINE
  5
145F
330
18
100
AcDbEntity
  8
目盛
100
AcDbLine
 10
112.1975226623533
 20
100.7412860070781
 30
0.0
 11
110.3482908796914
 21
102.2711035824749
 31
0.0
  0
LINE
  5
1460
330
18
100
AcDbEntity
  8
目盛
100
AcDbLine
 10
113.3911389619272
 20
102.2800868682208
 30
0.0
 11
109.8314641866775
 21
104.8663419783077
 31
0.0
  0
LINE
  5
1461
330
18
100
AcDbEntity
  8
目盛
100
AcDbLine
 10
110.9096395863676
 20
99.28046940549814
 30
0.0
 11
109.1601148805563
 21
100.923382459727
 31
0.0
  0
LINE
  5
1463
330
18
100
AcDbEntity
  8
目盛
100
AcDbLine
 10
109.5325724200932
 20
97.90340223922374
 30
0.0
 11
107.8896593658644
 21
99.6529269450351
 31
0.0
  0
LINE
  5
1464
330
18
100
AcDbEntity
  8
目盛
100
AcDbLine
 10
114.4857778268663
 20
103.8907990449386
 30
0.0
 11
112.4593908056615
 21
105.1767833528882
 31
0.0
  0
TEXT
  5
1465
330
18
100
AcDbEntity
  8
文字
100
AcDbText
 10
105.9351101798183
 20
111.4384890957003
 30
0.0
 40
4.0
  1
30
  7
STYLE3
100
AcDbText
  0
LINE
  5
1466
330
18
100
AcDbEntity
  8
目盛
100
AcDbLine
 10
116.3612507627505
 20
107.3022716507702
 30
0.0
 11
114.189665836832
 21
108.3241419505264
 31
0.0
  0
LINE
  5
1467
330
18
100
AcDbEntity
  8
目盛
100
AcDbLine
 10
117.1346831988396
 20
109.0895685560625
 30
0.0
 11
114.9032196327079
 21
109.9730674825057
 31
0.0
  0
LINE
  5
1468
330
18
100
AcDbEntity
  8
目盛
100
AcDbLine
 10
117.7943641414536
 20
110.9219028636641
 30
0.0
 11
113.609715469755
 21
112.2815776389139
 31
0.0
  0
LINE
  5
1469
330
18
100
AcDbEntity
  8
目盛
100
AcDbLine
 10
119.0671678770527
 20
116.616099448794
 30
0.0
 11
116.6860925938979
 21
116.9168992093484
 31
0.0
  0
LINE
  5
146A
330
18
100
AcDbEntity
  8
目盛
100
AcDbLine
 10
118.3376901312914
 20
112.7920431871769
 30
0.0
 11
116.0130905445827
 21
113.3888989163726
 31
0.0
  0
LINE
  5
146B
330
18
100
AcDbEntity
  8
目盛
100
AcDbLine
 10
118.7625169088932
 20
114.69260893713
 30
0.0
 11
116.4050275071444
 21
115.1423240921357
 31
0.0
  0
TEXT
  5
146C
330
18
100
AcDbEntity
  8
文字
100
AcDbText
 10
97.52909103729553
 20
136.6369444278485
 30
0.0
 40
4.0
  1
10
  7
STYLE3
100
AcDbText
  0
LINE
  5
146D
330
18
100
AcDbEntity
  8
目盛
100
AcDbLine
 10
70.0902693152372
 20
145.5809565149108
 30
0.0
 11
72.67652442532408
 21
142.0212817396611
 31
0.0
  0
TEXT
  5
146E
330
18
100
AcDbEntity
  8
文字
100
AcDbText
 10
64.04059163194756
 20
126.2053262971461
 30
0.0
 40
4.0
  1
20
  7
STYLE3
100
AcDbText
  0
LINE
  5
146F
330
18
100
AcDbEntity
  8
目盛
100
AcDbLine
 10
67.09065185251453
 20
143.0994571393512
 30
0.0
 11
68.73356490674338
 21
141.3499324335398
 31
0.0
  0
LINE
  5
1470
330
18
100
AcDbEntity
  8
目盛
100
AcDbLine
 10
58.82886013115416
 20
130.0809565149108
 30
0.0
 11
63.01350880285281
 21
128.7212817396611
 31
0.0
  0
LINE
  5
1471
330
18
100
AcDbEntity
  8
目盛
100
AcDbLine
 10
57.55605639555509
 20
124.3867599297809
 30
0.0
 11
59.93713167870985
 21
124.0859601692266
 31
0.0
  0
LINE
  5
1472
330
18
100
AcDbEntity
  8
目盛
100
AcDbLine
 10
57.37278355502749
 20
122.4479357946962
 30
0.0
 11
59.76804770325535
 21
122.2972385478258
 31
0.0
  0
LINE
  5
1473
330
18
100
AcDbEntity
  8
目盛
100
AcDbLine
 10
57.37278355502752
 20
118.5549235838787
 30
0.0
 11
59.76804770325535
 21
118.7056208307491
 31
0.0
  0
LINE
  5
1474
330
18
100
AcDbEntity
  8
目盛
100
AcDbLine
 10
57.31161213630392
 20
120.5014296892874
 30
0.0
 11
61.71161213630393
 21
120.5014296892874
 31
0.0
  0
LINE
  5
1475
330
18
100
AcDbEntity
  8
目盛
100
AcDbLine
 10
58.28553414131636
 20
128.210816191398
 30
0.0
 11
60.61013372802506
 21
127.6139604622023
 31
0.0
  0
LINE
  5
1476
330
18
100
AcDbEntity
  8
目盛
100
AcDbLine
 10
57.86070736371456
 20
126.3102504414449
 30
0.0
 11
60.2181967654634
 21
125.8605352864392
 31
0.0
  0
LINE
  5
1477
330
18
100
AcDbEntity
  8
目盛
100
AcDbLine
 10
62.13744644574142
 20
137.1120603336363
 30
0.0
 11
64.16383346694624
 21
135.8260760256867
 31
0.0
  0
LINE
  5
1478
330
18
100
AcDbEntity
  8
目盛
100
AcDbLine
 10
61.14610505494411
 20
135.4357935864406
 30
0.0
 11
63.24924108704939
 21
134.2795847685965
 31
0.0
  0
LINE
  5
1479
330
18
100
AcDbEntity
  8
目盛
100
AcDbLine
 10
60.26197350985729
 20
133.7005877278047
 30
0.0
 11
62.43355843577572
 21
132.6787174280485
 31
0.0
  0
LINE
  5
147A
330
18
100
AcDbEntity
  8
目盛
100
AcDbLine
 10
59.48854107376809
 20
131.9132908225124
 30
0.0
 11
61.7200046398999
 21
131.0297918960692
 31
0.0
  0
LINE
  5
147B
330
18
100
AcDbEntity
  8
目盛
100
AcDbLine
 10
65.71358468624012
 20
141.7223899730768
 30
0.0
 11
67.46310939205151
 21
140.0794769188479
 31
0.0
  0
LINE
  5
147C
330
18
100
AcDbEntity
  8
目盛
100
AcDbLine
 10
63.23208531068052
 20
138.7227725103541
 30
0.0
 11
66.79176008593028
 21
136.1365174002672
 31
0.0
  0
LINE
  5
147D
330
18
100
AcDbEntity
  8
目盛
100
AcDbLine
 10
64.4257016102544
 20
140.2615733714968
 30
0.0
 11
66.27493339291629
 21
138.7317557961
 31
0.0
  0
LINE
  5
147E
330
18
100
AcDbEntity
  8
目盛
100
AcDbLine
 10
68.5514684540945
 20
144.3873402153369
 30
0.0
 11
70.08128602949135
 21
142.538108432675
 31
0.0
  0
TEXT
  5
147F
330
18
100
AcDbEntity
  8
文字
100
AcDbText
 10
86.41145029042764
 20
141.1076380424279
 30
0.0
 40
4.0
  1
0
  7
STYLE3
100
AcDbText
  0
TEXT
  5
1480
330
18
100
AcDbEntity
  8
文字
100
AcDbText
 10
71.09080153848754
 20
136.907896245358
 30
0.0
 40
4.0
  1
10
  7
STYLE3
100
AcDbText
  0
LINE
  5
1482
330
18
100
AcDbEntity
  8
目盛
100
AcDbLine
 10
78.73208531068053
 20
149.9841816944372
 30
0.0
 11
80.09176008593028
 21
145.7995330227385
 31
0.0
  0
LINE
  5
1483
330
18
100
AcDbEntity
  8
目盛
100
AcDbLine
 10
75.11245409778664
 20
148.5510683157341
 30
0.0
 11
76.13432439754283
 21
146.3794833898156
 31
0.0
  0
LINE
  5
1484
330
18
100
AcDbEntity
  8
目盛
100
AcDbLine
 10
76.89975100307887
 20
149.3245007518232
 30
0.0
 11
77.7832499295221
 21
147.0930371856914
 31
0.0
  0
LINE
  5
1485
330
18
100
AcDbEntity
  8
目盛
100
AcDbLine
 10
71.70098149195499
 20
146.6755953798499
 30
0.0
 11
72.98696579990458
 21
144.6492083586451
 31
0.0
  0
LINE
  5
1486
330
18
100
AcDbEntity
  8
目盛
100
AcDbLine
 10
73.37724823915073
 20
147.6669367706472
 30
0.0
 11
74.53345705699482
 21
145.5638007385419
 31
0.0
  0
LINE
  5
1487
330
18
100
AcDbEntity
  8
目盛
100
AcDbLine
 10
80.60222563419339
 20
150.527507684275
 30
0.0
 11
81.19908136338905
 21
148.2029080975663
 31
0.0
  0
LINE
  5
1488
330
18
100
AcDbEntity
  8
目盛
100
AcDbLine
 10
82.50279138414644
 20
150.9523344618768
 30
0.0
 11
82.95250653915216
 21
148.5948450601279
 31
0.0
  0
LINE
  5
1489
330
18
100
AcDbEntity
  8
目盛
100
AcDbLine
 10
84.42628189581046
 20
151.2569854300363
 30
0.0
 11
84.72708165636479
 21
148.8759101468815
 31
0.0
  0
LINE
  5
148A
330
18
100
AcDbEntity
  8
目盛
100
AcDbLine
 10
86.36510603089519
 20
151.4402582705639
 30
0.0
 11
86.51580327776555
 21
149.044994122336
 31
0.0
  0
LINE
  5
148B
330
18
100
AcDbEntity
  8
目盛
100
AcDbLine
 10
88.31161213630389
 20
151.5014296892875
 30
0.0
 11
88.31161213630389
 21
147.1014296892875
 31
0.0
  0
LINE
  5
148C
330
18
100
AcDbEntity
  8
目盛
100
AcDbLine
 10
90.2581182417126
 20
151.4402582705639
 30
0.0
 11
90.10742099484223
 21
149.044994122336
 31
0.0
  0
LINE
  5
148D
330
18
100
AcDbEntity
  8
目盛
100
AcDbLine
 10
92.19694237679732
 20
151.2569854300363
 30
0.0
 11
91.89614261624299
 21
148.8759101468815
 31
0.0
  0
LINE
  5
148E
330
18
100
AcDbEntity
  8
目盛
100
AcDbLine
 10
94.12043288846135
 20
150.9523344618768
 30
0.0
 11
93.67071773345562
 21
148.5948450601279
 31
0.0
  0
LINE
  5
148F
330
18
100
AcDbEntity
  8
目盛
100
AcDbLine
 10
99.72347326952892
 20
149.3245007518232
 30
0.0
 11
98.83997434308568
 21
147.0930371856914
 31
0.0
  0
LINE
  5
1490
330
18
100
AcDbEntity
  8
目盛
100
AcDbLine
 10
97.89113896192725
 20
149.9841816944372
 30
0.0
 11
96.53146418667752
 21
145.7995330227385
 31
0.0
  0
LINE
  5
1491
330
18
100
AcDbEntity
  8
目盛
100
AcDbLine
 10
101.5107701748211
 20
148.5510683157341
 30
0.0
 11
100.4888998750649
 21
146.3794833898156
 31
0.0
  0
LINE
  5
1492
330
18
100
AcDbEntity
  8
目盛
100
AcDbLine
 10
103.245976033457
 20
147.6669367706472
 30
0.0
 11
102.0897672156129
 21
145.5638007385419
 31
0.0
  0
LINE
  5
1493
330
18
100
AcDbEntity
  8
目盛
100
AcDbLine
 10
96.0209986384144
 20
150.527507684275
 30
0.0
 11
95.42414290921874
 21
148.2029080975663
 31
0.0
  0
LINE
  5
1494
330
18
100
AcDbEntity
  8
目盛
100
AcDbLine
 10
109.5325724200932
 20
143.0994571393512
 30
0.0
 11
107.8896593658644
 21
141.3499324335398
 31
0.0
  0
LINE
  5
1495
330
18
100
AcDbEntity
  8
目盛
100
AcDbLine
 10
117.7943641414536
 20
130.0809565149108
 30
0.0
 11
113.609715469755
 21
128.7212817396611
 31
0.0
  0
TEXT
  5
1496
330
18
100
AcDbEntity
  8
文字
100
AcDbText
 10
105.9351101798186
 20
125.5279481182919
 30
0.0
 40
4.0
  1
20
  7
STYLE3
100
AcDbText
  0
LINE
  5
1497
330
18
100
AcDbEntity
  8
目盛
100
AcDbLine
 10
119.0671678770527
 20
124.3867599297809
 30
0.0
 11
116.6860925938979
 21
124.0859601692266
 31
0.0
  0
LINE
  5
1498
330
18
100
AcDbEntity
  8
目盛
100
AcDbLine
 10
119.3116121363038
 20
120.5014296892874
 30
0.0
 11
114.9116121363038
 21
120.5014296892874
 31
0.0
  0
LINE
  5
1499
330
18
100
AcDbEntity
  8
目盛
100
AcDbLine
 10
119.2504407175802
 20
118.5549235838787
 30
0.0
 11
116.8551765693524
 21
118.7056208307491
 31
0.0
  0
LINE
  5
149A
330
18
100
AcDbEntity
  8
目盛
100
AcDbLine
 10
119.2504407175803
 20
122.4479357946962
 30
0.0
 11
116.8551765693524
 21
122.2972385478258
 31
0.0
  0
LINE
  5
149B
330
18
100
AcDbEntity
  8
目盛
100
AcDbLine
 10
118.7625169088932
 20
126.3102504414449
 30
0.0
 11
116.4050275071444
 21
125.8605352864392
 31
0.0
  0
LINE
  5
149C
330
18
100
AcDbEntity
  8
目盛
100
AcDbLine
 10
118.3376901312914
 20
128.210816191398
 30
0.0
 11
116.0130905445827
 21
127.6139604622023
 31
0.0
  0
LINE
  5
149D
330
18
100
AcDbEntity
  8
目盛
100
AcDbLine
 10
112.1975226623534
 20
140.2615733714968
 30
0.0
 11
110.3482908796915
 21
138.7317557961
 31
0.0
  0
LINE
  5
149E
330
18
100
AcDbEntity
  8
目盛
100
AcDbLine
 10
113.3911389619272
 20
138.7227725103541
 30
0.0
 11
109.8314641866775
 21
136.1365174002672
 31
0.0
  0
LINE
  5
149F
330
18
100
AcDbEntity
  8
目盛
100
AcDbLine
 10
110.9096395863676
 20
141.7223899730768
 30
0.0
 11
109.1601148805563
 21
140.0794769188479
 31
0.0
  0
LINE
  5
14A0
330
18
100
AcDbEntity
  8
目盛
100
AcDbLine
 10
114.4857778268663
 20
137.1120603336363
 30
0.0
 11
112.4593908056615
 21
135.8260760256867
 31
0.0
  0
LINE
  5
14A1
330
18
100
AcDbEntity
  8
目盛
100
AcDbLine
 10
117.1346831988397
 20
131.9132908225124
 30
0.0
 11
114.9032196327079
 21
131.0297918960692
 31
0.0
  0
LINE
  5
14A2
330
18
100
AcDbEntity
  8
目盛
100
AcDbLine
 10
116.3612507627505
 20
133.7005877278047
 30
0.0
 11
114.189665836832
 21
132.6787174280485
 31
0.0
  0
LINE
  5
14A3
330
18
100
AcDbEntity
  8
目盛
100
AcDbLine
 10
115.4771192176637
 20
135.4357935864406
 30
0.0
 11
113.3739831855584
 21
134.2795847685965
 31
0.0
  0
LINE
  5
14A4
330
18
100
AcDbEntity
  8
目盛
100
AcDbLine
 10
108.0717558185133
 20
144.3873402153369
 30
0.0
 11
106.5419382431164
 21
142.538108432675
 31
0.0
  0
LINE
  5
14A5
330
18
100
AcDbEntity
  8
目盛
100
AcDbLine
 10
104.9222427806528
 20
146.6755953798499
 30
0.0
 11
103.6362584727032
 21
144.6492083586451
 31
0.0
  0
LINE
  5
14A6
330
18
100
AcDbEntity
  8
目盛
100
AcDbLine
 10
106.5329549573706
 20
145.5809565149108
 30
0.0
 11
103.9466998472837
 21
142.0212817396611
 31
0.0
  0
TEXT
  5
156A
330
18
100
AcDbEntity
  8
文字
100
AcDbText
 10
80.09524245044417
 20
125.2333847566925
 30
0.0
 40
2.0
  1
No.47S-Z
  7
STYLE3
100
AcDbText
  0
TEXT
  5
156B
330
18
100
AcDbEntity
  8
文字
100
AcDbText
 10
80.81266865152292
 20
128.9934977856871
 30
0.0
 40
1.399999999999999
  1
MADE IN JAPAN
  7
STYLE3
100
AcDbText
  0
HATCH
  5
156C
330
18
100
AcDbEntity
  8
ROGO
 62
     4
100
AcDbHatch
 10
0.0
 20
0.0
 30
0.0
210
0.0
220
0.0
230
1.0
  2
SOLID
 70
     1
 71
     0
 91
        1
 92
        7
 72
     0
 73
     1
 93
        4
 10
95.17645652234117
 20
131.9014296892875
 10
95.31242597012909
 20
132.2422856883065
 10
79.15209205474503
 20
132.2422856883065
 10
79.02872171653041
 20
131.9014296892875
 97
        0
 75
     0
 76
     1
 47
0.0514683685270805
 98
        1
 10
211.6815002544771
 20
356.4460954054358
450
        0
451
        0
460
0.0
461
0.0
452
        0
462
0.0
453
        0
470

  0
HATCH
  5
156D
330
18
100
AcDbEntity
  8
ROGO
 62
     4
100
AcDbHatch
 10
0.0
 20
0.0
 30
0.0
210
0.0
220
0.0
230
1.0
  2
SOLID
 70
     1
 71
     1
 91
        1
 92
        1
 93
       12
 72
     1
 10
82.51112318565395
 20
135.3019960897736
 11
84.86591674310309
 21
135.3019960897737
 72
     1
 10
84.86591674310309
 20
135.3019960897736
 11
84.66858712734547
 21
134.8034781917066
 72
     1
 10
84.66858712734547
 20
134.8034781917066
 11
83.43096713786293
 21
134.8034781917066
 72
     1
 10
83.43096713786293
 20
134.8034781917066
 11
83.27667989964652
 21
134.413699144102
 72
     1
 10
83.27667989964652
 20
134.413699144102
 11
84.51429988912909
 21
134.413699144102
 72
     1
 10
84.51429988912909
 20
134.413699144102
 11
84.35609277996718
 21
134.014017245286
 72
     1
 10
84.35609277996718
 20
134.014017245286
 11
83.11847279048464
 21
134.014017245286
 72
     1
 10
83.11847279048464
 20
134.014017245286
 11
82.96417902048821
 21
133.6242216963102
 72
     1
 10
82.96417902048824
 20
133.6242216963102
 11
84.20179900997084
 21
133.6242216963102
 72
     1
 10
84.20179900997084
 20
133.6242216963102
 11
84.00447932011259
 21
133.1257288742485
 72
     1
 10
84.00447932011259
 20
133.1257288742485
 11
81.64968576266341
 21
133.1257288742485
 72
     1
 10
81.64968576266344
 20
133.1257288742485
 11
82.51112318565395
 21
135.3019960897736
 97
       12
330
156F
330
15F5
330
1573
330
1596
330
1572
330
15F4
330
1570
330
1595
330
1571
330
15F3
330
1574
330
1597
 75
     0
 76
     1
 98
        1
 10
-51.66026147896559
 20
55.59059550697255
450
        0
451
        0
460
0.0
461
0.0
452
        0
462
0.0
453
        0
470

  0
LINE
  5
156E
330
18
100
AcDbEntity
  8
ROGO
 62
     4
100
AcDbLine
 10
79.13318107474094
 20
132.2422856883065
 30
0.0
 11
95.3124259701291
 21
132.2422856883065
 31
0.0
  0
LINE
  5
156F
102
{ACAD_REACTORS
330
156D
102
}
330
18
100
AcDbEntity
  8
ROGO
 62
     4
100
AcDbLine
 10
82.51112318565395
 20
135.3019960897736
 30
0.0
 11
84.86591674310309
 21
135.3019960897737
 31
0.0
  0
LINE
  5
1570
102
{ACAD_REACTORS
330
156D
102
}
330
18
100
AcDbEntity
  8
ROGO
 62
     4
100
AcDbLine
 10
83.11847279048464
 20
134.014017245286
 30
0.0
 11
84.35609277996718
 21
134.014017245286
 31
0.0
  0
LINE
  5
1571
102
{ACAD_REACTORS
330
156D
102
}
330
18
100
AcDbEntity
  8
ROGO
 62
     4
100
AcDbLine
 10
82.96417902048824
 20
133.6242216963102
 30
0.0
 11
84.20179900997084
 21
133.6242216963102
 31
0.0
  0
LINE
  5
1572
102
{ACAD_REACTORS
330
156D
102
}
330
18
100
AcDbEntity
  8
ROGO
 62
     4
100
AcDbLine
 10
83.27667989964652
 20
134.413699144102
 30
0.0
 11
84.51429988912909
 21
134.413699144102
 31
0.0
  0
LINE
  5
1573
102
{ACAD_REACTORS
330
156D
102
}
330
18
100
AcDbEntity
  8
ROGO
 62
     4
100
AcDbLine
 10
83.43096713786293
 20
134.8034781917066
 30
0.0
 11
84.66858712734547
 21
134.8034781917066
 31
0.0
  0
LINE
  5
1574
102
{ACAD_REACTORS
330
156D
102
}
330
18
100
AcDbEntity
  8
ROGO
 62
     4
100
AcDbLine
 10
81.64968576266341
 20
133.1257288742485
 30
0.0
 11
84.00447932011259
 21
133.1257288742485
 31
0.0
  0
LINE
  5
1575
330
18
100
AcDbEntity
  8
ROGO
 62
     4
100
AcDbLine
 10
77.76413883478562
 20
131.9014296892875
 30
0.0
 11
96.17889896275327
 21
131.9014296892875
 31
0.0
  0
TEXT
  5
1580
330
18
100
AcDbEntity
  8
文字
100
AcDbText
 10
78.69882040016938
 20
92.1332407538634
 30
0.0
 40
1.399999999999999
  1
S
 50
347.811738082919
  7
STYLE3
100
AcDbText
  0
TEXT
  5
1587
330
18
100
AcDbEntity
  8
文字
100
AcDbText
 10
81.93946069553375
 20
91.34055652726933
 30
0.0
 40
1.399999999999999
  1
O
 50
349.5726682272598
  7
STYLE3
100
AcDbText
  0
TEXT
  5
1588
330
18
100
AcDbEntity
  8
文字
100
AcDbText
 10
80.22973563004148
 20
91.76409740811315
 30
0.0
 40
1.399999999999999
  1
H
 50
344.2762692521393
  7
STYLE3
100
AcDbText
  0
HATCH
  5
158F
330
18
100
AcDbEntity
  8
ROGO
 62
     4
100
AcDbHatch
 10
0.0
 20
0.0
 30
0.0
210
0.0
220
0.0
230
1.0
  2
SOLID
 70
     1
 71
     0
 91
        2
 92
        5
 93
        6
 72
     1
 10
77.76413883478562
 20
131.9014296892875
 11
79.02872171653043
 21
131.9014296892875
 72
     1
 10
79.02872171653041
 20
131.9014296892875
 11
79.4718478605888
 21
133.1257288742485
 72
     1
 10
79.47184786058881
 20
133.1257288742485
 11
80.65397348767572
 21
133.1257288742485
 72
     4
 94
        3
 73
     0
 74
     0
 95
       18
 96
       14
 40
0.108740278791501
 40
0.108740278791501
 40
0.108740278791501
 40
0.108740278791501
 40
0.6623149649549278
 40
1.384304701649787
 40
2.097394834876493
 40
2.774073369849618
 40
3.428974823686337
 40
4.005208313035923
 40
4.455173659284313
 40
4.720999734343524
 40
5.086034088486724
 40
5.569973738255373
 40
6.060470601257719
 40
6.060470601257719
 40
6.060470601257719
 40
6.060470601257719
 10
80.65397348767575
 20
133.1257288742485
 10
80.73716953632938
 20
133.1265032939778
 10
80.92887252137805
 20
133.1282877365829
 10
81.19706349739706
 20
133.3073796272105
 10
81.45138516990156
 20
133.5355296474087
 10
81.65622397595546
 20
133.8205792947029
 10
81.78384472366252
 20
134.1464847305683
 10
81.80361277409483
 20
134.4588351555713
 10
81.79154486497301
 20
134.7059004585751
 10
81.7053135928676
 20
134.8781111084068
 10
81.61566566283173
 20
135.0528873071414
 10
81.45128167318885
 20
135.2042849421131
 10
81.3165927959721
 20
135.2706196116645
 10
81.24810076252762
 20
135.3019960897737
 72
     1
 10
81.24810076252769
 20
135.3019960897736
 11
79.11019373826675
 21
135.3019960897736
 72
     1
 10
79.11019373826675
 20
135.3019960897736
 11
77.76413883478562
 21
131.9014296892875
 97
        0
 92
       20
 93
        4
 72
     4
 94
        3
 73
     0
 74
     0
 95
       15
 96
       11
 40
0.0
 40
0.0
 40
0.0
 40
0.0
 40
0.458245544397197
 40
0.6671803073175111
 40
0.9043351724393449
 40
1.065896092998139
 40
1.321406364485703
 40
1.474450037341961
 40
1.737022829061231
 40
1.824547148828933
 40
1.824547148828933
 40
1.824547148828933
 40
1.824547148828933
 10
80.49320406306335
 20
134.4604273152215
 10
80.5698749052768
 20
134.4608663069503
 10
80.68150343433876
 20
134.4615054547612
 10
80.74254588978915
 20
134.2888994381769
 10
80.71518375074191
 20
134.1777680897065
 10
80.68078731190922
 20
134.0636708319653
 10
80.62000101421318
 20
133.9861400244988
 10
80.53841689915774
 20
133.9114647870196
 10
80.46131601169491
 20
133.9024250151428
 10
80.4111705392671
 20
133.8858164541625
 10
80.39863416515926
 20
133.8816643119299
 72
     1
 10
80.39863416515919
 20
133.8816643119299
 11
79.74545316864712
 21
133.88166431193
 72
     1
 10
79.74545316864714
 20
133.88166431193
 11
79.95493220867475
 21
134.4604273152215
 72
     1
 10
79.95493220867473
 20
134.4604273152215
 11
80.49320406306335
 21
134.4604273152215
 97
        0
 75
     0
 76
     1
 47
0.0514683685270805
 98
        2
 10
185.557374458092
 20
360.7184868811525
 10
185.557374458092
 20
360.7184868811525
450
        0
451
        0
460
0.0
461
0.0
452
        0
462
0.0
453
        0
470

  0
LINE
  5
1590
330
18
100
AcDbEntity
  8
ROGO
 62
     4
100
AcDbLine
 10
79.47184786058881
 20
133.1257288742485
 30
0.0
 11
79.02872171653041
 21
131.9014296892875
 31
0.0
  0
LINE
  5
1591
330
18
100
AcDbEntity
  8
ROGO
 62
     4
100
AcDbLine
 10
79.11019373826679
 20
135.3019960897736
 30
0.0
 11
81.2481007625276
 21
135.3019960897736
 31
0.0
  0
POINT
  5
1592
330
18
100
AcDbEntity
  8
DEFPOINTS
  6
ByBlock
 62
     0
100
AcDbPoint
 10
77.76413883478562
 20
131.9014296892874
 30
0.0
  0
POINT
  5
1593
330
18
100
AcDbEntity
  8
DEFPOINTS
  6
ByBlock
 62
     0
100
AcDbPoint
 10
77.76413883478562
 20
131.9014296892874
 30
0.0
  0
LINE
  5
1594
330
18
100
AcDbEntity
  8
ROGO
 62
     4
100
AcDbLine
 10
79.11019373826679
 20
135.3019960897736
 30
0.0
 11
77.76413883478562
 21
131.9014296892874
 31
0.0
  0
LINE
  5
1595
102
{ACAD_REACTORS
330
156D
102
}
330
18
100
AcDbEntity
  8
ROGO
 62
     4
100
AcDbLine
 10
83.11847279048464
 20
134.014017245286
 30
0.0
 11
82.96417902048821
 21
133.6242216963102
 31
0.0
  0
LINE
  5
1596
102
{ACAD_REACTORS
330
156D
102
}
330
18
100
AcDbEntity
  8
ROGO
 62
     4
100
AcDbLine
 10
83.43096713786293
 20
134.8034781917066
 30
0.0
 11
83.27667989964652
 21
134.413699144102
 31
0.0
  0
LINE
  5
1597
102
{ACAD_REACTORS
330
156D
102
}
330
18
100
AcDbEntity
  8
ROGO
 62
     4
100
AcDbLine
 10
82.51112318565395
 20
135.3019960897736
 30
0.0
 11
81.64968576266344
 21
133.1257288742485
 31
0.0
  0
LINE
  5
1598
330
18
100
AcDbEntity
  8
ROGO
 62
     4
100
AcDbLine
 10
80.39863416515926
 20
133.8816643119299
 30
0.0
 11
79.74545316864714
 21
133.88166431193
 31
0.0
  0
LINE
  5
1599
330
18
100
AcDbEntity
  8
ROGO
 62
     4
100
AcDbLine
 10
80.49320406306339
 20
134.4604273152215
 30
0.0
 11
79.95493220867473
 21
134.4604273152215
 31
0.0
  0
SPLINE
  5
159A
330
18
100
AcDbEntity
  8
ROGO
 62
     4
100
AcDbSpline
210
0.0
220
0.0
230
1.0
 70
     8
 71
     3
 72
    15
 73
    11
 74
     0
 42
0.0000000001
 43
0.0000000001
 40
0.0
 40
0.0
 40
0.0
 40
0.0
 40
0.458245544397197
 40
0.6671803073175111
 40
0.9043351724393449
 40
1.065896092998139
 40
1.321406364485703
 40
1.474450037341961
 40
1.737022829061231
 40
1.824547148828933
 40
1.824547148828933
 40
1.824547148828933
 40
1.824547148828933
 10
80.49320406306335
 20
134.4604273152215
 30
0.0
 10
80.5698749052768
 20
134.4608663069503
 30
0.0
 10
80.68150343433876
 20
134.4615054547612
 30
0.0
 10
80.74254588978915
 20
134.2888994381769
 30
0.0
 10
80.71518375074191
 20
134.1777680897065
 30
0.0
 10
80.68078731190922
 20
134.0636708319653
 30
0.0
 10
80.62000101421318
 20
133.9861400244988
 30
0.0
 10
80.53841689915774
 20
133.9114647870196
 30
0.0
 10
80.46131601169491
 20
133.9024250151428
 30
0.0
 10
80.4111705392671
 20
133.8858164541625
 30
0.0
 10
80.39863416515926
 20
133.8816643119299
 30
0.0
  0
LINE
  5
159B
330
18
100
AcDbEntity
  8
ROGO
 62
     4
100
AcDbLine
 10
79.95493220867473
 20
134.4604273152215
 30
0.0
 11
79.74545316864714
 21
133.88166431193
 31
0.0
  0
LINE
  5
159C
330
18
100
AcDbEntity
  8
ROGO
 62
     4
100
AcDbLine
 10
80.65397348808557
 20
133.1257288742485
 30
0.0
 11
79.47184786058881
 21
133.1257288742485
 31
0.0
  0
SPLINE
  5
159D
330
18
100
AcDbEntity
  8
ROGO
 62
     4
100
AcDbSpline
210
0.0
220
0.0
230
1.0
 70
     8
 71
     3
 72
    18
 73
    14
 74
     0
 42
0.0000000001
 43
0.0000000001
 40
0.1087402787915014
 40
0.1087402787915014
 40
0.1087402787915014
 40
0.1087402787915014
 40
0.5992371417938475
 40
1.083176791562496
 40
1.448211145705696
 40
1.714037220764907
 40
2.164002567013297
 40
2.740236056362883
 40
3.395137510199602
 40
4.071816045172726
 40
4.784906178399433
 40
5.506895915094292
 40
6.060470601257719
 40
6.060470601257719
 40
6.060470601257719
 40
6.060470601257719
 10
81.24810076252762
 20
135.3019960897737
 30
0.0
 10
81.3165927959721
 20
135.2706196116645
 30
0.0
 10
81.45128167318885
 20
135.2042849421131
 30
0.0
 10
81.61566566283173
 20
135.0528873071414
 30
0.0
 10
81.7053135928676
 20
134.8781111084068
 30
0.0
 10
81.79154486497301
 20
134.7059004585751
 30
0.0
 10
81.80361277409483
 20
134.4588351555713
 30
0.0
 10
81.78384472366252
 20
134.1464847305683
 30
0.0
 10
81.65622397595546
 20
133.8205792947029
 30
0.0
 10
81.45138516990156
 20
133.5355296474087
 30
0.0
 10
81.19706349739706
 20
133.3073796272105
 30
0.0
 10
80.92887252137805
 20
133.1282877365829
 30
0.0
 10
80.73716953632938
 20
133.1265032939778
 30
0.0
 10
80.65397348767575
 20
133.1257288742485
 30
0.0
  0
TEXT
  5
15A8
330
18
100
AcDbEntity
  8
文字
100
AcDbText
 10
91.17546807110358
 20
90.74979945996368
 30
0.0
 40
1.399999999999999
  1
R
 50
7.137053615068897
  7
STYLE3
100
AcDbText
  0
TEXT
  5
15AB
330
18
100
AcDbEntity
  8
文字
100
AcDbText
 10
83.65058766746754
 20
90.98684687020817
 30
0.0
 40
1.399999999999999
  1
C
 50
351.5909800750236
  7
STYLE3
100
AcDbText
  0
TEXT
  5
15AC
330
18
100
AcDbEntity
  8
文字
100
AcDbText
 10
85.39846036925951
 20
90.82319395509367
 30
0.0
 40
1.399999999999999
  1
K
 50
353.1799486472628
  7
STYLE3
100
AcDbText
  0
TEXT
  5
15AD
330
18
100
AcDbEntity
  8
文字
100
AcDbText
 10
89.5246463937296
 20
90.52984554849745
 30
0.0
 40
1.399999999999999
  1
P
 50
3.925381055224958
  7
STYLE3
100
AcDbText
  0
POINT
  5
15AE
330
18
100
AcDbEntity
  8
DEFPOINTS
  6
ByBlock
 62
     0
100
AcDbPoint
 10
88.31161213630389
 20
90.37990843031662
 30
0.0
  0
TEXT
  5
15AF
330
18
100
AcDbEntity
  8
文字
100
AcDbText
 10
92.71721817879665
 20
91.00758904888932
 30
0.0
 40
1.399999999999999
  1
O
 50
6.945737769919251
  7
STYLE3
100
AcDbText
  0
TEXT
  5
15B0
330
18
100
AcDbEntity
  8
文字
100
AcDbText
 10
94.56156576741898
 20
91.33378586740057
 30
0.0
 40
1.399999999999999
  1
O
 50
9.664745933361951
  7
STYLE3
100
AcDbText
  0
TEXT
  5
15B1
330
18
100
AcDbEntity
  8
文字
100
AcDbText
 10
96.48616364212958
 20
91.7367405281548
 30
0.0
 40
1.399999999999999
  1
F
 50
15.06999193929092
  7
STYLE3
100
AcDbText
  0
HATCH
  5
15E0
330
18
100
AcDbEntity
  8
ROGO
 62
     4
100
AcDbHatch
 10
0.0
 20
0.0
 30
0.0
210
0.0
220
0.0
230
1.0
  2
SOLID
 70
     1
 71
     0
 91
        2
 92
        5
 93
        4
 72
     3
 10
92.14506687926245
 20
134.212943610944
 11
-0.0000000000000423
 21
1.089052478829649
 40
0.7999999999999647
 50
182.6642961630392
 51
360.0
 73
     1
 72
     1
 10
92.14506687926231
 20
135.3019960897736
 11
91.44106390197503
 21
135.3019960897736
 72
     3
 10
91.47684593816098
 20
134.2138624820111
 11
0.0000000000001571
 21
1.089052478829617
 40
0.7999999999999882
 50
1.883427863402802
 51
178.1165721366182
 73
     1
 72
     1
 10
91.44106390197505
 20
133.1257288742485
 11
92.19565964052845
 21
133.1257288742485
 97
        0
 92
       20
 93
        8
 72
     3
 10
91.85545313036127
 20
134.1858910576902
 11
0.000000000000087
 21
0.2287340282456428
 40
0.7999999999999718
 50
7.859931148588112
 51
85.18916631318802
 73
     0
 72
     1
 10
92.03802698463382
 20
134.201256978264
 11
92.01485774995765
 21
133.9940528551816
 72
     3
 10
91.86416521428867
 20
134.0711968377791
 11
-0.0000000000001194
 21
0.2035505331107219
 40
0.8000000000000635
 50
117.1092544300212
 51
190.798342186028
 73
     0
 72
     1
 10
91.82640043173112
 20
133.8731957894178
 11
91.76330722255867
 21
133.8842191988768
 72
     3
 10
91.77380075242988
 20
134.103301794624
 11
0.0000000000000164
 21
0.2194749123447386
 40
0.7999999999999409
 50
182.7422343759609
 51
259.3462860287425
 73
     0
 72
     1
 10
91.60017593683306
 20
134.070640292435
 11
91.62334517150927
 21
134.2778444155176
 72
     3
 10
91.79892139734684
 20
134.1866413594645
 11
-0.0000000000001079
 21
0.2376661571300213
 40
0.7999999999999725
 50
297.4496170064721
 51
365.9481903469032
 73
     0
 72
     1
 10
91.82347648020238
 20
134.4223171740869
 11
91.88656968937404
 21
134.4112937646282
 97
        0
 75
     0
 76
     1
 47
0.0514683685270805
 98
        2
 10
219.2375808289991
 20
361.0696417740136
 10
219.2375808289991
 20
361.0696417740136
450
        0
451
        0
460
0.0
461
0.0
452
        0
462
0.0
453
        0
470

  0
LINE
  5
15E1
330
18
100
AcDbEntity
  8
ROGO
 62
     4
100
AcDbLine
 10
91.44106390197469
 20
133.1257288742485
 30
0.0
 11
92.19565964052828
 21
133.1257288742485
 31
0.0
  0
LINE
  5
15E2
330
18
100
AcDbEntity
  8
ROGO
 62
     4
100
AcDbLine
 10
91.44106390197476
 20
135.3019960897736
 30
0.0
 11
92.14506687926249
 21
135.3019960897736
 31
0.0
  0
LINE
  5
15E3
330
18
100
AcDbEntity
  8
ROGO
 62
     4
100
AcDbLine
 10
91.44106390197535
 20
133.1257288742484
 30
0.0
 11
92.19565964052774
 21
133.1257288742484
 31
0.0
  0
LINE
  5
15E4
330
18
100
AcDbEntity
  8
ROGO
 62
     4
100
AcDbLine
 10
91.44106390197498
 20
135.3019960897736
 30
0.0
 11
91.93445518520579
 21
135.3019960897736
 31
0.0
  0
ELLIPSE
  5
15E5
330
18
100
AcDbEntity
  8
ROGO
 62
     4
100
AcDbEllipse
 10
91.77380075242988
 20
134.103301794624
 30
0.0
 11
0.0000000000000164
 21
0.2194749123447386
 31
0.0
210
0.0
220
0.0
230
-1.0
 40
0.7999999999999409
 41
3.201393263085397
 42
4.563017578539822
  0
ELLIPSE
  5
15E6
330
18
100
AcDbEntity
  8
ROGO
 62
     4
100
AcDbEllipse
 10
91.79892139734684
 20
134.1866413594645
 30
0.0
 11
-0.0000000000001079
 21
0.2376661571300213
 31
0.0
210
0.0
220
0.0
230
-1.0
 40
0.7999999999999725
 41
5.106236714973695
 42
6.412693959989911
  0
HATCH
  5
15E7
330
18
100
AcDbEntity
  8
ROGO
 62
     4
100
AcDbHatch
 10
0.0
 20
0.0
 30
0.0
210
0.0
220
0.0
230
1.0
  2
SOLID
 70
     1
 71
     1
 91
        2
 92
        7
 72
     0
 73
     1
 93
        8
 10
86.55428921696872
 20
135.3019960897736
 10
85.54805135040806
 20
135.3019960897737
 10
84.29257248290779
 20
133.1257288742484
 10
85.25678248873878
 20
133.1257288742485
 10
85.49581789721475
 20
133.5400766870888
 10
86.60652267016205
 20
133.5400766870888
 10
86.84555807863807
 20
133.1257288742485
 10
87.80976808446899
 20
133.1257288742485
 97
        8
330
15EC
330
15F2
330
15ED
330
15EE
330
15F0
330
15EB
330
15E8
330
15E9
 92
       22
 72
     0
 73
     1
 93
        3
 10
86.05117028368841
 20
134.5027334255114
 10
86.35440481676887
 20
133.9771018198818
 10
85.74793575060789
 20
133.9771018198818
 97
        3
330
15EF
330
15F1
330
15EA
 75
     0
 76
     1
 47
0.0514683685270805
 98
        2
 10
204.8283105088185
 20
360.6014347259795
 10
204.8283105088185
 20
360.6014347259795
450
        0
451
        0
460
0.0
461
0.0
452
        0
462
0.0
453
        0
470

  0
LINE
  5
15E8
102
{ACAD_REACTORS
330
15E7
102
}
330
18
100
AcDbEntity
  8
ROGO
 62
     4
100
AcDbLine
 10
87.80976808446894
 20
133.1257288742485
 30
0.0
 11
86.84555807863805
 21
133.1257288742485
 31
0.0
  0
LINE
  5
15E9
102
{ACAD_REACTORS
330
15E7
102
}
330
18
100
AcDbEntity
  8
ROGO
 62
     4
100
AcDbLine
 10
86.55428921696872
 20
135.3019960897736
 30
0.0
 11
87.80976808446899
 21
133.1257288742485
 31
0.0
  0
LINE
  5
15EA
102
{ACAD_REACTORS
330
15E7
102
}
330
18
100
AcDbEntity
  8
ROGO
 62
     4
100
AcDbLine
 10
86.05117028368841
 20
134.5027334255114
 30
0.0
 11
86.35440481676889
 21
133.9771018198818
 31
0.0
  0
LINE
  5
15EB
102
{ACAD_REACTORS
330
15E7
102
}
330
18
100
AcDbEntity
  8
ROGO
 62
     4
100
AcDbLine
 10
86.60652267016203
 20
133.5400766870888
 30
0.0
 11
86.84555807863802
 21
133.1257288742485
 31
0.0
  0
LINE
  5
15EC
102
{ACAD_REACTORS
330
15E7
102
}
330
18
100
AcDbEntity
  8
ROGO
 62
     4
100
AcDbLine
 10
85.54805135040806
 20
135.3019960897736
 30
0.0
 11
86.55428921696872
 21
135.3019960897736
 31
0.0
  0
LINE
  5
15ED
102
{ACAD_REACTORS
330
15E7
102
}
330
18
100
AcDbEntity
  8
ROGO
 62
     4
100
AcDbLine
 10
84.29257248290785
 20
133.1257288742485
 30
0.0
 11
85.25678248873873
 21
133.1257288742485
 31
0.0
  0
LINE
  5
15EE
102
{ACAD_REACTORS
330
15E7
102
}
330
18
100
AcDbEntity
  8
ROGO
 62
     4
100
AcDbLine
 10
85.49581789721475
 20
133.5400766870888
 30
0.0
 11
85.25678248873878
 21
133.1257288742485
 31
0.0
  0
LINE
  5
15EF
102
{ACAD_REACTORS
330
15E7
102
}
330
18
100
AcDbEntity
  8
ROGO
 62
     4
100
AcDbLine
 10
85.74793575060789
 20
133.9771018198818
 30
0.0
 11
86.35440481676889
 21
133.9771018198818
 31
0.0
  0
LINE
  5
15F0
102
{ACAD_REACTORS
330
15E7
102
}
330
18
100
AcDbEntity
  8
ROGO
 62
     4
100
AcDbLine
 10
85.49581789721475
 20
133.5400766870888
 30
0.0
 11
86.60652267016203
 21
133.5400766870888
 31
0.0
  0
LINE
  5
15F1
102
{ACAD_REACTORS
330
15E7
102
}
330
18
100
AcDbEntity
  8
ROGO
 62
     4
100
AcDbLine
 10
86.05117028368841
 20
134.5027334255114
 30
0.0
 11
85.74793575060786
 21
133.9771018198818
 31
0.0
  0
LINE
  5
15F2
102
{ACAD_REACTORS
330
15E7
102
}
330
18
100
AcDbEntity
  8
ROGO
 62
     4
100
AcDbLine
 10
85.54805135040806
 20
135.3019960897736
 30
0.0
 11
84.29257248290781
 21
133.1257288742485
 31
0.0
  0
LINE
  5
15F3
102
{ACAD_REACTORS
330
156D
102
}
330
18
100
AcDbEntity
  8
ROGO
 62
     4
100
AcDbLine
 10
84.20179900997084
 20
133.6242216963102
 30
0.0
 11
84.00447932011259
 21
133.1257288742485
 31
0.0
  0
LINE
  5
15F4
102
{ACAD_REACTORS
330
156D
102
}
330
18
100
AcDbEntity
  8
ROGO
 62
     4
100
AcDbLine
 10
84.51429988912909
 20
134.413699144102
 30
0.0
 11
84.35609277996718
 21
134.014017245286
 31
0.0
  0
LINE
  5
15F5
102
{ACAD_REACTORS
330
156D
102
}
330
18
100
AcDbEntity
  8
ROGO
 62
     4
100
AcDbLine
 10
84.86591674310309
 20
135.3019960897736
 30
0.0
 11
84.66858712734547
 21
134.8034781917066
 31
0.0
  0
HATCH
  5
15F6
330
18
100
AcDbEntity
  8
ROGO
 62
     4
100
AcDbHatch
 10
0.0
 20
0.0
 30
0.0
210
0.0
220
0.0
230
1.0
  2
SOLID
 70
     1
 71
     1
 91
        1
 92
        5
 93
        8
 72
     1
 10
90.55862042323132
 20
135.3019960897737
 11
88.81509895080107
 21
135.3019960897737
 72
     4
 94
        3
 73
     0
 74
     0
 95
       26
 96
       22
 40
0.0
 40
0.0
 40
0.0
 40
0.0
 40
0.7089867102952115
 40
1.183598414482279
 40
1.525832104103439
 40
1.781366926528389
 40
2.112809002752968
 40
2.354729406992515
 40
2.791581270399936
 40
3.147172406765291
 40
3.389031356825354
 40
3.626186440486682
 40
4.050410779375985
 40
4.350388020238963
 40
4.511948940797758
 40
4.741441456013356
 40
4.907163150576407
 40
5.147239172635527
 40
5.28310143501293
 40
5.578752957634333
 40
5.713750011164293
 40
5.713750011164293
 40
5.713750011164293
 40
5.713750011164293
 10
88.815098950801
 20
135.3019960897736
 10
88.70789802757505
 20
135.2940013511362
 10
88.52893438704583
 20
135.2806547540307
 10
88.3324333984313
 20
135.1314394536319
 10
88.18846527037393
 20
135.0446922352309
 10
88.08578737604145
 20
134.9267667821915
 10
88.0105240632702
 20
134.8049584034931
 10
87.91564052832786
 20
134.6598246133958
 10
87.83826571688193
 20
134.4908221878258
 10
87.79886342933043
 20
134.3045520521225
 10
87.7639612569852
 20
134.1560936731932
 10
87.73807722167925
 20
133.9906561840902
 10
87.74466285302878
 20
133.8119254979938
 10
87.75409377852117
 20
133.6459295868072
 10
87.79620056754726
 20
133.5274333592163
 10
87.84415274185041
 20
133.44307221065
 10
87.90286952258288
 20
133.3501577581842
 10
87.9671185210101
 20
133.2886208171848
 10
88.02025768707711
 20
133.1771425133815
 10
88.11327600466245
 20
133.1629170778293
 10
88.17240214791272
 20
133.1346042153561
 10
88.19093664580123
 20
133.1257288742485
 72
     1
 10
88.19093664580121
 20
133.1257288742485
 11
89.69049472679222
 21
133.1257288742484
 72
     1
 10
89.69049472679222
 20
133.1257288742484
 11
90.01349035052241
 21
133.9354328025684
 72
     1
 10
90.01349035052241
 20
133.9354328025684
 11
88.900211695776
 21
133.9354328025684
 72
     4
 94
        3
 73
     0
 74
     0
 95
       16
 96
       12
 40
0.0
 40
0.0
 40
0.0
 40
0.0
 40
0.2141121027475241
 40
0.4304326162973471
 40
0.5594580803306056
 40
0.6831669452691567
 40
0.8190286678446897
 40
0.9139043619204622
 40
1.003933161420314
 40
1.186498641432482
 40
1.560280494298353
 40
1.560280494298353
 40
1.560280494298353
 40
1.560280494298353
 10
88.90021169577602
 20
133.9354328025684
 10
88.86663128829349
 20
133.9477826128916
 10
88.79912411581903
 20
133.9726096128601
 10
88.79347431061569
 20
134.0929617880036
 10
88.8011713528204
 20
134.178722561178
 10
88.83340658276503
 20
134.241161412156
 10
88.87251350781392
 20
134.2865938915559
 10
88.88707475044999
 20
134.3457625923289
 10
88.92987619651069
 20
134.3904423640622
 10
89.0057746287896
 20
134.4655428189963
 10
89.08970515609246
 20
134.4815375378866
 10
89.1460938653633
 20
134.4922835868196
 72
     1
 10
89.14609386536335
 20
134.4922835868196
 11
90.23562137902946
 21
134.4922835868196
 72
     1
 10
90.23562137902946
 20
134.4922835868196
 11
90.55862042323132
 21
135.3019960897737
 97
        8
330
15F8
330
15FC
330
1600
330
15FA
330
15FD
330
15FB
330
15FE
330
15FF
 75
     0
 76
     1
 47
0.0514683685270805
 98
        1
 10
211.8572229616929
 20
361.889004501238
450
        0
451
        0
460
0.0
461
0.0
452
        0
462
0.0
453
        0
470

  0
ELLIPSE
  5
15F7
330
18
100
AcDbEntity
  8
ROGO
 62
     4
100
AcDbEllipse
 10
91.47684593816098
 20
134.2138624820111
 30
0.0
 11
0.0000000000001571
 21
1.089052478829617
 31
0.0
210
0.0
220
0.0
230
-1.0
 40
0.7999999999999882
 41
3.141592653589793
 42
6.242103605664437
  0
LINE
  5
15F8
102
{ACAD_REACTORS
330
15F6
102
}
330
18
100
AcDbEntity
  8
ROGO
 62
     4
100
AcDbLine
 10
88.81509895080148
 20
135.3019960897737
 30
0.0
 11
90.55862042323132
 21
135.3019960897737
 31
0.0
  0
LINE
  5
15F9
330
18
100
AcDbEntity
  8
ROGO
 62
     4
100
AcDbLine
 10
91.60017593683306
 20
134.070640292435
 30
0.0
 11
91.62334517150924
 21
134.2778444155174
 31
0.0
  0
LINE
  5
15FA
102
{ACAD_REACTORS
330
15F6
102
}
330
18
100
AcDbEntity
  8
ROGO
 62
     4
100
AcDbLine
 10
90.01349035052243
 20
133.9354328025684
 30
0.0
 11
89.6904947267922
 21
133.1257288742484
 31
0.0
  0
SPLINE
  5
15FB
102
{ACAD_REACTORS
330
15F6
102
}
330
18
100
AcDbEntity
  8
ROGO
 62
     4
100
AcDbSpline
210
0.0
220
0.0
230
1.0
 70
     8
 71
     3
 72
    16
 73
    12
 74
     0
 42
0.0000000001
 43
0.0000000001
 40
0.0
 40
0.0
 40
0.0
 40
0.0
 40
0.373781852865871
 40
0.5563473328780387
 40
0.6463761323778911
 40
0.7412518264536638
 40
0.8771135490291968
 40
1.000822413967747
 40
1.129847878001006
 40
1.346168391550829
 40
1.560280494298353
 40
1.560280494298353
 40
1.560280494298353
 40
1.560280494298353
 10
89.1460938653633
 20
134.4922835868196
 30
0.0
 10
89.08970515609246
 20
134.4815375378866
 30
0.0
 10
89.0057746287896
 20
134.4655428189963
 30
0.0
 10
88.92987619651069
 20
134.3904423640622
 30
0.0
 10
88.88707475044999
 20
134.3457625923289
 30
0.0
 10
88.87251350781392
 20
134.2865938915559
 30
0.0
 10
88.83340658276503
 20
134.241161412156
 30
0.0
 10
88.8011713528204
 20
134.178722561178
 30
0.0
 10
88.79347431061569
 20
134.0929617880036
 30
0.0
 10
88.79912411581903
 20
133.9726096128601
 30
0.0
 10
88.86663128829349
 20
133.9477826128916
 30
0.0
 10
88.90021169577602
 20
133.9354328025684
 30
0.0
  0
SPLINE
  5
15FC
102
{ACAD_REACTORS
330
15F6
102
}
330
18
100
AcDbEntity
  8
ROGO
 62
     4
100
AcDbSpline
210
0.0
220
0.0
230
1.0
 70
     8
 71
     3
 72
    26
 73
    22
 74
     0
 42
0.0000000001
 43
0.0000000001
 40
0.0
 40
0.0
 40
0.0
 40
0.0
 40
0.7089867102952115
 40
1.183598414482279
 40
1.525832104103439
 40
1.781366926528389
 40
2.112809002752968
 40
2.354729406992515
 40
2.791581270399936
 40
3.147172406765291
 40
3.389031356825354
 40
3.626186440486682
 40
4.050410779375985
 40
4.350388020238963
 40
4.511948940797758
 40
4.741441456013356
 40
4.907163150576407
 40
5.147239172635527
 40
5.28310143501293
 40
5.578752957634333
 40
5.713750011164293
 40
5.713750011164293
 40
5.713750011164293
 40
5.713750011164293
 10
88.815098950801
 20
135.3019960897736
 30
0.0
 10
88.70789802757505
 20
135.2940013511362
 30
0.0
 10
88.52893438704583
 20
135.2806547540307
 30
0.0
 10
88.3324333984313
 20
135.1314394536319
 30
0.0
 10
88.18846527037393
 20
135.0446922352309
 30
0.0
 10
88.08578737604145
 20
134.9267667821915
 30
0.0
 10
88.0105240632702
 20
134.8049584034931
 30
0.0
 10
87.91564052832786
 20
134.6598246133958
 30
0.0
 10
87.83826571688193
 20
134.4908221878258
 30
0.0
 10
87.79886342933043
 20
134.3045520521225
 30
0.0
 10
87.7639612569852
 20
134.1560936731932
 30
0.0
 10
87.73807722167925
 20
133.9906561840902
 30
0.0
 10
87.74466285302878
 20
133.8119254979938
 30
0.0
 10
87.75409377852117
 20
133.6459295868072
 30
0.0
 10
87.79620056754726
 20
133.5274333592163
 30
0.0
 10
87.84415274185041
 20
133.44307221065
 30
0.0
 10
87.90286952258288
 20
133.3501577581842
 30
0.0
 10
87.9671185210101
 20
133.2886208171848
 30
0.0
 10
88.02025768707711
 20
133.1771425133815
 30
0.0
 10
88.11327600466245
 20
133.1629170778293
 30
0.0
 10
88.17240214791272
 20
133.1346042153561
 30
0.0
 10
88.19093664580123
 20
133.1257288742485
 30
0.0
  0
LINE
  5
15FD
102
{ACAD_REACTORS
330
15F6
102
}
330
18
100
AcDbEntity
  8
ROGO
 62
     4
100
AcDbLine
 10
88.90021169577597
 20
133.9354328025684
 30
0.0
 11
90.01349035052243
 21
133.9354328025684
 31
0.0
  0
LINE
  5
15FE
102
{ACAD_REACTORS
330
15F6
102
}
330
18
100
AcDbEntity
  8
ROGO
 62
     4
100
AcDbLine
 10
89.14609386536325
 20
134.4922835868196
 30
0.0
 11
90.23562137902946
 21
134.4922835868196
 31
0.0
  0
LINE
  5
15FF
102
{ACAD_REACTORS
330
15F6
102
}
330
18
100
AcDbEntity
  8
ROGO
 62
     4
100
AcDbLine
 10
90.55862042323132
 20
135.3019960897736
 30
0.0
 11
90.23562137902946
 21
134.4922835868196
 31
0.0
  0
LINE
  5
1600
102
{ACAD_REACTORS
330
15F6
102
}
330
18
100
AcDbEntity
  8
ROGO
 62
     4
100
AcDbLine
 10
88.19093664580117
 20
133.1257288742485
 30
0.0
 11
89.6904947267922
 21
133.1257288742485
 31
0.0
  0
HATCH
  5
1601
330
18
100
AcDbEntity
  8
ROGO
 62
     4
100
AcDbHatch
 10
0.0
 20
0.0
 30
0.0
210
0.0
220
0.0
230
1.0
  2
SOLID
 70
     1
 71
     0
 91
        1
 92
        5
 93
       11
 72
     1
 10
98.85908543782219
 20
135.3019960897736
 11
97.8566649300445
 21
135.3019960897736
 72
     1
 10
97.8566649300445
 20
135.3019960897736
 11
97.38730192302631
 21
134.9307234383065
 72
     1
 10
97.38730192302632
 20
134.9307234383065
 11
97.53540475103582
 21
135.3019960897736
 72
     1
 10
97.5354047510358
 20
135.3019960897736
 11
96.53296231062379
 21
135.3019960897736
 72
     1
 10
96.53296231062379
 20
135.3019960897736
 11
95.17645652234117
 21
131.9014296892874
 72
     1
 10
95.17645652234117
 20
131.9014296892875
 11
96.17889896275324
 21
131.9014296892875
 72
     1
 10
96.17889896275324
 20
131.9014296892875
 11
96.53296231062379
 21
132.7890159678072
 72
     1
 10
96.53296231062379
 20
132.7890159678072
 11
96.88702565849437
 21
131.9014296892874
 72
     1
 10
96.88702565849437
 20
131.9014296892875
 11
97.88944616627203
 21
131.9014296892875
 72
     1
 10
97.88944616627203
 20
131.9014296892875
 11
97.21119327213076
 21
133.6017128895305
 72
     1
 10
97.21119327213077
 20
133.6017128895305
 11
98.85908543782221
 21
135.3019960897736
 97
        0
 75
     0
 76
     1
 47
0.0514683685270805
 98
        1
 10
229.7809502023511
 20
359.8991241539281
450
        0
451
        0
460
0.0
461
0.0
452
        0
462
0.0
453
        0
470

  0
HATCH
  5
1602
330
18
100
AcDbEntity
  8
ROGO
 62
     4
100
AcDbHatch
 10
0.0
 20
0.0
 30
0.0
210
0.0
220
0.0
230
1.0
  2
SOLID
 70
     1
 71
     1
 91
        1
 92
        5
 93
        8
 72
     1
 10
96.1683216617142
 20
135.3019960897736
 11
94.42480018928407
 21
135.3019960897737
 72
     4
 94
        3
 73
     0
 74
     0
 95
       26
 96
       22
 40
0.0
 40
0.0
 40
0.0
 40
0.0
 40
0.7089867102952115
 40
1.183598414482279
 40
1.525832104103439
 40
1.781366926528389
 40
2.112809002752968
 40
2.354729406992515
 40
2.791581270399936
 40
3.147172406765291
 40
3.389031356825354
 40
3.626186440486682
 40
4.050410779375985
 40
4.350388020238963
 40
4.511948940797758
 40
4.741441456013356
 40
4.907163150576407
 40
5.147239172635527
 40
5.28310143501293
 40
5.578752957634333
 40
5.713750011164293
 40
5.713750011164293
 40
5.713750011164293
 40
5.713750011164293
 10
94.42480018928383
 20
135.3019960897736
 10
94.3175992660579
 20
135.2940013511361
 10
94.13863562552867
 20
135.2806547540306
 10
93.9421346369142
 20
135.1314394536319
 10
93.79816650885675
 20
135.0446922352309
 10
93.69548861452432
 20
134.9267667821915
 10
93.620225301753
 20
134.804958403493
 10
93.52534176681073
 20
134.6598246133958
 10
93.44796695536473
 20
134.4908221878258
 10
93.4085646678133
 20
134.3045520521225
 10
93.37366249546803
 20
134.1560936731932
 10
93.34777846016214
 20
133.9906561840902
 10
93.3543640915116
 20
133.8119254979938
 10
93.36379501700404
 20
133.6459295868071
 10
93.40590180603014
 20
133.5274333592163
 10
93.45385398033327
 20
133.4430722106499
 10
93.51257076106572
 20
133.3501577581841
 10
93.57681975949295
 20
133.2886208171847
 10
93.62995892556
 20
133.1771425133814
 10
93.72297724314529
 20
133.1629170778292
 10
93.7821033863956
 20
133.1346042153561
 10
93.80063788428406
 20
133.1257288742484
 72
     1
 10
93.80063788428408
 20
133.1257288742484
 11
95.30019596527505
 21
133.1257288742484
 72
     1
 10
95.30019596527505
 20
133.1257288742484
 11
95.62319158900526
 21
133.9354328025684
 72
     1
 10
95.62319158900526
 20
133.9354328025684
 11
94.50991293425884
 21
133.9354328025684
 72
     4
 94
        3
 73
     0
 74
     0
 95
       16
 96
       12
 40
0.0
 40
0.0
 40
0.0
 40
0.0
 40
0.2141121027475241
 40
0.4304326162973471
 40
0.5594580803306056
 40
0.6831669452691567
 40
0.8190286678446897
 40
0.9139043619204622
 40
1.003933161420314
 40
1.186498641432482
 40
1.560280494298353
 40
1.560280494298353
 40
1.560280494298353
 40
1.560280494298353
 10
94.50991293425886
 20
133.9354328025684
 10
94.47633252677633
 20
133.9477826128915
 10
94.40882535430189
 20
133.9726096128601
 10
94.40317554909857
 20
134.0929617880036
 10
94.41087259130327
 20
134.178722561178
 10
94.44310782124793
 20
134.241161412156
 10
94.48221474629674
 20
134.2865938915559
 10
94.49677598893286
 20
134.3457625923288
 10
94.53957743499357
 20
134.3904423640622
 10
94.61547586727244
 20
134.4655428189963
 10
94.69940639457536
 20
134.4815375378865
 10
94.75579510384619
 20
134.4922835868196
 72
     1
 10
94.75579510384616
 20
134.4922835868196
 11
95.84532261751233
 21
134.4922835868196
 72
     1
 10
95.84532261751233
 20
134.4922835868196
 11
96.1683216617142
 21
135.3019960897736
 97
        8
330
1605
330
1609
330
160B
330
1608
330
1607
330
160A
330
1604
330
161C
 75
     0
 76
     1
 47
0.0514683685270805
 98
        1
 10
225.3878797457943
 20
362.0645823408331
450
        0
451
        0
460
0.0
461
0.0
452
        0
462
0.0
453
        0
470

  0
LINE
  5
1603
330
18
100
AcDbEntity
  8
ROGO
 62
     4
100
AcDbLine
 10
96.53296231062379
 20
135.3019960897736
 30
0.0
 11
95.17645652234117
 21
131.9014296892875
 31
0.0
  0
LINE
  5
1604
102
{ACAD_REACTORS
330
1602
102
}
330
18
100
AcDbEntity
  8
ROGO
 62
     4
100
AcDbLine
 10
94.7557951038461
 20
134.4922835868196
 30
0.0
 11
95.84532261751233
 21
134.4922835868196
 31
0.0
  0
LINE
  5
1605
102
{ACAD_REACTORS
330
1602
102
}
330
18
100
AcDbEntity
  8
ROGO
 62
     4
100
AcDbLine
 10
94.42480018928435
 20
135.3019960897736
 30
0.0
 11
96.16832166171418
 21
135.3019960897736
 31
0.0
  0
ELLIPSE
  5
1606
330
18
100
AcDbEntity
  8
ROGO
 62
     4
100
AcDbEllipse
 10
92.14506687926245
 20
134.212943610944
 30
0.0
 11
-0.0000000000000423
 21
1.089052478829649
 31
0.0
210
0.0
220
0.0
230
-1.0
 40
0.7999999999999647
 41
0.0
 42
3.083490267140064
  0
LINE
  5
1607
102
{ACAD_REACTORS
330
1602
102
}
330
18
100
AcDbEntity
  8
ROGO
 62
     4
100
AcDbLine
 10
94.50991293425881
 20
133.9354328025684
 30
0.0
 11
95.62319158900526
 21
133.9354328025684
 31
0.0
  0
LINE
  5
1608
102
{ACAD_REACTORS
330
1602
102
}
330
18
100
AcDbEntity
  8
ROGO
 62
     4
100
AcDbLine
 10
95.62319158900526
 20
133.9354328025684
 30
0.0
 11
95.30019596527504
 21
133.1257288742484
 31
0.0
  0
SPLINE
  5
1609
102
{ACAD_REACTORS
330
1602
102
}
330
18
100
AcDbEntity
  8
ROGO
 62
     4
100
AcDbSpline
210
0.0
220
0.0
230
1.0
 70
     8
 71
     3
 72
    26
 73
    22
 74
     0
 42
0.0000000001
 43
0.0000000001
 40
0.0
 40
0.0
 40
0.0
 40
0.0
 40
0.7089867102952115
 40
1.183598414482279
 40
1.525832104103439
 40
1.781366926528389
 40
2.112809002752968
 40
2.354729406992515
 40
2.791581270399936
 40
3.147172406765291
 40
3.389031356825354
 40
3.626186440486682
 40
4.050410779375985
 40
4.350388020238963
 40
4.511948940797758
 40
4.741441456013356
 40
4.907163150576407
 40
5.147239172635527
 40
5.28310143501293
 40
5.578752957634333
 40
5.713750011164293
 40
5.713750011164293
 40
5.713750011164293
 40
5.713750011164293
 10
94.42480018928383
 20
135.3019960897736
 30
0.0
 10
94.3175992660579
 20
135.2940013511361
 30
0.0
 10
94.13863562552867
 20
135.2806547540306
 30
0.0
 10
93.9421346369142
 20
135.1314394536319
 30
0.0
 10
93.79816650885675
 20
135.0446922352309
 30
0.0
 10
93.69548861452432
 20
134.9267667821915
 30
0.0
 10
93.620225301753
 20
134.804958403493
 30
0.0
 10
93.52534176681073
 20
134.6598246133958
 30
0.0
 10
93.44796695536473
 20
134.4908221878258
 30
0.0
 10
93.4085646678133
 20
134.3045520521225
 30
0.0
 10
93.37366249546803
 20
134.1560936731932
 30
0.0
 10
93.34777846016214
 20
133.9906561840902
 30
0.0
 10
93.3543640915116
 20
133.8119254979938
 30
0.0
 10
93.36379501700404
 20
133.6459295868071
 30
0.0
 10
93.40590180603014
 20
133.5274333592163
 30
0.0
 10
93.45385398033327
 20
133.4430722106499
 30
0.0
 10
93.51257076106572
 20
133.3501577581841
 30
0.0
 10
93.57681975949295
 20
133.2886208171847
 30
0.0
 10
93.62995892556
 20
133.1771425133814
 30
0.0
 10
93.72297724314529
 20
133.1629170778292
 30
0.0
 10
93.7821033863956
 20
133.1346042153561
 30
0.0
 10
93.80063788428406
 20
133.1257288742484
 30
0.0
  0
SPLINE
  5
160A
102
{ACAD_REACTORS
330
1602
102
}
330
18
100
AcDbEntity
  8
ROGO
 62
     4
100
AcDbSpline
210
0.0
220
0.0
230
1.0
 70
     8
 71
     3
 72
    16
 73
    12
 74
     0
 42
0.0000000001
 43
0.0000000001
 40
0.0
 40
0.0
 40
0.0
 40
0.0
 40
0.373781852865871
 40
0.5563473328780387
 40
0.6463761323778911
 40
0.7412518264536638
 40
0.8771135490291968
 40
1.000822413967747
 40
1.129847878001006
 40
1.346168391550829
 40
1.560280494298353
 40
1.560280494298353
 40
1.560280494298353
 40
1.560280494298353
 10
94.75579510384619
 20
134.4922835868196
 30
0.0
 10
94.69940639457536
 20
134.4815375378865
 30
0.0
 10
94.61547586727244
 20
134.4655428189963
 30
0.0
 10
94.53957743499357
 20
134.3904423640622
 30
0.0
 10
94.49677598893286
 20
134.3457625923288
 30
0.0
 10
94.48221474629674
 20
134.2865938915559
 30
0.0
 10
94.44310782124793
 20
134.241161412156
 30
0.0
 10
94.41087259130327
 20
134.178722561178
 30
0.0
 10
94.40317554909857
 20
134.0929617880036
 30
0.0
 10
94.40882535430189
 20
133.9726096128601
 30
0.0
 10
94.47633252677633
 20
133.9477826128915
 30
0.0
 10
94.50991293425886
 20
133.9354328025684
 30
0.0
  0
LINE
  5
160B
102
{ACAD_REACTORS
330
1602
102
}
330
18
100
AcDbEntity
  8
ROGO
 62
     4
100
AcDbLine
 10
93.80063788428401
 20
133.1257288742484
 30
0.0
 11
95.30019596527504
 21
133.1257288742484
 31
0.0
  0
ELLIPSE
  5
160C
330
18
100
AcDbEntity
  8
ROGO
 62
     4
100
AcDbEllipse
 10
91.86416521428867
 20
134.0711968377791
 30
0.0
 11
-0.0000000000001194
 21
0.2035505331107219
 31
0.0
210
0.0
220
0.0
230
-1.0
 40
0.8000000000000635
 41
1.959502903312739
 42
3.375636308898853
  0
ELLIPSE
  5
160D
330
18
100
AcDbEntity
  8
ROGO
 62
     4
100
AcDbEllipse
 10
91.85545313036127
 20
134.1858910576902
 30
0.0
 11
0.000000000000087
 21
0.2287340282456428
 31
0.0
210
0.0
220
0.0
230
-1.0
 40
0.7999999999999718
 41
0.1708780887726829
 42
1.503567582123
  0
LINE
  5
160E
330
18
100
AcDbEntity
  8
ROGO
 62
     4
100
AcDbLine
 10
91.76330722255974
 20
133.8842191988766
 30
0.0
 11
91.82640043173121
 21
133.8731957894178
 31
0.0
  0
LINE
  5
160F
330
18
100
AcDbEntity
  8
ROGO
 62
     4
100
AcDbLine
 10
92.03802698463386
 20
134.2012569782643
 30
0.0
 11
92.01485774995765
 21
133.9940528551818
 31
0.0
  0
LINE
  5
1610
330
18
100
AcDbEntity
  8
ROGO
 62
     4
100
AcDbLine
 10
91.82347648020273
 20
134.4223171740869
 30
0.0
 11
91.8865696893742
 21
134.4112937646283
 31
0.0
  0
POINT
  5
1611
330
18
100
AcDbEntity
  8
DEFPOINTS
  6
ByBlock
 62
     0
100
AcDbPoint
 10
98.85908543782219
 20
135.3019960897736
 30
0.0
  0
POINT
  5
1612
330
18
100
AcDbEntity
  8
DEFPOINTS
  6
ByBlock
 62
     0
100
AcDbPoint
 10
98.85908543782219
 20
135.3019960897736
 30
0.0
  0
LINE
  5
1613
330
18
100
AcDbEntity
  8
ROGO
 62
     4
100
AcDbLine
 10
96.88702565849437
 20
131.9014296892875
 30
0.0
 11
97.88944616627203
 21
131.9014296892875
 31
0.0
  0
LINE
  5
1614
330
18
100
AcDbEntity
  8
ROGO
 62
     4
100
AcDbLine
 10
97.8566649300445
 20
135.3019960897736
 30
0.0
 11
98.85908543782219
 21
135.3019960897736
 31
0.0
  0
LINE
  5
1615
330
18
100
AcDbEntity
  8
ROGO
 62
     4
100
AcDbLine
 10
97.21119327213077
 20
133.6017128895305
 30
0.0
 11
98.85908543782219
 21
135.3019960897736
 31
0.0
  0
LINE
  5
1616
330
18
100
AcDbEntity
  8
ROGO
 62
     4
100
AcDbLine
 10
96.53296231062384
 20
132.7890159678073
 30
0.0
 11
96.17889896275327
 21
131.9014296892875
 31
0.0
  0
LINE
  5
1617
330
18
100
AcDbEntity
  8
ROGO
 62
     4
100
AcDbLine
 10
97.21119327213077
 20
133.6017128895305
 30
0.0
 11
97.88944616627203
 21
131.9014296892875
 31
0.0
  0
LINE
  5
1618
330
18
100
AcDbEntity
  8
ROGO
 62
     4
100
AcDbLine
 10
96.53296231062379
 20
132.7890159678073
 30
0.0
 11
96.88702565849437
 21
131.9014296892875
 31
0.0
  0
LINE
  5
1619
330
18
100
AcDbEntity
  8
ROGO
 62
     4
100
AcDbLine
 10
97.38730192302632
 20
134.9307234383065
 30
0.0
 11
97.8566649300445
 21
135.3019960897736
 31
0.0
  0
LINE
  5
161A
330
18
100
AcDbEntity
  8
ROGO
 62
     4
100
AcDbLine
 10
97.5354047510358
 20
135.3019960897736
 30
0.0
 11
97.38730192302632
 21
134.9307234383065
 31
0.0
  0
LINE
  5
161B
330
18
100
AcDbEntity
  8
ROGO
 62
     4
100
AcDbLine
 10
96.53296231062379
 20
135.3019960897736
 30
0.0
 11
97.5354047510358
 21
135.3019960897736
 31
0.0
  0
LINE
  5
161C
102
{ACAD_REACTORS
330
1602
102
}
330
18
100
AcDbEntity
  8
ROGO
 62
     4
100
AcDbLine
 10
96.16832166171418
 20
135.3019960897736
 30
0.0
 11
95.84532261751233
 21
134.4922835868196
 31
0.0
  0
CIRCLE
  5
17CA
330
18
100
AcDbEntity
  8
針
100
AcDbCircle
 10
88.31161213630387
 20
120.5014296892874
 30
0.0
 40
3.0
  0
LINE
  5
17CB
330
18
100
AcDbEntity
  8
針
100
AcDbLine
 10
86.43522421056998
 20
91.16136887898646
 30
0.0
 11
86.30548924780333
 21
91.16966583239957
 31
0.0
  0
LINE
  5
17CC
330
18
100
AcDbEntity
  8
針
100
AcDbLine
 10
87.53860198863977
 20
117.0923019136988
 30
0.0
 11
86.30548924780333
 21
91.16966583239957
 31
0.0
  0
LINE
  5
17CD
330
18
100
AcDbEntity
  8
針
100
AcDbLine
 10
88.64405239420191
 20
117.02160493025
 30
0.0
 11
86.56495917333661
 21
91.15307192557329
 31
0.0
  0
LINE
  5
17CE
330
18
100
AcDbEntity
  8
針
100
AcDbLine
 10
86.43522421056998
 20
91.16136887898646
 30
0.0
 11
86.56495917333661
 21
91.15307192557329
 31
0.0
  0
CIRCLE
  5
17CF
330
18
100
AcDbEntity
  8
針
100
AcDbCircle
 10
88.31161213630387
 20
120.5014296892874
 30
0.0
 40
2.599999999999999
  0
ARC
  5
17D0
330
18
100
AcDbEntity
  8
針
100
AcDbCircle
 10
86.53973147494268
 20
117.1398171414335
 30
0.0
 40
1.0
100
AcDbArc
 50
357.2765525454403
 51
30.13321068221935
  0
ARC
  5
17D1
330
18
100
AcDbEntity
  8
針
100
AcDbCircle
 10
89.64083816745166
 20
116.941491746273
 30
0.0
 40
1.0
100
AcDbArc
 50
142.5482702815571
 51
175.4049284183355
  0
CIRCLE
  5
17D2
330
18
100
AcDbEntity
  8
針
100
AcDbCircle
 10
88.31161213630387
 20
120.5014296892874
 30
0.0
 40
0.6
  0
HATCH
  5
17D3
330
18
100
AcDbEntity
  8
針
100
AcDbHatch
 10
0.0
 20
0.0
 30
0.0
210
0.0
220
0.0
230
1.0
  2
SOLID
 70
     1
 71
     0
 91
        1
 92
        7
 72
     1
 73
     1
 93
        7
 10
88.64405239420191
 20
117.02160493025
 42
-0.1443545616783913
 10
88.84697224227382
 20
117.5495845786938
 42
-0.1222437615213262
 10
87.4045920566399
 20
117.6418292670105
 42
-0.1443545616783909
 10
87.53860198863977
 20
117.0923019136989
 42
0.0
 10
86.30548924780333
 20
91.1696658323996
 42
0.0
 10
86.43522421056998
 20
91.16136887898646
 42
0.0
 10
86.56495917333661
 20
91.15307192557331
 42
0.0
 97
        0
 75
     0
 76
     1
 47
0.0443407669343012
 98
        1
 10
88.13256031540252
 20
115.0750221673696
450
        0
451
        0
460
0.0
461
0.0
452
        0
462
0.0
453
        0
470

  0
LINE
  5
17F3
330
18
100
AcDbEntity
  8
目盛
100
AcDbLine
 10
73.3772482391507
 20
93.33592260792769
 30
0.0
 11
74.53345705699479
 21
95.43905864003297
 31
0.0
  0
LINE
  5
17F4
330
18
100
AcDbEntity
  8
目盛
100
AcDbLine
 10
71.700981491955
 20
94.32726399872501
 30
0.0
 11
72.98696579990459
 21
96.35365101992983
 31
0.0
  0
LINE
  5
17F6
330
18
100
AcDbEntity
  8
目盛
100
AcDbLine
 10
75.11245409778664
 20
92.45179106284087
 30
0.0
 11
76.13432439754281
 21
94.62337598875931
 31
0.0
  0
LINE
  5
17FC
330
18
100
AcDbEntity
  8
外形線
100
AcDbLine
 10
75.11245409778661
 20
92.45179106284089
 30
0.0
 11
87.03427426160876
 21
117.7869485318894
 31
0.0
  0
LINE
  5
17FD
330
18
100
AcDbEntity
  8
外形線
100
AcDbLine
 10
101.5107701748211
 20
92.45179106284089
 30
0.0
 11
89.58895001099902
 21
117.7869485318894
 31
0.0
  0
TEXT
  5
1829
330
18
100
AcDbEntity
  8
文字
100
AcDbText
 10
69.88269283774093
 20
99.77877571524352
 30
0.0
 40
4.0
  1
40
  7
STYLE3
100
AcDbText
  0
LINE
  5
182A
330
18
100
AcDbEntity
  8
目盛
100
AcDbLine
 10
106.5329549573705
 20
95.42190286366412
 30
0.0
 11
103.9466998472836
 21
98.98157763891388
 31
0.0
  0
LINE
  5
182B
330
18
100
AcDbEntity
  8
目盛
100
AcDbLine
 10
103.2459760334571
 20
93.33592260792769
 30
0.0
 11
102.089767215613
 21
95.43905864003297
 31
0.0
  0
LINE
  5
182C
330
18
100
AcDbEntity
  8
目盛
100
AcDbLine
 10
104.9222427806527
 20
94.32726399872501
 30
0.0
 11
103.6362584727032
 21
96.35365101992983
 31
0.0
  0
LINE
  5
182D
330
18
100
AcDbEntity
  8
目盛
100
AcDbLine
 10
101.5107701748211
 20
92.45179106284087
 30
0.0
 11
100.4888998750649
 21
94.62337598875931
 31
0.0
  0
TEXT
  5
182E
330
18
100
AcDbEntity
  8
文字
100
AcDbText
 10
99.50116133027188
 20
99.5156319552662
 30
0.0
 40
4.0
  1
40
  7
STYLE3
100
AcDbText
  0
LINE
  5
182F
330
18
100
AcDbEntity
  8
目盛
100
AcDbLine
 10
70.09026931523725
 20
95.42190286366414
 30
0.0
 11
72.6765244253241
 21
98.98157763891388
 31
0.0
  0
DIMENSION
  5
1830
330
18
100
AcDbEntity
  8
寸法線
100
AcDbDimension
  2
*D9
 10
87.03427426160876
 20
117.7869485318894
 30
0.0
 11
88.31161213630387
 21
79.12099911054835
 31
0.0
 70
    34
 71
     5
 42
0.8796459430051511
  3
STYLE3
100
AcDb2LineAngularDimension
 13
101.5107701748211
 23
92.45179106284089
 33
0.0
 14
89.58895001099902
 24
117.7869485318894
 34
0.0
 15
75.11245409778661
 25
92.45179106284089
 35
0.0
 16
81.99272783559051
 26
77.71002896733965
 36
0.0
1001
ACAD
1000
DSTYLE
1002
{
1070
   179
1070
     1
1070
   271
1070
     2
1070
   272
1070
     2
1070
   341
1005
0
1002
}
  0
TEXT
  5
19C2
330
18
100
AcDbEntity
  8
文字
100
AcDbText
 10
82.08632459916032
 20
99.83411321328475
 30
0.0
 40
2.0
  1
0.01mm
  7
STYLE3
100
AcDbText
  0
HATCH
  5
19C3
330
18
100
AcDbEntity
  8
外形線
100
AcDbHatch
 10
0.0
 20
0.0
 30
0.0
210
0.0
220
0.0
230
1.0
  2
SOLID
 70
     1
 71
     0
 91
        2
 92
        1
 93
        7
 72
     1
 10
87.17352027251569
 20
104.8066936821098
 11
84.84018693918221
 21
103.9574298021553
 72
     1
 10
84.84018693918221
 20
103.9574298021554
 11
84.84018693918233
 21
104.6275270154431
 72
     1
 10
84.84018693918244
 20
104.6275270154431
 11
82.84018693918232
 21
104.6275270154431
 72
     1
 10
82.84018693918222
 20
104.6275270154431
 11
82.84018693918222
 21
104.9858603487765
 72
     1
 10
82.84018693918222
 20
104.9858603487764
 11
84.84018693918221
 21
104.9858603487764
 72
     1
 10
84.84018693918221
 20
104.9858603487764
 11
84.84018693918221
 21
105.6559575620643
 72
     1
 10
84.84018693918221
 20
105.6559575620643
 11
87.17352027251569
 21
104.8066936821099
 97
        0
 92
        1
 93
        4
 72
     1
 10
87.17352027251569
 20
106.3066936821097
 11
87.17352027251569
 21
103.3066936821097
 72
     1
 10
87.17352027251569
 20
103.3066936821098
 11
87.50685360584895
 21
103.3066936821098
 72
     1
 10
87.50685360584895
 20
103.3066936821098
 11
87.50685360584895
 21
106.3066936821097
 72
     1
 10
87.50685360584895
 20
106.3066936821097
 11
87.17352027251569
 21
106.3066936821097
 97
        0
 75
     0
 76
     1
 98
        1
 10
271.8326336854762
 20
-32.51760793225225
450
        0
451
        0
460
0.0
461
0.0
452
        0
462
0.0
453
        0
470

  0
LINE
  5
19C4
330
18
100
AcDbEntity
  8
外形線
100
AcDbLine
 10
87.50685360584895
 20
106.3066936821097
 30
0.0
 11
87.50685360584895
 21
103.3066936821098
 31
0.0
  0
LINE
  5
19C5
330
18
100
AcDbEntity
  8
外形線
100
AcDbLine
 10
87.17352027251569
 20
106.3066936821097
 30
0.0
 11
87.17352027251569
 21
103.3066936821098
 31
0.0
  0
LINE
  5
19C6
330
18
100
AcDbEntity
  8
外形線
100
AcDbLine
 10
87.17352027251569
 20
104.8066936821098
 30
0.0
 11
84.84018693918221
 21
105.6559575620643
 31
0.0
  0
LINE
  5
19C7
330
18
100
AcDbEntity
  8
外形線
100
AcDbLine
 10
82.84018693918222
 20
104.9858603487764
 30
0.0
 11
82.84018693918222
 21
104.6275270154431
 31
0.0
  0
LINE
  5
19C8
330
18
100
AcDbEntity
  8
外形線
100
AcDbLine
 10
87.17352027251569
 20
104.8066936821098
 30
0.0
 11
84.84018693918221
 21
103.9574298021553
 31
0.0
  0
POINT
  5
19C9
330
18
100
AcDbEntity
  8
DEFPOINTS
  6
ByBlock
 62
     0
100
AcDbPoint
 10
84.84018693918221
 20
103.9574298021553
 30
0.0
  0
POINT
  5
19CA
330
18
100
AcDbEntity
  8
DEFPOINTS
  6
ByBlock
 62
     0
100
AcDbPoint
 10
84.84018693918221
 20
103.9574298021553
 30
0.0
  0
LINE
  5
19CB
330
18
100
AcDbEntity
  8
外形線
100
AcDbLine
 10
84.84018693918244
 20
104.6275270154431
 30
0.0
 11
84.84018693918221
 21
103.9574298021554
 31
0.0
  0
LINE
  5
19CC
330
18
100
AcDbEntity
  8
外形線
100
AcDbLine
 10
82.84018693918222
 20
104.6275270154431
 30
0.0
 11
84.84018693918244
 21
104.6275270154431
 31
0.0
  0
LINE
  5
19CD
330
18
100
AcDbEntity
  8
外形線
100
AcDbLine
 10
87.50685360584895
 20
103.3066936821098
 30
0.0
 11
87.17352027251569
 21
103.3066936821098
 31
0.0
  0
POINT
  5
19CE
330
18
100
AcDbEntity
  8
DEFPOINTS
  6
ByBlock
 62
     0
100
AcDbPoint
 10
87.17352027251569
 20
103.3066936821098
 30
0.0
  0
POINT
  5
19CF
330
18
100
AcDbEntity
  8
DEFPOINTS
  6
ByBlock
 62
     0
100
AcDbPoint
 10
87.50685360584895
 20
103.3066936821098
 30
0.0
  0
POINT
  5
19D0
330
18
100
AcDbEntity
  8
DEFPOINTS
  6
ByBlock
 62
     0
100
AcDbPoint
 10
87.17352027251569
 20
103.3066936821098
 30
0.0
  0
POINT
  5
19D1
330
18
100
AcDbEntity
  8
DEFPOINTS
  6
ByBlock
 62
     0
100
AcDbPoint
 10
87.50685360584895
 20
103.3066936821098
 30
0.0
  0
LINE
  5
19D2
330
18
100
AcDbEntity
  8
外形線
100
AcDbLine
 10
84.84018693918221
 20
105.6559575620643
 30
0.0
 11
84.84018693918221
 21
104.9858603487764
 31
0.0
  0
LINE
  5
19D3
330
18
100
AcDbEntity
  8
外形線
100
AcDbLine
 10
82.84018693918222
 20
104.9858603487764
 30
0.0
 11
84.84018693918221
 21
104.9858603487764
 31
0.0
  0
HATCH
  5
19D4
330
18
100
AcDbEntity
  8
外形線
100
AcDbHatch
 10
0.0
 20
0.0
 30
0.0
210
0.0
220
0.0
230
1.0
  2
SOLID
 70
     1
 71
     0
 91
        2
 92
        1
 93
        7
 72
     1
 10
89.50685360584897
 20
104.8066936821098
 11
91.84018693918233
 21
103.9574298021553
 72
     1
 10
91.84018693918222
 20
103.9574298021554
 11
91.84018693918222
 21
104.6275270154431
 72
     1
 10
91.84018693918222
 20
104.6275270154431
 11
93.84018693918221
 21
104.6275270154431
 72
     1
 10
93.84018693918221
 20
104.6275270154431
 11
93.84018693918221
 21
104.9858603487765
 72
     1
 10
93.84018693918221
 20
104.9858603487764
 11
91.8401869391821
 21
104.9858603487764
 72
     1
 10
91.84018693918222
 20
104.9858603487764
 11
91.84018693918222
 21
105.6559575620643
 72
     1
 10
91.84018693918222
 20
105.6559575620643
 11
89.50685360584884
 21
104.8066936821099
 97
        0
 92
        1
 93
        4
 72
     1
 10
89.50685360584897
 20
106.3066936821097
 11
89.50685360584897
 21
103.3066936821097
 72
     1
 10
89.50685360584897
 20
103.3066936821098
 11
89.17352027251558
 21
103.3066936821098
 72
     1
 10
89.17352027251547
 20
103.3066936821098
 11
89.17352027251547
 21
106.3066936821097
 72
     1
 10
89.17352027251547
 20
106.3066936821097
 11
89.50685360584884
 21
106.3066936821097
 97
        0
 75
     0
 76
     1
 98
        1
 10
-95.15225980711182
 20
-32.51760793225225
450
        0
451
        0
460
0.0
461
0.0
452
        0
462
0.0
453
        0
470

  0
LINE
  5
19D5
330
18
100
AcDbEntity
  8
外形線
100
AcDbLine
 10
93.84018693918221
 20
104.9858603487764
 30
0.0
 11
93.84018693918221
 21
104.6275270154431
 31
0.0
  0
LINE
  5
19D6
330
18
100
AcDbEntity
  8
外形線
100
AcDbLine
 10
89.50685360584897
 20
104.8066936821098
 30
0.0
 11
91.84018693918222
 21
105.6559575620643
 31
0.0
  0
LINE
  5
19D7
330
18
100
AcDbEntity
  8
外形線
100
AcDbLine
 10
89.50685360584897
 20
106.3066936821097
 30
0.0
 11
89.50685360584897
 21
103.3066936821098
 31
0.0
  0
LINE
  5
19D8
330
18
100
AcDbEntity
  8
外形線
100
AcDbLine
 10
89.17352027251547
 20
106.3066936821097
 30
0.0
 11
89.17352027251547
 21
103.3066936821098
 31
0.0
  0
LINE
  5
19D9
330
18
100
AcDbEntity
  8
外形線
100
AcDbLine
 10
93.84018693918221
 20
104.6275270154431
 30
0.0
 11
91.84018693918222
 21
104.6275270154431
 31
0.0
  0
LINE
  5
19DA
330
18
100
AcDbEntity
  8
外形線
100
AcDbLine
 10
91.84018693918222
 20
104.6275270154431
 30
0.0
 11
91.84018693918222
 21
103.9574298021554
 31
0.0
  0
POINT
  5
19DB
330
18
100
AcDbEntity
  8
DEFPOINTS
  6
ByBlock
 62
     0
100
AcDbPoint
 10
89.17352027251547
 20
103.3066936821098
 30
0.0
  0
POINT
  5
19DC
330
18
100
AcDbEntity
  8
DEFPOINTS
  6
ByBlock
 62
     0
100
AcDbPoint
 10
89.50685360584897
 20
103.3066936821098
 30
0.0
  0
POINT
  5
19DD
330
18
100
AcDbEntity
  8
DEFPOINTS
  6
ByBlock
 62
     0
100
AcDbPoint
 10
89.17352027251547
 20
103.3066936821098
 30
0.0
  0
POINT
  5
19DE
330
18
100
AcDbEntity
  8
DEFPOINTS
  6
ByBlock
 62
     0
100
AcDbPoint
 10
91.84018693918222
 20
103.9574298021553
 30
0.0
  0
POINT
  5
19DF
330
18
100
AcDbEntity
  8
DEFPOINTS
  6
ByBlock
 62
     0
100
AcDbPoint
 10
89.50685360584897
 20
103.3066936821098
 30
0.0
  0
POINT
  5
19E0
330
18
100
AcDbEntity
  8
DEFPOINTS
  6
ByBlock
 62
     0
100
AcDbPoint
 10
91.84018693918222
 20
103.9574298021553
 30
0.0
  0
LINE
  5
19E1
330
18
100
AcDbEntity
  8
外形線
100
AcDbLine
 10
89.50685360584897
 20
104.8066936821098
 30
0.0
 11
91.84018693918222
 21
103.9574298021553
 31
0.0
  0
LINE
  5
19E2
330
18
100
AcDbEntity
  8
外形線
100
AcDbLine
 10
89.17352027251547
 20
103.3066936821098
 30
0.0
 11
89.50685360584897
 21
103.3066936821098
 31
0.0
  0
LINE
  5
19E3
330
18
100
AcDbEntity
  8
外形線
100
AcDbLine
 10
93.84018693918221
 20
104.9858603487764
 30
0.0
 11
91.84018693918222
 21
104.9858603487764
 31
0.0
  0
LINE
  5
19E4
330
18
100
AcDbEntity
  8
外形線
100
AcDbLine
 10
91.84018693918222
 20
105.6559575620643
 30
0.0
 11
91.84018693918222
 21
104.9858603487764
 31
0.0
  0
LINE
  5
19E5
330
18
100
AcDbEntity
  8
外形線
100
AcDbLine
 10
87.17352027251569
 20
106.3066936821097
 30
0.0
 11
87.50685360584895
 21
106.3066936821098
 31
0.0
  0
LINE
  5
19E6
330
18
100
AcDbEntity
  8
外形線
100
AcDbLine
 10
89.17352027251547
 20
106.3066936821098
 30
0.0
 11
89.50685360584897
 21
106.3066936821097
 31
0.0
  0
LINE
  5
1A6F
330
18
100
AcDbEntity
  8
針
100
AcDbLine
 10
86.43522421056998
 20
91.16136887898646
 30
0.0
 11
86.30548924780333
 21
91.16966583239957
 31
0.0
  0
LINE
  5
1A70
330
18
100
AcDbEntity
  8
針
100
AcDbLine
 10
87.53860198863977
 20
117.0923019136988
 30
0.0
 11
86.30548924780333
 21
91.16966583239957
 31
0.0
  0
LINE
  5
1A71
330
18
100
AcDbEntity
  8
針
100
AcDbLine
 10
88.64405239420191
 20
117.02160493025
 30
0.0
 11
86.56495917333661
 21
91.15307192557329
 31
0.0
  0
LINE
  5
1A72
330
18
100
AcDbEntity
  8
針
100
AcDbLine
 10
86.43522421056998
 20
91.16136887898646
 30
0.0
 11
86.56495917333661
 21
91.15307192557329
 31
0.0
  0
ARC
  5
1A73
330
18
100
AcDbEntity
  8
針
100
AcDbCircle
 10
86.53973147494268
 20
117.1398171414335
 30
0.0
 40
1.0
100
AcDbArc
 50
357.2765525454403
 51
30.13321068221935
  0
ARC
  5
1A74
330
18
100
AcDbEntity
  8
針
100
AcDbCircle
 10
89.64083816745166
 20
116.941491746273
 30
0.0
 40
1.0
100
AcDbArc
 50
142.5482702815571
 51
175.4049284183355
  0
HATCH
  5
1A75
330
18
100
AcDbEntity
  8
針
100
AcDbHatch
 10
0.0
 20
0.0
 30
0.0
210
0.0
220
0.0
230
1.0
  2
SOLID
 70
     1
 71
     0
 91
        1
 92
        7
 72
     1
 73
     1
 93
        7
 10
88.64405239420191
 20
117.02160493025
 42
-0.144354561678392
 10
88.84697224227382
 20
117.5495845786938
 42
-0.1222437615213255
 10
87.4045920566399
 20
117.6418292670105
 42
-0.14435456167839
 10
87.53860198863977
 20
117.0923019136988
 42
0.0
 10
86.30548924780333
 20
91.16966583239955
 42
0.0
 10
86.43522421056998
 20
91.16136887898646
 42
0.0
 10
86.56495917333661
 20
91.15307192557331
 42
0.0
 97
        0
 75
     0
 76
     1
 47
0.0443407669343012
 98
        1
 10
88.13256031540252
 20
115.0750221673696
450
        0
451
        0
460
0.0
461
0.0
452
        0
462
0.0
453
        0
470

  0
LINE
  5
1C2A
330
18
100
AcDbEntity
  8
目盛
100
AcDbLine
 10
68.55146845409453
 20
96.61551916323801
 30
0.0
 11
70.08128602949136
 21
98.4647509458999
 31
0.0
  0
LINE
  5
1C37
330
18
100
AcDbEntity
  8
目盛
100
AcDbLine
 10
108.0717558185132
 20
96.61551916323801
 30
0.0
 11
106.5419382431164
 21
98.4647509458999
 31
0.0
  0
TEXT
  5
1CBE
330
18
100
AcDbEntity
  8
文字
100
AcDbText
 10
241.9267548463115
 20
26.79225600772014
 30
0.0
 40
2.0
  1

  7
STYLE3
100
AcDbText
  0
DIMENSION
  5
1D5C
330
18
100
AcDbEntity
  8
寸法線
100
AcDbDimension
  2
*D10
 10
47.8402620694784
 20
151.5014296892875
 30
0.0
 11
45.96526206947837
 21
120.5014296892875
 31
0.0
 70
    32
  1
φ31
 71
     5
 42
62.00000000000001
  3
STYLE3
100
AcDbAlignedDimension
 13
88.31161213630389
 23
89.50142968928748
 33
0.0
 14
88.31161213630389
 24
151.5014296892875
 34
0.0
 50
90.0
100
AcDbRotatedDimension
1001
ACAD
1000
DSTYLE
1002
{
1070
   271
1070
     2
1070
   341
1005
0
1002
}
  0
ARC
  5
1DEE
330
18
100
AcDbEntity
  8
外形線
100
AcDbCircle
 10
88.31161213630391
 20
40.70142968928752
 30
0.0
 40
2.399999999999999
100
AcDbArc
 50
189.5940682268598
 51
350.4059317731401
  0
ARC
  5
1DEF
330
18
100
AcDbEntity
  8
外形線
100
AcDbCircle
 10
187.6917090131953
 20
40.70142968928752
 30
0.0
 40
2.399999999999999
100
AcDbArc
 50
189.5940682268598
 51
350.4059317731401
  0
TEXT
  5
1E2A
330
18
100
AcDbEntity
  8
文字
100
AcDbText
 10
70.36823011042591
 20
186.9958313504707
 30
0.0
 40
3.5
  1
Model No.47SZ One Revolution Dial Gauge
  7
STYLE3
100
AcDbText
  0
LINE
  5
1E2B
330
18
100
AcDbEntity
  8
外形線
100
AcDbLine
 10
69.82022211042592
 20
183.8345123504707
 30
0.0
 11
179.8202221104259
 21
183.8345123504707
 31
0.0
  0
LINE
  5
1E2C
330
18
100
AcDbEntity
  8
外形線
100
AcDbLine
 10
69.82022211042592
 20
184.8345123504707
 30
0.0
 11
179.8202221104259
 21
184.8345123504707
 31
0.0
  0
LINE
  5
1E2D
330
18
100
AcDbEntity
  8
外形線
100
AcDbLine
 10
113.8559451104259
 20
20.80646835047076
 30
0.0
 11
254.6473631104259
 21
20.80646835047076
 31
0.0
  0
TEXT
  5
1E2E
330
18
100
AcDbEntity
  8
0
  6
Continuous
100
AcDbText
 10
115.6049071104259
 20
15.85340135047076
 30
0.0
 40
3.5
  1
仕様及び外観は予告なく変更される場合がございますのでご了承下さい。
  7
STYLE3
100
AcDbText
  0
TEXT
  5
1E2F
330
18
100
AcDbEntity
  8
0
  6
Continuous
100
AcDbText
 10
196.8231211104259
 20
3.907767350470757
 30
0.0
 40
2.1
  1
2010.06.09
  7
STYLE3
100
AcDbText
  0
LINE
  5
1E30
330
18
100
AcDbEntity
  8
外形線
100
AcDbLine
 10
113.8559451104259
 20
10.02626235047076
 30
0.0
 11
254.6473631104259
 21
10.02626235047076
 31
0.0
  0
TEXT
  5
1E31
330
18
100
AcDbEntity
  8
0
  6
Continuous
100
AcDbText
 10
115.3134131104259
 20
11.92425335047075
 30
0.0
 40
2.1
  1
Design and specifications are subject to change without notice for future improvement.
  7
STYLE3
100
AcDbText
  0
TEXT
  5
1E32
330
18
100
AcDbEntity
  8
0
  6
Continuous
100
AcDbText
 10
115.0219211104259
 20
2.159625350470756
 30
0.0
 40
2.1
  1
3RD Angle Projection
  7
STYLE3
100
AcDbText
  0
LINE
  5
1E33
330
18
100
AcDbEntity
  8
外形線
100
AcDbLine
 10
113.8559451104259
 20
0.411484350470757
 30
0.0
 11
113.8559451104259
 21
20.80646835047076
 31
0.0
  0
TEXT
  5
1E34
330
18
100
AcDbEntity
  8
0
  6
Continuous
100
AcDbText
 10
117.6453641104259
 20
5.655908350470756
 30
0.0
 40
3.0
  1
三　　角　　法
  7
STYLE3
100
AcDbText
  0
LINE
  5
1E35
330
18
100
AcDbEntity
  8
外形線
100
AcDbLine
 10
186.1463621104259
 20
10.02626235047076
 30
0.0
 11
186.1463621104259
 21
0.411484350470757
 31
0.0
  0
LINE
  5
1E36
330
18
100
AcDbEntity
  8
外形線
100
AcDbLine
 10
166.6162901104259
 20
10.02626235047076
 30
0.0
 11
166.6162901104259
 21
0.411484350470757
 31
0.0
  0
LINE
  5
1E37
330
18
100
AcDbEntity
  8
外形線
100
AcDbLine
 10
149.1266731104259
 20
10.02626235047076
 30
0.0
 11
149.1266731104259
 21
0.411484350470757
 31
0.0
  0
TEXT
  5
1E38
330
18
100
AcDbEntity
  8
0
  6
Continuous
100
AcDbText
 10
158.6261901104259
 20
3.907768350470756
 30
0.0
 40
2.399999999999999
  1
mm
  7
STYLE3
100
AcDbText
  0
TEXT
  5
1E39
330
18
100
AcDbEntity
  8
0
  6
Continuous
100
AcDbText
 10
150.7558631104259
 20
2.159626350470756
 30
0.0
 40
2.1
  1
Unit
  7
STYLE3
100
AcDbText
  0
TEXT
  5
1E3A
330
18
100
AcDbEntity
  8
0
  6
Continuous
100
AcDbText
 10
150.5841421104259
 20
5.661862350470756
 30
0.0
 40
3.0
  1
単位
  7
STYLE3
100
AcDbText
  0
TEXT
  5
1E3B
330
18
100
AcDbEntity
  8
0
  6
Continuous
100
AcDbText
 10
167.9020381104259
 20
5.370505350470756
 30
0.0
 40
3.0
  1
尺 度
  7
STYLE3
100
AcDbText
  0
TEXT
  5
1E3C
330
18
100
AcDbEntity
  8
0
  6
Continuous
100
AcDbText
 10
168.3652531104259
 20
2.450983350470756
 30
0.0
 40
2.1
  1
Scale
  7
STYLE3
100
AcDbText
  0
TEXT
  5
1E3D
330
18
100
AcDbEntity
  8
0
  6
Continuous
100
AcDbText
 10
188.0783141104259
 20
2.159627350470756
 30
0.0
 40
2.1
  1
Date
  7
STYLE3
100
AcDbText
  0
TEXT
  5
1E3E
330
18
100
AcDbEntity
  8
0
  6
Continuous
100
AcDbText
 10
187.6949531104259
 20
5.492710350470757
 30
0.0
 40
3.0
  1
日 付
  7
STYLE3
100
AcDbText
  0
TEXT
  5
1E3F
330
18
100
AcDbEntity
  8
0
  6
Continuous
100
AcDbText
 10
177.9845421104259
 20
4.199125350470756
 30
0.0
 40
2.399999999999999
  1
2/1
  7
STYLE3
100
AcDbText
  0
LINE
  5
1E40
330
18
100
AcDbEntity
  8
外形線
100
AcDbLine
 10
215.8787121104259
 20
10.02626235047076
 30
0.0
 11
215.8787121104259
 21
0.411484350470757
 31
0.0
  0
TEXT
  5
1E41
330
18
100
AcDbEntity
  8
0
  6
Continuous
100
AcDbText
 10
217.2276751104259
 20
5.947265350470757
 30
0.0
 40
3.0
  1
株式会社　尾崎製作所
  7
STYLE3
100
AcDbText
  0
TEXT
  5
1E42
330
18
100
AcDbEntity
  8
0
  6
Continuous
100
AcDbText
 10
218.1021541104259
 20
2.159626350470756
 30
0.0
 40
2.1
  1
OZAKI MFG. CO., LTD.
  7
STYLE3
100
AcDbText
  0
VIEWPORT
  5
177
330
15
100
AcDbEntity
 67
     1
  8
0
100
AcDbViewport
 10
127.5041203589828
 20
97.49391214526822
 30
0.0
 40
418.3086347473814
 41
243.0346063651093
 68
     1
 69
     1
 12
127.5041203589828
 22
97.49391214526822
 13
0.0
 23
0.0
 14
10.0
 24
10.0
 15
10.0
 25
10.0
 16
0.0
 26
0.0
 36
1.0
 17
0.0
 27
0.0
 37
0.0
 42
50.0
 43
0.0
 44
0.0
 45
243.0346063651093
 50
0.0
 51
0.0
 72
   100
 90
    32800
  1

281
     0
 71
     1
 74
     0
110
0.0
120
0.0
130
0.0
111
1.0
121
0.0
131
0.0
112
0.0
122
1.0
132
0.0
 79
     0
146
0.0
170
     0
  0
ENDSEC
  0
SECTION
  2
OBJECTS
  0
DICTIONARY
  5
C
330
0
100
AcDbDictionary
281
     1
  3
ACAD_COLOR
350
1633
  3
ACAD_GROUP
350
D
  3
ACAD_LAYOUT
350
1636
  3
ACAD_MATERIAL
350
1632
  3
ACAD_MLINESTYLE
350
1B
  3
ACAD_PLOTSETTINGS
350
1637
  3
ACAD_PLOTSTYLENAME
350
1630
  3
ACAD_TABLESTYLE
350
1634
  3
ACDBVARIABLEDICTIONARY
350
D97
  0
DICTIONARY
  5
1633
102
{ACAD_REACTORS
330
C
102
}
330
C
100
AcDbDictionary
281
     1
  0
DICTIONARY
  5
D
102
{ACAD_REACTORS
330
C
102
}
330
C
100
AcDbDictionary
281
     1
  0
DICTIONARY
  5
1636
102
{ACAD_REACTORS
330
C
102
}
330
C
100
AcDbDictionary
281
     1
  3
Model
350
1638
  3
レイアウト1
350
1639
  0
DICTIONARY
  5
1632
102
{ACAD_REACTORS
330
C
102
}
330
C
100
AcDbDictionary
281
     1
  0
DICTIONARY
  5
1B
102
{ACAD_REACTORS
330
C
102
}
330
C
100
AcDbDictionary
281
     1
  3
STANDARD
350
1C
  0
DICTIONARY
  5
1637
102
{ACAD_REACTORS
330
C
102
}
330
C
100
AcDbDictionary
281
     1
  0
ACDBDICTIONARYWDFLT
  5
1630
102
{ACAD_REACTORS
330
C
102
}
330
C
100
AcDbDictionary
281
     1
  3
Normal
350
1631
100
AcDbDictionaryWithDefault
340
1631
  0
DICTIONARY
  5
1634
102
{ACAD_REACTORS
330
C
102
}
330
C
100
AcDbDictionary
281
     1
  3
Standard
350
1635
  0
DICTIONARY
  5
D97
102
{ACAD_REACTORS
330
C
102
}
330
C
100
AcDbDictionary
281
     1
  3
CTABLESTYLE
350
163F
  3
SORTENTS
350
D98
  0
LAYOUT
  5
1638
102
{ACAD_REACTORS
330
1636
102
}
330
1636
100
AcDbPlotSettings
  1

  2
A4 EPSON LP-6100.pc3
  4
A4
  6

 40
5.873749732971191
 41
5.873747825622558
 42
5.873748779296875
 43
5.873748779296875
 44
209.9733276367187
 45
297.0106506347656
 46
1.5
 47
25.0
 48
0.0
 49
0.0
140
0.0
141
0.0
142
1.0
143
1.0
 70
 28336
 72
     1
 73
     1
 74
     1
  7
AutoCAD LT 98.ctb
 75
    16
147
1.0
 76
     1
 77
     2
 78
   300
148
0.2256454072593215
149
0.2181385412601458
100
AcDbLayout
  1
Model
 70
     1
 71
     0
 10
0.0
 20
0.0
 11
12.0
 21
9.0
 12
0.0
 22
0.0
 32
0.0
 14
0.0
 24
0.0
 34
0.0
 15
0.0
 25
0.0
 35
0.0
146
0.0
 13
0.0
 23
0.0
 33
0.0
 16
1.0
 26
0.0
 36
0.0
 17
0.0
 27
1.0
 37
0.0
 76
     0
330
18
1001
ACAD_PSEXT
1000
A4 EPSON LP-6100.pc3
1000
EPSON LP-6100
1000
USB002
1000

1070
     0
  0
LAYOUT
  5
1639
102
{ACAD_REACTORS
330
1636
102
}
330
1636
100
AcDbPlotSettings
  1

  2
C:\Documents and Settings\佐藤\Application Data\Autodesk\AutoCAD LT 2005\R10\jpn\plotters\PEACOCK EPSON LP-6100.pc3
  4

  6

 40
0.0
 41
0.0
 42
0.0
 43
0.0
 44
0.0
 45
0.0
 46
0.0
 47
0.0
 48
0.0
 49
0.0
140
0.0
141
0.0
142
1.0
143
1.0
 70
   688
 72
     0
 73
     0
 74
     5
  7
AutoCAD LT 98.ctb
 75
    16
147
1.0
 76
     0
 77
     2
 78
   300
148
0.0
149
0.0
100
AcDbLayout
  1
レイアウト1
 70
     1
 71
     1
 10
0.0
 20
0.0
 11
420.0
 21
297.0
 12
0.0
 22
0.0
 32
0.0
 14
-0.2
 24
-0.2
 34
0.0
 15
255.2
 25
195.2
 35
0.0
146
0.0
 13
0.0
 23
0.0
 33
0.0
 16
1.0
 26
0.0
 36
0.0
 17
0.0
 27
1.0
 37
0.0
 76
     0
330
15
331
177
  0
MLINESTYLE
  5
1C
102
{ACAD_REACTORS
330
1B
102
}
330
1B
100
AcDbMlineStyle
  2
STANDARD
 70
     0
  3

 62
   256
 51
90.0
 52
90.0
 71
     2
 49
0.5
 62
   256
  6
BYLAYER
 49
-0.5
 62
   256
  6
BYLAYER
  0
ACDBPLACEHOLDER
  5
1631
102
{ACAD_REACTORS
330
1630
102
}
330
1630
  0
ACAD_PROXY_OBJECT
  5
1635
102
{ACAD_REACTORS
330
1634
102
}
330
1634
100
AcDbProxyObject
 90
      499
 91
      504
 95
  2555929
 70
     0
 93
     1849
310
4214DD185B99185C992420000000000000F83F0000000000003E0FC00000000000004901028000000C1008070000C3001FDFF8000000C1003FBFF000000182007F7FE00000030400FEFFC00000060801FDFF8000000C1003FBFF000000182000000000000000C2020B0000001820100E000186003FBFF000000182007F7FE0
310
0000030400FEFFC00000060801FDFF8000000C1003FBFF000000182007F7FE0000003040000000000000012404160000003040201C00030C007F7FE00000030400FEFFC00000060801FDFF8000000C1003FBFF000000182007F7FE00000030400FEFFC000000608000
340
F
340
F
340
F
 94
        0
  0
DICTIONARYVAR
  5
163F
102
{ACAD_REACTORS
330
D97
102
}
330
D97
100
DictionaryVariables
280
     0
  1
STANDARD
  0
DICTIONARYVAR
  5
D98
102
{ACAD_REACTORS
330
D97
102
}
330
D97
100
DictionaryVariables
280
     0
  1
96
  0
ENDSEC
  0
EOF
