  0
SECTION
  2
HEADER
  9
$ACADVER
  1
AC1018
  9
$ACADMAINTVER
 70
     0
  9
$DWGCODEPAGE
  3
ANSI_932
  9
$INSBASE
 10
0.0
 20
0.0
 30
0.0
  9
$EXTMIN
 10
255.8333053331939
 20
176.0392376680199
 30
-1.000015248078273
  9
$EXTMAX
 10
634.1449399030143
 20
459.3787801311446
 30
0.0000152620489651
  9
$LIMMIN
 10
0.0
 20
0.0
  9
$LIMMAX
 10
420.0
 20
297.0
  9
$ORTHOMODE
 70
     0
  9
$REGENMODE
 70
     1
  9
$FILLMODE
 70
     1
  9
$QTEXTMODE
 70
     0
  9
$MIRRTEXT
 70
     1
  9
$LTSCALE
 40
1.0
  9
$ATTMODE
 70
     1
  9
$TEXTSIZE
 40
3.0
  9
$TRACEWID
 40
1.0
  9
$TEXTSTYLE
  7
STYLE3
  9
$CLAYER
  8
寸法線
  9
$CELTYPE
  6
BYLAYER
  9
$CECOLOR
 62
   256
  9
$CELTSCALE
 40
1.0
  9
$DISPSILH
 70
     0
  9
$DIMSCALE
 40
1.0
  9
$DIMASZ
 40
2.5
  9
$DIMEXO
 40
0.0
  9
$DIMDLI
 40
3.75
  9
$DIMRND
 40
0.0
  9
$DIMDLE
 40
0.0
  9
$DIMEXE
 40
1.25
  9
$DIMTP
 40
0.0
  9
$DIMTM
 40
0.0
  9
$DIMTXT
 40
2.5
  9
$DIMCEN
 40
2.5
  9
$DIMTSZ
 40
0.0
  9
$DIMTOL
 70
     0
  9
$DIMLIM
 70
     0
  9
$DIMTIH
 70
     0
  9
$DIMTOH
 70
     0
  9
$DIMSE1
 70
     0
  9
$DIMSE2
 70
     0
  9
$DIMTAD
 70
     1
  9
$DIMZIN
 70
     8
  9
$DIMBLK
  1

  9
$DIMASO
 70
     1
  9
$DIMSHO
 70
     1
  9
$DIMPOST
  1

  9
$DIMAPOST
  1

  9
$DIMALT
 70
     0
  9
$DIMALTD
 70
     4
  9
$DIMALTF
 40
0.0394
  9
$DIMLFAC
 40
1.0
  9
$DIMTOFL
 70
     1
  9
$DIMTVP
 40
0.0
  9
$DIMTIX
 70
     0
  9
$DIMSOXD
 70
     0
  9
$DIMSAH
 70
     1
  9
$DIMBLK1
  1
OPEN
  9
$DIMBLK2
  1
OPEN
  9
$DIMSTYLE
  2
STYLE3
  9
$DIMCLRD
 70
     2
  9
$DIMCLRE
 70
     2
  9
$DIMCLRT
 70
     6
  9
$DIMTFAC
 40
1.0
  9
$DIMGAP
 40
0.625
  9
$DIMJUST
 70
     0
  9
$DIMSD1
 70
     0
  9
$DIMSD2
 70
     0
  9
$DIMTOLJ
 70
     1
  9
$DIMTZIN
 70
     0
  9
$DIMALTZ
 70
     0
  9
$DIMALTTZ
 70
     0
  9
$DIMUPT
 70
     0
  9
$DIMDEC
 70
     1
  9
$DIMTDEC
 70
     4
  9
$DIMALTU
 70
     8
  9
$DIMALTTD
 70
     4
  9
$DIMTXSTY
  7
STYLE3
  9
$DIMAUNIT
 70
     0
  9
$DIMADEC
 70
     0
  9
$DIMALTRND
 40
0.0
  9
$DIMAZIN
 70
     0
  9
$DIMDSEP
 70
    46
  9
$DIMATFIT
 70
     3
  9
$DIMFRAC
 70
     0
  9
$DIMLDRBLK
  1
OPEN
  9
$DIMLUNIT
 70
     2
  9
$DIMLWD
 70
    -2
  9
$DIMLWE
 70
    -2
  9
$DIMTMOVE
 70
     0
  9
$LUNITS
 70
     2
  9
$LUPREC
 70
     4
  9
$SKETCHINC
 40
1.0
  9
$FILLETRAD
 40
7.0
  9
$AUNITS
 70
     0
  9
$AUPREC
 70
     0
  9
$MENU
  1
.
  9
$ELEVATION
 40
0.0
  9
$PELEVATION
 40
0.0
  9
$THICKNESS
 40
0.0
  9
$LIMCHECK
 70
     0
  9
$CHAMFERA
 40
0.4
  9
$CHAMFERB
 40
0.4
  9
$CHAMFERC
 40
20.0
  9
$CHAMFERD
 40
0.0
  9
$SKPOLY
 70
     0
  9
$TDCREATE
 40
2450941.543760417
  9
$TDUCREATE
 40
2450941.168760417
  9
$TDUPDATE
 40
2455356.599297049
  9
$TDUUPDATE
 40
2455356.224297049
  9
$TDINDWG
 40
0.2642363889
  9
$TDUSRTIMER
 40
0.2642363889
  9
$USRTIMER
 70
     1
  9
$ANGBASE
 50
0.0
  9
$ANGDIR
 70
     0
  9
$PDMODE
 70
     0
  9
$PDSIZE
 40
0.0
  9
$PLINEWID
 40
0.0
  9
$SPLFRAME
 70
     0
  9
$SPLINETYPE
 70
     6
  9
$SPLINESEGS
 70
     8
  9
$HANDSEED
  5
24E6
  9
$SURFTAB1
 70
     6
  9
$SURFTAB2
 70
     6
  9
$SURFTYPE
 70
     6
  9
$SURFU
 70
     6
  9
$SURFV
 70
     6
  9
$UCSBASE
  2

  9
$UCSNAME
  2

  9
$UCSORG
 10
0.0
 20
0.0
 30
0.0
  9
$UCSXDIR
 10
1.0
 20
0.0
 30
0.0
  9
$UCSYDIR
 10
0.0
 20
1.0
 30
0.0
  9
$UCSORTHOREF
  2

  9
$UCSORTHOVIEW
 70
     0
  9
$UCSORGTOP
 10
0.0
 20
0.0
 30
0.0
  9
$UCSORGBOTTOM
 10
0.0
 20
0.0
 30
0.0
  9
$UCSORGLEFT
 10
0.0
 20
0.0
 30
0.0
  9
$UCSORGRIGHT
 10
0.0
 20
0.0
 30
0.0
  9
$UCSORGFRONT
 10
0.0
 20
0.0
 30
0.0
  9
$UCSORGBACK
 10
0.0
 20
0.0
 30
0.0
  9
$PUCSBASE
  2

  9
$PUCSNAME
  2

  9
$PUCSORG
 10
0.0
 20
0.0
 30
0.0
  9
$PUCSXDIR
 10
1.0
 20
0.0
 30
0.0
  9
$PUCSYDIR
 10
0.0
 20
1.0
 30
0.0
  9
$PUCSORTHOREF
  2

  9
$PUCSORTHOVIEW
 70
     0
  9
$PUCSORGTOP
 10
0.0
 20
0.0
 30
0.0
  9
$PUCSORGBOTTOM
 10
0.0
 20
0.0
 30
0.0
  9
$PUCSORGLEFT
 10
0.0
 20
0.0
 30
0.0
  9
$PUCSORGRIGHT
 10
0.0
 20
0.0
 30
0.0
  9
$PUCSORGFRONT
 10
0.0
 20
0.0
 30
0.0
  9
$PUCSORGBACK
 10
0.0
 20
0.0
 30
0.0
  9
$USERI1
 70
     0
  9
$USERI2
 70
     0
  9
$USERI3
 70
     0
  9
$USERI4
 70
     0
  9
$USERI5
 70
     0
  9
$USERR1
 40
0.0
  9
$USERR2
 40
0.0
  9
$USERR3
 40
0.0
  9
$USERR4
 40
0.0
  9
$USERR5
 40
0.0
  9
$WORLDVIEW
 70
     1
  9
$SHADEDGE
 70
     3
  9
$SHADEDIF
 70
    70
  9
$TILEMODE
 70
     1
  9
$MAXACTVP
 70
    48
  9
$PINSBASE
 10
0.0
 20
0.0
 30
0.0
  9
$PLIMCHECK
 70
     0
  9
$PEXTMIN
 10
1.000000000000000E+20
 20
1.000000000000000E+20
 30
1.000000000000000E+20
  9
$PEXTMAX
 10
-1.000000000000000E+20
 20
-1.000000000000000E+20
 30
-1.000000000000000E+20
  9
$PLIMMIN
 10
0.0
 20
0.0
  9
$PLIMMAX
 10
420.0
 20
297.0
  9
$UNITMODE
 70
     0
  9
$VISRETAIN
 70
     1
  9
$PLINEGEN
 70
     0
  9
$PSLTSCALE
 70
     1
  9
$TREEDEPTH
 70
  3020
  9
$CMLSTYLE
  2
STANDARD
  9
$CMLJUST
 70
     0
  9
$CMLSCALE
 40
20.0
  9
$PROXYGRAPHICS
 70
     1
  9
$MEASUREMENT
 70
     1
  9
$CELWEIGHT
370
    -1
  9
$ENDCAPS
280
     0
  9
$JOINSTYLE
280
     0
  9
$LWDISPLAY
290
     0
  9
$INSUNITS
 70
     0
  9
$HYPERLINKBASE
  1

  9
$STYLESHEET
  1
AutoCAD LT 98.ctb
  9
$XEDIT
290
     1
  9
$CEPSNTYPE
380
     0
  9
$PSTYLEMODE
290
     1
  9
$FINGERPRINTGUID
  2
{910C4C57-2A14-44BA-83FA-4E4DA6B98E4C}
  9
$VERSIONGUID
  2
{EF7A1B4D-5B20-4E12-8B69-1D34AE252C62}
  9
$EXTNAMES
290
     1
  9
$PSVPSCALE
 40
0.0
  9
$OLESTARTUP
290
     0
  9
$SORTENTS
280
    96
  9
$INDEXCTL
280
     0
  9
$HIDETEXT
280
     0
  9
$XCLIPFRAME
290
     0
  9
$HALOGAP
280
     0
  9
$OBSCOLOR
 70
   257
  9
$OBSLTYPE
280
     0
  9
$INTERSECTIONDISPLAY
280
     0
  9
$INTERSECTIONCOLOR
 70
   257
  9
$DIMASSOC
280
     1
  9
$PROJECTNAME
  1

  0
ENDSEC
  0
SECTION
  2
CLASSES
  0
CLASS
  1
HATCH
  2
AcDbHatch
  3
ObjectDBX Classes
 90
        0
 91
       13
280
     0
281
     1
  0
CLASS
  1
LWPOLYLINE
  2
AcDbPolyline
  3
ObjectDBX Classes
 90
        0
 91
        1
280
     0
281
     1
  0
CLASS
  1
IMAGEDEF
  2
AcDbRasterImageDef
  3
ISM
 90
        0
 91
        1
280
     0
281
     0
  0
CLASS
  1
DICTIONARYVAR
  2
AcDbDictionaryVar
  3
ObjectDBX Classes
 90
        0
 91
        2
280
     0
281
     0
  0
CLASS
  1
ACDBDICTIONARYWDFLT
  2
AcDbDictionaryWithDefault
  3
ObjectDBX Classes
 90
        0
 91
        1
280
     0
281
     0
  0
CLASS
  1
TABLESTYLE
  2
AcDbTableStyle
  3
ObjectDBX Classes
 90
     2047
 91
        1
280
     0
281
     0
  0
CLASS
  1
SORTENTSTABLE
  2
AcDbSortentsTable
  3
ObjectDBX Classes
 90
        0
 91
        1
280
     0
281
     0
  0
ENDSEC
  0
SECTION
  2
TABLES
  0
TABLE
  2
VPORT
  5
8
330
0
100
AcDbSymbolTable
 70
     2
  0
VPORT
  5
24E5
330
8
100
AcDbSymbolTableRecord
100
AcDbViewportTableRecord
  2
*Active
 70
     0
 10
0.0
 20
0.0
 11
1.0
 21
1.0
 12
444.9891226181041
 22
317.7090088995823
 13
0.0
 23
0.0
 14
10.0
 24
10.0
 15
10.0
 25
10.0
 16
0.0
 26
0.0
 36
1.0
 17
0.0
 27
0.0
 37
0.0
 40
285.4942157898404
 41
1.530456852791878
 42
50.0
 43
0.0
 44
0.0
 50
0.0
 51
0.0
 71
     0
 72
   100
 73
     1
 74
     1
 75
     0
 76
     0
 77
     0
 78
     0
281
     0
 65
     1
110
0.0
120
0.0
130
0.0
111
1.0
121
0.0
131
0.0
112
0.0
122
1.0
132
0.0
 79
     0
146
0.0
  0
ENDTAB
  0
TABLE
  2
LTYPE
  5
5
330
0
100
AcDbSymbolTable
 70
     5
  0
LTYPE
  5
12
330
5
100
AcDbSymbolTableRecord
100
AcDbLinetypeTableRecord
  2
BYBLOCK
 70
     0
  3

 72
    65
 73
     0
 40
0.0
  0
LTYPE
  5
13
330
5
100
AcDbSymbolTableRecord
100
AcDbLinetypeTableRecord
  2
BYLAYER
 70
     0
  3

 72
    65
 73
     0
 40
0.0
  0
LTYPE
  5
14
330
5
100
AcDbSymbolTableRecord
100
AcDbLinetypeTableRecord
  2
CONTINUOUS
 70
     0
  3
Solid line
 72
    65
 73
     0
 40
0.0
  0
LTYPE
  5
22
330
5
100
AcDbSymbolTableRecord
100
AcDbLinetypeTableRecord
  2
CENTER2
 70
     0
  3
Center (.5x) ___ _ ___ _ ___ _ ___ _ ___ _ ___
 72
    65
 73
     4
 40
28.575
 49
19.05
 74
     0
 49
-3.174999999999999
 74
     0
 49
3.174999999999999
 74
     0
 49
-3.174999999999999
 74
     0
  0
LTYPE
  5
24
330
5
100
AcDbSymbolTableRecord
100
AcDbLinetypeTableRecord
  2
PHANTOM2
 70
     0
  3
Phantom (.5x) ___ _ _ ___ _ _ ___ _ _ ___ _ _
 72
    65
 73
     6
 40
31.75
 49
15.875
 74
     0
 49
-3.174999999999999
 74
     0
 49
3.174999999999999
 74
     0
 49
-3.174999999999999
 74
     0
 49
3.174999999999999
 74
     0
 49
-3.174999999999999
 74
     0
  0
ENDTAB
  0
TABLE
  2
LAYER
  5
2
330
0
100
AcDbSymbolTable
 70
    16
  0
LAYER
  5
E
330
2
100
AcDbSymbolTableRecord
100
AcDbLayerTableRecord
  2
0
 70
     0
 62
     7
  6
CONTINUOUS
370
    -3
390
114D
  0
LAYER
  5
25
330
2
100
AcDbSymbolTableRecord
100
AcDbLayerTableRecord
  2
外形線
 70
     0
 62
     7
  6
CONTINUOUS
370
    -3
390
114D
  0
LAYER
  5
26
330
2
100
AcDbSymbolTableRecord
100
AcDbLayerTableRecord
  2
寸法線
 70
     0
 62
     2
  6
CONTINUOUS
370
    -3
390
114D
  0
LAYER
  5
27
330
2
100
AcDbSymbolTableRecord
100
AcDbLayerTableRecord
  2
中心線
 70
     0
 62
     4
  6
CENTER2
370
    -3
390
114D
  0
LAYER
  5
29
330
2
100
AcDbSymbolTableRecord
100
AcDbLayerTableRecord
  2
想像線
 70
     0
 62
     1
  6
PHANTOM2
370
    -3
390
114D
  0
LAYER
  5
2A
330
2
100
AcDbSymbolTableRecord
100
AcDbLayerTableRecord
  2
ﾊｯﾁﾝｸ
 70
     0
 62
     2
  6
CONTINUOUS
370
    -3
390
114D
  0
LAYER
  5
2B
330
2
100
AcDbSymbolTableRecord
100
AcDbLayerTableRecord
  2
文字
 70
     0
 62
     6
  6
CONTINUOUS
370
    -3
390
114D
  0
LAYER
  5
2C
330
2
100
AcDbSymbolTableRecord
100
AcDbLayerTableRecord
  2
目盛
 70
     0
 62
    72
  6
CONTINUOUS
370
    -3
390
114D
  0
LAYER
  5
2D
330
2
100
AcDbSymbolTableRecord
100
AcDbLayerTableRecord
  2
針
 70
     0
 62
     5
  6
CONTINUOUS
370
    -3
390
114D
  0
LAYER
  5
53
330
2
100
AcDbSymbolTableRecord
100
AcDbLayerTableRecord
  2
DEFPOINTS
 70
     0
 62
     7
  6
CONTINUOUS
290
     0
370
    -3
390
114D
  0
LAYER
  5
A5
330
2
100
AcDbSymbolTableRecord
100
AcDbLayerTableRecord
  2
C
 70
     0
 62
     7
  6
CONTINUOUS
370
    -3
390
114D
  0
LAYER
  5
9A8
330
2
100
AcDbSymbolTableRecord
100
AcDbLayerTableRecord
  2
ROGO
 70
     0
 62
     6
  6
CONTINUOUS
370
    -3
390
114D
  0
ENDTAB
  0
TABLE
  2
STYLE
  5
3
330
0
100
AcDbSymbolTable
 70
     4
  0
STYLE
  5
F
330
3
100
AcDbSymbolTableRecord
100
AcDbTextStyleTableRecord
  2
STANDARD
 70
     0
 40
0.0
 41
1.0
 50
0.0
 71
     0
 42
2.5
  3
txt
  4

  0
STYLE
  5
3F
330
3
100
AcDbSymbolTableRecord
100
AcDbTextStyleTableRecord
  2
STYLE3
 70
     0
 40
0.0
 41
1.0
 50
0.0
 71
     0
 42
3.0
  3
romans.shx
  4
bigfont.shx
  0
ENDTAB
  0
TABLE
  2
VIEW
  5
6
330
0
100
AcDbSymbolTable
 70
     0
  0
ENDTAB
  0
TABLE
  2
UCS
  5
7
330
0
100
AcDbSymbolTable
 70
     0
  0
ENDTAB
  0
TABLE
  2
APPID
  5
9
330
0
100
AcDbSymbolTable
 70
     2
  0
APPID
  5
10
330
9
100
AcDbSymbolTableRecord
100
AcDbRegAppTableRecord
  2
ACAD
 70
     0
  0
APPID
  5
19C9
330
9
100
AcDbSymbolTableRecord
100
AcDbRegAppTableRecord
  2
ACAD_PSEXT
 70
     0
  0
ENDTAB
  0
TABLE
  2
DIMSTYLE
  5
A
330
0
100
AcDbSymbolTable
 70
     8
100
AcDbDimStyleTable
 71
     2
340
8F
340
12EE
  0
DIMSTYLE
105
1D
330
A
100
AcDbSymbolTableRecord
100
AcDbDimStyleTableRecord
  2
STANDARD
 70
     0
 41
2.5
 42
0.625
 43
3.75
 44
1.25
 73
     0
 74
     0
 77
     1
 78
     8
140
2.5
141
2.5
143
0.0394
147
0.625
171
     4
172
     1
273
     8
274
     4
277
     6
340
F
  0
DIMSTYLE
105
8F
102
{ACAD_REACTORS
330
1F8D
330
1F9A
330
1FF7
102
}
330
A
100
AcDbSymbolTableRecord
100
AcDbDimStyleTableRecord
  2
STYLE3
 70
     0
 41
2.5
 42
0.0
 43
3.75
 44
1.25
 73
     0
 74
     0
 77
     1
 78
     8
140
2.5
141
2.5
143
0.0394
147
0.625
171
     4
172
     1
173
     1
176
     2
177
     2
178
     6
271
     1
273
     8
274
     4
340
3F
341
45
343
45
344
45
  0
DIMSTYLE
105
12EC
102
{ACAD_REACTORS
330
2005
102
}
330
A
100
AcDbSymbolTableRecord
100
AcDbDimStyleTableRecord
  2
STYLE2
 70
     0
 41
2.5
 42
0.0
 43
3.75
 44
1.25
 73
     0
 74
     0
 77
     1
 78
     8
140
2.5
141
2.5
143
0.0394
147
0.625
171
     4
172
     1
173
     1
176
     2
177
     2
178
     6
271
     1
273
     8
274
     4
340
3F
341
45
343
45
344
45
  0
DIMSTYLE
105
12EE
102
{ACAD_REACTORS
330
1947
330
1FA7
330
1FC6
102
}
330
A
100
AcDbSymbolTableRecord
100
AcDbDimStyleTableRecord
  2
φ
 70
     0
  3
%%C<>
 41
2.5
 42
0.0
 43
3.75
 44
1.25
 73
     0
 74
     0
 77
     1
 78
     8
140
2.5
141
2.5
143
0.0394
147
0.625
171
     4
172
     1
173
     1
176
     2
177
     2
178
     6
271
     1
272
     1
273
     8
274
     4
340
3F
343
45
344
45
  0
ENDTAB
  0
TABLE
  2
BLOCK_RECORD
  5
1
330
0
100
AcDbSymbolTable
 70
    11
  0
BLOCK_RECORD
  5
18
102
{ACAD_XDICTIONARY
360
239E
102
}
330
1
100
AcDbSymbolTableRecord
100
AcDbBlockTableRecord
  2
*MODEL_SPACE
340
1154
  0
BLOCK_RECORD
  5
15
330
1
100
AcDbSymbolTableRecord
100
AcDbBlockTableRecord
  2
*PAPER_SPACE
340
1155
  0
BLOCK_RECORD
  5
45
330
1
100
AcDbSymbolTableRecord
100
AcDbBlockTableRecord
  2
_OPEN
340
0
102
{BLKREFS
331
F0B
331
1072
331
1073
331
107B
331
107C
331
108D
331
108E
331
10A0
331
10A1
331
1108
331
1109
331
1117
331
1118
331
23EE
331
23EF
331
249E
331
249F
331
24A7
331
24A8
331
24B0
331
24B1
331
24B9
331
24BA
331
24C2
331
24C3
331
24CB
331
24CC
331
24D4
331
24D5
102
}
  0
BLOCK_RECORD
  5
1948
330
1
100
AcDbSymbolTableRecord
100
AcDbBlockTableRecord
  2
*D1
340
0
  0
BLOCK_RECORD
  5
1F8E
330
1
100
AcDbSymbolTableRecord
100
AcDbBlockTableRecord
  2
*D3
340
0
  0
BLOCK_RECORD
  5
1F9B
330
1
100
AcDbSymbolTableRecord
100
AcDbBlockTableRecord
  2
*D4
340
0
  0
BLOCK_RECORD
  5
1FA8
330
1
100
AcDbSymbolTableRecord
100
AcDbBlockTableRecord
  2
*D5
340
0
  0
BLOCK_RECORD
  5
1FC7
330
1
100
AcDbSymbolTableRecord
100
AcDbBlockTableRecord
  2
*D6
340
0
  0
BLOCK_RECORD
  5
1FF8
330
1
100
AcDbSymbolTableRecord
100
AcDbBlockTableRecord
  2
*D7
340
0
  0
BLOCK_RECORD
  5
2011
330
1
100
AcDbSymbolTableRecord
100
AcDbBlockTableRecord
  2
*D8
340
0
  0
ENDTAB
  0
ENDSEC
  0
SECTION
  2
BLOCKS
  0
BLOCK
  5
19
330
18
100
AcDbEntity
  8
0
100
AcDbBlockBegin
  2
*MODEL_SPACE
 70
     0
 10
0.0
 20
0.0
 30
0.0
  3
*MODEL_SPACE
  1

  0
ENDBLK
  5
1A
330
18
100
AcDbEntity
  8
0
100
AcDbBlockEnd
  0
BLOCK
  5
16
330
15
100
AcDbEntity
 67
     1
  8
0
100
AcDbBlockBegin
  2
*PAPER_SPACE
 70
     0
 10
0.0
 20
0.0
 30
0.0
  3
*PAPER_SPACE
  1

  0
ENDBLK
  5
17
330
15
100
AcDbEntity
 67
     1
  8
0
100
AcDbBlockEnd
  0
BLOCK
  5
46
330
45
100
AcDbEntity
  8
0
100
AcDbBlockBegin
  2
_OPEN
 70
     0
 10
0.0
 20
0.0
 30
0.0
  3
_OPEN
  1

  0
LINE
  5
47
330
45
100
AcDbEntity
  8
0
  6
ByBlock
 62
     0
100
AcDbLine
 10
-1.0
 20
0.1666666666666666
 30
0.0
 11
0.0
 21
0.0
 31
0.0
  0
LINE
  5
48
330
45
100
AcDbEntity
  8
0
  6
ByBlock
 62
     0
100
AcDbLine
 10
0.0
 20
0.0
 30
0.0
 11
-1.0
 21
-0.1666666666666666
 31
0.0
  0
LINE
  5
49
330
45
100
AcDbEntity
  8
0
  6
ByBlock
 62
     0
100
AcDbLine
 10
0.0
 20
0.0
 30
0.0
 11
-1.0
 21
0.0
 31
0.0
  0
ENDBLK
  5
4A
330
45
100
AcDbEntity
  8
0
100
AcDbBlockEnd
  0
BLOCK
  5
1952
330
1948
100
AcDbEntity
  8
0
100
AcDbBlockBegin
  2
*D1
 70
     1
 10
0.0
 20
0.0
 30
0.0
  3
*D1
  1

  0
LINE
  5
24AD
330
1948
100
AcDbEntity
  8
寸法線
 62
     2
370
    -2
100
AcDbLine
 10
349.6453609481968
 20
341.9339486312959
 30
0.0
 11
349.6453609481968
 21
432.3177903611728
 31
0.0
  0
LINE
  5
24AE
330
1948
100
AcDbEntity
  8
寸法線
 62
     2
370
    -2
100
AcDbLine
 10
422.6453609481967
 20
341.9339486312959
 30
0.0
 11
422.6453609481967
 21
432.3177903611728
 31
0.0
  0
LINE
  5
24AF
330
1948
100
AcDbEntity
  8
寸法線
 62
     2
370
    -2
100
AcDbLine
 10
352.1453609481968
 20
431.0677903611729
 30
0.0
 11
420.1453609481967
 21
431.0677903611729
 31
0.0
  0
INSERT
  5
24B0
330
1948
100
AcDbEntity
  8
寸法線
 62
     2
370
    -2
100
AcDbBlockReference
  2
_OPEN
 10
349.6453609481968
 20
431.0677903611729
 30
0.0
 41
2.5
 42
2.5
 43
2.5
 50
180.0
  0
INSERT
  5
24B1
330
1948
100
AcDbEntity
  8
寸法線
 62
     2
370
    -2
100
AcDbBlockReference
  2
_OPEN
 10
422.6453609481967
 20
431.0677903611729
 30
0.0
 41
2.5
 42
2.5
 43
2.5
  0
MTEXT
  5
24B2
330
1948
100
AcDbEntity
  8
寸法線
 62
     6
100
AcDbMText
 10
386.1453609481968
 20
432.9427903611729
 30
0.0
 40
2.5
 41
0.0
 71
     5
 72
     1
  1
\A1;%%C73
  7
STYLE3
 73
     1
 44
1.0
  0
POINT
  5
24B3
330
1948
100
AcDbEntity
  8
DEFPOINTS
 62
     0
100
AcDbPoint
 10
349.6453609481968
 20
341.9339486312959
 30
0.0
  0
POINT
  5
24B4
330
1948
100
AcDbEntity
  8
DEFPOINTS
 62
     0
100
AcDbPoint
 10
422.6453609481967
 20
341.9339486312959
 30
0.0
  0
POINT
  5
24B5
330
1948
100
AcDbEntity
  8
DEFPOINTS
 62
     0
100
AcDbPoint
 10
422.6453609481967
 20
431.0677903611729
 30
0.0
  0
ENDBLK
  5
1953
330
1948
100
AcDbEntity
  8
0
100
AcDbBlockEnd
  0
BLOCK
  5
1F98
330
1F8E
100
AcDbEntity
  8
0
100
AcDbBlockBegin
  2
*D3
 70
     1
 10
0.0
 20
0.0
 30
0.0
  3
*D3
  1

  0
LINE
  5
24C8
330
1F8E
100
AcDbEntity
  8
寸法線
 62
     2
370
    -2
100
AcDbLine
 10
521.3024409089853
 20
341.933948631296
 30
0.0
 11
521.3024409089853
 21
431.8185072995649
 31
0.0
  0
LINE
  5
24C9
330
1F8E
100
AcDbEntity
  8
寸法線
 62
     2
370
    -2
100
AcDbLine
 10
538.8024409089852
 20
429.451128536326
 30
0.0
 11
538.8024409089852
 21
431.8185072995649
 31
0.0
  0
LINE
  5
24CA
330
1F8E
100
AcDbEntity
  8
寸法線
 62
     2
370
    -2
100
AcDbLine
 10
523.8024409089852
 20
430.5685072995649
 30
0.0
 11
536.3024409089852
 21
430.5685072995649
 31
0.0
  0
INSERT
  5
24CB
330
1F8E
100
AcDbEntity
  8
寸法線
 62
     2
370
    -2
100
AcDbBlockReference
  2
_OPEN
 10
521.3024409089853
 20
430.5685072995649
 30
0.0
 41
2.5
 42
2.5
 43
2.5
 50
180.0
  0
INSERT
  5
24CC
330
1F8E
100
AcDbEntity
  8
寸法線
 62
     2
370
    -2
100
AcDbBlockReference
  2
_OPEN
 10
538.8024409089852
 20
430.5685072995649
 30
0.0
 41
2.5
 42
2.5
 43
2.5
  0
MTEXT
  5
24CD
330
1F8E
100
AcDbEntity
  8
寸法線
 62
     6
100
AcDbMText
 10
530.0524409089852
 20
432.4435072995648
 30
0.0
 40
2.5
 41
0.0
 71
     5
 72
     1
  1
\A1;17.5
  7
STYLE3
 73
     1
 44
1.0
  0
POINT
  5
24CE
330
1F8E
100
AcDbEntity
  8
DEFPOINTS
 62
     0
100
AcDbPoint
 10
521.3024409089853
 20
341.933948631296
 30
0.0
  0
POINT
  5
24CF
330
1F8E
100
AcDbEntity
  8
DEFPOINTS
 62
     0
100
AcDbPoint
 10
538.8024409089852
 20
429.451128536326
 30
0.0
  0
POINT
  5
24D0
330
1F8E
100
AcDbEntity
  8
DEFPOINTS
 62
     0
100
AcDbPoint
 10
538.8024409089852
 20
430.5685072995649
 30
0.0
  0
ENDBLK
  5
1F99
330
1F8E
100
AcDbEntity
  8
0
100
AcDbBlockEnd
  0
BLOCK
  5
1FA5
330
1F9B
100
AcDbEntity
  8
0
100
AcDbBlockBegin
  2
*D4
 70
     1
 10
0.0
 20
0.0
 30
0.0
  3
*D4
  1

  0
LINE
  5
24D1
330
1F9B
100
AcDbEntity
  8
寸法線
 62
     2
370
    -2
100
AcDbLine
 10
538.8024409089852
 20
429.451128536326
 30
0.0
 11
538.8024409089852
 21
431.8185072995649
 31
0.0
  0
LINE
  5
24D2
330
1F9B
100
AcDbEntity
  8
寸法線
 62
     2
370
    -2
100
AcDbLine
 10
547.3024409089852
 20
381.1839486312959
 30
0.0
 11
547.3024409089852
 21
431.8185072995649
 31
0.0
  0
LINE
  5
24D3
330
1F9B
100
AcDbEntity
  8
寸法線
 62
     2
370
    -2
100
AcDbLine
 10
541.3024409089851
 20
430.5685072995649
 30
0.0
 11
544.8024409089851
 21
430.5685072995649
 31
0.0
  0
INSERT
  5
24D4
330
1F9B
100
AcDbEntity
  8
寸法線
 62
     2
370
    -2
100
AcDbBlockReference
  2
_OPEN
 10
538.8024409089852
 20
430.5685072995649
 30
0.0
 41
2.5
 42
2.5
 43
2.5
 50
180.0
  0
INSERT
  5
24D5
330
1F9B
100
AcDbEntity
  8
寸法線
 62
     2
370
    -2
100
AcDbBlockReference
  2
_OPEN
 10
547.3024409089852
 20
430.5685072995649
 30
0.0
 41
2.5
 42
2.5
 43
2.5
  0
MTEXT
  5
24D6
330
1F9B
100
AcDbEntity
  8
寸法線
 62
     6
100
AcDbMText
 10
543.0524409089851
 20
432.4435072995648
 30
0.0
 40
2.5
 41
0.0
 71
     5
 72
     1
  1
\A1;8.5
  7
STYLE3
 73
     1
 44
1.0
  0
POINT
  5
24D7
330
1F9B
100
AcDbEntity
  8
DEFPOINTS
 62
     0
100
AcDbPoint
 10
538.8024409089852
 20
429.451128536326
 30
0.0
  0
POINT
  5
24D8
330
1F9B
100
AcDbEntity
  8
DEFPOINTS
 62
     0
100
AcDbPoint
 10
547.3024409089852
 20
381.1839486312959
 30
0.0
  0
POINT
  5
24D9
330
1F9B
100
AcDbEntity
  8
DEFPOINTS
 62
     0
100
AcDbPoint
 10
547.3024409089852
 20
430.5685072995649
 30
0.0
  0
ENDBLK
  5
1FA6
330
1F9B
100
AcDbEntity
  8
0
100
AcDbBlockEnd
  0
BLOCK
  5
1FB2
330
1FA8
100
AcDbEntity
  8
0
100
AcDbBlockBegin
  2
*D5
 70
     1
 10
0.0
 20
0.0
 30
0.0
  3
*D5
  1

  0
LINE
  5
24A4
330
1FA8
100
AcDbEntity
  8
寸法線
 62
     2
370
    -2
100
AcDbLine
 10
530.1024409089852
 20
382.6839486312959
 30
0.0
 11
503.3717696113729
 21
382.6839486312959
 31
0.0
  0
LINE
  5
24A5
330
1FA8
100
AcDbEntity
  8
寸法線
 62
     2
370
    -2
100
AcDbLine
 10
529.3271527163349
 20
301.1839486312959
 30
0.0
 11
503.3717696113729
 21
301.1839486312959
 31
0.0
  0
LINE
  5
24A6
330
1FA8
100
AcDbEntity
  8
寸法線
 62
     2
370
    -2
100
AcDbLine
 10
504.6217696113729
 20
380.1839486312959
 30
0.0
 11
504.6217696113729
 21
303.683948631296
 31
0.0
  0
INSERT
  5
24A7
330
1FA8
100
AcDbEntity
  8
寸法線
 62
     2
370
    -2
100
AcDbBlockReference
  2
_OPEN
 10
504.6217696113729
 20
382.6839486312959
 30
0.0
 41
2.5
 42
2.5
 43
2.5
 50
90.0
  0
INSERT
  5
24A8
330
1FA8
100
AcDbEntity
  8
寸法線
 62
     2
370
    -2
100
AcDbBlockReference
  2
_OPEN
 10
504.6217696113729
 20
301.1839486312959
 30
0.0
 41
2.5
 42
2.5
 43
2.5
 50
270.0
  0
MTEXT
  5
24A9
330
1FA8
100
AcDbEntity
  8
寸法線
 62
     6
100
AcDbMText
 10
502.7467696113729
 20
341.933948631296
 30
0.0
 40
2.5
 41
0.0
 71
     5
 72
     1
  1
\A1;%%C81.5
  7
STYLE3
 11
0.0000000000000001
 21
1.0
 31
0.0
 73
     1
 44
1.0
  0
POINT
  5
24AA
330
1FA8
100
AcDbEntity
  8
DEFPOINTS
 62
     0
100
AcDbPoint
 10
530.1024409089852
 20
382.6839486312959
 30
0.0
  0
POINT
  5
24AB
330
1FA8
100
AcDbEntity
  8
DEFPOINTS
 62
     0
100
AcDbPoint
 10
529.3271527163349
 20
301.1839486312959
 30
0.0
  0
POINT
  5
24AC
330
1FA8
100
AcDbEntity
  8
DEFPOINTS
 62
     0
100
AcDbPoint
 10
504.6217696113729
 20
301.1839486312959
 30
0.0
  0
ENDBLK
  5
1FB3
330
1FA8
100
AcDbEntity
  8
0
100
AcDbBlockEnd
  0
BLOCK
  5
1FD1
330
1FC7
100
AcDbEntity
  8
0
100
AcDbBlockBegin
  2
*D6
 70
     1
 10
0.0
 20
0.0
 30
0.0
  3
*D6
  1

  0
LINE
  5
24BF
330
1FC7
100
AcDbEntity
  8
寸法線
 62
     2
370
    -2
100
AcDbLine
 10
547.3024409089852
 20
381.1839486312959
 30
0.0
 11
585.5597460218832
 21
381.1839486312959
 31
0.0
  0
LINE
  5
24C0
330
1FC7
100
AcDbEntity
  8
寸法線
 62
     2
370
    -2
100
AcDbLine
 10
547.3024409089852
 20
302.6839486312959
 30
0.0
 11
585.5597460218832
 21
302.6839486312959
 31
0.0
  0
LINE
  5
24C1
330
1FC7
100
AcDbEntity
  8
寸法線
 62
     2
370
    -2
100
AcDbLine
 10
584.3097460218833
 20
378.6839486312959
 30
0.0
 11
584.3097460218833
 21
305.1839486312959
 31
0.0
  0
INSERT
  5
24C2
330
1FC7
100
AcDbEntity
  8
寸法線
 62
     2
370
    -2
100
AcDbBlockReference
  2
_OPEN
 10
584.3097460218833
 20
381.1839486312959
 30
0.0
 41
2.5
 42
2.5
 43
2.5
 50
90.0
  0
INSERT
  5
24C3
330
1FC7
100
AcDbEntity
  8
寸法線
 62
     2
370
    -2
100
AcDbBlockReference
  2
_OPEN
 10
584.3097460218833
 20
302.6839486312959
 30
0.0
 41
2.5
 42
2.5
 43
2.5
 50
270.0
  0
MTEXT
  5
24C4
330
1FC7
100
AcDbEntity
  8
寸法線
 62
     6
100
AcDbMText
 10
582.4347460218831
 20
341.933948631296
 30
0.0
 40
2.5
 41
0.0
 71
     5
 72
     1
  1
\A1;%%C78.5
  7
STYLE3
 11
0.0000000000000001
 21
1.0
 31
0.0
 73
     1
 44
1.0
  0
POINT
  5
24C5
330
1FC7
100
AcDbEntity
  8
DEFPOINTS
 62
     0
100
AcDbPoint
 10
547.3024409089852
 20
381.1839486312959
 30
0.0
  0
POINT
  5
24C6
330
1FC7
100
AcDbEntity
  8
DEFPOINTS
 62
     0
100
AcDbPoint
 10
547.3024409089852
 20
302.6839486312959
 30
0.0
  0
POINT
  5
24C7
330
1FC7
100
AcDbEntity
  8
DEFPOINTS
 62
     0
100
AcDbPoint
 10
584.3097460218833
 20
302.6839486312959
 30
0.0
  0
ENDBLK
  5
1FD2
330
1FC7
100
AcDbEntity
  8
0
100
AcDbBlockEnd
  0
BLOCK
  5
2002
330
1FF8
100
AcDbEntity
  8
0
100
AcDbBlockBegin
  2
*D7
 70
     1
 10
0.0
 20
0.0
 30
0.0
  3
*D7
  1

  0
LINE
  5
249B
330
1FF8
100
AcDbEntity
  8
寸法線
 62
     2
370
    -2
100
AcDbLine
 10
536.0524409089853
 20
222.9339486312959
 30
0.0
 11
527.2288883451678
 21
222.9339486312959
 31
0.0
  0
LINE
  5
249C
330
1FF8
100
AcDbEntity
  8
寸法線
 62
     2
370
    -2
100
AcDbLine
 10
538.8024409089852
 20
213.9339486312959
 30
0.0
 11
527.2288883451678
 21
213.9339486312959
 31
0.0
  0
LINE
  5
249D
330
1FF8
100
AcDbEntity
  8
寸法線
 62
     2
370
    -2
100
AcDbLine
 10
528.4788883451678
 20
220.4339486312959
 30
0.0
 11
528.4788883451678
 21
216.4339486312959
 31
0.0
  0
INSERT
  5
249E
330
1FF8
100
AcDbEntity
  8
寸法線
 62
     2
370
    -2
100
AcDbBlockReference
  2
_OPEN
 10
528.4788883451678
 20
222.9339486312959
 30
0.0
 41
2.5
 42
2.5
 43
2.5
 50
90.0
  0
INSERT
  5
249F
330
1FF8
100
AcDbEntity
  8
寸法線
 62
     2
370
    -2
100
AcDbBlockReference
  2
_OPEN
 10
528.4788883451678
 20
213.9339486312959
 30
0.0
 41
2.5
 42
2.5
 43
2.5
 50
270.0
  0
MTEXT
  5
24A0
330
1FF8
100
AcDbEntity
  8
寸法線
 62
     6
100
AcDbMText
 10
526.6038883451678
 20
218.433948631296
 30
0.0
 40
2.5
 41
0.0
 71
     5
 72
     1
  1
\A1;9
  7
STYLE3
 11
0.0000000000000001
 21
1.0
 31
0.0
 73
     1
 44
1.0
  0
POINT
  5
24A1
330
1FF8
100
AcDbEntity
  8
DEFPOINTS
 62
     0
100
AcDbPoint
 10
536.0524409089853
 20
222.9339486312959
 30
0.0
  0
POINT
  5
24A2
330
1FF8
100
AcDbEntity
  8
DEFPOINTS
 62
     0
100
AcDbPoint
 10
538.8024409089852
 20
213.9339486312959
 30
0.0
  0
POINT
  5
24A3
330
1FF8
100
AcDbEntity
  8
DEFPOINTS
 62
     0
100
AcDbPoint
 10
528.4788883451678
 20
213.9339486312959
 30
0.0
  0
ENDBLK
  5
2003
330
1FF8
100
AcDbEntity
  8
0
100
AcDbBlockEnd
  0
BLOCK
  5
201B
330
2011
100
AcDbEntity
  8
0
100
AcDbBlockBegin
  2
*D8
 70
     1
 10
0.0
 20
0.0
 30
0.0
  3
*D8
  1

  0
LINE
  5
24B6
330
2011
100
AcDbEntity
  8
寸法線
 62
     2
370
    -2
100
AcDbLine
 10
380.8953609481968
 20
253.3773285441072
 30
0.0
 11
378.3953609481968
 21
253.3773285441072
 31
0.0
  0
LINE
  5
24B7
330
2011
100
AcDbEntity
  8
寸法線
 62
     2
370
    -2
100
AcDbLine
 10
391.3953609481968
 20
253.3773285441072
 30
0.0
 11
402.6453609481967
 21
253.3773285441072
 31
0.0
  0
LINE
  5
24B8
330
2011
100
AcDbEntity
  8
寸法線
 62
     2
370
    -2
100
AcDbLine
 10
383.3953609481968
 20
253.3773285441072
 30
0.0
 11
388.8953609481967
 21
253.3773285441072
 31
0.0
  0
INSERT
  5
24B9
330
2011
100
AcDbEntity
  8
寸法線
 62
     2
370
    -2
100
AcDbBlockReference
  2
_OPEN
 10
383.3953609481968
 20
253.3773285441072
 30
0.0
 41
2.5
 42
2.5
 43
2.5
  0
INSERT
  5
24BA
330
2011
100
AcDbEntity
  8
寸法線
 62
     2
370
    -2
100
AcDbBlockReference
  2
_OPEN
 10
388.8953609481967
 20
253.3773285441072
 30
0.0
 41
2.5
 42
2.5
 43
2.5
 50
180.0
  0
MTEXT
  5
24BB
330
2011
100
AcDbEntity
  8
寸法線
 62
     6
100
AcDbMText
 10
398.2703609481967
 20
255.2523285441072
 30
0.0
 40
2.5
 41
0.0
 71
     5
 72
     1
  1
\A1;%%C5.5
  7
STYLE3
 73
     1
 44
1.0
  0
POINT
  5
24BC
330
2011
100
AcDbEntity
  8
DEFPOINTS
 62
     0
100
AcDbPoint
 10
383.3953609481968
 20
266.0703857256344
 30
0.0
  0
POINT
  5
24BD
330
2011
100
AcDbEntity
  8
DEFPOINTS
 62
     0
100
AcDbPoint
 10
388.8953609481967
 20
269.8192369491025
 30
0.0
  0
POINT
  5
24BE
330
2011
100
AcDbEntity
  8
DEFPOINTS
 62
     0
100
AcDbPoint
 10
388.8953609481967
 20
253.3773285441072
 30
0.0
  0
ENDBLK
  5
201C
330
2011
100
AcDbEntity
  8
0
100
AcDbBlockEnd
  0
ENDSEC
  0
SECTION
  2
ENTITIES
  0
LWPOLYLINE
  5
1A0
330
18
100
AcDbEntity
  8
C
100
AcDbPolyline
 90
        5
 70
     0
 43
0.8
 10
256.2352605185929
 20
458.9717683211813
 10
633.7352605185929
 20
458.9717683211813
 10
633.7352605185929
 20
176.4717683211813
 10
256.2352605185929
 20
176.4717683211813
 10
256.2352605185929
 20
458.9717683211813
  0
LINE
  5
1F9
330
18
100
AcDbEntity
  8
目盛
100
AcDbLine
 10
386.1453609481968
 20
378.4339486312959
 30
0.0
 11
386.1453609481968
 21
372.6839486312959
 31
0.0
  0
LINE
  5
1FA
330
18
100
AcDbEntity
  8
目盛
100
AcDbLine
 10
383.8535069853769
 20
378.3619242189278
 30
0.0
 11
384.0889714336118
 21
374.6193239873218
 31
0.0
  0
LINE
  5
1FB
330
18
100
AcDbEntity
  8
目盛
100
AcDbLine
 10
381.5706979230997
 20
378.1461352292743
 30
0.0
 11
382.0406975489658
 21
374.425705099345
 31
0.0
  0
LINE
  5
1FC
330
18
100
AcDbEntity
  8
目盛
100
AcDbLine
 10
379.3059429658178
 20
377.7874332828931
 30
0.0
 11
380.0086228955142
 21
374.1038560926605
 31
0.0
  0
LINE
  5
1FD
330
18
100
AcDbEntity
  8
目盛
100
AcDbLine
 10
377.0681800666797
 20
377.287234012491
 30
0.0
 11
378.0007671435478
 21
373.6550471582585
 31
0.0
  0
LINE
  5
1FE
330
18
100
AcDbEntity
  8
目盛
100
AcDbLine
 10
374.8662406535111
 20
376.647511476069
 30
0.0
 11
376.3340713767921
 21
372.129993023667
 31
0.0
  0
LINE
  5
1FF
330
18
100
AcDbEntity
  8
目盛
100
AcDbLine
 10
372.708814775206
 20
375.8707903662171
 30
0.0
 11
374.0892818477736
 21
372.3841285441362
 31
0.0
  0
LINE
  5
200
330
18
100
AcDbEntity
  8
目盛
100
AcDbLine
 10
370.6044168060716
 20
374.9601360463056
 30
0.0
 11
372.2010891494406
 21
371.5670345995581
 31
0.0
  0
LINE
  5
201
330
18
100
AcDbEntity
  8
目盛
100
AcDbLine
 10
368.5613518434841
 20
373.9191424528969
 30
0.0
 11
370.3679281213656
 21
370.6329924027325
 31
0.0
  0
LINE
  5
202
330
18
100
AcDbEntity
  8
目盛
100
AcDbLine
 10
366.5876829314634
 20
372.7519179121194
 30
0.0
 11
368.5970334126346
 21
369.5856881914869
 31
0.0
  0
LINE
  5
203
330
18
100
AcDbEntity
  8
目盛
100
AcDbLine
 10
364.6911992395216
 20
371.4630689259815
 30
0.0
 11
368.0709644402032
 21
366.8112212083255
 31
0.0
  0
LINE
  5
204
330
18
100
AcDbEntity
  8
目盛
100
AcDbLine
 10
362.8793853223696
 20
370.0576819926122
 30
0.0
 11
365.2697252839272
 21
367.1682573322029
 31
0.0
  0
LINE
  5
205
330
18
100
AcDbEntity
  8
目盛
100
AcDbLine
 10
361.1593915817997
 20
368.5413035321775
 30
0.0
 11
363.7264432290322
 21
365.8076711793471
 31
0.0
  0
LINE
  5
206
330
18
100
AcDbEntity
  8
目盛
100
AcDbLine
 10
359.5380060473153
 20
366.9199179976931
 30
0.0
 11
362.2716384001455
 21
364.3528663504605
 31
0.0
  0
LINE
  5
207
330
18
100
AcDbEntity
  8
目盛
100
AcDbLine
 10
358.0216275868804
 20
365.199924257123
 30
0.0
 11
360.9110522472896
 21
362.8095842955655
 31
0.0
  0
LINE
  5
208
330
18
100
AcDbEntity
  8
目盛
100
AcDbLine
 10
356.6162406535111
 20
363.3881103399711
 30
0.0
 11
360.4590713767922
 21
360.5961303915819
 31
0.0
  0
LINE
  5
209
330
18
100
AcDbEntity
  8
目盛
100
AcDbLine
 10
355.3273916673731
 20
361.4916266480292
 30
0.0
 11
358.4936213880058
 21
359.482276166858
 31
0.0
  0
LINE
  5
20A
330
18
100
AcDbEntity
  8
目盛
100
AcDbLine
 10
354.1601671265957
 20
359.5179577360084
 30
0.0
 11
357.4463171767602
 21
357.7113814581271
 31
0.0
  0
LINE
  5
20B
330
18
100
AcDbEntity
  8
目盛
100
AcDbLine
 10
353.1191735331871
 20
357.474892773421
 30
0.0
 11
356.5122749799345
 21
355.878220430052
 31
0.0
  0
LINE
  5
20C
330
18
100
AcDbEntity
  8
目盛
100
AcDbLine
 10
352.2085192132756
 20
355.3704948042867
 30
0.0
 11
355.6951810353565
 21
353.9900277317191
 31
0.0
  0
LINE
  5
20D
330
18
100
AcDbEntity
  8
目盛
100
AcDbLine
 10
351.4317981034237
 20
353.2130689259815
 30
0.0
 11
356.9003730721208
 21
351.4362212083255
 31
0.0
  0
LINE
  5
20E
330
18
100
AcDbEntity
  8
目盛
100
AcDbLine
 10
350.7920755670017
 20
351.0111295128131
 30
0.0
 11
354.4242624212341
 21
350.0785424359449
 31
0.0
  0
LINE
  5
20F
330
18
100
AcDbEntity
  8
目盛
100
AcDbLine
 10
350.2918762965996
 20
348.7733666136748
 30
0.0
 11
353.9754534868322
 21
348.0706866839784
 31
0.0
  0
LINE
  5
210
330
18
100
AcDbEntity
  8
目盛
100
AcDbLine
 10
349.9331743502184
 20
346.508611656393
 30
0.0
 11
353.6536044801476
 21
346.0386120305269
 31
0.0
  0
LINE
  5
211
330
18
100
AcDbEntity
  8
目盛
100
AcDbLine
 10
349.7173853605648
 20
344.2258025941158
 30
0.0
 11
353.4599855921708
 21
343.9903381458809
 31
0.0
  0
LINE
  5
212
330
18
100
AcDbEntity
  8
目盛
100
AcDbLine
 10
349.6453609481968
 20
341.9339486312959
 30
0.0
 11
354.3953609481968
 21
341.9339486312959
 31
0.0
  0
LINE
  5
213
330
18
100
AcDbEntity
  8
目盛
100
AcDbLine
 10
349.7173853605648
 20
339.6420946684759
 30
0.0
 11
353.4599855921709
 21
339.8775591167109
 31
0.0
  0
LINE
  5
214
330
18
100
AcDbEntity
  8
目盛
100
AcDbLine
 10
349.9331743502184
 20
337.3592856061987
 30
0.0
 11
353.6536044801476
 21
337.8292852320649
 31
0.0
  0
LINE
  5
215
330
18
100
AcDbEntity
  8
目盛
100
AcDbLine
 10
350.2918762965996
 20
335.0945306489169
 30
0.0
 11
353.9754534868322
 21
335.7972105786134
 31
0.0
  0
LINE
  5
216
330
18
100
AcDbEntity
  8
目盛
100
AcDbLine
 10
350.7920755670018
 20
332.8567677497787
 30
0.0
 11
354.4242624212341
 21
333.7893548266469
 31
0.0
  0
LINE
  5
217
330
18
100
AcDbEntity
  8
目盛
100
AcDbLine
 10
351.4317981034237
 20
330.6548283366102
 30
0.0
 11
356.9003730721208
 21
332.4316760542662
 31
0.0
  0
LINE
  5
218
330
18
100
AcDbEntity
  8
目盛
100
AcDbLine
 10
352.2085192132756
 20
328.4974024583052
 30
0.0
 11
355.6951810353565
 21
329.8778695308727
 31
0.0
  0
LINE
  5
219
330
18
100
AcDbEntity
  8
目盛
100
AcDbLine
 10
353.1191735331871
 20
326.3930044891707
 30
0.0
 11
356.5122749799347
 21
327.9896768325398
 31
0.0
  0
LINE
  5
21A
330
18
100
AcDbEntity
  8
目盛
100
AcDbLine
 10
354.1601671265957
 20
324.3499395265832
 30
0.0
 11
357.4463171767602
 21
326.1565158044647
 31
0.0
  0
LINE
  5
21B
330
18
100
AcDbEntity
  8
目盛
100
AcDbLine
 10
355.3273916673732
 20
322.3762706145625
 30
0.0
 11
358.4936213880059
 21
324.3856210957337
 31
0.0
  0
LINE
  5
21C
330
18
100
AcDbEntity
  8
目盛
100
AcDbLine
 10
356.6162406535112
 20
320.4797869226206
 30
0.0
 11
360.4590713767922
 21
323.2717668710098
 31
0.0
  0
LINE
  5
21D
330
18
100
AcDbEntity
  8
目盛
100
AcDbLine
 10
358.0216275868805
 20
318.6679730054686
 30
0.0
 11
360.9110522472898
 21
321.0583129670263
 31
0.0
  0
LINE
  5
21E
330
18
100
AcDbEntity
  8
目盛
100
AcDbLine
 10
359.5380060473153
 20
316.9479792648987
 30
0.0
 11
362.2716384001456
 21
319.5150309121313
 31
0.0
  0
LINE
  5
21F
330
18
100
AcDbEntity
  8
目盛
100
AcDbLine
 10
361.1593915817997
 20
315.3265937304143
 30
0.0
 11
363.7264432290322
 21
318.0602260832446
 31
0.0
  0
LINE
  5
220
330
18
100
AcDbEntity
  8
目盛
100
AcDbLine
 10
362.8793853223696
 20
313.8102152699795
 30
0.0
 11
365.2697252839272
 21
316.6996399303887
 31
0.0
  0
LINE
  5
221
330
18
100
AcDbEntity
  8
目盛
100
AcDbLine
 10
364.6911992395216
 20
312.4048283366103
 30
0.0
 11
368.0709644402033
 21
317.0566760542663
 31
0.0
  0
LINE
  5
222
330
18
100
AcDbEntity
  8
目盛
100
AcDbLine
 10
366.5876829314634
 20
311.1159793504723
 30
0.0
 11
368.5970334126346
 21
314.2822090711048
 31
0.0
  0
LINE
  5
223
330
18
100
AcDbEntity
  8
目盛
100
AcDbLine
 10
368.5613518434842
 20
309.9487548096949
 30
0.0
 11
370.3679281213656
 21
313.2349048598593
 31
0.0
  0
LINE
  5
224
330
18
100
AcDbEntity
  8
目盛
100
AcDbLine
 10
370.6044168060717
 20
308.9077612162861
 30
0.0
 11
372.2010891494407
 21
312.3008626630336
 31
0.0
  0
LINE
  5
225
330
18
100
AcDbEntity
  8
目盛
100
AcDbLine
 10
372.708814775206
 20
307.9971068963747
 30
0.0
 11
374.0892818477736
 21
311.4837687184556
 31
0.0
  0
LINE
  5
226
330
18
100
AcDbEntity
  8
目盛
100
AcDbLine
 10
374.8662406535112
 20
307.2203857865228
 30
0.0
 11
376.3340713767923
 21
311.7379042389247
 31
0.0
  0
LINE
  5
227
330
18
100
AcDbEntity
  8
目盛
100
AcDbLine
 10
377.0681800666796
 20
306.5806632501008
 30
0.0
 11
378.0007671435478
 21
310.2128501043332
 31
0.0
  0
LINE
  5
228
330
18
100
AcDbEntity
  8
目盛
100
AcDbLine
 10
379.305942965818
 20
306.0804639796987
 30
0.0
 11
380.0086228955144
 21
309.7640411699313
 31
0.0
  0
LINE
  5
229
330
18
100
AcDbEntity
  8
目盛
100
AcDbLine
 10
381.5706979230998
 20
305.7217620333174
 30
0.0
 11
382.0406975489659
 21
309.4421921632467
 31
0.0
  0
LINE
  5
22A
330
18
100
AcDbEntity
  8
目盛
100
AcDbLine
 10
383.8535069853769
 20
305.505973043664
 30
0.0
 11
384.0889714336118
 21
309.2485732752701
 31
0.0
  0
LINE
  5
22B
330
18
100
AcDbEntity
  8
目盛
100
AcDbLine
 10
386.1453609481968
 20
305.4339486312959
 30
0.0
 11
386.1453609481968
 21
311.1839486312959
 31
0.0
  0
LINE
  5
22C
330
18
100
AcDbEntity
  8
目盛
100
AcDbLine
 10
388.4372149110168
 20
305.505973043664
 30
0.0
 11
388.2017504627818
 21
309.24857327527
 31
0.0
  0
LINE
  5
22D
330
18
100
AcDbEntity
  8
目盛
100
AcDbLine
 10
390.720023973294
 20
305.7217620333175
 30
0.0
 11
390.2500243474278
 21
309.4421921632468
 31
0.0
  0
LINE
  5
22E
330
18
100
AcDbEntity
  8
目盛
100
AcDbLine
 10
392.9847789305758
 20
306.0804639796988
 30
0.0
 11
392.2820990008794
 21
309.7640411699314
 31
0.0
  0
LINE
  5
22F
330
18
100
AcDbEntity
  8
目盛
100
AcDbLine
 10
395.222541829714
 20
306.5806632501009
 30
0.0
 11
394.2899547528458
 21
310.2128501043332
 31
0.0
  0
LINE
  5
230
330
18
100
AcDbEntity
  8
目盛
100
AcDbLine
 10
397.4244812428825
 20
307.2203857865228
 30
0.0
 11
395.9566505196015
 21
311.7379042389248
 31
0.0
  0
LINE
  5
231
330
18
100
AcDbEntity
  8
目盛
100
AcDbLine
 10
399.5819071211876
 20
307.9971068963747
 30
0.0
 11
398.2014400486201
 21
311.4837687184556
 31
0.0
  0
LINE
  5
232
330
18
100
AcDbEntity
  8
目盛
100
AcDbLine
 10
401.686305090322
 20
308.9077612162862
 30
0.0
 11
400.0896327469529
 21
312.3008626630339
 31
0.0
  0
LINE
  5
233
330
18
100
AcDbEntity
  8
目盛
100
AcDbLine
 10
403.7293700529095
 20
309.9487548096949
 30
0.0
 11
401.9227937750279
 21
313.2349048598594
 31
0.0
  0
LINE
  5
234
330
18
100
AcDbEntity
  8
目盛
100
AcDbLine
 10
405.7030389649302
 20
311.1159793504724
 30
0.0
 11
403.693688483759
 21
314.282209071105
 31
0.0
  0
LINE
  5
235
330
18
100
AcDbEntity
  8
目盛
100
AcDbLine
 10
407.5995226568721
 20
312.4048283366104
 30
0.0
 11
404.2197574561904
 21
317.0566760542663
 31
0.0
  0
LINE
  5
236
330
18
100
AcDbEntity
  8
目盛
100
AcDbLine
 10
409.411336574024
 20
313.8102152699797
 30
0.0
 11
407.0209966124664
 21
316.6996399303888
 31
0.0
  0
LINE
  5
237
330
18
100
AcDbEntity
  8
目盛
100
AcDbLine
 10
411.131330314594
 20
315.3265937304145
 30
0.0
 11
408.5642786673614
 21
318.0602260832448
 31
0.0
  0
LINE
  5
238
330
18
100
AcDbEntity
  8
目盛
100
AcDbLine
 10
412.7527158490783
 20
316.9479792648989
 30
0.0
 11
410.019083496248
 21
319.5150309121313
 31
0.0
  0
LINE
  5
239
330
18
100
AcDbEntity
  8
目盛
100
AcDbLine
 10
414.269094309513
 20
318.6679730054688
 30
0.0
 11
411.379669649104
 21
321.0583129670263
 31
0.0
  0
LINE
  5
23A
330
18
100
AcDbEntity
  8
目盛
100
AcDbLine
 10
415.6744812428824
 20
320.4797869226207
 30
0.0
 11
411.8316505196013
 21
323.2717668710098
 31
0.0
  0
LINE
  5
23B
330
18
100
AcDbEntity
  8
目盛
100
AcDbLine
 10
416.9633302290203
 20
322.3762706145625
 30
0.0
 11
413.7971005083877
 21
324.3856210957338
 31
0.0
  0
LINE
  5
23C
330
18
100
AcDbEntity
  8
目盛
100
AcDbLine
 10
418.1305547697978
 20
324.3499395265833
 30
0.0
 11
414.8444047196333
 21
326.1565158044648
 31
0.0
  0
LINE
  5
23D
330
18
100
AcDbEntity
  8
目盛
100
AcDbLine
 10
419.1715483632065
 20
326.3930044891708
 30
0.0
 11
415.7784469164589
 21
327.9896768325398
 31
0.0
  0
LINE
  5
23E
330
18
100
AcDbEntity
  8
目盛
100
AcDbLine
 10
420.0822026831179
 20
328.4974024583052
 30
0.0
 11
416.595540861037
 21
329.8778695308727
 31
0.0
  0
LINE
  5
23F
330
18
100
AcDbEntity
  8
目盛
100
AcDbLine
 10
420.8589237929698
 20
330.6548283366104
 30
0.0
 11
415.3903488242727
 21
332.4316760542663
 31
0.0
  0
LINE
  5
240
330
18
100
AcDbEntity
  8
目盛
100
AcDbLine
 10
421.4986463293918
 20
332.8567677497787
 30
0.0
 11
417.8664594751594
 21
333.789354826647
 31
0.0
  0
LINE
  5
241
330
18
100
AcDbEntity
  8
目盛
100
AcDbLine
 10
421.9988455997939
 20
335.094530648917
 30
0.0
 11
418.3152684095612
 21
335.7972105786135
 31
0.0
  0
LINE
  5
242
330
18
100
AcDbEntity
  8
目盛
100
AcDbLine
 10
422.3575475461752
 20
337.3592856061988
 30
0.0
 11
418.6371174162458
 21
337.829285232065
 31
0.0
  0
LINE
  5
243
330
18
100
AcDbEntity
  8
目盛
100
AcDbLine
 10
422.5733365358286
 20
339.6420946684759
 30
0.0
 11
418.8307363042226
 21
339.8775591167108
 31
0.0
  0
LINE
  5
244
330
18
100
AcDbEntity
  8
目盛
100
AcDbLine
 10
422.6453609481967
 20
341.9339486312959
 30
0.0
 11
417.8953609481967
 21
341.9339486312959
 31
0.0
  0
LINE
  5
245
330
18
100
AcDbEntity
  8
目盛
100
AcDbLine
 10
422.5733365358286
 20
344.2258025941157
 30
0.0
 11
418.8307363042226
 21
343.9903381458808
 31
0.0
  0
LINE
  5
246
330
18
100
AcDbEntity
  8
目盛
100
AcDbLine
 10
422.3575475461752
 20
346.508611656393
 30
0.0
 11
418.6371174162458
 21
346.0386120305268
 31
0.0
  0
LINE
  5
247
330
18
100
AcDbEntity
  8
目盛
100
AcDbLine
 10
421.9988455997939
 20
348.7733666136747
 30
0.0
 11
418.3152684095613
 21
348.0706866839784
 31
0.0
  0
LINE
  5
248
330
18
100
AcDbEntity
  8
目盛
100
AcDbLine
 10
421.4986463293918
 20
351.0111295128131
 30
0.0
 11
417.8664594751594
 21
350.0785424359449
 31
0.0
  0
LINE
  5
249
330
18
100
AcDbEntity
  8
目盛
100
AcDbLine
 10
420.8589237929698
 20
353.2130689259815
 30
0.0
 11
415.3903488242727
 21
351.4362212083254
 31
0.0
  0
LINE
  5
24A
330
18
100
AcDbEntity
  8
目盛
100
AcDbLine
 10
420.082202683118
 20
355.3704948042865
 30
0.0
 11
416.595540861037
 21
353.990027731719
 31
0.0
  0
LINE
  5
24B
330
18
100
AcDbEntity
  8
目盛
100
AcDbLine
 10
419.1715483632065
 20
357.474892773421
 30
0.0
 11
415.7784469164588
 21
355.878220430052
 31
0.0
  0
LINE
  5
24C
330
18
100
AcDbEntity
  8
目盛
100
AcDbLine
 10
418.1305547697978
 20
359.5179577360084
 30
0.0
 11
414.8444047196333
 21
357.711381458127
 31
0.0
  0
LINE
  5
24D
330
18
100
AcDbEntity
  8
目盛
100
AcDbLine
 10
416.9633302290204
 20
361.4916266480291
 30
0.0
 11
413.7971005083878
 21
359.4822761668579
 31
0.0
  0
LINE
  5
24E
330
18
100
AcDbEntity
  8
目盛
100
AcDbLine
 10
415.6744812428824
 20
363.3881103399711
 30
0.0
 11
411.8316505196013
 21
360.5961303915819
 31
0.0
  0
LINE
  5
24F
330
18
100
AcDbEntity
  8
目盛
100
AcDbLine
 10
414.2690943095131
 20
365.199924257123
 30
0.0
 11
411.3796696491038
 21
362.8095842955654
 31
0.0
  0
LINE
  5
250
330
18
100
AcDbEntity
  8
目盛
100
AcDbLine
 10
412.7527158490783
 20
366.919917997693
 30
0.0
 11
410.019083496248
 21
364.3528663504604
 31
0.0
  0
LINE
  5
251
330
18
100
AcDbEntity
  8
目盛
100
AcDbLine
 10
411.131330314594
 20
368.5413035321773
 30
0.0
 11
408.5642786673615
 21
365.807671179347
 31
0.0
  0
LINE
  5
252
330
18
100
AcDbEntity
  8
目盛
100
AcDbLine
 10
409.411336574024
 20
370.0576819926121
 30
0.0
 11
407.0209966124664
 21
367.1682573322029
 31
0.0
  0
LINE
  5
253
330
18
100
AcDbEntity
  8
目盛
100
AcDbLine
 10
407.5995226568721
 20
371.4630689259814
 30
0.0
 11
404.2197574561904
 21
366.8112212083254
 31
0.0
  0
LINE
  5
254
330
18
100
AcDbEntity
  8
目盛
100
AcDbLine
 10
405.7030389649304
 20
372.7519179121193
 30
0.0
 11
403.693688483759
 21
369.5856881914868
 31
0.0
  0
LINE
  5
255
330
18
100
AcDbEntity
  8
目盛
100
AcDbLine
 10
403.7293700529095
 20
373.9191424528968
 30
0.0
 11
401.9227937750281
 21
370.6329924027323
 31
0.0
  0
LINE
  5
256
330
18
100
AcDbEntity
  8
目盛
100
AcDbLine
 10
401.6863050903221
 20
374.9601360463056
 30
0.0
 11
400.0896327469531
 21
371.5670345995579
 31
0.0
  0
LINE
  5
257
330
18
100
AcDbEntity
  8
目盛
100
AcDbLine
 10
399.5819071211877
 20
375.870790366217
 30
0.0
 11
398.2014400486201
 21
372.384128544136
 31
0.0
  0
LINE
  5
258
330
18
100
AcDbEntity
  8
目盛
100
AcDbLine
 10
397.4244812428826
 20
376.6475114760689
 30
0.0
 11
395.9566505196016
 21
372.129993023667
 31
0.0
  0
LINE
  5
259
330
18
100
AcDbEntity
  8
目盛
100
AcDbLine
 10
395.2225418297142
 20
377.2872340124909
 30
0.0
 11
394.289954752846
 21
373.6550471582586
 31
0.0
  0
LINE
  5
25A
330
18
100
AcDbEntity
  8
目盛
100
AcDbLine
 10
392.9847789305759
 20
377.7874332828929
 30
0.0
 11
392.2820990008795
 21
374.1038560926604
 31
0.0
  0
LINE
  5
25B
330
18
100
AcDbEntity
  8
目盛
100
AcDbLine
 10
390.7200239732942
 20
378.1461352292743
 30
0.0
 11
390.250024347428
 21
374.425705099345
 31
0.0
  0
LINE
  5
25C
330
18
100
AcDbEntity
  8
目盛
100
AcDbLine
 10
388.437214911017
 20
378.3619242189278
 30
0.0
 11
388.2017504627821
 21
374.6193239873218
 31
0.0
  0
CIRCLE
  5
25F
330
18
100
AcDbEntity
  8
外形線
100
AcDbCircle
 10
386.1453609481968
 20
341.9339486312959
 30
0.0
 40
20.0
  0
LINE
  5
265
330
18
100
AcDbEntity
  8
中心線
 48
0.5
100
AcDbLine
 10
345.3953609481967
 20
341.933948631296
 30
0.0
 11
433.3019529704996
 21
341.933948631296
 31
0.0
  0
LINE
  5
266
330
18
100
AcDbEntity
  8
中心線
 48
0.5
100
AcDbLine
 10
386.1453609481967
 20
427.6543072306021
 30
0.0
 11
386.1453609481968
 21
209.7226500257031
 31
0.0
  0
TEXT
  5
267
330
18
100
AcDbEntity
  8
文字
100
AcDbText
 10
384.1007306704076
 20
368.3047575345163
 30
0.0
 40
4.0
  1
0
  7
STYLE3
100
AcDbText
  0
TEXT
  5
268
330
18
100
AcDbEntity
  8
文字
100
AcDbText
 10
398.313369066383
 20
361.7221412099028
 30
0.0
 40
4.0
  1
10
  7
STYLE3
100
AcDbText
  0
TEXT
  5
269
330
18
100
AcDbEntity
  8
文字
100
AcDbText
 10
408.0879326803835
 20
348.4162633860027
 30
0.0
 40
4.0
  1
20
  7
STYLE3
100
AcDbText
  0
TEXT
  5
26A
330
18
100
AcDbEntity
  8
文字
100
AcDbText
 10
408.0982381707789
 20
330.93565486406
 30
0.0
 40
4.0
  1
30
  7
STYLE3
100
AcDbText
  0
TEXT
  5
26B
330
18
100
AcDbEntity
  8
文字
100
AcDbText
 10
399.2583649837499
 20
318.0245366645595
 30
0.0
 40
4.0
  1
40
  7
STYLE3
100
AcDbText
  0
TEXT
  5
26C
330
18
100
AcDbEntity
  8
文字
100
AcDbText
 10
382.2851470792711
 20
311.7409238351281
 30
0.0
 40
4.0
  1
50
  7
STYLE3
100
AcDbText
  0
TEXT
  5
26D
330
18
100
AcDbEntity
  8
文字
100
AcDbText
 10
366.1511908323384
 20
317.6802285701174
 30
0.0
 40
4.0
  1
60
  7
STYLE3
100
AcDbText
  0
TEXT
  5
26E
330
18
100
AcDbEntity
  8
文字
100
AcDbText
 10
355.813340408626
 20
330.7124325522659
 30
0.0
 40
4.0
  1
70
  7
STYLE3
100
AcDbText
  0
TEXT
  5
26F
330
18
100
AcDbEntity
  8
文字
100
AcDbText
 10
356.2939779256491
 20
348.9174852567743
 30
0.0
 40
4.0
  1
80
  7
STYLE3
100
AcDbText
  0
TEXT
  5
270
330
18
100
AcDbEntity
  8
文字
100
AcDbText
 10
366.528365094376
 20
362.4010782931797
 30
0.0
 40
4.0
  1
90
  7
STYLE3
100
AcDbText
  0
TEXT
  5
271
330
18
100
AcDbEntity
  8
文字
100
AcDbText
 10
385.1478453887933
 20
365.2142185863561
 30
0.0
 40
2.0
  1
0
  7
STYLE3
100
AcDbText
  0
TEXT
  5
272
330
18
100
AcDbEntity
  8
文字
100
AcDbText
 10
400.1340101852669
 20
359.1022393865058
 30
0.0
 40
2.0
  1
90
  7
STYLE3
100
AcDbText
  0
TEXT
  5
273
330
18
100
AcDbEntity
  8
文字
100
AcDbText
 10
408.1649073179407
 20
345.5702096177712
 30
0.0
 40
2.0
  1
80
  7
STYLE3
100
AcDbText
  0
TEXT
  5
274
330
18
100
AcDbEntity
  8
文字
100
AcDbText
 10
407.858301829165
 20
335.6657382214078
 30
0.0
 40
2.0
  1
70
  7
STYLE3
100
AcDbText
  0
TEXT
  5
275
330
18
100
AcDbEntity
  8
文字
100
AcDbText
 10
399.7101830716284
 20
322.4871088663278
 30
0.0
 40
2.0
  1
60
  7
STYLE3
100
AcDbText
  0
TEXT
  5
276
330
18
100
AcDbEntity
  8
文字
100
AcDbText
 10
384.2947341975856
 20
317.1652996689754
 30
0.0
 40
2.0
  1
50
  7
STYLE3
100
AcDbText
  0
TEXT
  5
277
330
18
100
AcDbEntity
  8
文字
100
AcDbText
 10
368.7777058330056
 20
322.5693064475542
 30
0.0
 40
2.0
  1
40
  7
STYLE3
100
AcDbText
  0
TEXT
  5
278
330
18
100
AcDbEntity
  8
文字
100
AcDbText
 10
360.1313110035404
 20
335.3832727430673
 30
0.0
 40
2.0
  1
30
  7
STYLE3
100
AcDbText
  0
TEXT
  5
279
330
18
100
AcDbEntity
  8
文字
100
AcDbText
 10
360.6836020293105
 20
346.2927340843308
 30
0.0
 40
2.0
  1
20
  7
STYLE3
100
AcDbText
  0
TEXT
  5
27A
330
18
100
AcDbEntity
  8
文字
100
AcDbText
 10
368.9016236536235
 20
359.5874604429324
 30
0.0
 40
2.0
  1
10
  7
STYLE3
100
AcDbText
  0
TEXT
  5
28D
330
18
100
AcDbEntity
  8
文字
100
AcDbText
 10
380.5601529440353
 20
349.944570977847
 30
0.0
 40
1.0
  1
MADE IN JAPAN
  7
STYLE3
100
AcDbText
  0
TEXT
  5
28E
330
18
100
AcDbEntity
  8
文字
100
AcDbText
 10
381.7378667812636
 20
330.0139256464133
 30
0.0
 40
1.5
  1
NO.507
  7
STYLE3
100
AcDbText
  0
TEXT
  5
291
330
18
100
AcDbEntity
  8
文字
 48
0.8
100
AcDbText
 10
386.1746866315995
 20
323.9829767599693
 30
0.0
 40
1.0
  1
S
  7
STYLE3
100
AcDbText
  0
TEXT
  5
292
330
18
100
AcDbEntity
  8
文字
 48
0.8
100
AcDbText
 10
387.0576545187875
 20
324.0518138838823
 30
0.0
 40
1.0
  1
H
 50
1.589821613340259
  7
STYLE3
100
AcDbText
  0
TEXT
  5
293
330
18
100
AcDbEntity
  8
文字
 48
0.8
100
AcDbText
 10
388.0095129808508
 20
324.1113696313915
 30
0.0
 40
1.0
  1
O
 50
1.760930144340787
  7
STYLE3
100
AcDbText
  0
TEXT
  5
294
330
18
100
AcDbEntity
  8
文字
 48
0.8
100
AcDbText
 10
389.0317756541437
 20
324.212962585734
 30
0.0
 40
1.0
  1
C
 50
5.687207778684769
  7
STYLE3
100
AcDbText
  0
TEXT
  5
295
330
18
100
AcDbEntity
  8
文字
 48
0.8
100
AcDbText
 10
390.0585679556126
 20
324.385714089895
 30
0.0
 40
1.0
  1
K
 50
11.14538657471254
  7
STYLE3
100
AcDbText
  0
TEXT
  5
296
330
18
100
AcDbEntity
  8
文字
 48
0.8
100
AcDbText
 10
391.634620324937
 20
324.7976918526191
 30
0.0
 40
1.0
  1
P
 50
23.24053280085741
  7
STYLE3
100
AcDbText
  0
TEXT
  5
297
330
18
100
AcDbEntity
  8
文字
 48
0.8
100
AcDbText
 10
392.5206069636242
 20
325.0719577944129
 30
0.0
 40
1.0
  1
R
 50
26.06198672177309
  7
STYLE3
100
AcDbText
  0
TEXT
  5
298
330
18
100
AcDbEntity
  8
文字
 48
0.8
100
AcDbText
 10
393.4449088632906
 20
325.4449171254376
 30
0.0
 40
1.0
  1
O
 50
27.73777743938884
  7
STYLE3
100
AcDbText
  0
TEXT
  5
299
330
18
100
AcDbEntity
  8
文字
 48
0.8
100
AcDbText
 10
394.3967677702198
 20
325.9395374043676
 30
0.0
 40
1.0
  1
O
 50
27.6495577688412
  7
STYLE3
100
AcDbText
  0
TEXT
  5
29A
330
18
100
AcDbEntity
  8
文字
 48
0.8
100
AcDbText
 10
395.3822242172724
 20
326.4900396700436
 30
0.0
 40
1.0
  1
F
 50
35.29154926473689
  7
STYLE3
100
AcDbText
  0
MTEXT
  5
A07
330
18
100
AcDbEntity
  8
DEFPOINTS
  6
Continuous
100
AcDbMText
 10
633.6031323468467
 20
266.6404775199116
 30
0.0
 40
0.3345202420831857
 41
0.0
 71
     4
 72
     1
  1
\A1;
 73
     1
 44
1.0
  0
LINE
  5
A08
102
{ACAD_REACTORS
330
A44
102
}
330
18
100
AcDbEntity
  8
ROGO
 62
     4
100
AcDbLine
 10
379.5080680626649
 20
354.0049476025911
 30
0.0
 11
381.0492489941463
 21
354.0049476025911
 31
0.0
  0
LINE
  5
A09
102
{ACAD_REACTORS
330
A44
330
A52
102
}
330
18
100
AcDbEntity
  8
ROGO
 62
     4
100
AcDbLine
 10
378.5377199013881
 20
352.0438190658708
 30
0.0
 11
391.8126083062483
 21
352.0438190658708
 31
0.0
  0
LINE
  5
A0A
102
{ACAD_REACTORS
330
A44
102
}
330
18
100
AcDbEntity
  8
ROGO
 62
     4
100
AcDbLine
 10
379.5080680626649
 20
354.0049476025911
 30
0.0
 11
378.537719901388
 21
352.0438190658707
 31
0.0
  0
SPLINE
  5
A0B
102
{ACAD_REACTORS
330
A44
102
}
330
18
100
AcDbEntity
  8
ROGO
 62
     4
100
AcDbSpline
210
0.0
220
0.0
230
1.0
 70
     8
 71
     3
 72
    18
 73
    14
 74
     0
 42
0.0000000001
 43
0.0000000001
 40
0.1087402787915014
 40
0.1087402787915014
 40
0.1087402787915014
 40
0.1087402787915014
 40
0.5992371417938475
 40
1.083176791562496
 40
1.448211145705696
 40
1.714037220764907
 40
2.164002567013297
 40
2.740236056362883
 40
3.395137510199602
 40
4.071816045172726
 40
4.784906178399433
 40
5.506895915094292
 40
6.060470601257719
 40
6.060470601257719
 40
6.060470601257719
 40
6.060470601257719
 10
381.0492489941463
 20
354.0049476025911
 30
0.0
 10
381.0986237399633
 20
353.9868525856572
 30
0.0
 10
381.195718668271
 20
353.9485969546504
 30
0.0
 10
381.314220299728
 20
353.8612849638325
 30
0.0
 10
381.3788459727579
 20
353.7604904047764
 30
0.0
 10
381.4410086350056
 20
353.6611754142902
 30
0.0
 10
381.4497081861135
 20
353.5186912633896
 30
0.0
 10
381.4354577336695
 20
353.3385567623128
 30
0.0
 10
381.3434581001047
 20
353.1506049992017
 30
0.0
 10
381.1957932772966
 20
352.9862150323976
 30
0.0
 10
381.0124570949096
 20
352.8546394468716
 30
0.0
 10
380.8191227667347
 20
352.7513560005155
 30
0.0
 10
380.6809273346076
 20
352.7503269009766
 30
0.0
 10
380.6209527134924
 20
352.7498802881328
 30
0.0
  0
LINE
  5
A0C
102
{ACAD_REACTORS
330
A44
102
}
330
18
100
AcDbEntity
  8
ROGO
 62
     4
100
AcDbLine
 10
380.6209527137879
 20
352.7498802881328
 30
0.0
 11
379.7687783886001
 21
352.7498802881328
 31
0.0
  0
LINE
  5
A0D
102
{ACAD_REACTORS
330
A44
102
}
330
18
100
AcDbEntity
  8
ROGO
 62
     4
100
AcDbLine
 10
380.1170257057746
 20
353.5196094721105
 30
0.0
 11
379.9660158169572
 21
353.1858331219146
 31
0.0
  0
SPLINE
  5
A0E
102
{ACAD_REACTORS
330
A44
102
}
330
18
100
AcDbEntity
  8
ROGO
 62
     4
100
AcDbSpline
210
0.0
220
0.0
230
1.0
 70
     8
 71
     3
 72
    15
 73
    11
 74
     9
 42
0.0000000001
 43
0.0000000001
 44
0.0000000001
 40
0.0
 40
0.0
 40
0.0
 40
0.0
 40
0.1471607140274935
 40
0.214257905200307
 40
0.2904176839764258
 40
0.3423012663026718
 40
0.4243556898605493
 40
0.473504048093946
 40
0.5578265253903569
 40
0.5859340357617473
 40
0.5859340357617473
 40
0.5859340357617473
 40
0.5859340357617473
 10
380.5050567606908
 20
353.5196094721105
 30
0.0
 10
380.5603274711002
 20
353.5198626414668
 30
0.0
 10
380.6407985853476
 20
353.5202312421244
 30
0.0
 10
380.6848030566756
 20
353.4206882410864
 30
0.0
 10
380.665078154486
 20
353.3565980769366
 30
0.0
 10
380.6402823448281
 20
353.2907974538151
 30
0.0
 10
380.5964625332828
 20
353.2460849379897
 30
0.0
 10
380.5376499277727
 20
353.2030192477606
 30
0.0
 10
380.4820692050332
 20
353.1978059531194
 30
0.0
 10
380.445920184038
 20
353.1882276890724
 30
0.0
 10
380.4368829244632
 20
353.1858331219146
 30
0.0
 11
380.5050567606908
 21
353.5196094721105
 31
0.0
 11
380.6482219343731
 21
353.4855505702251
 31
0.0
 11
380.6754915472668
 21
353.4242447689017
 31
0.0
 11
380.6618569368264
 21
353.349315406824
 31
0.0
 11
380.6414048251595
 21
353.3016329441845
 31
0.0
 11
380.586865599372
 21
353.240327142861
 31
0.0
 11
380.5459613760381
 21
353.2130800213528
 31
0.0
 11
380.4641525373569
 21
353.1926449022917
 31
0.0
 11
380.4368829244632
 21
353.1858331219146
 31
0.0
  0
LINE
  5
A0F
102
{ACAD_REACTORS
330
A44
102
}
330
18
100
AcDbEntity
  8
ROGO
 62
     4
100
AcDbLine
 10
380.5050567606908
 20
353.5196094721105
 30
0.0
 11
380.1170257057746
 21
353.5196094721105
 31
0.0
  0
LINE
  5
A10
102
{ACAD_REACTORS
330
A44
102
}
330
18
100
AcDbEntity
  8
ROGO
 62
     4
100
AcDbLine
 10
380.4368829244633
 20
353.1858331219146
 30
0.0
 11
379.9660158169572
 21
353.1858331219146
 31
0.0
  0
LINE
  5
A11
102
{ACAD_REACTORS
330
A44
102
}
330
18
100
AcDbEntity
  8
ROGO
 62
     4
100
AcDbLine
 10
379.7687783886001
 20
352.7498802881328
 30
0.0
 11
379.4493362633282
 21
352.0438190658708
 31
0.0
  0
LINE
  5
A12
102
{ACAD_REACTORS
330
A40
102
}
330
18
100
AcDbEntity
  8
ROGO
 62
     4
100
AcDbLine
 10
381.9597404479217
 20
354.0049476025911
 30
0.0
 11
381.3387448129799
 21
352.7498802881328
 31
0.0
  0
LINE
  5
A13
102
{ACAD_REACTORS
330
A40
102
}
330
18
100
AcDbEntity
  8
ROGO
 62
     4
100
AcDbLine
 10
383.6572712044666
 20
354.0049476025911
 30
0.0
 11
383.5150196296455
 21
353.717449121213
 31
0.0
  0
LINE
  5
A14
102
{ACAD_REACTORS
330
A40
102
}
330
18
100
AcDbEntity
  8
ROGO
 62
     4
100
AcDbLine
 10
381.3387448129798
 20
352.7498802881328
 30
0.0
 11
383.0362755695247
 21
352.7498802881328
 31
0.0
  0
LINE
  5
A15
102
{ACAD_REACTORS
330
A40
102
}
330
18
100
AcDbEntity
  8
ROGO
 62
     4
100
AcDbLine
 10
382.6228403596558
 20
353.717449121213
 30
0.0
 11
382.5116173051396
 21
353.4926610349801
 31
0.0
  0
LINE
  5
A16
102
{ACAD_REACTORS
330
A40
102
}
330
18
100
AcDbEntity
  8
ROGO
 62
     4
100
AcDbLine
 10
382.6228403596558
 20
353.717449121213
 30
0.0
 11
383.5150196296455
 21
353.717449121213
 31
0.0
  0
LINE
  5
A17
102
{ACAD_REACTORS
330
A40
102
}
330
18
100
AcDbEntity
  8
ROGO
 62
     4
100
AcDbLine
 10
382.5116173051396
 20
353.4926610349801
 30
0.0
 11
383.4037965751292
 21
353.4926610349801
 31
0.0
  0
LINE
  5
A18
102
{ACAD_REACTORS
330
A40
102
}
330
18
100
AcDbEntity
  8
ROGO
 62
     4
100
AcDbLine
 10
382.2863407189436
 20
353.0373643080171
 30
0.0
 11
383.1785199889333
 21
353.0373643080171
 31
0.0
  0
LINE
  5
A19
102
{ACAD_REACTORS
330
A40
102
}
330
18
100
AcDbEntity
  8
ROGO
 62
     4
100
AcDbLine
 10
382.3975684821093
 20
353.262161910697
 30
0.0
 11
383.2897477520989
 21
353.262161910697
 31
0.0
  0
LINE
  5
A1A
102
{ACAD_REACTORS
330
A40
102
}
330
18
100
AcDbEntity
  8
ROGO
 62
     4
100
AcDbLine
 10
383.4037965751292
 20
353.4926610349801
 30
0.0
 11
383.2897477520989
 21
353.262161910697
 31
0.0
  0
LINE
  5
A1B
102
{ACAD_REACTORS
330
A40
102
}
330
18
100
AcDbEntity
  8
ROGO
 62
     4
100
AcDbLine
 10
383.1785199889333
 20
353.0373643080171
 30
0.0
 11
383.0362755695247
 21
352.7498802881328
 31
0.0
  0
LINE
  5
A1C
102
{ACAD_REACTORS
330
A40
102
}
330
18
100
AcDbEntity
  8
ROGO
 62
     4
100
AcDbLine
 10
382.3975684821093
 20
353.262161910697
 30
0.0
 11
382.2863407189436
 21
353.0373643080171
 31
0.0
  0
LINE
  5
A1D
102
{ACAD_REACTORS
330
A48
102
}
330
18
100
AcDbEntity
  8
ROGO
 62
     4
100
AcDbLine
 10
384.1490104791647
 20
354.0049476025911
 30
0.0
 11
383.2439570467601
 21
352.7498802881328
 31
0.0
  0
LINE
  5
A1E
102
{ACAD_REACTORS
330
A48
102
}
330
18
100
AcDbEntity
  8
ROGO
 62
     4
100
AcDbLine
 10
384.6021686659613
 20
353.6694630084674
 30
0.0
 11
384.2931037547809
 21
353.2408725471972
 31
0.0
  0
LINE
  5
A1F
102
{ACAD_REACTORS
330
A48
102
}
330
18
100
AcDbEntity
  8
ROGO
 62
     4
100
AcDbLine
 10
384.1113562682316
 20
352.988837339456
 30
0.0
 11
384.9045295573384
 21
352.988837339456
 31
0.0
  0
LINE
  5
A20
102
{ACAD_REACTORS
330
A48
102
}
330
18
100
AcDbEntity
  8
ROGO
 62
     4
100
AcDbLine
 10
384.2931037547809
 20
353.2408725471972
 30
0.0
 11
384.7925655313832
 21
353.2408725471972
 31
0.0
  0
LINE
  5
A21
102
{ACAD_REACTORS
330
A48
102
}
330
18
100
AcDbEntity
  8
ROGO
 62
     4
100
AcDbLine
 10
384.1113562682316
 20
352.988837339456
 30
0.0
 11
383.9390396944463
 21
352.7498802881328
 31
0.0
  0
LINE
  5
A22
102
{ACAD_REACTORS
330
A48
102
}
330
18
100
AcDbEntity
  8
ROGO
 62
     4
100
AcDbLine
 10
383.2439570467601
 20
352.7498802881328
 30
0.0
 11
383.9390396944463
 21
352.7498802881328
 31
0.0
  0
LINE
  5
A23
102
{ACAD_REACTORS
330
A48
102
}
330
18
100
AcDbEntity
  8
ROGO
 62
     4
100
AcDbLine
 10
384.1490104791647
 20
354.0049476025911
 30
0.0
 11
385.1529568429983
 21
354.0049476025911
 31
0.0
  0
LINE
  5
A24
102
{ACAD_REACTORS
330
A48
102
}
330
18
100
AcDbEntity
  8
ROGO
 62
     4
100
AcDbLine
 10
385.710507475035
 20
352.7498802881328
 30
0.0
 11
385.0106837480023
 21
352.7498802881328
 31
0.0
  0
LINE
  5
A25
102
{ACAD_REACTORS
330
A41
102
}
330
18
100
AcDbEntity
  8
ROGO
 62
     4
100
AcDbLine
 10
386.0542216857937
 20
352.7498802881328
 30
0.0
 11
387.1352276855152
 21
352.7498802881328
 31
0.0
  0
LINE
  5
A26
102
{ACAD_REACTORS
330
A41
102
}
330
18
100
AcDbEntity
  8
ROGO
 62
     4
100
AcDbLine
 10
387.7610447834048
 20
354.0049476025911
 30
0.0
 11
387.5282002479963
 21
353.5379811890385
 31
0.0
  0
LINE
  5
A27
102
{ACAD_REACTORS
330
A41
102
}
330
18
100
AcDbEntity
  8
ROGO
 62
     4
100
AcDbLine
 10
386.7427783333238
 20
353.5379811890385
 30
0.0
 11
387.5282002479963
 21
353.5379811890385
 31
0.0
  0
LINE
  5
A28
102
{ACAD_REACTORS
330
A41
102
}
330
18
100
AcDbEntity
  8
ROGO
 62
     4
100
AcDbLine
 10
386.5655260455213
 20
353.2168417566386
 30
0.0
 11
387.3680697551637
 21
353.2168417566386
 31
0.0
  0
SPLINE
  5
A29
102
{ACAD_REACTORS
330
A41
102
}
330
18
100
AcDbEntity
  8
ROGO
 62
     4
100
AcDbSpline
210
0.0
220
0.0
230
1.0
 70
     8
 71
     3
 72
    26
 73
    22
 74
    20
 42
0.0000000001
 43
0.0000000001
 44
0.0000000001
 40
0.0
 40
0.0
 40
0.0
 40
0.0
 40
0.2276835897233007
 40
0.3801001230162506
 40
0.4900048558493097
 40
0.5720671636812824
 40
0.6785062839134103
 40
0.7561964652168576
 40
0.8964868246743144
 40
1.010681160373108
 40
1.088351606316243
 40
1.16451145527399
 40
1.300746618675115
 40
1.397081139538679
 40
1.448964721864925
 40
1.522663817941261
 40
1.575883588869605
 40
1.652981466326465
 40
1.696612196150974
 40
1.791557558313725
 40
1.834910435460017
 40
1.834910435460017
 40
1.834910435460017
 40
1.834910435460017
 10
386.5041697105204
 20
354.0049476025911
 30
0.0
 10
386.4268903822623
 20
354.0003369853471
 30
0.0
 10
386.2978785276389
 20
353.992639916868
 30
0.0
 10
386.1562242960784
 20
353.9065864924487
 30
0.0
 10
386.0524401131435
 20
353.8565588130999
 30
0.0
 10
385.9784213597396
 20
353.7885504451035
 30
0.0
 10
385.9241653134441
 20
353.7183027688802
 30
0.0
 10
385.8557653815925
 20
353.6346031777291
 30
0.0
 10
385.7999871916974
 20
353.5371383908302
 30
0.0
 10
385.7715827505584
 20
353.4297152043237
 30
0.0
 10
385.7464223661846
 20
353.3440983013889
 30
0.0
 10
385.7277630039249
 20
353.248689436302
 30
0.0
 10
385.7325104739238
 20
353.1456142989246
 30
0.0
 10
385.7393090682357
 20
353.0498833882268
 30
0.0
 10
385.7696631386405
 20
352.9815458508716
 30
0.0
 10
385.8042310481988
 20
352.9328942333585
 30
0.0
 10
385.8465589800482
 20
352.8793098704188
 30
0.0
 10
385.8928749938499
 20
352.8438211203566
 30
0.0
 10
385.9311821178399
 20
352.7795308648326
 30
0.0
 10
385.9982374461186
 20
352.7713269645634
 30
0.0
 10
386.0408604804671
 20
352.7549987544909
 30
0.0
 10
386.0542216857938
 20
352.7498802881328
 30
0.0
 11
386.5041697105204
 21
354.0049476025911
 31
0.0
 11
386.279195698157
 21
353.9699260265212
 31
0.0
 11
386.1428476336885
 21
353.9018084448206
 31
0.0
 11
386.0474041845671
 21
353.8473144238742
 31
0.0
 11
385.986047849566
 21
353.7928201808576
 31
0.0
 11
385.9178740133384
 21
353.7110790384029
 31
0.0
 11
385.8701522887777
 21
353.6497732370794
 31
0.0
 11
385.8019780605368
 21
353.5271614123623
 31
0.0
 11
385.7678913384295
 21
353.4181731483993
 31
0.0
 11
385.7474392267626
 21
353.3432437863216
 31
0.0
 11
385.7338042243091
 21
353.268314424244
 31
0.0
 11
385.7338042243091
 21
353.1320792608429
 31
0.0
 11
385.7474392267626
 21
353.0367145576341
 31
0.0
 11
385.7678913384295
 21
352.9890320949946
 31
0.0
 11
385.8087955617635
 21
352.9277262936711
 31
0.0
 11
385.842882675884
 21
352.8868556114086
 31
0.0
 11
385.8974215096582
 21
352.8323615904622
 31
0.0
 11
385.924691122552
 21
352.7983026885768
 31
0.0
 11
386.0133174624598
 21
352.7642440087616
 31
0.0
 11
386.0542216857938
 21
352.7498802881328
 31
0.0
  0
SPLINE
  5
A2A
102
{ACAD_REACTORS
330
A41
102
}
330
18
100
AcDbEntity
  8
ROGO
 62
     4
100
AcDbSpline
210
0.0
220
0.0
230
1.0
 70
     8
 71
     3
 72
    16
 73
    12
 74
    10
 42
0.0000000001
 43
0.0000000001
 44
0.0000000001
 40
0.0
 40
0.0
 40
0.0
 40
0.0
 40
0.1200360920706888
 40
0.1786650666976184
 40
0.2075768642686755
 40
0.2380451908127106
 40
0.2816757472854556
 40
0.3214035419546689
 40
0.3628387062394065
 40
0.4323077531772829
 40
0.5010675923235378
 40
0.5010675923235378
 40
0.5010675923235378
 40
0.5010675923235378
 10
386.7427783333238
 20
353.5379811890385
 30
0.0
 10
386.7021286687253
 20
353.5317838734335
 30
0.0
 10
386.6416245744028
 20
353.5225596160722
 30
0.0
 10
386.5869106812212
 20
353.4792487001992
 30
0.0
 10
386.5560558443363
 20
353.4534815881826
 30
0.0
 10
386.5455588913659
 20
353.4193586175066
 30
0.0
 10
386.5173673720479
 20
353.3931574141328
 30
0.0
 10
386.49412954124
 20
353.3571485267793
 30
0.0
 10
386.4885808739968
 20
353.3076897367438
 30
0.0
 10
386.492653722791
 20
353.238281862486
 30
0.0
 10
386.5413184990302
 20
353.2239639717627
 30
0.0
 10
386.5655260455213
 20
353.2168417566386
 30
0.0
 11
386.7427783333238
 21
353.5379811890385
 31
0.0
 11
386.6268827725355
 21
353.5067260712311
 31
0.0
 11
386.5791610479747
 21
353.472667391416
 31
0.0
 11
386.5587089363078
 21
353.4522320502846
 31
0.0
 11
386.5450739338543
 21
353.4249849287763
 31
0.0
 11
386.5178043209606
 21
353.3909262489612
 31
0.0
 11
386.4973522092936
 21
353.3568673470758
 31
0.0
 11
386.4905347080668
 21
353.3159968868836
 31
0.0
 11
386.5041697105203
 21
353.2478790831128
 31
0.0
 11
386.5655260455213
 21
353.2168417566386
 31
0.0
  0
LINE
  5
A2B
102
{ACAD_REACTORS
330
A41
102
}
330
18
100
AcDbEntity
  8
ROGO
 62
     4
100
AcDbLine
 10
387.3680697551637
 20
353.2168417566386
 30
0.0
 11
387.1352276855152
 21
352.7498802881328
 31
0.0
  0
LINE
  5
A2C
102
{ACAD_REACTORS
330
A41
102
}
330
18
100
AcDbEntity
  8
ROGO
 62
     4
100
AcDbLine
 10
386.5041697105207
 20
354.0049476025911
 30
0.0
 11
387.7610447834048
 21
354.0049476025911
 31
0.0
  0
LINE
  5
A2D
102
{ACAD_REACTORS
330
A42
102
}
330
18
100
AcDbEntity
  8
ROGO
 62
     4
100
AcDbLine
 10
390.098160211627
 20
352.7498802881328
 30
0.0
 11
391.1791662113484
 21
352.7498802881328
 31
0.0
  0
LINE
  5
A2E
102
{ACAD_REACTORS
330
A42
102
}
330
18
100
AcDbEntity
  8
ROGO
 62
     4
100
AcDbLine
 10
390.5481082363539
 20
354.0049476025911
 30
0.0
 11
391.8049833092382
 21
354.0049476025911
 31
0.0
  0
SPLINE
  5
A2F
102
{ACAD_REACTORS
330
A42
102
}
330
18
100
AcDbEntity
  8
ROGO
 62
     4
100
AcDbSpline
210
0.0
220
0.0
230
1.0
 70
     8
 71
     3
 72
    16
 73
    12
 74
    10
 42
0.0000000001
 43
0.0000000001
 44
0.0000000001
 40
0.0
 40
0.0
 40
0.0
 40
0.0
 40
0.1200360920706888
 40
0.1786650666976845
 40
0.2075768642686612
 40
0.2380451908127217
 40
0.2816757472855111
 40
0.3214035419546951
 40
0.3628387062393767
 40
0.432307753177253
 40
0.5010675923235337
 40
0.5010675923235337
 40
0.5010675923235337
 40
0.5010675923235337
 10
390.7867168591571
 20
353.5379811890385
 30
0.0
 10
390.7460671945586
 20
353.5317838734336
 30
0.0
 10
390.6855631002363
 20
353.5225596160724
 30
0.0
 10
390.6308492070544
 20
353.4792487001989
 30
0.0
 10
390.5999943701697
 20
353.4534815881828
 30
0.0
 10
390.5894974171989
 20
353.4193586175065
 30
0.0
 10
390.5613058978811
 20
353.3931574141326
 30
0.0
 10
390.5380680670733
 20
353.3571485267793
 30
0.0
 10
390.5325193998301
 20
353.3076897367438
 30
0.0
 10
390.5365922486243
 20
353.238281862486
 30
0.0
 10
390.5852570248634
 20
353.2239639717626
 30
0.0
 10
390.6094645713546
 20
353.2168417566386
 30
0.0
 11
390.7867168591571
 21
353.5379811890385
 31
0.0
 11
390.6708212983687
 21
353.5067260712311
 31
0.0
 11
390.623099573808
 21
353.4726673914158
 31
0.0
 11
390.602647462141
 21
353.4522320502846
 31
0.0
 11
390.5890124596875
 21
353.4249849287763
 31
0.0
 11
390.5617428467938
 21
353.3909262489611
 31
0.0
 11
390.5412907351268
 21
353.3568673470758
 31
0.0
 11
390.5344732339001
 21
353.3159968868836
 31
0.0
 11
390.5481082363536
 21
353.2478790831128
 31
0.0
 11
390.6094645713546
 21
353.2168417566386
 31
0.0
  0
SPLINE
  5
A30
102
{ACAD_REACTORS
330
A42
102
}
330
18
100
AcDbEntity
  8
ROGO
 62
     4
100
AcDbSpline
210
0.0
220
0.0
230
1.0
 70
     8
 71
     3
 72
    26
 73
    22
 74
    20
 42
0.0000000001
 43
0.0000000001
 44
0.0000000001
 40
0.0
 40
0.0
 40
0.0
 40
0.0
 40
0.2276835897232445
 40
0.3801001230162453
 40
0.4900048558493046
 40
0.5720671636812347
 40
0.6785062839134062
 40
0.7561964652168437
 40
0.8964868246743501
 40
1.010681160373144
 40
1.088351606316224
 40
1.164511455273961
 40
1.300746618675086
 40
1.397081139538641
 40
1.448964721864939
 40
1.522663817941308
 40
1.575883588869608
 40
1.652981466326508
 40
1.696612196150937
 40
1.791557558313708
 40
1.834910435459981
 40
1.834910435459981
 40
1.834910435459981
 40
1.834910435459981
 10
390.5481082363536
 20
354.0049476025911
 30
0.0
 10
390.4708289080956
 20
354.0003369853471
 30
0.0
 10
390.3418170534722
 20
353.992639916868
 30
0.0
 10
390.2001628219114
 20
353.9065864924487
 30
0.0
 10
390.0963786389768
 20
353.8565588130999
 30
0.0
 10
390.0223598855726
 20
353.7885504451034
 30
0.0
 10
389.9681038392775
 20
353.7183027688801
 30
0.0
 10
389.8997039074256
 20
353.6346031777292
 30
0.0
 10
389.8439257175305
 20
353.5371383908299
 30
0.0
 10
389.8155212763917
 20
353.4297152043238
 30
0.0
 10
389.7903608920178
 20
353.3440983013889
 30
0.0
 10
389.7717015297583
 20
353.248689436302
 30
0.0
 10
389.7764489997568
 20
353.1456142989246
 30
0.0
 10
389.7832475940689
 20
353.0498833882266
 30
0.0
 10
389.8136016644736
 20
352.9815458508715
 30
0.0
 10
389.8481695740321
 20
352.9328942333585
 30
0.0
 10
389.8904975058813
 20
352.8793098704186
 30
0.0
 10
389.9368135196832
 20
352.8438211203566
 30
0.0
 10
389.9751206436731
 20
352.7795308648325
 30
0.0
 10
390.0421759719518
 20
352.7713269645632
 30
0.0
 10
390.0847990063004
 20
352.7549987544909
 30
0.0
 10
390.098160211627
 20
352.7498802881328
 30
0.0
 11
390.5481082363536
 21
354.0049476025911
 31
0.0
 11
390.3231342239903
 21
353.9699260265212
 31
0.0
 11
390.1867861595217
 21
353.9018084448206
 31
0.0
 11
390.0913427104003
 21
353.8473144238742
 31
0.0
 11
390.0299863753993
 21
353.7928201808576
 31
0.0
 11
389.9618125391717
 21
353.7110790384029
 31
0.0
 11
389.9140908146109
 21
353.6497732370794
 31
0.0
 11
389.84591658637
 21
353.5271614123623
 31
0.0
 11
389.8118298642627
 21
353.4181731483993
 31
0.0
 11
389.7913777525958
 21
353.3432437863216
 31
0.0
 11
389.7777427501424
 21
353.268314424244
 31
0.0
 11
389.7777427501424
 21
353.1320792608429
 31
0.0
 11
389.7913777525958
 21
353.0367145576341
 31
0.0
 11
389.8118298642627
 21
352.9890320949945
 31
0.0
 11
389.8527340875967
 21
352.927726293671
 31
0.0
 11
389.8868212017172
 21
352.8868556114086
 31
0.0
 11
389.9413600354914
 21
352.8323615904621
 31
0.0
 11
389.9686296483852
 21
352.7983026885768
 31
0.0
 11
390.0572559882931
 21
352.7642440087616
 31
0.0
 11
390.098160211627
 21
352.7498802881328
 31
0.0
  0
LINE
  5
A31
102
{ACAD_REACTORS
330
A42
102
}
330
18
100
AcDbEntity
  8
ROGO
 62
     4
100
AcDbLine
 10
391.4120082809969
 20
353.2168417566386
 30
0.0
 11
391.1791662113483
 21
352.7498802881328
 31
0.0
  0
LINE
  5
A32
102
{ACAD_REACTORS
330
A42
102
}
330
18
100
AcDbEntity
  8
ROGO
 62
     4
100
AcDbLine
 10
390.6094645713545
 20
353.2168417566386
 30
0.0
 11
391.4120082809969
 21
353.2168417566386
 31
0.0
  0
LINE
  5
A33
102
{ACAD_REACTORS
330
A42
102
}
330
18
100
AcDbEntity
  8
ROGO
 62
     4
100
AcDbLine
 10
390.7867168591571
 20
353.5379811890385
 30
0.0
 11
391.5721387738296
 21
353.5379811890385
 31
0.0
  0
LINE
  5
A34
102
{ACAD_REACTORS
330
A42
102
}
330
18
100
AcDbEntity
  8
ROGO
 62
     4
100
AcDbLine
 10
391.8049833092382
 20
354.0049476025911
 30
0.0
 11
391.5721387738296
 21
353.5379811890385
 31
0.0
  0
LINE
  5
A35
102
{ACAD_REACTORS
330
A52
102
}
330
18
100
AcDbEntity
  8
ROGO
 62
     4
100
AcDbLine
 10
392.0678465715621
 20
354.0049476025911
 30
0.0
 11
392.7904903332125
 21
354.0049476025911
 31
0.0
  0
LINE
  5
A36
102
{ACAD_REACTORS
330
A52
102
}
330
18
100
AcDbEntity
  8
ROGO
 62
     4
100
AcDbLine
 10
392.0678465715621
 20
354.0049476025911
 30
0.0
 11
391.0899645445978
 21
352.0438190658708
 31
0.0
  0
LINE
  5
A37
102
{ACAD_REACTORS
330
A52
102
}
330
18
100
AcDbEntity
  8
ROGO
 62
     4
100
AcDbLine
 10
392.7904903332125
 20
354.0049476025911
 30
0.0
 11
392.6141848237127
 21
353.6513694036599
 31
0.0
  0
LINE
  5
A38
102
{ACAD_REACTORS
330
A52
102
}
330
18
100
AcDbEntity
  8
ROGO
 62
     4
100
AcDbLine
 10
392.0678465715621
 20
352.5556957871598
 30
0.0
 11
392.3230848368759
 21
352.0438190658708
 31
0.0
  0
LINE
  5
A39
102
{ACAD_REACTORS
330
A52
102
}
330
18
100
AcDbEntity
  8
ROGO
 62
     4
100
AcDbLine
 10
392.5567717741799
 20
353.0243833342309
 30
0.0
 11
393.0457127876621
 21
352.0438190658708
 31
0.0
  0
LINE
  5
A3A
102
{ACAD_REACTORS
330
A52
102
}
330
18
100
AcDbEntity
  8
ROGO
 62
     4
100
AcDbLine
 10
392.0678465715621
 20
352.5556957871598
 30
0.0
 11
391.8126083062483
 21
352.0438190658708
 31
0.0
  0
LINE
  5
A3B
102
{ACAD_REACTORS
330
A52
102
}
330
18
100
AcDbEntity
  8
ROGO
 62
     4
100
AcDbLine
 10
392.5567717741799
 20
353.0243833342309
 30
0.0
 11
393.7447093009672
 21
354.0049476025911
 31
0.0
  0
LINE
  5
A3C
102
{ACAD_REACTORS
330
A52
102
}
330
18
100
AcDbEntity
  8
ROGO
 62
     4
100
AcDbLine
 10
393.022081350181
 20
354.0049476025911
 30
0.0
 11
393.7447093009672
 21
354.0049476025911
 31
0.0
  0
LINE
  5
A3D
102
{ACAD_REACTORS
330
A52
102
}
330
18
100
AcDbEntity
  8
ROGO
 62
     4
100
AcDbLine
 10
392.3230848368759
 20
352.0438190658708
 30
0.0
 11
393.0457127876621
 21
352.0438190658708
 31
0.0
  0
LINE
  5
A3E
102
{ACAD_REACTORS
330
A40
102
}
330
18
100
AcDbEntity
  8
ROGO
 62
     4
100
AcDbLine
 10
381.9597404479217
 20
354.0049476025911
 30
0.0
 11
383.6572712044666
 21
354.0049476025911
 31
0.0
  0
LINE
  5
A3F
330
18
100
AcDbEntity
  8
ROGO
 62
     4
100
AcDbLine
 10
379.5246392438423
 20
352.2403929150075
 30
0.0
 11
391.1879826145216
 21
352.2403929150075
 31
0.0
  0
HATCH
  5
A40
330
18
100
AcDbEntity
  8
ROGO
 62
     4
100
AcDbHatch
 10
0.0
 20
0.0
 30
0.0
210
0.0
220
0.0
230
1.0
  2
SOLID
 70
     1
 71
     1
 91
        1
 92
        1
 93
       12
 72
     1
 10
381.9597404479217
 20
354.0049476025911
 11
383.6572712044666
 21
354.0049476025911
 72
     1
 10
383.6572712044666
 20
354.0049476025911
 11
383.5150196296455
 21
353.717449121213
 72
     1
 10
383.5150196296455
 20
353.717449121213
 11
382.6228403596558
 21
353.717449121213
 72
     1
 10
382.6228403596558
 20
353.717449121213
 11
382.5116173051396
 21
353.4926610349801
 72
     1
 10
382.5116173051396
 20
353.4926610349801
 11
383.4037965751292
 21
353.4926610349801
 72
     1
 10
383.4037965751292
 20
353.4926610349801
 11
383.2897477520989
 21
353.262161910697
 72
     1
 10
383.2897477520989
 20
353.262161910697
 11
382.3975684821093
 21
353.262161910697
 72
     1
 10
382.3975684821093
 20
353.262161910697
 11
382.2863407189436
 21
353.0373643080171
 72
     1
 10
382.2863407189436
 20
353.0373643080171
 11
383.1785199889333
 21
353.0373643080171
 72
     1
 10
383.1785199889333
 20
353.0373643080171
 11
383.0362755695247
 21
352.7498802881328
 72
     1
 10
383.0362755695247
 20
352.7498802881328
 11
381.3387448129798
 21
352.7498802881328
 72
     1
 10
381.3387448129799
 20
352.7498802881328
 11
381.9597404479217
 21
354.0049476025911
 97
       12
330
A3E
330
A13
330
A16
330
A15
330
A17
330
A1A
330
A19
330
A1C
330
A18
330
A1B
330
A14
330
A12
 75
     0
 76
     1
 98
        1
 10
312.5227726384006
 20
267.2226588291437
450
        0
451
        0
460
0.0
461
0.0
452
        0
462
0.0
453
        0
470

  0
HATCH
  5
A41
330
18
100
AcDbEntity
  8
ROGO
 62
     4
100
AcDbHatch
 10
0.0
 20
0.0
 30
0.0
210
0.0
220
0.0
230
1.0
  2
SOLID
 70
     1
 71
     1
 91
        1
 92
        5
 93
        8
 72
     1
 10
387.5282002479963
 20
353.5379811890385
 11
387.7610447834048
 21
354.0049476025911
 72
     1
 10
387.7610447834048
 20
354.0049476025911
 11
386.5041697105204
 21
354.0049476025911
 72
     4
 94
        3
 73
     0
 74
     0
 95
       26
 96
       22
 40
0.0
 40
0.0
 40
0.0
 40
0.0
 40
0.2276835897233007
 40
0.3801001230162506
 40
0.4900048558493097
 40
0.5720671636812824
 40
0.6785062839134103
 40
0.7561964652168576
 40
0.8964868246743144
 40
1.010681160373108
 40
1.088351606316243
 40
1.16451145527399
 40
1.300746618675115
 40
1.397081139538679
 40
1.448964721864925
 40
1.522663817941261
 40
1.575883588869605
 40
1.652981466326465
 40
1.696612196150974
 40
1.791557558313725
 40
1.834910435460017
 40
1.834910435460017
 40
1.834910435460017
 40
1.834910435460017
 10
386.5041697105204
 20
354.0049476025911
 10
386.4268903822623
 20
354.0003369853471
 10
386.2978785276389
 20
353.992639916868
 10
386.1562242960784
 20
353.9065864924487
 10
386.0524401131435
 20
353.8565588130999
 10
385.9784213597396
 20
353.7885504451035
 10
385.9241653134441
 20
353.7183027688802
 10
385.8557653815925
 20
353.6346031777291
 10
385.7999871916974
 20
353.5371383908302
 10
385.7715827505584
 20
353.4297152043237
 10
385.7464223661846
 20
353.3440983013889
 10
385.7277630039249
 20
353.248689436302
 10
385.7325104739238
 20
353.1456142989246
 10
385.7393090682357
 20
353.0498833882268
 10
385.7696631386405
 20
352.9815458508716
 10
385.8042310481988
 20
352.9328942333585
 10
385.8465589800482
 20
352.8793098704188
 10
385.8928749938499
 20
352.8438211203566
 10
385.9311821178399
 20
352.7795308648326
 10
385.9982374461186
 20
352.7713269645634
 10
386.0408604804671
 20
352.7549987544909
 10
386.0542216857938
 20
352.7498802881328
 72
     1
 10
386.0542216857937
 20
352.7498802881328
 11
387.1352276855152
 21
352.7498802881329
 72
     1
 10
387.1352276855152
 20
352.7498802881329
 11
387.3680697551638
 21
353.2168417566387
 72
     1
 10
387.3680697551638
 20
353.2168417566387
 11
386.5655260455213
 21
353.2168417566386
 72
     4
 94
        3
 73
     0
 74
     0
 95
       16
 96
       12
 40
0.0
 40
0.0
 40
0.0
 40
0.0
 40
0.068759839146255
 40
0.1382288860841312
 40
0.1796640503688689
 40
0.2193918450380822
 40
0.2630224015108272
 40
0.2934907280548623
 40
0.3224025256259194
 40
0.381031500252849
 40
0.5010675923235378
 40
0.5010675923235378
 40
0.5010675923235378
 40
0.5010675923235378
 10
386.5655260455213
 20
353.2168417566386
 10
386.5413184990302
 20
353.2239639717627
 10
386.492653722791
 20
353.238281862486
 10
386.4885808739968
 20
353.3076897367438
 10
386.49412954124
 20
353.3571485267793
 10
386.5173673720479
 20
353.3931574141328
 10
386.5455588913659
 20
353.4193586175066
 10
386.5560558443363
 20
353.4534815881826
 10
386.5869106812212
 20
353.4792487001992
 10
386.6416245744028
 20
353.5225596160722
 10
386.7021286687253
 20
353.5317838734335
 10
386.7427783333238
 20
353.5379811890385
 72
     1
 10
386.7427783333238
 20
353.5379811890384
 11
387.5282002479963
 21
353.5379811890385
 97
        8
330
A2C
330
A29
330
A25
330
A2B
330
A28
330
A2A
330
A27
330
A26
 75
     0
 76
     1
 47
0.0514683685270805
 98
        1
 10
386.943745458497
 20
353.7255549044673
450
        0
451
        0
460
0.0
461
0.0
452
        0
462
0.0
453
        0
470

  0
HATCH
  5
A42
330
18
100
AcDbEntity
  8
ROGO
 62
     4
100
AcDbHatch
 10
0.0
 20
0.0
 30
0.0
210
0.0
220
0.0
230
1.0
  2
SOLID
 70
     1
 71
     1
 91
        1
 92
        5
 93
        8
 72
     4
 94
        3
 73
     0
 74
     0
 95
       26
 96
       22
 40
0.0
 40
0.0
 40
0.0
 40
0.0
 40
0.2276835897232445
 40
0.3801001230162453
 40
0.4900048558493046
 40
0.5720671636812347
 40
0.6785062839134062
 40
0.7561964652168437
 40
0.8964868246743501
 40
1.010681160373144
 40
1.088351606316224
 40
1.164511455273961
 40
1.300746618675086
 40
1.397081139538641
 40
1.448964721864939
 40
1.522663817941308
 40
1.575883588869608
 40
1.652981466326508
 40
1.696612196150937
 40
1.791557558313708
 40
1.834910435459981
 40
1.834910435459981
 40
1.834910435459981
 40
1.834910435459981
 10
390.5481082363536
 20
354.0049476025911
 10
390.4708289080956
 20
354.0003369853471
 10
390.3418170534722
 20
353.992639916868
 10
390.2001628219114
 20
353.9065864924487
 10
390.0963786389768
 20
353.8565588130999
 10
390.0223598855726
 20
353.7885504451034
 10
389.9681038392775
 20
353.7183027688801
 10
389.8997039074256
 20
353.6346031777292
 10
389.8439257175305
 20
353.5371383908299
 10
389.8155212763917
 20
353.4297152043238
 10
389.7903608920178
 20
353.3440983013889
 10
389.7717015297583
 20
353.248689436302
 10
389.7764489997568
 20
353.1456142989246
 10
389.7832475940689
 20
353.0498833882266
 10
389.8136016644736
 20
352.9815458508715
 10
389.8481695740321
 20
352.9328942333585
 10
389.8904975058813
 20
352.8793098704186
 10
389.9368135196832
 20
352.8438211203566
 10
389.9751206436731
 20
352.7795308648325
 10
390.0421759719518
 20
352.7713269645632
 10
390.0847990063004
 20
352.7549987544909
 10
390.098160211627
 20
352.7498802881328
 72
     1
 10
390.0981602116271
 20
352.7498802881328
 11
391.1791662113483
 21
352.7498802881327
 72
     1
 10
391.1791662113483
 20
352.7498802881327
 11
391.4120082809969
 21
353.2168417566386
 72
     1
 10
391.4120082809969
 20
353.2168417566386
 11
390.6094645713545
 21
353.2168417566386
 72
     4
 94
        3
 73
     0
 74
     0
 95
       16
 96
       12
 40
0.0
 40
0.0
 40
0.0
 40
0.0
 40
0.0687598391462806
 40
0.1382288860841569
 40
0.1796640503688385
 40
0.2193918450380225
 40
0.2630224015108119
 40
0.2934907280548724
 40
0.3224025256258491
 40
0.3810315002528448
 40
0.5010675923235337
 40
0.5010675923235337
 40
0.5010675923235337
 40
0.5010675923235337
 10
390.6094645713546
 20
353.2168417566386
 10
390.5852570248634
 20
353.2239639717626
 10
390.5365922486243
 20
353.238281862486
 10
390.5325193998301
 20
353.3076897367438
 10
390.5380680670733
 20
353.3571485267793
 10
390.5613058978811
 20
353.3931574141326
 10
390.5894974171989
 20
353.4193586175065
 10
390.5999943701697
 20
353.4534815881828
 10
390.6308492070544
 20
353.4792487001989
 10
390.6855631002363
 20
353.5225596160724
 10
390.7460671945586
 20
353.5317838734336
 10
390.7867168591571
 20
353.5379811890385
 72
     1
 10
390.7867168591571
 20
353.5379811890385
 11
391.5721387738297
 21
353.5379811890385
 72
     1
 10
391.5721387738297
 20
353.5379811890385
 11
391.8049833092382
 21
354.0049476025911
 72
     1
 10
391.8049833092382
 20
354.0049476025911
 11
390.5481082363538
 21
354.0049476025911
 97
        8
330
A2E
330
A30
330
A2D
330
A31
330
A32
330
A2F
330
A33
330
A34
 75
     0
 76
     1
 47
0.0514683685270805
 98
        1
 10
390.7649895892424
 20
353.7751405084589
450
        0
451
        0
460
0.0
461
0.0
452
        0
462
0.0
453
        0
470

  0
HATCH
  5
A43
330
18
100
AcDbEntity
  8
ROGO
 62
     4
100
AcDbHatch
 10
0.0
 20
0.0
 30
0.0
210
0.0
220
0.0
230
1.0
  2
SOLID
 70
     1
 71
     0
 91
        1
 92
        7
 72
     0
 73
     1
 93
        4
 10
379.5382718487438
 20
352.2403929150075
 10
379.4493362633282
 20
352.0438190658708
 10
391.0899645445978
 20
352.0438190658708
 10
391.1879826145217
 20
352.2403929150075
 97
        0
 75
     0
 76
     1
 47
0.0514683685270805
 98
        1
 10
386.8941189418909
 20
352.1884022910811
450
        0
451
        0
460
0.0
461
0.0
452
        0
462
0.0
453
        0
470

  0
HATCH
  5
A44
330
18
100
AcDbEntity
  8
ROGO
 62
     4
100
AcDbHatch
 10
0.0
 20
0.0
 30
0.0
210
0.0
220
0.0
230
1.0
  2
SOLID
 70
     1
 71
     1
 91
        2
 92
        5
 93
        6
 72
     1
 10
378.537719901388
 20
352.0438190658708
 11
379.4493362633281
 21
352.0438190658707
 72
     1
 10
379.4493362633281
 20
352.0438190658707
 11
379.7687783886001
 21
352.7498802881328
 72
     1
 10
379.7687783886001
 20
352.7498802881328
 11
380.6209527134925
 21
352.7498802881328
 72
     4
 94
        3
 73
     0
 74
     0
 95
       18
 96
       14
 40
0.108740278791501
 40
0.108740278791501
 40
0.108740278791501
 40
0.108740278791501
 40
0.6623149649549278
 40
1.384304701649787
 40
2.097394834876493
 40
2.774073369849618
 40
3.428974823686337
 40
4.005208313035923
 40
4.455173659284313
 40
4.720999734343524
 40
5.086034088486724
 40
5.569973738255373
 40
6.060470601257719
 40
6.060470601257719
 40
6.060470601257719
 40
6.060470601257719
 10
380.6209527134924
 20
352.7498802881328
 10
380.6809273346076
 20
352.7503269009766
 10
380.8191227667347
 20
352.7513560005155
 10
381.0124570949096
 20
352.8546394468716
 10
381.1957932772966
 20
352.9862150323976
 10
381.3434581001047
 20
353.1506049992017
 10
381.4354577336695
 20
353.3385567623128
 10
381.4497081861135
 20
353.5186912633896
 10
381.4410086350056
 20
353.6611754142902
 10
381.3788459727579
 20
353.7604904047764
 10
381.314220299728
 20
353.8612849638325
 10
381.195718668271
 20
353.9485969546504
 10
381.0986237399633
 20
353.9868525856572
 10
381.0492489941463
 20
354.0049476025911
 72
     1
 10
381.0492489941463
 20
354.004947602591
 11
379.5080680626649
 21
354.0049476025912
 72
     1
 10
379.5080680626649
 20
354.0049476025912
 11
378.537719901388
 21
352.0438190658708
 97
        6
330
A0B
330
A08
330
A0A
330
A09
330
A11
330
A0C
 92
       20
 93
        4
 72
     1
 10
379.9660158169572
 20
353.1858331219146
 11
380.1170257057748
 21
353.5196094721106
 72
     1
 10
380.1170257057748
 20
353.5196094721106
 11
380.5050567606908
 21
353.5196094721105
 72
     4
 94
        3
 73
     0
 74
     0
 95
       15
 96
       11
 40
0.0
 40
0.0
 40
0.0
 40
0.0
 40
0.1471607140274935
 40
0.214257905200307
 40
0.2904176839764258
 40
0.3423012663026718
 40
0.4243556898605493
 40
0.473504048093946
 40
0.5578265253903569
 40
0.5859340357617473
 40
0.5859340357617473
 40
0.5859340357617473
 40
0.5859340357617473
 10
380.5050567606908
 20
353.5196094721105
 10
380.5603274711002
 20
353.5198626414668
 10
380.6407985853476
 20
353.5202312421244
 10
380.6848030566756
 20
353.4206882410864
 10
380.665078154486
 20
353.3565980769366
 10
380.6402823448281
 20
353.2907974538151
 10
380.5964625332828
 20
353.2460849379897
 10
380.5376499277727
 20
353.2030192477606
 10
380.4820692050332
 20
353.1978059531194
 10
380.445920184038
 20
353.1882276890724
 10
380.4368829244632
 20
353.1858331219146
 72
     1
 10
380.4368829244633
 20
353.1858331219146
 11
379.9660158169572
 21
353.1858331219146
 97
        4
330
A0D
330
A0F
330
A0E
330
A10
 75
     0
 76
     1
 47
0.0514683685270805
 98
        2
 10
379.5163054356324
 20
353.3949845813074
 10
379.5163054356324
 20
353.3949845813074
450
        0
451
        0
460
0.0
461
0.0
452
        0
462
0.0
453
        0
470

  0
LINE
  5
A45
102
{ACAD_REACTORS
330
A48
102
}
330
18
100
AcDbEntity
  8
ROGO
 62
     4
100
AcDbLine
 10
385.1529568429983
 20
354.0049476025911
 30
0.0
 11
385.7105074750351
 21
352.7498802881328
 31
0.0
  0
LINE
  5
A46
102
{ACAD_REACTORS
330
A48
102
}
330
18
100
AcDbEntity
  8
ROGO
 62
     4
100
AcDbLine
 10
384.6021686659613
 20
353.6694630084674
 30
0.0
 11
384.7925655313832
 21
353.2408725471972
 31
0.0
  0
LINE
  5
A47
102
{ACAD_REACTORS
330
A48
102
}
330
18
100
AcDbEntity
  8
ROGO
 62
     4
100
AcDbLine
 10
384.9045295573384
 20
352.988837339456
 30
0.0
 11
385.0106837480023
 21
352.7498802881328
 31
0.0
  0
HATCH
  5
A48
330
18
100
AcDbEntity
  8
ROGO
 62
     4
100
AcDbHatch
 10
0.0
 20
0.0
 30
0.0
210
0.0
220
0.0
230
1.0
  2
SOLID
 70
     1
 71
     1
 91
        2
 92
        7
 72
     0
 73
     1
 93
        8
 10
385.1529568429983
 20
354.004947602591
 10
384.1490104791647
 20
354.0049476025911
 10
383.2439570467601
 20
352.7498802881328
 10
383.9390396944463
 20
352.7498802881328
 10
384.1113562682315
 20
352.988837339456
 10
384.9045295573384
 20
352.9888373394559
 10
385.0106837480022
 20
352.7498802881328
 10
385.7105074750352
 20
352.7498802881328
 97
        8
330
A23
330
A1D
330
A22
330
A21
330
A1F
330
A47
330
A24
330
A45
 92
       22
 72
     0
 73
     1
 93
        3
 10
384.6021686659613
 20
353.6694630084673
 10
384.7925655313832
 20
353.2408725471972
 10
384.2931037547809
 20
353.2408725471971
 97
        3
330
A20
330
A1E
330
A46
 75
     0
 76
     1
 47
0.0128389261915577
 98
        2
 10
385.0743399099977
 20
353.7038393217987
 10
385.0743399099977
 20
353.7038393217987
450
        0
451
        0
460
0.0
461
0.0
452
        0
462
0.0
453
        0
470

  0
SPLINE
  5
A49
102
{ACAD_REACTORS
330
A50
102
}
330
18
100
AcDbEntity
  8
ROGO
 62
     4
100
AcDbSpline
210
0.0
220
0.0
230
1.0
 70
     8
 71
     3
 72
    38
 73
    34
 74
    32
 42
0.0000000001
 43
0.0000000001
 44
0.0000000001
 40
0.0
 40
0.0
 40
0.0
 40
0.0
 40
0.1727730288017606
 40
0.2270334318054211
 40
0.2967543604437097
 40
0.3548552480357229
 40
0.4038775227826781
 40
0.4689902911275818
 40
0.5022603494894948
 40
0.5397311681904183
 40
0.5949561037267343
 40
0.6575139722433928
 40
0.6980946488912587
 40
0.7421788775855816
 40
0.7911835201222335
 40
0.8655505483299506
 40
0.9362069803852003
 40
0.9690548030272404
 40
1.006513350563134
 40
1.05088935917693
 40
1.08247937483629
 40
1.108960905631997
 40
1.146770549175222
 40
1.188316870675215
 40
1.229862960852109
 40
1.266215847587695
 40
1.349470420034426
 40
1.382318242676466
 40
1.448013926978792
 40
1.506085989404119
 40
1.617260599225911
 40
1.754438556428531
 40
1.952543488630988
 40
1.952543488630988
 40
1.952543488630988
 40
1.952543488630988
 10
388.4580180136731
 20
354.0101825759724
 30
0.0
 10
388.4004275845287
 20
354.0061142181093
 30
0.0
 10
388.3247505366788
 20
354.0007681681276
 30
0.0
 10
388.2286583809111
 20
353.9744417823385
 30
0.0
 10
388.1762775245601
 20
353.9430785795017
 30
0.0
 10
388.1217647736917
 20
353.9200251220837
 30
0.0
 10
388.0752875765034
 20
353.885887523251
 30
0.0
 10
388.0282768727551
 20
353.868296747463
 30
0.0
 10
387.9953585389144
 20
353.8365774345292
 30
0.0
 10
387.9572582525919
 20
353.8172019091594
 30
0.0
 10
387.9269183181419
 20
353.7738338505017
 30
0.0
 10
387.8930068767053
 20
353.7332862871803
 30
0.0
 10
387.8536653384262
 20
353.7036883743083
 30
0.0
 10
387.8213772099615
 20
353.6726019062046
 30
0.0
 10
387.7917573417163
 20
353.6246261454992
 30
0.0
 10
387.7742269780117
 20
353.560880565826
 30
0.0
 10
387.7248118252335
 20
353.5206339057307
 30
0.0
 10
387.7173714503974
 20
353.4722454115686
 30
0.0
 10
387.6900384224816
 20
353.4436970142718
 30
0.0
 10
387.6781530659893
 20
353.4068451346956
 30
0.0
 10
387.6736265501365
 20
353.3730823036007
 30
0.0
 10
387.6681936517656
 20
353.3415501566007
 30
0.0
 10
387.6539822185412
 20
353.3083797308269
 30
0.0
 10
387.6586208793781
 20
353.2674055134341
 30
0.0
 10
387.6572994641681
 20
353.2277288187322
 30
0.0
 10
387.6580771185703
 20
353.1741640453811
 30
0.0
 10
387.6552704561336
 20
353.1220121514302
 30
0.0
 10
387.6776524891943
 20
353.0652585212852
 30
0.0
 10
387.6908974335797
 20
353.0146705116194
 30
0.0
 10
387.7271708683599
 20
352.9446252777467
 30
0.0
 10
387.7897417831972
 20
352.8638082230702
 30
0.0
 10
387.908725611696
 20
352.765711630821
 30
0.0
 10
388.0231320415822
 20
352.7557601881659
 30
0.0
 10
388.0907301169757
 20
352.7498802881328
 30
0.0
 11
388.4580180136731
 21
354.0101825759724
 31
0.0
 11
388.2864983632873
 21
353.9894092995609
 31
0.0
 11
388.2345227240294
 21
353.9738296892368
 31
0.0
 11
388.1721522019281
 21
353.9426700059426
 31
0.0
 11
388.1201765626702
 21
353.9167037574128
 31
0.0
 11
388.0785962146027
 21
353.8907372775599
 31
0.0
 11
388.0214231339231
 21
353.8595778255888
 31
0.0
 11
387.9954351101206
 21
353.8388047805003
 31
0.0
 11
387.9642496448964
 21
353.8180315040888
 31
0.0
 11
387.9278667382506
 21
353.7764854139118
 31
0.0
 11
387.886286390183
 21
353.7297461202936
 31
0.0
 11
387.8551009249589
 21
353.7037796404407
 31
0.0
 11
387.8239158680818
 21
353.6726201884695
 31
0.0
 11
387.7979278442793
 21
353.6310740982926
 31
0.0
 11
387.7667427874022
 21
353.5635615282629
 31
0.0
 11
387.7251620309876
 21
353.5064355964388
 31
0.0
 11
387.7147671481442
 21
353.4752759131446
 31
0.0
 11
387.6939769741105
 21
353.4441164611735
 31
0.0
 11
387.6783842414984
 21
353.4025701396735
 31
0.0
 11
387.6731863917297
 21
353.3714106877023
 31
0.0
 11
387.667988950308
 21
353.3454442078494
 31
0.0
 11
387.6575940674646
 21
353.3090915524369
 31
0.0
 11
387.6575940674646
 21
353.267545230937
 31
0.0
 11
387.6575940674646
 21
353.2259991407601
 31
0.0
 11
387.6575940674646
 21
353.1896462540245
 31
0.0
 11
387.6627915088864
 21
353.1065540736706
 31
0.0
 11
387.6731863917297
 21
353.0753943903764
 31
0.0
 11
387.6939769741105
 21
353.013075255111
 31
0.0
 11
387.719964589566
 21
352.9611425267284
 31
0.0
 11
387.7875329614359
 21
352.8728571429332
 31
0.0
 11
387.8966816813735
 21
352.7897647312563
 31
0.0
 11
388.0907301169757
 21
352.7498802881328
 31
0.0
  0
SPLINE
  5
A4A
102
{ACAD_REACTORS
330
A50
102
}
330
18
100
AcDbEntity
  8
ROGO
 62
     4
100
AcDbSpline
210
0.0
220
0.0
230
1.0
 70
     8
 71
     3
 72
    25
 73
    21
 74
     0
 42
0.0000000001
 43
0.0000000001
 40
0.0
 40
0.0
 40
0.0
 40
0.0
 40
0.4087168505087288
 40
0.6887487002771746
 40
0.9415836120477687
 40
1.17452070575514
 40
1.41154617586699
 40
1.599156012919487
 40
1.80099909059943
 40
2.178735911501585
 40
2.521686161369157
 40
2.762704659361267
 40
3.06256558063785
 40
3.222432137207705
 40
3.399493810628493
 40
3.567459719866414
 40
3.743172740007509
 40
3.995988754699505
 40
4.17170091132118
 40
4.337226830236035
 40
4.337226830236035
 40
4.337226830236035
 40
4.337226830236035
 10
389.1752808553995
 20
354.0101825759724
 30
0.0
 10
389.2223240073529
 20
354.008671128019
 30
0.0
 10
389.3015987172761
 20
354.0061241133507
 30
0.0
 10
389.3867098983029
 20
353.939599803352
 30
0.0
 10
389.4518345100273
 20
353.8844460533999
 30
0.0
 10
389.4980607677885
 20
353.817767752304
 30
0.0
 10
389.5385793778897
 20
353.7564606063317
 30
0.0
 10
389.5652780699551
 20
353.6917343662508
 30
0.0
 10
389.6015935660979
 20
353.6140688059121
 30
0.0
 10
389.6166263874114
 20
353.5101638248308
 30
0.0
 10
389.6064699291329
 20
353.4027684398409
 30
0.0
 10
389.5799663151958
 20
353.3075723097372
 30
0.0
 10
389.5521661550858
 20
353.2345400749543
 30
0.0
 10
389.5194003571792
 20
353.1709609838024
 30
0.0
 10
389.4803393390712
 20
353.1297935173497
 30
0.0
 10
389.4532403746407
 20
353.077449485076
 30
0.0
 10
389.401186730434
 20
353.0346348769128
 30
0.0
 10
389.3589892385868
 20
352.9818076596768
 30
0.0
 10
389.3111038734171
 20
352.9364654973603
 30
0.0
 10
389.2841058922704
 20
352.9084899296291
 30
0.0
 10
389.2698719055372
 20
352.8967274868749
 30
0.0
  0
LINE
  5
A4B
102
{ACAD_REACTORS
330
A50
102
}
330
18
100
AcDbEntity
  8
ROGO
 62
     4
100
AcDbLine
 10
388.4580180136731
 20
354.0101825759724
 30
0.0
 11
389.1752808553995
 21
354.0101825759724
 31
0.0
  0
LINE
  5
A4C
102
{ACAD_REACTORS
330
A50
102
}
330
18
100
AcDbEntity
  8
ROGO
 62
     4
100
AcDbLine
 10
388.0907301169757
 20
352.7498802881328
 30
0.0
 11
388.807992958702
 21
352.7498802881328
 31
0.0
  0
SPLINE
  5
A4D
102
{ACAD_REACTORS
330
A50
102
}
330
18
100
AcDbEntity
  8
ROGO
 62
     4
100
AcDbSpline
210
0.0
220
0.0
230
1.0
 70
     8
 71
     3
 72
    11
 73
     7
 74
     0
 42
0.0000000001
 43
0.0000000001
 40
0.1647869275458134
 40
0.1647869275458134
 40
0.1647869275458134
 40
0.1647869275458134
 40
0.2895635144633836
 40
0.5387013147903714
 40
0.7953622617455423
 40
0.8850764140209602
 40
0.8850764140209602
 40
0.8850764140209602
 40
0.8850764140209602
 10
389.0469526752218
 20
352.7778618998676
 30
0.0
 10
389.0335923737312
 20
352.7741430548555
 30
0.0
 10
388.9921682433395
 20
352.7675218576796
 30
0.0
 10
388.9226847885333
 20
352.7584301763408
 30
0.0
 10
388.8566442399928
 20
352.7489426751574
 30
0.0
 10
388.8180017090738
 20
352.7496873983678
 30
0.0
 10
388.8079929587021
 20
352.7498802881328
 30
0.0
  0
SPLINE
  5
A4E
102
{ACAD_REACTORS
330
A50
102
}
330
18
100
AcDbEntity
  8
ROGO
 62
     4
100
AcDbSpline
210
0.0
220
0.0
230
1.0
 70
     8
 71
     3
 72
     9
 73
     5
 74
     3
 42
0.0000000001
 43
0.0000000001
 44
0.0000000001
 40
0.0
 40
0.0
 40
0.0
 40
0.0
 40
0.1085559612118844
 40
0.2545162273153627
 40
0.2545162273153627
 40
0.2545162273153627
 40
0.2545162273153627
 10
389.0469526752218
 20
352.7778618998676
 30
0.0
 10
389.0818239907479
 20
352.7885305529717
 30
0.0
 10
389.1635819667276
 20
352.8135438761303
 30
0.0
 10
389.2311327834971
 20
352.8664098473649
 30
0.0
 10
389.2698719055372
 20
352.8967274868749
 30
0.0
 11
389.0469526752218
 21
352.7778618998676
 31
0.0
 11
389.1489820794818
 21
352.8149347656994
 31
0.0
 11
389.2698719055372
 21
352.8967274868749
 31
0.0
  0
ELLIPSE
  5
A4F
102
{ACAD_REACTORS
330
A50
102
}
330
18
100
AcDbEntity
  8
ROGO
 62
     4
100
AcDbEllipse
 10
388.6228489391622
 20
353.3624596406127
 30
0.0
 11
0.1703995543912361
 21
0.1498450853456978
 31
0.0
210
0.0
220
0.0
230
1.0
 40
0.6788083417438794
 41
0.0
 42
6.283185307179586
  0
HATCH
  5
A50
330
18
100
AcDbEntity
  8
ROGO
 62
     4
100
AcDbHatch
 10
0.0
 20
0.0
 30
0.0
210
0.0
220
0.0
230
1.0
  2
SOLID
 70
     1
 71
     1
 91
        2
 92
        5
 93
        6
 72
     4
 94
        3
 73
     0
 74
     0
 95
       38
 96
       34
 40
0.0
 40
0.0
 40
0.0
 40
0.0
 40
0.1727730288017606
 40
0.2270334318054211
 40
0.2967543604437097
 40
0.3548552480357229
 40
0.4038775227826781
 40
0.4689902911275818
 40
0.5022603494894948
 40
0.5397311681904183
 40
0.5949561037267343
 40
0.6575139722433928
 40
0.6980946488912587
 40
0.7421788775855816
 40
0.7911835201222335
 40
0.8655505483299506
 40
0.9362069803852003
 40
0.9690548030272404
 40
1.006513350563134
 40
1.05088935917693
 40
1.08247937483629
 40
1.108960905631997
 40
1.146770549175222
 40
1.188316870675215
 40
1.229862960852109
 40
1.266215847587695
 40
1.349470420034426
 40
1.382318242676466
 40
1.448013926978792
 40
1.506085989404119
 40
1.617260599225911
 40
1.754438556428531
 40
1.952543488630988
 40
1.952543488630988
 40
1.952543488630988
 40
1.952543488630988
 10
388.4580180136731
 20
354.0101825759724
 10
388.4004275845287
 20
354.0061142181093
 10
388.3247505366788
 20
354.0007681681276
 10
388.2286583809111
 20
353.9744417823385
 10
388.1762775245601
 20
353.9430785795017
 10
388.1217647736917
 20
353.9200251220837
 10
388.0752875765034
 20
353.885887523251
 10
388.0282768727551
 20
353.868296747463
 10
387.9953585389144
 20
353.8365774345292
 10
387.9572582525919
 20
353.8172019091594
 10
387.9269183181419
 20
353.7738338505017
 10
387.8930068767053
 20
353.7332862871803
 10
387.8536653384262
 20
353.7036883743083
 10
387.8213772099615
 20
353.6726019062046
 10
387.7917573417163
 20
353.6246261454992
 10
387.7742269780117
 20
353.560880565826
 10
387.7248118252335
 20
353.5206339057307
 10
387.7173714503974
 20
353.4722454115686
 10
387.6900384224816
 20
353.4436970142718
 10
387.6781530659893
 20
353.4068451346956
 10
387.6736265501365
 20
353.3730823036007
 10
387.6681936517656
 20
353.3415501566007
 10
387.6539822185412
 20
353.3083797308269
 10
387.6586208793781
 20
353.2674055134341
 10
387.6572994641681
 20
353.2277288187322
 10
387.6580771185703
 20
353.1741640453811
 10
387.6552704561336
 20
353.1220121514302
 10
387.6776524891943
 20
353.0652585212852
 10
387.6908974335797
 20
353.0146705116194
 10
387.7271708683599
 20
352.9446252777467
 10
387.7897417831972
 20
352.8638082230702
 10
387.908725611696
 20
352.765711630821
 10
388.0231320415822
 20
352.7557601881659
 10
388.0907301169757
 20
352.7498802881328
 72
     1
 10
388.0907301169757
 20
352.7498802881327
 11
388.8079929587012
 21
352.7498802881328
 72
     4
 94
        3
 73
     0
 74
     0
 95
       11
 96
        7
 40
0.1647869275458135
 40
0.1647869275458135
 40
0.1647869275458135
 40
0.1647869275458135
 40
0.2545010798212315
 40
0.5111620267764023
 40
0.7602998271033902
 40
0.8850764140209603
 40
0.8850764140209603
 40
0.8850764140209603
 40
0.8850764140209603
 10
388.8079929587021
 20
352.7498802881328
 10
388.8180017090738
 20
352.7496873983678
 10
388.8566442399928
 20
352.7489426751574
 10
388.9226847885333
 20
352.7584301763408
 10
388.9921682433395
 20
352.7675218576796
 10
389.0335923737312
 20
352.7741430548555
 10
389.0469526752218
 20
352.7778618998676
 72
     4
 94
        3
 73
     0
 74
     0
 95
        9
 96
        5
 40
0.0
 40
0.0
 40
0.0
 40
0.0
 40
0.1085559612118844
 40
0.2545162273153627
 40
0.2545162273153627
 40
0.2545162273153627
 40
0.2545162273153627
 10
389.0469526752218
 20
352.7778618998676
 10
389.0818239907479
 20
352.7885305529717
 10
389.1635819667276
 20
352.8135438761303
 10
389.2311327834971
 20
352.8664098473649
 10
389.2698719055372
 20
352.8967274868749
 72
     4
 94
        3
 73
     0
 74
     0
 95
       25
 96
       21
 40
0.0
 40
0.0
 40
0.0
 40
0.0
 40
0.165525918914855
 40
0.3412380755365305
 40
0.5940540902285263
 40
0.7697671103696209
 40
0.9377330196075423
 40
1.11479469302833
 40
1.274661249598185
 40
1.574522170874768
 40
1.815540668866877
 40
2.15849091873445
 40
2.536227739636605
 40
2.738070817316548
 40
2.925680654369045
 40
3.162706124480894
 40
3.395643218188267
 40
3.648478129958861
 40
3.928509979727306
 40
4.337226830236035
 40
4.337226830236035
 40
4.337226830236035
 40
4.337226830236035
 10
389.2698719055372
 20
352.8967274868749
 10
389.2841058922704
 20
352.9084899296291
 10
389.3111038734171
 20
352.9364654973603
 10
389.3589892385868
 20
352.9818076596768
 10
389.401186730434
 20
353.0346348769128
 10
389.4532403746407
 20
353.077449485076
 10
389.4803393390712
 20
353.1297935173497
 10
389.5194003571792
 20
353.1709609838024
 10
389.5521661550858
 20
353.2345400749543
 10
389.5799663151958
 20
353.3075723097372
 10
389.6064699291329
 20
353.4027684398409
 10
389.6166263874114
 20
353.5101638248308
 10
389.6015935660979
 20
353.6140688059121
 10
389.5652780699551
 20
353.6917343662508
 10
389.5385793778897
 20
353.7564606063317
 10
389.4980607677885
 20
353.817767752304
 10
389.4518345100273
 20
353.8844460533999
 10
389.3867098983029
 20
353.939599803352
 10
389.3015987172761
 20
354.0061241133507
 10
389.2223240073529
 20
354.008671128019
 10
389.1752808553995
 20
354.0101825759724
 72
     1
 10
389.1752808553995
 20
354.0101825759724
 11
388.4580180136731
 21
354.0101825759724
 97
        6
330
A4A
330
A4B
330
A49
330
A4C
330
A4D
330
A4E
 92
       20
 93
        1
 72
     3
 10
388.6228489391622
 20
353.3624596406127
 11
0.1703995543912361
 21
0.1498450853456978
 40
0.6788083417438794
 50
0.0
 51
360.0
 73
     1
 97
        1
330
A4F
 75
     0
 76
     1
 47
0.088756267210375
 98
        2
 10
388.6729612907703
 20
353.6620820336378
 10
388.6729612907703
 20
353.6620820336378
450
        0
451
        0
460
0.0
461
0.0
452
        0
462
0.0
453
        0
470

  0
LINE
  5
A51
102
{ACAD_REACTORS
330
A52
102
}
330
18
100
AcDbEntity
  8
ROGO
 62
     4
100
AcDbLine
 10
392.6141848237127
 20
353.6513694036599
 30
0.0
 11
393.022081350181
 21
354.0049476025911
 31
0.0
  0
HATCH
  5
A52
330
18
100
AcDbEntity
  8
ROGO
 62
     4
100
AcDbHatch
 10
0.0
 20
0.0
 30
0.0
210
0.0
220
0.0
230
1.0
  2
SOLID
 70
     1
 71
     1
 91
        1
 92
        7
 72
     0
 73
     1
 93
       11
 10
392.6141848237126
 20
353.6513694036596
 10
392.7904903332125
 20
354.0049476025911
 10
392.0678465715622
 20
354.0049476025911
 10
391.0899645445978
 20
352.0438190658708
 10
391.8126083062482
 20
352.0438190658708
 10
392.067846571562
 20
352.5556957871598
 10
392.3230848368758
 20
352.0438190658708
 10
393.0457127876622
 20
352.0438190658708
 10
392.5567717741801
 20
353.0243833342309
 10
393.7447093009671
 20
354.0049476025911
 10
393.0220813501811
 20
354.0049476025911
 97
       11
330
A3C
330
A51
330
A37
330
A35
330
A36
330
A09
330
A3A
330
A38
330
A3D
330
A39
330
A3B
 75
     0
 76
     1
 47
0.015942268611278
 98
        1
 10
392.4579349982503
 20
353.368719780938
450
        0
451
        0
460
0.0
461
0.0
452
        0
462
0.0
453
        0
470

  0
LINE
  5
A82
330
18
100
AcDbEntity
  8
目盛
100
AcDbLine
 10
373.1453609481968
 20
348.7339486312959
 30
0.0
 11
373.1453609481968
 21
347.4839486312959
 31
0.0
  0
LINE
  5
B12
330
18
100
AcDbEntity
  8
目盛
100
AcDbLine
 10
373.1453609481968
 20
348.733948631296
 30
0.0
 11
373.1453609481968
 21
347.483948631296
 31
0.0
  0
CIRCLE
  5
B51
330
18
100
AcDbEntity
  8
外形線
100
AcDbCircle
 10
386.1453609481968
 20
341.9339486312959
 30
0.0
 40
40.75
  0
ARC
  5
B62
330
18
100
AcDbEntity
  8
針
100
AcDbCircle
 10
393.1987839757065
 20
332.2257446987965
 30
0.0
 40
1.75
100
AcDbArc
 50
142.601549599022
 51
109.3984504009815
  0
LINE
  5
B63
330
18
100
AcDbEntity
  8
針
100
AcDbLine
 10
365.5599177815072
 20
370.0547177287263
 30
0.0
 11
365.7621720301009
 21
370.2016640417994
 31
0.0
  0
LINE
  5
B6A
330
18
100
AcDbEntity
  8
針
100
AcDbLine
 10
388.2962549765167
 20
340.2014437777838
 30
0.0
 11
392.6175466376705
 21
333.876400070724
 31
0.0
  0
LINE
  5
B6B
330
18
100
AcDbEntity
  8
針
100
AcDbLine
 10
387.128408170792
 20
339.3529534072296
 30
0.0
 11
391.8085296432956
 21
333.2886148184315
 31
0.0
  0
LINE
  5
B74
330
18
100
AcDbEntity
  8
針
100
AcDbLine
 10
384.7146384903766
 20
344.8878002913833
 30
0.0
 11
365.7621720301009
 21
370.2016640417994
 31
0.0
  0
LINE
  5
B75
330
18
100
AcDbEntity
  8
針
100
AcDbLine
 10
383.7781986324017
 20
344.2074369096454
 30
0.0
 11
365.5599177815072
 21
370.0547177287263
 31
0.0
  0
ARC
  5
B76
330
18
100
AcDbEntity
  8
針
100
AcDbCircle
 10
387.1161372550839
 20
346.6858002032601
 30
0.0
 40
3.0
100
AcDbArc
 50
216.8221639663827
 51
258.4536807492694
  0
ARC
  5
B77
330
18
100
AcDbEntity
  8
針
100
AcDbCircle
 10
381.3260951696482
 20
342.4790883892503
 30
0.0
 40
3.0
100
AcDbArc
 50
353.5463192507306
 51
35.17783603361737
  0
HATCH
  5
C3B
330
18
100
AcDbEntity
  8
針
100
AcDbHatch
 10
0.0
 20
0.0
 30
0.0
210
0.0
220
0.0
230
1.0
  2
SOLID
 70
     1
 71
     0
 91
        1
 92
        7
 72
     1
 73
     1
 93
        6
 10
365.7621720301009
 20
370.2016640417994
 42
0.0
 10
365.5599177815072
 20
370.0547177287263
 42
0.0
 10
383.7781986324018
 20
344.2074369096454
 42
-0.1836764983547232
 10
384.3070843110187
 20
342.1418885389692
 42
-0.4404930875945773
 10
386.5156570652568
 20
343.7465105711171
 42
-0.183676498354762
 10
384.7146384903763
 20
344.8878002913837
 42
0.0
 97
        0
 75
     0
 76
     1
 47
0.1657342924380236
 98
        8
 10
383.0102654602418
 20
346.5038578865322
 10
393.9071043598556
 20
343.3584965300506
 10
393.9071043598556
 20
343.3584965300506
 10
393.9071043598556
 20
343.3584965300506
 10
393.9071043598556
 20
343.3584965300506
 10
393.9071043598556
 20
343.3584965300506
 10
393.9071043598556
 20
343.3584965300506
 10
383.4973463141107
 20
345.8334486054596
450
        0
451
        0
460
0.0
461
0.0
452
        0
462
0.0
453
        0
470

  0
HATCH
  5
C3D
330
18
100
AcDbEntity
  8
針
100
AcDbHatch
 10
0.0
 20
0.0
 30
0.0
210
0.0
220
0.0
230
1.0
  2
SOLID
 70
     1
 71
     0
 91
        1
 92
        1
 93
        6
 72
     2
 10
389.9476441685426
 20
341.3296785656092
 40
2.0
 50
170.9699032408213
 51
214.3410239928517
 73
     1
 72
     1
 10
388.2962549765167
 20
340.2014437777838
 11
392.6175466376705
 21
333.8764000707239
 72
     2
 10
393.1987839757065
 20
332.2257446987966
 40
1.75
 50
250.6015495990184
 51
577.3984504009779
 73
     0
 72
     1
 10
391.8085296432956
 20
333.2886148184315
 11
387.128408170792
 21
339.3529534072296
 72
     2
 10
385.5450857992565
 20
338.131032678297
 40
2.0
 50
37.65897600714823
 51
81.03009675917633
 73
     1
 72
     2
 10
386.1453609481968
 20
341.933948631296
 40
1.85
 50
261.0300967591763
 51
350.9699032408212
 73
     1
 97
        0
 75
     0
 76
     1
 98
        1
 10
378.2839903190254
 20
-132.7870112306404
450
        0
451
        0
460
0.0
461
0.0
452
        0
462
0.0
453
        0
470

  0
CIRCLE
  5
C40
330
18
100
AcDbEntity
  8
外形線
100
AcDbCircle
 10
386.1453609481968
 20
341.9339486312959
 30
0.0
 40
1.85
  0
CIRCLE
  5
C42
330
18
100
AcDbEntity
  8
針
100
AcDbCircle
 10
373.1453609481968
 20
342.2339486312959
 30
0.0
 40
1.149999999999999
  0
CIRCLE
  5
C45
330
18
100
AcDbEntity
  8
針
100
AcDbCircle
 10
373.1453609481968
 20
342.2339486312959
 30
0.0
 40
0.75
  0
LINE
  5
C46
330
18
100
AcDbEntity
  8
針
100
AcDbLine
 10
373.0453609481961
 20
348.6339486312959
 30
0.0
 11
373.2453609481968
 21
348.6339486312959
 31
0.0
  0
LINE
  5
C4B
330
18
100
AcDbEntity
  8
針
100
AcDbLine
 10
373.2889827920997
 20
344.0450837000361
 30
0.0
 11
373.2453609481968
 21
348.6339486312959
 31
0.0
  0
ARC
  5
C4C
330
18
100
AcDbEntity
  8
針
100
AcDbCircle
 10
374.2889376129492
 20
344.0545892910175
 30
0.0
 40
1.0
100
AcDbArc
 50
180.5446384471343
 51
237.8663420293291
  0
ARC
  5
C4D
330
18
100
AcDbEntity
  8
針
100
AcDbCircle
 10
372.0017842834442
 20
344.0545892910173
 30
0.0
 40
1.0
100
AcDbArc
 50
302.1336579706784
 51
359.4553615528732
  0
LINE
  5
C4E
330
18
100
AcDbEntity
  8
針
100
AcDbLine
 10
373.0017391042937
 20
344.0450837000361
 30
0.0
 11
373.0453609481961
 21
348.6339486312959
 31
0.0
  0
HATCH
  5
C6A
330
18
100
AcDbEntity
  8
針
100
AcDbHatch
 10
0.0
 20
0.0
 30
0.0
210
0.0
220
0.0
230
1.0
  2
SOLID
 70
     1
 71
     0
 91
        7
 92
        7
 72
     1
 73
     1
 93
        5
 10
373.2889827920997
 20
344.0450837000362
 42
0.0
 10
373.2453609481969
 20
348.6339486312959
 42
0.0
 10
373.1453609481968
 20
348.6339486312959
 42
0.0
 10
373.1453609481968
 20
343.3839486312959
 42
-0.1411355954995574
 10
373.7570414898085
 20
343.2077796818447
 42
-0.2554624148390979
 97
        0
 92
        7
 72
     1
 73
     1
 93
        5
 10
373.1453609481968
 20
348.6339486312959
 42
0.0
 10
373.0453609481961
 20
348.6339486312959
 42
0.0
 10
373.0017391042937
 20
344.0450837000361
 42
-0.2554624148390825
 10
372.5336804065849
 20
343.2077796818446
 42
-0.141135595499561
 10
373.1453609481968
 20
343.3839486312959
 42
0.0
 97
        0
 92
        7
 72
     1
 73
     1
 93
        4
 10
373.1453609481968
 20
343.3839486312959
 42
0.0
 10
373.1453609481968
 20
342.9839486312959
 42
-0.4142135623730951
 10
373.8953609481967
 20
342.2339486312959
 42
0.0
 10
374.2953609481967
 20
342.2339486312959
 42
0.4142135623730835
 97
        0
 92
        7
 72
     1
 73
     1
 93
        4
 10
374.2953609481967
 20
342.2339486312959
 42
0.0
 10
373.8953609481967
 20
342.2339486312959
 42
-0.4142135623730951
 10
373.1453609481968
 20
341.4839486312959
 42
0.0
 10
373.1453609481968
 20
341.0839486312959
 42
0.4142135623730835
 97
        0
 92
        7
 72
     1
 73
     1
 93
        4
 10
372.3953609481967
 20
342.2339486312959
 42
0.0
 10
371.9953609481968
 20
342.2339486312959
 42
0.4142135623730835
 10
373.1453609481968
 20
341.0839486312959
 42
0.0
 10
373.1453609481968
 20
341.4839486312959
 42
-0.4142135623730951
 97
        0
 92
        7
 72
     1
 73
     1
 93
        4
 10
373.1453609481968
 20
342.9839486312959
 42
0.0
 10
373.1453609481968
 20
343.3839486312959
 42
0.4142135623730835
 10
371.9953609481968
 20
342.2339486312959
 42
0.0
 10
372.3953609481967
 20
342.2339486312959
 42
-0.4142135623730951
 97
        0
 92
      137
 93
        4
 72
     1
 10
372.5741919869324
 20
345.9792692557251
 11
373.7408586535991
 21
345.9792692557251
 72
     1
 10
373.7408586535991
 20
345.9792692557251
 11
373.7408586535991
 21
347.4792692557251
 72
     1
 10
373.7408586535991
 20
347.4792692557251
 11
372.5741919869324
 21
347.4792692557251
 72
     1
 10
372.5741919869324
 20
347.4792692557251
 11
372.5741919869324
 21
345.9792692557251
 97
        0
 75
     0
 76
     1
 47
0.0222682335681739
 98
        6
 10
373.3434707172955
 20
343.5190849592325
 10
373.0314433440103
 20
343.5190849592325
 10
373.8338002996743
 20
342.89557402765
 10
373.9898145833681
 20
341.7821625450782
 10
372.5411125675291
 20
341.5817482935101
 10
372.3405236271389
 20
342.6951604357429
450
        0
451
        0
460
0.0
461
0.0
452
        0
462
0.0
453
        0
470

  0
LINE
  5
C7A
330
18
100
AcDbEntity
  8
外形線
100
AcDbLine
 10
382.2453609481967
 20
274.4839486312959
 30
0.0
 11
390.0453609481967
 21
274.483948631296
 31
0.0
  0
LINE
  5
C7F
330
18
100
AcDbEntity
  8
外形線
100
AcDbLine
 10
381.1453609481968
 20
281.4839486312958
 30
0.0
 11
391.1453609481968
 21
281.483948631296
 31
0.0
  0
LINE
  5
C80
330
18
100
AcDbEntity
  8
外形線
100
AcDbLine
 10
391.0453609481968
 20
281.483948631296
 30
0.0
 11
391.0453609481967
 21
275.483948631296
 31
0.0
  0
LINE
  5
C81
330
18
100
AcDbEntity
  8
外形線
100
AcDbLine
 10
381.2453609481968
 20
281.4839486312958
 30
0.0
 11
381.2453609481967
 21
275.4839486312958
 31
0.0
  0
ARC
  5
C82
330
18
100
AcDbEntity
  8
外形線
100
AcDbCircle
 10
382.2453609481967
 20
275.4839486312958
 30
0.0
 40
1.0
100
AcDbArc
 50
180.0
 51
270.0000000000008
  0
ARC
  5
C83
330
18
100
AcDbEntity
  8
外形線
100
AcDbCircle
 10
390.0453609481967
 20
275.483948631296
 30
0.0
 40
1.0
100
AcDbArc
 50
270.0000000000008
 51
359.9999999999995
  0
LINE
  5
C84
330
18
100
AcDbEntity
  8
外形線
100
AcDbLine
 10
391.1453609481967
 20
301.4918604062796
 30
0.0
 11
391.1453609481968
 21
281.483948631296
 31
0.0
  0
LINE
  5
C85
330
18
100
AcDbEntity
  8
外形線
100
AcDbLine
 10
381.1453609481968
 20
301.4918604062796
 30
0.0
 11
381.1453609481968
 21
281.4839486312958
 31
0.0
  0
LINE
  5
C86
330
18
100
AcDbEntity
  8
外形線
100
AcDbLine
 10
388.8953609481967
 20
274.483948631296
 30
0.0
 11
388.8953609481968
 21
222.9339486312959
 31
0.0
  0
LINE
  5
C87
330
18
100
AcDbEntity
  8
外形線
100
AcDbLine
 10
383.3953609481968
 20
274.4839486312959
 30
0.0
 11
383.3953609481968
 21
222.9339486312959
 31
0.0
  0
LINE
  5
CA5
330
18
100
AcDbEntity
  8
外形線
100
AcDbLine
 10
383.8953609481968
 20
219.4339486312959
 30
0.0
 11
384.8453609481967
 21
214.9339486312959
 31
0.0
  0
LINE
  5
CA6
330
18
100
AcDbEntity
  8
外形線
100
AcDbLine
 10
388.3953609481967
 20
219.4339486312959
 30
0.0
 11
387.4453609481967
 21
214.9339486312959
 31
0.0
  0
LINE
  5
CA7
330
18
100
AcDbEntity
  8
外形線
100
AcDbLine
 10
384.8453609481967
 20
214.9339486312959
 30
0.0
 11
387.4453609481967
 21
214.9339486312959
 31
0.0
  0
POINT
  5
CA9
330
18
100
AcDbEntity
  8
DEFPOINTS
  6
ByBlock
 62
     0
100
AcDbPoint
 10
386.1453609481968
 20
210.3944774414048
 30
0.0
  0
LINE
  5
CAA
330
18
100
AcDbEntity
  8
外形線
100
AcDbLine
 10
383.6453609481966
 20
219.6339486312959
 30
0.0
 11
388.6453609481968
 21
219.6339486312959
 31
0.0
  0
LINE
  5
CAB
330
18
100
AcDbEntity
  8
外形線
100
AcDbLine
 10
383.6453609481966
 20
222.7339486312959
 30
0.0
 11
388.6453609481968
 21
222.7339486312959
 31
0.0
  0
LINE
  5
CAC
330
18
100
AcDbEntity
  8
外形線
100
AcDbLine
 10
383.8953609481968
 20
219.4339486312959
 30
0.0
 11
388.3953609481967
 21
219.4339486312959
 31
0.0
  0
LINE
  5
CAD
330
18
100
AcDbEntity
  8
外形線
100
AcDbLine
 10
383.3953609481968
 20
222.9339486312959
 30
0.0
 11
388.8953609481968
 21
222.9339486312959
 31
0.0
  0
LINE
  5
CAF
330
18
100
AcDbEntity
  8
外形線
100
AcDbLine
 10
383.6453609481968
 20
219.6339486312959
 30
0.0
 11
383.8953609481968
 21
219.4339486312959
 31
0.0
  0
LINE
  5
CB0
330
18
100
AcDbEntity
  8
外形線
100
AcDbLine
 10
383.8953609481968
 20
222.9339486312959
 30
0.0
 11
383.6453609481968
 21
222.7339486312959
 31
0.0
  0
LINE
  5
CB1
330
18
100
AcDbEntity
  8
外形線
100
AcDbLine
 10
383.6453609481968
 20
222.7339486312959
 30
0.0
 11
383.6453609481968
 21
219.6339486312959
 31
0.0
  0
LINE
  5
CB2
330
18
100
AcDbEntity
  8
外形線
100
AcDbLine
 10
388.6453609481968
 20
219.6339486312959
 30
0.0
 11
388.3953609481967
 21
219.4339486312959
 31
0.0
  0
LINE
  5
CB3
330
18
100
AcDbEntity
  8
外形線
100
AcDbLine
 10
388.3953609481967
 20
222.9339486312959
 30
0.0
 11
388.6453609481968
 21
222.7339486312959
 31
0.0
  0
LINE
  5
CB4
330
18
100
AcDbEntity
  8
外形線
100
AcDbLine
 10
388.6453609481968
 20
222.7339486312959
 30
0.0
 11
388.6453609481966
 21
219.6339486312959
 31
0.0
  0
CIRCLE
  5
CB5
330
18
100
AcDbEntity
  8
外形線
100
AcDbCircle
 10
386.1453609481968
 20
341.9339486312959
 30
0.0
 40
0.5
  0
CIRCLE
  5
CB6
330
18
100
AcDbEntity
  8
外形線
100
AcDbCircle
 10
373.1453609481968
 20
342.2339486312959
 30
0.0
 40
0.5
  0
LINE
  5
CC4
330
18
100
AcDbEntity
  8
外形線
100
AcDbLine
 10
382.1953609481968
 20
419.3339486312959
 30
0.0
 11
390.0953609481969
 21
419.3339486312959
 31
0.0
  0
LINE
  5
CC5
330
18
100
AcDbEntity
  8
外形線
100
AcDbLine
 10
390.3953609481968
 20
422.4858821264117
 30
0.0
 11
390.3953609481969
 21
419.6339486312959
 31
0.0
  0
LINE
  5
CC6
330
18
100
AcDbEntity
  8
外形線
100
AcDbLine
 10
381.8953609481967
 20
422.4858821264117
 30
0.0
 11
381.8953609481967
 21
419.6339486312959
 31
0.0
  0
LINE
  5
CD4
330
18
100
AcDbEntity
  8
外形線
100
AcDbLine
 10
381.8953609481967
 20
419.6339486312959
 30
0.0
 11
390.3953609481968
 21
419.6339486312959
 31
0.0
  0
LINE
  5
CD5
330
18
100
AcDbEntity
  8
外形線
100
AcDbLine
 10
382.1953609481968
 20
419.3339486312959
 30
0.0
 11
381.8953609481967
 21
419.6339486312959
 31
0.0
  0
LINE
  5
CD6
330
18
100
AcDbEntity
  8
外形線
100
AcDbLine
 10
390.0953609481969
 20
419.3339486312959
 30
0.0
 11
390.3953609481969
 21
419.6339486312959
 31
0.0
  0
ARC
  5
CD7
330
18
100
AcDbEntity
  8
外形線
100
AcDbCircle
 10
386.1453609481968
 20
413.4339486312958
 30
0.0
 40
10.0
100
AcDbArc
 50
64.84933658745635
 51
115.1506634125438
  0
LINE
  5
CD8
330
18
100
AcDbEntity
  8
外形線
100
AcDbLine
 10
381.8953609481967
 20
422.4858821264117
 30
0.0
 11
390.3953609481968
 21
422.4858821264117
 31
0.0
  0
LINE
  5
CDB
330
18
100
AcDbEntity
  8
外形線
100
AcDbLine
 10
382.1453609481967
 20
417.3339486312959
 30
0.0
 11
390.1453609481968
 21
417.333948631296
 31
0.0
  0
LINE
  5
CDE
330
18
100
AcDbEntity
  8
外形線
100
AcDbLine
 10
391.1453609481967
 20
416.333948631296
 30
0.0
 11
391.1453609481967
 21
382.3760368563122
 31
0.0
  0
LINE
  5
CDF
330
18
100
AcDbEntity
  8
外形線
100
AcDbLine
 10
381.1453609481968
 20
416.3339486312959
 30
0.0
 11
381.1453609481968
 21
382.3760368563122
 31
0.0
  0
LINE
  5
CE0
330
18
100
AcDbEntity
  8
外形線
100
AcDbLine
 10
381.1453609481968
 20
416.333948631296
 30
0.0
 11
391.1453609481967
 21
416.333948631296
 31
0.0
  0
LINE
  5
CE1
330
18
100
AcDbEntity
  8
外形線
100
AcDbLine
 10
381.1453609481968
 20
416.3339486312959
 30
0.0
 11
382.1453609481967
 21
417.3339486312959
 31
0.0
  0
LINE
  5
CE2
330
18
100
AcDbEntity
  8
外形線
100
AcDbLine
 10
390.1453609481968
 20
417.333948631296
 30
0.0
 11
391.1453609481967
 21
416.333948631296
 31
0.0
  0
LINE
  5
CE6
330
18
100
AcDbEntity
  8
ﾊｯﾁﾝｸ
100
AcDbLine
 10
381.8953609481967
 20
420.4637088708493
 30
0.0
 11
383.9175342037592
 21
422.4858821264117
 31
0.0
  0
LINE
  5
CE7
330
18
100
AcDbEntity
  8
ﾊｯﾁﾝｸ
100
AcDbLine
 10
382.4126391268036
 20
419.6339486312959
 30
0.0
 11
385.2645726219194
 21
422.4858821264117
 31
0.0
  0
LINE
  5
CE8
330
18
100
AcDbEntity
  8
ﾊｯﾁﾝｸ
100
AcDbLine
 10
383.759677544964
 20
419.6339486312959
 30
0.0
 11
386.1453609481968
 21
422.0196320345286
 31
0.0
  0
LINE
  5
CE9
330
18
100
AcDbEntity
  8
ﾊｯﾁﾝｸ
100
AcDbLine
 10
385.1067159631245
 20
419.6339486312959
 30
0.0
 11
386.1453609481968
 21
420.6725936163683
 31
0.0
  0
LINE
  5
CEA
330
18
100
AcDbEntity
  8
ﾊｯﾁﾝｸ
100
AcDbLine
 10
383.6262980074152
 20
419.6339486312959
 30
0.0
 11
381.8953609481967
 21
421.3648856905143
 31
0.0
  0
LINE
  5
CEB
330
18
100
AcDbEntity
  8
ﾊｯﾁﾝｸ
100
AcDbLine
 10
384.9733364255757
 20
419.6339486312959
 30
0.0
 11
382.1214029304602
 21
422.4858821264117
 31
0.0
  0
LINE
  5
CEC
330
18
100
AcDbEntity
  8
ﾊｯﾁﾝｸ
100
AcDbLine
 10
386.1453609481968
 20
419.8089625268352
 30
0.0
 11
383.4684413486201
 21
422.4858821264118
 31
0.0
  0
LINE
  5
CED
330
18
100
AcDbEntity
  8
ﾊｯﾁﾝｸ
100
AcDbLine
 10
386.1453609481968
 20
421.1560009449955
 30
0.0
 11
384.8154797667807
 21
422.4858821264117
 31
0.0
  0
LINE
  5
CEF
330
18
100
AcDbEntity
  8
ﾊｯﾁﾝｸ
100
AcDbLine
 10
382.212084445042
 20
419.6339486312959
 30
0.0
 11
381.8953609481967
 21
419.9506721281412
 31
0.0
  0
LINE
  5
CF0
330
18
100
AcDbEntity
  8
ﾊｯﾁﾝｸ
100
AcDbLine
 10
381.8953609481967
 20
421.8779224332224
 30
0.0
 11
382.5033206413861
 21
422.4858821264117
 31
0.0
  0
LINE
  5
CF2
330
18
100
AcDbEntity
  8
中心線
 48
0.5
100
AcDbLine
 10
513.0268518038697
 20
341.9339486312959
 30
0.0
 11
571.9778960423332
 21
341.9339486312959
 31
0.0
  0
LINE
  5
CF3
330
18
100
AcDbEntity
  8
中心線
 48
0.5
100
AcDbLine
 10
538.8024409089852
 20
429.451128536326
 30
0.0
 11
538.8024409089852
 21
210.1208840058299
 31
0.0
  0
LINE
  5
CF6
330
18
100
AcDbEntity
  8
外形線
100
AcDbLine
 10
547.3024409089852
 20
381.1839486312959
 30
0.0
 11
547.3024409089852
 21
302.6839486312959
 31
0.0
  0
LINE
  5
CF8
330
18
100
AcDbEntity
  8
ﾊｯﾁﾝｸ
100
AcDbLine
 10
537.6304163863642
 20
419.6339486312959
 30
0.0
 11
534.7784828912486
 21
422.4858821264117
 31
0.0
  0
LINE
  5
CF9
330
18
100
AcDbEntity
  8
ﾊｯﾁﾝｸ
100
AcDbLine
 10
534.5524409089851
 20
420.4637088708493
 30
0.0
 11
536.5746141645477
 21
422.4858821264117
 31
0.0
  0
LINE
  5
CFA
330
18
100
AcDbEntity
  8
ﾊｯﾁﾝｸ
100
AcDbLine
 10
535.069719087592
 20
419.6339486312959
 30
0.0
 11
537.9216525827079
 21
422.4858821264117
 31
0.0
  0
LINE
  5
CFB
330
18
100
AcDbEntity
  8
ﾊｯﾁﾝｸ
100
AcDbLine
 10
538.8024409089852
 20
419.8089625268352
 30
0.0
 11
536.1255213094087
 21
422.4858821264118
 31
0.0
  0
LINE
  5
CFC
330
18
100
AcDbEntity
  8
外形線
100
AcDbLine
 10
533.8024409089852
 20
416.333948631296
 30
0.0
 11
543.8024409089852
 21
416.333948631296
 31
0.0
  0
LINE
  5
CFD
330
18
100
AcDbEntity
  8
外形線
100
AcDbLine
 10
534.8024409089852
 20
417.3339486312959
 30
0.0
 11
542.8024409089852
 21
417.333948631296
 31
0.0
  0
LINE
  5
CFE
330
18
100
AcDbEntity
  8
外形線
100
AcDbLine
 10
534.8524409089852
 20
419.3339486312959
 30
0.0
 11
542.7524409089853
 21
419.3339486312959
 31
0.0
  0
LINE
  5
CFF
330
18
100
AcDbEntity
  8
外形線
100
AcDbLine
 10
534.5524409089851
 20
419.6339486312959
 30
0.0
 11
543.0524409089853
 21
419.6339486312959
 31
0.0
  0
LINE
  5
D00
330
18
100
AcDbEntity
  8
外形線
100
AcDbLine
 10
534.5524409089851
 20
422.4858821264117
 30
0.0
 11
543.0524409089851
 21
422.4858821264117
 31
0.0
  0
ARC
  5
D01
330
18
100
AcDbEntity
  8
外形線
100
AcDbCircle
 10
538.8024409089852
 20
413.4339486312958
 30
0.0
 40
10.0
100
AcDbArc
 50
64.84933658745635
 51
115.1506634125438
  0
LINE
  5
D02
330
18
100
AcDbEntity
  8
ﾊｯﾁﾝｸ
100
AcDbLine
 10
536.2833779682037
 20
419.6339486312959
 30
0.0
 11
534.5524409089851
 21
421.3648856905143
 31
0.0
  0
LINE
  5
D03
330
18
100
AcDbEntity
  8
ﾊｯﾁﾝｸ
100
AcDbLine
 10
534.8691644058304
 20
419.6339486312959
 30
0.0
 11
534.5524409089851
 21
419.9506721281412
 31
0.0
  0
LINE
  5
D04
330
18
100
AcDbEntity
  8
ﾊｯﾁﾝｸ
100
AcDbLine
 10
534.5524409089851
 20
421.8779224332224
 30
0.0
 11
535.1604006021744
 21
422.4858821264117
 31
0.0
  0
LINE
  5
D05
330
18
100
AcDbEntity
  8
外形線
100
AcDbLine
 10
533.8024409089852
 20
416.3339486312959
 30
0.0
 11
534.8024409089852
 21
417.3339486312959
 31
0.0
  0
LINE
  5
D07
330
18
100
AcDbEntity
  8
外形線
100
AcDbLine
 10
534.8524409089852
 20
419.3339486312959
 30
0.0
 11
534.5524409089851
 21
419.6339486312959
 31
0.0
  0
LINE
  5
D08
330
18
100
AcDbEntity
  8
外形線
100
AcDbLine
 10
534.5524409089851
 20
422.4858821264117
 30
0.0
 11
534.5524409089851
 21
419.6339486312959
 31
0.0
  0
LINE
  5
D0A
330
18
100
AcDbEntity
  8
ﾊｯﾁﾝｸ
100
AcDbLine
 10
537.7637959239129
 20
419.6339486312959
 30
0.0
 11
538.8024409089852
 21
420.6725936163683
 31
0.0
  0
LINE
  5
D0B
330
18
100
AcDbEntity
  8
ﾊｯﾁﾝｸ
100
AcDbLine
 10
536.4167575057524
 20
419.6339486312959
 30
0.0
 11
538.8024409089853
 21
422.0196320345286
 31
0.0
  0
LINE
  5
D0C
330
18
100
AcDbEntity
  8
ﾊｯﾁﾝｸ
100
AcDbLine
 10
538.8024409089852
 20
421.1560009449955
 30
0.0
 11
537.4725597275691
 21
422.4858821264117
 31
0.0
  0
LINE
  5
D0D
330
18
100
AcDbEntity
  8
外形線
100
AcDbLine
 10
542.8024409089852
 20
417.333948631296
 30
0.0
 11
543.8024409089852
 21
416.333948631296
 31
0.0
  0
LINE
  5
D0E
330
18
100
AcDbEntity
  8
外形線
100
AcDbLine
 10
542.7524409089853
 20
419.3339486312959
 30
0.0
 11
543.0524409089853
 21
419.6339486312959
 31
0.0
  0
LINE
  5
D0F
330
18
100
AcDbEntity
  8
外形線
100
AcDbLine
 10
543.0524409089851
 20
422.4858821264117
 30
0.0
 11
543.0524409089853
 21
419.6339486312959
 31
0.0
  0
LINE
  5
D10
330
18
100
AcDbEntity
  8
外形線
100
AcDbLine
 10
543.8024409089852
 20
416.333948631296
 30
0.0
 11
543.8024409089852
 21
381.183948631296
 31
0.0
  0
LINE
  5
D11
330
18
100
AcDbEntity
  8
外形線
100
AcDbLine
 10
533.8024409089852
 20
416.3339486312959
 30
0.0
 11
533.8024409089852
 21
381.183948631296
 31
0.0
  0
LINE
  5
D12
330
18
100
AcDbEntity
  8
外形線
100
AcDbLine
 10
541.0524409089852
 20
219.4339486312959
 30
0.0
 11
540.1024409089851
 21
214.9339486312959
 31
0.0
  0
LINE
  5
D13
330
18
100
AcDbEntity
  8
外形線
100
AcDbLine
 10
536.5524409089852
 20
219.4339486312959
 30
0.0
 11
537.5024409089851
 21
214.9339486312959
 31
0.0
  0
POINT
  5
D14
330
18
100
AcDbEntity
  8
DEFPOINTS
  6
ByBlock
 62
     0
100
AcDbPoint
 10
538.8024409089852
 20
213.9339486312959
 30
0.0
  0
LINE
  5
D16
330
18
100
AcDbEntity
  8
外形線
100
AcDbLine
 10
537.5024409089851
 20
214.9339486312959
 30
0.0
 11
540.1024409089851
 21
214.9339486312959
 31
0.0
  0
LINE
  5
D17
330
18
100
AcDbEntity
  8
外形線
100
AcDbLine
 10
533.8024409089852
 20
302.6839486312959
 30
0.0
 11
533.8024409089852
 21
281.4839486312958
 31
0.0
  0
LINE
  5
D18
330
18
100
AcDbEntity
  8
外形線
100
AcDbLine
 10
543.8024409089852
 20
302.6839486312959
 30
0.0
 11
543.8024409089853
 21
281.483948631296
 31
0.0
  0
LINE
  5
D19
330
18
100
AcDbEntity
  8
外形線
100
AcDbLine
 10
536.0524409089853
 20
274.4839486312959
 30
0.0
 11
536.0524409089853
 21
222.9339486312959
 31
0.0
  0
LINE
  5
D1A
330
18
100
AcDbEntity
  8
外形線
100
AcDbLine
 10
541.5524409089852
 20
274.483948631296
 30
0.0
 11
541.5524409089853
 21
222.9339486312959
 31
0.0
  0
LINE
  5
D1B
330
18
100
AcDbEntity
  8
外形線
100
AcDbLine
 10
536.5524409089852
 20
222.9339486312959
 30
0.0
 11
536.3024409089852
 21
222.7339486312959
 31
0.0
  0
LINE
  5
D1C
330
18
100
AcDbEntity
  8
外形線
100
AcDbLine
 10
536.3024409089852
 20
219.6339486312959
 30
0.0
 11
536.5524409089852
 21
219.4339486312959
 31
0.0
  0
LINE
  5
D1E
330
18
100
AcDbEntity
  8
外形線
100
AcDbLine
 10
536.0524409089853
 20
222.9339486312959
 30
0.0
 11
541.5524409089853
 21
222.9339486312959
 31
0.0
  0
LINE
  5
D1F
330
18
100
AcDbEntity
  8
外形線
100
AcDbLine
 10
536.3024409089851
 20
222.7339486312959
 30
0.0
 11
541.3024409089851
 21
222.7339486312959
 31
0.0
  0
LINE
  5
D20
330
18
100
AcDbEntity
  8
外形線
100
AcDbLine
 10
536.3024409089851
 20
219.6339486312959
 30
0.0
 11
541.3024409089851
 21
219.6339486312959
 31
0.0
  0
LINE
  5
D21
330
18
100
AcDbEntity
  8
外形線
100
AcDbLine
 10
536.3024409089852
 20
222.7339486312959
 30
0.0
 11
536.3024409089852
 21
219.6339486312959
 31
0.0
  0
LINE
  5
D22
330
18
100
AcDbEntity
  8
外形線
100
AcDbLine
 10
541.3024409089851
 20
222.7339486312959
 30
0.0
 11
541.302440908985
 21
219.6339486312959
 31
0.0
  0
LINE
  5
D23
330
18
100
AcDbEntity
  8
外形線
100
AcDbLine
 10
541.0524409089852
 20
222.9339486312959
 30
0.0
 11
541.3024409089851
 21
222.7339486312959
 31
0.0
  0
LINE
  5
D24
330
18
100
AcDbEntity
  8
外形線
100
AcDbLine
 10
541.3024409089851
 20
219.6339486312959
 30
0.0
 11
541.0524409089852
 21
219.4339486312959
 31
0.0
  0
LINE
  5
D25
330
18
100
AcDbEntity
  8
外形線
100
AcDbLine
 10
536.5524409089852
 20
219.4339486312959
 30
0.0
 11
541.0524409089851
 21
219.4339486312959
 31
0.0
  0
LINE
  5
D26
330
18
100
AcDbEntity
  8
外形線
100
AcDbLine
 10
533.8024409089852
 20
281.4839486312958
 30
0.0
 11
543.8024409089853
 21
281.483948631296
 31
0.0
  0
LINE
  5
D27
330
18
100
AcDbEntity
  8
外形線
100
AcDbLine
 10
534.9024409089852
 20
274.4839486312959
 30
0.0
 11
542.7024409089852
 21
274.483948631296
 31
0.0
  0
LINE
  5
D28
330
18
100
AcDbEntity
  8
外形線
100
AcDbLine
 10
533.9024409089851
 20
281.4839486312958
 30
0.0
 11
533.9024409089851
 21
275.4839486312958
 31
0.0
  0
ARC
  5
D29
330
18
100
AcDbEntity
  8
外形線
100
AcDbCircle
 10
534.9024409089852
 20
275.4839486312958
 30
0.0
 40
1.0
100
AcDbArc
 50
180.0
 51
270.0000000000008
  0
LINE
  5
D2A
330
18
100
AcDbEntity
  8
外形線
100
AcDbLine
 10
543.7024409089852
 20
281.483948631296
 30
0.0
 11
543.7024409089851
 21
275.483948631296
 31
0.0
  0
ARC
  5
D2B
330
18
100
AcDbEntity
  8
外形線
100
AcDbCircle
 10
542.7024409089852
 20
275.483948631296
 30
0.0
 40
1.0
100
AcDbArc
 50
270.0000000000008
 51
359.9999999999995
  0
LINE
  5
D30
330
18
100
AcDbEntity
  8
外形線
100
AcDbLine
 10
525.302440908985
 20
379.7839486312959
 30
0.0
 11
525.3024409089852
 21
304.0839486312957
 31
0.0
  0
LINE
  5
D31
330
18
100
AcDbEntity
  8
外形線
100
AcDbLine
 10
532.9024409089852
 20
381.8339486312959
 30
0.0
 11
532.9024409089852
 21
302.0339486312959
 31
0.0
  0
LINE
  5
D33
330
18
100
AcDbEntity
  8
外形線
100
AcDbLine
 10
532.5024409089852
 20
382.6839486312959
 30
0.0
 11
532.5024409089852
 21
301.1839486312959
 31
0.0
  0
LINE
  5
D46
330
18
100
AcDbEntity
  8
外形線
100
AcDbLine
 10
547.3024409089852
 20
381.1839486312959
 30
0.0
 11
532.9024409089852
 21
381.1839486312958
 31
0.0
  0
LINE
  5
D47
330
18
100
AcDbEntity
  8
外形線
100
AcDbLine
 10
532.9024409089852
 20
302.6839486312959
 30
0.0
 11
547.3024409089852
 21
302.6839486312959
 31
0.0
  0
LINE
  5
D4E
330
18
100
AcDbEntity
  8
外形線
100
AcDbLine
 10
526.8024409089852
 20
382.1339486312958
 30
0.0
 11
526.8024409089853
 21
301.7339486312959
 31
0.0
  0
LINE
  5
D4F
330
18
100
AcDbEntity
  8
外形線
100
AcDbLine
 10
527.7024409089851
 20
382.6839486312959
 30
0.0
 11
527.7024409089851
 21
301.1839486312959
 31
0.0
  0
LINE
  5
D50
330
18
100
AcDbEntity
  8
外形線
100
AcDbLine
 10
526.8024409089853
 20
382.1339486312959
 30
0.0
 11
527.7024409089851
 21
382.1339486312959
 31
0.0
  0
LINE
  5
D52
330
18
100
AcDbEntity
  8
外形線
100
AcDbLine
 10
527.7024409089851
 20
382.6839486312958
 30
0.0
 11
532.5024409089852
 21
382.6839486312959
 31
0.0
  0
LINE
  5
D55
330
18
100
AcDbEntity
  8
外形線
100
AcDbLine
 10
525.3024409089852
 20
379.7839486312959
 30
0.0
 11
526.8024409089853
 21
382.1339486312959
 31
0.0
  0
LINE
  5
D56
330
18
100
AcDbEntity
  8
外形線
100
AcDbLine
 10
527.7024409089851
 20
301.1839486312959
 30
0.0
 11
532.5024409089852
 21
301.1839486312959
 31
0.0
  0
LINE
  5
D57
330
18
100
AcDbEntity
  8
外形線
100
AcDbLine
 10
525.3024409089852
 20
304.0839486312959
 30
0.0
 11
526.8024409089853
 21
301.7339486312959
 31
0.0
  0
LINE
  5
D58
330
18
100
AcDbEntity
  8
外形線
100
AcDbLine
 10
526.8024409089853
 20
301.7339486312959
 30
0.0
 11
527.7024409089851
 21
301.7339486312959
 31
0.0
  0
ARC
  5
D5A
330
18
100
AcDbEntity
  8
外形線
100
AcDbCircle
 10
702.3802534089935
 20
341.933948631296
 30
0.0
 40
181.0778125000082
100
AcDbArc
 50
167.9347110916025
 51
192.0652889083975
  0
LINE
  5
D5B
330
18
100
AcDbEntity
  8
外形線
100
AcDbLine
 10
532.5024409089852
 20
381.8339486312959
 30
0.0
 11
532.9024409089852
 21
381.8339486312959
 31
0.0
  0
LINE
  5
D5E
330
18
100
AcDbEntity
  8
外形線
100
AcDbLine
 10
532.5024409089852
 20
302.0339486312959
 30
0.0
 11
532.9024409089852
 21
302.0339486312959
 31
0.0
  0
LINE
  5
D5F
330
18
100
AcDbEntity
  8
ﾊｯﾁﾝｸ
100
AcDbLine
 10
527.7024409089851
 20
381.6839486312958
 30
0.0
 11
532.5024409089852
 21
381.6839486312959
 31
0.0
  0
LINE
  5
D60
330
18
100
AcDbEntity
  8
ﾊｯﾁﾝｸ
100
AcDbLine
 10
527.7024409089851
 20
380.6839486312958
 30
0.0
 11
532.5024409089852
 21
380.683948631296
 31
0.0
  0
LINE
  5
D61
330
18
100
AcDbEntity
  8
ﾊｯﾁﾝｸ
100
AcDbLine
 10
527.7024409089851
 20
379.6839486312958
 30
0.0
 11
532.5024409089852
 21
379.6839486312959
 31
0.0
  0
LINE
  5
D62
330
18
100
AcDbEntity
  8
ﾊｯﾁﾝｸ
100
AcDbLine
 10
527.7024409089851
 20
378.6839486312958
 30
0.0
 11
532.5024409089852
 21
378.683948631296
 31
0.0
  0
LINE
  5
D63
330
18
100
AcDbEntity
  8
ﾊｯﾁﾝｸ
100
AcDbLine
 10
527.7024409089851
 20
377.6839486312959
 30
0.0
 11
532.5024409089852
 21
377.6839486312959
 31
0.0
  0
LINE
  5
D64
330
18
100
AcDbEntity
  8
ﾊｯﾁﾝｸ
100
AcDbLine
 10
527.7024409089851
 20
302.183948631296
 30
0.0
 11
532.5024409089852
 21
302.183948631296
 31
0.0
  0
LINE
  5
D65
330
18
100
AcDbEntity
  8
ﾊｯﾁﾝｸ
100
AcDbLine
 10
527.7024409089851
 20
303.1839486312959
 30
0.0
 11
532.5024409089852
 21
303.1839486312959
 31
0.0
  0
LINE
  5
D66
330
18
100
AcDbEntity
  8
ﾊｯﾁﾝｸ
100
AcDbLine
 10
527.7024409089851
 20
304.183948631296
 30
0.0
 11
532.5024409089852
 21
304.183948631296
 31
0.0
  0
LINE
  5
D67
330
18
100
AcDbEntity
  8
ﾊｯﾁﾝｸ
100
AcDbLine
 10
527.7024409089851
 20
305.1839486312959
 30
0.0
 11
532.5024409089852
 21
305.1839486312959
 31
0.0
  0
LINE
  5
D68
330
18
100
AcDbEntity
  8
ﾊｯﾁﾝｸ
100
AcDbLine
 10
527.7024409089851
 20
306.183948631296
 30
0.0
 11
532.5024409089852
 21
306.183948631296
 31
0.0
  0
LINE
  5
D69
330
18
100
AcDbEntity
  8
ﾊｯﾁﾝｸ
100
AcDbLine
 10
527.7024409089851
 20
342.9339486312959
 30
0.0
 11
532.5024409089852
 21
342.933948631296
 31
0.0
  0
LINE
  5
D6A
330
18
100
AcDbEntity
  8
ﾊｯﾁﾝｸ
100
AcDbLine
 10
527.7024409089851
 20
343.9339486312959
 30
0.0
 11
532.5024409089852
 21
343.9339486312959
 31
0.0
  0
LINE
  5
D6B
330
18
100
AcDbEntity
  8
ﾊｯﾁﾝｸ
100
AcDbLine
 10
527.7024409089851
 20
340.9339486312959
 30
0.0
 11
532.5024409089852
 21
340.9339486312959
 31
0.0
  0
LINE
  5
D6C
330
18
100
AcDbEntity
  8
ﾊｯﾁﾝｸ
100
AcDbLine
 10
527.7024409089851
 20
339.9339486312959
 30
0.0
 11
532.5024409089852
 21
339.9339486312959
 31
0.0
  0
LINE
  5
D6D
330
18
100
AcDbEntity
  8
ﾊｯﾁﾝｸ
100
AcDbLine
 10
527.7024409089851
 20
344.9339486312959
 30
0.0
 11
532.5024409089852
 21
344.9339486312959
 31
0.0
  0
LINE
  5
D6E
330
18
100
AcDbEntity
  8
ﾊｯﾁﾝｸ
100
AcDbLine
 10
527.7024409089851
 20
338.9339486312959
 30
0.0
 11
532.5024409089852
 21
338.9339486312959
 31
0.0
  0
LINE
  5
D6F
330
18
100
AcDbEntity
  8
ﾊｯﾁﾝｸ
100
AcDbLine
 10
527.7024409089851
 20
341.9339486312959
 30
0.0
 11
532.5024409089852
 21
341.9339486312959
 31
0.0
  0
ARC
  5
D75
330
18
100
AcDbEntity
  8
外形線
100
AcDbCircle
 10
228.7868159089851
 20
341.9339486312959
 30
0.0
 40
320.5156250000001
100
AcDbArc
 50
353.5959588333557
 51
6.40404116664432
  0
LINE
  5
D76
330
18
100
AcDbEntity
  8
中心線
 48
0.5
100
AcDbLine
 10
560.3024409089851
 20
354.9354384964052
 30
0.0
 11
560.3024409089851
 21
328.4847574398568
 31
0.0
  0
CIRCLE
  5
D77
330
18
100
AcDbEntity
  8
外形線
100
AcDbCircle
 10
560.3024409089852
 20
341.9339486312959
 30
0.0
 40
3.25
  0
ARC
  5
D78
330
18
100
AcDbEntity
  8
外形線
100
AcDbCircle
 10
560.3024409089852
 20
341.9339486312959
 30
0.0
 40
8.0
100
AcDbArc
 50
270.0
 51
90.0
  0
LINE
  5
D83
330
18
100
AcDbEntity
  8
外形線
100
AcDbLine
 10
560.3024409089852
 20
349.9339486312959
 30
0.0
 11
556.6059148758382
 21
350.3036012346106
 31
0.0
  0
LINE
  5
D84
330
18
100
AcDbEntity
  8
外形線
100
AcDbLine
 10
560.3024409089852
 20
333.9339486312959
 30
0.0
 11
555.6059148758382
 21
333.4642960279813
 31
0.0
  0
ARC
  5
D85
330
18
100
AcDbEntity
  8
外形線
100
AcDbCircle
 10
557.3024409089851
 20
357.2688615660805
 30
0.0
 40
7.0
100
AcDbArc
 50
180.0
 51
264.2894068625003
  0
LINE
  5
D87
330
18
100
AcDbEntity
  8
外形線
100
AcDbLine
 10
550.3024409089852
 20
357.2688615660805
 30
0.0
 11
548.9353850365439
 21
357.2688615660805
 31
0.0
  0
LINE
  5
D88
330
18
100
AcDbEntity
  8
外形線
100
AcDbLine
 10
550.3024409089852
 20
326.5990356965112
 30
0.0
 11
548.9353850365439
 21
326.5990356965112
 31
0.0
  0
ARC
  5
D89
330
18
100
AcDbEntity
  8
外形線
100
AcDbCircle
 10
557.3024409089851
 20
326.5990356965112
 30
0.0
 40
7.0
100
AcDbArc
 50
95.71059313749966
 51
180.0
  0
LINE
  5
D8A
330
18
100
AcDbEntity
  8
外形線
100
AcDbLine
 10
550.3024409089852
 20
357.2688615660805
 30
0.0
 11
550.3024409089852
 21
326.5990356965112
 31
0.0
  0
CIRCLE
  5
DC4
330
18
100
AcDbEntity
  8
外形線
100
AcDbCircle
 10
386.1453609481968
 20
341.9339486312959
 30
0.0
 40
36.5
  0
CIRCLE
  5
DC9
330
18
100
AcDbEntity
  8
外形線
100
AcDbCircle
 10
386.1453609481968
 20
341.9339486312959
 30
0.0
 40
37.85
  0
LINE
  5
EE0
330
18
100
AcDbEntity
  8
想像線
 48
0.4
100
AcDbLine
 10
556.0416168785048
 20
350.3833461340913
 30
0.0
 11
556.0416168785046
 21
333.4845511285005
 31
0.0
  0
LINE
  5
EE1
330
18
100
AcDbEntity
  8
想像線
 48
0.4
100
AcDbLine
 10
551.0416168785046
 20
354.1380338066281
 30
0.0
 11
551.0416168785046
 21
329.7298634559636
 31
0.0
  0
LINE
  5
F08
330
18
100
AcDbEntity
  8
0
  6
ByBlock
 62
     2
100
AcDbLine
 10
571.8802059621927
 20
361.5119470608359
 30
0.0
 11
561.9567587169289
 21
344.7313997193976
 31
0.0
  0
LINE
  5
F0A
330
18
100
AcDbEntity
  8
0
  6
ByBlock
 62
     2
100
AcDbLine
 10
560.3024409089853
 20
341.933948631296
 30
0.0
 11
561.9567587169289
 21
344.7313997193976
 31
0.0
  0
INSERT
  5
F0B
330
18
100
AcDbEntity
  8
0
  6
ByBlock
 62
     2
100
AcDbBlockReference
  2
_OPEN
 10
561.9567587169289
 20
344.7313997193976
 30
0.0
 41
2.5
 42
2.5
 43
2.5
 50
239.4013680303761
  0
POINT
  5
F0C
330
18
100
AcDbEntity
  8
DEFPOINTS
  6
ByBlock
 62
     0
100
AcDbPoint
 10
561.9567587169289
 20
344.7313997193976
 30
0.0
  0
POINT
  5
F0D
330
18
100
AcDbEntity
  8
DEFPOINTS
  6
ByBlock
 62
     0
100
AcDbPoint
 10
560.3024409089853
 20
341.933948631296
 30
0.0
  0
LINE
  5
F0E
330
18
100
AcDbEntity
  8
寸法線
100
AcDbLine
 10
571.8802059621927
 20
361.5119470608359
 30
0.0
 11
581.9189516162586
 21
361.5119470608359
 31
0.0
  0
TEXT
  5
F0F
330
18
100
AcDbEntity
  8
文字
100
AcDbText
 10
572.4315292208701
 20
362.1287329043852
 30
0.0
 40
2.5
  1
φ6.5
  7
STYLE3
100
AcDbText
  0
LINE
  5
1041
330
18
100
AcDbEntity
  8
ﾊｯﾁﾝｸ
100
AcDbLine
 10
536.3024409089852
 20
222.3268197358163
 30
0.0
 11
536.7095698044648
 21
222.7339486312959
 31
0.0
  0
LINE
  5
1042
330
18
100
AcDbEntity
  8
ﾊｯﾁﾝｸ
100
AcDbLine
 10
536.3024409089852
 20
220.9797813176558
 30
0.0
 11
538.0566082226251
 21
222.7339486312958
 31
0.0
  0
LINE
  5
1043
330
18
100
AcDbEntity
  8
ﾊｯﾁﾝｸ
100
AcDbLine
 10
536.3036466407855
 20
219.6339486312959
 30
0.0
 11
538.8024409089853
 21
222.1327428994956
 31
0.0
  0
LINE
  5
1044
330
18
100
AcDbEntity
  8
ﾊｯﾁﾝｸ
100
AcDbLine
 10
537.650685058946
 20
219.6339486312959
 30
0.0
 11
538.8024409089852
 21
220.7857044813351
 31
0.0
  0
LINE
  5
1045
330
18
100
AcDbEntity
  8
ﾊｯﾁﾝｸ
100
AcDbLine
 10
536.3964888331707
 20
219.6339486312958
 30
0.0
 11
536.3024409089852
 21
219.7279965554813
 31
0.0
  0
LINE
  5
1046
330
18
100
AcDbEntity
  8
ﾊｯﾁﾝｸ
100
AcDbLine
 10
537.743527251331
 20
219.6339486312958
 30
0.0
 11
536.3024409089852
 21
221.0750349736417
 31
0.0
  0
LINE
  5
1047
330
18
100
AcDbEntity
  8
ﾊｯﾁﾝｸ
100
AcDbLine
 10
538.8024409089852
 20
219.9220733918021
 30
0.0
 11
536.3024409089852
 21
222.4220733918021
 31
0.0
  0
LINE
  5
1048
330
18
100
AcDbEntity
  8
ﾊｯﾁﾝｸ
100
AcDbLine
 10
538.8024409089852
 20
221.2691118099623
 30
0.0
 11
537.3376040876516
 21
222.7339486312958
 31
0.0
  0
LINE
  5
1049
330
18
100
AcDbEntity
  8
ﾊｯﾁﾝｸ
100
AcDbLine
 10
538.8024409089853
 20
222.6161502281226
 30
0.0
 11
538.684642505812
 21
222.7339486312959
 31
0.0
  0
LINE
  5
104A
330
18
100
AcDbEntity
  8
ﾊｯﾁﾝｸ
100
AcDbLine
 10
383.6453609481968
 20
222.3268197358163
 30
0.0
 11
384.0524898436764
 21
222.7339486312959
 31
0.0
  0
LINE
  5
104B
330
18
100
AcDbEntity
  8
ﾊｯﾁﾝｸ
100
AcDbLine
 10
383.6453609481968
 20
220.9797813176558
 30
0.0
 11
385.3995282618368
 21
222.7339486312958
 31
0.0
  0
LINE
  5
104C
330
18
100
AcDbEntity
  8
ﾊｯﾁﾝｸ
100
AcDbLine
 10
383.6465666799971
 20
219.6339486312959
 30
0.0
 11
386.1453609481968
 21
222.1327428994956
 31
0.0
  0
LINE
  5
104D
330
18
100
AcDbEntity
  8
ﾊｯﾁﾝｸ
100
AcDbLine
 10
384.9936050981574
 20
219.6339486312959
 30
0.0
 11
386.1453609481968
 21
220.7857044813351
 31
0.0
  0
LINE
  5
104E
330
18
100
AcDbEntity
  8
ﾊｯﾁﾝｸ
100
AcDbLine
 10
383.7394088723822
 20
219.6339486312958
 30
0.0
 11
383.6453609481968
 21
219.7279965554813
 31
0.0
  0
LINE
  5
104F
330
18
100
AcDbEntity
  8
ﾊｯﾁﾝｸ
100
AcDbLine
 10
385.0864472905426
 20
219.6339486312958
 30
0.0
 11
383.6453609481968
 21
221.0750349736417
 31
0.0
  0
LINE
  5
1050
330
18
100
AcDbEntity
  8
ﾊｯﾁﾝｸ
100
AcDbLine
 10
386.1453609481968
 20
219.9220733918021
 30
0.0
 11
383.6453609481968
 21
222.4220733918021
 31
0.0
  0
LINE
  5
1051
330
18
100
AcDbEntity
  8
ﾊｯﾁﾝｸ
100
AcDbLine
 10
386.1453609481968
 20
221.2691118099624
 30
0.0
 11
384.6805241268632
 21
222.7339486312959
 31
0.0
  0
LINE
  5
1052
330
18
100
AcDbEntity
  8
ﾊｯﾁﾝｸ
100
AcDbLine
 10
386.1453609481968
 20
222.6161502281227
 30
0.0
 11
386.0275625450237
 21
222.7339486312958
 31
0.0
  0
LINE
  5
1070
330
18
100
AcDbEntity
  8
0
  6
ByBlock
 62
     2
100
AcDbLine
 10
386.1453609481968
 20
213.9339486312959
 30
0.0
 11
327.2867120717425
 21
213.9339486312959
 31
0.0
  0
LINE
  5
1071
330
18
100
AcDbEntity
  8
0
  6
ByBlock
 62
     2
100
AcDbLine
 10
328.5367120717425
 20
339.433948631296
 30
0.0
 11
328.5367120717425
 21
216.4339486312959
 31
0.0
  0
INSERT
  5
1072
330
18
100
AcDbEntity
  8
0
  6
ByBlock
 62
     2
100
AcDbBlockReference
  2
_OPEN
 10
328.5367120717425
 20
341.933948631296
 30
0.0
 41
2.5
 42
2.5
 43
2.5
 50
90.0
  0
INSERT
  5
1073
330
18
100
AcDbEntity
  8
0
  6
ByBlock
 62
     2
100
AcDbBlockReference
  2
_OPEN
 10
328.5367120717425
 20
213.9339486312959
 30
0.0
 41
2.5
 42
2.5
 43
2.5
 50
270.0
  0
MTEXT
  5
1074
330
18
100
AcDbEntity
  8
0
  6
ByBlock
 62
     6
100
AcDbMText
 10
326.6617120717425
 20
277.9339486312959
 30
0.0
 40
2.5
 41
0.0
 71
     5
 72
     1
  1
\A1;128
  7
STYLE3
 11
0.0000000000000001
 21
1.0
 31
0.0
 73
     1
 44
1.0
  0
POINT
  5
1075
330
18
100
AcDbEntity
  8
DEFPOINTS
  6
ByBlock
 62
     0
100
AcDbPoint
 10
345.3953609481967
 20
341.933948631296
 30
0.0
  0
POINT
  5
1076
330
18
100
AcDbEntity
  8
DEFPOINTS
  6
ByBlock
 62
     0
100
AcDbPoint
 10
386.1453609481968
 20
213.9339486312959
 30
0.0
  0
POINT
  5
1077
330
18
100
AcDbEntity
  8
DEFPOINTS
  6
ByBlock
 62
     0
100
AcDbPoint
 10
328.5367120717425
 20
213.9339486312959
 30
0.0
  0
LINE
  5
1078
330
18
100
AcDbEntity
  8
0
  6
ByBlock
 62
     2
100
AcDbLine
 10
386.1453609481968
 20
423.4339486312959
 30
0.0
 11
327.2867120717425
 21
423.4339486312959
 31
0.0
  0
LINE
  5
1079
330
18
100
AcDbEntity
  8
0
  6
ByBlock
 62
     2
100
AcDbLine
 10
345.3953609481967
 20
341.933948631296
 30
0.0
 11
327.2867120717425
 21
341.933948631296
 31
0.0
  0
LINE
  5
107A
330
18
100
AcDbEntity
  8
0
  6
ByBlock
 62
     2
100
AcDbLine
 10
328.5367120717425
 20
420.9339486312958
 30
0.0
 11
328.5367120717425
 21
344.4339486312959
 31
0.0
  0
INSERT
  5
107B
330
18
100
AcDbEntity
  8
0
  6
ByBlock
 62
     2
100
AcDbBlockReference
  2
_OPEN
 10
328.5367120717425
 20
423.4339486312959
 30
0.0
 41
2.5
 42
2.5
 43
2.5
 50
90.0
  0
INSERT
  5
107C
330
18
100
AcDbEntity
  8
0
  6
ByBlock
 62
     2
100
AcDbBlockReference
  2
_OPEN
 10
328.5367120717425
 20
341.933948631296
 30
0.0
 41
2.5
 42
2.5
 43
2.5
 50
270.0
  0
MTEXT
  5
107D
330
18
100
AcDbEntity
  8
0
  6
ByBlock
 62
     6
100
AcDbMText
 10
326.6617120717425
 20
382.6839486312959
 30
0.0
 40
2.5
 41
0.0
 71
     5
 72
     1
  1
\A1;81.5
  7
STYLE3
 11
0.0000000000000001
 21
1.0
 31
0.0
 73
     1
 44
1.0
  0
POINT
  5
107E
330
18
100
AcDbEntity
  8
DEFPOINTS
  6
ByBlock
 62
     0
100
AcDbPoint
 10
386.1453609481968
 20
423.4339486312959
 30
0.0
  0
POINT
  5
107F
330
18
100
AcDbEntity
  8
DEFPOINTS
  6
ByBlock
 62
     0
100
AcDbPoint
 10
345.3953609481967
 20
341.933948631296
 30
0.0
  0
POINT
  5
1080
330
18
100
AcDbEntity
  8
DEFPOINTS
  6
ByBlock
 62
     0
100
AcDbPoint
 10
328.5367120717425
 20
341.933948631296
 30
0.0
  0
POINT
  5
1087
330
18
100
AcDbEntity
  8
DEFPOINTS
  6
ByBlock
 62
     0
100
AcDbPoint
 10
349.6453609481968
 20
341.9339486312959
 30
0.0
  0
POINT
  5
1088
330
18
100
AcDbEntity
  8
DEFPOINTS
  6
ByBlock
 62
     0
100
AcDbPoint
 10
422.6453609481967
 20
341.9339486312959
 30
0.0
  0
LINE
  5
108A
330
18
100
AcDbEntity
  8
0
  6
ByBlock
 62
     2
100
AcDbLine
 10
327.2867120717425
 20
423.4339486312959
 30
0.0
 11
314.9592560428479
 21
423.4339486312959
 31
0.0
  0
LINE
  5
108B
330
18
100
AcDbEntity
  8
0
  6
ByBlock
 62
     2
100
AcDbLine
 10
327.2867120717425
 20
213.9339486312959
 30
0.0
 11
314.9592560428479
 21
213.9339486312959
 31
0.0
  0
LINE
  5
108C
330
18
100
AcDbEntity
  8
0
  6
ByBlock
 62
     2
100
AcDbLine
 10
316.2092560428479
 20
420.9339486312958
 30
0.0
 11
316.2092560428479
 21
216.4339486312959
 31
0.0
  0
INSERT
  5
108D
330
18
100
AcDbEntity
  8
0
  6
ByBlock
 62
     2
100
AcDbBlockReference
  2
_OPEN
 10
316.2092560428479
 20
423.4339486312959
 30
0.0
 41
2.5
 42
2.5
 43
2.5
 50
90.0
  0
INSERT
  5
108E
330
18
100
AcDbEntity
  8
0
  6
ByBlock
 62
     2
100
AcDbBlockReference
  2
_OPEN
 10
316.2092560428479
 20
213.9339486312959
 30
0.0
 41
2.5
 42
2.5
 43
2.5
 50
270.0
  0
MTEXT
  5
108F
330
18
100
AcDbEntity
  8
0
  6
ByBlock
 62
     6
100
AcDbMText
 10
314.3342560428479
 20
318.6839486312959
 30
0.0
 40
2.5
 41
0.0
 71
     5
 72
     1
  1
\A1;209.5
  7
STYLE3
 11
0.0000000000000001
 21
1.0
 31
0.0
 73
     1
 44
1.0
  0
POINT
  5
1090
330
18
100
AcDbEntity
  8
DEFPOINTS
  6
ByBlock
 62
     0
100
AcDbPoint
 10
327.2867120717425
 20
423.4339486312959
 30
0.0
  0
POINT
  5
1091
330
18
100
AcDbEntity
  8
DEFPOINTS
  6
ByBlock
 62
     0
100
AcDbPoint
 10
327.2867120717425
 20
213.9339486312959
 30
0.0
  0
POINT
  5
1092
330
18
100
AcDbEntity
  8
DEFPOINTS
  6
ByBlock
 62
     0
100
AcDbPoint
 10
316.2092560428479
 20
213.9339486312959
 30
0.0
  0
POINT
  5
109B
330
18
100
AcDbEntity
  8
DEFPOINTS
  6
ByBlock
 62
     0
100
AcDbPoint
 10
536.0524409089853
 20
222.9339486312959
 30
0.0
  0
POINT
  5
109C
330
18
100
AcDbEntity
  8
DEFPOINTS
  6
ByBlock
 62
     0
100
AcDbPoint
 10
538.8024409089852
 20
213.9339486312959
 30
0.0
  0
LINE
  5
109E
330
18
100
AcDbEntity
  8
0
  6
ByBlock
 62
     2
100
AcDbLine
 10
536.0524409089853
 20
274.4839486312959
 30
0.0
 11
503.3717696113728
 21
274.4839486312959
 31
0.0
  0
LINE
  5
109F
330
18
100
AcDbEntity
  8
0
  6
ByBlock
 62
     2
100
AcDbLine
 10
504.6217696113728
 20
298.6839486312959
 30
0.0
 11
504.6217696113728
 21
276.9839486312959
 31
0.0
  0
INSERT
  5
10A0
330
18
100
AcDbEntity
  8
0
  6
ByBlock
 62
     2
100
AcDbBlockReference
  2
_OPEN
 10
504.6217696113728
 20
301.1839486312959
 30
0.0
 41
2.5
 42
2.5
 43
2.5
 50
90.0
  0
INSERT
  5
10A1
330
18
100
AcDbEntity
  8
0
  6
ByBlock
 62
     2
100
AcDbBlockReference
  2
_OPEN
 10
504.6217696113728
 20
274.4839486312959
 30
0.0
 41
2.5
 42
2.5
 43
2.5
 50
270.0
  0
MTEXT
  5
10A2
330
18
100
AcDbEntity
  8
0
  6
ByBlock
 62
     6
100
AcDbMText
 10
502.7467696113729
 20
287.8339486312959
 30
0.0
 40
2.5
 41
0.0
 71
     5
 72
     1
  1
\A1;26.7
  7
STYLE3
 11
0.0000000000000001
 21
1.0
 31
0.0
 73
     1
 44
1.0
  0
POINT
  5
10A3
330
18
100
AcDbEntity
  8
DEFPOINTS
  6
ByBlock
 62
     0
100
AcDbPoint
 10
527.7024409089851
 20
301.1839486312959
 30
0.0
  0
POINT
  5
10A4
330
18
100
AcDbEntity
  8
DEFPOINTS
  6
ByBlock
 62
     0
100
AcDbPoint
 10
536.0524409089853
 20
274.4839486312959
 30
0.0
  0
POINT
  5
10A5
330
18
100
AcDbEntity
  8
DEFPOINTS
  6
ByBlock
 62
     0
100
AcDbPoint
 10
504.6217696113728
 20
274.4839486312959
 30
0.0
  0
POINT
  5
10AC
330
18
100
AcDbEntity
  8
DEFPOINTS
  6
ByBlock
 62
     0
100
AcDbPoint
 10
521.3024409089853
 20
341.933948631296
 30
0.0
  0
LINE
  5
10AF
330
18
100
AcDbEntity
  8
0
  6
ByBlock
 62
     2
100
AcDbLine
 10
527.7024409089851
 20
382.6839486312959
 30
0.0
 11
503.3717696113728
 21
382.6839486312959
 31
0.0
  0
LINE
  5
10B0
330
18
100
AcDbEntity
  8
0
  6
ByBlock
 62
     2
100
AcDbLine
 10
527.7024409089851
 20
301.1839486312959
 30
0.0
 11
503.3717696113728
 21
301.1839486312959
 31
0.0
  0
POINT
  5
10B5
330
18
100
AcDbEntity
  8
DEFPOINTS
  6
ByBlock
 62
     0
100
AcDbPoint
 10
527.7024409089851
 20
382.6839486312959
 30
0.0
  0
POINT
  5
10B6
330
18
100
AcDbEntity
  8
DEFPOINTS
  6
ByBlock
 62
     0
100
AcDbPoint
 10
527.7024409089851
 20
301.1839486312959
 30
0.0
  0
POINT
  5
10FE
330
18
100
AcDbEntity
  8
DEFPOINTS
  6
ByBlock
 62
     0
100
AcDbPoint
 10
547.3024409089852
 20
381.1839486312959
 30
0.0
  0
POINT
  5
10FF
330
18
100
AcDbEntity
  8
DEFPOINTS
  6
ByBlock
 62
     0
100
AcDbPoint
 10
547.3024409089852
 20
302.6839486312959
 30
0.0
  0
LINE
  5
1105
330
18
100
AcDbEntity
  8
0
  6
ByBlock
 62
     2
100
AcDbLine
 10
538.8024409089852
 20
284.3184616309619
 30
0.0
 11
538.8024409089852
 21
286.6881601448381
 31
0.0
  0
LINE
  5
1106
330
18
100
AcDbEntity
  8
0
  6
ByBlock
 62
     2
100
AcDbLine
 10
560.3024409089851
 20
328.4847574398568
 30
0.0
 11
560.3024409089851
 21
284.1881601448381
 31
0.0
  0
LINE
  5
1107
330
18
100
AcDbEntity
  8
0
  6
ByBlock
 62
     2
100
AcDbLine
 10
541.3024409089851
 20
285.4381601448381
 30
0.0
 11
557.802440908985
 21
285.4381601448381
 31
0.0
  0
INSERT
  5
1108
330
18
100
AcDbEntity
  8
0
  6
ByBlock
 62
     2
100
AcDbBlockReference
  2
_OPEN
 10
538.8024409089852
 20
285.4381601448381
 30
0.0
 41
2.5
 42
2.5
 43
2.5
 50
180.0
  0
INSERT
  5
1109
330
18
100
AcDbEntity
  8
0
  6
ByBlock
 62
     2
100
AcDbBlockReference
  2
_OPEN
 10
560.3024409089851
 20
285.4381601448381
 30
0.0
 41
2.5
 42
2.5
 43
2.5
  0
MTEXT
  5
110A
330
18
100
AcDbEntity
  8
0
  6
ByBlock
 62
     6
100
AcDbMText
 10
549.5524409089851
 20
287.3131601448381
 30
0.0
 40
2.5
 41
0.0
 71
     5
 72
     1
  1
\A1;21.5
  7
STYLE3
 73
     1
 44
1.0
  0
POINT
  5
110B
330
18
100
AcDbEntity
  8
DEFPOINTS
  6
ByBlock
 62
     0
100
AcDbPoint
 10
538.8024409089852
 20
284.3184616309619
 30
0.0
  0
POINT
  5
110C
330
18
100
AcDbEntity
  8
DEFPOINTS
  6
ByBlock
 62
     0
100
AcDbPoint
 10
560.3024409089851
 20
328.4847574398568
 30
0.0
  0
POINT
  5
110D
330
18
100
AcDbEntity
  8
DEFPOINTS
  6
ByBlock
 62
     0
100
AcDbPoint
 10
560.3024409089851
 20
285.4381601448381
 30
0.0
  0
LINE
  5
1112
330
18
100
AcDbEntity
  8
0
  6
ByBlock
 62
     2
100
AcDbLine
 10
551.0416168785046
 20
354.1380338066281
 30
0.0
 11
551.0416168785046
 21
365.6531202221176
 31
0.0
  0
LINE
  5
1113
330
18
100
AcDbEntity
  8
0
  6
ByBlock
 62
     2
100
AcDbLine
 10
556.0416168785048
 20
350.3833461340913
 30
0.0
 11
556.0416168785048
 21
365.6531202221176
 31
0.0
  0
LINE
  5
1114
330
18
100
AcDbEntity
  8
0
  6
ByBlock
 62
     2
100
AcDbLine
 10
548.5416168785047
 20
364.4031202221175
 30
0.0
 11
546.0416168785046
 21
364.4031202221175
 31
0.0
  0
LINE
  5
1115
330
18
100
AcDbEntity
  8
0
  6
ByBlock
 62
     2
100
AcDbLine
 10
558.5416168785047
 20
364.4031202221175
 30
0.0
 11
561.0416168785048
 21
364.4031202221175
 31
0.0
  0
LINE
  5
1116
330
18
100
AcDbEntity
  8
0
  6
ByBlock
 62
     2
100
AcDbLine
 10
551.0416168785046
 20
364.4031202221175
 30
0.0
 11
556.0416168785048
 21
364.4031202221175
 31
0.0
  0
INSERT
  5
1117
330
18
100
AcDbEntity
  8
0
  6
ByBlock
 62
     2
100
AcDbBlockReference
  2
_OPEN
 10
551.0416168785046
 20
364.4031202221175
 30
0.0
 41
2.5
 42
2.5
 43
2.5
  0
INSERT
  5
1118
330
18
100
AcDbEntity
  8
0
  6
ByBlock
 62
     2
100
AcDbBlockReference
  2
_OPEN
 10
556.0416168785048
 20
364.4031202221175
 30
0.0
 41
2.5
 42
2.5
 43
2.5
 50
180.0
  0
MTEXT
  5
1119
330
18
100
AcDbEntity
  8
0
  6
ByBlock
 62
     6
100
AcDbMText
 10
553.5416168785047
 20
366.2781202221176
 30
0.0
 40
2.5
 41
0.0
 71
     5
 72
     1
  1
\A1;5
  7
STYLE3
 73
     1
 44
1.0
  0
POINT
  5
111A
330
18
100
AcDbEntity
  8
DEFPOINTS
  6
ByBlock
 62
     0
100
AcDbPoint
 10
551.0416168785046
 20
354.1380338066281
 30
0.0
  0
POINT
  5
111B
330
18
100
AcDbEntity
  8
DEFPOINTS
  6
ByBlock
 62
     0
100
AcDbPoint
 10
556.0416168785048
 20
350.3833461340913
 30
0.0
  0
POINT
  5
111C
330
18
100
AcDbEntity
  8
DEFPOINTS
  6
ByBlock
 62
     0
100
AcDbPoint
 10
556.0416168785048
 20
364.4031202221175
 30
0.0
  0
POINT
  5
1123
330
18
100
AcDbEntity
  8
DEFPOINTS
  6
ByBlock
 62
     0
100
AcDbPoint
 10
547.3024409089852
 20
377.6839486312961
 30
0.0
  0
DIMENSION
  5
1947
330
18
100
AcDbEntity
  8
寸法線
100
AcDbDimension
  2
*D1
 10
422.6453609481967
 20
431.0677903611729
 30
0.0
 11
386.1453609481968
 21
432.9427903611729
 31
0.0
 70
    32
 71
     5
 42
73.0
  3
φ
100
AcDbAlignedDimension
 13
349.6453609481968
 23
341.9339486312959
 33
0.0
 14
422.6453609481967
 24
341.9339486312959
 34
0.0
100
AcDbRotatedDimension
  0
DIMENSION
  5
1F8D
330
18
100
AcDbEntity
  8
寸法線
100
AcDbDimension
  2
*D3
 10
538.8024409089852
 20
430.5685072995649
 30
0.0
 11
530.0524409089852
 21
432.4435072995648
 31
0.0
 70
    32
 71
     5
 42
17.49999999999988
  3
STYLE3
100
AcDbAlignedDimension
 13
521.3024409089853
 23
341.933948631296
 33
0.0
 14
538.8024409089852
 24
429.451128536326
 34
0.0
100
AcDbRotatedDimension
  0
DIMENSION
  5
1F9A
330
18
100
AcDbEntity
  8
寸法線
100
AcDbDimension
  2
*D4
 10
547.3024409089852
 20
430.5685072995649
 30
0.0
 11
543.0524409089851
 21
432.4435072995648
 31
0.0
 70
    32
 71
     5
 42
8.5
  3
STYLE3
100
AcDbAlignedDimension
 13
538.8024409089852
 23
429.451128536326
 33
0.0
 14
547.3024409089852
 24
381.1839486312959
 34
0.0
100
AcDbRotatedDimension
1001
ACAD
1000
DSTYLE
1002
{
1070
   279
1070
     1
1002
}
  0
DIMENSION
  5
1FA7
330
18
100
AcDbEntity
  8
寸法線
100
AcDbDimension
  2
*D5
 10
504.6217696113729
 20
301.1839486312959
 30
0.0
 11
502.7467696113729
 21
341.933948631296
 31
0.0
 70
    32
 71
     5
 42
81.49999999999995
  3
φ
100
AcDbAlignedDimension
 13
530.1024409089852
 23
382.6839486312959
 33
0.0
 14
529.3271527163349
 24
301.1839486312959
 34
0.0
 50
90.0
100
AcDbRotatedDimension
  0
DIMENSION
  5
1FC6
330
18
100
AcDbEntity
  8
寸法線
100
AcDbDimension
  2
*D6
 10
584.3097460218833
 20
302.6839486312959
 30
0.0
 11
582.4347460218831
 21
341.933948631296
 31
0.0
 70
    32
 71
     5
 42
78.5
  3
φ
100
AcDbAlignedDimension
 13
547.3024409089852
 23
381.1839486312959
 33
0.0
 14
547.3024409089852
 24
302.6839486312959
 34
0.0
 50
90.0
100
AcDbRotatedDimension
  0
DIMENSION
  5
1FF7
330
18
100
AcDbEntity
  8
寸法線
100
AcDbDimension
  2
*D7
 10
528.4788883451678
 20
213.9339486312959
 30
0.0
 11
526.6038883451678
 21
218.433948631296
 31
0.0
 70
    32
 71
     5
 42
9.0
  3
STYLE3
100
AcDbAlignedDimension
 13
536.0524409089853
 23
222.9339486312959
 33
0.0
 14
538.8024409089852
 24
213.9339486312959
 34
0.0
 50
90.0
100
AcDbRotatedDimension
  0
DIMENSION
  5
2005
330
18
100
AcDbEntity
  8
寸法線
100
AcDbDimension
  2
*D8
 10
388.8953609481967
 20
253.3773285441072
 30
0.0
 11
398.2703609481967
 21
253.3773285441072
 31
0.0
 70
   160
  1
%%C<>
 71
     5
 42
5.499999999999943
  3
STYLE2
100
AcDbAlignedDimension
 13
383.3953609481968
 23
266.0703857256344
 33
0.0
 14
388.8953609481967
 24
269.8192369491025
 34
0.0
100
AcDbRotatedDimension
1001
ACAD
1000
DSTYLE
1002
{
1070
    76
1070
     1
1070
    75
1070
     1
1002
}
  0
TEXT
  5
2207
330
18
100
AcDbEntity
  8
文字
100
AcDbText
 10
395.0933013823064
 20
340.8408810365945
 30
0.0
 40
1.0
  1
0.01mm
  7
STYLE3
100
AcDbText
  0
LINE
  5
2214
102
{ACAD_REACTORS
330
2216
102
}
330
18
100
AcDbEntity
  8
外形線
100
AcDbLine
 10
398.6000559098142
 20
343.3978563260924
 30
0.0
 11
399.7667225764809
 21
343.8224882660696
 31
0.0
  0
LINE
  5
2215
102
{ACAD_REACTORS
330
2216
102
}
330
18
100
AcDbEntity
  8
外形線
100
AcDbLine
 10
398.6000559098142
 20
343.3978563260924
 30
0.0
 11
399.7667225764809
 21
342.9732243861151
 31
0.0
  0
HATCH
  5
2216
330
18
100
AcDbEntity
  8
外形線
100
AcDbHatch
 10
0.0
 20
0.0
 30
0.0
210
0.0
220
0.0
230
1.0
  2
SOLID
 70
     1
 71
     1
 91
        2
 92
        1
 93
        7
 72
     1
 10
398.6000559098142
 20
343.3978563260924
 11
399.7667225764809
 21
342.9732243861151
 72
     1
 10
399.7667225764809
 20
342.9732243861152
 11
399.7667225764809
 21
343.308272992759
 72
     1
 10
399.7667225764809
 20
343.308272992759
 11
400.7667225764809
 21
343.308272992759
 72
     1
 10
400.7667225764809
 20
343.308272992759
 11
400.7667225764809
 21
343.4874396594257
 72
     1
 10
400.7667225764809
 20
343.4874396594257
 11
399.7667225764809
 21
343.4874396594257
 72
     1
 10
399.7667225764809
 20
343.4874396594257
 11
399.7667225764809
 21
343.8224882660696
 72
     1
 10
399.7667225764809
 20
343.8224882660696
 11
398.6000559098142
 21
343.3978563260924
 97
        7
330
2215
330
2234
330
223A
330
2233
330
223B
330
2237
330
2214
 92
        1
 93
        4
 72
     1
 10
398.6000559098142
 20
344.1478563260924
 11
398.6000559098142
 21
342.6478563260924
 72
     1
 10
398.6000559098142
 20
342.6478563260924
 11
398.4333892431475
 21
342.6478563260924
 72
     1
 10
398.4333892431475
 20
342.6478563260924
 11
398.4333892431475
 21
344.1478563260924
 72
     1
 10
398.4333892431475
 20
344.1478563260924
 11
398.6000559098142
 21
344.1478563260924
 97
        4
330
222C
330
2220
330
222D
330
222E
 75
     0
 76
     1
 98
        1
 10
306.2704992033339
 20
274.7357055189113
450
        0
451
        0
460
0.0
461
0.0
452
        0
462
0.0
453
        0
470

  0
LINE
  5
2217
102
{ACAD_REACTORS
330
2230
102
}
330
18
100
AcDbEntity
  8
外形線
100
AcDbLine
 10
397.6000559098141
 20
342.6478563260924
 30
0.0
 11
397.4333892431476
 21
342.6478563260924
 31
0.0
  0
POINT
  5
2218
330
18
100
AcDbEntity
  8
DEFPOINTS
  6
ByBlock
 62
     0
100
AcDbPoint
 10
397.4333892431476
 20
342.6478563260924
 30
0.0
  0
POINT
  5
2219
330
18
100
AcDbEntity
  8
DEFPOINTS
  6
ByBlock
 62
     0
100
AcDbPoint
 10
397.6000559098141
 20
342.6478563260924
 30
0.0
  0
POINT
  5
221A
330
18
100
AcDbEntity
  8
DEFPOINTS
  6
ByBlock
 62
     0
100
AcDbPoint
 10
397.4333892431476
 20
342.6478563260924
 30
0.0
  0
POINT
  5
221B
330
18
100
AcDbEntity
  8
DEFPOINTS
  6
ByBlock
 62
     0
100
AcDbPoint
 10
397.6000559098141
 20
342.6478563260924
 30
0.0
  0
POINT
  5
221C
330
18
100
AcDbEntity
  8
DEFPOINTS
  6
ByBlock
 62
     0
100
AcDbPoint
 10
398.4333892431475
 20
342.6478563260924
 30
0.0
  0
POINT
  5
221D
330
18
100
AcDbEntity
  8
DEFPOINTS
  6
ByBlock
 62
     0
100
AcDbPoint
 10
398.6000559098142
 20
342.6478563260924
 30
0.0
  0
POINT
  5
221E
330
18
100
AcDbEntity
  8
DEFPOINTS
  6
ByBlock
 62
     0
100
AcDbPoint
 10
398.4333892431475
 20
342.6478563260924
 30
0.0
  0
POINT
  5
221F
330
18
100
AcDbEntity
  8
DEFPOINTS
  6
ByBlock
 62
     0
100
AcDbPoint
 10
398.6000559098142
 20
342.6478563260924
 30
0.0
  0
LINE
  5
2220
102
{ACAD_REACTORS
330
2216
102
}
330
18
100
AcDbEntity
  8
外形線
100
AcDbLine
 10
398.4333892431475
 20
342.6478563260924
 30
0.0
 11
398.6000559098142
 21
342.6478563260924
 31
0.0
  0
LINE
  5
2221
102
{ACAD_REACTORS
330
2230
102
}
330
18
100
AcDbEntity
  8
外形線
100
AcDbLine
 10
397.6000559098141
 20
344.1478563260924
 30
0.0
 11
397.6000559098141
 21
342.6478563260924
 31
0.0
  0
LINE
  5
2222
102
{ACAD_REACTORS
330
2230
102
}
330
18
100
AcDbEntity
  8
外形線
100
AcDbLine
 10
397.4333892431476
 20
344.1478563260924
 30
0.0
 11
397.4333892431476
 21
342.6478563260924
 31
0.0
  0
LINE
  5
2223
102
{ACAD_REACTORS
330
2230
102
}
330
18
100
AcDbEntity
  8
外形線
100
AcDbLine
 10
397.4333892431476
 20
343.3978563260924
 30
0.0
 11
396.2667225764809
 21
343.8224882660696
 31
0.0
  0
LINE
  5
2224
102
{ACAD_REACTORS
330
2230
102
}
330
18
100
AcDbEntity
  8
外形線
100
AcDbLine
 10
397.4333892431476
 20
343.3978563260924
 30
0.0
 11
396.2667225764809
 21
342.9732243861151
 31
0.0
  0
POINT
  5
2225
330
18
100
AcDbEntity
  8
DEFPOINTS
  6
ByBlock
 62
     0
100
AcDbPoint
 10
396.2667225764809
 20
342.9732243861151
 30
0.0
  0
POINT
  5
2226
330
18
100
AcDbEntity
  8
DEFPOINTS
  6
ByBlock
 62
     0
100
AcDbPoint
 10
396.2667225764809
 20
342.9732243861151
 30
0.0
  0
LINE
  5
2227
102
{ACAD_REACTORS
330
2230
102
}
330
18
100
AcDbEntity
  8
外形線
100
AcDbLine
 10
396.2667225764809
 20
343.308272992759
 30
0.0
 11
396.2667225764809
 21
342.9732243861152
 31
0.0
  0
POINT
  5
2228
330
18
100
AcDbEntity
  8
DEFPOINTS
  6
ByBlock
 62
     0
100
AcDbPoint
 10
396.2667225764809
 20
343.8224882660696
 30
0.0
  0
POINT
  5
2229
330
18
100
AcDbEntity
  8
DEFPOINTS
  6
ByBlock
 62
     0
100
AcDbPoint
 10
396.2667225764809
 20
343.8224882660696
 30
0.0
  0
LINE
  5
222A
102
{ACAD_REACTORS
330
2230
102
}
330
18
100
AcDbEntity
  8
外形線
100
AcDbLine
 10
396.2667225764809
 20
343.8224882660696
 30
0.0
 11
396.2667225764809
 21
343.4874396594257
 31
0.0
  0
LINE
  5
222B
102
{ACAD_REACTORS
330
2230
102
}
330
18
100
AcDbEntity
  8
外形線
100
AcDbLine
 10
397.6000559098141
 20
344.1478563260924
 30
0.0
 11
397.4333892431476
 21
344.1478563260924
 31
0.0
  0
LINE
  5
222C
102
{ACAD_REACTORS
330
2216
102
}
330
18
100
AcDbEntity
  8
外形線
100
AcDbLine
 10
398.6000559098142
 20
344.1478563260924
 30
0.0
 11
398.6000559098142
 21
342.6478563260924
 31
0.0
  0
LINE
  5
222D
102
{ACAD_REACTORS
330
2216
102
}
330
18
100
AcDbEntity
  8
外形線
100
AcDbLine
 10
398.4333892431475
 20
344.1478563260924
 30
0.0
 11
398.4333892431475
 21
342.6478563260924
 31
0.0
  0
LINE
  5
222E
102
{ACAD_REACTORS
330
2216
102
}
330
18
100
AcDbEntity
  8
外形線
100
AcDbLine
 10
398.4333892431475
 20
344.1478563260924
 30
0.0
 11
398.6000559098142
 21
344.1478563260924
 31
0.0
  0
LINE
  5
222F
102
{ACAD_REACTORS
330
2230
102
}
330
18
100
AcDbEntity
  8
外形線
100
AcDbLine
 10
395.2667225764809
 20
343.4874396594257
 30
0.0
 11
395.2667225764809
 21
343.308272992759
 31
0.0
  0
HATCH
  5
2230
330
18
100
AcDbEntity
  8
外形線
100
AcDbHatch
 10
0.0
 20
0.0
 30
0.0
210
0.0
220
0.0
230
1.0
  2
SOLID
 70
     1
 71
     1
 91
        2
 92
        1
 93
        7
 72
     1
 10
397.4333892431476
 20
343.3978563260924
 11
396.2667225764809
 21
342.9732243861151
 72
     1
 10
396.2667225764809
 20
342.9732243861152
 11
396.2667225764809
 21
343.308272992759
 72
     1
 10
396.2667225764809
 20
343.308272992759
 11
395.2667225764809
 21
343.308272992759
 72
     1
 10
395.2667225764809
 20
343.308272992759
 11
395.2667225764809
 21
343.4874396594257
 72
     1
 10
395.2667225764809
 20
343.4874396594257
 11
396.2667225764809
 21
343.4874396594257
 72
     1
 10
396.2667225764809
 20
343.4874396594257
 11
396.2667225764809
 21
343.8224882660696
 72
     1
 10
396.2667225764809
 20
343.8224882660696
 11
397.4333892431476
 21
343.3978563260924
 97
        7
330
2224
330
2227
330
2231
330
222F
330
2232
330
222A
330
2223
 92
        1
 93
        4
 72
     1
 10
397.4333892431476
 20
344.1478563260924
 11
397.4333892431476
 21
342.6478563260924
 72
     1
 10
397.4333892431476
 20
342.6478563260924
 11
397.6000559098141
 21
342.6478563260924
 72
     1
 10
397.6000559098141
 20
342.6478563260924
 11
397.6000559098141
 21
344.1478563260924
 72
     1
 10
397.6000559098141
 20
344.1478563260924
 11
397.4333892431476
 21
344.1478563260924
 97
        4
330
2222
330
2217
330
2221
330
222B
 75
     0
 76
     1
 98
        1
 10
489.7629459496279
 20
274.7357055189113
450
        0
451
        0
460
0.0
461
0.0
452
        0
462
0.0
453
        0
470

  0
LINE
  5
2231
102
{ACAD_REACTORS
330
2230
102
}
330
18
100
AcDbEntity
  8
外形線
100
AcDbLine
 10
395.2667225764809
 20
343.308272992759
 30
0.0
 11
396.2667225764809
 21
343.308272992759
 31
0.0
  0
LINE
  5
2232
102
{ACAD_REACTORS
330
2230
102
}
330
18
100
AcDbEntity
  8
外形線
100
AcDbLine
 10
395.2667225764809
 20
343.4874396594257
 30
0.0
 11
396.2667225764809
 21
343.4874396594257
 31
0.0
  0
LINE
  5
2233
102
{ACAD_REACTORS
330
2216
102
}
330
18
100
AcDbEntity
  8
外形線
100
AcDbLine
 10
400.7667225764809
 20
343.4874396594257
 30
0.0
 11
400.7667225764809
 21
343.308272992759
 31
0.0
  0
LINE
  5
2234
102
{ACAD_REACTORS
330
2216
102
}
330
18
100
AcDbEntity
  8
外形線
100
AcDbLine
 10
399.7667225764809
 20
343.308272992759
 30
0.0
 11
399.7667225764809
 21
342.9732243861152
 31
0.0
  0
POINT
  5
2235
330
18
100
AcDbEntity
  8
DEFPOINTS
  6
ByBlock
 62
     0
100
AcDbPoint
 10
399.7667225764809
 20
342.9732243861151
 30
0.0
  0
POINT
  5
2236
330
18
100
AcDbEntity
  8
DEFPOINTS
  6
ByBlock
 62
     0
100
AcDbPoint
 10
399.7667225764809
 20
342.9732243861151
 30
0.0
  0
LINE
  5
2237
102
{ACAD_REACTORS
330
2216
102
}
330
18
100
AcDbEntity
  8
外形線
100
AcDbLine
 10
399.7667225764809
 20
343.8224882660696
 30
0.0
 11
399.7667225764809
 21
343.4874396594257
 31
0.0
  0
POINT
  5
2238
330
18
100
AcDbEntity
  8
DEFPOINTS
  6
ByBlock
 62
     0
100
AcDbPoint
 10
399.7667225764809
 20
343.8224882660696
 30
0.0
  0
POINT
  5
2239
330
18
100
AcDbEntity
  8
DEFPOINTS
  6
ByBlock
 62
     0
100
AcDbPoint
 10
399.7667225764809
 20
343.8224882660696
 30
0.0
  0
LINE
  5
223A
102
{ACAD_REACTORS
330
2216
102
}
330
18
100
AcDbEntity
  8
外形線
100
AcDbLine
 10
400.7667225764809
 20
343.308272992759
 30
0.0
 11
399.7667225764809
 21
343.308272992759
 31
0.0
  0
LINE
  5
223B
102
{ACAD_REACTORS
330
2216
102
}
330
18
100
AcDbEntity
  8
外形線
100
AcDbLine
 10
400.7667225764809
 20
343.4874396594257
 30
0.0
 11
399.7667225764809
 21
343.4874396594257
 31
0.0
  0
LINE
  5
226C
330
18
100
AcDbEntity
  8
目盛
100
AcDbLine
 10
373.1453609481968
 20
348.7339486312959
 30
0.0
 11
373.1453609481968
 21
347.4839486312959
 31
0.0
  0
LINE
  5
2289
330
18
100
AcDbEntity
  8
中心線
 48
0.5
100
AcDbLine
 10
365.3186438339901
 20
342.2339486312959
 30
0.0
 11
381.4030771989166
 21
342.2339486312959
 31
0.0
  0
TEXT
  5
228A
330
18
100
AcDbEntity
  8
文字
100
AcDbText
 10
375.9644829801725
 20
342.9125424879351
 30
0.0
 40
1.0
  1
10
  7
STYLE3
100
AcDbText
  0
LINE
  5
228B
330
18
100
AcDbEntity
  8
中心線
 48
0.5
100
AcDbLine
 10
373.1453609481968
 20
334.3977265917324
 30
0.0
 11
373.1453609481968
 21
349.9104712677834
 31
0.0
  0
LINE
  5
228C
330
18
100
AcDbEntity
  8
目盛
100
AcDbLine
 10
373.1453609481968
 20
335.7339486312958
 30
0.0
 11
373.1453609481968
 21
336.3839486312959
 31
0.0
  0
TEXT
  5
228D
330
18
100
AcDbEntity
  8
文字
100
AcDbText
 10
374.8701010642087
 20
338.3201520353758
 30
0.0
 40
1.0
  1
20
  7
STYLE3
100
AcDbText
  0
TEXT
  5
228E
330
18
100
AcDbEntity
  8
文字
100
AcDbText
 10
372.647095761702
 20
346.075375010398
 30
0.0
 40
1.0
  1
0
  7
STYLE3
100
AcDbText
  0
POINT
  5
22AB
330
18
100
AcDbEntity
  8
DEFPOINTS
  6
ByBlock
 62
     0
100
AcDbPoint
 10
373.1453609481968
 20
347.4839486312959
 30
0.0
  0
POINT
  5
22AC
330
18
100
AcDbEntity
  8
DEFPOINTS
  6
ByBlock
 62
     0
100
AcDbPoint
 10
373.1453609481968
 20
336.3839486312959
 30
0.0
  0
LINE
  5
22B2
330
18
100
AcDbEntity
  8
目盛
100
AcDbLine
 10
373.1453609481968
 20
335.7339486312958
 30
0.0
 11
373.1453609481968
 21
336.3839486312959
 31
0.0
  0
TEXT
  5
22B3
330
18
100
AcDbEntity
  8
文字
100
AcDbText
 10
376.0374426502455
 20
340.2518716875567
 30
0.0
 40
1.0
  1
15
  7
STYLE3
100
AcDbText
  0
TEXT
  5
22B4
330
18
100
AcDbEntity
  8
文字
100
AcDbText
 10
375.9644829801725
 20
342.9125424879351
 30
0.0
 40
1.0
  1
10
  7
STYLE3
100
AcDbText
  0
CIRCLE
  5
22B5
330
18
100
AcDbEntity
  8
外形線
100
AcDbCircle
 10
373.1453609481968
 20
342.2339486312959
 30
0.0
 40
6.5
  0
TEXT
  5
22B6
330
18
100
AcDbEntity
  8
文字
100
AcDbText
 10
369.5805823008527
 20
338.3930472161617
 30
0.0
 40
1.0
  1
30
  7
STYLE3
100
AcDbText
  0
LINE
  5
22B7
330
18
100
AcDbEntity
  8
目盛
100
AcDbLine
 10
370.7525513557464
 20
336.1904014730222
 30
0.0
 11
370.9918323149914
 21
336.7947561888496
 31
0.0
  0
TEXT
  5
22B8
330
18
100
AcDbEntity
  8
文字
100
AcDbText
 10
368.4132407148158
 20
340.3247675280036
 30
0.0
 40
1.0
  1
35
  7
STYLE3
100
AcDbText
  0
LINE
  5
22B9
330
18
100
AcDbEntity
  8
目盛
100
AcDbLine
 10
370.0139620665357
 20
336.5379552110107
 30
0.0
 11
370.3271019547018
 21
337.1075545530392
 31
0.0
  0
LINE
  5
22BA
330
18
100
AcDbEntity
  8
目盛
100
AcDbLine
 10
367.2639851071676
 20
339.4663832361229
 30
0.0
 11
367.8521226912705
 21
339.7431397756402
 31
0.0
  0
LINE
  5
22BB
330
18
100
AcDbEntity
  8
目盛
100
AcDbLine
 10
367.6572294324336
 20
338.7510744639325
 30
0.0
 11
368.2060425840098
 21
339.0993618806688
 31
0.0
  0
LINE
  5
22BC
330
18
100
AcDbEntity
  8
目盛
100
AcDbLine
 10
368.1370248701541
 20
338.0906926979295
 30
0.0
 11
368.6378584779583
 21
338.505018291266
 31
0.0
  0
LINE
  5
22BD
330
18
100
AcDbEntity
  8
目盛
100
AcDbLine
 10
368.6958047596602
 20
337.4956525530568
 30
0.0
 11
369.1407603785138
 21
337.9694821608807
 31
0.0
  0
LINE
  5
22BE
330
18
100
AcDbEntity
  8
目盛
100
AcDbLine
 10
369.3247568082956
 20
336.9753381678588
 30
0.0
 11
370.0594883736612
 21
337.9866094108274
 31
0.0
  0
LINE
  5
22BF
330
18
100
AcDbEntity
  8
目盛
100
AcDbLine
 10
366.658187213413
 20
342.6420870082365
 30
0.0
 11
367.3069045868914
 21
342.6012731705423
 31
0.0
  0
LINE
  5
22C0
330
18
100
AcDbEntity
  8
目盛
100
AcDbLine
 10
366.658187213413
 20
341.8258102543553
 30
0.0
 11
367.3069045868913
 21
341.8666240920494
 31
0.0
  0
LINE
  5
22C1
330
18
100
AcDbEntity
  8
目盛
100
AcDbLine
 10
366.7604938184603
 20
341.0159700864887
 30
0.0
 11
367.3989805314339
 21
341.1377679409694
 31
0.0
  0
LINE
  5
22C2
330
18
100
AcDbEntity
  8
目盛
100
AcDbLine
 10
366.9634935922782
 20
340.2253381678587
 30
0.0
 11
368.1523142376472
 21
340.6116094108274
 31
0.0
  0
TEXT
  5
22C3
330
18
100
AcDbEntity
  8
文字
100
AcDbText
 10
372.170621929976
 20
337.2996214833571
 30
0.0
 40
1.0
  1
25
  7
STYLE3
100
AcDbText
  0
TEXT
  5
22C4
330
18
100
AcDbEntity
  8
文字
100
AcDbText
 10
374.8701010642087
 20
338.3201520353758
 30
0.0
 40
1.0
  1
20
  7
STYLE3
100
AcDbText
  0
LINE
  5
22C5
330
18
100
AcDbEntity
  8
目盛
100
AcDbLine
 10
373.9600269663648
 20
335.7852030727517
 30
0.0
 11
373.8785603645479
 21
336.4300776286062
 31
0.0
  0
LINE
  5
22C6
330
18
100
AcDbEntity
  8
目盛
100
AcDbLine
 10
374.7618452147682
 20
335.9381580839598
 30
0.0
 11
374.6001967881111
 21
336.5677371386933
 31
0.0
  0
LINE
  5
22C7
330
18
100
AcDbEntity
  8
目盛
100
AcDbLine
 10
375.5381705406471
 20
336.1904014730222
 30
0.0
 11
375.2988895814021
 21
336.7947561888496
 31
0.0
  0
LINE
  5
22C8
330
18
100
AcDbEntity
  8
目盛
100
AcDbLine
 10
376.2767598298578
 20
336.5379552110107
 30
0.0
 11
375.9636199416918
 21
337.1075545530392
 31
0.0
  0
LINE
  5
22C9
330
18
100
AcDbEntity
  8
目盛
100
AcDbLine
 10
376.9659650880978
 20
336.9753381678586
 30
0.0
 11
376.2312335227322
 21
337.9866094108274
 31
0.0
  0
LINE
  5
22CA
330
18
100
AcDbEntity
  8
目盛
100
AcDbLine
 10
371.5288766816253
 20
335.9381580839598
 30
0.0
 11
371.6905251082824
 21
336.5677371386933
 31
0.0
  0
LINE
  5
22CB
330
18
100
AcDbEntity
  8
目盛
100
AcDbLine
 10
372.3306949300288
 20
335.7852030727518
 30
0.0
 11
372.4121615318456
 21
336.4300776286062
 31
0.0
  0
LINE
  5
22CC
330
18
100
AcDbEntity
  8
目盛
100
AcDbLine
 10
373.1453609481968
 20
335.7339486312958
 30
0.0
 11
373.1453609481968
 21
336.9839486312959
 31
0.0
  0
TEXT
  5
22CD
330
18
100
AcDbEntity
  8
文字
100
AcDbText
 10
369.7265016409982
 20
345.354527745956
 30
0.0
 40
1.0
  1
45
  7
STYLE3
100
AcDbText
  0
LINE
  5
22CE
330
18
100
AcDbEntity
  8
目盛
100
AcDbLine
 10
370.7525513557464
 20
348.2774957895696
 30
0.0
 11
370.9918323149914
 21
347.6731410737422
 31
0.0
  0
TEXT
  5
22CF
330
18
100
AcDbEntity
  8
文字
100
AcDbText
 10
368.1214056168323
 20
343.2041225514176
 30
0.0
 40
1.0
  1
40
  7
STYLE3
100
AcDbText
  0
LINE
  5
22D0
330
18
100
AcDbEntity
  8
目盛
100
AcDbLine
 10
366.7604938184603
 20
343.4519271761031
 30
0.0
 11
367.3989805314339
 21
343.3301293216223
 31
0.0
  0
LINE
  5
22D1
330
18
100
AcDbEntity
  8
目盛
100
AcDbLine
 10
368.6958047596604
 20
346.972244709535
 30
0.0
 11
369.1407603785139
 21
346.4984151017111
 31
0.0
  0
LINE
  5
22D2
330
18
100
AcDbEntity
  8
目盛
100
AcDbLine
 10
368.1370248701542
 20
346.3772045646625
 30
0.0
 11
368.6378584779585
 21
345.9628789713257
 31
0.0
  0
LINE
  5
22D3
330
18
100
AcDbEntity
  8
目盛
100
AcDbLine
 10
367.6572294324337
 20
345.7168227986593
 30
0.0
 11
368.20604258401
 21
345.368535381923
 31
0.0
  0
LINE
  5
22D4
330
18
100
AcDbEntity
  8
目盛
100
AcDbLine
 10
367.2639851071677
 20
345.0015140264689
 30
0.0
 11
367.8521226912706
 21
344.7247574869516
 31
0.0
  0
LINE
  5
22D5
330
18
100
AcDbEntity
  8
目盛
100
AcDbLine
 10
366.9634935922783
 20
344.2425590947331
 30
0.0
 11
368.1523142376472
 21
343.8562878517644
 31
0.0
  0
LINE
  5
22D6
330
18
100
AcDbEntity
  8
目盛
100
AcDbLine
 10
370.0139620665357
 20
347.9299420515811
 30
0.0
 11
370.3271019547018
 21
347.3603427095526
 31
0.0
  0
LINE
  5
22D7
330
18
100
AcDbEntity
  8
目盛
100
AcDbLine
 10
369.3247568082957
 20
347.4925590947331
 30
0.0
 11
370.0594883736613
 21
346.4812878517645
 31
0.0
  0
TEXT
  5
22D8
330
18
100
AcDbEntity
  8
文字
100
AcDbText
 10
375.3078543082353
 20
345.2451856344382
 30
0.0
 40
1.0
  1
5
  7
STYLE3
100
AcDbText
  0
TEXT
  5
22D9
330
18
100
AcDbEntity
  8
文字
100
AcDbText
 10
372.6813348440753
 20
346.2292692557251
 30
0.0
 40
1.0
  1
0
  7
STYLE3
100
AcDbText
  0
LINE
  5
22DA
330
18
100
AcDbEntity
  8
目盛
100
AcDbLine
 10
373.1453609481968
 20
348.733948631296
 30
0.0
 11
373.1453609481968
 21
347.483948631296
 31
0.0
  0
LINE
  5
22DB
330
18
100
AcDbEntity
  8
目盛
100
AcDbLine
 10
372.3306949300289
 20
348.6826941898399
 30
0.0
 11
372.4121615318456
 21
348.0378196339856
 31
0.0
  0
LINE
  5
22DC
330
18
100
AcDbEntity
  8
目盛
100
AcDbLine
 10
371.5288766816253
 20
348.5297391786321
 30
0.0
 11
371.6905251082824
 21
347.9001601238985
 31
0.0
  0
LINE
  5
22DD
330
18
100
AcDbEntity
  8
目盛
100
AcDbLine
 10
376.9659650880978
 20
347.4925590947331
 30
0.0
 11
376.2312335227323
 21
346.4812878517644
 31
0.0
  0
LINE
  5
22DE
330
18
100
AcDbEntity
  8
目盛
100
AcDbLine
 10
376.2767598298579
 20
347.929942051581
 30
0.0
 11
375.9636199416918
 21
347.3603427095525
 31
0.0
  0
LINE
  5
22DF
330
18
100
AcDbEntity
  8
目盛
100
AcDbLine
 10
375.5381705406472
 20
348.2774957895695
 30
0.0
 11
375.2988895814021
 21
347.6731410737422
 31
0.0
  0
LINE
  5
22E0
330
18
100
AcDbEntity
  8
目盛
100
AcDbLine
 10
374.7618452147683
 20
348.529739178632
 30
0.0
 11
374.6001967881111
 21
347.9001601238984
 31
0.0
  0
LINE
  5
22E1
330
18
100
AcDbEntity
  8
目盛
100
AcDbLine
 10
373.9600269663648
 20
348.68269418984
 30
0.0
 11
373.878560364548
 21
348.0378196339856
 31
0.0
  0
LINE
  5
22E2
330
18
100
AcDbEntity
  8
目盛
100
AcDbLine
 10
373.1453609481968
 20
348.7339486312959
 30
0.0
 11
373.1453609481968
 21
347.4839486312959
 31
0.0
  0
LINE
  5
22E3
330
18
100
AcDbEntity
  8
目盛
100
AcDbLine
 10
379.5302280779333
 20
341.0159700864888
 30
0.0
 11
378.8917413649596
 21
341.1377679409695
 31
0.0
  0
LINE
  5
22E4
330
18
100
AcDbEntity
  8
目盛
100
AcDbLine
 10
379.6325346829806
 20
341.8258102543553
 30
0.0
 11
378.9838173095021
 21
341.8666240920495
 31
0.0
  0
LINE
  5
22E5
330
18
100
AcDbEntity
  8
目盛
100
AcDbLine
 10
379.6325346829805
 20
342.6420870082365
 30
0.0
 11
378.9838173095022
 21
342.6012731705424
 31
0.0
  0
LINE
  5
22E6
330
18
100
AcDbEntity
  8
目盛
100
AcDbLine
 10
377.5949171367332
 20
337.4956525530568
 30
0.0
 11
377.1499615178795
 21
337.9694821608806
 31
0.0
  0
LINE
  5
22E7
330
18
100
AcDbEntity
  8
目盛
100
AcDbLine
 10
378.1536970262393
 20
338.0906926979293
 30
0.0
 11
377.6528634184351
 21
338.5050182912661
 31
0.0
  0
LINE
  5
22E8
330
18
100
AcDbEntity
  8
目盛
100
AcDbLine
 10
378.6334924639598
 20
338.7510744639325
 30
0.0
 11
378.0846793123835
 21
339.0993618806688
 31
0.0
  0
LINE
  5
22E9
330
18
100
AcDbEntity
  8
目盛
100
AcDbLine
 10
379.0267367892258
 20
339.4663832361229
 30
0.0
 11
378.4385992051229
 21
339.7431397756402
 31
0.0
  0
LINE
  5
22EA
330
18
100
AcDbEntity
  8
目盛
100
AcDbLine
 10
379.3272283041152
 20
340.2253381678587
 30
0.0
 11
378.1384076587463
 21
340.6116094108274
 31
0.0
  0
LINE
  5
22EB
330
18
100
AcDbEntity
  8
目盛
100
AcDbLine
 10
379.0267367892258
 20
345.0015140264689
 30
0.0
 11
378.4385992051229
 21
344.7247574869515
 31
0.0
  0
LINE
  5
22EC
330
18
100
AcDbEntity
  8
目盛
100
AcDbLine
 10
378.6334924639599
 20
345.7168227986593
 30
0.0
 11
378.0846793123835
 21
345.368535381923
 31
0.0
  0
LINE
  5
22ED
330
18
100
AcDbEntity
  8
目盛
100
AcDbLine
 10
378.1536970262393
 20
346.3772045646623
 30
0.0
 11
377.652863418435
 21
345.9628789713257
 31
0.0
  0
LINE
  5
22EE
330
18
100
AcDbEntity
  8
目盛
100
AcDbLine
 10
377.5949171367332
 20
346.972244709535
 30
0.0
 11
377.1499615178795
 21
346.498415101711
 31
0.0
  0
LINE
  5
22EF
330
18
100
AcDbEntity
  8
目盛
100
AcDbLine
 10
379.5302280779332
 20
343.4519271761031
 30
0.0
 11
378.8917413649595
 21
343.3301293216224
 31
0.0
  0
LINE
  5
22F0
330
18
100
AcDbEntity
  8
目盛
100
AcDbLine
 10
379.3272283041153
 20
344.2425590947331
 30
0.0
 11
378.1384076587463
 21
343.8562878517644
 31
0.0
  0
LINE
  5
239D
330
18
100
AcDbEntity
  8
外形線
100
AcDbLine
 10
382.3453609481967
 20
419.3339486312959
 30
0.0
 11
382.3453609481967
 21
417.3339486312959
 31
0.0
  0
LINE
  5
23A0
330
18
100
AcDbEntity
  8
外形線
100
AcDbLine
 10
389.9453609481967
 20
419.3339486312959
 30
0.0
 11
389.9453609481967
 21
417.333948631296
 31
0.0
  0
LINE
  5
23D6
330
18
100
AcDbEntity
  8
外形線
100
AcDbLine
 10
542.6024409089852
 20
419.3339486312959
 30
0.0
 11
542.6024409089852
 21
417.333948631296
 31
0.0
  0
LINE
  5
23D7
330
18
100
AcDbEntity
  8
外形線
100
AcDbLine
 10
535.0024409089853
 20
419.3339486312959
 30
0.0
 11
535.0024409089853
 21
417.3339486312959
 31
0.0
  0
LINE
  5
23EC
330
18
100
AcDbEntity
  8
寸法線
 62
     2
100
AcDbLine
 10
383.6453609481968
 20
288.3994895011801
 30
0.0
 11
388.6453609481967
 21
288.3994895011801
 31
0.0
  0
LINE
  5
23ED
330
18
100
AcDbEntity
  8
寸法線
 62
     2
100
AcDbLine
 10
391.1453609481967
 20
288.3994895011801
 30
0.0
 11
412.5501228529587
 21
288.3994895011801
 31
0.0
  0
INSERT
  5
23EE
330
18
100
AcDbEntity
  8
寸法線
 62
     2
100
AcDbBlockReference
  2
_OPEN
 10
381.1453609481968
 20
288.3994895011801
 30
0.0
 41
2.5
 42
2.5
 43
2.5
 50
180.0
  0
INSERT
  5
23EF
330
18
100
AcDbEntity
  8
寸法線
 62
     2
100
AcDbBlockReference
  2
_OPEN
 10
391.1453609481967
 20
288.3994895011801
 30
0.0
 41
2.5
 42
2.5
 43
2.5
  0
TEXT
  5
23F1
330
18
100
AcDbEntity
  8
寸法線
 62
     6
100
AcDbText
 10
393.9132180910539
 20
289.0244895011802
 30
0.0
 40
2.5
  1
\U+220510.0
  7
STYLE3
100
AcDbText
  0
TEXT
  5
23F2
330
18
100
AcDbEntity
  8
寸法線
 62
     6
100
AcDbText
 10
405.3371653155292
 20
291.1507426270623
 30
0.0
 40
1.75
  1
 0
  7
STYLE3
100
AcDbText
  0
TEXT
  5
23F3
330
18
100
AcDbEntity
  8
寸法線
 62
     6
100
AcDbText
 10
404.1751228529586
 20
289.0244895011802
 30
0.0
 40
1.75
  1
-0.03
  7
STYLE3
100
AcDbText
  0
ARC
  5
240A
330
18
100
AcDbEntity
  8
外形線
100
AcDbCircle
 10
386.1453609481968
 20
215.1339486312959
 30
0.0
 40
1.199999999999999
100
AcDbArc
 50
189.59406822686
 51
350.40593177314
  0
ARC
  5
240B
330
18
100
AcDbEntity
  8
外形線
100
AcDbCircle
 10
538.8024409089852
 20
215.1339486312959
 30
0.0
 40
1.199999999999999
100
AcDbArc
 50
189.59406822686
 51
350.40593177314
  0
TEXT
  5
2437
330
18
100
AcDbEntity
  8
文字
100
AcDbText
 10
391.9535442803588
 20
450.282218254493
 30
0.0
 40
4.0
  1
Model No.507 Long Travel Dial Gauge
  7
STYLE3
100
AcDbText
  0
LINE
  5
2438
330
18
100
AcDbEntity
  8
外形線
100
AcDbLine
 10
391.4128052803587
 20
446.765196254493
 30
0.0
 11
503.4128052803587
 21
446.765196254493
 31
0.0
  0
LINE
  5
2439
330
18
100
AcDbEntity
  8
外形線
100
AcDbLine
 10
391.4128052803587
 20
447.7651962544929
 30
0.0
 11
503.4128052803587
 21
447.7651962544929
 31
0.0
  0
LINE
  5
243B
330
18
100
AcDbEntity
  8
外形線
100
AcDbLine
 10
492.3964932803587
 20
197.3470212544929
 30
0.0
 11
633.1879112803586
 21
197.3470212544929
 31
0.0
  0
LINE
  5
243C
330
18
100
AcDbEntity
  8
外形線
100
AcDbLine
 10
492.3964932803587
 20
186.566815254493
 30
0.0
 11
633.1879112803586
 21
186.566815254493
 31
0.0
  0
TEXT
  5
243D
330
18
100
AcDbEntity
  8
0
  6
Continuous
100
AcDbText
 10
493.8539602803587
 20
188.464805254493
 30
0.0
 40
2.1
  1
Design and specifications are subject to change without notice for future improvement.
  7
STYLE3
100
AcDbText
  0
TEXT
  5
243E
330
18
100
AcDbEntity
  8
0
  6
Continuous
100
AcDbText
 10
494.1454542803587
 20
192.3939532544929
 30
0.0
 40
3.5
  1
仕様及び外観は予告なく変更される場合がございますのでご了承下さい。
  7
STYLE3
100
AcDbText
  0
TEXT
  5
243F
330
18
100
AcDbEntity
  8
0
  6
Continuous
100
AcDbText
 10
493.5624692803586
 20
178.700177254493
 30
0.0
 40
2.1
  1
3RD Angle Projection
  7
STYLE3
100
AcDbText
  0
TEXT
  5
2440
330
18
100
AcDbEntity
  8
0
  6
Continuous
100
AcDbText
 10
496.1859122803587
 20
182.196460254493
 30
0.0
 40
3.0
  1
三　　角　　法
  7
STYLE3
100
AcDbText
  0
LINE
  5
2441
330
18
100
AcDbEntity
  8
外形線
100
AcDbLine
 10
492.3964932803587
 20
176.9520372544929
 30
0.0
 11
492.3964932803587
 21
197.3470212544929
 31
0.0
  0
LINE
  5
2442
330
18
100
AcDbEntity
  8
外形線
100
AcDbLine
 10
594.4192602803586
 20
186.566815254493
 30
0.0
 11
594.4192602803586
 21
176.9520372544929
 31
0.0
  0
LINE
  5
2443
330
18
100
AcDbEntity
  8
外形線
100
AcDbLine
 10
564.6869102803586
 20
186.566815254493
 30
0.0
 11
564.6869102803586
 21
176.9520372544929
 31
0.0
  0
LINE
  5
2444
330
18
100
AcDbEntity
  8
外形線
100
AcDbLine
 10
545.1568382803587
 20
186.566815254493
 30
0.0
 11
545.1568382803587
 21
176.9520372544929
 31
0.0
  0
LINE
  5
2445
330
18
100
AcDbEntity
  8
外形線
100
AcDbLine
 10
527.6672212803587
 20
186.566815254493
 30
0.0
 11
527.6672212803587
 21
176.9520372544929
 31
0.0
  0
TEXT
  5
2446
330
18
100
AcDbEntity
  8
0
  6
Continuous
100
AcDbText
 10
529.1246902803586
 20
182.202415254493
 30
0.0
 40
3.0
  1
単位
  7
STYLE3
100
AcDbText
  0
TEXT
  5
2447
330
18
100
AcDbEntity
  8
0
  6
Continuous
100
AcDbText
 10
529.2964112803587
 20
178.700178254493
 30
0.0
 40
2.1
  1
Unit
  7
STYLE3
100
AcDbText
  0
TEXT
  5
2448
330
18
100
AcDbEntity
  8
0
  6
Continuous
100
AcDbText
 10
546.4425862803587
 20
181.911057254493
 30
0.0
 40
3.0
  1
尺 度
  7
STYLE3
100
AcDbText
  0
TEXT
  5
2449
330
18
100
AcDbEntity
  8
0
  6
Continuous
100
AcDbText
 10
537.1667382803586
 20
180.448321254493
 30
0.0
 40
2.399999999999999
  1
mm
  7
STYLE3
100
AcDbText
  0
TEXT
  5
244A
330
18
100
AcDbEntity
  8
0
  6
Continuous
100
AcDbText
 10
546.9058012803587
 20
178.991535254493
 30
0.0
 40
2.1
  1
Scale
  7
STYLE3
100
AcDbText
  0
TEXT
  5
244B
330
18
100
AcDbEntity
  8
0
  6
Continuous
100
AcDbText
 10
556.5250902803586
 20
180.739678254493
 30
0.0
 40
2.399999999999999
  1
1/1
  7
STYLE3
100
AcDbText
  0
TEXT
  5
244C
330
18
100
AcDbEntity
  8
0
  6
Continuous
100
AcDbText
 10
566.6188612803587
 20
178.700179254493
 30
0.0
 40
2.1
  1
Date
  7
STYLE3
100
AcDbText
  0
TEXT
  5
244D
330
18
100
AcDbEntity
  8
0
  6
Continuous
100
AcDbText
 10
566.2355002803586
 20
182.0332622544929
 30
0.0
 40
3.0
  1
日 付
  7
STYLE3
100
AcDbText
  0
TEXT
  5
244E
330
18
100
AcDbEntity
  8
0
  6
Continuous
100
AcDbText
 10
575.3636692803586
 20
180.4483202544929
 30
0.0
 40
2.1
  1
2010.06.08
  7
STYLE3
100
AcDbText
  0
TEXT
  5
244F
330
18
100
AcDbEntity
  8
0
  6
Continuous
100
AcDbText
 10
595.7682232803587
 20
182.4878172544929
 30
0.0
 40
3.0
  1
株式会社　尾崎製作所
  7
STYLE3
100
AcDbText
  0
TEXT
  5
2450
330
18
100
AcDbEntity
  8
0
  6
Continuous
100
AcDbText
 10
596.6427022803586
 20
178.700178254493
 30
0.0
 40
2.1
  1
OZAKI MFG. CO., LTD.
  7
STYLE3
100
AcDbText
  0
ENDSEC
  0
SECTION
  2
OBJECTS
  0
DICTIONARY
  5
C
330
0
100
AcDbDictionary
281
     1
  3
ACAD_COLOR
350
114F
  3
ACAD_GROUP
350
D
  3
ACAD_IMAGE_DICT
350
A00
  3
ACAD_LAYOUT
350
1152
  3
ACAD_MATERIAL
350
114E
  3
ACAD_MLINESTYLE
350
1B
  3
ACAD_PLOTSETTINGS
350
1153
  3
ACAD_PLOTSTYLENAME
350
114C
  3
ACAD_TABLESTYLE
350
1150
  3
ACDBVARIABLEDICTIONARY
350
B79
  0
DICTIONARY
  5
239E
330
18
100
AcDbDictionary
280
     1
281
     1
  3
ACAD_SORTENTS
360
239F
  0
DICTIONARY
  5
114F
102
{ACAD_REACTORS
330
C
102
}
330
C
100
AcDbDictionary
281
     1
  0
DICTIONARY
  5
D
102
{ACAD_REACTORS
330
C
102
}
330
C
100
AcDbDictionary
281
     1
  0
DICTIONARY
  5
A00
102
{ACAD_REACTORS
330
C
102
}
330
C
100
AcDbDictionary
281
     1
  3
ROGO01
350
A01
  0
DICTIONARY
  5
1152
102
{ACAD_REACTORS
330
C
102
}
330
C
100
AcDbDictionary
281
     1
  3
Model
350
1154
  3
レイアウト1
350
1155
  0
DICTIONARY
  5
114E
102
{ACAD_REACTORS
330
C
102
}
330
C
100
AcDbDictionary
281
     1
  0
DICTIONARY
  5
1B
102
{ACAD_REACTORS
330
C
102
}
330
C
100
AcDbDictionary
281
     1
  3
STANDARD
350
1C
  0
DICTIONARY
  5
1153
102
{ACAD_REACTORS
330
C
102
}
330
C
100
AcDbDictionary
281
     1
  0
ACDBDICTIONARYWDFLT
  5
114C
102
{ACAD_REACTORS
330
C
102
}
330
C
100
AcDbDictionary
281
     1
  3
Normal
350
114D
100
AcDbDictionaryWithDefault
340
114D
  0
DICTIONARY
  5
1150
102
{ACAD_REACTORS
330
C
102
}
330
C
100
AcDbDictionary
281
     1
  3
Standard
350
1151
  0
DICTIONARY
  5
B79
102
{ACAD_REACTORS
330
C
102
}
330
C
100
AcDbDictionary
281
     1
  3
CTABLESTYLE
350
20C1
  3
SORTENTS
350
B7A
  0
SORTENTSTABLE
  5
239F
102
{ACAD_REACTORS
330
239E
102
}
330
239E
100
AcDbSortentsTable
330
18
331
1078
  5
107A
331
D24
  5
D26
331
22D4
  5
22DE
331
23F2
  5
221A
331
228D
  5
22B8
331
22DC
  5
22E6
331
2216
  5
2220
331
22E4
  5
22EE
331
221E
  5
2228
331
22EC
  5
23EB
331
250
  5
250
331
1B2
  5
1B2
331
219
  5
219
331
C4C
  5
C4E
331
258
  5
258
331
221
  5
221
331
1BA
  5
1BA
331
A2E
  5
A30
331
A36
  5
A38
331
229
  5
229
331
1C2
  5
1C2
331
CDB
  5
CDF
331
A07
  5
A09
331
1CA
  5
1CA
331
268
  5
26A
331
A3E
  5
A40
331
C84
  5
C86
331
A46
  5
A48
331
18B
  5
18B
331
D6B
  5
D6D
331
CED
  5
CF0
331
F0A
  5
F0C
331
1080
  5
1088
331
10FF
  5
1102
331
1088
  5
108B
331
1107
  5
1109
331
1001
  5
1042
331
CFD
  5
CFF
331
1090
  5
1092
331
110F
  5
1111
331
1041
  5
1043
331
D05
  5
D07
331
D83
  5
D85
331
F92
  5
FE0
331
1117
  5
1119
331
2226
  5
2230
331
22B5
  5
22BF
331
222E
  5
2238
331
22BD
  5
22C7
331
2236
  5
228C
331
22C5
  5
22CF
331
22CD
  5
22D7
331
270
  5
272
331
1FA
  5
1FA
331
193
  5
193
331
231
  5
231
331
A4E
  5
A50
331
278
  5
27A
331
239
  5
239
331
19B
  5
19B
331
202
  5
202
331
A0F
  5
A11
331
B75
  5
B77
331
241
  5
241
331
20A
  5
20A
331
A17
  5
A19
331
CAC
  5
CAF
331
C3D
  5
C42
331
249
  5
249
331
212
  5
212
331
1AB
  5
1AB
331
A1F
  5
A21
331
CB4
  5
CB6
331
CC4
  5
CC6
331
A27
  5
A29
331
C45
  5
C4B
331
1049
  5
104B
331
D0D
  5
D0F
331
10A0
  5
10A2
331
1051
  5
1070
331
FE2
  5
FE5
331
10B0
  5
10B6
331
FEA
  5
FEC
331
D64
  5
D66
331
1071
  5
1073
331
D25
  5
D27
331
1079
  5
107B
331
22D5
  5
22DF
331
23F3
  5
221B
331
228E
  5
22B9
331
2207
  5
221D
331
22DD
  5
22E7
331
22E5
  5
22EF
331
2217
  5
2221
331
22ED
  5
23EC
331
221F
  5
2229
331
298
  5
29A
331
21A
  5
21A
331
1B3
  5
1B3
331
251
  5
251
331
CD4
  5
CD6
331
C4D
  5
C6A
331
259
  5
259
331
1BB
  5
1BB
331
222
  5
222
331
A2F
  5
A31
331
A37
  5
A39
331
1C3
  5
1C3
331
22A
  5
22A
331
269
  5
26B
331
A3F
  5
A41
331
A47
  5
A49
331
C85
  5
C87
331
184
  5
184
331
18C
  5
18C
331
F0B
  5
F0D
331
D6C
  5
D6E
331
FF2
  5
FF4
331
CF6
  5
CF9
331
1108
  5
110A
331
F5B
  5
F92
331
CFE
  5
D00
331
1091
  5
1093
331
1947
  5
1F9A
331
1042
  5
1044
331
D84
  5
D87
331
1110
  5
1112
331
2227
  5
2231
331
22B6
  5
22C0
331
222F
  5
2239
331
22BE
  5
22C8
331
2237
  5
228D
331
22C6
  5
22D0
331
1F9A
  5
1FC6
331
22CE
  5
22D8
331
23EC
  5
2214
331
A08
  5
A0A
331
232
  5
232
331
1FB
  5
1FB
331
194
  5
194
331
271
  5
273
331
B76
  5
C3B
331
A10
  5
A12
331
23A
  5
23A
331
203
  5
203
331
19C
  5
19C
331
279
  5
28D
331
A4F
  5
A51
331
CA5
  5
CA7
331
A18
  5
A1A
331
20B
  5
20B
331
242
  5
242
331
CAD
  5
CB0
331
CB5
  5
CC4
331
291
  5
293
331
24A
  5
24A
331
1AC
  5
1AC
331
213
  5
213
331
A20
  5
A22
331
C46
  5
C4C
331
CC5
  5
CD4
331
1118
  5
111A
331
10A1
  5
10A3
331
104A
  5
104C
331
D0E
  5
D10
331
D55
  5
D57
331
1052
  5
1071
331
DC4
  5
EE0
331
D16
  5
D18
331
FE3
  5
FE6
331
1072
  5
1074
331
D65
  5
D67
331
D1E
  5
D20
331
FEB
  5
FEE
331
107A
  5
107C
331
D26
  5
D28
331
22D6
  5
22E0
331
239D
  5
268
331
22DE
  5
22E8
331
2218
  5
2222
331
22E6
  5
22F0
331
22EE
  5
23ED
331
A28
  5
A2A
331
252
  5
252
331
1B4
  5
1B4
331
21B
  5
21B
331
299
  5
A07
331
CD5
  5
CD7
331
25A
  5
25A
331
223
  5
223
331
1BC
  5
1BC
331
A30
  5
A32
331
C4E
  5
C7A
331
A38
  5
A3A
331
22B
  5
22B
331
1C4
  5
1C4
331
26A
  5
26C
331
A40
  5
A42
331
185
  5
185
331
C86
  5
CA5
331
18D
  5
18D
331
FF3
  5
FF5
331
D6D
  5
D6F
331
CEF
  5
CF2
331
F0C
  5
F0E
331
1101
  5
1103
331
F1C
  5
F1E
331
D75
  5
D77
331
108A
  5
108C
331
1109
  5
110B
331
F5C
  5
FDF
331
CFF
  5
D01
331
D46
  5
D4E
331
1092
  5
1094
331
1111
  5
1113
331
D85
  5
D88
331
D07
  5
D09
331
D4E
  5
D50
331
1043
  5
1045
331
2220
  5
222A
331
2228
  5
2232
331
22B7
  5
22C1
331
2230
  5
223A
331
22BF
  5
22C9
331
22C7
  5
22D1
331
2238
  5
228E
331
22CF
  5
22D9
331
23ED
  5
2215
331
A09
  5
A0B
331
272
  5
274
331
1FC
  5
1FC
331
195
  5
195
331
233
  5
233
331
A48
  5
A4A
331
CA6
  5
CA8
331
A50
  5
A52
331
27A
  5
28E
331
23B
  5
23B
331
19D
  5
19D
331
204
  5
204
331
A11
  5
A13
331
B77
  5
C3D
331
243
  5
243
331
20C
  5
20C
331
A19
  5
A1B
331
A21
  5
A23
331
24B
  5
24B
331
214
  5
214
331
1AD
  5
1AD
331
292
  5
294
331
CB6
  5
CC5
331
CC6
  5
CD5
331
1119
  5
111B
331
104B
  5
104D
331
D56
  5
D58
331
D0F
  5
D11
331
10A2
  5
10A4
331
D5E
  5
D60
331
D17
  5
D19
331
FEC
  5
FEF
331
D1F
  5
D21
331
D66
  5
D68
331
1073
  5
1075
331
107B
  5
107D
331
D27
  5
D29
331
22D7
  5
22E1
331
22DF
  5
22E9
331
2219
  5
2223
331
22E7
  5
239D
331
22EF
  5
23EE
331
A29
  5
A2B
331
29A
  5
A08
331
21C
  5
21C
331
1B5
  5
1B5
331
253
  5
253
331
CD6
  5
CD8
331
25B
  5
25B
331
1BD
  5
1BD
331
224
  5
224
331
A31
  5
A33
331
A39
  5
A3B
331
22C
  5
22C
331
CDE
  5
CE0
331
CE6
  5
CE8
331
26B
  5
26D
331
A41
  5
A43
331
C7F
  5
C81
331
C87
  5
CA6
331
186
  5
186
331
18E
  5
18E
331
CE8
  5
CEA
331
F0D
  5
F0F
331
CF0
  5
CF3
331
D6E
  5
D75
331
FF4
  5
FF6
331
108B
  5
108D
331
CF8
  5
CFA
331
D76
  5
D78
331
F1D
  5
F58
331
1102
  5
1104
331
110A
  5
110C
331
D47
  5
D4F
331
D00
  5
D02
331
1093
  5
109B
331
1112
  5
1114
331
D4F
  5
D52
331
1044
  5
1046
331
109B
  5
109E
331
2221
  5
222B
331
2229
  5
2233
331
22B8
  5
22C2
331
2231
  5
223B
331
22C0
  5
22CA
331
23D6
  5
23F0
331
2239
  5
22AB
331
22C8
  5
22D2
331
23EE
  5
2216
331
A49
  5
A4B
331
A0A
  5
A0C
331
234
  5
234
331
1FD
  5
1FD
331
196
  5
196
331
273
  5
275
331
CA7
  5
CA9
331
A12
  5
A14
331
205
  5
205
331
19E
  5
19E
331
23C
  5
23C
331
A51
  5
A82
331
A1A
  5
A1C
331
20D
  5
20D
331
244
  5
244
331
CAF
  5
CB1
331
C40
  5
C45
331
293
  5
295
331
24C
  5
24C
331
1AE
  5
1AE
331
215
  5
215
331
A22
  5
A24
331
D08
  5
D0A
331
111A
  5
111C
331
10A3
  5
10A5
331
104C
  5
104E
331
D10
  5
D12
331
D57
  5
D5A
331
D5F
  5
D61
331
D18
  5
D1A
331
FE5
  5
FE7
331
1074
  5
1076
331
D67
  5
D69
331
D20
  5
D22
331
107C
  5
107E
331
22D0
  5
22DA
331
2289
  5
22B4
331
22D8
  5
22E2
331
22E0
  5
22EA
331
221A
  5
2224
331
22E8
  5
23A0
331
B51
  5
B63
331
254
  5
254
331
21D
  5
21D
331
1B6
  5
1B6
331
A2A
  5
A2C
331
25C
  5
25C
331
225
  5
225
331
1BE
  5
1BE
331
A32
  5
A34
331
CD7
  5
CDB
331
A3A
  5
A3C
331
22D
  5
22D
331
1C6
  5
1C6
331
CDF
  5
CE1
331
CE7
  5
CE9
331
C80
  5
C82
331
26C
  5
26E
331
A42
  5
A44
331
187
  5
187
331
18F
  5
18F
331
CE9
  5
CEB
331
D28
  5
D2A
331
FF5
  5
FF7
331
D6F
  5
D76
331
D30
  5
D33
331
F0E
  5
F1C
331
1103
  5
1105
331
FFD
  5
1000
331
F1E
  5
F59
331
CF9
  5
CFB
331
D77
  5
D83
331
108C
  5
108E
331
110B
  5
110D
331
D01
  5
D03
331
1094
  5
109C
331
109C
  5
109F
331
D87
  5
D89
331
1045
  5
1047
331
1113
  5
1115
331
2222
  5
222C
331
22F0
  5
23EF
331
222A
  5
2234
331
22B9
  5
22C3
331
2232
  5
226C
331
22C1
  5
22CB
331
1F8D
  5
1FA7
331
23D7
  5
23F1
331
223A
  5
22AC
331
22C9
  5
22D3
331
23EF
  5
2217
331
A4A
  5
A4C
331
274
  5
276
331
1FE
  5
1FE
331
197
  5
197
331
235
  5
235
331
A0B
  5
A0D
331
A52
  5
B12
331
23D
  5
23D
331
19F
  5
19F
331
206
  5
206
331
A13
  5
A15
331
CB0
  5
CB2
331
245
  5
245
331
20E
  5
20E
331
1A7
  5
1A7
331
A1B
  5
A1D
331
A82
  5
B51
331
A23
  5
A25
331
294
  5
296
331
216
  5
216
331
1AF
  5
1AF
331
24D
  5
24D
331
B12
  5
B62
331
D50
  5
D55
331
111B
  5
1123
331
104D
  5
104F
331
D58
  5
D5B
331
D11
  5
D13
331
10A4
  5
10AC
331
1123
  5
1F8D
331
D60
  5
D62
331
D19
  5
D1B
331
FE6
  5
FE9
331
10AC
  5
10B0
331
FEE
  5
FF0
331
D21
  5
D23
331
1075
  5
1077
331
107D
  5
107F
331
22D1
  5
22DB
331
23A0
  5
267
331
228A
  5
22B5
331
22D9
  5
22E3
331
22E1
  5
22EB
331
22E9
  5
23D6
331
221B
  5
2225
331
A2B
  5
A2D
331
21E
  5
21E
331
1B7
  5
1B7
331
255
  5
255
331
CD8
  5
CDE
331
B62
  5
B6A
331
A33
  5
A35
331
1BF
  5
1BF
331
226
  5
226
331
B6A
  5
B74
331
265
  5
265
331
22E
  5
22E
331
1C7
  5
1C7
331
A3B
  5
A3D
331
CE0
  5
CE2
331
26D
  5
26F
331
A43
  5
A45
331
C81
  5
C83
331
188
  5
188
331
D68
  5
D6A
331
CEA
  5
CEC
331
D29
  5
D2B
331
FF6
  5
FF8
331
CF2
  5
CF6
331
D31
  5
D46
331
F0F
  5
F1D
331
108D
  5
108F
331
CFA
  5
CFC
331
D78
  5
D84
331
1104
  5
1106
331
110C
  5
110E
331
D02
  5
D04
331
1046
  5
1048
331
1114
  5
1116
331
2223
  5
222D
331
22B2
  5
22BC
331
222B
  5
2235
331
22BA
  5
22C4
331
2233
  5
2289
331
22C2
  5
22CC
331
223B
  5
22B2
331
22CA
  5
22D4
331
190
  5
190
331
A4B
  5
A4D
331
A0C
  5
A0E
331
236
  5
236
331
1FF
  5
1FF
331
198
  5
198
331
275
  5
277
331
A14
  5
A16
331
207
  5
207
331
1A0
  5
1A0
331
23E
  5
23E
331
CA9
  5
CAB
331
CB1
  5
CB3
331
28D
  5
291
331
20F
  5
20F
331
1A8
  5
1A8
331
246
  5
246
331
A1C
  5
A1E
331
C42
  5
C46
331
295
  5
297
331
24E
  5
24E
331
217
  5
217
331
A24
  5
A26
331
D0A
  5
D0C
331
D88
  5
D8A
331
111C
  5
1947
331
10A5
  5
10AF
331
FDF
  5
FE1
331
D12
  5
D14
331
104E
  5
1050
331
D61
  5
D63
331
D1A
  5
D1C
331
FE7
  5
FEA
331
1076
  5
1078
331
FEF
  5
FF2
331
D22
  5
D24
331
EE0
  5
F08
331
10B5
  5
10FE
331
107E
  5
1080
331
22D2
  5
22DC
331
228B
  5
22B6
331
22DA
  5
22E4
331
2005
  5
221C
331
22AB
  5
22BA
331
22E2
  5
22EC
331
2214
  5
221E
331
221C
  5
2226
331
22EA
  5
23D7
331
1FC6
  5
2004
331
1B0
  5
1B0
331
256
  5
256
331
21F
  5
21F
331
1B8
  5
1B8
331
A2C
  5
A2E
331
B63
  5
B6B
331
A34
  5
A36
331
227
  5
227
331
1C0
  5
1C0
331
C6A
  5
C7F
331
CE1
  5
CE6
331
C7A
  5
C80
331
A3C
  5
A3E
331
22F
  5
22F
331
1C8
  5
1C8
331
266
  5
266
331
B6B
  5
B75
331
C82
  5
C84
331
26E
  5
270
331
A44
  5
A46
331
189
  5
189
331
D69
  5
D6B
331
D2A
  5
D30
331
CEB
  5
CED
331
F08
  5
F0B
331
FF7
  5
FFD
331
CF3
  5
CF8
331
1105
  5
1107
331
FFF
  5
1001
331
F58
  5
F5B
331
CFB
  5
CFD
331
108E
  5
1090
331
110D
  5
110F
331
D03
  5
D05
331
109E
  5
10A0
331
1047
  5
1049
331
1115
  5
1117
331
2224
  5
222E
331
22B3
  5
22BD
331
222C
  5
2236
331
22BB
  5
22C5
331
2234
  5
228A
331
22C3
  5
22CD
331
22CB
  5
22D5
331
191
  5
191
331
A4C
  5
A4E
331
276
  5
278
331
237
  5
237
331
199
  5
199
331
200
  5
200
331
A0D
  5
A0F
331
23F
  5
23F
331
208
  5
208
331
A15
  5
A17
331
CAA
  5
CAC
331
C3B
  5
C40
331
A1D
  5
A1F
331
247
  5
247
331
210
  5
210
331
1A9
  5
1A9
331
28E
  5
292
331
CB2
  5
CB4
331
A25
  5
A27
331
296
  5
298
331
24F
  5
24F
331
D89
  5
DC4
331
D52
  5
D56
331
D0B
  5
D0D
331
104F
  5
1051
331
D5A
  5
D5E
331
D13
  5
D15
331
FE0
  5
FE2
331
DC9
  5
EE1
331
D1B
  5
D1E
331
D62
  5
D64
331
10B6
  5
10FF
331
D23
  5
D25
331
EE1
  5
F0A
331
1077
  5
1079
331
107F
  5
1087
331
23F1
  5
2219
331
226C
  5
22B3
331
22D3
  5
22DD
331
1FA7
  5
1FF7
331
228C
  5
22B7
331
22DB
  5
22E5
331
22AC
  5
22BB
331
2215
  5
221F
331
22E3
  5
22ED
331
22EB
  5
23EA
331
221D
  5
2227
331
218
  5
218
331
1B1
  5
1B1
331
C4B
  5
C4D
331
220
  5
220
331
1B9
  5
1B9
331
257
  5
257
331
A2D
  5
A2F
331
25F
  5
25F
331
1C1
  5
1C1
331
228
  5
228
331
A35
  5
A37
331
267
  5
269
331
1C9
  5
1C9
331
A3D
  5
A3F
331
CE2
  5
CE7
331
A45
  5
A47
331
26F
  5
271
331
C83
  5
C85
331
18A
  5
18A
331
FF0
  5
FF3
331
D6A
  5
D6C
331
CEC
  5
CEF
331
D2B
  5
D31
331
10FE
  5
1101
331
1087
  5
108A
331
D33
  5
D47
331
FF8
  5
FFF
331
1106
  5
1108
331
1000
  5
1041
331
F59
  5
F5C
331
CFC
  5
CFE
331
108F
  5
1091
331
110E
  5
1110
331
D04
  5
D06
331
1116
  5
1118
331
109F
  5
10A1
331
2225
  5
222F
331
22B4
  5
22BE
331
222D
  5
2237
331
22BC
  5
22C6
331
2235
  5
228B
331
22C4
  5
22CE
331
22CC
  5
22D6
331
1FF7
  5
2005
331
230
  5
230
331
192
  5
192
331
1F9
  5
1F9
331
A4D
  5
A4F
331
A0E
  5
A10
331
238
  5
238
331
201
  5
201
331
19A
  5
19A
331
277
  5
279
331
B74
  5
B76
331
A16
  5
A18
331
209
  5
209
331
240
  5
240
331
CAB
  5
CAD
331
CB3
  5
CB5
331
248
  5
248
331
1AA
  5
1AA
331
211
  5
211
331
A1E
  5
A20
331
297
  5
299
331
A26
  5
A28
331
D0C
  5
D0E
331
D8A
  5
DC9
331
1048
  5
104A
331
1050
  5
1052
331
D14
  5
D16
331
D5B
  5
D5F
331
FE1
  5
FE3
331
10AF
  5
10B5
331
1070
  5
1072
331
D63
  5
D65
331
D1C
  5
D1F
331
FE9
  5
FEB
  0
IMAGEDEF
  5
A01
102
{ACAD_REACTORS
330
A00
102
}
330
A00
100
AcDbRasterImageDef
 90
        0
  1
D:\ﾃｽﾄ\rogo01.TIF
 10
3388.0
 20
4668.0
 11
0.0635
 21
0.0635
280
     1
281
     5
  0
LAYOUT
  5
1154
102
{ACAD_REACTORS
330
1152
102
}
330
1152
100
AcDbPlotSettings
  1

  2
A4 EPSON LP-6100.pc3
  4
A4
  6

 40
5.873749732971191
 41
5.873747825622558
 42
5.873748779296875
 43
5.873748779296875
 44
209.9733276367187
 45
297.0106506347656
 46
1.5
 47
25.0
 48
0.0
 49
0.0
140
0.0
141
0.0
142
1.0
143
1.0
 70
 28336
 72
     1
 73
     1
 74
     1
  7
AutoCAD LT 98.ctb
 75
    16
147
1.0
 76
     1
 77
     2
 78
   300
148
-255.8176900309641
149
-176.0635400423978
100
AcDbLayout
  1
Model
 70
     1
 71
     0
 10
0.0
 20
0.0
 11
12.0
 21
9.0
 12
0.0
 22
0.0
 32
0.0
 14
0.0
 24
0.0
 34
0.0
 15
0.0
 25
0.0
 35
0.0
146
0.0
 13
0.0
 23
0.0
 33
0.0
 16
1.0
 26
0.0
 36
0.0
 17
0.0
 27
1.0
 37
0.0
 76
     0
330
18
1001
ACAD_PSEXT
1000
A4 EPSON LP-6100.pc3
1000
EPSON LP-6100
1000
USB002
1000

1070
     0
  0
LAYOUT
  5
1155
102
{ACAD_REACTORS
330
1152
102
}
330
1152
100
AcDbPlotSettings
  1

  2
WIDR Printer
  4

  6

 40
0.0
 41
0.0
 42
0.0
 43
0.0
 44
0.0
 45
0.0
 46
0.0
 47
0.0
 48
0.0
 49
0.0
140
0.0
141
0.0
142
1.0
143
1.0
 70
   688
 72
     0
 73
     0
 74
     5
  7
AutoCad LT 98.ctb
 75
    16
147
1.0
 76
     0
 77
     2
 78
   300
148
0.0
149
0.0
100
AcDbLayout
  1
レイアウト1
 70
     1
 71
     1
 10
0.0
 20
0.0
 11
420.0
 21
297.0
 12
0.0
 22
0.0
 32
0.0
 14
1.000000000000000E+20
 24
1.000000000000000E+20
 34
1.000000000000000E+20
 15
-1.000000000000000E+20
 25
-1.000000000000000E+20
 35
-1.000000000000000E+20
146
0.0
 13
0.0
 23
0.0
 33
0.0
 16
1.0
 26
0.0
 36
0.0
 17
0.0
 27
1.0
 37
0.0
 76
     0
330
15
  0
MLINESTYLE
  5
1C
102
{ACAD_REACTORS
330
1B
102
}
330
1B
100
AcDbMlineStyle
  2
STANDARD
 70
     0
  3

 62
   256
 51
90.0
 52
90.0
 71
     2
 49
0.5
 62
   256
  6
BYLAYER
 49
-0.5
 62
   256
  6
BYLAYER
  0
ACDBPLACEHOLDER
  5
114D
102
{ACAD_REACTORS
330
114C
102
}
330
114C
  0
ACAD_PROXY_OBJECT
  5
1151
102
{ACAD_REACTORS
330
1150
102
}
330
1150
100
AcDbProxyObject
 90
      499
 91
      505
 95
  2555929
 70
     0
 93
     1849
310
4214DD185B99185C992420000000000000F83F0000000000003E0FC00000000000004901028000000C1008070000C3001FDFF8000000C1003FBFF000000182007F7FE00000030400FEFFC00000060801FDFF8000000C1003FBFF000000182000000000000000C2020B0000001820100E000186003FBFF000000182007F7FE0
310
0000030400FEFFC00000060801FDFF8000000C1003FBFF000000182007F7FE0000003040000000000000012404160000003040201C00030C007F7FE00000030400FEFFC00000060801FDFF8000000C1003FBFF000000182007F7FE00000030400FEFFC000000608000
340
F
340
F
340
F
 94
        0
  0
DICTIONARYVAR
  5
20C1
102
{ACAD_REACTORS
330
B79
102
}
330
B79
100
DictionaryVariables
280
     0
  1
STANDARD
  0
DICTIONARYVAR
  5
B7A
102
{ACAD_REACTORS
330
B79
102
}
330
B79
100
DictionaryVariables
280
     0
  1
96
  0
ENDSEC
  0
EOF
