  0
SECTION
  2
HEADER
  9
$ACADVER
  1
AC1018
  9
$ACADMAINTVER
 70
     0
  9
$DWGCODEPAGE
  3
ANSI_932
  9
$INSBASE
 10
0.0
 20
0.0
 30
0.0
  9
$EXTMIN
 10
255.8215948095151
 20
176.0662274606707
 30
-1.000045764259152
  9
$EXTMAX
 10
634.1642939472667
 20
459.392800328547
 30
0.0000457828865983
  9
$LIMMIN
 10
0.0
 20
0.0
  9
$LIMMAX
 10
420.0
 20
297.0
  9
$ORTHOMODE
 70
     0
  9
$REGENMODE
 70
     1
  9
$FILLMODE
 70
     1
  9
$QTEXTMODE
 70
     0
  9
$MIRRTEXT
 70
     1
  9
$LTSCALE
 40
1.0
  9
$ATTMODE
 70
     1
  9
$TEXTSIZE
 40
2.5
  9
$TRACEWID
 40
1.0
  9
$TEXTSTYLE
  7
STYLE3
  9
$CLAYER
  8
寸法線
  9
$CELTYPE
  6
BYLAYER
  9
$CECOLOR
 62
   256
  9
$CELTSCALE
 40
1.0
  9
$DISPSILH
 70
     0
  9
$DIMSCALE
 40
1.0
  9
$DIMASZ
 40
2.5
  9
$DIMEXO
 40
0.0
  9
$DIMDLI
 40
3.75
  9
$DIMRND
 40
0.0
  9
$DIMDLE
 40
0.0
  9
$DIMEXE
 40
1.25
  9
$DIMTP
 40
0.0
  9
$DIMTM
 40
0.0
  9
$DIMTXT
 40
2.5
  9
$DIMCEN
 40
2.5
  9
$DIMTSZ
 40
0.0
  9
$DIMTOL
 70
     0
  9
$DIMLIM
 70
     0
  9
$DIMTIH
 70
     0
  9
$DIMTOH
 70
     0
  9
$DIMSE1
 70
     0
  9
$DIMSE2
 70
     0
  9
$DIMTAD
 70
     1
  9
$DIMZIN
 70
     8
  9
$DIMBLK
  1

  9
$DIMASO
 70
     1
  9
$DIMSHO
 70
     1
  9
$DIMPOST
  1

  9
$DIMAPOST
  1

  9
$DIMALT
 70
     0
  9
$DIMALTD
 70
     4
  9
$DIMALTF
 40
0.0394
  9
$DIMLFAC
 40
1.0
  9
$DIMTOFL
 70
     1
  9
$DIMTVP
 40
0.0
  9
$DIMTIX
 70
     0
  9
$DIMSOXD
 70
     0
  9
$DIMSAH
 70
     1
  9
$DIMBLK1
  1
OPEN
  9
$DIMBLK2
  1
OPEN
  9
$DIMSTYLE
  2
STYLE3
  9
$DIMCLRD
 70
     2
  9
$DIMCLRE
 70
     2
  9
$DIMCLRT
 70
     6
  9
$DIMTFAC
 40
1.0
  9
$DIMGAP
 40
0.625
  9
$DIMJUST
 70
     0
  9
$DIMSD1
 70
     0
  9
$DIMSD2
 70
     0
  9
$DIMTOLJ
 70
     1
  9
$DIMTZIN
 70
     0
  9
$DIMALTZ
 70
     0
  9
$DIMALTTZ
 70
     0
  9
$DIMUPT
 70
     0
  9
$DIMDEC
 70
     2
  9
$DIMTDEC
 70
     4
  9
$DIMALTU
 70
     8
  9
$DIMALTTD
 70
     4
  9
$DIMTXSTY
  7
STYLE3
  9
$DIMAUNIT
 70
     0
  9
$DIMADEC
 70
     0
  9
$DIMALTRND
 40
0.0
  9
$DIMAZIN
 70
     0
  9
$DIMDSEP
 70
    46
  9
$DIMATFIT
 70
     3
  9
$DIMFRAC
 70
     0
  9
$DIMLDRBLK
  1

  9
$DIMLUNIT
 70
     2
  9
$DIMLWD
 70
    -2
  9
$DIMLWE
 70
    -2
  9
$DIMTMOVE
 70
     0
  9
$LUNITS
 70
     2
  9
$LUPREC
 70
     4
  9
$SKETCHINC
 40
1.0
  9
$FILLETRAD
 40
0.0
  9
$AUNITS
 70
     0
  9
$AUPREC
 70
     0
  9
$MENU
  1
.
  9
$ELEVATION
 40
0.0
  9
$PELEVATION
 40
0.0
  9
$THICKNESS
 40
0.0
  9
$LIMCHECK
 70
     0
  9
$CHAMFERA
 40
0.25
  9
$CHAMFERB
 40
0.25
  9
$CHAMFERC
 40
20.0
  9
$CHAMFERD
 40
0.0
  9
$SKPOLY
 70
     0
  9
$TDCREATE
 40
2450941.543760417
  9
$TDUCREATE
 40
2450941.168760417
  9
$TDUPDATE
 40
2455356.605450301
  9
$TDUUPDATE
 40
2455356.230450301
  9
$TDINDWG
 40
1.3407911343
  9
$TDUSRTIMER
 40
1.3407911343
  9
$USRTIMER
 70
     1
  9
$ANGBASE
 50
0.0
  9
$ANGDIR
 70
     0
  9
$PDMODE
 70
     0
  9
$PDSIZE
 40
0.0
  9
$PLINEWID
 40
0.0
  9
$SPLFRAME
 70
     0
  9
$SPLINETYPE
 70
     6
  9
$SPLINESEGS
 70
     8
  9
$HANDSEED
  5
1887
  9
$SURFTAB1
 70
     6
  9
$SURFTAB2
 70
     6
  9
$SURFTYPE
 70
     6
  9
$SURFU
 70
     6
  9
$SURFV
 70
     6
  9
$UCSBASE
  2

  9
$UCSNAME
  2

  9
$UCSORG
 10
0.0
 20
0.0
 30
0.0
  9
$UCSXDIR
 10
1.0
 20
0.0
 30
0.0
  9
$UCSYDIR
 10
0.0
 20
1.0
 30
0.0
  9
$UCSORTHOREF
  2

  9
$UCSORTHOVIEW
 70
     0
  9
$UCSORGTOP
 10
0.0
 20
0.0
 30
0.0
  9
$UCSORGBOTTOM
 10
0.0
 20
0.0
 30
0.0
  9
$UCSORGLEFT
 10
0.0
 20
0.0
 30
0.0
  9
$UCSORGRIGHT
 10
0.0
 20
0.0
 30
0.0
  9
$UCSORGFRONT
 10
0.0
 20
0.0
 30
0.0
  9
$UCSORGBACK
 10
0.0
 20
0.0
 30
0.0
  9
$PUCSBASE
  2

  9
$PUCSNAME
  2

  9
$PUCSORG
 10
0.0
 20
0.0
 30
0.0
  9
$PUCSXDIR
 10
1.0
 20
0.0
 30
0.0
  9
$PUCSYDIR
 10
0.0
 20
1.0
 30
0.0
  9
$PUCSORTHOREF
  2

  9
$PUCSORTHOVIEW
 70
     0
  9
$PUCSORGTOP
 10
0.0
 20
0.0
 30
0.0
  9
$PUCSORGBOTTOM
 10
0.0
 20
0.0
 30
0.0
  9
$PUCSORGLEFT
 10
0.0
 20
0.0
 30
0.0
  9
$PUCSORGRIGHT
 10
0.0
 20
0.0
 30
0.0
  9
$PUCSORGFRONT
 10
0.0
 20
0.0
 30
0.0
  9
$PUCSORGBACK
 10
0.0
 20
0.0
 30
0.0
  9
$USERI1
 70
     0
  9
$USERI2
 70
     0
  9
$USERI3
 70
     0
  9
$USERI4
 70
     0
  9
$USERI5
 70
     0
  9
$USERR1
 40
0.0
  9
$USERR2
 40
0.0
  9
$USERR3
 40
0.0
  9
$USERR4
 40
0.0
  9
$USERR5
 40
0.0
  9
$WORLDVIEW
 70
     1
  9
$SHADEDGE
 70
     3
  9
$SHADEDIF
 70
    70
  9
$TILEMODE
 70
     1
  9
$MAXACTVP
 70
    48
  9
$PINSBASE
 10
0.0
 20
0.0
 30
0.0
  9
$PLIMCHECK
 70
     0
  9
$PEXTMIN
 10
1.000000000000000E+20
 20
1.000000000000000E+20
 30
1.000000000000000E+20
  9
$PEXTMAX
 10
-1.000000000000000E+20
 20
-1.000000000000000E+20
 30
-1.000000000000000E+20
  9
$PLIMMIN
 10
0.0
 20
0.0
  9
$PLIMMAX
 10
420.0
 20
297.0
  9
$UNITMODE
 70
     0
  9
$VISRETAIN
 70
     1
  9
$PLINEGEN
 70
     0
  9
$PSLTSCALE
 70
     1
  9
$TREEDEPTH
 70
  3020
  9
$CMLSTYLE
  2
STANDARD
  9
$CMLJUST
 70
     0
  9
$CMLSCALE
 40
20.0
  9
$PROXYGRAPHICS
 70
     1
  9
$MEASUREMENT
 70
     1
  9
$CELWEIGHT
370
    -1
  9
$ENDCAPS
280
     0
  9
$JOINSTYLE
280
     0
  9
$LWDISPLAY
290
     0
  9
$INSUNITS
 70
     0
  9
$HYPERLINKBASE
  1

  9
$STYLESHEET
  1
AutoCAD LT 98.ctb
  9
$XEDIT
290
     1
  9
$CEPSNTYPE
380
     0
  9
$PSTYLEMODE
290
     1
  9
$FINGERPRINTGUID
  2
{51B6F33A-B589-4833-A281-8B1B1D4D4C56}
  9
$VERSIONGUID
  2
{9A32FE46-C25A-4499-A648-65EAA571E28D}
  9
$EXTNAMES
290
     1
  9
$PSVPSCALE
 40
0.0
  9
$OLESTARTUP
290
     0
  9
$SORTENTS
280
    96
  9
$INDEXCTL
280
     0
  9
$HIDETEXT
280
     0
  9
$XCLIPFRAME
290
     0
  9
$HALOGAP
280
     0
  9
$OBSCOLOR
 70
   257
  9
$OBSLTYPE
280
     0
  9
$INTERSECTIONDISPLAY
280
     0
  9
$INTERSECTIONCOLOR
 70
   257
  9
$DIMASSOC
280
     1
  9
$PROJECTNAME
  1

  0
ENDSEC
  0
SECTION
  2
CLASSES
  0
CLASS
  1
HATCH
  2
AcDbHatch
  3
ObjectDBX Classes
 90
        0
 91
       13
280
     0
281
     1
  0
CLASS
  1
LWPOLYLINE
  2
AcDbPolyline
  3
ObjectDBX Classes
 90
        0
 91
        1
280
     0
281
     1
  0
CLASS
  1
IMAGEDEF
  2
AcDbRasterImageDef
  3
ISM
 90
        0
 91
        1
280
     0
281
     0
  0
CLASS
  1
DICTIONARYVAR
  2
AcDbDictionaryVar
  3
ObjectDBX Classes
 90
        0
 91
        2
280
     0
281
     0
  0
CLASS
  1
ACDBDICTIONARYWDFLT
  2
AcDbDictionaryWithDefault
  3
ObjectDBX Classes
 90
        0
 91
        1
280
     0
281
     0
  0
CLASS
  1
TABLESTYLE
  2
AcDbTableStyle
  3
ObjectDBX Classes
 90
     2047
 91
        1
280
     0
281
     0
  0
CLASS
  1
SORTENTSTABLE
  2
AcDbSortentsTable
  3
ObjectDBX Classes
 90
        0
 91
        2
280
     0
281
     0
  0
ENDSEC
  0
SECTION
  2
TABLES
  0
TABLE
  2
VPORT
  5
8
330
0
100
AcDbSymbolTable
 70
     2
  0
VPORT
  5
1886
330
8
100
AcDbSymbolTableRecord
100
AcDbViewportTableRecord
  2
*Active
 70
     0
 10
0.0
 20
0.0
 11
1.0
 21
1.0
 12
444.9929443783909
 22
317.7295138946089
 13
0.0
 23
0.0
 14
10.0
 24
10.0
 15
10.0
 25
10.0
 16
0.0
 26
0.0
 36
1.0
 17
0.0
 27
0.0
 37
0.0
 40
285.4811475664915
 41
1.530456852791878
 42
50.0
 43
0.0
 44
0.0
 50
0.0
 51
0.0
 71
     0
 72
   100
 73
     1
 74
     1
 75
     0
 76
     0
 77
     0
 78
     0
281
     0
 65
     1
110
0.0
120
0.0
130
0.0
111
1.0
121
0.0
131
0.0
112
0.0
122
1.0
132
0.0
 79
     0
146
0.0
  0
ENDTAB
  0
TABLE
  2
LTYPE
  5
5
330
0
100
AcDbSymbolTable
 70
     7
  0
LTYPE
  5
12
330
5
100
AcDbSymbolTableRecord
100
AcDbLinetypeTableRecord
  2
BYBLOCK
 70
     0
  3

 72
    65
 73
     0
 40
0.0
  0
LTYPE
  5
13
330
5
100
AcDbSymbolTableRecord
100
AcDbLinetypeTableRecord
  2
BYLAYER
 70
     0
  3

 72
    65
 73
     0
 40
0.0
  0
LTYPE
  5
14
330
5
100
AcDbSymbolTableRecord
100
AcDbLinetypeTableRecord
  2
CONTINUOUS
 70
     0
  3
Solid line
 72
    65
 73
     0
 40
0.0
  0
LTYPE
  5
22
330
5
100
AcDbSymbolTableRecord
100
AcDbLinetypeTableRecord
  2
CENTER2
 70
     0
  3
Center (.5x) ___ _ ___ _ ___ _ ___ _ ___ _ ___
 72
    65
 73
     4
 40
28.575
 49
19.05
 74
     0
 49
-3.174999999999999
 74
     0
 49
3.174999999999999
 74
     0
 49
-3.174999999999999
 74
     0
  0
LTYPE
  5
24
330
5
100
AcDbSymbolTableRecord
100
AcDbLinetypeTableRecord
  2
PHANTOM2
 70
     0
  3
Phantom (.5x) ___ _ _ ___ _ _ ___ _ _ ___ _ _
 72
    65
 73
     6
 40
31.75
 49
15.875
 74
     0
 49
-3.174999999999999
 74
     0
 49
3.174999999999999
 74
     0
 49
-3.174999999999999
 74
     0
 49
3.174999999999999
 74
     0
 49
-3.174999999999999
 74
     0
  0
ENDTAB
  0
TABLE
  2
LAYER
  5
2
330
0
100
AcDbSymbolTable
 70
    19
  0
LAYER
  5
E
330
2
100
AcDbSymbolTableRecord
100
AcDbLayerTableRecord
  2
0
 70
     0
 62
     7
  6
CONTINUOUS
370
    -3
390
1412
  0
LAYER
  5
25
330
2
100
AcDbSymbolTableRecord
100
AcDbLayerTableRecord
  2
外形線
 70
     0
 62
     7
  6
CONTINUOUS
370
    -3
390
1412
  0
LAYER
  5
26
330
2
100
AcDbSymbolTableRecord
100
AcDbLayerTableRecord
  2
寸法線
 70
     0
 62
     2
  6
CONTINUOUS
370
    -3
390
1412
  0
LAYER
  5
27
330
2
100
AcDbSymbolTableRecord
100
AcDbLayerTableRecord
  2
中心線
 70
     0
 62
     4
  6
CENTER2
370
    -3
390
1412
  0
LAYER
  5
29
330
2
100
AcDbSymbolTableRecord
100
AcDbLayerTableRecord
  2
想像線
 70
     0
 62
     1
  6
PHANTOM2
370
    -3
390
1412
  0
LAYER
  5
2A
330
2
100
AcDbSymbolTableRecord
100
AcDbLayerTableRecord
  2
ﾊｯﾁﾝｸ
 70
     0
 62
     2
  6
CONTINUOUS
370
    -3
390
1412
  0
LAYER
  5
2B
330
2
100
AcDbSymbolTableRecord
100
AcDbLayerTableRecord
  2
文字
 70
     0
 62
     6
  6
CONTINUOUS
370
    -3
390
1412
  0
LAYER
  5
2C
330
2
100
AcDbSymbolTableRecord
100
AcDbLayerTableRecord
  2
目盛
 70
     0
 62
    72
  6
CONTINUOUS
370
    -3
390
1412
  0
LAYER
  5
2D
330
2
100
AcDbSymbolTableRecord
100
AcDbLayerTableRecord
  2
針
 70
     0
 62
     5
  6
CONTINUOUS
370
    -3
390
1412
  0
LAYER
  5
53
330
2
100
AcDbSymbolTableRecord
100
AcDbLayerTableRecord
  2
DEFPOINTS
 70
     0
 62
     7
  6
CONTINUOUS
290
     0
370
    -3
390
1412
  0
LAYER
  5
A5
330
2
100
AcDbSymbolTableRecord
100
AcDbLayerTableRecord
  2
C
 70
     0
 62
     7
  6
CONTINUOUS
370
    -3
390
1412
  0
LAYER
  5
9A8
330
2
100
AcDbSymbolTableRecord
100
AcDbLayerTableRecord
  2
ROGO
 70
     0
 62
     6
  6
CONTINUOUS
370
    -3
390
1412
  0
ENDTAB
  0
TABLE
  2
STYLE
  5
3
330
0
100
AcDbSymbolTable
 70
     4
  0
STYLE
  5
F
330
3
100
AcDbSymbolTableRecord
100
AcDbTextStyleTableRecord
  2
STANDARD
 70
     0
 40
0.0
 41
1.0
 50
0.0
 71
     0
 42
2.5
  3
txt
  4

  0
STYLE
  5
3F
330
3
100
AcDbSymbolTableRecord
100
AcDbTextStyleTableRecord
  2
STYLE3
 70
     0
 40
0.0
 41
1.0
 50
0.0
 71
     0
 42
2.5
  3
romans.shx
  4
bigfont.shx
  0
ENDTAB
  0
TABLE
  2
VIEW
  5
6
330
0
100
AcDbSymbolTable
 70
     0
  0
ENDTAB
  0
TABLE
  2
UCS
  5
7
330
0
100
AcDbSymbolTable
 70
     0
  0
ENDTAB
  0
TABLE
  2
APPID
  5
9
330
0
100
AcDbSymbolTable
 70
     2
  0
APPID
  5
10
330
9
100
AcDbSymbolTableRecord
100
AcDbRegAppTableRecord
  2
ACAD
 70
     0
  0
APPID
  5
1480
330
9
100
AcDbSymbolTableRecord
100
AcDbRegAppTableRecord
  2
ACAD_PSEXT
 70
     0
  0
ENDTAB
  0
TABLE
  2
DIMSTYLE
  5
A
330
0
100
AcDbSymbolTable
 70
     6
100
AcDbDimStyleTable
 71
     1
340
8F
  0
DIMSTYLE
105
1D
330
A
100
AcDbSymbolTableRecord
100
AcDbDimStyleTableRecord
  2
STANDARD
 70
     0
 41
2.5
 42
0.625
 43
3.75
 44
1.25
 73
     0
 74
     0
 77
     1
 78
     8
140
2.5
141
2.5
143
0.0394
147
0.625
171
     4
172
     1
273
     8
274
     4
277
     6
340
F
  0
DIMSTYLE
105
8F
102
{ACAD_REACTORS
330
1759
330
1767
330
1774
330
1781
102
}
330
A
100
AcDbSymbolTableRecord
100
AcDbDimStyleTableRecord
  2
STYLE3
 70
     0
 41
2.5
 42
0.0
 43
3.75
 44
1.25
 73
     0
 74
     0
 77
     1
 78
     8
140
2.5
141
2.5
143
0.0394
147
0.625
171
     4
172
     1
173
     1
176
     2
177
     2
178
     6
271
     1
273
     8
274
     4
340
3F
341
45
343
45
344
45
  0
ENDTAB
  0
TABLE
  2
BLOCK_RECORD
  5
1
330
0
100
AcDbSymbolTable
 70
     9
  0
BLOCK_RECORD
  5
18
102
{ACAD_XDICTIONARY
360
178F
102
}
330
1
100
AcDbSymbolTableRecord
100
AcDbBlockTableRecord
  2
*MODEL_SPACE
340
1419
  0
BLOCK_RECORD
  5
15
330
1
100
AcDbSymbolTableRecord
100
AcDbBlockTableRecord
  2
*PAPER_SPACE
340
141A
  0
BLOCK_RECORD
  5
45
330
1
100
AcDbSymbolTableRecord
100
AcDbBlockTableRecord
  2
_OPEN
340
0
102
{BLKREFS
331
F0B
331
1388
331
1389
331
1390
331
1391
331
1399
331
139A
331
13A2
331
13A3
331
13AB
331
13AC
331
13B6
331
13B7
331
13C0
331
13C1
331
13C9
331
13CA
331
13D6
331
13D7
331
13E5
331
13E6
331
13ED
331
13EE
331
175E
331
175F
331
17E0
331
17E1
331
1863
331
1864
331
186C
331
186D
331
1875
331
1876
102
}
  0
BLOCK_RECORD
  5
175A
330
1
100
AcDbSymbolTableRecord
100
AcDbBlockTableRecord
  2
*D1
340
0
  0
BLOCK_RECORD
  5
1768
330
1
100
AcDbSymbolTableRecord
100
AcDbBlockTableRecord
  2
*D2
340
0
  0
BLOCK_RECORD
  5
1775
330
1
100
AcDbSymbolTableRecord
100
AcDbBlockTableRecord
  2
*D3
340
0
  0
BLOCK_RECORD
  5
1782
330
1
100
AcDbSymbolTableRecord
100
AcDbBlockTableRecord
  2
*D4
340
0
  0
ENDTAB
  0
ENDSEC
  0
SECTION
  2
BLOCKS
  0
BLOCK
  5
19
330
18
100
AcDbEntity
  8
0
100
AcDbBlockBegin
  2
*MODEL_SPACE
 70
     0
 10
0.0
 20
0.0
 30
0.0
  3
*MODEL_SPACE
  1

  0
ENDBLK
  5
1A
330
18
100
AcDbEntity
  8
0
100
AcDbBlockEnd
  0
BLOCK
  5
16
330
15
100
AcDbEntity
 67
     1
  8
0
100
AcDbBlockBegin
  2
*PAPER_SPACE
 70
     0
 10
0.0
 20
0.0
 30
0.0
  3
*PAPER_SPACE
  1

  0
ENDBLK
  5
17
330
15
100
AcDbEntity
 67
     1
  8
0
100
AcDbBlockEnd
  0
BLOCK
  5
46
330
45
100
AcDbEntity
  8
0
100
AcDbBlockBegin
  2
_OPEN
 70
     0
 10
0.0
 20
0.0
 30
0.0
  3
_OPEN
  1

  0
LINE
  5
47
330
45
100
AcDbEntity
  8
0
  6
ByBlock
 62
     0
100
AcDbLine
 10
-1.0
 20
0.1666666666666666
 30
0.0
 11
0.0
 21
0.0
 31
0.0
  0
LINE
  5
48
330
45
100
AcDbEntity
  8
0
  6
ByBlock
 62
     0
100
AcDbLine
 10
0.0
 20
0.0
 30
0.0
 11
-1.0
 21
-0.1666666666666666
 31
0.0
  0
LINE
  5
49
330
45
100
AcDbEntity
  8
0
  6
ByBlock
 62
     0
100
AcDbLine
 10
0.0
 20
0.0
 30
0.0
 11
-1.0
 21
0.0
 31
0.0
  0
ENDBLK
  5
4A
330
45
100
AcDbEntity
  8
0
100
AcDbBlockEnd
  0
BLOCK
  5
1764
330
175A
100
AcDbEntity
  8
0
100
AcDbBlockBegin
  2
*D1
 70
     1
 10
0.0
 20
0.0
 30
0.0
  3
*D1
  1

  0
LINE
  5
175B
330
175A
100
AcDbEntity
  8
寸法線
 62
     2
370
    -2
100
AcDbLine
 10
525.4083621178298
 20
210.881031397256
 30
0.0
 11
512.0588485879038
 21
210.881031397256
 31
0.0
  0
LINE
  5
175C
330
175A
100
AcDbEntity
  8
寸法線
 62
     2
370
    -2
100
AcDbLine
 10
522.6583621178299
 20
219.881031397256
 30
0.0
 11
512.0588485879038
 21
219.881031397256
 31
0.0
  0
LINE
  5
175D
330
175A
100
AcDbEntity
  8
寸法線
 62
     2
370
    -2
100
AcDbLine
 10
513.3088485879039
 20
213.381031397256
 30
0.0
 11
513.3088485879039
 21
217.381031397256
 31
0.0
  0
INSERT
  5
175E
330
175A
100
AcDbEntity
  8
寸法線
 62
     2
370
    -2
100
AcDbBlockReference
  2
_OPEN
 10
513.3088485879039
 20
210.881031397256
 30
0.0
 41
2.5
 42
2.5
 43
2.5
 50
270.0
  0
INSERT
  5
175F
330
175A
100
AcDbEntity
  8
寸法線
 62
     2
370
    -2
100
AcDbBlockReference
  2
_OPEN
 10
513.3088485879039
 20
219.881031397256
 30
0.0
 41
2.5
 42
2.5
 43
2.5
 50
90.0
  0
MTEXT
  5
1760
330
175A
100
AcDbEntity
  8
寸法線
 62
     6
100
AcDbMText
 10
511.4338485879038
 20
215.3810313972561
 30
0.0
 40
2.5
 41
0.0
 71
     5
 72
     1
  1
\A1;9
  7
STYLE3
 11
0.0000000000000001
 21
1.0
 31
0.0
 73
     1
 44
1.0
  0
POINT
  5
1761
330
175A
100
AcDbEntity
  8
DEFPOINTS
 62
     0
100
AcDbPoint
 10
525.4083621178298
 20
210.881031397256
 30
0.0
  0
POINT
  5
1762
330
175A
100
AcDbEntity
  8
DEFPOINTS
 62
     0
100
AcDbPoint
 10
522.6583621178299
 20
219.881031397256
 30
0.0
  0
POINT
  5
1763
330
175A
100
AcDbEntity
  8
DEFPOINTS
 62
     0
100
AcDbPoint
 10
513.3088485879039
 20
219.881031397256
 30
0.0
  0
ENDBLK
  5
1765
330
175A
100
AcDbEntity
  8
0
100
AcDbBlockEnd
  0
BLOCK
  5
1772
330
1768
100
AcDbEntity
  8
0
100
AcDbBlockBegin
  2
*D2
 70
     1
 10
0.0
 20
0.0
 30
0.0
  3
*D2
  1

  0
LINE
  5
1869
330
1768
100
AcDbEntity
  8
寸法線
 62
     2
370
    -2
100
AcDbLine
 10
374.4368653896763
 20
210.881031397256
 30
0.0
 11
321.0865214231504
 21
210.881031397256
 31
0.0
  0
LINE
  5
186A
330
1768
100
AcDbEntity
  8
寸法線
 62
     2
370
    -2
100
AcDbLine
 10
330.1803461390268
 20
338.881031397256
 30
0.0
 11
321.0865214231504
 21
338.881031397256
 31
0.0
  0
LINE
  5
186B
330
1768
100
AcDbEntity
  8
寸法線
 62
     2
370
    -2
100
AcDbLine
 10
322.3365214231504
 20
213.381031397256
 30
0.0
 11
322.3365214231504
 21
336.381031397256
 31
0.0
  0
INSERT
  5
186C
330
1768
100
AcDbEntity
  8
寸法線
 62
     2
370
    -2
100
AcDbBlockReference
  2
_OPEN
 10
322.3365214231504
 20
210.881031397256
 30
0.0
 41
2.5
 42
2.5
 43
2.5
 50
270.0
  0
INSERT
  5
186D
330
1768
100
AcDbEntity
  8
寸法線
 62
     2
370
    -2
100
AcDbBlockReference
  2
_OPEN
 10
322.3365214231504
 20
338.881031397256
 30
0.0
 41
2.5
 42
2.5
 43
2.5
 50
90.0
  0
MTEXT
  5
186E
330
1768
100
AcDbEntity
  8
寸法線
 62
     6
100
AcDbMText
 10
320.4615214231504
 20
274.8810313972561
 30
0.0
 40
2.5
 41
0.0
 71
     5
 72
     1
  1
\A1;128
  7
STYLE3
 11
0.0000000000000001
 21
1.0
 31
0.0
 73
     1
 44
1.0
  0
POINT
  5
186F
330
1768
100
AcDbEntity
  8
DEFPOINTS
 62
     0
100
AcDbPoint
 10
374.4368653896763
 20
210.881031397256
 30
0.0
  0
POINT
  5
1870
330
1768
100
AcDbEntity
  8
DEFPOINTS
 62
     0
100
AcDbPoint
 10
330.1803461390268
 20
338.881031397256
 30
0.0
  0
POINT
  5
1871
330
1768
100
AcDbEntity
  8
DEFPOINTS
 62
     0
100
AcDbPoint
 10
322.3365214231504
 20
338.881031397256
 30
0.0
  0
ENDBLK
  5
1773
330
1768
100
AcDbEntity
  8
0
100
AcDbBlockEnd
  0
BLOCK
  5
177F
330
1775
100
AcDbEntity
  8
0
100
AcDbBlockBegin
  2
*D3
 70
     1
 10
0.0
 20
0.0
 30
0.0
  3
*D3
  1

  0
LINE
  5
1860
330
1775
100
AcDbEntity
  8
寸法線
 62
     2
370
    -2
100
AcDbLine
 10
330.1803461390268
 20
338.881031397256
 30
0.0
 11
321.0865214231504
 21
338.881031397256
 31
0.0
  0
LINE
  5
1861
330
1775
100
AcDbEntity
  8
寸法線
 62
     2
370
    -2
100
AcDbLine
 10
374.4368653896763
 20
420.3810313972559
 30
0.0
 11
321.0865214231505
 21
420.3810313972559
 31
0.0
  0
LINE
  5
1862
330
1775
100
AcDbEntity
  8
寸法線
 62
     2
370
    -2
100
AcDbLine
 10
322.3365214231504
 20
341.3810313972561
 30
0.0
 11
322.3365214231505
 21
417.881031397256
 31
0.0
  0
INSERT
  5
1863
330
1775
100
AcDbEntity
  8
寸法線
 62
     2
370
    -2
100
AcDbBlockReference
  2
_OPEN
 10
322.3365214231504
 20
338.881031397256
 30
0.0
 41
2.5
 42
2.5
 43
2.5
 50
270.0
  0
INSERT
  5
1864
330
1775
100
AcDbEntity
  8
寸法線
 62
     2
370
    -2
100
AcDbBlockReference
  2
_OPEN
 10
322.3365214231505
 20
420.3810313972559
 30
0.0
 41
2.5
 42
2.5
 43
2.5
 50
90.0
  0
MTEXT
  5
1865
330
1775
100
AcDbEntity
  8
寸法線
 62
     6
100
AcDbMText
 10
320.4615214231504
 20
379.631031397256
 30
0.0
 40
2.5
 41
0.0
 71
     5
 72
     1
  1
\A1;81.5
  7
STYLE3
 11
0.0000000000000001
 21
1.0
 31
0.0
 73
     1
 44
1.0
  0
POINT
  5
1866
330
1775
100
AcDbEntity
  8
DEFPOINTS
 62
     0
100
AcDbPoint
 10
330.1803461390268
 20
338.881031397256
 30
0.0
  0
POINT
  5
1867
330
1775
100
AcDbEntity
  8
DEFPOINTS
 62
     0
100
AcDbPoint
 10
374.4368653896763
 20
420.3810313972559
 30
0.0
  0
POINT
  5
1868
330
1775
100
AcDbEntity
  8
DEFPOINTS
 62
     0
100
AcDbPoint
 10
322.3365214231505
 20
420.3810313972559
 30
0.0
  0
ENDBLK
  5
1780
330
1775
100
AcDbEntity
  8
0
100
AcDbBlockEnd
  0
BLOCK
  5
178C
330
1782
100
AcDbEntity
  8
0
100
AcDbBlockBegin
  2
*D4
 70
     1
 10
0.0
 20
0.0
 30
0.0
  3
*D4
  1

  0
LINE
  5
1872
330
1782
100
AcDbEntity
  8
寸法線
 62
     2
370
    -2
100
AcDbLine
 10
321.0865214231504
 20
210.881031397256
 30
0.0
 11
310.506031816216
 21
210.881031397256
 31
0.0
  0
LINE
  5
1873
330
1782
100
AcDbEntity
  8
寸法線
 62
     2
370
    -2
100
AcDbLine
 10
321.0865214231505
 20
420.3810313972559
 30
0.0
 11
310.506031816216
 21
420.3810313972559
 31
0.0
  0
LINE
  5
1874
330
1782
100
AcDbEntity
  8
寸法線
 62
     2
370
    -2
100
AcDbLine
 10
311.756031816216
 20
213.381031397256
 30
0.0
 11
311.756031816216
 21
417.881031397256
 31
0.0
  0
INSERT
  5
1875
330
1782
100
AcDbEntity
  8
寸法線
 62
     2
370
    -2
100
AcDbBlockReference
  2
_OPEN
 10
311.756031816216
 20
210.881031397256
 30
0.0
 41
2.5
 42
2.5
 43
2.5
 50
270.0
  0
INSERT
  5
1876
330
1782
100
AcDbEntity
  8
寸法線
 62
     2
370
    -2
100
AcDbBlockReference
  2
_OPEN
 10
311.756031816216
 20
420.3810313972559
 30
0.0
 41
2.5
 42
2.5
 43
2.5
 50
90.0
  0
MTEXT
  5
1877
330
1782
100
AcDbEntity
  8
寸法線
 62
     6
100
AcDbMText
 10
309.8810318162159
 20
315.631031397256
 30
0.0
 40
2.5
 41
0.0
 71
     5
 72
     1
  1
\A1;209.5
  7
STYLE3
 11
0.0000000000000001
 21
1.0
 31
0.0
 73
     1
 44
1.0
  0
POINT
  5
1878
330
1782
100
AcDbEntity
  8
DEFPOINTS
 62
     0
100
AcDbPoint
 10
321.0865214231504
 20
210.881031397256
 30
0.0
  0
POINT
  5
1879
330
1782
100
AcDbEntity
  8
DEFPOINTS
 62
     0
100
AcDbPoint
 10
321.0865214231505
 20
420.3810313972559
 30
0.0
  0
POINT
  5
187A
330
1782
100
AcDbEntity
  8
DEFPOINTS
 62
     0
100
AcDbPoint
 10
311.756031816216
 20
420.3810313972559
 30
0.0
  0
ENDBLK
  5
178D
330
1782
100
AcDbEntity
  8
0
100
AcDbBlockEnd
  0
ENDSEC
  0
SECTION
  2
ENTITIES
  0
LWPOLYLINE
  5
1A0
330
18
100
AcDbEntity
  8
C
100
AcDbPolyline
 90
        5
 70
     0
 43
0.8
 10
256.2352605185929
 20
458.9717683211813
 10
633.7352605185929
 20
458.9717683211813
 10
633.7352605185929
 20
176.4717683211813
 10
256.2352605185929
 20
176.4717683211813
 10
256.2352605185929
 20
458.9717683211813
  0
LINE
  5
1F9
330
18
100
AcDbEntity
  8
目盛
100
AcDbLine
 10
374.4368653896763
 20
375.381031397256
 30
0.0
 11
374.4368653896763
 21
370.881031397256
 31
0.0
  0
CIRCLE
  5
25F
330
18
100
AcDbEntity
  8
外形線
100
AcDbCircle
 10
374.4368653896763
 20
338.881031397256
 30
0.0
 40
20.0
  0
LINE
  5
265
330
18
100
AcDbEntity
  8
中心線
 48
0.5
100
AcDbLine
 10
330.1803461390268
 20
338.881031397256
 30
0.0
 11
418.8182208948567
 21
338.881031397256
 31
0.0
  0
LINE
  5
266
330
18
100
AcDbEntity
  8
中心線
 48
0.5
100
AcDbLine
 10
374.4368653896763
 20
423.2099306066041
 30
0.0
 11
374.4368653896764
 21
207.1623360299924
 31
0.0
  0
TEXT
  5
267
330
18
100
AcDbEntity
  8
文字
100
AcDbText
 10
372.1458540843753
 20
364.8649715437368
 30
0.0
 40
5.0
  1
0
  7
STYLE3
100
AcDbText
  0
TEXT
  5
268
330
18
100
AcDbEntity
  8
文字
100
AcDbText
 10
390.0252437963675
 20
358.8732663630126
 30
0.0
 40
5.0
  1
1
  7
STYLE3
100
AcDbText
  0
TEXT
  5
269
330
18
100
AcDbEntity
  8
文字
100
AcDbText
 10
399.5322840683138
 20
345.1383179689474
 30
0.0
 40
5.0
  1
2
  7
STYLE3
100
AcDbText
  0
TEXT
  5
26A
330
18
100
AcDbEntity
  8
文字
100
AcDbText
 10
399.5425895587093
 20
328.1077658130354
 30
0.0
 40
5.0
  1
3
  7
STYLE3
100
AcDbText
  0
TEXT
  5
26B
330
18
100
AcDbEntity
  8
文字
100
AcDbText
 10
389.1262928984547
 20
313.3964214897507
 30
0.0
 40
5.0
  1
4
  7
STYLE3
100
AcDbText
  0
TEXT
  5
26C
330
18
100
AcDbEntity
  8
文字
100
AcDbText
 10
372.265677319436
 20
307.6753794476883
 30
0.0
 40
5.0
  1
5
  7
STYLE3
100
AcDbText
  0
TEXT
  5
26D
330
18
100
AcDbEntity
  8
文字
100
AcDbText
 10
354.7805011147959
 20
313.5021697613395
 30
0.0
 40
5.0
  1
6
  7
STYLE3
100
AcDbText
  0
TEXT
  5
26E
330
18
100
AcDbEntity
  8
文字
100
AcDbText
 10
344.1048448501056
 20
327.659515318226
 30
0.0
 40
5.0
  1
7
  7
STYLE3
100
AcDbText
  0
TEXT
  5
26F
330
18
100
AcDbEntity
  8
文字
100
AcDbText
 10
344.5854823671286
 20
345.8645680227344
 30
0.0
 40
5.0
  1
8
  7
STYLE3
100
AcDbText
  0
TEXT
  5
270
330
18
100
AcDbEntity
  8
文字
100
AcDbText
 10
355.3828788923518
 20
358.898104693109
 30
0.0
 40
5.0
  1
9
  7
STYLE3
100
AcDbText
  0
TEXT
  5
271
330
18
100
AcDbEntity
  8
文字
100
AcDbText
 10
373.0521801307834
 20
360.3324696882836
 30
0.0
 40
3.0
  1
0
  7
STYLE3
100
AcDbText
  0
TEXT
  5
272
330
18
100
AcDbEntity
  8
文字
100
AcDbText
 10
388.7318164775202
 20
354.2639502754142
 30
0.0
 40
3.0
  1
9
  7
STYLE3
100
AcDbText
  0
TEXT
  5
273
330
18
100
AcDbEntity
  8
文字
100
AcDbText
 10
394.9925894762532
 20
344.7675748735463
 30
0.0
 40
3.0
  1
8
  7
STYLE3
100
AcDbText
  0
TEXT
  5
274
330
18
100
AcDbEntity
  8
文字
100
AcDbText
 10
394.9111886383971
 20
329.7999677101839
 30
0.0
 40
3.0
  1
7
  7
STYLE3
100
AcDbText
  0
TEXT
  5
275
330
18
100
AcDbEntity
  8
文字
100
AcDbText
 10
388.339493354086
 20
320.109276840995
 30
0.0
 40
3.0
  1
6
  7
STYLE3
100
AcDbText
  0
TEXT
  5
276
330
18
100
AcDbEntity
  8
文字
100
AcDbText
 10
373.0366456701015
 20
314.1123817752745
 30
0.0
 40
3.0
  1
5
  7
STYLE3
100
AcDbText
  0
TEXT
  5
277
330
18
100
AcDbEntity
  8
文字
100
AcDbText
 10
357.7448208210396
 20
320.1914737625604
 30
0.0
 40
3.0
  1
4
  7
STYLE3
100
AcDbText
  0
TEXT
  5
278
330
18
100
AcDbEntity
  8
文字
100
AcDbText
 10
350.44964481388
 20
331.7677847216583
 30
0.0
 40
3.0
  1
3
  7
STYLE3
100
AcDbText
  0
TEXT
  5
279
330
18
100
AcDbEntity
  8
文字
100
AcDbText
 10
351.3397416806283
 20
346.1651845488131
 30
0.0
 40
3.0
  1
2
  7
STYLE3
100
AcDbText
  0
TEXT
  5
27A
330
18
100
AcDbEntity
  8
文字
100
AcDbText
 10
359.4451609794812
 20
355.746944238508
 30
0.0
 40
3.0
  1
1
  7
STYLE3
100
AcDbText
  0
TEXT
  5
28D
330
18
100
AcDbEntity
  8
文字
100
AcDbText
 10
368.8516573855149
 20
346.8916537438071
 30
0.0
 40
1.0
  1
MADE IN JAPAN
  7
STYLE3
100
AcDbText
  0
TEXT
  5
28E
330
18
100
AcDbEntity
  8
文字
100
AcDbText
 10
370.0293712227432
 20
326.9610084123734
 30
0.0
 40
1.5
  1
NO.509
  7
STYLE3
100
AcDbText
  0
TEXT
  5
291
330
18
100
AcDbEntity
  8
文字
 48
0.8
100
AcDbText
 10
374.466191073079
 20
319.8838186499449
 30
0.0
 40
1.0
  1
S
  7
STYLE3
100
AcDbText
  0
TEXT
  5
292
330
18
100
AcDbEntity
  8
文字
 48
0.8
100
AcDbText
 10
375.349158960267
 20
319.9269989542577
 30
0.0
 40
1.0
  1
H
 50
1.589821613340259
  7
STYLE3
100
AcDbText
  0
TEXT
  5
293
330
18
100
AcDbEntity
  8
文字
 48
0.8
100
AcDbText
 10
376.3010174223304
 20
320.0122115213671
 30
0.0
 40
1.0
  1
O
 50
1.760930144340787
  7
STYLE3
100
AcDbText
  0
TEXT
  5
294
330
18
100
AcDbEntity
  8
文字
 48
0.8
100
AcDbText
 10
377.3232800956233
 20
320.1480137883798
 30
0.0
 40
1.0
  1
C
 50
5.687207778684769
  7
STYLE3
100
AcDbText
  0
TEXT
  5
295
330
18
100
AcDbEntity
  8
文字
 48
0.8
100
AcDbText
 10
378.3500723970921
 20
320.3207652925407
 30
0.0
 40
1.0
  1
K
 50
11.14538657471254
  7
STYLE3
100
AcDbText
  0
TEXT
  5
296
330
18
100
AcDbEntity
  8
文字
 48
0.8
100
AcDbText
 10
379.9211888994363
 20
320.6839217700659
 30
0.0
 40
1.0
  1
P
 50
19.34305795370363
  7
STYLE3
100
AcDbText
  0
TEXT
  5
297
330
18
100
AcDbEntity
  8
文字
 48
0.8
100
AcDbText
 10
380.7895333644438
 20
320.9743028469816
 30
0.0
 40
1.0
  1
R
 50
22.16451187461931
  7
STYLE3
100
AcDbText
  0
TEXT
  5
298
330
18
100
AcDbEntity
  8
文字
 48
0.8
100
AcDbText
 10
381.6856934203784
 20
321.3263354109526
 30
0.0
 40
1.0
  1
O
 50
23.84030259223506
  7
STYLE3
100
AcDbText
  0
TEXT
  5
299
330
18
100
AcDbEntity
  8
文字
 48
0.8
100
AcDbText
 10
382.6432947055118
 20
321.7722169891881
 30
0.0
 40
1.0
  1
O
 50
23.75208292168742
  7
STYLE3
100
AcDbText
  0
TEXT
  5
29A
330
18
100
AcDbEntity
  8
文字
 48
0.8
100
AcDbText
 10
383.6724495501841
 20
322.2801201384317
 30
0.0
 40
1.0
  1
F
 50
31.39407441758311
  7
STYLE3
100
AcDbText
  0
MTEXT
  5
A07
330
18
100
AcDbEntity
  8
DEFPOINTS
  6
Continuous
100
AcDbMText
 10
633.6031323468467
 20
266.6404775199116
 30
0.0
 40
0.3345202420831857
 41
0.0
 71
     4
 72
     1
  1
\A1;
 73
     1
 44
1.0
  0
LINE
  5
A08
102
{ACAD_REACTORS
330
A44
102
}
330
18
100
AcDbEntity
  8
ROGO
 62
     4
100
AcDbLine
 10
367.7995725041445
 20
350.9520303685512
 30
0.0
 11
369.3407534356259
 21
350.9520303685512
 31
0.0
  0
LINE
  5
A09
102
{ACAD_REACTORS
330
A44
330
A52
102
}
330
18
100
AcDbEntity
  8
ROGO
 62
     4
100
AcDbLine
 10
366.8292243428676
 20
348.9909018318309
 30
0.0
 11
380.1041127477279
 21
348.9909018318309
 31
0.0
  0
LINE
  5
A0A
102
{ACAD_REACTORS
330
A44
102
}
330
18
100
AcDbEntity
  8
ROGO
 62
     4
100
AcDbLine
 10
367.7995725041445
 20
350.9520303685512
 30
0.0
 11
366.8292243428676
 21
348.9909018318308
 31
0.0
  0
SPLINE
  5
A0B
102
{ACAD_REACTORS
330
A44
102
}
330
18
100
AcDbEntity
  8
ROGO
 62
     4
100
AcDbSpline
210
0.0
220
0.0
230
1.0
 70
     8
 71
     3
 72
    18
 73
    14
 74
     0
 42
0.0000000001
 43
0.0000000001
 40
0.1087402787915014
 40
0.1087402787915014
 40
0.1087402787915014
 40
0.1087402787915014
 40
0.5992371417938475
 40
1.083176791562496
 40
1.448211145705696
 40
1.714037220764907
 40
2.164002567013297
 40
2.740236056362883
 40
3.395137510199602
 40
4.071816045172726
 40
4.784906178399433
 40
5.506895915094292
 40
6.060470601257719
 40
6.060470601257719
 40
6.060470601257719
 40
6.060470601257719
 10
369.3407534356259
 20
350.9520303685512
 30
0.0
 10
369.3901281814429
 20
350.9339353516173
 30
0.0
 10
369.4872231097505
 20
350.8956797206105
 30
0.0
 10
369.6057247412076
 20
350.8083677297926
 30
0.0
 10
369.6703504142374
 20
350.7075731707364
 30
0.0
 10
369.7325130764852
 20
350.6082581802502
 30
0.0
 10
369.741212627593
 20
350.4657740293497
 30
0.0
 10
369.7269621751491
 20
350.2856395282728
 30
0.0
 10
369.6349625415843
 20
350.0976877651618
 30
0.0
 10
369.4872977187762
 20
349.9332977983577
 30
0.0
 10
369.3039615363891
 20
349.8017222128317
 30
0.0
 10
369.1106272082142
 20
349.6984387664757
 30
0.0
 10
368.9724317760872
 20
349.6974096669366
 30
0.0
 10
368.912457154972
 20
349.6969630540929
 30
0.0
  0
LINE
  5
A0C
102
{ACAD_REACTORS
330
A44
102
}
330
18
100
AcDbEntity
  8
ROGO
 62
     4
100
AcDbLine
 10
368.9124571552675
 20
349.6969630540929
 30
0.0
 11
368.0602828300797
 21
349.6969630540929
 31
0.0
  0
LINE
  5
A0D
102
{ACAD_REACTORS
330
A44
102
}
330
18
100
AcDbEntity
  8
ROGO
 62
     4
100
AcDbLine
 10
368.4085301472542
 20
350.4666922380706
 30
0.0
 11
368.2575202584367
 21
350.1329158878747
 31
0.0
  0
SPLINE
  5
A0E
102
{ACAD_REACTORS
330
A44
102
}
330
18
100
AcDbEntity
  8
ROGO
 62
     4
100
AcDbSpline
210
0.0
220
0.0
230
1.0
 70
     8
 71
     3
 72
    15
 73
    11
 74
     9
 42
0.0000000001
 43
0.0000000001
 44
0.0000000001
 40
0.0
 40
0.0
 40
0.0
 40
0.0
 40
0.1471607140274935
 40
0.214257905200307
 40
0.2904176839764258
 40
0.3423012663026718
 40
0.4243556898605493
 40
0.473504048093946
 40
0.5578265253903569
 40
0.5859340357617473
 40
0.5859340357617473
 40
0.5859340357617473
 40
0.5859340357617473
 10
368.7965612021705
 20
350.4666922380705
 30
0.0
 10
368.8518319125798
 20
350.4669454074269
 30
0.0
 10
368.9323030268272
 20
350.4673140080844
 30
0.0
 10
368.9763074981552
 20
350.3677710070466
 30
0.0
 10
368.9565825959655
 20
350.3036808428968
 30
0.0
 10
368.9317867863077
 20
350.2378802197752
 30
0.0
 10
368.8879669747623
 20
350.1931677039498
 30
0.0
 10
368.8291543692522
 20
350.1501020137206
 30
0.0
 10
368.7735736465129
 20
350.1448887190795
 30
0.0
 10
368.7374246255175
 20
350.1353104550326
 30
0.0
 10
368.7283873659428
 20
350.1329158878747
 30
0.0
 11
368.7965612021705
 21
350.4666922380705
 31
0.0
 11
368.9397263758526
 21
350.4326333361853
 31
0.0
 11
368.9669959887463
 21
350.3713275348618
 31
0.0
 11
368.953361378306
 21
350.2963981727841
 31
0.0
 11
368.9329092666391
 21
350.2487157101446
 31
0.0
 11
368.8783700408515
 21
350.1874099088211
 31
0.0
 11
368.8374658175176
 21
350.1601627873129
 31
0.0
 11
368.7556569788364
 21
350.1397276682518
 31
0.0
 11
368.7283873659428
 21
350.1329158878747
 31
0.0
  0
LINE
  5
A0F
102
{ACAD_REACTORS
330
A44
102
}
330
18
100
AcDbEntity
  8
ROGO
 62
     4
100
AcDbLine
 10
368.7965612021705
 20
350.4666922380706
 30
0.0
 11
368.4085301472542
 21
350.4666922380706
 31
0.0
  0
LINE
  5
A10
102
{ACAD_REACTORS
330
A44
102
}
330
18
100
AcDbEntity
  8
ROGO
 62
     4
100
AcDbLine
 10
368.7283873659428
 20
350.1329158878747
 30
0.0
 11
368.2575202584367
 21
350.1329158878747
 31
0.0
  0
LINE
  5
A11
102
{ACAD_REACTORS
330
A44
102
}
330
18
100
AcDbEntity
  8
ROGO
 62
     4
100
AcDbLine
 10
368.0602828300797
 20
349.6969630540929
 30
0.0
 11
367.7408407048077
 21
348.9909018318309
 31
0.0
  0
LINE
  5
A12
102
{ACAD_REACTORS
330
A40
102
}
330
18
100
AcDbEntity
  8
ROGO
 62
     4
100
AcDbLine
 10
370.2512448894013
 20
350.9520303685512
 30
0.0
 11
369.6302492544595
 21
349.6969630540929
 31
0.0
  0
LINE
  5
A13
102
{ACAD_REACTORS
330
A40
102
}
330
18
100
AcDbEntity
  8
ROGO
 62
     4
100
AcDbLine
 10
371.9487756459462
 20
350.9520303685512
 30
0.0
 11
371.8065240711251
 21
350.6645318871731
 31
0.0
  0
LINE
  5
A14
102
{ACAD_REACTORS
330
A40
102
}
330
18
100
AcDbEntity
  8
ROGO
 62
     4
100
AcDbLine
 10
369.6302492544594
 20
349.6969630540929
 30
0.0
 11
371.3277800110043
 21
349.6969630540929
 31
0.0
  0
LINE
  5
A15
102
{ACAD_REACTORS
330
A40
102
}
330
18
100
AcDbEntity
  8
ROGO
 62
     4
100
AcDbLine
 10
370.9143448011354
 20
350.6645318871731
 30
0.0
 11
370.8031217466191
 21
350.4397438009402
 31
0.0
  0
LINE
  5
A16
102
{ACAD_REACTORS
330
A40
102
}
330
18
100
AcDbEntity
  8
ROGO
 62
     4
100
AcDbLine
 10
370.9143448011354
 20
350.6645318871731
 30
0.0
 11
371.8065240711251
 21
350.6645318871731
 31
0.0
  0
LINE
  5
A17
102
{ACAD_REACTORS
330
A40
102
}
330
18
100
AcDbEntity
  8
ROGO
 62
     4
100
AcDbLine
 10
370.8031217466191
 20
350.4397438009402
 30
0.0
 11
371.6953010166088
 21
350.4397438009402
 31
0.0
  0
LINE
  5
A18
102
{ACAD_REACTORS
330
A40
102
}
330
18
100
AcDbEntity
  8
ROGO
 62
     4
100
AcDbLine
 10
370.5778451604231
 20
349.9844470739772
 30
0.0
 11
371.4700244304128
 21
349.9844470739772
 31
0.0
  0
LINE
  5
A19
102
{ACAD_REACTORS
330
A40
102
}
330
18
100
AcDbEntity
  8
ROGO
 62
     4
100
AcDbLine
 10
370.6890729235888
 20
350.2092446766571
 30
0.0
 11
371.5812521935785
 21
350.2092446766571
 31
0.0
  0
LINE
  5
A1A
102
{ACAD_REACTORS
330
A40
102
}
330
18
100
AcDbEntity
  8
ROGO
 62
     4
100
AcDbLine
 10
371.6953010166088
 20
350.4397438009402
 30
0.0
 11
371.5812521935785
 21
350.2092446766571
 31
0.0
  0
LINE
  5
A1B
102
{ACAD_REACTORS
330
A40
102
}
330
18
100
AcDbEntity
  8
ROGO
 62
     4
100
AcDbLine
 10
371.4700244304128
 20
349.9844470739772
 30
0.0
 11
371.3277800110043
 21
349.6969630540929
 31
0.0
  0
LINE
  5
A1C
102
{ACAD_REACTORS
330
A40
102
}
330
18
100
AcDbEntity
  8
ROGO
 62
     4
100
AcDbLine
 10
370.6890729235888
 20
350.2092446766571
 30
0.0
 11
370.5778451604231
 21
349.9844470739772
 31
0.0
  0
LINE
  5
A1D
102
{ACAD_REACTORS
330
A48
102
}
330
18
100
AcDbEntity
  8
ROGO
 62
     4
100
AcDbLine
 10
372.4405149206443
 20
350.9520303685512
 30
0.0
 11
371.5354614882396
 21
349.6969630540929
 31
0.0
  0
LINE
  5
A1E
102
{ACAD_REACTORS
330
A48
102
}
330
18
100
AcDbEntity
  8
ROGO
 62
     4
100
AcDbLine
 10
372.8936731074409
 20
350.6165457744275
 30
0.0
 11
372.5846081962605
 21
350.1879553131573
 31
0.0
  0
LINE
  5
A1F
102
{ACAD_REACTORS
330
A48
102
}
330
18
100
AcDbEntity
  8
ROGO
 62
     4
100
AcDbLine
 10
372.4028607097111
 20
349.9359201054161
 30
0.0
 11
373.196033998818
 21
349.9359201054161
 31
0.0
  0
LINE
  5
A20
102
{ACAD_REACTORS
330
A48
102
}
330
18
100
AcDbEntity
  8
ROGO
 62
     4
100
AcDbLine
 10
372.5846081962605
 20
350.1879553131573
 30
0.0
 11
373.0840699728627
 21
350.1879553131573
 31
0.0
  0
LINE
  5
A21
102
{ACAD_REACTORS
330
A48
102
}
330
18
100
AcDbEntity
  8
ROGO
 62
     4
100
AcDbLine
 10
372.4028607097111
 20
349.9359201054161
 30
0.0
 11
372.2305441359259
 21
349.6969630540929
 31
0.0
  0
LINE
  5
A22
102
{ACAD_REACTORS
330
A48
102
}
330
18
100
AcDbEntity
  8
ROGO
 62
     4
100
AcDbLine
 10
371.5354614882397
 20
349.6969630540929
 30
0.0
 11
372.2305441359259
 21
349.6969630540929
 31
0.0
  0
LINE
  5
A23
102
{ACAD_REACTORS
330
A48
102
}
330
18
100
AcDbEntity
  8
ROGO
 62
     4
100
AcDbLine
 10
372.4405149206443
 20
350.9520303685512
 30
0.0
 11
373.4444612844778
 21
350.9520303685512
 31
0.0
  0
LINE
  5
A24
102
{ACAD_REACTORS
330
A48
102
}
330
18
100
AcDbEntity
  8
ROGO
 62
     4
100
AcDbLine
 10
374.0020119165146
 20
349.6969630540929
 30
0.0
 11
373.3021881894818
 21
349.6969630540929
 31
0.0
  0
LINE
  5
A25
102
{ACAD_REACTORS
330
A41
102
}
330
18
100
AcDbEntity
  8
ROGO
 62
     4
100
AcDbLine
 10
374.3457261272733
 20
349.6969630540929
 30
0.0
 11
375.4267321269947
 21
349.6969630540929
 31
0.0
  0
LINE
  5
A26
102
{ACAD_REACTORS
330
A41
102
}
330
18
100
AcDbEntity
  8
ROGO
 62
     4
100
AcDbLine
 10
376.0525492248844
 20
350.9520303685512
 30
0.0
 11
375.8197046894759
 21
350.4850639549986
 31
0.0
  0
LINE
  5
A27
102
{ACAD_REACTORS
330
A41
102
}
330
18
100
AcDbEntity
  8
ROGO
 62
     4
100
AcDbLine
 10
375.0342827748034
 20
350.4850639549986
 30
0.0
 11
375.8197046894759
 21
350.4850639549986
 31
0.0
  0
LINE
  5
A28
102
{ACAD_REACTORS
330
A41
102
}
330
18
100
AcDbEntity
  8
ROGO
 62
     4
100
AcDbLine
 10
374.8570304870009
 20
350.1639245225987
 30
0.0
 11
375.6595741966432
 21
350.1639245225987
 31
0.0
  0
SPLINE
  5
A29
102
{ACAD_REACTORS
330
A41
102
}
330
18
100
AcDbEntity
  8
ROGO
 62
     4
100
AcDbSpline
210
0.0
220
0.0
230
1.0
 70
     8
 71
     3
 72
    26
 73
    22
 74
    20
 42
0.0000000001
 43
0.0000000001
 44
0.0000000001
 40
0.0
 40
0.0
 40
0.0
 40
0.0
 40
0.2276835897233007
 40
0.3801001230162506
 40
0.4900048558493097
 40
0.5720671636812824
 40
0.6785062839134103
 40
0.7561964652168576
 40
0.8964868246743144
 40
1.010681160373108
 40
1.088351606316243
 40
1.16451145527399
 40
1.300746618675115
 40
1.397081139538679
 40
1.448964721864925
 40
1.522663817941261
 40
1.575883588869605
 40
1.652981466326465
 40
1.696612196150974
 40
1.791557558313725
 40
1.834910435460017
 40
1.834910435460017
 40
1.834910435460017
 40
1.834910435460017
 10
374.7956741519999
 20
350.9520303685512
 30
0.0
 10
374.7183948237418
 20
350.9474197513072
 30
0.0
 10
374.5893829691184
 20
350.9397226828281
 30
0.0
 10
374.4477287375579
 20
350.8536692584089
 30
0.0
 10
374.3439445546231
 20
350.8036415790599
 30
0.0
 10
374.269925801219
 20
350.7356332110636
 30
0.0
 10
374.2156697549236
 20
350.6653855348403
 30
0.0
 10
374.1472698230721
 20
350.5816859436892
 30
0.0
 10
374.0914916331769
 20
350.4842211567902
 30
0.0
 10
374.0630871920381
 20
350.3767979702837
 30
0.0
 10
374.0379268076641
 20
350.2911810673491
 30
0.0
 10
374.0192674454045
 20
350.195772202262
 30
0.0
 10
374.0240149154032
 20
350.0926970648845
 30
0.0
 10
374.0308135097153
 20
349.9969661541868
 30
0.0
 10
374.06116758012
 20
349.9286286168316
 30
0.0
 10
374.0957354896783
 20
349.8799769993186
 30
0.0
 10
374.1380634215277
 20
349.8263926363788
 30
0.0
 10
374.1843794353294
 20
349.7909038863166
 30
0.0
 10
374.2226865593195
 20
349.7266136307928
 30
0.0
 10
374.2897418875981
 20
349.7184097305235
 30
0.0
 10
374.3323649219468
 20
349.7020815204509
 30
0.0
 10
374.3457261272734
 20
349.6969630540929
 30
0.0
 11
374.7956741519999
 21
350.9520303685512
 31
0.0
 11
374.5707001396366
 21
350.9170087924813
 31
0.0
 11
374.4343520751681
 21
350.8488912107807
 31
0.0
 11
374.3389086260466
 21
350.7943971898343
 31
0.0
 11
374.2775522910456
 21
350.7399029468177
 31
0.0
 11
374.209378454818
 21
350.658161804363
 31
0.0
 11
374.1616567302573
 21
350.5968560030396
 31
0.0
 11
374.0934825020164
 21
350.4742441783224
 31
0.0
 11
374.0593957799091
 21
350.3652559143594
 31
0.0
 11
374.0389436682422
 21
350.2903265522817
 31
0.0
 11
374.0253086657887
 21
350.2153971902041
 31
0.0
 11
374.0253086657887
 21
350.079162026803
 31
0.0
 11
374.0389436682422
 21
349.9837973235941
 31
0.0
 11
374.0593957799091
 21
349.9361148609547
 31
0.0
 11
374.1003000032431
 21
349.8748090596312
 31
0.0
 11
374.1343871173635
 21
349.8339383773687
 31
0.0
 11
374.1889259511377
 21
349.7794443564223
 31
0.0
 11
374.2161955640315
 21
349.7453854545369
 31
0.0
 11
374.3048219039394
 21
349.7113267747217
 31
0.0
 11
374.3457261272734
 21
349.6969630540929
 31
0.0
  0
SPLINE
  5
A2A
102
{ACAD_REACTORS
330
A41
102
}
330
18
100
AcDbEntity
  8
ROGO
 62
     4
100
AcDbSpline
210
0.0
220
0.0
230
1.0
 70
     8
 71
     3
 72
    16
 73
    12
 74
    10
 42
0.0000000001
 43
0.0000000001
 44
0.0000000001
 40
0.0
 40
0.0
 40
0.0
 40
0.0
 40
0.1200360920706888
 40
0.1786650666976184
 40
0.2075768642686755
 40
0.2380451908127106
 40
0.2816757472854556
 40
0.3214035419546689
 40
0.3628387062394065
 40
0.4323077531772829
 40
0.5010675923235378
 40
0.5010675923235378
 40
0.5010675923235378
 40
0.5010675923235378
 10
375.0342827748034
 20
350.4850639549986
 30
0.0
 10
374.9936331102049
 20
350.4788666393936
 30
0.0
 10
374.9331290158826
 20
350.4696423820322
 30
0.0
 10
374.8784151227007
 20
350.4263314661593
 30
0.0
 10
374.8475602858159
 20
350.4005643541428
 30
0.0
 10
374.8370633328454
 20
350.3664413834666
 30
0.0
 10
374.8088718135275
 20
350.3402401800928
 30
0.0
 10
374.7856339827196
 20
350.3042312927395
 30
0.0
 10
374.7800853154763
 20
350.2547725027039
 30
0.0
 10
374.7841581642706
 20
350.1853646284462
 30
0.0
 10
374.8328229405098
 20
350.1710467377228
 30
0.0
 10
374.8570304870009
 20
350.1639245225987
 30
0.0
 11
375.0342827748034
 21
350.4850639549986
 31
0.0
 11
374.918387214015
 21
350.4538088371912
 31
0.0
 11
374.8706654894543
 21
350.419750157376
 31
0.0
 11
374.8502133777873
 21
350.3993148162447
 31
0.0
 11
374.8365783753339
 21
350.3720676947364
 31
0.0
 11
374.8093087624402
 21
350.3380090149213
 31
0.0
 11
374.7888566507731
 21
350.3039501130359
 31
0.0
 11
374.7820391495464
 21
350.2630796528436
 31
0.0
 11
374.7956741519999
 21
350.1949618490729
 31
0.0
 11
374.8570304870009
 21
350.1639245225987
 31
0.0
  0
LINE
  5
A2B
102
{ACAD_REACTORS
330
A41
102
}
330
18
100
AcDbEntity
  8
ROGO
 62
     4
100
AcDbLine
 10
375.6595741966432
 20
350.1639245225987
 30
0.0
 11
375.4267321269947
 21
349.6969630540929
 31
0.0
  0
LINE
  5
A2C
102
{ACAD_REACTORS
330
A41
102
}
330
18
100
AcDbEntity
  8
ROGO
 62
     4
100
AcDbLine
 10
374.7956741520003
 20
350.9520303685512
 30
0.0
 11
376.0525492248844
 21
350.9520303685512
 31
0.0
  0
LINE
  5
A2D
102
{ACAD_REACTORS
330
A42
102
}
330
18
100
AcDbEntity
  8
ROGO
 62
     4
100
AcDbLine
 10
378.3896646531066
 20
349.6969630540929
 30
0.0
 11
379.4706706528279
 21
349.6969630540929
 31
0.0
  0
LINE
  5
A2E
102
{ACAD_REACTORS
330
A42
102
}
330
18
100
AcDbEntity
  8
ROGO
 62
     4
100
AcDbLine
 10
378.8396126778335
 20
350.9520303685512
 30
0.0
 11
380.0964877507177
 21
350.9520303685512
 31
0.0
  0
SPLINE
  5
A2F
102
{ACAD_REACTORS
330
A42
102
}
330
18
100
AcDbEntity
  8
ROGO
 62
     4
100
AcDbSpline
210
0.0
220
0.0
230
1.0
 70
     8
 71
     3
 72
    16
 73
    12
 74
    10
 42
0.0000000001
 43
0.0000000001
 44
0.0000000001
 40
0.0
 40
0.0
 40
0.0
 40
0.0
 40
0.1200360920706888
 40
0.1786650666976845
 40
0.2075768642686612
 40
0.2380451908127217
 40
0.2816757472855111
 40
0.3214035419546951
 40
0.3628387062393767
 40
0.432307753177253
 40
0.5010675923235337
 40
0.5010675923235337
 40
0.5010675923235337
 40
0.5010675923235337
 10
379.0782213006366
 20
350.4850639549986
 30
0.0
 10
379.0375716360381
 20
350.4788666393936
 30
0.0
 10
378.9770675417158
 20
350.4696423820324
 30
0.0
 10
378.922353648534
 20
350.4263314661591
 30
0.0
 10
378.8914988116493
 20
350.4005643541429
 30
0.0
 10
378.8810018586785
 20
350.3664413834666
 30
0.0
 10
378.8528103393606
 20
350.3402401800928
 30
0.0
 10
378.8295725085529
 20
350.3042312927394
 30
0.0
 10
378.8240238413095
 20
350.2547725027039
 30
0.0
 10
378.8280966901039
 20
350.1853646284462
 30
0.0
 10
378.8767614663431
 20
350.1710467377228
 30
0.0
 10
378.9009690128342
 20
350.1639245225987
 30
0.0
 11
379.0782213006366
 21
350.4850639549986
 31
0.0
 11
378.9623257398483
 21
350.4538088371912
 31
0.0
 11
378.9146040152875
 21
350.4197501573759
 31
0.0
 11
378.8941519036206
 21
350.3993148162447
 31
0.0
 11
378.8805169011671
 21
350.3720676947364
 31
0.0
 11
378.8532472882734
 21
350.3380090149212
 31
0.0
 11
378.8327951766064
 21
350.3039501130359
 31
0.0
 11
378.8259776753796
 21
350.2630796528436
 31
0.0
 11
378.8396126778331
 21
350.1949618490729
 31
0.0
 11
378.9009690128342
 21
350.1639245225987
 31
0.0
  0
SPLINE
  5
A30
102
{ACAD_REACTORS
330
A42
102
}
330
18
100
AcDbEntity
  8
ROGO
 62
     4
100
AcDbSpline
210
0.0
220
0.0
230
1.0
 70
     8
 71
     3
 72
    26
 73
    22
 74
    20
 42
0.0000000001
 43
0.0000000001
 44
0.0000000001
 40
0.0
 40
0.0
 40
0.0
 40
0.0
 40
0.2276835897232445
 40
0.3801001230162453
 40
0.4900048558493046
 40
0.5720671636812347
 40
0.6785062839134062
 40
0.7561964652168437
 40
0.8964868246743501
 40
1.010681160373144
 40
1.088351606316224
 40
1.164511455273961
 40
1.300746618675086
 40
1.397081139538641
 40
1.448964721864939
 40
1.522663817941308
 40
1.575883588869608
 40
1.652981466326508
 40
1.696612196150937
 40
1.791557558313708
 40
1.834910435459981
 40
1.834910435459981
 40
1.834910435459981
 40
1.834910435459981
 10
378.8396126778331
 20
350.9520303685512
 30
0.0
 10
378.7623333495751
 20
350.9474197513072
 30
0.0
 10
378.6333214949517
 20
350.9397226828282
 30
0.0
 10
378.491667263391
 20
350.8536692584087
 30
0.0
 10
378.3878830804564
 20
350.8036415790601
 30
0.0
 10
378.3138643270521
 20
350.7356332110635
 30
0.0
 10
378.259608280757
 20
350.6653855348402
 30
0.0
 10
378.1912083489052
 20
350.5816859436894
 30
0.0
 10
378.13543015901
 20
350.48422115679
 30
0.0
 10
378.1070257178712
 20
350.3767979702839
 30
0.0
 10
378.0818653334973
 20
350.2911810673489
 30
0.0
 10
378.0632059712379
 20
350.1957722022622
 30
0.0
 10
378.0679534412364
 20
350.0926970648845
 30
0.0
 10
378.0747520355485
 20
349.9969661541868
 30
0.0
 10
378.1051061059532
 20
349.9286286168315
 30
0.0
 10
378.1396740155117
 20
349.8799769993186
 30
0.0
 10
378.1820019473609
 20
349.8263926363787
 30
0.0
 10
378.2283179611627
 20
349.7909038863166
 30
0.0
 10
378.2666250851527
 20
349.7266136307926
 30
0.0
 10
378.3336804134312
 20
349.7184097305233
 30
0.0
 10
378.3763034477799
 20
349.7020815204509
 30
0.0
 10
378.3896646531066
 20
349.6969630540929
 30
0.0
 11
378.8396126778331
 21
350.9520303685512
 31
0.0
 11
378.6146386654698
 21
350.9170087924813
 31
0.0
 11
378.4782906010013
 21
350.8488912107807
 31
0.0
 11
378.3828471518798
 21
350.7943971898343
 31
0.0
 11
378.3214908168789
 21
350.7399029468177
 31
0.0
 11
378.2533169806512
 21
350.658161804363
 31
0.0
 11
378.2055952560905
 21
350.5968560030396
 31
0.0
 11
378.1374210278496
 21
350.4742441783224
 31
0.0
 11
378.1033343057423
 21
350.3652559143593
 31
0.0
 11
378.0828821940754
 21
350.2903265522817
 31
0.0
 11
378.0692471916219
 21
350.2153971902041
 31
0.0
 11
378.0692471916219
 21
350.079162026803
 31
0.0
 11
378.0828821940754
 21
349.9837973235941
 31
0.0
 11
378.1033343057423
 21
349.9361148609546
 31
0.0
 11
378.1442385290763
 21
349.8748090596311
 31
0.0
 11
378.1783256431968
 21
349.8339383773687
 31
0.0
 11
378.232864476971
 21
349.7794443564222
 31
0.0
 11
378.2601340898647
 21
349.7453854545369
 31
0.0
 11
378.3487604297726
 21
349.7113267747217
 31
0.0
 11
378.3896646531066
 21
349.6969630540929
 31
0.0
  0
LINE
  5
A31
102
{ACAD_REACTORS
330
A42
102
}
330
18
100
AcDbEntity
  8
ROGO
 62
     4
100
AcDbLine
 10
379.7035127224764
 20
350.1639245225987
 30
0.0
 11
379.4706706528278
 21
349.6969630540929
 31
0.0
  0
LINE
  5
A32
102
{ACAD_REACTORS
330
A42
102
}
330
18
100
AcDbEntity
  8
ROGO
 62
     4
100
AcDbLine
 10
378.9009690128341
 20
350.1639245225987
 30
0.0
 11
379.7035127224764
 21
350.1639245225987
 31
0.0
  0
LINE
  5
A33
102
{ACAD_REACTORS
330
A42
102
}
330
18
100
AcDbEntity
  8
ROGO
 62
     4
100
AcDbLine
 10
379.0782213006366
 20
350.4850639549986
 30
0.0
 11
379.8636432153092
 21
350.4850639549986
 31
0.0
  0
LINE
  5
A34
102
{ACAD_REACTORS
330
A42
102
}
330
18
100
AcDbEntity
  8
ROGO
 62
     4
100
AcDbLine
 10
380.0964877507177
 20
350.9520303685512
 30
0.0
 11
379.8636432153092
 21
350.4850639549986
 31
0.0
  0
LINE
  5
A35
102
{ACAD_REACTORS
330
A52
102
}
330
18
100
AcDbEntity
  8
ROGO
 62
     4
100
AcDbLine
 10
380.3593510130416
 20
350.9520303685512
 30
0.0
 11
381.0819947746921
 21
350.9520303685512
 31
0.0
  0
LINE
  5
A36
102
{ACAD_REACTORS
330
A52
102
}
330
18
100
AcDbEntity
  8
ROGO
 62
     4
100
AcDbLine
 10
380.3593510130416
 20
350.9520303685512
 30
0.0
 11
379.3814689860773
 21
348.9909018318309
 31
0.0
  0
LINE
  5
A37
102
{ACAD_REACTORS
330
A52
102
}
330
18
100
AcDbEntity
  8
ROGO
 62
     4
100
AcDbLine
 10
381.0819947746921
 20
350.9520303685512
 30
0.0
 11
380.9056892651922
 21
350.59845216962
 31
0.0
  0
LINE
  5
A38
102
{ACAD_REACTORS
330
A52
102
}
330
18
100
AcDbEntity
  8
ROGO
 62
     4
100
AcDbLine
 10
380.3593510130416
 20
349.5027785531199
 30
0.0
 11
380.6145892783555
 21
348.9909018318309
 31
0.0
  0
LINE
  5
A39
102
{ACAD_REACTORS
330
A52
102
}
330
18
100
AcDbEntity
  8
ROGO
 62
     4
100
AcDbLine
 10
380.8482762156595
 20
349.971466100191
 30
0.0
 11
381.3372172291416
 21
348.9909018318309
 31
0.0
  0
LINE
  5
A3A
102
{ACAD_REACTORS
330
A52
102
}
330
18
100
AcDbEntity
  8
ROGO
 62
     4
100
AcDbLine
 10
380.3593510130416
 20
349.5027785531199
 30
0.0
 11
380.1041127477278
 21
348.9909018318309
 31
0.0
  0
LINE
  5
A3B
102
{ACAD_REACTORS
330
A52
102
}
330
18
100
AcDbEntity
  8
ROGO
 62
     4
100
AcDbLine
 10
380.8482762156595
 20
349.971466100191
 30
0.0
 11
382.0362137424467
 21
350.9520303685512
 31
0.0
  0
LINE
  5
A3C
102
{ACAD_REACTORS
330
A52
102
}
330
18
100
AcDbEntity
  8
ROGO
 62
     4
100
AcDbLine
 10
381.3135857916606
 20
350.9520303685512
 30
0.0
 11
382.0362137424467
 21
350.9520303685512
 31
0.0
  0
LINE
  5
A3D
102
{ACAD_REACTORS
330
A52
102
}
330
18
100
AcDbEntity
  8
ROGO
 62
     4
100
AcDbLine
 10
380.6145892783555
 20
348.9909018318309
 30
0.0
 11
381.3372172291416
 21
348.9909018318309
 31
0.0
  0
LINE
  5
A3E
102
{ACAD_REACTORS
330
A40
102
}
330
18
100
AcDbEntity
  8
ROGO
 62
     4
100
AcDbLine
 10
370.2512448894013
 20
350.9520303685512
 30
0.0
 11
371.9487756459462
 21
350.9520303685512
 31
0.0
  0
LINE
  5
A3F
330
18
100
AcDbEntity
  8
ROGO
 62
     4
100
AcDbLine
 10
367.8161436853219
 20
349.1874756809675
 30
0.0
 11
379.4794870560012
 21
349.1874756809675
 31
0.0
  0
HATCH
  5
A40
330
18
100
AcDbEntity
  8
ROGO
 62
     4
100
AcDbHatch
 10
0.0
 20
0.0
 30
0.0
210
0.0
220
0.0
230
1.0
  2
SOLID
 70
     1
 71
     1
 91
        1
 92
        1
 93
       12
 72
     1
 10
370.2512448894013
 20
350.9520303685512
 11
371.9487756459462
 21
350.9520303685512
 72
     1
 10
371.9487756459462
 20
350.9520303685512
 11
371.8065240711251
 21
350.6645318871731
 72
     1
 10
371.8065240711251
 20
350.6645318871731
 11
370.9143448011354
 21
350.6645318871731
 72
     1
 10
370.9143448011354
 20
350.6645318871731
 11
370.8031217466191
 21
350.4397438009402
 72
     1
 10
370.8031217466191
 20
350.4397438009402
 11
371.6953010166088
 21
350.4397438009402
 72
     1
 10
371.6953010166088
 20
350.4397438009402
 11
371.5812521935785
 21
350.2092446766571
 72
     1
 10
371.5812521935785
 20
350.2092446766571
 11
370.6890729235888
 21
350.2092446766571
 72
     1
 10
370.6890729235888
 20
350.2092446766571
 11
370.5778451604231
 21
349.9844470739772
 72
     1
 10
370.5778451604231
 20
349.9844470739772
 11
371.4700244304128
 21
349.9844470739772
 72
     1
 10
371.4700244304128
 20
349.9844470739772
 11
371.3277800110043
 21
349.6969630540929
 72
     1
 10
371.3277800110043
 20
349.6969630540929
 11
369.6302492544594
 21
349.6969630540929
 72
     1
 10
369.6302492544595
 20
349.6969630540929
 11
370.2512448894013
 21
350.9520303685512
 97
       12
330
A3E
330
A13
330
A16
330
A15
330
A17
330
A1A
330
A19
330
A1C
330
A18
330
A1B
330
A14
330
A12
 75
     0
 76
     1
 98
        1
 10
300.8142770798802
 20
264.1697415951039
450
        0
451
        0
460
0.0
461
0.0
452
        0
462
0.0
453
        0
470

  0
HATCH
  5
A41
330
18
100
AcDbEntity
  8
ROGO
 62
     4
100
AcDbHatch
 10
0.0
 20
0.0
 30
0.0
210
0.0
220
0.0
230
1.0
  2
SOLID
 70
     1
 71
     1
 91
        1
 92
        5
 93
        8
 72
     1
 10
375.8197046894759
 20
350.4850639549986
 11
376.0525492248845
 21
350.9520303685512
 72
     1
 10
376.0525492248845
 20
350.9520303685512
 11
374.7956741519998
 21
350.9520303685511
 72
     4
 94
        3
 73
     0
 74
     0
 95
       26
 96
       22
 40
0.0
 40
0.0
 40
0.0
 40
0.0
 40
0.2276835897233007
 40
0.3801001230162506
 40
0.4900048558493097
 40
0.5720671636812824
 40
0.6785062839134103
 40
0.7561964652168576
 40
0.8964868246743144
 40
1.010681160373108
 40
1.088351606316243
 40
1.16451145527399
 40
1.300746618675115
 40
1.397081139538679
 40
1.448964721864925
 40
1.522663817941261
 40
1.575883588869605
 40
1.652981466326465
 40
1.696612196150974
 40
1.791557558313725
 40
1.834910435460017
 40
1.834910435460017
 40
1.834910435460017
 40
1.834910435460017
 10
374.7956741519999
 20
350.9520303685512
 10
374.7183948237418
 20
350.9474197513072
 10
374.5893829691184
 20
350.9397226828281
 10
374.4477287375579
 20
350.8536692584089
 10
374.3439445546231
 20
350.8036415790599
 10
374.269925801219
 20
350.7356332110636
 10
374.2156697549236
 20
350.6653855348403
 10
374.1472698230721
 20
350.5816859436892
 10
374.0914916331769
 20
350.4842211567902
 10
374.0630871920381
 20
350.3767979702837
 10
374.0379268076641
 20
350.2911810673491
 10
374.0192674454045
 20
350.195772202262
 10
374.0240149154032
 20
350.0926970648845
 10
374.0308135097153
 20
349.9969661541868
 10
374.06116758012
 20
349.9286286168316
 10
374.0957354896783
 20
349.8799769993186
 10
374.1380634215277
 20
349.8263926363788
 10
374.1843794353294
 20
349.7909038863166
 10
374.2226865593195
 20
349.7266136307928
 10
374.2897418875981
 20
349.7184097305235
 10
374.3323649219468
 20
349.7020815204509
 10
374.3457261272734
 20
349.6969630540929
 72
     1
 10
374.3457261272734
 20
349.6969630540929
 11
375.4267321269947
 21
349.6969630540929
 72
     1
 10
375.4267321269947
 20
349.6969630540929
 11
375.6595741966432
 21
350.1639245225987
 72
     1
 10
375.6595741966432
 20
350.1639245225987
 11
374.8570304870008
 21
350.1639245225987
 72
     4
 94
        3
 73
     0
 74
     0
 95
       16
 96
       12
 40
0.0
 40
0.0
 40
0.0
 40
0.0
 40
0.068759839146255
 40
0.1382288860841312
 40
0.1796640503688689
 40
0.2193918450380822
 40
0.2630224015108272
 40
0.2934907280548623
 40
0.3224025256259194
 40
0.381031500252849
 40
0.5010675923235378
 40
0.5010675923235378
 40
0.5010675923235378
 40
0.5010675923235378
 10
374.8570304870009
 20
350.1639245225987
 10
374.8328229405098
 20
350.1710467377228
 10
374.7841581642706
 20
350.1853646284462
 10
374.7800853154763
 20
350.2547725027039
 10
374.7856339827196
 20
350.3042312927395
 10
374.8088718135275
 20
350.3402401800928
 10
374.8370633328454
 20
350.3664413834666
 10
374.8475602858159
 20
350.4005643541428
 10
374.8784151227007
 20
350.4263314661593
 10
374.9331290158826
 20
350.4696423820322
 10
374.9936331102049
 20
350.4788666393936
 10
375.0342827748034
 20
350.4850639549986
 72
     1
 10
375.0342827748036
 20
350.4850639549986
 11
375.8197046894759
 21
350.4850639549986
 97
        8
330
A2C
330
A29
330
A25
330
A2B
330
A28
330
A2A
330
A27
330
A26
 75
     0
 76
     1
 47
0.0514683685270805
 98
        1
 10
375.2352498999765
 20
350.6726376704274
450
        0
451
        0
460
0.0
461
0.0
452
        0
462
0.0
453
        0
470

  0
HATCH
  5
A42
330
18
100
AcDbEntity
  8
ROGO
 62
     4
100
AcDbHatch
 10
0.0
 20
0.0
 30
0.0
210
0.0
220
0.0
230
1.0
  2
SOLID
 70
     1
 71
     1
 91
        1
 92
        5
 93
        8
 72
     4
 94
        3
 73
     0
 74
     0
 95
       26
 96
       22
 40
0.0
 40
0.0
 40
0.0
 40
0.0
 40
0.2276835897232445
 40
0.3801001230162453
 40
0.4900048558493046
 40
0.5720671636812347
 40
0.6785062839134062
 40
0.7561964652168437
 40
0.8964868246743501
 40
1.010681160373144
 40
1.088351606316224
 40
1.164511455273961
 40
1.300746618675086
 40
1.397081139538641
 40
1.448964721864939
 40
1.522663817941308
 40
1.575883588869608
 40
1.652981466326508
 40
1.696612196150937
 40
1.791557558313708
 40
1.834910435459981
 40
1.834910435459981
 40
1.834910435459981
 40
1.834910435459981
 10
378.8396126778331
 20
350.9520303685512
 10
378.7623333495751
 20
350.9474197513072
 10
378.6333214949517
 20
350.9397226828282
 10
378.491667263391
 20
350.8536692584087
 10
378.3878830804564
 20
350.8036415790601
 10
378.3138643270521
 20
350.7356332110635
 10
378.259608280757
 20
350.6653855348402
 10
378.1912083489052
 20
350.5816859436894
 10
378.13543015901
 20
350.48422115679
 10
378.1070257178712
 20
350.3767979702839
 10
378.0818653334973
 20
350.2911810673489
 10
378.0632059712379
 20
350.1957722022622
 10
378.0679534412364
 20
350.0926970648845
 10
378.0747520355485
 20
349.9969661541868
 10
378.1051061059532
 20
349.9286286168315
 10
378.1396740155117
 20
349.8799769993186
 10
378.1820019473609
 20
349.8263926363787
 10
378.2283179611627
 20
349.7909038863166
 10
378.2666250851527
 20
349.7266136307926
 10
378.3336804134312
 20
349.7184097305233
 10
378.3763034477799
 20
349.7020815204509
 10
378.3896646531066
 20
349.6969630540929
 72
     1
 10
378.3896646531065
 20
349.6969630540929
 11
379.4706706528278
 21
349.6969630540929
 72
     1
 10
379.4706706528278
 20
349.6969630540929
 11
379.7035127224764
 21
350.1639245225987
 72
     1
 10
379.7035127224764
 20
350.1639245225987
 11
378.9009690128342
 21
350.1639245225988
 72
     4
 94
        3
 73
     0
 74
     0
 95
       16
 96
       12
 40
0.0
 40
0.0
 40
0.0
 40
0.0
 40
0.0687598391462806
 40
0.1382288860841569
 40
0.1796640503688385
 40
0.2193918450380225
 40
0.2630224015108119
 40
0.2934907280548724
 40
0.3224025256258491
 40
0.3810315002528448
 40
0.5010675923235337
 40
0.5010675923235337
 40
0.5010675923235337
 40
0.5010675923235337
 10
378.9009690128342
 20
350.1639245225987
 10
378.8767614663431
 20
350.1710467377228
 10
378.8280966901039
 20
350.1853646284462
 10
378.8240238413095
 20
350.2547725027039
 10
378.8295725085529
 20
350.3042312927394
 10
378.8528103393606
 20
350.3402401800928
 10
378.8810018586785
 20
350.3664413834666
 10
378.8914988116493
 20
350.4005643541429
 10
378.922353648534
 20
350.4263314661591
 10
378.9770675417158
 20
350.4696423820324
 10
379.0375716360381
 20
350.4788666393936
 10
379.0782213006366
 20
350.4850639549986
 72
     1
 10
379.0782213006367
 20
350.4850639549986
 11
379.8636432153092
 21
350.4850639549986
 72
     1
 10
379.8636432153092
 20
350.4850639549986
 11
380.0964877507177
 21
350.9520303685511
 72
     1
 10
380.0964877507177
 20
350.9520303685511
 11
378.8396126778333
 21
350.9520303685512
 97
        8
330
A2E
330
A30
330
A2D
330
A31
330
A32
330
A2F
330
A33
330
A34
 75
     0
 76
     1
 47
0.0514683685270805
 98
        1
 10
379.0564940307219
 20
350.722223274419
450
        0
451
        0
460
0.0
461
0.0
452
        0
462
0.0
453
        0
470

  0
HATCH
  5
A43
330
18
100
AcDbEntity
  8
ROGO
 62
     4
100
AcDbHatch
 10
0.0
 20
0.0
 30
0.0
210
0.0
220
0.0
230
1.0
  2
SOLID
 70
     1
 71
     0
 91
        1
 92
        7
 72
     0
 73
     1
 93
        4
 10
367.8297762902233
 20
349.1874756809675
 10
367.7408407048077
 20
348.9909018318308
 10
379.3814689860774
 20
348.9909018318309
 10
379.4794870560012
 20
349.1874756809675
 97
        0
 75
     0
 76
     1
 47
0.0514683685270805
 98
        1
 10
375.1856233833704
 20
349.1354850570411
450
        0
451
        0
460
0.0
461
0.0
452
        0
462
0.0
453
        0
470

  0
HATCH
  5
A44
330
18
100
AcDbEntity
  8
ROGO
 62
     4
100
AcDbHatch
 10
0.0
 20
0.0
 30
0.0
210
0.0
220
0.0
230
1.0
  2
SOLID
 70
     1
 71
     1
 91
        2
 92
        5
 93
        6
 72
     1
 10
366.8292243428676
 20
348.9909018318308
 11
367.7408407048076
 21
348.9909018318308
 72
     1
 10
367.7408407048076
 20
348.9909018318308
 11
368.0602828300797
 21
349.6969630540929
 72
     1
 10
368.0602828300797
 20
349.6969630540929
 11
368.9124571549722
 21
349.6969630540929
 72
     4
 94
        3
 73
     0
 74
     0
 95
       18
 96
       14
 40
0.108740278791501
 40
0.108740278791501
 40
0.108740278791501
 40
0.108740278791501
 40
0.6623149649549278
 40
1.384304701649787
 40
2.097394834876493
 40
2.774073369849618
 40
3.428974823686337
 40
4.005208313035923
 40
4.455173659284313
 40
4.720999734343524
 40
5.086034088486724
 40
5.569973738255373
 40
6.060470601257719
 40
6.060470601257719
 40
6.060470601257719
 40
6.060470601257719
 10
368.912457154972
 20
349.6969630540929
 10
368.9724317760872
 20
349.6974096669366
 10
369.1106272082142
 20
349.6984387664757
 10
369.3039615363891
 20
349.8017222128317
 10
369.4872977187762
 20
349.9332977983577
 10
369.6349625415843
 20
350.0976877651618
 10
369.7269621751491
 20
350.2856395282728
 10
369.741212627593
 20
350.4657740293497
 10
369.7325130764852
 20
350.6082581802502
 10
369.6703504142374
 20
350.7075731707364
 10
369.6057247412076
 20
350.8083677297926
 10
369.4872231097505
 20
350.8956797206105
 10
369.3901281814429
 20
350.9339353516173
 10
369.3407534356259
 20
350.9520303685512
 72
     1
 10
369.3407534356258
 20
350.9520303685512
 11
367.7995725041445
 21
350.9520303685512
 72
     1
 10
367.7995725041445
 20
350.9520303685512
 11
366.8292243428676
 21
348.9909018318308
 97
        6
330
A0B
330
A08
330
A0A
330
A09
330
A11
330
A0C
 92
       20
 93
        4
 72
     1
 10
368.2575202584367
 20
350.1329158878746
 11
368.4085301472541
 21
350.4666922380706
 72
     1
 10
368.4085301472541
 20
350.4666922380706
 11
368.7965612021703
 21
350.4666922380707
 72
     4
 94
        3
 73
     0
 74
     0
 95
       15
 96
       11
 40
0.0
 40
0.0
 40
0.0
 40
0.0
 40
0.1471607140274935
 40
0.214257905200307
 40
0.2904176839764258
 40
0.3423012663026718
 40
0.4243556898605493
 40
0.473504048093946
 40
0.5578265253903569
 40
0.5859340357617473
 40
0.5859340357617473
 40
0.5859340357617473
 40
0.5859340357617473
 10
368.7965612021705
 20
350.4666922380705
 10
368.8518319125798
 20
350.4669454074269
 10
368.9323030268272
 20
350.4673140080844
 10
368.9763074981552
 20
350.3677710070466
 10
368.9565825959655
 20
350.3036808428968
 10
368.9317867863077
 20
350.2378802197752
 10
368.8879669747623
 20
350.1931677039498
 10
368.8291543692522
 20
350.1501020137206
 10
368.7735736465129
 20
350.1448887190795
 10
368.7374246255175
 20
350.1353104550326
 10
368.7283873659428
 20
350.1329158878747
 72
     1
 10
368.7283873659427
 20
350.1329158878747
 11
368.2575202584367
 21
350.1329158878746
 97
        4
330
A0D
330
A0F
330
A0E
330
A10
 75
     0
 76
     1
 47
0.0514683685270805
 98
        2
 10
367.8078098771119
 20
350.3420673472675
 10
367.8078098771119
 20
350.3420673472675
450
        0
451
        0
460
0.0
461
0.0
452
        0
462
0.0
453
        0
470

  0
LINE
  5
A45
102
{ACAD_REACTORS
330
A48
102
}
330
18
100
AcDbEntity
  8
ROGO
 62
     4
100
AcDbLine
 10
373.4444612844778
 20
350.9520303685512
 30
0.0
 11
374.0020119165147
 21
349.6969630540929
 31
0.0
  0
LINE
  5
A46
102
{ACAD_REACTORS
330
A48
102
}
330
18
100
AcDbEntity
  8
ROGO
 62
     4
100
AcDbLine
 10
372.8936731074409
 20
350.6165457744275
 30
0.0
 11
373.0840699728627
 21
350.1879553131573
 31
0.0
  0
LINE
  5
A47
102
{ACAD_REACTORS
330
A48
102
}
330
18
100
AcDbEntity
  8
ROGO
 62
     4
100
AcDbLine
 10
373.196033998818
 20
349.9359201054161
 30
0.0
 11
373.3021881894818
 21
349.6969630540929
 31
0.0
  0
HATCH
  5
A48
330
18
100
AcDbEntity
  8
ROGO
 62
     4
100
AcDbHatch
 10
0.0
 20
0.0
 30
0.0
210
0.0
220
0.0
230
1.0
  2
SOLID
 70
     1
 71
     1
 91
        2
 92
        7
 72
     0
 73
     1
 93
        8
 10
373.4444612844778
 20
350.9520303685511
 10
372.4405149206442
 20
350.9520303685511
 10
371.5354614882396
 20
349.6969630540928
 10
372.2305441359259
 20
349.6969630540929
 10
372.4028607097111
 20
349.9359201054161
 10
373.196033998818
 20
349.9359201054161
 10
373.3021881894818
 20
349.6969630540929
 10
374.0020119165147
 20
349.6969630540929
 97
        8
330
A23
330
A1D
330
A22
330
A21
330
A1F
330
A47
330
A24
330
A45
 92
       22
 72
     0
 73
     1
 93
        3
 10
372.8936731074408
 20
350.6165457744274
 10
373.0840699728627
 20
350.1879553131573
 10
372.5846081962604
 20
350.1879553131573
 97
        3
330
A20
330
A1E
330
A46
 75
     0
 76
     1
 47
0.0128389261915577
 98
        2
 10
373.3658443514772
 20
350.6509220877588
 10
373.3658443514772
 20
350.6509220877588
450
        0
451
        0
460
0.0
461
0.0
452
        0
462
0.0
453
        0
470

  0
SPLINE
  5
A49
102
{ACAD_REACTORS
330
A50
102
}
330
18
100
AcDbEntity
  8
ROGO
 62
     4
100
AcDbSpline
210
0.0
220
0.0
230
1.0
 70
     8
 71
     3
 72
    38
 73
    34
 74
    32
 42
0.0000000001
 43
0.0000000001
 44
0.0000000001
 40
0.0
 40
0.0
 40
0.0
 40
0.0
 40
0.1727730288017606
 40
0.2270334318054211
 40
0.2967543604437097
 40
0.3548552480357229
 40
0.4038775227826781
 40
0.4689902911275818
 40
0.5022603494894948
 40
0.5397311681904183
 40
0.5949561037267343
 40
0.6575139722433928
 40
0.6980946488912587
 40
0.7421788775855816
 40
0.7911835201222335
 40
0.8655505483299506
 40
0.9362069803852003
 40
0.9690548030272404
 40
1.006513350563134
 40
1.05088935917693
 40
1.08247937483629
 40
1.108960905631997
 40
1.146770549175222
 40
1.188316870675215
 40
1.229862960852109
 40
1.266215847587695
 40
1.349470420034426
 40
1.382318242676466
 40
1.448013926978792
 40
1.506085989404119
 40
1.617260599225911
 40
1.754438556428531
 40
1.952543488630988
 40
1.952543488630988
 40
1.952543488630988
 40
1.952543488630988
 10
376.7495224551526
 20
350.9572653419325
 30
0.0
 10
376.6919320260082
 20
350.9531969840694
 30
0.0
 10
376.6162549781583
 20
350.9478509340878
 30
0.0
 10
376.5201628223907
 20
350.9215245482985
 30
0.0
 10
376.4677819660396
 20
350.8901613454618
 30
0.0
 10
376.4132692151713
 20
350.8671078880437
 30
0.0
 10
376.3667920179829
 20
350.832970289211
 30
0.0
 10
376.3197813142345
 20
350.8153795134231
 30
0.0
 10
376.286862980394
 20
350.7836602004893
 30
0.0
 10
376.2487626940714
 20
350.7642846751195
 30
0.0
 10
376.2184227596215
 20
350.7209166164618
 30
0.0
 10
376.1845113181849
 20
350.6803690531405
 30
0.0
 10
376.1451697799058
 20
350.6507711402683
 30
0.0
 10
376.112881651441
 20
350.6196846721648
 30
0.0
 10
376.0832617831959
 20
350.5717089114592
 30
0.0
 10
376.0657314194912
 20
350.5079633317862
 30
0.0
 10
376.0163162667132
 20
350.4677166716908
 30
0.0
 10
376.008875891877
 20
350.4193281775286
 30
0.0
 10
375.9815428639612
 20
350.390779780232
 30
0.0
 10
375.9696575074688
 20
350.3539279006556
 30
0.0
 10
375.9651309916161
 20
350.3201650695608
 30
0.0
 10
375.9596980932451
 20
350.2886329225608
 30
0.0
 10
375.9454866600208
 20
350.255462496787
 30
0.0
 10
375.9501253208577
 20
350.214488279394
 30
0.0
 10
375.9488039056476
 20
350.1748115846923
 30
0.0
 10
375.9495815600498
 20
350.1212468113411
 30
0.0
 10
375.9467748976131
 20
350.0690949173904
 30
0.0
 10
375.9691569306739
 20
350.0123412872452
 30
0.0
 10
375.9824018750593
 20
349.9617532775795
 30
0.0
 10
376.0186753098395
 20
349.8917080437069
 30
0.0
 10
376.0812462246767
 20
349.8108909890303
 30
0.0
 10
376.2002300531755
 20
349.7127943967811
 30
0.0
 10
376.3146364830618
 20
349.702842954126
 30
0.0
 10
376.3822345584553
 20
349.6969630540929
 30
0.0
 11
376.7495224551526
 21
350.9572653419325
 31
0.0
 11
376.5780028047668
 21
350.9364920655209
 31
0.0
 11
376.526027165509
 21
350.9209124551969
 31
0.0
 11
376.4636566434077
 21
350.8897527719026
 31
0.0
 11
376.4116810041497
 21
350.8637865233729
 31
0.0
 11
376.3701006560822
 21
350.8378200435199
 31
0.0
 11
376.3129275754026
 21
350.8066605915488
 31
0.0
 11
376.2869395516001
 21
350.7858875464604
 31
0.0
 11
376.255754086376
 21
350.7651142700489
 31
0.0
 11
376.2193711797302
 21
350.7235681798719
 31
0.0
 11
376.1777908316626
 21
350.6768288862537
 31
0.0
 11
376.1466053664384
 21
350.6508624064008
 31
0.0
 11
376.1154203095613
 21
350.6197029544296
 31
0.0
 11
376.0894322857589
 21
350.5781568642527
 31
0.0
 11
376.0582472288818
 21
350.510644294223
 31
0.0
 11
376.0166664724672
 21
350.4535183623989
 31
0.0
 11
376.0062715896238
 21
350.4223586791047
 31
0.0
 11
375.98548141559
 21
350.3911992271335
 31
0.0
 11
375.969888682978
 21
350.3496529056335
 31
0.0
 11
375.9646908332093
 21
350.3184934536624
 31
0.0
 11
375.9594933917875
 21
350.2925269738095
 31
0.0
 11
375.9490985089442
 21
350.256174318397
 31
0.0
 11
375.9490985089442
 21
350.214627996897
 31
0.0
 11
375.9490985089442
 21
350.1730819067201
 31
0.0
 11
375.9490985089442
 21
350.1367290199846
 31
0.0
 11
375.9542959503659
 21
350.0536368396307
 31
0.0
 11
375.9646908332093
 21
350.0224771563365
 31
0.0
 11
375.98548141559
 21
349.9601580210712
 31
0.0
 11
376.0114690310455
 21
349.9082252926885
 31
0.0
 11
376.0790374029155
 21
349.8199399088933
 31
0.0
 11
376.188186122853
 21
349.7368474972164
 31
0.0
 11
376.3822345584553
 21
349.6969630540929
 31
0.0
  0
SPLINE
  5
A4A
102
{ACAD_REACTORS
330
A50
102
}
330
18
100
AcDbEntity
  8
ROGO
 62
     4
100
AcDbSpline
210
0.0
220
0.0
230
1.0
 70
     8
 71
     3
 72
    25
 73
    21
 74
     0
 42
0.0000000001
 43
0.0000000001
 40
0.0
 40
0.0
 40
0.0
 40
0.0
 40
0.4087168505087288
 40
0.6887487002771746
 40
0.9415836120477687
 40
1.17452070575514
 40
1.41154617586699
 40
1.599156012919487
 40
1.80099909059943
 40
2.178735911501585
 40
2.521686161369157
 40
2.762704659361267
 40
3.06256558063785
 40
3.222432137207705
 40
3.399493810628493
 40
3.567459719866414
 40
3.743172740007509
 40
3.995988754699505
 40
4.17170091132118
 40
4.337226830236035
 40
4.337226830236035
 40
4.337226830236035
 40
4.337226830236035
 10
377.466785296879
 20
350.9572653419325
 30
0.0
 10
377.5138284488325
 20
350.9557538939791
 30
0.0
 10
377.5931031587557
 20
350.9532068793108
 30
0.0
 10
377.6782143397825
 20
350.8866825693121
 30
0.0
 10
377.7433389515068
 20
350.83152881936
 30
0.0
 10
377.7895652092681
 20
350.7648505182641
 30
0.0
 10
377.8300838193693
 20
350.7035433722918
 30
0.0
 10
377.8567825114347
 20
350.6388171322109
 30
0.0
 10
377.8930980075774
 20
350.5611515718722
 30
0.0
 10
377.908130828891
 20
350.4572465907909
 30
0.0
 10
377.8979743706125
 20
350.349851205801
 30
0.0
 10
377.8714707566753
 20
350.2546550756973
 30
0.0
 10
377.8436705965654
 20
350.1816228409144
 30
0.0
 10
377.8109047986587
 20
350.1180437497625
 30
0.0
 10
377.7718437805508
 20
350.0768762833098
 30
0.0
 10
377.7447448161203
 20
350.0245322510362
 30
0.0
 10
377.6926911719136
 20
349.9817176428729
 30
0.0
 10
377.6504936800663
 20
349.9288904256368
 30
0.0
 10
377.6026083148967
 20
349.8835482633204
 30
0.0
 10
377.57561033375
 20
349.8555726955892
 30
0.0
 10
377.5613763470168
 20
349.843810252835
 30
0.0
  0
LINE
  5
A4B
102
{ACAD_REACTORS
330
A50
102
}
330
18
100
AcDbEntity
  8
ROGO
 62
     4
100
AcDbLine
 10
376.7495224551526
 20
350.9572653419325
 30
0.0
 11
377.466785296879
 21
350.9572653419325
 31
0.0
  0
LINE
  5
A4C
102
{ACAD_REACTORS
330
A50
102
}
330
18
100
AcDbEntity
  8
ROGO
 62
     4
100
AcDbLine
 10
376.3822345584553
 20
349.6969630540929
 30
0.0
 11
377.0994974001816
 21
349.6969630540929
 31
0.0
  0
SPLINE
  5
A4D
102
{ACAD_REACTORS
330
A50
102
}
330
18
100
AcDbEntity
  8
ROGO
 62
     4
100
AcDbSpline
210
0.0
220
0.0
230
1.0
 70
     8
 71
     3
 72
    11
 73
     7
 74
     0
 42
0.0000000001
 43
0.0000000001
 40
0.1647869275458134
 40
0.1647869275458134
 40
0.1647869275458134
 40
0.1647869275458134
 40
0.2895635144633836
 40
0.5387013147903714
 40
0.7953622617455423
 40
0.8850764140209602
 40
0.8850764140209602
 40
0.8850764140209602
 40
0.8850764140209602
 10
377.3384571167014
 20
349.7249446658277
 30
0.0
 10
377.3250968152108
 20
349.7212258208155
 30
0.0
 10
377.2836726848191
 20
349.7146046236397
 30
0.0
 10
377.2141892300128
 20
349.7055129423009
 30
0.0
 10
377.1481486814723
 20
349.6960254411174
 30
0.0
 10
377.1095061505533
 20
349.6967701643279
 30
0.0
 10
377.0994974001816
 20
349.6969630540929
 30
0.0
  0
SPLINE
  5
A4E
102
{ACAD_REACTORS
330
A50
102
}
330
18
100
AcDbEntity
  8
ROGO
 62
     4
100
AcDbSpline
210
0.0
220
0.0
230
1.0
 70
     8
 71
     3
 72
     9
 73
     5
 74
     3
 42
0.0000000001
 43
0.0000000001
 44
0.0000000001
 40
0.0
 40
0.0
 40
0.0
 40
0.0
 40
0.1085559612118844
 40
0.2545162273153627
 40
0.2545162273153627
 40
0.2545162273153627
 40
0.2545162273153627
 10
377.3384571167014
 20
349.7249446658277
 30
0.0
 10
377.3733284322275
 20
349.7356133189318
 30
0.0
 10
377.4550864082073
 20
349.7606266420904
 30
0.0
 10
377.5226372249767
 20
349.813492613325
 30
0.0
 10
377.5613763470168
 20
349.843810252835
 30
0.0
 11
377.3384571167014
 21
349.7249446658277
 31
0.0
 11
377.4404865209614
 21
349.7620175316595
 31
0.0
 11
377.5613763470168
 21
349.843810252835
 31
0.0
  0
ELLIPSE
  5
A4F
102
{ACAD_REACTORS
330
A50
102
}
330
18
100
AcDbEntity
  8
ROGO
 62
     4
100
AcDbEllipse
 10
376.9143533806417
 20
350.3095424065727
 30
0.0
 11
0.1703995543912361
 21
0.1498450853456978
 31
0.0
210
0.0
220
0.0
230
1.0
 40
0.6788083417438794
 41
0.0
 42
6.283185307179586
  0
HATCH
  5
A50
330
18
100
AcDbEntity
  8
ROGO
 62
     4
100
AcDbHatch
 10
0.0
 20
0.0
 30
0.0
210
0.0
220
0.0
230
1.0
  2
SOLID
 70
     1
 71
     1
 91
        2
 92
        5
 93
        6
 72
     4
 94
        3
 73
     0
 74
     0
 95
       38
 96
       34
 40
0.0
 40
0.0
 40
0.0
 40
0.0
 40
0.1727730288017606
 40
0.2270334318054211
 40
0.2967543604437097
 40
0.3548552480357229
 40
0.4038775227826781
 40
0.4689902911275818
 40
0.5022603494894948
 40
0.5397311681904183
 40
0.5949561037267343
 40
0.6575139722433928
 40
0.6980946488912587
 40
0.7421788775855816
 40
0.7911835201222335
 40
0.8655505483299506
 40
0.9362069803852003
 40
0.9690548030272404
 40
1.006513350563134
 40
1.05088935917693
 40
1.08247937483629
 40
1.108960905631997
 40
1.146770549175222
 40
1.188316870675215
 40
1.229862960852109
 40
1.266215847587695
 40
1.349470420034426
 40
1.382318242676466
 40
1.448013926978792
 40
1.506085989404119
 40
1.617260599225911
 40
1.754438556428531
 40
1.952543488630988
 40
1.952543488630988
 40
1.952543488630988
 40
1.952543488630988
 10
376.7495224551526
 20
350.9572653419325
 10
376.6919320260082
 20
350.9531969840694
 10
376.6162549781583
 20
350.9478509340878
 10
376.5201628223907
 20
350.9215245482985
 10
376.4677819660396
 20
350.8901613454618
 10
376.4132692151713
 20
350.8671078880437
 10
376.3667920179829
 20
350.832970289211
 10
376.3197813142345
 20
350.8153795134231
 10
376.286862980394
 20
350.7836602004893
 10
376.2487626940714
 20
350.7642846751195
 10
376.2184227596215
 20
350.7209166164618
 10
376.1845113181849
 20
350.6803690531405
 10
376.1451697799058
 20
350.6507711402683
 10
376.112881651441
 20
350.6196846721648
 10
376.0832617831959
 20
350.5717089114592
 10
376.0657314194912
 20
350.5079633317862
 10
376.0163162667132
 20
350.4677166716908
 10
376.008875891877
 20
350.4193281775286
 10
375.9815428639612
 20
350.390779780232
 10
375.9696575074688
 20
350.3539279006556
 10
375.9651309916161
 20
350.3201650695608
 10
375.9596980932451
 20
350.2886329225608
 10
375.9454866600208
 20
350.255462496787
 10
375.9501253208577
 20
350.214488279394
 10
375.9488039056476
 20
350.1748115846923
 10
375.9495815600498
 20
350.1212468113411
 10
375.9467748976131
 20
350.0690949173904
 10
375.9691569306739
 20
350.0123412872452
 10
375.9824018750593
 20
349.9617532775795
 10
376.0186753098395
 20
349.8917080437069
 10
376.0812462246767
 20
349.8108909890303
 10
376.2002300531755
 20
349.7127943967811
 10
376.3146364830618
 20
349.702842954126
 10
376.3822345584553
 20
349.6969630540929
 72
     1
 10
376.3822345584553
 20
349.6969630540929
 11
377.0994974001813
 21
349.6969630540929
 72
     4
 94
        3
 73
     0
 74
     0
 95
       11
 96
        7
 40
0.1647869275458135
 40
0.1647869275458135
 40
0.1647869275458135
 40
0.1647869275458135
 40
0.2545010798212315
 40
0.5111620267764023
 40
0.7602998271033902
 40
0.8850764140209603
 40
0.8850764140209603
 40
0.8850764140209603
 40
0.8850764140209603
 10
377.0994974001816
 20
349.6969630540929
 10
377.1095061505533
 20
349.6967701643279
 10
377.1481486814723
 20
349.6960254411174
 10
377.2141892300128
 20
349.7055129423009
 10
377.2836726848191
 20
349.7146046236397
 10
377.3250968152108
 20
349.7212258208155
 10
377.3384571167014
 20
349.7249446658277
 72
     4
 94
        3
 73
     0
 74
     0
 95
        9
 96
        5
 40
0.0
 40
0.0
 40
0.0
 40
0.0
 40
0.1085559612118844
 40
0.2545162273153627
 40
0.2545162273153627
 40
0.2545162273153627
 40
0.2545162273153627
 10
377.3384571167014
 20
349.7249446658277
 10
377.3733284322275
 20
349.7356133189318
 10
377.4550864082073
 20
349.7606266420904
 10
377.5226372249767
 20
349.813492613325
 10
377.5613763470168
 20
349.843810252835
 72
     4
 94
        3
 73
     0
 74
     0
 95
       25
 96
       21
 40
0.0
 40
0.0
 40
0.0
 40
0.0
 40
0.165525918914855
 40
0.3412380755365305
 40
0.5940540902285263
 40
0.7697671103696209
 40
0.9377330196075423
 40
1.11479469302833
 40
1.274661249598185
 40
1.574522170874768
 40
1.815540668866877
 40
2.15849091873445
 40
2.536227739636605
 40
2.738070817316548
 40
2.925680654369045
 40
3.162706124480894
 40
3.395643218188267
 40
3.648478129958861
 40
3.928509979727306
 40
4.337226830236035
 40
4.337226830236035
 40
4.337226830236035
 40
4.337226830236035
 10
377.5613763470168
 20
349.843810252835
 10
377.57561033375
 20
349.8555726955892
 10
377.6026083148967
 20
349.8835482633204
 10
377.6504936800663
 20
349.9288904256368
 10
377.6926911719136
 20
349.9817176428729
 10
377.7447448161203
 20
350.0245322510362
 10
377.7718437805508
 20
350.0768762833098
 10
377.8109047986587
 20
350.1180437497625
 10
377.8436705965654
 20
350.1816228409144
 10
377.8714707566753
 20
350.2546550756973
 10
377.8979743706125
 20
350.349851205801
 10
377.908130828891
 20
350.4572465907909
 10
377.8930980075774
 20
350.5611515718722
 10
377.8567825114347
 20
350.6388171322109
 10
377.8300838193693
 20
350.7035433722918
 10
377.7895652092681
 20
350.7648505182641
 10
377.7433389515068
 20
350.83152881936
 10
377.6782143397825
 20
350.8866825693121
 10
377.5931031587557
 20
350.9532068793108
 10
377.5138284488325
 20
350.9557538939791
 10
377.466785296879
 20
350.9572653419325
 72
     1
 10
377.466785296879
 20
350.9572653419326
 11
376.7495224551529
 21
350.9572653419326
 97
        6
330
A4A
330
A4B
330
A49
330
A4C
330
A4D
330
A4E
 92
       20
 93
        1
 72
     3
 10
376.9143533806417
 20
350.3095424065727
 11
0.1703995543912361
 21
0.1498450853456978
 40
0.6788083417438794
 50
0.0
 51
360.0
 73
     1
 97
        1
330
A4F
 75
     0
 76
     1
 47
0.088756267210375
 98
        2
 10
376.9644657322498
 20
350.6091647995979
 10
376.9644657322498
 20
350.6091647995979
450
        0
451
        0
460
0.0
461
0.0
452
        0
462
0.0
453
        0
470

  0
LINE
  5
A51
102
{ACAD_REACTORS
330
A52
102
}
330
18
100
AcDbEntity
  8
ROGO
 62
     4
100
AcDbLine
 10
380.9056892651922
 20
350.59845216962
 30
0.0
 11
381.3135857916606
 21
350.9520303685512
 31
0.0
  0
HATCH
  5
A52
330
18
100
AcDbEntity
  8
ROGO
 62
     4
100
AcDbHatch
 10
0.0
 20
0.0
 30
0.0
210
0.0
220
0.0
230
1.0
  2
SOLID
 70
     1
 71
     1
 91
        1
 92
        7
 72
     0
 73
     1
 93
       11
 10
380.905689265192
 20
350.5984521696187
 10
381.0819947746921
 20
350.9520303685512
 10
380.3593510130416
 20
350.9520303685512
 10
379.3814689860774
 20
348.9909018318309
 10
380.1041127477279
 20
348.9909018318309
 10
380.3593510130416
 20
349.5027785531198
 10
380.6145892783554
 20
348.9909018318309
 10
381.3372172291417
 20
348.9909018318309
 10
380.8482762156594
 20
349.9714661001909
 10
382.0362137424467
 20
350.9520303685512
 10
381.3135857916606
 20
350.9520303685512
 97
       11
330
A3C
330
A51
330
A37
330
A35
330
A36
330
A09
330
A3A
330
A38
330
A3D
330
A39
330
A3B
 75
     0
 76
     1
 47
0.015942268611278
 98
        1
 10
380.7494394397298
 20
350.3158025468981
450
        0
451
        0
460
0.0
461
0.0
452
        0
462
0.0
453
        0
470

  0
LINE
  5
A82
330
18
100
AcDbEntity
  8
目盛
100
AcDbLine
 10
361.4368653896764
 20
345.6810313972559
 30
0.0
 11
361.4368653896764
 21
344.4310313972559
 31
0.0
  0
CIRCLE
  5
B51
330
18
100
AcDbEntity
  8
外形線
100
AcDbCircle
 10
374.4368653896763
 20
338.881031397256
 30
0.0
 40
40.75
  0
ARC
  5
B62
330
18
100
AcDbEntity
  8
針
100
AcDbCircle
 10
375.1912898981114
 20
326.8897972166235
 30
0.0
 40
1.75
100
AcDbArc
 50
110.201549599022
 51
76.99845040098153
  0
LINE
  5
B63
330
18
100
AcDbEntity
  8
針
100
AcDbLine
 10
372.1248007171096
 20
373.6395006285469
 30
0.0
 11
372.3743073992167
 21
373.6551982584293
 31
0.0
  0
LINE
  5
B6A
330
18
100
AcDbEntity
  8
針
100
AcDbLine
 10
375.3255410337227
 20
336.2508090753406
 30
0.0
 11
375.5850003598181
 21
328.5949341824838
 31
0.0
  0
LINE
  5
B6B
330
18
100
AcDbEntity
  8
針
100
AcDbLine
 10
373.8848514871164
 20
336.1601685719002
 30
0.0
 11
374.5869736313898
 21
328.5321436629545
 31
0.0
  0
LINE
  5
B74
330
18
100
AcDbEntity
  8
針
100
AcDbLine
 10
374.8125576068472
 20
342.1267568312434
 30
0.0
 11
372.3743073992167
 21
373.6551982584293
 31
0.0
  0
LINE
  5
B75
330
18
100
AcDbEntity
  8
針
100
AcDbLine
 10
373.6573383539483
 20
342.0540765963423
 30
0.0
 11
372.1248007171096
 21
373.6395006285469
 31
0.0
  0
ARC
  5
B76
330
18
100
AcDbEntity
  8
針
100
AcDbCircle
 10
377.8036266071017
 20
342.358070980652
 30
0.0
 40
3.0
100
AcDbArc
 50
184.4221639663826
 51
226.0536807492695
  0
ARC
  5
B77
330
18
100
AcDbEntity
  8
針
100
AcDbCircle
 10
370.6608634758353
 20
341.9086864149768
 30
0.0
 40
3.0
100
AcDbArc
 50
321.1463192507305
 51
2.777836033617335
  0
HATCH
  5
C3B
330
18
100
AcDbEntity
  8
針
100
AcDbHatch
 10
0.0
 20
0.0
 30
0.0
210
0.0
220
0.0
230
1.0
  2
SOLID
 70
     1
 71
     0
 91
        1
 92
        7
 72
     1
 73
     1
 93
        6
 10
372.3743073992167
 20
373.6551982584293
 42
0.0
 10
372.1248007171096
 20
373.6395006285469
 42
0.0
 10
373.6573383539483
 20
342.0540765963423
 42
-0.1836764983547232
 10
372.9971151384691
 20
340.0266853074215
 42
-0.4404930875945773
 10
375.7216742710137
 20
340.1981000386586
 42
-0.183676498354762
 10
374.8125576068471
 20
342.1267568312439
 42
0.0
 97
        0
 75
     0
 76
     1
 47
0.1657342924380236
 98
        8
 10
374.2394348237422
 20
344.404488126233
 10
381.7545713116883
 20
335.9099534341782
 10
381.7545713116883
 20
335.9099534341782
 10
381.7545713116883
 20
335.9099534341782
 10
381.7545713116883
 20
335.9099534341782
 10
381.7545713116883
 20
335.9099534341782
 10
381.7545713116883
 20
335.9099534341782
 10
374.2914675342396
 20
343.5774518758835
450
        0
451
        0
460
0.0
461
0.0
452
        0
462
0.0
453
        0
470

  0
HATCH
  5
C3D
330
18
100
AcDbEntity
  8
針
100
AcDbHatch
 10
0.0
 20
0.0
 30
0.0
210
0.0
220
0.0
230
1.0
  2
SOLID
 70
     1
 71
     0
 91
        1
 92
        1
 93
        6
 72
     2
 10
377.3243934747668
 20
336.3185506351983
 40
2.0
 50
138.5699032408213
 51
181.9410239928517
 73
     1
 72
     1
 10
375.3255410337227
 20
336.2508090753406
 11
375.585000359818
 21
328.5949341824837
 72
     2
 10
375.1912898981115
 20
326.8897972166236
 40
1.75
 50
283.0015495990185
 51
609.7984504009779
 73
     0
 72
     1
 10
374.5869736313898
 20
328.5321436629545
 11
373.8848514871165
 21
336.1601685719002
 72
     2
 10
371.8932703258546
 20
335.976853329471
 40
2.0
 50
5.258976007148201
 51
48.63009675917631
 73
     1
 72
     2
 10
374.4378036637597
 20
338.8661179577629
 40
1.85
 50
228.6300967591763
 51
318.5699032408212
 73
     1
 97
        0
 75
     0
 76
     1
 98
        1
 10
113.4320184766544
 20
-57.74171224642021
450
        0
451
        0
460
0.0
461
0.0
452
        0
462
0.0
453
        0
470

  0
CIRCLE
  5
C40
330
18
100
AcDbEntity
  8
外形線
100
AcDbCircle
 10
374.4368653896763
 20
338.881031397256
 30
0.0
 40
1.85
  0
CIRCLE
  5
C42
330
18
100
AcDbEntity
  8
針
100
AcDbCircle
 10
361.4368653896764
 20
339.1810313972559
 30
0.0
 40
1.149999999999999
  0
CIRCLE
  5
C45
330
18
100
AcDbEntity
  8
針
100
AcDbCircle
 10
361.4368653896764
 20
339.1810313972559
 30
0.0
 40
0.75
  0
LINE
  5
C46
330
18
100
AcDbEntity
  8
針
100
AcDbLine
 10
361.1972263281625
 20
345.5816898590708
 30
0.0
 11
361.3972263281632
 21
345.5816898590708
 31
0.0
  0
LINE
  5
C4B
330
18
100
AcDbEntity
  8
針
100
AcDbLine
 10
361.5409433521632
 20
340.9948685589084
 30
0.0
 11
361.3972263281632
 21
345.5816898590708
 31
0.0
  0
ARC
  5
C4C
330
18
100
AcDbEntity
  8
針
100
AcDbCircle
 10
362.5404528474695
 20
341.026185787273
 30
0.0
 40
1.0
100
AcDbArc
 50
181.7946384471343
 51
239.1163420293291
  0
ARC
  5
C4D
330
18
100
AcDbEntity
  8
針
100
AcDbCircle
 10
360.253843798521
 20
340.9762918003333
 30
0.0
 40
1.0
100
AcDbArc
 50
303.3836579706785
 51
0.7053615528732227
  0
LINE
  5
C4E
330
18
100
AcDbEntity
  8
針
100
AcDbLine
 10
361.2537680205763
 20
340.9886023708819
 30
0.0
 11
361.1972739227465
 21
345.5773268820639
 31
0.0
  0
HATCH
  5
C6A
330
18
100
AcDbEntity
  8
針
100
AcDbHatch
 10
0.0
 20
0.0
 30
0.0
210
0.0
220
0.0
230
1.0
  2
SOLID
 70
     1
 71
     0
 91
        7
 92
        7
 72
     1
 73
     1
 93
        5
 10
361.5409433521632
 20
340.9948685589084
 42
0.0
 10
361.3972263281633
 20
345.5816898590708
 42
0.0
 10
361.2972501254552
 20
345.5795083705674
 42
0.0
 10
361.4117782718866
 20
340.3307577283978
 42
-0.1411355954995574
 10
362.0271563554727
 20
340.167974443079
 42
-0.2554624148390979
 97
        0
 92
        7
 72
     1
 73
     1
 93
        5
 10
361.2972501254552
 20
345.5795083705674
 42
0.0
 10
361.1972739227465
 20
345.5773268820639
 42
0.0
 10
361.2537680205763
 20
340.9886023708819
 42
-0.2554624148390825
 10
360.8040863990584
 20
340.1412869616927
 42
-0.141135595499561
 10
361.4117782718866
 20
340.3307577283978
 42
0.0
 97
        0
 92
        7
 72
     1
 73
     1
 93
        4
 10
361.4117782718866
 20
340.3307577283978
 42
0.0
 10
361.4205042259005
 20
339.9308529175659
 42
-0.4142135623730951
 10
362.1866869099863
 20
339.1973925610319
 42
0.0
 10
362.5865917208183
 20
339.2061185150457
 42
0.4142135623730835
 97
        0
 92
        7
 72
     1
 73
     1
 93
        4
 10
362.5865917208183
 20
339.2061185150457
 42
0.0
 10
362.1866869099863
 20
339.1973925610319
 42
-0.4142135623730951
 10
361.4532265534523
 20
338.431209876946
 42
0.0
 10
361.4619525074661
 20
338.031305066114
 42
0.4142135623730835
 97
        0
 92
        7
 72
     1
 73
     1
 93
        4
 10
360.6870438693665
 20
339.16467023348
 42
0.0
 10
360.2871390585345
 20
339.1559442794662
 42
0.4142135623730835
 10
361.4619525074661
 20
338.031305066114
 42
0.0
 10
361.4532265534523
 20
338.431209876946
 42
-0.4142135623730951
 97
        0
 92
        7
 72
     1
 73
     1
 93
        4
 10
361.4205042259005
 20
339.9308529175659
 42
0.0
 10
361.4117782718866
 20
340.3307577283978
 42
0.4142135623730835
 10
360.2871390585345
 20
339.1559442794662
 42
0.0
 10
360.6870438693665
 20
339.16467023348
 42
-0.4142135623730951
 97
        0
 92
      137
 93
        4
 72
     1
 10
360.7841286123181
 20
342.9130007515742
 11
361.9505176439113
 21
342.9384514507812
 72
     1
 10
361.9505176439113
 20
342.9384514507812
 11
361.9177953163595
 21
344.438094491401
 72
     1
 10
361.9177953163595
 20
344.438094491401
 11
360.7514062847663
 21
344.4126437921941
 72
     1
 10
360.7514062847663
 20
344.4126437921941
 11
360.7841286123181
 21
342.9130007515742
 97
        0
 75
     0
 76
     1
 47
0.0222682335681739
 98
        6
 10
361.6068929127672
 20
340.470183639385
 10
361.2949397935472
 20
340.4633767981092
 10
362.1107076292736
 20
339.8575175699881
 10
362.2909737292813
 20
338.7477744828607
 10
360.8469884791486
 20
338.5158046565324
 10
360.6221583156154
 20
339.6245760121527
450
        0
451
        0
460
0.0
461
0.0
452
        0
462
0.0
453
        0
470

  0
LINE
  5
C7A
330
18
100
AcDbEntity
  8
外形線
100
AcDbLine
 10
370.5368653896763
 20
271.4310313972559
 30
0.0
 11
378.3368653896763
 21
271.4310313972561
 31
0.0
  0
LINE
  5
C7F
330
18
100
AcDbEntity
  8
外形線
100
AcDbLine
 10
369.4368653896763
 20
278.431031397256
 30
0.0
 11
379.4368653896764
 21
278.431031397256
 31
0.0
  0
LINE
  5
C80
330
18
100
AcDbEntity
  8
外形線
100
AcDbLine
 10
379.3368653896764
 20
278.431031397256
 30
0.0
 11
379.3368653896763
 21
272.4310313972561
 31
0.0
  0
LINE
  5
C81
330
18
100
AcDbEntity
  8
外形線
100
AcDbLine
 10
369.5368653896764
 20
278.431031397256
 30
0.0
 11
369.5368653896763
 21
272.4310313972559
 31
0.0
  0
ARC
  5
C82
330
18
100
AcDbEntity
  8
外形線
100
AcDbCircle
 10
370.5368653896763
 20
272.4310313972559
 30
0.0
 40
1.0
100
AcDbArc
 50
180.0
 51
270.0000000000008
  0
ARC
  5
C83
330
18
100
AcDbEntity
  8
外形線
100
AcDbCircle
 10
378.3368653896763
 20
272.4310313972561
 30
0.0
 40
1.0
100
AcDbArc
 50
270.0000000000008
 51
359.9999999999995
  0
LINE
  5
C84
330
18
100
AcDbEntity
  8
外形線
100
AcDbLine
 10
379.4368653896763
 20
298.4389431722397
 30
0.0
 11
379.4368653896764
 21
278.431031397256
 31
0.0
  0
LINE
  5
C85
330
18
100
AcDbEntity
  8
外形線
100
AcDbLine
 10
369.4368653896763
 20
298.4389431722397
 30
0.0
 11
369.4368653896763
 21
278.431031397256
 31
0.0
  0
LINE
  5
C86
330
18
100
AcDbEntity
  8
外形線
100
AcDbLine
 10
377.1868653896763
 20
271.4310313972561
 30
0.0
 11
377.1868653896764
 21
219.881031397256
 31
0.0
  0
LINE
  5
C87
330
18
100
AcDbEntity
  8
外形線
100
AcDbLine
 10
371.6868653896764
 20
271.431031397256
 30
0.0
 11
371.6868653896764
 21
219.881031397256
 31
0.0
  0
CIRCLE
  5
CB5
330
18
100
AcDbEntity
  8
外形線
100
AcDbCircle
 10
374.4368653896763
 20
338.881031397256
 30
0.0
 40
0.5
  0
CIRCLE
  5
CB6
330
18
100
AcDbEntity
  8
外形線
100
AcDbCircle
 10
361.4368653896764
 20
339.1810313972559
 30
0.0
 40
0.5
  0
LINE
  5
CDE
330
18
100
AcDbEntity
  8
外形線
100
AcDbLine
 10
379.4368653896762
 20
413.281031397256
 30
0.0
 11
379.4368653896763
 21
379.3231196222722
 31
0.0
  0
LINE
  5
CDF
330
18
100
AcDbEntity
  8
外形線
100
AcDbLine
 10
369.4368653896763
 20
413.281031397256
 30
0.0
 11
369.4368653896763
 21
379.3231196222722
 31
0.0
  0
LINE
  5
CF2
330
18
100
AcDbEntity
  8
中心線
 48
0.5
100
AcDbLine
 10
499.6327730127143
 20
338.881031397256
 30
0.0
 11
558.5838172511778
 21
338.881031397256
 31
0.0
  0
LINE
  5
CF3
330
18
100
AcDbEntity
  8
中心線
 48
0.5
100
AcDbLine
 10
525.4083621178298
 20
427.8814838106982
 30
0.0
 11
525.4083621178298
 21
207.1013750246797
 31
0.0
  0
LINE
  5
CF6
330
18
100
AcDbEntity
  8
外形線
100
AcDbLine
 10
533.9083621178298
 20
378.131031397256
 30
0.0
 11
533.9083621178298
 21
299.631031397256
 31
0.0
  0
LINE
  5
D10
330
18
100
AcDbEntity
  8
外形線
100
AcDbLine
 10
530.4083621178297
 20
413.281031397256
 30
0.0
 11
530.4083621178298
 21
378.131031397256
 31
0.0
  0
LINE
  5
D11
330
18
100
AcDbEntity
  8
外形線
100
AcDbLine
 10
520.4083621178297
 20
413.281031397256
 30
0.0
 11
520.4083621178297
 21
378.131031397256
 31
0.0
  0
LINE
  5
D17
330
18
100
AcDbEntity
  8
外形線
100
AcDbLine
 10
520.4083621178297
 20
299.631031397256
 30
0.0
 11
520.4083621178297
 21
278.431031397256
 31
0.0
  0
LINE
  5
D18
330
18
100
AcDbEntity
  8
外形線
100
AcDbLine
 10
530.4083621178298
 20
299.631031397256
 30
0.0
 11
530.4083621178299
 21
278.431031397256
 31
0.0
  0
LINE
  5
D19
330
18
100
AcDbEntity
  8
外形線
100
AcDbLine
 10
522.6583621178299
 20
271.431031397256
 30
0.0
 11
522.6583621178299
 21
219.881031397256
 31
0.0
  0
LINE
  5
D1A
330
18
100
AcDbEntity
  8
外形線
100
AcDbLine
 10
528.1583621178298
 20
271.4310313972561
 30
0.0
 11
528.1583621178299
 21
219.881031397256
 31
0.0
  0
LINE
  5
D26
330
18
100
AcDbEntity
  8
外形線
100
AcDbLine
 10
520.4083621178297
 20
278.431031397256
 30
0.0
 11
530.4083621178299
 21
278.431031397256
 31
0.0
  0
LINE
  5
D27
330
18
100
AcDbEntity
  8
外形線
100
AcDbLine
 10
521.5083621178298
 20
271.4310313972559
 30
0.0
 11
529.3083621178298
 21
271.4310313972561
 31
0.0
  0
LINE
  5
D28
330
18
100
AcDbEntity
  8
外形線
100
AcDbLine
 10
520.5083621178298
 20
278.431031397256
 30
0.0
 11
520.5083621178298
 21
272.4310313972559
 31
0.0
  0
ARC
  5
D29
330
18
100
AcDbEntity
  8
外形線
100
AcDbCircle
 10
521.5083621178298
 20
272.4310313972559
 30
0.0
 40
1.0
100
AcDbArc
 50
180.0
 51
270.0000000000008
  0
LINE
  5
D2A
330
18
100
AcDbEntity
  8
外形線
100
AcDbLine
 10
530.3083621178299
 20
278.431031397256
 30
0.0
 11
530.3083621178298
 21
272.4310313972561
 31
0.0
  0
ARC
  5
D2B
330
18
100
AcDbEntity
  8
外形線
100
AcDbCircle
 10
529.3083621178298
 20
272.4310313972561
 30
0.0
 40
1.0
100
AcDbArc
 50
270.0000000000008
 51
359.9999999999995
  0
LINE
  5
D30
330
18
100
AcDbEntity
  8
外形線
100
AcDbLine
 10
511.9083621178297
 20
376.731031397256
 30
0.0
 11
511.9083621178297
 21
301.0310313972559
 31
0.0
  0
LINE
  5
D31
330
18
100
AcDbEntity
  8
外形線
100
AcDbLine
 10
519.5083621178298
 20
378.781031397256
 30
0.0
 11
519.5083621178298
 21
298.9810313972559
 31
0.0
  0
LINE
  5
D33
330
18
100
AcDbEntity
  8
外形線
100
AcDbLine
 10
519.1083621178298
 20
379.631031397256
 30
0.0
 11
519.1083621178298
 21
298.131031397256
 31
0.0
  0
LINE
  5
D46
330
18
100
AcDbEntity
  8
外形線
100
AcDbLine
 10
533.9083621178298
 20
378.131031397256
 30
0.0
 11
519.5083621178298
 21
378.1310313972559
 31
0.0
  0
LINE
  5
D47
330
18
100
AcDbEntity
  8
外形線
100
AcDbLine
 10
519.5083621178298
 20
299.6310313972561
 30
0.0
 11
533.9083621178298
 21
299.631031397256
 31
0.0
  0
LINE
  5
D4E
330
18
100
AcDbEntity
  8
外形線
100
AcDbLine
 10
513.4083621178298
 20
379.0810313972559
 30
0.0
 11
513.4083621178299
 21
298.681031397256
 31
0.0
  0
LINE
  5
D4F
330
18
100
AcDbEntity
  8
外形線
100
AcDbLine
 10
514.3083621178297
 20
379.631031397256
 30
0.0
 11
514.3083621178297
 21
298.131031397256
 31
0.0
  0
LINE
  5
D50
330
18
100
AcDbEntity
  8
外形線
100
AcDbLine
 10
513.4083621178299
 20
379.081031397256
 30
0.0
 11
514.3083621178297
 21
379.081031397256
 31
0.0
  0
LINE
  5
D52
330
18
100
AcDbEntity
  8
外形線
100
AcDbLine
 10
514.3083621178297
 20
379.6310313972559
 30
0.0
 11
519.1083621178298
 21
379.631031397256
 31
0.0
  0
LINE
  5
D55
330
18
100
AcDbEntity
  8
外形線
100
AcDbLine
 10
511.9083621178297
 20
376.731031397256
 30
0.0
 11
513.4083621178299
 21
379.081031397256
 31
0.0
  0
LINE
  5
D56
330
18
100
AcDbEntity
  8
外形線
100
AcDbLine
 10
514.3083621178297
 20
298.131031397256
 30
0.0
 11
519.1083621178298
 21
298.131031397256
 31
0.0
  0
LINE
  5
D57
330
18
100
AcDbEntity
  8
外形線
100
AcDbLine
 10
511.9083621178297
 20
301.0310313972559
 30
0.0
 11
513.4083621178299
 21
298.681031397256
 31
0.0
  0
LINE
  5
D58
330
18
100
AcDbEntity
  8
外形線
100
AcDbLine
 10
513.4083621178299
 20
298.681031397256
 30
0.0
 11
514.3083621178297
 21
298.681031397256
 31
0.0
  0
ARC
  5
D5A
330
18
100
AcDbEntity
  8
外形線
100
AcDbCircle
 10
688.9861746178381
 20
338.8810313972562
 30
0.0
 40
181.0778125000082
100
AcDbArc
 50
167.9347110916025
 51
192.0652889083975
  0
LINE
  5
D5B
330
18
100
AcDbEntity
  8
外形線
100
AcDbLine
 10
519.1083621178298
 20
378.781031397256
 30
0.0
 11
519.5083621178298
 21
378.781031397256
 31
0.0
  0
LINE
  5
D5E
330
18
100
AcDbEntity
  8
外形線
100
AcDbLine
 10
519.1083621178298
 20
298.981031397256
 30
0.0
 11
519.5083621178298
 21
298.9810313972559
 31
0.0
  0
LINE
  5
D5F
330
18
100
AcDbEntity
  8
ﾊｯﾁﾝｸ
100
AcDbLine
 10
514.3083621178297
 20
378.6310313972559
 30
0.0
 11
519.1083621178298
 21
378.631031397256
 31
0.0
  0
LINE
  5
D60
330
18
100
AcDbEntity
  8
ﾊｯﾁﾝｸ
100
AcDbLine
 10
514.3083621178297
 20
377.6310313972559
 30
0.0
 11
519.1083621178298
 21
377.631031397256
 31
0.0
  0
LINE
  5
D61
330
18
100
AcDbEntity
  8
ﾊｯﾁﾝｸ
100
AcDbLine
 10
514.3083621178297
 20
376.6310313972559
 30
0.0
 11
519.1083621178298
 21
376.6310313972561
 31
0.0
  0
LINE
  5
D62
330
18
100
AcDbEntity
  8
ﾊｯﾁﾝｸ
100
AcDbLine
 10
514.3083621178297
 20
375.6310313972559
 30
0.0
 11
519.1083621178298
 21
375.631031397256
 31
0.0
  0
LINE
  5
D63
330
18
100
AcDbEntity
  8
ﾊｯﾁﾝｸ
100
AcDbLine
 10
514.3083621178297
 20
374.6310313972559
 30
0.0
 11
519.1083621178298
 21
374.6310313972561
 31
0.0
  0
LINE
  5
D64
330
18
100
AcDbEntity
  8
ﾊｯﾁﾝｸ
100
AcDbLine
 10
514.3083621178297
 20
299.131031397256
 30
0.0
 11
519.1083621178298
 21
299.131031397256
 31
0.0
  0
LINE
  5
D65
330
18
100
AcDbEntity
  8
ﾊｯﾁﾝｸ
100
AcDbLine
 10
514.3083621178297
 20
300.131031397256
 30
0.0
 11
519.1083621178298
 21
300.131031397256
 31
0.0
  0
LINE
  5
D66
330
18
100
AcDbEntity
  8
ﾊｯﾁﾝｸ
100
AcDbLine
 10
514.3083621178297
 20
301.131031397256
 30
0.0
 11
519.1083621178298
 21
301.131031397256
 31
0.0
  0
LINE
  5
D67
330
18
100
AcDbEntity
  8
ﾊｯﾁﾝｸ
100
AcDbLine
 10
514.3083621178297
 20
302.1310313972561
 30
0.0
 11
519.1083621178298
 21
302.1310313972561
 31
0.0
  0
LINE
  5
D68
330
18
100
AcDbEntity
  8
ﾊｯﾁﾝｸ
100
AcDbLine
 10
514.3083621178297
 20
303.131031397256
 30
0.0
 11
519.1083621178298
 21
303.131031397256
 31
0.0
  0
LINE
  5
D69
330
18
100
AcDbEntity
  8
ﾊｯﾁﾝｸ
100
AcDbLine
 10
514.3083621178297
 20
339.881031397256
 30
0.0
 11
519.1083621178298
 21
339.8810313972561
 31
0.0
  0
LINE
  5
D6A
330
18
100
AcDbEntity
  8
ﾊｯﾁﾝｸ
100
AcDbLine
 10
514.3083621178297
 20
340.881031397256
 30
0.0
 11
519.1083621178298
 21
340.881031397256
 31
0.0
  0
LINE
  5
D6B
330
18
100
AcDbEntity
  8
ﾊｯﾁﾝｸ
100
AcDbLine
 10
514.3083621178297
 20
337.881031397256
 30
0.0
 11
519.1083621178298
 21
337.881031397256
 31
0.0
  0
LINE
  5
D6C
330
18
100
AcDbEntity
  8
ﾊｯﾁﾝｸ
100
AcDbLine
 10
514.3083621178297
 20
336.881031397256
 30
0.0
 11
519.1083621178298
 21
336.881031397256
 31
0.0
  0
LINE
  5
D6D
330
18
100
AcDbEntity
  8
ﾊｯﾁﾝｸ
100
AcDbLine
 10
514.3083621178297
 20
341.881031397256
 30
0.0
 11
519.1083621178298
 21
341.881031397256
 31
0.0
  0
LINE
  5
D6E
330
18
100
AcDbEntity
  8
ﾊｯﾁﾝｸ
100
AcDbLine
 10
514.3083621178297
 20
335.881031397256
 30
0.0
 11
519.1083621178298
 21
335.881031397256
 31
0.0
  0
LINE
  5
D6F
330
18
100
AcDbEntity
  8
ﾊｯﾁﾝｸ
100
AcDbLine
 10
514.3083621178297
 20
338.881031397256
 30
0.0
 11
519.1083621178298
 21
338.881031397256
 31
0.0
  0
ARC
  5
D75
330
18
100
AcDbEntity
  8
外形線
100
AcDbCircle
 10
215.3927371178297
 20
338.881031397256
 30
0.0
 40
320.5156250000001
100
AcDbArc
 50
353.5959588333557
 51
6.40404116664432
  0
LINE
  5
D76
330
18
100
AcDbEntity
  8
中心線
 48
0.5
100
AcDbLine
 10
546.9083621178297
 20
351.8825212623653
 30
0.0
 11
546.9083621178297
 21
325.4318402058169
 31
0.0
  0
CIRCLE
  5
D77
330
18
100
AcDbEntity
  8
外形線
100
AcDbCircle
 10
546.9083621178298
 20
338.881031397256
 30
0.0
 40
3.25
  0
ARC
  5
D78
330
18
100
AcDbEntity
  8
外形線
100
AcDbCircle
 10
546.9083621178298
 20
338.881031397256
 30
0.0
 40
8.0
100
AcDbArc
 50
270.0
 51
90.0
  0
LINE
  5
D83
330
18
100
AcDbEntity
  8
外形線
100
AcDbLine
 10
546.9083621178298
 20
346.881031397256
 30
0.0
 11
543.2118360846828
 21
347.2506840005707
 31
0.0
  0
LINE
  5
D84
330
18
100
AcDbEntity
  8
外形線
100
AcDbLine
 10
546.9083621178298
 20
330.881031397256
 30
0.0
 11
542.2118360846829
 21
330.4113787939414
 31
0.0
  0
ARC
  5
D85
330
18
100
AcDbEntity
  8
外形線
100
AcDbCircle
 10
543.9083621178298
 20
354.2159443320406
 30
0.0
 40
7.0
100
AcDbArc
 50
180.0
 51
264.2894068625003
  0
LINE
  5
D87
330
18
100
AcDbEntity
  8
外形線
100
AcDbLine
 10
536.9083621178297
 20
354.2159443320406
 30
0.0
 11
535.5413062453886
 21
354.2159443320406
 31
0.0
  0
LINE
  5
D88
330
18
100
AcDbEntity
  8
外形線
100
AcDbLine
 10
536.9083621178297
 20
323.5461184624713
 30
0.0
 11
535.5413062453886
 21
323.5461184624713
 31
0.0
  0
ARC
  5
D89
330
18
100
AcDbEntity
  8
外形線
100
AcDbCircle
 10
543.9083621178298
 20
323.5461184624713
 30
0.0
 40
7.0
100
AcDbArc
 50
95.71059313749966
 51
180.0
  0
LINE
  5
D8A
330
18
100
AcDbEntity
  8
外形線
100
AcDbLine
 10
536.9083621178297
 20
354.2159443320406
 30
0.0
 11
536.9083621178297
 21
323.5461184624713
 31
0.0
  0
CIRCLE
  5
DC4
330
18
100
AcDbEntity
  8
外形線
100
AcDbCircle
 10
374.4368653896763
 20
338.881031397256
 30
0.0
 40
36.5
  0
CIRCLE
  5
DC9
330
18
100
AcDbEntity
  8
外形線
100
AcDbCircle
 10
374.4368653896763
 20
338.881031397256
 30
0.0
 40
37.85
  0
LINE
  5
EE0
330
18
100
AcDbEntity
  8
想像線
 48
0.4
100
AcDbLine
 10
542.6475380873494
 20
347.3304289000513
 30
0.0
 11
542.6475380873492
 21
330.4316338944606
 31
0.0
  0
LINE
  5
EE1
330
18
100
AcDbEntity
  8
想像線
 48
0.4
100
AcDbLine
 10
537.6475380873492
 20
351.0851165725882
 30
0.0
 11
537.6475380873492
 21
326.6769462219236
 31
0.0
  0
LINE
  5
F08
330
18
100
AcDbEntity
  8
0
  6
ByBlock
 62
     2
100
AcDbLine
 10
558.4861271710373
 20
358.459029826796
 30
0.0
 11
548.5626799257735
 21
341.6784824853577
 31
0.0
  0
LINE
  5
F0A
330
18
100
AcDbEntity
  8
0
  6
ByBlock
 62
     2
100
AcDbLine
 10
546.9083621178299
 20
338.881031397256
 30
0.0
 11
548.5626799257735
 21
341.6784824853577
 31
0.0
  0
INSERT
  5
F0B
330
18
100
AcDbEntity
  8
0
  6
ByBlock
 62
     2
100
AcDbBlockReference
  2
_OPEN
 10
548.5626799257735
 20
341.6784824853577
 30
0.0
 41
2.5
 42
2.5
 43
2.5
 50
239.4013680303761
  0
POINT
  5
F0C
330
18
100
AcDbEntity
  8
DEFPOINTS
  6
ByBlock
 62
     0
100
AcDbPoint
 10
548.5626799257735
 20
341.6784824853577
 30
0.0
  0
POINT
  5
F0D
330
18
100
AcDbEntity
  8
DEFPOINTS
  6
ByBlock
 62
     0
100
AcDbPoint
 10
546.9083621178299
 20
338.881031397256
 30
0.0
  0
LINE
  5
F0E
330
18
100
AcDbEntity
  8
寸法線
100
AcDbLine
 10
558.4861271710373
 20
358.459029826796
 30
0.0
 11
568.5248728251032
 21
358.459029826796
 31
0.0
  0
TEXT
  5
F0F
330
18
100
AcDbEntity
  8
文字
100
AcDbText
 10
559.0374504297147
 20
359.0758156703452
 30
0.0
 40
2.5
  1
φ6.5
  7
STYLE3
100
AcDbText
  0
LINE
  5
11C0
330
18
100
AcDbEntity
  8
目盛
100
AcDbLine
 10
375.5833580960279
 20
375.3630208506052
 30
0.0
 11
375.5205365778717
 21
373.3640077298737
 31
0.0
  0
LINE
  5
11C1
330
18
100
AcDbEntity
  8
目盛
100
AcDbLine
 10
376.7287193524963
 20
375.3090069848879
 30
0.0
 11
376.5403477939083
 21
372.3149267996031
 31
0.0
  0
LINE
  5
11C2
330
18
100
AcDbEntity
  8
目盛
100
AcDbLine
 10
377.8718188258021
 20
375.2190431052684
 30
0.0
 11
377.6836021991651
 21
373.2279191760623
 31
0.0
  0
LINE
  5
11C3
330
18
100
AcDbEntity
  8
目盛
100
AcDbLine
 10
379.0115284147734
 20
375.0932179952344
 30
0.0
 11
378.6355287140805
 21
372.116873891291
 31
0.0
  0
LINE
  5
11C4
330
18
100
AcDbEntity
  8
目盛
100
AcDbLine
 10
380.1467233636448
 20
374.9316558289785
 30
0.0
 11
379.8338544335643
 21
372.9562791477882
 31
0.0
  0
LINE
  5
11C5
330
18
100
AcDbEntity
  8
目盛
100
AcDbLine
 10
381.2762833720553
 20
374.7345160488531
 30
0.0
 11
380.7141394282981
 21
371.787654296667
 31
0.0
  0
LINE
  5
11C6
330
18
100
AcDbEntity
  8
目盛
100
AcDbLine
 10
382.3990937006501
 20
374.5019932080203
 30
0.0
 11
381.962807217857
 21
372.5501596841428
 31
0.0
  0
LINE
  5
11C7
330
18
100
AcDbEntity
  8
目盛
100
AcDbLine
 10
383.5140462711935
 20
374.2343167784511
 30
0.0
 11
382.767976609699
 21
371.3285672950651
 31
0.0
  0
LINE
  5
11C8
330
18
100
AcDbEntity
  8
目盛
100
AcDbLine
 10
384.6200407601082
 20
373.9317509244644
 30
0.0
 11
384.0620585480297
 21
372.0111635531105
 31
0.0
  0
LINE
  5
11CA
330
18
100
AcDbEntity
  8
目盛
100
AcDbLine
 10
372.1450114268564
 20
375.3090069848879
 30
0.0
 11
372.3333829854444
 21
372.3149267996031
 31
0.0
  0
LINE
  5
11CB
330
18
100
AcDbEntity
  8
目盛
100
AcDbLine
 10
369.8622023645792
 20
375.0932179952344
 30
0.0
 11
370.2382020652722
 21
372.116873891291
 31
0.0
  0
LINE
  5
11CC
330
18
100
AcDbEntity
  8
目盛
100
AcDbLine
 10
367.5974474072974
 20
374.7345160488531
 30
0.0
 11
368.1595913510546
 21
371.787654296667
 31
0.0
  0
LINE
  5
11CD
330
18
100
AcDbEntity
  8
目盛
100
AcDbLine
 10
365.3596845081592
 20
374.2343167784511
 30
0.0
 11
366.1057541696537
 21
371.3285672950651
 31
0.0
  0
LINE
  5
11CE
330
18
100
AcDbEntity
  8
目盛
100
AcDbLine
 10
373.2903726833247
 20
375.3630208506052
 30
0.0
 11
373.3531942014808
 21
373.3640077298738
 31
0.0
  0
LINE
  5
11CF
330
18
100
AcDbEntity
  8
目盛
100
AcDbLine
 10
371.0019119535506
 20
375.2190431052684
 30
0.0
 11
371.1901285801876
 21
373.2279191760623
 31
0.0
  0
LINE
  5
11D0
330
18
100
AcDbEntity
  8
目盛
100
AcDbLine
 10
368.7270074157079
 20
374.9316558289785
 30
0.0
 11
369.0398763457884
 21
372.9562791477883
 31
0.0
  0
LINE
  5
11D1
330
18
100
AcDbEntity
  8
目盛
100
AcDbLine
 10
366.4746370787025
 20
374.5019932080203
 30
0.0
 11
366.9109235614956
 21
372.5501596841428
 31
0.0
  0
LINE
  5
11D2
330
18
100
AcDbEntity
  8
目盛
100
AcDbLine
 10
363.1577450949907
 20
373.5945942420291
 30
0.0
 11
364.548321569678
 21
369.3148399187009
 31
0.0
  0
LINE
  5
11D3
330
18
100
AcDbEntity
  8
目盛
100
AcDbLine
 10
364.2536900192445
 20
373.9317509244644
 30
0.0
 11
364.8116722313229
 21
372.0111635531105
 31
0.0
  0
LINE
  5
11D4
330
18
100
AcDbEntity
  8
目盛
100
AcDbLine
 10
361.0003192166856
 20
372.8178731321771
 30
0.0
 11
362.1046928747396
 21
370.0285436745124
 31
0.0
  0
LINE
  5
11D5
330
18
100
AcDbEntity
  8
目盛
100
AcDbLine
 10
358.8959212475512
 20
371.9072188122658
 30
0.0
 11
360.1732591222464
 21
369.1927376548676
 31
0.0
  0
LINE
  5
11D6
330
18
100
AcDbEntity
  8
目盛
100
AcDbLine
 10
356.8528562849637
 20
370.866225218857
 30
0.0
 11
358.2981173072689
 21
368.2373051787254
 31
0.0
  0
LINE
  5
11D7
330
18
100
AcDbEntity
  8
目盛
100
AcDbLine
 10
354.879187372943
 20
369.6990006780796
 30
0.0
 11
356.4866677578799
 21
367.1660169015735
 31
0.0
  0
LINE
  5
11D8
330
18
100
AcDbEntity
  8
目盛
100
AcDbLine
 10
362.0729313007232
 20
373.2231794640851
 30
0.0
 11
362.7504071412137
 21
371.3414179261767
 31
0.0
  0
LINE
  5
11D9
330
18
100
AcDbEntity
  8
目盛
100
AcDbLine
 10
359.9409673815068
 20
372.3790752347213
 30
0.0
 11
360.7352631627764
 21
370.5435659833534
 31
0.0
  0
LINE
  5
11DA
330
18
100
AcDbEntity
  8
目盛
100
AcDbLine
 10
357.8662121491829
 20
371.4027695301314
 30
0.0
 11
358.7741931486621
 21
369.6207564817547
 31
0.0
  0
LINE
  5
11DB
330
18
100
AcDbEntity
  8
目盛
100
AcDbLine
 10
355.8568537147878
 20
370.2981153828999
 30
0.0
 11
356.8749365462885
 21
368.5766313288921
 31
0.0
  0
LINE
  5
11DC
330
18
100
AcDbEntity
  8
目盛
100
AcDbLine
 10
352.982703681001
 20
368.4101516919416
 30
0.0
 11
355.6277373163172
 21
364.7695752172543
 31
0.0
  0
LINE
  5
11DD
330
18
100
AcDbEntity
  8
目盛
100
AcDbLine
 10
353.9208220980735
 20
369.0694723582774
 30
0.0
 11
355.0449888537778
 21
367.4153112097283
 31
0.0
  0
LINE
  5
11DE
330
18
100
AcDbEntity
  8
目盛
100
AcDbLine
 10
351.1708897638491
 20
367.0047647585724
 30
0.0
 11
353.0831617330953
 21
364.6932250302449
 31
0.0
  0
LINE
  5
11DF
330
18
100
AcDbEntity
  8
目盛
100
AcDbLine
 10
349.4508960232792
 20
365.4883862981375
 30
0.0
 11
351.5045373410653
 21
363.3014804158733
 31
0.0
  0
LINE
  5
11E0
330
18
100
AcDbEntity
  8
目盛
100
AcDbLine
 10
347.8295104887948
 20
363.8670007636531
 30
0.0
 11
350.0164163710591
 21
361.8133594458671
 31
0.0
  0
LINE
  5
11E1
330
18
100
AcDbEntity
  8
目盛
100
AcDbLine
 10
346.31313202836
 20
362.1470070230832
 30
0.0
 11
348.6246717566874
 21
360.2347350538371
 31
0.0
  0
LINE
  5
11E2
330
18
100
AcDbEntity
  8
目盛
100
AcDbLine
 10
352.0657579313426
 20
367.7216893489687
 30
0.0
 11
353.2915720386486
 21
366.1413793242173
 31
0.0
  0
LINE
  5
11E3
330
18
100
AcDbEntity
  8
目盛
100
AcDbLine
 10
350.298982305363
 20
366.2600854387678
 30
0.0
 11
351.6216060360104
 21
364.7598632995069
 31
0.0
  0
LINE
  5
11E4
330
18
100
AcDbEntity
  8
目盛
100
AcDbLine
 10
348.6274678763674
 20
364.6904289105649
 30
0.0
 11
350.0416814387405
 21
363.276215348192
 31
0.0
  0
LINE
  5
11E5
330
18
100
AcDbEntity
  8
目盛
100
AcDbLine
 10
347.0578113481646
 20
363.0189144815694
 30
0.0
 11
348.5580334874255
 21
361.696290750922
 31
0.0
  0
LINE
  5
11E6
330
18
100
AcDbEntity
  8
目盛
100
AcDbLine
 10
344.9077450949908
 20
360.3351931059312
 30
0.0
 11
348.548321569678
 21
357.6901594706151
 31
0.0
  0
LINE
  5
11E7
330
18
100
AcDbEntity
  8
目盛
100
AcDbLine
 10
345.5962074379636
 20
361.2521388555896
 30
0.0
 11
347.176517462715
 21
360.0263247482837
 31
0.0
  0
LINE
  5
11E8
330
18
100
AcDbEntity
  8
目盛
100
AcDbLine
 10
343.6188961088528
 20
358.4387094139894
 30
0.0
 11
346.1518798853588
 21
356.8312290290524
 31
0.0
  0
LINE
  5
11E9
330
18
100
AcDbEntity
  8
目盛
100
AcDbLine
 10
342.4516715680753
 20
356.4650405019686
 30
0.0
 11
345.0805916082069
 21
355.0197794796634
 31
0.0
  0
LINE
  5
11EA
330
18
100
AcDbEntity
  8
目盛
100
AcDbLine
 10
341.4106779746667
 20
354.4219755393811
 30
0.0
 11
344.1251591320647
 21
353.1446376646859
 31
0.0
  0
LINE
  5
11EB
330
18
100
AcDbEntity
  8
目盛
100
AcDbLine
 10
340.5000236547552
 20
352.3175775702468
 30
0.0
 11
343.2893531124199
 21
351.2132039121927
 31
0.0
  0
LINE
  5
11EC
330
18
100
AcDbEntity
  8
目盛
100
AcDbLine
 10
344.2484244286549
 20
359.3970746888587
 30
0.0
 11
345.9025855772039
 21
358.2729079331545
 31
0.0
  0
LINE
  5
11ED
330
18
100
AcDbEntity
  8
目盛
100
AcDbLine
 10
343.0197814040324
 20
357.4610430721445
 30
0.0
 11
344.7412654580402
 21
356.4429602406439
 31
0.0
  0
LINE
  5
11EE
330
18
100
AcDbEntity
  8
目盛
100
AcDbLine
 10
341.9151272568009
 20
355.4516846377495
 30
0.0
 11
343.6971403051777
 21
354.5437036382704
 31
0.0
  0
LINE
  5
11EF
330
18
100
AcDbEntity
  8
目盛
100
AcDbLine
 10
340.938821552211
 20
353.3769294054255
 30
0.0
 11
342.774330803579
 21
352.582633624156
 31
0.0
  0
LINE
  5
11F0
330
18
100
AcDbEntity
  8
目盛
100
AcDbLine
 10
339.7233025449032
 20
350.1601516919416
 30
0.0
 11
344.0030568682314
 21
348.7695752172543
 31
0.0
  0
LINE
  5
11F1
330
18
100
AcDbEntity
  8
目盛
100
AcDbLine
 10
340.094717322847
 20
351.2449654862091
 30
0.0
 11
341.9764788607555
 21
350.5674896457186
 31
0.0
  0
LINE
  5
11F2
330
18
100
AcDbEntity
  8
目盛
100
AcDbLine
 10
339.0835800084813
 20
347.9582122787732
 30
0.0
 11
341.9893294918673
 21
347.2121426172786
 31
0.0
  0
LINE
  5
11F3
330
18
100
AcDbEntity
  8
目盛
100
AcDbLine
 10
338.5833807380793
 20
345.7204493796349
 30
0.0
 11
341.5302424902653
 21
345.1583054358778
 31
0.0
  0
LINE
  5
11F4
330
18
100
AcDbEntity
  8
目盛
100
AcDbLine
 10
338.2246787916979
 20
343.4556944223531
 30
0.0
 11
341.2010228956414
 21
343.0796947216602
 31
0.0
  0
LINE
  5
11F5
330
18
100
AcDbEntity
  8
目盛
100
AcDbLine
 10
338.0088898020444
 20
341.1728853600759
 30
0.0
 11
341.0029699873293
 21
340.984513801488
 31
0.0
  0
LINE
  5
11F6
330
18
100
AcDbEntity
  8
目盛
100
AcDbLine
 10
339.386145862468
 20
349.0642067676879
 30
0.0
 11
341.3067332338219
 21
348.5062245556094
 31
0.0
  0
LINE
  5
11F7
330
18
100
AcDbEntity
  8
目盛
100
AcDbLine
 10
338.8159035789121
 20
346.8432597082298
 30
0.0
 11
340.7677371027896
 21
346.4069732254367
 31
0.0
  0
LINE
  5
11F8
330
18
100
AcDbEntity
  8
目盛
100
AcDbLine
 10
338.3862409579539
 20
344.5908893712244
 30
0.0
 11
340.3616176391441
 21
344.278020441144
 31
0.0
  0
LINE
  5
11F9
330
18
100
AcDbEntity
  8
目盛
100
AcDbLine
 10
338.0988536816639
 20
342.3159848333818
 30
0.0
 11
340.0899776108701
 21
342.1277682067448
 31
0.0
  0
LINE
  5
11FA
330
18
100
AcDbEntity
  8
目盛
100
AcDbLine
 10
337.9368653896764
 20
338.881031397256
 30
0.0
 11
342.4368653896764
 21
338.881031397256
 31
0.0
  0
LINE
  5
11FB
330
18
100
AcDbEntity
  8
目盛
100
AcDbLine
 10
337.9548759363272
 20
340.0275241036076
 30
0.0
 11
339.9538890570586
 21
339.9647025854514
 31
0.0
  0
LINE
  5
11FC
330
18
100
AcDbEntity
  8
目盛
100
AcDbLine
 10
338.0088898020443
 20
336.589177434436
 30
0.0
 11
341.0029699873291
 21
336.777548993024
 31
0.0
  0
LINE
  5
11FD
330
18
100
AcDbEntity
  8
目盛
100
AcDbLine
 10
338.2246787916979
 20
334.3063683721589
 30
0.0
 11
341.2010228956413
 21
334.6823680728518
 31
0.0
  0
LINE
  5
11FE
330
18
100
AcDbEntity
  8
目盛
100
AcDbLine
 10
338.5833807380792
 20
332.041613414877
 30
0.0
 11
341.5302424902652
 21
332.6037573586342
 31
0.0
  0
LINE
  5
11FF
330
18
100
AcDbEntity
  8
目盛
100
AcDbLine
 10
339.0835800084813
 20
329.8038505157389
 30
0.0
 11
341.9893294918671
 21
330.5499201772333
 31
0.0
  0
LINE
  5
1200
330
18
100
AcDbEntity
  8
目盛
100
AcDbLine
 10
337.9548759363271
 20
337.7345386909043
 30
0.0
 11
339.9538890570586
 21
337.7973602090606
 31
0.0
  0
LINE
  5
1201
330
18
100
AcDbEntity
  8
目盛
100
AcDbLine
 10
338.0988536816639
 20
335.4460779611302
 30
0.0
 11
340.0899776108701
 21
335.6342945877673
 31
0.0
  0
LINE
  5
1202
330
18
100
AcDbEntity
  8
目盛
100
AcDbLine
 10
338.3862409579538
 20
333.1711734232876
 30
0.0
 11
340.3616176391441
 21
333.4840423533681
 31
0.0
  0
LINE
  5
1203
330
18
100
AcDbEntity
  8
目盛
100
AcDbLine
 10
338.815903578912
 20
330.9188030862822
 30
0.0
 11
340.7677371027895
 21
331.3550895690753
 31
0.0
  0
LINE
  5
1204
330
18
100
AcDbEntity
  8
目盛
100
AcDbLine
 10
339.7233025449032
 20
327.6019111025704
 30
0.0
 11
344.0030568682314
 21
328.9924875772576
 31
0.0
  0
LINE
  5
1205
330
18
100
AcDbEntity
  8
目盛
100
AcDbLine
 10
339.3861458624678
 20
328.6978560268241
 30
0.0
 11
341.3067332338218
 21
329.2558382389026
 31
0.0
  0
LINE
  5
1206
330
18
100
AcDbEntity
  8
目盛
100
AcDbLine
 10
340.5000236547551
 20
325.4444852242652
 30
0.0
 11
343.2893531124198
 21
326.5488588823193
 31
0.0
  0
LINE
  5
1207
330
18
100
AcDbEntity
  8
目盛
100
AcDbLine
 10
341.4106779746666
 20
323.3400872551309
 30
0.0
 11
344.1251591320646
 21
324.6174251298261
 31
0.0
  0
LINE
  5
1208
330
18
100
AcDbEntity
  8
目盛
100
AcDbLine
 10
342.4516715680753
 20
321.2970222925434
 30
0.0
 11
345.0805916082069
 21
322.7422833148486
 31
0.0
  0
LINE
  5
1209
330
18
100
AcDbEntity
  8
目盛
100
AcDbLine
 10
343.6188961088527
 20
319.3233533805226
 30
0.0
 11
346.1518798853588
 21
320.9308337654596
 31
0.0
  0
LINE
  5
120A
330
18
100
AcDbEntity
  8
目盛
100
AcDbLine
 10
340.094717322847
 20
326.517097308303
 30
0.0
 11
341.9764788607555
 21
327.1945731487934
 31
0.0
  0
LINE
  5
120B
330
18
100
AcDbEntity
  8
目盛
100
AcDbLine
 10
340.9388215522109
 20
324.3851333890865
 30
0.0
 11
342.7743308035789
 21
325.1794291703561
 31
0.0
  0
LINE
  5
120C
330
18
100
AcDbEntity
  8
目盛
100
AcDbLine
 10
341.9151272568008
 20
322.3103781567626
 30
0.0
 11
343.6971403051775
 21
323.2183591562417
 31
0.0
  0
LINE
  5
120D
330
18
100
AcDbEntity
  8
目盛
100
AcDbLine
 10
343.0197814040323
 20
320.3010197223674
 30
0.0
 11
344.7412654580402
 21
321.3191025538682
 31
0.0
  0
LINE
  5
120E
330
18
100
AcDbEntity
  8
目盛
100
AcDbLine
 10
344.9077450949907
 20
317.4268696885807
 30
0.0
 11
348.548321569678
 21
320.0719033238968
 31
0.0
  0
LINE
  5
120F
330
18
100
AcDbEntity
  8
目盛
100
AcDbLine
 10
344.2484244286547
 20
318.3649881056532
 30
0.0
 11
345.9025855772039
 21
319.4891548613575
 31
0.0
  0
LINE
  5
1210
330
18
100
AcDbEntity
  8
目盛
100
AcDbLine
 10
346.31313202836
 20
315.6150557714288
 30
0.0
 11
348.6246717566875
 21
317.5273277406749
 31
0.0
  0
LINE
  5
1211
330
18
100
AcDbEntity
  8
目盛
100
AcDbLine
 10
347.8295104887949
 20
313.8950620308589
 30
0.0
 11
350.0164163710591
 21
315.9487033486449
 31
0.0
  0
LINE
  5
1212
330
18
100
AcDbEntity
  8
目盛
100
AcDbLine
 10
349.4508960232792
 20
312.2736764963745
 30
0.0
 11
351.5045373410653
 21
314.4605823786387
 31
0.0
  0
LINE
  5
1213
330
18
100
AcDbEntity
  8
目盛
100
AcDbLine
 10
351.1708897638491
 20
310.7572980359397
 30
0.0
 11
353.0831617330952
 21
313.0688377642671
 31
0.0
  0
LINE
  5
1214
330
18
100
AcDbEntity
  8
目盛
100
AcDbLine
 10
345.5962074379637
 20
316.5099239389224
 30
0.0
 11
347.176517462715
 21
317.7357380462283
 31
0.0
  0
LINE
  5
1215
330
18
100
AcDbEntity
  8
目盛
100
AcDbLine
 10
347.0578113481646
 20
314.7431483129427
 30
0.0
 11
348.5580334874255
 21
316.06577204359
 31
0.0
  0
LINE
  5
1216
330
18
100
AcDbEntity
  8
目盛
100
AcDbLine
 10
348.6274678763674
 20
313.071633883947
 30
0.0
 11
350.0416814387404
 21
314.4858474463201
 31
0.0
  0
LINE
  5
1217
330
18
100
AcDbEntity
  8
目盛
100
AcDbLine
 10
350.298982305363
 20
311.5019773557442
 30
0.0
 11
351.6216060360104
 21
313.0021994950051
 31
0.0
  0
LINE
  5
1218
330
18
100
AcDbEntity
  8
目盛
100
AcDbLine
 10
352.9827036810011
 20
309.3519111025704
 30
0.0
 11
355.6277373163172
 21
312.9924875772577
 31
0.0
  0
LINE
  5
1219
330
18
100
AcDbEntity
  8
目盛
100
AcDbLine
 10
352.0657579313428
 20
310.0403734455432
 30
0.0
 11
353.2915720386487
 21
311.6206834702947
 31
0.0
  0
LINE
  5
121A
330
18
100
AcDbEntity
  8
目盛
100
AcDbLine
 10
354.8791873729428
 20
308.0630621164325
 30
0.0
 11
356.4866677578799
 21
310.5960458929385
 31
0.0
  0
LINE
  5
121B
330
18
100
AcDbEntity
  8
目盛
100
AcDbLine
 10
356.8528562849636
 20
306.895837575655
 30
0.0
 11
358.2981173072688
 21
309.5247576157865
 31
0.0
  0
LINE
  5
121C
330
18
100
AcDbEntity
  8
目盛
100
AcDbLine
 10
358.8959212475511
 20
305.8548439822463
 30
0.0
 11
360.1732591222463
 21
308.5693251396443
 31
0.0
  0
LINE
  5
121D
330
18
100
AcDbEntity
  8
目盛
100
AcDbLine
 10
361.0003192166855
 20
304.9441896623348
 30
0.0
 11
362.1046928747395
 21
307.7335191199995
 31
0.0
  0
LINE
  5
121E
330
18
100
AcDbEntity
  8
目盛
100
AcDbLine
 10
353.9208220980735
 20
308.6925904362345
 30
0.0
 11
355.0449888537778
 21
310.3467515847835
 31
0.0
  0
LINE
  5
121F
330
18
100
AcDbEntity
  8
目盛
100
AcDbLine
 10
355.8568537147877
 20
307.463947411612
 30
0.0
 11
356.8749365462884
 21
309.1854314656199
 31
0.0
  0
LINE
  5
1220
330
18
100
AcDbEntity
  8
目盛
100
AcDbLine
 10
357.8662121491828
 20
306.3592932643806
 30
0.0
 11
358.7741931486618
 21
308.1413063127572
 31
0.0
  0
LINE
  5
1221
330
18
100
AcDbEntity
  8
目盛
100
AcDbLine
 10
359.9409673815068
 20
305.3829875597906
 30
0.0
 11
360.7352631627763
 21
307.2184968111586
 31
0.0
  0
LINE
  5
1222
330
18
100
AcDbEntity
  8
目盛
100
AcDbLine
 10
363.1577450949907
 20
304.1674685524829
 30
0.0
 11
364.548321569678
 21
308.447222875811
 31
0.0
  0
LINE
  5
1223
330
18
100
AcDbEntity
  8
目盛
100
AcDbLine
 10
362.0729313007231
 20
304.5388833304266
 30
0.0
 11
362.7504071412137
 21
306.4206448683352
 31
0.0
  0
LINE
  5
1224
330
18
100
AcDbEntity
  8
目盛
100
AcDbLine
 10
365.359684508159
 20
303.5277460160608
 30
0.0
 11
366.1057541696536
 21
306.4334954994468
 31
0.0
  0
LINE
  5
1225
330
18
100
AcDbEntity
  8
目盛
100
AcDbLine
 10
367.5974474072973
 20
303.0275467456588
 30
0.0
 11
368.1595913510545
 21
305.9744084978449
 31
0.0
  0
LINE
  5
1226
330
18
100
AcDbEntity
  8
目盛
100
AcDbLine
 10
369.8622023645792
 20
302.6688447992775
 30
0.0
 11
370.238202065272
 21
305.6451889032209
 31
0.0
  0
LINE
  5
1227
330
18
100
AcDbEntity
  8
目盛
100
AcDbLine
 10
372.1450114268563
 20
302.453055809624
 30
0.0
 11
372.3333829854443
 21
305.4471359949088
 31
0.0
  0
LINE
  5
1228
330
18
100
AcDbEntity
  8
目盛
100
AcDbLine
 10
364.2536900192444
 20
303.8303118700475
 30
0.0
 11
364.8116722313229
 21
305.7508992414014
 31
0.0
  0
LINE
  5
1229
330
18
100
AcDbEntity
  8
目盛
100
AcDbLine
 10
366.4746370787025
 20
303.2600695864916
 30
0.0
 11
366.9109235614955
 21
305.2119031103691
 31
0.0
  0
LINE
  5
122A
330
18
100
AcDbEntity
  8
目盛
100
AcDbLine
 10
368.7270074157078
 20
302.8304069655334
 30
0.0
 11
369.0398763457882
 21
304.8057836467237
 31
0.0
  0
LINE
  5
122B
330
18
100
AcDbEntity
  8
目盛
100
AcDbLine
 10
371.0019119535505
 20
302.5430196892435
 30
0.0
 11
371.1901285801875
 21
304.5341436184497
 31
0.0
  0
LINE
  5
122C
330
18
100
AcDbEntity
  8
目盛
100
AcDbLine
 10
374.4368653896763
 20
302.3810313972559
 30
0.0
 11
374.4368653896763
 21
306.8810313972559
 31
0.0
  0
LINE
  5
122D
330
18
100
AcDbEntity
  8
目盛
100
AcDbLine
 10
373.2903726833246
 20
302.3990419439067
 30
0.0
 11
373.3531942014808
 21
304.3980550646382
 31
0.0
  0
LINE
  5
122E
330
18
100
AcDbEntity
  8
目盛
100
AcDbLine
 10
376.7287193524963
 20
302.4530558096241
 30
0.0
 11
376.5403477939083
 21
305.447135994909
 31
0.0
  0
LINE
  5
122F
330
18
100
AcDbEntity
  8
目盛
100
AcDbLine
 10
379.0115284147734
 20
302.6688447992776
 30
0.0
 11
378.6355287140805
 21
305.645188903221
 31
0.0
  0
LINE
  5
1230
330
18
100
AcDbEntity
  8
目盛
100
AcDbLine
 10
381.2762833720553
 20
303.0275467456589
 30
0.0
 11
380.7141394282981
 21
305.9744084978449
 31
0.0
  0
LINE
  5
1231
330
18
100
AcDbEntity
  8
目盛
100
AcDbLine
 10
383.5140462711935
 20
303.527746016061
 30
0.0
 11
382.767976609699
 21
306.4334954994468
 31
0.0
  0
LINE
  5
1232
330
18
100
AcDbEntity
  8
目盛
100
AcDbLine
 10
375.583358096028
 20
302.3990419439068
 30
0.0
 11
375.5205365778718
 21
304.3980550646383
 31
0.0
  0
LINE
  5
1233
330
18
100
AcDbEntity
  8
目盛
100
AcDbLine
 10
377.8718188258021
 20
302.5430196892436
 30
0.0
 11
377.6836021991651
 21
304.5341436184498
 31
0.0
  0
LINE
  5
1234
330
18
100
AcDbEntity
  8
目盛
100
AcDbLine
 10
380.1467233636447
 20
302.8304069655336
 30
0.0
 11
379.8338544335643
 21
304.8057836467238
 31
0.0
  0
LINE
  5
1235
330
18
100
AcDbEntity
  8
目盛
100
AcDbLine
 10
382.3990937006501
 20
303.2600695864918
 30
0.0
 11
381.962807217857
 21
305.2119031103692
 31
0.0
  0
LINE
  5
1236
330
18
100
AcDbEntity
  8
目盛
100
AcDbLine
 10
385.7159856843619
 20
304.1674685524829
 30
0.0
 11
384.3254092096746
 21
308.4472228758111
 31
0.0
  0
LINE
  5
1237
330
18
100
AcDbEntity
  8
目盛
100
AcDbLine
 10
384.6200407601083
 20
303.8303118700476
 30
0.0
 11
384.0620585480297
 21
305.7508992414015
 31
0.0
  0
LINE
  5
1238
330
18
100
AcDbEntity
  8
目盛
100
AcDbLine
 10
387.873411562667
 20
304.9441896623348
 30
0.0
 11
386.769037904613
 21
307.7335191199995
 31
0.0
  0
LINE
  5
1239
330
18
100
AcDbEntity
  8
目盛
100
AcDbLine
 10
389.9778095318014
 20
305.8548439822463
 30
0.0
 11
388.7004716571062
 21
308.5693251396443
 31
0.0
  0
LINE
  5
123A
330
18
100
AcDbEntity
  8
目盛
100
AcDbLine
 10
392.0208744943889
 20
306.8958375756549
 30
0.0
 11
390.5756134720837
 21
309.5247576157865
 31
0.0
  0
LINE
  5
123B
330
18
100
AcDbEntity
  8
目盛
100
AcDbLine
 10
393.9945434064097
 20
308.0630621164323
 30
0.0
 11
392.3870630214726
 21
310.5960458929384
 31
0.0
  0
LINE
  5
123C
330
18
100
AcDbEntity
  8
目盛
100
AcDbLine
 10
386.8007994786294
 20
304.5388833304268
 30
0.0
 11
386.1233236381389
 21
306.4206448683351
 31
0.0
  0
LINE
  5
123D
330
18
100
AcDbEntity
  8
目盛
100
AcDbLine
 10
388.9327633978457
 20
305.3829875597906
 30
0.0
 11
388.1384676165762
 21
307.2184968111586
 31
0.0
  0
LINE
  5
123E
330
18
100
AcDbEntity
  8
目盛
100
AcDbLine
 10
391.0075186301697
 20
306.3592932643806
 30
0.0
 11
390.0995376306907
 21
308.1413063127572
 31
0.0
  0
LINE
  5
123F
330
18
100
AcDbEntity
  8
目盛
100
AcDbLine
 10
393.0168770645648
 20
307.4639474116119
 30
0.0
 11
391.998794233064
 21
309.1854314656199
 31
0.0
  0
LINE
  5
1240
330
18
100
AcDbEntity
  8
目盛
100
AcDbLine
 10
395.8910270983515
 20
309.3519111025704
 30
0.0
 11
393.2459934630355
 21
312.9924875772577
 31
0.0
  0
LINE
  5
1241
330
18
100
AcDbEntity
  8
目盛
100
AcDbLine
 10
394.9529086812791
 20
308.6925904362345
 30
0.0
 11
393.8287419255748
 21
310.3467515847836
 31
0.0
  0
LINE
  5
1242
330
18
100
AcDbEntity
  8
目盛
100
AcDbLine
 10
397.7028410155035
 20
310.7572980359396
 30
0.0
 11
395.7905690462575
 21
313.0688377642671
 31
0.0
  0
LINE
  5
1243
330
18
100
AcDbEntity
  8
目盛
100
AcDbLine
 10
399.4228347560735
 20
312.2736764963745
 30
0.0
 11
397.3691934382874
 21
314.4605823786386
 31
0.0
  0
LINE
  5
1244
330
18
100
AcDbEntity
  8
目盛
100
AcDbLine
 10
401.0442202905578
 20
313.8950620308588
 30
0.0
 11
398.8573144082936
 21
315.9487033486449
 31
0.0
  0
LINE
  5
1245
330
18
100
AcDbEntity
  8
目盛
100
AcDbLine
 10
402.5605987509926
 20
315.6150557714287
 30
0.0
 11
400.2490590226653
 21
317.5273277406748
 31
0.0
  0
LINE
  5
1246
330
18
100
AcDbEntity
  8
目盛
100
AcDbLine
 10
396.80797284801
 20
310.0403734455433
 30
0.0
 11
395.5821587407041
 21
311.6206834702946
 31
0.0
  0
LINE
  5
1247
330
18
100
AcDbEntity
  8
目盛
100
AcDbLine
 10
398.5747484739897
 20
311.5019773557442
 30
0.0
 11
397.2521247433423
 21
313.0021994950051
 31
0.0
  0
LINE
  5
1248
330
18
100
AcDbEntity
  8
目盛
100
AcDbLine
 10
400.2462629029853
 20
313.071633883947
 30
0.0
 11
398.8320493406122
 21
314.48584744632
 31
0.0
  0
LINE
  5
1249
330
18
100
AcDbEntity
  8
目盛
100
AcDbLine
 10
401.8159194311881
 20
314.7431483129426
 30
0.0
 11
400.3156972919271
 21
316.06577204359
 31
0.0
  0
LINE
  5
124A
330
18
100
AcDbEntity
  8
目盛
100
AcDbLine
 10
403.9659856843619
 20
317.4268696885807
 30
0.0
 11
400.3254092096746
 21
320.0719033238968
 31
0.0
  0
LINE
  5
124B
330
18
100
AcDbEntity
  8
目盛
100
AcDbLine
 10
403.277523341389
 20
316.5099239389224
 30
0.0
 11
401.6972133166376
 21
317.7357380462283
 31
0.0
  0
LINE
  5
124C
330
18
100
AcDbEntity
  8
目盛
100
AcDbLine
 10
405.2548346704998
 20
319.3233533805226
 30
0.0
 11
402.7218508939937
 21
320.9308337654596
 31
0.0
  0
LINE
  5
124D
330
18
100
AcDbEntity
  8
目盛
100
AcDbLine
 10
406.4220592112773
 20
321.2970222925434
 30
0.0
 11
403.7931391711457
 21
322.7422833148485
 31
0.0
  0
LINE
  5
124E
330
18
100
AcDbEntity
  8
目盛
100
AcDbLine
 10
407.4630528046859
 20
323.3400872551308
 30
0.0
 11
404.748571647288
 21
324.617425129826
 31
0.0
  0
LINE
  5
124F
330
18
100
AcDbEntity
  8
目盛
100
AcDbLine
 10
408.3737071245974
 20
325.4444852242652
 30
0.0
 11
405.5843776669327
 21
326.5488588823192
 31
0.0
  0
LINE
  5
1250
330
18
100
AcDbEntity
  8
目盛
100
AcDbLine
 10
404.6253063506978
 20
318.3649881056532
 30
0.0
 11
402.9711452021486
 21
319.4891548613575
 31
0.0
  0
LINE
  5
1251
330
18
100
AcDbEntity
  8
目盛
100
AcDbLine
 10
405.8539493753202
 20
320.3010197223674
 30
0.0
 11
404.1324653213123
 21
321.3191025538681
 31
0.0
  0
LINE
  5
1252
330
18
100
AcDbEntity
  8
目盛
100
AcDbLine
 10
406.9586035225516
 20
322.3103781567625
 30
0.0
 11
405.1765904741749
 21
323.2183591562415
 31
0.0
  0
LINE
  5
1253
330
18
100
AcDbEntity
  8
目盛
100
AcDbLine
 10
407.9349092271416
 20
324.3851333890865
 30
0.0
 11
406.0993999757736
 21
325.179429170356
 31
0.0
  0
LINE
  5
1254
330
18
100
AcDbEntity
  8
目盛
100
AcDbLine
 10
409.1504282344494
 20
327.6019111025704
 30
0.0
 11
404.8706739111212
 21
328.9924875772576
 31
0.0
  0
LINE
  5
1255
330
18
100
AcDbEntity
  8
目盛
100
AcDbLine
 10
408.7790134565056
 20
326.5170973083028
 30
0.0
 11
406.8972519185971
 21
327.1945731487934
 31
0.0
  0
LINE
  5
1256
330
18
100
AcDbEntity
  8
目盛
100
AcDbLine
 10
409.7901507708713
 20
329.8038505157387
 30
0.0
 11
406.8844012874854
 21
330.5499201772333
 31
0.0
  0
LINE
  5
1257
330
18
100
AcDbEntity
  8
目盛
100
AcDbLine
 10
410.2903500412734
 20
332.041613414877
 30
0.0
 11
407.3434882890873
 21
332.6037573586342
 31
0.0
  0
LINE
  5
1258
330
18
100
AcDbEntity
  8
目盛
100
AcDbLine
 10
410.6490519876547
 20
334.3063683721589
 30
0.0
 11
407.6727078837113
 21
334.6823680728518
 31
0.0
  0
LINE
  5
1259
330
18
100
AcDbEntity
  8
目盛
100
AcDbLine
 10
410.8648409773082
 20
336.589177434436
 30
0.0
 11
407.8707607920234
 21
336.777548993024
 31
0.0
  0
LINE
  5
125A
330
18
100
AcDbEntity
  8
目盛
100
AcDbLine
 10
409.4875849168847
 20
328.6978560268241
 30
0.0
 11
407.5669975455308
 21
329.2558382389026
 31
0.0
  0
LINE
  5
125B
330
18
100
AcDbEntity
  8
目盛
100
AcDbLine
 10
410.0578272004406
 20
330.9188030862822
 30
0.0
 11
408.1059936765631
 21
331.3550895690752
 31
0.0
  0
LINE
  5
125C
330
18
100
AcDbEntity
  8
目盛
100
AcDbLine
 10
410.4874898213988
 20
333.1711734232876
 30
0.0
 11
408.5121131402085
 21
333.4840423533679
 31
0.0
  0
LINE
  5
125D
330
18
100
AcDbEntity
  8
目盛
100
AcDbLine
 10
410.7748770976887
 20
335.4460779611302
 30
0.0
 11
408.7837531684825
 21
335.6342945877672
 31
0.0
  0
LINE
  5
125E
330
18
100
AcDbEntity
  8
目盛
100
AcDbLine
 10
410.9368653896763
 20
338.881031397256
 30
0.0
 11
406.4368653896763
 21
338.881031397256
 31
0.0
  0
LINE
  5
125F
330
18
100
AcDbEntity
  8
目盛
100
AcDbLine
 10
410.9188548430255
 20
337.7345386909043
 30
0.0
 11
408.919841722294
 21
337.7973602090606
 31
0.0
  0
LINE
  5
1260
330
18
100
AcDbEntity
  8
目盛
100
AcDbLine
 10
410.8648409773082
 20
341.1728853600759
 30
0.0
 11
407.8707607920234
 21
340.9845138014879
 31
0.0
  0
LINE
  5
1261
330
18
100
AcDbEntity
  8
目盛
100
AcDbLine
 10
410.6490519876547
 20
343.455694422353
 30
0.0
 11
407.6727078837112
 21
343.0796947216601
 31
0.0
  0
LINE
  5
1262
330
18
100
AcDbEntity
  8
目盛
100
AcDbLine
 10
410.2903500412734
 20
345.7204493796348
 30
0.0
 11
407.3434882890873
 21
345.1583054358777
 31
0.0
  0
LINE
  5
1263
330
18
100
AcDbEntity
  8
目盛
100
AcDbLine
 10
409.7901507708713
 20
347.9582122787731
 30
0.0
 11
406.8844012874854
 21
347.2121426172786
 31
0.0
  0
LINE
  5
1264
330
18
100
AcDbEntity
  8
目盛
100
AcDbLine
 10
410.9188548430254
 20
340.0275241036076
 30
0.0
 11
408.919841722294
 21
339.9647025854513
 31
0.0
  0
LINE
  5
1265
330
18
100
AcDbEntity
  8
目盛
100
AcDbLine
 10
410.7748770976887
 20
342.3159848333817
 30
0.0
 11
408.7837531684825
 21
342.1277682067447
 31
0.0
  0
LINE
  5
1266
330
18
100
AcDbEntity
  8
目盛
100
AcDbLine
 10
410.4874898213987
 20
344.5908893712243
 30
0.0
 11
408.5121131402085
 21
344.2780204411438
 31
0.0
  0
LINE
  5
1267
330
18
100
AcDbEntity
  8
目盛
100
AcDbLine
 10
410.0578272004406
 20
346.8432597082297
 30
0.0
 11
408.1059936765631
 21
346.4069732254366
 31
0.0
  0
LINE
  5
1268
330
18
100
AcDbEntity
  8
目盛
100
AcDbLine
 10
409.1504282344494
 20
350.1601516919415
 30
0.0
 11
404.8706739111212
 21
348.7695752172542
 31
0.0
  0
LINE
  5
1269
330
18
100
AcDbEntity
  8
目盛
100
AcDbLine
 10
409.4875849168847
 20
349.0642067676879
 30
0.0
 11
407.5669975455308
 21
348.5062245556093
 31
0.0
  0
LINE
  5
126A
330
18
100
AcDbEntity
  8
目盛
100
AcDbLine
 10
408.3737071245975
 20
352.3175775702467
 30
0.0
 11
405.5843776669328
 21
351.2132039121926
 31
0.0
  0
LINE
  5
126B
330
18
100
AcDbEntity
  8
目盛
100
AcDbLine
 10
407.463052804686
 20
354.4219755393811
 30
0.0
 11
404.748571647288
 21
353.1446376646859
 31
0.0
  0
LINE
  5
126C
330
18
100
AcDbEntity
  8
目盛
100
AcDbLine
 10
406.4220592112774
 20
356.4650405019686
 30
0.0
 11
403.7931391711458
 21
355.0197794796634
 31
0.0
  0
LINE
  5
126D
330
18
100
AcDbEntity
  8
目盛
100
AcDbLine
 10
405.2548346704999
 20
358.4387094139893
 30
0.0
 11
402.7218508939938
 21
356.8312290290523
 31
0.0
  0
LINE
  5
126E
330
18
100
AcDbEntity
  8
目盛
100
AcDbLine
 10
408.7790134565056
 20
351.2449654862091
 30
0.0
 11
406.8972519185971
 21
350.5674896457185
 31
0.0
  0
LINE
  5
126F
330
18
100
AcDbEntity
  8
目盛
100
AcDbLine
 10
407.9349092271416
 20
353.3769294054255
 30
0.0
 11
406.0993999757737
 21
352.5826336241558
 31
0.0
  0
LINE
  5
1270
330
18
100
AcDbEntity
  8
目盛
100
AcDbLine
 10
406.9586035225517
 20
355.4516846377494
 30
0.0
 11
405.1765904741751
 21
354.5437036382702
 31
0.0
  0
LINE
  5
1271
330
18
100
AcDbEntity
  8
目盛
100
AcDbLine
 10
405.8539493753203
 20
357.4610430721445
 30
0.0
 11
404.1324653213124
 21
356.4429602406438
 31
0.0
  0
LINE
  5
1272
330
18
100
AcDbEntity
  8
目盛
100
AcDbLine
 10
403.9659856843619
 20
360.3351931059312
 30
0.0
 11
400.3254092096747
 21
357.6901594706151
 31
0.0
  0
LINE
  5
1273
330
18
100
AcDbEntity
  8
目盛
100
AcDbLine
 10
404.6253063506979
 20
359.3970746888587
 30
0.0
 11
402.9711452021486
 21
358.2729079331544
 31
0.0
  0
LINE
  5
1274
330
18
100
AcDbEntity
  8
目盛
100
AcDbLine
 10
402.5605987509926
 20
362.1470070230832
 30
0.0
 11
400.2490590226653
 21
360.2347350538372
 31
0.0
  0
LINE
  5
1275
330
18
100
AcDbEntity
  8
目盛
100
AcDbLine
 10
401.0442202905578
 20
363.8670007636531
 30
0.0
 11
398.8573144082936
 21
361.8133594458671
 31
0.0
  0
LINE
  5
1276
330
18
100
AcDbEntity
  8
目盛
100
AcDbLine
 10
399.4228347560735
 20
365.4883862981376
 30
0.0
 11
397.3691934382874
 21
363.3014804158734
 31
0.0
  0
LINE
  5
1277
330
18
100
AcDbEntity
  8
目盛
100
AcDbLine
 10
397.7028410155035
 20
367.0047647585723
 30
0.0
 11
395.7905690462575
 21
364.6932250302449
 31
0.0
  0
LINE
  5
1278
330
18
100
AcDbEntity
  8
目盛
100
AcDbLine
 10
403.277523341389
 20
361.2521388555896
 30
0.0
 11
401.6972133166376
 21
360.0263247482837
 31
0.0
  0
LINE
  5
1279
330
18
100
AcDbEntity
  8
目盛
100
AcDbLine
 10
401.8159194311881
 20
363.0189144815694
 30
0.0
 11
400.3156972919271
 21
361.696290750922
 31
0.0
  0
LINE
  5
127A
330
18
100
AcDbEntity
  8
目盛
100
AcDbLine
 10
400.2462629029853
 20
364.690428910565
 30
0.0
 11
398.8320493406122
 21
363.2762153481918
 31
0.0
  0
LINE
  5
127B
330
18
100
AcDbEntity
  8
目盛
100
AcDbLine
 10
398.5747484739897
 20
366.2600854387678
 30
0.0
 11
397.2521247433423
 21
364.7598632995069
 31
0.0
  0
LINE
  5
127C
330
18
100
AcDbEntity
  8
目盛
100
AcDbLine
 10
395.8910270983516
 20
368.4101516919416
 30
0.0
 11
393.2459934630355
 21
364.7695752172543
 31
0.0
  0
LINE
  5
127D
330
18
100
AcDbEntity
  8
目盛
100
AcDbLine
 10
396.8079728480099
 20
367.7216893489688
 30
0.0
 11
395.582158740704
 21
366.1413793242174
 31
0.0
  0
LINE
  5
127E
330
18
100
AcDbEntity
  8
目盛
100
AcDbLine
 10
393.9945434064098
 20
369.6990006780795
 30
0.0
 11
392.3870630214727
 21
367.1660169015735
 31
0.0
  0
LINE
  5
127F
330
18
100
AcDbEntity
  8
目盛
100
AcDbLine
 10
392.0208744943889
 20
370.8662252188569
 30
0.0
 11
390.5756134720838
 21
368.2373051787254
 31
0.0
  0
LINE
  5
1280
330
18
100
AcDbEntity
  8
目盛
100
AcDbLine
 10
389.9778095318015
 20
371.9072188122656
 30
0.0
 11
388.7004716571063
 21
369.1927376548676
 31
0.0
  0
LINE
  5
1281
330
18
100
AcDbEntity
  8
目盛
100
AcDbLine
 10
387.8734115626671
 20
372.8178731321771
 30
0.0
 11
386.7690379046131
 21
370.0285436745124
 31
0.0
  0
LINE
  5
1282
330
18
100
AcDbEntity
  8
目盛
100
AcDbLine
 10
394.9529086812791
 20
369.0694723582775
 30
0.0
 11
393.8287419255748
 21
367.4153112097284
 31
0.0
  0
LINE
  5
1283
330
18
100
AcDbEntity
  8
目盛
100
AcDbLine
 10
393.0168770645649
 20
370.2981153829
 30
0.0
 11
391.9987942330642
 21
368.5766313288921
 31
0.0
  0
LINE
  5
1284
330
18
100
AcDbEntity
  8
目盛
100
AcDbLine
 10
391.0075186301698
 20
371.4027695301314
 30
0.0
 11
390.0995376306908
 21
369.6207564817547
 31
0.0
  0
LINE
  5
1285
330
18
100
AcDbEntity
  8
目盛
100
AcDbLine
 10
388.9327633978459
 20
372.3790752347213
 30
0.0
 11
388.1384676165763
 21
370.5435659833533
 31
0.0
  0
LINE
  5
1286
330
18
100
AcDbEntity
  8
目盛
100
AcDbLine
 10
385.7159856843619
 20
373.5945942420291
 30
0.0
 11
384.3254092096747
 21
369.3148399187009
 31
0.0
  0
LINE
  5
1287
330
18
100
AcDbEntity
  8
目盛
100
AcDbLine
 10
386.8007994786295
 20
373.2231794640853
 30
0.0
 11
386.1233236381389
 21
371.3414179261767
 31
0.0
  0
POINT
  5
1365
330
18
100
AcDbEntity
  8
DEFPOINTS
  6
ByBlock
 62
     0
100
AcDbPoint
 10
333.6868653896763
 20
338.881031397256
 30
0.0
  0
POINT
  5
136F
330
18
100
AcDbEntity
  8
DEFPOINTS
  6
ByBlock
 62
     0
100
AcDbPoint
 10
333.6868653896763
 20
338.881031397256
 30
0.0
  0
LINE
  5
1385
330
18
100
AcDbEntity
  8
0
  6
ByBlock
 62
     2
100
AcDbLine
 10
508.0222212601158
 20
271.431031397256
 30
0.0
 11
499.279641654448
 21
271.431031397256
 31
0.0
  0
LINE
  5
1386
330
18
100
AcDbEntity
  8
0
  6
ByBlock
 62
     2
100
AcDbLine
 10
520.4083621178297
 20
278.431031397256
 30
0.0
 11
499.279641654448
 21
278.431031397256
 31
0.0
  0
LINE
  5
1387
330
18
100
AcDbEntity
  8
0
  6
ByBlock
 62
     2
100
AcDbLine
 10
500.529641654448
 20
273.931031397256
 30
0.0
 11
500.529641654448
 21
275.9310313972559
 31
0.0
  0
INSERT
  5
1388
330
18
100
AcDbEntity
  8
0
  6
ByBlock
 62
     2
100
AcDbBlockReference
  2
_OPEN
 10
500.529641654448
 20
271.431031397256
 30
0.0
 41
2.5
 42
2.5
 43
2.5
 50
270.0
  0
INSERT
  5
1389
330
18
100
AcDbEntity
  8
0
  6
ByBlock
 62
     2
100
AcDbBlockReference
  2
_OPEN
 10
500.529641654448
 20
278.431031397256
 30
0.0
 41
2.5
 42
2.5
 43
2.5
 50
90.0
  0
MTEXT
  5
138A
330
18
100
AcDbEntity
  8
0
  6
ByBlock
 62
     6
100
AcDbMText
 10
498.654641654448
 20
274.9310313972559
 30
0.0
 40
2.5
 41
0.0
 71
     5
 72
     1
  1
\A1;7
  7
STYLE3
 11
0.0000000000000001
 21
1.0
 31
0.0
 73
     1
 44
1.0
  0
POINT
  5
138B
330
18
100
AcDbEntity
  8
DEFPOINTS
  6
ByBlock
 62
     0
100
AcDbPoint
 10
508.0222212601158
 20
271.431031397256
 30
0.0
  0
POINT
  5
138C
330
18
100
AcDbEntity
  8
DEFPOINTS
  6
ByBlock
 62
     0
100
AcDbPoint
 10
520.4083621178297
 20
278.431031397256
 30
0.0
  0
POINT
  5
138D
330
18
100
AcDbEntity
  8
DEFPOINTS
  6
ByBlock
 62
     0
100
AcDbPoint
 10
500.529641654448
 20
278.431031397256
 30
0.0
  0
LINE
  5
138E
330
18
100
AcDbEntity
  8
0
  6
ByBlock
 62
     2
100
AcDbLine
 10
522.6583621178299
 20
271.431031397256
 30
0.0
 11
489.9776908202174
 21
271.431031397256
 31
0.0
  0
LINE
  5
138F
330
18
100
AcDbEntity
  8
0
  6
ByBlock
 62
     2
100
AcDbLine
 10
491.2276908202175
 20
295.6310313972561
 30
0.0
 11
491.2276908202175
 21
273.931031397256
 31
0.0
  0
INSERT
  5
1390
330
18
100
AcDbEntity
  8
0
  6
ByBlock
 62
     2
100
AcDbBlockReference
  2
_OPEN
 10
491.2276908202175
 20
298.131031397256
 30
0.0
 41
2.5
 42
2.5
 43
2.5
 50
90.0
  0
INSERT
  5
1391
330
18
100
AcDbEntity
  8
0
  6
ByBlock
 62
     2
100
AcDbBlockReference
  2
_OPEN
 10
491.2276908202175
 20
271.431031397256
 30
0.0
 41
2.5
 42
2.5
 43
2.5
 50
270.0
  0
MTEXT
  5
1392
330
18
100
AcDbEntity
  8
0
  6
ByBlock
 62
     6
100
AcDbMText
 10
489.3526908202175
 20
284.781031397256
 30
0.0
 40
2.5
 41
0.0
 71
     5
 72
     1
  1
\A1;26.7
  7
STYLE3
 11
0.0000000000000001
 21
1.0
 31
0.0
 73
     1
 44
1.0
  0
POINT
  5
1393
330
18
100
AcDbEntity
  8
DEFPOINTS
  6
ByBlock
 62
     0
100
AcDbPoint
 10
514.3083621178297
 20
298.131031397256
 30
0.0
  0
POINT
  5
1394
330
18
100
AcDbEntity
  8
DEFPOINTS
  6
ByBlock
 62
     0
100
AcDbPoint
 10
522.6583621178299
 20
271.431031397256
 30
0.0
  0
POINT
  5
1395
330
18
100
AcDbEntity
  8
DEFPOINTS
  6
ByBlock
 62
     0
100
AcDbPoint
 10
491.2276908202175
 20
271.431031397256
 30
0.0
  0
LINE
  5
1396
330
18
100
AcDbEntity
  8
0
  6
ByBlock
 62
     2
100
AcDbLine
 10
507.9083621178299
 20
338.8810313972562
 30
0.0
 11
507.9083621178299
 21
429.8087142933221
 31
0.0
  0
LINE
  5
1397
330
18
100
AcDbEntity
  8
0
  6
ByBlock
 62
     2
100
AcDbLine
 10
525.4083621178298
 20
427.8814838106982
 30
0.0
 11
525.4083621178298
 21
429.8087142933221
 31
0.0
  0
LINE
  5
1398
330
18
100
AcDbEntity
  8
0
  6
ByBlock
 62
     2
100
AcDbLine
 10
510.4083621178299
 20
428.5587142933221
 30
0.0
 11
522.9083621178298
 21
428.5587142933221
 31
0.0
  0
INSERT
  5
1399
330
18
100
AcDbEntity
  8
0
  6
ByBlock
 62
     2
100
AcDbBlockReference
  2
_OPEN
 10
507.9083621178299
 20
428.5587142933221
 30
0.0
 41
2.5
 42
2.5
 43
2.5
 50
180.0
  0
INSERT
  5
139A
330
18
100
AcDbEntity
  8
0
  6
ByBlock
 62
     2
100
AcDbBlockReference
  2
_OPEN
 10
525.4083621178298
 20
428.5587142933221
 30
0.0
 41
2.5
 42
2.5
 43
2.5
  0
MTEXT
  5
139B
330
18
100
AcDbEntity
  8
0
  6
ByBlock
 62
     6
100
AcDbMText
 10
516.6583621178299
 20
430.4337142933221
 30
0.0
 40
2.5
 41
0.0
 71
     5
 72
     1
  1
\A1;17.5
  7
STYLE3
 73
     1
 44
1.0
  0
POINT
  5
139C
330
18
100
AcDbEntity
  8
DEFPOINTS
  6
ByBlock
 62
     0
100
AcDbPoint
 10
507.9083621178299
 20
338.8810313972562
 30
0.0
  0
POINT
  5
139E
330
18
100
AcDbEntity
  8
DEFPOINTS
  6
ByBlock
 62
     0
100
AcDbPoint
 10
525.4083621178298
 20
428.5587142933221
 30
0.0
  0
LINE
  5
139F
330
18
100
AcDbEntity
  8
0
  6
ByBlock
 62
     2
100
AcDbLine
 10
374.4368653896763
 20
375.381031397256
 30
0.0
 11
428.8134465652058
 21
375.381031397256
 31
0.0
  0
LINE
  5
13A0
330
18
100
AcDbEntity
  8
0
  6
ByBlock
 62
     2
100
AcDbLine
 10
374.4368653896763
 20
302.381031397256
 30
0.0
 11
428.8134465652058
 21
302.381031397256
 31
0.0
  0
LINE
  5
13A1
330
18
100
AcDbEntity
  8
0
  6
ByBlock
 62
     2
100
AcDbLine
 10
427.5634465652058
 20
372.881031397256
 30
0.0
 11
427.5634465652058
 21
304.881031397256
 31
0.0
  0
INSERT
  5
13A2
330
18
100
AcDbEntity
  8
0
  6
ByBlock
 62
     2
100
AcDbBlockReference
  2
_OPEN
 10
427.5634465652058
 20
375.381031397256
 30
0.0
 41
2.5
 42
2.5
 43
2.5
 50
90.0
  0
INSERT
  5
13A3
330
18
100
AcDbEntity
  8
0
  6
ByBlock
 62
     2
100
AcDbBlockReference
  2
_OPEN
 10
427.5634465652058
 20
302.381031397256
 30
0.0
 41
2.5
 42
2.5
 43
2.5
 50
270.0
  0
MTEXT
  5
13A4
330
18
100
AcDbEntity
  8
0
  6
ByBlock
 62
     6
100
AcDbMText
 10
425.6884465652058
 20
338.881031397256
 30
0.0
 40
2.5
 41
0.0
 71
     5
 72
     1
  1
\A1;φ73
  7
STYLE3
 11
0.0000000000000001
 21
1.0
 31
0.0
 73
     1
 44
1.0
  0
POINT
  5
13A5
330
18
100
AcDbEntity
  8
DEFPOINTS
  6
ByBlock
 62
     0
100
AcDbPoint
 10
374.4368653896763
 20
375.381031397256
 30
0.0
  0
POINT
  5
13A6
330
18
100
AcDbEntity
  8
DEFPOINTS
  6
ByBlock
 62
     0
100
AcDbPoint
 10
374.4368653896763
 20
302.381031397256
 30
0.0
  0
POINT
  5
13A7
330
18
100
AcDbEntity
  8
DEFPOINTS
  6
ByBlock
 62
     0
100
AcDbPoint
 10
427.5634465652058
 20
302.381031397256
 30
0.0
  0
LINE
  5
13A8
330
18
100
AcDbEntity
  8
0
  6
ByBlock
 62
     2
100
AcDbLine
 10
514.3083621178297
 20
379.631031397256
 30
0.0
 11
489.9776908202174
 21
379.631031397256
 31
0.0
  0
LINE
  5
13A9
330
18
100
AcDbEntity
  8
0
  6
ByBlock
 62
     2
100
AcDbLine
 10
514.3083621178297
 20
298.131031397256
 30
0.0
 11
489.9776908202174
 21
298.131031397256
 31
0.0
  0
LINE
  5
13AA
330
18
100
AcDbEntity
  8
0
  6
ByBlock
 62
     2
100
AcDbLine
 10
491.2276908202175
 20
377.131031397256
 30
0.0
 11
491.2276908202175
 21
300.631031397256
 31
0.0
  0
INSERT
  5
13AB
330
18
100
AcDbEntity
  8
0
  6
ByBlock
 62
     2
100
AcDbBlockReference
  2
_OPEN
 10
491.2276908202175
 20
379.631031397256
 30
0.0
 41
2.5
 42
2.5
 43
2.5
 50
90.0
  0
INSERT
  5
13AC
330
18
100
AcDbEntity
  8
0
  6
ByBlock
 62
     2
100
AcDbBlockReference
  2
_OPEN
 10
491.2276908202175
 20
298.131031397256
 30
0.0
 41
2.5
 42
2.5
 43
2.5
 50
270.0
  0
MTEXT
  5
13AD
330
18
100
AcDbEntity
  8
0
  6
ByBlock
 62
     6
100
AcDbMText
 10
489.3526908202175
 20
338.881031397256
 30
0.0
 40
2.5
 41
0.0
 71
     5
 72
     1
  1
\A1;φ81.5
  7
STYLE3
 11
0.0000000000000001
 21
1.0
 31
0.0
 73
     1
 44
1.0
  0
POINT
  5
13AE
330
18
100
AcDbEntity
  8
DEFPOINTS
  6
ByBlock
 62
     0
100
AcDbPoint
 10
514.3083621178297
 20
379.631031397256
 30
0.0
  0
POINT
  5
13AF
330
18
100
AcDbEntity
  8
DEFPOINTS
  6
ByBlock
 62
     0
100
AcDbPoint
 10
514.3083621178297
 20
298.131031397256
 30
0.0
  0
POINT
  5
13B0
330
18
100
AcDbEntity
  8
DEFPOINTS
  6
ByBlock
 62
     0
100
AcDbPoint
 10
491.2276908202175
 20
298.131031397256
 30
0.0
  0
LINE
  5
13B1
330
18
100
AcDbEntity
  8
0
  6
ByBlock
 62
     2
100
AcDbLine
 10
371.6868653896764
 20
242.7212489701897
 30
0.0
 11
371.6868653896764
 21
249.5347492707643
 31
0.0
  0
LINE
  5
13B2
330
18
100
AcDbEntity
  8
0
  6
ByBlock
 62
     2
100
AcDbLine
 10
377.1868653896764
 20
241.5621862976352
 30
0.0
 11
377.1868653896764
 21
249.5347492707643
 31
0.0
  0
LINE
  5
13B3
330
18
100
AcDbEntity
  8
0
  6
ByBlock
 62
     2
100
AcDbLine
 10
369.1868653896764
 20
248.2847492707643
 30
0.0
 11
366.6868653896764
 21
248.2847492707643
 31
0.0
  0
LINE
  5
13B4
330
18
100
AcDbEntity
  8
0
  6
ByBlock
 62
     2
100
AcDbLine
 10
379.6868653896764
 20
248.2847492707643
 30
0.0
 11
391.5321034849144
 21
248.2847492707643
 31
0.0
  0
LINE
  5
13B5
330
18
100
AcDbEntity
  8
0
  6
ByBlock
 62
     2
100
AcDbLine
 10
371.6868653896764
 20
248.2847492707643
 30
0.0
 11
377.1868653896764
 21
248.2847492707643
 31
0.0
  0
INSERT
  5
13B6
330
18
100
AcDbEntity
  8
0
  6
ByBlock
 62
     2
100
AcDbBlockReference
  2
_OPEN
 10
371.6868653896764
 20
248.2847492707643
 30
0.0
 41
2.5
 42
2.5
 43
2.5
  0
INSERT
  5
13B7
330
18
100
AcDbEntity
  8
0
  6
ByBlock
 62
     2
100
AcDbBlockReference
  2
_OPEN
 10
377.1868653896764
 20
248.2847492707643
 30
0.0
 41
2.5
 42
2.5
 43
2.5
 50
180.0
  0
MTEXT
  5
13B8
330
18
100
AcDbEntity
  8
0
  6
ByBlock
 62
     6
100
AcDbMText
 10
386.8594844372954
 20
250.1597492707643
 30
0.0
 40
2.5
 41
0.0
 71
     5
 72
     1
  1
\A1;φ5.5
  7
STYLE3
 73
     1
 44
1.0
  0
POINT
  5
13B9
330
18
100
AcDbEntity
  8
DEFPOINTS
  6
ByBlock
 62
     0
100
AcDbPoint
 10
371.6868653896764
 20
242.7212489701897
 30
0.0
  0
POINT
  5
13BA
330
18
100
AcDbEntity
  8
DEFPOINTS
  6
ByBlock
 62
     0
100
AcDbPoint
 10
377.1868653896764
 20
241.5621862976352
 30
0.0
  0
POINT
  5
13BB
330
18
100
AcDbEntity
  8
DEFPOINTS
  6
ByBlock
 62
     0
100
AcDbPoint
 10
377.1868653896764
 20
248.2847492707643
 30
0.0
  0
LINE
  5
13BC
330
18
100
AcDbEntity
  8
0
  6
ByBlock
 62
     2
100
AcDbLine
 10
369.4368653896763
 20
284.4474992456714
 30
0.0
 11
369.4368653896763
 21
286.4134365731168
 31
0.0
  0
LINE
  5
13BD
330
18
100
AcDbEntity
  8
0
  6
ByBlock
 62
     2
100
AcDbLine
 10
379.4368653896764
 20
282.8248117679387
 30
0.0
 11
379.4368653896764
 21
286.4134365731168
 31
0.0
  0
LINE
  5
13BE
330
18
100
AcDbEntity
  8
0
  6
ByBlock
 62
     2
100
AcDbLine
 10
371.9368653896763
 20
285.1634365731168
 30
0.0
 11
376.9368653896764
 21
285.1634365731168
 31
0.0
  0
LINE
  5
13BF
330
18
100
AcDbEntity
  8
0
  6
ByBlock
 62
     2
100
AcDbLine
 10
379.4368653896764
 20
285.1634365731168
 30
0.0
 11
393.6630558658669
 21
285.1634365731168
 31
0.0
  0
INSERT
  5
13C0
330
18
100
AcDbEntity
  8
0
  6
ByBlock
 62
     2
100
AcDbBlockReference
  2
_OPEN
 10
369.4368653896763
 20
285.1634365731168
 30
0.0
 41
2.5
 42
2.5
 43
2.5
 50
180.0
  0
INSERT
  5
13C1
330
18
100
AcDbEntity
  8
0
  6
ByBlock
 62
     2
100
AcDbBlockReference
  2
_OPEN
 10
379.4368653896764
 20
285.1634365731168
 30
0.0
 41
2.5
 42
2.5
 43
2.5
  0
MTEXT
  5
13C2
330
18
100
AcDbEntity
  8
0
  6
ByBlock
 62
     6
100
AcDbMText
 10
387.7999606277716
 20
287.0384365731169
 30
0.0
 40
2.5
 41
0.0
 71
     5
 72
     1
  1
\A1;φ10.0
  7
STYLE3
 73
     1
 44
1.0
  0
POINT
  5
13C3
330
18
100
AcDbEntity
  8
DEFPOINTS
  6
ByBlock
 62
     0
100
AcDbPoint
 10
369.4368653896763
 20
284.4474992456714
 30
0.0
  0
POINT
  5
13C4
330
18
100
AcDbEntity
  8
DEFPOINTS
  6
ByBlock
 62
     0
100
AcDbPoint
 10
379.4368653896764
 20
282.8248117679387
 30
0.0
  0
POINT
  5
13C5
330
18
100
AcDbEntity
  8
DEFPOINTS
  6
ByBlock
 62
     0
100
AcDbPoint
 10
379.4368653896764
 20
285.1634365731168
 30
0.0
  0
LINE
  5
13C6
330
18
100
AcDbEntity
  8
0
  6
ByBlock
 62
     2
100
AcDbLine
 10
533.9083621178298
 20
378.131031397256
 30
0.0
 11
576.5285230390134
 21
378.131031397256
 31
0.0
  0
LINE
  5
13C7
330
18
100
AcDbEntity
  8
0
  6
ByBlock
 62
     2
100
AcDbLine
 10
533.9083621178298
 20
299.631031397256
 30
0.0
 11
576.5285230390134
 21
299.631031397256
 31
0.0
  0
LINE
  5
13C8
330
18
100
AcDbEntity
  8
0
  6
ByBlock
 62
     2
100
AcDbLine
 10
575.2785230390133
 20
375.631031397256
 30
0.0
 11
575.2785230390133
 21
302.131031397256
 31
0.0
  0
INSERT
  5
13C9
330
18
100
AcDbEntity
  8
0
  6
ByBlock
 62
     2
100
AcDbBlockReference
  2
_OPEN
 10
575.2785230390133
 20
378.131031397256
 30
0.0
 41
2.5
 42
2.5
 43
2.5
 50
90.0
  0
INSERT
  5
13CA
330
18
100
AcDbEntity
  8
0
  6
ByBlock
 62
     2
100
AcDbBlockReference
  2
_OPEN
 10
575.2785230390133
 20
299.631031397256
 30
0.0
 41
2.5
 42
2.5
 43
2.5
 50
270.0
  0
MTEXT
  5
13CB
330
18
100
AcDbEntity
  8
0
  6
ByBlock
 62
     6
100
AcDbMText
 10
573.4035230390134
 20
338.881031397256
 30
0.0
 40
2.5
 41
0.0
 71
     5
 72
     1
  1
\A1;φ78.5
  7
STYLE3
 11
0.0000000000000001
 21
1.0
 31
0.0
 73
     1
 44
1.0
  0
POINT
  5
13CC
330
18
100
AcDbEntity
  8
DEFPOINTS
  6
ByBlock
 62
     0
100
AcDbPoint
 10
533.9083621178298
 20
378.131031397256
 30
0.0
  0
POINT
  5
13CD
330
18
100
AcDbEntity
  8
DEFPOINTS
  6
ByBlock
 62
     0
100
AcDbPoint
 10
533.9083621178298
 20
299.631031397256
 30
0.0
  0
POINT
  5
13CE
330
18
100
AcDbEntity
  8
DEFPOINTS
  6
ByBlock
 62
     0
100
AcDbPoint
 10
575.2785230390133
 20
299.631031397256
 30
0.0
  0
LINE
  5
13D3
330
18
100
AcDbEntity
  8
0
  6
ByBlock
 62
     2
100
AcDbLine
 10
525.4083621178298
 20
281.265544396922
 30
0.0
 11
525.4083621178298
 21
283.6352429107982
 31
0.0
  0
LINE
  5
13D4
330
18
100
AcDbEntity
  8
0
  6
ByBlock
 62
     2
100
AcDbLine
 10
546.9083621178297
 20
325.4318402058169
 30
0.0
 11
546.9083621178297
 21
281.1352429107982
 31
0.0
  0
LINE
  5
13D5
330
18
100
AcDbEntity
  8
0
  6
ByBlock
 62
     2
100
AcDbLine
 10
527.9083621178298
 20
282.3852429107983
 30
0.0
 11
544.4083621178297
 21
282.3852429107983
 31
0.0
  0
INSERT
  5
13D6
330
18
100
AcDbEntity
  8
0
  6
ByBlock
 62
     2
100
AcDbBlockReference
  2
_OPEN
 10
525.4083621178298
 20
282.3852429107983
 30
0.0
 41
2.5
 42
2.5
 43
2.5
 50
180.0
  0
INSERT
  5
13D7
330
18
100
AcDbEntity
  8
0
  6
ByBlock
 62
     2
100
AcDbBlockReference
  2
_OPEN
 10
546.9083621178297
 20
282.3852429107983
 30
0.0
 41
2.5
 42
2.5
 43
2.5
  0
MTEXT
  5
13D8
330
18
100
AcDbEntity
  8
0
  6
ByBlock
 62
     6
100
AcDbMText
 10
536.1583621178296
 20
284.2602429107982
 30
0.0
 40
2.5
 41
0.0
 71
     5
 72
     1
  1
\A1;21.5
  7
STYLE3
 73
     1
 44
1.0
  0
POINT
  5
13D9
330
18
100
AcDbEntity
  8
DEFPOINTS
  6
ByBlock
 62
     0
100
AcDbPoint
 10
525.4083621178298
 20
281.265544396922
 30
0.0
  0
POINT
  5
13DA
330
18
100
AcDbEntity
  8
DEFPOINTS
  6
ByBlock
 62
     0
100
AcDbPoint
 10
546.9083621178297
 20
325.4318402058169
 30
0.0
  0
POINT
  5
13DB
330
18
100
AcDbEntity
  8
DEFPOINTS
  6
ByBlock
 62
     0
100
AcDbPoint
 10
546.9083621178297
 20
282.3852429107983
 30
0.0
  0
LINE
  5
13E0
330
18
100
AcDbEntity
  8
0
  6
ByBlock
 62
     2
100
AcDbLine
 10
537.6475380873492
 20
351.0851165725882
 30
0.0
 11
537.6475380873492
 21
362.6002029880776
 31
0.0
  0
LINE
  5
13E1
330
18
100
AcDbEntity
  8
0
  6
ByBlock
 62
     2
100
AcDbLine
 10
542.6475380873494
 20
347.3304289000513
 30
0.0
 11
542.6475380873494
 21
362.6002029880776
 31
0.0
  0
LINE
  5
13E2
330
18
100
AcDbEntity
  8
0
  6
ByBlock
 62
     2
100
AcDbLine
 10
535.1475380873493
 20
361.3502029880776
 30
0.0
 11
532.6475380873493
 21
361.3502029880776
 31
0.0
  0
LINE
  5
13E3
330
18
100
AcDbEntity
  8
0
  6
ByBlock
 62
     2
100
AcDbLine
 10
545.1475380873493
 20
361.3502029880776
 30
0.0
 11
547.6475380873494
 21
361.3502029880776
 31
0.0
  0
LINE
  5
13E4
330
18
100
AcDbEntity
  8
0
  6
ByBlock
 62
     2
100
AcDbLine
 10
537.6475380873492
 20
361.3502029880776
 30
0.0
 11
542.6475380873494
 21
361.3502029880776
 31
0.0
  0
INSERT
  5
13E5
330
18
100
AcDbEntity
  8
0
  6
ByBlock
 62
     2
100
AcDbBlockReference
  2
_OPEN
 10
537.6475380873492
 20
361.3502029880776
 30
0.0
 41
2.5
 42
2.5
 43
2.5
  0
INSERT
  5
13E6
330
18
100
AcDbEntity
  8
0
  6
ByBlock
 62
     2
100
AcDbBlockReference
  2
_OPEN
 10
542.6475380873494
 20
361.3502029880776
 30
0.0
 41
2.5
 42
2.5
 43
2.5
 50
180.0
  0
MTEXT
  5
13E7
330
18
100
AcDbEntity
  8
0
  6
ByBlock
 62
     6
100
AcDbMText
 10
540.1475380873494
 20
363.2252029880776
 30
0.0
 40
2.5
 41
0.0
 71
     5
 72
     1
  1
\A1;5
  7
STYLE3
 73
     1
 44
1.0
  0
POINT
  5
13E8
330
18
100
AcDbEntity
  8
DEFPOINTS
  6
ByBlock
 62
     0
100
AcDbPoint
 10
537.6475380873492
 20
351.0851165725882
 30
0.0
  0
POINT
  5
13E9
330
18
100
AcDbEntity
  8
DEFPOINTS
  6
ByBlock
 62
     0
100
AcDbPoint
 10
542.6475380873494
 20
347.3304289000513
 30
0.0
  0
POINT
  5
13EA
330
18
100
AcDbEntity
  8
DEFPOINTS
  6
ByBlock
 62
     0
100
AcDbPoint
 10
542.6475380873494
 20
361.3502029880776
 30
0.0
  0
LINE
  5
13EB
330
18
100
AcDbEntity
  8
0
  6
ByBlock
 62
     2
100
AcDbLine
 10
533.9083621178298
 20
374.6310313972562
 30
0.0
 11
533.9083621178298
 21
429.8087142933221
 31
0.0
  0
LINE
  5
13EC
330
18
100
AcDbEntity
  8
0
  6
ByBlock
 62
     2
100
AcDbLine
 10
527.9083621178298
 20
428.5587142933221
 30
0.0
 11
531.4083621178298
 21
428.5587142933221
 31
0.0
  0
INSERT
  5
13ED
330
18
100
AcDbEntity
  8
0
  6
ByBlock
 62
     2
100
AcDbBlockReference
  2
_OPEN
 10
525.4083621178298
 20
428.5587142933221
 30
0.0
 41
2.5
 42
2.5
 43
2.5
 50
180.0
  0
INSERT
  5
13EE
330
18
100
AcDbEntity
  8
0
  6
ByBlock
 62
     2
100
AcDbBlockReference
  2
_OPEN
 10
533.9083621178298
 20
428.5587142933221
 30
0.0
 41
2.5
 42
2.5
 43
2.5
  0
MTEXT
  5
13EF
330
18
100
AcDbEntity
  8
0
  6
ByBlock
 62
     6
100
AcDbMText
 10
529.6583621178298
 20
430.4337142933221
 30
0.0
 40
2.5
 41
0.0
 71
     5
 72
     1
  1
\A1;8.5
  7
STYLE3
 73
     1
 44
1.0
  0
POINT
  5
13F1
330
18
100
AcDbEntity
  8
DEFPOINTS
  6
ByBlock
 62
     0
100
AcDbPoint
 10
533.9083621178298
 20
374.6310313972562
 30
0.0
  0
POINT
  5
13F2
330
18
100
AcDbEntity
  8
DEFPOINTS
  6
ByBlock
 62
     0
100
AcDbPoint
 10
533.9083621178298
 20
428.5587142933221
 30
0.0
  0
LINE
  5
154F
102
{ACAD_REACTORS
330
1551
102
}
330
18
100
AcDbEntity
  8
外形線
100
AcDbLine
 10
386.8915603512937
 20
340.3449390920524
 30
0.0
 11
388.0582270179605
 21
340.7695710320296
 31
0.0
  0
LINE
  5
1550
102
{ACAD_REACTORS
330
1551
102
}
330
18
100
AcDbEntity
  8
外形線
100
AcDbLine
 10
386.8915603512937
 20
340.3449390920524
 30
0.0
 11
388.0582270179605
 21
339.9203071520752
 31
0.0
  0
HATCH
  5
1551
330
18
100
AcDbEntity
  8
外形線
100
AcDbHatch
 10
0.0
 20
0.0
 30
0.0
210
0.0
220
0.0
230
1.0
  2
SOLID
 70
     1
 71
     1
 91
        2
 92
        1
 93
        7
 72
     1
 10
386.8915603512937
 20
340.3449390920524
 11
388.0582270179605
 21
339.9203071520752
 72
     1
 10
388.0582270179605
 20
339.9203071520752
 11
388.0582270179605
 21
340.2553557587191
 72
     1
 10
388.0582270179605
 20
340.2553557587191
 11
389.0582270179605
 21
340.255355758719
 72
     1
 10
389.0582270179605
 20
340.255355758719
 11
389.0582270179605
 21
340.4345224253857
 72
     1
 10
389.0582270179605
 20
340.4345224253857
 11
388.0582270179605
 21
340.4345224253857
 72
     1
 10
388.0582270179605
 20
340.4345224253857
 11
388.0582270179605
 21
340.7695710320296
 72
     1
 10
388.0582270179605
 20
340.7695710320296
 11
386.8915603512937
 21
340.3449390920524
 97
        7
330
1550
330
1570
330
1576
330
156F
330
1577
330
1573
330
154F
 92
        1
 93
        4
 72
     1
 10
386.8915603512937
 20
341.0949390920524
 11
386.8915603512937
 21
339.5949390920524
 72
     1
 10
386.8915603512937
 20
339.5949390920524
 11
386.7248936846271
 21
339.5949390920524
 72
     1
 10
386.7248936846271
 20
339.5949390920524
 11
386.7248936846271
 21
341.0949390920524
 72
     1
 10
386.7248936846271
 20
341.0949390920524
 11
386.8915603512937
 21
341.0949390920524
 97
        4
330
1568
330
155C
330
1569
330
156A
 75
     0
 76
     1
 98
        1
 10
294.5620036448135
 20
271.6827882848714
450
        0
451
        0
460
0.0
461
0.0
452
        0
462
0.0
453
        0
470

  0
TEXT
  5
1552
330
18
100
AcDbEntity
  8
文字
100
AcDbText
 10
383.2879734007467
 20
337.8586488576399
 30
0.0
 40
1.0
  1
0.05mm
  7
STYLE3
100
AcDbText
  0
LINE
  5
1553
102
{ACAD_REACTORS
330
156C
102
}
330
18
100
AcDbEntity
  8
外形線
100
AcDbLine
 10
385.8915603512937
 20
339.5949390920524
 30
0.0
 11
385.7248936846272
 21
339.5949390920524
 31
0.0
  0
POINT
  5
1554
330
18
100
AcDbEntity
  8
DEFPOINTS
  6
ByBlock
 62
     0
100
AcDbPoint
 10
385.7248936846272
 20
339.5949390920524
 30
0.0
  0
POINT
  5
1555
330
18
100
AcDbEntity
  8
DEFPOINTS
  6
ByBlock
 62
     0
100
AcDbPoint
 10
385.8915603512937
 20
339.5949390920524
 30
0.0
  0
POINT
  5
1556
330
18
100
AcDbEntity
  8
DEFPOINTS
  6
ByBlock
 62
     0
100
AcDbPoint
 10
385.7248936846272
 20
339.5949390920524
 30
0.0
  0
POINT
  5
1557
330
18
100
AcDbEntity
  8
DEFPOINTS
  6
ByBlock
 62
     0
100
AcDbPoint
 10
385.8915603512937
 20
339.5949390920524
 30
0.0
  0
POINT
  5
1558
330
18
100
AcDbEntity
  8
DEFPOINTS
  6
ByBlock
 62
     0
100
AcDbPoint
 10
386.7248936846271
 20
339.5949390920524
 30
0.0
  0
POINT
  5
1559
330
18
100
AcDbEntity
  8
DEFPOINTS
  6
ByBlock
 62
     0
100
AcDbPoint
 10
386.8915603512937
 20
339.5949390920524
 30
0.0
  0
POINT
  5
155A
330
18
100
AcDbEntity
  8
DEFPOINTS
  6
ByBlock
 62
     0
100
AcDbPoint
 10
386.7248936846271
 20
339.5949390920524
 30
0.0
  0
POINT
  5
155B
330
18
100
AcDbEntity
  8
DEFPOINTS
  6
ByBlock
 62
     0
100
AcDbPoint
 10
386.8915603512937
 20
339.5949390920524
 30
0.0
  0
LINE
  5
155C
102
{ACAD_REACTORS
330
1551
102
}
330
18
100
AcDbEntity
  8
外形線
100
AcDbLine
 10
386.7248936846271
 20
339.5949390920524
 30
0.0
 11
386.8915603512937
 21
339.5949390920524
 31
0.0
  0
LINE
  5
155D
102
{ACAD_REACTORS
330
156C
102
}
330
18
100
AcDbEntity
  8
外形線
100
AcDbLine
 10
385.8915603512937
 20
341.0949390920524
 30
0.0
 11
385.8915603512937
 21
339.5949390920524
 31
0.0
  0
LINE
  5
155E
102
{ACAD_REACTORS
330
156C
102
}
330
18
100
AcDbEntity
  8
外形線
100
AcDbLine
 10
385.7248936846272
 20
341.0949390920524
 30
0.0
 11
385.7248936846272
 21
339.5949390920524
 31
0.0
  0
LINE
  5
155F
102
{ACAD_REACTORS
330
156C
102
}
330
18
100
AcDbEntity
  8
外形線
100
AcDbLine
 10
385.7248936846272
 20
340.3449390920524
 30
0.0
 11
384.5582270179605
 21
340.7695710320296
 31
0.0
  0
LINE
  5
1560
102
{ACAD_REACTORS
330
156C
102
}
330
18
100
AcDbEntity
  8
外形線
100
AcDbLine
 10
385.7248936846272
 20
340.3449390920524
 30
0.0
 11
384.5582270179605
 21
339.9203071520752
 31
0.0
  0
POINT
  5
1561
330
18
100
AcDbEntity
  8
DEFPOINTS
  6
ByBlock
 62
     0
100
AcDbPoint
 10
384.5582270179605
 20
339.9203071520752
 30
0.0
  0
POINT
  5
1562
330
18
100
AcDbEntity
  8
DEFPOINTS
  6
ByBlock
 62
     0
100
AcDbPoint
 10
384.5582270179605
 20
339.9203071520752
 30
0.0
  0
LINE
  5
1563
102
{ACAD_REACTORS
330
156C
102
}
330
18
100
AcDbEntity
  8
外形線
100
AcDbLine
 10
384.5582270179605
 20
340.2553557587191
 30
0.0
 11
384.5582270179605
 21
339.9203071520752
 31
0.0
  0
POINT
  5
1564
330
18
100
AcDbEntity
  8
DEFPOINTS
  6
ByBlock
 62
     0
100
AcDbPoint
 10
384.5582270179605
 20
340.7695710320296
 30
0.0
  0
POINT
  5
1565
330
18
100
AcDbEntity
  8
DEFPOINTS
  6
ByBlock
 62
     0
100
AcDbPoint
 10
384.5582270179605
 20
340.7695710320296
 30
0.0
  0
LINE
  5
1566
102
{ACAD_REACTORS
330
156C
102
}
330
18
100
AcDbEntity
  8
外形線
100
AcDbLine
 10
384.5582270179605
 20
340.7695710320296
 30
0.0
 11
384.5582270179605
 21
340.4345224253857
 31
0.0
  0
LINE
  5
1567
102
{ACAD_REACTORS
330
156C
102
}
330
18
100
AcDbEntity
  8
外形線
100
AcDbLine
 10
385.8915603512937
 20
341.0949390920524
 30
0.0
 11
385.7248936846272
 21
341.0949390920524
 31
0.0
  0
LINE
  5
1568
102
{ACAD_REACTORS
330
1551
102
}
330
18
100
AcDbEntity
  8
外形線
100
AcDbLine
 10
386.8915603512937
 20
341.0949390920524
 30
0.0
 11
386.8915603512937
 21
339.5949390920524
 31
0.0
  0
LINE
  5
1569
102
{ACAD_REACTORS
330
1551
102
}
330
18
100
AcDbEntity
  8
外形線
100
AcDbLine
 10
386.7248936846271
 20
341.0949390920524
 30
0.0
 11
386.7248936846271
 21
339.5949390920524
 31
0.0
  0
LINE
  5
156A
102
{ACAD_REACTORS
330
1551
102
}
330
18
100
AcDbEntity
  8
外形線
100
AcDbLine
 10
386.7248936846271
 20
341.0949390920524
 30
0.0
 11
386.8915603512937
 21
341.0949390920524
 31
0.0
  0
LINE
  5
156B
102
{ACAD_REACTORS
330
156C
102
}
330
18
100
AcDbEntity
  8
外形線
100
AcDbLine
 10
383.5582270179605
 20
340.4345224253857
 30
0.0
 11
383.5582270179605
 21
340.255355758719
 31
0.0
  0
HATCH
  5
156C
330
18
100
AcDbEntity
  8
外形線
100
AcDbHatch
 10
0.0
 20
0.0
 30
0.0
210
0.0
220
0.0
230
1.0
  2
SOLID
 70
     1
 71
     1
 91
        2
 92
        1
 93
        7
 72
     1
 10
385.7248936846272
 20
340.3449390920524
 11
384.5582270179605
 21
339.9203071520752
 72
     1
 10
384.5582270179605
 20
339.9203071520752
 11
384.5582270179605
 21
340.2553557587191
 72
     1
 10
384.5582270179605
 20
340.2553557587191
 11
383.5582270179605
 21
340.255355758719
 72
     1
 10
383.5582270179605
 20
340.255355758719
 11
383.5582270179605
 21
340.4345224253857
 72
     1
 10
383.5582270179605
 20
340.4345224253857
 11
384.5582270179605
 21
340.4345224253857
 72
     1
 10
384.5582270179605
 20
340.4345224253857
 11
384.5582270179605
 21
340.7695710320296
 72
     1
 10
384.5582270179605
 20
340.7695710320296
 11
385.7248936846272
 21
340.3449390920524
 97
        7
330
1560
330
1563
330
156D
330
156B
330
156E
330
1566
330
155F
 92
        1
 93
        4
 72
     1
 10
385.7248936846272
 20
341.0949390920524
 11
385.7248936846272
 21
339.5949390920524
 72
     1
 10
385.7248936846272
 20
339.5949390920524
 11
385.8915603512937
 21
339.5949390920524
 72
     1
 10
385.8915603512937
 20
339.5949390920524
 11
385.8915603512937
 21
341.0949390920524
 72
     1
 10
385.8915603512937
 20
341.0949390920524
 11
385.7248936846272
 21
341.0949390920524
 97
        4
330
155E
330
1553
330
155D
330
1567
 75
     0
 76
     1
 98
        1
 10
478.0544503911075
 20
271.6827882848714
450
        0
451
        0
460
0.0
461
0.0
452
        0
462
0.0
453
        0
470

  0
LINE
  5
156D
102
{ACAD_REACTORS
330
156C
102
}
330
18
100
AcDbEntity
  8
外形線
100
AcDbLine
 10
383.5582270179605
 20
340.255355758719
 30
0.0
 11
384.5582270179605
 21
340.2553557587191
 31
0.0
  0
LINE
  5
156E
102
{ACAD_REACTORS
330
156C
102
}
330
18
100
AcDbEntity
  8
外形線
100
AcDbLine
 10
383.5582270179605
 20
340.4345224253857
 30
0.0
 11
384.5582270179605
 21
340.4345224253857
 31
0.0
  0
LINE
  5
156F
102
{ACAD_REACTORS
330
1551
102
}
330
18
100
AcDbEntity
  8
外形線
100
AcDbLine
 10
389.0582270179605
 20
340.4345224253857
 30
0.0
 11
389.0582270179605
 21
340.255355758719
 31
0.0
  0
LINE
  5
1570
102
{ACAD_REACTORS
330
1551
102
}
330
18
100
AcDbEntity
  8
外形線
100
AcDbLine
 10
388.0582270179605
 20
340.2553557587191
 30
0.0
 11
388.0582270179605
 21
339.9203071520752
 31
0.0
  0
POINT
  5
1571
330
18
100
AcDbEntity
  8
DEFPOINTS
  6
ByBlock
 62
     0
100
AcDbPoint
 10
388.0582270179605
 20
339.9203071520752
 30
0.0
  0
POINT
  5
1572
330
18
100
AcDbEntity
  8
DEFPOINTS
  6
ByBlock
 62
     0
100
AcDbPoint
 10
388.0582270179605
 20
339.9203071520752
 30
0.0
  0
LINE
  5
1573
102
{ACAD_REACTORS
330
1551
102
}
330
18
100
AcDbEntity
  8
外形線
100
AcDbLine
 10
388.0582270179605
 20
340.7695710320296
 30
0.0
 11
388.0582270179605
 21
340.4345224253857
 31
0.0
  0
POINT
  5
1574
330
18
100
AcDbEntity
  8
DEFPOINTS
  6
ByBlock
 62
     0
100
AcDbPoint
 10
388.0582270179605
 20
340.7695710320296
 30
0.0
  0
POINT
  5
1575
330
18
100
AcDbEntity
  8
DEFPOINTS
  6
ByBlock
 62
     0
100
AcDbPoint
 10
388.0582270179605
 20
340.7695710320296
 30
0.0
  0
LINE
  5
1576
102
{ACAD_REACTORS
330
1551
102
}
330
18
100
AcDbEntity
  8
外形線
100
AcDbLine
 10
389.0582270179605
 20
340.255355758719
 30
0.0
 11
388.0582270179605
 21
340.2553557587191
 31
0.0
  0
LINE
  5
1577
102
{ACAD_REACTORS
330
1551
102
}
330
18
100
AcDbEntity
  8
外形線
100
AcDbLine
 10
389.0582270179605
 20
340.4345224253857
 30
0.0
 11
388.0582270179605
 21
340.4345224253857
 31
0.0
  0
LINE
  5
15A8
330
18
100
AcDbEntity
  8
目盛
100
AcDbLine
 10
357.6162612497753
 20
344.439641860693
 30
0.0
 11
357.9983216637655
 21
343.9137808143494
 31
0.0
  0
LINE
  5
15A9
330
18
100
AcDbEntity
  8
目盛
100
AcDbLine
 10
361.4368653896764
 20
345.6810313972559
 30
0.0
 11
361.4368653896764
 21
344.4310313972559
 31
0.0
  0
LINE
  5
15C6
330
18
100
AcDbEntity
  8
中心線
 48
0.5
100
AcDbLine
 10
353.6101482754697
 20
339.1810313972559
 30
0.0
 11
369.6945816403962
 21
339.1810313972559
 31
0.0
  0
TEXT
  5
15C7
330
18
100
AcDbEntity
  8
文字
100
AcDbText
 10
364.255987421652
 20
339.8596252538952
 30
0.0
 40
1.0
  1
10
  7
STYLE3
100
AcDbText
  0
CIRCLE
  5
15C8
330
18
100
AcDbEntity
  8
外形線
100
AcDbCircle
 10
361.4368653896764
 20
339.1810313972559
 30
0.0
 40
6.5
  0
LINE
  5
15C9
330
18
100
AcDbEntity
  8
中心線
 48
0.5
100
AcDbLine
 10
361.4368653896764
 20
331.3448093576925
 30
0.0
 11
361.4368653896764
 21
346.8575540337435
 31
0.0
  0
TEXT
  5
15CA
330
18
100
AcDbEntity
  8
文字
100
AcDbText
 10
357.8720867423322
 20
335.3401299821218
 30
0.0
 40
1.0
  1
30
  7
STYLE3
100
AcDbText
  0
LINE
  5
15CB
330
18
100
AcDbEntity
  8
目盛
100
AcDbLine
 10
357.6162612497752
 20
333.9224209338188
 30
0.0
 11
358.3509928151408
 21
334.9336921767875
 31
0.0
  0
LINE
  5
15CC
330
18
100
AcDbEntity
  8
目盛
100
AcDbLine
 10
365.2574695295773
 20
333.9224209338188
 30
0.0
 11
364.5227379642118
 21
334.9336921767875
 31
0.0
  0
LINE
  5
15CD
330
18
100
AcDbEntity
  8
目盛
100
AcDbLine
 10
361.4368653896764
 20
332.6810313972559
 30
0.0
 11
361.4368653896764
 21
333.3310313972559
 31
0.0
  0
TEXT
  5
15CE
330
18
100
AcDbEntity
  8
文字
100
AcDbText
 10
363.1616055056882
 20
335.2672348013359
 30
0.0
 40
1.0
  1
20
  7
STYLE3
100
AcDbText
  0
LINE
  5
15CF
330
18
100
AcDbEntity
  8
目盛
100
AcDbLine
 10
355.2549980337577
 20
337.1724209338188
 30
0.0
 11
355.8731847693497
 21
337.3732819801625
 31
0.0
  0
LINE
  5
15D0
330
18
100
AcDbEntity
  8
目盛
100
AcDbLine
 10
355.2549980337579
 20
341.1896418606931
 30
0.0
 11
356.4438186791268
 21
340.8033706177244
 31
0.0
  0
TEXT
  5
15D1
330
18
100
AcDbEntity
  8
文字
100
AcDbText
 10
356.5498641169325
 20
339.9801460377051
 30
0.0
 40
1.0
  1
40
  7
STYLE3
100
AcDbText
  0
LINE
  5
15D2
330
18
100
AcDbEntity
  8
目盛
100
AcDbLine
 10
365.2574695295773
 20
344.4396418606932
 30
0.0
 11
364.8754091155873
 21
343.9137808143494
 31
0.0
  0
TEXT
  5
15D3
330
18
100
AcDbEntity
  8
文字
100
AcDbText
 10
360.9386002031816
 20
343.0224577763581
 30
0.0
 40
1.0
  1
0
  7
STYLE3
100
AcDbText
  0
LINE
  5
15D4
330
18
100
AcDbEntity
  8
目盛
100
AcDbLine
 10
367.6187327455949
 20
341.1896418606931
 30
0.0
 11
366.4299121002259
 21
340.8033706177244
 31
0.0
  0
LINE
  5
15D5
330
18
100
AcDbEntity
  8
目盛
100
AcDbLine
 10
367.6187327455949
 20
337.1724209338188
 30
0.0
 11
367.000546010003
 21
337.3732819801625
 31
0.0
  0
POINT
  5
15DA
330
18
100
AcDbEntity
  8
DEFPOINTS
  6
ByBlock
 62
     0
100
AcDbPoint
 10
357.9983216637655
 20
343.9137808143494
 30
0.0
  0
POINT
  5
15F3
330
18
100
AcDbEntity
  8
DEFPOINTS
  6
ByBlock
 62
     0
100
AcDbPoint
 10
361.4368653896764
 20
344.4310313972559
 30
0.0
  0
POINT
  5
15F4
330
18
100
AcDbEntity
  8
DEFPOINTS
  6
ByBlock
 62
     0
100
AcDbPoint
 10
361.4368653896764
 20
333.3310313972559
 30
0.0
  0
LINE
  5
16F7
330
18
100
AcDbEntity
  8
外形線
100
AcDbLine
 10
372.1868653896763
 20
216.381031397256
 30
0.0
 11
373.1368653896762
 21
211.881031397256
 31
0.0
  0
LINE
  5
16F8
330
18
100
AcDbEntity
  8
外形線
100
AcDbLine
 10
376.6868653896763
 20
216.381031397256
 30
0.0
 11
375.7368653896762
 21
211.881031397256
 31
0.0
  0
LINE
  5
16F9
330
18
100
AcDbEntity
  8
外形線
100
AcDbLine
 10
373.1368653896762
 20
211.881031397256
 30
0.0
 11
375.7368653896762
 21
211.881031397256
 31
0.0
  0
LINE
  5
16FB
330
18
100
AcDbEntity
  8
外形線
100
AcDbLine
 10
371.9368653896762
 20
216.581031397256
 30
0.0
 11
376.9368653896763
 21
216.581031397256
 31
0.0
  0
LINE
  5
16FC
330
18
100
AcDbEntity
  8
外形線
100
AcDbLine
 10
371.9368653896762
 20
219.681031397256
 30
0.0
 11
376.9368653896763
 21
219.681031397256
 31
0.0
  0
LINE
  5
16FD
330
18
100
AcDbEntity
  8
外形線
100
AcDbLine
 10
372.1868653896763
 20
216.381031397256
 30
0.0
 11
376.6868653896762
 21
216.381031397256
 31
0.0
  0
LINE
  5
16FE
330
18
100
AcDbEntity
  8
外形線
100
AcDbLine
 10
371.6868653896764
 20
219.881031397256
 30
0.0
 11
377.1868653896764
 21
219.881031397256
 31
0.0
  0
LINE
  5
16FF
330
18
100
AcDbEntity
  8
外形線
100
AcDbLine
 10
371.9368653896763
 20
216.581031397256
 30
0.0
 11
372.1868653896763
 21
216.381031397256
 31
0.0
  0
LINE
  5
1700
330
18
100
AcDbEntity
  8
外形線
100
AcDbLine
 10
372.1868653896763
 20
219.881031397256
 30
0.0
 11
371.9368653896763
 21
219.681031397256
 31
0.0
  0
LINE
  5
1701
330
18
100
AcDbEntity
  8
外形線
100
AcDbLine
 10
371.9368653896763
 20
219.681031397256
 30
0.0
 11
371.9368653896763
 21
216.581031397256
 31
0.0
  0
LINE
  5
1702
330
18
100
AcDbEntity
  8
外形線
100
AcDbLine
 10
376.9368653896763
 20
216.581031397256
 30
0.0
 11
376.6868653896763
 21
216.381031397256
 31
0.0
  0
LINE
  5
1703
330
18
100
AcDbEntity
  8
外形線
100
AcDbLine
 10
376.6868653896763
 20
219.881031397256
 30
0.0
 11
376.9368653896763
 21
219.681031397256
 31
0.0
  0
LINE
  5
1704
330
18
100
AcDbEntity
  8
外形線
100
AcDbLine
 10
376.9368653896763
 20
219.681031397256
 30
0.0
 11
376.9368653896762
 21
216.581031397256
 31
0.0
  0
LINE
  5
1705
330
18
100
AcDbEntity
  8
外形線
100
AcDbLine
 10
370.4868653896763
 20
416.281031397256
 30
0.0
 11
378.3868653896764
 21
416.2810313972561
 31
0.0
  0
LINE
  5
1706
330
18
100
AcDbEntity
  8
外形線
100
AcDbLine
 10
378.6868653896763
 20
419.4329648923718
 30
0.0
 11
378.6868653896764
 21
416.5810313972561
 31
0.0
  0
LINE
  5
1707
330
18
100
AcDbEntity
  8
外形線
100
AcDbLine
 10
370.1868653896763
 20
419.4329648923718
 30
0.0
 11
370.1868653896763
 21
416.581031397256
 31
0.0
  0
LINE
  5
1708
330
18
100
AcDbEntity
  8
外形線
100
AcDbLine
 10
370.1868653896763
 20
416.581031397256
 30
0.0
 11
378.6868653896764
 21
416.581031397256
 31
0.0
  0
LINE
  5
1709
330
18
100
AcDbEntity
  8
外形線
100
AcDbLine
 10
370.4868653896763
 20
416.281031397256
 30
0.0
 11
370.1868653896763
 21
416.581031397256
 31
0.0
  0
LINE
  5
170A
330
18
100
AcDbEntity
  8
外形線
100
AcDbLine
 10
378.3868653896764
 20
416.2810313972561
 30
0.0
 11
378.6868653896764
 21
416.5810313972561
 31
0.0
  0
ARC
  5
170B
330
18
100
AcDbEntity
  8
外形線
100
AcDbCircle
 10
374.4368653896763
 20
410.381031397256
 30
0.0
 40
10.0
100
AcDbArc
 50
64.84933658745589
 51
115.1506634125441
  0
LINE
  5
170C
330
18
100
AcDbEntity
  8
外形線
100
AcDbLine
 10
370.1868653896763
 20
419.4329648923718
 30
0.0
 11
378.6868653896763
 21
419.4329648923718
 31
0.0
  0
LINE
  5
170D
330
18
100
AcDbEntity
  8
外形線
100
AcDbLine
 10
370.4368653896763
 20
414.2810313972559
 30
0.0
 11
378.4368653896763
 21
414.281031397256
 31
0.0
  0
LINE
  5
1710
330
18
100
AcDbEntity
  8
外形線
100
AcDbLine
 10
369.4368653896763
 20
413.281031397256
 30
0.0
 11
379.4368653896763
 21
413.281031397256
 31
0.0
  0
LINE
  5
1711
330
18
100
AcDbEntity
  8
外形線
100
AcDbLine
 10
369.4368653896763
 20
413.281031397256
 30
0.0
 11
370.4368653896763
 21
414.2810313972559
 31
0.0
  0
LINE
  5
1712
330
18
100
AcDbEntity
  8
外形線
100
AcDbLine
 10
378.4368653896763
 20
414.281031397256
 30
0.0
 11
379.4368653896763
 21
413.281031397256
 31
0.0
  0
LINE
  5
1713
330
18
100
AcDbEntity
  8
ﾊｯﾁﾝｸ
100
AcDbLine
 10
370.1868653896763
 20
417.4107916368094
 30
0.0
 11
372.2090386452387
 21
419.4329648923718
 31
0.0
  0
LINE
  5
1714
330
18
100
AcDbEntity
  8
ﾊｯﾁﾝｸ
100
AcDbLine
 10
370.7041435682831
 20
416.5810313972561
 30
0.0
 11
373.556077063399
 21
419.4329648923718
 31
0.0
  0
LINE
  5
1715
330
18
100
AcDbEntity
  8
ﾊｯﾁﾝｸ
100
AcDbLine
 10
372.0511819864436
 20
416.581031397256
 30
0.0
 11
374.4368653896764
 21
418.9667148004887
 31
0.0
  0
LINE
  5
1716
330
18
100
AcDbEntity
  8
ﾊｯﾁﾝｸ
100
AcDbLine
 10
373.3982204046041
 20
416.581031397256
 30
0.0
 11
374.4368653896763
 21
417.6196763823283
 31
0.0
  0
LINE
  5
1717
330
18
100
AcDbEntity
  8
ﾊｯﾁﾝｸ
100
AcDbLine
 10
371.9178024488948
 20
416.581031397256
 30
0.0
 11
370.1868653896763
 21
418.3119684564744
 31
0.0
  0
LINE
  5
1718
330
18
100
AcDbEntity
  8
ﾊｯﾁﾝｸ
100
AcDbLine
 10
373.2648408670553
 20
416.5810313972561
 30
0.0
 11
370.4129073719398
 21
419.4329648923718
 31
0.0
  0
LINE
  5
1719
330
18
100
AcDbEntity
  8
ﾊｯﾁﾝｸ
100
AcDbLine
 10
374.4368653896763
 20
416.7560452927952
 30
0.0
 11
371.7599457900997
 21
419.4329648923718
 31
0.0
  0
LINE
  5
171A
330
18
100
AcDbEntity
  8
ﾊｯﾁﾝｸ
100
AcDbLine
 10
374.4368653896763
 20
418.1030837109556
 30
0.0
 11
373.1069842082602
 21
419.4329648923718
 31
0.0
  0
LINE
  5
171B
330
18
100
AcDbEntity
  8
ﾊｯﾁﾝｸ
100
AcDbLine
 10
370.5035888865216
 20
416.581031397256
 30
0.0
 11
370.1868653896763
 21
416.8977548941013
 31
0.0
  0
LINE
  5
171C
330
18
100
AcDbEntity
  8
ﾊｯﾁﾝｸ
100
AcDbLine
 10
370.1868653896763
 20
418.8250051991825
 30
0.0
 11
370.7948250828656
 21
419.4329648923718
 31
0.0
  0
LINE
  5
171D
330
18
100
AcDbEntity
  8
ﾊｯﾁﾝｸ
100
AcDbLine
 10
371.9368653896763
 20
219.2739025017763
 30
0.0
 11
372.343994285156
 21
219.681031397256
 31
0.0
  0
LINE
  5
171E
330
18
100
AcDbEntity
  8
ﾊｯﾁﾝｸ
100
AcDbLine
 10
371.9368653896763
 20
217.926864083616
 30
0.0
 11
373.6910327033163
 21
219.6810313972559
 31
0.0
  0
LINE
  5
171F
330
18
100
AcDbEntity
  8
ﾊｯﾁﾝｸ
100
AcDbLine
 10
371.9380711214767
 20
216.581031397256
 30
0.0
 11
374.4368653896764
 21
219.0798256654556
 31
0.0
  0
LINE
  5
1720
330
18
100
AcDbEntity
  8
ﾊｯﾁﾝｸ
100
AcDbLine
 10
373.285109539637
 20
216.581031397256
 30
0.0
 11
374.4368653896763
 21
217.7327872472952
 31
0.0
  0
LINE
  5
1721
330
18
100
AcDbEntity
  8
ﾊｯﾁﾝｸ
100
AcDbLine
 10
372.0309133138618
 20
216.5810313972559
 30
0.0
 11
371.9368653896763
 21
216.6750793214414
 31
0.0
  0
LINE
  5
1722
330
18
100
AcDbEntity
  8
ﾊｯﾁﾝｸ
100
AcDbLine
 10
373.3779517320221
 20
216.5810313972559
 30
0.0
 11
371.9368653896763
 21
218.0221177396017
 31
0.0
  0
LINE
  5
1723
330
18
100
AcDbEntity
  8
ﾊｯﾁﾝｸ
100
AcDbLine
 10
374.4368653896763
 20
216.8691561577622
 30
0.0
 11
371.9368653896763
 21
219.3691561577622
 31
0.0
  0
LINE
  5
1724
330
18
100
AcDbEntity
  8
ﾊｯﾁﾝｸ
100
AcDbLine
 10
374.4368653896763
 20
218.2161945759224
 30
0.0
 11
372.9720285683428
 21
219.681031397256
 31
0.0
  0
LINE
  5
1725
330
18
100
AcDbEntity
  8
ﾊｯﾁﾝｸ
100
AcDbLine
 10
374.4368653896764
 20
219.5632329940828
 30
0.0
 11
374.3190669865033
 21
219.6810313972559
 31
0.0
  0
POINT
  5
1726
330
18
100
AcDbEntity
  8
DEFPOINTS
  6
ByBlock
 62
     0
100
AcDbPoint
 10
374.4368653896763
 20
210.881031397256
 30
0.0
  0
POINT
  5
1727
330
18
100
AcDbEntity
  8
DEFPOINTS
  6
ByBlock
 62
     0
100
AcDbPoint
 10
374.4368653896763
 20
420.3810313972559
 30
0.0
  0
LINE
  5
1728
330
18
100
AcDbEntity
  8
外形線
100
AcDbLine
 10
523.1583621178298
 20
216.381031397256
 30
0.0
 11
524.1083621178297
 21
211.881031397256
 31
0.0
  0
LINE
  5
1729
330
18
100
AcDbEntity
  8
外形線
100
AcDbLine
 10
527.6583621178298
 20
216.381031397256
 30
0.0
 11
526.7083621178297
 21
211.881031397256
 31
0.0
  0
LINE
  5
172A
330
18
100
AcDbEntity
  8
外形線
100
AcDbLine
 10
524.1083621178297
 20
211.881031397256
 30
0.0
 11
526.7083621178297
 21
211.881031397256
 31
0.0
  0
LINE
  5
172C
330
18
100
AcDbEntity
  8
外形線
100
AcDbLine
 10
522.9083621178297
 20
216.581031397256
 30
0.0
 11
527.9083621178298
 21
216.581031397256
 31
0.0
  0
LINE
  5
172D
330
18
100
AcDbEntity
  8
外形線
100
AcDbLine
 10
522.9083621178297
 20
219.681031397256
 30
0.0
 11
527.9083621178298
 21
219.681031397256
 31
0.0
  0
LINE
  5
172E
330
18
100
AcDbEntity
  8
外形線
100
AcDbLine
 10
523.1583621178298
 20
216.381031397256
 30
0.0
 11
527.6583621178296
 21
216.381031397256
 31
0.0
  0
LINE
  5
172F
330
18
100
AcDbEntity
  8
外形線
100
AcDbLine
 10
522.6583621178299
 20
219.881031397256
 30
0.0
 11
528.1583621178299
 21
219.881031397256
 31
0.0
  0
LINE
  5
1730
330
18
100
AcDbEntity
  8
外形線
100
AcDbLine
 10
522.9083621178298
 20
216.581031397256
 30
0.0
 11
523.1583621178298
 21
216.381031397256
 31
0.0
  0
LINE
  5
1731
330
18
100
AcDbEntity
  8
外形線
100
AcDbLine
 10
523.1583621178298
 20
219.881031397256
 30
0.0
 11
522.9083621178298
 21
219.681031397256
 31
0.0
  0
LINE
  5
1732
330
18
100
AcDbEntity
  8
外形線
100
AcDbLine
 10
522.9083621178298
 20
219.681031397256
 30
0.0
 11
522.9083621178298
 21
216.581031397256
 31
0.0
  0
LINE
  5
1733
330
18
100
AcDbEntity
  8
外形線
100
AcDbLine
 10
527.9083621178298
 20
216.581031397256
 30
0.0
 11
527.6583621178298
 21
216.381031397256
 31
0.0
  0
LINE
  5
1734
330
18
100
AcDbEntity
  8
外形線
100
AcDbLine
 10
527.6583621178298
 20
219.881031397256
 30
0.0
 11
527.9083621178298
 21
219.681031397256
 31
0.0
  0
LINE
  5
1735
330
18
100
AcDbEntity
  8
外形線
100
AcDbLine
 10
527.9083621178298
 20
219.681031397256
 30
0.0
 11
527.9083621178297
 21
216.581031397256
 31
0.0
  0
LINE
  5
1736
330
18
100
AcDbEntity
  8
外形線
100
AcDbLine
 10
521.4583621178299
 20
416.281031397256
 30
0.0
 11
529.3583621178299
 21
416.2810313972561
 31
0.0
  0
LINE
  5
1737
330
18
100
AcDbEntity
  8
外形線
100
AcDbLine
 10
529.6583621178298
 20
419.4329648923718
 30
0.0
 11
529.6583621178299
 21
416.5810313972561
 31
0.0
  0
LINE
  5
1738
330
18
100
AcDbEntity
  8
外形線
100
AcDbLine
 10
521.1583621178298
 20
419.4329648923718
 30
0.0
 11
521.1583621178298
 21
416.581031397256
 31
0.0
  0
LINE
  5
1739
330
18
100
AcDbEntity
  8
外形線
100
AcDbLine
 10
521.1583621178298
 20
416.581031397256
 30
0.0
 11
529.6583621178299
 21
416.581031397256
 31
0.0
  0
LINE
  5
173A
330
18
100
AcDbEntity
  8
外形線
100
AcDbLine
 10
521.4583621178299
 20
416.281031397256
 30
0.0
 11
521.1583621178298
 21
416.581031397256
 31
0.0
  0
LINE
  5
173B
330
18
100
AcDbEntity
  8
外形線
100
AcDbLine
 10
529.3583621178299
 20
416.2810313972561
 30
0.0
 11
529.6583621178299
 21
416.5810313972561
 31
0.0
  0
ARC
  5
173C
330
18
100
AcDbEntity
  8
外形線
100
AcDbCircle
 10
525.4083621178298
 20
410.381031397256
 30
0.0
 40
10.0
100
AcDbArc
 50
64.84933658745589
 51
115.1506634125441
  0
LINE
  5
173D
330
18
100
AcDbEntity
  8
外形線
100
AcDbLine
 10
521.1583621178298
 20
419.4329648923718
 30
0.0
 11
529.6583621178298
 21
419.4329648923718
 31
0.0
  0
LINE
  5
173E
330
18
100
AcDbEntity
  8
外形線
100
AcDbLine
 10
521.4083621178298
 20
414.2810313972559
 30
0.0
 11
529.4083621178298
 21
414.281031397256
 31
0.0
  0
LINE
  5
1741
330
18
100
AcDbEntity
  8
外形線
100
AcDbLine
 10
520.4083621178297
 20
413.281031397256
 30
0.0
 11
530.4083621178298
 21
413.281031397256
 31
0.0
  0
LINE
  5
1742
330
18
100
AcDbEntity
  8
外形線
100
AcDbLine
 10
520.4083621178297
 20
413.281031397256
 30
0.0
 11
521.4083621178298
 21
414.2810313972559
 31
0.0
  0
LINE
  5
1743
330
18
100
AcDbEntity
  8
外形線
100
AcDbLine
 10
529.4083621178298
 20
414.281031397256
 30
0.0
 11
530.4083621178298
 21
413.281031397256
 31
0.0
  0
LINE
  5
1744
330
18
100
AcDbEntity
  8
ﾊｯﾁﾝｸ
100
AcDbLine
 10
521.1583621178298
 20
417.4107916368094
 30
0.0
 11
523.1805353733923
 21
419.4329648923718
 31
0.0
  0
LINE
  5
1745
330
18
100
AcDbEntity
  8
ﾊｯﾁﾝｸ
100
AcDbLine
 10
521.6756402964366
 20
416.5810313972561
 30
0.0
 11
524.5275737915525
 21
419.4329648923718
 31
0.0
  0
LINE
  5
1746
330
18
100
AcDbEntity
  8
ﾊｯﾁﾝｸ
100
AcDbLine
 10
523.022678714597
 20
416.581031397256
 30
0.0
 11
525.4083621178299
 21
418.9667148004887
 31
0.0
  0
LINE
  5
1747
330
18
100
AcDbEntity
  8
ﾊｯﾁﾝｸ
100
AcDbLine
 10
524.3697171327576
 20
416.581031397256
 30
0.0
 11
525.4083621178298
 21
417.6196763823283
 31
0.0
  0
LINE
  5
1748
330
18
100
AcDbEntity
  8
ﾊｯﾁﾝｸ
100
AcDbLine
 10
522.8892991770483
 20
416.581031397256
 30
0.0
 11
521.1583621178298
 21
418.3119684564744
 31
0.0
  0
LINE
  5
1749
330
18
100
AcDbEntity
  8
ﾊｯﾁﾝｸ
100
AcDbLine
 10
524.2363375952088
 20
416.5810313972561
 30
0.0
 11
521.3844041000932
 21
419.4329648923718
 31
0.0
  0
LINE
  5
174A
330
18
100
AcDbEntity
  8
ﾊｯﾁﾝｸ
100
AcDbLine
 10
525.4083621178298
 20
416.7560452927952
 30
0.0
 11
522.7314425182533
 21
419.4329648923718
 31
0.0
  0
LINE
  5
174B
330
18
100
AcDbEntity
  8
ﾊｯﾁﾝｸ
100
AcDbLine
 10
525.4083621178298
 20
418.1030837109556
 30
0.0
 11
524.0784809364138
 21
419.4329648923718
 31
0.0
  0
LINE
  5
174C
330
18
100
AcDbEntity
  8
ﾊｯﾁﾝｸ
100
AcDbLine
 10
521.4750856146751
 20
416.581031397256
 30
0.0
 11
521.1583621178298
 21
416.8977548941013
 31
0.0
  0
LINE
  5
174D
330
18
100
AcDbEntity
  8
ﾊｯﾁﾝｸ
100
AcDbLine
 10
521.1583621178298
 20
418.8250051991825
 30
0.0
 11
521.7663218110191
 21
419.4329648923718
 31
0.0
  0
LINE
  5
174E
330
18
100
AcDbEntity
  8
ﾊｯﾁﾝｸ
100
AcDbLine
 10
522.9083621178298
 20
219.2739025017763
 30
0.0
 11
523.3154910133094
 21
219.681031397256
 31
0.0
  0
LINE
  5
174F
330
18
100
AcDbEntity
  8
ﾊｯﾁﾝｸ
100
AcDbLine
 10
522.9083621178298
 20
217.926864083616
 30
0.0
 11
524.6625294314697
 21
219.6810313972559
 31
0.0
  0
LINE
  5
1750
330
18
100
AcDbEntity
  8
ﾊｯﾁﾝｸ
100
AcDbLine
 10
522.9095678496301
 20
216.581031397256
 30
0.0
 11
525.4083621178299
 21
219.0798256654556
 31
0.0
  0
LINE
  5
1751
330
18
100
AcDbEntity
  8
ﾊｯﾁﾝｸ
100
AcDbLine
 10
524.2566062677905
 20
216.581031397256
 30
0.0
 11
525.4083621178298
 21
217.7327872472952
 31
0.0
  0
LINE
  5
1752
330
18
100
AcDbEntity
  8
ﾊｯﾁﾝｸ
100
AcDbLine
 10
523.0024100420153
 20
216.5810313972559
 30
0.0
 11
522.9083621178298
 21
216.6750793214414
 31
0.0
  0
LINE
  5
1753
330
18
100
AcDbEntity
  8
ﾊｯﾁﾝｸ
100
AcDbLine
 10
524.3494484601756
 20
216.5810313972559
 30
0.0
 11
522.9083621178298
 21
218.0221177396017
 31
0.0
  0
LINE
  5
1754
330
18
100
AcDbEntity
  8
ﾊｯﾁﾝｸ
100
AcDbLine
 10
525.4083621178298
 20
216.8691561577622
 30
0.0
 11
522.9083621178298
 21
219.3691561577622
 31
0.0
  0
LINE
  5
1755
330
18
100
AcDbEntity
  8
ﾊｯﾁﾝｸ
100
AcDbLine
 10
525.4083621178298
 20
218.2161945759224
 30
0.0
 11
523.9435252964963
 21
219.681031397256
 31
0.0
  0
LINE
  5
1756
330
18
100
AcDbEntity
  8
ﾊｯﾁﾝｸ
100
AcDbLine
 10
525.4083621178299
 20
219.5632329940828
 30
0.0
 11
525.2905637146567
 21
219.6810313972559
 31
0.0
  0
POINT
  5
1757
330
18
100
AcDbEntity
  8
DEFPOINTS
  6
ByBlock
 62
     0
100
AcDbPoint
 10
525.4083621178298
 20
210.881031397256
 30
0.0
  0
POINT
  5
1758
330
18
100
AcDbEntity
  8
DEFPOINTS
  6
ByBlock
 62
     0
100
AcDbPoint
 10
525.4083621178298
 20
420.3810313972559
 30
0.0
  0
DIMENSION
  5
1759
330
18
100
AcDbEntity
  8
寸法線
100
AcDbDimension
  2
*D1
 10
513.3088485879039
 20
219.881031397256
 30
0.0
 11
511.4338485879038
 21
215.3810313972561
 31
0.0
 70
    32
 71
     5
 42
9.0
  3
STYLE3
100
AcDbAlignedDimension
 13
525.4083621178298
 23
210.881031397256
 33
0.0
 14
522.6583621178299
 24
219.881031397256
 34
0.0
 50
90.0
100
AcDbRotatedDimension
1001
ACAD
1000
DSTYLE
1002
{
1070
   271
1070
     2
1070
   341
1005
0
1002
}
  0
DIMENSION
  5
1767
330
18
100
AcDbEntity
  8
寸法線
100
AcDbDimension
  2
*D2
 10
322.3365214231504
 20
338.881031397256
 30
0.0
 11
320.4615214231504
 21
274.8810313972561
 31
0.0
 70
    32
 71
     5
 42
128.0
  3
STYLE3
100
AcDbAlignedDimension
 13
374.4368653896763
 23
210.881031397256
 33
0.0
 14
330.1803461390268
 24
338.881031397256
 34
0.0
 50
90.0
100
AcDbRotatedDimension
1001
ACAD
1000
DSTYLE
1002
{
1070
   271
1070
     2
1070
   341
1005
0
1002
}
  0
DIMENSION
  5
1774
330
18
100
AcDbEntity
  8
寸法線
100
AcDbDimension
  2
*D3
 10
322.3365214231505
 20
420.3810313972559
 30
0.0
 11
320.4615214231504
 21
379.631031397256
 31
0.0
 70
    32
 71
     5
 42
81.49999999999995
  3
STYLE3
100
AcDbAlignedDimension
 13
330.1803461390268
 23
338.881031397256
 33
0.0
 14
374.4368653896763
 24
420.3810313972559
 34
0.0
 50
90.0
100
AcDbRotatedDimension
1001
ACAD
1000
DSTYLE
1002
{
1070
   279
1070
     1
1070
   271
1070
     2
1070
   341
1005
0
1002
}
  0
DIMENSION
  5
1781
330
18
100
AcDbEntity
  8
寸法線
100
AcDbDimension
  2
*D4
 10
311.756031816216
 20
420.3810313972559
 30
0.0
 11
309.8810318162159
 21
315.631031397256
 31
0.0
 70
    32
 71
     5
 42
209.4999999999999
  3
STYLE3
100
AcDbAlignedDimension
 13
321.0865214231504
 23
210.881031397256
 33
0.0
 14
321.0865214231505
 24
420.3810313972559
 34
0.0
 50
90.0
100
AcDbRotatedDimension
1001
ACAD
1000
DSTYLE
1002
{
1070
   271
1070
     2
1070
   341
1005
0
1002
}
  0
LINE
  5
178E
330
18
100
AcDbEntity
  8
外形線
100
AcDbLine
 10
370.6368653896762
 20
416.2810313972559
 30
0.0
 11
370.6368653896763
 21
414.281031397256
 31
0.0
  0
LINE
  5
1791
330
18
100
AcDbEntity
  8
外形線
100
AcDbLine
 10
378.2368653896763
 20
416.2810313972561
 30
0.0
 11
378.2368653896763
 21
414.2810313972561
 31
0.0
  0
LINE
  5
1792
330
18
100
AcDbEntity
  8
外形線
100
AcDbLine
 10
521.6083621178298
 20
416.2810313972559
 30
0.0
 11
521.6083621178298
 21
414.2810313972559
 31
0.0
  0
LINE
  5
1793
330
18
100
AcDbEntity
  8
外形線
100
AcDbLine
 10
529.2083621178298
 20
416.2810313972559
 30
0.0
 11
529.2083621178298
 21
414.281031397256
 31
0.0
  0
TEXT
  5
17D1
330
18
100
AcDbEntity
  8
寸法線
 62
     6
100
AcDbText
 10
394.3989396724009
 20
287.9539808733727
 30
0.0
 40
1.75
  1
 0
  7
STYLE3
100
AcDbText
  0
TEXT
  5
17D2
330
18
100
AcDbEntity
  8
寸法線
 62
     6
100
AcDbText
 10
393.3189972813108
 20
285.6206475400394
 30
0.0
 40
1.75
  1
-0.03
  7
STYLE3
100
AcDbText
  0
ARC
  5
181B
330
18
100
AcDbEntity
  8
外形線
100
AcDbCircle
 10
374.4368653896763
 20
212.081031397256
 30
0.0
 40
1.199999999999999
100
AcDbArc
 50
189.59406822686
 51
350.40593177314
  0
ARC
  5
181C
330
18
100
AcDbEntity
  8
外形線
100
AcDbCircle
 10
525.4083621178298
 20
212.081031397256
 30
0.0
 40
1.199999999999999
100
AcDbArc
 50
189.59406822686
 51
350.40593177314
  0
TEXT
  5
1846
330
18
100
AcDbEntity
  8
文字
100
AcDbText
 10
386.5311747775773
 20
445.7507813211022
 30
0.0
 40
4.0
  1
Model No.509 Long Travel Dial Gauge
  7
STYLE3
100
AcDbText
  0
LINE
  5
1847
330
18
100
AcDbEntity
  8
外形線
100
AcDbLine
 10
385.9892967775772
 20
442.6525083211021
 30
0.0
 11
497.9892967775772
 21
442.6525083211021
 31
0.0
  0
LINE
  5
1848
330
18
100
AcDbEntity
  8
外形線
100
AcDbLine
 10
385.9892967775772
 20
443.6525083211021
 30
0.0
 11
497.9892967775772
 21
443.6525083211021
 31
0.0
  0
LINE
  5
184A
330
18
100
AcDbEntity
  8
外形線
100
AcDbLine
 10
492.4773941437382
 20
197.3739694936106
 30
0.0
 11
633.2688121437382
 21
197.3739694936106
 31
0.0
  0
LINE
  5
184B
330
18
100
AcDbEntity
  8
外形線
100
AcDbLine
 10
492.4773941437382
 20
186.5937634936106
 30
0.0
 11
633.2688121437382
 21
186.5937634936106
 31
0.0
  0
TEXT
  5
184C
330
18
100
AcDbEntity
  8
0
  6
Continuous
100
AcDbText
 10
493.9348611437382
 20
188.4917534936106
 30
0.0
 40
2.1
  1
Design and specifications are subject to change without notice for future improvement.
  7
STYLE3
100
AcDbText
  0
TEXT
  5
184D
330
18
100
AcDbEntity
  8
0
  6
Continuous
100
AcDbText
 10
494.2263551437382
 20
192.4209014936106
 30
0.0
 40
3.5
  1
仕様及び外観は予告なく変更される場合がございますのでご了承下さい。
  7
STYLE3
100
AcDbText
  0
TEXT
  5
184E
330
18
100
AcDbEntity
  8
0
  6
Continuous
100
AcDbText
 10
493.6433701437382
 20
178.7271254936106
 30
0.0
 40
2.1
  1
3RD Angle Projection
  7
STYLE3
100
AcDbText
  0
TEXT
  5
184F
330
18
100
AcDbEntity
  8
0
  6
Continuous
100
AcDbText
 10
496.2668131437382
 20
182.2234084936106
 30
0.0
 40
3.0
  1
三　　角　　法
  7
STYLE3
100
AcDbText
  0
LINE
  5
1850
330
18
100
AcDbEntity
  8
外形線
100
AcDbLine
 10
492.4773941437382
 20
176.9789854936106
 30
0.0
 11
492.4773941437382
 21
197.3739694936106
 31
0.0
  0
LINE
  5
1851
330
18
100
AcDbEntity
  8
外形線
100
AcDbLine
 10
594.5001611437382
 20
186.5937634936106
 30
0.0
 11
594.5001611437382
 21
176.9789854936106
 31
0.0
  0
LINE
  5
1852
330
18
100
AcDbEntity
  8
外形線
100
AcDbLine
 10
564.7678111437382
 20
186.5937634936106
 30
0.0
 11
564.7678111437382
 21
176.9789854936106
 31
0.0
  0
LINE
  5
1853
330
18
100
AcDbEntity
  8
外形線
100
AcDbLine
 10
545.2377391437383
 20
186.5937634936106
 30
0.0
 11
545.2377391437383
 21
176.9789854936106
 31
0.0
  0
LINE
  5
1854
330
18
100
AcDbEntity
  8
外形線
100
AcDbLine
 10
527.7481221437382
 20
186.5937634936106
 30
0.0
 11
527.7481221437382
 21
176.9789854936106
 31
0.0
  0
TEXT
  5
1855
330
18
100
AcDbEntity
  8
0
  6
Continuous
100
AcDbText
 10
529.2055911437382
 20
182.2293634936107
 30
0.0
 40
3.0
  1
単位
  7
STYLE3
100
AcDbText
  0
TEXT
  5
1856
330
18
100
AcDbEntity
  8
0
  6
Continuous
100
AcDbText
 10
529.3773121437381
 20
178.7271264936106
 30
0.0
 40
2.1
  1
Unit
  7
STYLE3
100
AcDbText
  0
TEXT
  5
1857
330
18
100
AcDbEntity
  8
0
  6
Continuous
100
AcDbText
 10
546.5234871437383
 20
181.9380054936106
 30
0.0
 40
3.0
  1
尺 度
  7
STYLE3
100
AcDbText
  0
TEXT
  5
1858
330
18
100
AcDbEntity
  8
0
  6
Continuous
100
AcDbText
 10
537.2476391437382
 20
180.4752694936106
 30
0.0
 40
2.399999999999999
  1
mm
  7
STYLE3
100
AcDbText
  0
TEXT
  5
1859
330
18
100
AcDbEntity
  8
0
  6
Continuous
100
AcDbText
 10
546.9867021437383
 20
179.0184834936106
 30
0.0
 40
2.1
  1
Scale
  7
STYLE3
100
AcDbText
  0
TEXT
  5
185A
330
18
100
AcDbEntity
  8
0
  6
Continuous
100
AcDbText
 10
556.6059911437382
 20
180.7666264936106
 30
0.0
 40
2.399999999999999
  1
1/1
  7
STYLE3
100
AcDbText
  0
TEXT
  5
185B
330
18
100
AcDbEntity
  8
0
  6
Continuous
100
AcDbText
 10
566.6997621437381
 20
178.7271274936106
 30
0.0
 40
2.1
  1
Date
  7
STYLE3
100
AcDbText
  0
TEXT
  5
185C
330
18
100
AcDbEntity
  8
0
  6
Continuous
100
AcDbText
 10
566.3164011437382
 20
182.0602104936106
 30
0.0
 40
3.0
  1
日 付
  7
STYLE3
100
AcDbText
  0
TEXT
  5
185D
330
18
100
AcDbEntity
  8
0
  6
Continuous
100
AcDbText
 10
575.4445701437382
 20
180.4752684936106
 30
0.0
 40
2.1
  1
2010.06.08
  7
STYLE3
100
AcDbText
  0
TEXT
  5
185E
330
18
100
AcDbEntity
  8
0
  6
Continuous
100
AcDbText
 10
595.8491241437382
 20
182.5147654936106
 30
0.0
 40
3.0
  1
株式会社　尾崎製作所
  7
STYLE3
100
AcDbText
  0
TEXT
  5
185F
330
18
100
AcDbEntity
  8
0
  6
Continuous
100
AcDbText
 10
596.7236031437383
 20
178.7271264936106
 30
0.0
 40
2.1
  1
OZAKI MFG. CO., LTD.
  7
STYLE3
100
AcDbText
  0
ENDSEC
  0
SECTION
  2
OBJECTS
  0
DICTIONARY
  5
C
330
0
100
AcDbDictionary
281
     1
  3
ACAD_COLOR
350
1414
  3
ACAD_GROUP
350
D
  3
ACAD_IMAGE_DICT
350
A00
  3
ACAD_LAYOUT
350
1417
  3
ACAD_MATERIAL
350
1413
  3
ACAD_MLINESTYLE
350
1B
  3
ACAD_PLOTSETTINGS
350
1418
  3
ACAD_PLOTSTYLENAME
350
1411
  3
ACAD_TABLESTYLE
350
1415
  3
ACDBVARIABLEDICTIONARY
350
B79
  0
DICTIONARY
  5
178F
330
18
100
AcDbDictionary
280
     1
281
     1
  3
ACAD_SORTENTS
360
1790
  0
DICTIONARY
  5
1414
102
{ACAD_REACTORS
330
C
102
}
330
C
100
AcDbDictionary
281
     1
  0
DICTIONARY
  5
D
102
{ACAD_REACTORS
330
C
102
}
330
C
100
AcDbDictionary
281
     1
  0
DICTIONARY
  5
A00
102
{ACAD_REACTORS
330
C
102
}
330
C
100
AcDbDictionary
281
     1
  3
ROGO01
350
A01
  0
DICTIONARY
  5
1417
102
{ACAD_REACTORS
330
C
102
}
330
C
100
AcDbDictionary
281
     1
  3
Model
350
1419
  3
レイアウト1
350
141A
  0
DICTIONARY
  5
1413
102
{ACAD_REACTORS
330
C
102
}
330
C
100
AcDbDictionary
281
     1
  0
DICTIONARY
  5
1B
102
{ACAD_REACTORS
330
C
102
}
330
C
100
AcDbDictionary
281
     1
  3
STANDARD
350
1C
  0
DICTIONARY
  5
1418
102
{ACAD_REACTORS
330
C
102
}
330
C
100
AcDbDictionary
281
     1
  0
ACDBDICTIONARYWDFLT
  5
1411
102
{ACAD_REACTORS
330
C
102
}
330
C
100
AcDbDictionary
281
     1
  3
Normal
350
1412
100
AcDbDictionaryWithDefault
340
1412
  0
DICTIONARY
  5
1415
102
{ACAD_REACTORS
330
C
102
}
330
C
100
AcDbDictionary
281
     1
  3
Standard
350
1416
  0
DICTIONARY
  5
B79
102
{ACAD_REACTORS
330
C
102
}
330
C
100
AcDbDictionary
281
     1
  3
CTABLESTYLE
350
1422
  3
SORTENTS
350
B7A
  0
SORTENTSTABLE
  5
1790
102
{ACAD_REACTORS
330
178F
102
}
330
178F
100
AcDbSortentsTable
330
18
331
13E0
  5
13E4
331
124B
  5
124F
331
11D5
  5
11D9
331
FE6
  5
FEB
331
1214
  5
1218
331
13A1
  5
13A5
331
17D2
  5
17D2
331
13E8
  5
13EC
331
13A9
  5
13AD
331
121C
  5
1220
331
FEE
  5
FF3
331
11DD
  5
11E1
331
1253
  5
1257
331
1576
  5
15C6
331
172C
  5
1730
331
13B1
  5
13B5
331
137A
  5
1387
331
1224
  5
1228
331
FF6
  5
FFF
331
11E5
  5
11E9
331
125B
  5
125F
331
1734
  5
1738
331
173C
  5
1740
331
13B9
  5
13BD
331
122C
  5
1230
331
11ED
  5
11F1
331
F0F
  5
F58
331
1263
  5
1267
331
15C6
  5
15CA
331
16FD
  5
1701
331
1744
  5
1748
331
1705
  5
1709
331
154F
  5
1553
331
15CE
  5
15D2
331
A20
  5
A22
331
193
  5
193
331
291
  5
293
331
A28
  5
A2A
331
19B
  5
19B
331
299
  5
A07
331
C4E
  5
C7A
331
D64
  5
D68
331
A30
  5
A32
331
D6C
  5
D75
331
26A
  5
26C
331
1AB
  5
1AB
331
A38
  5
A3A
331
C86
  5
CB5
331
138A
  5
138E
331
126B
  5
126F
331
11F5
  5
11F9
331
1234
  5
1238
331
13C1
  5
13C5
331
174C
  5
1750
331
170D
  5
1713
331
13C9
  5
13CD
331
1273
  5
1277
331
123C
  5
1240
331
11C6
  5
11CB
331
11FD
  5
1201
331
1392
  5
1396
331
1557
  5
155B
331
1754
  5
1758
331
13D1
  5
13D5
331
139A
  5
139F
331
1244
  5
1248
331
11CE
  5
11D2
331
1205
  5
1209
331
127B
  5
127F
331
155F
  5
1563
331
1715
  5
1719
331
1793
  5
D11
331
13D9
  5
13DD
331
120D
  5
1211
331
FDF
  5
FE3
331
1283
  5
1287
331
1567
  5
156B
331
171D
  5
1721
331
1725
  5
1729
331
156F
  5
1573
331
272
  5
274
331
1B3
  5
1B3
331
A40
  5
A42
331
B77
  5
C3D
331
A48
  5
A4A
331
A09
  5
A0B
331
1BB
  5
1BB
331
27A
  5
28E
331
CB6
  5
CDF
331
A50
  5
A52
331
1C3
  5
1C3
331
A11
  5
A13
331
CDE
  5
CF2
331
D84
  5
D89
331
A19
  5
A1B
331
CF6
  5
D18
331
188
  5
188
331
D55
  5
D5A
331
124C
  5
1250
331
1215
  5
1219
331
FE7
  5
FEC
331
11D6
  5
11DA
331
13A2
  5
13A6
331
13E1
  5
13E5
331
172D
  5
1731
331
13AA
  5
13AE
331
1254
  5
1258
331
FEF
  5
FF4
331
EE0
  5
F0B
331
11DE
  5
11E2
331
121D
  5
1221
331
13E9
  5
13ED
331
1577
  5
15C7
331
13F1
  5
1551
331
137B
  5
1388
331
125C
  5
1260
331
11E6
  5
11EA
331
F08
  5
F0D
331
FF7
  5
1000
331
1225
  5
1229
331
13B2
  5
13B6
331
1735
  5
1739
331
173D
  5
1741
331
16FE
  5
1702
331
13BA
  5
13BE
331
122D
  5
1231
331
FFF
  5
11C1
331
11EE
  5
11F2
331
1264
  5
1268
331
15C7
  5
15CB
331
1774
  5
1792
331
1745
  5
1749
331
1706
  5
170A
331
15CF
  5
15D3
331
292
  5
294
331
194
  5
194
331
A21
  5
A23
331
29A
  5
A08
331
19C
  5
19C
331
A29
  5
A2B
331
D65
  5
D69
331
A31
  5
A33
331
D26
  5
D2A
331
A39
  5
A3B
331
1AC
  5
1AC
331
26B
  5
26D
331
C7F
  5
C81
331
D6D
  5
D76
331
D75
  5
D83
331
C87
  5
CB6
331
13C2
  5
13C6
331
138B
  5
138F
331
1235
  5
1239
331
11F6
  5
11FA
331
F58
  5
F92
331
126C
  5
1270
331
1550
  5
1554
331
174D
  5
1751
331
1393
  5
1397
331
123D
  5
1241
331
11FE
  5
1202
331
11C7
  5
11CC
331
1274
  5
1278
331
13CA
  5
13CE
331
1558
  5
155C
331
1755
  5
1759
331
139B
  5
13A0
331
127C
  5
1280
331
1206
  5
120A
331
11CF
  5
11D3
331
1245
  5
1249
331
13D2
  5
13D6
331
1560
  5
1564
331
1716
  5
171A
331
1284
  5
1344
331
120E
  5
1212
331
13DA
  5
13DE
331
1568
  5
156C
331
171E
  5
1722
331
1726
  5
172A
331
1B4
  5
1B4
331
273
  5
275
331
A41
  5
A43
331
A0A
  5
A0C
331
1BC
  5
1BC
331
A49
  5
A4B
331
D46
  5
D50
331
A51
  5
A82
331
1C4
  5
1C4
331
A12
  5
A14
331
CDF
  5
CF3
331
D85
  5
D8A
331
189
  5
189
331
C40
  5
C45
331
A1A
  5
A1C
331
D4E
  5
D55
331
D56
  5
D5B
331
FE0
  5
FE5
331
13E2
  5
13E6
331
124D
  5
1251
331
DC9
  5
F0A
331
11D7
  5
11DB
331
1216
  5
121A
331
13A3
  5
13A7
331
1570
  5
1574
331
172E
  5
1732
331
13EA
  5
13EE
331
13AB
  5
13AF
331
121E
  5
1222
331
FF0
  5
FF5
331
EE1
  5
F0C
331
11DF
  5
11E3
331
1255
  5
1259
331
15A8
  5
15C8
331
1736
  5
173A
331
13B3
  5
13B7
331
1226
  5
122A
331
FF8
  5
1001
331
11E7
  5
11EB
331
125D
  5
1261
331
13F2
  5
1552
331
16F7
  5
16FB
331
173E
  5
1742
331
16FF
  5
1703
331
13BB
  5
13BF
331
1265
  5
1269
331
11EF
  5
11F3
331
122E
  5
1232
331
15C8
  5
15CC
331
1746
  5
174A
331
1707
  5
170B
331
A22
  5
A24
331
195
  5
195
331
293
  5
295
331
B51
  5
B63
331
A2A
  5
A2C
331
19D
  5
19D
331
D17
  5
D26
331
D5E
  5
D62
331
D66
  5
D6A
331
A32
  5
A34
331
D6E
  5
D77
331
C80
  5
C82
331
26C
  5
26E
331
1AD
  5
1AD
331
A3A
  5
A3C
331
D27
  5
D2B
331
D76
  5
D84
331
1000
  5
11C2
331
15D0
  5
15D4
331
138C
  5
1390
331
126D
  5
1271
331
11F7
  5
11FB
331
F59
  5
FDF
331
11C0
  5
11C4
331
1236
  5
123A
331
13C3
  5
13C7
331
1551
  5
1555
331
174E
  5
1752
331
13CB
  5
13CF
331
1394
  5
1398
331
123E
  5
1242
331
11C8
  5
11CD
331
11FF
  5
1203
331
1275
  5
1279
331
1559
  5
155D
331
1756
  5
1767
331
13D3
  5
13D7
331
139C
  5
13A1
331
1246
  5
124A
331
1207
  5
120B
331
127D
  5
1281
331
1561
  5
1565
331
1717
  5
171B
331
171F
  5
1723
331
120F
  5
1213
331
1285
  5
1345
331
13DB
  5
13DF
331
1569
  5
156D
331
1727
  5
172B
331
274
  5
276
331
1B5
  5
1B5
331
A42
  5
A44
331
A4A
  5
A4C
331
1BD
  5
1BD
331
A0B
  5
A0D
331
D47
  5
D52
331
A13
  5
A15
331
A52
  5
B51
331
18A
  5
18A
331
A1B
  5
A1D
331
D4F
  5
D56
331
D57
  5
D5E
331
FE1
  5
FE6
331
11D0
  5
11D4
331
13A4
  5
13A8
331
124E
  5
1252
331
1217
  5
121B
331
FE9
  5
FEE
331
11D8
  5
11DC
331
1365
  5
1385
331
13E3
  5
13E7
331
1571
  5
1575
331
172F
  5
1733
331
13AC
  5
13B0
331
1256
  5
125A
331
11E0
  5
11E4
331
121F
  5
1223
331
13EB
  5
13EF
331
15A9
  5
15C9
331
1737
  5
173B
331
125E
  5
1262
331
11E8
  5
11EC
331
F0A
  5
F0E
331
1227
  5
122B
331
13B4
  5
13B8
331
16F8
  5
16FC
331
1700
  5
1704
331
13BC
  5
13C0
331
1385
  5
1389
331
122F
  5
1233
331
1266
  5
126A
331
15C9
  5
15CD
331
1747
  5
174B
331
A82
  5
B62
331
294
  5
296
331
196
  5
196
331
A23
  5
A25
331
D10
  5
D19
331
D5F
  5
D63
331
D18
  5
D27
331
A2B
  5
A2D
331
19E
  5
19E
331
D67
  5
D6B
331
B62
  5
B6A
331
265
  5
265
331
A33
  5
A35
331
D28
  5
D30
331
B6A
  5
B74
331
A3B
  5
A3D
331
1AE
  5
1AE
331
26D
  5
26F
331
C81
  5
C83
331
D6F
  5
D78
331
D77
  5
D85
331
1001
  5
11C3
331
11F0
  5
11F4
331
1708
  5
170C
331
15D1
  5
15D5
331
13C4
  5
13C8
331
138D
  5
1391
331
1237
  5
123B
331
11F8
  5
11FC
331
11C1
  5
11C5
331
126E
  5
1272
331
1552
  5
1556
331
174F
  5
1753
331
1710
  5
1714
331
1395
  5
1399
331
1276
  5
127A
331
1200
  5
1204
331
F92
  5
FE2
331
123F
  5
1243
331
13CC
  5
13D0
331
155A
  5
155E
331
1757
  5
1774
331
127E
  5
1282
331
1208
  5
120C
331
1247
  5
124B
331
13D4
  5
13D8
331
1562
  5
1566
331
1718
  5
171C
331
178E
  5
268
331
1720
  5
1724
331
13DC
  5
13E0
331
1286
  5
1365
331
156A
  5
156E
331
D30
  5
D47
331
275
  5
277
331
1B6
  5
1B6
331
A43
  5
A45
331
A0C
  5
A0E
331
1BE
  5
1BE
331
A4B
  5
A4D
331
D87
  5
DC4
331
28D
  5
291
331
1C6
  5
1C6
331
A14
  5
A16
331
18B
  5
18B
331
C42
  5
C46
331
A1C
  5
A1E
331
D50
  5
D57
331
11D1
  5
11D5
331
FE2
  5
FE7
331
1210
  5
1214
331
1728
  5
172C
331
13E4
  5
13E8
331
124F
  5
1253
331
1218
  5
121C
331
FEA
  5
FEF
331
11D9
  5
11DD
331
13A5
  5
13A9
331
1572
  5
1576
331
13AD
  5
13B1
331
1220
  5
1224
331
FF2
  5
FF6
331
11E1
  5
11E5
331
1257
  5
125B
331
13EC
  5
13F1
331
1730
  5
1734
331
1767
  5
1791
331
1738
  5
173C
331
13B5
  5
13B9
331
1228
  5
122C
331
11E9
  5
11ED
331
F0B
  5
F0F
331
125F
  5
1263
331
16F9
  5
16FD
331
1701
  5
1705
331
13BD
  5
13C1
331
1386
  5
138A
331
1267
  5
126B
331
15CA
  5
15CE
331
D11
  5
D1A
331
A24
  5
A26
331
197
  5
197
331
295
  5
297
331
D58
  5
D5F
331
D19
  5
D28
331
A2C
  5
A2E
331
19F
  5
19F
331
C6A
  5
C7F
331
D60
  5
D64
331
C7A
  5
C80
331
B63
  5
B6B
331
266
  5
266
331
1A7
  5
1A7
331
A34
  5
A36
331
D68
  5
D6C
331
C82
  5
C84
331
B6B
  5
B75
331
26E
  5
270
331
1AF
  5
1AF
331
A3C
  5
A3E
331
D29
  5
D31
331
11F1
  5
11F5
331
1230
  5
1234
331
1748
  5
174C
331
1709
  5
170D
331
15D2
  5
15DA
331
13C5
  5
13C9
331
126F
  5
1273
331
11F9
  5
11FD
331
F5B
  5
FE0
331
11C2
  5
11C6
331
1238
  5
123C
331
138E
  5
1392
331
1553
  5
1557
331
1750
  5
1754
331
1711
  5
1715
331
15DA
  5
16F8
331
13CD
  5
13D1
331
1396
  5
139A
331
1240
  5
1244
331
11CA
  5
11CE
331
1201
  5
1205
331
1277
  5
127B
331
155B
  5
155F
331
1758
  5
1781
331
13D5
  5
13D9
331
139E
  5
13A2
331
1209
  5
120D
331
127F
  5
1283
331
1563
  5
1567
331
1719
  5
171D
331
1721
  5
1725
331
1287
  5
136F
331
13DD
  5
13E1
331
156B
  5
156F
331
D31
  5
D4E
331
276
  5
278
331
1B7
  5
1B7
331
A44
  5
A46
331
D78
  5
D87
331
A4C
  5
A4E
331
1BF
  5
1BF
331
A0D
  5
A0F
331
CF2
  5
CF6
331
A15
  5
A17
331
28E
  5
292
331
1C7
  5
1C7
331
C3B
  5
C40
331
D88
  5
DC9
331
184
  5
184
331
A1D
  5
A1F
331
18C
  5
18C
331
1248
  5
124C
331
1211
  5
1215
331
FE3
  5
FE9
331
DC4
  5
F08
331
11D2
  5
11D6
331
1729
  5
172D
331
13A6
  5
13AA
331
1219
  5
121D
331
FEB
  5
FF0
331
11DA
  5
11DE
331
1250
  5
1254
331
13E5
  5
13E9
331
1573
  5
1577
331
13AE
  5
13B2
331
1258
  5
125C
331
11E2
  5
11E6
331
FF3
  5
FF7
331
1221
  5
1225
331
136F
  5
1386
331
13ED
  5
13F2
331
1731
  5
1735
331
1260
  5
1264
331
1229
  5
122D
331
F0C
  5
F1C
331
11EA
  5
11EE
331
13B6
  5
13BA
331
1739
  5
173D
331
1741
  5
1745
331
1702
  5
1706
331
13BE
  5
13C2
331
1387
  5
138B
331
15CB
  5
15CF
331
190
  5
190
331
C4B
  5
C4D
331
296
  5
298
331
198
  5
198
331
A25
  5
A27
331
D61
  5
D65
331
D1A
  5
D29
331
25F
  5
25F
331
1A0
  5
1A0
331
A2D
  5
A2F
331
267
  5
269
331
1A8
  5
1A8
331
A35
  5
A37
331
D69
  5
D6D
331
D2A
  5
D33
331
A3D
  5
A3F
331
26F
  5
271
331
C83
  5
C85
331
1231
  5
1235
331
11F2
  5
11F6
331
F1C
  5
F59
331
1268
  5
126C
331
1749
  5
174D
331
170A
  5
170E
331
15D3
  5
15F3
331
1554
  5
1558
331
13C6
  5
13CA
331
138F
  5
1393
331
1239
  5
123D
331
11FA
  5
11FE
331
F5C
  5
FE1
331
11C3
  5
11C7
331
1270
  5
1274
331
1751
  5
1755
331
1712
  5
1716
331
155C
  5
1560
331
1397
  5
139B
331
1278
  5
127C
331
1202
  5
1206
331
11CB
  5
11CF
331
1241
  5
1245
331
13CE
  5
13D2
331
1759
  5
178E
331
15F3
  5
16F9
331
1564
  5
1568
331
171A
  5
171E
331
13D6
  5
13DA
331
120A
  5
120E
331
1280
  5
1284
331
139F
  5
13A3
331
1722
  5
1726
331
13DE
  5
13E2
331
156C
  5
1570
331
B74
  5
B76
331
277
  5
279
331
1B8
  5
1B8
331
A45
  5
A47
331
A4D
  5
A4F
331
1C0
  5
1C0
331
A0E
  5
A10
331
CF3
  5
D10
331
1C8
  5
1C8
331
A16
  5
A18
331
D89
  5
EE0
331
185
  5
185
331
D52
  5
D58
331
A1E
  5
A20
331
18D
  5
18D
331
1249
  5
124D
331
11D3
  5
11D7
331
1212
  5
1216
331
172A
  5
172E
331
13E6
  5
13EA
331
1251
  5
1255
331
121A
  5
121E
331
FEC
  5
FF2
331
11DB
  5
11DF
331
13A7
  5
13AB
331
1574
  5
15A8
331
13AF
  5
13B3
331
1222
  5
1226
331
FF4
  5
FF8
331
11E3
  5
11E7
331
1259
  5
125D
331
13EE
  5
154F
331
1732
  5
1736
331
173A
  5
173E
331
13B7
  5
13BB
331
122A
  5
122E
331
11EB
  5
11EF
331
F0D
  5
F1D
331
1261
  5
1265
331
16FB
  5
16FF
331
1742
  5
1746
331
1703
  5
1707
331
13BF
  5
13C3
331
15CC
  5
15D0
331
191
  5
191
331
A26
  5
A28
331
199
  5
199
331
297
  5
299
331
C4C
  5
C4E
331
D5A
  5
D60
331
A2E
  5
A30
331
D62
  5
D66
331
D6A
  5
D6E
331
268
  5
26A
331
1A9
  5
1A9
331
A36
  5
A38
331
C84
  5
C86
331
A3E
  5
A40
331
D2B
  5
D46
331
1388
  5
138C
331
1269
  5
126D
331
11F3
  5
11F7
331
F1D
  5
F5B
331
1232
  5
1236
331
1781
  5
1793
331
170B
  5
170F
331
15D4
  5
15F4
331
13C7
  5
13CB
331
1271
  5
1275
331
123A
  5
123E
331
11C4
  5
11C8
331
11FB
  5
11FF
331
1390
  5
1394
331
1555
  5
1559
331
174A
  5
174E
331
1752
  5
1756
331
13CF
  5
13D3
331
1398
  5
139C
331
1242
  5
1246
331
11CC
  5
11D0
331
1203
  5
1207
331
1279
  5
127D
331
155D
  5
1561
331
1713
  5
1717
331
1791
  5
267
331
15F4
  5
16FA
331
13D7
  5
13DB
331
120B
  5
120F
331
1281
  5
1285
331
1565
  5
1569
331
171B
  5
171F
331
13DF
  5
13E3
331
156D
  5
1571
331
1723
  5
1727
331
270
  5
272
331
B75
  5
B77
331
A46
  5
A48
331
278
  5
27A
331
1B9
  5
1B9
331
A07
  5
A09
331
D33
  5
D4F
331
A4E
  5
A50
331
1C1
  5
1C1
331
A0F
  5
A11
331
D8A
  5
EE1
331
A17
  5
A19
331
1C9
  5
1C9
331
C3D
  5
C42
331
186
  5
186
331
C45
  5
C4B
331
A1F
  5
A21
331
18E
  5
18E
331
124A
  5
124E
331
1213
  5
1217
331
FE5
  5
FEA
331
11D4
  5
11D8
331
13A0
  5
13A4
331
17D1
  5
17D1
331
13A8
  5
13AC
331
121B
  5
121F
331
11DC
  5
11E0
331
1252
  5
1256
331
13E7
  5
13EB
331
1575
  5
15A9
331
13EF
  5
1550
331
125A
  5
125E
331
11E4
  5
11E8
331
FF5
  5
FFD
331
1223
  5
1227
331
13B0
  5
13B4
331
1733
  5
1737
331
173B
  5
173F
331
1262
  5
1266
331
122B
  5
122F
331
FFD
  5
11C0
331
F0E
  5
F1E
331
11EC
  5
11F0
331
13B8
  5
13BC
331
16FC
  5
1700
331
1743
  5
1747
331
15CD
  5
15D1
331
1704
  5
1708
331
192
  5
192
331
1F9
  5
1F9
331
C4D
  5
C6A
331
298
  5
29A
331
19A
  5
19A
331
A27
  5
A29
331
D5B
  5
D61
331
D63
  5
D67
331
A2F
  5
A31
331
A37
  5
A39
331
1AA
  5
1AA
331
269
  5
26B
331
D6B
  5
D6F
331
A3F
  5
A41
331
C85
  5
C87
331
13C0
  5
13C4
331
1389
  5
138D
331
1233
  5
1237
331
11F4
  5
11F8
331
F1E
  5
F5C
331
126A
  5
126E
331
174B
  5
174F
331
15D5
  5
16F7
331
13C8
  5
13CC
331
1391
  5
1395
331
123B
  5
123F
331
11FC
  5
1200
331
11C5
  5
11CA
331
1272
  5
1276
331
1556
  5
155A
331
170C
  5
1712
331
1753
  5
1757
331
1399
  5
139E
331
127A
  5
127E
331
1204
  5
1208
331
11CD
  5
11D1
331
1243
  5
1247
331
13D0
  5
13D4
331
155E
  5
1562
331
1714
  5
1718
331
1282
  5
1286
331
120C
  5
1210
331
13D8
  5
13DC
331
1566
  5
156A
331
171C
  5
1720
331
1792
  5
D17
331
156E
  5
1572
331
1724
  5
1728
331
271
  5
273
331
B76
  5
C3B
331
A08
  5
A0A
331
279
  5
28D
331
1BA
  5
1BA
331
A47
  5
A49
331
CB5
  5
CDE
331
A4F
  5
A51
331
1C2
  5
1C2
331
A10
  5
A12
331
D83
  5
D88
331
1CA
  5
1CA
331
A18
  5
A1A
331
187
  5
187
331
C46
  5
C4C
331
18F
  5
18F
  0
IMAGEDEF
  5
A01
102
{ACAD_REACTORS
330
A00
102
}
330
A00
100
AcDbRasterImageDef
 90
        0
  1
D:\ﾃｽﾄ\rogo01.TIF
 10
3388.0
 20
4668.0
 11
0.0635
 21
0.0635
280
     1
281
     5
  0
LAYOUT
  5
1419
102
{ACAD_REACTORS
330
1417
102
}
330
1417
100
AcDbPlotSettings
  1

  2
A3 EPSON LP-6100.pc3
  4
A3
  6

 40
5.873749732971191
 41
5.873747825622558
 42
5.873748779296875
 43
5.873748779296875
 44
297.0106506347656
 45
419.9466552734374
 46
1.5
 47
25.0
 48
0.0
 49
0.0
140
0.0
141
0.0
142
1.0
143
1.0
 70
 28336
 72
     1
 73
     1
 74
     1
  7
AutoCAD LT 98.ctb
 75
    16
147
1.0
 76
     1
 77
     2
 78
   300
148
-255.8176900309641
149
-176.0635400423978
100
AcDbLayout
  1
Model
 70
     1
 71
     0
 10
0.0
 20
0.0
 11
12.0
 21
9.0
 12
0.0
 22
0.0
 32
0.0
 14
0.0
 24
0.0
 34
0.0
 15
0.0
 25
0.0
 35
0.0
146
0.0
 13
0.0
 23
0.0
 33
0.0
 16
1.0
 26
0.0
 36
0.0
 17
0.0
 27
1.0
 37
0.0
 76
     0
330
18
1001
ACAD_PSEXT
1000
A3 EPSON LP-6100.pc3
1000
EPSON LP-6100
1000
USB002
1000

1070
     0
  0
LAYOUT
  5
141A
102
{ACAD_REACTORS
330
1417
102
}
330
1417
100
AcDbPlotSettings
  1

  2
WIDR Printer
  4

  6

 40
0.0
 41
0.0
 42
0.0
 43
0.0
 44
0.0
 45
0.0
 46
0.0
 47
0.0
 48
0.0
 49
0.0
140
0.0
141
0.0
142
1.0
143
1.0
 70
   688
 72
     0
 73
     0
 74
     5
  7
AutoCad LT 98.ctb
 75
    16
147
1.0
 76
     0
 77
     2
 78
   300
148
0.0
149
0.0
100
AcDbLayout
  1
レイアウト1
 70
     1
 71
     1
 10
0.0
 20
0.0
 11
420.0
 21
297.0
 12
0.0
 22
0.0
 32
0.0
 14
1.000000000000000E+20
 24
1.000000000000000E+20
 34
1.000000000000000E+20
 15
-1.000000000000000E+20
 25
-1.000000000000000E+20
 35
-1.000000000000000E+20
146
0.0
 13
0.0
 23
0.0
 33
0.0
 16
1.0
 26
0.0
 36
0.0
 17
0.0
 27
1.0
 37
0.0
 76
     0
330
15
  0
MLINESTYLE
  5
1C
102
{ACAD_REACTORS
330
1B
102
}
330
1B
100
AcDbMlineStyle
  2
STANDARD
 70
     0
  3

 62
   256
 51
90.0
 52
90.0
 71
     2
 49
0.5
 62
   256
  6
BYLAYER
 49
-0.5
 62
   256
  6
BYLAYER
  0
ACDBPLACEHOLDER
  5
1412
102
{ACAD_REACTORS
330
1411
102
}
330
1411
  0
ACAD_PROXY_OBJECT
  5
1416
102
{ACAD_REACTORS
330
1415
102
}
330
1415
100
AcDbProxyObject
 90
      499
 91
      505
 95
  2555929
 70
     0
 93
     1849
310
4214DD185B99185C992420000000000000F83F0000000000003E0FC00000000000004901028000000C1008070000C3001FDFF8000000C1003FBFF000000182007F7FE00000030400FEFFC00000060801FDFF8000000C1003FBFF000000182000000000000000C2020B0000001820100E000186003FBFF000000182007F7FE0
310
0000030400FEFFC00000060801FDFF8000000C1003FBFF000000182007F7FE0000003040000000000000012404160000003040201C00030C007F7FE00000030400FEFFC00000060801FDFF8000000C1003FBFF000000182007F7FE00000030400FEFFC000000608000
340
F
340
F
340
F
 94
        0
  0
DICTIONARYVAR
  5
1422
102
{ACAD_REACTORS
330
B79
102
}
330
B79
100
DictionaryVariables
280
     0
  1
STANDARD
  0
DICTIONARYVAR
  5
B7A
102
{ACAD_REACTORS
330
B79
102
}
330
B79
100
DictionaryVariables
280
     0
  1
96
  0
ENDSEC
  0
EOF
