  0
SECTION
  2
HEADER
  9
$ACADVER
  1
AC1018
  9
$ACADMAINTVER
 70
     0
  9
$DWGCODEPAGE
  3
ANSI_932
  9
$INSBASE
 10
0.0
 20
0.0
 30
0.0
  9
$EXTMIN
 10
236.4886379941705
 20
171.6235136330668
 30
-0.0015258207003583
  9
$EXTMAX
 10
491.9065729289581
 20
367.0613775925545
 30
0.0000000349246037
  9
$LIMMIN
 10
0.0
 20
0.0
  9
$LIMMAX
 10
420.0
 20
297.0
  9
$ORTHOMODE
 70
     0
  9
$REGENMODE
 70
     1
  9
$FILLMODE
 70
     1
  9
$QTEXTMODE
 70
     0
  9
$MIRRTEXT
 70
     1
  9
$LTSCALE
 40
1.0
  9
$ATTMODE
 70
     1
  9
$TEXTSIZE
 40
3.0
  9
$TRACEWID
 40
1.0
  9
$TEXTSTYLE
  7
STYLE3
  9
$CLAYER
  8
寸法線
  9
$CELTYPE
  6
BYLAYER
  9
$CECOLOR
 62
   256
  9
$CELTSCALE
 40
1.0
  9
$DISPSILH
 70
     0
  9
$DIMSCALE
 40
1.0
  9
$DIMASZ
 40
2.5
  9
$DIMEXO
 40
0.0
  9
$DIMDLI
 40
3.75
  9
$DIMRND
 40
0.0
  9
$DIMDLE
 40
0.0
  9
$DIMEXE
 40
1.25
  9
$DIMTP
 40
0.0
  9
$DIMTM
 40
0.0
  9
$DIMTXT
 40
2.5
  9
$DIMCEN
 40
2.5
  9
$DIMTSZ
 40
0.0
  9
$DIMTOL
 70
     0
  9
$DIMLIM
 70
     0
  9
$DIMTIH
 70
     0
  9
$DIMTOH
 70
     0
  9
$DIMSE1
 70
     0
  9
$DIMSE2
 70
     0
  9
$DIMTAD
 70
     1
  9
$DIMZIN
 70
     8
  9
$DIMBLK
  1

  9
$DIMASO
 70
     1
  9
$DIMSHO
 70
     1
  9
$DIMPOST
  1

  9
$DIMAPOST
  1

  9
$DIMALT
 70
     0
  9
$DIMALTD
 70
     4
  9
$DIMALTF
 40
0.0394
  9
$DIMLFAC
 40
1.0
  9
$DIMTOFL
 70
     1
  9
$DIMTVP
 40
0.0
  9
$DIMTIX
 70
     0
  9
$DIMSOXD
 70
     0
  9
$DIMSAH
 70
     1
  9
$DIMBLK1
  1
OPEN
  9
$DIMBLK2
  1
OPEN
  9
$DIMSTYLE
  2
STYLE3
  9
$DIMCLRD
 70
     2
  9
$DIMCLRE
 70
     2
  9
$DIMCLRT
 70
     6
  9
$DIMTFAC
 40
1.0
  9
$DIMGAP
 40
0.625
  9
$DIMJUST
 70
     0
  9
$DIMSD1
 70
     0
  9
$DIMSD2
 70
     0
  9
$DIMTOLJ
 70
     1
  9
$DIMTZIN
 70
     0
  9
$DIMALTZ
 70
     0
  9
$DIMALTTZ
 70
     0
  9
$DIMUPT
 70
     0
  9
$DIMDEC
 70
     2
  9
$DIMTDEC
 70
     4
  9
$DIMALTU
 70
     8
  9
$DIMALTTD
 70
     4
  9
$DIMTXSTY
  7
STYLE3
  9
$DIMAUNIT
 70
     0
  9
$DIMADEC
 70
     0
  9
$DIMALTRND
 40
0.0
  9
$DIMAZIN
 70
     0
  9
$DIMDSEP
 70
    46
  9
$DIMATFIT
 70
     3
  9
$DIMFRAC
 70
     0
  9
$DIMLDRBLK
  1

  9
$DIMLUNIT
 70
     2
  9
$DIMLWD
 70
    -2
  9
$DIMLWE
 70
    -2
  9
$DIMTMOVE
 70
     0
  9
$LUNITS
 70
     2
  9
$LUPREC
 70
     4
  9
$SKETCHINC
 40
1.0
  9
$FILLETRAD
 40
0.0
  9
$AUNITS
 70
     0
  9
$AUPREC
 70
     0
  9
$MENU
  1
.
  9
$ELEVATION
 40
0.0
  9
$PELEVATION
 40
0.0
  9
$THICKNESS
 40
0.0
  9
$LIMCHECK
 70
     0
  9
$CHAMFERA
 40
10.0
  9
$CHAMFERB
 40
10.0
  9
$CHAMFERC
 40
20.0
  9
$CHAMFERD
 40
0.0
  9
$SKPOLY
 70
     0
  9
$TDCREATE
 40
2450753.462540625
  9
$TDUCREATE
 40
2450753.087540625
  9
$TDUPDATE
 40
2455371.391816586
  9
$TDUUPDATE
 40
2455371.016816586
  9
$TDINDWG
 40
0.8087566551
  9
$TDUSRTIMER
 40
0.8087566551
  9
$USRTIMER
 70
     1
  9
$ANGBASE
 50
0.0
  9
$ANGDIR
 70
     0
  9
$PDMODE
 70
     0
  9
$PDSIZE
 40
0.0
  9
$PLINEWID
 40
0.0
  9
$SPLFRAME
 70
     0
  9
$SPLINETYPE
 70
     6
  9
$SPLINESEGS
 70
     8
  9
$HANDSEED
  5
C1B
  9
$SURFTAB1
 70
     6
  9
$SURFTAB2
 70
     6
  9
$SURFTYPE
 70
     6
  9
$SURFU
 70
     6
  9
$SURFV
 70
     6
  9
$UCSBASE
  2

  9
$UCSNAME
  2

  9
$UCSORG
 10
0.0
 20
0.0
 30
0.0
  9
$UCSXDIR
 10
1.0
 20
0.0
 30
0.0
  9
$UCSYDIR
 10
0.0
 20
1.0
 30
0.0
  9
$UCSORTHOREF
  2

  9
$UCSORTHOVIEW
 70
     0
  9
$UCSORGTOP
 10
0.0
 20
0.0
 30
0.0
  9
$UCSORGBOTTOM
 10
0.0
 20
0.0
 30
0.0
  9
$UCSORGLEFT
 10
0.0
 20
0.0
 30
0.0
  9
$UCSORGRIGHT
 10
0.0
 20
0.0
 30
0.0
  9
$UCSORGFRONT
 10
0.0
 20
0.0
 30
0.0
  9
$UCSORGBACK
 10
0.0
 20
0.0
 30
0.0
  9
$PUCSBASE
  2

  9
$PUCSNAME
  2

  9
$PUCSORG
 10
0.0
 20
0.0
 30
0.0
  9
$PUCSXDIR
 10
1.0
 20
0.0
 30
0.0
  9
$PUCSYDIR
 10
0.0
 20
1.0
 30
0.0
  9
$PUCSORTHOREF
  2

  9
$PUCSORTHOVIEW
 70
     0
  9
$PUCSORGTOP
 10
0.0
 20
0.0
 30
0.0
  9
$PUCSORGBOTTOM
 10
0.0
 20
0.0
 30
0.0
  9
$PUCSORGLEFT
 10
0.0
 20
0.0
 30
0.0
  9
$PUCSORGRIGHT
 10
0.0
 20
0.0
 30
0.0
  9
$PUCSORGFRONT
 10
0.0
 20
0.0
 30
0.0
  9
$PUCSORGBACK
 10
0.0
 20
0.0
 30
0.0
  9
$USERI1
 70
     0
  9
$USERI2
 70
     0
  9
$USERI3
 70
     0
  9
$USERI4
 70
     0
  9
$USERI5
 70
     0
  9
$USERR1
 40
0.0
  9
$USERR2
 40
0.0
  9
$USERR3
 40
0.0
  9
$USERR4
 40
0.0
  9
$USERR5
 40
0.0
  9
$WORLDVIEW
 70
     1
  9
$SHADEDGE
 70
     3
  9
$SHADEDIF
 70
    70
  9
$TILEMODE
 70
     1
  9
$MAXACTVP
 70
    48
  9
$PINSBASE
 10
0.0
 20
0.0
 30
0.0
  9
$PLIMCHECK
 70
     0
  9
$PEXTMIN
 10
1.000000000000000E+20
 20
1.000000000000000E+20
 30
1.000000000000000E+20
  9
$PEXTMAX
 10
-1.000000000000000E+20
 20
-1.000000000000000E+20
 30
-1.000000000000000E+20
  9
$PLIMMIN
 10
0.0
 20
0.0
  9
$PLIMMAX
 10
420.0
 20
297.0
  9
$UNITMODE
 70
     0
  9
$VISRETAIN
 70
     1
  9
$PLINEGEN
 70
     0
  9
$PSLTSCALE
 70
     1
  9
$TREEDEPTH
 70
  3020
  9
$CMLSTYLE
  2
STANDARD
  9
$CMLJUST
 70
     0
  9
$CMLSCALE
 40
20.0
  9
$PROXYGRAPHICS
 70
     1
  9
$MEASUREMENT
 70
     1
  9
$CELWEIGHT
370
    -1
  9
$ENDCAPS
280
     0
  9
$JOINSTYLE
280
     0
  9
$LWDISPLAY
290
     0
  9
$INSUNITS
 70
     0
  9
$HYPERLINKBASE
  1

  9
$STYLESHEET
  1
AutoCAD LT 98.ctb
  9
$XEDIT
290
     1
  9
$CEPSNTYPE
380
     0
  9
$PSTYLEMODE
290
     1
  9
$FINGERPRINTGUID
  2
{7643B90D-F47F-4F90-86B0-1912F91A50B5}
  9
$VERSIONGUID
  2
{5C4E6868-95B9-4BDF-AC7B-118B05AD8F83}
  9
$EXTNAMES
290
     1
  9
$PSVPSCALE
 40
0.0
  9
$OLESTARTUP
290
     0
  9
$SORTENTS
280
    96
  9
$INDEXCTL
280
     0
  9
$HIDETEXT
280
     0
  9
$XCLIPFRAME
290
     0
  9
$HALOGAP
280
     0
  9
$OBSCOLOR
 70
   257
  9
$OBSLTYPE
280
     0
  9
$INTERSECTIONDISPLAY
280
     0
  9
$INTERSECTIONCOLOR
 70
   257
  9
$DIMASSOC
280
     1
  9
$PROJECTNAME
  1

  0
ENDSEC
  0
SECTION
  2
CLASSES
  0
CLASS
  1
DICTIONARYVAR
  2
AcDbDictionaryVar
  3
ObjectDBX Classes
 90
        0
 91
        2
280
     0
281
     0
  0
CLASS
  1
HATCH
  2
AcDbHatch
  3
ObjectDBX Classes
 90
        0
 91
        1
280
     0
281
     1
  0
CLASS
  1
LWPOLYLINE
  2
AcDbPolyline
  3
ObjectDBX Classes
 90
        0
 91
        2
280
     0
281
     1
  0
CLASS
  1
ACDBDICTIONARYWDFLT
  2
AcDbDictionaryWithDefault
  3
ObjectDBX Classes
 90
        0
 91
        1
280
     0
281
     0
  0
CLASS
  1
TABLESTYLE
  2
AcDbTableStyle
  3
ObjectDBX Classes
 90
     2047
 91
        1
280
     0
281
     0
  0
CLASS
  1
SORTENTSTABLE
  2
AcDbSortentsTable
  3
ObjectDBX Classes
 90
        0
 91
        1
280
     0
281
     0
  0
ENDSEC
  0
SECTION
  2
TABLES
  0
TABLE
  2
VPORT
  5
8
330
0
100
AcDbSymbolTable
 70
     2
  0
VPORT
  5
C1A
330
8
100
AcDbSymbolTableRecord
100
AcDbViewportTableRecord
  2
*Active
 70
     0
 10
0.0
 20
0.0
 11
1.0
 21
1.0
 12
364.1976054615643
 22
269.3424456128107
 13
0.0
 23
0.0
 14
10.0
 24
10.0
 15
10.0
 25
10.0
 16
0.0
 26
0.0
 36
1.0
 17
0.0
 27
0.0
 37
0.0
 40
196.9240834572785
 41
1.530456852791878
 42
50.0
 43
0.0
 44
0.0
 50
0.0
 51
0.0
 71
     0
 72
   100
 73
     1
 74
     1
 75
     0
 76
     0
 77
     0
 78
     0
281
     0
 65
     1
110
0.0
120
0.0
130
0.0
111
1.0
121
0.0
131
0.0
112
0.0
122
1.0
132
0.0
 79
     0
146
0.0
  0
ENDTAB
  0
TABLE
  2
LTYPE
  5
5
330
0
100
AcDbSymbolTable
 70
    12
  0
LTYPE
  5
12
330
5
100
AcDbSymbolTableRecord
100
AcDbLinetypeTableRecord
  2
BYBLOCK
 70
     0
  3

 72
    65
 73
     0
 40
0.0
  0
LTYPE
  5
13
330
5
100
AcDbSymbolTableRecord
100
AcDbLinetypeTableRecord
  2
BYLAYER
 70
     0
  3

 72
    65
 73
     0
 40
0.0
  0
LTYPE
  5
14
330
5
100
AcDbSymbolTableRecord
100
AcDbLinetypeTableRecord
  2
CONTINUOUS
 70
     0
  3
Solid line
 72
    65
 73
     0
 40
0.0
  0
LTYPE
  5
22
330
5
100
AcDbSymbolTableRecord
100
AcDbLinetypeTableRecord
  2
CENTER2
 70
     0
  3
Center (.5x) ___ _ ___ _ ___ _ ___ _ ___ _ ___
 72
    65
 73
     4
 40
28.575
 49
19.05
 74
     0
 49
-3.174999999999999
 74
     0
 49
3.174999999999999
 74
     0
 49
-3.174999999999999
 74
     0
  0
ENDTAB
  0
TABLE
  2
LAYER
  5
2
330
0
100
AcDbSymbolTable
 70
    14
  0
LAYER
  5
E
330
2
100
AcDbSymbolTableRecord
100
AcDbLayerTableRecord
  2
0
 70
     0
 62
     7
  6
CONTINUOUS
370
    -3
390
606
  0
LAYER
  5
25
330
2
100
AcDbSymbolTableRecord
100
AcDbLayerTableRecord
  2
外形線
 70
     0
 62
     7
  6
CONTINUOUS
370
    -3
390
606
  0
LAYER
  5
26
330
2
100
AcDbSymbolTableRecord
100
AcDbLayerTableRecord
  2
寸法線
 70
     0
 62
     2
  6
CONTINUOUS
370
    -3
390
606
  0
LAYER
  5
27
330
2
100
AcDbSymbolTableRecord
100
AcDbLayerTableRecord
  2
中心線
 70
     0
 62
     4
  6
CENTER2
370
    -3
390
606
  0
LAYER
  5
2A
330
2
100
AcDbSymbolTableRecord
100
AcDbLayerTableRecord
  2
ﾊｯﾁﾝｸ
 70
     0
 62
     6
  6
CONTINUOUS
370
    -3
390
606
  0
LAYER
  5
2B
330
2
100
AcDbSymbolTableRecord
100
AcDbLayerTableRecord
  2
文字
 70
     0
 62
     6
  6
CONTINUOUS
370
    -3
390
606
  0
LAYER
  5
53
330
2
100
AcDbSymbolTableRecord
100
AcDbLayerTableRecord
  2
DEFPOINTS
 70
     0
 62
     7
  6
CONTINUOUS
290
     0
370
    -3
390
606
  0
LAYER
  5
A5
330
2
100
AcDbSymbolTableRecord
100
AcDbLayerTableRecord
  2
C
 70
     0
 62
     7
  6
CONTINUOUS
370
    -3
390
606
  0
ENDTAB
  0
TABLE
  2
STYLE
  5
3
330
0
100
AcDbSymbolTable
 70
     7
  0
STYLE
  5
F
330
3
100
AcDbSymbolTableRecord
100
AcDbTextStyleTableRecord
  2
STANDARD
 70
     0
 40
0.0
 41
1.0
 50
0.0
 71
     0
 42
2.5
  3
txt
  4

  0
STYLE
  5
3F
330
3
100
AcDbSymbolTableRecord
100
AcDbTextStyleTableRecord
  2
STYLE3
 70
     0
 40
0.0
 41
1.0
 50
0.0
 71
     0
 42
3.0
  3
romans.shx
  4
bigfont.shx
  0
ENDTAB
  0
TABLE
  2
VIEW
  5
6
330
0
100
AcDbSymbolTable
 70
     0
  0
ENDTAB
  0
TABLE
  2
UCS
  5
7
330
0
100
AcDbSymbolTable
 70
     0
  0
ENDTAB
  0
TABLE
  2
APPID
  5
9
330
0
100
AcDbSymbolTable
 70
     2
  0
APPID
  5
10
330
9
100
AcDbSymbolTableRecord
100
AcDbRegAppTableRecord
  2
ACAD
 70
     0
  0
APPID
  5
BB3
330
9
100
AcDbSymbolTableRecord
100
AcDbRegAppTableRecord
  2
ACAD_PSEXT
 70
     0
  0
ENDTAB
  0
TABLE
  2
DIMSTYLE
  5
A
330
0
100
AcDbSymbolTable
 70
     6
100
AcDbDimStyleTable
 71
     1
340
8F
  0
DIMSTYLE
105
1D
330
A
100
AcDbSymbolTableRecord
100
AcDbDimStyleTableRecord
  2
STANDARD
 70
     0
 41
2.5
 42
0.625
 43
3.75
 44
1.25
 73
     0
 74
     0
 77
     1
 78
     8
140
2.5
141
2.5
143
0.0394
147
0.625
171
     4
172
     1
273
     8
274
     4
277
     6
340
F
  0
DIMSTYLE
105
8F
102
{ACAD_REACTORS
330
341
330
3E0
330
3ED
330
510
330
B97
102
}
330
A
100
AcDbSymbolTableRecord
100
AcDbDimStyleTableRecord
  2
STYLE3
 70
     0
 41
2.5
 42
0.0
 43
3.75
 44
1.25
 73
     0
 74
     0
 77
     1
 78
     8
140
2.5
141
2.5
143
0.0394
147
0.625
171
     4
172
     1
173
     1
176
     2
177
     2
178
     6
271
     1
273
     8
274
     4
340
3F
341
45
343
45
344
45
  0
ENDTAB
  0
TABLE
  2
BLOCK_RECORD
  5
1
330
0
100
AcDbSymbolTable
 70
    13
  0
BLOCK_RECORD
  5
18
102
{ACAD_XDICTIONARY
360
657
102
}
330
1
100
AcDbSymbolTableRecord
100
AcDbBlockTableRecord
  2
*MODEL_SPACE
340
60D
  0
BLOCK_RECORD
  5
15
330
1
100
AcDbSymbolTableRecord
100
AcDbBlockTableRecord
  2
*PAPER_SPACE
340
60E
  0
BLOCK_RECORD
  5
45
330
1
100
AcDbSymbolTableRecord
100
AcDbBlockTableRecord
  2
_OPEN
340
0
102
{BLKREFS
331
394
331
39C
331
39D
331
3A4
331
3A5
331
3F8
331
3F9
331
4E5
331
4E6
331
33A
331
33B
331
632
331
633
331
63B
331
63C
331
644
331
645
331
BA7
331
BA8
102
}
  0
BLOCK_RECORD
  5
335
330
1
100
AcDbSymbolTableRecord
100
AcDbBlockTableRecord
  2
*D3
340
0
  0
BLOCK_RECORD
  5
3D4
330
1
100
AcDbSymbolTableRecord
100
AcDbBlockTableRecord
  2
*D4
340
0
  0
BLOCK_RECORD
  5
3E1
330
1
100
AcDbSymbolTableRecord
100
AcDbBlockTableRecord
  2
*D5
340
0
  0
BLOCK_RECORD
  5
467
330
1
100
AcDbSymbolTableRecord
100
AcDbBlockTableRecord
  2
六角ﾈｼ3
340
0
102
{BLKREFS
331
473
102
}
  0
BLOCK_RECORD
  5
476
330
1
100
AcDbSymbolTableRecord
100
AcDbBlockTableRecord
  2
六角ﾈｼ
340
0
102
{BLKREFS
331
47D
102
}
  0
BLOCK_RECORD
  5
504
330
1
100
AcDbSymbolTableRecord
100
AcDbBlockTableRecord
  2
*D8
340
0
  0
BLOCK_RECORD
  5
B98
330
1
100
AcDbSymbolTableRecord
100
AcDbBlockTableRecord
  2
*D11
340
0
  0
ENDTAB
  0
ENDSEC
  0
SECTION
  2
BLOCKS
  0
BLOCK
  5
19
330
18
100
AcDbEntity
  8
0
100
AcDbBlockBegin
  2
*MODEL_SPACE
 70
     0
 10
0.0
 20
0.0
 30
0.0
  3
*MODEL_SPACE
  1

  0
ENDBLK
  5
1A
330
18
100
AcDbEntity
  8
0
100
AcDbBlockEnd
  0
BLOCK
  5
16
330
15
100
AcDbEntity
 67
     1
  8
0
100
AcDbBlockBegin
  2
*PAPER_SPACE
 70
     0
 10
0.0
 20
0.0
 30
0.0
  3
*PAPER_SPACE
  1

  0
ENDBLK
  5
17
330
15
100
AcDbEntity
 67
     1
  8
0
100
AcDbBlockEnd
  0
BLOCK
  5
46
330
45
100
AcDbEntity
  8
0
100
AcDbBlockBegin
  2
_OPEN
 70
     0
 10
0.0
 20
0.0
 30
0.0
  3
_OPEN
  1

  0
LINE
  5
47
330
45
100
AcDbEntity
  8
0
  6
ByBlock
 62
     0
100
AcDbLine
 10
-1.0
 20
0.1666666666666666
 30
0.0
 11
0.0
 21
0.0
 31
0.0
  0
LINE
  5
48
330
45
100
AcDbEntity
  8
0
  6
ByBlock
 62
     0
100
AcDbLine
 10
0.0
 20
0.0
 30
0.0
 11
-1.0
 21
-0.1666666666666666
 31
0.0
  0
LINE
  5
49
330
45
100
AcDbEntity
  8
0
  6
ByBlock
 62
     0
100
AcDbLine
 10
0.0
 20
0.0
 30
0.0
 11
-1.0
 21
0.0
 31
0.0
  0
ENDBLK
  5
4A
330
45
100
AcDbEntity
  8
0
100
AcDbBlockEnd
  0
BLOCK
  5
336
330
335
100
AcDbEntity
  8
0
100
AcDbBlockBegin
  2
*D3
 70
     1
 10
0.0
 20
0.0
 30
0.0
  3
*D3
  1

  0
LINE
  5
337
330
335
100
AcDbEntity
  8
0
  6
ByBlock
 62
     2
100
AcDbLine
 10
291.3618270205254
 20
271.964628925683
 30
0.0
 11
291.3618270205254
 21
287.5357117005618
 31
0.0
  0
LINE
  5
338
330
335
100
AcDbEntity
  8
0
  6
ByBlock
 62
     2
100
AcDbLine
 10
361.3618270205254
 20
273.0714302296788
 30
0.0
 11
361.3618270205254
 21
287.5357117005618
 31
0.0
  0
LINE
  5
339
330
335
100
AcDbEntity
  8
0
  6
ByBlock
 62
     2
100
AcDbLine
 10
293.8618270205254
 20
286.2857117005618
 30
0.0
 11
358.8618270205254
 21
286.2857117005618
 31
0.0
  0
INSERT
  5
33A
330
335
100
AcDbEntity
  8
0
  6
ByBlock
 62
     2
100
AcDbBlockReference
  2
_OPEN
 10
291.3618270205254
 20
286.2857117005618
 30
0.0
 41
2.5
 42
2.5
 43
2.5
 50
180.0
  0
INSERT
  5
33B
330
335
100
AcDbEntity
  8
0
  6
ByBlock
 62
     2
100
AcDbBlockReference
  2
_OPEN
 10
361.3618270205254
 20
286.2857117005618
 30
0.0
 41
2.5
 42
2.5
 43
2.5
  0
MTEXT
  5
33C
330
335
100
AcDbEntity
  8
0
  6
ByBlock
 62
     6
100
AcDbMText
 10
326.3618270205254
 20
288.1607117005618
 30
0.0
 40
2.5
 41
0.0
 71
     5
 72
     1
  1
\A1;70
  7
STYLE3
 73
     1
 44
1.0
  0
POINT
  5
33D
330
335
100
AcDbEntity
  8
DEFPOINTS
  6
ByBlock
 62
     0
100
AcDbPoint
 10
291.3618270205254
 20
271.964628925683
 30
0.0
  0
POINT
  5
33E
330
335
100
AcDbEntity
  8
DEFPOINTS
  6
ByBlock
 62
     0
100
AcDbPoint
 10
361.3618270205254
 20
273.0714302296788
 30
0.0
  0
POINT
  5
33F
330
335
100
AcDbEntity
  8
DEFPOINTS
  6
ByBlock
 62
     0
100
AcDbPoint
 10
361.3618270205254
 20
286.2857117005618
 30
0.0
  0
ENDBLK
  5
340
330
335
100
AcDbEntity
  8
0
100
AcDbBlockEnd
  0
BLOCK
  5
5A0
330
3D4
100
AcDbEntity
  8
0
100
AcDbBlockBegin
  2
*D4
 70
     1
 10
0.0
 20
0.0
 30
0.0
  3
*D4
  1

  0
LINE
  5
641
330
3D4
100
AcDbEntity
  8
中心線
 62
     2
370
    -2
100
AcDbLine
 10
426.8282086558258
 20
319.5292574490519
 30
0.0
 11
440.4635266446355
 21
319.5292574490519
 31
0.0
  0
LINE
  5
642
330
3D4
100
AcDbEntity
  8
中心線
 62
     2
370
    -2
100
AcDbLine
 10
426.8282086558259
 20
306.5292574490519
 30
0.0
 11
440.4635266446355
 21
306.5292574490519
 31
0.0
  0
LINE
  5
643
330
3D4
100
AcDbEntity
  8
中心線
 62
     2
370
    -2
100
AcDbLine
 10
439.2135266446356
 20
317.0292574490519
 30
0.0
 11
439.2135266446356
 21
309.0292574490518
 31
0.0
  0
INSERT
  5
644
330
3D4
100
AcDbEntity
  8
中心線
 62
     2
370
    -2
100
AcDbBlockReference
  2
_OPEN
 10
439.2135266446356
 20
319.5292574490519
 30
0.0
 41
2.5
 42
2.5
 43
2.5
 50
90.0
  0
INSERT
  5
645
330
3D4
100
AcDbEntity
  8
中心線
 62
     2
370
    -2
100
AcDbBlockReference
  2
_OPEN
 10
439.2135266446356
 20
306.5292574490519
 30
0.0
 41
2.5
 42
2.5
 43
2.5
 50
270.0
  0
MTEXT
  5
646
330
3D4
100
AcDbEntity
  8
中心線
 62
     6
100
AcDbMText
 10
437.3385266446355
 20
313.029257449052
 30
0.0
 40
2.5
 41
0.0
 71
     5
 72
     1
  1
\A1;13
  7
STYLE3
 11
0.0000000000000001
 21
1.0
 31
0.0
 73
     1
 44
1.0
  0
POINT
  5
647
330
3D4
100
AcDbEntity
  8
DEFPOINTS
 62
     0
100
AcDbPoint
 10
426.8282086558258
 20
319.5292574490519
 30
0.0
  0
POINT
  5
648
330
3D4
100
AcDbEntity
  8
DEFPOINTS
 62
     0
100
AcDbPoint
 10
426.8282086558259
 20
306.5292574490519
 30
0.0
  0
POINT
  5
649
330
3D4
100
AcDbEntity
  8
DEFPOINTS
 62
     0
100
AcDbPoint
 10
439.2135266446356
 20
306.5292574490519
 30
0.0
  0
ENDBLK
  5
5AA
330
3D4
100
AcDbEntity
  8
0
100
AcDbBlockEnd
  0
BLOCK
  5
5AB
330
3E1
100
AcDbEntity
  8
0
100
AcDbBlockBegin
  2
*D5
 70
     1
 10
0.0
 20
0.0
 30
0.0
  3
*D5
  1

  0
LINE
  5
638
330
3E1
100
AcDbEntity
  8
中心線
 62
     2
370
    -2
100
AcDbLine
 10
415.3282086558259
 20
319.5292574490519
 30
0.0
 11
415.3282086558259
 21
328.9219523835934
 31
0.0
  0
LINE
  5
639
330
3E1
100
AcDbEntity
  8
中心線
 62
     2
370
    -2
100
AcDbLine
 10
426.8282086558258
 20
319.5292574490519
 30
0.0
 11
426.8282086558258
 21
328.9219523835934
 31
0.0
  0
LINE
  5
63A
330
3E1
100
AcDbEntity
  8
中心線
 62
     2
370
    -2
100
AcDbLine
 10
417.8282086558259
 20
327.6719523835934
 30
0.0
 11
424.3282086558258
 21
327.6719523835934
 31
0.0
  0
INSERT
  5
63B
330
3E1
100
AcDbEntity
  8
中心線
 62
     2
370
    -2
100
AcDbBlockReference
  2
_OPEN
 10
415.3282086558259
 20
327.6719523835934
 30
0.0
 41
2.5
 42
2.5
 43
2.5
 50
180.0
  0
INSERT
  5
63C
330
3E1
100
AcDbEntity
  8
中心線
 62
     2
370
    -2
100
AcDbBlockReference
  2
_OPEN
 10
426.8282086558258
 20
327.6719523835934
 30
0.0
 41
2.5
 42
2.5
 43
2.5
  0
MTEXT
  5
63D
330
3E1
100
AcDbEntity
  8
中心線
 62
     6
100
AcDbMText
 10
421.0782086558258
 20
329.5469523835934
 30
0.0
 40
2.5
 41
0.0
 71
     5
 72
     1
  1
\A1;11.5
  7
STYLE3
 73
     1
 44
1.0
  0
POINT
  5
63E
330
3E1
100
AcDbEntity
  8
DEFPOINTS
 62
     0
100
AcDbPoint
 10
415.3282086558259
 20
319.5292574490519
 30
0.0
  0
POINT
  5
63F
330
3E1
100
AcDbEntity
  8
DEFPOINTS
 62
     0
100
AcDbPoint
 10
426.8282086558258
 20
319.5292574490519
 30
0.0
  0
POINT
  5
640
330
3E1
100
AcDbEntity
  8
DEFPOINTS
 62
     0
100
AcDbPoint
 10
426.8282086558258
 20
327.6719523835934
 30
0.0
  0
ENDBLK
  5
5B5
330
3E1
100
AcDbEntity
  8
0
100
AcDbBlockEnd
  0
BLOCK
  5
471
330
467
100
AcDbEntity
  8
0
100
AcDbBlockBegin
  2
六角ﾈｼ3
 70
     0
 10
0.0
 20
0.0
 30
0.0
  3
六角ﾈｼ3
  1

  0
LINE
  5
468
330
467
100
AcDbEntity
  8
外形線
100
AcDbLine
 10
0.0000000000000568
 20
-5.200000000000017
 30
0.0
 11
2.499999999999886
 21
-5.199999999999988
 31
0.0
  0
LINE
  5
469
330
467
100
AcDbEntity
  8
外形線
100
AcDbLine
 10
2.500000000000397
 20
-2.600000000000022
 30
0.0
 11
0.0000000000001137
 21
-2.599999999999965
 31
0.0
  0
LINE
  5
46A
330
467
100
AcDbEntity
  8
外形線
100
AcDbLine
 10
2.500000000000056
 20
2.600000000000022
 30
0.0
 11
-0.0000000000000568
 21
2.600000000000022
 31
0.0
  0
LINE
  5
46B
330
467
100
AcDbEntity
  8
外形線
100
AcDbLine
 10
-0.0000000000000568
 20
5.199999999999988
 30
0.0
 11
2.499999999999886
 21
5.199999999999988
 31
0.0
  0
LINE
  5
46C
330
467
100
AcDbEntity
  8
外形線
100
AcDbLine
 10
-0.0000000000000568
 20
5.199999999999988
 30
0.0
 11
0.0000000000000568
 21
-5.200000000000017
 31
0.0
  0
ARC
  5
46D
330
467
100
AcDbEntity
  8
外形線
100
AcDbCircle
 10
1.059999999999774
 20
3.899999999999863
 30
0.0
 40
1.940000000000166
100
AcDbArc
 50
317.9249779491655
 51
42.07502205084422
  0
ARC
  5
46E
330
467
100
AcDbEntity
  8
外形線
100
AcDbCircle
 10
-4.010000000002719
 20
-0.0000000000005116
 30
0.0
 40
7.010000000002722
100
AcDbArc
 50
338.2289458906957
 51
21.77105410931329
  0
ARC
  5
46F
330
467
100
AcDbEntity
  8
外形線
100
AcDbCircle
 10
1.059999999999774
 20
-3.899999999999863
 30
0.0
 40
1.940000000000166
100
AcDbArc
 50
317.9249779491558
 51
42.07502205083457
  0
LINE
  5
470
330
467
100
AcDbEntity
  8
外形線
100
AcDbLine
 10
2.999999999999943
 20
3.899999999999863
 30
0.0
 11
2.999999999999943
 21
-3.899999999999863
 31
0.0
  0
ENDBLK
  5
472
330
467
100
AcDbEntity
  8
0
100
AcDbBlockEnd
  0
BLOCK
  5
47B
330
476
100
AcDbEntity
  8
0
100
AcDbBlockBegin
  2
六角ﾈｼ
 70
     0
 10
0.0
 20
0.0
 30
0.0
  3
六角ﾈｼ
  1

  0
LINE
  5
477
330
476
100
AcDbEntity
  8
外形線
 48
0.8
100
AcDbLine
 10
-0.0000000000000568
 20
4.499999999999943
 30
0.0
 11
2.737599573181626
 21
4.499999999999943
 31
0.0
  0
ARC
  5
478
330
476
100
AcDbEntity
  8
外形線
100
AcDbCircle
 10
-4.010000000002662
 20
2.599999999999511
 30
0.0
 40
7.010000000002722
100
AcDbArc
 50
338.2289458906957
 51
15.72624379279067
  0
ARC
  5
479
330
476
100
AcDbEntity
  8
外形線
100
AcDbCircle
 10
-4.010000000002662
 20
-2.599999999999511
 30
0.0
 40
7.010000000002722
100
AcDbArc
 50
344.2737562072088
 51
21.77105410930435
  0
LINE
  5
47A
330
476
100
AcDbEntity
  8
外形線
 48
0.8
100
AcDbLine
 10
0.0000000000001705
 20
-4.5
 30
0.0
 11
2.737599573181569
 21
-4.5
 31
0.0
  0
ENDBLK
  5
47C
330
476
100
AcDbEntity
  8
0
100
AcDbBlockEnd
  0
BLOCK
  5
511
330
504
100
AcDbEntity
  8
0
100
AcDbBlockBegin
  2
*D8
 70
     1
 10
0.0
 20
0.0
 30
0.0
  3
*D8
  1

  0
LINE
  5
62F
330
504
100
AcDbEntity
  8
外形線
 62
     2
370
    -2
100
AcDbLine
 10
391.5193655185461
 20
250.0615993062543
 30
0.0
 11
393.2054917227481
 21
250.0615993062543
 31
0.0
  0
LINE
  5
630
330
504
100
AcDbEntity
  8
外形線
 62
     2
370
    -2
100
AcDbLine
 10
391.3739901171454
 20
240.0615993062543
 30
0.0
 11
393.2054917227481
 21
240.0615993062543
 31
0.0
  0
LINE
  5
631
330
504
100
AcDbEntity
  8
外形線
 62
     2
370
    -2
100
AcDbLine
 10
391.9554917227482
 20
247.5615993062543
 30
0.0
 11
391.9554917227482
 21
242.5615993062543
 31
0.0
  0
INSERT
  5
632
330
504
100
AcDbEntity
  8
外形線
 62
     2
370
    -2
100
AcDbBlockReference
  2
_OPEN
 10
391.9554917227482
 20
250.0615993062543
 30
0.0
 41
2.5
 42
2.5
 43
2.5
 50
90.0
  0
INSERT
  5
633
330
504
100
AcDbEntity
  8
外形線
 62
     2
370
    -2
100
AcDbBlockReference
  2
_OPEN
 10
391.9554917227482
 20
240.0615993062543
 30
0.0
 41
2.5
 42
2.5
 43
2.5
 50
270.0
  0
MTEXT
  5
634
330
504
100
AcDbEntity
  8
外形線
 62
     6
100
AcDbMText
 10
390.0804917227481
 20
245.0615993062544
 30
0.0
 40
2.5
 41
0.0
 71
     5
 72
     1
  1
\A1;φ10
  7
STYLE3
 11
0.0000000000000001
 21
1.0
 31
0.0
 73
     1
 44
1.0
  0
POINT
  5
635
330
504
100
AcDbEntity
  8
DEFPOINTS
 62
     0
100
AcDbPoint
 10
391.5193655185461
 20
250.0615993062543
 30
0.0
  0
POINT
  5
636
330
504
100
AcDbEntity
  8
DEFPOINTS
 62
     0
100
AcDbPoint
 10
391.3739901171454
 20
240.0615993062543
 30
0.0
  0
POINT
  5
637
330
504
100
AcDbEntity
  8
DEFPOINTS
 62
     0
100
AcDbPoint
 10
391.9554917227482
 20
240.0615993062543
 30
0.0
  0
ENDBLK
  5
51B
330
504
100
AcDbEntity
  8
0
100
AcDbBlockEnd
  0
BLOCK
  5
BA2
330
B98
100
AcDbEntity
  8
0
100
AcDbBlockBegin
  2
*D11
 70
     1
 10
0.0
 20
0.0
 30
0.0
  3
*D11
  1

  0
LINE
  5
BA4
330
B98
100
AcDbEntity
  8
寸法線
 62
     2
370
    -2
100
AcDbLine
 10
281.1874660371451
 20
265.3826820811332
 30
0.0
 11
281.1874660371451
 21
266.6326820811331
 31
0.0
  0
LINE
  5
BA5
330
B98
100
AcDbEntity
  8
寸法線
 62
     2
370
    -2
100
AcDbLine
 10
258.1874660371451
 20
249.7615993062543
 30
0.0
 11
258.1874660371451
 21
266.6326820811331
 31
0.0
  0
LINE
  5
BA6
330
B98
100
AcDbEntity
  8
寸法線
 62
     2
370
    -2
100
AcDbLine
 10
278.6874660371451
 20
265.3826820811332
 30
0.0
 11
260.6874660371451
 21
265.3826820811332
 31
0.0
  0
INSERT
  5
BA7
330
B98
100
AcDbEntity
  8
寸法線
 62
     2
370
    -2
100
AcDbBlockReference
  2
_OPEN
 10
281.1874660371451
 20
265.3826820811332
 30
0.0
 41
2.5
 42
2.5
 43
2.5
  0
INSERT
  5
BA8
330
B98
100
AcDbEntity
  8
寸法線
 62
     2
370
    -2
100
AcDbBlockReference
  2
_OPEN
 10
258.1874660371451
 20
265.3826820811332
 30
0.0
 41
2.5
 42
2.5
 43
2.5
 50
180.0
  0
MTEXT
  5
BA9
330
B98
100
AcDbEntity
  8
寸法線
 62
     6
100
AcDbMText
 10
269.6874660371451
 20
267.2576820811332
 30
0.0
 40
2.5
 41
0.0
 71
     5
 72
     1
  1
\A1;23
  7
STYLE3
 73
     1
 44
1.0
  0
POINT
  5
BAA
330
B98
100
AcDbEntity
  8
DEFPOINTS
 62
     0
100
AcDbPoint
 10
281.1874660371451
 20
265.3826820811332
 30
0.0
  0
POINT
  5
BAB
330
B98
100
AcDbEntity
  8
DEFPOINTS
 62
     0
100
AcDbPoint
 10
258.1874660371451
 20
249.7615993062543
 30
0.0
  0
POINT
  5
BAC
330
B98
100
AcDbEntity
  8
DEFPOINTS
 62
     0
100
AcDbPoint
 10
258.1874660371451
 20
265.3826820811332
 30
0.0
  0
ENDBLK
  5
BA3
330
B98
100
AcDbEntity
  8
0
100
AcDbBlockEnd
  0
ENDSEC
  0
SECTION
  2
ENTITIES
  0
LWPOLYLINE
  5
10B
330
18
100
AcDbEntity
  8
C
100
AcDbPolyline
 90
        5
 70
     0
 43
0.4
 10
236.6915604445414
 20
366.8501752555372
 10
491.6915604445414
 20
366.8501752555372
 10
491.6915604445414
 20
171.8501752555372
 10
236.6915604445414
 20
171.8501752555372
 10
236.6915604445414
 20
366.8501752555372
  0
LINE
  5
16A
330
18
100
AcDbEntity
  8
中心線
100
AcDbLine
 10
255.2552474359387
 20
245.0615993062544
 30
0.0
 11
430.3698317833605
 21
245.0615993062542
 31
0.0
  0
LINE
  5
16C
102
{ACAD_REACTORS
330
317
102
}
330
18
100
AcDbEntity
  8
外形線
100
AcDbLine
 10
321.1874660371451
 20
255.0209131299078
 30
0.0
 11
321.1874660371451
 21
249.0615993062543
 31
0.0
  0
LINE
  5
16D
102
{ACAD_REACTORS
330
317
102
}
330
18
100
AcDbEntity
  8
外形線
100
AcDbLine
 10
341.1874660371451
 20
254.0428232204725
 30
0.0
 11
341.1874660371452
 21
247.0615993062543
 31
0.0
  0
LINE
  5
16E
330
18
100
AcDbEntity
  8
外形線
100
AcDbLine
 10
351.1874660371451
 20
252.1684006102502
 30
0.0
 11
351.1874660371451
 21
237.9547980022584
 31
0.0
  0
LINE
  5
171
330
18
100
AcDbEntity
  8
外形線
100
AcDbLine
 10
281.1874660371451
 20
252.1684006102502
 30
0.0
 11
281.1874660371451
 21
251.0615993062544
 31
0.0
  0
ARC
  5
173
102
{ACAD_REACTORS
330
317
102
}
330
18
100
AcDbEntity
  8
外形線
100
AcDbCircle
 10
316.1874660371451
 20
-52.18840069374568
 30
0.0
 40
307.25
100
AcDbArc
 50
83.62585904071393
 51
96.37414095928605
  0
ARC
  5
175
102
{ACAD_REACTORS
330
317
102
}
330
18
100
AcDbEntity
  8
外形線
100
AcDbCircle
 10
316.1874660371451
 20
542.3115993062542
 30
0.0
 40
307.25
100
AcDbArc
 50
263.6258590407139
 51
276.3741409592861
  0
LINE
  5
176
330
18
100
AcDbEntity
  8
外形線
100
AcDbLine
 10
331.1874660371451
 20
248.5615993062543
 30
0.0
 11
331.1874660371451
 21
241.5615993062543
 31
0.0
  0
LINE
  5
177
330
18
100
AcDbEntity
  8
外形線
100
AcDbLine
 10
301.1874660371451
 20
248.5615993062543
 30
0.0
 11
301.1874660371451
 21
241.5615993062543
 31
0.0
  0
LINE
  5
178
330
18
100
AcDbEntity
  8
外形線
100
AcDbLine
 10
301.1874660371451
 20
248.5615993062543
 30
0.0
 11
331.1874660371451
 21
248.5615993062543
 31
0.0
  0
LINE
  5
179
330
18
100
AcDbEntity
  8
外形線
100
AcDbLine
 10
301.1874660371451
 20
241.5615993062543
 30
0.0
 11
331.1874660371451
 21
241.5615993062543
 31
0.0
  0
LINE
  5
17A
102
{ACAD_REACTORS
330
317
102
}
330
18
100
AcDbEntity
  8
外形線
100
AcDbLine
 10
321.1874660371451
 20
249.0615993062543
 30
0.0
 11
331.6874660371451
 21
249.0615993062543
 31
0.0
  0
LINE
  5
17C
102
{ACAD_REACTORS
330
317
102
}
330
18
100
AcDbEntity
  8
外形線
100
AcDbLine
 10
331.6874660371451
 20
247.0615993062543
 30
0.0
 11
341.1874660371452
 21
247.0615993062543
 31
0.0
  0
LINE
  5
17F
102
{ACAD_REACTORS
330
317
102
}
330
18
100
AcDbEntity
  8
外形線
100
AcDbLine
 10
331.6874660371451
 20
249.0615993062543
 30
0.0
 11
331.6874660371451
 21
247.0615993062543
 31
0.0
  0
LINE
  5
181
102
{ACAD_REACTORS
330
317
102
}
330
18
100
AcDbEntity
  8
外形線
100
AcDbLine
 10
331.6874660371451
 20
243.0615993062543
 30
0.0
 11
341.1874660371452
 21
243.0615993062543
 31
0.0
  0
LINE
  5
182
102
{ACAD_REACTORS
330
317
102
}
330
18
100
AcDbEntity
  8
外形線
100
AcDbLine
 10
341.1874660371451
 20
236.0803753920361
 30
0.0
 11
341.1874660371452
 21
243.0615993062543
 31
0.0
  0
LINE
  5
183
102
{ACAD_REACTORS
330
317
102
}
330
18
100
AcDbEntity
  8
外形線
100
AcDbLine
 10
331.6874660371451
 20
241.0615993062543
 30
0.0
 11
331.6874660371451
 21
243.0615993062543
 31
0.0
  0
LINE
  5
184
102
{ACAD_REACTORS
330
317
102
}
330
18
100
AcDbEntity
  8
外形線
100
AcDbLine
 10
321.1874660371451
 20
241.0615993062543
 30
0.0
 11
331.6874660371451
 21
241.0615993062543
 31
0.0
  0
LINE
  5
185
102
{ACAD_REACTORS
330
317
102
}
330
18
100
AcDbEntity
  8
外形線
100
AcDbLine
 10
321.1874660371451
 20
235.1022854826009
 30
0.0
 11
321.1874660371451
 21
241.0615993062543
 31
0.0
  0
LINE
  5
186
102
{ACAD_REACTORS
330
317
102
}
330
18
100
AcDbEntity
  8
外形線
100
AcDbLine
 10
291.1874660371451
 20
236.0803753920361
 30
0.0
 11
291.187466037145
 21
243.0615993062543
 31
0.0
  0
LINE
  5
188
102
{ACAD_REACTORS
330
317
102
}
330
18
100
AcDbEntity
  8
外形線
100
AcDbLine
 10
311.1874660371451
 20
235.1022854826009
 30
0.0
 11
311.1874660371451
 21
241.0615993062543
 31
0.0
  0
LINE
  5
189
102
{ACAD_REACTORS
330
317
102
}
330
18
100
AcDbEntity
  8
外形線
100
AcDbLine
 10
311.1874660371451
 20
241.0615993062543
 30
0.0
 11
300.6874660371451
 21
241.0615993062543
 31
0.0
  0
LINE
  5
18A
102
{ACAD_REACTORS
330
317
102
}
330
18
100
AcDbEntity
  8
外形線
100
AcDbLine
 10
300.6874660371451
 20
241.0615993062543
 30
0.0
 11
300.6874660371451
 21
243.0615993062543
 31
0.0
  0
LINE
  5
18B
102
{ACAD_REACTORS
330
317
102
}
330
18
100
AcDbEntity
  8
外形線
100
AcDbLine
 10
300.6874660371451
 20
243.0615993062543
 30
0.0
 11
291.187466037145
 21
243.0615993062543
 31
0.0
  0
LINE
  5
18D
102
{ACAD_REACTORS
330
317
102
}
330
18
100
AcDbEntity
  8
外形線
100
AcDbLine
 10
311.1874660371451
 20
255.0209131299078
 30
0.0
 11
311.1874660371451
 21
249.0615993062543
 31
0.0
  0
LINE
  5
18E
102
{ACAD_REACTORS
330
317
102
}
330
18
100
AcDbEntity
  8
外形線
100
AcDbLine
 10
300.6874660371451
 20
247.0615993062543
 30
0.0
 11
291.187466037145
 21
247.0615993062543
 31
0.0
  0
LINE
  5
18F
102
{ACAD_REACTORS
330
317
102
}
330
18
100
AcDbEntity
  8
外形線
100
AcDbLine
 10
291.1874660371451
 20
254.0428232204725
 30
0.0
 11
291.187466037145
 21
247.0615993062543
 31
0.0
  0
LINE
  5
190
102
{ACAD_REACTORS
330
317
102
}
330
18
100
AcDbEntity
  8
外形線
100
AcDbLine
 10
300.6874660371451
 20
249.0615993062543
 30
0.0
 11
300.6874660371451
 21
247.0615993062543
 31
0.0
  0
LINE
  5
191
102
{ACAD_REACTORS
330
317
102
}
330
18
100
AcDbEntity
  8
外形線
100
AcDbLine
 10
311.1874660371451
 20
249.0615993062543
 30
0.0
 11
300.6874660371451
 21
249.0615993062543
 31
0.0
  0
TEXT
  5
1AE
330
18
100
AcDbEntity
  8
文字
100
AcDbText
 10
309.616859749257
 20
243.8345409909287
 30
0.0
 40
2.5
  1
18-35mm
  7
STYLE3
100
AcDbText
  0
LINE
  5
1B2
330
18
100
AcDbEntity
  8
外形線
100
AcDbLine
 10
351.1874660371451
 20
250.0615993062543
 30
0.0
 11
382.0762581519886
 21
250.0615993062543
 31
0.0
  0
LINE
  5
1B3
330
18
100
AcDbEntity
  8
外形線
100
AcDbLine
 10
351.1874660371451
 20
240.0615993062543
 30
0.0
 11
378.7195525718015
 21
240.0615993062543
 31
0.0
  0
LINE
  5
1C3
330
18
100
AcDbEntity
  8
外形線
100
AcDbLine
 10
384.638524256477
 20
250.0615993062543
 30
0.0
 11
411.8282086558259
 21
250.0615993062543
 31
0.0
  0
LINE
  5
1C4
330
18
100
AcDbEntity
  8
外形線
100
AcDbLine
 10
381.2818186762899
 20
240.0615993062543
 30
0.0
 11
411.828208655826
 21
240.0615993062543
 31
0.0
  0
LINE
  5
1C6
330
18
100
AcDbEntity
  8
外形線
100
AcDbLine
 10
426.528208655826
 20
243.2012721923126
 30
0.0
 11
416.3282086558259
 21
243.2012721923126
 31
0.0
  0
LINE
  5
1C8
330
18
100
AcDbEntity
  8
外形線
100
AcDbLine
 10
416.3282086558259
 20
243.2012721923126
 30
0.0
 11
416.328208655826
 21
253.7012721923125
 31
0.0
  0
LINE
  5
1CA
330
18
100
AcDbEntity
  8
外形線
100
AcDbLine
 10
415.6782086558259
 20
253.7012721923125
 30
0.0
 11
415.678208655826
 21
255.1273631324574
 31
0.0
  0
LINE
  5
1CC
330
18
100
AcDbEntity
  8
外形線
100
AcDbLine
 10
427.178208655826
 20
253.7012721923125
 30
0.0
 11
415.6782086558259
 21
253.7012721923125
 31
0.0
  0
ARC
  5
1CE
330
18
100
AcDbEntity
  8
外形線
100
AcDbCircle
 10
421.4282086558259
 20
240.1962714108183
 30
0.0
 40
16.0
100
AcDbArc
 50
68.93818239835045
 51
111.0618176016491
  0
ARC
  5
1D1
330
18
100
AcDbEntity
  8
外形線
100
AcDbCircle
 10
421.4282086558259
 20
256.75659852476
 30
0.0
 40
1.0
100
AcDbArc
 50
23.57817847819385
 51
156.4218215218031
  0
LINE
  5
1D2
330
18
100
AcDbEntity
  8
外形線
100
AcDbLine
 10
420.3782086558292
 20
256.16178111142
 30
0.0
 11
420.3782086558259
 21
257.1565985247598
 31
0.0
  0
LINE
  5
1D3
330
18
100
AcDbEntity
  8
外形線
100
AcDbLine
 10
422.4782086558259
 20
256.1617811114198
 30
0.0
 11
422.4782086558259
 21
257.1565985247598
 31
0.0
  0
LINE
  5
1D5
330
18
100
AcDbEntity
  8
外形線
100
AcDbLine
 10
422.4782086558259
 20
257.15659852476
 30
0.0
 11
420.378208655826
 21
257.15659852476
 31
0.0
  0
LINE
  5
21A
330
18
100
AcDbEntity
  8
外形線
100
AcDbLine
 10
415.328208655826
 20
248.7615993062542
 30
0.0
 11
415.328208655826
 21
241.3615993062542
 31
0.0
  0
LINE
  5
21B
330
18
100
AcDbEntity
  8
外形線
100
AcDbLine
 10
415.8282086558259
 20
250.1615993062543
 30
0.0
 11
415.8282086558259
 21
241.0615993062542
 31
0.0
  0
LINE
  5
21D
330
18
100
AcDbEntity
  8
外形線
100
AcDbLine
 10
414.8282086558259
 20
248.7615993062542
 30
0.0
 11
415.328208655826
 21
248.7615993062542
 31
0.0
  0
LINE
  5
21E
330
18
100
AcDbEntity
  8
外形線
100
AcDbLine
 10
414.8282086558259
 20
241.3615993062542
 30
0.0
 11
415.328208655826
 21
241.3615993062542
 31
0.0
  0
LINE
  5
21F
330
18
100
AcDbEntity
  8
外形線
100
AcDbLine
 10
415.328208655826
 20
248.5615993062542
 30
0.0
 11
415.8282086558259
 21
248.5615993062542
 31
0.0
  0
LINE
  5
220
330
18
100
AcDbEntity
  8
外形線
100
AcDbLine
 10
415.328208655826
 20
241.5615993062542
 30
0.0
 11
415.8282086558259
 21
241.5615993062542
 31
0.0
  0
LINE
  5
221
330
18
100
AcDbEntity
  8
外形線
100
AcDbLine
 10
415.8282086558259
 20
241.0615993062542
 30
0.0
 11
425.8282086558259
 21
241.0615993062542
 31
0.0
  0
LINE
  5
227
330
18
100
AcDbEntity
  8
外形線
100
AcDbLine
 10
415.8282086558259
 20
250.1615993062543
 30
0.0
 11
416.3282086558259
 21
250.1615993062543
 31
0.0
  0
LINE
  5
229
330
18
100
AcDbEntity
  8
外形線
100
AcDbLine
 10
425.8282086558259
 20
243.2012721923126
 30
0.0
 11
425.8282086558259
 21
241.0615993062542
 31
0.0
  0
LINE
  5
22B
330
18
100
AcDbEntity
  8
外形線
100
AcDbLine
 10
426.528208655826
 20
243.2012721923126
 30
0.0
 11
426.5282086558261
 21
253.7012721923125
 31
0.0
  0
LINE
  5
22C
330
18
100
AcDbEntity
  8
外形線
100
AcDbLine
 10
427.178208655826
 20
253.7012721923125
 30
0.0
 11
427.178208655826
 21
255.1273631324574
 31
0.0
  0
LINE
  5
235
330
18
100
AcDbEntity
  8
中心線
 48
0.4
100
AcDbLine
 10
421.4282086558259
 20
257.75659852476
 30
0.0
 11
421.4282086558259
 21
225.2090323758178
 31
0.0
  0
LINE
  5
23B
330
18
100
AcDbEntity
  8
外形線
100
AcDbLine
 10
424.928208655826
 20
241.0615993062542
 30
0.0
 11
424.9282086558259
 21
239.5615993062542
 31
0.0
  0
LINE
  5
242
330
18
100
AcDbEntity
  8
外形線
100
AcDbLine
 10
419.7282086558259
 20
229.5615993062542
 30
0.0
 11
423.1282086558259
 21
229.5615993062542
 31
0.0
  0
ARC
  5
243
330
18
100
AcDbEntity
  8
外形線
100
AcDbCircle
 10
421.4282086558259
 20
229.5615993062542
 30
0.0
 40
1.5
100
AcDbArc
 50
180.0
 51
0.0
  0
LINE
  5
247
330
18
100
AcDbEntity
  8
外形線
100
AcDbLine
 10
418.928208655826
 20
231.7434174880723
 30
0.0
 11
419.7282086558259
 21
229.5615993062542
 31
0.0
  0
LINE
  5
248
330
18
100
AcDbEntity
  8
外形線
100
AcDbLine
 10
423.928208655826
 20
231.743417488072
 30
0.0
 11
423.1282086558259
 21
229.5615993062542
 31
0.0
  0
ARC
  5
24E
330
18
100
AcDbEntity
  8
外形線
100
AcDbCircle
 10
282.1874660371451
 20
252.1684006102502
 30
0.0
 40
1.0
100
AcDbArc
 50
96.37414095927951
 51
180.0
  0
ARC
  5
24F
330
18
100
AcDbEntity
  8
外形線
100
AcDbCircle
 10
282.1874660371451
 20
237.9547980022584
 30
0.0
 40
1.0
100
AcDbArc
 50
180.0
 51
263.6258590407112
  0
ARC
  5
250
330
18
100
AcDbEntity
  8
外形線
100
AcDbCircle
 10
350.1874660371451
 20
252.1684006102502
 30
0.0
 40
1.0
100
AcDbArc
 50
0.0
 51
83.62585904071403
  0
ARC
  5
251
330
18
100
AcDbEntity
  8
外形線
100
AcDbCircle
 10
350.1874660371451
 20
237.9547980022584
 30
0.0
 40
1.0
100
AcDbArc
 50
276.3741409592856
 51
0.0
  0
LINE
  5
253
330
18
100
AcDbEntity
  8
外形線
100
AcDbLine
 10
258.1874660371451
 20
249.7615993062543
 30
0.0
 11
258.1874660371451
 21
242.8710743255655
 31
0.0
  0
LINE
  5
254
330
18
100
AcDbEntity
  8
外形線
100
AcDbLine
 10
280.1874660371451
 20
250.0615993062544
 30
0.0
 11
280.1874660371451
 21
240.0615993062543
 31
0.0
  0
LINE
  5
255
330
18
100
AcDbEntity
  8
外形線
100
AcDbLine
 10
269.1874660371451
 20
250.0615993062544
 30
0.0
 11
269.1874660371451
 21
242.8710743255655
 31
0.0
  0
LINE
  5
256
330
18
100
AcDbEntity
  8
外形線
100
AcDbLine
 10
269.1874660371451
 20
250.0615993062544
 30
0.0
 11
280.1874660371451
 21
250.0615993062544
 31
0.0
  0
LINE
  5
257
330
18
100
AcDbEntity
  8
外形線
100
AcDbLine
 10
271.1036645242408
 20
240.0615993062544
 30
0.0
 11
280.1874660371451
 21
240.0615993062543
 31
0.0
  0
LINE
  5
25C
330
18
100
AcDbEntity
  8
外形線
100
AcDbLine
 10
281.187466037145
 20
239.0615993062543
 30
0.0
 11
281.187466037145
 21
237.9547980022584
 31
0.0
  0
LINE
  5
25E
330
18
100
AcDbEntity
  8
外形線
100
AcDbLine
 10
281.1874660371451
 20
251.0615993062544
 30
0.0
 11
281.187466037145
 21
239.0615993062543
 31
0.0
  0
ARC
  5
25F
330
18
100
AcDbEntity
  8
外形線
100
AcDbCircle
 10
278.9516174855909
 20
237.8884268884233
 30
0.0
 40
2.5
100
AcDbArc
 50
26.57629387126569
 51
60.37379958472584
  0
ARC
  5
260
330
18
100
AcDbEntity
  8
外形線
100
AcDbCircle
 10
278.9516174855909
 20
252.2347717240853
 30
0.0
 40
2.5
100
AcDbArc
 50
299.6262004152742
 51
333.4237061287343
  0
LINE
  5
261
330
18
100
AcDbEntity
  8
外形線
100
AcDbLine
 10
259.1874660371451
 20
250.2615993062544
 30
0.0
 11
268.187466037145
 21
250.2615993062543
 31
0.0
  0
LINE
  5
263
330
18
100
AcDbEntity
  8
外形線
100
AcDbLine
 10
259.1874660371451
 20
249.2615993062543
 30
0.0
 11
268.187466037145
 21
249.2615993062543
 31
0.0
  0
LINE
  5
264
330
18
100
AcDbEntity
  8
外形線
100
AcDbLine
 10
268.1874660371451
 20
250.2615993062543
 30
0.0
 11
268.1874660371451
 21
249.2615993062543
 31
0.0
  0
LINE
  5
265
330
18
100
AcDbEntity
  8
外形線
100
AcDbLine
 10
259.1874660371451
 20
250.2615993062544
 30
0.0
 11
259.1874660371451
 21
249.2615993062543
 31
0.0
  0
LINE
  5
26B
330
18
100
AcDbEntity
  8
外形線
100
AcDbLine
 10
268.1874660371451
 20
249.2615993062543
 30
0.0
 11
269.1874660371451
 21
248.7615993062543
 31
0.0
  0
LINE
  5
26C
330
18
100
AcDbEntity
  8
外形線
100
AcDbLine
 10
268.1874660371451
 20
250.2615993062543
 30
0.0
 11
269.1874660371451
 21
249.7615993062543
 31
0.0
  0
LINE
  5
273
330
18
100
AcDbEntity
  8
外形線
100
AcDbLine
 10
259.1874660371451
 20
250.2615993062543
 30
0.0
 11
258.1874660371451
 21
249.7615993062543
 31
0.0
  0
LINE
  5
274
330
18
100
AcDbEntity
  8
外形線
100
AcDbLine
 10
259.1874660371451
 20
249.2615993062543
 30
0.0
 11
258.1874660371451
 21
248.7615993062543
 31
0.0
  0
LINE
  5
275
330
18
100
AcDbEntity
  8
外形線
100
AcDbLine
 10
259.1874660371451
 20
250.2615993062543
 30
0.0
 11
259.1874660371451
 21
249.2615993062543
 31
0.0
  0
LINE
  5
276
330
18
100
AcDbEntity
  8
中心線
 48
0.4
100
AcDbLine
 10
263.6874660371451
 20
247.5856186486931
 30
0.0
 11
263.6874660371451
 21
225.413427267544
 31
0.0
  0
LINE
  5
277
330
18
100
AcDbEntity
  8
中心線
 48
0.4
100
AcDbLine
 10
253.2016053515405
 20
237.0615993062544
 30
0.0
 11
274.0692746569888
 21
237.0615993062544
 31
0.0
  0
CIRCLE
  5
278
330
18
100
AcDbEntity
  8
外形線
100
AcDbCircle
 10
263.6874660371451
 20
237.0615993062544
 30
0.0
 40
8.0
  0
TEXT
  5
27E
330
18
100
AcDbEntity
  8
文字
100
AcDbText
 10
303.4654537272432
 20
243.6845223420439
 30
0.0
 40
1.0
  1
CC-1
  7
STYLE3
100
AcDbText
  0
LINE
  5
299
330
18
100
AcDbEntity
  8
中心線
 48
0.8
100
AcDbLine
 10
380.0216156620252
 20
313.0292574490519
 30
0.0
 11
412.7273663912768
 21
313.0292574490519
 31
0.0
  0
LINE
  5
29A
330
18
100
AcDbEntity
  8
外形線
100
AcDbLine
 10
380.4772536956987
 20
308.029257449052
 30
0.0
 11
411.828208655826
 21
308.029257449052
 31
0.0
  0
LINE
  5
29B
330
18
100
AcDbEntity
  8
外形線
100
AcDbLine
 10
383.8339592758858
 20
318.029257449052
 30
0.0
 11
411.8282086558259
 21
318.029257449052
 31
0.0
  0
LINE
  5
2A3
330
18
100
AcDbEntity
  8
外形線
100
AcDbLine
 10
411.8282086558258
 20
318.029257449052
 30
0.0
 11
411.8282086558261
 21
308.029257449052
 31
0.0
  0
LINE
  5
2AC
330
18
100
AcDbEntity
  8
外形線
100
AcDbLine
 10
414.8282086558259
 20
309.3292574490519
 30
0.0
 11
415.328208655826
 21
309.3292574490519
 31
0.0
  0
LINE
  5
2C3
330
18
100
AcDbEntity
  8
外形線
100
AcDbLine
 10
414.8282086558259
 20
316.7292574490519
 30
0.0
 11
415.328208655826
 21
316.7292574490519
 31
0.0
  0
LINE
  5
2CC
330
18
100
AcDbEntity
  8
外形線
100
AcDbLine
 10
414.8282086558259
 20
313.7792574490518
 30
0.0
 11
415.3282086558261
 21
313.7792574490519
 31
0.0
  0
LINE
  5
2CD
330
18
100
AcDbEntity
  8
外形線
100
AcDbLine
 10
414.828208655826
 20
312.2792574490518
 30
0.0
 11
415.328208655826
 21
312.2792574490518
 31
0.0
  0
LINE
  5
2CE
330
18
100
AcDbEntity
  8
外形線
100
AcDbLine
 10
415.3282086558255
 20
319.5292574490519
 30
0.0
 11
415.328208655826
 21
306.5292574490519
 31
0.0
  0
LINE
  5
2CF
330
18
100
AcDbEntity
  8
外形線
100
AcDbLine
 10
414.8282086558259
 20
317.5292574490518
 30
0.0
 11
414.828208655826
 21
308.5292574490519
 31
0.0
  0
LINE
  5
2D1
330
18
100
AcDbEntity
  8
外形線
100
AcDbLine
 10
415.3282086558259
 20
319.5292574490519
 30
0.0
 11
426.8282086558258
 21
319.5292574490519
 31
0.0
  0
LINE
  5
2D2
330
18
100
AcDbEntity
  8
外形線
100
AcDbLine
 10
415.328208655826
 20
306.5292574490519
 30
0.0
 11
426.8282086558259
 21
306.5292574490519
 31
0.0
  0
CIRCLE
  5
2D4
330
18
100
AcDbEntity
  8
外形線
 62
     4
100
AcDbCircle
 10
421.0782086558258
 20
313.0292574490519
 30
0.0
 40
1.0
  0
LINE
  5
2D6
330
18
100
AcDbEntity
  8
外形線
100
AcDbLine
 10
415.3282086558259
 20
318.0292574490519
 30
0.0
 11
426.8282086558258
 21
318.0292574490519
 31
0.0
  0
LINE
  5
2D7
330
18
100
AcDbEntity
  8
外形線
100
AcDbLine
 10
415.328208655826
 20
308.0292574490518
 30
0.0
 11
426.8282086558259
 21
308.0292574490518
 31
0.0
  0
CIRCLE
  5
2D9
330
18
100
AcDbEntity
  8
外形線
100
AcDbCircle
 10
421.0782086558258
 20
313.0292574490519
 30
0.0
 40
1.3
  0
CIRCLE
  5
2DB
330
18
100
AcDbEntity
  8
外形線
100
AcDbCircle
 10
423.0782086558258
 20
313.0292574490519
 30
0.0
 40
0.5
  0
CIRCLE
  5
2DC
330
18
100
AcDbEntity
  8
外形線
100
AcDbCircle
 10
419.0782086558258
 20
313.0292574490519
 30
0.0
 40
0.5
  0
CIRCLE
  5
2DE
330
18
100
AcDbEntity
  8
外形線
100
AcDbCircle
 10
421.0782086558258
 20
313.0292574490519
 30
0.0
 40
4.0
  0
ARC
  5
2F6
102
{ACAD_REACTORS
330
317
102
}
330
18
100
AcDbEntity
  8
外形線
100
AcDbCircle
 10
301.1874660371451
 20
234.9116028412603
 30
0.0
 40
2.0
100
AcDbArc
 50
12.33039196868931
 51
162.0823891309169
  0
HATCH
  5
317
330
18
100
AcDbEntity
  8
ﾊｯﾁﾝｸ
100
AcDbHatch
 10
0.0
 20
0.0
 30
0.0
210
0.0
220
0.0
230
1.0
  2
DOTS
 70
     0
 71
     1
 91
        4
 92
        7
 72
     1
 73
     1
 93
        6
 10
300.6874660371451
 20
247.0615993062543
 42
0.0
 10
300.6874660371451
 20
249.0615993062543
 42
0.0
 10
311.1874660371451
 20
249.0615993062544
 42
0.0
 10
311.1874660371451
 20
255.0209131299078
 42
0.0162971688498792
 10
291.1874660371451
 20
254.0428232204725
 42
0.0
 10
291.1874660371449
 20
247.0615993062543
 42
0.0
 97
        6
330
173
330
18F
330
18E
330
190
330
191
330
18D
 92
        7
 72
     1
 73
     1
 93
        6
 10
331.6874660371451
 20
249.0615993062543
 42
0.0
 10
331.6874660371451
 20
247.0615993062543
 42
0.0
 10
341.1874660371453
 20
247.0615993062544
 42
0.0
 10
341.1874660371451
 20
254.0428232204724
 42
0.0162971688498792
 10
321.1874660371451
 20
255.0209131299077
 42
0.0
 10
321.1874660371451
 20
249.0615993062543
 42
0.0
 97
        6
330
173
330
16C
330
17A
330
17F
330
17C
330
16D
 92
        7
 72
     1
 73
     1
 93
        6
 10
341.1874660371451
 20
236.0803753920363
 42
0.0
 10
341.1874660371452
 20
243.0615993062543
 42
0.0
 10
331.6874660371451
 20
243.0615993062543
 42
0.0
 10
331.6874660371451
 20
241.0615993062543
 42
0.0
 10
321.1874660371451
 20
241.0615993062543
 42
0.0
 10
321.1874660371451
 20
235.1022854826009
 42
0.0162971688498792
 97
        6
330
181
330
183
330
184
330
185
330
175
330
182
 92
        7
 72
     1
 73
     1
 93
        8
 10
299.2844662622474
 20
235.5269010264839
 42
-0.7656091570197175
 10
303.1413309114763
 20
235.3387000817743
 42
0.0065500023894979
 10
311.1874660371451
 20
235.1022854826009
 42
0.0
 10
311.1874660371451
 20
241.0615993062543
 42
0.0
 10
300.6874660371451
 20
241.0615993062543
 42
0.0
 10
300.6874660371451
 20
243.0615993062543
 42
0.0
 10
291.187466037145
 20
243.0615993062543
 42
0.0
 10
291.1874660371451
 20
236.0803753920362
 42
0.0066039451871049
 97
        7
330
189
330
18A
330
18B
330
186
330
175
330
2F6
330
188
 75
     0
 76
     1
 52
0.0
 41
0.4
 77
     0
 78
     1
 53
0.0
 43
-10.17436098338032
 44
-20.90302961942865
 45
0.3175
 46
0.635
 79
     2
 49
0.0
 49
-0.635
 47
0.3765170278403226
 98
        4
 10
295.619435578616
 20
249.945484155799
 10
334.4327391843007
 20
250.3220009120037
 10
334.809567249868
 20
237.8969393115032
 10
297.5035767097183
 20
238.6499732789518
  0
DIMENSION
  5
341
330
18
100
AcDbEntity
  8
外形線
100
AcDbDimension
  2
*D3
 10
351.1874660371451
 20
265.3826820811332
 30
0.0
 11
316.1874660371451
 21
267.2576820811332
 31
0.0
 12
-10.17436098338032
 22
-20.90302961942865
 32
0.0
 70
    32
 71
     5
 42
-1.0
  3
STYLE3
100
AcDbAlignedDimension
 13
281.1874660371451
 23
251.0615993062544
 33
0.0
 14
351.1874660371451
 24
252.1684006102502
 34
0.0
100
AcDbRotatedDimension
1001
ACAD
1000
DSTYLE
1002
{
1070
   271
1070
     2
1002
}
  0
LINE
  5
390
330
18
100
AcDbEntity
  8
0
  6
ByBlock
 62
     2
100
AcDbLine
 10
418.9282086558259
 20
265.3826820811332
 30
0.0
 11
416.428208655826
 21
265.3826820811332
 31
0.0
  0
LINE
  5
391
330
18
100
AcDbEntity
  8
0
  6
ByBlock
 62
     2
100
AcDbLine
 10
429.6782086558261
 20
265.3826820811332
 30
0.0
 11
441.0472562748736
 21
265.3826820811332
 31
0.0
  0
LINE
  5
392
330
18
100
AcDbEntity
  8
0
  6
ByBlock
 62
     2
100
AcDbLine
 10
421.4282086558259
 20
265.3826820811332
 30
0.0
 11
427.178208655826
 21
265.3826820811332
 31
0.0
  0
INSERT
  5
394
330
18
100
AcDbEntity
  8
0
  6
ByBlock
 62
     2
100
AcDbBlockReference
  2
_OPEN
 10
427.178208655826
 20
265.3826820811332
 30
0.0
 41
2.5
 42
2.5
 43
2.5
 50
180.0
  0
MTEXT
  5
395
330
18
100
AcDbEntity
  8
0
  6
ByBlock
 62
     6
100
AcDbMText
 10
436.6127324653499
 20
267.2576820811332
 30
0.0
 40
2.5
 41
0.0
 71
     5
 72
     1
  1
\A1;5.75
  7
STYLE3
 73
     1
 44
1.0
  0
LINE
  5
399
330
18
100
AcDbEntity
  8
0
  6
ByBlock
 62
     2
100
AcDbLine
 10
258.1874660371451
 20
249.7615993062543
 30
0.0
 11
258.1874660371451
 21
273.0749030114308
 31
0.0
  0
LINE
  5
39A
330
18
100
AcDbEntity
  8
0
  6
ByBlock
 62
     2
100
AcDbLine
 10
427.178208655826
 20
255.1273631324574
 30
0.0
 11
427.178208655826
 21
273.0749030114308
 31
0.0
  0
LINE
  5
39B
330
18
100
AcDbEntity
  8
0
  6
ByBlock
 62
     2
100
AcDbLine
 10
260.6874660371451
 20
271.8249030114308
 30
0.0
 11
424.678208655826
 21
271.8249030114308
 31
0.0
  0
INSERT
  5
39C
330
18
100
AcDbEntity
  8
0
  6
ByBlock
 62
     2
100
AcDbBlockReference
  2
_OPEN
 10
258.1874660371451
 20
271.8249030114308
 30
0.0
 41
2.5
 42
2.5
 43
2.5
 50
180.0
  0
INSERT
  5
39D
330
18
100
AcDbEntity
  8
0
  6
ByBlock
 62
     2
100
AcDbBlockReference
  2
_OPEN
 10
427.178208655826
 20
271.8249030114308
 30
0.0
 41
2.5
 42
2.5
 43
2.5
  0
POINT
  5
39F
330
18
100
AcDbEntity
  8
DEFPOINTS
  6
ByBlock
 62
     0
100
AcDbPoint
 10
258.1874660371451
 20
248.7615993062543
 30
0.0
  0
POINT
  5
3A0
330
18
100
AcDbEntity
  8
DEFPOINTS
  6
ByBlock
 62
     0
100
AcDbPoint
 10
427.178208655826
 20
255.1273631324574
 30
0.0
  0
POINT
  5
3A1
330
18
100
AcDbEntity
  8
DEFPOINTS
  6
ByBlock
 62
     0
100
AcDbPoint
 10
427.178208655826
 20
271.8249030114308
 30
0.0
  0
LINE
  5
3A2
330
18
100
AcDbEntity
  8
0
  6
ByBlock
 62
     2
100
AcDbLine
 10
421.4282086558259
 20
257.75659852476
 30
0.0
 11
421.4282086558259
 21
266.6326820811331
 31
0.0
  0
LINE
  5
3A3
330
18
100
AcDbEntity
  8
0
  6
ByBlock
 62
     2
100
AcDbLine
 10
353.6874660371451
 20
265.3826820811332
 30
0.0
 11
418.9282086558259
 21
265.3826820811332
 31
0.0
  0
INSERT
  5
3A4
330
18
100
AcDbEntity
  8
0
  6
ByBlock
 62
     2
100
AcDbBlockReference
  2
_OPEN
 10
351.1874660371451
 20
265.3826820811332
 30
0.0
 41
2.5
 42
2.5
 43
2.5
 50
180.0
  0
INSERT
  5
3A5
330
18
100
AcDbEntity
  8
0
  6
ByBlock
 62
     2
100
AcDbBlockReference
  2
_OPEN
 10
421.4282086558259
 20
265.3826820811332
 30
0.0
 41
2.5
 42
2.5
 43
2.5
  0
POINT
  5
3A7
330
18
100
AcDbEntity
  8
DEFPOINTS
  6
ByBlock
 62
     0
100
AcDbPoint
 10
351.1874660371451
 20
252.1684006102502
 30
0.0
  0
POINT
  5
3A8
330
18
100
AcDbEntity
  8
DEFPOINTS
  6
ByBlock
 62
     0
100
AcDbPoint
 10
421.4282086558259
 20
260.8920885843688
 30
0.0
  0
POINT
  5
3A9
330
18
100
AcDbEntity
  8
DEFPOINTS
  6
ByBlock
 62
     0
100
AcDbPoint
 10
421.4282086558259
 20
265.3826820811332
 30
0.0
  0
LINE
  5
3D1
330
18
100
AcDbEntity
  8
外形線
100
AcDbLine
 10
426.8282086558258
 20
319.5292574490519
 30
0.0
 11
426.8282086558259
 21
306.5292574490519
 31
0.0
  0
LINE
  5
3D2
330
18
100
AcDbEntity
  8
中心線
 48
0.5
100
AcDbLine
 10
421.0782086558258
 20
321.3801109477623
 30
0.0
 11
421.0782086558258
 21
304.6784039503414
 31
0.0
  0
DIMENSION
  5
3E0
330
18
100
AcDbEntity
  8
中心線
100
AcDbDimension
  2
*D4
 10
439.2135266446356
 20
306.5292574490519
 30
0.0
 11
437.3385266446355
 21
313.029257449052
 31
0.0
 70
    32
 71
     5
 42
13.00000000000006
  3
STYLE3
100
AcDbAlignedDimension
 13
426.8282086558258
 23
319.5292574490519
 33
0.0
 14
426.8282086558259
 24
306.5292574490519
 34
0.0
 50
90.0
100
AcDbRotatedDimension
1001
ACAD
1000
DSTYLE
1002
{
1070
   271
1070
     2
1002
}
  0
DIMENSION
  5
3ED
330
18
100
AcDbEntity
  8
中心線
100
AcDbDimension
  2
*D5
 10
426.8282086558258
 20
327.6719523835934
 30
0.0
 11
421.0782086558258
 21
329.5469523835934
 31
0.0
 70
    32
 71
     5
 42
11.49999999999994
  3
STYLE3
100
AcDbAlignedDimension
 13
415.3282086558259
 23
319.5292574490519
 33
0.0
 14
426.8282086558258
 24
319.5292574490519
 34
0.0
100
AcDbRotatedDimension
1001
ACAD
1000
DSTYLE
1002
{
1070
   271
1070
     2
1002
}
  0
LINE
  5
3EF
330
18
100
AcDbEntity
  8
外形線
100
AcDbLine
 10
417.328208655826
 20
243.2012721923125
 30
0.0
 11
417.328208655826
 21
241.0615993062542
 31
0.0
  0
TEXT
  5
3F3
330
18
100
AcDbEntity
  8
文字
100
AcDbText
 10
343.5336782381566
 20
272.954453735084
 30
0.0
 40
2.5
  1
248.75
  7
STYLE3
100
AcDbText
  0
TEXT
  5
3F4
330
18
100
AcDbEntity
  8
文字
100
AcDbText
 10
380.911814663704
 20
266.135716503621
 30
0.0
 40
2.5
  1
150
  7
STYLE3
100
AcDbText
  0
LINE
  5
3F5
330
18
100
AcDbEntity
  8
0
  6
ByBlock
 62
     2
100
AcDbLine
 10
421.4282086558259
 20
257.75659852476
 30
0.0
 11
441.3082434184857
 21
257.7565985247599
 31
0.0
  0
LINE
  5
3F6
330
18
100
AcDbEntity
  8
0
  6
ByBlock
 62
     2
100
AcDbLine
 10
421.4282086558259
 20
228.0615993062542
 30
0.0
 11
441.3082434184857
 21
228.0615993062542
 31
0.0
  0
LINE
  5
3F7
330
18
100
AcDbEntity
  8
0
  6
ByBlock
 62
     2
100
AcDbLine
 10
440.0582434184856
 20
255.2565985247599
 30
0.0
 11
440.0582434184856
 21
230.5615993062542
 31
0.0
  0
INSERT
  5
3F8
330
18
100
AcDbEntity
  8
0
  6
ByBlock
 62
     2
100
AcDbBlockReference
  2
_OPEN
 10
440.0582434184856
 20
257.7565985247599
 30
0.0
 41
2.5
 42
2.5
 43
2.5
 50
90.0
  0
INSERT
  5
3F9
330
18
100
AcDbEntity
  8
0
  6
ByBlock
 62
     2
100
AcDbBlockReference
  2
_OPEN
 10
440.0582434184856
 20
228.0615993062542
 30
0.0
 41
2.5
 42
2.5
 43
2.5
 50
270.0
  0
POINT
  5
3FB
330
18
100
AcDbEntity
  8
DEFPOINTS
  6
ByBlock
 62
     0
100
AcDbPoint
 10
421.4282086558259
 20
257.75659852476
 30
0.0
  0
POINT
  5
3FC
330
18
100
AcDbEntity
  8
DEFPOINTS
  6
ByBlock
 62
     0
100
AcDbPoint
 10
421.4282086558259
 20
228.0615993062542
 30
0.0
  0
POINT
  5
3FD
330
18
100
AcDbEntity
  8
DEFPOINTS
  6
ByBlock
 62
     0
100
AcDbPoint
 10
440.0582434184856
 20
228.0615993062542
 30
0.0
  0
TEXT
  5
3FE
330
18
100
AcDbEntity
  8
文字
100
AcDbText
 10
439.2841305164912
 20
236.5694474298229
 30
0.0
 40
2.5
  1
18～35
 50
90.0
  7
STYLE3
100
AcDbText
  0
LINE
  5
403
330
18
100
AcDbEntity
  8
外形線
100
AcDbLine
 10
329.6874660371452
 20
247.5615993062544
 30
0.0
 11
329.6874660371451
 21
242.5615993062543
 31
0.0
  0
LINE
  5
404
330
18
100
AcDbEntity
  8
外形線
100
AcDbLine
 10
302.6874660371451
 20
247.5615993062544
 30
0.0
 11
302.6874660371451
 21
242.5615993062543
 31
0.0
  0
LINE
  5
405
330
18
100
AcDbEntity
  8
外形線
100
AcDbLine
 10
302.6874660371451
 20
247.5615993062544
 30
0.0
 11
329.6874660371452
 21
247.5615993062544
 31
0.0
  0
LINE
  5
406
330
18
100
AcDbEntity
  8
外形線
100
AcDbLine
 10
302.6874660371451
 20
242.5615993062543
 30
0.0
 11
329.6874660371451
 21
242.5615993062543
 31
0.0
  0
LINE
  5
449
330
18
100
AcDbEntity
  8
外形線
 48
0.8
100
AcDbLine
 10
414.8282086558259
 20
317.5292574490518
 30
0.0
 11
415.3282086558258
 21
317.5292574490518
 31
0.0
  0
LINE
  5
462
330
18
100
AcDbEntity
  8
外形線
 48
0.8
100
AcDbLine
 10
414.8282086558259
 20
308.5292574490518
 30
0.0
 11
415.328208655826
 21
308.5292574490519
 31
0.0
  0
INSERT
  5
473
330
18
100
AcDbEntity
  8
外形線
100
AcDbBlockReference
  2
六角ﾈｼ3
 10
411.8282086558259
 20
245.0615993062542
 30
0.0
  0
INSERT
  5
47D
330
18
100
AcDbEntity
  8
外形線
100
AcDbBlockReference
  2
六角ﾈｼ
 10
411.8282086558259
 20
313.0292574490519
 30
0.0
  0
LINE
  5
499
330
18
100
AcDbEntity
  8
中心線
100
AcDbLine
 10
423.0782086558258
 20
313.8685238034172
 30
0.0
 11
423.0782086558258
 21
312.0064991209718
 31
0.0
  0
LINE
  5
49B
330
18
100
AcDbEntity
  8
中心線
100
AcDbLine
 10
419.0782086558258
 20
313.8685238034172
 30
0.0
 11
419.0782086558258
 21
312.0064991209718
 31
0.0
  0
POINT
  5
4BC
330
18
100
AcDbEntity
  8
DEFPOINTS
  6
ByBlock
 62
     0
100
AcDbPoint
 10
421.4282086558259
 20
257.75659852476
 30
0.0
  0
LINE
  5
4E1
330
18
100
AcDbEntity
  8
0
  6
ByBlock
 62
     2
100
AcDbLine
 10
421.4282086558259
 20
257.75659852476
 30
0.0
 11
397.7874903278625
 21
257.75659852476
 31
0.0
  0
LINE
  5
4E3
330
18
100
AcDbEntity
  8
0
  6
ByBlock
 62
     2
100
AcDbLine
 10
399.0374903278625
 20
255.25659852476
 30
0.0
 11
399.0374903278625
 21
247.5615993062542
 31
0.0
  0
INSERT
  5
4E5
330
18
100
AcDbEntity
  8
0
  6
ByBlock
 62
     2
100
AcDbBlockReference
  2
_OPEN
 10
399.0374903278625
 20
257.75659852476
 30
0.0
 41
2.5
 42
2.5
 43
2.5
 50
90.0
  0
INSERT
  5
4E6
330
18
100
AcDbEntity
  8
0
  6
ByBlock
 62
     2
100
AcDbBlockReference
  2
_OPEN
 10
399.0374903278625
 20
245.0615993062542
 30
0.0
 41
2.5
 42
2.5
 43
2.5
 50
270.0
  0
MTEXT
  5
4E7
330
18
100
AcDbEntity
  8
0
  6
ByBlock
 62
     6
100
AcDbMText
 10
388.926717618149
 20
261.329794631119
 30
0.0
 40
2.5
 41
0.0
 71
     5
 72
     1
  1
\A1;12.7
  7
STYLE3
 73
     1
 44
1.0
  0
POINT
  5
4E8
330
18
100
AcDbEntity
  8
DEFPOINTS
  6
ByBlock
 62
     0
100
AcDbPoint
 10
421.4282086558259
 20
257.75659852476
 30
0.0
  0
DIMENSION
  5
510
330
18
100
AcDbEntity
  8
外形線
100
AcDbDimension
  2
*D8
 10
391.9554917227482
 20
240.0615993062543
 30
0.0
 11
390.0804917227481
 21
245.0615993062544
 31
0.0
 70
    32
  1
φ10
 71
     5
 42
10.0
  3
STYLE3
100
AcDbAlignedDimension
 13
391.5193655185461
 23
250.0615993062543
 33
0.0
 14
391.3739901171454
 24
240.0615993062543
 34
0.0
 50
90.0
100
AcDbRotatedDimension
1001
ACAD
1000
DSTYLE
1002
{
1070
   271
1070
     2
1002
}
  0
LINE
  5
520
330
18
100
AcDbEntity
  8
寸法線
100
AcDbLine
 10
399.0374903278625
 20
251.9978316044627
 30
0.0
 11
393.9708235572743
 21
259.3420687453579
 31
0.0
  0
LINE
  5
521
330
18
100
AcDbEntity
  8
寸法線
100
AcDbLine
 10
383.5066941796228
 20
259.3420687453579
 30
0.0
 11
393.9708235572743
 21
259.3420687453579
 31
0.0
  0
LINE
  5
541
330
18
100
AcDbEntity
  8
外形線
100
AcDbLine
 10
418.9282086558257
 20
239.0615993062544
 30
0.0
 11
423.9282086558258
 21
239.0615993062542
 31
0.0
  0
LINE
  5
551
330
18
100
AcDbEntity
  8
外形線
100
AcDbLine
 10
423.928208655826
 20
239.5615993062542
 30
0.0
 11
424.9282086558258
 21
239.5615993062541
 31
0.0
  0
LINE
  5
553
330
18
100
AcDbEntity
  8
外形線
 48
0.4
100
AcDbLine
 10
423.9282086558259
 20
241.0615993062542
 30
0.0
 11
423.928208655826
 21
239.5615993062542
 31
0.0
  0
LINE
  5
554
330
18
100
AcDbEntity
  8
外形線
100
AcDbLine
 10
422.9282086558259
 20
239.0615993062542
 30
0.0
 11
423.928208655826
 21
239.5615993062542
 31
0.0
  0
LINE
  5
555
330
18
100
AcDbEntity
  8
外形線
100
AcDbLine
 10
423.9282086558258
 20
239.0615993062542
 30
0.0
 11
424.9282086558258
 21
239.5615993062541
 31
0.0
  0
LINE
  5
556
330
18
100
AcDbEntity
  8
外形線
 48
0.4
100
AcDbLine
 10
418.928208655826
 20
241.0615993062542
 30
0.0
 11
418.9282086558259
 21
239.5615993062542
 31
0.0
  0
LINE
  5
557
330
18
100
AcDbEntity
  8
外形線
100
AcDbLine
 10
417.9282086558259
 20
241.0615993062542
 30
0.0
 11
417.928208655826
 21
239.5615993062542
 31
0.0
  0
LINE
  5
558
330
18
100
AcDbEntity
  8
外形線
100
AcDbLine
 10
418.9282086558259
 20
239.5615993062542
 30
0.0
 11
417.928208655826
 21
239.5615993062541
 31
0.0
  0
LINE
  5
559
330
18
100
AcDbEntity
  8
外形線
100
AcDbLine
 10
418.9282086558261
 20
239.0615993062542
 30
0.0
 11
417.928208655826
 21
239.5615993062541
 31
0.0
  0
LINE
  5
55A
330
18
100
AcDbEntity
  8
外形線
100
AcDbLine
 10
419.928208655826
 20
239.0615993062542
 30
0.0
 11
418.9282086558259
 21
239.5615993062542
 31
0.0
  0
LINE
  5
582
330
18
100
AcDbEntity
  8
外形線
100
AcDbLine
 10
423.928208655826
 20
239.0615993062542
 30
0.0
 11
423.928208655826
 21
231.743417488072
 31
0.0
  0
LINE
  5
583
330
18
100
AcDbEntity
  8
外形線
100
AcDbLine
 10
418.928208655826
 20
239.0615993062543
 30
0.0
 11
418.928208655826
 21
231.7434174880723
 31
0.0
  0
LINE
  5
584
330
18
100
AcDbEntity
  8
外形線
100
AcDbLine
 10
423.928208655826
 20
231.7434174880723
 30
0.0
 11
418.928208655826
 21
231.7434174880723
 31
0.0
  0
LINE
  5
64A
330
18
100
AcDbEntity
  8
中心線
 48
0.4
100
AcDbLine
 10
457.965775564273
 20
245.0615993062542
 30
0.0
 11
474.8842875383156
 21
245.0615993062542
 31
0.0
  0
LINE
  5
64B
330
18
100
AcDbEntity
  8
中心線
 48
0.4
100
AcDbLine
 10
466.5889278054817
 20
259.032421014382
 30
0.0
 11
466.5889278054817
 21
226.4848548654398
 31
0.0
  0
LINE
  5
64C
330
18
100
AcDbEntity
  8
外形線
100
AcDbLine
 10
472.0889278054817
 20
243.2012721923126
 30
0.0
 11
461.0889278054817
 21
243.2012721923126
 31
0.0
  0
LINE
  5
64D
330
18
100
AcDbEntity
  8
外形線
100
AcDbLine
 10
473.0889278054816
 20
253.7012721923125
 30
0.0
 11
460.0889278054816
 21
253.7012721923126
 31
0.0
  0
ARC
  5
64E
330
18
100
AcDbEntity
  8
外形線
100
AcDbCircle
 10
466.5889278054817
 20
256.75659852476
 30
0.0
 40
1.0
100
AcDbArc
 50
23.57817847819385
 51
156.4218215218031
  0
LINE
  5
64F
330
18
100
AcDbEntity
  8
外形線
100
AcDbLine
 10
465.5389278054864
 20
255.7012721923126
 30
0.0
 11
465.5389278054816
 21
257.1565985247598
 31
0.0
  0
LINE
  5
650
330
18
100
AcDbEntity
  8
外形線
100
AcDbLine
 10
467.6389278054817
 20
255.7012721923126
 30
0.0
 11
467.6389278054816
 21
257.1565985247598
 31
0.0
  0
LINE
  5
651
330
18
100
AcDbEntity
  8
外形線
100
AcDbLine
 10
467.6389278054816
 20
257.15659852476
 30
0.0
 11
465.5389278054817
 21
257.15659852476
 31
0.0
  0
LINE
  5
652
330
18
100
AcDbEntity
  8
外形線
100
AcDbLine
 10
462.0889278054819
 20
241.0615993062542
 30
0.0
 11
471.0889278054814
 21
241.0615993062542
 31
0.0
  0
POINT
  5
653
330
18
100
AcDbEntity
  8
DEFPOINTS
  6
ByBlock
 62
     0
100
AcDbPoint
 10
466.5889278054817
 20
257.75659852476
 30
0.0
  0
POINT
  5
654
330
18
100
AcDbEntity
  8
DEFPOINTS
  6
ByBlock
 62
     0
100
AcDbPoint
 10
466.5889278054817
 20
257.75659852476
 30
0.0
  0
POINT
  5
655
330
18
100
AcDbEntity
  8
DEFPOINTS
  6
ByBlock
 62
     0
100
AcDbPoint
 10
466.5889278054817
 20
257.75659852476
 30
0.0
  0
LINE
  5
656
330
18
100
AcDbEntity
  8
外形線
100
AcDbLine
 10
471.5889278054816
 20
254.7012721923125
 30
0.0
 11
461.5889278054817
 21
254.7012721923126
 31
0.0
  0
LINE
  5
659
330
18
100
AcDbEntity
  8
外形線
100
AcDbLine
 10
461.0889278054817
 20
253.7012721923126
 30
0.0
 11
461.0889278054816
 21
243.2012721923126
 31
0.0
  0
LINE
  5
65A
330
18
100
AcDbEntity
  8
外形線
100
AcDbLine
 10
472.0889278054817
 20
253.7012721923125
 30
0.0
 11
472.0889278054817
 21
243.2012721923126
 31
0.0
  0
LINE
  5
65B
330
18
100
AcDbEntity
  8
外形線
100
AcDbLine
 10
460.0889278054817
 20
254.7012721923126
 30
0.0
 11
460.0889278054816
 21
253.7012721923126
 31
0.0
  0
LINE
  5
65C
330
18
100
AcDbEntity
  8
外形線
100
AcDbLine
 10
473.0889278054817
 20
254.7012721923126
 30
0.0
 11
473.0889278054817
 21
253.7012721923125
 31
0.0
  0
LINE
  5
65D
330
18
100
AcDbEntity
  8
外形線
100
AcDbLine
 10
461.5889278054817
 20
256.2012721923125
 30
0.0
 11
461.5889278054817
 21
254.7012721923126
 31
0.0
  0
LINE
  5
65E
330
18
100
AcDbEntity
  8
外形線
100
AcDbLine
 10
471.5889278054818
 20
256.2012721923125
 30
0.0
 11
471.5889278054818
 21
254.7012721923125
 31
0.0
  0
ARC
  5
662
330
18
100
AcDbEntity
  8
外形線
100
AcDbCircle
 10
461.5889278054817
 20
254.7012721923126
 30
0.0
 40
1.5
100
AcDbArc
 50
90.0
 51
180.0
  0
ARC
  5
663
330
18
100
AcDbEntity
  8
外形線
100
AcDbCircle
 10
471.5889278054818
 20
254.7012721923126
 30
0.0
 40
1.5
100
AcDbArc
 50
0.0
 51
90.0
  0
LINE
  5
665
330
18
100
AcDbEntity
  8
外形線
100
AcDbLine
 10
470.5889278054819
 20
255.1012721923125
 30
0.0
 11
462.5889278054818
 21
255.1012721923126
 31
0.0
  0
LINE
  5
666
330
18
100
AcDbEntity
  8
外形線
100
AcDbLine
 10
467.6389278054817
 20
255.7012721923126
 30
0.0
 11
465.5389278054864
 21
255.7012721923126
 31
0.0
  0
LINE
  5
667
330
18
100
AcDbEntity
  8
外形線
100
AcDbLine
 10
462.5889278054818
 20
255.1012721923125
 30
0.0
 11
462.5889278054817
 21
254.7012721923126
 31
0.0
  0
LINE
  5
668
330
18
100
AcDbEntity
  8
外形線
100
AcDbLine
 10
470.5889278054818
 20
255.1012721923125
 30
0.0
 11
470.5889278054818
 21
254.7012721923125
 31
0.0
  0
LINE
  5
669
330
18
100
AcDbEntity
  8
外形線
100
AcDbLine
 10
462.5889278054818
 20
255.1012721923126
 30
0.0
 11
465.5389278054864
 21
255.7012721923126
 31
0.0
  0
LINE
  5
66A
330
18
100
AcDbEntity
  8
外形線
100
AcDbLine
 10
467.6389278054817
 20
255.7012721923126
 30
0.0
 11
470.5889278054819
 21
255.1012721923125
 31
0.0
  0
LINE
  5
66B
330
18
100
AcDbEntity
  8
外形線
100
AcDbLine
 10
462.0889278054817
 20
243.2012721923126
 30
0.0
 11
462.0889278054818
 21
241.0615993062543
 31
0.0
  0
LINE
  5
66C
330
18
100
AcDbEntity
  8
外形線
100
AcDbLine
 10
471.0889278054816
 20
243.2012721923126
 30
0.0
 11
471.0889278054816
 21
241.0615993062542
 31
0.0
  0
LINE
  5
66D
330
18
100
AcDbEntity
  8
外形線
100
AcDbLine
 10
464.0889278054816
 20
239.0615993062544
 30
0.0
 11
469.0889278054816
 21
239.0615993062543
 31
0.0
  0
LINE
  5
66E
330
18
100
AcDbEntity
  8
外形線
100
AcDbLine
 10
464.0889278054816
 20
241.0615993062542
 30
0.0
 11
464.0889278054816
 21
239.0615993062544
 31
0.0
  0
LINE
  5
66F
330
18
100
AcDbEntity
  8
外形線
100
AcDbLine
 10
469.0889278054816
 20
241.0615993062542
 30
0.0
 11
469.0889278054816
 21
239.0615993062542
 31
0.0
  0
LINE
  5
670
330
18
100
AcDbEntity
  8
外形線
100
AcDbLine
 10
464.8889278054816
 20
229.5615993062542
 30
0.0
 11
468.2889278054816
 21
229.5615993062542
 31
0.0
  0
ARC
  5
671
330
18
100
AcDbEntity
  8
外形線
100
AcDbCircle
 10
466.5889278054817
 20
229.5615993062542
 30
0.0
 40
1.5
100
AcDbArc
 50
180.0
 51
0.0
  0
LINE
  5
672
330
18
100
AcDbEntity
  8
外形線
100
AcDbLine
 10
464.0889278054817
 20
231.7434174880723
 30
0.0
 11
464.8889278054816
 21
229.5615993062542
 31
0.0
  0
LINE
  5
673
330
18
100
AcDbEntity
  8
外形線
100
AcDbLine
 10
469.0889278054817
 20
231.743417488072
 30
0.0
 11
468.2889278054816
 21
229.5615993062542
 31
0.0
  0
POINT
  5
674
330
18
100
AcDbEntity
  8
DEFPOINTS
  6
ByBlock
 62
     0
100
AcDbPoint
 10
466.5889278054817
 20
228.0615993062542
 30
0.0
  0
LINE
  5
675
330
18
100
AcDbEntity
  8
外形線
100
AcDbLine
 10
469.0889278054817
 20
239.0615993062542
 30
0.0
 11
469.0889278054817
 21
231.743417488072
 31
0.0
  0
LINE
  5
676
330
18
100
AcDbEntity
  8
外形線
100
AcDbLine
 10
464.0889278054817
 20
239.0615993062543
 30
0.0
 11
464.0889278054817
 21
231.7434174880723
 31
0.0
  0
LINE
  5
677
330
18
100
AcDbEntity
  8
外形線
100
AcDbLine
 10
469.0889278054817
 20
231.7434174880723
 30
0.0
 11
464.0889278054817
 21
231.7434174880723
 31
0.0
  0
LINE
  5
6B1
330
18
100
AcDbEntity
  8
外形線
100
AcDbLine
 10
464.0889278054816
 20
239.5615993062543
 30
0.0
 11
469.0889278054816
 21
239.561599306254
 31
0.0
  0
SPLINE
  5
B92
330
18
100
AcDbEntity
  8
寸法線
100
AcDbSpline
210
0.0
220
0.0
230
1.0
 70
     8
 71
     3
 72
    11
 73
     7
 74
     0
 42
0.0000000001
 43
0.0000000001
 40
5.323779294015077
 40
5.323779294015077
 40
5.323779294015077
 40
5.323779294015077
 40
7.017882561639436
 40
10.36094023867079
 40
14.42667205030958
 40
15.17621735588277
 40
15.17621735588277
 40
15.17621735588277
 40
15.17621735588277
 10
383.8339592758858
 20
318.0292574490518
 30
0.0
 10
382.9805749605756
 20
317.2221132167052
 30
0.0
 10
384.875366166043
 20
315.438234888962
 30
0.0
 10
380.8128956132344
 20
312.9961977687746
 30
0.0
 10
382.8448940198969
 20
309.4584846776194
 30
0.0
 10
380.7586756657526
 20
308.5276859467092
 30
0.0
 10
380.4772536956988
 20
308.029257449052
 30
0.0
  0
LINE
  5
B94
330
18
100
AcDbEntity
  8
中心線
 48
0.5
100
AcDbLine
 10
412.7273663912768
 20
313.0292574490519
 30
0.0
 11
429.4290621545363
 21
313.0292574490519
 31
0.0
  0
SPLINE
  5
B95
330
18
100
AcDbEntity
  8
寸法線
100
AcDbSpline
210
0.0
220
0.0
230
1.0
 70
     8
 71
     3
 72
    11
 73
     7
 74
     0
 42
0.0000000001
 43
0.0000000001
 40
5.323779294015077
 40
5.323779294015077
 40
5.323779294015077
 40
5.323779294015077
 40
7.017882561639436
 40
10.36094023867079
 40
14.42667205030958
 40
15.17621735588277
 40
15.17621735588277
 40
15.17621735588277
 40
15.17621735588277
 10
384.638524256477
 20
250.0615993062542
 30
0.0
 10
383.7851399411668
 20
249.2544550739076
 30
0.0
 10
385.6799311466342
 20
247.4705767461644
 30
0.0
 10
381.6174605938256
 20
245.028539625977
 30
0.0
 10
383.6494590004881
 20
241.4908265348217
 30
0.0
 10
381.5632406463438
 20
240.5600278039116
 30
0.0
 10
381.28181867629
 20
240.0615993062544
 30
0.0
  0
SPLINE
  5
B96
330
18
100
AcDbEntity
  8
寸法線
100
AcDbSpline
210
0.0
220
0.0
230
1.0
 70
     8
 71
     3
 72
    11
 73
     7
 74
     0
 42
0.0000000001
 43
0.0000000001
 40
5.323779294015077
 40
5.323779294015077
 40
5.323779294015077
 40
5.323779294015077
 40
7.017882561639436
 40
10.36094023867079
 40
14.42667205030958
 40
15.17621735588277
 40
15.17621735588277
 40
15.17621735588277
 40
15.17621735588277
 10
382.0762581519886
 20
250.0615993062542
 30
0.0
 10
381.2228738366784
 20
249.2544550739076
 30
0.0
 10
383.1176650421458
 20
247.4705767461644
 30
0.0
 10
379.0551944893372
 20
245.028539625977
 30
0.0
 10
381.0871928959997
 20
241.4908265348217
 30
0.0
 10
379.0009745418554
 20
240.5600278039116
 30
0.0
 10
378.7195525718015
 20
240.0615993062544
 30
0.0
  0
DIMENSION
  5
B97
330
18
100
AcDbEntity
  8
寸法線
100
AcDbDimension
  2
*D11
 10
258.1874660371451
 20
265.3826820811332
 30
0.0
 11
269.6874660371451
 21
267.2576820811332
 31
0.0
 70
    32
 71
     5
 42
23.0
  3
STYLE3
100
AcDbAlignedDimension
 13
281.1874660371451
 23
265.3826820811332
 33
0.0
 14
258.1874660371451
 24
249.7615993062543
 34
0.0
100
AcDbRotatedDimension
1001
ACAD
1000
DSTYLE
1002
{
1070
   271
1070
     2
1070
   341
1005
0
1002
}
  0
LINE
  5
C01
330
18
100
AcDbEntity
  8
外形線
100
AcDbLine
 10
306.1907645104188
 20
353.0658414955198
 30
0.0
 11
399.1907645104189
 21
353.0658414955198
 31
0.0
  0
LINE
  5
C02
330
18
100
AcDbEntity
  8
外形線
100
AcDbLine
 10
306.1907645104188
 20
354.0658414955197
 30
0.0
 11
399.1907645104189
 21
354.0658414955197
 31
0.0
  0
TEXT
  5
C03
330
18
100
AcDbEntity
  8
文字
100
AcDbText
 10
306.2766385104189
 20
356.5257224955197
 30
0.0
 40
4.0
  1
Model No.CC-1 Cylinder Gauge
  7
STYLE3
100
AcDbText
  0
LINE
  5
C04
330
18
100
AcDbEntity
  8
外形線
100
AcDbLine
 10
350.5051875104189
 20
172.4749254955197
 30
0.0
 11
350.5051875104189
 21
192.8699084955197
 31
0.0
  0
TEXT
  5
C05
330
18
100
AcDbEntity
  8
0
  6
Continuous
100
AcDbText
 10
351.9626555104189
 20
183.9876934955197
 30
0.0
 40
2.1
  1
Design and specifications are subject to change without notice for future improvement.
  7
STYLE3
100
AcDbText
  0
TEXT
  5
C06
330
18
100
AcDbEntity
  8
0
  6
Continuous
100
AcDbText
 10
395.2754325104189
 20
175.9712084955197
 30
0.0
 40
2.399999999999999
  1
mm
  7
STYLE3
100
AcDbText
  0
LINE
  5
C07
330
18
100
AcDbEntity
  8
外形線
100
AcDbLine
 10
350.5051875104189
 20
182.0897024955197
 30
0.0
 11
491.2966055104188
 21
182.0897024955197
 31
0.0
  0
TEXT
  5
C08
330
18
100
AcDbEntity
  8
0
  6
Continuous
100
AcDbText
 10
351.6711635104189
 20
174.2230654955197
 30
0.0
 40
2.1
  1
3RD Angle Projection
  7
STYLE3
100
AcDbText
  0
TEXT
  5
C09
330
18
100
AcDbEntity
  8
0
  6
Continuous
100
AcDbText
 10
354.2946065104188
 20
177.7193484955197
 30
0.0
 40
3.0
  1
三　　角　　法
  7
STYLE3
100
AcDbText
  0
TEXT
  5
C0A
330
18
100
AcDbEntity
  8
0
  6
Continuous
100
AcDbText
 10
387.2333845104189
 20
177.7253024955197
 30
0.0
 40
3.0
  1
単位
  7
STYLE3
100
AcDbText
  0
TEXT
  5
C0B
330
18
100
AcDbEntity
  8
0
  6
Continuous
100
AcDbText
 10
387.4051055104189
 20
174.2230664955197
 30
0.0
 40
2.1
  1
Unit
  7
STYLE3
100
AcDbText
  0
LINE
  5
C0C
330
18
100
AcDbEntity
  8
外形線
100
AcDbLine
 10
385.7759155104189
 20
182.0897024955197
 30
0.0
 11
385.7759155104189
 21
172.4749254955197
 31
0.0
  0
TEXT
  5
C0D
330
18
100
AcDbEntity
  8
0
  6
Continuous
100
AcDbText
 10
453.8769175104188
 20
178.0107054955197
 30
0.0
 40
3.0
  1
株式会社　尾崎製作所
  7
STYLE3
100
AcDbText
  0
TEXT
  5
C0E
330
18
100
AcDbEntity
  8
0
  6
Continuous
100
AcDbText
 10
454.7513965104188
 20
174.2230664955197
 30
0.0
 40
2.1
  1
OZAKI MFG. CO., LTD.
  7
STYLE3
100
AcDbText
  0
TEXT
  5
C0F
330
18
100
AcDbEntity
  8
0
  6
Continuous
100
AcDbText
 10
433.4723635104188
 20
175.9712074955197
 30
0.0
 40
2.1
  1
2010.06.23
  7
STYLE3
100
AcDbText
  0
TEXT
  5
C10
330
18
100
AcDbEntity
  8
0
  6
Continuous
100
AcDbText
 10
414.6337845104189
 20
176.2625654955197
 30
0.0
 40
2.399999999999999
  1
1/1
  7
STYLE3
100
AcDbText
  0
TEXT
  5
C11
330
18
100
AcDbEntity
  8
0
  6
Continuous
100
AcDbText
 10
404.5512805104188
 20
177.4339454955196
 30
0.0
 40
3.0
  1
尺 度
  7
STYLE3
100
AcDbText
  0
TEXT
  5
C12
330
18
100
AcDbEntity
  8
0
  6
Continuous
100
AcDbText
 10
405.0144955104188
 20
174.5144234955197
 30
0.0
 40
2.1
  1
Scale
  7
STYLE3
100
AcDbText
  0
LINE
  5
C13
330
18
100
AcDbEntity
  8
外形線
100
AcDbLine
 10
403.2655325104188
 20
182.0897024955197
 30
0.0
 11
403.2655325104188
 21
172.4749254955197
 31
0.0
  0
TEXT
  5
C14
330
18
100
AcDbEntity
  8
0
  6
Continuous
100
AcDbText
 10
424.7275565104188
 20
174.2230674955197
 30
0.0
 40
2.1
  1
Date
  7
STYLE3
100
AcDbText
  0
TEXT
  5
C15
330
18
100
AcDbEntity
  8
0
  6
Continuous
100
AcDbText
 10
424.3441955104188
 20
177.5561504955197
 30
0.0
 40
3.0
  1
日 付
  7
STYLE3
100
AcDbText
  0
LINE
  5
C16
330
18
100
AcDbEntity
  8
外形線
100
AcDbLine
 10
422.7956055104187
 20
182.0897024955197
 30
0.0
 11
422.7956055104187
 21
172.4749254955197
 31
0.0
  0
LINE
  5
C17
330
18
100
AcDbEntity
  8
外形線
100
AcDbLine
 10
452.5279545104188
 20
182.0897024955197
 30
0.0
 11
452.5279545104188
 21
172.4749254955197
 31
0.0
  0
LINE
  5
C18
330
18
100
AcDbEntity
  8
外形線
100
AcDbLine
 10
350.5051875104189
 20
192.8699084955197
 30
0.0
 11
491.2966055104188
 21
192.8699084955197
 31
0.0
  0
TEXT
  5
C19
330
18
100
AcDbEntity
  8
0
  6
Continuous
100
AcDbText
 10
352.2541495104189
 20
187.9168414955197
 30
0.0
 40
3.5
  1
仕様及び外観は予告なく変更される場合がございますのでご了承下さい。
  7
STYLE3
100
AcDbText
  0
ENDSEC
  0
SECTION
  2
OBJECTS
  0
DICTIONARY
  5
C
330
0
100
AcDbDictionary
281
     1
  3
ACAD_COLOR
350
608
  3
ACAD_GROUP
350
D
  3
ACAD_LAYOUT
350
60B
  3
ACAD_MATERIAL
350
607
  3
ACAD_MLINESTYLE
350
1B
  3
ACAD_PLOTSETTINGS
350
60C
  3
ACAD_PLOTSTYLENAME
350
605
  3
ACAD_TABLESTYLE
350
609
  3
ACDBVARIABLEDICTIONARY
350
192
  0
DICTIONARY
  5
657
330
18
100
AcDbDictionary
280
     1
281
     1
  3
ACAD_SORTENTS
360
658
  0
DICTIONARY
  5
608
102
{ACAD_REACTORS
330
C
102
}
330
C
100
AcDbDictionary
281
     1
  0
DICTIONARY
  5
D
102
{ACAD_REACTORS
330
C
102
}
330
C
100
AcDbDictionary
281
     1
  0
DICTIONARY
  5
60B
102
{ACAD_REACTORS
330
C
102
}
330
C
100
AcDbDictionary
281
     1
  3
Model
350
60D
  3
レイアウト1
350
60E
  0
DICTIONARY
  5
607
102
{ACAD_REACTORS
330
C
102
}
330
C
100
AcDbDictionary
281
     1
  0
DICTIONARY
  5
1B
102
{ACAD_REACTORS
330
C
102
}
330
C
100
AcDbDictionary
281
     1
  3
STANDARD
350
1C
  0
DICTIONARY
  5
60C
102
{ACAD_REACTORS
330
C
102
}
330
C
100
AcDbDictionary
281
     1
  0
ACDBDICTIONARYWDFLT
  5
605
102
{ACAD_REACTORS
330
C
102
}
330
C
100
AcDbDictionary
281
     1
  3
Normal
350
606
100
AcDbDictionaryWithDefault
340
606
  0
DICTIONARY
  5
609
102
{ACAD_REACTORS
330
C
102
}
330
C
100
AcDbDictionary
281
     1
  3
Standard
350
60A
  0
DICTIONARY
  5
192
102
{ACAD_REACTORS
330
C
102
}
330
C
100
AcDbDictionary
281
     1
  3
CTABLESTYLE
350
660
  3
SORTENTS
350
193
  0
SORTENTSTABLE
  5
658
102
{ACAD_REACTORS
330
657
102
}
330
657
100
AcDbSortentsTable
330
18
331
119
  5
119
331
150
  5
150
331
2AC
  5
2C3
331
121
  5
121
331
275
  5
275
331
129
  5
129
331
4E8
  5
4FB
331
2CC
  5
2CD
331
178
  5
178
331
557
  5
558
331
65C
  5
656
331
2D4
  5
2D6
331
24E
  5
24E
331
510
  5
520
331
66C
  5
64F
331
674
  5
675
331
5E6
  5
5E7
331
131
  5
131
331
2DC
  5
2DE
331
256
  5
256
331
139
  5
139
331
188
  5
188
331
190
  5
190
331
141
  5
141
331
21F
  5
21F
331
25E
  5
25E
331
39B
  5
39C
331
227
  5
227
331
112
  5
112
331
149
  5
149
331
520
  5
521
331
40A
  5
40B
331
3A3
  5
3A4
331
499
  5
49B
331
5EE
  5
5EF
331
5F6
  5
5F7
331
B94
  5
29A
331
64D
  5
65D
331
4E1
  5
4E3
331
5FE
  5
5FF
331
655
  5
66B
331
151
  5
151
331
11A
  5
11A
331
122
  5
122
331
276
  5
276
331
27E
  5
27E
331
12A
  5
12A
331
171
  5
171
331
1C8
  5
1C8
331
462
  5
473
331
394
  5
395
331
2CD
  5
2CE
331
247
  5
247
331
179
  5
179
331
558
  5
559
331
65D
  5
654
331
24F
  5
24F
331
3F3
  5
3F4
331
665
  5
662
331
3FB
  5
3FC
331
66D
  5
670
331
675
  5
676
331
5E7
  5
5E8
331
181
  5
181
331
132
  5
132
331
257
  5
257
331
189
  5
189
331
13A
  5
13A
331
25F
  5
25F
331
142
  5
142
331
10B
  5
10B
331
191
  5
191
331
220
  5
220
331
403
  5
404
331
39C
  5
39D
331
113
  5
113
331
14A
  5
14A
331
521
  5
541
331
40B
  5
40C
331
3A4
  5
3A5
331
5EF
  5
5F0
331
5F7
  5
5F8
331
64E
  5
663
331
541
  5
551
331
5FF
  5
602
331
656
  5
65E
331
11B
  5
11B
331
123
  5
123
331
16A
  5
16A
331
277
  5
277
331
12B
  5
12B
331
551
  5
553
331
395
  5
399
331
2CE
  5
2CF
331
17A
  5
17A
331
248
  5
248
331
559
  5
55A
331
65E
  5
653
331
2D6
  5
2D7
331
473
  5
47D
331
3F4
  5
3F5
331
666
  5
661
331
3FC
  5
3FD
331
66E
  5
64E
331
676
  5
677
331
250
  5
250
331
133
  5
133
331
182
  5
182
331
1D1
  5
1D1
331
2DE
  5
2F6
331
13B
  5
13B
331
18A
  5
18A
331
2F6
  5
317
331
221
  5
221
331
143
  5
143
331
260
  5
260
331
404
  5
405
331
114
  5
114
331
14B
  5
14B
331
229
  5
229
331
39D
  5
39F
331
5E8
  5
5E9
331
40C
  5
40E
331
3A5
  5
3A7
331
49B
  5
4BC
331
5F0
  5
5F1
331
5F8
  5
5F9
331
4E3
  5
4E5
331
64F
  5
665
331
1B2
  5
1B2
331
11C
  5
11C
331
124
  5
124
331
278
  5
278
331
1CA
  5
1CA
331
12C
  5
12C
331
173
  5
173
331
2CF
  5
2D1
331
55A
  5
582
331
4FB
  5
510
331
2D7
  5
2D9
331
3ED
  5
3EF
331
582
  5
583
331
3F5
  5
3F6
331
667
  5
652
331
3FD
  5
3FE
331
66F
  5
64D
331
677
  5
6B1
331
183
  5
183
331
134
  5
134
331
1D2
  5
1D2
331
251
  5
251
331
13C
  5
13C
331
18B
  5
18B
331
21A
  5
21A
331
144
  5
144
331
261
  5
261
331
317
  5
341
331
115
  5
115
331
14C
  5
14C
331
405
  5
406
331
5E9
  5
5EA
331
5F1
  5
5F2
331
4BC
  5
4E1
331
5F9
  5
5FA
331
650
  5
666
331
1B3
  5
1B3
331
11D
  5
11D
331
1C3
  5
1C3
331
125
  5
125
331
16C
  5
16C
331
281
  5
281
331
12D
  5
12D
331
242
  5
242
331
17C
  5
17C
331
553
  5
554
331
583
  5
584
331
3F6
  5
3F7
331
668
  5
651
331
670
  5
671
331
3FE
  5
403
331
5E2
  5
5E3
331
1D3
  5
1D3
331
135
  5
135
331
184
  5
184
331
21B
  5
21B
331
13D
  5
13D
331
299
  5
299
331
145
  5
145
331
47D
  5
499
331
406
  5
40A
331
14D
  5
14D
331
116
  5
116
331
22B
  5
22B
331
39F
  5
3A0
331
5EA
  5
5EB
331
40E
  5
40F
331
3A7
  5
3A8
331
5F2
  5
5F3
331
5FA
  5
5FB
331
651
  5
667
331
4E5
  5
4E6
331
602
  5
64A
331
11E
  5
11E
331
23B
  5
23B
331
126
  5
126
331
16D
  5
16D
331
1C4
  5
1C4
331
390
  5
391
331
1CC
  5
1CC
331
12E
  5
12E
331
175
  5
175
331
243
  5
243
331
282
  5
282
331
2D1
  5
2D2
331
554
  5
555
331
659
  5
65B
331
3EF
  5
3F3
331
584
  5
59E
331
3F7
  5
3F8
331
669
  5
66E
331
671
  5
672
331
5E3
  5
5E4
331
2D9
  5
2DB
331
185
  5
185
331
136
  5
136
331
253
  5
253
331
13E
  5
13E
331
18D
  5
18D
331
29A
  5
29B
331
146
  5
146
331
263
  5
263
331
6B1
  5
B92
331
22C
  5
22C
331
117
  5
117
331
14E
  5
14E
331
26B
  5
26B
331
3A0
  5
3A1
331
5EB
  5
5EC
331
40F
  5
410
331
3A8
  5
3A9
331
5F3
  5
5F4
331
64A
  5
64B
331
5FB
  5
5FC
331
4E6
  5
4E7
331
652
  5
668
331
11F
  5
11F
331
273
  5
273
331
341
  5
390
331
16E
  5
16E
331
127
  5
127
331
391
  5
392
331
176
  5
176
331
12F
  5
12F
331
283
  5
283
331
3E0
  5
3ED
331
2D2
  5
2D4
331
555
  5
556
331
662
  5
66C
331
3F8
  5
3F9
331
66A
  5
66F
331
672
  5
673
331
5E4
  5
5E5
331
1D5
  5
1D5
331
137
  5
137
331
186
  5
186
331
254
  5
254
331
21D
  5
21D
331
13F
  5
13F
331
18E
  5
18E
331
25C
  5
25C
331
399
  5
39A
331
29B
  5
2A3
331
147
  5
147
331
264
  5
264
331
3A1
  5
3A2
331
5EC
  5
5ED
331
2A3
  5
2AC
331
14F
  5
14F
331
1AE
  5
1AE
331
26C
  5
26C
331
410
  5
449
331
3A9
  5
3D1
331
5F4
  5
5F5
331
64B
  5
64C
331
3D1
  5
3D2
331
5FC
  5
5FD
331
B92
  5
B93
331
4E7
  5
4E8
331
653
  5
669
331
118
  5
118
331
235
  5
235
331
120
  5
120
331
274
  5
274
331
2C3
  5
2CC
331
128
  5
128
331
1C6
  5
1C6
331
392
  5
394
331
177
  5
177
331
1CE
  5
1CE
331
556
  5
557
331
65B
  5
659
331
17F
  5
17F
331
663
  5
66D
331
3F9
  5
3FB
331
66B
  5
650
331
673
  5
674
331
5E5
  5
5E6
331
130
  5
130
331
2DB
  5
2DC
331
138
  5
138
331
255
  5
255
331
140
  5
140
331
18F
  5
18F
331
21E
  5
21E
331
39A
  5
39B
331
265
  5
265
331
3A2
  5
3A3
331
5ED
  5
5EE
331
5F5
  5
5F6
331
64C
  5
65C
331
449
  5
462
331
3D2
  5
3E0
331
5FD
  5
5FE
331
654
  5
66A
  0
LAYOUT
  5
60D
102
{ACAD_REACTORS
330
60B
102
}
330
60B
100
AcDbPlotSettings
  1

  2
A4 EPSON LP-6100.pc3
  4
A4
  6

 40
5.873749732971191
 41
5.873747825622558
 42
5.873748779296875
 43
5.873748779296875
 44
209.9733276367187
 45
297.0106506347656
 46
0.0
 47
25.0
 48
0.0
 49
0.0
140
0.0
141
0.0
142
1.0
143
1.0
 70
 28336
 72
     1
 73
     1
 74
     1
  7
AutoCAD LT 98.ctb
 75
    16
147
1.0
 76
     1
 77
     2
 78
   300
148
-236.4700415957595
149
-171.6235150316331
100
AcDbLayout
  1
Model
 70
     1
 71
     0
 10
0.0
 20
0.0
 11
12.0
 21
9.0
 12
0.0
 22
0.0
 32
0.0
 14
0.0
 24
0.0
 34
0.0
 15
0.0
 25
0.0
 35
0.0
146
0.0
 13
0.0
 23
0.0
 33
0.0
 16
1.0
 26
0.0
 36
0.0
 17
0.0
 27
1.0
 37
0.0
 76
     0
330
18
1001
ACAD_PSEXT
1000
A4 EPSON LP-6100.pc3
1000
EPSON LP-6100
1000
\\SATO-MATE2
1000

1070
     0
  0
LAYOUT
  5
60E
102
{ACAD_REACTORS
330
60B
102
}
330
60B
100
AcDbPlotSettings
  1

  2
C:\Documents and Settings\佐藤\Application Data\Autodesk\AutoCAD LT 2005\R10\jpn\plotters\PEACOCK EPSON LP-6100.pc3
  4

  6

 40
0.0
 41
0.0
 42
0.0
 43
0.0
 44
0.0
 45
0.0
 46
0.0
 47
0.0
 48
0.0
 49
0.0
140
0.0
141
0.0
142
1.0
143
1.0
 70
   688
 72
     0
 73
     0
 74
     5
  7
AutoCAD LT 98.ctb
 75
    16
147
1.0
 76
     0
 77
     2
 78
   300
148
0.0
149
0.0
100
AcDbLayout
  1
レイアウト1
 70
     1
 71
     1
 10
0.0
 20
0.0
 11
420.0
 21
297.0
 12
0.0
 22
0.0
 32
0.0
 14
1.000000000000000E+20
 24
1.000000000000000E+20
 34
1.000000000000000E+20
 15
-1.000000000000000E+20
 25
-1.000000000000000E+20
 35
-1.000000000000000E+20
146
0.0
 13
0.0
 23
0.0
 33
0.0
 16
1.0
 26
0.0
 36
0.0
 17
0.0
 27
1.0
 37
0.0
 76
     0
330
15
  0
MLINESTYLE
  5
1C
102
{ACAD_REACTORS
330
1B
102
}
330
1B
100
AcDbMlineStyle
  2
STANDARD
 70
     0
  3

 62
   256
 51
90.0
 52
90.0
 71
     2
 49
0.5
 62
   256
  6
BYLAYER
 49
-0.5
 62
   256
  6
BYLAYER
  0
ACDBPLACEHOLDER
  5
606
102
{ACAD_REACTORS
330
605
102
}
330
605
  0
ACAD_PROXY_OBJECT
  5
60A
102
{ACAD_REACTORS
330
609
102
}
330
609
100
AcDbProxyObject
 90
      499
 91
      504
 95
  2555929
 70
     0
 93
     1849
310
4214DD185B99185C992420000000000000F83F0000000000003E0FC00000000000004901028000000C1008070000C3001FDFF8000000C1003FBFF000000182007F7FE00000030400FEFFC00000060801FDFF8000000C1003FBFF000000182000000000000000C2020B0000001820100E000186003FBFF000000182007F7FE0
310
0000030400FEFFC00000060801FDFF8000000C1003FBFF000000182007F7FE0000003040000000000000012404160000003040201C00030C007F7FE00000030400FEFFC00000060801FDFF8000000C1003FBFF000000182007F7FE00000030400FEFFC000000608000
340
F
340
F
340
F
 94
        0
  0
DICTIONARYVAR
  5
660
102
{ACAD_REACTORS
330
192
102
}
330
192
100
DictionaryVariables
280
     0
  1
STANDARD
  0
DICTIONARYVAR
  5
193
102
{ACAD_REACTORS
330
192
102
}
330
192
100
DictionaryVariables
280
     0
  1
96
  0
ENDSEC
  0
EOF
