  0
SECTION
  2
HEADER
  9
$ACADVER
  1
AC1009
  9
$INSBASE
 10
0.0
 20
0.0
 30
0.0
  9
$EXTMIN
 10
236.4583261120649
 20
171.62875156665041
 30
-0.0000000349181948
  9
$EXTMAX
 10
491.9215858715545
 20
367.07258027146622
 30
0.0000000814935746
  9
$LIMMIN
 10
0.0
 20
0.0
  9
$LIMMAX
 10
420.0
 20
297.0
  9
$ORTHOMODE
 70
     0
  9
$REGENMODE
 70
     1
  9
$FILLMODE
 70
     1
  9
$QTEXTMODE
 70
     0
  9
$MIRRTEXT
 70
     1
  9
$DRAGMODE
 70
     2
  9
$LTSCALE
 40
1.0
  9
$OSMODE
 70
    37
  9
$ATTMODE
 70
     1
  9
$TEXTSIZE
 40
3.0
  9
$TRACEWID
 40
1.0
  9
$TEXTSTYLE
  7
STYLE3
  9
$CLAYER
  8
外形線
  9
$CELTYPE
  6
BYLAYER
  9
$CECOLOR
 62
   256
  9
$DIMSCALE
 40
1.0
  9
$DIMASZ
 40
2.5
  9
$DIMEXO
 40
0.0
  9
$DIMDLI
 40
3.75
  9
$DIMRND
 40
0.0
  9
$DIMDLE
 40
0.0
  9
$DIMEXE
 40
1.25
  9
$DIMTP
 40
0.0
  9
$DIMTM
 40
0.0
  9
$DIMTXT
 40
2.5
  9
$DIMCEN
 40
2.5
  9
$DIMTSZ
 40
0.0
  9
$DIMTOL
 70
     0
  9
$DIMLIM
 70
     0
  9
$DIMTIH
 70
     0
  9
$DIMTOH
 70
     0
  9
$DIMSE1
 70
     0
  9
$DIMSE2
 70
     0
  9
$DIMTAD
 70
     1
  9
$DIMZIN
 70
     8
  9
$DIMBLK
  1

  9
$DIMASO
 70
     1
  9
$DIMSHO
 70
     1
  9
$DIMPOST
  1

  9
$DIMAPOST
  1

  9
$DIMALT
 70
     0
  9
$DIMALTD
 70
     4
  9
$DIMALTF
 40
0.0394
  9
$DIMLFAC
 40
1.0
  9
$DIMTOFL
 70
     1
  9
$DIMTVP
 40
0.0
  9
$DIMTIX
 70
     0
  9
$DIMSOXD
 70
     0
  9
$DIMSAH
 70
     1
  9
$DIMBLK1
  1
OPEN
  9
$DIMBLK2
  1
OPEN
  9
$DIMSTYLE
  2
STYLE3
  9
$DIMCLRD
 70
     2
  9
$DIMCLRE
 70
     2
  9
$DIMCLRT
 70
     6
  9
$DIMTFAC
 40
1.0
  9
$DIMGAP
 40
0.625
  9
$LUNITS
 70
     2
  9
$LUPREC
 70
     4
  9
$SKETCHINC
 40
1.0
  9
$FILLETRAD
 40
0.0
  9
$AUNITS
 70
     0
  9
$AUPREC
 70
     0
  9
$MENU
  1
.
  9
$ELEVATION
 40
0.0
  9
$PELEVATION
 40
0.0
  9
$THICKNESS
 40
0.0
  9
$LIMCHECK
 70
     0
  9
$BLIPMODE
 70
     0
  9
$CHAMFERA
 40
10.0
  9
$CHAMFERB
 40
10.0
  9
$SKPOLY
 70
     0
  9
$TDCREATE
 40
2450753.4625406251
  9
$TDUPDATE
 40
2455371.6348949191
  9
$TDINDWG
 40
0.7237557986000001
  9
$TDUSRTIMER
 40
0.7237557986000001
  9
$USRTIMER
 70
     1
  9
$ANGBASE
 50
0.0
  9
$ANGDIR
 70
     0
  9
$PDMODE
 70
     0
  9
$PDSIZE
 40
0.0
  9
$PLINEWID
 40
0.0
  9
$COORDS
 70
     1
  9
$SPLFRAME
 70
     0
  9
$SPLINETYPE
 70
     6
  9
$SPLINESEGS
 70
     8
  9
$ATTDIA
 70
     0
  9
$ATTREQ
 70
     1
  9
$HANDLING
 70
     1
  9
$HANDSEED
  5
E8D
  9
$SURFTAB1
 70
     6
  9
$SURFTAB2
 70
     6
  9
$SURFTYPE
 70
     6
  9
$SURFU
 70
     6
  9
$SURFV
 70
     6
  9
$UCSNAME
  2

  9
$UCSORG
 10
0.0
 20
0.0
 30
0.0
  9
$UCSXDIR
 10
1.0
 20
0.0
 30
0.0
  9
$UCSYDIR
 10
0.0
 20
1.0
 30
0.0
  9
$PUCSNAME
  2

  9
$PUCSORG
 10
0.0
 20
0.0
 30
0.0
  9
$PUCSXDIR
 10
1.0
 20
0.0
 30
0.0
  9
$PUCSYDIR
 10
0.0
 20
1.0
 30
0.0
  9
$USERI1
 70
     0
  9
$USERI2
 70
     0
  9
$USERI3
 70
     0
  9
$USERI4
 70
     0
  9
$USERI5
 70
     0
  9
$USERR1
 40
0.0
  9
$USERR2
 40
0.0
  9
$USERR3
 40
0.0
  9
$USERR4
 40
0.0
  9
$USERR5
 40
0.0
  9
$WORLDVIEW
 70
     1
  9
$SHADEDGE
 70
     3
  9
$SHADEDIF
 70
    70
  9
$TILEMODE
 70
     1
  9
$MAXACTVP
 70
    48
  9
$PLIMCHECK
 70
     0
  9
$PEXTMIN
 10
1.0000000000000000E+020
 20
1.0000000000000000E+020
 30
1.0000000000000000E+020
  9
$PEXTMAX
 10
-1.0000000000000000E+020
 20
-1.0000000000000000E+020
 30
-1.0000000000000000E+020
  9
$PLIMMIN
 10
0.0
 20
0.0
  9
$PLIMMAX
 10
420.0
 20
297.0
  9
$UNITMODE
 70
     0
  9
$VISRETAIN
 70
     1
  9
$PLINEGEN
 70
     0
  9
$PSLTSCALE
 70
     1
  0
ENDSEC
  0
SECTION
  2
TABLES
  0
TABLE
  2
VPORT
 70
     3
  0
VPORT
  2
*ACTIVE
 70
     0
 10
0.0
 20
0.0
 11
1.0
 21
1.0
 12
364.18995599180971
 22
269.35066591905832
 13
0.0
 23
0.0
 14
10.0
 24
10.0
 15
10.0
 25
10.0
 16
0.0
 26
0.0
 36
1.0
 17
0.0
 27
0.0
 37
0.0
 40
196.93009356188671
 41
1.530456852791878
 42
50.0
 43
0.0
 44
0.0
 50
0.0
 51
0.0
 71
     0
 72
   100
 73
     1
 74
     1
 75
     0
 76
     0
 77
     0
 78
     0
  0
ENDTAB
  0
TABLE
  2
LTYPE
 70
    12
  0
LTYPE
  2
CONTINUOUS
 70
     0
  3
Solid line
 72
    65
 73
     0
 40
0.0
  0
LTYPE
  2
CENTER2
 70
     0
  3
Center (.5x) ___ _ ___ _ ___ _ ___ _ ___ _ ___
 72
    65
 73
     4
 40
28.574999999999999
 49
19.050000000000001
 49
-3.1749999999999989
 49
3.1749999999999989
 49
-3.1749999999999989
  0
ENDTAB
  0
TABLE
  2
LAYER
 70
    14
  0
LAYER
  2
0
 70
     0
 62
     7
  6
CONTINUOUS
  0
LAYER
  2
外形線
 70
     0
 62
     7
  6
CONTINUOUS
  0
LAYER
  2
寸法線
 70
     0
 62
     2
  6
CONTINUOUS
  0
LAYER
  2
中心線
 70
     0
 62
     4
  6
CENTER2
  0
LAYER
  2
ﾊｯﾁﾝｸ
 70
     0
 62
     6
  6
CONTINUOUS
  0
LAYER
  2
文字
 70
     0
 62
     6
  6
CONTINUOUS
  0
LAYER
  2
DEFPOINTS
 70
     0
 62
     7
  6
CONTINUOUS
  0
LAYER
  2
C
 70
     0
 62
     7
  6
CONTINUOUS
  0
ENDTAB
  0
TABLE
  2
STYLE
 70
     6
  0
STYLE
  2
STANDARD
 70
     0
 40
0.0
 41
1.0
 50
0.0
 71
     0
 42
2.5
  3
txt
  4

  0
STYLE
  2
STYLE3
 70
     0
 40
0.0
 41
1.0
 50
0.0
 71
     0
 42
3.0
  3
romans.shx
  4
bigfont.shx
  0
ENDTAB
  0
TABLE
  2
VIEW
 70
     0
  0
ENDTAB
  0
TABLE
  2
UCS
 70
     0
  0
ENDTAB
  0
TABLE
  2
APPID
 70
     2
  0
APPID
  2
ACAD
 70
     0
  0
APPID
  2
ACAD_PSEXT
 70
     0
  0
ENDTAB
  0
TABLE
  2
DIMSTYLE
 70
     4
  0
DIMSTYLE
  2
STANDARD
 70
     0
  3

  4

  5

  6

  7

 40
1.0
 41
2.5
 42
0.625
 43
3.75
 44
1.25
 45
0.0
 46
0.0
 47
0.0
 48
0.0
140
2.5
141
2.5
142
0.0
143
0.0394
144
1.0
145
0.0
146
1.0
147
0.625
 71
     0
 72
     0
 73
     0
 74
     0
 75
     0
 76
     0
 77
     1
 78
     8
170
     0
171
     4
172
     1
173
     0
174
     0
175
     0
176
     0
177
     0
178
     0
  0
DIMSTYLE
  2
STYLE3
 70
     0
  3

  4

  5

  6
OPEN
  7
OPEN
 40
1.0
 41
2.5
 42
0.0
 43
3.75
 44
1.25
 45
0.0
 46
0.0
 47
0.0
 48
0.0
140
2.5
141
2.5
142
0.0
143
0.0394
144
1.0
145
0.0
146
1.0
147
0.625
 71
     0
 72
     0
 73
     0
 74
     0
 75
     0
 76
     0
 77
     1
 78
     8
170
     0
171
     4
172
     1
173
     1
174
     0
175
     0
176
     2
177
     2
178
     6
  0
ENDTAB
  0
ENDSEC
  0
SECTION
  2
BLOCKS
  0
BLOCK
  8
0
  2
$MODEL_SPACE
 70
     0
 10
0.0
 20
0.0
 30
0.0
  3
$MODEL_SPACE
  1

  0
ENDBLK
  5
1A
  8
0
  0
BLOCK
 67
     1
  8
0
  2
$PAPER_SPACE
 70
     0
 10
0.0
 20
0.0
 30
0.0
  3
$PAPER_SPACE
  1

  0
ENDBLK
  5
17
 67
     1
  8
0
  0
BLOCK
  8
0
  2
_OPEN
 70
     0
 10
0.0
 20
0.0
 30
0.0
  3
_OPEN
  1

  0
LINE
  5
47
  8
0
  6
BYBLOCK
 62
     0
 10
-1.0
 20
0.1666666666666666
 30
0.0
 11
0.0
 21
0.0
 31
0.0
  0
LINE
  5
48
  8
0
  6
BYBLOCK
 62
     0
 10
0.0
 20
0.0
 30
0.0
 11
-1.0
 21
-0.1666666666666666
 31
0.0
  0
LINE
  5
49
  8
0
  6
BYBLOCK
 62
     0
 10
0.0
 20
0.0
 30
0.0
 11
-1.0
 21
0.0
 31
0.0
  0
ENDBLK
  5
4A
  8
0
  0
BLOCK
  8
0
  2
*D3
 70
     1
 10
0.0
 20
0.0
 30
0.0
  3
*D3
  1

  0
LINE
  5
8FE
  8
外形線
 62
     2
 10
307.85421067477051
 20
256.67533492553622
 30
0.0
 11
307.85421067477051
 21
272.24641770041501
 31
0.0
  0
LINE
  5
8FF
  8
外形線
 62
     2
 10
377.85421067477051
 20
257.782136229532
 30
0.0
 11
377.85421067477051
 21
272.24641770041501
 31
0.0
  0
LINE
  5
900
  8
外形線
 62
     2
 10
310.3542106747704
 20
270.99641770041501
 30
0.0
 11
375.35421067477051
 21
270.99641770041501
 31
0.0
  0
INSERT
  5
901
  8
外形線
 62
     2
  2
_OPEN
 10
307.85421067477051
 20
270.99641770041501
 30
0.0
 41
2.5
 42
2.5
 43
2.5
 50
180.0
  0
INSERT
  5
902
  8
外形線
 62
     2
  2
_OPEN
 10
377.85421067477051
 20
270.99641770041501
 30
0.0
 41
2.5
 42
2.5
 43
2.5
  0
INSERT
  5
903
  8
外形線
  2
*U15
 10
0.0
 20
0.0
 30
0.0
  0
POINT
  5
904
  8
DEFPOINTS
 62
     0
 10
307.85421067477051
 20
256.67533492553622
 30
0.0
  0
POINT
  5
905
  8
DEFPOINTS
 62
     0
 10
377.85421067477051
 20
257.782136229532
 30
0.0
  0
POINT
  5
906
  8
DEFPOINTS
 62
     0
 10
377.85421067477051
 20
270.99641770041501
 30
0.0
  0
ENDBLK
  5
340
  8
0
  0
BLOCK
  8
0
  2
*D4
 70
     1
 10
0.0
 20
0.0
 30
0.0
  3
*D4
  1

  0
LINE
  5
919
  8
中心線
 62
     2
 10
433.6042106747704
 20
309.88771888732867
 30
0.0
 11
448.81841606444192
 21
309.88771888732867
 31
0.0
  0
LINE
  5
91A
  8
中心線
 62
     2
 10
433.60421067477051
 20
296.88771888732862
 30
0.0
 11
448.81841606444192
 21
296.88771888732862
 31
0.0
  0
LINE
  5
91B
  8
中心線
 62
     2
 10
447.56841606444181
 20
307.38771888732867
 30
0.0
 11
447.56841606444181
 21
299.38771888732862
 31
0.0
  0
INSERT
  5
91C
  8
中心線
 62
     2
  2
_OPEN
 10
447.56841606444181
 20
309.88771888732867
 30
0.0
 41
2.5
 42
2.5
 43
2.5
 50
90.0
  0
INSERT
  5
91D
  8
中心線
 62
     2
  2
_OPEN
 10
447.56841606444181
 20
296.88771888732862
 30
0.0
 41
2.5
 42
2.5
 43
2.5
 50
270.0
  0
INSERT
  5
91E
  8
外形線
  2
*U18
 10
0.0
 20
0.0
 30
0.0
  0
POINT
  5
91F
  8
DEFPOINTS
 62
     0
 10
433.6042106747704
 20
309.88771888732867
 30
0.0
  0
POINT
  5
920
  8
DEFPOINTS
 62
     0
 10
433.60421067477051
 20
296.88771888732862
 30
0.0
  0
POINT
  5
921
  8
DEFPOINTS
 62
     0
 10
447.56841606444181
 20
296.88771888732862
 30
0.0
  0
ENDBLK
  5
3DF
  8
0
  0
BLOCK
  8
0
  2
*D5
 70
     1
 10
0.0
 20
0.0
 30
0.0
  3
*D5
  1

  0
LINE
  5
910
  8
中心線
 62
     2
 10
422.10421067477051
 20
309.88771888732867
 30
0.0
 11
422.10421067477051
 21
322.69969989002237
 31
0.0
  0
LINE
  5
911
  8
中心線
 62
     2
 10
433.6042106747704
 20
309.88771888732867
 30
0.0
 11
433.6042106747704
 21
322.69969989002237
 31
0.0
  0
LINE
  5
912
  8
中心線
 62
     2
 10
424.6042106747704
 20
321.44969989002237
 30
0.0
 11
431.1042106747704
 21
321.44969989002237
 31
0.0
  0
INSERT
  5
913
  8
中心線
 62
     2
  2
_OPEN
 10
422.10421067477051
 20
321.44969989002237
 30
0.0
 41
2.5
 42
2.5
 43
2.5
 50
180.0
  0
INSERT
  5
914
  8
中心線
 62
     2
  2
_OPEN
 10
433.6042106747704
 20
321.44969989002237
 30
0.0
 41
2.5
 42
2.5
 43
2.5
  0
INSERT
  5
915
  8
外形線
  2
*U17
 10
0.0
 20
0.0
 30
0.0
  0
POINT
  5
916
  8
DEFPOINTS
 62
     0
 10
422.10421067477051
 20
309.88771888732867
 30
0.0
  0
POINT
  5
917
  8
DEFPOINTS
 62
     0
 10
433.6042106747704
 20
309.88771888732867
 30
0.0
  0
POINT
  5
918
  8
DEFPOINTS
 62
     0
 10
433.6042106747704
 20
321.44969989002237
 30
0.0
  0
ENDBLK
  5
3EC
  8
0
  0
BLOCK
  8
0
  2
六角ﾈｼ
 70
     0
 10
0.0
 20
0.0
 30
0.0
  3
六角ﾈｼ
  1

  0
LINE
  5
477
  8
外形線
 10
-0.0000000000000568
 20
4.4999999999999432
 30
0.0
 11
2.7375995731816261
 21
4.4999999999999432
 31
0.0
  0
ARC
  5
478
  8
外形線
 10
-4.0100000000026617
 20
2.5999999999995111
 30
0.0
 40
7.0100000000027221
 50
338.22894589069568
 51
15.726243792790671
  0
ARC
  5
479
  8
外形線
 10
-4.0100000000026617
 20
-2.5999999999995111
 30
0.0
 40
7.0100000000027221
 50
344.27375620720881
 51
21.771054109304352
  0
LINE
  5
47A
  8
外形線
 10
0.0000000000001705
 20
-4.5
 30
0.0
 11
2.7375995731815692
 21
-4.5
 31
0.0
  0
ENDBLK
  5
47C
  8
0
  0
BLOCK
  8
0
  2
*D8
 70
     1
 10
0.0
 20
0.0
 30
0.0
  3
*D8
  1

  0
LINE
  5
907
  8
外形線
 62
     2
 10
391.03103453605308
 20
255.67533492553619
 30
0.0
 11
392.71716074025511
 21
255.67533492553619
 31
0.0
  0
LINE
  5
908
  8
外形線
 62
     2
 10
390.88565913465243
 20
245.67533492553611
 30
0.0
 11
392.71716074025511
 21
245.67533492553611
 31
0.0
  0
LINE
  5
909
  8
外形線
 62
     2
 10
391.46716074025511
 20
253.17533492553619
 30
0.0
 11
391.46716074025511
 21
248.17533492553619
 31
0.0
  0
INSERT
  5
90A
  8
外形線
 62
     2
  2
_OPEN
 10
391.46716074025511
 20
255.67533492553619
 30
0.0
 41
2.5
 42
2.5
 43
2.5
 50
90.0
  0
INSERT
  5
90B
  8
外形線
 62
     2
  2
_OPEN
 10
391.46716074025511
 20
245.67533492553611
 30
0.0
 41
2.5
 42
2.5
 43
2.5
 50
270.0
  0
INSERT
  5
90C
  8
外形線
  2
*U16
 10
0.0
 20
0.0
 30
0.0
  0
POINT
  5
90D
  8
DEFPOINTS
 62
     0
 10
391.03103453605308
 20
255.67533492553619
 30
0.0
  0
POINT
  5
90E
  8
DEFPOINTS
 62
     0
 10
390.88565913465243
 20
245.67533492553611
 30
0.0
  0
POINT
  5
90F
  8
DEFPOINTS
 62
     0
 10
391.46716074025511
 20
245.67533492553611
 30
0.0
  0
ENDBLK
  5
51B
  8
0
  0
BLOCK
  8
0
  2
*X12
 70
     1
 10
0.0
 20
0.0
 30
0.0
  3
*X12
  1

  0
LINE
  5
96C
  8
0
 62
     0
 10
337.80238365424492
 20
241.25070599985321
 30
0.0
 11
337.80238365424492
 21
241.25070599985321
 31
0.0
  0
LINE
  5
96D
  8
0
 62
     0
 10
337.16738365424487
 20
241.25070599985321
 30
0.0
 11
337.16738365424487
 21
241.25070599985321
 31
0.0
  0
LINE
  5
96E
  8
0
 62
     0
 10
336.532383654245
 20
241.25070599985321
 30
0.0
 11
336.532383654245
 21
241.25070599985321
 31
0.0
  0
LINE
  5
96F
  8
0
 62
     0
 10
335.897383654245
 20
241.25070599985321
 30
0.0
 11
335.897383654245
 21
241.25070599985321
 31
0.0
  0
LINE
  5
970
  8
0
 62
     0
 10
335.2623836542449
 20
241.25070599985321
 30
0.0
 11
335.2623836542449
 21
241.25070599985321
 31
0.0
  0
LINE
  5
971
  8
0
 62
     0
 10
334.62738365424502
 20
241.25070599985321
 30
0.0
 11
334.62738365424502
 21
241.25070599985321
 31
0.0
  0
LINE
  5
972
  8
0
 62
     0
 10
333.99238365424497
 20
241.25070599985321
 30
0.0
 11
333.99238365424497
 21
241.25070599985321
 31
0.0
  0
LINE
  5
973
  8
0
 62
     0
 10
333.35738365424498
 20
241.25070599985321
 30
0.0
 11
333.35738365424498
 21
241.25070599985321
 31
0.0
  0
LINE
  5
974
  8
0
 62
     0
 10
332.72238365424499
 20
241.25070599985321
 30
0.0
 11
332.72238365424499
 21
241.25070599985321
 31
0.0
  0
LINE
  5
975
  8
0
 62
     0
 10
332.087383654245
 20
241.25070599985321
 30
0.0
 11
332.087383654245
 21
241.25070599985321
 31
0.0
  0
LINE
  5
976
  8
0
 62
     0
 10
331.45238365424501
 20
241.25070599985321
 30
0.0
 11
331.45238365424501
 21
241.25070599985321
 31
0.0
  0
LINE
  5
977
  8
0
 62
     0
 10
330.81738365424502
 20
241.25070599985321
 30
0.0
 11
330.81738365424502
 21
241.25070599985321
 31
0.0
  0
LINE
  5
978
  8
0
 62
     0
 10
330.18238365424497
 20
241.25070599985321
 30
0.0
 11
330.18238365424497
 21
241.25070599985321
 31
0.0
  0
LINE
  5
979
  8
0
 62
     0
 10
361.29738365424492
 20
241.25070599985321
 30
0.0
 11
361.29738365424492
 21
241.25070599985321
 31
0.0
  0
LINE
  5
97A
  8
0
 62
     0
 10
360.66238365424488
 20
241.25070599985321
 30
0.0
 11
360.66238365424488
 21
241.25070599985321
 31
0.0
  0
LINE
  5
97B
  8
0
 62
     0
 10
360.02738365424489
 20
241.25070599985321
 30
0.0
 11
360.02738365424489
 21
241.25070599985321
 31
0.0
  0
LINE
  5
97C
  8
0
 62
     0
 10
359.3923836542449
 20
241.25070599985321
 30
0.0
 11
359.3923836542449
 21
241.25070599985321
 31
0.0
  0
LINE
  5
97D
  8
0
 62
     0
 10
358.7573836542449
 20
241.25070599985321
 30
0.0
 11
358.7573836542449
 21
241.25070599985321
 31
0.0
  0
LINE
  5
97E
  8
0
 62
     0
 10
358.12238365424491
 20
241.25070599985321
 30
0.0
 11
358.12238365424491
 21
241.25070599985321
 31
0.0
  0
LINE
  5
97F
  8
0
 62
     0
 10
357.48738365424492
 20
241.25070599985321
 30
0.0
 11
357.48738365424492
 21
241.25070599985321
 31
0.0
  0
LINE
  5
980
  8
0
 62
     0
 10
356.85238365424487
 20
241.25070599985321
 30
0.0
 11
356.85238365424487
 21
241.25070599985321
 31
0.0
  0
LINE
  5
981
  8
0
 62
     0
 10
356.217383654245
 20
241.25070599985321
 30
0.0
 11
356.217383654245
 21
241.25070599985321
 31
0.0
  0
LINE
  5
982
  8
0
 62
     0
 10
355.58238365424501
 20
241.25070599985321
 30
0.0
 11
355.58238365424501
 21
241.25070599985321
 31
0.0
  0
LINE
  5
983
  8
0
 62
     0
 10
354.94738365424502
 20
241.25070599985321
 30
0.0
 11
354.94738365424502
 21
241.25070599985321
 31
0.0
  0
LINE
  5
984
  8
0
 62
     0
 10
354.31238365424502
 20
241.25070599985321
 30
0.0
 11
354.31238365424502
 21
241.25070599985321
 31
0.0
  0
LINE
  5
985
  8
0
 62
     0
 10
353.67738365424498
 20
241.25070599985321
 30
0.0
 11
353.67738365424498
 21
241.25070599985321
 31
0.0
  0
LINE
  5
986
  8
0
 62
     0
 10
353.04238365424499
 20
241.25070599985321
 30
0.0
 11
353.04238365424499
 21
241.25070599985321
 31
0.0
  0
LINE
  5
987
  8
0
 62
     0
 10
352.407383654245
 20
241.25070599985321
 30
0.0
 11
352.407383654245
 21
241.25070599985321
 31
0.0
  0
LINE
  5
988
  8
0
 62
     0
 10
351.772383654245
 20
241.25070599985321
 30
0.0
 11
351.772383654245
 21
241.25070599985321
 31
0.0
  0
LINE
  5
989
  8
0
 62
     0
 10
351.13738365424501
 20
241.25070599985321
 30
0.0
 11
351.13738365424501
 21
241.25070599985321
 31
0.0
  0
LINE
  5
98A
  8
0
 62
     0
 10
350.50238365424502
 20
241.25070599985321
 30
0.0
 11
350.50238365424502
 21
241.25070599985321
 31
0.0
  0
LINE
  5
98B
  8
0
 62
     0
 10
349.86738365424509
 20
241.25070599985321
 30
0.0
 11
349.86738365424509
 21
241.25070599985321
 31
0.0
  0
LINE
  5
98C
  8
0
 62
     0
 10
349.23238365424498
 20
241.25070599985321
 30
0.0
 11
349.23238365424498
 21
241.25070599985321
 31
0.0
  0
LINE
  5
98D
  8
0
 62
     0
 10
348.59738365424499
 20
241.25070599985321
 30
0.0
 11
348.59738365424499
 21
241.25070599985321
 31
0.0
  0
LINE
  5
98E
  8
0
 62
     0
 10
347.962383654245
 20
241.25070599985321
 30
0.0
 11
347.962383654245
 21
241.25070599985321
 31
0.0
  0
LINE
  5
98F
  8
0
 62
     0
 10
325.73738365424498
 20
241.25070599985321
 30
0.0
 11
325.73738365424498
 21
241.25070599985321
 31
0.0
  0
LINE
  5
990
  8
0
 62
     0
 10
325.10238365424499
 20
241.25070599985321
 30
0.0
 11
325.10238365424499
 21
241.25070599985321
 31
0.0
  0
LINE
  5
991
  8
0
 62
     0
 10
324.46738365424511
 20
241.25070599985321
 30
0.0
 11
324.46738365424511
 21
241.25070599985321
 31
0.0
  0
LINE
  5
992
  8
0
 62
     0
 10
337.48488365424492
 20
241.8857059998532
 30
0.0
 11
337.48488365424492
 21
241.8857059998532
 31
0.0
  0
LINE
  5
993
  8
0
 62
     0
 10
336.84988365424488
 20
241.8857059998532
 30
0.0
 11
336.84988365424488
 21
241.8857059998532
 31
0.0
  0
LINE
  5
994
  8
0
 62
     0
 10
336.21488365424489
 20
241.8857059998532
 30
0.0
 11
336.21488365424489
 21
241.8857059998532
 31
0.0
  0
LINE
  5
995
  8
0
 62
     0
 10
335.57988365424501
 20
241.8857059998532
 30
0.0
 11
335.57988365424501
 21
241.8857059998532
 31
0.0
  0
LINE
  5
996
  8
0
 62
     0
 10
334.94488365424502
 20
241.8857059998532
 30
0.0
 11
334.94488365424502
 21
241.8857059998532
 31
0.0
  0
LINE
  5
997
  8
0
 62
     0
 10
334.30988365424503
 20
241.8857059998532
 30
0.0
 11
334.30988365424503
 21
241.8857059998532
 31
0.0
  0
LINE
  5
998
  8
0
 62
     0
 10
333.67488365424498
 20
241.8857059998532
 30
0.0
 11
333.67488365424498
 21
241.8857059998532
 31
0.0
  0
LINE
  5
999
  8
0
 62
     0
 10
333.03988365424499
 20
241.8857059998532
 30
0.0
 11
333.03988365424499
 21
241.8857059998532
 31
0.0
  0
LINE
  5
99A
  8
0
 62
     0
 10
332.404883654245
 20
241.8857059998532
 30
0.0
 11
332.404883654245
 21
241.8857059998532
 31
0.0
  0
LINE
  5
99B
  8
0
 62
     0
 10
331.76988365424501
 20
241.8857059998532
 30
0.0
 11
331.76988365424501
 21
241.8857059998532
 31
0.0
  0
LINE
  5
99C
  8
0
 62
     0
 10
331.13488365424502
 20
241.8857059998532
 30
0.0
 11
331.13488365424502
 21
241.8857059998532
 31
0.0
  0
LINE
  5
99D
  8
0
 62
     0
 10
330.49988365424502
 20
241.8857059998532
 30
0.0
 11
330.49988365424502
 21
241.8857059998532
 31
0.0
  0
LINE
  5
99E
  8
0
 62
     0
 10
329.86488365424498
 20
241.8857059998532
 30
0.0
 11
329.86488365424498
 21
241.8857059998532
 31
0.0
  0
LINE
  5
99F
  8
0
 62
     0
 10
367.32988365424478
 20
241.8857059998532
 30
0.0
 11
367.32988365424478
 21
241.8857059998532
 31
0.0
  0
LINE
  5
9A0
  8
0
 62
     0
 10
366.69488365424479
 20
241.8857059998532
 30
0.0
 11
366.69488365424479
 21
241.8857059998532
 31
0.0
  0
LINE
  5
9A1
  8
0
 62
     0
 10
366.0598836542448
 20
241.8857059998532
 30
0.0
 11
366.0598836542448
 21
241.8857059998532
 31
0.0
  0
LINE
  5
9A2
  8
0
 62
     0
 10
365.42488365424481
 20
241.8857059998532
 30
0.0
 11
365.42488365424481
 21
241.8857059998532
 31
0.0
  0
LINE
  5
9A3
  8
0
 62
     0
 10
364.78988365424482
 20
241.8857059998532
 30
0.0
 11
364.78988365424482
 21
241.8857059998532
 31
0.0
  0
LINE
  5
9A4
  8
0
 62
     0
 10
364.15488365424483
 20
241.8857059998532
 30
0.0
 11
364.15488365424483
 21
241.8857059998532
 31
0.0
  0
LINE
  5
9A5
  8
0
 62
     0
 10
363.51988365424489
 20
241.8857059998532
 30
0.0
 11
363.51988365424489
 21
241.8857059998532
 31
0.0
  0
LINE
  5
9A6
  8
0
 62
     0
 10
362.8848836542449
 20
241.8857059998532
 30
0.0
 11
362.8848836542449
 21
241.8857059998532
 31
0.0
  0
LINE
  5
9A7
  8
0
 62
     0
 10
362.2498836542448
 20
241.8857059998532
 30
0.0
 11
362.2498836542448
 21
241.8857059998532
 31
0.0
  0
LINE
  5
9A8
  8
0
 62
     0
 10
361.61488365424492
 20
241.8857059998532
 30
0.0
 11
361.61488365424492
 21
241.8857059998532
 31
0.0
  0
LINE
  5
9A9
  8
0
 62
     0
 10
360.97988365424487
 20
241.8857059998532
 30
0.0
 11
360.97988365424487
 21
241.8857059998532
 31
0.0
  0
LINE
  5
9AA
  8
0
 62
     0
 10
360.34488365424488
 20
241.8857059998532
 30
0.0
 11
360.34488365424488
 21
241.8857059998532
 31
0.0
  0
LINE
  5
9AB
  8
0
 62
     0
 10
359.70988365424489
 20
241.8857059998532
 30
0.0
 11
359.70988365424489
 21
241.8857059998532
 31
0.0
  0
LINE
  5
9AC
  8
0
 62
     0
 10
359.0748836542449
 20
241.8857059998532
 30
0.0
 11
359.0748836542449
 21
241.8857059998532
 31
0.0
  0
LINE
  5
9AD
  8
0
 62
     0
 10
358.43988365424491
 20
241.8857059998532
 30
0.0
 11
358.43988365424491
 21
241.8857059998532
 31
0.0
  0
LINE
  5
9AE
  8
0
 62
     0
 10
357.80488365424492
 20
241.8857059998532
 30
0.0
 11
357.80488365424492
 21
241.8857059998532
 31
0.0
  0
LINE
  5
9AF
  8
0
 62
     0
 10
357.16988365424493
 20
241.8857059998532
 30
0.0
 11
357.16988365424493
 21
241.8857059998532
 31
0.0
  0
LINE
  5
9B0
  8
0
 62
     0
 10
356.53488365424488
 20
241.8857059998532
 30
0.0
 11
356.53488365424488
 21
241.8857059998532
 31
0.0
  0
LINE
  5
9B1
  8
0
 62
     0
 10
355.89988365424489
 20
241.8857059998532
 30
0.0
 11
355.89988365424489
 21
241.8857059998532
 31
0.0
  0
LINE
  5
9B2
  8
0
 62
     0
 10
355.26488365424501
 20
241.8857059998532
 30
0.0
 11
355.26488365424501
 21
241.8857059998532
 31
0.0
  0
LINE
  5
9B3
  8
0
 62
     0
 10
354.62988365424502
 20
241.8857059998532
 30
0.0
 11
354.62988365424502
 21
241.8857059998532
 31
0.0
  0
LINE
  5
9B4
  8
0
 62
     0
 10
353.99488365424497
 20
241.8857059998532
 30
0.0
 11
353.99488365424497
 21
241.8857059998532
 31
0.0
  0
LINE
  5
9B5
  8
0
 62
     0
 10
353.35988365424498
 20
241.8857059998532
 30
0.0
 11
353.35988365424498
 21
241.8857059998532
 31
0.0
  0
LINE
  5
9B6
  8
0
 62
     0
 10
352.72488365424499
 20
241.8857059998532
 30
0.0
 11
352.72488365424499
 21
241.8857059998532
 31
0.0
  0
LINE
  5
9B7
  8
0
 62
     0
 10
352.089883654245
 20
241.8857059998532
 30
0.0
 11
352.089883654245
 21
241.8857059998532
 31
0.0
  0
LINE
  5
9B8
  8
0
 62
     0
 10
351.45488365424501
 20
241.8857059998532
 30
0.0
 11
351.45488365424501
 21
241.8857059998532
 31
0.0
  0
LINE
  5
9B9
  8
0
 62
     0
 10
350.81988365424502
 20
241.8857059998532
 30
0.0
 11
350.81988365424502
 21
241.8857059998532
 31
0.0
  0
LINE
  5
9BA
  8
0
 62
     0
 10
350.18488365424503
 20
241.8857059998532
 30
0.0
 11
350.18488365424503
 21
241.8857059998532
 31
0.0
  0
LINE
  5
9BB
  8
0
 62
     0
 10
349.54988365424498
 20
241.8857059998532
 30
0.0
 11
349.54988365424498
 21
241.8857059998532
 31
0.0
  0
LINE
  5
9BC
  8
0
 62
     0
 10
348.9148836542451
 20
241.8857059998532
 30
0.0
 11
348.9148836542451
 21
241.8857059998532
 31
0.0
  0
LINE
  5
9BD
  8
0
 62
     0
 10
348.27988365424511
 20
241.8857059998532
 30
0.0
 11
348.27988365424511
 21
241.8857059998532
 31
0.0
  0
LINE
  5
9BE
  8
0
 62
     0
 10
326.05488365424492
 20
241.8857059998532
 30
0.0
 11
326.05488365424492
 21
241.8857059998532
 31
0.0
  0
LINE
  5
9BF
  8
0
 62
     0
 10
325.41988365424493
 20
241.8857059998532
 30
0.0
 11
325.41988365424493
 21
241.8857059998532
 31
0.0
  0
LINE
  5
9C0
  8
0
 62
     0
 10
324.78488365424488
 20
241.8857059998532
 30
0.0
 11
324.78488365424488
 21
241.8857059998532
 31
0.0
  0
LINE
  5
9C1
  8
0
 62
     0
 10
324.14988365424489
 20
241.8857059998532
 30
0.0
 11
324.14988365424489
 21
241.8857059998532
 31
0.0
  0
LINE
  5
9C2
  8
0
 62
     0
 10
323.51488365424501
 20
241.8857059998532
 30
0.0
 11
323.51488365424501
 21
241.8857059998532
 31
0.0
  0
LINE
  5
9C3
  8
0
 62
     0
 10
322.87988365424502
 20
241.8857059998532
 30
0.0
 11
322.87988365424502
 21
241.8857059998532
 31
0.0
  0
LINE
  5
9C4
  8
0
 62
     0
 10
322.24488365424497
 20
241.8857059998532
 30
0.0
 11
322.24488365424497
 21
241.8857059998532
 31
0.0
  0
LINE
  5
9C5
  8
0
 62
     0
 10
321.60988365424498
 20
241.8857059998532
 30
0.0
 11
321.60988365424498
 21
241.8857059998532
 31
0.0
  0
LINE
  5
9C6
  8
0
 62
     0
 10
320.97488365424499
 20
241.8857059998532
 30
0.0
 11
320.97488365424499
 21
241.8857059998532
 31
0.0
  0
LINE
  5
9C7
  8
0
 62
     0
 10
320.339883654245
 20
241.8857059998532
 30
0.0
 11
320.339883654245
 21
241.8857059998532
 31
0.0
  0
LINE
  5
9C8
  8
0
 62
     0
 10
319.70488365424501
 20
241.8857059998532
 30
0.0
 11
319.70488365424501
 21
241.8857059998532
 31
0.0
  0
LINE
  5
9C9
  8
0
 62
     0
 10
319.06988365424502
 20
241.8857059998532
 30
0.0
 11
319.06988365424502
 21
241.8857059998532
 31
0.0
  0
LINE
  5
9CA
  8
0
 62
     0
 10
318.43488365424503
 20
241.8857059998532
 30
0.0
 11
318.43488365424503
 21
241.8857059998532
 31
0.0
  0
LINE
  5
9CB
  8
0
 62
     0
 10
337.80238365424492
 20
242.52070599985319
 30
0.0
 11
337.80238365424492
 21
242.52070599985319
 31
0.0
  0
LINE
  5
9CC
  8
0
 62
     0
 10
337.16738365424487
 20
242.52070599985319
 30
0.0
 11
337.16738365424487
 21
242.52070599985319
 31
0.0
  0
LINE
  5
9CD
  8
0
 62
     0
 10
336.532383654245
 20
242.52070599985319
 30
0.0
 11
336.532383654245
 21
242.52070599985319
 31
0.0
  0
LINE
  5
9CE
  8
0
 62
     0
 10
335.897383654245
 20
242.52070599985319
 30
0.0
 11
335.897383654245
 21
242.52070599985319
 31
0.0
  0
LINE
  5
9CF
  8
0
 62
     0
 10
335.2623836542449
 20
242.52070599985319
 30
0.0
 11
335.2623836542449
 21
242.52070599985319
 31
0.0
  0
LINE
  5
9D0
  8
0
 62
     0
 10
334.62738365424502
 20
242.52070599985319
 30
0.0
 11
334.62738365424502
 21
242.52070599985319
 31
0.0
  0
LINE
  5
9D1
  8
0
 62
     0
 10
333.99238365424497
 20
242.52070599985319
 30
0.0
 11
333.99238365424497
 21
242.52070599985319
 31
0.0
  0
LINE
  5
9D2
  8
0
 62
     0
 10
333.35738365424498
 20
242.52070599985319
 30
0.0
 11
333.35738365424498
 21
242.52070599985319
 31
0.0
  0
LINE
  5
9D3
  8
0
 62
     0
 10
332.72238365424499
 20
242.52070599985319
 30
0.0
 11
332.72238365424499
 21
242.52070599985319
 31
0.0
  0
LINE
  5
9D4
  8
0
 62
     0
 10
332.087383654245
 20
242.52070599985319
 30
0.0
 11
332.087383654245
 21
242.52070599985319
 31
0.0
  0
LINE
  5
9D5
  8
0
 62
     0
 10
331.45238365424501
 20
242.52070599985319
 30
0.0
 11
331.45238365424501
 21
242.52070599985319
 31
0.0
  0
LINE
  5
9D6
  8
0
 62
     0
 10
330.81738365424502
 20
242.52070599985319
 30
0.0
 11
330.81738365424502
 21
242.52070599985319
 31
0.0
  0
LINE
  5
9D7
  8
0
 62
     0
 10
330.18238365424497
 20
242.52070599985319
 30
0.0
 11
330.18238365424497
 21
242.52070599985319
 31
0.0
  0
LINE
  5
9D8
  8
0
 62
     0
 10
329.54738365424498
 20
242.52070599985319
 30
0.0
 11
329.54738365424498
 21
242.52070599985319
 31
0.0
  0
LINE
  5
9D9
  8
0
 62
     0
 10
328.91238365424499
 20
242.52070599985319
 30
0.0
 11
328.91238365424499
 21
242.52070599985319
 31
0.0
  0
LINE
  5
9DA
  8
0
 62
     0
 10
328.27738365424511
 20
242.52070599985319
 30
0.0
 11
328.27738365424511
 21
242.52070599985319
 31
0.0
  0
LINE
  5
9DB
  8
0
 62
     0
 10
367.64738365424478
 20
242.52070599985319
 30
0.0
 11
367.64738365424478
 21
242.52070599985319
 31
0.0
  0
LINE
  5
9DC
  8
0
 62
     0
 10
367.01238365424479
 20
242.52070599985319
 30
0.0
 11
367.01238365424479
 21
242.52070599985319
 31
0.0
  0
LINE
  5
9DD
  8
0
 62
     0
 10
366.3773836542448
 20
242.52070599985319
 30
0.0
 11
366.3773836542448
 21
242.52070599985319
 31
0.0
  0
LINE
  5
9DE
  8
0
 62
     0
 10
365.7423836542448
 20
242.52070599985319
 30
0.0
 11
365.7423836542448
 21
242.52070599985319
 31
0.0
  0
LINE
  5
9DF
  8
0
 62
     0
 10
365.10738365424481
 20
242.52070599985319
 30
0.0
 11
365.10738365424481
 21
242.52070599985319
 31
0.0
  0
LINE
  5
9E0
  8
0
 62
     0
 10
364.47238365424482
 20
242.52070599985319
 30
0.0
 11
364.47238365424482
 21
242.52070599985319
 31
0.0
  0
LINE
  5
9E1
  8
0
 62
     0
 10
363.83738365424477
 20
242.52070599985319
 30
0.0
 11
363.83738365424477
 21
242.52070599985319
 31
0.0
  0
LINE
  5
9E2
  8
0
 62
     0
 10
363.20238365424478
 20
242.52070599985319
 30
0.0
 11
363.20238365424478
 21
242.52070599985319
 31
0.0
  0
LINE
  5
9E3
  8
0
 62
     0
 10
362.56738365424491
 20
242.52070599985319
 30
0.0
 11
362.56738365424491
 21
242.52070599985319
 31
0.0
  0
LINE
  5
9E4
  8
0
 62
     0
 10
361.93238365424492
 20
242.52070599985319
 30
0.0
 11
361.93238365424492
 21
242.52070599985319
 31
0.0
  0
LINE
  5
9E5
  8
0
 62
     0
 10
361.29738365424492
 20
242.52070599985319
 30
0.0
 11
361.29738365424492
 21
242.52070599985319
 31
0.0
  0
LINE
  5
9E6
  8
0
 62
     0
 10
360.66238365424488
 20
242.52070599985319
 30
0.0
 11
360.66238365424488
 21
242.52070599985319
 31
0.0
  0
LINE
  5
9E7
  8
0
 62
     0
 10
360.02738365424489
 20
242.52070599985319
 30
0.0
 11
360.02738365424489
 21
242.52070599985319
 31
0.0
  0
LINE
  5
9E8
  8
0
 62
     0
 10
359.3923836542449
 20
242.52070599985319
 30
0.0
 11
359.3923836542449
 21
242.52070599985319
 31
0.0
  0
LINE
  5
9E9
  8
0
 62
     0
 10
358.7573836542449
 20
242.52070599985319
 30
0.0
 11
358.7573836542449
 21
242.52070599985319
 31
0.0
  0
LINE
  5
9EA
  8
0
 62
     0
 10
358.12238365424491
 20
242.52070599985319
 30
0.0
 11
358.12238365424491
 21
242.52070599985319
 31
0.0
  0
LINE
  5
9EB
  8
0
 62
     0
 10
357.48738365424492
 20
242.52070599985319
 30
0.0
 11
357.48738365424492
 21
242.52070599985319
 31
0.0
  0
LINE
  5
9EC
  8
0
 62
     0
 10
356.85238365424487
 20
242.52070599985319
 30
0.0
 11
356.85238365424487
 21
242.52070599985319
 31
0.0
  0
LINE
  5
9ED
  8
0
 62
     0
 10
356.217383654245
 20
242.52070599985319
 30
0.0
 11
356.217383654245
 21
242.52070599985319
 31
0.0
  0
LINE
  5
9EE
  8
0
 62
     0
 10
355.58238365424501
 20
242.52070599985319
 30
0.0
 11
355.58238365424501
 21
242.52070599985319
 31
0.0
  0
LINE
  5
9EF
  8
0
 62
     0
 10
354.94738365424502
 20
242.52070599985319
 30
0.0
 11
354.94738365424502
 21
242.52070599985319
 31
0.0
  0
LINE
  5
9F0
  8
0
 62
     0
 10
354.31238365424502
 20
242.52070599985319
 30
0.0
 11
354.31238365424502
 21
242.52070599985319
 31
0.0
  0
LINE
  5
9F1
  8
0
 62
     0
 10
353.67738365424498
 20
242.52070599985319
 30
0.0
 11
353.67738365424498
 21
242.52070599985319
 31
0.0
  0
LINE
  5
9F2
  8
0
 62
     0
 10
353.04238365424499
 20
242.52070599985319
 30
0.0
 11
353.04238365424499
 21
242.52070599985319
 31
0.0
  0
LINE
  5
9F3
  8
0
 62
     0
 10
352.407383654245
 20
242.52070599985319
 30
0.0
 11
352.407383654245
 21
242.52070599985319
 31
0.0
  0
LINE
  5
9F4
  8
0
 62
     0
 10
351.772383654245
 20
242.52070599985319
 30
0.0
 11
351.772383654245
 21
242.52070599985319
 31
0.0
  0
LINE
  5
9F5
  8
0
 62
     0
 10
351.13738365424501
 20
242.52070599985319
 30
0.0
 11
351.13738365424501
 21
242.52070599985319
 31
0.0
  0
LINE
  5
9F6
  8
0
 62
     0
 10
350.50238365424502
 20
242.52070599985319
 30
0.0
 11
350.50238365424502
 21
242.52070599985319
 31
0.0
  0
LINE
  5
9F7
  8
0
 62
     0
 10
349.86738365424509
 20
242.52070599985319
 30
0.0
 11
349.86738365424509
 21
242.52070599985319
 31
0.0
  0
LINE
  5
9F8
  8
0
 62
     0
 10
349.23238365424498
 20
242.52070599985319
 30
0.0
 11
349.23238365424498
 21
242.52070599985319
 31
0.0
  0
LINE
  5
9F9
  8
0
 62
     0
 10
348.59738365424499
 20
242.52070599985319
 30
0.0
 11
348.59738365424499
 21
242.52070599985319
 31
0.0
  0
LINE
  5
9FA
  8
0
 62
     0
 10
347.962383654245
 20
242.52070599985319
 30
0.0
 11
347.962383654245
 21
242.52070599985319
 31
0.0
  0
LINE
  5
9FB
  8
0
 62
     0
 10
327.6423836542449
 20
242.52070599985319
 30
0.0
 11
327.6423836542449
 21
242.52070599985319
 31
0.0
  0
LINE
  5
9FC
  8
0
 62
     0
 10
327.0073836542449
 20
242.52070599985319
 30
0.0
 11
327.0073836542449
 21
242.52070599985319
 31
0.0
  0
LINE
  5
9FD
  8
0
 62
     0
 10
326.37238365424491
 20
242.52070599985319
 30
0.0
 11
326.37238365424491
 21
242.52070599985319
 31
0.0
  0
LINE
  5
9FE
  8
0
 62
     0
 10
325.73738365424492
 20
242.52070599985319
 30
0.0
 11
325.73738365424492
 21
242.52070599985319
 31
0.0
  0
LINE
  5
9FF
  8
0
 62
     0
 10
325.10238365424487
 20
242.52070599985319
 30
0.0
 11
325.10238365424487
 21
242.52070599985319
 31
0.0
  0
LINE
  5
A00
  8
0
 62
     0
 10
324.467383654245
 20
242.52070599985319
 30
0.0
 11
324.467383654245
 21
242.52070599985319
 31
0.0
  0
LINE
  5
A01
  8
0
 62
     0
 10
323.83238365424489
 20
242.52070599985319
 30
0.0
 11
323.83238365424489
 21
242.52070599985319
 31
0.0
  0
LINE
  5
A02
  8
0
 62
     0
 10
323.1973836542449
 20
242.52070599985319
 30
0.0
 11
323.1973836542449
 21
242.52070599985319
 31
0.0
  0
LINE
  5
A03
  8
0
 62
     0
 10
322.56238365424502
 20
242.52070599985319
 30
0.0
 11
322.56238365424502
 21
242.52070599985319
 31
0.0
  0
LINE
  5
A04
  8
0
 62
     0
 10
321.92738365424498
 20
242.52070599985319
 30
0.0
 11
321.92738365424498
 21
242.52070599985319
 31
0.0
  0
LINE
  5
A05
  8
0
 62
     0
 10
321.29238365424499
 20
242.52070599985319
 30
0.0
 11
321.29238365424499
 21
242.52070599985319
 31
0.0
  0
LINE
  5
A06
  8
0
 62
     0
 10
320.657383654245
 20
242.52070599985319
 30
0.0
 11
320.657383654245
 21
242.52070599985319
 31
0.0
  0
LINE
  5
A07
  8
0
 62
     0
 10
320.022383654245
 20
242.52070599985319
 30
0.0
 11
320.022383654245
 21
242.52070599985319
 31
0.0
  0
LINE
  5
A08
  8
0
 62
     0
 10
319.38738365424501
 20
242.52070599985319
 30
0.0
 11
319.38738365424501
 21
242.52070599985319
 31
0.0
  0
LINE
  5
A09
  8
0
 62
     0
 10
318.75238365424502
 20
242.52070599985319
 30
0.0
 11
318.75238365424502
 21
242.52070599985319
 31
0.0
  0
LINE
  5
A0A
  8
0
 62
     0
 10
318.11738365424497
 20
242.52070599985319
 30
0.0
 11
318.11738365424497
 21
242.52070599985319
 31
0.0
  0
LINE
  5
A0B
  8
0
 62
     0
 10
367.32988365424478
 20
243.15570599985321
 30
0.0
 11
367.32988365424478
 21
243.15570599985321
 31
0.0
  0
LINE
  5
A0C
  8
0
 62
     0
 10
366.69488365424479
 20
243.15570599985321
 30
0.0
 11
366.69488365424479
 21
243.15570599985321
 31
0.0
  0
LINE
  5
A0D
  8
0
 62
     0
 10
366.0598836542448
 20
243.15570599985321
 30
0.0
 11
366.0598836542448
 21
243.15570599985321
 31
0.0
  0
LINE
  5
A0E
  8
0
 62
     0
 10
365.42488365424481
 20
243.15570599985321
 30
0.0
 11
365.42488365424481
 21
243.15570599985321
 31
0.0
  0
LINE
  5
A0F
  8
0
 62
     0
 10
364.78988365424482
 20
243.15570599985321
 30
0.0
 11
364.78988365424482
 21
243.15570599985321
 31
0.0
  0
LINE
  5
A10
  8
0
 62
     0
 10
364.15488365424483
 20
243.15570599985321
 30
0.0
 11
364.15488365424483
 21
243.15570599985321
 31
0.0
  0
LINE
  5
A11
  8
0
 62
     0
 10
363.51988365424489
 20
243.15570599985321
 30
0.0
 11
363.51988365424489
 21
243.15570599985321
 31
0.0
  0
LINE
  5
A12
  8
0
 62
     0
 10
362.8848836542449
 20
243.15570599985321
 30
0.0
 11
362.8848836542449
 21
243.15570599985321
 31
0.0
  0
LINE
  5
A13
  8
0
 62
     0
 10
362.2498836542448
 20
243.15570599985321
 30
0.0
 11
362.2498836542448
 21
243.15570599985321
 31
0.0
  0
LINE
  5
A14
  8
0
 62
     0
 10
361.61488365424492
 20
243.15570599985321
 30
0.0
 11
361.61488365424492
 21
243.15570599985321
 31
0.0
  0
LINE
  5
A15
  8
0
 62
     0
 10
360.97988365424487
 20
243.15570599985321
 30
0.0
 11
360.97988365424487
 21
243.15570599985321
 31
0.0
  0
LINE
  5
A16
  8
0
 62
     0
 10
360.34488365424488
 20
243.15570599985321
 30
0.0
 11
360.34488365424488
 21
243.15570599985321
 31
0.0
  0
LINE
  5
A17
  8
0
 62
     0
 10
359.70988365424489
 20
243.15570599985321
 30
0.0
 11
359.70988365424489
 21
243.15570599985321
 31
0.0
  0
LINE
  5
A18
  8
0
 62
     0
 10
359.0748836542449
 20
243.15570599985321
 30
0.0
 11
359.0748836542449
 21
243.15570599985321
 31
0.0
  0
LINE
  5
A19
  8
0
 62
     0
 10
358.43988365424491
 20
243.15570599985321
 30
0.0
 11
358.43988365424491
 21
243.15570599985321
 31
0.0
  0
LINE
  5
A1A
  8
0
 62
     0
 10
357.80488365424492
 20
243.15570599985321
 30
0.0
 11
357.80488365424492
 21
243.15570599985321
 31
0.0
  0
LINE
  5
A1B
  8
0
 62
     0
 10
357.16988365424493
 20
243.15570599985321
 30
0.0
 11
357.16988365424493
 21
243.15570599985321
 31
0.0
  0
LINE
  5
A1C
  8
0
 62
     0
 10
356.53488365424488
 20
243.15570599985321
 30
0.0
 11
356.53488365424488
 21
243.15570599985321
 31
0.0
  0
LINE
  5
A1D
  8
0
 62
     0
 10
355.89988365424489
 20
243.15570599985321
 30
0.0
 11
355.89988365424489
 21
243.15570599985321
 31
0.0
  0
LINE
  5
A1E
  8
0
 62
     0
 10
355.26488365424501
 20
243.15570599985321
 30
0.0
 11
355.26488365424501
 21
243.15570599985321
 31
0.0
  0
LINE
  5
A1F
  8
0
 62
     0
 10
354.62988365424502
 20
243.15570599985321
 30
0.0
 11
354.62988365424502
 21
243.15570599985321
 31
0.0
  0
LINE
  5
A20
  8
0
 62
     0
 10
353.99488365424497
 20
243.15570599985321
 30
0.0
 11
353.99488365424497
 21
243.15570599985321
 31
0.0
  0
LINE
  5
A21
  8
0
 62
     0
 10
353.35988365424498
 20
243.15570599985321
 30
0.0
 11
353.35988365424498
 21
243.15570599985321
 31
0.0
  0
LINE
  5
A22
  8
0
 62
     0
 10
352.72488365424499
 20
243.15570599985321
 30
0.0
 11
352.72488365424499
 21
243.15570599985321
 31
0.0
  0
LINE
  5
A23
  8
0
 62
     0
 10
352.089883654245
 20
243.15570599985321
 30
0.0
 11
352.089883654245
 21
243.15570599985321
 31
0.0
  0
LINE
  5
A24
  8
0
 62
     0
 10
351.45488365424501
 20
243.15570599985321
 30
0.0
 11
351.45488365424501
 21
243.15570599985321
 31
0.0
  0
LINE
  5
A25
  8
0
 62
     0
 10
350.81988365424502
 20
243.15570599985321
 30
0.0
 11
350.81988365424502
 21
243.15570599985321
 31
0.0
  0
LINE
  5
A26
  8
0
 62
     0
 10
350.18488365424503
 20
243.15570599985321
 30
0.0
 11
350.18488365424503
 21
243.15570599985321
 31
0.0
  0
LINE
  5
A27
  8
0
 62
     0
 10
349.54988365424498
 20
243.15570599985321
 30
0.0
 11
349.54988365424498
 21
243.15570599985321
 31
0.0
  0
LINE
  5
A28
  8
0
 62
     0
 10
348.9148836542451
 20
243.15570599985321
 30
0.0
 11
348.9148836542451
 21
243.15570599985321
 31
0.0
  0
LINE
  5
A29
  8
0
 62
     0
 10
348.27988365424511
 20
243.15570599985321
 30
0.0
 11
348.27988365424511
 21
243.15570599985321
 31
0.0
  0
LINE
  5
A2A
  8
0
 62
     0
 10
337.48488365424481
 20
243.15570599985321
 30
0.0
 11
337.48488365424481
 21
243.15570599985321
 31
0.0
  0
LINE
  5
A2B
  8
0
 62
     0
 10
336.84988365424471
 20
243.15570599985321
 30
0.0
 11
336.84988365424471
 21
243.15570599985321
 31
0.0
  0
LINE
  5
A2C
  8
0
 62
     0
 10
336.21488365424477
 20
243.15570599985321
 30
0.0
 11
336.21488365424477
 21
243.15570599985321
 31
0.0
  0
LINE
  5
A2D
  8
0
 62
     0
 10
335.57988365424478
 20
243.15570599985321
 30
0.0
 11
335.57988365424478
 21
243.15570599985321
 31
0.0
  0
LINE
  5
A2E
  8
0
 62
     0
 10
334.94488365424479
 20
243.15570599985321
 30
0.0
 11
334.94488365424479
 21
243.15570599985321
 31
0.0
  0
LINE
  5
A2F
  8
0
 62
     0
 10
334.3098836542448
 20
243.15570599985321
 30
0.0
 11
334.3098836542448
 21
243.15570599985321
 31
0.0
  0
LINE
  5
A30
  8
0
 62
     0
 10
333.67488365424481
 20
243.15570599985321
 30
0.0
 11
333.67488365424481
 21
243.15570599985321
 31
0.0
  0
LINE
  5
A31
  8
0
 62
     0
 10
333.03988365424482
 20
243.15570599985321
 30
0.0
 11
333.03988365424482
 21
243.15570599985321
 31
0.0
  0
LINE
  5
A32
  8
0
 62
     0
 10
332.40488365424483
 20
243.15570599985321
 30
0.0
 11
332.40488365424483
 21
243.15570599985321
 31
0.0
  0
LINE
  5
A33
  8
0
 62
     0
 10
331.76988365424478
 20
243.15570599985321
 30
0.0
 11
331.76988365424478
 21
243.15570599985321
 31
0.0
  0
LINE
  5
A34
  8
0
 62
     0
 10
331.13488365424479
 20
243.15570599985321
 30
0.0
 11
331.13488365424479
 21
243.15570599985321
 31
0.0
  0
LINE
  5
A35
  8
0
 62
     0
 10
330.4998836542448
 20
243.15570599985321
 30
0.0
 11
330.4998836542448
 21
243.15570599985321
 31
0.0
  0
LINE
  5
A36
  8
0
 62
     0
 10
329.86488365424492
 20
243.15570599985321
 30
0.0
 11
329.86488365424492
 21
243.15570599985321
 31
0.0
  0
LINE
  5
A37
  8
0
 62
     0
 10
329.22988365424487
 20
243.15570599985321
 30
0.0
 11
329.22988365424487
 21
243.15570599985321
 31
0.0
  0
LINE
  5
A38
  8
0
 62
     0
 10
328.59488365424488
 20
243.15570599985321
 30
0.0
 11
328.59488365424488
 21
243.15570599985321
 31
0.0
  0
LINE
  5
A39
  8
0
 62
     0
 10
327.95988365424489
 20
243.15570599985321
 30
0.0
 11
327.95988365424489
 21
243.15570599985321
 31
0.0
  0
LINE
  5
A3A
  8
0
 62
     0
 10
327.3248836542449
 20
243.15570599985321
 30
0.0
 11
327.3248836542449
 21
243.15570599985321
 31
0.0
  0
LINE
  5
A3B
  8
0
 62
     0
 10
326.68988365424491
 20
243.15570599985321
 30
0.0
 11
326.68988365424491
 21
243.15570599985321
 31
0.0
  0
LINE
  5
A3C
  8
0
 62
     0
 10
326.05488365424492
 20
243.15570599985321
 30
0.0
 11
326.05488365424492
 21
243.15570599985321
 31
0.0
  0
LINE
  5
A3D
  8
0
 62
     0
 10
325.41988365424493
 20
243.15570599985321
 30
0.0
 11
325.41988365424493
 21
243.15570599985321
 31
0.0
  0
LINE
  5
A3E
  8
0
 62
     0
 10
324.78488365424488
 20
243.15570599985321
 30
0.0
 11
324.78488365424488
 21
243.15570599985321
 31
0.0
  0
LINE
  5
A3F
  8
0
 62
     0
 10
324.14988365424489
 20
243.15570599985321
 30
0.0
 11
324.14988365424489
 21
243.15570599985321
 31
0.0
  0
LINE
  5
A40
  8
0
 62
     0
 10
323.51488365424501
 20
243.15570599985321
 30
0.0
 11
323.51488365424501
 21
243.15570599985321
 31
0.0
  0
LINE
  5
A41
  8
0
 62
     0
 10
322.87988365424502
 20
243.15570599985321
 30
0.0
 11
322.87988365424502
 21
243.15570599985321
 31
0.0
  0
LINE
  5
A42
  8
0
 62
     0
 10
322.24488365424497
 20
243.15570599985321
 30
0.0
 11
322.24488365424497
 21
243.15570599985321
 31
0.0
  0
LINE
  5
A43
  8
0
 62
     0
 10
321.60988365424498
 20
243.15570599985321
 30
0.0
 11
321.60988365424498
 21
243.15570599985321
 31
0.0
  0
LINE
  5
A44
  8
0
 62
     0
 10
320.97488365424499
 20
243.15570599985321
 30
0.0
 11
320.97488365424499
 21
243.15570599985321
 31
0.0
  0
LINE
  5
A45
  8
0
 62
     0
 10
320.339883654245
 20
243.15570599985321
 30
0.0
 11
320.339883654245
 21
243.15570599985321
 31
0.0
  0
LINE
  5
A46
  8
0
 62
     0
 10
319.70488365424501
 20
243.15570599985321
 30
0.0
 11
319.70488365424501
 21
243.15570599985321
 31
0.0
  0
LINE
  5
A47
  8
0
 62
     0
 10
319.06988365424502
 20
243.15570599985321
 30
0.0
 11
319.06988365424502
 21
243.15570599985321
 31
0.0
  0
LINE
  5
A48
  8
0
 62
     0
 10
318.43488365424503
 20
243.15570599985321
 30
0.0
 11
318.43488365424503
 21
243.15570599985321
 31
0.0
  0
LINE
  5
A49
  8
0
 62
     0
 10
367.64738365424478
 20
243.7907059998532
 30
0.0
 11
367.64738365424478
 21
243.7907059998532
 31
0.0
  0
LINE
  5
A4A
  8
0
 62
     0
 10
367.01238365424479
 20
243.7907059998532
 30
0.0
 11
367.01238365424479
 21
243.7907059998532
 31
0.0
  0
LINE
  5
A4B
  8
0
 62
     0
 10
366.3773836542448
 20
243.7907059998532
 30
0.0
 11
366.3773836542448
 21
243.7907059998532
 31
0.0
  0
LINE
  5
A4C
  8
0
 62
     0
 10
365.7423836542448
 20
243.7907059998532
 30
0.0
 11
365.7423836542448
 21
243.7907059998532
 31
0.0
  0
LINE
  5
A4D
  8
0
 62
     0
 10
365.10738365424481
 20
243.7907059998532
 30
0.0
 11
365.10738365424481
 21
243.7907059998532
 31
0.0
  0
LINE
  5
A4E
  8
0
 62
     0
 10
364.47238365424482
 20
243.7907059998532
 30
0.0
 11
364.47238365424482
 21
243.7907059998532
 31
0.0
  0
LINE
  5
A4F
  8
0
 62
     0
 10
363.83738365424477
 20
243.7907059998532
 30
0.0
 11
363.83738365424477
 21
243.7907059998532
 31
0.0
  0
LINE
  5
A50
  8
0
 62
     0
 10
363.20238365424478
 20
243.7907059998532
 30
0.0
 11
363.20238365424478
 21
243.7907059998532
 31
0.0
  0
LINE
  5
A51
  8
0
 62
     0
 10
362.56738365424491
 20
243.7907059998532
 30
0.0
 11
362.56738365424491
 21
243.7907059998532
 31
0.0
  0
LINE
  5
A52
  8
0
 62
     0
 10
361.93238365424492
 20
243.7907059998532
 30
0.0
 11
361.93238365424492
 21
243.7907059998532
 31
0.0
  0
LINE
  5
A53
  8
0
 62
     0
 10
361.29738365424492
 20
243.7907059998532
 30
0.0
 11
361.29738365424492
 21
243.7907059998532
 31
0.0
  0
LINE
  5
A54
  8
0
 62
     0
 10
360.66238365424488
 20
243.7907059998532
 30
0.0
 11
360.66238365424488
 21
243.7907059998532
 31
0.0
  0
LINE
  5
A55
  8
0
 62
     0
 10
360.02738365424489
 20
243.7907059998532
 30
0.0
 11
360.02738365424489
 21
243.7907059998532
 31
0.0
  0
LINE
  5
A56
  8
0
 62
     0
 10
359.3923836542449
 20
243.7907059998532
 30
0.0
 11
359.3923836542449
 21
243.7907059998532
 31
0.0
  0
LINE
  5
A57
  8
0
 62
     0
 10
358.7573836542449
 20
243.7907059998532
 30
0.0
 11
358.7573836542449
 21
243.7907059998532
 31
0.0
  0
LINE
  5
A58
  8
0
 62
     0
 10
358.12238365424491
 20
243.7907059998532
 30
0.0
 11
358.12238365424491
 21
243.7907059998532
 31
0.0
  0
LINE
  5
A59
  8
0
 62
     0
 10
357.48738365424492
 20
243.7907059998532
 30
0.0
 11
357.48738365424492
 21
243.7907059998532
 31
0.0
  0
LINE
  5
A5A
  8
0
 62
     0
 10
356.85238365424487
 20
243.7907059998532
 30
0.0
 11
356.85238365424487
 21
243.7907059998532
 31
0.0
  0
LINE
  5
A5B
  8
0
 62
     0
 10
356.217383654245
 20
243.7907059998532
 30
0.0
 11
356.217383654245
 21
243.7907059998532
 31
0.0
  0
LINE
  5
A5C
  8
0
 62
     0
 10
355.58238365424501
 20
243.7907059998532
 30
0.0
 11
355.58238365424501
 21
243.7907059998532
 31
0.0
  0
LINE
  5
A5D
  8
0
 62
     0
 10
354.94738365424502
 20
243.7907059998532
 30
0.0
 11
354.94738365424502
 21
243.7907059998532
 31
0.0
  0
LINE
  5
A5E
  8
0
 62
     0
 10
354.31238365424502
 20
243.7907059998532
 30
0.0
 11
354.31238365424502
 21
243.7907059998532
 31
0.0
  0
LINE
  5
A5F
  8
0
 62
     0
 10
353.67738365424498
 20
243.7907059998532
 30
0.0
 11
353.67738365424498
 21
243.7907059998532
 31
0.0
  0
LINE
  5
A60
  8
0
 62
     0
 10
353.04238365424499
 20
243.7907059998532
 30
0.0
 11
353.04238365424499
 21
243.7907059998532
 31
0.0
  0
LINE
  5
A61
  8
0
 62
     0
 10
352.407383654245
 20
243.7907059998532
 30
0.0
 11
352.407383654245
 21
243.7907059998532
 31
0.0
  0
LINE
  5
A62
  8
0
 62
     0
 10
351.772383654245
 20
243.7907059998532
 30
0.0
 11
351.772383654245
 21
243.7907059998532
 31
0.0
  0
LINE
  5
A63
  8
0
 62
     0
 10
351.13738365424501
 20
243.7907059998532
 30
0.0
 11
351.13738365424501
 21
243.7907059998532
 31
0.0
  0
LINE
  5
A64
  8
0
 62
     0
 10
350.50238365424502
 20
243.7907059998532
 30
0.0
 11
350.50238365424502
 21
243.7907059998532
 31
0.0
  0
LINE
  5
A65
  8
0
 62
     0
 10
349.86738365424509
 20
243.7907059998532
 30
0.0
 11
349.86738365424509
 21
243.7907059998532
 31
0.0
  0
LINE
  5
A66
  8
0
 62
     0
 10
349.23238365424498
 20
243.7907059998532
 30
0.0
 11
349.23238365424498
 21
243.7907059998532
 31
0.0
  0
LINE
  5
A67
  8
0
 62
     0
 10
348.59738365424499
 20
243.7907059998532
 30
0.0
 11
348.59738365424499
 21
243.7907059998532
 31
0.0
  0
LINE
  5
A68
  8
0
 62
     0
 10
347.962383654245
 20
243.7907059998532
 30
0.0
 11
347.962383654245
 21
243.7907059998532
 31
0.0
  0
LINE
  5
A69
  8
0
 62
     0
 10
337.80238365424469
 20
243.7907059998532
 30
0.0
 11
337.80238365424469
 21
243.7907059998532
 31
0.0
  0
LINE
  5
A6A
  8
0
 62
     0
 10
337.16738365424482
 20
243.7907059998532
 30
0.0
 11
337.16738365424482
 21
243.7907059998532
 31
0.0
  0
LINE
  5
A6B
  8
0
 62
     0
 10
336.53238365424482
 20
243.7907059998532
 30
0.0
 11
336.53238365424482
 21
243.7907059998532
 31
0.0
  0
LINE
  5
A6C
  8
0
 62
     0
 10
335.89738365424478
 20
243.7907059998532
 30
0.0
 11
335.89738365424478
 21
243.7907059998532
 31
0.0
  0
LINE
  5
A6D
  8
0
 62
     0
 10
335.26238365424479
 20
243.7907059998532
 30
0.0
 11
335.26238365424479
 21
243.7907059998532
 31
0.0
  0
LINE
  5
A6E
  8
0
 62
     0
 10
334.6273836542448
 20
243.7907059998532
 30
0.0
 11
334.6273836542448
 21
243.7907059998532
 31
0.0
  0
LINE
  5
A6F
  8
0
 62
     0
 10
333.9923836542448
 20
243.7907059998532
 30
0.0
 11
333.9923836542448
 21
243.7907059998532
 31
0.0
  0
LINE
  5
A70
  8
0
 62
     0
 10
333.35738365424481
 20
243.7907059998532
 30
0.0
 11
333.35738365424481
 21
243.7907059998532
 31
0.0
  0
LINE
  5
A71
  8
0
 62
     0
 10
332.72238365424482
 20
243.7907059998532
 30
0.0
 11
332.72238365424482
 21
243.7907059998532
 31
0.0
  0
LINE
  5
A72
  8
0
 62
     0
 10
332.08738365424477
 20
243.7907059998532
 30
0.0
 11
332.08738365424477
 21
243.7907059998532
 31
0.0
  0
LINE
  5
A73
  8
0
 62
     0
 10
331.45238365424478
 20
243.7907059998532
 30
0.0
 11
331.45238365424478
 21
243.7907059998532
 31
0.0
  0
LINE
  5
A74
  8
0
 62
     0
 10
330.81738365424491
 20
243.7907059998532
 30
0.0
 11
330.81738365424491
 21
243.7907059998532
 31
0.0
  0
LINE
  5
A75
  8
0
 62
     0
 10
330.18238365424492
 20
243.7907059998532
 30
0.0
 11
330.18238365424492
 21
243.7907059998532
 31
0.0
  0
LINE
  5
A76
  8
0
 62
     0
 10
329.54738365424492
 20
243.7907059998532
 30
0.0
 11
329.54738365424492
 21
243.7907059998532
 31
0.0
  0
LINE
  5
A77
  8
0
 62
     0
 10
328.91238365424488
 20
243.7907059998532
 30
0.0
 11
328.91238365424488
 21
243.7907059998532
 31
0.0
  0
LINE
  5
A78
  8
0
 62
     0
 10
328.27738365424489
 20
243.7907059998532
 30
0.0
 11
328.27738365424489
 21
243.7907059998532
 31
0.0
  0
LINE
  5
A79
  8
0
 62
     0
 10
327.6423836542449
 20
243.7907059998532
 30
0.0
 11
327.6423836542449
 21
243.7907059998532
 31
0.0
  0
LINE
  5
A7A
  8
0
 62
     0
 10
327.0073836542449
 20
243.7907059998532
 30
0.0
 11
327.0073836542449
 21
243.7907059998532
 31
0.0
  0
LINE
  5
A7B
  8
0
 62
     0
 10
326.37238365424491
 20
243.7907059998532
 30
0.0
 11
326.37238365424491
 21
243.7907059998532
 31
0.0
  0
LINE
  5
A7C
  8
0
 62
     0
 10
325.73738365424492
 20
243.7907059998532
 30
0.0
 11
325.73738365424492
 21
243.7907059998532
 31
0.0
  0
LINE
  5
A7D
  8
0
 62
     0
 10
325.10238365424487
 20
243.7907059998532
 30
0.0
 11
325.10238365424487
 21
243.7907059998532
 31
0.0
  0
LINE
  5
A7E
  8
0
 62
     0
 10
324.467383654245
 20
243.7907059998532
 30
0.0
 11
324.467383654245
 21
243.7907059998532
 31
0.0
  0
LINE
  5
A7F
  8
0
 62
     0
 10
323.83238365424489
 20
243.7907059998532
 30
0.0
 11
323.83238365424489
 21
243.7907059998532
 31
0.0
  0
LINE
  5
A80
  8
0
 62
     0
 10
323.1973836542449
 20
243.7907059998532
 30
0.0
 11
323.1973836542449
 21
243.7907059998532
 31
0.0
  0
LINE
  5
A81
  8
0
 62
     0
 10
322.56238365424502
 20
243.7907059998532
 30
0.0
 11
322.56238365424502
 21
243.7907059998532
 31
0.0
  0
LINE
  5
A82
  8
0
 62
     0
 10
321.92738365424498
 20
243.7907059998532
 30
0.0
 11
321.92738365424498
 21
243.7907059998532
 31
0.0
  0
LINE
  5
A83
  8
0
 62
     0
 10
321.29238365424499
 20
243.7907059998532
 30
0.0
 11
321.29238365424499
 21
243.7907059998532
 31
0.0
  0
LINE
  5
A84
  8
0
 62
     0
 10
320.657383654245
 20
243.7907059998532
 30
0.0
 11
320.657383654245
 21
243.7907059998532
 31
0.0
  0
LINE
  5
A85
  8
0
 62
     0
 10
320.022383654245
 20
243.7907059998532
 30
0.0
 11
320.022383654245
 21
243.7907059998532
 31
0.0
  0
LINE
  5
A86
  8
0
 62
     0
 10
319.38738365424501
 20
243.7907059998532
 30
0.0
 11
319.38738365424501
 21
243.7907059998532
 31
0.0
  0
LINE
  5
A87
  8
0
 62
     0
 10
318.75238365424502
 20
243.7907059998532
 30
0.0
 11
318.75238365424502
 21
243.7907059998532
 31
0.0
  0
LINE
  5
A88
  8
0
 62
     0
 10
318.11738365424497
 20
243.7907059998532
 30
0.0
 11
318.11738365424497
 21
243.7907059998532
 31
0.0
  0
LINE
  5
A89
  8
0
 62
     0
 10
367.32988365424478
 20
244.42570599985319
 30
0.0
 11
367.32988365424478
 21
244.42570599985319
 31
0.0
  0
LINE
  5
A8A
  8
0
 62
     0
 10
366.69488365424479
 20
244.42570599985319
 30
0.0
 11
366.69488365424479
 21
244.42570599985319
 31
0.0
  0
LINE
  5
A8B
  8
0
 62
     0
 10
366.0598836542448
 20
244.42570599985319
 30
0.0
 11
366.0598836542448
 21
244.42570599985319
 31
0.0
  0
LINE
  5
A8C
  8
0
 62
     0
 10
365.42488365424481
 20
244.42570599985319
 30
0.0
 11
365.42488365424481
 21
244.42570599985319
 31
0.0
  0
LINE
  5
A8D
  8
0
 62
     0
 10
364.78988365424482
 20
244.42570599985319
 30
0.0
 11
364.78988365424482
 21
244.42570599985319
 31
0.0
  0
LINE
  5
A8E
  8
0
 62
     0
 10
364.15488365424483
 20
244.42570599985319
 30
0.0
 11
364.15488365424483
 21
244.42570599985319
 31
0.0
  0
LINE
  5
A8F
  8
0
 62
     0
 10
363.51988365424489
 20
244.42570599985319
 30
0.0
 11
363.51988365424489
 21
244.42570599985319
 31
0.0
  0
LINE
  5
A90
  8
0
 62
     0
 10
362.8848836542449
 20
244.42570599985319
 30
0.0
 11
362.8848836542449
 21
244.42570599985319
 31
0.0
  0
LINE
  5
A91
  8
0
 62
     0
 10
362.2498836542448
 20
244.42570599985319
 30
0.0
 11
362.2498836542448
 21
244.42570599985319
 31
0.0
  0
LINE
  5
A92
  8
0
 62
     0
 10
361.61488365424492
 20
244.42570599985319
 30
0.0
 11
361.61488365424492
 21
244.42570599985319
 31
0.0
  0
LINE
  5
A93
  8
0
 62
     0
 10
360.97988365424487
 20
244.42570599985319
 30
0.0
 11
360.97988365424487
 21
244.42570599985319
 31
0.0
  0
LINE
  5
A94
  8
0
 62
     0
 10
360.34488365424488
 20
244.42570599985319
 30
0.0
 11
360.34488365424488
 21
244.42570599985319
 31
0.0
  0
LINE
  5
A95
  8
0
 62
     0
 10
359.70988365424489
 20
244.42570599985319
 30
0.0
 11
359.70988365424489
 21
244.42570599985319
 31
0.0
  0
LINE
  5
A96
  8
0
 62
     0
 10
359.0748836542449
 20
244.42570599985319
 30
0.0
 11
359.0748836542449
 21
244.42570599985319
 31
0.0
  0
LINE
  5
A97
  8
0
 62
     0
 10
358.43988365424491
 20
244.42570599985319
 30
0.0
 11
358.43988365424491
 21
244.42570599985319
 31
0.0
  0
LINE
  5
A98
  8
0
 62
     0
 10
357.80488365424492
 20
244.42570599985319
 30
0.0
 11
357.80488365424492
 21
244.42570599985319
 31
0.0
  0
LINE
  5
A99
  8
0
 62
     0
 10
357.16988365424493
 20
244.42570599985319
 30
0.0
 11
357.16988365424493
 21
244.42570599985319
 31
0.0
  0
LINE
  5
A9A
  8
0
 62
     0
 10
356.53488365424488
 20
244.42570599985319
 30
0.0
 11
356.53488365424488
 21
244.42570599985319
 31
0.0
  0
LINE
  5
A9B
  8
0
 62
     0
 10
355.89988365424489
 20
244.42570599985319
 30
0.0
 11
355.89988365424489
 21
244.42570599985319
 31
0.0
  0
LINE
  5
A9C
  8
0
 62
     0
 10
355.26488365424501
 20
244.42570599985319
 30
0.0
 11
355.26488365424501
 21
244.42570599985319
 31
0.0
  0
LINE
  5
A9D
  8
0
 62
     0
 10
354.62988365424502
 20
244.42570599985319
 30
0.0
 11
354.62988365424502
 21
244.42570599985319
 31
0.0
  0
LINE
  5
A9E
  8
0
 62
     0
 10
353.99488365424497
 20
244.42570599985319
 30
0.0
 11
353.99488365424497
 21
244.42570599985319
 31
0.0
  0
LINE
  5
A9F
  8
0
 62
     0
 10
353.35988365424498
 20
244.42570599985319
 30
0.0
 11
353.35988365424498
 21
244.42570599985319
 31
0.0
  0
LINE
  5
AA0
  8
0
 62
     0
 10
352.72488365424499
 20
244.42570599985319
 30
0.0
 11
352.72488365424499
 21
244.42570599985319
 31
0.0
  0
LINE
  5
AA1
  8
0
 62
     0
 10
352.089883654245
 20
244.42570599985319
 30
0.0
 11
352.089883654245
 21
244.42570599985319
 31
0.0
  0
LINE
  5
AA2
  8
0
 62
     0
 10
351.45488365424501
 20
244.42570599985319
 30
0.0
 11
351.45488365424501
 21
244.42570599985319
 31
0.0
  0
LINE
  5
AA3
  8
0
 62
     0
 10
350.81988365424502
 20
244.42570599985319
 30
0.0
 11
350.81988365424502
 21
244.42570599985319
 31
0.0
  0
LINE
  5
AA4
  8
0
 62
     0
 10
350.18488365424503
 20
244.42570599985319
 30
0.0
 11
350.18488365424503
 21
244.42570599985319
 31
0.0
  0
LINE
  5
AA5
  8
0
 62
     0
 10
349.54988365424498
 20
244.42570599985319
 30
0.0
 11
349.54988365424498
 21
244.42570599985319
 31
0.0
  0
LINE
  5
AA6
  8
0
 62
     0
 10
348.9148836542451
 20
244.42570599985319
 30
0.0
 11
348.9148836542451
 21
244.42570599985319
 31
0.0
  0
LINE
  5
AA7
  8
0
 62
     0
 10
348.27988365424511
 20
244.42570599985319
 30
0.0
 11
348.27988365424511
 21
244.42570599985319
 31
0.0
  0
LINE
  5
AA8
  8
0
 62
     0
 10
337.48488365424481
 20
244.42570599985319
 30
0.0
 11
337.48488365424481
 21
244.42570599985319
 31
0.0
  0
LINE
  5
AA9
  8
0
 62
     0
 10
336.84988365424471
 20
244.42570599985319
 30
0.0
 11
336.84988365424471
 21
244.42570599985319
 31
0.0
  0
LINE
  5
AAA
  8
0
 62
     0
 10
336.21488365424477
 20
244.42570599985319
 30
0.0
 11
336.21488365424477
 21
244.42570599985319
 31
0.0
  0
LINE
  5
AAB
  8
0
 62
     0
 10
335.57988365424478
 20
244.42570599985319
 30
0.0
 11
335.57988365424478
 21
244.42570599985319
 31
0.0
  0
LINE
  5
AAC
  8
0
 62
     0
 10
334.94488365424479
 20
244.42570599985319
 30
0.0
 11
334.94488365424479
 21
244.42570599985319
 31
0.0
  0
LINE
  5
AAD
  8
0
 62
     0
 10
334.3098836542448
 20
244.42570599985319
 30
0.0
 11
334.3098836542448
 21
244.42570599985319
 31
0.0
  0
LINE
  5
AAE
  8
0
 62
     0
 10
333.67488365424481
 20
244.42570599985319
 30
0.0
 11
333.67488365424481
 21
244.42570599985319
 31
0.0
  0
LINE
  5
AAF
  8
0
 62
     0
 10
333.03988365424482
 20
244.42570599985319
 30
0.0
 11
333.03988365424482
 21
244.42570599985319
 31
0.0
  0
LINE
  5
AB0
  8
0
 62
     0
 10
332.40488365424483
 20
244.42570599985319
 30
0.0
 11
332.40488365424483
 21
244.42570599985319
 31
0.0
  0
LINE
  5
AB1
  8
0
 62
     0
 10
331.76988365424478
 20
244.42570599985319
 30
0.0
 11
331.76988365424478
 21
244.42570599985319
 31
0.0
  0
LINE
  5
AB2
  8
0
 62
     0
 10
331.13488365424479
 20
244.42570599985319
 30
0.0
 11
331.13488365424479
 21
244.42570599985319
 31
0.0
  0
LINE
  5
AB3
  8
0
 62
     0
 10
330.4998836542448
 20
244.42570599985319
 30
0.0
 11
330.4998836542448
 21
244.42570599985319
 31
0.0
  0
LINE
  5
AB4
  8
0
 62
     0
 10
329.86488365424492
 20
244.42570599985319
 30
0.0
 11
329.86488365424492
 21
244.42570599985319
 31
0.0
  0
LINE
  5
AB5
  8
0
 62
     0
 10
329.22988365424487
 20
244.42570599985319
 30
0.0
 11
329.22988365424487
 21
244.42570599985319
 31
0.0
  0
LINE
  5
AB6
  8
0
 62
     0
 10
328.59488365424488
 20
244.42570599985319
 30
0.0
 11
328.59488365424488
 21
244.42570599985319
 31
0.0
  0
LINE
  5
AB7
  8
0
 62
     0
 10
327.95988365424489
 20
244.42570599985319
 30
0.0
 11
327.95988365424489
 21
244.42570599985319
 31
0.0
  0
LINE
  5
AB8
  8
0
 62
     0
 10
327.3248836542449
 20
244.42570599985319
 30
0.0
 11
327.3248836542449
 21
244.42570599985319
 31
0.0
  0
LINE
  5
AB9
  8
0
 62
     0
 10
326.68988365424491
 20
244.42570599985319
 30
0.0
 11
326.68988365424491
 21
244.42570599985319
 31
0.0
  0
LINE
  5
ABA
  8
0
 62
     0
 10
326.05488365424492
 20
244.42570599985319
 30
0.0
 11
326.05488365424492
 21
244.42570599985319
 31
0.0
  0
LINE
  5
ABB
  8
0
 62
     0
 10
325.41988365424493
 20
244.42570599985319
 30
0.0
 11
325.41988365424493
 21
244.42570599985319
 31
0.0
  0
LINE
  5
ABC
  8
0
 62
     0
 10
324.78488365424488
 20
244.42570599985319
 30
0.0
 11
324.78488365424488
 21
244.42570599985319
 31
0.0
  0
LINE
  5
ABD
  8
0
 62
     0
 10
324.14988365424489
 20
244.42570599985319
 30
0.0
 11
324.14988365424489
 21
244.42570599985319
 31
0.0
  0
LINE
  5
ABE
  8
0
 62
     0
 10
323.51488365424501
 20
244.42570599985319
 30
0.0
 11
323.51488365424501
 21
244.42570599985319
 31
0.0
  0
LINE
  5
ABF
  8
0
 62
     0
 10
322.87988365424502
 20
244.42570599985319
 30
0.0
 11
322.87988365424502
 21
244.42570599985319
 31
0.0
  0
LINE
  5
AC0
  8
0
 62
     0
 10
322.24488365424497
 20
244.42570599985319
 30
0.0
 11
322.24488365424497
 21
244.42570599985319
 31
0.0
  0
LINE
  5
AC1
  8
0
 62
     0
 10
321.60988365424498
 20
244.42570599985319
 30
0.0
 11
321.60988365424498
 21
244.42570599985319
 31
0.0
  0
LINE
  5
AC2
  8
0
 62
     0
 10
320.97488365424499
 20
244.42570599985319
 30
0.0
 11
320.97488365424499
 21
244.42570599985319
 31
0.0
  0
LINE
  5
AC3
  8
0
 62
     0
 10
320.339883654245
 20
244.42570599985319
 30
0.0
 11
320.339883654245
 21
244.42570599985319
 31
0.0
  0
LINE
  5
AC4
  8
0
 62
     0
 10
319.70488365424501
 20
244.42570599985319
 30
0.0
 11
319.70488365424501
 21
244.42570599985319
 31
0.0
  0
LINE
  5
AC5
  8
0
 62
     0
 10
319.06988365424502
 20
244.42570599985319
 30
0.0
 11
319.06988365424502
 21
244.42570599985319
 31
0.0
  0
LINE
  5
AC6
  8
0
 62
     0
 10
318.43488365424503
 20
244.42570599985319
 30
0.0
 11
318.43488365424503
 21
244.42570599985319
 31
0.0
  0
LINE
  5
AC7
  8
0
 62
     0
 10
367.64738365424478
 20
245.06070599985321
 30
0.0
 11
367.64738365424478
 21
245.06070599985321
 31
0.0
  0
LINE
  5
AC8
  8
0
 62
     0
 10
367.01238365424479
 20
245.06070599985321
 30
0.0
 11
367.01238365424479
 21
245.06070599985321
 31
0.0
  0
LINE
  5
AC9
  8
0
 62
     0
 10
366.3773836542448
 20
245.06070599985321
 30
0.0
 11
366.3773836542448
 21
245.06070599985321
 31
0.0
  0
LINE
  5
ACA
  8
0
 62
     0
 10
365.7423836542448
 20
245.06070599985321
 30
0.0
 11
365.7423836542448
 21
245.06070599985321
 31
0.0
  0
LINE
  5
ACB
  8
0
 62
     0
 10
365.10738365424481
 20
245.06070599985321
 30
0.0
 11
365.10738365424481
 21
245.06070599985321
 31
0.0
  0
LINE
  5
ACC
  8
0
 62
     0
 10
364.47238365424482
 20
245.06070599985321
 30
0.0
 11
364.47238365424482
 21
245.06070599985321
 31
0.0
  0
LINE
  5
ACD
  8
0
 62
     0
 10
363.83738365424477
 20
245.06070599985321
 30
0.0
 11
363.83738365424477
 21
245.06070599985321
 31
0.0
  0
LINE
  5
ACE
  8
0
 62
     0
 10
363.20238365424478
 20
245.06070599985321
 30
0.0
 11
363.20238365424478
 21
245.06070599985321
 31
0.0
  0
LINE
  5
ACF
  8
0
 62
     0
 10
362.56738365424491
 20
245.06070599985321
 30
0.0
 11
362.56738365424491
 21
245.06070599985321
 31
0.0
  0
LINE
  5
AD0
  8
0
 62
     0
 10
361.93238365424492
 20
245.06070599985321
 30
0.0
 11
361.93238365424492
 21
245.06070599985321
 31
0.0
  0
LINE
  5
AD1
  8
0
 62
     0
 10
361.29738365424492
 20
245.06070599985321
 30
0.0
 11
361.29738365424492
 21
245.06070599985321
 31
0.0
  0
LINE
  5
AD2
  8
0
 62
     0
 10
360.66238365424488
 20
245.06070599985321
 30
0.0
 11
360.66238365424488
 21
245.06070599985321
 31
0.0
  0
LINE
  5
AD3
  8
0
 62
     0
 10
360.02738365424489
 20
245.06070599985321
 30
0.0
 11
360.02738365424489
 21
245.06070599985321
 31
0.0
  0
LINE
  5
AD4
  8
0
 62
     0
 10
359.3923836542449
 20
245.06070599985321
 30
0.0
 11
359.3923836542449
 21
245.06070599985321
 31
0.0
  0
LINE
  5
AD5
  8
0
 62
     0
 10
358.7573836542449
 20
245.06070599985321
 30
0.0
 11
358.7573836542449
 21
245.06070599985321
 31
0.0
  0
LINE
  5
AD6
  8
0
 62
     0
 10
358.12238365424491
 20
245.06070599985321
 30
0.0
 11
358.12238365424491
 21
245.06070599985321
 31
0.0
  0
LINE
  5
AD7
  8
0
 62
     0
 10
357.48738365424492
 20
245.06070599985321
 30
0.0
 11
357.48738365424492
 21
245.06070599985321
 31
0.0
  0
LINE
  5
AD8
  8
0
 62
     0
 10
356.85238365424487
 20
245.06070599985321
 30
0.0
 11
356.85238365424487
 21
245.06070599985321
 31
0.0
  0
LINE
  5
AD9
  8
0
 62
     0
 10
356.217383654245
 20
245.06070599985321
 30
0.0
 11
356.217383654245
 21
245.06070599985321
 31
0.0
  0
LINE
  5
ADA
  8
0
 62
     0
 10
355.58238365424501
 20
245.06070599985321
 30
0.0
 11
355.58238365424501
 21
245.06070599985321
 31
0.0
  0
LINE
  5
ADB
  8
0
 62
     0
 10
354.94738365424502
 20
245.06070599985321
 30
0.0
 11
354.94738365424502
 21
245.06070599985321
 31
0.0
  0
LINE
  5
ADC
  8
0
 62
     0
 10
354.31238365424502
 20
245.06070599985321
 30
0.0
 11
354.31238365424502
 21
245.06070599985321
 31
0.0
  0
LINE
  5
ADD
  8
0
 62
     0
 10
353.67738365424498
 20
245.06070599985321
 30
0.0
 11
353.67738365424498
 21
245.06070599985321
 31
0.0
  0
LINE
  5
ADE
  8
0
 62
     0
 10
353.04238365424499
 20
245.06070599985321
 30
0.0
 11
353.04238365424499
 21
245.06070599985321
 31
0.0
  0
LINE
  5
ADF
  8
0
 62
     0
 10
352.407383654245
 20
245.06070599985321
 30
0.0
 11
352.407383654245
 21
245.06070599985321
 31
0.0
  0
LINE
  5
AE0
  8
0
 62
     0
 10
351.772383654245
 20
245.06070599985321
 30
0.0
 11
351.772383654245
 21
245.06070599985321
 31
0.0
  0
LINE
  5
AE1
  8
0
 62
     0
 10
351.13738365424501
 20
245.06070599985321
 30
0.0
 11
351.13738365424501
 21
245.06070599985321
 31
0.0
  0
LINE
  5
AE2
  8
0
 62
     0
 10
350.50238365424502
 20
245.06070599985321
 30
0.0
 11
350.50238365424502
 21
245.06070599985321
 31
0.0
  0
LINE
  5
AE3
  8
0
 62
     0
 10
349.86738365424509
 20
245.06070599985321
 30
0.0
 11
349.86738365424509
 21
245.06070599985321
 31
0.0
  0
LINE
  5
AE4
  8
0
 62
     0
 10
349.23238365424498
 20
245.06070599985321
 30
0.0
 11
349.23238365424498
 21
245.06070599985321
 31
0.0
  0
LINE
  5
AE5
  8
0
 62
     0
 10
348.59738365424499
 20
245.06070599985321
 30
0.0
 11
348.59738365424499
 21
245.06070599985321
 31
0.0
  0
LINE
  5
AE6
  8
0
 62
     0
 10
347.962383654245
 20
245.06070599985321
 30
0.0
 11
347.962383654245
 21
245.06070599985321
 31
0.0
  0
LINE
  5
AE7
  8
0
 62
     0
 10
337.80238365424469
 20
245.06070599985321
 30
0.0
 11
337.80238365424469
 21
245.06070599985321
 31
0.0
  0
LINE
  5
AE8
  8
0
 62
     0
 10
337.16738365424482
 20
245.06070599985321
 30
0.0
 11
337.16738365424482
 21
245.06070599985321
 31
0.0
  0
LINE
  5
AE9
  8
0
 62
     0
 10
336.53238365424482
 20
245.06070599985321
 30
0.0
 11
336.53238365424482
 21
245.06070599985321
 31
0.0
  0
LINE
  5
AEA
  8
0
 62
     0
 10
335.89738365424478
 20
245.06070599985321
 30
0.0
 11
335.89738365424478
 21
245.06070599985321
 31
0.0
  0
LINE
  5
AEB
  8
0
 62
     0
 10
335.26238365424479
 20
245.06070599985321
 30
0.0
 11
335.26238365424479
 21
245.06070599985321
 31
0.0
  0
LINE
  5
AEC
  8
0
 62
     0
 10
334.6273836542448
 20
245.06070599985321
 30
0.0
 11
334.6273836542448
 21
245.06070599985321
 31
0.0
  0
LINE
  5
AED
  8
0
 62
     0
 10
333.9923836542448
 20
245.06070599985321
 30
0.0
 11
333.9923836542448
 21
245.06070599985321
 31
0.0
  0
LINE
  5
AEE
  8
0
 62
     0
 10
333.35738365424481
 20
245.06070599985321
 30
0.0
 11
333.35738365424481
 21
245.06070599985321
 31
0.0
  0
LINE
  5
AEF
  8
0
 62
     0
 10
332.72238365424482
 20
245.06070599985321
 30
0.0
 11
332.72238365424482
 21
245.06070599985321
 31
0.0
  0
LINE
  5
AF0
  8
0
 62
     0
 10
332.08738365424477
 20
245.06070599985321
 30
0.0
 11
332.08738365424477
 21
245.06070599985321
 31
0.0
  0
LINE
  5
AF1
  8
0
 62
     0
 10
331.45238365424478
 20
245.06070599985321
 30
0.0
 11
331.45238365424478
 21
245.06070599985321
 31
0.0
  0
LINE
  5
AF2
  8
0
 62
     0
 10
330.81738365424491
 20
245.06070599985321
 30
0.0
 11
330.81738365424491
 21
245.06070599985321
 31
0.0
  0
LINE
  5
AF3
  8
0
 62
     0
 10
330.18238365424492
 20
245.06070599985321
 30
0.0
 11
330.18238365424492
 21
245.06070599985321
 31
0.0
  0
LINE
  5
AF4
  8
0
 62
     0
 10
329.54738365424492
 20
245.06070599985321
 30
0.0
 11
329.54738365424492
 21
245.06070599985321
 31
0.0
  0
LINE
  5
AF5
  8
0
 62
     0
 10
328.91238365424488
 20
245.06070599985321
 30
0.0
 11
328.91238365424488
 21
245.06070599985321
 31
0.0
  0
LINE
  5
AF6
  8
0
 62
     0
 10
328.27738365424489
 20
245.06070599985321
 30
0.0
 11
328.27738365424489
 21
245.06070599985321
 31
0.0
  0
LINE
  5
AF7
  8
0
 62
     0
 10
327.6423836542449
 20
245.06070599985321
 30
0.0
 11
327.6423836542449
 21
245.06070599985321
 31
0.0
  0
LINE
  5
AF8
  8
0
 62
     0
 10
327.0073836542449
 20
245.06070599985321
 30
0.0
 11
327.0073836542449
 21
245.06070599985321
 31
0.0
  0
LINE
  5
AF9
  8
0
 62
     0
 10
326.37238365424491
 20
245.06070599985321
 30
0.0
 11
326.37238365424491
 21
245.06070599985321
 31
0.0
  0
LINE
  5
AFA
  8
0
 62
     0
 10
325.73738365424492
 20
245.06070599985321
 30
0.0
 11
325.73738365424492
 21
245.06070599985321
 31
0.0
  0
LINE
  5
AFB
  8
0
 62
     0
 10
325.10238365424487
 20
245.06070599985321
 30
0.0
 11
325.10238365424487
 21
245.06070599985321
 31
0.0
  0
LINE
  5
AFC
  8
0
 62
     0
 10
324.467383654245
 20
245.06070599985321
 30
0.0
 11
324.467383654245
 21
245.06070599985321
 31
0.0
  0
LINE
  5
AFD
  8
0
 62
     0
 10
323.83238365424489
 20
245.06070599985321
 30
0.0
 11
323.83238365424489
 21
245.06070599985321
 31
0.0
  0
LINE
  5
AFE
  8
0
 62
     0
 10
323.1973836542449
 20
245.06070599985321
 30
0.0
 11
323.1973836542449
 21
245.06070599985321
 31
0.0
  0
LINE
  5
AFF
  8
0
 62
     0
 10
322.56238365424502
 20
245.06070599985321
 30
0.0
 11
322.56238365424502
 21
245.06070599985321
 31
0.0
  0
LINE
  5
B00
  8
0
 62
     0
 10
321.92738365424498
 20
245.06070599985321
 30
0.0
 11
321.92738365424498
 21
245.06070599985321
 31
0.0
  0
LINE
  5
B01
  8
0
 62
     0
 10
321.29238365424499
 20
245.06070599985321
 30
0.0
 11
321.29238365424499
 21
245.06070599985321
 31
0.0
  0
LINE
  5
B02
  8
0
 62
     0
 10
320.657383654245
 20
245.06070599985321
 30
0.0
 11
320.657383654245
 21
245.06070599985321
 31
0.0
  0
LINE
  5
B03
  8
0
 62
     0
 10
320.022383654245
 20
245.06070599985321
 30
0.0
 11
320.022383654245
 21
245.06070599985321
 31
0.0
  0
LINE
  5
B04
  8
0
 62
     0
 10
319.38738365424501
 20
245.06070599985321
 30
0.0
 11
319.38738365424501
 21
245.06070599985321
 31
0.0
  0
LINE
  5
B05
  8
0
 62
     0
 10
318.75238365424502
 20
245.06070599985321
 30
0.0
 11
318.75238365424502
 21
245.06070599985321
 31
0.0
  0
LINE
  5
B06
  8
0
 62
     0
 10
318.11738365424497
 20
245.06070599985321
 30
0.0
 11
318.11738365424497
 21
245.06070599985321
 31
0.0
  0
LINE
  5
B07
  8
0
 62
     0
 10
367.32988365424478
 20
245.6957059998532
 30
0.0
 11
367.32988365424478
 21
245.6957059998532
 31
0.0
  0
LINE
  5
B08
  8
0
 62
     0
 10
366.69488365424479
 20
245.6957059998532
 30
0.0
 11
366.69488365424479
 21
245.6957059998532
 31
0.0
  0
LINE
  5
B09
  8
0
 62
     0
 10
366.0598836542448
 20
245.6957059998532
 30
0.0
 11
366.0598836542448
 21
245.6957059998532
 31
0.0
  0
LINE
  5
B0A
  8
0
 62
     0
 10
365.42488365424481
 20
245.6957059998532
 30
0.0
 11
365.42488365424481
 21
245.6957059998532
 31
0.0
  0
LINE
  5
B0B
  8
0
 62
     0
 10
364.78988365424482
 20
245.6957059998532
 30
0.0
 11
364.78988365424482
 21
245.6957059998532
 31
0.0
  0
LINE
  5
B0C
  8
0
 62
     0
 10
364.15488365424483
 20
245.6957059998532
 30
0.0
 11
364.15488365424483
 21
245.6957059998532
 31
0.0
  0
LINE
  5
B0D
  8
0
 62
     0
 10
363.51988365424489
 20
245.6957059998532
 30
0.0
 11
363.51988365424489
 21
245.6957059998532
 31
0.0
  0
LINE
  5
B0E
  8
0
 62
     0
 10
362.8848836542449
 20
245.6957059998532
 30
0.0
 11
362.8848836542449
 21
245.6957059998532
 31
0.0
  0
LINE
  5
B0F
  8
0
 62
     0
 10
362.2498836542448
 20
245.6957059998532
 30
0.0
 11
362.2498836542448
 21
245.6957059998532
 31
0.0
  0
LINE
  5
B10
  8
0
 62
     0
 10
361.61488365424492
 20
245.6957059998532
 30
0.0
 11
361.61488365424492
 21
245.6957059998532
 31
0.0
  0
LINE
  5
B11
  8
0
 62
     0
 10
360.97988365424487
 20
245.6957059998532
 30
0.0
 11
360.97988365424487
 21
245.6957059998532
 31
0.0
  0
LINE
  5
B12
  8
0
 62
     0
 10
360.34488365424488
 20
245.6957059998532
 30
0.0
 11
360.34488365424488
 21
245.6957059998532
 31
0.0
  0
LINE
  5
B13
  8
0
 62
     0
 10
359.70988365424489
 20
245.6957059998532
 30
0.0
 11
359.70988365424489
 21
245.6957059998532
 31
0.0
  0
LINE
  5
B14
  8
0
 62
     0
 10
359.0748836542449
 20
245.6957059998532
 30
0.0
 11
359.0748836542449
 21
245.6957059998532
 31
0.0
  0
LINE
  5
B15
  8
0
 62
     0
 10
358.43988365424491
 20
245.6957059998532
 30
0.0
 11
358.43988365424491
 21
245.6957059998532
 31
0.0
  0
LINE
  5
B16
  8
0
 62
     0
 10
357.80488365424492
 20
245.6957059998532
 30
0.0
 11
357.80488365424492
 21
245.6957059998532
 31
0.0
  0
LINE
  5
B17
  8
0
 62
     0
 10
357.16988365424493
 20
245.6957059998532
 30
0.0
 11
357.16988365424493
 21
245.6957059998532
 31
0.0
  0
LINE
  5
B18
  8
0
 62
     0
 10
356.53488365424488
 20
245.6957059998532
 30
0.0
 11
356.53488365424488
 21
245.6957059998532
 31
0.0
  0
LINE
  5
B19
  8
0
 62
     0
 10
355.89988365424489
 20
245.6957059998532
 30
0.0
 11
355.89988365424489
 21
245.6957059998532
 31
0.0
  0
LINE
  5
B1A
  8
0
 62
     0
 10
355.26488365424501
 20
245.6957059998532
 30
0.0
 11
355.26488365424501
 21
245.6957059998532
 31
0.0
  0
LINE
  5
B1B
  8
0
 62
     0
 10
354.62988365424502
 20
245.6957059998532
 30
0.0
 11
354.62988365424502
 21
245.6957059998532
 31
0.0
  0
LINE
  5
B1C
  8
0
 62
     0
 10
353.99488365424497
 20
245.6957059998532
 30
0.0
 11
353.99488365424497
 21
245.6957059998532
 31
0.0
  0
LINE
  5
B1D
  8
0
 62
     0
 10
353.35988365424498
 20
245.6957059998532
 30
0.0
 11
353.35988365424498
 21
245.6957059998532
 31
0.0
  0
LINE
  5
B1E
  8
0
 62
     0
 10
352.72488365424499
 20
245.6957059998532
 30
0.0
 11
352.72488365424499
 21
245.6957059998532
 31
0.0
  0
LINE
  5
B1F
  8
0
 62
     0
 10
352.089883654245
 20
245.6957059998532
 30
0.0
 11
352.089883654245
 21
245.6957059998532
 31
0.0
  0
LINE
  5
B20
  8
0
 62
     0
 10
351.45488365424501
 20
245.6957059998532
 30
0.0
 11
351.45488365424501
 21
245.6957059998532
 31
0.0
  0
LINE
  5
B21
  8
0
 62
     0
 10
350.81988365424502
 20
245.6957059998532
 30
0.0
 11
350.81988365424502
 21
245.6957059998532
 31
0.0
  0
LINE
  5
B22
  8
0
 62
     0
 10
350.18488365424503
 20
245.6957059998532
 30
0.0
 11
350.18488365424503
 21
245.6957059998532
 31
0.0
  0
LINE
  5
B23
  8
0
 62
     0
 10
349.54988365424498
 20
245.6957059998532
 30
0.0
 11
349.54988365424498
 21
245.6957059998532
 31
0.0
  0
LINE
  5
B24
  8
0
 62
     0
 10
348.9148836542451
 20
245.6957059998532
 30
0.0
 11
348.9148836542451
 21
245.6957059998532
 31
0.0
  0
LINE
  5
B25
  8
0
 62
     0
 10
348.27988365424511
 20
245.6957059998532
 30
0.0
 11
348.27988365424511
 21
245.6957059998532
 31
0.0
  0
LINE
  5
B26
  8
0
 62
     0
 10
337.48488365424481
 20
245.6957059998532
 30
0.0
 11
337.48488365424481
 21
245.6957059998532
 31
0.0
  0
LINE
  5
B27
  8
0
 62
     0
 10
336.84988365424471
 20
245.6957059998532
 30
0.0
 11
336.84988365424471
 21
245.6957059998532
 31
0.0
  0
LINE
  5
B28
  8
0
 62
     0
 10
336.21488365424477
 20
245.6957059998532
 30
0.0
 11
336.21488365424477
 21
245.6957059998532
 31
0.0
  0
LINE
  5
B29
  8
0
 62
     0
 10
335.57988365424478
 20
245.6957059998532
 30
0.0
 11
335.57988365424478
 21
245.6957059998532
 31
0.0
  0
LINE
  5
B2A
  8
0
 62
     0
 10
334.94488365424479
 20
245.6957059998532
 30
0.0
 11
334.94488365424479
 21
245.6957059998532
 31
0.0
  0
LINE
  5
B2B
  8
0
 62
     0
 10
334.3098836542448
 20
245.6957059998532
 30
0.0
 11
334.3098836542448
 21
245.6957059998532
 31
0.0
  0
LINE
  5
B2C
  8
0
 62
     0
 10
333.67488365424481
 20
245.6957059998532
 30
0.0
 11
333.67488365424481
 21
245.6957059998532
 31
0.0
  0
LINE
  5
B2D
  8
0
 62
     0
 10
333.03988365424482
 20
245.6957059998532
 30
0.0
 11
333.03988365424482
 21
245.6957059998532
 31
0.0
  0
LINE
  5
B2E
  8
0
 62
     0
 10
332.40488365424483
 20
245.6957059998532
 30
0.0
 11
332.40488365424483
 21
245.6957059998532
 31
0.0
  0
LINE
  5
B2F
  8
0
 62
     0
 10
331.76988365424478
 20
245.6957059998532
 30
0.0
 11
331.76988365424478
 21
245.6957059998532
 31
0.0
  0
LINE
  5
B30
  8
0
 62
     0
 10
331.13488365424479
 20
245.6957059998532
 30
0.0
 11
331.13488365424479
 21
245.6957059998532
 31
0.0
  0
LINE
  5
B31
  8
0
 62
     0
 10
330.4998836542448
 20
245.6957059998532
 30
0.0
 11
330.4998836542448
 21
245.6957059998532
 31
0.0
  0
LINE
  5
B32
  8
0
 62
     0
 10
329.86488365424492
 20
245.6957059998532
 30
0.0
 11
329.86488365424492
 21
245.6957059998532
 31
0.0
  0
LINE
  5
B33
  8
0
 62
     0
 10
329.22988365424487
 20
245.6957059998532
 30
0.0
 11
329.22988365424487
 21
245.6957059998532
 31
0.0
  0
LINE
  5
B34
  8
0
 62
     0
 10
328.59488365424488
 20
245.6957059998532
 30
0.0
 11
328.59488365424488
 21
245.6957059998532
 31
0.0
  0
LINE
  5
B35
  8
0
 62
     0
 10
327.95988365424489
 20
245.6957059998532
 30
0.0
 11
327.95988365424489
 21
245.6957059998532
 31
0.0
  0
LINE
  5
B36
  8
0
 62
     0
 10
327.3248836542449
 20
245.6957059998532
 30
0.0
 11
327.3248836542449
 21
245.6957059998532
 31
0.0
  0
LINE
  5
B37
  8
0
 62
     0
 10
326.68988365424491
 20
245.6957059998532
 30
0.0
 11
326.68988365424491
 21
245.6957059998532
 31
0.0
  0
LINE
  5
B38
  8
0
 62
     0
 10
326.05488365424492
 20
245.6957059998532
 30
0.0
 11
326.05488365424492
 21
245.6957059998532
 31
0.0
  0
LINE
  5
B39
  8
0
 62
     0
 10
325.41988365424493
 20
245.6957059998532
 30
0.0
 11
325.41988365424493
 21
245.6957059998532
 31
0.0
  0
LINE
  5
B3A
  8
0
 62
     0
 10
324.78488365424488
 20
245.6957059998532
 30
0.0
 11
324.78488365424488
 21
245.6957059998532
 31
0.0
  0
LINE
  5
B3B
  8
0
 62
     0
 10
324.14988365424489
 20
245.6957059998532
 30
0.0
 11
324.14988365424489
 21
245.6957059998532
 31
0.0
  0
LINE
  5
B3C
  8
0
 62
     0
 10
323.51488365424501
 20
245.6957059998532
 30
0.0
 11
323.51488365424501
 21
245.6957059998532
 31
0.0
  0
LINE
  5
B3D
  8
0
 62
     0
 10
322.87988365424502
 20
245.6957059998532
 30
0.0
 11
322.87988365424502
 21
245.6957059998532
 31
0.0
  0
LINE
  5
B3E
  8
0
 62
     0
 10
322.24488365424497
 20
245.6957059998532
 30
0.0
 11
322.24488365424497
 21
245.6957059998532
 31
0.0
  0
LINE
  5
B3F
  8
0
 62
     0
 10
321.60988365424498
 20
245.6957059998532
 30
0.0
 11
321.60988365424498
 21
245.6957059998532
 31
0.0
  0
LINE
  5
B40
  8
0
 62
     0
 10
320.97488365424499
 20
245.6957059998532
 30
0.0
 11
320.97488365424499
 21
245.6957059998532
 31
0.0
  0
LINE
  5
B41
  8
0
 62
     0
 10
320.339883654245
 20
245.6957059998532
 30
0.0
 11
320.339883654245
 21
245.6957059998532
 31
0.0
  0
LINE
  5
B42
  8
0
 62
     0
 10
319.70488365424501
 20
245.6957059998532
 30
0.0
 11
319.70488365424501
 21
245.6957059998532
 31
0.0
  0
LINE
  5
B43
  8
0
 62
     0
 10
319.06988365424502
 20
245.6957059998532
 30
0.0
 11
319.06988365424502
 21
245.6957059998532
 31
0.0
  0
LINE
  5
B44
  8
0
 62
     0
 10
318.43488365424503
 20
245.6957059998532
 30
0.0
 11
318.43488365424503
 21
245.6957059998532
 31
0.0
  0
LINE
  5
B45
  8
0
 62
     0
 10
367.64738365424478
 20
246.33070599985319
 30
0.0
 11
367.64738365424478
 21
246.33070599985319
 31
0.0
  0
LINE
  5
B46
  8
0
 62
     0
 10
367.01238365424479
 20
246.33070599985319
 30
0.0
 11
367.01238365424479
 21
246.33070599985319
 31
0.0
  0
LINE
  5
B47
  8
0
 62
     0
 10
366.3773836542448
 20
246.33070599985319
 30
0.0
 11
366.3773836542448
 21
246.33070599985319
 31
0.0
  0
LINE
  5
B48
  8
0
 62
     0
 10
365.7423836542448
 20
246.33070599985319
 30
0.0
 11
365.7423836542448
 21
246.33070599985319
 31
0.0
  0
LINE
  5
B49
  8
0
 62
     0
 10
365.10738365424481
 20
246.33070599985319
 30
0.0
 11
365.10738365424481
 21
246.33070599985319
 31
0.0
  0
LINE
  5
B4A
  8
0
 62
     0
 10
364.47238365424482
 20
246.33070599985319
 30
0.0
 11
364.47238365424482
 21
246.33070599985319
 31
0.0
  0
LINE
  5
B4B
  8
0
 62
     0
 10
363.83738365424477
 20
246.33070599985319
 30
0.0
 11
363.83738365424477
 21
246.33070599985319
 31
0.0
  0
LINE
  5
B4C
  8
0
 62
     0
 10
363.20238365424478
 20
246.33070599985319
 30
0.0
 11
363.20238365424478
 21
246.33070599985319
 31
0.0
  0
LINE
  5
B4D
  8
0
 62
     0
 10
362.56738365424491
 20
246.33070599985319
 30
0.0
 11
362.56738365424491
 21
246.33070599985319
 31
0.0
  0
LINE
  5
B4E
  8
0
 62
     0
 10
361.93238365424492
 20
246.33070599985319
 30
0.0
 11
361.93238365424492
 21
246.33070599985319
 31
0.0
  0
LINE
  5
B4F
  8
0
 62
     0
 10
361.29738365424492
 20
246.33070599985319
 30
0.0
 11
361.29738365424492
 21
246.33070599985319
 31
0.0
  0
LINE
  5
B50
  8
0
 62
     0
 10
360.66238365424488
 20
246.33070599985319
 30
0.0
 11
360.66238365424488
 21
246.33070599985319
 31
0.0
  0
LINE
  5
B51
  8
0
 62
     0
 10
360.02738365424489
 20
246.33070599985319
 30
0.0
 11
360.02738365424489
 21
246.33070599985319
 31
0.0
  0
LINE
  5
B52
  8
0
 62
     0
 10
359.3923836542449
 20
246.33070599985319
 30
0.0
 11
359.3923836542449
 21
246.33070599985319
 31
0.0
  0
LINE
  5
B53
  8
0
 62
     0
 10
358.7573836542449
 20
246.33070599985319
 30
0.0
 11
358.7573836542449
 21
246.33070599985319
 31
0.0
  0
LINE
  5
B54
  8
0
 62
     0
 10
358.12238365424491
 20
246.33070599985319
 30
0.0
 11
358.12238365424491
 21
246.33070599985319
 31
0.0
  0
LINE
  5
B55
  8
0
 62
     0
 10
357.48738365424492
 20
246.33070599985319
 30
0.0
 11
357.48738365424492
 21
246.33070599985319
 31
0.0
  0
LINE
  5
B56
  8
0
 62
     0
 10
356.85238365424487
 20
246.33070599985319
 30
0.0
 11
356.85238365424487
 21
246.33070599985319
 31
0.0
  0
LINE
  5
B57
  8
0
 62
     0
 10
356.217383654245
 20
246.33070599985319
 30
0.0
 11
356.217383654245
 21
246.33070599985319
 31
0.0
  0
LINE
  5
B58
  8
0
 62
     0
 10
355.58238365424501
 20
246.33070599985319
 30
0.0
 11
355.58238365424501
 21
246.33070599985319
 31
0.0
  0
LINE
  5
B59
  8
0
 62
     0
 10
354.94738365424502
 20
246.33070599985319
 30
0.0
 11
354.94738365424502
 21
246.33070599985319
 31
0.0
  0
LINE
  5
B5A
  8
0
 62
     0
 10
354.31238365424502
 20
246.33070599985319
 30
0.0
 11
354.31238365424502
 21
246.33070599985319
 31
0.0
  0
LINE
  5
B5B
  8
0
 62
     0
 10
353.67738365424498
 20
246.33070599985319
 30
0.0
 11
353.67738365424498
 21
246.33070599985319
 31
0.0
  0
LINE
  5
B5C
  8
0
 62
     0
 10
353.04238365424499
 20
246.33070599985319
 30
0.0
 11
353.04238365424499
 21
246.33070599985319
 31
0.0
  0
LINE
  5
B5D
  8
0
 62
     0
 10
352.407383654245
 20
246.33070599985319
 30
0.0
 11
352.407383654245
 21
246.33070599985319
 31
0.0
  0
LINE
  5
B5E
  8
0
 62
     0
 10
351.772383654245
 20
246.33070599985319
 30
0.0
 11
351.772383654245
 21
246.33070599985319
 31
0.0
  0
LINE
  5
B5F
  8
0
 62
     0
 10
351.13738365424501
 20
246.33070599985319
 30
0.0
 11
351.13738365424501
 21
246.33070599985319
 31
0.0
  0
LINE
  5
B60
  8
0
 62
     0
 10
350.50238365424502
 20
246.33070599985319
 30
0.0
 11
350.50238365424502
 21
246.33070599985319
 31
0.0
  0
LINE
  5
B61
  8
0
 62
     0
 10
349.86738365424509
 20
246.33070599985319
 30
0.0
 11
349.86738365424509
 21
246.33070599985319
 31
0.0
  0
LINE
  5
B62
  8
0
 62
     0
 10
349.23238365424498
 20
246.33070599985319
 30
0.0
 11
349.23238365424498
 21
246.33070599985319
 31
0.0
  0
LINE
  5
B63
  8
0
 62
     0
 10
348.59738365424499
 20
246.33070599985319
 30
0.0
 11
348.59738365424499
 21
246.33070599985319
 31
0.0
  0
LINE
  5
B64
  8
0
 62
     0
 10
347.962383654245
 20
246.33070599985319
 30
0.0
 11
347.962383654245
 21
246.33070599985319
 31
0.0
  0
LINE
  5
B65
  8
0
 62
     0
 10
337.80238365424469
 20
246.33070599985319
 30
0.0
 11
337.80238365424469
 21
246.33070599985319
 31
0.0
  0
LINE
  5
B66
  8
0
 62
     0
 10
337.16738365424482
 20
246.33070599985319
 30
0.0
 11
337.16738365424482
 21
246.33070599985319
 31
0.0
  0
LINE
  5
B67
  8
0
 62
     0
 10
336.53238365424482
 20
246.33070599985319
 30
0.0
 11
336.53238365424482
 21
246.33070599985319
 31
0.0
  0
LINE
  5
B68
  8
0
 62
     0
 10
335.89738365424478
 20
246.33070599985319
 30
0.0
 11
335.89738365424478
 21
246.33070599985319
 31
0.0
  0
LINE
  5
B69
  8
0
 62
     0
 10
335.26238365424479
 20
246.33070599985319
 30
0.0
 11
335.26238365424479
 21
246.33070599985319
 31
0.0
  0
LINE
  5
B6A
  8
0
 62
     0
 10
334.6273836542448
 20
246.33070599985319
 30
0.0
 11
334.6273836542448
 21
246.33070599985319
 31
0.0
  0
LINE
  5
B6B
  8
0
 62
     0
 10
333.9923836542448
 20
246.33070599985319
 30
0.0
 11
333.9923836542448
 21
246.33070599985319
 31
0.0
  0
LINE
  5
B6C
  8
0
 62
     0
 10
333.35738365424481
 20
246.33070599985319
 30
0.0
 11
333.35738365424481
 21
246.33070599985319
 31
0.0
  0
LINE
  5
B6D
  8
0
 62
     0
 10
332.72238365424482
 20
246.33070599985319
 30
0.0
 11
332.72238365424482
 21
246.33070599985319
 31
0.0
  0
LINE
  5
B6E
  8
0
 62
     0
 10
332.08738365424477
 20
246.33070599985319
 30
0.0
 11
332.08738365424477
 21
246.33070599985319
 31
0.0
  0
LINE
  5
B6F
  8
0
 62
     0
 10
331.45238365424478
 20
246.33070599985319
 30
0.0
 11
331.45238365424478
 21
246.33070599985319
 31
0.0
  0
LINE
  5
B70
  8
0
 62
     0
 10
330.81738365424491
 20
246.33070599985319
 30
0.0
 11
330.81738365424491
 21
246.33070599985319
 31
0.0
  0
LINE
  5
B71
  8
0
 62
     0
 10
330.18238365424492
 20
246.33070599985319
 30
0.0
 11
330.18238365424492
 21
246.33070599985319
 31
0.0
  0
LINE
  5
B72
  8
0
 62
     0
 10
329.54738365424492
 20
246.33070599985319
 30
0.0
 11
329.54738365424492
 21
246.33070599985319
 31
0.0
  0
LINE
  5
B73
  8
0
 62
     0
 10
328.91238365424488
 20
246.33070599985319
 30
0.0
 11
328.91238365424488
 21
246.33070599985319
 31
0.0
  0
LINE
  5
B74
  8
0
 62
     0
 10
328.27738365424489
 20
246.33070599985319
 30
0.0
 11
328.27738365424489
 21
246.33070599985319
 31
0.0
  0
LINE
  5
B75
  8
0
 62
     0
 10
327.6423836542449
 20
246.33070599985319
 30
0.0
 11
327.6423836542449
 21
246.33070599985319
 31
0.0
  0
LINE
  5
B76
  8
0
 62
     0
 10
327.0073836542449
 20
246.33070599985319
 30
0.0
 11
327.0073836542449
 21
246.33070599985319
 31
0.0
  0
LINE
  5
B77
  8
0
 62
     0
 10
326.37238365424491
 20
246.33070599985319
 30
0.0
 11
326.37238365424491
 21
246.33070599985319
 31
0.0
  0
LINE
  5
B78
  8
0
 62
     0
 10
325.73738365424492
 20
246.33070599985319
 30
0.0
 11
325.73738365424492
 21
246.33070599985319
 31
0.0
  0
LINE
  5
B79
  8
0
 62
     0
 10
325.10238365424487
 20
246.33070599985319
 30
0.0
 11
325.10238365424487
 21
246.33070599985319
 31
0.0
  0
LINE
  5
B7A
  8
0
 62
     0
 10
324.467383654245
 20
246.33070599985319
 30
0.0
 11
324.467383654245
 21
246.33070599985319
 31
0.0
  0
LINE
  5
B7B
  8
0
 62
     0
 10
323.83238365424489
 20
246.33070599985319
 30
0.0
 11
323.83238365424489
 21
246.33070599985319
 31
0.0
  0
LINE
  5
B7C
  8
0
 62
     0
 10
323.1973836542449
 20
246.33070599985319
 30
0.0
 11
323.1973836542449
 21
246.33070599985319
 31
0.0
  0
LINE
  5
B7D
  8
0
 62
     0
 10
322.56238365424502
 20
246.33070599985319
 30
0.0
 11
322.56238365424502
 21
246.33070599985319
 31
0.0
  0
LINE
  5
B7E
  8
0
 62
     0
 10
321.92738365424498
 20
246.33070599985319
 30
0.0
 11
321.92738365424498
 21
246.33070599985319
 31
0.0
  0
LINE
  5
B7F
  8
0
 62
     0
 10
321.29238365424499
 20
246.33070599985319
 30
0.0
 11
321.29238365424499
 21
246.33070599985319
 31
0.0
  0
LINE
  5
B80
  8
0
 62
     0
 10
320.657383654245
 20
246.33070599985319
 30
0.0
 11
320.657383654245
 21
246.33070599985319
 31
0.0
  0
LINE
  5
B81
  8
0
 62
     0
 10
320.022383654245
 20
246.33070599985319
 30
0.0
 11
320.022383654245
 21
246.33070599985319
 31
0.0
  0
LINE
  5
B82
  8
0
 62
     0
 10
319.38738365424501
 20
246.33070599985319
 30
0.0
 11
319.38738365424501
 21
246.33070599985319
 31
0.0
  0
LINE
  5
B83
  8
0
 62
     0
 10
318.75238365424502
 20
246.33070599985319
 30
0.0
 11
318.75238365424502
 21
246.33070599985319
 31
0.0
  0
LINE
  5
B84
  8
0
 62
     0
 10
318.11738365424497
 20
246.33070599985319
 30
0.0
 11
318.11738365424497
 21
246.33070599985319
 31
0.0
  0
LINE
  5
B85
  8
0
 62
     0
 10
367.3298836542449
 20
246.96570599985321
 30
0.0
 11
367.3298836542449
 21
246.96570599985321
 31
0.0
  0
LINE
  5
B86
  8
0
 62
     0
 10
366.6948836542449
 20
246.96570599985321
 30
0.0
 11
366.6948836542449
 21
246.96570599985321
 31
0.0
  0
LINE
  5
B87
  8
0
 62
     0
 10
366.05988365424491
 20
246.96570599985321
 30
0.0
 11
366.05988365424491
 21
246.96570599985321
 31
0.0
  0
LINE
  5
B88
  8
0
 62
     0
 10
365.42488365424492
 20
246.96570599985321
 30
0.0
 11
365.42488365424492
 21
246.96570599985321
 31
0.0
  0
LINE
  5
B89
  8
0
 62
     0
 10
364.78988365424487
 20
246.96570599985321
 30
0.0
 11
364.78988365424487
 21
246.96570599985321
 31
0.0
  0
LINE
  5
B8A
  8
0
 62
     0
 10
364.15488365424488
 20
246.96570599985321
 30
0.0
 11
364.15488365424488
 21
246.96570599985321
 31
0.0
  0
LINE
  5
B8B
  8
0
 62
     0
 10
363.51988365424489
 20
246.96570599985321
 30
0.0
 11
363.51988365424489
 21
246.96570599985321
 31
0.0
  0
LINE
  5
B8C
  8
0
 62
     0
 10
362.88488365424502
 20
246.96570599985321
 30
0.0
 11
362.88488365424502
 21
246.96570599985321
 31
0.0
  0
LINE
  5
B8D
  8
0
 62
     0
 10
362.24988365424502
 20
246.96570599985321
 30
0.0
 11
362.24988365424502
 21
246.96570599985321
 31
0.0
  0
LINE
  5
B8E
  8
0
 62
     0
 10
361.61488365424498
 20
246.96570599985321
 30
0.0
 11
361.61488365424498
 21
246.96570599985321
 31
0.0
  0
LINE
  5
B8F
  8
0
 62
     0
 10
360.97988365424499
 20
246.96570599985321
 30
0.0
 11
360.97988365424499
 21
246.96570599985321
 31
0.0
  0
LINE
  5
B90
  8
0
 62
     0
 10
360.344883654245
 20
246.96570599985321
 30
0.0
 11
360.344883654245
 21
246.96570599985321
 31
0.0
  0
LINE
  5
B91
  8
0
 62
     0
 10
359.709883654245
 20
246.96570599985321
 30
0.0
 11
359.709883654245
 21
246.96570599985321
 31
0.0
  0
LINE
  5
B92
  8
0
 62
     0
 10
359.07488365424501
 20
246.96570599985321
 30
0.0
 11
359.07488365424501
 21
246.96570599985321
 31
0.0
  0
LINE
  5
B93
  8
0
 62
     0
 10
358.43988365424502
 20
246.96570599985321
 30
0.0
 11
358.43988365424502
 21
246.96570599985321
 31
0.0
  0
LINE
  5
B94
  8
0
 62
     0
 10
327.3248836542449
 20
246.96570599985321
 30
0.0
 11
327.3248836542449
 21
246.96570599985321
 31
0.0
  0
LINE
  5
B95
  8
0
 62
     0
 10
326.68988365424491
 20
246.96570599985321
 30
0.0
 11
326.68988365424491
 21
246.96570599985321
 31
0.0
  0
LINE
  5
B96
  8
0
 62
     0
 10
326.05488365424492
 20
246.96570599985321
 30
0.0
 11
326.05488365424492
 21
246.96570599985321
 31
0.0
  0
LINE
  5
B97
  8
0
 62
     0
 10
325.41988365424493
 20
246.96570599985321
 30
0.0
 11
325.41988365424493
 21
246.96570599985321
 31
0.0
  0
LINE
  5
B98
  8
0
 62
     0
 10
324.78488365424488
 20
246.96570599985321
 30
0.0
 11
324.78488365424488
 21
246.96570599985321
 31
0.0
  0
LINE
  5
B99
  8
0
 62
     0
 10
324.14988365424489
 20
246.96570599985321
 30
0.0
 11
324.14988365424489
 21
246.96570599985321
 31
0.0
  0
LINE
  5
B9A
  8
0
 62
     0
 10
323.51488365424501
 20
246.96570599985321
 30
0.0
 11
323.51488365424501
 21
246.96570599985321
 31
0.0
  0
LINE
  5
B9B
  8
0
 62
     0
 10
322.87988365424502
 20
246.96570599985321
 30
0.0
 11
322.87988365424502
 21
246.96570599985321
 31
0.0
  0
LINE
  5
B9C
  8
0
 62
     0
 10
322.24488365424497
 20
246.96570599985321
 30
0.0
 11
322.24488365424497
 21
246.96570599985321
 31
0.0
  0
LINE
  5
B9D
  8
0
 62
     0
 10
321.60988365424498
 20
246.96570599985321
 30
0.0
 11
321.60988365424498
 21
246.96570599985321
 31
0.0
  0
LINE
  5
B9E
  8
0
 62
     0
 10
320.97488365424499
 20
246.96570599985321
 30
0.0
 11
320.97488365424499
 21
246.96570599985321
 31
0.0
  0
LINE
  5
B9F
  8
0
 62
     0
 10
320.339883654245
 20
246.96570599985321
 30
0.0
 11
320.339883654245
 21
246.96570599985321
 31
0.0
  0
LINE
  5
BA0
  8
0
 62
     0
 10
319.70488365424501
 20
246.96570599985321
 30
0.0
 11
319.70488365424501
 21
246.96570599985321
 31
0.0
  0
LINE
  5
BA1
  8
0
 62
     0
 10
319.06988365424502
 20
246.96570599985321
 30
0.0
 11
319.06988365424502
 21
246.96570599985321
 31
0.0
  0
LINE
  5
BA2
  8
0
 62
     0
 10
318.43488365424503
 20
246.96570599985321
 30
0.0
 11
318.43488365424503
 21
246.96570599985321
 31
0.0
  0
LINE
  5
BA3
  8
0
 62
     0
 10
367.64738365424489
 20
247.6007059998532
 30
0.0
 11
367.64738365424489
 21
247.6007059998532
 31
0.0
  0
LINE
  5
BA4
  8
0
 62
     0
 10
367.0123836542449
 20
247.6007059998532
 30
0.0
 11
367.0123836542449
 21
247.6007059998532
 31
0.0
  0
LINE
  5
BA5
  8
0
 62
     0
 10
366.37738365424491
 20
247.6007059998532
 30
0.0
 11
366.37738365424491
 21
247.6007059998532
 31
0.0
  0
LINE
  5
BA6
  8
0
 62
     0
 10
365.74238365424492
 20
247.6007059998532
 30
0.0
 11
365.74238365424492
 21
247.6007059998532
 31
0.0
  0
LINE
  5
BA7
  8
0
 62
     0
 10
365.10738365424493
 20
247.6007059998532
 30
0.0
 11
365.10738365424493
 21
247.6007059998532
 31
0.0
  0
LINE
  5
BA8
  8
0
 62
     0
 10
364.47238365424488
 20
247.6007059998532
 30
0.0
 11
364.47238365424488
 21
247.6007059998532
 31
0.0
  0
LINE
  5
BA9
  8
0
 62
     0
 10
363.837383654245
 20
247.6007059998532
 30
0.0
 11
363.837383654245
 21
247.6007059998532
 31
0.0
  0
LINE
  5
BAA
  8
0
 62
     0
 10
363.20238365424501
 20
247.6007059998532
 30
0.0
 11
363.20238365424501
 21
247.6007059998532
 31
0.0
  0
LINE
  5
BAB
  8
0
 62
     0
 10
362.56738365424502
 20
247.6007059998532
 30
0.0
 11
362.56738365424502
 21
247.6007059998532
 31
0.0
  0
LINE
  5
BAC
  8
0
 62
     0
 10
361.93238365424497
 20
247.6007059998532
 30
0.0
 11
361.93238365424497
 21
247.6007059998532
 31
0.0
  0
LINE
  5
BAD
  8
0
 62
     0
 10
361.29738365424498
 20
247.6007059998532
 30
0.0
 11
361.29738365424498
 21
247.6007059998532
 31
0.0
  0
LINE
  5
BAE
  8
0
 62
     0
 10
360.66238365424499
 20
247.6007059998532
 30
0.0
 11
360.66238365424499
 21
247.6007059998532
 31
0.0
  0
LINE
  5
BAF
  8
0
 62
     0
 10
360.027383654245
 20
247.6007059998532
 30
0.0
 11
360.027383654245
 21
247.6007059998532
 31
0.0
  0
LINE
  5
BB0
  8
0
 62
     0
 10
359.39238365424501
 20
247.6007059998532
 30
0.0
 11
359.39238365424501
 21
247.6007059998532
 31
0.0
  0
LINE
  5
BB1
  8
0
 62
     0
 10
358.75738365424502
 20
247.6007059998532
 30
0.0
 11
358.75738365424502
 21
247.6007059998532
 31
0.0
  0
LINE
  5
BB2
  8
0
 62
     0
 10
327.0073836542449
 20
247.6007059998532
 30
0.0
 11
327.0073836542449
 21
247.6007059998532
 31
0.0
  0
LINE
  5
BB3
  8
0
 62
     0
 10
326.37238365424491
 20
247.6007059998532
 30
0.0
 11
326.37238365424491
 21
247.6007059998532
 31
0.0
  0
LINE
  5
BB4
  8
0
 62
     0
 10
325.73738365424492
 20
247.6007059998532
 30
0.0
 11
325.73738365424492
 21
247.6007059998532
 31
0.0
  0
LINE
  5
BB5
  8
0
 62
     0
 10
325.10238365424487
 20
247.6007059998532
 30
0.0
 11
325.10238365424487
 21
247.6007059998532
 31
0.0
  0
LINE
  5
BB6
  8
0
 62
     0
 10
324.467383654245
 20
247.6007059998532
 30
0.0
 11
324.467383654245
 21
247.6007059998532
 31
0.0
  0
LINE
  5
BB7
  8
0
 62
     0
 10
323.83238365424489
 20
247.6007059998532
 30
0.0
 11
323.83238365424489
 21
247.6007059998532
 31
0.0
  0
LINE
  5
BB8
  8
0
 62
     0
 10
323.1973836542449
 20
247.6007059998532
 30
0.0
 11
323.1973836542449
 21
247.6007059998532
 31
0.0
  0
LINE
  5
BB9
  8
0
 62
     0
 10
322.56238365424502
 20
247.6007059998532
 30
0.0
 11
322.56238365424502
 21
247.6007059998532
 31
0.0
  0
LINE
  5
BBA
  8
0
 62
     0
 10
321.92738365424498
 20
247.6007059998532
 30
0.0
 11
321.92738365424498
 21
247.6007059998532
 31
0.0
  0
LINE
  5
BBB
  8
0
 62
     0
 10
321.29238365424499
 20
247.6007059998532
 30
0.0
 11
321.29238365424499
 21
247.6007059998532
 31
0.0
  0
LINE
  5
BBC
  8
0
 62
     0
 10
320.657383654245
 20
247.6007059998532
 30
0.0
 11
320.657383654245
 21
247.6007059998532
 31
0.0
  0
LINE
  5
BBD
  8
0
 62
     0
 10
320.022383654245
 20
247.6007059998532
 30
0.0
 11
320.022383654245
 21
247.6007059998532
 31
0.0
  0
LINE
  5
BBE
  8
0
 62
     0
 10
319.38738365424501
 20
247.6007059998532
 30
0.0
 11
319.38738365424501
 21
247.6007059998532
 31
0.0
  0
LINE
  5
BBF
  8
0
 62
     0
 10
318.75238365424502
 20
247.6007059998532
 30
0.0
 11
318.75238365424502
 21
247.6007059998532
 31
0.0
  0
LINE
  5
BC0
  8
0
 62
     0
 10
318.11738365424497
 20
247.6007059998532
 30
0.0
 11
318.11738365424497
 21
247.6007059998532
 31
0.0
  0
LINE
  5
BC1
  8
0
 62
     0
 10
367.3298836542449
 20
248.2357059998532
 30
0.0
 11
367.3298836542449
 21
248.2357059998532
 31
0.0
  0
LINE
  5
BC2
  8
0
 62
     0
 10
366.6948836542449
 20
248.2357059998532
 30
0.0
 11
366.6948836542449
 21
248.2357059998532
 31
0.0
  0
LINE
  5
BC3
  8
0
 62
     0
 10
366.05988365424491
 20
248.2357059998532
 30
0.0
 11
366.05988365424491
 21
248.2357059998532
 31
0.0
  0
LINE
  5
BC4
  8
0
 62
     0
 10
365.42488365424492
 20
248.2357059998532
 30
0.0
 11
365.42488365424492
 21
248.2357059998532
 31
0.0
  0
LINE
  5
BC5
  8
0
 62
     0
 10
364.78988365424487
 20
248.2357059998532
 30
0.0
 11
364.78988365424487
 21
248.2357059998532
 31
0.0
  0
LINE
  5
BC6
  8
0
 62
     0
 10
364.15488365424488
 20
248.2357059998532
 30
0.0
 11
364.15488365424488
 21
248.2357059998532
 31
0.0
  0
LINE
  5
BC7
  8
0
 62
     0
 10
363.51988365424489
 20
248.2357059998532
 30
0.0
 11
363.51988365424489
 21
248.2357059998532
 31
0.0
  0
LINE
  5
BC8
  8
0
 62
     0
 10
362.88488365424502
 20
248.2357059998532
 30
0.0
 11
362.88488365424502
 21
248.2357059998532
 31
0.0
  0
LINE
  5
BC9
  8
0
 62
     0
 10
362.24988365424502
 20
248.2357059998532
 30
0.0
 11
362.24988365424502
 21
248.2357059998532
 31
0.0
  0
LINE
  5
BCA
  8
0
 62
     0
 10
361.61488365424498
 20
248.2357059998532
 30
0.0
 11
361.61488365424498
 21
248.2357059998532
 31
0.0
  0
LINE
  5
BCB
  8
0
 62
     0
 10
360.97988365424499
 20
248.2357059998532
 30
0.0
 11
360.97988365424499
 21
248.2357059998532
 31
0.0
  0
LINE
  5
BCC
  8
0
 62
     0
 10
360.344883654245
 20
248.2357059998532
 30
0.0
 11
360.344883654245
 21
248.2357059998532
 31
0.0
  0
LINE
  5
BCD
  8
0
 62
     0
 10
359.709883654245
 20
248.2357059998532
 30
0.0
 11
359.709883654245
 21
248.2357059998532
 31
0.0
  0
LINE
  5
BCE
  8
0
 62
     0
 10
359.07488365424501
 20
248.2357059998532
 30
0.0
 11
359.07488365424501
 21
248.2357059998532
 31
0.0
  0
LINE
  5
BCF
  8
0
 62
     0
 10
358.43988365424502
 20
248.2357059998532
 30
0.0
 11
358.43988365424502
 21
248.2357059998532
 31
0.0
  0
LINE
  5
BD0
  8
0
 62
     0
 10
327.3248836542449
 20
248.2357059998532
 30
0.0
 11
327.3248836542449
 21
248.2357059998532
 31
0.0
  0
LINE
  5
BD1
  8
0
 62
     0
 10
326.68988365424491
 20
248.2357059998532
 30
0.0
 11
326.68988365424491
 21
248.2357059998532
 31
0.0
  0
LINE
  5
BD2
  8
0
 62
     0
 10
326.05488365424492
 20
248.2357059998532
 30
0.0
 11
326.05488365424492
 21
248.2357059998532
 31
0.0
  0
LINE
  5
BD3
  8
0
 62
     0
 10
325.41988365424493
 20
248.2357059998532
 30
0.0
 11
325.41988365424493
 21
248.2357059998532
 31
0.0
  0
LINE
  5
BD4
  8
0
 62
     0
 10
324.78488365424488
 20
248.2357059998532
 30
0.0
 11
324.78488365424488
 21
248.2357059998532
 31
0.0
  0
LINE
  5
BD5
  8
0
 62
     0
 10
324.14988365424489
 20
248.2357059998532
 30
0.0
 11
324.14988365424489
 21
248.2357059998532
 31
0.0
  0
LINE
  5
BD6
  8
0
 62
     0
 10
323.51488365424501
 20
248.2357059998532
 30
0.0
 11
323.51488365424501
 21
248.2357059998532
 31
0.0
  0
LINE
  5
BD7
  8
0
 62
     0
 10
322.87988365424502
 20
248.2357059998532
 30
0.0
 11
322.87988365424502
 21
248.2357059998532
 31
0.0
  0
LINE
  5
BD8
  8
0
 62
     0
 10
322.24488365424497
 20
248.2357059998532
 30
0.0
 11
322.24488365424497
 21
248.2357059998532
 31
0.0
  0
LINE
  5
BD9
  8
0
 62
     0
 10
321.60988365424498
 20
248.2357059998532
 30
0.0
 11
321.60988365424498
 21
248.2357059998532
 31
0.0
  0
LINE
  5
BDA
  8
0
 62
     0
 10
320.97488365424499
 20
248.2357059998532
 30
0.0
 11
320.97488365424499
 21
248.2357059998532
 31
0.0
  0
LINE
  5
BDB
  8
0
 62
     0
 10
320.339883654245
 20
248.2357059998532
 30
0.0
 11
320.339883654245
 21
248.2357059998532
 31
0.0
  0
LINE
  5
BDC
  8
0
 62
     0
 10
319.70488365424501
 20
248.2357059998532
 30
0.0
 11
319.70488365424501
 21
248.2357059998532
 31
0.0
  0
LINE
  5
BDD
  8
0
 62
     0
 10
319.06988365424502
 20
248.2357059998532
 30
0.0
 11
319.06988365424502
 21
248.2357059998532
 31
0.0
  0
LINE
  5
BDE
  8
0
 62
     0
 10
318.43488365424503
 20
248.2357059998532
 30
0.0
 11
318.43488365424503
 21
248.2357059998532
 31
0.0
  0
LINE
  5
BDF
  8
0
 62
     0
 10
367.647383654245
 20
252.68070599985319
 30
0.0
 11
367.647383654245
 21
252.68070599985319
 31
0.0
  0
LINE
  5
BE0
  8
0
 62
     0
 10
367.01238365424501
 20
252.68070599985319
 30
0.0
 11
367.01238365424501
 21
252.68070599985319
 31
0.0
  0
LINE
  5
BE1
  8
0
 62
     0
 10
366.37738365424502
 20
252.68070599985319
 30
0.0
 11
366.37738365424502
 21
252.68070599985319
 31
0.0
  0
LINE
  5
BE2
  8
0
 62
     0
 10
365.74238365424497
 20
252.68070599985319
 30
0.0
 11
365.74238365424497
 21
252.68070599985319
 31
0.0
  0
LINE
  5
BE3
  8
0
 62
     0
 10
365.10738365424498
 20
252.68070599985319
 30
0.0
 11
365.10738365424498
 21
252.68070599985319
 31
0.0
  0
LINE
  5
BE4
  8
0
 62
     0
 10
364.47238365424499
 20
252.68070599985319
 30
0.0
 11
364.47238365424499
 21
252.68070599985319
 31
0.0
  0
LINE
  5
BE5
  8
0
 62
     0
 10
363.837383654245
 20
252.68070599985319
 30
0.0
 11
363.837383654245
 21
252.68070599985319
 31
0.0
  0
LINE
  5
BE6
  8
0
 62
     0
 10
363.20238365424501
 20
252.68070599985319
 30
0.0
 11
363.20238365424501
 21
252.68070599985319
 31
0.0
  0
LINE
  5
BE7
  8
0
 62
     0
 10
362.56738365424502
 20
252.68070599985319
 30
0.0
 11
362.56738365424502
 21
252.68070599985319
 31
0.0
  0
LINE
  5
BE8
  8
0
 62
     0
 10
361.93238365424497
 20
252.68070599985319
 30
0.0
 11
361.93238365424497
 21
252.68070599985319
 31
0.0
  0
LINE
  5
BE9
  8
0
 62
     0
 10
361.2973836542451
 20
252.68070599985319
 30
0.0
 11
361.2973836542451
 21
252.68070599985319
 31
0.0
  0
LINE
  5
BEA
  8
0
 62
     0
 10
360.66238365424499
 20
252.68070599985319
 30
0.0
 11
360.66238365424499
 21
252.68070599985319
 31
0.0
  0
LINE
  5
BEB
  8
0
 62
     0
 10
360.027383654245
 20
252.68070599985319
 30
0.0
 11
360.027383654245
 21
252.68070599985319
 31
0.0
  0
LINE
  5
BEC
  8
0
 62
     0
 10
359.39238365424512
 20
252.68070599985319
 30
0.0
 11
359.39238365424512
 21
252.68070599985319
 31
0.0
  0
LINE
  5
BED
  8
0
 62
     0
 10
358.75738365424507
 20
252.68070599985319
 30
0.0
 11
358.75738365424507
 21
252.68070599985319
 31
0.0
  0
LINE
  5
BEE
  8
0
 62
     0
 10
327.0073836542449
 20
252.68070599985319
 30
0.0
 11
327.0073836542449
 21
252.68070599985319
 31
0.0
  0
LINE
  5
BEF
  8
0
 62
     0
 10
326.37238365424491
 20
252.68070599985319
 30
0.0
 11
326.37238365424491
 21
252.68070599985319
 31
0.0
  0
LINE
  5
BF0
  8
0
 62
     0
 10
325.73738365424492
 20
252.68070599985319
 30
0.0
 11
325.73738365424492
 21
252.68070599985319
 31
0.0
  0
LINE
  5
BF1
  8
0
 62
     0
 10
325.10238365424487
 20
252.68070599985319
 30
0.0
 11
325.10238365424487
 21
252.68070599985319
 31
0.0
  0
LINE
  5
BF2
  8
0
 62
     0
 10
324.467383654245
 20
252.68070599985319
 30
0.0
 11
324.467383654245
 21
252.68070599985319
 31
0.0
  0
LINE
  5
BF3
  8
0
 62
     0
 10
323.83238365424489
 20
252.68070599985319
 30
0.0
 11
323.83238365424489
 21
252.68070599985319
 31
0.0
  0
LINE
  5
BF4
  8
0
 62
     0
 10
323.1973836542449
 20
252.68070599985319
 30
0.0
 11
323.1973836542449
 21
252.68070599985319
 31
0.0
  0
LINE
  5
BF5
  8
0
 62
     0
 10
322.56238365424502
 20
252.68070599985319
 30
0.0
 11
322.56238365424502
 21
252.68070599985319
 31
0.0
  0
LINE
  5
BF6
  8
0
 62
     0
 10
321.92738365424498
 20
252.68070599985319
 30
0.0
 11
321.92738365424498
 21
252.68070599985319
 31
0.0
  0
LINE
  5
BF7
  8
0
 62
     0
 10
321.29238365424499
 20
252.68070599985319
 30
0.0
 11
321.29238365424499
 21
252.68070599985319
 31
0.0
  0
LINE
  5
BF8
  8
0
 62
     0
 10
320.657383654245
 20
252.68070599985319
 30
0.0
 11
320.657383654245
 21
252.68070599985319
 31
0.0
  0
LINE
  5
BF9
  8
0
 62
     0
 10
320.022383654245
 20
252.68070599985319
 30
0.0
 11
320.022383654245
 21
252.68070599985319
 31
0.0
  0
LINE
  5
BFA
  8
0
 62
     0
 10
319.38738365424501
 20
252.68070599985319
 30
0.0
 11
319.38738365424501
 21
252.68070599985319
 31
0.0
  0
LINE
  5
BFB
  8
0
 62
     0
 10
318.75238365424502
 20
252.68070599985319
 30
0.0
 11
318.75238365424502
 21
252.68070599985319
 31
0.0
  0
LINE
  5
BFC
  8
0
 62
     0
 10
318.11738365424497
 20
252.68070599985319
 30
0.0
 11
318.11738365424497
 21
252.68070599985319
 31
0.0
  0
LINE
  5
BFD
  8
0
 62
     0
 10
367.3298836542449
 20
253.31570599985321
 30
0.0
 11
367.3298836542449
 21
253.31570599985321
 31
0.0
  0
LINE
  5
BFE
  8
0
 62
     0
 10
366.6948836542449
 20
253.31570599985321
 30
0.0
 11
366.6948836542449
 21
253.31570599985321
 31
0.0
  0
LINE
  5
BFF
  8
0
 62
     0
 10
366.05988365424491
 20
253.31570599985321
 30
0.0
 11
366.05988365424491
 21
253.31570599985321
 31
0.0
  0
LINE
  5
C00
  8
0
 62
     0
 10
365.42488365424492
 20
253.31570599985321
 30
0.0
 11
365.42488365424492
 21
253.31570599985321
 31
0.0
  0
LINE
  5
C01
  8
0
 62
     0
 10
364.78988365424487
 20
253.31570599985321
 30
0.0
 11
364.78988365424487
 21
253.31570599985321
 31
0.0
  0
LINE
  5
C02
  8
0
 62
     0
 10
364.15488365424488
 20
253.31570599985321
 30
0.0
 11
364.15488365424488
 21
253.31570599985321
 31
0.0
  0
LINE
  5
C03
  8
0
 62
     0
 10
363.51988365424489
 20
253.31570599985321
 30
0.0
 11
363.51988365424489
 21
253.31570599985321
 31
0.0
  0
LINE
  5
C04
  8
0
 62
     0
 10
362.88488365424502
 20
253.31570599985321
 30
0.0
 11
362.88488365424502
 21
253.31570599985321
 31
0.0
  0
LINE
  5
C05
  8
0
 62
     0
 10
362.24988365424502
 20
253.31570599985321
 30
0.0
 11
362.24988365424502
 21
253.31570599985321
 31
0.0
  0
LINE
  5
C06
  8
0
 62
     0
 10
361.61488365424498
 20
253.31570599985321
 30
0.0
 11
361.61488365424498
 21
253.31570599985321
 31
0.0
  0
LINE
  5
C07
  8
0
 62
     0
 10
360.97988365424499
 20
253.31570599985321
 30
0.0
 11
360.97988365424499
 21
253.31570599985321
 31
0.0
  0
LINE
  5
C08
  8
0
 62
     0
 10
360.344883654245
 20
253.31570599985321
 30
0.0
 11
360.344883654245
 21
253.31570599985321
 31
0.0
  0
LINE
  5
C09
  8
0
 62
     0
 10
359.709883654245
 20
253.31570599985321
 30
0.0
 11
359.709883654245
 21
253.31570599985321
 31
0.0
  0
LINE
  5
C0A
  8
0
 62
     0
 10
359.07488365424501
 20
253.31570599985321
 30
0.0
 11
359.07488365424501
 21
253.31570599985321
 31
0.0
  0
LINE
  5
C0B
  8
0
 62
     0
 10
358.43988365424502
 20
253.31570599985321
 30
0.0
 11
358.43988365424502
 21
253.31570599985321
 31
0.0
  0
LINE
  5
C0C
  8
0
 62
     0
 10
327.3248836542449
 20
253.31570599985321
 30
0.0
 11
327.3248836542449
 21
253.31570599985321
 31
0.0
  0
LINE
  5
C0D
  8
0
 62
     0
 10
326.68988365424491
 20
253.31570599985321
 30
0.0
 11
326.68988365424491
 21
253.31570599985321
 31
0.0
  0
LINE
  5
C0E
  8
0
 62
     0
 10
326.05488365424492
 20
253.31570599985321
 30
0.0
 11
326.05488365424492
 21
253.31570599985321
 31
0.0
  0
LINE
  5
C0F
  8
0
 62
     0
 10
325.41988365424493
 20
253.31570599985321
 30
0.0
 11
325.41988365424493
 21
253.31570599985321
 31
0.0
  0
LINE
  5
C10
  8
0
 62
     0
 10
324.78488365424488
 20
253.31570599985321
 30
0.0
 11
324.78488365424488
 21
253.31570599985321
 31
0.0
  0
LINE
  5
C11
  8
0
 62
     0
 10
324.14988365424489
 20
253.31570599985321
 30
0.0
 11
324.14988365424489
 21
253.31570599985321
 31
0.0
  0
LINE
  5
C12
  8
0
 62
     0
 10
323.51488365424501
 20
253.31570599985321
 30
0.0
 11
323.51488365424501
 21
253.31570599985321
 31
0.0
  0
LINE
  5
C13
  8
0
 62
     0
 10
322.87988365424502
 20
253.31570599985321
 30
0.0
 11
322.87988365424502
 21
253.31570599985321
 31
0.0
  0
LINE
  5
C14
  8
0
 62
     0
 10
322.24488365424497
 20
253.31570599985321
 30
0.0
 11
322.24488365424497
 21
253.31570599985321
 31
0.0
  0
LINE
  5
C15
  8
0
 62
     0
 10
321.60988365424498
 20
253.31570599985321
 30
0.0
 11
321.60988365424498
 21
253.31570599985321
 31
0.0
  0
LINE
  5
C16
  8
0
 62
     0
 10
320.97488365424499
 20
253.31570599985321
 30
0.0
 11
320.97488365424499
 21
253.31570599985321
 31
0.0
  0
LINE
  5
C17
  8
0
 62
     0
 10
320.339883654245
 20
253.31570599985321
 30
0.0
 11
320.339883654245
 21
253.31570599985321
 31
0.0
  0
LINE
  5
C18
  8
0
 62
     0
 10
319.70488365424501
 20
253.31570599985321
 30
0.0
 11
319.70488365424501
 21
253.31570599985321
 31
0.0
  0
LINE
  5
C19
  8
0
 62
     0
 10
319.06988365424502
 20
253.31570599985321
 30
0.0
 11
319.06988365424502
 21
253.31570599985321
 31
0.0
  0
LINE
  5
C1A
  8
0
 62
     0
 10
318.43488365424503
 20
253.31570599985321
 30
0.0
 11
318.43488365424503
 21
253.31570599985321
 31
0.0
  0
LINE
  5
C1B
  8
0
 62
     0
 10
367.64738365424489
 20
253.9507059998532
 30
0.0
 11
367.64738365424489
 21
253.9507059998532
 31
0.0
  0
LINE
  5
C1C
  8
0
 62
     0
 10
367.0123836542449
 20
253.9507059998532
 30
0.0
 11
367.0123836542449
 21
253.9507059998532
 31
0.0
  0
LINE
  5
C1D
  8
0
 62
     0
 10
366.37738365424491
 20
253.9507059998532
 30
0.0
 11
366.37738365424491
 21
253.9507059998532
 31
0.0
  0
LINE
  5
C1E
  8
0
 62
     0
 10
365.74238365424492
 20
253.9507059998532
 30
0.0
 11
365.74238365424492
 21
253.9507059998532
 31
0.0
  0
LINE
  5
C1F
  8
0
 62
     0
 10
365.10738365424493
 20
253.9507059998532
 30
0.0
 11
365.10738365424493
 21
253.9507059998532
 31
0.0
  0
LINE
  5
C20
  8
0
 62
     0
 10
364.47238365424488
 20
253.9507059998532
 30
0.0
 11
364.47238365424488
 21
253.9507059998532
 31
0.0
  0
LINE
  5
C21
  8
0
 62
     0
 10
363.837383654245
 20
253.9507059998532
 30
0.0
 11
363.837383654245
 21
253.9507059998532
 31
0.0
  0
LINE
  5
C22
  8
0
 62
     0
 10
363.20238365424501
 20
253.9507059998532
 30
0.0
 11
363.20238365424501
 21
253.9507059998532
 31
0.0
  0
LINE
  5
C23
  8
0
 62
     0
 10
362.56738365424502
 20
253.9507059998532
 30
0.0
 11
362.56738365424502
 21
253.9507059998532
 31
0.0
  0
LINE
  5
C24
  8
0
 62
     0
 10
361.93238365424497
 20
253.9507059998532
 30
0.0
 11
361.93238365424497
 21
253.9507059998532
 31
0.0
  0
LINE
  5
C25
  8
0
 62
     0
 10
361.29738365424498
 20
253.9507059998532
 30
0.0
 11
361.29738365424498
 21
253.9507059998532
 31
0.0
  0
LINE
  5
C26
  8
0
 62
     0
 10
360.66238365424499
 20
253.9507059998532
 30
0.0
 11
360.66238365424499
 21
253.9507059998532
 31
0.0
  0
LINE
  5
C27
  8
0
 62
     0
 10
360.027383654245
 20
253.9507059998532
 30
0.0
 11
360.027383654245
 21
253.9507059998532
 31
0.0
  0
LINE
  5
C28
  8
0
 62
     0
 10
359.39238365424501
 20
253.9507059998532
 30
0.0
 11
359.39238365424501
 21
253.9507059998532
 31
0.0
  0
LINE
  5
C29
  8
0
 62
     0
 10
358.75738365424502
 20
253.9507059998532
 30
0.0
 11
358.75738365424502
 21
253.9507059998532
 31
0.0
  0
LINE
  5
C2A
  8
0
 62
     0
 10
327.0073836542449
 20
253.9507059998532
 30
0.0
 11
327.0073836542449
 21
253.9507059998532
 31
0.0
  0
LINE
  5
C2B
  8
0
 62
     0
 10
326.37238365424491
 20
253.9507059998532
 30
0.0
 11
326.37238365424491
 21
253.9507059998532
 31
0.0
  0
LINE
  5
C2C
  8
0
 62
     0
 10
325.73738365424492
 20
253.9507059998532
 30
0.0
 11
325.73738365424492
 21
253.9507059998532
 31
0.0
  0
LINE
  5
C2D
  8
0
 62
     0
 10
325.10238365424487
 20
253.9507059998532
 30
0.0
 11
325.10238365424487
 21
253.9507059998532
 31
0.0
  0
LINE
  5
C2E
  8
0
 62
     0
 10
324.467383654245
 20
253.9507059998532
 30
0.0
 11
324.467383654245
 21
253.9507059998532
 31
0.0
  0
LINE
  5
C2F
  8
0
 62
     0
 10
323.83238365424489
 20
253.9507059998532
 30
0.0
 11
323.83238365424489
 21
253.9507059998532
 31
0.0
  0
LINE
  5
C30
  8
0
 62
     0
 10
323.1973836542449
 20
253.9507059998532
 30
0.0
 11
323.1973836542449
 21
253.9507059998532
 31
0.0
  0
LINE
  5
C31
  8
0
 62
     0
 10
322.56238365424502
 20
253.9507059998532
 30
0.0
 11
322.56238365424502
 21
253.9507059998532
 31
0.0
  0
LINE
  5
C32
  8
0
 62
     0
 10
321.92738365424498
 20
253.9507059998532
 30
0.0
 11
321.92738365424498
 21
253.9507059998532
 31
0.0
  0
LINE
  5
C33
  8
0
 62
     0
 10
321.29238365424499
 20
253.9507059998532
 30
0.0
 11
321.29238365424499
 21
253.9507059998532
 31
0.0
  0
LINE
  5
C34
  8
0
 62
     0
 10
320.657383654245
 20
253.9507059998532
 30
0.0
 11
320.657383654245
 21
253.9507059998532
 31
0.0
  0
LINE
  5
C35
  8
0
 62
     0
 10
320.022383654245
 20
253.9507059998532
 30
0.0
 11
320.022383654245
 21
253.9507059998532
 31
0.0
  0
LINE
  5
C36
  8
0
 62
     0
 10
319.38738365424501
 20
253.9507059998532
 30
0.0
 11
319.38738365424501
 21
253.9507059998532
 31
0.0
  0
LINE
  5
C37
  8
0
 62
     0
 10
318.75238365424502
 20
253.9507059998532
 30
0.0
 11
318.75238365424502
 21
253.9507059998532
 31
0.0
  0
LINE
  5
C38
  8
0
 62
     0
 10
318.11738365424497
 20
253.9507059998532
 30
0.0
 11
318.11738365424497
 21
253.9507059998532
 31
0.0
  0
LINE
  5
C39
  8
0
 62
     0
 10
367.3298836542449
 20
254.58570599985319
 30
0.0
 11
367.3298836542449
 21
254.58570599985319
 31
0.0
  0
LINE
  5
C3A
  8
0
 62
     0
 10
366.6948836542449
 20
254.58570599985319
 30
0.0
 11
366.6948836542449
 21
254.58570599985319
 31
0.0
  0
LINE
  5
C3B
  8
0
 62
     0
 10
366.05988365424491
 20
254.58570599985319
 30
0.0
 11
366.05988365424491
 21
254.58570599985319
 31
0.0
  0
LINE
  5
C3C
  8
0
 62
     0
 10
365.42488365424492
 20
254.58570599985319
 30
0.0
 11
365.42488365424492
 21
254.58570599985319
 31
0.0
  0
LINE
  5
C3D
  8
0
 62
     0
 10
364.78988365424487
 20
254.58570599985319
 30
0.0
 11
364.78988365424487
 21
254.58570599985319
 31
0.0
  0
LINE
  5
C3E
  8
0
 62
     0
 10
364.15488365424488
 20
254.58570599985319
 30
0.0
 11
364.15488365424488
 21
254.58570599985319
 31
0.0
  0
LINE
  5
C3F
  8
0
 62
     0
 10
363.51988365424489
 20
254.58570599985319
 30
0.0
 11
363.51988365424489
 21
254.58570599985319
 31
0.0
  0
LINE
  5
C40
  8
0
 62
     0
 10
362.88488365424502
 20
254.58570599985319
 30
0.0
 11
362.88488365424502
 21
254.58570599985319
 31
0.0
  0
LINE
  5
C41
  8
0
 62
     0
 10
362.24988365424502
 20
254.58570599985319
 30
0.0
 11
362.24988365424502
 21
254.58570599985319
 31
0.0
  0
LINE
  5
C42
  8
0
 62
     0
 10
361.61488365424498
 20
254.58570599985319
 30
0.0
 11
361.61488365424498
 21
254.58570599985319
 31
0.0
  0
LINE
  5
C43
  8
0
 62
     0
 10
360.97988365424499
 20
254.58570599985319
 30
0.0
 11
360.97988365424499
 21
254.58570599985319
 31
0.0
  0
LINE
  5
C44
  8
0
 62
     0
 10
360.344883654245
 20
254.58570599985319
 30
0.0
 11
360.344883654245
 21
254.58570599985319
 31
0.0
  0
LINE
  5
C45
  8
0
 62
     0
 10
359.709883654245
 20
254.58570599985319
 30
0.0
 11
359.709883654245
 21
254.58570599985319
 31
0.0
  0
LINE
  5
C46
  8
0
 62
     0
 10
359.07488365424501
 20
254.58570599985319
 30
0.0
 11
359.07488365424501
 21
254.58570599985319
 31
0.0
  0
LINE
  5
C47
  8
0
 62
     0
 10
358.43988365424502
 20
254.58570599985319
 30
0.0
 11
358.43988365424502
 21
254.58570599985319
 31
0.0
  0
LINE
  5
C48
  8
0
 62
     0
 10
327.3248836542449
 20
254.58570599985319
 30
0.0
 11
327.3248836542449
 21
254.58570599985319
 31
0.0
  0
LINE
  5
C49
  8
0
 62
     0
 10
326.68988365424491
 20
254.58570599985319
 30
0.0
 11
326.68988365424491
 21
254.58570599985319
 31
0.0
  0
LINE
  5
C4A
  8
0
 62
     0
 10
326.05488365424492
 20
254.58570599985319
 30
0.0
 11
326.05488365424492
 21
254.58570599985319
 31
0.0
  0
LINE
  5
C4B
  8
0
 62
     0
 10
325.41988365424493
 20
254.58570599985319
 30
0.0
 11
325.41988365424493
 21
254.58570599985319
 31
0.0
  0
LINE
  5
C4C
  8
0
 62
     0
 10
324.78488365424488
 20
254.58570599985319
 30
0.0
 11
324.78488365424488
 21
254.58570599985319
 31
0.0
  0
LINE
  5
C4D
  8
0
 62
     0
 10
324.14988365424489
 20
254.58570599985319
 30
0.0
 11
324.14988365424489
 21
254.58570599985319
 31
0.0
  0
LINE
  5
C4E
  8
0
 62
     0
 10
323.51488365424501
 20
254.58570599985319
 30
0.0
 11
323.51488365424501
 21
254.58570599985319
 31
0.0
  0
LINE
  5
C4F
  8
0
 62
     0
 10
322.87988365424502
 20
254.58570599985319
 30
0.0
 11
322.87988365424502
 21
254.58570599985319
 31
0.0
  0
LINE
  5
C50
  8
0
 62
     0
 10
322.24488365424497
 20
254.58570599985319
 30
0.0
 11
322.24488365424497
 21
254.58570599985319
 31
0.0
  0
LINE
  5
C51
  8
0
 62
     0
 10
321.60988365424498
 20
254.58570599985319
 30
0.0
 11
321.60988365424498
 21
254.58570599985319
 31
0.0
  0
LINE
  5
C52
  8
0
 62
     0
 10
320.97488365424499
 20
254.58570599985319
 30
0.0
 11
320.97488365424499
 21
254.58570599985319
 31
0.0
  0
LINE
  5
C53
  8
0
 62
     0
 10
320.339883654245
 20
254.58570599985319
 30
0.0
 11
320.339883654245
 21
254.58570599985319
 31
0.0
  0
LINE
  5
C54
  8
0
 62
     0
 10
319.70488365424501
 20
254.58570599985319
 30
0.0
 11
319.70488365424501
 21
254.58570599985319
 31
0.0
  0
LINE
  5
C55
  8
0
 62
     0
 10
319.06988365424502
 20
254.58570599985319
 30
0.0
 11
319.06988365424502
 21
254.58570599985319
 31
0.0
  0
LINE
  5
C56
  8
0
 62
     0
 10
318.43488365424503
 20
254.58570599985319
 30
0.0
 11
318.43488365424503
 21
254.58570599985319
 31
0.0
  0
LINE
  5
C57
  8
0
 62
     0
 10
367.64738365424478
 20
255.22070599985321
 30
0.0
 11
367.64738365424478
 21
255.22070599985321
 31
0.0
  0
LINE
  5
C58
  8
0
 62
     0
 10
367.01238365424479
 20
255.22070599985321
 30
0.0
 11
367.01238365424479
 21
255.22070599985321
 31
0.0
  0
LINE
  5
C59
  8
0
 62
     0
 10
366.3773836542448
 20
255.22070599985321
 30
0.0
 11
366.3773836542448
 21
255.22070599985321
 31
0.0
  0
LINE
  5
C5A
  8
0
 62
     0
 10
365.7423836542448
 20
255.22070599985321
 30
0.0
 11
365.7423836542448
 21
255.22070599985321
 31
0.0
  0
LINE
  5
C5B
  8
0
 62
     0
 10
365.10738365424481
 20
255.22070599985321
 30
0.0
 11
365.10738365424481
 21
255.22070599985321
 31
0.0
  0
LINE
  5
C5C
  8
0
 62
     0
 10
364.47238365424482
 20
255.22070599985321
 30
0.0
 11
364.47238365424482
 21
255.22070599985321
 31
0.0
  0
LINE
  5
C5D
  8
0
 62
     0
 10
363.83738365424477
 20
255.22070599985321
 30
0.0
 11
363.83738365424477
 21
255.22070599985321
 31
0.0
  0
LINE
  5
C5E
  8
0
 62
     0
 10
363.20238365424478
 20
255.22070599985321
 30
0.0
 11
363.20238365424478
 21
255.22070599985321
 31
0.0
  0
LINE
  5
C5F
  8
0
 62
     0
 10
362.56738365424491
 20
255.22070599985321
 30
0.0
 11
362.56738365424491
 21
255.22070599985321
 31
0.0
  0
LINE
  5
C60
  8
0
 62
     0
 10
361.93238365424492
 20
255.22070599985321
 30
0.0
 11
361.93238365424492
 21
255.22070599985321
 31
0.0
  0
LINE
  5
C61
  8
0
 62
     0
 10
361.29738365424492
 20
255.22070599985321
 30
0.0
 11
361.29738365424492
 21
255.22070599985321
 31
0.0
  0
LINE
  5
C62
  8
0
 62
     0
 10
360.66238365424488
 20
255.22070599985321
 30
0.0
 11
360.66238365424488
 21
255.22070599985321
 31
0.0
  0
LINE
  5
C63
  8
0
 62
     0
 10
360.02738365424489
 20
255.22070599985321
 30
0.0
 11
360.02738365424489
 21
255.22070599985321
 31
0.0
  0
LINE
  5
C64
  8
0
 62
     0
 10
359.3923836542449
 20
255.22070599985321
 30
0.0
 11
359.3923836542449
 21
255.22070599985321
 31
0.0
  0
LINE
  5
C65
  8
0
 62
     0
 10
358.7573836542449
 20
255.22070599985321
 30
0.0
 11
358.7573836542449
 21
255.22070599985321
 31
0.0
  0
LINE
  5
C66
  8
0
 62
     0
 10
358.12238365424491
 20
255.22070599985321
 30
0.0
 11
358.12238365424491
 21
255.22070599985321
 31
0.0
  0
LINE
  5
C67
  8
0
 62
     0
 10
357.48738365424492
 20
255.22070599985321
 30
0.0
 11
357.48738365424492
 21
255.22070599985321
 31
0.0
  0
LINE
  5
C68
  8
0
 62
     0
 10
356.85238365424487
 20
255.22070599985321
 30
0.0
 11
356.85238365424487
 21
255.22070599985321
 31
0.0
  0
LINE
  5
C69
  8
0
 62
     0
 10
356.217383654245
 20
255.22070599985321
 30
0.0
 11
356.217383654245
 21
255.22070599985321
 31
0.0
  0
LINE
  5
C6A
  8
0
 62
     0
 10
355.58238365424501
 20
255.22070599985321
 30
0.0
 11
355.58238365424501
 21
255.22070599985321
 31
0.0
  0
LINE
  5
C6B
  8
0
 62
     0
 10
354.94738365424502
 20
255.22070599985321
 30
0.0
 11
354.94738365424502
 21
255.22070599985321
 31
0.0
  0
LINE
  5
C6C
  8
0
 62
     0
 10
354.31238365424502
 20
255.22070599985321
 30
0.0
 11
354.31238365424502
 21
255.22070599985321
 31
0.0
  0
LINE
  5
C6D
  8
0
 62
     0
 10
353.67738365424498
 20
255.22070599985321
 30
0.0
 11
353.67738365424498
 21
255.22070599985321
 31
0.0
  0
LINE
  5
C6E
  8
0
 62
     0
 10
353.04238365424499
 20
255.22070599985321
 30
0.0
 11
353.04238365424499
 21
255.22070599985321
 31
0.0
  0
LINE
  5
C6F
  8
0
 62
     0
 10
352.407383654245
 20
255.22070599985321
 30
0.0
 11
352.407383654245
 21
255.22070599985321
 31
0.0
  0
LINE
  5
C70
  8
0
 62
     0
 10
351.772383654245
 20
255.22070599985321
 30
0.0
 11
351.772383654245
 21
255.22070599985321
 31
0.0
  0
LINE
  5
C71
  8
0
 62
     0
 10
351.13738365424501
 20
255.22070599985321
 30
0.0
 11
351.13738365424501
 21
255.22070599985321
 31
0.0
  0
LINE
  5
C72
  8
0
 62
     0
 10
350.50238365424502
 20
255.22070599985321
 30
0.0
 11
350.50238365424502
 21
255.22070599985321
 31
0.0
  0
LINE
  5
C73
  8
0
 62
     0
 10
349.86738365424509
 20
255.22070599985321
 30
0.0
 11
349.86738365424509
 21
255.22070599985321
 31
0.0
  0
LINE
  5
C74
  8
0
 62
     0
 10
349.23238365424498
 20
255.22070599985321
 30
0.0
 11
349.23238365424498
 21
255.22070599985321
 31
0.0
  0
LINE
  5
C75
  8
0
 62
     0
 10
348.59738365424499
 20
255.22070599985321
 30
0.0
 11
348.59738365424499
 21
255.22070599985321
 31
0.0
  0
LINE
  5
C76
  8
0
 62
     0
 10
347.962383654245
 20
255.22070599985321
 30
0.0
 11
347.962383654245
 21
255.22070599985321
 31
0.0
  0
LINE
  5
C77
  8
0
 62
     0
 10
337.80238365424469
 20
255.22070599985321
 30
0.0
 11
337.80238365424469
 21
255.22070599985321
 31
0.0
  0
LINE
  5
C78
  8
0
 62
     0
 10
337.16738365424482
 20
255.22070599985321
 30
0.0
 11
337.16738365424482
 21
255.22070599985321
 31
0.0
  0
LINE
  5
C79
  8
0
 62
     0
 10
336.53238365424482
 20
255.22070599985321
 30
0.0
 11
336.53238365424482
 21
255.22070599985321
 31
0.0
  0
LINE
  5
C7A
  8
0
 62
     0
 10
335.89738365424478
 20
255.22070599985321
 30
0.0
 11
335.89738365424478
 21
255.22070599985321
 31
0.0
  0
LINE
  5
C7B
  8
0
 62
     0
 10
335.26238365424479
 20
255.22070599985321
 30
0.0
 11
335.26238365424479
 21
255.22070599985321
 31
0.0
  0
LINE
  5
C7C
  8
0
 62
     0
 10
334.6273836542448
 20
255.22070599985321
 30
0.0
 11
334.6273836542448
 21
255.22070599985321
 31
0.0
  0
LINE
  5
C7D
  8
0
 62
     0
 10
333.9923836542448
 20
255.22070599985321
 30
0.0
 11
333.9923836542448
 21
255.22070599985321
 31
0.0
  0
LINE
  5
C7E
  8
0
 62
     0
 10
333.35738365424481
 20
255.22070599985321
 30
0.0
 11
333.35738365424481
 21
255.22070599985321
 31
0.0
  0
LINE
  5
C7F
  8
0
 62
     0
 10
332.72238365424482
 20
255.22070599985321
 30
0.0
 11
332.72238365424482
 21
255.22070599985321
 31
0.0
  0
LINE
  5
C80
  8
0
 62
     0
 10
332.08738365424477
 20
255.22070599985321
 30
0.0
 11
332.08738365424477
 21
255.22070599985321
 31
0.0
  0
LINE
  5
C81
  8
0
 62
     0
 10
331.45238365424478
 20
255.22070599985321
 30
0.0
 11
331.45238365424478
 21
255.22070599985321
 31
0.0
  0
LINE
  5
C82
  8
0
 62
     0
 10
330.81738365424491
 20
255.22070599985321
 30
0.0
 11
330.81738365424491
 21
255.22070599985321
 31
0.0
  0
LINE
  5
C83
  8
0
 62
     0
 10
330.18238365424492
 20
255.22070599985321
 30
0.0
 11
330.18238365424492
 21
255.22070599985321
 31
0.0
  0
LINE
  5
C84
  8
0
 62
     0
 10
329.54738365424492
 20
255.22070599985321
 30
0.0
 11
329.54738365424492
 21
255.22070599985321
 31
0.0
  0
LINE
  5
C85
  8
0
 62
     0
 10
328.91238365424488
 20
255.22070599985321
 30
0.0
 11
328.91238365424488
 21
255.22070599985321
 31
0.0
  0
LINE
  5
C86
  8
0
 62
     0
 10
328.27738365424489
 20
255.22070599985321
 30
0.0
 11
328.27738365424489
 21
255.22070599985321
 31
0.0
  0
LINE
  5
C87
  8
0
 62
     0
 10
327.6423836542449
 20
255.22070599985321
 30
0.0
 11
327.6423836542449
 21
255.22070599985321
 31
0.0
  0
LINE
  5
C88
  8
0
 62
     0
 10
327.0073836542449
 20
255.22070599985321
 30
0.0
 11
327.0073836542449
 21
255.22070599985321
 31
0.0
  0
LINE
  5
C89
  8
0
 62
     0
 10
326.37238365424491
 20
255.22070599985321
 30
0.0
 11
326.37238365424491
 21
255.22070599985321
 31
0.0
  0
LINE
  5
C8A
  8
0
 62
     0
 10
325.73738365424492
 20
255.22070599985321
 30
0.0
 11
325.73738365424492
 21
255.22070599985321
 31
0.0
  0
LINE
  5
C8B
  8
0
 62
     0
 10
325.10238365424487
 20
255.22070599985321
 30
0.0
 11
325.10238365424487
 21
255.22070599985321
 31
0.0
  0
LINE
  5
C8C
  8
0
 62
     0
 10
324.467383654245
 20
255.22070599985321
 30
0.0
 11
324.467383654245
 21
255.22070599985321
 31
0.0
  0
LINE
  5
C8D
  8
0
 62
     0
 10
323.83238365424489
 20
255.22070599985321
 30
0.0
 11
323.83238365424489
 21
255.22070599985321
 31
0.0
  0
LINE
  5
C8E
  8
0
 62
     0
 10
323.1973836542449
 20
255.22070599985321
 30
0.0
 11
323.1973836542449
 21
255.22070599985321
 31
0.0
  0
LINE
  5
C8F
  8
0
 62
     0
 10
322.56238365424502
 20
255.22070599985321
 30
0.0
 11
322.56238365424502
 21
255.22070599985321
 31
0.0
  0
LINE
  5
C90
  8
0
 62
     0
 10
321.92738365424498
 20
255.22070599985321
 30
0.0
 11
321.92738365424498
 21
255.22070599985321
 31
0.0
  0
LINE
  5
C91
  8
0
 62
     0
 10
321.29238365424499
 20
255.22070599985321
 30
0.0
 11
321.29238365424499
 21
255.22070599985321
 31
0.0
  0
LINE
  5
C92
  8
0
 62
     0
 10
320.657383654245
 20
255.22070599985321
 30
0.0
 11
320.657383654245
 21
255.22070599985321
 31
0.0
  0
LINE
  5
C93
  8
0
 62
     0
 10
320.022383654245
 20
255.22070599985321
 30
0.0
 11
320.022383654245
 21
255.22070599985321
 31
0.0
  0
LINE
  5
C94
  8
0
 62
     0
 10
319.38738365424501
 20
255.22070599985321
 30
0.0
 11
319.38738365424501
 21
255.22070599985321
 31
0.0
  0
LINE
  5
C95
  8
0
 62
     0
 10
318.75238365424502
 20
255.22070599985321
 30
0.0
 11
318.75238365424502
 21
255.22070599985321
 31
0.0
  0
LINE
  5
C96
  8
0
 62
     0
 10
318.11738365424497
 20
255.22070599985321
 30
0.0
 11
318.11738365424497
 21
255.22070599985321
 31
0.0
  0
LINE
  5
C97
  8
0
 62
     0
 10
367.32988365424478
 20
255.8557059998532
 30
0.0
 11
367.32988365424478
 21
255.8557059998532
 31
0.0
  0
LINE
  5
C98
  8
0
 62
     0
 10
366.69488365424479
 20
255.8557059998532
 30
0.0
 11
366.69488365424479
 21
255.8557059998532
 31
0.0
  0
LINE
  5
C99
  8
0
 62
     0
 10
366.0598836542448
 20
255.8557059998532
 30
0.0
 11
366.0598836542448
 21
255.8557059998532
 31
0.0
  0
LINE
  5
C9A
  8
0
 62
     0
 10
365.42488365424481
 20
255.8557059998532
 30
0.0
 11
365.42488365424481
 21
255.8557059998532
 31
0.0
  0
LINE
  5
C9B
  8
0
 62
     0
 10
364.78988365424482
 20
255.8557059998532
 30
0.0
 11
364.78988365424482
 21
255.8557059998532
 31
0.0
  0
LINE
  5
C9C
  8
0
 62
     0
 10
364.15488365424483
 20
255.8557059998532
 30
0.0
 11
364.15488365424483
 21
255.8557059998532
 31
0.0
  0
LINE
  5
C9D
  8
0
 62
     0
 10
363.51988365424489
 20
255.8557059998532
 30
0.0
 11
363.51988365424489
 21
255.8557059998532
 31
0.0
  0
LINE
  5
C9E
  8
0
 62
     0
 10
362.8848836542449
 20
255.8557059998532
 30
0.0
 11
362.8848836542449
 21
255.8557059998532
 31
0.0
  0
LINE
  5
C9F
  8
0
 62
     0
 10
362.2498836542448
 20
255.8557059998532
 30
0.0
 11
362.2498836542448
 21
255.8557059998532
 31
0.0
  0
LINE
  5
CA0
  8
0
 62
     0
 10
361.61488365424492
 20
255.8557059998532
 30
0.0
 11
361.61488365424492
 21
255.8557059998532
 31
0.0
  0
LINE
  5
CA1
  8
0
 62
     0
 10
360.97988365424487
 20
255.8557059998532
 30
0.0
 11
360.97988365424487
 21
255.8557059998532
 31
0.0
  0
LINE
  5
CA2
  8
0
 62
     0
 10
360.34488365424488
 20
255.8557059998532
 30
0.0
 11
360.34488365424488
 21
255.8557059998532
 31
0.0
  0
LINE
  5
CA3
  8
0
 62
     0
 10
359.70988365424489
 20
255.8557059998532
 30
0.0
 11
359.70988365424489
 21
255.8557059998532
 31
0.0
  0
LINE
  5
CA4
  8
0
 62
     0
 10
359.0748836542449
 20
255.8557059998532
 30
0.0
 11
359.0748836542449
 21
255.8557059998532
 31
0.0
  0
LINE
  5
CA5
  8
0
 62
     0
 10
358.43988365424491
 20
255.8557059998532
 30
0.0
 11
358.43988365424491
 21
255.8557059998532
 31
0.0
  0
LINE
  5
CA6
  8
0
 62
     0
 10
357.80488365424492
 20
255.8557059998532
 30
0.0
 11
357.80488365424492
 21
255.8557059998532
 31
0.0
  0
LINE
  5
CA7
  8
0
 62
     0
 10
357.16988365424493
 20
255.8557059998532
 30
0.0
 11
357.16988365424493
 21
255.8557059998532
 31
0.0
  0
LINE
  5
CA8
  8
0
 62
     0
 10
356.53488365424488
 20
255.8557059998532
 30
0.0
 11
356.53488365424488
 21
255.8557059998532
 31
0.0
  0
LINE
  5
CA9
  8
0
 62
     0
 10
355.89988365424489
 20
255.8557059998532
 30
0.0
 11
355.89988365424489
 21
255.8557059998532
 31
0.0
  0
LINE
  5
CAA
  8
0
 62
     0
 10
355.26488365424501
 20
255.8557059998532
 30
0.0
 11
355.26488365424501
 21
255.8557059998532
 31
0.0
  0
LINE
  5
CAB
  8
0
 62
     0
 10
354.62988365424502
 20
255.8557059998532
 30
0.0
 11
354.62988365424502
 21
255.8557059998532
 31
0.0
  0
LINE
  5
CAC
  8
0
 62
     0
 10
353.99488365424497
 20
255.8557059998532
 30
0.0
 11
353.99488365424497
 21
255.8557059998532
 31
0.0
  0
LINE
  5
CAD
  8
0
 62
     0
 10
353.35988365424498
 20
255.8557059998532
 30
0.0
 11
353.35988365424498
 21
255.8557059998532
 31
0.0
  0
LINE
  5
CAE
  8
0
 62
     0
 10
352.72488365424499
 20
255.8557059998532
 30
0.0
 11
352.72488365424499
 21
255.8557059998532
 31
0.0
  0
LINE
  5
CAF
  8
0
 62
     0
 10
352.089883654245
 20
255.8557059998532
 30
0.0
 11
352.089883654245
 21
255.8557059998532
 31
0.0
  0
LINE
  5
CB0
  8
0
 62
     0
 10
351.45488365424501
 20
255.8557059998532
 30
0.0
 11
351.45488365424501
 21
255.8557059998532
 31
0.0
  0
LINE
  5
CB1
  8
0
 62
     0
 10
350.81988365424502
 20
255.8557059998532
 30
0.0
 11
350.81988365424502
 21
255.8557059998532
 31
0.0
  0
LINE
  5
CB2
  8
0
 62
     0
 10
350.18488365424503
 20
255.8557059998532
 30
0.0
 11
350.18488365424503
 21
255.8557059998532
 31
0.0
  0
LINE
  5
CB3
  8
0
 62
     0
 10
349.54988365424498
 20
255.8557059998532
 30
0.0
 11
349.54988365424498
 21
255.8557059998532
 31
0.0
  0
LINE
  5
CB4
  8
0
 62
     0
 10
348.9148836542451
 20
255.8557059998532
 30
0.0
 11
348.9148836542451
 21
255.8557059998532
 31
0.0
  0
LINE
  5
CB5
  8
0
 62
     0
 10
348.27988365424511
 20
255.8557059998532
 30
0.0
 11
348.27988365424511
 21
255.8557059998532
 31
0.0
  0
LINE
  5
CB6
  8
0
 62
     0
 10
337.48488365424481
 20
255.8557059998532
 30
0.0
 11
337.48488365424481
 21
255.8557059998532
 31
0.0
  0
LINE
  5
CB7
  8
0
 62
     0
 10
336.84988365424471
 20
255.8557059998532
 30
0.0
 11
336.84988365424471
 21
255.8557059998532
 31
0.0
  0
LINE
  5
CB8
  8
0
 62
     0
 10
336.21488365424477
 20
255.8557059998532
 30
0.0
 11
336.21488365424477
 21
255.8557059998532
 31
0.0
  0
LINE
  5
CB9
  8
0
 62
     0
 10
335.57988365424478
 20
255.8557059998532
 30
0.0
 11
335.57988365424478
 21
255.8557059998532
 31
0.0
  0
LINE
  5
CBA
  8
0
 62
     0
 10
334.94488365424479
 20
255.8557059998532
 30
0.0
 11
334.94488365424479
 21
255.8557059998532
 31
0.0
  0
LINE
  5
CBB
  8
0
 62
     0
 10
334.3098836542448
 20
255.8557059998532
 30
0.0
 11
334.3098836542448
 21
255.8557059998532
 31
0.0
  0
LINE
  5
CBC
  8
0
 62
     0
 10
333.67488365424481
 20
255.8557059998532
 30
0.0
 11
333.67488365424481
 21
255.8557059998532
 31
0.0
  0
LINE
  5
CBD
  8
0
 62
     0
 10
333.03988365424482
 20
255.8557059998532
 30
0.0
 11
333.03988365424482
 21
255.8557059998532
 31
0.0
  0
LINE
  5
CBE
  8
0
 62
     0
 10
332.40488365424483
 20
255.8557059998532
 30
0.0
 11
332.40488365424483
 21
255.8557059998532
 31
0.0
  0
LINE
  5
CBF
  8
0
 62
     0
 10
331.76988365424478
 20
255.8557059998532
 30
0.0
 11
331.76988365424478
 21
255.8557059998532
 31
0.0
  0
LINE
  5
CC0
  8
0
 62
     0
 10
331.13488365424479
 20
255.8557059998532
 30
0.0
 11
331.13488365424479
 21
255.8557059998532
 31
0.0
  0
LINE
  5
CC1
  8
0
 62
     0
 10
330.4998836542448
 20
255.8557059998532
 30
0.0
 11
330.4998836542448
 21
255.8557059998532
 31
0.0
  0
LINE
  5
CC2
  8
0
 62
     0
 10
329.86488365424492
 20
255.8557059998532
 30
0.0
 11
329.86488365424492
 21
255.8557059998532
 31
0.0
  0
LINE
  5
CC3
  8
0
 62
     0
 10
329.22988365424487
 20
255.8557059998532
 30
0.0
 11
329.22988365424487
 21
255.8557059998532
 31
0.0
  0
LINE
  5
CC4
  8
0
 62
     0
 10
328.59488365424488
 20
255.8557059998532
 30
0.0
 11
328.59488365424488
 21
255.8557059998532
 31
0.0
  0
LINE
  5
CC5
  8
0
 62
     0
 10
327.95988365424489
 20
255.8557059998532
 30
0.0
 11
327.95988365424489
 21
255.8557059998532
 31
0.0
  0
LINE
  5
CC6
  8
0
 62
     0
 10
327.3248836542449
 20
255.8557059998532
 30
0.0
 11
327.3248836542449
 21
255.8557059998532
 31
0.0
  0
LINE
  5
CC7
  8
0
 62
     0
 10
326.68988365424491
 20
255.8557059998532
 30
0.0
 11
326.68988365424491
 21
255.8557059998532
 31
0.0
  0
LINE
  5
CC8
  8
0
 62
     0
 10
326.05488365424492
 20
255.8557059998532
 30
0.0
 11
326.05488365424492
 21
255.8557059998532
 31
0.0
  0
LINE
  5
CC9
  8
0
 62
     0
 10
325.41988365424493
 20
255.8557059998532
 30
0.0
 11
325.41988365424493
 21
255.8557059998532
 31
0.0
  0
LINE
  5
CCA
  8
0
 62
     0
 10
324.78488365424488
 20
255.8557059998532
 30
0.0
 11
324.78488365424488
 21
255.8557059998532
 31
0.0
  0
LINE
  5
CCB
  8
0
 62
     0
 10
324.14988365424489
 20
255.8557059998532
 30
0.0
 11
324.14988365424489
 21
255.8557059998532
 31
0.0
  0
LINE
  5
CCC
  8
0
 62
     0
 10
323.51488365424501
 20
255.8557059998532
 30
0.0
 11
323.51488365424501
 21
255.8557059998532
 31
0.0
  0
LINE
  5
CCD
  8
0
 62
     0
 10
322.87988365424502
 20
255.8557059998532
 30
0.0
 11
322.87988365424502
 21
255.8557059998532
 31
0.0
  0
LINE
  5
CCE
  8
0
 62
     0
 10
322.24488365424497
 20
255.8557059998532
 30
0.0
 11
322.24488365424497
 21
255.8557059998532
 31
0.0
  0
LINE
  5
CCF
  8
0
 62
     0
 10
321.60988365424498
 20
255.8557059998532
 30
0.0
 11
321.60988365424498
 21
255.8557059998532
 31
0.0
  0
LINE
  5
CD0
  8
0
 62
     0
 10
320.97488365424499
 20
255.8557059998532
 30
0.0
 11
320.97488365424499
 21
255.8557059998532
 31
0.0
  0
LINE
  5
CD1
  8
0
 62
     0
 10
320.339883654245
 20
255.8557059998532
 30
0.0
 11
320.339883654245
 21
255.8557059998532
 31
0.0
  0
LINE
  5
CD2
  8
0
 62
     0
 10
319.70488365424501
 20
255.8557059998532
 30
0.0
 11
319.70488365424501
 21
255.8557059998532
 31
0.0
  0
LINE
  5
CD3
  8
0
 62
     0
 10
319.06988365424502
 20
255.8557059998532
 30
0.0
 11
319.06988365424502
 21
255.8557059998532
 31
0.0
  0
LINE
  5
CD4
  8
0
 62
     0
 10
318.43488365424503
 20
255.8557059998532
 30
0.0
 11
318.43488365424503
 21
255.8557059998532
 31
0.0
  0
LINE
  5
CD5
  8
0
 62
     0
 10
367.64738365424478
 20
256.49070599985322
 30
0.0
 11
367.64738365424478
 21
256.49070599985322
 31
0.0
  0
LINE
  5
CD6
  8
0
 62
     0
 10
367.01238365424479
 20
256.49070599985322
 30
0.0
 11
367.01238365424479
 21
256.49070599985322
 31
0.0
  0
LINE
  5
CD7
  8
0
 62
     0
 10
366.3773836542448
 20
256.49070599985322
 30
0.0
 11
366.3773836542448
 21
256.49070599985322
 31
0.0
  0
LINE
  5
CD8
  8
0
 62
     0
 10
365.7423836542448
 20
256.49070599985322
 30
0.0
 11
365.7423836542448
 21
256.49070599985322
 31
0.0
  0
LINE
  5
CD9
  8
0
 62
     0
 10
365.10738365424481
 20
256.49070599985322
 30
0.0
 11
365.10738365424481
 21
256.49070599985322
 31
0.0
  0
LINE
  5
CDA
  8
0
 62
     0
 10
364.47238365424482
 20
256.49070599985322
 30
0.0
 11
364.47238365424482
 21
256.49070599985322
 31
0.0
  0
LINE
  5
CDB
  8
0
 62
     0
 10
363.83738365424477
 20
256.49070599985322
 30
0.0
 11
363.83738365424477
 21
256.49070599985322
 31
0.0
  0
LINE
  5
CDC
  8
0
 62
     0
 10
363.20238365424478
 20
256.49070599985322
 30
0.0
 11
363.20238365424478
 21
256.49070599985322
 31
0.0
  0
LINE
  5
CDD
  8
0
 62
     0
 10
362.56738365424491
 20
256.49070599985322
 30
0.0
 11
362.56738365424491
 21
256.49070599985322
 31
0.0
  0
LINE
  5
CDE
  8
0
 62
     0
 10
361.93238365424492
 20
256.49070599985322
 30
0.0
 11
361.93238365424492
 21
256.49070599985322
 31
0.0
  0
LINE
  5
CDF
  8
0
 62
     0
 10
361.29738365424492
 20
256.49070599985322
 30
0.0
 11
361.29738365424492
 21
256.49070599985322
 31
0.0
  0
LINE
  5
CE0
  8
0
 62
     0
 10
360.66238365424488
 20
256.49070599985322
 30
0.0
 11
360.66238365424488
 21
256.49070599985322
 31
0.0
  0
LINE
  5
CE1
  8
0
 62
     0
 10
360.02738365424489
 20
256.49070599985322
 30
0.0
 11
360.02738365424489
 21
256.49070599985322
 31
0.0
  0
LINE
  5
CE2
  8
0
 62
     0
 10
359.3923836542449
 20
256.49070599985322
 30
0.0
 11
359.3923836542449
 21
256.49070599985322
 31
0.0
  0
LINE
  5
CE3
  8
0
 62
     0
 10
358.7573836542449
 20
256.49070599985322
 30
0.0
 11
358.7573836542449
 21
256.49070599985322
 31
0.0
  0
LINE
  5
CE4
  8
0
 62
     0
 10
358.12238365424491
 20
256.49070599985322
 30
0.0
 11
358.12238365424491
 21
256.49070599985322
 31
0.0
  0
LINE
  5
CE5
  8
0
 62
     0
 10
357.48738365424492
 20
256.49070599985322
 30
0.0
 11
357.48738365424492
 21
256.49070599985322
 31
0.0
  0
LINE
  5
CE6
  8
0
 62
     0
 10
356.85238365424487
 20
256.49070599985322
 30
0.0
 11
356.85238365424487
 21
256.49070599985322
 31
0.0
  0
LINE
  5
CE7
  8
0
 62
     0
 10
356.217383654245
 20
256.49070599985322
 30
0.0
 11
356.217383654245
 21
256.49070599985322
 31
0.0
  0
LINE
  5
CE8
  8
0
 62
     0
 10
355.58238365424501
 20
256.49070599985322
 30
0.0
 11
355.58238365424501
 21
256.49070599985322
 31
0.0
  0
LINE
  5
CE9
  8
0
 62
     0
 10
354.94738365424502
 20
256.49070599985322
 30
0.0
 11
354.94738365424502
 21
256.49070599985322
 31
0.0
  0
LINE
  5
CEA
  8
0
 62
     0
 10
354.31238365424502
 20
256.49070599985322
 30
0.0
 11
354.31238365424502
 21
256.49070599985322
 31
0.0
  0
LINE
  5
CEB
  8
0
 62
     0
 10
353.67738365424498
 20
256.49070599985322
 30
0.0
 11
353.67738365424498
 21
256.49070599985322
 31
0.0
  0
LINE
  5
CEC
  8
0
 62
     0
 10
353.04238365424499
 20
256.49070599985322
 30
0.0
 11
353.04238365424499
 21
256.49070599985322
 31
0.0
  0
LINE
  5
CED
  8
0
 62
     0
 10
352.407383654245
 20
256.49070599985322
 30
0.0
 11
352.407383654245
 21
256.49070599985322
 31
0.0
  0
LINE
  5
CEE
  8
0
 62
     0
 10
351.772383654245
 20
256.49070599985322
 30
0.0
 11
351.772383654245
 21
256.49070599985322
 31
0.0
  0
LINE
  5
CEF
  8
0
 62
     0
 10
351.13738365424501
 20
256.49070599985322
 30
0.0
 11
351.13738365424501
 21
256.49070599985322
 31
0.0
  0
LINE
  5
CF0
  8
0
 62
     0
 10
350.50238365424502
 20
256.49070599985322
 30
0.0
 11
350.50238365424502
 21
256.49070599985322
 31
0.0
  0
LINE
  5
CF1
  8
0
 62
     0
 10
349.86738365424509
 20
256.49070599985322
 30
0.0
 11
349.86738365424509
 21
256.49070599985322
 31
0.0
  0
LINE
  5
CF2
  8
0
 62
     0
 10
349.23238365424498
 20
256.49070599985322
 30
0.0
 11
349.23238365424498
 21
256.49070599985322
 31
0.0
  0
LINE
  5
CF3
  8
0
 62
     0
 10
348.59738365424499
 20
256.49070599985322
 30
0.0
 11
348.59738365424499
 21
256.49070599985322
 31
0.0
  0
LINE
  5
CF4
  8
0
 62
     0
 10
347.962383654245
 20
256.49070599985322
 30
0.0
 11
347.962383654245
 21
256.49070599985322
 31
0.0
  0
LINE
  5
CF5
  8
0
 62
     0
 10
337.80238365424469
 20
256.49070599985322
 30
0.0
 11
337.80238365424469
 21
256.49070599985322
 31
0.0
  0
LINE
  5
CF6
  8
0
 62
     0
 10
337.16738365424482
 20
256.49070599985322
 30
0.0
 11
337.16738365424482
 21
256.49070599985322
 31
0.0
  0
LINE
  5
CF7
  8
0
 62
     0
 10
336.53238365424482
 20
256.49070599985322
 30
0.0
 11
336.53238365424482
 21
256.49070599985322
 31
0.0
  0
LINE
  5
CF8
  8
0
 62
     0
 10
335.89738365424478
 20
256.49070599985322
 30
0.0
 11
335.89738365424478
 21
256.49070599985322
 31
0.0
  0
LINE
  5
CF9
  8
0
 62
     0
 10
335.26238365424479
 20
256.49070599985322
 30
0.0
 11
335.26238365424479
 21
256.49070599985322
 31
0.0
  0
LINE
  5
CFA
  8
0
 62
     0
 10
334.6273836542448
 20
256.49070599985322
 30
0.0
 11
334.6273836542448
 21
256.49070599985322
 31
0.0
  0
LINE
  5
CFB
  8
0
 62
     0
 10
333.9923836542448
 20
256.49070599985322
 30
0.0
 11
333.9923836542448
 21
256.49070599985322
 31
0.0
  0
LINE
  5
CFC
  8
0
 62
     0
 10
333.35738365424481
 20
256.49070599985322
 30
0.0
 11
333.35738365424481
 21
256.49070599985322
 31
0.0
  0
LINE
  5
CFD
  8
0
 62
     0
 10
332.72238365424482
 20
256.49070599985322
 30
0.0
 11
332.72238365424482
 21
256.49070599985322
 31
0.0
  0
LINE
  5
CFE
  8
0
 62
     0
 10
332.08738365424477
 20
256.49070599985322
 30
0.0
 11
332.08738365424477
 21
256.49070599985322
 31
0.0
  0
LINE
  5
CFF
  8
0
 62
     0
 10
331.45238365424478
 20
256.49070599985322
 30
0.0
 11
331.45238365424478
 21
256.49070599985322
 31
0.0
  0
LINE
  5
D00
  8
0
 62
     0
 10
330.81738365424491
 20
256.49070599985322
 30
0.0
 11
330.81738365424491
 21
256.49070599985322
 31
0.0
  0
LINE
  5
D01
  8
0
 62
     0
 10
330.18238365424492
 20
256.49070599985322
 30
0.0
 11
330.18238365424492
 21
256.49070599985322
 31
0.0
  0
LINE
  5
D02
  8
0
 62
     0
 10
329.54738365424492
 20
256.49070599985322
 30
0.0
 11
329.54738365424492
 21
256.49070599985322
 31
0.0
  0
LINE
  5
D03
  8
0
 62
     0
 10
328.91238365424488
 20
256.49070599985322
 30
0.0
 11
328.91238365424488
 21
256.49070599985322
 31
0.0
  0
LINE
  5
D04
  8
0
 62
     0
 10
328.27738365424489
 20
256.49070599985322
 30
0.0
 11
328.27738365424489
 21
256.49070599985322
 31
0.0
  0
LINE
  5
D05
  8
0
 62
     0
 10
327.6423836542449
 20
256.49070599985322
 30
0.0
 11
327.6423836542449
 21
256.49070599985322
 31
0.0
  0
LINE
  5
D06
  8
0
 62
     0
 10
327.0073836542449
 20
256.49070599985322
 30
0.0
 11
327.0073836542449
 21
256.49070599985322
 31
0.0
  0
LINE
  5
D07
  8
0
 62
     0
 10
326.37238365424491
 20
256.49070599985322
 30
0.0
 11
326.37238365424491
 21
256.49070599985322
 31
0.0
  0
LINE
  5
D08
  8
0
 62
     0
 10
325.73738365424492
 20
256.49070599985322
 30
0.0
 11
325.73738365424492
 21
256.49070599985322
 31
0.0
  0
LINE
  5
D09
  8
0
 62
     0
 10
325.10238365424487
 20
256.49070599985322
 30
0.0
 11
325.10238365424487
 21
256.49070599985322
 31
0.0
  0
LINE
  5
D0A
  8
0
 62
     0
 10
324.467383654245
 20
256.49070599985322
 30
0.0
 11
324.467383654245
 21
256.49070599985322
 31
0.0
  0
LINE
  5
D0B
  8
0
 62
     0
 10
323.83238365424489
 20
256.49070599985322
 30
0.0
 11
323.83238365424489
 21
256.49070599985322
 31
0.0
  0
LINE
  5
D0C
  8
0
 62
     0
 10
323.1973836542449
 20
256.49070599985322
 30
0.0
 11
323.1973836542449
 21
256.49070599985322
 31
0.0
  0
LINE
  5
D0D
  8
0
 62
     0
 10
322.56238365424502
 20
256.49070599985322
 30
0.0
 11
322.56238365424502
 21
256.49070599985322
 31
0.0
  0
LINE
  5
D0E
  8
0
 62
     0
 10
321.92738365424498
 20
256.49070599985322
 30
0.0
 11
321.92738365424498
 21
256.49070599985322
 31
0.0
  0
LINE
  5
D0F
  8
0
 62
     0
 10
321.29238365424499
 20
256.49070599985322
 30
0.0
 11
321.29238365424499
 21
256.49070599985322
 31
0.0
  0
LINE
  5
D10
  8
0
 62
     0
 10
320.657383654245
 20
256.49070599985322
 30
0.0
 11
320.657383654245
 21
256.49070599985322
 31
0.0
  0
LINE
  5
D11
  8
0
 62
     0
 10
320.022383654245
 20
256.49070599985322
 30
0.0
 11
320.022383654245
 21
256.49070599985322
 31
0.0
  0
LINE
  5
D12
  8
0
 62
     0
 10
319.38738365424501
 20
256.49070599985322
 30
0.0
 11
319.38738365424501
 21
256.49070599985322
 31
0.0
  0
LINE
  5
D13
  8
0
 62
     0
 10
318.75238365424502
 20
256.49070599985322
 30
0.0
 11
318.75238365424502
 21
256.49070599985322
 31
0.0
  0
LINE
  5
D14
  8
0
 62
     0
 10
318.11738365424497
 20
256.49070599985322
 30
0.0
 11
318.11738365424497
 21
256.49070599985322
 31
0.0
  0
LINE
  5
D15
  8
0
 62
     0
 10
367.32988365424478
 20
257.12570599985321
 30
0.0
 11
367.32988365424478
 21
257.12570599985321
 31
0.0
  0
LINE
  5
D16
  8
0
 62
     0
 10
366.69488365424479
 20
257.12570599985321
 30
0.0
 11
366.69488365424479
 21
257.12570599985321
 31
0.0
  0
LINE
  5
D17
  8
0
 62
     0
 10
366.0598836542448
 20
257.12570599985321
 30
0.0
 11
366.0598836542448
 21
257.12570599985321
 31
0.0
  0
LINE
  5
D18
  8
0
 62
     0
 10
365.42488365424481
 20
257.12570599985321
 30
0.0
 11
365.42488365424481
 21
257.12570599985321
 31
0.0
  0
LINE
  5
D19
  8
0
 62
     0
 10
364.78988365424482
 20
257.12570599985321
 30
0.0
 11
364.78988365424482
 21
257.12570599985321
 31
0.0
  0
LINE
  5
D1A
  8
0
 62
     0
 10
364.15488365424483
 20
257.12570599985321
 30
0.0
 11
364.15488365424483
 21
257.12570599985321
 31
0.0
  0
LINE
  5
D1B
  8
0
 62
     0
 10
363.51988365424489
 20
257.12570599985321
 30
0.0
 11
363.51988365424489
 21
257.12570599985321
 31
0.0
  0
LINE
  5
D1C
  8
0
 62
     0
 10
362.8848836542449
 20
257.12570599985321
 30
0.0
 11
362.8848836542449
 21
257.12570599985321
 31
0.0
  0
LINE
  5
D1D
  8
0
 62
     0
 10
362.2498836542448
 20
257.12570599985321
 30
0.0
 11
362.2498836542448
 21
257.12570599985321
 31
0.0
  0
LINE
  5
D1E
  8
0
 62
     0
 10
361.61488365424492
 20
257.12570599985321
 30
0.0
 11
361.61488365424492
 21
257.12570599985321
 31
0.0
  0
LINE
  5
D1F
  8
0
 62
     0
 10
360.97988365424487
 20
257.12570599985321
 30
0.0
 11
360.97988365424487
 21
257.12570599985321
 31
0.0
  0
LINE
  5
D20
  8
0
 62
     0
 10
360.34488365424488
 20
257.12570599985321
 30
0.0
 11
360.34488365424488
 21
257.12570599985321
 31
0.0
  0
LINE
  5
D21
  8
0
 62
     0
 10
359.70988365424489
 20
257.12570599985321
 30
0.0
 11
359.70988365424489
 21
257.12570599985321
 31
0.0
  0
LINE
  5
D22
  8
0
 62
     0
 10
359.0748836542449
 20
257.12570599985321
 30
0.0
 11
359.0748836542449
 21
257.12570599985321
 31
0.0
  0
LINE
  5
D23
  8
0
 62
     0
 10
358.43988365424491
 20
257.12570599985321
 30
0.0
 11
358.43988365424491
 21
257.12570599985321
 31
0.0
  0
LINE
  5
D24
  8
0
 62
     0
 10
357.80488365424492
 20
257.12570599985321
 30
0.0
 11
357.80488365424492
 21
257.12570599985321
 31
0.0
  0
LINE
  5
D25
  8
0
 62
     0
 10
357.16988365424493
 20
257.12570599985321
 30
0.0
 11
357.16988365424493
 21
257.12570599985321
 31
0.0
  0
LINE
  5
D26
  8
0
 62
     0
 10
356.53488365424488
 20
257.12570599985321
 30
0.0
 11
356.53488365424488
 21
257.12570599985321
 31
0.0
  0
LINE
  5
D27
  8
0
 62
     0
 10
355.89988365424489
 20
257.12570599985321
 30
0.0
 11
355.89988365424489
 21
257.12570599985321
 31
0.0
  0
LINE
  5
D28
  8
0
 62
     0
 10
355.26488365424501
 20
257.12570599985321
 30
0.0
 11
355.26488365424501
 21
257.12570599985321
 31
0.0
  0
LINE
  5
D29
  8
0
 62
     0
 10
354.62988365424502
 20
257.12570599985321
 30
0.0
 11
354.62988365424502
 21
257.12570599985321
 31
0.0
  0
LINE
  5
D2A
  8
0
 62
     0
 10
353.99488365424497
 20
257.12570599985321
 30
0.0
 11
353.99488365424497
 21
257.12570599985321
 31
0.0
  0
LINE
  5
D2B
  8
0
 62
     0
 10
353.35988365424498
 20
257.12570599985321
 30
0.0
 11
353.35988365424498
 21
257.12570599985321
 31
0.0
  0
LINE
  5
D2C
  8
0
 62
     0
 10
352.72488365424499
 20
257.12570599985321
 30
0.0
 11
352.72488365424499
 21
257.12570599985321
 31
0.0
  0
LINE
  5
D2D
  8
0
 62
     0
 10
352.089883654245
 20
257.12570599985321
 30
0.0
 11
352.089883654245
 21
257.12570599985321
 31
0.0
  0
LINE
  5
D2E
  8
0
 62
     0
 10
351.45488365424501
 20
257.12570599985321
 30
0.0
 11
351.45488365424501
 21
257.12570599985321
 31
0.0
  0
LINE
  5
D2F
  8
0
 62
     0
 10
350.81988365424502
 20
257.12570599985321
 30
0.0
 11
350.81988365424502
 21
257.12570599985321
 31
0.0
  0
LINE
  5
D30
  8
0
 62
     0
 10
350.18488365424503
 20
257.12570599985321
 30
0.0
 11
350.18488365424503
 21
257.12570599985321
 31
0.0
  0
LINE
  5
D31
  8
0
 62
     0
 10
349.54988365424498
 20
257.12570599985321
 30
0.0
 11
349.54988365424498
 21
257.12570599985321
 31
0.0
  0
LINE
  5
D32
  8
0
 62
     0
 10
348.9148836542451
 20
257.12570599985321
 30
0.0
 11
348.9148836542451
 21
257.12570599985321
 31
0.0
  0
LINE
  5
D33
  8
0
 62
     0
 10
348.27988365424511
 20
257.12570599985321
 30
0.0
 11
348.27988365424511
 21
257.12570599985321
 31
0.0
  0
LINE
  5
D34
  8
0
 62
     0
 10
337.48488365424481
 20
257.12570599985321
 30
0.0
 11
337.48488365424481
 21
257.12570599985321
 31
0.0
  0
LINE
  5
D35
  8
0
 62
     0
 10
336.84988365424471
 20
257.12570599985321
 30
0.0
 11
336.84988365424471
 21
257.12570599985321
 31
0.0
  0
LINE
  5
D36
  8
0
 62
     0
 10
336.21488365424477
 20
257.12570599985321
 30
0.0
 11
336.21488365424477
 21
257.12570599985321
 31
0.0
  0
LINE
  5
D37
  8
0
 62
     0
 10
335.57988365424478
 20
257.12570599985321
 30
0.0
 11
335.57988365424478
 21
257.12570599985321
 31
0.0
  0
LINE
  5
D38
  8
0
 62
     0
 10
334.94488365424479
 20
257.12570599985321
 30
0.0
 11
334.94488365424479
 21
257.12570599985321
 31
0.0
  0
LINE
  5
D39
  8
0
 62
     0
 10
334.3098836542448
 20
257.12570599985321
 30
0.0
 11
334.3098836542448
 21
257.12570599985321
 31
0.0
  0
LINE
  5
D3A
  8
0
 62
     0
 10
333.67488365424481
 20
257.12570599985321
 30
0.0
 11
333.67488365424481
 21
257.12570599985321
 31
0.0
  0
LINE
  5
D3B
  8
0
 62
     0
 10
333.03988365424482
 20
257.12570599985321
 30
0.0
 11
333.03988365424482
 21
257.12570599985321
 31
0.0
  0
LINE
  5
D3C
  8
0
 62
     0
 10
332.40488365424483
 20
257.12570599985321
 30
0.0
 11
332.40488365424483
 21
257.12570599985321
 31
0.0
  0
LINE
  5
D3D
  8
0
 62
     0
 10
331.76988365424478
 20
257.12570599985321
 30
0.0
 11
331.76988365424478
 21
257.12570599985321
 31
0.0
  0
LINE
  5
D3E
  8
0
 62
     0
 10
331.13488365424479
 20
257.12570599985321
 30
0.0
 11
331.13488365424479
 21
257.12570599985321
 31
0.0
  0
LINE
  5
D3F
  8
0
 62
     0
 10
330.4998836542448
 20
257.12570599985321
 30
0.0
 11
330.4998836542448
 21
257.12570599985321
 31
0.0
  0
LINE
  5
D40
  8
0
 62
     0
 10
329.86488365424492
 20
257.12570599985321
 30
0.0
 11
329.86488365424492
 21
257.12570599985321
 31
0.0
  0
LINE
  5
D41
  8
0
 62
     0
 10
329.22988365424487
 20
257.12570599985321
 30
0.0
 11
329.22988365424487
 21
257.12570599985321
 31
0.0
  0
LINE
  5
D42
  8
0
 62
     0
 10
328.59488365424488
 20
257.12570599985321
 30
0.0
 11
328.59488365424488
 21
257.12570599985321
 31
0.0
  0
LINE
  5
D43
  8
0
 62
     0
 10
327.95988365424489
 20
257.12570599985321
 30
0.0
 11
327.95988365424489
 21
257.12570599985321
 31
0.0
  0
LINE
  5
D44
  8
0
 62
     0
 10
327.3248836542449
 20
257.12570599985321
 30
0.0
 11
327.3248836542449
 21
257.12570599985321
 31
0.0
  0
LINE
  5
D45
  8
0
 62
     0
 10
326.68988365424491
 20
257.12570599985321
 30
0.0
 11
326.68988365424491
 21
257.12570599985321
 31
0.0
  0
LINE
  5
D46
  8
0
 62
     0
 10
326.05488365424492
 20
257.12570599985321
 30
0.0
 11
326.05488365424492
 21
257.12570599985321
 31
0.0
  0
LINE
  5
D47
  8
0
 62
     0
 10
325.41988365424493
 20
257.12570599985321
 30
0.0
 11
325.41988365424493
 21
257.12570599985321
 31
0.0
  0
LINE
  5
D48
  8
0
 62
     0
 10
324.78488365424488
 20
257.12570599985321
 30
0.0
 11
324.78488365424488
 21
257.12570599985321
 31
0.0
  0
LINE
  5
D49
  8
0
 62
     0
 10
324.14988365424489
 20
257.12570599985321
 30
0.0
 11
324.14988365424489
 21
257.12570599985321
 31
0.0
  0
LINE
  5
D4A
  8
0
 62
     0
 10
323.51488365424501
 20
257.12570599985321
 30
0.0
 11
323.51488365424501
 21
257.12570599985321
 31
0.0
  0
LINE
  5
D4B
  8
0
 62
     0
 10
322.87988365424502
 20
257.12570599985321
 30
0.0
 11
322.87988365424502
 21
257.12570599985321
 31
0.0
  0
LINE
  5
D4C
  8
0
 62
     0
 10
322.24488365424497
 20
257.12570599985321
 30
0.0
 11
322.24488365424497
 21
257.12570599985321
 31
0.0
  0
LINE
  5
D4D
  8
0
 62
     0
 10
321.60988365424498
 20
257.12570599985321
 30
0.0
 11
321.60988365424498
 21
257.12570599985321
 31
0.0
  0
LINE
  5
D4E
  8
0
 62
     0
 10
320.97488365424499
 20
257.12570599985321
 30
0.0
 11
320.97488365424499
 21
257.12570599985321
 31
0.0
  0
LINE
  5
D4F
  8
0
 62
     0
 10
320.339883654245
 20
257.12570599985321
 30
0.0
 11
320.339883654245
 21
257.12570599985321
 31
0.0
  0
LINE
  5
D50
  8
0
 62
     0
 10
319.70488365424501
 20
257.12570599985321
 30
0.0
 11
319.70488365424501
 21
257.12570599985321
 31
0.0
  0
LINE
  5
D51
  8
0
 62
     0
 10
319.06988365424502
 20
257.12570599985321
 30
0.0
 11
319.06988365424502
 21
257.12570599985321
 31
0.0
  0
LINE
  5
D52
  8
0
 62
     0
 10
318.43488365424503
 20
257.12570599985321
 30
0.0
 11
318.43488365424503
 21
257.12570599985321
 31
0.0
  0
LINE
  5
D53
  8
0
 62
     0
 10
367.64738365424478
 20
257.7607059998532
 30
0.0
 11
367.64738365424478
 21
257.7607059998532
 31
0.0
  0
LINE
  5
D54
  8
0
 62
     0
 10
367.01238365424479
 20
257.7607059998532
 30
0.0
 11
367.01238365424479
 21
257.7607059998532
 31
0.0
  0
LINE
  5
D55
  8
0
 62
     0
 10
366.3773836542448
 20
257.7607059998532
 30
0.0
 11
366.3773836542448
 21
257.7607059998532
 31
0.0
  0
LINE
  5
D56
  8
0
 62
     0
 10
365.7423836542448
 20
257.7607059998532
 30
0.0
 11
365.7423836542448
 21
257.7607059998532
 31
0.0
  0
LINE
  5
D57
  8
0
 62
     0
 10
365.10738365424481
 20
257.7607059998532
 30
0.0
 11
365.10738365424481
 21
257.7607059998532
 31
0.0
  0
LINE
  5
D58
  8
0
 62
     0
 10
364.47238365424482
 20
257.7607059998532
 30
0.0
 11
364.47238365424482
 21
257.7607059998532
 31
0.0
  0
LINE
  5
D59
  8
0
 62
     0
 10
363.83738365424477
 20
257.7607059998532
 30
0.0
 11
363.83738365424477
 21
257.7607059998532
 31
0.0
  0
LINE
  5
D5A
  8
0
 62
     0
 10
363.20238365424478
 20
257.7607059998532
 30
0.0
 11
363.20238365424478
 21
257.7607059998532
 31
0.0
  0
LINE
  5
D5B
  8
0
 62
     0
 10
362.56738365424491
 20
257.7607059998532
 30
0.0
 11
362.56738365424491
 21
257.7607059998532
 31
0.0
  0
LINE
  5
D5C
  8
0
 62
     0
 10
361.93238365424492
 20
257.7607059998532
 30
0.0
 11
361.93238365424492
 21
257.7607059998532
 31
0.0
  0
LINE
  5
D5D
  8
0
 62
     0
 10
361.29738365424492
 20
257.7607059998532
 30
0.0
 11
361.29738365424492
 21
257.7607059998532
 31
0.0
  0
LINE
  5
D5E
  8
0
 62
     0
 10
360.66238365424488
 20
257.7607059998532
 30
0.0
 11
360.66238365424488
 21
257.7607059998532
 31
0.0
  0
LINE
  5
D5F
  8
0
 62
     0
 10
360.02738365424489
 20
257.7607059998532
 30
0.0
 11
360.02738365424489
 21
257.7607059998532
 31
0.0
  0
LINE
  5
D60
  8
0
 62
     0
 10
359.3923836542449
 20
257.7607059998532
 30
0.0
 11
359.3923836542449
 21
257.7607059998532
 31
0.0
  0
LINE
  5
D61
  8
0
 62
     0
 10
358.7573836542449
 20
257.7607059998532
 30
0.0
 11
358.7573836542449
 21
257.7607059998532
 31
0.0
  0
LINE
  5
D62
  8
0
 62
     0
 10
358.12238365424491
 20
257.7607059998532
 30
0.0
 11
358.12238365424491
 21
257.7607059998532
 31
0.0
  0
LINE
  5
D63
  8
0
 62
     0
 10
357.48738365424492
 20
257.7607059998532
 30
0.0
 11
357.48738365424492
 21
257.7607059998532
 31
0.0
  0
LINE
  5
D64
  8
0
 62
     0
 10
356.85238365424487
 20
257.7607059998532
 30
0.0
 11
356.85238365424487
 21
257.7607059998532
 31
0.0
  0
LINE
  5
D65
  8
0
 62
     0
 10
356.217383654245
 20
257.7607059998532
 30
0.0
 11
356.217383654245
 21
257.7607059998532
 31
0.0
  0
LINE
  5
D66
  8
0
 62
     0
 10
355.58238365424501
 20
257.7607059998532
 30
0.0
 11
355.58238365424501
 21
257.7607059998532
 31
0.0
  0
LINE
  5
D67
  8
0
 62
     0
 10
354.94738365424502
 20
257.7607059998532
 30
0.0
 11
354.94738365424502
 21
257.7607059998532
 31
0.0
  0
LINE
  5
D68
  8
0
 62
     0
 10
354.31238365424502
 20
257.7607059998532
 30
0.0
 11
354.31238365424502
 21
257.7607059998532
 31
0.0
  0
LINE
  5
D69
  8
0
 62
     0
 10
353.67738365424498
 20
257.7607059998532
 30
0.0
 11
353.67738365424498
 21
257.7607059998532
 31
0.0
  0
LINE
  5
D6A
  8
0
 62
     0
 10
353.04238365424499
 20
257.7607059998532
 30
0.0
 11
353.04238365424499
 21
257.7607059998532
 31
0.0
  0
LINE
  5
D6B
  8
0
 62
     0
 10
352.407383654245
 20
257.7607059998532
 30
0.0
 11
352.407383654245
 21
257.7607059998532
 31
0.0
  0
LINE
  5
D6C
  8
0
 62
     0
 10
351.772383654245
 20
257.7607059998532
 30
0.0
 11
351.772383654245
 21
257.7607059998532
 31
0.0
  0
LINE
  5
D6D
  8
0
 62
     0
 10
351.13738365424501
 20
257.7607059998532
 30
0.0
 11
351.13738365424501
 21
257.7607059998532
 31
0.0
  0
LINE
  5
D6E
  8
0
 62
     0
 10
350.50238365424502
 20
257.7607059998532
 30
0.0
 11
350.50238365424502
 21
257.7607059998532
 31
0.0
  0
LINE
  5
D6F
  8
0
 62
     0
 10
349.86738365424509
 20
257.7607059998532
 30
0.0
 11
349.86738365424509
 21
257.7607059998532
 31
0.0
  0
LINE
  5
D70
  8
0
 62
     0
 10
349.23238365424498
 20
257.7607059998532
 30
0.0
 11
349.23238365424498
 21
257.7607059998532
 31
0.0
  0
LINE
  5
D71
  8
0
 62
     0
 10
348.59738365424499
 20
257.7607059998532
 30
0.0
 11
348.59738365424499
 21
257.7607059998532
 31
0.0
  0
LINE
  5
D72
  8
0
 62
     0
 10
347.962383654245
 20
257.7607059998532
 30
0.0
 11
347.962383654245
 21
257.7607059998532
 31
0.0
  0
LINE
  5
D73
  8
0
 62
     0
 10
337.80238365424469
 20
257.7607059998532
 30
0.0
 11
337.80238365424469
 21
257.7607059998532
 31
0.0
  0
LINE
  5
D74
  8
0
 62
     0
 10
337.16738365424482
 20
257.7607059998532
 30
0.0
 11
337.16738365424482
 21
257.7607059998532
 31
0.0
  0
LINE
  5
D75
  8
0
 62
     0
 10
336.53238365424482
 20
257.7607059998532
 30
0.0
 11
336.53238365424482
 21
257.7607059998532
 31
0.0
  0
LINE
  5
D76
  8
0
 62
     0
 10
335.89738365424478
 20
257.7607059998532
 30
0.0
 11
335.89738365424478
 21
257.7607059998532
 31
0.0
  0
LINE
  5
D77
  8
0
 62
     0
 10
335.26238365424479
 20
257.7607059998532
 30
0.0
 11
335.26238365424479
 21
257.7607059998532
 31
0.0
  0
LINE
  5
D78
  8
0
 62
     0
 10
334.6273836542448
 20
257.7607059998532
 30
0.0
 11
334.6273836542448
 21
257.7607059998532
 31
0.0
  0
LINE
  5
D79
  8
0
 62
     0
 10
333.9923836542448
 20
257.7607059998532
 30
0.0
 11
333.9923836542448
 21
257.7607059998532
 31
0.0
  0
LINE
  5
D7A
  8
0
 62
     0
 10
333.35738365424481
 20
257.7607059998532
 30
0.0
 11
333.35738365424481
 21
257.7607059998532
 31
0.0
  0
LINE
  5
D7B
  8
0
 62
     0
 10
332.72238365424482
 20
257.7607059998532
 30
0.0
 11
332.72238365424482
 21
257.7607059998532
 31
0.0
  0
LINE
  5
D7C
  8
0
 62
     0
 10
332.08738365424477
 20
257.7607059998532
 30
0.0
 11
332.08738365424477
 21
257.7607059998532
 31
0.0
  0
LINE
  5
D7D
  8
0
 62
     0
 10
331.45238365424478
 20
257.7607059998532
 30
0.0
 11
331.45238365424478
 21
257.7607059998532
 31
0.0
  0
LINE
  5
D7E
  8
0
 62
     0
 10
330.81738365424491
 20
257.7607059998532
 30
0.0
 11
330.81738365424491
 21
257.7607059998532
 31
0.0
  0
LINE
  5
D7F
  8
0
 62
     0
 10
330.18238365424492
 20
257.7607059998532
 30
0.0
 11
330.18238365424492
 21
257.7607059998532
 31
0.0
  0
LINE
  5
D80
  8
0
 62
     0
 10
329.54738365424492
 20
257.7607059998532
 30
0.0
 11
329.54738365424492
 21
257.7607059998532
 31
0.0
  0
LINE
  5
D81
  8
0
 62
     0
 10
328.91238365424488
 20
257.7607059998532
 30
0.0
 11
328.91238365424488
 21
257.7607059998532
 31
0.0
  0
LINE
  5
D82
  8
0
 62
     0
 10
328.27738365424489
 20
257.7607059998532
 30
0.0
 11
328.27738365424489
 21
257.7607059998532
 31
0.0
  0
LINE
  5
D83
  8
0
 62
     0
 10
327.6423836542449
 20
257.7607059998532
 30
0.0
 11
327.6423836542449
 21
257.7607059998532
 31
0.0
  0
LINE
  5
D84
  8
0
 62
     0
 10
327.0073836542449
 20
257.7607059998532
 30
0.0
 11
327.0073836542449
 21
257.7607059998532
 31
0.0
  0
LINE
  5
D85
  8
0
 62
     0
 10
326.37238365424491
 20
257.7607059998532
 30
0.0
 11
326.37238365424491
 21
257.7607059998532
 31
0.0
  0
LINE
  5
D86
  8
0
 62
     0
 10
325.73738365424492
 20
257.7607059998532
 30
0.0
 11
325.73738365424492
 21
257.7607059998532
 31
0.0
  0
LINE
  5
D87
  8
0
 62
     0
 10
325.10238365424487
 20
257.7607059998532
 30
0.0
 11
325.10238365424487
 21
257.7607059998532
 31
0.0
  0
LINE
  5
D88
  8
0
 62
     0
 10
324.467383654245
 20
257.7607059998532
 30
0.0
 11
324.467383654245
 21
257.7607059998532
 31
0.0
  0
LINE
  5
D89
  8
0
 62
     0
 10
323.83238365424489
 20
257.7607059998532
 30
0.0
 11
323.83238365424489
 21
257.7607059998532
 31
0.0
  0
LINE
  5
D8A
  8
0
 62
     0
 10
323.1973836542449
 20
257.7607059998532
 30
0.0
 11
323.1973836542449
 21
257.7607059998532
 31
0.0
  0
LINE
  5
D8B
  8
0
 62
     0
 10
322.56238365424502
 20
257.7607059998532
 30
0.0
 11
322.56238365424502
 21
257.7607059998532
 31
0.0
  0
LINE
  5
D8C
  8
0
 62
     0
 10
321.92738365424498
 20
257.7607059998532
 30
0.0
 11
321.92738365424498
 21
257.7607059998532
 31
0.0
  0
LINE
  5
D8D
  8
0
 62
     0
 10
321.29238365424499
 20
257.7607059998532
 30
0.0
 11
321.29238365424499
 21
257.7607059998532
 31
0.0
  0
LINE
  5
D8E
  8
0
 62
     0
 10
320.657383654245
 20
257.7607059998532
 30
0.0
 11
320.657383654245
 21
257.7607059998532
 31
0.0
  0
LINE
  5
D8F
  8
0
 62
     0
 10
320.022383654245
 20
257.7607059998532
 30
0.0
 11
320.022383654245
 21
257.7607059998532
 31
0.0
  0
LINE
  5
D90
  8
0
 62
     0
 10
319.38738365424501
 20
257.7607059998532
 30
0.0
 11
319.38738365424501
 21
257.7607059998532
 31
0.0
  0
LINE
  5
D91
  8
0
 62
     0
 10
318.75238365424502
 20
257.7607059998532
 30
0.0
 11
318.75238365424502
 21
257.7607059998532
 31
0.0
  0
LINE
  5
D92
  8
0
 62
     0
 10
318.11738365424497
 20
257.7607059998532
 30
0.0
 11
318.11738365424497
 21
257.7607059998532
 31
0.0
  0
LINE
  5
D93
  8
0
 62
     0
 10
367.32988365424478
 20
258.39570599985319
 30
0.0
 11
367.32988365424478
 21
258.39570599985319
 31
0.0
  0
LINE
  5
D94
  8
0
 62
     0
 10
366.69488365424479
 20
258.39570599985319
 30
0.0
 11
366.69488365424479
 21
258.39570599985319
 31
0.0
  0
LINE
  5
D95
  8
0
 62
     0
 10
366.0598836542448
 20
258.39570599985319
 30
0.0
 11
366.0598836542448
 21
258.39570599985319
 31
0.0
  0
LINE
  5
D96
  8
0
 62
     0
 10
365.42488365424481
 20
258.39570599985319
 30
0.0
 11
365.42488365424481
 21
258.39570599985319
 31
0.0
  0
LINE
  5
D97
  8
0
 62
     0
 10
364.78988365424482
 20
258.39570599985319
 30
0.0
 11
364.78988365424482
 21
258.39570599985319
 31
0.0
  0
LINE
  5
D98
  8
0
 62
     0
 10
364.15488365424483
 20
258.39570599985319
 30
0.0
 11
364.15488365424483
 21
258.39570599985319
 31
0.0
  0
LINE
  5
D99
  8
0
 62
     0
 10
363.51988365424489
 20
258.39570599985319
 30
0.0
 11
363.51988365424489
 21
258.39570599985319
 31
0.0
  0
LINE
  5
D9A
  8
0
 62
     0
 10
362.8848836542449
 20
258.39570599985319
 30
0.0
 11
362.8848836542449
 21
258.39570599985319
 31
0.0
  0
LINE
  5
D9B
  8
0
 62
     0
 10
362.2498836542448
 20
258.39570599985319
 30
0.0
 11
362.2498836542448
 21
258.39570599985319
 31
0.0
  0
LINE
  5
D9C
  8
0
 62
     0
 10
361.61488365424492
 20
258.39570599985319
 30
0.0
 11
361.61488365424492
 21
258.39570599985319
 31
0.0
  0
LINE
  5
D9D
  8
0
 62
     0
 10
360.97988365424487
 20
258.39570599985319
 30
0.0
 11
360.97988365424487
 21
258.39570599985319
 31
0.0
  0
LINE
  5
D9E
  8
0
 62
     0
 10
360.34488365424488
 20
258.39570599985319
 30
0.0
 11
360.34488365424488
 21
258.39570599985319
 31
0.0
  0
LINE
  5
D9F
  8
0
 62
     0
 10
359.70988365424489
 20
258.39570599985319
 30
0.0
 11
359.70988365424489
 21
258.39570599985319
 31
0.0
  0
LINE
  5
DA0
  8
0
 62
     0
 10
359.0748836542449
 20
258.39570599985319
 30
0.0
 11
359.0748836542449
 21
258.39570599985319
 31
0.0
  0
LINE
  5
DA1
  8
0
 62
     0
 10
358.43988365424491
 20
258.39570599985319
 30
0.0
 11
358.43988365424491
 21
258.39570599985319
 31
0.0
  0
LINE
  5
DA2
  8
0
 62
     0
 10
357.80488365424492
 20
258.39570599985319
 30
0.0
 11
357.80488365424492
 21
258.39570599985319
 31
0.0
  0
LINE
  5
DA3
  8
0
 62
     0
 10
357.16988365424493
 20
258.39570599985319
 30
0.0
 11
357.16988365424493
 21
258.39570599985319
 31
0.0
  0
LINE
  5
DA4
  8
0
 62
     0
 10
356.53488365424488
 20
258.39570599985319
 30
0.0
 11
356.53488365424488
 21
258.39570599985319
 31
0.0
  0
LINE
  5
DA5
  8
0
 62
     0
 10
355.89988365424489
 20
258.39570599985319
 30
0.0
 11
355.89988365424489
 21
258.39570599985319
 31
0.0
  0
LINE
  5
DA6
  8
0
 62
     0
 10
355.26488365424501
 20
258.39570599985319
 30
0.0
 11
355.26488365424501
 21
258.39570599985319
 31
0.0
  0
LINE
  5
DA7
  8
0
 62
     0
 10
354.62988365424502
 20
258.39570599985319
 30
0.0
 11
354.62988365424502
 21
258.39570599985319
 31
0.0
  0
LINE
  5
DA8
  8
0
 62
     0
 10
353.99488365424497
 20
258.39570599985319
 30
0.0
 11
353.99488365424497
 21
258.39570599985319
 31
0.0
  0
LINE
  5
DA9
  8
0
 62
     0
 10
353.35988365424498
 20
258.39570599985319
 30
0.0
 11
353.35988365424498
 21
258.39570599985319
 31
0.0
  0
LINE
  5
DAA
  8
0
 62
     0
 10
352.72488365424499
 20
258.39570599985319
 30
0.0
 11
352.72488365424499
 21
258.39570599985319
 31
0.0
  0
LINE
  5
DAB
  8
0
 62
     0
 10
352.089883654245
 20
258.39570599985319
 30
0.0
 11
352.089883654245
 21
258.39570599985319
 31
0.0
  0
LINE
  5
DAC
  8
0
 62
     0
 10
351.45488365424501
 20
258.39570599985319
 30
0.0
 11
351.45488365424501
 21
258.39570599985319
 31
0.0
  0
LINE
  5
DAD
  8
0
 62
     0
 10
350.81988365424502
 20
258.39570599985319
 30
0.0
 11
350.81988365424502
 21
258.39570599985319
 31
0.0
  0
LINE
  5
DAE
  8
0
 62
     0
 10
350.18488365424503
 20
258.39570599985319
 30
0.0
 11
350.18488365424503
 21
258.39570599985319
 31
0.0
  0
LINE
  5
DAF
  8
0
 62
     0
 10
349.54988365424498
 20
258.39570599985319
 30
0.0
 11
349.54988365424498
 21
258.39570599985319
 31
0.0
  0
LINE
  5
DB0
  8
0
 62
     0
 10
348.9148836542451
 20
258.39570599985319
 30
0.0
 11
348.9148836542451
 21
258.39570599985319
 31
0.0
  0
LINE
  5
DB1
  8
0
 62
     0
 10
348.27988365424511
 20
258.39570599985319
 30
0.0
 11
348.27988365424511
 21
258.39570599985319
 31
0.0
  0
LINE
  5
DB2
  8
0
 62
     0
 10
337.48488365424481
 20
258.39570599985319
 30
0.0
 11
337.48488365424481
 21
258.39570599985319
 31
0.0
  0
LINE
  5
DB3
  8
0
 62
     0
 10
336.84988365424471
 20
258.39570599985319
 30
0.0
 11
336.84988365424471
 21
258.39570599985319
 31
0.0
  0
LINE
  5
DB4
  8
0
 62
     0
 10
336.21488365424477
 20
258.39570599985319
 30
0.0
 11
336.21488365424477
 21
258.39570599985319
 31
0.0
  0
LINE
  5
DB5
  8
0
 62
     0
 10
335.57988365424478
 20
258.39570599985319
 30
0.0
 11
335.57988365424478
 21
258.39570599985319
 31
0.0
  0
LINE
  5
DB6
  8
0
 62
     0
 10
334.94488365424479
 20
258.39570599985319
 30
0.0
 11
334.94488365424479
 21
258.39570599985319
 31
0.0
  0
LINE
  5
DB7
  8
0
 62
     0
 10
334.3098836542448
 20
258.39570599985319
 30
0.0
 11
334.3098836542448
 21
258.39570599985319
 31
0.0
  0
LINE
  5
DB8
  8
0
 62
     0
 10
333.67488365424481
 20
258.39570599985319
 30
0.0
 11
333.67488365424481
 21
258.39570599985319
 31
0.0
  0
LINE
  5
DB9
  8
0
 62
     0
 10
333.03988365424482
 20
258.39570599985319
 30
0.0
 11
333.03988365424482
 21
258.39570599985319
 31
0.0
  0
LINE
  5
DBA
  8
0
 62
     0
 10
332.40488365424483
 20
258.39570599985319
 30
0.0
 11
332.40488365424483
 21
258.39570599985319
 31
0.0
  0
LINE
  5
DBB
  8
0
 62
     0
 10
331.76988365424478
 20
258.39570599985319
 30
0.0
 11
331.76988365424478
 21
258.39570599985319
 31
0.0
  0
LINE
  5
DBC
  8
0
 62
     0
 10
331.13488365424479
 20
258.39570599985319
 30
0.0
 11
331.13488365424479
 21
258.39570599985319
 31
0.0
  0
LINE
  5
DBD
  8
0
 62
     0
 10
330.4998836542448
 20
258.39570599985319
 30
0.0
 11
330.4998836542448
 21
258.39570599985319
 31
0.0
  0
LINE
  5
DBE
  8
0
 62
     0
 10
329.86488365424492
 20
258.39570599985319
 30
0.0
 11
329.86488365424492
 21
258.39570599985319
 31
0.0
  0
LINE
  5
DBF
  8
0
 62
     0
 10
329.22988365424487
 20
258.39570599985319
 30
0.0
 11
329.22988365424487
 21
258.39570599985319
 31
0.0
  0
LINE
  5
DC0
  8
0
 62
     0
 10
328.59488365424488
 20
258.39570599985319
 30
0.0
 11
328.59488365424488
 21
258.39570599985319
 31
0.0
  0
LINE
  5
DC1
  8
0
 62
     0
 10
327.95988365424489
 20
258.39570599985319
 30
0.0
 11
327.95988365424489
 21
258.39570599985319
 31
0.0
  0
LINE
  5
DC2
  8
0
 62
     0
 10
327.3248836542449
 20
258.39570599985319
 30
0.0
 11
327.3248836542449
 21
258.39570599985319
 31
0.0
  0
LINE
  5
DC3
  8
0
 62
     0
 10
326.68988365424491
 20
258.39570599985319
 30
0.0
 11
326.68988365424491
 21
258.39570599985319
 31
0.0
  0
LINE
  5
DC4
  8
0
 62
     0
 10
326.05488365424492
 20
258.39570599985319
 30
0.0
 11
326.05488365424492
 21
258.39570599985319
 31
0.0
  0
LINE
  5
DC5
  8
0
 62
     0
 10
325.41988365424493
 20
258.39570599985319
 30
0.0
 11
325.41988365424493
 21
258.39570599985319
 31
0.0
  0
LINE
  5
DC6
  8
0
 62
     0
 10
324.78488365424488
 20
258.39570599985319
 30
0.0
 11
324.78488365424488
 21
258.39570599985319
 31
0.0
  0
LINE
  5
DC7
  8
0
 62
     0
 10
324.14988365424489
 20
258.39570599985319
 30
0.0
 11
324.14988365424489
 21
258.39570599985319
 31
0.0
  0
LINE
  5
DC8
  8
0
 62
     0
 10
323.51488365424501
 20
258.39570599985319
 30
0.0
 11
323.51488365424501
 21
258.39570599985319
 31
0.0
  0
LINE
  5
DC9
  8
0
 62
     0
 10
322.87988365424502
 20
258.39570599985319
 30
0.0
 11
322.87988365424502
 21
258.39570599985319
 31
0.0
  0
LINE
  5
DCA
  8
0
 62
     0
 10
322.24488365424497
 20
258.39570599985319
 30
0.0
 11
322.24488365424497
 21
258.39570599985319
 31
0.0
  0
LINE
  5
DCB
  8
0
 62
     0
 10
321.60988365424498
 20
258.39570599985319
 30
0.0
 11
321.60988365424498
 21
258.39570599985319
 31
0.0
  0
LINE
  5
DCC
  8
0
 62
     0
 10
320.97488365424499
 20
258.39570599985319
 30
0.0
 11
320.97488365424499
 21
258.39570599985319
 31
0.0
  0
LINE
  5
DCD
  8
0
 62
     0
 10
320.339883654245
 20
258.39570599985319
 30
0.0
 11
320.339883654245
 21
258.39570599985319
 31
0.0
  0
LINE
  5
DCE
  8
0
 62
     0
 10
319.70488365424501
 20
258.39570599985319
 30
0.0
 11
319.70488365424501
 21
258.39570599985319
 31
0.0
  0
LINE
  5
DCF
  8
0
 62
     0
 10
319.06988365424502
 20
258.39570599985319
 30
0.0
 11
319.06988365424502
 21
258.39570599985319
 31
0.0
  0
LINE
  5
DD0
  8
0
 62
     0
 10
318.43488365424503
 20
258.39570599985319
 30
0.0
 11
318.43488365424503
 21
258.39570599985319
 31
0.0
  0
LINE
  5
DD1
  8
0
 62
     0
 10
367.64738365424478
 20
259.03070599985318
 30
0.0
 11
367.64738365424478
 21
259.03070599985318
 31
0.0
  0
LINE
  5
DD2
  8
0
 62
     0
 10
367.01238365424479
 20
259.03070599985318
 30
0.0
 11
367.01238365424479
 21
259.03070599985318
 31
0.0
  0
LINE
  5
DD3
  8
0
 62
     0
 10
366.3773836542448
 20
259.03070599985318
 30
0.0
 11
366.3773836542448
 21
259.03070599985318
 31
0.0
  0
LINE
  5
DD4
  8
0
 62
     0
 10
365.7423836542448
 20
259.03070599985318
 30
0.0
 11
365.7423836542448
 21
259.03070599985318
 31
0.0
  0
LINE
  5
DD5
  8
0
 62
     0
 10
365.10738365424481
 20
259.03070599985318
 30
0.0
 11
365.10738365424481
 21
259.03070599985318
 31
0.0
  0
LINE
  5
DD6
  8
0
 62
     0
 10
364.47238365424482
 20
259.03070599985318
 30
0.0
 11
364.47238365424482
 21
259.03070599985318
 31
0.0
  0
LINE
  5
DD7
  8
0
 62
     0
 10
363.83738365424477
 20
259.03070599985318
 30
0.0
 11
363.83738365424477
 21
259.03070599985318
 31
0.0
  0
LINE
  5
DD8
  8
0
 62
     0
 10
363.20238365424478
 20
259.03070599985318
 30
0.0
 11
363.20238365424478
 21
259.03070599985318
 31
0.0
  0
LINE
  5
DD9
  8
0
 62
     0
 10
362.56738365424491
 20
259.03070599985318
 30
0.0
 11
362.56738365424491
 21
259.03070599985318
 31
0.0
  0
LINE
  5
DDA
  8
0
 62
     0
 10
361.93238365424492
 20
259.03070599985318
 30
0.0
 11
361.93238365424492
 21
259.03070599985318
 31
0.0
  0
LINE
  5
DDB
  8
0
 62
     0
 10
361.29738365424492
 20
259.03070599985318
 30
0.0
 11
361.29738365424492
 21
259.03070599985318
 31
0.0
  0
LINE
  5
DDC
  8
0
 62
     0
 10
360.66238365424488
 20
259.03070599985318
 30
0.0
 11
360.66238365424488
 21
259.03070599985318
 31
0.0
  0
LINE
  5
DDD
  8
0
 62
     0
 10
360.02738365424489
 20
259.03070599985318
 30
0.0
 11
360.02738365424489
 21
259.03070599985318
 31
0.0
  0
LINE
  5
DDE
  8
0
 62
     0
 10
359.3923836542449
 20
259.03070599985318
 30
0.0
 11
359.3923836542449
 21
259.03070599985318
 31
0.0
  0
LINE
  5
DDF
  8
0
 62
     0
 10
358.7573836542449
 20
259.03070599985318
 30
0.0
 11
358.7573836542449
 21
259.03070599985318
 31
0.0
  0
LINE
  5
DE0
  8
0
 62
     0
 10
358.12238365424491
 20
259.03070599985318
 30
0.0
 11
358.12238365424491
 21
259.03070599985318
 31
0.0
  0
LINE
  5
DE1
  8
0
 62
     0
 10
357.48738365424492
 20
259.03070599985318
 30
0.0
 11
357.48738365424492
 21
259.03070599985318
 31
0.0
  0
LINE
  5
DE2
  8
0
 62
     0
 10
356.85238365424487
 20
259.03070599985318
 30
0.0
 11
356.85238365424487
 21
259.03070599985318
 31
0.0
  0
LINE
  5
DE3
  8
0
 62
     0
 10
356.217383654245
 20
259.03070599985318
 30
0.0
 11
356.217383654245
 21
259.03070599985318
 31
0.0
  0
LINE
  5
DE4
  8
0
 62
     0
 10
355.58238365424501
 20
259.03070599985318
 30
0.0
 11
355.58238365424501
 21
259.03070599985318
 31
0.0
  0
LINE
  5
DE5
  8
0
 62
     0
 10
354.94738365424502
 20
259.03070599985318
 30
0.0
 11
354.94738365424502
 21
259.03070599985318
 31
0.0
  0
LINE
  5
DE6
  8
0
 62
     0
 10
354.31238365424502
 20
259.03070599985318
 30
0.0
 11
354.31238365424502
 21
259.03070599985318
 31
0.0
  0
LINE
  5
DE7
  8
0
 62
     0
 10
353.67738365424498
 20
259.03070599985318
 30
0.0
 11
353.67738365424498
 21
259.03070599985318
 31
0.0
  0
LINE
  5
DE8
  8
0
 62
     0
 10
353.04238365424499
 20
259.03070599985318
 30
0.0
 11
353.04238365424499
 21
259.03070599985318
 31
0.0
  0
LINE
  5
DE9
  8
0
 62
     0
 10
352.407383654245
 20
259.03070599985318
 30
0.0
 11
352.407383654245
 21
259.03070599985318
 31
0.0
  0
LINE
  5
DEA
  8
0
 62
     0
 10
351.772383654245
 20
259.03070599985318
 30
0.0
 11
351.772383654245
 21
259.03070599985318
 31
0.0
  0
LINE
  5
DEB
  8
0
 62
     0
 10
351.13738365424501
 20
259.03070599985318
 30
0.0
 11
351.13738365424501
 21
259.03070599985318
 31
0.0
  0
LINE
  5
DEC
  8
0
 62
     0
 10
350.50238365424502
 20
259.03070599985318
 30
0.0
 11
350.50238365424502
 21
259.03070599985318
 31
0.0
  0
LINE
  5
DED
  8
0
 62
     0
 10
349.86738365424509
 20
259.03070599985318
 30
0.0
 11
349.86738365424509
 21
259.03070599985318
 31
0.0
  0
LINE
  5
DEE
  8
0
 62
     0
 10
349.23238365424498
 20
259.03070599985318
 30
0.0
 11
349.23238365424498
 21
259.03070599985318
 31
0.0
  0
LINE
  5
DEF
  8
0
 62
     0
 10
348.59738365424499
 20
259.03070599985318
 30
0.0
 11
348.59738365424499
 21
259.03070599985318
 31
0.0
  0
LINE
  5
DF0
  8
0
 62
     0
 10
347.962383654245
 20
259.03070599985318
 30
0.0
 11
347.962383654245
 21
259.03070599985318
 31
0.0
  0
LINE
  5
DF1
  8
0
 62
     0
 10
337.80238365424469
 20
259.03070599985318
 30
0.0
 11
337.80238365424469
 21
259.03070599985318
 31
0.0
  0
LINE
  5
DF2
  8
0
 62
     0
 10
337.16738365424482
 20
259.03070599985318
 30
0.0
 11
337.16738365424482
 21
259.03070599985318
 31
0.0
  0
LINE
  5
DF3
  8
0
 62
     0
 10
336.53238365424482
 20
259.03070599985318
 30
0.0
 11
336.53238365424482
 21
259.03070599985318
 31
0.0
  0
LINE
  5
DF4
  8
0
 62
     0
 10
335.89738365424478
 20
259.03070599985318
 30
0.0
 11
335.89738365424478
 21
259.03070599985318
 31
0.0
  0
LINE
  5
DF5
  8
0
 62
     0
 10
335.26238365424479
 20
259.03070599985318
 30
0.0
 11
335.26238365424479
 21
259.03070599985318
 31
0.0
  0
LINE
  5
DF6
  8
0
 62
     0
 10
334.6273836542448
 20
259.03070599985318
 30
0.0
 11
334.6273836542448
 21
259.03070599985318
 31
0.0
  0
LINE
  5
DF7
  8
0
 62
     0
 10
333.9923836542448
 20
259.03070599985318
 30
0.0
 11
333.9923836542448
 21
259.03070599985318
 31
0.0
  0
LINE
  5
DF8
  8
0
 62
     0
 10
333.35738365424481
 20
259.03070599985318
 30
0.0
 11
333.35738365424481
 21
259.03070599985318
 31
0.0
  0
LINE
  5
DF9
  8
0
 62
     0
 10
332.72238365424482
 20
259.03070599985318
 30
0.0
 11
332.72238365424482
 21
259.03070599985318
 31
0.0
  0
LINE
  5
DFA
  8
0
 62
     0
 10
332.08738365424477
 20
259.03070599985318
 30
0.0
 11
332.08738365424477
 21
259.03070599985318
 31
0.0
  0
LINE
  5
DFB
  8
0
 62
     0
 10
331.45238365424478
 20
259.03070599985318
 30
0.0
 11
331.45238365424478
 21
259.03070599985318
 31
0.0
  0
LINE
  5
DFC
  8
0
 62
     0
 10
330.81738365424491
 20
259.03070599985318
 30
0.0
 11
330.81738365424491
 21
259.03070599985318
 31
0.0
  0
LINE
  5
DFD
  8
0
 62
     0
 10
330.18238365424492
 20
259.03070599985318
 30
0.0
 11
330.18238365424492
 21
259.03070599985318
 31
0.0
  0
LINE
  5
DFE
  8
0
 62
     0
 10
329.54738365424492
 20
259.03070599985318
 30
0.0
 11
329.54738365424492
 21
259.03070599985318
 31
0.0
  0
LINE
  5
DFF
  8
0
 62
     0
 10
328.91238365424488
 20
259.03070599985318
 30
0.0
 11
328.91238365424488
 21
259.03070599985318
 31
0.0
  0
LINE
  5
E00
  8
0
 62
     0
 10
328.27738365424489
 20
259.03070599985318
 30
0.0
 11
328.27738365424489
 21
259.03070599985318
 31
0.0
  0
LINE
  5
E01
  8
0
 62
     0
 10
327.6423836542449
 20
259.03070599985318
 30
0.0
 11
327.6423836542449
 21
259.03070599985318
 31
0.0
  0
LINE
  5
E02
  8
0
 62
     0
 10
327.0073836542449
 20
259.03070599985318
 30
0.0
 11
327.0073836542449
 21
259.03070599985318
 31
0.0
  0
LINE
  5
E03
  8
0
 62
     0
 10
326.37238365424491
 20
259.03070599985318
 30
0.0
 11
326.37238365424491
 21
259.03070599985318
 31
0.0
  0
LINE
  5
E04
  8
0
 62
     0
 10
325.73738365424492
 20
259.03070599985318
 30
0.0
 11
325.73738365424492
 21
259.03070599985318
 31
0.0
  0
LINE
  5
E05
  8
0
 62
     0
 10
325.10238365424487
 20
259.03070599985318
 30
0.0
 11
325.10238365424487
 21
259.03070599985318
 31
0.0
  0
LINE
  5
E06
  8
0
 62
     0
 10
324.467383654245
 20
259.03070599985318
 30
0.0
 11
324.467383654245
 21
259.03070599985318
 31
0.0
  0
LINE
  5
E07
  8
0
 62
     0
 10
323.83238365424489
 20
259.03070599985318
 30
0.0
 11
323.83238365424489
 21
259.03070599985318
 31
0.0
  0
LINE
  5
E08
  8
0
 62
     0
 10
323.1973836542449
 20
259.03070599985318
 30
0.0
 11
323.1973836542449
 21
259.03070599985318
 31
0.0
  0
LINE
  5
E09
  8
0
 62
     0
 10
322.56238365424502
 20
259.03070599985318
 30
0.0
 11
322.56238365424502
 21
259.03070599985318
 31
0.0
  0
LINE
  5
E0A
  8
0
 62
     0
 10
321.92738365424498
 20
259.03070599985318
 30
0.0
 11
321.92738365424498
 21
259.03070599985318
 31
0.0
  0
LINE
  5
E0B
  8
0
 62
     0
 10
321.29238365424499
 20
259.03070599985318
 30
0.0
 11
321.29238365424499
 21
259.03070599985318
 31
0.0
  0
LINE
  5
E0C
  8
0
 62
     0
 10
320.657383654245
 20
259.03070599985318
 30
0.0
 11
320.657383654245
 21
259.03070599985318
 31
0.0
  0
LINE
  5
E0D
  8
0
 62
     0
 10
320.022383654245
 20
259.03070599985318
 30
0.0
 11
320.022383654245
 21
259.03070599985318
 31
0.0
  0
LINE
  5
E0E
  8
0
 62
     0
 10
319.38738365424501
 20
259.03070599985318
 30
0.0
 11
319.38738365424501
 21
259.03070599985318
 31
0.0
  0
LINE
  5
E0F
  8
0
 62
     0
 10
318.75238365424502
 20
259.03070599985318
 30
0.0
 11
318.75238365424502
 21
259.03070599985318
 31
0.0
  0
LINE
  5
E10
  8
0
 62
     0
 10
318.11738365424497
 20
259.03070599985318
 30
0.0
 11
318.11738365424497
 21
259.03070599985318
 31
0.0
  0
LINE
  5
E11
  8
0
 62
     0
 10
367.32988365424478
 20
259.66570599985317
 30
0.0
 11
367.32988365424478
 21
259.66570599985317
 31
0.0
  0
LINE
  5
E12
  8
0
 62
     0
 10
366.69488365424479
 20
259.66570599985317
 30
0.0
 11
366.69488365424479
 21
259.66570599985317
 31
0.0
  0
LINE
  5
E13
  8
0
 62
     0
 10
366.0598836542448
 20
259.66570599985317
 30
0.0
 11
366.0598836542448
 21
259.66570599985317
 31
0.0
  0
LINE
  5
E14
  8
0
 62
     0
 10
365.42488365424481
 20
259.66570599985317
 30
0.0
 11
365.42488365424481
 21
259.66570599985317
 31
0.0
  0
LINE
  5
E15
  8
0
 62
     0
 10
364.78988365424482
 20
259.66570599985317
 30
0.0
 11
364.78988365424482
 21
259.66570599985317
 31
0.0
  0
LINE
  5
E16
  8
0
 62
     0
 10
364.15488365424483
 20
259.66570599985317
 30
0.0
 11
364.15488365424483
 21
259.66570599985317
 31
0.0
  0
LINE
  5
E17
  8
0
 62
     0
 10
363.51988365424489
 20
259.66570599985317
 30
0.0
 11
363.51988365424489
 21
259.66570599985317
 31
0.0
  0
LINE
  5
E18
  8
0
 62
     0
 10
362.8848836542449
 20
259.66570599985317
 30
0.0
 11
362.8848836542449
 21
259.66570599985317
 31
0.0
  0
LINE
  5
E19
  8
0
 62
     0
 10
362.2498836542448
 20
259.66570599985317
 30
0.0
 11
362.2498836542448
 21
259.66570599985317
 31
0.0
  0
LINE
  5
E1A
  8
0
 62
     0
 10
361.61488365424492
 20
259.66570599985317
 30
0.0
 11
361.61488365424492
 21
259.66570599985317
 31
0.0
  0
LINE
  5
E1B
  8
0
 62
     0
 10
360.97988365424487
 20
259.66570599985317
 30
0.0
 11
360.97988365424487
 21
259.66570599985317
 31
0.0
  0
LINE
  5
E1C
  8
0
 62
     0
 10
360.34488365424488
 20
259.66570599985317
 30
0.0
 11
360.34488365424488
 21
259.66570599985317
 31
0.0
  0
LINE
  5
E1D
  8
0
 62
     0
 10
359.70988365424489
 20
259.66570599985317
 30
0.0
 11
359.70988365424489
 21
259.66570599985317
 31
0.0
  0
LINE
  5
E1E
  8
0
 62
     0
 10
359.0748836542449
 20
259.66570599985317
 30
0.0
 11
359.0748836542449
 21
259.66570599985317
 31
0.0
  0
LINE
  5
E1F
  8
0
 62
     0
 10
358.43988365424491
 20
259.66570599985317
 30
0.0
 11
358.43988365424491
 21
259.66570599985317
 31
0.0
  0
LINE
  5
E20
  8
0
 62
     0
 10
357.80488365424492
 20
259.66570599985317
 30
0.0
 11
357.80488365424492
 21
259.66570599985317
 31
0.0
  0
LINE
  5
E21
  8
0
 62
     0
 10
357.16988365424493
 20
259.66570599985317
 30
0.0
 11
357.16988365424493
 21
259.66570599985317
 31
0.0
  0
LINE
  5
E22
  8
0
 62
     0
 10
356.53488365424488
 20
259.66570599985317
 30
0.0
 11
356.53488365424488
 21
259.66570599985317
 31
0.0
  0
LINE
  5
E23
  8
0
 62
     0
 10
355.89988365424489
 20
259.66570599985317
 30
0.0
 11
355.89988365424489
 21
259.66570599985317
 31
0.0
  0
LINE
  5
E24
  8
0
 62
     0
 10
355.26488365424501
 20
259.66570599985317
 30
0.0
 11
355.26488365424501
 21
259.66570599985317
 31
0.0
  0
LINE
  5
E25
  8
0
 62
     0
 10
354.62988365424502
 20
259.66570599985317
 30
0.0
 11
354.62988365424502
 21
259.66570599985317
 31
0.0
  0
LINE
  5
E26
  8
0
 62
     0
 10
353.99488365424497
 20
259.66570599985317
 30
0.0
 11
353.99488365424497
 21
259.66570599985317
 31
0.0
  0
LINE
  5
E27
  8
0
 62
     0
 10
353.35988365424498
 20
259.66570599985317
 30
0.0
 11
353.35988365424498
 21
259.66570599985317
 31
0.0
  0
LINE
  5
E28
  8
0
 62
     0
 10
352.72488365424499
 20
259.66570599985317
 30
0.0
 11
352.72488365424499
 21
259.66570599985317
 31
0.0
  0
LINE
  5
E29
  8
0
 62
     0
 10
352.089883654245
 20
259.66570599985317
 30
0.0
 11
352.089883654245
 21
259.66570599985317
 31
0.0
  0
LINE
  5
E2A
  8
0
 62
     0
 10
351.45488365424501
 20
259.66570599985317
 30
0.0
 11
351.45488365424501
 21
259.66570599985317
 31
0.0
  0
LINE
  5
E2B
  8
0
 62
     0
 10
350.81988365424502
 20
259.66570599985317
 30
0.0
 11
350.81988365424502
 21
259.66570599985317
 31
0.0
  0
LINE
  5
E2C
  8
0
 62
     0
 10
350.18488365424503
 20
259.66570599985317
 30
0.0
 11
350.18488365424503
 21
259.66570599985317
 31
0.0
  0
LINE
  5
E2D
  8
0
 62
     0
 10
349.54988365424498
 20
259.66570599985317
 30
0.0
 11
349.54988365424498
 21
259.66570599985317
 31
0.0
  0
LINE
  5
E2E
  8
0
 62
     0
 10
348.9148836542451
 20
259.66570599985317
 30
0.0
 11
348.9148836542451
 21
259.66570599985317
 31
0.0
  0
LINE
  5
E2F
  8
0
 62
     0
 10
348.27988365424511
 20
259.66570599985317
 30
0.0
 11
348.27988365424511
 21
259.66570599985317
 31
0.0
  0
LINE
  5
E30
  8
0
 62
     0
 10
337.48488365424481
 20
259.66570599985317
 30
0.0
 11
337.48488365424481
 21
259.66570599985317
 31
0.0
  0
LINE
  5
E31
  8
0
 62
     0
 10
336.84988365424471
 20
259.66570599985317
 30
0.0
 11
336.84988365424471
 21
259.66570599985317
 31
0.0
  0
LINE
  5
E32
  8
0
 62
     0
 10
336.21488365424477
 20
259.66570599985317
 30
0.0
 11
336.21488365424477
 21
259.66570599985317
 31
0.0
  0
LINE
  5
E33
  8
0
 62
     0
 10
335.57988365424478
 20
259.66570599985317
 30
0.0
 11
335.57988365424478
 21
259.66570599985317
 31
0.0
  0
LINE
  5
E34
  8
0
 62
     0
 10
334.94488365424479
 20
259.66570599985317
 30
0.0
 11
334.94488365424479
 21
259.66570599985317
 31
0.0
  0
LINE
  5
E35
  8
0
 62
     0
 10
334.3098836542448
 20
259.66570599985317
 30
0.0
 11
334.3098836542448
 21
259.66570599985317
 31
0.0
  0
LINE
  5
E36
  8
0
 62
     0
 10
333.67488365424481
 20
259.66570599985317
 30
0.0
 11
333.67488365424481
 21
259.66570599985317
 31
0.0
  0
LINE
  5
E37
  8
0
 62
     0
 10
333.03988365424482
 20
259.66570599985317
 30
0.0
 11
333.03988365424482
 21
259.66570599985317
 31
0.0
  0
LINE
  5
E38
  8
0
 62
     0
 10
332.40488365424483
 20
259.66570599985317
 30
0.0
 11
332.40488365424483
 21
259.66570599985317
 31
0.0
  0
LINE
  5
E39
  8
0
 62
     0
 10
331.76988365424478
 20
259.66570599985317
 30
0.0
 11
331.76988365424478
 21
259.66570599985317
 31
0.0
  0
LINE
  5
E3A
  8
0
 62
     0
 10
331.13488365424479
 20
259.66570599985317
 30
0.0
 11
331.13488365424479
 21
259.66570599985317
 31
0.0
  0
LINE
  5
E3B
  8
0
 62
     0
 10
330.4998836542448
 20
259.66570599985317
 30
0.0
 11
330.4998836542448
 21
259.66570599985317
 31
0.0
  0
LINE
  5
E3C
  8
0
 62
     0
 10
329.86488365424492
 20
259.66570599985317
 30
0.0
 11
329.86488365424492
 21
259.66570599985317
 31
0.0
  0
LINE
  5
E3D
  8
0
 62
     0
 10
329.22988365424487
 20
259.66570599985317
 30
0.0
 11
329.22988365424487
 21
259.66570599985317
 31
0.0
  0
LINE
  5
E3E
  8
0
 62
     0
 10
328.59488365424488
 20
259.66570599985317
 30
0.0
 11
328.59488365424488
 21
259.66570599985317
 31
0.0
  0
LINE
  5
E3F
  8
0
 62
     0
 10
327.95988365424489
 20
259.66570599985317
 30
0.0
 11
327.95988365424489
 21
259.66570599985317
 31
0.0
  0
LINE
  5
E40
  8
0
 62
     0
 10
327.3248836542449
 20
259.66570599985317
 30
0.0
 11
327.3248836542449
 21
259.66570599985317
 31
0.0
  0
LINE
  5
E41
  8
0
 62
     0
 10
326.68988365424491
 20
259.66570599985317
 30
0.0
 11
326.68988365424491
 21
259.66570599985317
 31
0.0
  0
LINE
  5
E42
  8
0
 62
     0
 10
326.05488365424492
 20
259.66570599985317
 30
0.0
 11
326.05488365424492
 21
259.66570599985317
 31
0.0
  0
LINE
  5
E43
  8
0
 62
     0
 10
325.41988365424493
 20
259.66570599985317
 30
0.0
 11
325.41988365424493
 21
259.66570599985317
 31
0.0
  0
LINE
  5
E44
  8
0
 62
     0
 10
324.78488365424488
 20
259.66570599985317
 30
0.0
 11
324.78488365424488
 21
259.66570599985317
 31
0.0
  0
LINE
  5
E45
  8
0
 62
     0
 10
324.14988365424489
 20
259.66570599985317
 30
0.0
 11
324.14988365424489
 21
259.66570599985317
 31
0.0
  0
LINE
  5
E46
  8
0
 62
     0
 10
323.51488365424501
 20
259.66570599985317
 30
0.0
 11
323.51488365424501
 21
259.66570599985317
 31
0.0
  0
LINE
  5
E47
  8
0
 62
     0
 10
322.87988365424502
 20
259.66570599985317
 30
0.0
 11
322.87988365424502
 21
259.66570599985317
 31
0.0
  0
LINE
  5
E48
  8
0
 62
     0
 10
322.24488365424497
 20
259.66570599985317
 30
0.0
 11
322.24488365424497
 21
259.66570599985317
 31
0.0
  0
LINE
  5
E49
  8
0
 62
     0
 10
321.60988365424498
 20
259.66570599985317
 30
0.0
 11
321.60988365424498
 21
259.66570599985317
 31
0.0
  0
LINE
  5
E4A
  8
0
 62
     0
 10
320.97488365424499
 20
259.66570599985317
 30
0.0
 11
320.97488365424499
 21
259.66570599985317
 31
0.0
  0
LINE
  5
E4B
  8
0
 62
     0
 10
320.339883654245
 20
259.66570599985317
 30
0.0
 11
320.339883654245
 21
259.66570599985317
 31
0.0
  0
LINE
  5
E4C
  8
0
 62
     0
 10
319.70488365424501
 20
259.66570599985317
 30
0.0
 11
319.70488365424501
 21
259.66570599985317
 31
0.0
  0
LINE
  5
E4D
  8
0
 62
     0
 10
319.06988365424502
 20
259.66570599985317
 30
0.0
 11
319.06988365424502
 21
259.66570599985317
 31
0.0
  0
LINE
  5
E4E
  8
0
 62
     0
 10
318.43488365424503
 20
259.66570599985317
 30
0.0
 11
318.43488365424503
 21
259.66570599985317
 31
0.0
  0
LINE
  5
E4F
  8
0
 62
     0
 10
357.48738365424492
 20
260.30070599985322
 30
0.0
 11
357.48738365424492
 21
260.30070599985322
 31
0.0
  0
LINE
  5
E50
  8
0
 62
     0
 10
356.85238365424487
 20
260.30070599985322
 30
0.0
 11
356.85238365424487
 21
260.30070599985322
 31
0.0
  0
LINE
  5
E51
  8
0
 62
     0
 10
356.217383654245
 20
260.30070599985322
 30
0.0
 11
356.217383654245
 21
260.30070599985322
 31
0.0
  0
LINE
  5
E52
  8
0
 62
     0
 10
355.58238365424501
 20
260.30070599985322
 30
0.0
 11
355.58238365424501
 21
260.30070599985322
 31
0.0
  0
LINE
  5
E53
  8
0
 62
     0
 10
354.94738365424502
 20
260.30070599985322
 30
0.0
 11
354.94738365424502
 21
260.30070599985322
 31
0.0
  0
LINE
  5
E54
  8
0
 62
     0
 10
354.31238365424502
 20
260.30070599985322
 30
0.0
 11
354.31238365424502
 21
260.30070599985322
 31
0.0
  0
LINE
  5
E55
  8
0
 62
     0
 10
353.67738365424498
 20
260.30070599985322
 30
0.0
 11
353.67738365424498
 21
260.30070599985322
 31
0.0
  0
LINE
  5
E56
  8
0
 62
     0
 10
353.04238365424499
 20
260.30070599985322
 30
0.0
 11
353.04238365424499
 21
260.30070599985322
 31
0.0
  0
LINE
  5
E57
  8
0
 62
     0
 10
352.407383654245
 20
260.30070599985322
 30
0.0
 11
352.407383654245
 21
260.30070599985322
 31
0.0
  0
LINE
  5
E58
  8
0
 62
     0
 10
351.772383654245
 20
260.30070599985322
 30
0.0
 11
351.772383654245
 21
260.30070599985322
 31
0.0
  0
LINE
  5
E59
  8
0
 62
     0
 10
351.13738365424501
 20
260.30070599985322
 30
0.0
 11
351.13738365424501
 21
260.30070599985322
 31
0.0
  0
LINE
  5
E5A
  8
0
 62
     0
 10
350.50238365424502
 20
260.30070599985322
 30
0.0
 11
350.50238365424502
 21
260.30070599985322
 31
0.0
  0
LINE
  5
E5B
  8
0
 62
     0
 10
349.86738365424509
 20
260.30070599985322
 30
0.0
 11
349.86738365424509
 21
260.30070599985322
 31
0.0
  0
LINE
  5
E5C
  8
0
 62
     0
 10
349.23238365424498
 20
260.30070599985322
 30
0.0
 11
349.23238365424498
 21
260.30070599985322
 31
0.0
  0
LINE
  5
E5D
  8
0
 62
     0
 10
348.59738365424499
 20
260.30070599985322
 30
0.0
 11
348.59738365424499
 21
260.30070599985322
 31
0.0
  0
LINE
  5
E5E
  8
0
 62
     0
 10
347.962383654245
 20
260.30070599985322
 30
0.0
 11
347.962383654245
 21
260.30070599985322
 31
0.0
  0
LINE
  5
E5F
  8
0
 62
     0
 10
337.80238365424492
 20
260.30070599985322
 30
0.0
 11
337.80238365424492
 21
260.30070599985322
 31
0.0
  0
LINE
  5
E60
  8
0
 62
     0
 10
337.16738365424487
 20
260.30070599985322
 30
0.0
 11
337.16738365424487
 21
260.30070599985322
 31
0.0
  0
LINE
  5
E61
  8
0
 62
     0
 10
336.532383654245
 20
260.30070599985322
 30
0.0
 11
336.532383654245
 21
260.30070599985322
 31
0.0
  0
LINE
  5
E62
  8
0
 62
     0
 10
335.897383654245
 20
260.30070599985322
 30
0.0
 11
335.897383654245
 21
260.30070599985322
 31
0.0
  0
LINE
  5
E63
  8
0
 62
     0
 10
335.2623836542449
 20
260.30070599985322
 30
0.0
 11
335.2623836542449
 21
260.30070599985322
 31
0.0
  0
LINE
  5
E64
  8
0
 62
     0
 10
334.62738365424502
 20
260.30070599985322
 30
0.0
 11
334.62738365424502
 21
260.30070599985322
 31
0.0
  0
LINE
  5
E65
  8
0
 62
     0
 10
333.99238365424497
 20
260.30070599985322
 30
0.0
 11
333.99238365424497
 21
260.30070599985322
 31
0.0
  0
LINE
  5
E66
  8
0
 62
     0
 10
333.35738365424498
 20
260.30070599985322
 30
0.0
 11
333.35738365424498
 21
260.30070599985322
 31
0.0
  0
LINE
  5
E67
  8
0
 62
     0
 10
332.72238365424499
 20
260.30070599985322
 30
0.0
 11
332.72238365424499
 21
260.30070599985322
 31
0.0
  0
LINE
  5
E68
  8
0
 62
     0
 10
332.087383654245
 20
260.30070599985322
 30
0.0
 11
332.087383654245
 21
260.30070599985322
 31
0.0
  0
LINE
  5
E69
  8
0
 62
     0
 10
331.45238365424501
 20
260.30070599985322
 30
0.0
 11
331.45238365424501
 21
260.30070599985322
 31
0.0
  0
LINE
  5
E6A
  8
0
 62
     0
 10
330.81738365424502
 20
260.30070599985322
 30
0.0
 11
330.81738365424502
 21
260.30070599985322
 31
0.0
  0
LINE
  5
E6B
  8
0
 62
     0
 10
330.18238365424497
 20
260.30070599985322
 30
0.0
 11
330.18238365424497
 21
260.30070599985322
 31
0.0
  0
LINE
  5
E6C
  8
0
 62
     0
 10
329.54738365424498
 20
260.30070599985322
 30
0.0
 11
329.54738365424498
 21
260.30070599985322
 31
0.0
  0
LINE
  5
E6D
  8
0
 62
     0
 10
328.91238365424499
 20
260.30070599985322
 30
0.0
 11
328.91238365424499
 21
260.30070599985322
 31
0.0
  0
LINE
  5
E6E
  8
0
 62
     0
 10
328.27738365424511
 20
260.30070599985322
 30
0.0
 11
328.27738365424511
 21
260.30070599985322
 31
0.0
  0
ENDBLK
  5
E70
  8
0
  0
BLOCK
  8
0
  2
*U13
 70
     1
 10
0.0
 20
0.0
 30
0.0
  3
*U13
  1

  0
TEXT
  5
E72
  8
0
 62
     6
 10
438.87206781762768
 20
271.62141770041512
 30
0.0
 40
2.5
  1
5.75
  7
STYLE3
  0
ENDBLK
  5
E74
  8
0
  0
BLOCK
  8
0
  2
*U14
 70
     1
 10
0.0
 20
0.0
 30
0.0
  3
*U14
  1

  0
TEXT
  5
E76
  8
0
 62
     6
 10
383.24303616891791
 20
236.12515495930529
 30
0.0
 40
2.5
  1
12.7
  7
STYLE3
  0
ENDBLK
  5
E78
  8
0
  0
BLOCK
  8
0
  2
*U15
 70
     1
 10
0.0
 20
0.0
 30
0.0
  3
*U15
  1

  0
TEXT
  5
E7E
  8
外形線
 62
     6
 10
340.47325829381811
 20
271.62141770041501
 30
0.0
 40
2.5
  1
70
  7
STYLE3
  0
ENDBLK
  5
E80
  8
0
  0
BLOCK
  8
0
  2
*U16
 70
     1
 10
0.0
 20
0.0
 30
0.0
  3
*U16
  1

  0
TEXT
  5
E82
  8
外形線
 62
     6
 10
390.84216074025511
 20
247.22295397315531
 30
0.0
 40
2.5
  1
φ10
 50
90.0
  7
STYLE3
  0
ENDBLK
  5
E84
  8
0
  0
BLOCK
  8
0
  2
*U17
 70
     1
 10
0.0
 20
0.0
 30
0.0
  3
*U17
  1

  0
TEXT
  5
E86
  8
中心線
 62
     6
 10
423.50897257953233
 20
322.07469989002237
 30
0.0
 40
2.5
  1
11.5
  7
STYLE3
  0
ENDBLK
  5
E88
  8
0
  0
BLOCK
  8
0
  2
*U18
 70
     1
 10
0.0
 20
0.0
 30
0.0
  3
*U18
  1

  0
TEXT
  5
E8A
  8
中心線
 62
     6
 10
446.94341606444181
 20
300.82819507780499
 30
0.0
 40
2.5
  1
13
 50
90.0
  7
STYLE3
  0
ENDBLK
  5
E8C
  8
0
  0
ENDSEC
  0
SECTION
  2
ENTITIES
  0
POLYLINE
  5
10B
  8
C
 66
     1
 10
0.0
 20
0.0
 30
0.0
 40
0.4
 41
0.4
  0
VERTEX
  5
965
  8
C
 10
236.69156044454141
 20
366.85017525553718
 30
0.0
  0
VERTEX
  5
966
  8
C
 10
491.69156044454138
 20
366.85017525553718
 30
0.0
  0
VERTEX
  5
967
  8
C
 10
491.69156044454138
 20
171.85017525553721
 30
0.0
  0
VERTEX
  5
968
  8
C
 10
236.69156044454141
 20
171.85017525553721
 30
0.0
  0
VERTEX
  5
969
  8
C
 10
236.69156044454141
 20
366.85017525553718
 30
0.0
  0
SEQEND
  5
96A
  8
C
  0
LINE
  5
16A
  8
中心線
 10
279.81680887241498
 20
250.67533492553619
 30
0.0
 11
437.84842540287951
 21
250.67533492553611
 31
0.0
  0
LINE
  5
16C
  8
外形線
 10
347.8542106747704
 20
260.63464874918958
 30
0.0
 11
347.8542106747704
 21
254.67533492553619
 31
0.0
1001
ACAD
1000
ASC_BOUNDS
1002
{
1070
    19
1005
317
1002
}
  0
LINE
  5
16D
  8
外形線
 10
367.85421067477051
 20
259.65655883975433
 30
0.0
 11
367.85421067477063
 21
252.67533492553619
 31
0.0
1001
ACAD
1000
ASC_BOUNDS
1002
{
1070
    19
1005
317
1002
}
  0
LINE
  5
16E
  8
外形線
 10
377.85421067477051
 20
257.782136229532
 30
0.0
 11
377.85421067477051
 21
243.5685336215403
 31
0.0
  0
LINE
  5
171
  8
外形線
 10
307.85421067477051
 20
257.782136229532
 30
0.0
 11
307.85421067477051
 21
256.67533492553622
 31
0.0
  0
ARC
  5
173
  8
外形線
 10
342.85421067477051
 20
-46.574665074463887
 30
0.0
 40
307.25
 50
83.625859040713934
 51
96.374140959286052
1001
ACAD
1000
ASC_BOUNDS
1002
{
1070
    19
1005
317
1005
317
1002
}
  0
ARC
  5
175
  8
外形線
 10
342.85421067477051
 20
547.92533492553605
 30
0.0
 40
307.25
 50
263.62585904071392
 51
276.37414095928608
1001
ACAD
1000
ASC_BOUNDS
1002
{
1070
    19
1005
317
1005
317
1002
}
  0
LINE
  5
176
  8
外形線
 10
357.85421067477051
 20
254.17533492553619
 30
0.0
 11
357.85421067477051
 21
247.17533492553619
 31
0.0
  0
LINE
  5
177
  8
外形線
 10
327.85421067477051
 20
254.17533492553619
 30
0.0
 11
327.85421067477051
 21
247.17533492553619
 31
0.0
  0
LINE
  5
178
  8
外形線
 10
327.85421067477051
 20
254.17533492553619
 30
0.0
 11
357.85421067477051
 21
254.17533492553619
 31
0.0
  0
LINE
  5
179
  8
外形線
 10
327.85421067477051
 20
247.17533492553619
 30
0.0
 11
357.85421067477051
 21
247.17533492553619
 31
0.0
  0
LINE
  5
17A
  8
外形線
 10
347.8542106747704
 20
254.67533492553619
 30
0.0
 11
358.3542106747704
 21
254.67533492553619
 31
0.0
1001
ACAD
1000
ASC_BOUNDS
1002
{
1070
    19
1005
317
1002
}
  0
LINE
  5
17C
  8
外形線
 10
358.3542106747704
 20
252.67533492553619
 30
0.0
 11
367.85421067477063
 21
252.67533492553619
 31
0.0
1001
ACAD
1000
ASC_BOUNDS
1002
{
1070
    19
1005
317
1002
}
  0
LINE
  5
17F
  8
外形線
 10
358.3542106747704
 20
254.67533492553619
 30
0.0
 11
358.3542106747704
 21
252.67533492553619
 31
0.0
1001
ACAD
1000
ASC_BOUNDS
1002
{
1070
    19
1005
317
1002
}
  0
LINE
  5
181
  8
外形線
 10
358.3542106747704
 20
248.67533492553619
 30
0.0
 11
367.85421067477063
 21
248.67533492553619
 31
0.0
1001
ACAD
1000
ASC_BOUNDS
1002
{
1070
    19
1005
317
1002
}
  0
LINE
  5
182
  8
外形線
 10
367.85421067477051
 20
241.694111011318
 30
0.0
 11
367.85421067477063
 21
248.67533492553619
 31
0.0
1001
ACAD
1000
ASC_BOUNDS
1002
{
1070
    19
1005
317
1002
}
  0
LINE
  5
183
  8
外形線
 10
358.3542106747704
 20
246.67533492553619
 30
0.0
 11
358.3542106747704
 21
248.67533492553619
 31
0.0
1001
ACAD
1000
ASC_BOUNDS
1002
{
1070
    19
1005
317
1002
}
  0
LINE
  5
184
  8
外形線
 10
347.8542106747704
 20
246.67533492553619
 30
0.0
 11
358.3542106747704
 21
246.67533492553619
 31
0.0
1001
ACAD
1000
ASC_BOUNDS
1002
{
1070
    19
1005
317
1002
}
  0
LINE
  5
185
  8
外形線
 10
347.8542106747704
 20
240.71602110188269
 30
0.0
 11
347.8542106747704
 21
246.67533492553619
 31
0.0
1001
ACAD
1000
ASC_BOUNDS
1002
{
1070
    19
1005
317
1002
}
  0
LINE
  5
186
  8
外形線
 10
317.85421067477051
 20
241.694111011318
 30
0.0
 11
317.85421067477029
 21
248.67533492553619
 31
0.0
1001
ACAD
1000
ASC_BOUNDS
1002
{
1070
    19
1005
317
1002
}
  0
LINE
  5
188
  8
外形線
 10
337.85421067477051
 20
240.71602110188269
 30
0.0
 11
337.85421067477051
 21
246.67533492553619
 31
0.0
1001
ACAD
1000
ASC_BOUNDS
1002
{
1070
    19
1005
317
1002
}
  0
LINE
  5
189
  8
外形線
 10
337.85421067477051
 20
246.67533492553619
 30
0.0
 11
327.35421067477051
 21
246.67533492553619
 31
0.0
1001
ACAD
1000
ASC_BOUNDS
1002
{
1070
    19
1005
317
1002
}
  0
LINE
  5
18A
  8
外形線
 10
327.35421067477051
 20
246.67533492553619
 30
0.0
 11
327.35421067477051
 21
248.67533492553619
 31
0.0
1001
ACAD
1000
ASC_BOUNDS
1002
{
1070
    19
1005
317
1002
}
  0
LINE
  5
18B
  8
外形線
 10
327.35421067477051
 20
248.67533492553619
 30
0.0
 11
317.85421067477029
 21
248.67533492553619
 31
0.0
1001
ACAD
1000
ASC_BOUNDS
1002
{
1070
    19
1005
317
1002
}
  0
LINE
  5
18D
  8
外形線
 10
337.85421067477051
 20
260.63464874918958
 30
0.0
 11
337.85421067477051
 21
254.67533492553619
 31
0.0
1001
ACAD
1000
ASC_BOUNDS
1002
{
1070
    19
1005
317
1002
}
  0
LINE
  5
18E
  8
外形線
 10
327.35421067477051
 20
252.67533492553619
 30
0.0
 11
317.85421067477029
 21
252.67533492553619
 31
0.0
1001
ACAD
1000
ASC_BOUNDS
1002
{
1070
    19
1005
317
1002
}
  0
LINE
  5
18F
  8
外形線
 10
317.85421067477051
 20
259.65655883975433
 30
0.0
 11
317.85421067477029
 21
252.67533492553619
 31
0.0
1001
ACAD
1000
ASC_BOUNDS
1002
{
1070
    19
1005
317
1002
}
  0
LINE
  5
190
  8
外形線
 10
327.35421067477051
 20
254.67533492553619
 30
0.0
 11
327.35421067477051
 21
252.67533492553619
 31
0.0
1001
ACAD
1000
ASC_BOUNDS
1002
{
1070
    19
1005
317
1002
}
  0
LINE
  5
191
  8
外形線
 10
337.85421067477051
 20
254.67533492553619
 30
0.0
 11
327.35421067477051
 21
254.67533492553619
 31
0.0
1001
ACAD
1000
ASC_BOUNDS
1002
{
1070
    19
1005
317
1002
}
  0
TEXT
  5
1AE
  8
文字
 10
336.2836043868823
 20
249.44827661021051
 30
0.0
 40
2.5
  1
18-35mm
  7
STYLE3
  0
LINE
  5
1B2
  8
外形線
 10
377.85421067477051
 20
255.67533492553619
 30
0.0
 11
418.25421067477021
 21
255.67533492553619
 31
0.0
  0
LINE
  5
1B3
  8
外形線
 10
377.85421067477051
 20
245.67533492553611
 30
0.0
 11
418.25421067477038
 21
245.67533492553611
 31
0.0
  0
LINE
  5
1C6
  8
外形線
 10
432.95421067477042
 20
248.8150078115944
 30
0.0
 11
422.75421067477038
 21
248.8150078115944
 31
0.0
  0
LINE
  5
1C8
  8
外形線
 10
422.75421067477038
 20
248.8150078115944
 30
0.0
 11
422.75421067477049
 21
259.3150078115944
 31
0.0
  0
LINE
  5
1CA
  8
外形線
 10
422.1042106747704
 20
259.3150078115944
 30
0.0
 11
422.10421067477051
 21
260.74109875173929
 31
0.0
  0
LINE
  5
1CC
  8
外形線
 10
433.6042106747704
 20
259.3150078115944
 30
0.0
 11
422.1042106747704
 21
259.3150078115944
 31
0.0
  0
ARC
  5
1CE
  8
外形線
 10
427.8542106747704
 20
245.81000703010019
 30
0.0
 40
16.0
 50
68.938182398350449
 51
111.0618176016491
  0
ARC
  5
1D1
  8
外形線
 10
427.8542106747704
 20
262.37033414404181
 30
0.0
 40
1.0
 50
23.578178478193848
 51
156.42182152180311
  0
LINE
  5
1D2
  8
外形線
 10
426.80421067477369
 20
261.7755167307019
 30
0.0
 11
426.80421067477039
 21
262.77033414404173
 31
0.0
  0
LINE
  5
1D3
  8
外形線
 10
428.90421067477041
 20
261.77551673070172
 30
0.0
 11
428.90421067477041
 21
262.77033414404173
 31
0.0
  0
LINE
  5
1D5
  8
外形線
 10
428.90421067477041
 20
262.77033414404178
 30
0.0
 11
426.8042106747705
 21
262.77033414404178
 31
0.0
  0
LINE
  5
21A
  8
外形線
 10
421.75421067477049
 20
254.37533492553609
 30
0.0
 11
421.75421067477038
 21
246.97533492553609
 31
0.0
  0
LINE
  5
21B
  8
外形線
 10
422.25421067477038
 20
255.77533492553621
 30
0.0
 11
422.25421067477038
 21
246.67533492553611
 31
0.0
  0
LINE
  5
21D
  8
外形線
 10
421.25421067477038
 20
254.37533492553609
 30
0.0
 11
421.75421067477049
 21
254.37533492553609
 31
0.0
  0
LINE
  5
21E
  8
外形線
 10
421.25421067477038
 20
246.97533492553609
 30
0.0
 11
421.75421067477038
 21
246.97533492553609
 31
0.0
  0
LINE
  5
21F
  8
外形線
 10
421.75421067477049
 20
254.17533492553611
 30
0.0
 11
422.25421067477038
 21
254.17533492553611
 31
0.0
  0
LINE
  5
220
  8
外形線
 10
421.75421067477049
 20
247.17533492553611
 30
0.0
 11
422.25421067477038
 21
247.17533492553611
 31
0.0
  0
LINE
  5
221
  8
外形線
 10
422.25421067477038
 20
246.67533492553611
 30
0.0
 11
432.25421067477038
 21
246.67533492553611
 31
0.0
  0
LINE
  5
227
  8
外形線
 10
422.25421067477038
 20
255.77533492553621
 30
0.0
 11
422.75421067477038
 21
255.77533492553621
 31
0.0
  0
LINE
  5
229
  8
外形線
 10
432.25421067477038
 20
248.8150078115944
 30
0.0
 11
432.25421067477038
 21
246.67533492553611
 31
0.0
  0
LINE
  5
22B
  8
外形線
 10
432.95421067477042
 20
248.8150078115944
 30
0.0
 11
432.95421067477048
 21
259.3150078115944
 31
0.0
  0
LINE
  5
22C
  8
外形線
 10
433.6042106747704
 20
259.3150078115944
 30
0.0
 11
433.6042106747704
 21
260.74109875173929
 31
0.0
  0
LINE
  5
235
  8
中心線
 10
427.8542106747704
 20
263.37033414404192
 30
0.0
 11
427.8542106747704
 21
230.8227679950997
 31
0.0
  0
LINE
  5
23B
  8
外形線
 10
431.3542106747704
 20
246.67533492553611
 30
0.0
 11
431.35421067477029
 21
245.17533492553611
 31
0.0
  0
LINE
  5
242
  8
外形線
 10
426.15421067477041
 20
235.17533492553611
 30
0.0
 11
429.55421067477039
 21
235.17533492553611
 31
0.0
  0
ARC
  5
243
  8
外形線
 10
427.8542106747704
 20
235.17533492553611
 30
0.0
 40
1.5
 50
180.0
 51
0.0
  0
LINE
  5
247
  8
外形線
 10
425.35421067477051
 20
237.35715310735421
 30
0.0
 11
426.15421067477041
 21
235.17533492553611
 31
0.0
  0
LINE
  5
248
  8
外形線
 10
430.35421067477051
 20
237.35715310735389
 30
0.0
 11
429.55421067477039
 21
235.17533492553611
 31
0.0
  0
ARC
  5
24E
  8
外形線
 10
308.85421067477051
 20
257.782136229532
 30
0.0
 40
1.0
 50
96.374140959279515
 51
180.0
  0
ARC
  5
24F
  8
外形線
 10
308.8542106747704
 20
243.5685336215403
 30
0.0
 40
1.0
 50
180.0
 51
263.62585904071119
  0
ARC
  5
250
  8
外形線
 10
376.8542106747704
 20
257.782136229532
 30
0.0
 40
1.0
 50
0.0
 51
83.625859040714033
  0
ARC
  5
251
  8
外形線
 10
376.8542106747704
 20
243.5685336215403
 30
0.0
 40
1.0
 50
276.37414095928563
 51
0.0
  0
LINE
  5
253
  8
外形線
 10
284.85421067477051
 20
255.37533492553609
 30
0.0
 11
284.85421067477051
 21
248.48480994484731
 31
0.0
  0
LINE
  5
254
  8
外形線
 10
306.8542106747704
 20
255.67533492553619
 30
0.0
 11
306.85421067477051
 21
245.67533492553611
 31
0.0
  0
LINE
  5
255
  8
外形線
 10
295.8542106747704
 20
255.67533492553619
 30
0.0
 11
295.8542106747704
 21
248.48480994484731
 31
0.0
  0
LINE
  5
256
  8
外形線
 10
295.8542106747704
 20
255.67533492553619
 30
0.0
 11
306.85421067477051
 21
255.67533492553619
 31
0.0
  0
LINE
  5
257
  8
外形線
 10
297.77040916186621
 20
245.67533492553619
 30
0.0
 11
306.8542106747704
 21
245.67533492553611
 31
0.0
  0
LINE
  5
25C
  8
外形線
 10
307.8542106747704
 20
244.67533492553619
 30
0.0
 11
307.8542106747704
 21
243.5685336215403
 31
0.0
  0
LINE
  5
25E
  8
外形線
 10
307.85421067477051
 20
256.67533492553622
 30
0.0
 11
307.8542106747704
 21
244.67533492553619
 31
0.0
  0
ARC
  5
25F
  8
外形線
 10
305.61836212321617
 20
243.50216250770521
 30
0.0
 40
2.5
 50
26.57629387126569
 51
60.373799584725838
  0
ARC
  5
260
  8
外形線
 10
305.61836212321617
 20
257.8485073433672
 30
0.0
 40
2.5
 50
299.62620041527418
 51
333.4237061287343
  0
LINE
  5
261
  8
外形線
 10
285.85421067477051
 20
255.87533492553621
 30
0.0
 11
294.8542106747704
 21
255.87533492553609
 31
0.0
  0
LINE
  5
263
  8
外形線
 10
285.85421067477051
 20
254.87533492553621
 30
0.0
 11
294.8542106747704
 21
254.87533492553621
 31
0.0
  0
LINE
  5
264
  8
外形線
 10
294.85421067477051
 20
255.87533492553609
 30
0.0
 11
294.85421067477051
 21
254.87533492553621
 31
0.0
  0
LINE
  5
265
  8
外形線
 10
285.85421067477051
 20
255.87533492553621
 30
0.0
 11
285.85421067477051
 21
254.87533492553621
 31
0.0
  0
LINE
  5
26B
  8
外形線
 10
294.85421067477051
 20
254.87533492553621
 30
0.0
 11
295.8542106747704
 21
254.37533492553621
 31
0.0
  0
LINE
  5
26C
  8
外形線
 10
294.85421067477051
 20
255.87533492553609
 30
0.0
 11
295.8542106747704
 21
255.37533492553609
 31
0.0
  0
LINE
  5
273
  8
外形線
 10
285.85421067477051
 20
255.87533492553609
 30
0.0
 11
284.85421067477051
 21
255.37533492553609
 31
0.0
  0
LINE
  5
274
  8
外形線
 10
285.85421067477051
 20
254.87533492553621
 30
0.0
 11
284.85421067477051
 21
254.37533492553621
 31
0.0
  0
LINE
  5
275
  8
外形線
 10
285.85421067477051
 20
255.87533492553609
 30
0.0
 11
285.85421067477051
 21
254.87533492553621
 31
0.0
  0
LINE
  5
276
  8
中心線
 10
290.35421067477051
 20
253.19935426797491
 30
0.0
 11
290.35421067477051
 21
231.02716288682581
 31
0.0
  0
LINE
  5
277
  8
中心線
 10
279.86834998916578
 20
242.67533492553619
 30
0.0
 11
300.7360192946141
 21
242.67533492553619
 31
0.0
  0
CIRCLE
  5
278
  8
外形線
 10
290.35421067477051
 20
242.67533492553619
 30
0.0
 40
8.0
  0
TEXT
  5
27E
  8
文字
 10
330.1321983648686
 20
249.29825796132579
 30
0.0
 40
1.0
  1
CC-1
  7
STYLE3
  0
LINE
  5
299
  8
中心線
 10
390.66732852395518
 20
303.38771888732867
 30
0.0
 11
437.79375992039172
 21
303.38771888732862
 31
0.0
  0
LINE
  5
29A
  8
外形線
 10
396.60668468766261
 20
298.38771888732867
 30
0.0
 11
418.60421067477068
 21
298.38771888732867
 31
0.0
  0
LINE
  5
29B
  8
外形線
 10
396.60668468766261
 20
308.38771888732867
 30
0.0
 11
418.60421067477051
 21
308.38771888732867
 31
0.0
  0
ARC
  5
29C
  8
外形線
 10
400.93681170658488
 20
300.88771888732867
 30
0.0
 40
5.0
 50
150.00000000000011
 51
209.99999999999989
  0
ARC
  5
29D
  8
外形線
 10
400.93681170658488
 20
305.88771888732867
 30
0.0
 40
5.0
 50
150.0
 51
209.99999999999989
  0
ARC
  5
29E
  8
外形線
 10
392.27655766874051
 20
305.88771888732867
 30
0.0
 40
5.0
 50
330.00000000000011
 51
29.999999999999901
  0
LINE
  5
2A3
  8
外形線
 10
418.6042106747704
 20
308.38771888732867
 30
0.0
 11
418.60421067477068
 21
298.38771888732867
 31
0.0
  0
LINE
  5
2AC
  8
外形線
 10
421.60421067477051
 20
299.68771888732869
 30
0.0
 11
422.10421067477063
 21
299.68771888732869
 31
0.0
  0
LINE
  5
2C3
  8
外形線
 10
421.60421067477051
 20
307.08771888732872
 30
0.0
 11
422.10421067477068
 21
307.08771888732872
 31
0.0
  0
LINE
  5
2CC
  8
外形線
 10
421.60421067477051
 20
304.13771888732862
 30
0.0
 11
422.10421067477068
 21
304.13771888732867
 31
0.0
  0
LINE
  5
2CD
  8
外形線
 10
421.60421067477063
 20
302.63771888732862
 30
0.0
 11
422.10421067477051
 21
302.63771888732862
 31
0.0
  0
LINE
  5
2CE
  8
外形線
 10
422.10421067477012
 20
309.88771888732867
 30
0.0
 11
422.10421067477068
 21
296.88771888732862
 31
0.0
  0
LINE
  5
2CF
  8
外形線
 10
421.60421067477051
 20
307.88771888732862
 30
0.0
 11
421.60421067477063
 21
298.88771888732862
 31
0.0
  0
LINE
  5
2D1
  8
外形線
 10
422.10421067477051
 20
309.88771888732867
 30
0.0
 11
433.6042106747704
 21
309.88771888732867
 31
0.0
  0
LINE
  5
2D2
  8
外形線
 10
422.10421067477051
 20
296.88771888732862
 30
0.0
 11
433.60421067477051
 21
296.88771888732862
 31
0.0
  0
CIRCLE
  5
2D4
  8
外形線
 62
     4
 10
427.8542106747704
 20
303.38771888732862
 30
0.0
 40
1.0
  0
LINE
  5
2D6
  8
外形線
 10
422.10421067477051
 20
308.38771888732867
 30
0.0
 11
433.6042106747704
 21
308.38771888732867
 31
0.0
  0
LINE
  5
2D7
  8
外形線
 10
422.10421067477051
 20
298.38771888732862
 30
0.0
 11
433.60421067477051
 21
298.38771888732862
 31
0.0
  0
CIRCLE
  5
2D9
  8
外形線
 10
427.8542106747704
 20
303.38771888732862
 30
0.0
 40
1.3
  0
CIRCLE
  5
2DB
  8
外形線
 10
429.8542106747704
 20
303.38771888732862
 30
0.0
 40
0.5
  0
CIRCLE
  5
2DC
  8
外形線
 10
425.8542106747704
 20
303.38771888732862
 30
0.0
 40
0.5
  0
CIRCLE
  5
2DE
  8
外形線
 10
427.8542106747704
 20
303.38771888732862
 30
0.0
 40
4.0
  0
ARC
  5
2F6
  8
外形線
 10
327.85421067477051
 20
240.52533846054209
 30
0.0
 40
2.0
 50
12.330391968689311
 51
162.08238913091691
1001
ACAD
1000
ASC_BOUNDS
1002
{
1070
    19
1005
317
1002
}
  0
INSERT
  5
317
  8
ﾊｯﾁﾝｸ
  6
CONTINUOUS
  2
*X12
 10
0.0
 20
0.0
 30
0.0
1001
ACAD
1000
HATCH
1002
{
1070
    19
1000
DOTS
1040
0.4
1040
0.0
1000
ASC_BOUNDS
1070
     4
1070
     1
1070
     7
1005
188
1005
2F6
1005
175
1005
186
1005
18B
1005
18A
1005
189
1070
     1
1070
     6
1005
182
1005
175
1005
185
1005
184
1005
183
1005
181
1070
     1
1070
     6
1005
16D
1005
17C
1005
17F
1005
17A
1005
16C
1005
173
1070
     1
1070
     6
1005
18D
1005
191
1005
190
1005
18E
1005
18F
1005
173
1000
ASC_SEEDPOINT
1011
322.28618021624129
1021
-0.0
1031
0.0
1021
255.55921977508081
1031
0.0
1000
R14_HATCH_DATA
1000
317
1011
1.0
1021
-0.0
1031
0.0
1021
0.0
1031
0.0
1011
0.0
1021
-0.0
1031
0.0
1021
1.0
1031
0.0
1011
0.0
1021
-0.0
1031
0.0
1021
0.0
1031
1.0
1040
0.0
1010
0.0
1020
0.0
1030
1.0
1000
DOTS
1070
     0
1070
     1
1071
        4
1071
        7
1070
     1
1070
     1
1071
        6
1040
327.35421067477051
1040
252.67533492553619
1040
0.0
1040
327.3542106747704
1040
254.67533492553611
1040
0.0
1040
337.8542106747704
1040
254.67533492553611
1040
0.0
1040
337.85421067477051
1040
260.63464874918952
1040
0.0162971688498792
1040
317.85421067477051
1040
259.65655883975421
1040
0.0
1040
317.85421067477029
1040
252.67533492553619
1040
0.0
1071
        6
1005
173
1005
18F
1005
18E
1005
190
1005
191
1005
18D
1071
        7
1070
     1
1070
     1
1071
        6
1040
358.3542106747704
1040
254.67533492553611
1040
0.0
1040
358.3542106747704
1040
252.67533492553619
1040
0.0
1040
367.85421067477063
1040
252.67533492553619
1040
0.0
1040
367.85421067477051
1040
259.65655883975421
1040
0.0162971688498792
1040
347.8542106747704
1040
260.63464874918952
1040
0.0
1040
347.8542106747704
1040
254.67533492553611
1040
0.0
1071
        6
1005
173
1005
16C
1005
17A
1005
17F
1005
17C
1005
16D
1071
        7
1070
     1
1070
     1
1071
        6
1040
367.85421067477051
1040
241.6941110113182
1040
0.0
1040
367.85421067477063
1040
248.67533492553619
1040
0.0
1040
358.3542106747704
1040
248.67533492553619
1040
0.0
1040
358.35421067477051
1040
246.67533492553619
1040
0.0
1040
347.8542106747704
1040
246.67533492553611
1040
0.0
1040
347.8542106747704
1040
240.71602110188289
1040
0.0162971688498792
1071
        6
1005
181
1005
183
1005
184
1005
185
1005
175
1005
182
1071
        7
1070
     1
1070
     1
1071
        8
1040
325.95121089987288
1040
241.1406366457658
1040
-0.7656091570196323
1040
329.8080755491016
1040
240.9524357010562
1040
0.0065500023894979
1040
337.85421067477051
1040
240.71602110188269
1040
0.0
1040
337.8542106747704
1040
246.67533492553611
1040
0.0
1040
327.35421067477051
1040
246.67533492553619
1040
0.0
1040
327.3542106747704
1040
248.67533492553611
1040
0.0
1040
317.85421067477029
1040
248.67533492553611
1040
0.0
1040
317.85421067477051
1040
241.6941110113182
1040
0.006603945187105
1071
        7
1005
189
1005
18A
1005
18B
1005
186
1005
175
1005
2F6
1005
188
1070
     0
1070
     1
1040
0.0
1040
0.4
1070
     0
1070
     1
1040
0.0
1040
16.492383654245032
1040
-15.289294000146811
1040
0.3175
1040
0.635
1070
     2
1040
0.0
1040
-0.635
1040
0.3765170278403226
1071
        4
1040
322.28618021624129
1040
255.55921977508081
1040
0.0
1040
361.09948382192613
1040
255.9357365312855
1040
0.0
1040
361.4763118874933
1040
243.51067493078509
1040
0.0
1040
324.17032134734359
1040
244.26370889823369
1040
0.0
1002
}
  0
DIMENSION
  5
341
  8
外形線
  2
*D3
 10
377.85421067477051
 20
270.99641770041501
 30
0.0
 11
342.85421067477051
 21
272.87141770041501
 31
0.0
 70
     0
 13
307.85421067477051
 23
256.67533492553622
 33
0.0
 14
377.85421067477051
 24
257.782136229532
 34
0.0
1001
ACAD
1000
DSTYLE
1002
{
1070
   271
1070
     2
1002
}
  0
LINE
  5
390
  8
0
  6
BYBLOCK
 62
     2
 10
425.3542106747704
 20
270.99641770041512
 30
0.0
 11
422.8542106747704
 21
270.99641770041512
 31
0.0
  0
LINE
  5
391
  8
0
  6
BYBLOCK
 62
     2
 10
436.10421067477063
 20
270.99641770041512
 30
0.0
 11
447.47325829381811
 21
270.99641770041512
 31
0.0
  0
LINE
  5
392
  8
0
  6
BYBLOCK
 62
     2
 10
427.8542106747704
 20
270.99641770041512
 30
0.0
 11
433.60421067477051
 21
270.99641770041512
 31
0.0
  0
INSERT
  5
394
  8
0
  6
BYBLOCK
 62
     2
  2
_OPEN
 10
433.60421067477051
 20
270.99641770041512
 30
0.0
 41
2.5
 42
2.5
 43
2.5
 50
180.0
  0
INSERT
  5
395
  8
外形線
  2
*U13
 10
0.0
 20
0.0
 30
0.0
  0
LINE
  5
399
  8
0
  6
BYBLOCK
 62
     2
 10
284.85421067477051
 20
254.37533492553621
 30
0.0
 11
284.85421067477051
 21
280.52979270746761
 31
0.0
  0
LINE
  5
39A
  8
0
  6
BYBLOCK
 62
     2
 10
433.6042106747704
 20
260.74109875173929
 30
0.0
 11
433.6042106747704
 21
280.52979270746772
 31
0.0
  0
LINE
  5
39B
  8
0
  6
BYBLOCK
 62
     2
 10
287.3542106747704
 20
279.27979270746772
 30
0.0
 11
431.10421067477051
 21
279.27979270746772
 31
0.0
  0
INSERT
  5
39C
  8
0
  6
BYBLOCK
 62
     2
  2
_OPEN
 10
284.85421067477051
 20
279.27979270746772
 30
0.0
 41
2.5
 42
2.5
 43
2.5
 50
180.0
  0
INSERT
  5
39D
  8
0
  6
BYBLOCK
 62
     2
  2
_OPEN
 10
433.6042106747704
 20
279.27979270746772
 30
0.0
 41
2.5
 42
2.5
 43
2.5
  0
POINT
  5
39F
  8
DEFPOINTS
  6
BYBLOCK
 62
     0
 10
284.85421067477051
 20
254.37533492553621
 30
0.0
  0
POINT
  5
3A0
  8
DEFPOINTS
  6
BYBLOCK
 62
     0
 10
433.6042106747704
 20
260.74109875173929
 30
0.0
  0
POINT
  5
3A1
  8
DEFPOINTS
  6
BYBLOCK
 62
     0
 10
433.6042106747704
 20
279.27979270746772
 30
0.0
  0
LINE
  5
3A2
  8
0
  6
BYBLOCK
 62
     2
 10
427.8542106747704
 20
263.37033414404192
 30
0.0
 11
427.8542106747704
 21
272.24641770041512
 31
0.0
  0
LINE
  5
3A3
  8
0
  6
BYBLOCK
 62
     2
 10
380.35421067477051
 20
270.99641770041501
 30
0.0
 11
425.3542106747704
 21
270.99641770041512
 31
0.0
  0
INSERT
  5
3A4
  8
0
  6
BYBLOCK
 62
     2
  2
_OPEN
 10
377.85421067477051
 20
270.99641770041501
 30
0.0
 41
2.5
 42
2.5
 43
2.5
 50
180.0
  0
INSERT
  5
3A5
  8
0
  6
BYBLOCK
 62
     2
  2
_OPEN
 10
427.8542106747704
 20
270.99641770041512
 30
0.0
 41
2.5
 42
2.5
 43
2.5
  0
POINT
  5
3A7
  8
DEFPOINTS
  6
BYBLOCK
 62
     0
 10
377.85421067477051
 20
257.782136229532
 30
0.0
  0
POINT
  5
3A8
  8
DEFPOINTS
  6
BYBLOCK
 62
     0
 10
427.8542106747704
 20
266.5058242036506
 30
0.0
  0
POINT
  5
3A9
  8
DEFPOINTS
  6
BYBLOCK
 62
     0
 10
427.8542106747704
 20
270.99641770041512
 30
0.0
  0
LINE
  5
3D1
  8
外形線
 10
433.6042106747704
 20
309.88771888732867
 30
0.0
 11
433.60421067477051
 21
296.88771888732862
 31
0.0
  0
LINE
  5
3D2
  8
中心線
 10
427.8542106747704
 20
311.7385723860391
 30
0.0
 11
427.8542106747704
 21
294.59723568159802
 31
0.0
  0
DIMENSION
  5
3E0
  8
中心線
  2
*D4
 10
447.56841606444181
 20
296.88771888732862
 30
0.0
 11
445.69341606444192
 21
303.38771888732879
 31
0.0
 70
     0
 13
433.6042106747704
 23
309.88771888732867
 33
0.0
 14
433.60421067477051
 24
296.88771888732862
 34
0.0
 50
90.0
1001
ACAD
1000
DSTYLE
1002
{
1070
   271
1070
     2
1002
}
  0
DIMENSION
  5
3ED
  8
中心線
  2
*D5
 10
433.6042106747704
 20
321.44969989002237
 30
0.0
 11
427.8542106747704
 21
323.32469989002237
 31
0.0
 70
     0
 13
422.10421067477051
 23
309.88771888732867
 33
0.0
 14
433.6042106747704
 24
309.88771888732867
 34
0.0
1001
ACAD
1000
DSTYLE
1002
{
1070
   271
1070
     2
1002
}
  0
LINE
  5
3EF
  8
外形線
 62
     4
 10
423.75421067477049
 20
248.8150078115944
 30
0.0
 11
423.75421067477049
 21
246.67533492553611
 31
0.0
  0
TEXT
  5
3F3
  8
文字
 10
353.15966037807272
 20
280.40934343112087
 30
0.0
 40
2.5
  1
150
  7
STYLE3
  0
TEXT
  5
3F4
  8
文字
 10
399.82012968958162
 20
271.74945212290282
 30
0.0
 40
2.5
  1
50
  7
STYLE3
  0
LINE
  5
3F5
  8
0
  6
BYBLOCK
 62
     2
 10
427.8542106747704
 20
263.37033414404192
 30
0.0
 11
449.04998534402711
 21
263.37033414404181
 31
0.0
  0
LINE
  5
3F6
  8
0
  6
BYBLOCK
 62
     2
 10
427.8542106747704
 20
233.67533492553611
 30
0.0
 11
449.04998534402711
 21
233.67533492553611
 31
0.0
  0
LINE
  5
3F7
  8
0
  6
BYBLOCK
 62
     2
 10
447.79998534402699
 20
260.87033414404181
 30
0.0
 11
447.79998534402699
 21
236.17533492553611
 31
0.0
  0
INSERT
  5
3F8
  8
0
  6
BYBLOCK
 62
     2
  2
_OPEN
 10
447.79998534402699
 20
263.37033414404181
 30
0.0
 41
2.5
 42
2.5
 43
2.5
 50
90.0
  0
INSERT
  5
3F9
  8
0
  6
BYBLOCK
 62
     2
  2
_OPEN
 10
447.79998534402699
 20
233.67533492553611
 30
0.0
 41
2.5
 42
2.5
 43
2.5
 50
270.0
  0
POINT
  5
3FB
  8
DEFPOINTS
  6
BYBLOCK
 62
     0
 10
427.8542106747704
 20
263.37033414404192
 30
0.0
  0
POINT
  5
3FC
  8
DEFPOINTS
  6
BYBLOCK
 62
     0
 10
427.8542106747704
 20
233.67533492553611
 30
0.0
  0
POINT
  5
3FD
  8
DEFPOINTS
  6
BYBLOCK
 62
     0
 10
447.79998534402699
 20
233.67533492553611
 30
0.0
  0
TEXT
  5
3FE
  8
文字
 10
447.02587244203261
 20
242.18318304910471
 30
0.0
 40
2.5
  1
18～35
 50
90.0
  7
STYLE3
  0
LINE
  5
403
  8
外形線
 10
356.35421067477051
 20
253.17533492553619
 30
0.0
 11
356.3542106747704
 21
248.17533492553619
 31
0.0
  0
LINE
  5
404
  8
外形線
 10
329.3542106747704
 20
253.17533492553619
 30
0.0
 11
329.3542106747704
 21
248.17533492553619
 31
0.0
  0
LINE
  5
405
  8
外形線
 10
329.3542106747704
 20
253.17533492553619
 30
0.0
 11
356.35421067477051
 21
253.17533492553619
 31
0.0
  0
LINE
  5
406
  8
外形線
 10
329.3542106747704
 20
248.17533492553619
 30
0.0
 11
356.3542106747704
 21
248.17533492553619
 31
0.0
  0
LINE
  5
449
  8
外形線
 10
421.60421067477051
 20
307.88771888732862
 30
0.0
 11
422.1042106747704
 21
307.88771888732862
 31
0.0
  0
LINE
  5
462
  8
外形線
 10
421.60421067477051
 20
298.8877188873285
 30
0.0
 11
422.10421067477051
 21
298.88771888732862
 31
0.0
  0
INSERT
  5
47D
  8
外形線
  2
六角ﾈｼ
 10
418.60421067477051
 20
303.38771888732862
 30
0.0
  0
LINE
  5
499
  8
中心線
 10
429.8542106747704
 20
304.22698524169402
 30
0.0
 11
429.8542106747704
 21
302.36496055924852
 31
0.0
  0
LINE
  5
49B
  8
中心線
 10
425.8542106747704
 20
304.22698524169402
 30
0.0
 11
425.8542106747704
 21
302.36496055924852
 31
0.0
  0
POINT
  5
4BC
  8
DEFPOINTS
  6
BYBLOCK
 62
     0
 10
427.8542106747704
 20
263.37033414404192
 30
0.0
  0
LINE
  5
4E1
  8
0
  6
BYBLOCK
 62
     2
 10
427.8542106747704
 20
263.37033414404192
 30
0.0
 11
404.2134923468069
 21
263.37033414404192
 31
0.0
  0
LINE
  5
4E3
  8
0
  6
BYBLOCK
 62
     2
 10
405.46349234680702
 20
260.87033414404192
 30
0.0
 11
405.46349234680702
 21
253.17533492553611
 31
0.0
  0
INSERT
  5
4E5
  8
0
  6
BYBLOCK
 62
     2
  2
_OPEN
 10
405.46349234680702
 20
263.37033414404192
 30
0.0
 41
2.5
 42
2.5
 43
2.5
 50
90.0
  0
INSERT
  5
4E6
  8
0
  6
BYBLOCK
 62
     2
  2
_OPEN
 10
405.46349234680702
 20
250.67533492553611
 30
0.0
 41
2.5
 42
2.5
 43
2.5
 50
270.0
  0
INSERT
  5
4E7
  8
外形線
  2
*U14
 10
0.0
 20
0.0
 30
0.0
  0
POINT
  5
4E8
  8
DEFPOINTS
  6
BYBLOCK
 62
     0
 10
427.8542106747704
 20
263.37033414404192
 30
0.0
  0
DIMENSION
  5
510
  8
外形線
  2
*D8
 10
391.46716074025511
 20
245.67533492553611
 30
0.0
 11
389.592160740255
 21
250.67533492553619
 31
0.0
 70
     0
  1
φ10
 13
391.03103453605308
 23
255.67533492553619
 33
0.0
 14
390.88565913465243
 24
245.67533492553611
 34
0.0
 50
90.0
1001
ACAD
1000
DSTYLE
1002
{
1070
   271
1070
     2
1002
}
  0
LINE
  5
520
  8
寸法線
 10
405.46349234680702
 20
257.6115672237446
 30
0.0
 11
392.63238020328129
 21
235.38742907354421
 31
0.0
  0
LINE
  5
521
  8
寸法線
 10
382.1682508256298
 20
235.38742907354421
 30
0.0
 11
392.63238020328129
 21
235.38742907354421
 31
0.0
  0
LINE
  5
541
  8
外形線
 10
425.35421067477017
 20
244.6753349255363
 30
0.0
 11
430.35421067477029
 21
244.67533492553611
 31
0.0
  0
LINE
  5
551
  8
外形線
 10
430.35421067477051
 20
245.17533492553611
 30
0.0
 11
431.35421067477029
 21
245.17533492553611
 31
0.0
  0
LINE
  5
553
  8
外形線
 10
430.3542106747704
 20
246.67533492553611
 30
0.0
 11
430.35421067477051
 21
245.17533492553611
 31
0.0
  0
LINE
  5
554
  8
外形線
 10
429.3542106747704
 20
244.67533492553611
 30
0.0
 11
430.35421067477051
 21
245.17533492553611
 31
0.0
  0
LINE
  5
555
  8
外形線
 10
430.35421067477029
 20
244.67533492553611
 30
0.0
 11
431.35421067477029
 21
245.17533492553611
 31
0.0
  0
LINE
  5
556
  8
外形線
 10
425.35421067477051
 20
246.67533492553611
 30
0.0
 11
425.3542106747704
 21
245.17533492553611
 31
0.0
  0
LINE
  5
557
  8
外形線
 10
424.3542106747704
 20
246.67533492553611
 30
0.0
 11
424.35421067477051
 21
245.17533492553611
 31
0.0
  0
LINE
  5
558
  8
外形線
 10
425.3542106747704
 20
245.17533492553611
 30
0.0
 11
424.35421067477051
 21
245.17533492553611
 31
0.0
  0
LINE
  5
559
  8
外形線
 10
425.35421067477063
 20
244.67533492553611
 30
0.0
 11
424.35421067477051
 21
245.17533492553611
 31
0.0
  0
LINE
  5
55A
  8
外形線
 10
426.35421067477051
 20
244.67533492553611
 30
0.0
 11
425.3542106747704
 21
245.17533492553611
 31
0.0
  0
LINE
  5
582
  8
外形線
 10
430.35421067477051
 20
244.67533492553611
 30
0.0
 11
430.35421067477051
 21
237.35715310735389
 31
0.0
  0
LINE
  5
583
  8
外形線
 10
425.35421067477051
 20
244.67533492553619
 30
0.0
 11
425.35421067477051
 21
237.35715310735421
 31
0.0
  0
LINE
  5
584
  8
外形線
 10
430.35421067477051
 20
237.35715310735421
 30
0.0
 11
425.35421067477051
 21
237.35715310735421
 31
0.0
  0
LINE
  5
59E
  8
外形線
 10
418.25421067477038
 20
245.47533492553609
 30
0.0
 11
420.75421067477032
 21
245.47533492553609
 31
0.0
  0
LINE
  5
59F
  8
外形線
 10
420.75421067477077
 20
248.07533492553611
 30
0.0
 11
418.25421067477049
 21
248.07533492553611
 31
0.0
  0
LINE
  5
5A0
  8
外形線
 10
420.75421067477049
 20
253.2753349255361
 30
0.0
 11
418.25421067477032
 21
253.2753349255361
 31
0.0
  0
LINE
  5
5A1
  8
外形線
 10
418.25421067477032
 20
255.87533492553609
 30
0.0
 11
420.75421067477032
 21
255.87533492553609
 31
0.0
  0
LINE
  5
5A2
  8
外形線
 10
418.25421067477032
 20
255.87533492553609
 30
0.0
 11
418.25421067477038
 21
245.47533492553609
 31
0.0
  0
ARC
  5
5A3
  8
外形線
 10
419.31421067477021
 20
254.575334925536
 30
0.0
 40
1.940000000000166
 50
317.92497794916551
 51
42.075022050844218
  0
ARC
  5
5A4
  8
外形線
 10
414.24421067476771
 20
250.67533492553559
 30
0.0
 40
7.0100000000027221
 50
338.22894589069568
 51
21.77105410931329
  0
ARC
  5
5A5
  8
外形線
 10
419.31421067477021
 20
246.77533492553621
 30
0.0
 40
1.940000000000166
 50
317.92497794915579
 51
42.075022050834569
  0
LINE
  5
5A6
  8
外形線
 10
421.25421067477038
 20
254.575334925536
 30
0.0
 11
421.25421067477038
 21
246.77533492553621
 31
0.0
  0
LINE
  5
93F
  8
外形線
 10
298.51774165781711
 20
351.88335332560342
 30
0.0
 11
411.517741657817
 21
351.88335332560342
 31
0.0
  0
LINE
  5
940
  8
外形線
 10
298.51774165781711
 20
352.88335332560342
 30
0.0
 11
411.517741657817
 21
352.88335332560342
 31
0.0
  0
TEXT
  5
941
  8
文字
 10
298.92785065781698
 20
354.56202532560337
 30
0.0
 40
3.5
  1
Model No.CC-1S Short size Cylinder Gauge
  7
STYLE3
  0
LINE
  5
942
  8
外形線
 10
350.16787941939617
 20
172.50798371640451
 30
0.0
 11
350.16787941939617
 21
192.9029677164045
 31
0.0
  0
TEXT
  5
943
  8
0
  6
CONTINUOUS
 10
351.62534641939618
 20
184.0207517164045
 30
0.0
 40
2.1000000000000001
  1
Design and specifications are subject to change without notice for future improvement.
  7
STYLE3
  0
TEXT
  5
944
  8
0
  6
CONTINUOUS
 10
394.93812341939622
 20
176.00426771640451
 30
0.0
 40
2.399999999999999
  1
mm
  7
STYLE3
  0
LINE
  5
945
  8
外形線
 10
350.16787941939617
 20
182.12276171640451
 30
0.0
 11
490.95929741939619
 21
182.12276171640451
 31
0.0
  0
TEXT
  5
946
  8
0
  6
CONTINUOUS
 10
353.95729741939618
 20
177.75240671640449
 30
0.0
 40
3.0
  1
三　　角　　法
  7
STYLE3
  0
TEXT
  5
947
  8
0
  6
CONTINUOUS
 10
351.33385541939617
 20
174.25612371640449
 30
0.0
 40
2.1000000000000001
  1
3RD Angle Projection
  7
STYLE3
  0
TEXT
  5
948
  8
0
  6
CONTINUOUS
 10
387.0677974193963
 20
174.25612471640451
 30
0.0
 40
2.1000000000000001
  1
Unit
  7
STYLE3
  0
TEXT
  5
949
  8
0
  6
CONTINUOUS
 10
386.89607641939631
 20
177.75836171640449
 30
0.0
 40
3.0
  1
単位
  7
STYLE3
  0
LINE
  5
94A
  8
外形線
 10
385.43860741939619
 20
182.12276171640451
 30
0.0
 11
385.43860741939619
 21
172.50798371640451
 31
0.0
  0
TEXT
  5
94B
  8
0
  6
CONTINUOUS
 10
454.41408841939631
 20
174.25612471640451
 30
0.0
 40
2.1000000000000001
  1
OZAKI MFG. CO., LTD.
  7
STYLE3
  0
TEXT
  5
94C
  8
0
  6
CONTINUOUS
 10
453.53960941939619
 20
178.0437637164045
 30
0.0
 40
3.0
  1
株式会社　尾崎製作所
  7
STYLE3
  0
TEXT
  5
94D
  8
0
  6
CONTINUOUS
 10
433.13505441939623
 20
176.00426671640449
 30
0.0
 40
2.1000000000000001
  1
2010.06.23
  7
STYLE3
  0
TEXT
  5
94E
  8
0
  6
CONTINUOUS
 10
414.29647641939619
 20
176.29562471640449
 30
0.0
 40
2.399999999999999
  1
1/1
  7
STYLE3
  0
TEXT
  5
94F
  8
0
  6
CONTINUOUS
 10
404.6771874193962
 20
174.54748171640449
 30
0.0
 40
2.1000000000000001
  1
Scale
  7
STYLE3
  0
TEXT
  5
950
  8
0
  6
CONTINUOUS
 10
404.21397241939621
 20
177.46700371640449
 30
0.0
 40
3.0
  1
尺 度
  7
STYLE3
  0
LINE
  5
951
  8
外形線
 10
402.9282244193962
 20
182.12276171640451
 30
0.0
 11
402.9282244193962
 21
172.50798371640451
 31
0.0
  0
TEXT
  5
952
  8
0
  6
CONTINUOUS
 10
424.00688641939621
 20
177.5892097164045
 30
0.0
 40
3.0
  1
日 付
  7
STYLE3
  0
TEXT
  5
953
  8
0
  6
CONTINUOUS
 10
424.39024741939619
 20
174.25612571640451
 30
0.0
 40
2.1000000000000001
  1
Date
  7
STYLE3
  0
LINE
  5
954
  8
外形線
 10
422.45829641939611
 20
182.12276171640451
 30
0.0
 11
422.45829641939611
 21
172.50798371640451
 31
0.0
  0
LINE
  5
955
  8
外形線
 10
452.19064641939622
 20
182.12276171640451
 30
0.0
 11
452.19064641939622
 21
172.50798371640451
 31
0.0
  0
TEXT
  5
956
  8
0
  6
CONTINUOUS
 10
351.91684041939618
 20
187.9498997164045
 30
0.0
 40
3.5
  1
仕様及び外観は予告なく変更される場合がございますのでご了承下さい。
  7
STYLE3
  0
LINE
  5
957
  8
外形線
 10
350.16787941939617
 20
192.9029677164045
 30
0.0
 11
490.95929741939619
 21
192.9029677164045
 31
0.0
  0
ENDSEC
  0
EOF
