  0
SECTION
  2
HEADER
  9
$ACADVER
  1
AC1018
  9
$ACADMAINTVER
 70
     0
  9
$DWGCODEPAGE
  3
ANSI_932
  9
$INSBASE
 10
0.0
 20
0.0
 30
0.0
  9
$EXTMIN
 10
236.4583261120651
 20
171.6287515666504
 30
-0.0000000349181948
  9
$EXTMAX
 10
491.9215858715545
 20
367.0725802714662
 30
0.0000000814935746
  9
$LIMMIN
 10
0.0
 20
0.0
  9
$LIMMAX
 10
420.0
 20
297.0
  9
$ORTHOMODE
 70
     0
  9
$REGENMODE
 70
     1
  9
$FILLMODE
 70
     1
  9
$QTEXTMODE
 70
     0
  9
$MIRRTEXT
 70
     1
  9
$LTSCALE
 40
1.0
  9
$ATTMODE
 70
     1
  9
$TEXTSIZE
 40
3.0
  9
$TRACEWID
 40
1.0
  9
$TEXTSTYLE
  7
STYLE3
  9
$CLAYER
  8
外形線
  9
$CELTYPE
  6
BYLAYER
  9
$CECOLOR
 62
   256
  9
$CELTSCALE
 40
1.0
  9
$DISPSILH
 70
     0
  9
$DIMSCALE
 40
1.0
  9
$DIMASZ
 40
2.5
  9
$DIMEXO
 40
0.0
  9
$DIMDLI
 40
3.75
  9
$DIMRND
 40
0.0
  9
$DIMDLE
 40
0.0
  9
$DIMEXE
 40
1.25
  9
$DIMTP
 40
0.0
  9
$DIMTM
 40
0.0
  9
$DIMTXT
 40
2.5
  9
$DIMCEN
 40
2.5
  9
$DIMTSZ
 40
0.0
  9
$DIMTOL
 70
     0
  9
$DIMLIM
 70
     0
  9
$DIMTIH
 70
     0
  9
$DIMTOH
 70
     0
  9
$DIMSE1
 70
     0
  9
$DIMSE2
 70
     0
  9
$DIMTAD
 70
     1
  9
$DIMZIN
 70
     8
  9
$DIMBLK
  1

  9
$DIMASO
 70
     1
  9
$DIMSHO
 70
     1
  9
$DIMPOST
  1

  9
$DIMAPOST
  1

  9
$DIMALT
 70
     0
  9
$DIMALTD
 70
     4
  9
$DIMALTF
 40
0.0394
  9
$DIMLFAC
 40
1.0
  9
$DIMTOFL
 70
     1
  9
$DIMTVP
 40
0.0
  9
$DIMTIX
 70
     0
  9
$DIMSOXD
 70
     0
  9
$DIMSAH
 70
     1
  9
$DIMBLK1
  1
OPEN
  9
$DIMBLK2
  1
OPEN
  9
$DIMSTYLE
  2
STYLE3
  9
$DIMCLRD
 70
     2
  9
$DIMCLRE
 70
     2
  9
$DIMCLRT
 70
     6
  9
$DIMTFAC
 40
1.0
  9
$DIMGAP
 40
0.625
  9
$DIMJUST
 70
     0
  9
$DIMSD1
 70
     0
  9
$DIMSD2
 70
     0
  9
$DIMTOLJ
 70
     1
  9
$DIMTZIN
 70
     0
  9
$DIMALTZ
 70
     0
  9
$DIMALTTZ
 70
     0
  9
$DIMUPT
 70
     0
  9
$DIMDEC
 70
     2
  9
$DIMTDEC
 70
     4
  9
$DIMALTU
 70
     8
  9
$DIMALTTD
 70
     4
  9
$DIMTXSTY
  7
STYLE3
  9
$DIMAUNIT
 70
     0
  9
$DIMADEC
 70
     0
  9
$DIMALTRND
 40
0.0
  9
$DIMAZIN
 70
     0
  9
$DIMDSEP
 70
    46
  9
$DIMATFIT
 70
     3
  9
$DIMFRAC
 70
     0
  9
$DIMLDRBLK
  1

  9
$DIMLUNIT
 70
     2
  9
$DIMLWD
 70
    -2
  9
$DIMLWE
 70
    -2
  9
$DIMTMOVE
 70
     0
  9
$LUNITS
 70
     2
  9
$LUPREC
 70
     4
  9
$SKETCHINC
 40
1.0
  9
$FILLETRAD
 40
2.0
  9
$AUNITS
 70
     0
  9
$AUPREC
 70
     0
  9
$MENU
  1
.
  9
$ELEVATION
 40
0.0
  9
$PELEVATION
 40
0.0
  9
$THICKNESS
 40
0.0
  9
$LIMCHECK
 70
     0
  9
$CHAMFERA
 40
0.5
  9
$CHAMFERB
 40
0.5
  9
$CHAMFERC
 40
20.0
  9
$CHAMFERD
 40
0.0
  9
$SKPOLY
 70
     0
  9
$TDCREATE
 40
2450753.462540625
  9
$TDUCREATE
 40
2450753.087540625
  9
$TDUPDATE
 40
2455371.396328484
  9
$TDUUPDATE
 40
2455371.021328484
  9
$TDINDWG
 40
0.8291933449
  9
$TDUSRTIMER
 40
0.8291933449
  9
$USRTIMER
 70
     1
  9
$ANGBASE
 50
0.0
  9
$ANGDIR
 70
     0
  9
$PDMODE
 70
     0
  9
$PDSIZE
 40
0.0
  9
$PLINEWID
 40
0.0
  9
$SPLFRAME
 70
     0
  9
$SPLINETYPE
 70
     6
  9
$SPLINESEGS
 70
     8
  9
$HANDSEED
  5
8D5
  9
$SURFTAB1
 70
     6
  9
$SURFTAB2
 70
     6
  9
$SURFTYPE
 70
     6
  9
$SURFU
 70
     6
  9
$SURFV
 70
     6
  9
$UCSBASE
  2

  9
$UCSNAME
  2

  9
$UCSORG
 10
0.0
 20
0.0
 30
0.0
  9
$UCSXDIR
 10
1.0
 20
0.0
 30
0.0
  9
$UCSYDIR
 10
0.0
 20
1.0
 30
0.0
  9
$UCSORTHOREF
  2

  9
$UCSORTHOVIEW
 70
     0
  9
$UCSORGTOP
 10
0.0
 20
0.0
 30
0.0
  9
$UCSORGBOTTOM
 10
0.0
 20
0.0
 30
0.0
  9
$UCSORGLEFT
 10
0.0
 20
0.0
 30
0.0
  9
$UCSORGRIGHT
 10
0.0
 20
0.0
 30
0.0
  9
$UCSORGFRONT
 10
0.0
 20
0.0
 30
0.0
  9
$UCSORGBACK
 10
0.0
 20
0.0
 30
0.0
  9
$PUCSBASE
  2

  9
$PUCSNAME
  2

  9
$PUCSORG
 10
0.0
 20
0.0
 30
0.0
  9
$PUCSXDIR
 10
1.0
 20
0.0
 30
0.0
  9
$PUCSYDIR
 10
0.0
 20
1.0
 30
0.0
  9
$PUCSORTHOREF
  2

  9
$PUCSORTHOVIEW
 70
     0
  9
$PUCSORGTOP
 10
0.0
 20
0.0
 30
0.0
  9
$PUCSORGBOTTOM
 10
0.0
 20
0.0
 30
0.0
  9
$PUCSORGLEFT
 10
0.0
 20
0.0
 30
0.0
  9
$PUCSORGRIGHT
 10
0.0
 20
0.0
 30
0.0
  9
$PUCSORGFRONT
 10
0.0
 20
0.0
 30
0.0
  9
$PUCSORGBACK
 10
0.0
 20
0.0
 30
0.0
  9
$USERI1
 70
     0
  9
$USERI2
 70
     0
  9
$USERI3
 70
     0
  9
$USERI4
 70
     0
  9
$USERI5
 70
     0
  9
$USERR1
 40
0.0
  9
$USERR2
 40
0.0
  9
$USERR3
 40
0.0
  9
$USERR4
 40
0.0
  9
$USERR5
 40
0.0
  9
$WORLDVIEW
 70
     1
  9
$SHADEDGE
 70
     3
  9
$SHADEDIF
 70
    70
  9
$TILEMODE
 70
     1
  9
$MAXACTVP
 70
    48
  9
$PINSBASE
 10
0.0
 20
0.0
 30
0.0
  9
$PLIMCHECK
 70
     0
  9
$PEXTMIN
 10
1.000000000000000E+20
 20
1.000000000000000E+20
 30
1.000000000000000E+20
  9
$PEXTMAX
 10
-1.000000000000000E+20
 20
-1.000000000000000E+20
 30
-1.000000000000000E+20
  9
$PLIMMIN
 10
0.0
 20
0.0
  9
$PLIMMAX
 10
420.0
 20
297.0
  9
$UNITMODE
 70
     0
  9
$VISRETAIN
 70
     1
  9
$PLINEGEN
 70
     0
  9
$PSLTSCALE
 70
     1
  9
$TREEDEPTH
 70
  3020
  9
$CMLSTYLE
  2
STANDARD
  9
$CMLJUST
 70
     0
  9
$CMLSCALE
 40
20.0
  9
$PROXYGRAPHICS
 70
     1
  9
$MEASUREMENT
 70
     1
  9
$CELWEIGHT
370
    -1
  9
$ENDCAPS
280
     0
  9
$JOINSTYLE
280
     0
  9
$LWDISPLAY
290
     0
  9
$INSUNITS
 70
     0
  9
$HYPERLINKBASE
  1

  9
$STYLESHEET
  1
AutoCAD LT 98.ctb
  9
$XEDIT
290
     1
  9
$CEPSNTYPE
380
     0
  9
$PSTYLEMODE
290
     1
  9
$FINGERPRINTGUID
  2
{EA808ED1-2E3E-4B91-ADB3-6DAAF0F95639}
  9
$VERSIONGUID
  2
{5799F761-12F0-4A68-80C5-EEEE7BD68875}
  9
$EXTNAMES
290
     1
  9
$PSVPSCALE
 40
0.0
  9
$OLESTARTUP
290
     0
  9
$SORTENTS
280
    96
  9
$INDEXCTL
280
     0
  9
$HIDETEXT
280
     0
  9
$XCLIPFRAME
290
     0
  9
$HALOGAP
280
     0
  9
$OBSCOLOR
 70
   257
  9
$OBSLTYPE
280
     0
  9
$INTERSECTIONDISPLAY
280
     0
  9
$INTERSECTIONCOLOR
 70
   257
  9
$DIMASSOC
280
     1
  9
$PROJECTNAME
  1

  0
ENDSEC
  0
SECTION
  2
CLASSES
  0
CLASS
  1
DICTIONARYVAR
  2
AcDbDictionaryVar
  3
ObjectDBX Classes
 90
        0
 91
        2
280
     0
281
     0
  0
CLASS
  1
HATCH
  2
AcDbHatch
  3
ObjectDBX Classes
 90
        0
 91
        1
280
     0
281
     1
  0
CLASS
  1
ACDBDICTIONARYWDFLT
  2
AcDbDictionaryWithDefault
  3
ObjectDBX Classes
 90
        0
 91
        1
280
     0
281
     0
  0
CLASS
  1
TABLESTYLE
  2
AcDbTableStyle
  3
ObjectDBX Classes
 90
     2047
 91
        1
280
     0
281
     0
  0
CLASS
  1
SORTENTSTABLE
  2
AcDbSortentsTable
  3
ObjectDBX Classes
 90
        0
 91
        1
280
     0
281
     0
  0
ENDSEC
  0
SECTION
  2
TABLES
  0
TABLE
  2
VPORT
  5
8
330
0
100
AcDbSymbolTable
 70
     2
  0
VPORT
  5
8D4
330
8
100
AcDbSymbolTableRecord
100
AcDbViewportTableRecord
  2
*Active
 70
     0
 10
0.0
 20
0.0
 11
1.0
 21
1.0
 12
364.1899559918098
 22
269.3506659190583
 13
0.0
 23
0.0
 14
10.0
 24
10.0
 15
10.0
 25
10.0
 16
0.0
 26
0.0
 36
1.0
 17
0.0
 27
0.0
 37
0.0
 40
196.9300935618867
 41
1.530456852791878
 42
50.0
 43
0.0
 44
0.0
 50
0.0
 51
0.0
 71
     0
 72
   100
 73
     1
 74
     1
 75
     0
 76
     0
 77
     0
 78
     0
281
     0
 65
     1
110
0.0
120
0.0
130
0.0
111
1.0
121
0.0
131
0.0
112
0.0
122
1.0
132
0.0
 79
     0
146
0.0
  0
ENDTAB
  0
TABLE
  2
LTYPE
  5
5
330
0
100
AcDbSymbolTable
 70
     4
  0
LTYPE
  5
12
330
5
100
AcDbSymbolTableRecord
100
AcDbLinetypeTableRecord
  2
BYBLOCK
 70
     0
  3

 72
    65
 73
     0
 40
0.0
  0
LTYPE
  5
13
330
5
100
AcDbSymbolTableRecord
100
AcDbLinetypeTableRecord
  2
BYLAYER
 70
     0
  3

 72
    65
 73
     0
 40
0.0
  0
LTYPE
  5
14
330
5
100
AcDbSymbolTableRecord
100
AcDbLinetypeTableRecord
  2
CONTINUOUS
 70
     0
  3
Solid line
 72
    65
 73
     0
 40
0.0
  0
LTYPE
  5
22
330
5
100
AcDbSymbolTableRecord
100
AcDbLinetypeTableRecord
  2
CENTER2
 70
     0
  3
Center (.5x) ___ _ ___ _ ___ _ ___ _ ___ _ ___
 72
    65
 73
     4
 40
28.575
 49
19.05
 74
     0
 49
-3.174999999999999
 74
     0
 49
3.174999999999999
 74
     0
 49
-3.174999999999999
 74
     0
  0
ENDTAB
  0
TABLE
  2
LAYER
  5
2
330
0
100
AcDbSymbolTable
 70
    12
  0
LAYER
  5
E
330
2
100
AcDbSymbolTableRecord
100
AcDbLayerTableRecord
  2
0
 70
     0
 62
     7
  6
CONTINUOUS
370
    -3
390
755
  0
LAYER
  5
25
330
2
100
AcDbSymbolTableRecord
100
AcDbLayerTableRecord
  2
外形線
 70
     0
 62
     7
  6
CONTINUOUS
370
    -3
390
755
  0
LAYER
  5
26
330
2
100
AcDbSymbolTableRecord
100
AcDbLayerTableRecord
  2
寸法線
 70
     0
 62
     2
  6
CONTINUOUS
370
    -3
390
755
  0
LAYER
  5
27
330
2
100
AcDbSymbolTableRecord
100
AcDbLayerTableRecord
  2
中心線
 70
     0
 62
     4
  6
CENTER2
370
    -3
390
755
  0
LAYER
  5
2A
330
2
100
AcDbSymbolTableRecord
100
AcDbLayerTableRecord
  2
ﾊｯﾁﾝｸ
 70
     0
 62
     6
  6
CONTINUOUS
370
    -3
390
755
  0
LAYER
  5
2B
330
2
100
AcDbSymbolTableRecord
100
AcDbLayerTableRecord
  2
文字
 70
     0
 62
     6
  6
CONTINUOUS
370
    -3
390
755
  0
LAYER
  5
53
330
2
100
AcDbSymbolTableRecord
100
AcDbLayerTableRecord
  2
DEFPOINTS
 70
     0
 62
     7
  6
CONTINUOUS
290
     0
370
    -3
390
755
  0
LAYER
  5
A5
330
2
100
AcDbSymbolTableRecord
100
AcDbLayerTableRecord
  2
C
 70
     0
 62
     7
  6
CONTINUOUS
370
    -3
390
755
  0
ENDTAB
  0
TABLE
  2
STYLE
  5
3
330
0
100
AcDbSymbolTable
 70
     4
  0
STYLE
  5
F
330
3
100
AcDbSymbolTableRecord
100
AcDbTextStyleTableRecord
  2
STANDARD
 70
     0
 40
0.0
 41
1.0
 50
0.0
 71
     0
 42
2.5
  3
txt
  4

  0
STYLE
  5
3F
330
3
100
AcDbSymbolTableRecord
100
AcDbTextStyleTableRecord
  2
STYLE3
 70
     0
 40
0.0
 41
1.0
 50
0.0
 71
     0
 42
3.0
  3
romans.shx
  4
bigfont.shx
  0
ENDTAB
  0
TABLE
  2
VIEW
  5
6
330
0
100
AcDbSymbolTable
 70
     0
  0
ENDTAB
  0
TABLE
  2
UCS
  5
7
330
0
100
AcDbSymbolTable
 70
     0
  0
ENDTAB
  0
TABLE
  2
APPID
  5
9
330
0
100
AcDbSymbolTable
 70
     2
  0
APPID
  5
10
330
9
100
AcDbSymbolTableRecord
100
AcDbRegAppTableRecord
  2
ACAD
 70
     0
  0
APPID
  5
79E
330
9
100
AcDbSymbolTableRecord
100
AcDbRegAppTableRecord
  2
ACAD_PSEXT
 70
     0
  0
ENDTAB
  0
TABLE
  2
DIMSTYLE
  5
A
330
0
100
AcDbSymbolTable
 70
     4
100
AcDbDimStyleTable
 71
     1
340
8F
  0
DIMSTYLE
105
1D
330
A
100
AcDbSymbolTableRecord
100
AcDbDimStyleTableRecord
  2
STANDARD
 70
     0
 41
2.5
 42
0.625
 43
3.75
 44
1.25
 73
     0
 74
     0
 77
     1
 78
     8
140
2.5
141
2.5
143
0.0394
147
0.625
171
     4
172
     1
273
     8
274
     4
277
     6
340
F
  0
DIMSTYLE
105
8F
102
{ACAD_REACTORS
330
341
330
5BE
330
61D
330
637
330
877
102
}
330
A
100
AcDbSymbolTableRecord
100
AcDbDimStyleTableRecord
  2
STYLE3
 70
     0
 41
2.5
 42
0.0
 43
3.75
 44
1.25
 73
     0
 74
     0
 77
     1
 78
     8
140
2.5
141
2.5
143
0.0394
147
0.625
171
     4
172
     1
173
     1
176
     2
177
     2
178
     6
271
     1
273
     8
274
     4
340
3F
341
45
343
45
344
45
  0
ENDTAB
  0
TABLE
  2
BLOCK_RECORD
  5
1
330
0
100
AcDbSymbolTable
 70
     9
  0
BLOCK_RECORD
  5
18
102
{ACAD_XDICTIONARY
360
7B2
102
}
330
1
100
AcDbSymbolTableRecord
100
AcDbBlockTableRecord
  2
*MODEL_SPACE
340
75C
  0
BLOCK_RECORD
  5
15
330
1
100
AcDbSymbolTableRecord
100
AcDbBlockTableRecord
  2
*PAPER_SPACE
340
75D
  0
BLOCK_RECORD
  5
45
330
1
100
AcDbSymbolTableRecord
100
AcDbBlockTableRecord
  2
_OPEN
340
0
102
{BLKREFS
331
39C
331
39D
331
57E
331
57F
331
5A1
331
5A2
331
5DA
331
5DB
331
5F0
331
5F1
331
5AB
331
5AC
331
780
331
781
331
83B
331
83C
331
844
331
845
331
87C
331
87D
102
}
  0
BLOCK_RECORD
  5
335
330
1
100
AcDbSymbolTableRecord
100
AcDbBlockTableRecord
  2
*D1
340
0
  0
BLOCK_RECORD
  5
443
330
1
100
AcDbSymbolTableRecord
100
AcDbBlockTableRecord
  2
六角ﾈｼ3
340
0
102
{BLKREFS
331
44F
102
}
  0
BLOCK_RECORD
  5
51C
330
1
100
AcDbSymbolTableRecord
100
AcDbBlockTableRecord
  2
六角ﾈｼ
340
0
102
{BLKREFS
331
523
102
}
  0
BLOCK_RECORD
  5
5B2
330
1
100
AcDbSymbolTableRecord
100
AcDbBlockTableRecord
  2
*D4
340
0
  0
BLOCK_RECORD
  5
611
330
1
100
AcDbSymbolTableRecord
100
AcDbBlockTableRecord
  2
*D5
340
0
  0
BLOCK_RECORD
  5
62B
330
1
100
AcDbSymbolTableRecord
100
AcDbBlockTableRecord
  2
*D6
340
0
  0
BLOCK_RECORD
  5
878
330
1
100
AcDbSymbolTableRecord
100
AcDbBlockTableRecord
  2
*D7
340
0
  0
ENDTAB
  0
ENDSEC
  0
SECTION
  2
BLOCKS
  0
BLOCK
  5
19
330
18
100
AcDbEntity
  8
0
100
AcDbBlockBegin
  2
*MODEL_SPACE
 70
     0
 10
0.0
 20
0.0
 30
0.0
  3
*MODEL_SPACE
  1

  0
ENDBLK
  5
1A
330
18
100
AcDbEntity
  8
0
100
AcDbBlockEnd
  0
BLOCK
  5
16
330
15
100
AcDbEntity
 67
     1
  8
0
100
AcDbBlockBegin
  2
*PAPER_SPACE
 70
     0
 10
0.0
 20
0.0
 30
0.0
  3
*PAPER_SPACE
  1

  0
ENDBLK
  5
17
330
15
100
AcDbEntity
 67
     1
  8
0
100
AcDbBlockEnd
  0
BLOCK
  5
46
330
45
100
AcDbEntity
  8
0
100
AcDbBlockBegin
  2
_OPEN
 70
     0
 10
0.0
 20
0.0
 30
0.0
  3
_OPEN
  1

  0
LINE
  5
47
330
45
100
AcDbEntity
  8
0
  6
ByBlock
 62
     0
100
AcDbLine
 10
-1.0
 20
0.1666666666666666
 30
0.0
 11
0.0
 21
0.0
 31
0.0
  0
LINE
  5
48
330
45
100
AcDbEntity
  8
0
  6
ByBlock
 62
     0
100
AcDbLine
 10
0.0
 20
0.0
 30
0.0
 11
-1.0
 21
-0.1666666666666666
 31
0.0
  0
LINE
  5
49
330
45
100
AcDbEntity
  8
0
  6
ByBlock
 62
     0
100
AcDbLine
 10
0.0
 20
0.0
 30
0.0
 11
-1.0
 21
0.0
 31
0.0
  0
ENDBLK
  5
4A
330
45
100
AcDbEntity
  8
0
100
AcDbBlockEnd
  0
BLOCK
  5
5A7
330
335
100
AcDbEntity
  8
0
100
AcDbBlockBegin
  2
*D1
 70
     1
 10
0.0
 20
0.0
 30
0.0
  3
*D1
  1

  0
LINE
  5
5A8
330
335
100
AcDbEntity
  8
0
  6
ByBlock
 62
     2
100
AcDbLine
 10
281.1874660371451
 20
241.8903194426192
 30
0.0
 11
281.1874660371451
 21
270.6141625426399
 31
0.0
  0
LINE
  5
5A9
330
335
100
AcDbEntity
  8
0
  6
ByBlock
 62
     2
100
AcDbLine
 10
351.1874660371451
 20
242.997120746615
 30
0.0
 11
351.1874660371451
 21
270.6141625426399
 31
0.0
  0
LINE
  5
5AA
330
335
100
AcDbEntity
  8
0
  6
ByBlock
 62
     2
100
AcDbLine
 10
283.6874660371451
 20
269.3641625426399
 30
0.0
 11
348.6874660371451
 21
269.3641625426399
 31
0.0
  0
INSERT
  5
5AB
330
335
100
AcDbEntity
  8
0
  6
ByBlock
 62
     2
100
AcDbBlockReference
  2
_OPEN
 10
281.1874660371451
 20
269.3641625426399
 30
0.0
 41
2.5
 42
2.5
 43
2.5
 50
180.0
  0
INSERT
  5
5AC
330
335
100
AcDbEntity
  8
0
  6
ByBlock
 62
     2
100
AcDbBlockReference
  2
_OPEN
 10
351.1874660371451
 20
269.3641625426399
 30
0.0
 41
2.5
 42
2.5
 43
2.5
  0
MTEXT
  5
5AD
330
335
100
AcDbEntity
  8
0
  6
ByBlock
 62
     6
100
AcDbMText
 10
316.1874660371451
 20
271.2391625426398
 30
0.0
 40
2.5
 41
0.0
 71
     5
 72
     1
  1
\A1;70
  7
STYLE3
 73
     1
 44
1.0
  0
POINT
  5
5AE
330
335
100
AcDbEntity
  8
DEFPOINTS
  6
ByBlock
 62
     0
100
AcDbPoint
 10
281.1874660371451
 20
241.8903194426192
 30
0.0
  0
POINT
  5
5AF
330
335
100
AcDbEntity
  8
DEFPOINTS
  6
ByBlock
 62
     0
100
AcDbPoint
 10
351.1874660371451
 20
242.997120746615
 30
0.0
  0
POINT
  5
5B0
330
335
100
AcDbEntity
  8
DEFPOINTS
  6
ByBlock
 62
     0
100
AcDbPoint
 10
351.1874660371451
 20
269.3641625426399
 30
0.0
  0
ENDBLK
  5
5B1
330
335
100
AcDbEntity
  8
0
100
AcDbBlockEnd
  0
BLOCK
  5
44D
330
443
100
AcDbEntity
  8
0
100
AcDbBlockBegin
  2
六角ﾈｼ3
 70
     0
 10
0.0
 20
0.0
 30
0.0
  3
六角ﾈｼ3
  1

  0
LINE
  5
444
330
443
100
AcDbEntity
  8
外形線
100
AcDbLine
 10
0.0000000000000568
 20
-5.200000000000017
 30
0.0
 11
2.499999999999886
 21
-5.199999999999988
 31
0.0
  0
LINE
  5
445
330
443
100
AcDbEntity
  8
外形線
100
AcDbLine
 10
2.500000000000397
 20
-2.600000000000022
 30
0.0
 11
0.0000000000001137
 21
-2.599999999999965
 31
0.0
  0
LINE
  5
446
330
443
100
AcDbEntity
  8
外形線
100
AcDbLine
 10
2.500000000000056
 20
2.600000000000022
 30
0.0
 11
-0.0000000000000568
 21
2.600000000000022
 31
0.0
  0
LINE
  5
447
330
443
100
AcDbEntity
  8
外形線
100
AcDbLine
 10
-0.0000000000000568
 20
5.199999999999988
 30
0.0
 11
2.499999999999886
 21
5.199999999999988
 31
0.0
  0
LINE
  5
448
330
443
100
AcDbEntity
  8
外形線
100
AcDbLine
 10
-0.0000000000000568
 20
5.199999999999988
 30
0.0
 11
0.0000000000000568
 21
-5.200000000000017
 31
0.0
  0
ARC
  5
449
330
443
100
AcDbEntity
  8
外形線
100
AcDbCircle
 10
1.059999999999774
 20
3.899999999999863
 30
0.0
 40
1.940000000000166
100
AcDbArc
 50
317.9249779491655
 51
42.07502205084422
  0
ARC
  5
44A
330
443
100
AcDbEntity
  8
外形線
100
AcDbCircle
 10
-4.010000000002719
 20
-0.0000000000005116
 30
0.0
 40
7.010000000002722
100
AcDbArc
 50
338.2289458906957
 51
21.77105410931329
  0
ARC
  5
44B
330
443
100
AcDbEntity
  8
外形線
100
AcDbCircle
 10
1.059999999999774
 20
-3.899999999999863
 30
0.0
 40
1.940000000000166
100
AcDbArc
 50
317.9249779491558
 51
42.07502205083457
  0
LINE
  5
44C
330
443
100
AcDbEntity
  8
外形線
100
AcDbLine
 10
2.999999999999943
 20
3.899999999999863
 30
0.0
 11
2.999999999999943
 21
-3.899999999999863
 31
0.0
  0
ENDBLK
  5
44E
330
443
100
AcDbEntity
  8
0
100
AcDbBlockEnd
  0
BLOCK
  5
521
330
51C
100
AcDbEntity
  8
0
100
AcDbBlockBegin
  2
六角ﾈｼ
 70
     0
 10
0.0
 20
0.0
 30
0.0
  3
六角ﾈｼ
  1

  0
LINE
  5
51D
330
51C
100
AcDbEntity
  8
外形線
 48
0.8
100
AcDbLine
 10
-0.0000000000000568
 20
4.499999999999943
 30
0.0
 11
2.737599573181626
 21
4.499999999999943
 31
0.0
  0
ARC
  5
51E
330
51C
100
AcDbEntity
  8
外形線
100
AcDbCircle
 10
-4.010000000002662
 20
2.599999999999511
 30
0.0
 40
7.010000000002722
100
AcDbArc
 50
338.2289458906957
 51
15.72624379279067
  0
ARC
  5
51F
330
51C
100
AcDbEntity
  8
外形線
100
AcDbCircle
 10
-4.010000000002662
 20
-2.599999999999511
 30
0.0
 40
7.010000000002722
100
AcDbArc
 50
344.2737562072088
 51
21.77105410930435
  0
LINE
  5
520
330
51C
100
AcDbEntity
  8
外形線
 48
0.8
100
AcDbLine
 10
0.0000000000001705
 20
-4.5
 30
0.0
 11
2.737599573181569
 21
-4.5
 31
0.0
  0
ENDBLK
  5
522
330
51C
100
AcDbEntity
  8
0
100
AcDbBlockEnd
  0
BLOCK
  5
6D5
330
5B2
100
AcDbEntity
  8
0
100
AcDbBlockBegin
  2
*D4
 70
     1
 10
0.0
 20
0.0
 30
0.0
  3
*D4
  1

  0
LINE
  5
77D
330
5B2
100
AcDbEntity
  8
寸法線
 62
     2
370
    -2
100
AcDbLine
 10
430.7347375911368
 20
264.090319442619
 30
0.0
 11
450.9425558594609
 21
264.090319442619
 31
0.0
  0
LINE
  5
77E
330
5B2
100
AcDbEntity
  8
寸法線
 62
     2
370
    -2
100
AcDbLine
 10
430.7347375911367
 20
218.890319442619
 30
0.0
 11
450.9425558594609
 21
218.890319442619
 31
0.0
  0
LINE
  5
77F
330
5B2
100
AcDbEntity
  8
寸法線
 62
     2
370
    -2
100
AcDbLine
 10
449.6925558594609
 20
261.5903194426191
 30
0.0
 11
449.6925558594609
 21
221.390319442619
 31
0.0
  0
INSERT
  5
780
330
5B2
100
AcDbEntity
  8
寸法線
 62
     2
370
    -2
100
AcDbBlockReference
  2
_OPEN
 10
449.6925558594609
 20
264.090319442619
 30
0.0
 41
2.5
 42
2.5
 43
2.5
 50
90.0
  0
INSERT
  5
781
330
5B2
100
AcDbEntity
  8
寸法線
 62
     2
370
    -2
100
AcDbBlockReference
  2
_OPEN
 10
449.6925558594609
 20
218.890319442619
 30
0.0
 41
2.5
 42
2.5
 43
2.5
 50
270.0
  0
MTEXT
  5
782
330
5B2
100
AcDbEntity
  8
寸法線
 62
     6
100
AcDbMText
 10
447.8175558594609
 20
241.4903194426191
 30
0.0
 40
2.5
 41
0.0
 71
     5
 72
     1
  1
\A1;35～60
  7
STYLE3
 11
0.0000000000000001
 21
1.0
 31
0.0
 73
     1
 44
1.0
  0
POINT
  5
783
330
5B2
100
AcDbEntity
  8
DEFPOINTS
 62
     0
100
AcDbPoint
 10
430.7347375911368
 20
264.090319442619
 30
0.0
  0
POINT
  5
784
330
5B2
100
AcDbEntity
  8
DEFPOINTS
 62
     0
100
AcDbPoint
 10
430.7347375911367
 20
218.890319442619
 30
0.0
  0
POINT
  5
785
330
5B2
100
AcDbEntity
  8
DEFPOINTS
 62
     0
100
AcDbPoint
 10
449.6925558594609
 20
218.890319442619
 30
0.0
  0
ENDBLK
  5
6DF
330
5B2
100
AcDbEntity
  8
0
100
AcDbBlockEnd
  0
BLOCK
  5
612
330
611
100
AcDbEntity
  8
0
100
AcDbBlockBegin
  2
*D5
 70
     1
 10
0.0
 20
0.0
 30
0.0
  3
*D5
  1

  0
LINE
  5
838
330
611
100
AcDbEntity
  8
外形線
 62
     2
370
    -2
100
AcDbLine
 10
439.2347375911366
 20
332.2565301470023
 30
0.0
 11
450.6345060036677
 21
332.2565301470023
 31
0.0
  0
LINE
  5
839
330
611
100
AcDbEntity
  8
外形線
 62
     2
370
    -2
100
AcDbLine
 10
439.2347375911367
 20
310.2565301470023
 30
0.0
 11
450.6345060036677
 21
310.2565301470023
 31
0.0
  0
LINE
  5
83A
330
611
100
AcDbEntity
  8
外形線
 62
     2
370
    -2
100
AcDbLine
 10
449.3845060036677
 20
329.7565301470023
 30
0.0
 11
449.3845060036677
 21
312.7565301470023
 31
0.0
  0
INSERT
  5
83B
330
611
100
AcDbEntity
  8
外形線
 62
     2
370
    -2
100
AcDbBlockReference
  2
_OPEN
 10
449.3845060036677
 20
332.2565301470023
 30
0.0
 41
2.5
 42
2.5
 43
2.5
 50
90.0
  0
INSERT
  5
83C
330
611
100
AcDbEntity
  8
外形線
 62
     2
370
    -2
100
AcDbBlockReference
  2
_OPEN
 10
449.3845060036677
 20
310.2565301470023
 30
0.0
 41
2.5
 42
2.5
 43
2.5
 50
270.0
  0
MTEXT
  5
83D
330
611
100
AcDbEntity
  8
外形線
 62
     6
100
AcDbMText
 10
447.5095060036677
 20
321.2565301470024
 30
0.0
 40
2.5
 41
0.0
 71
     5
 72
     1
  1
\A1;22
  7
STYLE3
 11
0.0000000000000001
 21
1.0
 31
0.0
 73
     1
 44
1.0
  0
POINT
  5
83E
330
611
100
AcDbEntity
  8
DEFPOINTS
 62
     0
100
AcDbPoint
 10
439.2347375911366
 20
332.2565301470023
 30
0.0
  0
POINT
  5
83F
330
611
100
AcDbEntity
  8
DEFPOINTS
 62
     0
100
AcDbPoint
 10
439.2347375911367
 20
310.2565301470023
 30
0.0
  0
POINT
  5
840
330
611
100
AcDbEntity
  8
DEFPOINTS
 62
     0
100
AcDbPoint
 10
449.3845060036677
 20
310.2565301470023
 30
0.0
  0
ENDBLK
  5
61C
330
611
100
AcDbEntity
  8
0
100
AcDbBlockEnd
  0
BLOCK
  5
62C
330
62B
100
AcDbEntity
  8
0
100
AcDbBlockBegin
  2
*D6
 70
     1
 10
0.0
 20
0.0
 30
0.0
  3
*D6
  1

  0
LINE
  5
841
330
62B
100
AcDbEntity
  8
外形線
 62
     2
370
    -2
100
AcDbLine
 10
422.2347375911367
 20
310.2565301470023
 30
0.0
 11
422.2347375911367
 21
299.6753832398089
 31
0.0
  0
LINE
  5
842
330
62B
100
AcDbEntity
  8
外形線
 62
     2
370
    -2
100
AcDbLine
 10
439.2347375911367
 20
310.2565301470023
 30
0.0
 11
439.2347375911367
 21
299.6753832398089
 31
0.0
  0
LINE
  5
843
330
62B
100
AcDbEntity
  8
外形線
 62
     2
370
    -2
100
AcDbLine
 10
424.7347375911368
 20
300.9253832398089
 30
0.0
 11
436.7347375911367
 21
300.9253832398089
 31
0.0
  0
INSERT
  5
844
330
62B
100
AcDbEntity
  8
外形線
 62
     2
370
    -2
100
AcDbBlockReference
  2
_OPEN
 10
422.2347375911367
 20
300.9253832398089
 30
0.0
 41
2.5
 42
2.5
 43
2.5
 50
180.0
  0
INSERT
  5
845
330
62B
100
AcDbEntity
  8
外形線
 62
     2
370
    -2
100
AcDbBlockReference
  2
_OPEN
 10
439.2347375911367
 20
300.9253832398089
 30
0.0
 41
2.5
 42
2.5
 43
2.5
  0
MTEXT
  5
846
330
62B
100
AcDbEntity
  8
外形線
 62
     6
100
AcDbMText
 10
430.7347375911367
 20
302.8003832398089
 30
0.0
 40
2.5
 41
0.0
 71
     5
 72
     1
  1
\A1;17
  7
STYLE3
 73
     1
 44
1.0
  0
POINT
  5
847
330
62B
100
AcDbEntity
  8
DEFPOINTS
 62
     0
100
AcDbPoint
 10
422.2347375911367
 20
310.2565301470023
 30
0.0
  0
POINT
  5
848
330
62B
100
AcDbEntity
  8
DEFPOINTS
 62
     0
100
AcDbPoint
 10
439.2347375911367
 20
310.2565301470023
 30
0.0
  0
POINT
  5
849
330
62B
100
AcDbEntity
  8
DEFPOINTS
 62
     0
100
AcDbPoint
 10
439.2347375911367
 20
300.9253832398089
 30
0.0
  0
ENDBLK
  5
636
330
62B
100
AcDbEntity
  8
0
100
AcDbBlockEnd
  0
BLOCK
  5
882
330
878
100
AcDbEntity
  8
0
100
AcDbBlockBegin
  2
*D7
 70
     1
 10
0.0
 20
0.0
 30
0.0
  3
*D7
  1

  0
LINE
  5
879
330
878
100
AcDbEntity
  8
外形線
 62
     2
370
    -2
100
AcDbLine
 10
275.1698217644248
 20
241.8903194426192
 30
0.0
 11
275.1698217644248
 21
270.6141625426399
 31
0.0
  0
LINE
  5
87A
330
878
100
AcDbEntity
  8
外形線
 62
     2
370
    -2
100
AcDbLine
 10
252.1698217644248
 20
240.5903194426191
 30
0.0
 11
252.1698217644248
 21
270.6141625426399
 31
0.0
  0
LINE
  5
87B
330
878
100
AcDbEntity
  8
外形線
 62
     2
370
    -2
100
AcDbLine
 10
272.6698217644248
 20
269.3641625426399
 30
0.0
 11
254.6698217644248
 21
269.3641625426399
 31
0.0
  0
INSERT
  5
87C
330
878
100
AcDbEntity
  8
外形線
 62
     2
370
    -2
100
AcDbBlockReference
  2
_OPEN
 10
275.1698217644248
 20
269.3641625426399
 30
0.0
 41
2.5
 42
2.5
 43
2.5
  0
INSERT
  5
87D
330
878
100
AcDbEntity
  8
外形線
 62
     2
370
    -2
100
AcDbBlockReference
  2
_OPEN
 10
252.1698217644248
 20
269.3641625426399
 30
0.0
 41
2.5
 42
2.5
 43
2.5
 50
180.0
  0
MTEXT
  5
87E
330
878
100
AcDbEntity
  8
外形線
 62
     6
100
AcDbMText
 10
263.6698217644248
 20
271.2391625426398
 30
0.0
 40
2.5
 41
0.0
 71
     5
 72
     1
  1
\A1;23
  7
STYLE3
 73
     1
 44
1.0
  0
POINT
  5
87F
330
878
100
AcDbEntity
  8
DEFPOINTS
 62
     0
100
AcDbPoint
 10
275.1698217644248
 20
241.8903194426192
 30
0.0
  0
POINT
  5
880
330
878
100
AcDbEntity
  8
DEFPOINTS
 62
     0
100
AcDbPoint
 10
252.1698217644248
 20
240.5903194426191
 30
0.0
  0
POINT
  5
881
330
878
100
AcDbEntity
  8
DEFPOINTS
 62
     0
100
AcDbPoint
 10
252.1698217644248
 20
269.3641625426399
 30
0.0
  0
ENDBLK
  5
883
330
878
100
AcDbEntity
  8
0
100
AcDbBlockEnd
  0
ENDSEC
  0
SECTION
  2
ENTITIES
  0
LWPOLYLINE
  5
10B
330
18
100
AcDbEntity
  8
C
100
AcDbPolyline
 90
        5
 70
     0
 43
0.4
 10
236.6915604445414
 20
366.8501752555372
 10
491.6915604445414
 20
366.8501752555372
 10
491.6915604445414
 20
171.8501752555372
 10
236.6915604445414
 20
171.8501752555372
 10
236.6915604445414
 20
366.8501752555372
  0
LINE
  5
16A
330
18
100
AcDbEntity
  8
中心線
 48
0.5
100
AcDbLine
 10
249.8301201449386
 20
235.8903194426192
 30
0.0
 11
439.2669758786823
 21
235.890319442619
 31
0.0
  0
LINE
  5
16C
102
{ACAD_REACTORS
330
317
102
}
330
18
100
AcDbEntity
  8
外形線
100
AcDbLine
 10
315.1698217644248
 20
245.8496332662726
 30
0.0
 11
315.1698217644248
 21
239.8903194426191
 31
0.0
  0
LINE
  5
16D
102
{ACAD_REACTORS
330
317
102
}
330
18
100
AcDbEntity
  8
外形線
100
AcDbLine
 10
335.1698217644248
 20
244.8715433568373
 30
0.0
 11
335.1698217644249
 21
237.8903194426191
 31
0.0
  0
LINE
  5
16E
330
18
100
AcDbEntity
  8
外形線
100
AcDbLine
 10
345.1698217644248
 20
242.997120746615
 30
0.0
 11
345.1698217644248
 21
228.7835181386232
 31
0.0
  0
LINE
  5
171
330
18
100
AcDbEntity
  8
外形線
100
AcDbLine
 10
275.1698217644248
 20
242.997120746615
 30
0.0
 11
275.1698217644248
 21
241.8903194426192
 31
0.0
  0
ARC
  5
173
102
{ACAD_REACTORS
330
317
102
}
330
18
100
AcDbEntity
  8
外形線
100
AcDbCircle
 10
310.1698217644248
 20
-61.35968055738089
 30
0.0
 40
307.25
100
AcDbArc
 50
83.62585904071393
 51
96.37414095928605
  0
ARC
  5
175
102
{ACAD_REACTORS
330
317
102
}
330
18
100
AcDbEntity
  8
外形線
100
AcDbCircle
 10
310.1698217644248
 20
533.1403194426191
 30
0.0
 40
307.25
100
AcDbArc
 50
263.6258590407139
 51
276.3741409592861
  0
LINE
  5
176
330
18
100
AcDbEntity
  8
外形線
100
AcDbLine
 10
325.1698217644248
 20
239.3903194426191
 30
0.0
 11
325.1698217644248
 21
232.3903194426191
 31
0.0
  0
LINE
  5
177
330
18
100
AcDbEntity
  8
外形線
100
AcDbLine
 10
295.1698217644248
 20
239.3903194426191
 30
0.0
 11
295.1698217644248
 21
232.3903194426191
 31
0.0
  0
LINE
  5
178
330
18
100
AcDbEntity
  8
外形線
100
AcDbLine
 10
295.1698217644248
 20
239.3903194426191
 30
0.0
 11
325.1698217644248
 21
239.3903194426191
 31
0.0
  0
LINE
  5
179
330
18
100
AcDbEntity
  8
外形線
100
AcDbLine
 10
295.1698217644248
 20
232.3903194426191
 30
0.0
 11
325.1698217644248
 21
232.3903194426191
 31
0.0
  0
LINE
  5
17A
102
{ACAD_REACTORS
330
317
102
}
330
18
100
AcDbEntity
  8
外形線
100
AcDbLine
 10
315.1698217644248
 20
239.8903194426191
 30
0.0
 11
325.6698217644248
 21
239.8903194426191
 31
0.0
  0
LINE
  5
17C
102
{ACAD_REACTORS
330
317
102
}
330
18
100
AcDbEntity
  8
外形線
100
AcDbLine
 10
325.6698217644248
 20
237.8903194426191
 30
0.0
 11
335.1698217644249
 21
237.8903194426191
 31
0.0
  0
LINE
  5
17F
102
{ACAD_REACTORS
330
317
102
}
330
18
100
AcDbEntity
  8
外形線
100
AcDbLine
 10
325.6698217644248
 20
239.8903194426191
 30
0.0
 11
325.6698217644248
 21
237.8903194426191
 31
0.0
  0
LINE
  5
181
102
{ACAD_REACTORS
330
317
102
}
330
18
100
AcDbEntity
  8
外形線
100
AcDbLine
 10
325.6698217644248
 20
233.8903194426191
 30
0.0
 11
335.1698217644249
 21
233.8903194426191
 31
0.0
  0
LINE
  5
182
102
{ACAD_REACTORS
330
317
102
}
330
18
100
AcDbEntity
  8
外形線
100
AcDbLine
 10
335.1698217644248
 20
226.909095528401
 30
0.0
 11
335.1698217644249
 21
233.8903194426191
 31
0.0
  0
LINE
  5
183
102
{ACAD_REACTORS
330
317
102
}
330
18
100
AcDbEntity
  8
外形線
100
AcDbLine
 10
325.6698217644248
 20
231.8903194426191
 30
0.0
 11
325.6698217644248
 21
233.8903194426191
 31
0.0
  0
LINE
  5
184
102
{ACAD_REACTORS
330
317
102
}
330
18
100
AcDbEntity
  8
外形線
100
AcDbLine
 10
315.1698217644248
 20
231.8903194426191
 30
0.0
 11
325.6698217644248
 21
231.8903194426191
 31
0.0
  0
LINE
  5
185
102
{ACAD_REACTORS
330
317
102
}
330
18
100
AcDbEntity
  8
外形線
100
AcDbLine
 10
315.1698217644248
 20
225.9310056189657
 30
0.0
 11
315.1698217644248
 21
231.8903194426191
 31
0.0
  0
LINE
  5
186
102
{ACAD_REACTORS
330
317
102
}
330
18
100
AcDbEntity
  8
外形線
100
AcDbLine
 10
285.1698217644248
 20
226.909095528401
 30
0.0
 11
285.1698217644247
 21
233.8903194426191
 31
0.0
  0
LINE
  5
188
102
{ACAD_REACTORS
330
317
102
}
330
18
100
AcDbEntity
  8
外形線
100
AcDbLine
 10
305.1698217644248
 20
225.9310056189657
 30
0.0
 11
305.1698217644248
 21
231.8903194426191
 31
0.0
  0
LINE
  5
189
102
{ACAD_REACTORS
330
317
102
}
330
18
100
AcDbEntity
  8
外形線
100
AcDbLine
 10
305.1698217644248
 20
231.8903194426191
 30
0.0
 11
294.6698217644248
 21
231.8903194426191
 31
0.0
  0
LINE
  5
18A
102
{ACAD_REACTORS
330
317
102
}
330
18
100
AcDbEntity
  8
外形線
100
AcDbLine
 10
294.6698217644248
 20
231.8903194426191
 30
0.0
 11
294.6698217644248
 21
233.8903194426191
 31
0.0
  0
LINE
  5
18B
102
{ACAD_REACTORS
330
317
102
}
330
18
100
AcDbEntity
  8
外形線
100
AcDbLine
 10
294.6698217644248
 20
233.8903194426191
 30
0.0
 11
285.1698217644247
 21
233.8903194426191
 31
0.0
  0
LINE
  5
18D
102
{ACAD_REACTORS
330
317
102
}
330
18
100
AcDbEntity
  8
外形線
100
AcDbLine
 10
305.1698217644248
 20
245.8496332662726
 30
0.0
 11
305.1698217644248
 21
239.8903194426191
 31
0.0
  0
LINE
  5
18E
102
{ACAD_REACTORS
330
317
102
}
330
18
100
AcDbEntity
  8
外形線
100
AcDbLine
 10
294.6698217644248
 20
237.8903194426191
 30
0.0
 11
285.1698217644247
 21
237.8903194426191
 31
0.0
  0
LINE
  5
18F
102
{ACAD_REACTORS
330
317
102
}
330
18
100
AcDbEntity
  8
外形線
100
AcDbLine
 10
285.1698217644248
 20
244.8715433568373
 30
0.0
 11
285.1698217644247
 21
237.8903194426191
 31
0.0
  0
LINE
  5
190
102
{ACAD_REACTORS
330
317
102
}
330
18
100
AcDbEntity
  8
外形線
100
AcDbLine
 10
294.6698217644248
 20
239.8903194426191
 30
0.0
 11
294.6698217644248
 21
237.8903194426191
 31
0.0
  0
LINE
  5
191
102
{ACAD_REACTORS
330
317
102
}
330
18
100
AcDbEntity
  8
外形線
100
AcDbLine
 10
305.1698217644248
 20
239.8903194426191
 30
0.0
 11
294.6698217644248
 21
239.8903194426191
 31
0.0
  0
TEXT
  5
1AE
330
18
100
AcDbEntity
  8
文字
100
AcDbText
 10
303.5992154765366
 20
234.6632611272935
 30
0.0
 40
2.5
  1
35-60mm
  7
STYLE3
100
AcDbText
  0
LINE
  5
1C3
330
18
100
AcDbEntity
  8
外形線
100
AcDbLine
 10
345.1698217644248
 20
240.8903194426191
 30
0.0
 11
372.6915468569136
 21
240.8903194426191
 31
0.0
  0
LINE
  5
1C4
330
18
100
AcDbEntity
  8
外形線
100
AcDbLine
 10
345.1698217644248
 20
230.8903194426191
 30
0.0
 11
369.4445043573741
 21
230.8903194426191
 31
0.0
  0
ARC
  5
24E
330
18
100
AcDbEntity
  8
外形線
100
AcDbCircle
 10
276.1698217644248
 20
242.997120746615
 30
0.0
 40
1.0
100
AcDbArc
 50
96.37414095927951
 51
180.0
  0
ARC
  5
24F
330
18
100
AcDbEntity
  8
外形線
100
AcDbCircle
 10
276.1698217644247
 20
228.7835181386232
 30
0.0
 40
1.0
100
AcDbArc
 50
180.0
 51
263.6258590407112
  0
ARC
  5
250
330
18
100
AcDbEntity
  8
外形線
100
AcDbCircle
 10
344.1698217644248
 20
242.997120746615
 30
0.0
 40
1.0
100
AcDbArc
 50
0.0
 51
83.62585904071403
  0
ARC
  5
251
330
18
100
AcDbEntity
  8
外形線
100
AcDbCircle
 10
344.1698217644248
 20
228.7835181386232
 30
0.0
 40
1.0
100
AcDbArc
 50
276.3741409592856
 51
0.0
  0
LINE
  5
253
330
18
100
AcDbEntity
  8
外形線
100
AcDbLine
 10
252.1698217644248
 20
240.5903194426191
 30
0.0
 11
252.1698217644248
 21
233.6997944619303
 31
0.0
  0
LINE
  5
254
330
18
100
AcDbEntity
  8
外形線
100
AcDbLine
 10
274.1698217644247
 20
240.8903194426192
 30
0.0
 11
274.1698217644248
 21
230.8903194426191
 31
0.0
  0
LINE
  5
255
330
18
100
AcDbEntity
  8
外形線
100
AcDbLine
 10
263.1698217644248
 20
240.8903194426192
 30
0.0
 11
263.1698217644248
 21
233.6997944619303
 31
0.0
  0
LINE
  5
256
330
18
100
AcDbEntity
  8
外形線
100
AcDbLine
 10
263.1698217644248
 20
240.8903194426192
 30
0.0
 11
274.1698217644248
 21
240.8903194426192
 31
0.0
  0
LINE
  5
257
330
18
100
AcDbEntity
  8
外形線
100
AcDbLine
 10
265.0860202515205
 20
230.8903194426192
 30
0.0
 11
274.1698217644247
 21
230.8903194426191
 31
0.0
  0
LINE
  5
25C
330
18
100
AcDbEntity
  8
外形線
100
AcDbLine
 10
275.1698217644247
 20
229.8903194426191
 30
0.0
 11
275.1698217644247
 21
228.7835181386232
 31
0.0
  0
LINE
  5
25E
330
18
100
AcDbEntity
  8
外形線
100
AcDbLine
 10
275.1698217644248
 20
241.8903194426192
 30
0.0
 11
275.1698217644247
 21
229.8903194426191
 31
0.0
  0
ARC
  5
25F
330
18
100
AcDbEntity
  8
外形線
100
AcDbCircle
 10
272.9339732128706
 20
228.7171470247881
 30
0.0
 40
2.5
100
AcDbArc
 50
26.57629387126569
 51
60.37379958472584
  0
ARC
  5
260
330
18
100
AcDbEntity
  8
外形線
100
AcDbCircle
 10
272.9339732128706
 20
243.0634918604501
 30
0.0
 40
2.5
100
AcDbArc
 50
299.6262004152742
 51
333.4237061287343
  0
LINE
  5
261
330
18
100
AcDbEntity
  8
外形線
100
AcDbLine
 10
253.1698217644248
 20
241.0903194426192
 30
0.0
 11
262.1698217644247
 21
241.0903194426191
 31
0.0
  0
LINE
  5
263
330
18
100
AcDbEntity
  8
外形線
100
AcDbLine
 10
253.1698217644248
 20
240.0903194426191
 30
0.0
 11
262.1698217644247
 21
240.0903194426191
 31
0.0
  0
LINE
  5
264
330
18
100
AcDbEntity
  8
外形線
100
AcDbLine
 10
262.1698217644248
 20
241.0903194426191
 30
0.0
 11
262.1698217644248
 21
240.0903194426191
 31
0.0
  0
LINE
  5
265
330
18
100
AcDbEntity
  8
外形線
100
AcDbLine
 10
253.1698217644248
 20
241.0903194426192
 30
0.0
 11
253.1698217644248
 21
240.0903194426191
 31
0.0
  0
LINE
  5
26B
330
18
100
AcDbEntity
  8
外形線
100
AcDbLine
 10
262.1698217644248
 20
240.0903194426191
 30
0.0
 11
263.1698217644248
 21
239.5903194426191
 31
0.0
  0
LINE
  5
26C
330
18
100
AcDbEntity
  8
外形線
100
AcDbLine
 10
262.1698217644248
 20
241.0903194426191
 30
0.0
 11
263.1698217644248
 21
240.5903194426191
 31
0.0
  0
LINE
  5
273
330
18
100
AcDbEntity
  8
外形線
100
AcDbLine
 10
253.1698217644248
 20
241.0903194426191
 30
0.0
 11
252.1698217644248
 21
240.5903194426191
 31
0.0
  0
LINE
  5
274
330
18
100
AcDbEntity
  8
外形線
100
AcDbLine
 10
253.1698217644248
 20
240.0903194426191
 30
0.0
 11
252.1698217644248
 21
239.5903194426191
 31
0.0
  0
LINE
  5
275
330
18
100
AcDbEntity
  8
外形線
100
AcDbLine
 10
253.1698217644248
 20
241.0903194426191
 30
0.0
 11
253.1698217644248
 21
240.0903194426191
 31
0.0
  0
LINE
  5
276
330
18
100
AcDbEntity
  8
中心線
 48
0.4
100
AcDbLine
 10
257.6698217644249
 20
238.4143387850579
 30
0.0
 11
257.6698217644248
 21
216.2421474039088
 31
0.0
  0
LINE
  5
277
330
18
100
AcDbEntity
  8
中心線
 48
0.4
100
AcDbLine
 10
247.1839610788202
 20
227.8903194426192
 30
0.0
 11
268.0516303842685
 21
227.8903194426192
 31
0.0
  0
CIRCLE
  5
278
330
18
100
AcDbEntity
  8
外形線
100
AcDbCircle
 10
257.6698217644248
 20
227.8903194426192
 30
0.0
 40
8.0
  0
TEXT
  5
27E
330
18
100
AcDbEntity
  8
文字
100
AcDbText
 10
297.4478094545229
 20
234.5132424784087
 30
0.0
 40
1.0
  1
CC-2
  7
STYLE3
100
AcDbText
  0
ARC
  5
2F6
102
{ACAD_REACTORS
330
317
102
}
330
18
100
AcDbEntity
  8
外形線
100
AcDbCircle
 10
295.1698217644248
 20
225.7403229776251
 30
0.0
 40
2.0
100
AcDbArc
 50
12.33039196868931
 51
162.0823891309169
  0
HATCH
  5
317
330
18
100
AcDbEntity
  8
ﾊｯﾁﾝｸ
100
AcDbHatch
 10
0.0
 20
0.0
 30
0.0
210
0.0
220
0.0
230
1.0
  2
DOTS
 70
     0
 71
     1
 91
        4
 92
        7
 72
     1
 73
     1
 93
        6
 10
294.6698217644248
 20
237.8903194426191
 42
0.0
 10
294.6698217644248
 20
239.8903194426191
 42
0.0
 10
305.1698217644248
 20
239.8903194426191
 42
0.0
 10
305.1698217644248
 20
245.8496332662725
 42
0.0162971688498792
 10
285.1698217644248
 20
244.8715433568372
 42
0.0
 10
285.1698217644247
 20
237.8903194426191
 42
0.0
 97
        6
330
173
330
18F
330
18E
330
190
330
191
330
18D
 92
        7
 72
     1
 73
     1
 93
        6
 10
325.6698217644248
 20
239.8903194426192
 42
0.0
 10
325.6698217644248
 20
237.8903194426191
 42
0.0
 10
335.1698217644249
 20
237.8903194426191
 42
0.0
 10
335.1698217644248
 20
244.8715433568371
 42
0.0162971688498792
 10
315.1698217644248
 20
245.8496332662725
 42
0.0
 10
315.1698217644248
 20
239.8903194426191
 42
0.0
 97
        6
330
173
330
16C
330
17A
330
17F
330
17C
330
16D
 92
        7
 72
     1
 73
     1
 93
        6
 10
335.1698217644248
 20
226.9090955284012
 42
0.0
 10
335.1698217644248
 20
233.8903194426191
 42
0.0
 10
325.6698217644248
 20
233.8903194426191
 42
0.0
 10
325.6698217644248
 20
231.8903194426191
 42
0.0
 10
315.1698217644248
 20
231.8903194426192
 42
0.0
 10
315.1698217644248
 20
225.9310056189657
 42
0.0162971688498792
 97
        6
330
181
330
183
330
184
330
185
330
175
330
182
 92
        7
 72
     1
 73
     1
 93
        8
 10
293.2668219895272
 20
226.3556211628487
 42
-0.7656091570197175
 10
297.123686638756
 20
226.1674202181392
 42
0.0065500023894979
 10
305.1698217644248
 20
225.9310056189658
 42
0.0
 10
305.1698217644248
 20
231.8903194426191
 42
0.0
 10
294.6698217644248
 20
231.8903194426191
 42
0.0
 10
294.6698217644248
 20
233.8903194426191
 42
0.0
 10
285.1698217644247
 20
233.8903194426191
 42
0.0
 10
285.1698217644248
 20
226.9090955284011
 42
0.0066039451871049
 97
        7
330
189
330
18A
330
18B
330
186
330
175
330
2F6
330
188
 75
     0
 76
     1
 52
0.0
 41
0.4
 77
     0
 78
     1
 53
0.0
 43
-16.19200525610063
 44
-30.07430948306384
 45
0.3175
 46
0.635
 79
     2
 49
0.0
 49
-0.635
 47
0.3765170278403226
 98
        4
 10
289.6017913058957
 20
240.7742042921638
 10
328.4150949115804
 20
241.1507210483685
 10
328.7919229771476
 20
228.725659447868
 10
291.485932436998
 20
229.4786934153167
  0
DIMENSION
  5
341
330
18
100
AcDbEntity
  8
外形線
100
AcDbDimension
  2
*D1
 10
345.1698217644248
 20
269.3641625426399
 30
0.0
 11
310.1698217644248
 21
271.2391625426398
 31
0.0
 12
-6.017644272720303
 22
0.0
 32
0.0
 70
    32
 71
     5
 42
-1.0
  3
STYLE3
100
AcDbAlignedDimension
 13
275.1698217644248
 23
241.8903194426192
 33
0.0
 14
345.1698217644248
 24
242.997120746615
 34
0.0
100
AcDbRotatedDimension
1001
ACAD
1000
DSTYLE
1002
{
1070
   271
1070
     2
1002
}
  0
LINE
  5
399
330
18
100
AcDbEntity
  8
0
  6
ByBlock
 62
     2
100
AcDbLine
 10
252.1698217644248
 20
239.5903194426191
 30
0.0
 11
252.1698217644249
 21
278.6076993465961
 31
0.0
  0
LINE
  5
39B
330
18
100
AcDbEntity
  8
0
  6
ByBlock
 62
     2
100
AcDbLine
 10
254.6698217644248
 20
277.3576993465961
 30
0.0
 11
436.7347375911368
 21
277.3576993465961
 31
0.0
  0
INSERT
  5
39C
330
18
100
AcDbEntity
  8
0
  6
ByBlock
 62
     2
100
AcDbBlockReference
  2
_OPEN
 10
252.1698217644249
 20
277.3576993465961
 30
0.0
 41
2.5
 42
2.5
 43
2.5
 50
180.0
  0
INSERT
  5
39D
330
18
100
AcDbEntity
  8
0
  6
ByBlock
 62
     2
100
AcDbBlockReference
  2
_OPEN
 10
439.2347375911368
 20
277.3576993465961
 30
0.0
 41
2.5
 42
2.5
 43
2.5
  0
POINT
  5
39F
330
18
100
AcDbEntity
  8
DEFPOINTS
  6
ByBlock
 62
     0
100
AcDbPoint
 10
252.1698217644248
 20
239.5903194426191
 30
0.0
  0
POINT
  5
3A7
330
18
100
AcDbEntity
  8
DEFPOINTS
  6
ByBlock
 62
     0
100
AcDbPoint
 10
345.1698217644248
 20
242.997120746615
 30
0.0
  0
TEXT
  5
3F3
330
18
100
AcDbEntity
  8
文字
100
AcDbText
 10
342.4777170251413
 20
278.2309480585935
 30
0.0
 40
2.5
  1
251.5
  7
STYLE3
100
AcDbText
  0
LINE
  5
403
330
18
100
AcDbEntity
  8
外形線
100
AcDbLine
 10
323.6698217644248
 20
238.3903194426192
 30
0.0
 11
323.6698217644248
 21
233.3903194426191
 31
0.0
  0
LINE
  5
404
330
18
100
AcDbEntity
  8
外形線
100
AcDbLine
 10
296.6698217644248
 20
238.3903194426192
 30
0.0
 11
296.6698217644248
 21
233.3903194426191
 31
0.0
  0
LINE
  5
405
330
18
100
AcDbEntity
  8
外形線
100
AcDbLine
 10
296.6698217644248
 20
238.3903194426192
 30
0.0
 11
323.6698217644248
 21
238.3903194426192
 31
0.0
  0
LINE
  5
406
330
18
100
AcDbEntity
  8
外形線
100
AcDbLine
 10
296.6698217644248
 20
233.3903194426191
 30
0.0
 11
323.6698217644248
 21
233.3903194426191
 31
0.0
  0
LINE
  5
427
330
18
100
AcDbEntity
  8
中心線
 48
0.5
100
AcDbLine
 10
430.7347375911367
 20
216.6259280934894
 30
0.0
 11
430.7347375911368
 21
271.6829439072122
 31
0.0
  0
LINE
  5
428
330
18
100
AcDbEntity
  8
外形線
100
AcDbLine
 10
408.7347375911368
 20
231.390319442619
 30
0.0
 11
410.7347375911368
 21
231.390319442619
 31
0.0
  0
LINE
  5
429
330
18
100
AcDbEntity
  8
外形線
100
AcDbLine
 10
408.7347375911368
 20
240.3903194426191
 30
0.0
 11
410.734737591137
 21
240.3903194426191
 31
0.0
  0
LINE
  5
42A
330
18
100
AcDbEntity
  8
外形線
100
AcDbLine
 10
410.7347375911371
 20
249.0903194426191
 30
0.0
 11
410.7347375911368
 21
231.390319442619
 31
0.0
  0
LINE
  5
42B
330
18
100
AcDbEntity
  8
外形線
100
AcDbLine
 10
422.7347375911368
 20
231.390319442619
 30
0.0
 11
422.7347375911367
 21
240.090319442619
 31
0.0
  0
LINE
  5
42C
330
18
100
AcDbEntity
  8
外形線
100
AcDbLine
 10
410.7347375911368
 20
231.390319442619
 30
0.0
 11
422.7347375911368
 21
231.390319442619
 31
0.0
  0
LINE
  5
42D
330
18
100
AcDbEntity
  8
外形線
100
AcDbLine
 10
422.7347375911367
 20
240.090319442619
 30
0.0
 11
437.7347375911368
 21
240.090319442619
 31
0.0
  0
LINE
  5
42E
330
18
100
AcDbEntity
  8
外形線
100
AcDbLine
 10
417.534737591137
 20
255.890319442619
 30
0.0
 11
423.9347375911369
 21
255.890319442619
 31
0.0
  0
ARC
  5
432
330
18
100
AcDbEntity
  8
外形線
100
AcDbCircle
 10
417.534737591137
 20
249.090319442619
 30
0.0
 40
6.799999999999999
100
AcDbArc
 50
90.0
 51
179.9999999999992
  0
LINE
  5
434
330
18
100
AcDbEntity
  8
外形線
100
AcDbLine
 10
411.5347375911371
 20
249.0903194426191
 30
0.0
 11
411.5347375911368
 21
237.590319442619
 31
0.0
  0
ARC
  5
435
330
18
100
AcDbEntity
  8
外形線
100
AcDbCircle
 10
417.534737591137
 20
249.090319442619
 30
0.0
 40
6.0
100
AcDbArc
 50
90.0
 51
179.9999999999992
  0
LINE
  5
436
330
18
100
AcDbEntity
  8
外形線
100
AcDbLine
 10
417.534737591137
 20
255.090319442619
 30
0.0
 11
423.9347375911369
 21
255.0903194426191
 31
0.0
  0
LINE
  5
438
330
18
100
AcDbEntity
  8
外形線
100
AcDbLine
 10
410.7347375911369
 20
237.590319442619
 30
0.0
 11
411.5347375911368
 21
237.590319442619
 31
0.0
  0
INSERT
  5
44F
330
18
100
AcDbEntity
  8
外形線
100
AcDbBlockReference
  2
六角ﾈｼ3
 10
405.7347375911367
 20
235.8903194426191
 30
0.0
  0
LINE
  5
45B
330
18
100
AcDbEntity
  8
外形線
100
AcDbLine
 10
428.9847375911367
 20
263.0903194426192
 30
0.0
 11
432.4847375911367
 21
263.0903194426192
 31
0.0
  0
ARC
  5
45E
330
18
100
AcDbEntity
  8
外形線
100
AcDbCircle
 10
430.7347375911368
 20
262.590319442619
 30
0.0
 40
1.5
100
AcDbArc
 50
19.47122063449332
 51
160.5287793655067
  0
LINE
  5
465
330
18
100
AcDbEntity
  8
外形線
100
AcDbLine
 10
433.2347375911368
 20
221.390319442619
 30
0.0
 11
433.2347375911368
 21
230.8903194426191
 31
0.0
  0
LINE
  5
466
330
18
100
AcDbEntity
  8
外形線
100
AcDbLine
 10
428.2347375911367
 20
221.390319442619
 30
0.0
 11
428.2347375911368
 21
230.8903194426191
 31
0.0
  0
LINE
  5
474
330
18
100
AcDbEntity
  8
外形線
100
AcDbLine
 10
438.9347375911365
 20
243.140319442619
 30
0.0
 11
438.9347375911368
 21
260.0440282408356
 31
0.0
  0
LINE
  5
479
330
18
100
AcDbEntity
  8
外形線
100
AcDbLine
 10
437.7347375911368
 20
231.890319442619
 30
0.0
 11
437.7347375911368
 21
239.190319442619
 31
0.0
  0
LINE
  5
47A
330
18
100
AcDbEntity
  8
外形線
100
AcDbLine
 10
423.7347375911367
 20
231.890319442619
 30
0.0
 11
423.7347375911367
 21
239.190319442619
 31
0.0
  0
LINE
  5
47D
330
18
100
AcDbEntity
  8
外形線
100
AcDbLine
 10
423.7347375911366
 20
239.190319442619
 30
0.0
 11
437.7347375911368
 21
239.190319442619
 31
0.0
  0
LINE
  5
47E
330
18
100
AcDbEntity
  8
外形線
100
AcDbLine
 10
423.7347375911367
 20
231.890319442619
 30
0.0
 11
437.7347375911369
 21
231.890319442619
 31
0.0
  0
LINE
  5
47F
330
18
100
AcDbEntity
  8
外形線
100
AcDbLine
 10
424.2347375911367
 20
239.690319442619
 30
0.0
 11
437.2347375911368
 21
239.690319442619
 31
0.0
  0
LINE
  5
480
330
18
100
AcDbEntity
  8
外形線
100
AcDbLine
 10
424.2347375911367
 20
231.390319442619
 30
0.0
 11
437.2347375911368
 21
231.390319442619
 31
0.0
  0
LINE
  5
481
330
18
100
AcDbEntity
  8
外形線
100
AcDbLine
 10
423.7347375911367
 20
239.190319442619
 30
0.0
 11
424.2347375911367
 21
239.690319442619
 31
0.0
  0
LINE
  5
482
330
18
100
AcDbEntity
  8
外形線
100
AcDbLine
 10
437.2347375911368
 20
239.690319442619
 30
0.0
 11
437.7347375911368
 21
239.190319442619
 31
0.0
  0
LINE
  5
483
330
18
100
AcDbEntity
  8
外形線
100
AcDbLine
 10
423.7347375911367
 20
231.890319442619
 30
0.0
 11
424.2347375911367
 21
231.390319442619
 31
0.0
  0
LINE
  5
484
330
18
100
AcDbEntity
  8
外形線
100
AcDbLine
 10
437.2347375911368
 20
231.390319442619
 30
0.0
 11
437.7347375911368
 21
231.890319442619
 31
0.0
  0
LINE
  5
485
330
18
100
AcDbEntity
  8
外形線
100
AcDbLine
 10
424.2347375911367
 20
231.390319442619
 30
0.0
 11
428.2347375911368
 21
230.8903194426191
 31
0.0
  0
LINE
  5
486
330
18
100
AcDbEntity
  8
外形線
100
AcDbLine
 10
437.2347375911368
 20
231.390319442619
 30
0.0
 11
433.2347375911368
 21
230.8903194426191
 31
0.0
  0
LINE
  5
487
330
18
100
AcDbEntity
  8
外形線
100
AcDbLine
 10
428.2347375911368
 20
230.8903194426191
 30
0.0
 11
433.2347375911368
 21
230.8903194426191
 31
0.0
  0
LINE
  5
488
330
18
100
AcDbEntity
  8
外形線
100
AcDbLine
 10
434.7347375911366
 20
239.690319442619
 30
0.0
 11
434.7347375911367
 21
240.0903194426189
 31
0.0
  0
LINE
  5
489
330
18
100
AcDbEntity
  8
外形線
100
AcDbLine
 10
426.7347375911367
 20
239.690319442619
 30
0.0
 11
426.7347375911367
 21
240.0903194426189
 31
0.0
  0
LINE
  5
48A
330
18
100
AcDbEntity
  8
外形線
100
AcDbLine
 10
423.9347375911367
 20
243.140319442619
 30
0.0
 11
438.9347375911365
 21
243.140319442619
 31
0.0
  0
LINE
  5
48B
330
18
100
AcDbEntity
  8
外形線
100
AcDbLine
 10
437.7347375911369
 20
240.090319442619
 30
0.0
 11
437.7347375911368
 21
243.140319442619
 31
0.0
  0
LINE
  5
48C
330
18
100
AcDbEntity
  8
外形線
100
AcDbLine
 10
423.9347375911367
 20
243.140319442619
 30
0.0
 11
423.9347375911369
 21
259.390319442619
 31
0.0
  0
LINE
  5
48D
330
18
100
AcDbEntity
  8
外形線
100
AcDbLine
 10
422.2347375911367
 20
260.8903194426191
 30
0.0
 11
422.4347375911369
 21
260.890319442619
 31
0.0
  0
LINE
  5
48E
330
18
100
AcDbEntity
  8
外形線
100
AcDbLine
 10
425.1347375911367
 20
240.0903194426191
 30
0.0
 11
425.1347375911367
 21
243.140319442619
 31
0.0
  0
LINE
  5
498
330
18
100
AcDbEntity
  8
外形線
100
AcDbLine
 10
422.2347375911368
 20
260.8903194426191
 30
0.0
 11
422.2347375911367
 21
261.8903194426191
 31
0.0
  0
ARC
  5
49C
330
18
100
AcDbEntity
  8
外形線
100
AcDbCircle
 10
422.4347375911369
 20
259.390319442619
 30
0.0
 40
1.5
100
AcDbArc
 50
359.9999999999992
 51
90.0
  0
LINE
  5
49E
330
18
100
AcDbEntity
  8
外形線
100
AcDbLine
 10
439.2347375911368
 20
260.890319442619
 30
0.0
 11
422.2347375911368
 21
260.8903194426191
 31
0.0
  0
LINE
  5
4A0
330
18
100
AcDbEntity
  8
外形線
100
AcDbLine
 10
439.2347375911368
 20
260.890319442619
 30
0.0
 11
439.2347375911368
 21
261.8903194426191
 31
0.0
  0
LINE
  5
4A3
330
18
100
AcDbEntity
  8
外形線
100
AcDbLine
 10
438.9704992456942
 20
260.2297235790127
 30
0.0
 11
439.2347375911368
 21
260.890319442619
 31
0.0
  0
ARC
  5
4A4
330
18
100
AcDbEntity
  8
外形線
100
AcDbCircle
 10
439.4347375911368
 20
260.0440282408356
 30
0.0
 40
0.5
100
AcDbArc
 50
158.1985905136459
 51
179.999999999999
  0
ARC
  5
4A5
330
18
100
AcDbEntity
  8
外形線
100
AcDbCircle
 10
430.7347375911368
 20
232.3861527759536
 30
0.0
 40
30.70416666666546
100
AcDbArc
 50
73.92857857892979
 51
106.0714214210702
  0
LINE
  5
4A6
330
18
100
AcDbEntity
  8
外形線
100
AcDbLine
 10
432.4847375911367
 20
263.0903194426192
 30
0.0
 11
432.4847375911367
 21
263.0404077937219
 31
0.0
  0
LINE
  5
4A7
330
18
100
AcDbEntity
  8
外形線
100
AcDbLine
 10
428.9847375911367
 20
263.0903194426192
 30
0.0
 11
428.9847375911367
 21
263.0404077937219
 31
0.0
  0
LINE
  5
4A8
330
18
100
AcDbEntity
  8
外形線
100
AcDbLine
 10
428.4847375911366
 20
220.3903194426191
 30
0.0
 11
432.9847375911366
 21
220.390319442619
 31
0.0
  0
LINE
  5
4A9
330
18
100
AcDbEntity
  8
外形線
100
AcDbLine
 10
428.2347375911368
 20
221.3903194426191
 30
0.0
 11
433.2347375911367
 21
221.390319442619
 31
0.0
  0
LINE
  5
4AE
330
18
100
AcDbEntity
  8
外形線
100
AcDbLine
 10
428.4847375911367
 20
220.3903194426191
 30
0.0
 11
428.2347375911367
 21
221.390319442619
 31
0.0
  0
LINE
  5
4AF
330
18
100
AcDbEntity
  8
外形線
100
AcDbLine
 10
432.9847375911366
 20
220.3903194426191
 30
0.0
 11
433.2347375911368
 21
221.390319442619
 31
0.0
  0
ARC
  5
4B0
330
18
100
AcDbEntity
  8
外形線
100
AcDbCircle
 10
430.7347375911367
 20
220.7903194426191
 30
0.0
 40
1.9
100
AcDbArc
 50
192.153197469007
 51
347.8468025309921
  0
LINE
  5
4DE
330
18
100
AcDbEntity
  8
外形線
100
AcDbLine
 10
372.5195436293023
 20
316.2565301470023
 30
0.0
 11
405.7347375911368
 21
316.2565301470023
 31
0.0
  0
LINE
  5
4DF
330
18
100
AcDbEntity
  8
外形線
100
AcDbLine
 10
375.7665859472274
 20
326.2565301470023
 30
0.0
 11
405.7347375911367
 21
326.2565301470023
 31
0.0
  0
LINE
  5
4E3
330
18
100
AcDbEntity
  8
中心線
 48
0.5
100
AcDbLine
 10
430.7347375911368
 20
307.0869308759914
 30
0.0
 11
430.7347375911368
 21
335.426129418013
 31
0.0
  0
LINE
  5
4E6
330
18
100
AcDbEntity
  8
外形線
100
AcDbLine
 10
408.7347375911368
 20
316.7565301470022
 30
0.0
 11
410.7347375911368
 21
316.7565301470022
 31
0.0
  0
LINE
  5
4E7
330
18
100
AcDbEntity
  8
外形線
100
AcDbLine
 10
408.7347375911368
 20
325.7565301470023
 30
0.0
 11
410.734737591137
 21
325.7565301470023
 31
0.0
  0
LINE
  5
4E9
330
18
100
AcDbEntity
  8
外形線
100
AcDbLine
 10
410.7347375911369
 20
325.7565301470023
 30
0.0
 11
410.7347375911368
 21
316.7565301470022
 31
0.0
  0
INSERT
  5
523
330
18
100
AcDbEntity
  8
外形線
100
AcDbBlockReference
  2
六角ﾈｼ
 10
405.7347375911367
 20
321.2565301470023
 30
0.0
  0
LINE
  5
524
330
18
100
AcDbEntity
  8
外形線
100
AcDbLine
 10
405.7347375911367
 20
326.2565301470023
 30
0.0
 11
405.7347375911368
 21
316.2565301470023
 31
0.0
  0
LINE
  5
525
330
18
100
AcDbEntity
  8
外形線
100
AcDbLine
 10
408.2347375911372
 20
321.2565301470023
 30
0.0
 11
405.7347375911368
 21
321.2565301470023
 31
0.0
  0
LINE
  5
526
330
18
100
AcDbEntity
  8
外形線
100
AcDbLine
 10
408.7347375911368
 20
325.7565301470023
 30
0.0
 11
408.7347375911368
 21
316.7565301470022
 31
0.0
  0
LINE
  5
527
330
18
100
AcDbEntity
  8
中心線
 48
0.5
100
AcDbLine
 10
370.6751973063077
 20
321.2565301470022
 30
0.0
 11
416.565432912321
 21
321.2565301470022
 31
0.0
  0
LINE
  5
528
330
18
100
AcDbEntity
  8
外形線
100
AcDbLine
 10
422.2347375911368
 20
332.2565301470023
 30
0.0
 11
439.2347375911366
 21
332.2565301470023
 31
0.0
  0
LINE
  5
529
330
18
100
AcDbEntity
  8
外形線
100
AcDbLine
 10
422.2347375911367
 20
310.2565301470023
 30
0.0
 11
439.2347375911367
 21
310.2565301470023
 31
0.0
  0
LINE
  5
57A
330
18
100
AcDbEntity
  8
寸法線
100
AcDbLine
 10
439.2347375911368
 20
261.8903194426191
 30
0.0
 11
439.2347375911368
 21
278.7690672341446
 31
0.0
  0
LINE
  5
57D
330
18
100
AcDbEntity
  8
0
  6
ByBlock
 62
     2
100
AcDbLine
 10
347.6698217644248
 20
269.3641625426399
 30
0.0
 11
428.2347375911369
 21
269.3641625426399
 31
0.0
  0
INSERT
  5
57E
330
18
100
AcDbEntity
  8
0
  6
ByBlock
 62
     2
100
AcDbBlockReference
  2
_OPEN
 10
345.1698217644248
 20
269.3641625426399
 30
0.0
 41
2.5
 42
2.5
 43
2.5
 50
180.0
  0
INSERT
  5
57F
330
18
100
AcDbEntity
  8
0
  6
ByBlock
 62
     2
100
AcDbBlockReference
  2
_OPEN
 10
430.7347375911368
 20
269.3641625426399
 30
0.0
 41
2.5
 42
2.5
 43
2.5
  0
MTEXT
  5
580
330
18
100
AcDbEntity
  8
0
  6
ByBlock
 62
     6
100
AcDbMText
 10
374.9106108848146
 20
271.2391625426398
 30
0.0
 40
2.5
 41
0.0
 71
     5
 72
     1
  1
150
  7
STYLE3
 73
     1
 44
1.0
  0
POINT
  5
581
330
18
100
AcDbEntity
  8
DEFPOINTS
  6
ByBlock
 62
     0
100
AcDbPoint
 10
345.1698217644248
 20
242.997120746615
 30
0.0
  0
LINE
  5
5A0
330
18
100
AcDbEntity
  8
0
  6
ByBlock
 62
     2
100
AcDbLine
 10
433.2347375911369
 20
269.3641625426399
 30
0.0
 11
436.7347375911368
 21
269.3641625426399
 31
0.0
  0
INSERT
  5
5A1
330
18
100
AcDbEntity
  8
0
  6
ByBlock
 62
     2
100
AcDbBlockReference
  2
_OPEN
 10
430.7347375911368
 20
269.3641625426399
 30
0.0
 41
2.5
 42
2.5
 43
2.5
 50
180.0
  0
INSERT
  5
5A2
330
18
100
AcDbEntity
  8
0
  6
ByBlock
 62
     2
100
AcDbBlockReference
  2
_OPEN
 10
439.2347375911368
 20
269.3641625426399
 30
0.0
 41
2.5
 42
2.5
 43
2.5
  0
MTEXT
  5
5A3
330
18
100
AcDbEntity
  8
0
  6
ByBlock
 62
     6
100
AcDbMText
 10
434.9847375911369
 20
271.2391625426398
 30
0.0
 40
2.5
 41
0.0
 71
     5
 72
     1
  1
\A1;8.5
  7
STYLE3
 73
     1
 44
1.0
  0
DIMENSION
  5
5BE
330
18
100
AcDbEntity
  8
寸法線
100
AcDbDimension
  2
*D4
 10
449.6925558594609
 20
218.890319442619
 30
0.0
 11
447.8175558594609
 21
241.4903194426191
 31
0.0
 70
    32
  1
35～60
 71
     5
 42
45.20000000000002
  3
STYLE3
100
AcDbAlignedDimension
 13
430.7347375911368
 23
264.090319442619
 33
0.0
 14
430.7347375911367
 24
218.890319442619
 34
0.0
 50
90.0
100
AcDbRotatedDimension
1001
ACAD
1000
DSTYLE
1002
{
1070
   271
1070
     2
1002
}
  0
LINE
  5
5D9
330
18
100
AcDbEntity
  8
0
  6
ByBlock
 62
     2
100
AcDbLine
 10
357.4577803429469
 20
238.3903194426191
 30
0.0
 11
357.4577803429469
 21
233.3903194426191
 31
0.0
  0
INSERT
  5
5DA
330
18
100
AcDbEntity
  8
0
  6
ByBlock
 62
     2
100
AcDbBlockReference
  2
_OPEN
 10
357.4577803429469
 20
240.8903194426191
 30
0.0
 41
2.5
 42
2.5
 43
2.5
 50
90.0
  0
INSERT
  5
5DB
330
18
100
AcDbEntity
  8
0
  6
ByBlock
 62
     2
100
AcDbBlockReference
  2
_OPEN
 10
357.4577803429469
 20
230.8903194426191
 30
0.0
 41
2.5
 42
2.5
 43
2.5
 50
270.0
  0
MTEXT
  5
5DC
330
18
100
AcDbEntity
  8
0
  6
ByBlock
 62
     6
100
AcDbMText
 10
355.5827803429469
 20
235.1930300286628
 30
0.0
 40
2.5
 41
0.0
 71
     5
 72
     1
  1
φ10
  7
STYLE3
 11
0.0000000000000001
 21
1.0
 31
0.0
 73
     1
 44
1.0
  0
LINE
  5
5ED
330
18
100
AcDbEntity
  8
0
  6
ByBlock
 62
     2
100
AcDbLine
 10
430.7347375911368
 20
264.090319442619
 30
0.0
 11
391.7267036321968
 21
264.090319442619
 31
0.0
  0
LINE
  5
5EF
330
18
100
AcDbEntity
  8
0
  6
ByBlock
 62
     2
100
AcDbLine
 10
392.9767036321968
 20
261.5903194426191
 30
0.0
 11
392.9767036321968
 21
238.390319442619
 31
0.0
  0
INSERT
  5
5F0
330
18
100
AcDbEntity
  8
0
  6
ByBlock
 62
     2
100
AcDbBlockReference
  2
_OPEN
 10
392.9767036321968
 20
264.090319442619
 30
0.0
 41
2.5
 42
2.5
 43
2.5
 50
90.0
  0
INSERT
  5
5F1
330
18
100
AcDbEntity
  8
0
  6
ByBlock
 62
     2
100
AcDbBlockReference
  2
_OPEN
 10
392.9767036321968
 20
235.890319442619
 30
0.0
 41
2.5
 42
2.5
 43
2.5
 50
270.0
  0
MTEXT
  5
5F2
330
18
100
AcDbEntity
  8
0
  6
ByBlock
 62
     6
100
AcDbMText
 10
391.1017036321968
 20
249.990319442619
 30
0.0
 40
2.5
 41
0.0
 71
     5
 72
     1
  1
\A1;28.2
  7
STYLE3
 11
0.0000000000000001
 21
1.0
 31
0.0
 73
     1
 44
1.0
  0
POINT
  5
5F3
330
18
100
AcDbEntity
  8
DEFPOINTS
  6
ByBlock
 62
     0
100
AcDbPoint
 10
430.7347375911368
 20
264.090319442619
 30
0.0
  0
LINE
  5
5F6
330
18
100
AcDbEntity
  8
外形線
100
AcDbLine
 10
422.2347375911367
 20
310.2565301470023
 30
0.0
 11
422.2347375911369
 21
316.8565301470022
 31
0.0
  0
LINE
  5
5F7
330
18
100
AcDbEntity
  8
外形線
100
AcDbLine
 10
439.2347375911367
 20
310.2565301470023
 30
0.0
 11
439.2347375911366
 21
332.2565301470023
 31
0.0
  0
LINE
  5
5FC
330
18
100
AcDbEntity
  8
外形線
100
AcDbLine
 10
422.2347375911367
 20
330.2565301470023
 30
0.0
 11
439.2347375911366
 21
330.2565301470023
 31
0.0
  0
LINE
  5
5FD
330
18
100
AcDbEntity
  8
外形線
100
AcDbLine
 10
422.2347375911368
 20
312.2565301470022
 30
0.0
 11
439.2347375911366
 21
312.2565301470022
 31
0.0
  0
CIRCLE
  5
5FE
330
18
100
AcDbEntity
  8
外形線
100
AcDbCircle
 10
430.7347375911368
 20
321.2565301470022
 30
0.0
 40
4.049999999999999
  0
LINE
  5
5FF
330
18
100
AcDbEntity
  8
外形線
100
AcDbLine
 10
422.2347375911367
 20
325.6565301470022
 30
0.0
 11
425.2347375911369
 21
325.6565301470022
 31
0.0
  0
LINE
  5
600
330
18
100
AcDbEntity
  8
外形線
100
AcDbLine
 10
422.2347375911367
 20
316.8565301470022
 30
0.0
 11
425.2347375911369
 21
316.8565301470022
 31
0.0
  0
LINE
  5
601
330
18
100
AcDbEntity
  8
外形線
100
AcDbLine
 10
425.2347375911369
 20
316.8565301470022
 30
0.0
 11
425.2347375911369
 21
325.6565301470022
 31
0.0
  0
LINE
  5
602
330
18
100
AcDbEntity
  8
外形線
100
AcDbLine
 10
422.2347375911368
 20
325.6565301470022
 30
0.0
 11
422.2347375911368
 21
332.2565301470023
 31
0.0
  0
CIRCLE
  5
603
330
18
100
AcDbEntity
  8
外形線
 62
     4
100
AcDbCircle
 10
430.7347375911368
 20
321.2565301470022
 30
0.0
 40
1.75
  0
CIRCLE
  5
604
330
18
100
AcDbEntity
  8
外形線
 62
     4
100
AcDbCircle
 10
430.7347375911368
 20
321.2565301470022
 30
0.0
 40
1.5
  0
LINE
  5
607
330
18
100
AcDbEntity
  8
外形線
100
AcDbLine
 10
410.7347375911368
 20
325.2565301470022
 30
0.0
 11
425.2347375911369
 21
325.2565301470021
 31
0.0
  0
LINE
  5
608
330
18
100
AcDbEntity
  8
外形線
100
AcDbLine
 10
410.7347375911367
 20
317.2565301470022
 30
0.0
 11
425.2347375911369
 21
317.2565301470023
 31
0.0
  0
CIRCLE
  5
60D
330
18
100
AcDbEntity
  8
外形線
100
AcDbCircle
 10
423.3347375911371
 20
321.2565301470022
 30
0.0
 40
1.0
  0
LINE
  5
60E
330
18
100
AcDbEntity
  8
外形線
 62
     4
100
AcDbLine
 10
423.6932504994658
 20
321.6292747116469
 30
0.0
 11
422.9310874143494
 21
320.8368565287858
 31
0.0
  0
LINE
  5
610
330
18
100
AcDbEntity
  8
外形線
 62
     4
100
AcDbLine
 10
422.9347260255043
 20
321.6412689825551
 30
0.0
 11
423.7383387004875
 21
320.8683388190996
 31
0.0
  0
DIMENSION
  5
61D
330
18
100
AcDbEntity
  8
外形線
100
AcDbDimension
  2
*D5
 10
449.3845060036677
 20
310.2565301470023
 30
0.0
 11
447.5095060036677
 21
321.2565301470024
 31
0.0
 70
    32
 71
     5
 42
21.99999999999994
  3
STYLE3
100
AcDbAlignedDimension
 13
439.2347375911366
 23
332.2565301470023
 33
0.0
 14
439.2347375911367
 24
310.2565301470023
 34
0.0
 50
90.0
100
AcDbRotatedDimension
1001
ACAD
1000
DSTYLE
1002
{
1070
   271
1070
     2
1002
}
  0
DIMENSION
  5
637
330
18
100
AcDbEntity
  8
外形線
100
AcDbDimension
  2
*D6
 10
439.2347375911367
 20
300.9253832398089
 30
0.0
 11
430.7347375911367
 21
302.8003832398089
 31
0.0
 70
    32
 71
     5
 42
16.99999999999994
  3
STYLE3
100
AcDbAlignedDimension
 13
422.2347375911367
 23
310.2565301470023
 33
0.0
 14
439.2347375911367
 24
310.2565301470023
 34
0.0
100
AcDbRotatedDimension
1001
ACAD
1000
DSTYLE
1002
{
1070
   271
1070
     2
1002
}
  0
POINT
  5
66B
330
18
100
AcDbEntity
  8
DEFPOINTS
  6
ByBlock
 62
     0
100
AcDbPoint
 10
430.7347375911368
 20
325.3065301470022
 30
0.0
  0
POINT
  5
66C
330
18
100
AcDbEntity
  8
DEFPOINTS
  6
ByBlock
 62
     0
100
AcDbPoint
 10
430.7347375911368
 20
317.2065301470022
 30
0.0
  0
CIRCLE
  5
66F
330
18
100
AcDbEntity
  8
外形線
100
AcDbCircle
 10
416.2347375911367
 20
250.390319442619
 30
0.0
 40
1.0
  0
LINE
  5
691
330
18
100
AcDbEntity
  8
中心線
 48
0.1
100
AcDbLine
 10
416.2347375911367
 20
252.169814837821
 30
0.0
 11
416.2347375911367
 21
248.6108240474171
 31
0.0
  0
LINE
  5
693
330
18
100
AcDbEntity
  8
中心線
 48
0.1
100
AcDbLine
 10
414.4552421959348
 20
250.3903194426191
 30
0.0
 11
418.0142329863387
 21
250.390319442619
 31
0.0
  0
LINE
  5
695
330
18
100
AcDbEntity
  8
ﾊｯﾁﾝｸ
 62
     4
100
AcDbLine
 10
431.958148430552
 20
231.8989475446643
 30
0.0
 11
430.7347375911368
 21
234.0179572770618
 31
0.0
  0
LINE
  5
696
330
18
100
AcDbEntity
  8
ﾊｯﾁﾝｸ
 62
     4
100
AcDbLine
 10
433.1128489689312
 20
231.8989475446643
 30
0.0
 11
430.7347375911369
 21
236.017957277062
 31
0.0
  0
LINE
  5
697
330
18
100
AcDbEntity
  8
ﾊｯﾁﾝｸ
 62
     4
100
AcDbLine
 10
434.2675495073105
 20
231.8989475446643
 30
0.0
 11
430.7347375911368
 21
238.0179572770618
 31
0.0
  0
LINE
  5
698
330
18
100
AcDbEntity
  8
ﾊｯﾁﾝｸ
 62
     4
100
AcDbLine
 10
435.4222500456897
 20
231.8989475446643
 30
0.0
 11
431.2125745176439
 21
239.1903194426191
 31
0.0
  0
LINE
  5
699
330
18
100
AcDbEntity
  8
ﾊｯﾁﾝｸ
 62
     4
100
AcDbLine
 10
436.5769505840689
 20
231.8989475446643
 30
0.0
 11
432.3672750560232
 21
239.190319442619
 31
0.0
  0
LINE
  5
69A
330
18
100
AcDbEntity
  8
ﾊｯﾁﾝｸ
 62
     4
100
AcDbLine
 10
437.7366325594867
 20
231.890319442619
 30
0.0
 11
433.5219755944024
 21
239.1903194426191
 31
0.0
  0
LINE
  5
69B
330
18
100
AcDbEntity
  8
ﾊｯﾁﾝｸ
 62
     4
100
AcDbLine
 10
437.7347375911368
 20
233.8936016240796
 30
0.0
 11
434.6766761327816
 21
239.1903194426191
 31
0.0
  0
LINE
  5
69C
330
18
100
AcDbEntity
  8
ﾊｯﾁﾝｸ
 62
     4
100
AcDbLine
 10
437.7451359878892
 20
236.6253192714927
 30
0.0
 11
435.0163639991145
 21
231.8989475446642
 31
0.0
  0
LINE
  5
69D
330
18
100
AcDbEntity
  8
ﾊｯﾁﾝｸ
 62
     4
100
AcDbLine
 10
437.7451359878892
 20
238.6253192714927
 30
0.0
 11
433.8616634607352
 21
231.8989475446643
 31
0.0
  0
LINE
  5
69E
330
18
100
AcDbEntity
  8
ﾊｯﾁﾝｸ
 62
     4
100
AcDbLine
 10
436.9166384504018
 20
239.190319442619
 30
0.0
 11
432.7069629223561
 21
231.8989475446643
 31
0.0
  0
LINE
  5
69F
330
18
100
AcDbEntity
  8
ﾊｯﾁﾝｸ
 62
     4
100
AcDbLine
 10
435.7619379120226
 20
239.190319442619
 30
0.0
 11
431.5522623839767
 21
231.8989475446643
 31
0.0
  0
LINE
  5
6A0
330
18
100
AcDbEntity
  8
ﾊｯﾁﾝｸ
 62
     4
100
AcDbLine
 10
434.6072373736434
 20
239.190319442619
 30
0.0
 11
430.7347375911368
 21
232.4829530670182
 31
0.0
  0
LINE
  5
6A1
330
18
100
AcDbEntity
  8
ﾊｯﾁﾝｸ
 62
     4
100
AcDbLine
 10
433.4525368352642
 20
239.190319442619
 30
0.0
 11
430.7347375911366
 21
234.4829530670182
 31
0.0
  0
LINE
  5
6A2
330
18
100
AcDbEntity
  8
ﾊｯﾁﾝｸ
 62
     4
100
AcDbLine
 10
432.297836296885
 20
239.190319442619
 30
0.0
 11
430.7347375911368
 21
236.482953067018
 31
0.0
  0
LINE
  5
6A6
330
18
100
AcDbEntity
  8
ﾊｯﾁﾝｸ
 62
     4
100
AcDbLine
 10
430.8034478921727
 20
231.8989475446644
 30
0.0
 11
430.7347375911367
 21
232.0179572770618
 31
0.0
  0
LINE
  5
6A8
330
18
100
AcDbEntity
  8
ﾊｯﾁﾝｸ
 62
     4
100
AcDbLine
 10
437.7451359878892
 20
234.6253192714927
 30
0.0
 11
436.1710645374939
 21
231.8989475446642
 31
0.0
  0
LINE
  5
6A9
330
18
100
AcDbEntity
  8
ﾊｯﾁﾝｸ
 62
     4
100
AcDbLine
 10
437.7451359878892
 20
232.6253192714928
 30
0.0
 11
437.325765075873
 21
231.8989475446643
 31
0.0
  0
LINE
  5
6AA
330
18
100
AcDbEntity
  8
ﾊｯﾁﾝｸ
 62
     4
100
AcDbLine
 10
437.7451359878892
 20
235.8755910725872
 30
0.0
 11
435.8313766711608
 21
239.190319442619
 31
0.0
  0
LINE
  5
6AB
330
18
100
AcDbEntity
  8
ﾊｯﾁﾝｸ
 62
     4
100
AcDbLine
 10
437.7347375911368
 20
237.8936016240797
 30
0.0
 11
436.9860772095401
 21
239.190319442619
 31
0.0
  0
LINE
  5
6AD
330
18
100
AcDbEntity
  8
ﾊｯﾁﾝｸ
 62
     4
100
AcDbLine
 10
431.1431357585056
 20
239.190319442619
 30
0.0
 11
430.7347375911368
 21
238.4829530670183
 31
0.0
  0
LINE
  5
6E9
330
18
100
AcDbEntity
  8
中心線
100
AcDbLine
 10
423.3347375911372
 20
319.946361968548
 30
0.0
 11
423.3347375911371
 21
322.6469288207344
 31
0.0
  0
LINE
  5
7B1
330
18
100
AcDbEntity
  8
外形線
100
AcDbLine
 10
371.8244220809819
 20
230.8903194426191
 30
0.0
 11
405.7347375911368
 21
230.8903194426191
 31
0.0
  0
LINE
  5
7B4
330
18
100
AcDbEntity
  8
外形線
100
AcDbLine
 10
375.0714645805214
 20
240.8903194426191
 30
0.0
 11
405.7347375911367
 21
240.8903194426191
 31
0.0
  0
LINE
  5
7B5
330
18
100
AcDbEntity
  8
中心線
 48
0.5
100
AcDbLine
 10
472.0857999212459
 20
216.6259280934894
 30
0.0
 11
472.0857999212459
 21
266.4685678820672
 31
0.0
  0
LINE
  5
7B6
330
18
100
AcDbEntity
  8
外形線
100
AcDbLine
 10
465.1857999212459
 20
240.090319442619
 30
0.0
 11
479.0857999212459
 21
240.090319442619
 31
0.0
  0
LINE
  5
7B7
330
18
100
AcDbEntity
  8
外形線
100
AcDbLine
 10
470.3357999212459
 20
263.0903194426192
 30
0.0
 11
473.835799921246
 21
263.0903194426192
 31
0.0
  0
ARC
  5
7B8
330
18
100
AcDbEntity
  8
外形線
100
AcDbCircle
 10
472.0857999212459
 20
262.590319442619
 30
0.0
 40
1.5
100
AcDbArc
 50
19.47122063449332
 51
160.5287793655067
  0
LINE
  5
7B9
330
18
100
AcDbEntity
  8
外形線
100
AcDbLine
 10
474.5857999212459
 20
221.390319442619
 30
0.0
 11
474.5857999212459
 21
230.8903194426191
 31
0.0
  0
LINE
  5
7BA
330
18
100
AcDbEntity
  8
外形線
100
AcDbLine
 10
469.5857999212458
 20
221.390319442619
 30
0.0
 11
469.5857999212459
 21
230.8903194426191
 31
0.0
  0
LINE
  5
7BB
330
18
100
AcDbEntity
  8
外形線
100
AcDbLine
 10
479.0857999212459
 20
231.890319442619
 30
0.0
 11
479.0857999212459
 21
239.190319442619
 31
0.0
  0
LINE
  5
7BC
330
18
100
AcDbEntity
  8
外形線
100
AcDbLine
 10
465.0857999212458
 20
231.890319442619
 30
0.0
 11
465.0857999212458
 21
239.190319442619
 31
0.0
  0
LINE
  5
7BD
330
18
100
AcDbEntity
  8
外形線
100
AcDbLine
 10
465.0857999212457
 20
239.190319442619
 30
0.0
 11
479.0857999212459
 21
239.190319442619
 31
0.0
  0
LINE
  5
7BE
330
18
100
AcDbEntity
  8
外形線
100
AcDbLine
 10
465.0857999212458
 20
231.890319442619
 30
0.0
 11
479.085799921246
 21
231.890319442619
 31
0.0
  0
LINE
  5
7BF
330
18
100
AcDbEntity
  8
外形線
100
AcDbLine
 10
465.5857999212458
 20
239.690319442619
 30
0.0
 11
478.5857999212459
 21
239.690319442619
 31
0.0
  0
LINE
  5
7C0
330
18
100
AcDbEntity
  8
外形線
100
AcDbLine
 10
465.5857999212458
 20
231.390319442619
 30
0.0
 11
478.5857999212459
 21
231.390319442619
 31
0.0
  0
LINE
  5
7C1
330
18
100
AcDbEntity
  8
外形線
100
AcDbLine
 10
465.0857999212458
 20
239.190319442619
 30
0.0
 11
465.5857999212458
 21
239.690319442619
 31
0.0
  0
LINE
  5
7C2
330
18
100
AcDbEntity
  8
外形線
100
AcDbLine
 10
478.5857999212459
 20
239.690319442619
 30
0.0
 11
479.0857999212459
 21
239.190319442619
 31
0.0
  0
LINE
  5
7C3
330
18
100
AcDbEntity
  8
外形線
100
AcDbLine
 10
465.0857999212458
 20
231.890319442619
 30
0.0
 11
465.5857999212458
 21
231.390319442619
 31
0.0
  0
LINE
  5
7C4
330
18
100
AcDbEntity
  8
外形線
100
AcDbLine
 10
478.5857999212459
 20
231.390319442619
 30
0.0
 11
479.0857999212459
 21
231.890319442619
 31
0.0
  0
LINE
  5
7C5
330
18
100
AcDbEntity
  8
外形線
100
AcDbLine
 10
465.5857999212458
 20
231.390319442619
 30
0.0
 11
469.5857999212459
 21
230.8903194426191
 31
0.0
  0
LINE
  5
7C6
330
18
100
AcDbEntity
  8
外形線
100
AcDbLine
 10
478.5857999212459
 20
231.390319442619
 30
0.0
 11
474.5857999212459
 21
230.8903194426191
 31
0.0
  0
LINE
  5
7C7
330
18
100
AcDbEntity
  8
外形線
100
AcDbLine
 10
469.5857999212459
 20
230.8903194426191
 30
0.0
 11
474.5857999212459
 21
230.8903194426191
 31
0.0
  0
LINE
  5
7C8
330
18
100
AcDbEntity
  8
外形線
100
AcDbLine
 10
476.0857999212458
 20
239.690319442619
 30
0.0
 11
476.0857999212459
 21
240.0903194426189
 31
0.0
  0
LINE
  5
7C9
330
18
100
AcDbEntity
  8
外形線
100
AcDbLine
 10
468.0857999212459
 20
239.690319442619
 30
0.0
 11
468.0857999212459
 21
240.0903194426189
 31
0.0
  0
LINE
  5
7CA
330
18
100
AcDbEntity
  8
外形線
100
AcDbLine
 10
463.8357999212458
 20
243.140319442619
 30
0.0
 11
480.335799921246
 21
243.1403194426191
 31
0.0
  0
LINE
  5
7CB
330
18
100
AcDbEntity
  8
外形線
100
AcDbLine
 10
473.835799921246
 20
263.0903194426192
 30
0.0
 11
473.8357999212459
 21
263.0404077937219
 31
0.0
  0
LINE
  5
7CC
330
18
100
AcDbEntity
  8
外形線
100
AcDbLine
 10
470.3357999212459
 20
263.0903194426192
 30
0.0
 11
470.3357999212459
 21
263.0404077937219
 31
0.0
  0
LINE
  5
7CD
330
18
100
AcDbEntity
  8
外形線
100
AcDbLine
 10
469.8357999212458
 20
220.3903194426191
 30
0.0
 11
474.3357999212458
 21
220.390319442619
 31
0.0
  0
LINE
  5
7CE
330
18
100
AcDbEntity
  8
外形線
100
AcDbLine
 10
469.5857999212459
 20
221.3903194426191
 30
0.0
 11
474.5857999212458
 21
221.390319442619
 31
0.0
  0
LINE
  5
7CF
330
18
100
AcDbEntity
  8
外形線
100
AcDbLine
 10
469.8357999212459
 20
220.3903194426191
 30
0.0
 11
469.5857999212458
 21
221.390319442619
 31
0.0
  0
LINE
  5
7D0
330
18
100
AcDbEntity
  8
外形線
100
AcDbLine
 10
474.3357999212458
 20
220.3903194426191
 30
0.0
 11
474.5857999212459
 21
221.390319442619
 31
0.0
  0
ARC
  5
7D1
330
18
100
AcDbEntity
  8
外形線
100
AcDbCircle
 10
472.0857999212459
 20
220.7903194426191
 30
0.0
 40
1.9
100
AcDbArc
 50
192.153197469007
 51
347.8468025309921
  0
POINT
  5
7D2
330
18
100
AcDbEntity
  8
DEFPOINTS
  6
ByBlock
 62
     0
100
AcDbPoint
 10
472.0857999212459
 20
264.090319442619
 30
0.0
  0
LINE
  5
7D3
330
18
100
AcDbEntity
  8
ﾊｯﾁﾝｸ
 62
     4
100
AcDbLine
 10
473.3092107606611
 20
231.8989475446643
 30
0.0
 11
472.0857999212459
 21
234.0179572770618
 31
0.0
  0
LINE
  5
7D4
330
18
100
AcDbEntity
  8
ﾊｯﾁﾝｸ
 62
     4
100
AcDbLine
 10
474.4639112990404
 20
231.8989475446643
 30
0.0
 11
472.085799921246
 21
236.017957277062
 31
0.0
  0
LINE
  5
7D5
330
18
100
AcDbEntity
  8
ﾊｯﾁﾝｸ
 62
     4
100
AcDbLine
 10
475.6186118374196
 20
231.8989475446643
 30
0.0
 11
472.0857999212459
 21
238.0179572770618
 31
0.0
  0
LINE
  5
7D6
330
18
100
AcDbEntity
  8
ﾊｯﾁﾝｸ
 62
     4
100
AcDbLine
 10
476.7733123757988
 20
231.8989475446643
 30
0.0
 11
472.563636847753
 21
239.1903194426191
 31
0.0
  0
LINE
  5
7D7
330
18
100
AcDbEntity
  8
ﾊｯﾁﾝｸ
 62
     4
100
AcDbLine
 10
477.928012914178
 20
231.8989475446643
 30
0.0
 11
473.7183373861324
 21
239.190319442619
 31
0.0
  0
LINE
  5
7D8
330
18
100
AcDbEntity
  8
ﾊｯﾁﾝｸ
 62
     4
100
AcDbLine
 10
479.0876948895959
 20
231.890319442619
 30
0.0
 11
474.8730379245115
 21
239.1903194426191
 31
0.0
  0
LINE
  5
7D9
330
18
100
AcDbEntity
  8
ﾊｯﾁﾝｸ
 62
     4
100
AcDbLine
 10
479.0857999212459
 20
233.8936016240796
 30
0.0
 11
476.0277384628907
 21
239.1903194426191
 31
0.0
  0
LINE
  5
7DA
330
18
100
AcDbEntity
  8
ﾊｯﾁﾝｸ
 62
     4
100
AcDbLine
 10
479.0961983179983
 20
236.6253192714927
 30
0.0
 11
476.3674263292236
 21
231.8989475446642
 31
0.0
  0
LINE
  5
7DB
330
18
100
AcDbEntity
  8
ﾊｯﾁﾝｸ
 62
     4
100
AcDbLine
 10
479.0961983179983
 20
238.6253192714927
 30
0.0
 11
475.2127257908443
 21
231.8989475446643
 31
0.0
  0
LINE
  5
7DC
330
18
100
AcDbEntity
  8
ﾊｯﾁﾝｸ
 62
     4
100
AcDbLine
 10
478.2677007805109
 20
239.190319442619
 30
0.0
 11
474.0580252524652
 21
231.8989475446643
 31
0.0
  0
LINE
  5
7DD
330
18
100
AcDbEntity
  8
ﾊｯﾁﾝｸ
 62
     4
100
AcDbLine
 10
477.1130002421317
 20
239.190319442619
 30
0.0
 11
472.9033247140858
 21
231.8989475446643
 31
0.0
  0
LINE
  5
7DE
330
18
100
AcDbEntity
  8
ﾊｯﾁﾝｸ
 62
     4
100
AcDbLine
 10
475.9582997037525
 20
239.190319442619
 30
0.0
 11
472.0857999212459
 21
232.4829530670182
 31
0.0
  0
LINE
  5
7DF
330
18
100
AcDbEntity
  8
ﾊｯﾁﾝｸ
 62
     4
100
AcDbLine
 10
474.8035991653734
 20
239.190319442619
 30
0.0
 11
472.0857999212458
 21
234.4829530670182
 31
0.0
  0
LINE
  5
7E0
330
18
100
AcDbEntity
  8
ﾊｯﾁﾝｸ
 62
     4
100
AcDbLine
 10
473.6488986269941
 20
239.190319442619
 30
0.0
 11
472.0857999212459
 21
236.482953067018
 31
0.0
  0
LINE
  5
7E1
330
18
100
AcDbEntity
  8
ﾊｯﾁﾝｸ
 62
     4
100
AcDbLine
 10
472.1545102222818
 20
231.8989475446644
 30
0.0
 11
472.0857999212459
 21
232.0179572770618
 31
0.0
  0
LINE
  5
7E2
330
18
100
AcDbEntity
  8
ﾊｯﾁﾝｸ
 62
     4
100
AcDbLine
 10
479.0961983179983
 20
234.6253192714927
 30
0.0
 11
477.522126867603
 21
231.8989475446642
 31
0.0
  0
LINE
  5
7E3
330
18
100
AcDbEntity
  8
ﾊｯﾁﾝｸ
 62
     4
100
AcDbLine
 10
479.0961983179983
 20
232.6253192714928
 30
0.0
 11
478.6768274059822
 21
231.8989475446643
 31
0.0
  0
LINE
  5
7E4
330
18
100
AcDbEntity
  8
ﾊｯﾁﾝｸ
 62
     4
100
AcDbLine
 10
479.0961983179983
 20
235.8755910725872
 30
0.0
 11
477.1824390012699
 21
239.190319442619
 31
0.0
  0
LINE
  5
7E5
330
18
100
AcDbEntity
  8
ﾊｯﾁﾝｸ
 62
     4
100
AcDbLine
 10
479.0857999212459
 20
237.8936016240797
 30
0.0
 11
478.3371395396493
 21
239.190319442619
 31
0.0
  0
LINE
  5
7E6
330
18
100
AcDbEntity
  8
ﾊｯﾁﾝｸ
 62
     4
100
AcDbLine
 10
472.4941980886147
 20
239.190319442619
 30
0.0
 11
472.0857999212459
 21
238.4829530670183
 31
0.0
  0
LINE
  5
7E8
330
18
100
AcDbEntity
  8
中心線
 48
0.5
100
AcDbLine
 10
461.3100495774903
 20
235.890319442619
 30
0.0
 11
483.1755387925912
 21
235.890319442619
 31
0.0
  0
LINE
  5
7FB
330
18
100
AcDbEntity
  8
外形線
100
AcDbLine
 10
469.185799921246
 20
261.390319442619
 30
0.0
 11
474.9857999212458
 21
261.390319442619
 31
0.0
  0
LINE
  5
7FC
330
18
100
AcDbEntity
  8
外形線
100
AcDbLine
 10
470.3357999212459
 20
261.3903194426189
 30
0.0
 11
470.335799921246
 21
263.0903194426192
 31
0.0
  0
LINE
  5
7FD
330
18
100
AcDbEntity
  8
外形線
100
AcDbLine
 10
473.835799921246
 20
261.390319442619
 30
0.0
 11
473.835799921246
 21
263.0903194426192
 31
0.0
  0
ARC
  5
800
330
18
100
AcDbEntity
  8
外形線
100
AcDbCircle
 10
469.185799921246
 20
260.390319442619
 30
0.0
 40
1.0
100
AcDbArc
 50
90.0
 51
165.5224878140697
  0
ARC
  5
801
330
18
100
AcDbEntity
  8
外形線
100
AcDbCircle
 10
474.9857999212458
 20
260.390319442619
 30
0.0
 40
1.0
100
AcDbArc
 50
14.47751218593027
 51
90.0
  0
ARC
  5
803
330
18
100
AcDbEntity
  8
外形線
100
AcDbCircle
 10
472.0857999212459
 20
253.390319442619
 30
0.0
 40
1.25
100
AcDbArc
 50
0.0
 51
180.0
  0
LINE
  5
804
330
18
100
AcDbEntity
  8
中心線
 48
0.2
100
AcDbLine
 10
469.185799921246
 20
249.390319442619
 30
0.0
 11
474.9857999212458
 21
249.390319442619
 31
0.0
  0
LINE
  5
806
330
18
100
AcDbEntity
  8
外形線
100
AcDbLine
 10
470.8357999212459
 20
253.390319442619
 30
0.0
 11
470.8357999212459
 21
249.390319442619
 31
0.0
  0
LINE
  5
807
330
18
100
AcDbEntity
  8
外形線
100
AcDbLine
 10
473.3357999212459
 20
253.390319442619
 30
0.0
 11
473.3357999212459
 21
249.390319442619
 31
0.0
  0
CIRCLE
  5
809
330
18
100
AcDbEntity
  8
外形線
100
AcDbCircle
 10
472.0857999212459
 20
249.390319442619
 30
0.0
 40
1.25
  0
LINE
  5
80A
330
18
100
AcDbEntity
  8
外形線
100
AcDbLine
 10
472.9696833977291
 20
250.2742029191022
 30
0.0
 11
471.2019164447627
 21
248.5064359661358
 31
0.0
  0
LINE
  5
81C
330
18
100
AcDbEntity
  8
外形線
100
AcDbLine
 10
463.8357999212458
 20
243.140319442619
 30
0.0
 11
463.8357999212459
 21
257.1403194426189
 31
0.0
  0
LINE
  5
81D
330
18
100
AcDbEntity
  8
外形線
100
AcDbLine
 10
480.335799921246
 20
243.140319442619
 30
0.0
 11
480.3357999212459
 21
257.1403194426189
 31
0.0
  0
LINE
  5
81E
330
18
100
AcDbEntity
  8
外形線
100
AcDbLine
 10
461.085799921246
 20
259.140319442619
 30
0.0
 11
461.085799921246
 21
261.140319442619
 31
0.0
  0
LINE
  5
81F
330
18
100
AcDbEntity
  8
外形線
100
AcDbLine
 10
483.085799921246
 20
259.140319442619
 30
0.0
 11
483.085799921246
 21
261.140319442619
 31
0.0
  0
LINE
  5
821
330
18
100
AcDbEntity
  8
外形線
100
AcDbLine
 10
463.085799921246
 20
260.640319442619
 30
0.0
 11
481.085799921246
 21
260.640319442619
 31
0.0
  0
LINE
  5
823
330
18
100
AcDbEntity
  8
外形線
100
AcDbLine
 10
463.085799921246
 20
260.6403194426189
 30
0.0
 11
463.0857999212459
 21
262.5545330049921
 31
0.0
  0
LINE
  5
824
330
18
100
AcDbEntity
  8
外形線
100
AcDbLine
 10
481.0857999212459
 20
260.640319442619
 30
0.0
 11
481.0857999212459
 21
262.5545330049921
 31
0.0
  0
LINE
  5
826
330
18
100
AcDbEntity
  8
外形線
100
AcDbLine
 10
461.085799921246
 20
259.1403194426189
 30
0.0
 11
483.085799921246
 21
259.1403194426189
 31
0.0
  0
ARC
  5
827
330
18
100
AcDbEntity
  8
外形線
100
AcDbCircle
 10
461.8357999212459
 20
257.1403194426189
 30
0.0
 40
2.0
100
AcDbArc
 50
359.9999999999998
 51
89.99999999999955
  0
ARC
  5
828
330
18
100
AcDbEntity
  8
外形線
100
AcDbCircle
 10
482.335799921246
 20
257.1403194426189
 30
0.0
 40
2.0
100
AcDbArc
 50
90.00000000000046
 51
180.0000000000004
  0
ARC
  5
82E
330
18
100
AcDbEntity
  8
外形線
100
AcDbCircle
 10
462.585799921246
 20
261.140319442619
 30
0.0
 40
1.5
100
AcDbArc
 50
70.52877936551428
 51
180.0
  0
ARC
  5
82F
330
18
100
AcDbEntity
  8
外形線
100
AcDbCircle
 10
481.585799921246
 20
261.140319442619
 30
0.0
 40
1.5
100
AcDbArc
 50
0.0
 51
109.4712206344905
  0
ARC
  5
831
330
18
100
AcDbEntity
  8
外形線
100
AcDbCircle
 10
462.585799921246
 20
260.010319442619
 30
0.0
 40
1.5
100
AcDbArc
 50
70.52877936551428
 51
180.0
  0
ARC
  5
832
330
18
100
AcDbEntity
  8
外形線
100
AcDbCircle
 10
481.585799921246
 20
260.010319442619
 30
0.0
 40
1.5
100
AcDbArc
 50
0.0
 51
109.4712206344905
  0
LINE
  5
836
330
18
100
AcDbEntity
  8
外形線
100
AcDbLine
 10
465.1857999212459
 20
240.090319442619
 30
0.0
 11
465.185799921246
 21
243.140319442619
 31
0.0
  0
LINE
  5
837
330
18
100
AcDbEntity
  8
外形線
100
AcDbLine
 10
478.9857999212459
 20
240.090319442619
 30
0.0
 11
478.9857999212459
 21
243.1403194426191
 31
0.0
  0
SPLINE
  5
874
330
18
100
AcDbEntity
  8
寸法線
100
AcDbSpline
210
0.0
220
0.0
230
1.0
 70
     8
 71
     3
 72
    11
 73
     7
 74
     0
 42
0.0000000001
 43
0.0000000001
 40
5.402624530081186
 40
5.402624530081186
 40
5.402624530081186
 40
5.402624530081186
 40
7.017882561639436
 40
10.36094023867079
 40
14.42667205030958
 40
15.17621735588277
 40
15.17621735588277
 40
15.17621735588277
 40
15.17621735588277
 10
375.7665859472273
 20
326.2565301470022
 30
0.0
 10
375.0811669400044
 20
325.3936468143511
 30
0.0
 10
376.8824685881206
 20
323.6443557321482
 30
0.0
 10
372.8551853607396
 20
321.2234704587834
 30
0.0
 10
374.8871837674021
 20
317.6857573676281
 30
0.0
 10
372.8009654132578
 20
316.754958636718
 30
0.0
 10
372.5195434432039
 20
316.2565301390608
 30
0.0
  0
SPLINE
  5
875
330
18
100
AcDbEntity
  8
寸法線
100
AcDbSpline
210
0.0
220
0.0
230
1.0
 70
     8
 71
     3
 72
    11
 73
     7
 74
     0
 42
0.0000000001
 43
0.0000000001
 40
5.402624530081186
 40
5.402624530081186
 40
5.402624530081186
 40
5.402624530081186
 40
7.017882561639436
 40
10.36094023867079
 40
14.42667205030958
 40
15.17621735588277
 40
15.17621735588277
 40
15.17621735588277
 40
15.17621735588277
 10
375.0714645805213
 20
240.890319442619
 30
0.0
 10
374.3860455732984
 20
240.0274361099678
 30
0.0
 10
376.1873472214146
 20
238.278145027765
 30
0.0
 10
372.1600639940336
 20
235.8572597544002
 30
0.0
 10
374.1920624006961
 20
232.3195466632449
 30
0.0
 10
372.1058440465518
 20
231.3887479323347
 30
0.0
 10
371.8244220764979
 20
230.8903194346775
 30
0.0
  0
SPLINE
  5
876
330
18
100
AcDbEntity
  8
寸法線
100
AcDbSpline
210
0.0
220
0.0
230
1.0
 70
     8
 71
     3
 72
    11
 73
     7
 74
     0
 42
0.0000000001
 43
0.0000000001
 40
5.402624530081186
 40
5.402624530081186
 40
5.402624530081186
 40
5.402624530081186
 40
7.017882561639436
 40
10.36094023867079
 40
14.42667205030958
 40
15.17621735588277
 40
15.17621735588277
 40
15.17621735588277
 40
15.17621735588277
 10
372.6915468569135
 20
240.890319442619
 30
0.0
 10
372.0061278496907
 20
240.0274361099678
 30
0.0
 10
373.8074294978068
 20
238.278145027765
 30
0.0
 10
369.7801462704258
 20
235.8572597544002
 30
0.0
 10
371.8121446770883
 20
232.3195466632449
 30
0.0
 10
369.725926322944
 20
231.3887479323347
 30
0.0
 10
369.4445043528901
 20
230.8903194346775
 30
0.0
  0
DIMENSION
  5
877
330
18
100
AcDbEntity
  8
外形線
100
AcDbDimension
  2
*D7
 10
252.1698217644248
 20
269.3641625426399
 30
0.0
 11
263.6698217644248
 21
271.2391625426398
 31
0.0
 70
    32
 71
     5
 42
23.0
  3
STYLE3
100
AcDbAlignedDimension
 13
275.1698217644248
 23
241.8903194426192
 33
0.0
 14
252.1698217644248
 24
240.5903194426191
 34
0.0
100
AcDbRotatedDimension
1001
ACAD
1000
DSTYLE
1002
{
1070
   271
1070
     2
1070
   341
1005
0
1002
}
  0
LINE
  5
885
330
18
100
AcDbEntity
  8
中心線
 48
0.5
100
AcDbLine
 10
416.565432912321
 20
321.2565301470022
 30
0.0
 11
444.9043368621476
 21
321.2565301470022
 31
0.0
  0
LINE
  5
8BB
330
18
100
AcDbEntity
  8
外形線
100
AcDbLine
 10
306.0608329686496
 20
353.0345657950237
 30
0.0
 11
399.0608329686496
 21
353.0345657950237
 31
0.0
  0
LINE
  5
8BC
330
18
100
AcDbEntity
  8
外形線
100
AcDbLine
 10
306.0608329686496
 20
354.0345657950236
 30
0.0
 11
399.0608329686496
 21
354.0345657950236
 31
0.0
  0
TEXT
  5
8BD
330
18
100
AcDbEntity
  8
文字
100
AcDbText
 10
306.4426729686496
 20
356.4944467950236
 30
0.0
 40
4.0
  1
Model No.CC-2 Cylinder Gauge
  7
STYLE3
100
AcDbText
  0
LINE
  5
8BE
330
18
100
AcDbEntity
  8
外形線
100
AcDbLine
 10
350.6712219686496
 20
172.4436487950236
 30
0.0
 11
350.6712219686496
 21
192.8386327950236
 31
0.0
  0
TEXT
  5
8BF
330
18
100
AcDbEntity
  8
0
  6
Continuous
100
AcDbText
 10
352.1286899686496
 20
183.9564177950236
 30
0.0
 40
2.1
  1
Design and specifications are subject to change without notice for future improvement.
  7
STYLE3
100
AcDbText
  0
TEXT
  5
8C0
330
18
100
AcDbEntity
  8
0
  6
Continuous
100
AcDbText
 10
395.4414669686496
 20
175.9399327950236
 30
0.0
 40
2.399999999999999
  1
mm
  7
STYLE3
100
AcDbText
  0
LINE
  5
8C1
330
18
100
AcDbEntity
  8
外形線
100
AcDbLine
 10
350.6712219686496
 20
182.0584267950236
 30
0.0
 11
491.4626399686495
 21
182.0584267950236
 31
0.0
  0
TEXT
  5
8C2
330
18
100
AcDbEntity
  8
0
  6
Continuous
100
AcDbText
 10
351.8371979686496
 20
174.1917897950236
 30
0.0
 40
2.1
  1
3RD Angle Projection
  7
STYLE3
100
AcDbText
  0
TEXT
  5
8C3
330
18
100
AcDbEntity
  8
0
  6
Continuous
100
AcDbText
 10
354.4606409686496
 20
177.6880727950236
 30
0.0
 40
3.0
  1
三　　角　　法
  7
STYLE3
100
AcDbText
  0
TEXT
  5
8C4
330
18
100
AcDbEntity
  8
0
  6
Continuous
100
AcDbText
 10
387.3994189686496
 20
177.6940267950236
 30
0.0
 40
3.0
  1
単位
  7
STYLE3
100
AcDbText
  0
TEXT
  5
8C5
330
18
100
AcDbEntity
  8
0
  6
Continuous
100
AcDbText
 10
387.5711399686496
 20
174.1917907950236
 30
0.0
 40
2.1
  1
Unit
  7
STYLE3
100
AcDbText
  0
LINE
  5
8C6
330
18
100
AcDbEntity
  8
外形線
100
AcDbLine
 10
385.9419499686496
 20
182.0584267950236
 30
0.0
 11
385.9419499686496
 21
172.4436487950236
 31
0.0
  0
TEXT
  5
8C7
330
18
100
AcDbEntity
  8
0
  6
Continuous
100
AcDbText
 10
454.0429519686496
 20
177.9794297950236
 30
0.0
 40
3.0
  1
株式会社　尾崎製作所
  7
STYLE3
100
AcDbText
  0
TEXT
  5
8C8
330
18
100
AcDbEntity
  8
0
  6
Continuous
100
AcDbText
 10
454.9174309686495
 20
174.1917897950236
 30
0.0
 40
2.1
  1
OZAKI MFG. CO., LTD.
  7
STYLE3
100
AcDbText
  0
TEXT
  5
8C9
330
18
100
AcDbEntity
  8
0
  6
Continuous
100
AcDbText
 10
433.6383979686496
 20
175.9399317950236
 30
0.0
 40
2.1
  1
2010.06.23
  7
STYLE3
100
AcDbText
  0
TEXT
  5
8CA
330
18
100
AcDbEntity
  8
0
  6
Continuous
100
AcDbText
 10
414.7998189686496
 20
176.2312897950236
 30
0.0
 40
2.399999999999999
  1
1/1
  7
STYLE3
100
AcDbText
  0
TEXT
  5
8CB
330
18
100
AcDbEntity
  8
0
  6
Continuous
100
AcDbText
 10
404.7173149686495
 20
177.4026697950236
 30
0.0
 40
3.0
  1
尺 度
  7
STYLE3
100
AcDbText
  0
TEXT
  5
8CC
330
18
100
AcDbEntity
  8
0
  6
Continuous
100
AcDbText
 10
405.1805299686495
 20
174.4831477950236
 30
0.0
 40
2.1
  1
Scale
  7
STYLE3
100
AcDbText
  0
LINE
  5
8CD
330
18
100
AcDbEntity
  8
外形線
100
AcDbLine
 10
403.4315679686495
 20
182.0584267950236
 30
0.0
 11
403.4315679686495
 21
172.4436487950236
 31
0.0
  0
TEXT
  5
8CE
330
18
100
AcDbEntity
  8
0
  6
Continuous
100
AcDbText
 10
424.8935909686496
 20
174.1917917950236
 30
0.0
 40
2.1
  1
Date
  7
STYLE3
100
AcDbText
  0
TEXT
  5
8CF
330
18
100
AcDbEntity
  8
0
  6
Continuous
100
AcDbText
 10
424.5102299686496
 20
177.5248747950236
 30
0.0
 40
3.0
  1
日 付
  7
STYLE3
100
AcDbText
  0
LINE
  5
8D0
330
18
100
AcDbEntity
  8
外形線
100
AcDbLine
 10
422.9616399686496
 20
182.0584267950236
 30
0.0
 11
422.9616399686496
 21
172.4436487950236
 31
0.0
  0
LINE
  5
8D1
330
18
100
AcDbEntity
  8
外形線
100
AcDbLine
 10
452.6939889686495
 20
182.0584267950236
 30
0.0
 11
452.6939889686495
 21
172.4436487950236
 31
0.0
  0
LINE
  5
8D2
330
18
100
AcDbEntity
  8
外形線
100
AcDbLine
 10
350.6712219686496
 20
192.8386327950236
 30
0.0
 11
491.4626399686495
 21
192.8386327950236
 31
0.0
  0
TEXT
  5
8D3
330
18
100
AcDbEntity
  8
0
  6
Continuous
100
AcDbText
 10
352.4201839686496
 20
187.8855657950236
 30
0.0
 40
3.5
  1
仕様及び外観は予告なく変更される場合がございますのでご了承下さい。
  7
STYLE3
100
AcDbText
  0
ENDSEC
  0
SECTION
  2
OBJECTS
  0
DICTIONARY
  5
C
330
0
100
AcDbDictionary
281
     1
  3
ACAD_COLOR
350
757
  3
ACAD_GROUP
350
D
  3
ACAD_LAYOUT
350
75A
  3
ACAD_MATERIAL
350
756
  3
ACAD_MLINESTYLE
350
1B
  3
ACAD_PLOTSETTINGS
350
75B
  3
ACAD_PLOTSTYLENAME
350
754
  3
ACAD_TABLESTYLE
350
758
  3
ACDBVARIABLEDICTIONARY
350
192
  0
DICTIONARY
  5
7B2
330
18
100
AcDbDictionary
280
     1
281
     1
  3
ACAD_SORTENTS
360
7B3
  0
DICTIONARY
  5
757
102
{ACAD_REACTORS
330
C
102
}
330
C
100
AcDbDictionary
281
     1
  0
DICTIONARY
  5
D
102
{ACAD_REACTORS
330
C
102
}
330
C
100
AcDbDictionary
281
     1
  0
DICTIONARY
  5
75A
102
{ACAD_REACTORS
330
C
102
}
330
C
100
AcDbDictionary
281
     1
  3
Model
350
75C
  3
レイアウト1
350
75D
  0
DICTIONARY
  5
756
102
{ACAD_REACTORS
330
C
102
}
330
C
100
AcDbDictionary
281
     1
  0
DICTIONARY
  5
1B
102
{ACAD_REACTORS
330
C
102
}
330
C
100
AcDbDictionary
281
     1
  3
STANDARD
350
1C
  0
DICTIONARY
  5
75B
102
{ACAD_REACTORS
330
C
102
}
330
C
100
AcDbDictionary
281
     1
  0
ACDBDICTIONARYWDFLT
  5
754
102
{ACAD_REACTORS
330
C
102
}
330
C
100
AcDbDictionary
281
     1
  3
Normal
350
755
100
AcDbDictionaryWithDefault
340
755
  0
DICTIONARY
  5
758
102
{ACAD_REACTORS
330
C
102
}
330
C
100
AcDbDictionary
281
     1
  3
Standard
350
759
  0
DICTIONARY
  5
192
102
{ACAD_REACTORS
330
C
102
}
330
C
100
AcDbDictionary
281
     1
  3
CTABLESTYLE
350
7EA
  3
SORTENTS
350
193
  0
SORTENTSTABLE
  5
7B3
102
{ACAD_REACTORS
330
7B2
102
}
330
7B2
100
AcDbSortentsTable
330
18
331
7B9
  5
7D0
331
800
  5
7CD
331
7C1
  5
7D8
331
66B
  5
691
331
5FC
  5
5FF
331
693
  5
697
331
7C9
  5
7E1
331
117
  5
117
331
604
  5
60D
331
877
  5
884
331
11F
  5
11F
331
410
  5
428
331
144
  5
144
331
4AE
  5
4B0
331
341
  5
39B
331
14C
  5
14C
331
57D
  5
580
331
428
  5
42A
331
399
  5
39C
331
1C3
  5
1C3
331
4DE
  5
4E3
331
282
  5
2E0
331
16C
  5
16C
331
47F
  5
481
331
4E6
  5
4E9
331
7D1
  5
802
331
69B
  5
69E
331
828
  5
7FA
331
7D9
  5
81A
331
7E1
  5
824
331
6AB
  5
6EC
331
438
  5
45B
331
2E2
  5
2E4
331
125
  5
125
331
487
  5
489
331
253
  5
255
331
12D
  5
12D
331
17C
  5
17C
331
2EA
  5
2ED
331
135
  5
135
331
184
  5
184
331
526
  5
528
331
13D
  5
13D
331
263
  5
265
331
4A7
  5
4A9
331
7BA
  5
7D1
331
5ED
  5
5F1
331
801
  5
7C7
331
7C2
  5
7D9
331
66C
  5
693
331
7CA
  5
7E6
331
809
  5
82F
331
5FD
  5
600
331
118
  5
118
331
145
  5
145
331
26B
  5
273
331
14D
  5
14D
331
273
  5
275
331
4AF
  5
4DE
331
57E
  5
581
331
429
  5
42B
331
1C4
  5
24E
331
4DF
  5
4E6
331
16D
  5
16D
331
283
  5
2E2
331
4E7
  5
523
331
821
  5
7FB
331
7D2
  5
803
331
60D
  5
61D
331
69C
  5
69F
331
7DA
  5
81B
331
7E2
  5
825
331
831
  5
837
331
5BE
  5
5DB
331
61D
  5
66C
331
126
  5
126
331
175
  5
175
331
2E3
  5
2E5
331
480
  5
482
331
488
  5
48A
331
12E
  5
12E
331
254
  5
256
331
498
  5
49E
331
25C
  5
25F
331
185
  5
185
331
136
  5
136
331
527
  5
529
331
4A0
  5
4A4
331
264
  5
26B
331
13E
  5
13E
331
18D
  5
18D
331
40A
  5
40C
331
7BB
  5
7D2
331
7C3
  5
7DA
331
5F6
  5
5FD
331
6EC
  5
7B5
331
7CB
  5
7FC
331
80A
  5
831
331
5FE
  5
601
331
695
  5
698
331
119
  5
119
331
146
  5
146
331
26C
  5
274
331
4A8
  5
4AE
331
4B0
  5
4DF
331
14E
  5
14E
331
274
  5
276
331
57F
  5
5A0
331
479
  5
47D
331
39B
  5
39D
331
42A
  5
42C
331
432
  5
435
331
16E
  5
16E
331
7D3
  5
804
331
60E
  5
637
331
69D
  5
6A0
331
7DB
  5
81C
331
7E3
  5
826
331
832
  5
874
331
6AD
  5
7A9
331
7B4
  5
1C4
331
176
  5
176
331
127
  5
127
331
2E4
  5
2E6
331
481
  5
483
331
489
  5
48B
331
3F3
  5
404
331
12F
  5
12F
331
255
  5
257
331
2EC
  5
2EE
331
403
  5
405
331
137
  5
137
331
186
  5
186
331
528
  5
57D
331
40B
  5
40E
331
265
  5
26C
331
13F
  5
13F
331
18E
  5
18E
331
7FB
  5
7CB
331
7BC
  5
7D3
331
5EF
  5
5F2
331
7C4
  5
7DB
331
803
  5
82C
331
5F7
  5
5FE
331
112
  5
112
331
7CC
  5
7FD
331
5FF
  5
602
331
696
  5
699
331
11A
  5
11A
331
607
  5
60E
331
4A9
  5
4AF
331
147
  5
147
331
580
  5
5A1
331
275
  5
277
331
14F
  5
14F
331
1AE
  5
1AE
331
39C
  5
39F
331
42B
  5
42D
331
47A
  5
47E
331
5A0
  5
5A3
331
823
  5
7BC
331
7D4
  5
806
331
69E
  5
6A1
331
7DC
  5
81D
331
6A6
  5
6AA
331
7E4
  5
827
331
7B5
  5
7B6
331
120
  5
120
331
482
  5
484
331
24E
  5
250
331
128
  5
128
331
177
  5
177
331
2E5
  5
2E7
331
4E9
  5
524
331
48A
  5
48C
331
2ED
  5
2EF
331
17F
  5
17F
331
130
  5
130
331
256
  5
25C
331
404
  5
406
331
25E
  5
260
331
138
  5
138
331
40C
  5
40F
331
18F
  5
18F
331
45B
  5
465
331
529
  5
57E
331
7FC
  5
7C9
331
7BD
  5
7D4
331
5F0
  5
5F3
331
637
  5
66F
331
10B
  5
10B
331
804
  5
7CC
331
7C5
  5
7DC
331
66F
  5
695
331
113
  5
113
331
7CD
  5
7FE
331
600
  5
603
331
697
  5
69A
331
11B
  5
11B
331
81C
  5
7C5
331
140
  5
140
331
276
  5
278
331
150
  5
150
331
581
  5
5A2
331
27E
  5
282
331
39D
  5
3A7
331
42C
  5
42E
331
5A1
  5
5BE
331
434
  5
436
331
608
  5
610
331
824
  5
7BA
331
7D5
  5
807
331
69F
  5
6A2
331
610
  5
66B
331
7DD
  5
81E
331
7E5
  5
828
331
5D9
  5
5DC
331
7B6
  5
7CA
331
121
  5
121
331
24F
  5
251
331
178
  5
178
331
129
  5
129
331
2E6
  5
2E8
331
483
  5
485
331
131
  5
131
331
257
  5
25E
331
2EE
  5
2F0
331
48B
  5
48D
331
405
  5
40A
331
25F
  5
261
331
139
  5
139
331
188
  5
188
331
2F6
  5
341
331
4A3
  5
4A5
331
7FD
  5
7C8
331
7BE
  5
7D5
331
5F1
  5
5F6
331
7C6
  5
7DE
331
114
  5
114
331
874
  5
875
331
7CE
  5
7FF
331
601
  5
604
331
11C
  5
11C
331
81D
  5
7C4
331
190
  5
190
331
141
  5
141
331
149
  5
149
331
57A
  5
57F
331
151
  5
151
331
277
  5
27E
331
474
  5
47A
331
42D
  5
432
331
5A2
  5
5D9
331
4E3
  5
4E7
331
435
  5
438
331
698
  5
69B
331
7D6
  5
809
331
6A0
  5
6A6
331
7DE
  5
81F
331
6A8
  5
6AB
331
7E6
  5
82A
331
5DA
  5
5ED
331
7B7
  5
7CE
331
122
  5
122
331
171
  5
171
331
2E7
  5
2E9
331
250
  5
253
331
12A
  5
12A
331
179
  5
179
331
484
  5
486
331
181
  5
181
331
132
  5
132
331
2EF
  5
2F1
331
48C
  5
48E
331
49C
  5
4A0
331
260
  5
263
331
189
  5
189
331
13A
  5
13A
331
406
  5
40B
331
523
  5
525
331
40E
  5
410
331
317
  5
399
331
4A4
  5
4A6
331
7BF
  5
7D6
331
5F2
  5
5F7
331
7C7
  5
7DF
331
806
  5
82D
331
691
  5
696
331
115
  5
115
331
875
  5
876
331
7CF
  5
800
331
602
  5
607
331
11D
  5
11D
331
81E
  5
7C3
331
142
  5
142
331
191
  5
191
331
14A
  5
14A
331
465
  5
474
331
278
  5
281
331
47D
  5
47F
331
39F
  5
3F3
331
16A
  5
16A
331
42E
  5
434
331
5A3
  5
5DA
331
436
  5
44F
331
699
  5
69C
331
826
  5
7E8
331
7D7
  5
80A
331
6A1
  5
6A8
331
885
  5
57A
331
7DF
  5
821
331
82E
  5
832
331
6A9
  5
6AD
331
836
  5
7B8
331
5DB
  5
5EF
331
2E0
  5
2E3
331
123
  5
123
331
485
  5
487
331
251
  5
254
331
12B
  5
12B
331
17A
  5
17A
331
2E8
  5
2EA
331
3A7
  5
403
331
48D
  5
498
331
133
  5
133
331
182
  5
182
331
2F0
  5
2F6
331
524
  5
526
331
261
  5
264
331
13B
  5
13B
331
18A
  5
18A
331
4A5
  5
4A7
331
40F
  5
427
331
45E
  5
466
331
7B8
  5
7CF
331
7C0
  5
7D7
331
5F3
  5
5FC
331
6E9
  5
7AA
331
7C8
  5
7E0
331
807
  5
82E
331
876
  5
877
331
603
  5
608
331
116
  5
116
331
81F
  5
7BF
331
11E
  5
11E
331
143
  5
143
331
466
  5
479
331
14B
  5
14B
331
427
  5
429
331
281
  5
283
331
47E
  5
480
331
7D0
  5
801
331
69A
  5
69D
331
827
  5
7C6
331
7D8
  5
80B
331
6A2
  5
6A9
331
7E0
  5
823
331
82F
  5
836
331
6AA
  5
6E9
331
7B1
  5
24F
331
7E8
  5
82B
331
837
  5
7B7
331
5DC
  5
5F0
331
124
  5
124
331
173
  5
173
331
486
  5
488
331
2E9
  5
2EC
331
12C
  5
12C
331
48E
  5
49C
331
183
  5
183
331
134
  5
134
331
2F1
  5
317
331
525
  5
527
331
44F
  5
45E
331
13C
  5
13C
331
18B
  5
18B
331
49E
  5
4A3
331
4A6
  5
4A8
  0
LAYOUT
  5
75C
102
{ACAD_REACTORS
330
75A
102
}
330
75A
100
AcDbPlotSettings
  1

  2
A4 EPSON LP-6100.pc3
  4
A4
  6

 40
5.873749732971191
 41
5.873747825622558
 42
5.873748779296875
 43
5.873748779296875
 44
209.9733276367187
 45
297.0106506347656
 46
1.5
 47
25.0
 48
0.0
 49
0.0
140
0.0
141
0.0
142
1.0
143
1.0
 70
 28336
 72
     1
 73
     1
 74
     1
  7
AutoCAD LT 98.ctb
 75
    16
147
1.0
 76
     1
 77
     2
 78
   300
148
-236.4886379941706
149
-171.6235136330668
100
AcDbLayout
  1
Model
 70
     1
 71
     0
 10
0.0
 20
0.0
 11
12.0
 21
9.0
 12
0.0
 22
0.0
 32
0.0
 14
0.0
 24
0.0
 34
0.0
 15
0.0
 25
0.0
 35
0.0
146
0.0
 13
0.0
 23
0.0
 33
0.0
 16
1.0
 26
0.0
 36
0.0
 17
0.0
 27
1.0
 37
0.0
 76
     0
330
18
1001
ACAD_PSEXT
1000
A4 EPSON LP-6100.pc3
1000
EPSON LP-6100
1000
USB002
1000

1070
     0
  0
LAYOUT
  5
75D
102
{ACAD_REACTORS
330
75A
102
}
330
75A
100
AcDbPlotSettings
  1

  2
C:\Documents and Settings\佐藤\Application Data\Autodesk\AutoCAD LT 2005\R10\jpn\plotters\PEACOCK EPSON LP-6100.pc3
  4

  6

 40
0.0
 41
0.0
 42
0.0
 43
0.0
 44
0.0
 45
0.0
 46
0.0
 47
0.0
 48
0.0
 49
0.0
140
0.0
141
0.0
142
1.0
143
1.0
 70
   688
 72
     0
 73
     0
 74
     5
  7
AutoCAD LT 98.ctb
 75
    16
147
1.0
 76
     0
 77
     2
 78
   300
148
0.0
149
0.0
100
AcDbLayout
  1
レイアウト1
 70
     1
 71
     1
 10
0.0
 20
0.0
 11
420.0
 21
297.0
 12
0.0
 22
0.0
 32
0.0
 14
1.000000000000000E+20
 24
1.000000000000000E+20
 34
1.000000000000000E+20
 15
-1.000000000000000E+20
 25
-1.000000000000000E+20
 35
-1.000000000000000E+20
146
0.0
 13
0.0
 23
0.0
 33
0.0
 16
1.0
 26
0.0
 36
0.0
 17
0.0
 27
1.0
 37
0.0
 76
     0
330
15
  0
MLINESTYLE
  5
1C
102
{ACAD_REACTORS
330
1B
102
}
330
1B
100
AcDbMlineStyle
  2
STANDARD
 70
     0
  3

 62
   256
 51
90.0
 52
90.0
 71
     2
 49
0.5
 62
   256
  6
BYLAYER
 49
-0.5
 62
   256
  6
BYLAYER
  0
ACDBPLACEHOLDER
  5
755
102
{ACAD_REACTORS
330
754
102
}
330
754
  0
ACAD_PROXY_OBJECT
  5
759
102
{ACAD_REACTORS
330
758
102
}
330
758
100
AcDbProxyObject
 90
      499
 91
      503
 95
  2555929
 70
     0
 93
     1849
310
4214DD185B99185C992420000000000000F83F0000000000003E0FC00000000000004901028000000C1008070000C3001FDFF8000000C1003FBFF000000182007F7FE00000030400FEFFC00000060801FDFF8000000C1003FBFF000000182000000000000000C2020B0000001820100E000186003FBFF000000182007F7FE0
310
0000030400FEFFC00000060801FDFF8000000C1003FBFF000000182007F7FE0000003040000000000000012404160000003040201C00030C007F7FE00000030400FEFFC00000060801FDFF8000000C1003FBFF000000182007F7FE00000030400FEFFC000000608000
340
F
340
F
340
F
 94
        0
  0
DICTIONARYVAR
  5
7EA
102
{ACAD_REACTORS
330
192
102
}
330
192
100
DictionaryVariables
280
     0
  1
STANDARD
  0
DICTIONARYVAR
  5
193
102
{ACAD_REACTORS
330
192
102
}
330
192
100
DictionaryVariables
280
     0
  1
96
  0
ENDSEC
  0
EOF
