  0
SECTION
  2
HEADER
  9
$ACADVER
  1
AC1009
  9
$INSBASE
 10
0.0
 20
0.0
 30
0.0
  9
$EXTMIN
 10
236.45471881509869
 20
171.62613327917001
 30
-0.0000000000000058
  9
$EXTMAX
 10
491.91408134729579
 20
367.06698038489412
 30
0.0000000000000104
  9
$LIMMIN
 10
0.0
 20
0.0
  9
$LIMMAX
 10
420.0
 20
297.0
  9
$ORTHOMODE
 70
     0
  9
$REGENMODE
 70
     1
  9
$FILLMODE
 70
     1
  9
$QTEXTMODE
 70
     0
  9
$MIRRTEXT
 70
     1
  9
$DRAGMODE
 70
     2
  9
$LTSCALE
 40
1.0
  9
$OSMODE
 70
    37
  9
$ATTMODE
 70
     1
  9
$TEXTSIZE
 40
3.0
  9
$TRACEWID
 40
1.0
  9
$TEXTSTYLE
  7
STYLE3
  9
$CLAYER
  8
寸法線
  9
$CELTYPE
  6
BYLAYER
  9
$CECOLOR
 62
   256
  9
$DIMSCALE
 40
1.0
  9
$DIMASZ
 40
2.5
  9
$DIMEXO
 40
0.0
  9
$DIMDLI
 40
3.75
  9
$DIMRND
 40
0.0
  9
$DIMDLE
 40
0.0
  9
$DIMEXE
 40
1.25
  9
$DIMTP
 40
0.0
  9
$DIMTM
 40
0.0
  9
$DIMTXT
 40
2.5
  9
$DIMCEN
 40
2.5
  9
$DIMTSZ
 40
0.0
  9
$DIMTOL
 70
     0
  9
$DIMLIM
 70
     0
  9
$DIMTIH
 70
     0
  9
$DIMTOH
 70
     0
  9
$DIMSE1
 70
     0
  9
$DIMSE2
 70
     0
  9
$DIMTAD
 70
     1
  9
$DIMZIN
 70
     8
  9
$DIMBLK
  1

  9
$DIMASO
 70
     1
  9
$DIMSHO
 70
     1
  9
$DIMPOST
  1

  9
$DIMAPOST
  1

  9
$DIMALT
 70
     0
  9
$DIMALTD
 70
     4
  9
$DIMALTF
 40
0.0394
  9
$DIMLFAC
 40
1.0
  9
$DIMTOFL
 70
     1
  9
$DIMTVP
 40
0.0
  9
$DIMTIX
 70
     0
  9
$DIMSOXD
 70
     0
  9
$DIMSAH
 70
     1
  9
$DIMBLK1
  1
OPEN
  9
$DIMBLK2
  1
OPEN
  9
$DIMSTYLE
  2
STYLE3
  9
$DIMCLRD
 70
     2
  9
$DIMCLRE
 70
     2
  9
$DIMCLRT
 70
     6
  9
$DIMTFAC
 40
1.0
  9
$DIMGAP
 40
0.625
  9
$LUNITS
 70
     2
  9
$LUPREC
 70
     4
  9
$SKETCHINC
 40
1.0
  9
$FILLETRAD
 40
0.5
  9
$AUNITS
 70
     0
  9
$AUPREC
 70
     0
  9
$MENU
  1
.
  9
$ELEVATION
 40
0.0
  9
$PELEVATION
 40
0.0
  9
$THICKNESS
 40
0.0
  9
$LIMCHECK
 70
     0
  9
$BLIPMODE
 70
     0
  9
$CHAMFERA
 40
1.0
  9
$CHAMFERB
 40
1.0
  9
$SKPOLY
 70
     0
  9
$TDCREATE
 40
2450753.4625406251
  9
$TDUPDATE
 40
2455371.4443995948
  9
$TDINDWG
 40
2.6864332639000001
  9
$TDUSRTIMER
 40
2.6864332639000001
  9
$USRTIMER
 70
     1
  9
$ANGBASE
 50
0.0
  9
$ANGDIR
 70
     0
  9
$PDMODE
 70
     0
  9
$PDSIZE
 40
0.0
  9
$PLINEWID
 40
0.0
  9
$COORDS
 70
     1
  9
$SPLFRAME
 70
     0
  9
$SPLINETYPE
 70
     6
  9
$SPLINESEGS
 70
     8
  9
$ATTDIA
 70
     0
  9
$ATTREQ
 70
     1
  9
$HANDLING
 70
     1
  9
$HANDSEED
  5
2154
  9
$SURFTAB1
 70
     6
  9
$SURFTAB2
 70
     6
  9
$SURFTYPE
 70
     6
  9
$SURFU
 70
     6
  9
$SURFV
 70
     6
  9
$UCSNAME
  2

  9
$UCSORG
 10
0.0
 20
0.0
 30
0.0
  9
$UCSXDIR
 10
1.0
 20
0.0
 30
0.0
  9
$UCSYDIR
 10
0.0
 20
1.0
 30
0.0
  9
$PUCSNAME
  2

  9
$PUCSORG
 10
0.0
 20
0.0
 30
0.0
  9
$PUCSXDIR
 10
1.0
 20
0.0
 30
0.0
  9
$PUCSYDIR
 10
0.0
 20
1.0
 30
0.0
  9
$USERI1
 70
     0
  9
$USERI2
 70
     0
  9
$USERI3
 70
     0
  9
$USERI4
 70
     0
  9
$USERI5
 70
     0
  9
$USERR1
 40
0.0
  9
$USERR2
 40
0.0
  9
$USERR3
 40
0.0
  9
$USERR4
 40
0.0
  9
$USERR5
 40
0.0
  9
$WORLDVIEW
 70
     1
  9
$SHADEDGE
 70
     3
  9
$SHADEDIF
 70
    70
  9
$TILEMODE
 70
     1
  9
$MAXACTVP
 70
    48
  9
$PLIMCHECK
 70
     0
  9
$PEXTMIN
 10
1.0000000000000000E+020
 20
1.0000000000000000E+020
 30
1.0000000000000000E+020
  9
$PEXTMAX
 10
-1.0000000000000000E+020
 20
-1.0000000000000000E+020
 30
-1.0000000000000000E+020
  9
$PLIMMIN
 10
0.0
 20
0.0
  9
$PLIMMAX
 10
420.0
 20
297.0
  9
$UNITMODE
 70
     0
  9
$VISRETAIN
 70
     1
  9
$PLINEGEN
 70
     0
  9
$PSLTSCALE
 70
     1
  0
ENDSEC
  0
SECTION
  2
TABLES
  0
TABLE
  2
VPORT
 70
     3
  0
VPORT
  2
*ACTIVE
 70
     0
 10
0.0
 20
0.0
 11
1.0
 21
1.0
 12
364.18440008119728
 22
269.34655683203209
 13
0.0
 23
0.0
 14
10.0
 24
10.0
 15
10.0
 25
10.0
 16
0.0
 26
0.0
 36
1.0
 17
0.0
 27
0.0
 37
0.0
 40
196.9270892890375
 41
1.530456852791878
 42
50.0
 43
0.0
 44
0.0
 50
0.0
 51
0.0
 71
     0
 72
   100
 73
     1
 74
     1
 75
     0
 76
     0
 77
     0
 78
     0
  0
ENDTAB
  0
TABLE
  2
LTYPE
 70
     4
  0
LTYPE
  2
CONTINUOUS
 70
     0
  3
Solid line
 72
    65
 73
     0
 40
0.0
  0
LTYPE
  2
CENTER2
 70
     0
  3
Center (.5x) ___ _ ___ _ ___ _ ___ _ ___ _ ___
 72
    65
 73
     4
 40
28.574999999999999
 49
19.050000000000001
 49
-3.1749999999999989
 49
3.1749999999999989
 49
-3.1749999999999989
  0
LTYPE
  2
PHANTOM2
 70
     0
  3
Phantom (.5x) ___ _ _ ___ _ _ ___ _ _ ___ _ _
 72
    65
 73
     6
 40
31.75
 49
15.875
 49
-3.1749999999999989
 49
3.1749999999999989
 49
-3.1749999999999989
 49
3.1749999999999989
 49
-3.1749999999999989
  0
LTYPE
  2
HIDDEN2
 70
     0
  3
Hidden (.5x) _ _ _ _ _ _ _ _ _ _ _ _ _ _ _ _ _
 72
    65
 73
     2
 40
4.7624999999999993
 49
3.1749999999999989
 49
-1.587499999999999
  0
ENDTAB
  0
TABLE
  2
LAYER
 70
    13
  0
LAYER
  2
0
 70
     0
 62
     7
  6
CONTINUOUS
  0
LAYER
  2
外形線
 70
     0
 62
     7
  6
CONTINUOUS
  0
LAYER
  2
寸法線
 70
     0
 62
     2
  6
CONTINUOUS
  0
LAYER
  2
中心線
 70
     0
 62
     4
  6
CENTER2
  0
LAYER
  2
ﾊｯﾁﾝｸ
 70
     0
 62
     6
  6
CONTINUOUS
  0
LAYER
  2
文字
 70
     0
 62
     6
  6
CONTINUOUS
  0
LAYER
  2
DEFPOINTS
 70
     0
 62
     7
  6
CONTINUOUS
  0
LAYER
  2
C
 70
     0
 62
     7
  6
CONTINUOUS
  0
LAYER
  2
想像線
 70
     0
 62
     1
  6
PHANTOM2
  0
LAYER
  2
隠れ線
 70
     0
 62
     1
  6
HIDDEN2
  0
ENDTAB
  0
TABLE
  2
STYLE
 70
     5
  0
STYLE
  2
STANDARD
 70
     0
 40
0.0
 41
1.0
 50
0.0
 71
     0
 42
2.5
  3
txt
  4

  0
STYLE
  2
STYLE3
 70
     0
 40
0.0
 41
1.0
 50
0.0
 71
     0
 42
3.0
  3
romans.shx
  4
bigfont.shx
  0
ENDTAB
  0
TABLE
  2
VIEW
 70
     0
  0
ENDTAB
  0
TABLE
  2
UCS
 70
     0
  0
ENDTAB
  0
TABLE
  2
APPID
 70
     2
  0
APPID
  2
ACAD
 70
     0
  0
APPID
  2
ACAD_PSEXT
 70
     0
  0
ENDTAB
  0
TABLE
  2
DIMSTYLE
 70
     4
  0
DIMSTYLE
  2
STANDARD
 70
     0
  3

  4

  5

  6

  7

 40
1.0
 41
2.5
 42
0.625
 43
3.75
 44
1.25
 45
0.0
 46
0.0
 47
0.0
 48
0.0
140
2.5
141
2.5
142
0.0
143
0.0394
144
1.0
145
0.0
146
1.0
147
0.625
 71
     0
 72
     0
 73
     0
 74
     0
 75
     0
 76
     0
 77
     1
 78
     8
170
     0
171
     4
172
     1
173
     0
174
     0
175
     0
176
     0
177
     0
178
     0
  0
DIMSTYLE
  2
STYLE3
 70
     0
  3

  4

  5

  6
OPEN
  7
OPEN
 40
1.0
 41
2.5
 42
0.0
 43
3.75
 44
1.25
 45
0.0
 46
0.0
 47
0.0
 48
0.0
140
2.5
141
2.5
142
0.0
143
0.0394
144
1.0
145
0.0
146
1.0
147
0.625
 71
     0
 72
     0
 73
     0
 74
     0
 75
     0
 76
     0
 77
     1
 78
     8
170
     0
171
     4
172
     1
173
     1
174
     0
175
     0
176
     2
177
     2
178
     6
  0
ENDTAB
  0
ENDSEC
  0
SECTION
  2
BLOCKS
  0
BLOCK
  8
0
  2
$MODEL_SPACE
 70
     0
 10
0.0
 20
0.0
 30
0.0
  3
$MODEL_SPACE
  1

  0
ENDBLK
  5
1A
  8
0
  0
BLOCK
 67
     1
  8
0
  2
$PAPER_SPACE
 70
     0
 10
0.0
 20
0.0
 30
0.0
  3
$PAPER_SPACE
  1

  0
ENDBLK
  5
17
 67
     1
  8
0
  0
BLOCK
  8
0
  2
_OPEN
 70
     0
 10
0.0
 20
0.0
 30
0.0
  3
_OPEN
  1

  0
LINE
  5
47
  8
0
  6
BYBLOCK
 62
     0
 10
-1.0
 20
0.1666666666666666
 30
0.0
 11
0.0
 21
0.0
 31
0.0
  0
LINE
  5
48
  8
0
  6
BYBLOCK
 62
     0
 10
0.0
 20
0.0
 30
0.0
 11
-1.0
 21
-0.1666666666666666
 31
0.0
  0
LINE
  5
49
  8
0
  6
BYBLOCK
 62
     0
 10
0.0
 20
0.0
 30
0.0
 11
-1.0
 21
0.0
 31
0.0
  0
ENDBLK
  5
4A
  8
0
  0
BLOCK
  8
0
  2
六角ﾈｼ
 70
     0
 10
0.0
 20
0.0
 30
0.0
  3
六角ﾈｼ
  1

  0
LINE
  5
51D
  8
外形線
 10
-0.0000000000000568
 20
4.4999999999999432
 30
0.0
 11
2.7375995731816261
 21
4.4999999999999432
 31
0.0
  0
ARC
  5
51E
  8
外形線
 10
-4.0100000000026617
 20
2.5999999999995111
 30
0.0
 40
7.0100000000027221
 50
338.22894589069568
 51
15.726243792790671
  0
ARC
  5
51F
  8
外形線
 10
-4.0100000000026617
 20
-2.5999999999995111
 30
0.0
 40
7.0100000000027221
 50
344.27375620720881
 51
21.771054109304352
  0
LINE
  5
520
  8
外形線
 10
0.0000000000001705
 20
-4.5
 30
0.0
 11
2.7375995731815692
 21
-4.5
 31
0.0
  0
ENDBLK
  5
522
  8
0
  0
BLOCK
  8
0
  2
*D6
 70
     1
 10
0.0
 20
0.0
 30
0.0
  3
*D6
  1

  0
LINE
  5
191F
  8
寸法線
 62
     2
 10
417.45332810469972
 20
225.34532750959309
 30
0.0
 11
431.77180465356997
 21
225.34532750959309
 31
0.0
  0
LINE
  5
1920
  8
寸法線
 62
     2
 10
420.45332810469989
 20
230.34532750959309
 30
0.0
 11
431.77180465356997
 21
230.34532750959309
 31
0.0
  0
LINE
  5
1921
  8
寸法線
 62
     2
 10
430.52180465356997
 20
222.84532750959301
 30
0.0
 11
430.52180465356997
 21
220.34532750959309
 31
0.0
  0
LINE
  5
1922
  8
寸法線
 62
     2
 10
430.52180465356997
 20
232.84532750959309
 30
0.0
 11
430.52180465356997
 21
235.34532750959301
 31
0.0
  0
LINE
  5
1923
  8
寸法線
 62
     2
 10
430.52180465356997
 20
225.34532750959309
 30
0.0
 11
430.52180465356997
 21
230.34532750959309
 31
0.0
  0
INSERT
  5
1924
  8
寸法線
 62
     2
  2
_OPEN
 10
430.52180465356997
 20
225.34532750959309
 30
0.0
 41
2.5
 42
2.5
 43
2.5
 50
90.0
  0
INSERT
  5
1925
  8
寸法線
 62
     2
  2
_OPEN
 10
430.52180465356997
 20
230.34532750959309
 30
0.0
 41
2.5
 42
2.5
 43
2.5
 50
270.0
  0
INSERT
  5
1926
  8
寸法線
  2
*U25
 10
0.0
 20
0.0
 30
0.0
  0
POINT
  5
1927
  8
DEFPOINTS
 62
     0
 10
417.45332810469972
 20
225.34532750959309
 30
0.0
  0
POINT
  5
1928
  8
DEFPOINTS
 62
     0
 10
420.45332810469989
 20
230.34532750959309
 30
0.0
  0
POINT
  5
1929
  8
DEFPOINTS
 62
     0
 10
430.52180465356997
 20
230.34532750959309
 30
0.0
  0
ENDBLK
  5
16E5
  8
0
  0
BLOCK
  8
0
  2
*D7
 70
     1
 10
0.0
 20
0.0
 30
0.0
  3
*D7
  1

  0
LINE
  5
192A
  8
寸法線
 62
     2
 10
420.45332810469949
 20
267.34532750959301
 30
0.0
 11
420.45332810469949
 21
286.53969313520457
 31
0.0
  0
LINE
  5
192B
  8
寸法線
 62
     2
 10
417.45332810469949
 20
280.6573455982558
 30
0.0
 11
417.45332810469949
 21
286.53969313520457
 31
0.0
  0
LINE
  5
192C
  8
寸法線
 62
     2
 10
422.95332810469961
 20
285.28969313520469
 30
0.0
 11
425.45332810469949
 21
285.28969313520469
 31
0.0
  0
LINE
  5
192D
  8
寸法線
 62
     2
 10
414.95332810469961
 20
285.28969313520469
 30
0.0
 11
412.45332810469949
 21
285.28969313520469
 31
0.0
  0
LINE
  5
192E
  8
寸法線
 62
     2
 10
420.45332810469949
 20
285.28969313520469
 30
0.0
 11
417.45332810469949
 21
285.28969313520469
 31
0.0
  0
INSERT
  5
192F
  8
寸法線
 62
     2
  2
_OPEN
 10
420.45332810469949
 20
285.28969313520469
 30
0.0
 41
2.5
 42
2.5
 43
2.5
 50
180.0
  0
INSERT
  5
1930
  8
寸法線
 62
     2
  2
_OPEN
 10
417.45332810469949
 20
285.28969313520469
 30
0.0
 41
2.5
 42
2.5
 43
2.5
  0
INSERT
  5
1931
  8
寸法線
  2
*U26
 10
0.0
 20
0.0
 30
0.0
  0
POINT
  5
1932
  8
DEFPOINTS
 62
     0
 10
420.45332810469949
 20
267.34532750959301
 30
0.0
  0
POINT
  5
1933
  8
DEFPOINTS
 62
     0
 10
417.45332810469949
 20
280.6573455982558
 30
0.0
  0
POINT
  5
1934
  8
DEFPOINTS
 62
     0
 10
417.45332810469949
 20
285.28969313520469
 30
0.0
  0
ENDBLK
  5
1758
  8
0
  0
BLOCK
  8
0
  2
*D8
 70
     1
 10
0.0
 20
0.0
 30
0.0
  3
*D8
  1

  0
LINE
  5
1E81
  8
寸法線
 62
     2
 10
267.09242518208231
 20
262.45212881358901
 30
0.0
 11
267.09242518208231
 21
286.53969313520457
 31
0.0
  0
LINE
  5
1E82
  8
寸法線
 62
     2
 10
334.5924251820822
 20
285.28969313520469
 30
0.0
 11
269.59242518208231
 21
285.28969313520469
 31
0.0
  0
INSERT
  5
1E83
  8
寸法線
 62
     2
  2
_OPEN
 10
337.0924251820822
 20
285.28969313520469
 30
0.0
 41
2.5
 42
2.5
 43
2.5
  0
INSERT
  5
1E84
  8
寸法線
 62
     2
  2
_OPEN
 10
267.09242518208231
 20
285.28969313520469
 30
0.0
 41
2.5
 42
2.5
 43
2.5
 50
180.0
  0
TEXT
  8
寸法線
  40
2.5
  5
1EAD
  62
6
  72
0
  71
0
 10
297.092
 20
282.740
 30
0.000000
  1
70
  7
STYLE3
  0
POINT
  5
1E86
  8
DEFPOINTS
 62
     0
 10
337.0924251820822
 20
262.45212881358901
 30
0.0
  0
POINT
  5
1E87
  8
DEFPOINTS
 62
     0
 10
267.09242518208231
 20
262.45212881358901
 30
0.0
  0
POINT
  5
1E88
  8
DEFPOINTS
 62
     0
 10
267.09242518208231
 20
285.28969313520469
 30
0.0
  0
ENDBLK
  5
1770
  8
0
  0
BLOCK
  8
0
  2
*D9
 70
     1
 10
0.0
 20
0.0
 30
0.0
  3
*D9
  1

  0
LINE
  5
190E
  8
寸法線
 62
     2
 10
417.45332810469949
 20
276.04532750959299
 30
0.0
 11
380.6412516481243
 21
276.04532750959311
 31
0.0
  0
LINE
  5
190F
  8
寸法線
 62
     2
 10
381.42378550735498
 20
255.34532750959309
 30
0.0
 11
383.14125164812441
 21
255.34532750959309
 31
0.0
  0
LINE
  5
1910
  8
寸法線
 62
     2
 10
381.89125164812441
 20
273.54532750959311
 30
0.0
 11
381.89125164812441
 21
257.84532750959312
 31
0.0
  0
INSERT
  5
1911
  8
寸法線
 62
     2
  2
_OPEN
 10
381.89125164812441
 20
276.04532750959311
 30
0.0
 41
2.5
 42
2.5
 43
2.5
 50
90.0
  0
INSERT
  5
1912
  8
寸法線
 62
     2
  2
_OPEN
 10
381.89125164812441
 20
255.34532750959309
 30
0.0
 41
2.5
 42
2.5
 43
2.5
 50
270.0
  0
INSERT
  5
1913
  8
寸法線
  2
*U24
 10
0.0
 20
0.0
 30
0.0
  0
POINT
  5
1914
  8
DEFPOINTS
 62
     0
 10
417.45332810469949
 20
276.04532750959299
 30
0.0
  0
POINT
  5
1915
  8
DEFPOINTS
 62
     0
 10
381.42378550735498
 20
255.34532750959309
 30
0.0
  0
POINT
  5
1916
  8
DEFPOINTS
 62
     0
 10
381.89125164812441
 20
255.34532750959309
 30
0.0
  0
ENDBLK
  5
17B3
  8
0
  0
BLOCK
  8
0
  2
*D10
 70
     1
 10
0.0
 20
0.0
 30
0.0
  3
*D10
  1

  0
LINE
  5
1905
  8
寸法線
 62
     2
 10
244.09242518208231
 20
260.04532750959322
 30
0.0
 11
244.09242518208231
 21
286.53969313520457
 31
0.0
  0
LINE
  5
1906
  8
寸法線
 62
     2
 10
267.09242518208231
 20
261.89872816159112
 30
0.0
 11
267.09242518208231
 21
286.53969313520457
 31
0.0
  0
LINE
  5
1907
  8
寸法線
 62
     2
 10
246.59242518208231
 20
285.28969313520469
 30
0.0
 11
264.5924251820822
 21
285.28969313520469
 31
0.0
  0
INSERT
  5
1908
  8
寸法線
 62
     2
  2
_OPEN
 10
244.09242518208231
 20
285.28969313520469
 30
0.0
 41
2.5
 42
2.5
 43
2.5
 50
180.0
  0
INSERT
  5
1909
  8
寸法線
 62
     2
  2
_OPEN
 10
267.09242518208231
 20
285.28969313520469
 30
0.0
 41
2.5
 42
2.5
 43
2.5
  0
INSERT
  5
190A
  8
寸法線
  2
*U23
 10
0.0
 20
0.0
 30
0.0
  0
POINT
  5
190B
  8
DEFPOINTS
 62
     0
 10
244.09242518208231
 20
260.04532750959322
 30
0.0
  0
POINT
  5
190C
  8
DEFPOINTS
 62
     0
 10
267.09242518208231
 20
261.89872816159112
 30
0.0
  0
POINT
  5
190D
  8
DEFPOINTS
 62
     0
 10
267.09242518208231
 20
285.28969313520469
 30
0.0
  0
ENDBLK
  5
1816
  8
0
  0
BLOCK
  8
0
  2
*X12
 70
     1
 10
0.0
 20
0.0
 30
0.0
  3
*X12
  1

  0
LINE
  5
1943
  8
0
 62
     0
 10
311.96260341765742
 20
245.51500806697399
 30
0.0
 11
311.96260341765742
 21
245.51500806697399
 31
0.0
  0
LINE
  5
1944
  8
0
 62
     0
 10
311.32760341765737
 20
245.51500806697399
 30
0.0
 11
311.32760341765737
 21
245.51500806697399
 31
0.0
  0
LINE
  5
1945
  8
0
 62
     0
 10
310.69260341765738
 20
245.51500806697399
 30
0.0
 11
310.69260341765738
 21
245.51500806697399
 31
0.0
  0
LINE
  5
1946
  8
0
 62
     0
 10
310.0576034176575
 20
245.51500806697399
 30
0.0
 11
310.0576034176575
 21
245.51500806697399
 31
0.0
  0
LINE
  5
1947
  8
0
 62
     0
 10
309.42260341765751
 20
245.51500806697399
 30
0.0
 11
309.42260341765751
 21
245.51500806697399
 31
0.0
  0
LINE
  5
1948
  8
0
 62
     0
 10
308.78760341765741
 20
245.51500806697399
 30
0.0
 11
308.78760341765741
 21
245.51500806697399
 31
0.0
  0
LINE
  5
1949
  8
0
 62
     0
 10
308.15260341765747
 20
245.51500806697399
 30
0.0
 11
308.15260341765747
 21
245.51500806697399
 31
0.0
  0
LINE
  5
194A
  8
0
 62
     0
 10
307.51760341765748
 20
245.51500806697399
 30
0.0
 11
307.51760341765748
 21
245.51500806697399
 31
0.0
  0
LINE
  5
194B
  8
0
 62
     0
 10
296.72260341765741
 20
245.51500806697399
 30
0.0
 11
296.72260341765741
 21
245.51500806697399
 31
0.0
  0
LINE
  5
194C
  8
0
 62
     0
 10
296.08760341765742
 20
245.51500806697399
 30
0.0
 11
296.08760341765742
 21
245.51500806697399
 31
0.0
  0
LINE
  5
194D
  8
0
 62
     0
 10
295.45260341765737
 20
245.51500806697399
 30
0.0
 11
295.45260341765737
 21
245.51500806697399
 31
0.0
  0
LINE
  5
194E
  8
0
 62
     0
 10
294.81760341765738
 20
245.51500806697399
 30
0.0
 11
294.81760341765738
 21
245.51500806697399
 31
0.0
  0
LINE
  5
194F
  8
0
 62
     0
 10
294.1826034176575
 20
245.51500806697399
 30
0.0
 11
294.1826034176575
 21
245.51500806697399
 31
0.0
  0
LINE
  5
1950
  8
0
 62
     0
 10
293.5476034176574
 20
245.51500806697399
 30
0.0
 11
293.5476034176574
 21
245.51500806697399
 31
0.0
  0
LINE
  5
1951
  8
0
 62
     0
 10
292.91260341765741
 20
245.51500806697399
 30
0.0
 11
292.91260341765741
 21
245.51500806697399
 31
0.0
  0
LINE
  5
1952
  8
0
 62
     0
 10
292.27760341765747
 20
245.51500806697399
 30
0.0
 11
292.27760341765747
 21
245.51500806697399
 31
0.0
  0
LINE
  5
1953
  8
0
 62
     0
 10
297.04010341765729
 20
246.15000806697401
 30
0.0
 11
297.04010341765729
 21
246.15000806697401
 31
0.0
  0
LINE
  5
1954
  8
0
 62
     0
 10
296.40510341765741
 20
246.15000806697401
 30
0.0
 11
296.40510341765741
 21
246.15000806697401
 31
0.0
  0
LINE
  5
1955
  8
0
 62
     0
 10
295.77010341765742
 20
246.15000806697401
 30
0.0
 11
295.77010341765742
 21
246.15000806697401
 31
0.0
  0
LINE
  5
1956
  8
0
 62
     0
 10
295.13510341765738
 20
246.15000806697401
 30
0.0
 11
295.13510341765738
 21
246.15000806697401
 31
0.0
  0
LINE
  5
1957
  8
0
 62
     0
 10
294.50010341765739
 20
246.15000806697401
 30
0.0
 11
294.50010341765739
 21
246.15000806697401
 31
0.0
  0
LINE
  5
1958
  8
0
 62
     0
 10
293.86510341765739
 20
246.15000806697401
 30
0.0
 11
293.86510341765739
 21
246.15000806697401
 31
0.0
  0
LINE
  5
1959
  8
0
 62
     0
 10
293.2301034176574
 20
246.15000806697401
 30
0.0
 11
293.2301034176574
 21
246.15000806697401
 31
0.0
  0
LINE
  5
195A
  8
0
 62
     0
 10
292.59510341765741
 20
246.15000806697401
 30
0.0
 11
292.59510341765741
 21
246.15000806697401
 31
0.0
  0
LINE
  5
195B
  8
0
 62
     0
 10
291.96010341765742
 20
246.15000806697401
 30
0.0
 11
291.96010341765742
 21
246.15000806697401
 31
0.0
  0
LINE
  5
195C
  8
0
 62
     0
 10
291.32510341765737
 20
246.15000806697401
 30
0.0
 11
291.32510341765737
 21
246.15000806697401
 31
0.0
  0
LINE
  5
195D
  8
0
 62
     0
 10
290.69010341765738
 20
246.15000806697401
 30
0.0
 11
290.69010341765738
 21
246.15000806697401
 31
0.0
  0
LINE
  5
195E
  8
0
 62
     0
 10
290.05510341765739
 20
246.15000806697401
 30
0.0
 11
290.05510341765739
 21
246.15000806697401
 31
0.0
  0
LINE
  5
195F
  8
0
 62
     0
 10
289.42010341765751
 20
246.15000806697401
 30
0.0
 11
289.42010341765751
 21
246.15000806697401
 31
0.0
  0
LINE
  5
1960
  8
0
 62
     0
 10
323.71010341765731
 20
246.15000806697401
 30
0.0
 11
323.71010341765731
 21
246.15000806697401
 31
0.0
  0
LINE
  5
1961
  8
0
 62
     0
 10
323.07510341765732
 20
246.15000806697401
 30
0.0
 11
323.07510341765732
 21
246.15000806697401
 31
0.0
  0
LINE
  5
1962
  8
0
 62
     0
 10
322.44010341765733
 20
246.15000806697401
 30
0.0
 11
322.44010341765733
 21
246.15000806697401
 31
0.0
  0
LINE
  5
1963
  8
0
 62
     0
 10
321.80510341765728
 20
246.15000806697401
 30
0.0
 11
321.80510341765728
 21
246.15000806697401
 31
0.0
  0
LINE
  5
1964
  8
0
 62
     0
 10
321.17010341765729
 20
246.15000806697401
 30
0.0
 11
321.17010341765729
 21
246.15000806697401
 31
0.0
  0
LINE
  5
1965
  8
0
 62
     0
 10
320.5351034176573
 20
246.15000806697401
 30
0.0
 11
320.5351034176573
 21
246.15000806697401
 31
0.0
  0
LINE
  5
1966
  8
0
 62
     0
 10
319.90010341765731
 20
246.15000806697401
 30
0.0
 11
319.90010341765731
 21
246.15000806697401
 31
0.0
  0
LINE
  5
1967
  8
0
 62
     0
 10
319.26510341765731
 20
246.15000806697401
 30
0.0
 11
319.26510341765731
 21
246.15000806697401
 31
0.0
  0
LINE
  5
1968
  8
0
 62
     0
 10
318.63010341765732
 20
246.15000806697401
 30
0.0
 11
318.63010341765732
 21
246.15000806697401
 31
0.0
  0
LINE
  5
1969
  8
0
 62
     0
 10
317.99510341765728
 20
246.15000806697401
 30
0.0
 11
317.99510341765728
 21
246.15000806697401
 31
0.0
  0
LINE
  5
196A
  8
0
 62
     0
 10
317.3601034176574
 20
246.15000806697401
 30
0.0
 11
317.3601034176574
 21
246.15000806697401
 31
0.0
  0
LINE
  5
196B
  8
0
 62
     0
 10
316.72510341765729
 20
246.15000806697401
 30
0.0
 11
316.72510341765729
 21
246.15000806697401
 31
0.0
  0
LINE
  5
196C
  8
0
 62
     0
 10
316.0901034176573
 20
246.15000806697401
 30
0.0
 11
316.0901034176573
 21
246.15000806697401
 31
0.0
  0
LINE
  5
196D
  8
0
 62
     0
 10
315.45510341765743
 20
246.15000806697401
 30
0.0
 11
315.45510341765743
 21
246.15000806697401
 31
0.0
  0
LINE
  5
196E
  8
0
 62
     0
 10
314.82010341765738
 20
246.15000806697401
 30
0.0
 11
314.82010341765738
 21
246.15000806697401
 31
0.0
  0
LINE
  5
196F
  8
0
 62
     0
 10
314.18510341765739
 20
246.15000806697401
 30
0.0
 11
314.18510341765739
 21
246.15000806697401
 31
0.0
  0
LINE
  5
1970
  8
0
 62
     0
 10
313.5501034176574
 20
246.15000806697401
 30
0.0
 11
313.5501034176574
 21
246.15000806697401
 31
0.0
  0
LINE
  5
1971
  8
0
 62
     0
 10
312.91510341765741
 20
246.15000806697401
 30
0.0
 11
312.91510341765741
 21
246.15000806697401
 31
0.0
  0
LINE
  5
1972
  8
0
 62
     0
 10
312.28010341765741
 20
246.15000806697401
 30
0.0
 11
312.28010341765741
 21
246.15000806697401
 31
0.0
  0
LINE
  5
1973
  8
0
 62
     0
 10
311.64510341765742
 20
246.15000806697401
 30
0.0
 11
311.64510341765742
 21
246.15000806697401
 31
0.0
  0
LINE
  5
1974
  8
0
 62
     0
 10
311.01010341765738
 20
246.15000806697401
 30
0.0
 11
311.01010341765738
 21
246.15000806697401
 31
0.0
  0
LINE
  5
1975
  8
0
 62
     0
 10
310.37510341765739
 20
246.15000806697401
 30
0.0
 11
310.37510341765739
 21
246.15000806697401
 31
0.0
  0
LINE
  5
1976
  8
0
 62
     0
 10
309.74010341765739
 20
246.15000806697401
 30
0.0
 11
309.74010341765739
 21
246.15000806697401
 31
0.0
  0
LINE
  5
1977
  8
0
 62
     0
 10
309.10510341765752
 20
246.15000806697401
 30
0.0
 11
309.10510341765752
 21
246.15000806697401
 31
0.0
  0
LINE
  5
1978
  8
0
 62
     0
 10
308.47010341765753
 20
246.15000806697401
 30
0.0
 11
308.47010341765753
 21
246.15000806697401
 31
0.0
  0
LINE
  5
1979
  8
0
 62
     0
 10
307.83510341765748
 20
246.15000806697401
 30
0.0
 11
307.83510341765748
 21
246.15000806697401
 31
0.0
  0
LINE
  5
197A
  8
0
 62
     0
 10
307.20010341765749
 20
246.15000806697401
 30
0.0
 11
307.20010341765749
 21
246.15000806697401
 31
0.0
  0
LINE
  5
197B
  8
0
 62
     0
 10
284.97510341765741
 20
246.15000806697401
 30
0.0
 11
284.97510341765741
 21
246.15000806697401
 31
0.0
  0
LINE
  5
197C
  8
0
 62
     0
 10
284.34010341765742
 20
246.15000806697401
 30
0.0
 11
284.34010341765742
 21
246.15000806697401
 31
0.0
  0
LINE
  5
197D
  8
0
 62
     0
 10
283.70510341765743
 20
246.15000806697401
 30
0.0
 11
283.70510341765743
 21
246.15000806697401
 31
0.0
  0
LINE
  5
197E
  8
0
 62
     0
 10
283.07010341765738
 20
246.15000806697401
 30
0.0
 11
283.07010341765738
 21
246.15000806697401
 31
0.0
  0
LINE
  5
197F
  8
0
 62
     0
 10
282.43510341765739
 20
246.15000806697401
 30
0.0
 11
282.43510341765739
 21
246.15000806697401
 31
0.0
  0
LINE
  5
1980
  8
0
 62
     0
 10
281.80010341765751
 20
246.15000806697401
 30
0.0
 11
281.80010341765751
 21
246.15000806697401
 31
0.0
  0
LINE
  5
1981
  8
0
 62
     0
 10
281.16510341765752
 20
246.15000806697401
 30
0.0
 11
281.16510341765752
 21
246.15000806697401
 31
0.0
  0
LINE
  5
1982
  8
0
 62
     0
 10
280.53010341765747
 20
246.15000806697401
 30
0.0
 11
280.53010341765747
 21
246.15000806697401
 31
0.0
  0
LINE
  5
1983
  8
0
 62
     0
 10
279.89510341765748
 20
246.15000806697401
 30
0.0
 11
279.89510341765748
 21
246.15000806697401
 31
0.0
  0
LINE
  5
1984
  8
0
 62
     0
 10
296.72260341765741
 20
246.785008066974
 30
0.0
 11
296.72260341765741
 21
246.785008066974
 31
0.0
  0
LINE
  5
1985
  8
0
 62
     0
 10
296.08760341765742
 20
246.785008066974
 30
0.0
 11
296.08760341765742
 21
246.785008066974
 31
0.0
  0
LINE
  5
1986
  8
0
 62
     0
 10
295.45260341765737
 20
246.785008066974
 30
0.0
 11
295.45260341765737
 21
246.785008066974
 31
0.0
  0
LINE
  5
1987
  8
0
 62
     0
 10
294.81760341765738
 20
246.785008066974
 30
0.0
 11
294.81760341765738
 21
246.785008066974
 31
0.0
  0
LINE
  5
1988
  8
0
 62
     0
 10
294.18260341765739
 20
246.785008066974
 30
0.0
 11
294.18260341765739
 21
246.785008066974
 31
0.0
  0
LINE
  5
1989
  8
0
 62
     0
 10
293.5476034176574
 20
246.785008066974
 30
0.0
 11
293.5476034176574
 21
246.785008066974
 31
0.0
  0
LINE
  5
198A
  8
0
 62
     0
 10
292.91260341765741
 20
246.785008066974
 30
0.0
 11
292.91260341765741
 21
246.785008066974
 31
0.0
  0
LINE
  5
198B
  8
0
 62
     0
 10
292.27760341765742
 20
246.785008066974
 30
0.0
 11
292.27760341765742
 21
246.785008066974
 31
0.0
  0
LINE
  5
198C
  8
0
 62
     0
 10
291.64260341765743
 20
246.785008066974
 30
0.0
 11
291.64260341765743
 21
246.785008066974
 31
0.0
  0
LINE
  5
198D
  8
0
 62
     0
 10
291.00760341765738
 20
246.785008066974
 30
0.0
 11
291.00760341765738
 21
246.785008066974
 31
0.0
  0
LINE
  5
198E
  8
0
 62
     0
 10
290.3726034176575
 20
246.785008066974
 30
0.0
 11
290.3726034176575
 21
246.785008066974
 31
0.0
  0
LINE
  5
198F
  8
0
 62
     0
 10
289.7376034176574
 20
246.785008066974
 30
0.0
 11
289.7376034176574
 21
246.785008066974
 31
0.0
  0
LINE
  5
1990
  8
0
 62
     0
 10
289.10260341765741
 20
246.785008066974
 30
0.0
 11
289.10260341765741
 21
246.785008066974
 31
0.0
  0
LINE
  5
1991
  8
0
 62
     0
 10
288.46760341765747
 20
246.785008066974
 30
0.0
 11
288.46760341765747
 21
246.785008066974
 31
0.0
  0
LINE
  5
1992
  8
0
 62
     0
 10
326.56760341765721
 20
246.785008066974
 30
0.0
 11
326.56760341765721
 21
246.785008066974
 31
0.0
  0
LINE
  5
1993
  8
0
 62
     0
 10
325.93260341765722
 20
246.785008066974
 30
0.0
 11
325.93260341765722
 21
246.785008066974
 31
0.0
  0
LINE
  5
1994
  8
0
 62
     0
 10
325.29760341765723
 20
246.785008066974
 30
0.0
 11
325.29760341765723
 21
246.785008066974
 31
0.0
  0
LINE
  5
1995
  8
0
 62
     0
 10
324.66260341765718
 20
246.785008066974
 30
0.0
 11
324.66260341765718
 21
246.785008066974
 31
0.0
  0
LINE
  5
1996
  8
0
 62
     0
 10
324.02760341765719
 20
246.785008066974
 30
0.0
 11
324.02760341765719
 21
246.785008066974
 31
0.0
  0
LINE
  5
1997
  8
0
 62
     0
 10
323.3926034176572
 20
246.785008066974
 30
0.0
 11
323.3926034176572
 21
246.785008066974
 31
0.0
  0
LINE
  5
1998
  8
0
 62
     0
 10
322.75760341765732
 20
246.785008066974
 30
0.0
 11
322.75760341765732
 21
246.785008066974
 31
0.0
  0
LINE
  5
1999
  8
0
 62
     0
 10
322.12260341765727
 20
246.785008066974
 30
0.0
 11
322.12260341765727
 21
246.785008066974
 31
0.0
  0
LINE
  5
199A
  8
0
 62
     0
 10
321.48760341765728
 20
246.785008066974
 30
0.0
 11
321.48760341765728
 21
246.785008066974
 31
0.0
  0
LINE
  5
199B
  8
0
 62
     0
 10
320.85260341765729
 20
246.785008066974
 30
0.0
 11
320.85260341765729
 21
246.785008066974
 31
0.0
  0
LINE
  5
199C
  8
0
 62
     0
 10
320.2176034176573
 20
246.785008066974
 30
0.0
 11
320.2176034176573
 21
246.785008066974
 31
0.0
  0
LINE
  5
199D
  8
0
 62
     0
 10
319.58260341765731
 20
246.785008066974
 30
0.0
 11
319.58260341765731
 21
246.785008066974
 31
0.0
  0
LINE
  5
199E
  8
0
 62
     0
 10
318.94760341765732
 20
246.785008066974
 30
0.0
 11
318.94760341765732
 21
246.785008066974
 31
0.0
  0
LINE
  5
199F
  8
0
 62
     0
 10
318.31260341765727
 20
246.785008066974
 30
0.0
 11
318.31260341765727
 21
246.785008066974
 31
0.0
  0
LINE
  5
19A0
  8
0
 62
     0
 10
317.67760341765728
 20
246.785008066974
 30
0.0
 11
317.67760341765728
 21
246.785008066974
 31
0.0
  0
LINE
  5
19A1
  8
0
 62
     0
 10
317.04260341765729
 20
246.785008066974
 30
0.0
 11
317.04260341765729
 21
246.785008066974
 31
0.0
  0
LINE
  5
19A2
  8
0
 62
     0
 10
316.40760341765741
 20
246.785008066974
 30
0.0
 11
316.40760341765741
 21
246.785008066974
 31
0.0
  0
LINE
  5
19A3
  8
0
 62
     0
 10
315.77260341765742
 20
246.785008066974
 30
0.0
 11
315.77260341765742
 21
246.785008066974
 31
0.0
  0
LINE
  5
19A4
  8
0
 62
     0
 10
315.13760341765737
 20
246.785008066974
 30
0.0
 11
315.13760341765737
 21
246.785008066974
 31
0.0
  0
LINE
  5
19A5
  8
0
 62
     0
 10
314.50260341765738
 20
246.785008066974
 30
0.0
 11
314.50260341765738
 21
246.785008066974
 31
0.0
  0
LINE
  5
19A6
  8
0
 62
     0
 10
313.86760341765739
 20
246.785008066974
 30
0.0
 11
313.86760341765739
 21
246.785008066974
 31
0.0
  0
LINE
  5
19A7
  8
0
 62
     0
 10
313.2326034176574
 20
246.785008066974
 30
0.0
 11
313.2326034176574
 21
246.785008066974
 31
0.0
  0
LINE
  5
19A8
  8
0
 62
     0
 10
312.59760341765741
 20
246.785008066974
 30
0.0
 11
312.59760341765741
 21
246.785008066974
 31
0.0
  0
LINE
  5
19A9
  8
0
 62
     0
 10
311.96260341765742
 20
246.785008066974
 30
0.0
 11
311.96260341765742
 21
246.785008066974
 31
0.0
  0
LINE
  5
19AA
  8
0
 62
     0
 10
311.32760341765737
 20
246.785008066974
 30
0.0
 11
311.32760341765737
 21
246.785008066974
 31
0.0
  0
LINE
  5
19AB
  8
0
 62
     0
 10
310.69260341765738
 20
246.785008066974
 30
0.0
 11
310.69260341765738
 21
246.785008066974
 31
0.0
  0
LINE
  5
19AC
  8
0
 62
     0
 10
310.0576034176575
 20
246.785008066974
 30
0.0
 11
310.0576034176575
 21
246.785008066974
 31
0.0
  0
LINE
  5
19AD
  8
0
 62
     0
 10
309.42260341765751
 20
246.785008066974
 30
0.0
 11
309.42260341765751
 21
246.785008066974
 31
0.0
  0
LINE
  5
19AE
  8
0
 62
     0
 10
308.78760341765741
 20
246.785008066974
 30
0.0
 11
308.78760341765741
 21
246.785008066974
 31
0.0
  0
LINE
  5
19AF
  8
0
 62
     0
 10
308.15260341765747
 20
246.785008066974
 30
0.0
 11
308.15260341765747
 21
246.785008066974
 31
0.0
  0
LINE
  5
19B0
  8
0
 62
     0
 10
307.51760341765748
 20
246.785008066974
 30
0.0
 11
307.51760341765748
 21
246.785008066974
 31
0.0
  0
LINE
  5
19B1
  8
0
 62
     0
 10
285.2926034176574
 20
246.785008066974
 30
0.0
 11
285.2926034176574
 21
246.785008066974
 31
0.0
  0
LINE
  5
19B2
  8
0
 62
     0
 10
284.65760341765741
 20
246.785008066974
 30
0.0
 11
284.65760341765741
 21
246.785008066974
 31
0.0
  0
LINE
  5
19B3
  8
0
 62
     0
 10
284.02260341765731
 20
246.785008066974
 30
0.0
 11
284.02260341765731
 21
246.785008066974
 31
0.0
  0
LINE
  5
19B4
  8
0
 62
     0
 10
283.38760341765737
 20
246.785008066974
 30
0.0
 11
283.38760341765737
 21
246.785008066974
 31
0.0
  0
LINE
  5
19B5
  8
0
 62
     0
 10
282.75260341765738
 20
246.785008066974
 30
0.0
 11
282.75260341765738
 21
246.785008066974
 31
0.0
  0
LINE
  5
19B6
  8
0
 62
     0
 10
282.11760341765739
 20
246.785008066974
 30
0.0
 11
282.11760341765739
 21
246.785008066974
 31
0.0
  0
LINE
  5
19B7
  8
0
 62
     0
 10
281.4826034176574
 20
246.785008066974
 30
0.0
 11
281.4826034176574
 21
246.785008066974
 31
0.0
  0
LINE
  5
19B8
  8
0
 62
     0
 10
280.84760341765741
 20
246.785008066974
 30
0.0
 11
280.84760341765741
 21
246.785008066974
 31
0.0
  0
LINE
  5
19B9
  8
0
 62
     0
 10
280.21260341765742
 20
246.785008066974
 30
0.0
 11
280.21260341765742
 21
246.785008066974
 31
0.0
  0
LINE
  5
19BA
  8
0
 62
     0
 10
279.57760341765737
 20
246.785008066974
 30
0.0
 11
279.57760341765737
 21
246.785008066974
 31
0.0
  0
LINE
  5
19BB
  8
0
 62
     0
 10
278.94260341765749
 20
246.785008066974
 30
0.0
 11
278.94260341765749
 21
246.785008066974
 31
0.0
  0
LINE
  5
19BC
  8
0
 62
     0
 10
278.30760341765739
 20
246.785008066974
 30
0.0
 11
278.30760341765739
 21
246.785008066974
 31
0.0
  0
LINE
  5
19BD
  8
0
 62
     0
 10
277.6726034176574
 20
246.785008066974
 30
0.0
 11
277.6726034176574
 21
246.785008066974
 31
0.0
  0
LINE
  5
19BE
  8
0
 62
     0
 10
326.88510341765721
 20
247.42000806697399
 30
0.0
 11
326.88510341765721
 21
247.42000806697399
 31
0.0
  0
LINE
  5
19BF
  8
0
 62
     0
 10
326.25010341765721
 20
247.42000806697399
 30
0.0
 11
326.25010341765721
 21
247.42000806697399
 31
0.0
  0
LINE
  5
19C0
  8
0
 62
     0
 10
325.61510341765722
 20
247.42000806697399
 30
0.0
 11
325.61510341765722
 21
247.42000806697399
 31
0.0
  0
LINE
  5
19C1
  8
0
 62
     0
 10
324.98010341765718
 20
247.42000806697399
 30
0.0
 11
324.98010341765718
 21
247.42000806697399
 31
0.0
  0
LINE
  5
19C2
  8
0
 62
     0
 10
324.34510341765719
 20
247.42000806697399
 30
0.0
 11
324.34510341765719
 21
247.42000806697399
 31
0.0
  0
LINE
  5
19C3
  8
0
 62
     0
 10
323.71010341765731
 20
247.42000806697399
 30
0.0
 11
323.71010341765731
 21
247.42000806697399
 31
0.0
  0
LINE
  5
19C4
  8
0
 62
     0
 10
323.07510341765732
 20
247.42000806697399
 30
0.0
 11
323.07510341765732
 21
247.42000806697399
 31
0.0
  0
LINE
  5
19C5
  8
0
 62
     0
 10
322.44010341765733
 20
247.42000806697399
 30
0.0
 11
322.44010341765733
 21
247.42000806697399
 31
0.0
  0
LINE
  5
19C6
  8
0
 62
     0
 10
321.80510341765728
 20
247.42000806697399
 30
0.0
 11
321.80510341765728
 21
247.42000806697399
 31
0.0
  0
LINE
  5
19C7
  8
0
 62
     0
 10
321.17010341765729
 20
247.42000806697399
 30
0.0
 11
321.17010341765729
 21
247.42000806697399
 31
0.0
  0
LINE
  5
19C8
  8
0
 62
     0
 10
320.5351034176573
 20
247.42000806697399
 30
0.0
 11
320.5351034176573
 21
247.42000806697399
 31
0.0
  0
LINE
  5
19C9
  8
0
 62
     0
 10
319.90010341765731
 20
247.42000806697399
 30
0.0
 11
319.90010341765731
 21
247.42000806697399
 31
0.0
  0
LINE
  5
19CA
  8
0
 62
     0
 10
319.26510341765731
 20
247.42000806697399
 30
0.0
 11
319.26510341765731
 21
247.42000806697399
 31
0.0
  0
LINE
  5
19CB
  8
0
 62
     0
 10
318.63010341765732
 20
247.42000806697399
 30
0.0
 11
318.63010341765732
 21
247.42000806697399
 31
0.0
  0
LINE
  5
19CC
  8
0
 62
     0
 10
317.99510341765728
 20
247.42000806697399
 30
0.0
 11
317.99510341765728
 21
247.42000806697399
 31
0.0
  0
LINE
  5
19CD
  8
0
 62
     0
 10
317.3601034176574
 20
247.42000806697399
 30
0.0
 11
317.3601034176574
 21
247.42000806697399
 31
0.0
  0
LINE
  5
19CE
  8
0
 62
     0
 10
316.72510341765729
 20
247.42000806697399
 30
0.0
 11
316.72510341765729
 21
247.42000806697399
 31
0.0
  0
LINE
  5
19CF
  8
0
 62
     0
 10
316.0901034176573
 20
247.42000806697399
 30
0.0
 11
316.0901034176573
 21
247.42000806697399
 31
0.0
  0
LINE
  5
19D0
  8
0
 62
     0
 10
315.45510341765743
 20
247.42000806697399
 30
0.0
 11
315.45510341765743
 21
247.42000806697399
 31
0.0
  0
LINE
  5
19D1
  8
0
 62
     0
 10
314.82010341765738
 20
247.42000806697399
 30
0.0
 11
314.82010341765738
 21
247.42000806697399
 31
0.0
  0
LINE
  5
19D2
  8
0
 62
     0
 10
314.18510341765739
 20
247.42000806697399
 30
0.0
 11
314.18510341765739
 21
247.42000806697399
 31
0.0
  0
LINE
  5
19D3
  8
0
 62
     0
 10
313.5501034176574
 20
247.42000806697399
 30
0.0
 11
313.5501034176574
 21
247.42000806697399
 31
0.0
  0
LINE
  5
19D4
  8
0
 62
     0
 10
312.91510341765741
 20
247.42000806697399
 30
0.0
 11
312.91510341765741
 21
247.42000806697399
 31
0.0
  0
LINE
  5
19D5
  8
0
 62
     0
 10
312.28010341765741
 20
247.42000806697399
 30
0.0
 11
312.28010341765741
 21
247.42000806697399
 31
0.0
  0
LINE
  5
19D6
  8
0
 62
     0
 10
311.64510341765742
 20
247.42000806697399
 30
0.0
 11
311.64510341765742
 21
247.42000806697399
 31
0.0
  0
LINE
  5
19D7
  8
0
 62
     0
 10
311.01010341765738
 20
247.42000806697399
 30
0.0
 11
311.01010341765738
 21
247.42000806697399
 31
0.0
  0
LINE
  5
19D8
  8
0
 62
     0
 10
310.37510341765739
 20
247.42000806697399
 30
0.0
 11
310.37510341765739
 21
247.42000806697399
 31
0.0
  0
LINE
  5
19D9
  8
0
 62
     0
 10
309.74010341765739
 20
247.42000806697399
 30
0.0
 11
309.74010341765739
 21
247.42000806697399
 31
0.0
  0
LINE
  5
19DA
  8
0
 62
     0
 10
309.10510341765752
 20
247.42000806697399
 30
0.0
 11
309.10510341765752
 21
247.42000806697399
 31
0.0
  0
LINE
  5
19DB
  8
0
 62
     0
 10
308.47010341765753
 20
247.42000806697399
 30
0.0
 11
308.47010341765753
 21
247.42000806697399
 31
0.0
  0
LINE
  5
19DC
  8
0
 62
     0
 10
307.83510341765748
 20
247.42000806697399
 30
0.0
 11
307.83510341765748
 21
247.42000806697399
 31
0.0
  0
LINE
  5
19DD
  8
0
 62
     0
 10
307.20010341765749
 20
247.42000806697399
 30
0.0
 11
307.20010341765749
 21
247.42000806697399
 31
0.0
  0
LINE
  5
19DE
  8
0
 62
     0
 10
297.04010341765712
 20
247.42000806697399
 30
0.0
 11
297.04010341765712
 21
247.42000806697399
 31
0.0
  0
LINE
  5
19DF
  8
0
 62
     0
 10
296.40510341765719
 20
247.42000806697399
 30
0.0
 11
296.40510341765719
 21
247.42000806697399
 31
0.0
  0
LINE
  5
19E0
  8
0
 62
     0
 10
295.7701034176572
 20
247.42000806697399
 30
0.0
 11
295.7701034176572
 21
247.42000806697399
 31
0.0
  0
LINE
  5
19E1
  8
0
 62
     0
 10
295.13510341765721
 20
247.42000806697399
 30
0.0
 11
295.13510341765721
 21
247.42000806697399
 31
0.0
  0
LINE
  5
19E2
  8
0
 62
     0
 10
294.50010341765721
 20
247.42000806697399
 30
0.0
 11
294.50010341765721
 21
247.42000806697399
 31
0.0
  0
LINE
  5
19E3
  8
0
 62
     0
 10
293.86510341765722
 20
247.42000806697399
 30
0.0
 11
293.86510341765722
 21
247.42000806697399
 31
0.0
  0
LINE
  5
19E4
  8
0
 62
     0
 10
293.23010341765729
 20
247.42000806697399
 30
0.0
 11
293.23010341765729
 21
247.42000806697399
 31
0.0
  0
LINE
  5
19E5
  8
0
 62
     0
 10
292.5951034176573
 20
247.42000806697399
 30
0.0
 11
292.5951034176573
 21
247.42000806697399
 31
0.0
  0
LINE
  5
19E6
  8
0
 62
     0
 10
291.96010341765719
 20
247.42000806697399
 30
0.0
 11
291.96010341765719
 21
247.42000806697399
 31
0.0
  0
LINE
  5
19E7
  8
0
 62
     0
 10
291.32510341765732
 20
247.42000806697399
 30
0.0
 11
291.32510341765732
 21
247.42000806697399
 31
0.0
  0
LINE
  5
19E8
  8
0
 62
     0
 10
290.69010341765733
 20
247.42000806697399
 30
0.0
 11
290.69010341765733
 21
247.42000806697399
 31
0.0
  0
LINE
  5
19E9
  8
0
 62
     0
 10
290.05510341765728
 20
247.42000806697399
 30
0.0
 11
290.05510341765728
 21
247.42000806697399
 31
0.0
  0
LINE
  5
19EA
  8
0
 62
     0
 10
289.42010341765729
 20
247.42000806697399
 30
0.0
 11
289.42010341765729
 21
247.42000806697399
 31
0.0
  0
LINE
  5
19EB
  8
0
 62
     0
 10
288.7851034176573
 20
247.42000806697399
 30
0.0
 11
288.7851034176573
 21
247.42000806697399
 31
0.0
  0
LINE
  5
19EC
  8
0
 62
     0
 10
288.15010341765731
 20
247.42000806697399
 30
0.0
 11
288.15010341765731
 21
247.42000806697399
 31
0.0
  0
LINE
  5
19ED
  8
0
 62
     0
 10
287.51510341765731
 20
247.42000806697399
 30
0.0
 11
287.51510341765731
 21
247.42000806697399
 31
0.0
  0
LINE
  5
19EE
  8
0
 62
     0
 10
286.88010341765732
 20
247.42000806697399
 30
0.0
 11
286.88010341765732
 21
247.42000806697399
 31
0.0
  0
LINE
  5
19EF
  8
0
 62
     0
 10
286.24510341765728
 20
247.42000806697399
 30
0.0
 11
286.24510341765728
 21
247.42000806697399
 31
0.0
  0
LINE
  5
19F0
  8
0
 62
     0
 10
285.61010341765729
 20
247.42000806697399
 30
0.0
 11
285.61010341765729
 21
247.42000806697399
 31
0.0
  0
LINE
  5
19F1
  8
0
 62
     0
 10
284.97510341765729
 20
247.42000806697399
 30
0.0
 11
284.97510341765729
 21
247.42000806697399
 31
0.0
  0
LINE
  5
19F2
  8
0
 62
     0
 10
284.34010341765742
 20
247.42000806697399
 30
0.0
 11
284.34010341765742
 21
247.42000806697399
 31
0.0
  0
LINE
  5
19F3
  8
0
 62
     0
 10
283.70510341765743
 20
247.42000806697399
 30
0.0
 11
283.70510341765743
 21
247.42000806697399
 31
0.0
  0
LINE
  5
19F4
  8
0
 62
     0
 10
283.07010341765738
 20
247.42000806697399
 30
0.0
 11
283.07010341765738
 21
247.42000806697399
 31
0.0
  0
LINE
  5
19F5
  8
0
 62
     0
 10
282.43510341765739
 20
247.42000806697399
 30
0.0
 11
282.43510341765739
 21
247.42000806697399
 31
0.0
  0
LINE
  5
19F6
  8
0
 62
     0
 10
281.8001034176574
 20
247.42000806697399
 30
0.0
 11
281.8001034176574
 21
247.42000806697399
 31
0.0
  0
LINE
  5
19F7
  8
0
 62
     0
 10
281.16510341765741
 20
247.42000806697399
 30
0.0
 11
281.16510341765741
 21
247.42000806697399
 31
0.0
  0
LINE
  5
19F8
  8
0
 62
     0
 10
280.53010341765741
 20
247.42000806697399
 30
0.0
 11
280.53010341765741
 21
247.42000806697399
 31
0.0
  0
LINE
  5
19F9
  8
0
 62
     0
 10
279.89510341765742
 20
247.42000806697399
 30
0.0
 11
279.89510341765742
 21
247.42000806697399
 31
0.0
  0
LINE
  5
19FA
  8
0
 62
     0
 10
279.26010341765738
 20
247.42000806697399
 30
0.0
 11
279.26010341765738
 21
247.42000806697399
 31
0.0
  0
LINE
  5
19FB
  8
0
 62
     0
 10
278.62510341765739
 20
247.42000806697399
 30
0.0
 11
278.62510341765739
 21
247.42000806697399
 31
0.0
  0
LINE
  5
19FC
  8
0
 62
     0
 10
277.99010341765751
 20
247.42000806697399
 30
0.0
 11
277.99010341765751
 21
247.42000806697399
 31
0.0
  0
LINE
  5
19FD
  8
0
 62
     0
 10
277.35510341765752
 20
247.42000806697399
 30
0.0
 11
277.35510341765752
 21
247.42000806697399
 31
0.0
  0
LINE
  5
19FE
  8
0
 62
     0
 10
326.56760341765721
 20
248.05500806697401
 30
0.0
 11
326.56760341765721
 21
248.05500806697401
 31
0.0
  0
LINE
  5
19FF
  8
0
 62
     0
 10
325.93260341765722
 20
248.05500806697401
 30
0.0
 11
325.93260341765722
 21
248.05500806697401
 31
0.0
  0
LINE
  5
1A00
  8
0
 62
     0
 10
325.29760341765723
 20
248.05500806697401
 30
0.0
 11
325.29760341765723
 21
248.05500806697401
 31
0.0
  0
LINE
  5
1A01
  8
0
 62
     0
 10
324.66260341765718
 20
248.05500806697401
 30
0.0
 11
324.66260341765718
 21
248.05500806697401
 31
0.0
  0
LINE
  5
1A02
  8
0
 62
     0
 10
324.02760341765719
 20
248.05500806697401
 30
0.0
 11
324.02760341765719
 21
248.05500806697401
 31
0.0
  0
LINE
  5
1A03
  8
0
 62
     0
 10
323.3926034176572
 20
248.05500806697401
 30
0.0
 11
323.3926034176572
 21
248.05500806697401
 31
0.0
  0
LINE
  5
1A04
  8
0
 62
     0
 10
322.75760341765732
 20
248.05500806697401
 30
0.0
 11
322.75760341765732
 21
248.05500806697401
 31
0.0
  0
LINE
  5
1A05
  8
0
 62
     0
 10
322.12260341765727
 20
248.05500806697401
 30
0.0
 11
322.12260341765727
 21
248.05500806697401
 31
0.0
  0
LINE
  5
1A06
  8
0
 62
     0
 10
321.48760341765728
 20
248.05500806697401
 30
0.0
 11
321.48760341765728
 21
248.05500806697401
 31
0.0
  0
LINE
  5
1A07
  8
0
 62
     0
 10
320.85260341765729
 20
248.05500806697401
 30
0.0
 11
320.85260341765729
 21
248.05500806697401
 31
0.0
  0
LINE
  5
1A08
  8
0
 62
     0
 10
320.2176034176573
 20
248.05500806697401
 30
0.0
 11
320.2176034176573
 21
248.05500806697401
 31
0.0
  0
LINE
  5
1A09
  8
0
 62
     0
 10
319.58260341765731
 20
248.05500806697401
 30
0.0
 11
319.58260341765731
 21
248.05500806697401
 31
0.0
  0
LINE
  5
1A0A
  8
0
 62
     0
 10
318.94760341765732
 20
248.05500806697401
 30
0.0
 11
318.94760341765732
 21
248.05500806697401
 31
0.0
  0
LINE
  5
1A0B
  8
0
 62
     0
 10
318.31260341765727
 20
248.05500806697401
 30
0.0
 11
318.31260341765727
 21
248.05500806697401
 31
0.0
  0
LINE
  5
1A0C
  8
0
 62
     0
 10
317.67760341765728
 20
248.05500806697401
 30
0.0
 11
317.67760341765728
 21
248.05500806697401
 31
0.0
  0
LINE
  5
1A0D
  8
0
 62
     0
 10
317.04260341765729
 20
248.05500806697401
 30
0.0
 11
317.04260341765729
 21
248.05500806697401
 31
0.0
  0
LINE
  5
1A0E
  8
0
 62
     0
 10
316.40760341765741
 20
248.05500806697401
 30
0.0
 11
316.40760341765741
 21
248.05500806697401
 31
0.0
  0
LINE
  5
1A0F
  8
0
 62
     0
 10
315.77260341765742
 20
248.05500806697401
 30
0.0
 11
315.77260341765742
 21
248.05500806697401
 31
0.0
  0
LINE
  5
1A10
  8
0
 62
     0
 10
315.13760341765737
 20
248.05500806697401
 30
0.0
 11
315.13760341765737
 21
248.05500806697401
 31
0.0
  0
LINE
  5
1A11
  8
0
 62
     0
 10
314.50260341765738
 20
248.05500806697401
 30
0.0
 11
314.50260341765738
 21
248.05500806697401
 31
0.0
  0
LINE
  5
1A12
  8
0
 62
     0
 10
313.86760341765739
 20
248.05500806697401
 30
0.0
 11
313.86760341765739
 21
248.05500806697401
 31
0.0
  0
LINE
  5
1A13
  8
0
 62
     0
 10
313.2326034176574
 20
248.05500806697401
 30
0.0
 11
313.2326034176574
 21
248.05500806697401
 31
0.0
  0
LINE
  5
1A14
  8
0
 62
     0
 10
312.59760341765741
 20
248.05500806697401
 30
0.0
 11
312.59760341765741
 21
248.05500806697401
 31
0.0
  0
LINE
  5
1A15
  8
0
 62
     0
 10
311.96260341765742
 20
248.05500806697401
 30
0.0
 11
311.96260341765742
 21
248.05500806697401
 31
0.0
  0
LINE
  5
1A16
  8
0
 62
     0
 10
311.32760341765737
 20
248.05500806697401
 30
0.0
 11
311.32760341765737
 21
248.05500806697401
 31
0.0
  0
LINE
  5
1A17
  8
0
 62
     0
 10
310.69260341765738
 20
248.05500806697401
 30
0.0
 11
310.69260341765738
 21
248.05500806697401
 31
0.0
  0
LINE
  5
1A18
  8
0
 62
     0
 10
310.0576034176575
 20
248.05500806697401
 30
0.0
 11
310.0576034176575
 21
248.05500806697401
 31
0.0
  0
LINE
  5
1A19
  8
0
 62
     0
 10
309.42260341765751
 20
248.05500806697401
 30
0.0
 11
309.42260341765751
 21
248.05500806697401
 31
0.0
  0
LINE
  5
1A1A
  8
0
 62
     0
 10
308.78760341765741
 20
248.05500806697401
 30
0.0
 11
308.78760341765741
 21
248.05500806697401
 31
0.0
  0
LINE
  5
1A1B
  8
0
 62
     0
 10
308.15260341765747
 20
248.05500806697401
 30
0.0
 11
308.15260341765747
 21
248.05500806697401
 31
0.0
  0
LINE
  5
1A1C
  8
0
 62
     0
 10
307.51760341765748
 20
248.05500806697401
 30
0.0
 11
307.51760341765748
 21
248.05500806697401
 31
0.0
  0
LINE
  5
1A1D
  8
0
 62
     0
 10
296.72260341765718
 20
248.05500806697401
 30
0.0
 11
296.72260341765718
 21
248.05500806697401
 31
0.0
  0
LINE
  5
1A1E
  8
0
 62
     0
 10
296.08760341765719
 20
248.05500806697401
 30
0.0
 11
296.08760341765719
 21
248.05500806697401
 31
0.0
  0
LINE
  5
1A1F
  8
0
 62
     0
 10
295.4526034176572
 20
248.05500806697401
 30
0.0
 11
295.4526034176572
 21
248.05500806697401
 31
0.0
  0
LINE
  5
1A20
  8
0
 62
     0
 10
294.81760341765721
 20
248.05500806697401
 30
0.0
 11
294.81760341765721
 21
248.05500806697401
 31
0.0
  0
LINE
  5
1A21
  8
0
 62
     0
 10
294.18260341765722
 20
248.05500806697401
 30
0.0
 11
294.18260341765722
 21
248.05500806697401
 31
0.0
  0
LINE
  5
1A22
  8
0
 62
     0
 10
293.54760341765723
 20
248.05500806697401
 30
0.0
 11
293.54760341765723
 21
248.05500806697401
 31
0.0
  0
LINE
  5
1A23
  8
0
 62
     0
 10
292.91260341765718
 20
248.05500806697401
 30
0.0
 11
292.91260341765718
 21
248.05500806697401
 31
0.0
  0
LINE
  5
1A24
  8
0
 62
     0
 10
292.2776034176573
 20
248.05500806697401
 30
0.0
 11
292.2776034176573
 21
248.05500806697401
 31
0.0
  0
LINE
  5
1A25
  8
0
 62
     0
 10
291.64260341765731
 20
248.05500806697401
 30
0.0
 11
291.64260341765731
 21
248.05500806697401
 31
0.0
  0
LINE
  5
1A26
  8
0
 62
     0
 10
291.00760341765732
 20
248.05500806697401
 30
0.0
 11
291.00760341765732
 21
248.05500806697401
 31
0.0
  0
LINE
  5
1A27
  8
0
 62
     0
 10
290.37260341765727
 20
248.05500806697401
 30
0.0
 11
290.37260341765727
 21
248.05500806697401
 31
0.0
  0
LINE
  5
1A28
  8
0
 62
     0
 10
289.73760341765728
 20
248.05500806697401
 30
0.0
 11
289.73760341765728
 21
248.05500806697401
 31
0.0
  0
LINE
  5
1A29
  8
0
 62
     0
 10
289.10260341765729
 20
248.05500806697401
 30
0.0
 11
289.10260341765729
 21
248.05500806697401
 31
0.0
  0
LINE
  5
1A2A
  8
0
 62
     0
 10
288.4676034176573
 20
248.05500806697401
 30
0.0
 11
288.4676034176573
 21
248.05500806697401
 31
0.0
  0
LINE
  5
1A2B
  8
0
 62
     0
 10
287.83260341765731
 20
248.05500806697401
 30
0.0
 11
287.83260341765731
 21
248.05500806697401
 31
0.0
  0
LINE
  5
1A2C
  8
0
 62
     0
 10
287.19760341765732
 20
248.05500806697401
 30
0.0
 11
287.19760341765732
 21
248.05500806697401
 31
0.0
  0
LINE
  5
1A2D
  8
0
 62
     0
 10
286.56260341765727
 20
248.05500806697401
 30
0.0
 11
286.56260341765727
 21
248.05500806697401
 31
0.0
  0
LINE
  5
1A2E
  8
0
 62
     0
 10
285.92760341765728
 20
248.05500806697401
 30
0.0
 11
285.92760341765728
 21
248.05500806697401
 31
0.0
  0
LINE
  5
1A2F
  8
0
 62
     0
 10
285.2926034176574
 20
248.05500806697401
 30
0.0
 11
285.2926034176574
 21
248.05500806697401
 31
0.0
  0
LINE
  5
1A30
  8
0
 62
     0
 10
284.65760341765741
 20
248.05500806697401
 30
0.0
 11
284.65760341765741
 21
248.05500806697401
 31
0.0
  0
LINE
  5
1A31
  8
0
 62
     0
 10
284.02260341765731
 20
248.05500806697401
 30
0.0
 11
284.02260341765731
 21
248.05500806697401
 31
0.0
  0
LINE
  5
1A32
  8
0
 62
     0
 10
283.38760341765737
 20
248.05500806697401
 30
0.0
 11
283.38760341765737
 21
248.05500806697401
 31
0.0
  0
LINE
  5
1A33
  8
0
 62
     0
 10
282.75260341765738
 20
248.05500806697401
 30
0.0
 11
282.75260341765738
 21
248.05500806697401
 31
0.0
  0
LINE
  5
1A34
  8
0
 62
     0
 10
282.11760341765739
 20
248.05500806697401
 30
0.0
 11
282.11760341765739
 21
248.05500806697401
 31
0.0
  0
LINE
  5
1A35
  8
0
 62
     0
 10
281.4826034176574
 20
248.05500806697401
 30
0.0
 11
281.4826034176574
 21
248.05500806697401
 31
0.0
  0
LINE
  5
1A36
  8
0
 62
     0
 10
280.84760341765741
 20
248.05500806697401
 30
0.0
 11
280.84760341765741
 21
248.05500806697401
 31
0.0
  0
LINE
  5
1A37
  8
0
 62
     0
 10
280.21260341765742
 20
248.05500806697401
 30
0.0
 11
280.21260341765742
 21
248.05500806697401
 31
0.0
  0
LINE
  5
1A38
  8
0
 62
     0
 10
279.57760341765737
 20
248.05500806697401
 30
0.0
 11
279.57760341765737
 21
248.05500806697401
 31
0.0
  0
LINE
  5
1A39
  8
0
 62
     0
 10
278.94260341765749
 20
248.05500806697401
 30
0.0
 11
278.94260341765749
 21
248.05500806697401
 31
0.0
  0
LINE
  5
1A3A
  8
0
 62
     0
 10
278.30760341765739
 20
248.05500806697401
 30
0.0
 11
278.30760341765739
 21
248.05500806697401
 31
0.0
  0
LINE
  5
1A3B
  8
0
 62
     0
 10
277.6726034176574
 20
248.05500806697401
 30
0.0
 11
277.6726034176574
 21
248.05500806697401
 31
0.0
  0
LINE
  5
1A3C
  8
0
 62
     0
 10
326.88510341765721
 20
248.690008066974
 30
0.0
 11
326.88510341765721
 21
248.690008066974
 31
0.0
  0
LINE
  5
1A3D
  8
0
 62
     0
 10
326.25010341765721
 20
248.690008066974
 30
0.0
 11
326.25010341765721
 21
248.690008066974
 31
0.0
  0
LINE
  5
1A3E
  8
0
 62
     0
 10
325.61510341765722
 20
248.690008066974
 30
0.0
 11
325.61510341765722
 21
248.690008066974
 31
0.0
  0
LINE
  5
1A3F
  8
0
 62
     0
 10
324.98010341765718
 20
248.690008066974
 30
0.0
 11
324.98010341765718
 21
248.690008066974
 31
0.0
  0
LINE
  5
1A40
  8
0
 62
     0
 10
324.34510341765719
 20
248.690008066974
 30
0.0
 11
324.34510341765719
 21
248.690008066974
 31
0.0
  0
LINE
  5
1A41
  8
0
 62
     0
 10
323.71010341765731
 20
248.690008066974
 30
0.0
 11
323.71010341765731
 21
248.690008066974
 31
0.0
  0
LINE
  5
1A42
  8
0
 62
     0
 10
323.07510341765732
 20
248.690008066974
 30
0.0
 11
323.07510341765732
 21
248.690008066974
 31
0.0
  0
LINE
  5
1A43
  8
0
 62
     0
 10
322.44010341765733
 20
248.690008066974
 30
0.0
 11
322.44010341765733
 21
248.690008066974
 31
0.0
  0
LINE
  5
1A44
  8
0
 62
     0
 10
321.80510341765728
 20
248.690008066974
 30
0.0
 11
321.80510341765728
 21
248.690008066974
 31
0.0
  0
LINE
  5
1A45
  8
0
 62
     0
 10
321.17010341765729
 20
248.690008066974
 30
0.0
 11
321.17010341765729
 21
248.690008066974
 31
0.0
  0
LINE
  5
1A46
  8
0
 62
     0
 10
320.5351034176573
 20
248.690008066974
 30
0.0
 11
320.5351034176573
 21
248.690008066974
 31
0.0
  0
LINE
  5
1A47
  8
0
 62
     0
 10
319.90010341765731
 20
248.690008066974
 30
0.0
 11
319.90010341765731
 21
248.690008066974
 31
0.0
  0
LINE
  5
1A48
  8
0
 62
     0
 10
319.26510341765731
 20
248.690008066974
 30
0.0
 11
319.26510341765731
 21
248.690008066974
 31
0.0
  0
LINE
  5
1A49
  8
0
 62
     0
 10
318.63010341765732
 20
248.690008066974
 30
0.0
 11
318.63010341765732
 21
248.690008066974
 31
0.0
  0
LINE
  5
1A4A
  8
0
 62
     0
 10
317.99510341765728
 20
248.690008066974
 30
0.0
 11
317.99510341765728
 21
248.690008066974
 31
0.0
  0
LINE
  5
1A4B
  8
0
 62
     0
 10
317.3601034176574
 20
248.690008066974
 30
0.0
 11
317.3601034176574
 21
248.690008066974
 31
0.0
  0
LINE
  5
1A4C
  8
0
 62
     0
 10
316.72510341765729
 20
248.690008066974
 30
0.0
 11
316.72510341765729
 21
248.690008066974
 31
0.0
  0
LINE
  5
1A4D
  8
0
 62
     0
 10
316.0901034176573
 20
248.690008066974
 30
0.0
 11
316.0901034176573
 21
248.690008066974
 31
0.0
  0
LINE
  5
1A4E
  8
0
 62
     0
 10
315.45510341765743
 20
248.690008066974
 30
0.0
 11
315.45510341765743
 21
248.690008066974
 31
0.0
  0
LINE
  5
1A4F
  8
0
 62
     0
 10
314.82010341765738
 20
248.690008066974
 30
0.0
 11
314.82010341765738
 21
248.690008066974
 31
0.0
  0
LINE
  5
1A50
  8
0
 62
     0
 10
314.18510341765739
 20
248.690008066974
 30
0.0
 11
314.18510341765739
 21
248.690008066974
 31
0.0
  0
LINE
  5
1A51
  8
0
 62
     0
 10
313.5501034176574
 20
248.690008066974
 30
0.0
 11
313.5501034176574
 21
248.690008066974
 31
0.0
  0
LINE
  5
1A52
  8
0
 62
     0
 10
312.91510341765741
 20
248.690008066974
 30
0.0
 11
312.91510341765741
 21
248.690008066974
 31
0.0
  0
LINE
  5
1A53
  8
0
 62
     0
 10
312.28010341765741
 20
248.690008066974
 30
0.0
 11
312.28010341765741
 21
248.690008066974
 31
0.0
  0
LINE
  5
1A54
  8
0
 62
     0
 10
311.64510341765742
 20
248.690008066974
 30
0.0
 11
311.64510341765742
 21
248.690008066974
 31
0.0
  0
LINE
  5
1A55
  8
0
 62
     0
 10
311.01010341765738
 20
248.690008066974
 30
0.0
 11
311.01010341765738
 21
248.690008066974
 31
0.0
  0
LINE
  5
1A56
  8
0
 62
     0
 10
310.37510341765739
 20
248.690008066974
 30
0.0
 11
310.37510341765739
 21
248.690008066974
 31
0.0
  0
LINE
  5
1A57
  8
0
 62
     0
 10
309.74010341765739
 20
248.690008066974
 30
0.0
 11
309.74010341765739
 21
248.690008066974
 31
0.0
  0
LINE
  5
1A58
  8
0
 62
     0
 10
309.10510341765752
 20
248.690008066974
 30
0.0
 11
309.10510341765752
 21
248.690008066974
 31
0.0
  0
LINE
  5
1A59
  8
0
 62
     0
 10
308.47010341765753
 20
248.690008066974
 30
0.0
 11
308.47010341765753
 21
248.690008066974
 31
0.0
  0
LINE
  5
1A5A
  8
0
 62
     0
 10
307.83510341765748
 20
248.690008066974
 30
0.0
 11
307.83510341765748
 21
248.690008066974
 31
0.0
  0
LINE
  5
1A5B
  8
0
 62
     0
 10
307.20010341765749
 20
248.690008066974
 30
0.0
 11
307.20010341765749
 21
248.690008066974
 31
0.0
  0
LINE
  5
1A5C
  8
0
 62
     0
 10
297.04010341765712
 20
248.690008066974
 30
0.0
 11
297.04010341765712
 21
248.690008066974
 31
0.0
  0
LINE
  5
1A5D
  8
0
 62
     0
 10
296.40510341765719
 20
248.690008066974
 30
0.0
 11
296.40510341765719
 21
248.690008066974
 31
0.0
  0
LINE
  5
1A5E
  8
0
 62
     0
 10
295.7701034176572
 20
248.690008066974
 30
0.0
 11
295.7701034176572
 21
248.690008066974
 31
0.0
  0
LINE
  5
1A5F
  8
0
 62
     0
 10
295.13510341765721
 20
248.690008066974
 30
0.0
 11
295.13510341765721
 21
248.690008066974
 31
0.0
  0
LINE
  5
1A60
  8
0
 62
     0
 10
294.50010341765721
 20
248.690008066974
 30
0.0
 11
294.50010341765721
 21
248.690008066974
 31
0.0
  0
LINE
  5
1A61
  8
0
 62
     0
 10
293.86510341765722
 20
248.690008066974
 30
0.0
 11
293.86510341765722
 21
248.690008066974
 31
0.0
  0
LINE
  5
1A62
  8
0
 62
     0
 10
293.23010341765729
 20
248.690008066974
 30
0.0
 11
293.23010341765729
 21
248.690008066974
 31
0.0
  0
LINE
  5
1A63
  8
0
 62
     0
 10
292.5951034176573
 20
248.690008066974
 30
0.0
 11
292.5951034176573
 21
248.690008066974
 31
0.0
  0
LINE
  5
1A64
  8
0
 62
     0
 10
291.96010341765719
 20
248.690008066974
 30
0.0
 11
291.96010341765719
 21
248.690008066974
 31
0.0
  0
LINE
  5
1A65
  8
0
 62
     0
 10
291.32510341765732
 20
248.690008066974
 30
0.0
 11
291.32510341765732
 21
248.690008066974
 31
0.0
  0
LINE
  5
1A66
  8
0
 62
     0
 10
290.69010341765733
 20
248.690008066974
 30
0.0
 11
290.69010341765733
 21
248.690008066974
 31
0.0
  0
LINE
  5
1A67
  8
0
 62
     0
 10
290.05510341765728
 20
248.690008066974
 30
0.0
 11
290.05510341765728
 21
248.690008066974
 31
0.0
  0
LINE
  5
1A68
  8
0
 62
     0
 10
289.42010341765729
 20
248.690008066974
 30
0.0
 11
289.42010341765729
 21
248.690008066974
 31
0.0
  0
LINE
  5
1A69
  8
0
 62
     0
 10
288.7851034176573
 20
248.690008066974
 30
0.0
 11
288.7851034176573
 21
248.690008066974
 31
0.0
  0
LINE
  5
1A6A
  8
0
 62
     0
 10
288.15010341765731
 20
248.690008066974
 30
0.0
 11
288.15010341765731
 21
248.690008066974
 31
0.0
  0
LINE
  5
1A6B
  8
0
 62
     0
 10
287.51510341765731
 20
248.690008066974
 30
0.0
 11
287.51510341765731
 21
248.690008066974
 31
0.0
  0
LINE
  5
1A6C
  8
0
 62
     0
 10
286.88010341765732
 20
248.690008066974
 30
0.0
 11
286.88010341765732
 21
248.690008066974
 31
0.0
  0
LINE
  5
1A6D
  8
0
 62
     0
 10
286.24510341765728
 20
248.690008066974
 30
0.0
 11
286.24510341765728
 21
248.690008066974
 31
0.0
  0
LINE
  5
1A6E
  8
0
 62
     0
 10
285.61010341765729
 20
248.690008066974
 30
0.0
 11
285.61010341765729
 21
248.690008066974
 31
0.0
  0
LINE
  5
1A6F
  8
0
 62
     0
 10
284.97510341765729
 20
248.690008066974
 30
0.0
 11
284.97510341765729
 21
248.690008066974
 31
0.0
  0
LINE
  5
1A70
  8
0
 62
     0
 10
284.34010341765742
 20
248.690008066974
 30
0.0
 11
284.34010341765742
 21
248.690008066974
 31
0.0
  0
LINE
  5
1A71
  8
0
 62
     0
 10
283.70510341765743
 20
248.690008066974
 30
0.0
 11
283.70510341765743
 21
248.690008066974
 31
0.0
  0
LINE
  5
1A72
  8
0
 62
     0
 10
283.07010341765738
 20
248.690008066974
 30
0.0
 11
283.07010341765738
 21
248.690008066974
 31
0.0
  0
LINE
  5
1A73
  8
0
 62
     0
 10
282.43510341765739
 20
248.690008066974
 30
0.0
 11
282.43510341765739
 21
248.690008066974
 31
0.0
  0
LINE
  5
1A74
  8
0
 62
     0
 10
281.8001034176574
 20
248.690008066974
 30
0.0
 11
281.8001034176574
 21
248.690008066974
 31
0.0
  0
LINE
  5
1A75
  8
0
 62
     0
 10
281.16510341765741
 20
248.690008066974
 30
0.0
 11
281.16510341765741
 21
248.690008066974
 31
0.0
  0
LINE
  5
1A76
  8
0
 62
     0
 10
280.53010341765741
 20
248.690008066974
 30
0.0
 11
280.53010341765741
 21
248.690008066974
 31
0.0
  0
LINE
  5
1A77
  8
0
 62
     0
 10
279.89510341765742
 20
248.690008066974
 30
0.0
 11
279.89510341765742
 21
248.690008066974
 31
0.0
  0
LINE
  5
1A78
  8
0
 62
     0
 10
279.26010341765738
 20
248.690008066974
 30
0.0
 11
279.26010341765738
 21
248.690008066974
 31
0.0
  0
LINE
  5
1A79
  8
0
 62
     0
 10
278.62510341765739
 20
248.690008066974
 30
0.0
 11
278.62510341765739
 21
248.690008066974
 31
0.0
  0
LINE
  5
1A7A
  8
0
 62
     0
 10
277.99010341765751
 20
248.690008066974
 30
0.0
 11
277.99010341765751
 21
248.690008066974
 31
0.0
  0
LINE
  5
1A7B
  8
0
 62
     0
 10
277.35510341765752
 20
248.690008066974
 30
0.0
 11
277.35510341765752
 21
248.690008066974
 31
0.0
  0
LINE
  5
1A7C
  8
0
 62
     0
 10
326.56760341765721
 20
249.32500806697399
 30
0.0
 11
326.56760341765721
 21
249.32500806697399
 31
0.0
  0
LINE
  5
1A7D
  8
0
 62
     0
 10
325.93260341765722
 20
249.32500806697399
 30
0.0
 11
325.93260341765722
 21
249.32500806697399
 31
0.0
  0
LINE
  5
1A7E
  8
0
 62
     0
 10
325.29760341765723
 20
249.32500806697399
 30
0.0
 11
325.29760341765723
 21
249.32500806697399
 31
0.0
  0
LINE
  5
1A7F
  8
0
 62
     0
 10
324.66260341765718
 20
249.32500806697399
 30
0.0
 11
324.66260341765718
 21
249.32500806697399
 31
0.0
  0
LINE
  5
1A80
  8
0
 62
     0
 10
324.02760341765719
 20
249.32500806697399
 30
0.0
 11
324.02760341765719
 21
249.32500806697399
 31
0.0
  0
LINE
  5
1A81
  8
0
 62
     0
 10
323.3926034176572
 20
249.32500806697399
 30
0.0
 11
323.3926034176572
 21
249.32500806697399
 31
0.0
  0
LINE
  5
1A82
  8
0
 62
     0
 10
322.75760341765732
 20
249.32500806697399
 30
0.0
 11
322.75760341765732
 21
249.32500806697399
 31
0.0
  0
LINE
  5
1A83
  8
0
 62
     0
 10
322.12260341765727
 20
249.32500806697399
 30
0.0
 11
322.12260341765727
 21
249.32500806697399
 31
0.0
  0
LINE
  5
1A84
  8
0
 62
     0
 10
321.48760341765728
 20
249.32500806697399
 30
0.0
 11
321.48760341765728
 21
249.32500806697399
 31
0.0
  0
LINE
  5
1A85
  8
0
 62
     0
 10
320.85260341765729
 20
249.32500806697399
 30
0.0
 11
320.85260341765729
 21
249.32500806697399
 31
0.0
  0
LINE
  5
1A86
  8
0
 62
     0
 10
320.2176034176573
 20
249.32500806697399
 30
0.0
 11
320.2176034176573
 21
249.32500806697399
 31
0.0
  0
LINE
  5
1A87
  8
0
 62
     0
 10
319.58260341765731
 20
249.32500806697399
 30
0.0
 11
319.58260341765731
 21
249.32500806697399
 31
0.0
  0
LINE
  5
1A88
  8
0
 62
     0
 10
318.94760341765732
 20
249.32500806697399
 30
0.0
 11
318.94760341765732
 21
249.32500806697399
 31
0.0
  0
LINE
  5
1A89
  8
0
 62
     0
 10
318.31260341765727
 20
249.32500806697399
 30
0.0
 11
318.31260341765727
 21
249.32500806697399
 31
0.0
  0
LINE
  5
1A8A
  8
0
 62
     0
 10
317.67760341765728
 20
249.32500806697399
 30
0.0
 11
317.67760341765728
 21
249.32500806697399
 31
0.0
  0
LINE
  5
1A8B
  8
0
 62
     0
 10
317.04260341765729
 20
249.32500806697399
 30
0.0
 11
317.04260341765729
 21
249.32500806697399
 31
0.0
  0
LINE
  5
1A8C
  8
0
 62
     0
 10
316.40760341765741
 20
249.32500806697399
 30
0.0
 11
316.40760341765741
 21
249.32500806697399
 31
0.0
  0
LINE
  5
1A8D
  8
0
 62
     0
 10
315.77260341765742
 20
249.32500806697399
 30
0.0
 11
315.77260341765742
 21
249.32500806697399
 31
0.0
  0
LINE
  5
1A8E
  8
0
 62
     0
 10
315.13760341765737
 20
249.32500806697399
 30
0.0
 11
315.13760341765737
 21
249.32500806697399
 31
0.0
  0
LINE
  5
1A8F
  8
0
 62
     0
 10
314.50260341765738
 20
249.32500806697399
 30
0.0
 11
314.50260341765738
 21
249.32500806697399
 31
0.0
  0
LINE
  5
1A90
  8
0
 62
     0
 10
313.86760341765739
 20
249.32500806697399
 30
0.0
 11
313.86760341765739
 21
249.32500806697399
 31
0.0
  0
LINE
  5
1A91
  8
0
 62
     0
 10
313.2326034176574
 20
249.32500806697399
 30
0.0
 11
313.2326034176574
 21
249.32500806697399
 31
0.0
  0
LINE
  5
1A92
  8
0
 62
     0
 10
312.59760341765741
 20
249.32500806697399
 30
0.0
 11
312.59760341765741
 21
249.32500806697399
 31
0.0
  0
LINE
  5
1A93
  8
0
 62
     0
 10
311.96260341765742
 20
249.32500806697399
 30
0.0
 11
311.96260341765742
 21
249.32500806697399
 31
0.0
  0
LINE
  5
1A94
  8
0
 62
     0
 10
311.32760341765737
 20
249.32500806697399
 30
0.0
 11
311.32760341765737
 21
249.32500806697399
 31
0.0
  0
LINE
  5
1A95
  8
0
 62
     0
 10
310.69260341765738
 20
249.32500806697399
 30
0.0
 11
310.69260341765738
 21
249.32500806697399
 31
0.0
  0
LINE
  5
1A96
  8
0
 62
     0
 10
310.0576034176575
 20
249.32500806697399
 30
0.0
 11
310.0576034176575
 21
249.32500806697399
 31
0.0
  0
LINE
  5
1A97
  8
0
 62
     0
 10
309.42260341765751
 20
249.32500806697399
 30
0.0
 11
309.42260341765751
 21
249.32500806697399
 31
0.0
  0
LINE
  5
1A98
  8
0
 62
     0
 10
308.78760341765741
 20
249.32500806697399
 30
0.0
 11
308.78760341765741
 21
249.32500806697399
 31
0.0
  0
LINE
  5
1A99
  8
0
 62
     0
 10
308.15260341765747
 20
249.32500806697399
 30
0.0
 11
308.15260341765747
 21
249.32500806697399
 31
0.0
  0
LINE
  5
1A9A
  8
0
 62
     0
 10
307.51760341765748
 20
249.32500806697399
 30
0.0
 11
307.51760341765748
 21
249.32500806697399
 31
0.0
  0
LINE
  5
1A9B
  8
0
 62
     0
 10
296.72260341765718
 20
249.32500806697399
 30
0.0
 11
296.72260341765718
 21
249.32500806697399
 31
0.0
  0
LINE
  5
1A9C
  8
0
 62
     0
 10
296.08760341765719
 20
249.32500806697399
 30
0.0
 11
296.08760341765719
 21
249.32500806697399
 31
0.0
  0
LINE
  5
1A9D
  8
0
 62
     0
 10
295.4526034176572
 20
249.32500806697399
 30
0.0
 11
295.4526034176572
 21
249.32500806697399
 31
0.0
  0
LINE
  5
1A9E
  8
0
 62
     0
 10
294.81760341765721
 20
249.32500806697399
 30
0.0
 11
294.81760341765721
 21
249.32500806697399
 31
0.0
  0
LINE
  5
1A9F
  8
0
 62
     0
 10
294.18260341765722
 20
249.32500806697399
 30
0.0
 11
294.18260341765722
 21
249.32500806697399
 31
0.0
  0
LINE
  5
1AA0
  8
0
 62
     0
 10
293.54760341765723
 20
249.32500806697399
 30
0.0
 11
293.54760341765723
 21
249.32500806697399
 31
0.0
  0
LINE
  5
1AA1
  8
0
 62
     0
 10
292.91260341765718
 20
249.32500806697399
 30
0.0
 11
292.91260341765718
 21
249.32500806697399
 31
0.0
  0
LINE
  5
1AA2
  8
0
 62
     0
 10
292.2776034176573
 20
249.32500806697399
 30
0.0
 11
292.2776034176573
 21
249.32500806697399
 31
0.0
  0
LINE
  5
1AA3
  8
0
 62
     0
 10
291.64260341765731
 20
249.32500806697399
 30
0.0
 11
291.64260341765731
 21
249.32500806697399
 31
0.0
  0
LINE
  5
1AA4
  8
0
 62
     0
 10
291.00760341765732
 20
249.32500806697399
 30
0.0
 11
291.00760341765732
 21
249.32500806697399
 31
0.0
  0
LINE
  5
1AA5
  8
0
 62
     0
 10
290.37260341765727
 20
249.32500806697399
 30
0.0
 11
290.37260341765727
 21
249.32500806697399
 31
0.0
  0
LINE
  5
1AA6
  8
0
 62
     0
 10
289.73760341765728
 20
249.32500806697399
 30
0.0
 11
289.73760341765728
 21
249.32500806697399
 31
0.0
  0
LINE
  5
1AA7
  8
0
 62
     0
 10
289.10260341765729
 20
249.32500806697399
 30
0.0
 11
289.10260341765729
 21
249.32500806697399
 31
0.0
  0
LINE
  5
1AA8
  8
0
 62
     0
 10
288.4676034176573
 20
249.32500806697399
 30
0.0
 11
288.4676034176573
 21
249.32500806697399
 31
0.0
  0
LINE
  5
1AA9
  8
0
 62
     0
 10
287.83260341765731
 20
249.32500806697399
 30
0.0
 11
287.83260341765731
 21
249.32500806697399
 31
0.0
  0
LINE
  5
1AAA
  8
0
 62
     0
 10
287.19760341765732
 20
249.32500806697399
 30
0.0
 11
287.19760341765732
 21
249.32500806697399
 31
0.0
  0
LINE
  5
1AAB
  8
0
 62
     0
 10
286.56260341765727
 20
249.32500806697399
 30
0.0
 11
286.56260341765727
 21
249.32500806697399
 31
0.0
  0
LINE
  5
1AAC
  8
0
 62
     0
 10
285.92760341765728
 20
249.32500806697399
 30
0.0
 11
285.92760341765728
 21
249.32500806697399
 31
0.0
  0
LINE
  5
1AAD
  8
0
 62
     0
 10
285.2926034176574
 20
249.32500806697399
 30
0.0
 11
285.2926034176574
 21
249.32500806697399
 31
0.0
  0
LINE
  5
1AAE
  8
0
 62
     0
 10
284.65760341765741
 20
249.32500806697399
 30
0.0
 11
284.65760341765741
 21
249.32500806697399
 31
0.0
  0
LINE
  5
1AAF
  8
0
 62
     0
 10
284.02260341765731
 20
249.32500806697399
 30
0.0
 11
284.02260341765731
 21
249.32500806697399
 31
0.0
  0
LINE
  5
1AB0
  8
0
 62
     0
 10
283.38760341765737
 20
249.32500806697399
 30
0.0
 11
283.38760341765737
 21
249.32500806697399
 31
0.0
  0
LINE
  5
1AB1
  8
0
 62
     0
 10
282.75260341765738
 20
249.32500806697399
 30
0.0
 11
282.75260341765738
 21
249.32500806697399
 31
0.0
  0
LINE
  5
1AB2
  8
0
 62
     0
 10
282.11760341765739
 20
249.32500806697399
 30
0.0
 11
282.11760341765739
 21
249.32500806697399
 31
0.0
  0
LINE
  5
1AB3
  8
0
 62
     0
 10
281.4826034176574
 20
249.32500806697399
 30
0.0
 11
281.4826034176574
 21
249.32500806697399
 31
0.0
  0
LINE
  5
1AB4
  8
0
 62
     0
 10
280.84760341765741
 20
249.32500806697399
 30
0.0
 11
280.84760341765741
 21
249.32500806697399
 31
0.0
  0
LINE
  5
1AB5
  8
0
 62
     0
 10
280.21260341765742
 20
249.32500806697399
 30
0.0
 11
280.21260341765742
 21
249.32500806697399
 31
0.0
  0
LINE
  5
1AB6
  8
0
 62
     0
 10
279.57760341765737
 20
249.32500806697399
 30
0.0
 11
279.57760341765737
 21
249.32500806697399
 31
0.0
  0
LINE
  5
1AB7
  8
0
 62
     0
 10
278.94260341765749
 20
249.32500806697399
 30
0.0
 11
278.94260341765749
 21
249.32500806697399
 31
0.0
  0
LINE
  5
1AB8
  8
0
 62
     0
 10
278.30760341765739
 20
249.32500806697399
 30
0.0
 11
278.30760341765739
 21
249.32500806697399
 31
0.0
  0
LINE
  5
1AB9
  8
0
 62
     0
 10
277.6726034176574
 20
249.32500806697399
 30
0.0
 11
277.6726034176574
 21
249.32500806697399
 31
0.0
  0
LINE
  5
1ABA
  8
0
 62
     0
 10
326.88510341765721
 20
249.96000806697401
 30
0.0
 11
326.88510341765721
 21
249.96000806697401
 31
0.0
  0
LINE
  5
1ABB
  8
0
 62
     0
 10
326.25010341765721
 20
249.96000806697401
 30
0.0
 11
326.25010341765721
 21
249.96000806697401
 31
0.0
  0
LINE
  5
1ABC
  8
0
 62
     0
 10
325.61510341765722
 20
249.96000806697401
 30
0.0
 11
325.61510341765722
 21
249.96000806697401
 31
0.0
  0
LINE
  5
1ABD
  8
0
 62
     0
 10
324.98010341765718
 20
249.96000806697401
 30
0.0
 11
324.98010341765718
 21
249.96000806697401
 31
0.0
  0
LINE
  5
1ABE
  8
0
 62
     0
 10
324.34510341765719
 20
249.96000806697401
 30
0.0
 11
324.34510341765719
 21
249.96000806697401
 31
0.0
  0
LINE
  5
1ABF
  8
0
 62
     0
 10
323.71010341765731
 20
249.96000806697401
 30
0.0
 11
323.71010341765731
 21
249.96000806697401
 31
0.0
  0
LINE
  5
1AC0
  8
0
 62
     0
 10
323.07510341765732
 20
249.96000806697401
 30
0.0
 11
323.07510341765732
 21
249.96000806697401
 31
0.0
  0
LINE
  5
1AC1
  8
0
 62
     0
 10
322.44010341765733
 20
249.96000806697401
 30
0.0
 11
322.44010341765733
 21
249.96000806697401
 31
0.0
  0
LINE
  5
1AC2
  8
0
 62
     0
 10
321.80510341765728
 20
249.96000806697401
 30
0.0
 11
321.80510341765728
 21
249.96000806697401
 31
0.0
  0
LINE
  5
1AC3
  8
0
 62
     0
 10
321.17010341765729
 20
249.96000806697401
 30
0.0
 11
321.17010341765729
 21
249.96000806697401
 31
0.0
  0
LINE
  5
1AC4
  8
0
 62
     0
 10
320.5351034176573
 20
249.96000806697401
 30
0.0
 11
320.5351034176573
 21
249.96000806697401
 31
0.0
  0
LINE
  5
1AC5
  8
0
 62
     0
 10
319.90010341765731
 20
249.96000806697401
 30
0.0
 11
319.90010341765731
 21
249.96000806697401
 31
0.0
  0
LINE
  5
1AC6
  8
0
 62
     0
 10
319.26510341765731
 20
249.96000806697401
 30
0.0
 11
319.26510341765731
 21
249.96000806697401
 31
0.0
  0
LINE
  5
1AC7
  8
0
 62
     0
 10
318.63010341765732
 20
249.96000806697401
 30
0.0
 11
318.63010341765732
 21
249.96000806697401
 31
0.0
  0
LINE
  5
1AC8
  8
0
 62
     0
 10
317.99510341765728
 20
249.96000806697401
 30
0.0
 11
317.99510341765728
 21
249.96000806697401
 31
0.0
  0
LINE
  5
1AC9
  8
0
 62
     0
 10
317.3601034176574
 20
249.96000806697401
 30
0.0
 11
317.3601034176574
 21
249.96000806697401
 31
0.0
  0
LINE
  5
1ACA
  8
0
 62
     0
 10
316.72510341765729
 20
249.96000806697401
 30
0.0
 11
316.72510341765729
 21
249.96000806697401
 31
0.0
  0
LINE
  5
1ACB
  8
0
 62
     0
 10
316.0901034176573
 20
249.96000806697401
 30
0.0
 11
316.0901034176573
 21
249.96000806697401
 31
0.0
  0
LINE
  5
1ACC
  8
0
 62
     0
 10
315.45510341765743
 20
249.96000806697401
 30
0.0
 11
315.45510341765743
 21
249.96000806697401
 31
0.0
  0
LINE
  5
1ACD
  8
0
 62
     0
 10
314.82010341765738
 20
249.96000806697401
 30
0.0
 11
314.82010341765738
 21
249.96000806697401
 31
0.0
  0
LINE
  5
1ACE
  8
0
 62
     0
 10
314.18510341765739
 20
249.96000806697401
 30
0.0
 11
314.18510341765739
 21
249.96000806697401
 31
0.0
  0
LINE
  5
1ACF
  8
0
 62
     0
 10
313.5501034176574
 20
249.96000806697401
 30
0.0
 11
313.5501034176574
 21
249.96000806697401
 31
0.0
  0
LINE
  5
1AD0
  8
0
 62
     0
 10
312.91510341765741
 20
249.96000806697401
 30
0.0
 11
312.91510341765741
 21
249.96000806697401
 31
0.0
  0
LINE
  5
1AD1
  8
0
 62
     0
 10
312.28010341765741
 20
249.96000806697401
 30
0.0
 11
312.28010341765741
 21
249.96000806697401
 31
0.0
  0
LINE
  5
1AD2
  8
0
 62
     0
 10
311.64510341765742
 20
249.96000806697401
 30
0.0
 11
311.64510341765742
 21
249.96000806697401
 31
0.0
  0
LINE
  5
1AD3
  8
0
 62
     0
 10
311.01010341765738
 20
249.96000806697401
 30
0.0
 11
311.01010341765738
 21
249.96000806697401
 31
0.0
  0
LINE
  5
1AD4
  8
0
 62
     0
 10
310.37510341765739
 20
249.96000806697401
 30
0.0
 11
310.37510341765739
 21
249.96000806697401
 31
0.0
  0
LINE
  5
1AD5
  8
0
 62
     0
 10
309.74010341765739
 20
249.96000806697401
 30
0.0
 11
309.74010341765739
 21
249.96000806697401
 31
0.0
  0
LINE
  5
1AD6
  8
0
 62
     0
 10
309.10510341765752
 20
249.96000806697401
 30
0.0
 11
309.10510341765752
 21
249.96000806697401
 31
0.0
  0
LINE
  5
1AD7
  8
0
 62
     0
 10
308.47010341765753
 20
249.96000806697401
 30
0.0
 11
308.47010341765753
 21
249.96000806697401
 31
0.0
  0
LINE
  5
1AD8
  8
0
 62
     0
 10
307.83510341765748
 20
249.96000806697401
 30
0.0
 11
307.83510341765748
 21
249.96000806697401
 31
0.0
  0
LINE
  5
1AD9
  8
0
 62
     0
 10
307.20010341765749
 20
249.96000806697401
 30
0.0
 11
307.20010341765749
 21
249.96000806697401
 31
0.0
  0
LINE
  5
1ADA
  8
0
 62
     0
 10
297.04010341765712
 20
249.96000806697401
 30
0.0
 11
297.04010341765712
 21
249.96000806697401
 31
0.0
  0
LINE
  5
1ADB
  8
0
 62
     0
 10
296.40510341765719
 20
249.96000806697401
 30
0.0
 11
296.40510341765719
 21
249.96000806697401
 31
0.0
  0
LINE
  5
1ADC
  8
0
 62
     0
 10
295.7701034176572
 20
249.96000806697401
 30
0.0
 11
295.7701034176572
 21
249.96000806697401
 31
0.0
  0
LINE
  5
1ADD
  8
0
 62
     0
 10
295.13510341765721
 20
249.96000806697401
 30
0.0
 11
295.13510341765721
 21
249.96000806697401
 31
0.0
  0
LINE
  5
1ADE
  8
0
 62
     0
 10
294.50010341765721
 20
249.96000806697401
 30
0.0
 11
294.50010341765721
 21
249.96000806697401
 31
0.0
  0
LINE
  5
1ADF
  8
0
 62
     0
 10
293.86510341765722
 20
249.96000806697401
 30
0.0
 11
293.86510341765722
 21
249.96000806697401
 31
0.0
  0
LINE
  5
1AE0
  8
0
 62
     0
 10
293.23010341765729
 20
249.96000806697401
 30
0.0
 11
293.23010341765729
 21
249.96000806697401
 31
0.0
  0
LINE
  5
1AE1
  8
0
 62
     0
 10
292.5951034176573
 20
249.96000806697401
 30
0.0
 11
292.5951034176573
 21
249.96000806697401
 31
0.0
  0
LINE
  5
1AE2
  8
0
 62
     0
 10
291.96010341765719
 20
249.96000806697401
 30
0.0
 11
291.96010341765719
 21
249.96000806697401
 31
0.0
  0
LINE
  5
1AE3
  8
0
 62
     0
 10
291.32510341765732
 20
249.96000806697401
 30
0.0
 11
291.32510341765732
 21
249.96000806697401
 31
0.0
  0
LINE
  5
1AE4
  8
0
 62
     0
 10
290.69010341765733
 20
249.96000806697401
 30
0.0
 11
290.69010341765733
 21
249.96000806697401
 31
0.0
  0
LINE
  5
1AE5
  8
0
 62
     0
 10
290.05510341765728
 20
249.96000806697401
 30
0.0
 11
290.05510341765728
 21
249.96000806697401
 31
0.0
  0
LINE
  5
1AE6
  8
0
 62
     0
 10
289.42010341765729
 20
249.96000806697401
 30
0.0
 11
289.42010341765729
 21
249.96000806697401
 31
0.0
  0
LINE
  5
1AE7
  8
0
 62
     0
 10
288.7851034176573
 20
249.96000806697401
 30
0.0
 11
288.7851034176573
 21
249.96000806697401
 31
0.0
  0
LINE
  5
1AE8
  8
0
 62
     0
 10
288.15010341765731
 20
249.96000806697401
 30
0.0
 11
288.15010341765731
 21
249.96000806697401
 31
0.0
  0
LINE
  5
1AE9
  8
0
 62
     0
 10
287.51510341765731
 20
249.96000806697401
 30
0.0
 11
287.51510341765731
 21
249.96000806697401
 31
0.0
  0
LINE
  5
1AEA
  8
0
 62
     0
 10
286.88010341765732
 20
249.96000806697401
 30
0.0
 11
286.88010341765732
 21
249.96000806697401
 31
0.0
  0
LINE
  5
1AEB
  8
0
 62
     0
 10
286.24510341765728
 20
249.96000806697401
 30
0.0
 11
286.24510341765728
 21
249.96000806697401
 31
0.0
  0
LINE
  5
1AEC
  8
0
 62
     0
 10
285.61010341765729
 20
249.96000806697401
 30
0.0
 11
285.61010341765729
 21
249.96000806697401
 31
0.0
  0
LINE
  5
1AED
  8
0
 62
     0
 10
284.97510341765729
 20
249.96000806697401
 30
0.0
 11
284.97510341765729
 21
249.96000806697401
 31
0.0
  0
LINE
  5
1AEE
  8
0
 62
     0
 10
284.34010341765742
 20
249.96000806697401
 30
0.0
 11
284.34010341765742
 21
249.96000806697401
 31
0.0
  0
LINE
  5
1AEF
  8
0
 62
     0
 10
283.70510341765743
 20
249.96000806697401
 30
0.0
 11
283.70510341765743
 21
249.96000806697401
 31
0.0
  0
LINE
  5
1AF0
  8
0
 62
     0
 10
283.07010341765738
 20
249.96000806697401
 30
0.0
 11
283.07010341765738
 21
249.96000806697401
 31
0.0
  0
LINE
  5
1AF1
  8
0
 62
     0
 10
282.43510341765739
 20
249.96000806697401
 30
0.0
 11
282.43510341765739
 21
249.96000806697401
 31
0.0
  0
LINE
  5
1AF2
  8
0
 62
     0
 10
281.8001034176574
 20
249.96000806697401
 30
0.0
 11
281.8001034176574
 21
249.96000806697401
 31
0.0
  0
LINE
  5
1AF3
  8
0
 62
     0
 10
281.16510341765741
 20
249.96000806697401
 30
0.0
 11
281.16510341765741
 21
249.96000806697401
 31
0.0
  0
LINE
  5
1AF4
  8
0
 62
     0
 10
280.53010341765741
 20
249.96000806697401
 30
0.0
 11
280.53010341765741
 21
249.96000806697401
 31
0.0
  0
LINE
  5
1AF5
  8
0
 62
     0
 10
279.89510341765742
 20
249.96000806697401
 30
0.0
 11
279.89510341765742
 21
249.96000806697401
 31
0.0
  0
LINE
  5
1AF6
  8
0
 62
     0
 10
279.26010341765738
 20
249.96000806697401
 30
0.0
 11
279.26010341765738
 21
249.96000806697401
 31
0.0
  0
LINE
  5
1AF7
  8
0
 62
     0
 10
278.62510341765739
 20
249.96000806697401
 30
0.0
 11
278.62510341765739
 21
249.96000806697401
 31
0.0
  0
LINE
  5
1AF8
  8
0
 62
     0
 10
277.99010341765751
 20
249.96000806697401
 30
0.0
 11
277.99010341765751
 21
249.96000806697401
 31
0.0
  0
LINE
  5
1AF9
  8
0
 62
     0
 10
277.35510341765752
 20
249.96000806697401
 30
0.0
 11
277.35510341765752
 21
249.96000806697401
 31
0.0
  0
LINE
  5
1AFA
  8
0
 62
     0
 10
326.56760341765721
 20
250.59500806697409
 30
0.0
 11
326.56760341765721
 21
250.59500806697409
 31
0.0
  0
LINE
  5
1AFB
  8
0
 62
     0
 10
325.93260341765722
 20
250.59500806697409
 30
0.0
 11
325.93260341765722
 21
250.59500806697409
 31
0.0
  0
LINE
  5
1AFC
  8
0
 62
     0
 10
325.29760341765723
 20
250.59500806697409
 30
0.0
 11
325.29760341765723
 21
250.59500806697409
 31
0.0
  0
LINE
  5
1AFD
  8
0
 62
     0
 10
324.66260341765718
 20
250.59500806697409
 30
0.0
 11
324.66260341765718
 21
250.59500806697409
 31
0.0
  0
LINE
  5
1AFE
  8
0
 62
     0
 10
324.02760341765719
 20
250.59500806697409
 30
0.0
 11
324.02760341765719
 21
250.59500806697409
 31
0.0
  0
LINE
  5
1AFF
  8
0
 62
     0
 10
323.3926034176572
 20
250.59500806697409
 30
0.0
 11
323.3926034176572
 21
250.59500806697409
 31
0.0
  0
LINE
  5
1B00
  8
0
 62
     0
 10
322.75760341765732
 20
250.59500806697409
 30
0.0
 11
322.75760341765732
 21
250.59500806697409
 31
0.0
  0
LINE
  5
1B01
  8
0
 62
     0
 10
322.12260341765727
 20
250.59500806697409
 30
0.0
 11
322.12260341765727
 21
250.59500806697409
 31
0.0
  0
LINE
  5
1B02
  8
0
 62
     0
 10
321.48760341765728
 20
250.59500806697409
 30
0.0
 11
321.48760341765728
 21
250.59500806697409
 31
0.0
  0
LINE
  5
1B03
  8
0
 62
     0
 10
320.85260341765729
 20
250.59500806697409
 30
0.0
 11
320.85260341765729
 21
250.59500806697409
 31
0.0
  0
LINE
  5
1B04
  8
0
 62
     0
 10
320.2176034176573
 20
250.59500806697409
 30
0.0
 11
320.2176034176573
 21
250.59500806697409
 31
0.0
  0
LINE
  5
1B05
  8
0
 62
     0
 10
319.58260341765731
 20
250.59500806697409
 30
0.0
 11
319.58260341765731
 21
250.59500806697409
 31
0.0
  0
LINE
  5
1B06
  8
0
 62
     0
 10
318.94760341765732
 20
250.59500806697409
 30
0.0
 11
318.94760341765732
 21
250.59500806697409
 31
0.0
  0
LINE
  5
1B07
  8
0
 62
     0
 10
318.31260341765727
 20
250.59500806697409
 30
0.0
 11
318.31260341765727
 21
250.59500806697409
 31
0.0
  0
LINE
  5
1B08
  8
0
 62
     0
 10
317.67760341765728
 20
250.59500806697409
 30
0.0
 11
317.67760341765728
 21
250.59500806697409
 31
0.0
  0
LINE
  5
1B09
  8
0
 62
     0
 10
317.04260341765729
 20
250.59500806697409
 30
0.0
 11
317.04260341765729
 21
250.59500806697409
 31
0.0
  0
LINE
  5
1B0A
  8
0
 62
     0
 10
316.40760341765741
 20
250.59500806697409
 30
0.0
 11
316.40760341765741
 21
250.59500806697409
 31
0.0
  0
LINE
  5
1B0B
  8
0
 62
     0
 10
315.77260341765742
 20
250.59500806697409
 30
0.0
 11
315.77260341765742
 21
250.59500806697409
 31
0.0
  0
LINE
  5
1B0C
  8
0
 62
     0
 10
315.13760341765737
 20
250.59500806697409
 30
0.0
 11
315.13760341765737
 21
250.59500806697409
 31
0.0
  0
LINE
  5
1B0D
  8
0
 62
     0
 10
314.50260341765738
 20
250.59500806697409
 30
0.0
 11
314.50260341765738
 21
250.59500806697409
 31
0.0
  0
LINE
  5
1B0E
  8
0
 62
     0
 10
313.86760341765739
 20
250.59500806697409
 30
0.0
 11
313.86760341765739
 21
250.59500806697409
 31
0.0
  0
LINE
  5
1B0F
  8
0
 62
     0
 10
313.2326034176574
 20
250.59500806697409
 30
0.0
 11
313.2326034176574
 21
250.59500806697409
 31
0.0
  0
LINE
  5
1B10
  8
0
 62
     0
 10
312.59760341765741
 20
250.59500806697409
 30
0.0
 11
312.59760341765741
 21
250.59500806697409
 31
0.0
  0
LINE
  5
1B11
  8
0
 62
     0
 10
311.96260341765742
 20
250.59500806697409
 30
0.0
 11
311.96260341765742
 21
250.59500806697409
 31
0.0
  0
LINE
  5
1B12
  8
0
 62
     0
 10
311.32760341765737
 20
250.59500806697409
 30
0.0
 11
311.32760341765737
 21
250.59500806697409
 31
0.0
  0
LINE
  5
1B13
  8
0
 62
     0
 10
310.69260341765738
 20
250.59500806697409
 30
0.0
 11
310.69260341765738
 21
250.59500806697409
 31
0.0
  0
LINE
  5
1B14
  8
0
 62
     0
 10
310.0576034176575
 20
250.59500806697409
 30
0.0
 11
310.0576034176575
 21
250.59500806697409
 31
0.0
  0
LINE
  5
1B15
  8
0
 62
     0
 10
309.42260341765751
 20
250.59500806697409
 30
0.0
 11
309.42260341765751
 21
250.59500806697409
 31
0.0
  0
LINE
  5
1B16
  8
0
 62
     0
 10
308.78760341765741
 20
250.59500806697409
 30
0.0
 11
308.78760341765741
 21
250.59500806697409
 31
0.0
  0
LINE
  5
1B17
  8
0
 62
     0
 10
308.15260341765747
 20
250.59500806697409
 30
0.0
 11
308.15260341765747
 21
250.59500806697409
 31
0.0
  0
LINE
  5
1B18
  8
0
 62
     0
 10
307.51760341765748
 20
250.59500806697409
 30
0.0
 11
307.51760341765748
 21
250.59500806697409
 31
0.0
  0
LINE
  5
1B19
  8
0
 62
     0
 10
296.72260341765718
 20
250.59500806697409
 30
0.0
 11
296.72260341765718
 21
250.59500806697409
 31
0.0
  0
LINE
  5
1B1A
  8
0
 62
     0
 10
296.08760341765719
 20
250.59500806697409
 30
0.0
 11
296.08760341765719
 21
250.59500806697409
 31
0.0
  0
LINE
  5
1B1B
  8
0
 62
     0
 10
295.4526034176572
 20
250.59500806697409
 30
0.0
 11
295.4526034176572
 21
250.59500806697409
 31
0.0
  0
LINE
  5
1B1C
  8
0
 62
     0
 10
294.81760341765721
 20
250.59500806697409
 30
0.0
 11
294.81760341765721
 21
250.59500806697409
 31
0.0
  0
LINE
  5
1B1D
  8
0
 62
     0
 10
294.18260341765722
 20
250.59500806697409
 30
0.0
 11
294.18260341765722
 21
250.59500806697409
 31
0.0
  0
LINE
  5
1B1E
  8
0
 62
     0
 10
293.54760341765723
 20
250.59500806697409
 30
0.0
 11
293.54760341765723
 21
250.59500806697409
 31
0.0
  0
LINE
  5
1B1F
  8
0
 62
     0
 10
292.91260341765718
 20
250.59500806697409
 30
0.0
 11
292.91260341765718
 21
250.59500806697409
 31
0.0
  0
LINE
  5
1B20
  8
0
 62
     0
 10
292.2776034176573
 20
250.59500806697409
 30
0.0
 11
292.2776034176573
 21
250.59500806697409
 31
0.0
  0
LINE
  5
1B21
  8
0
 62
     0
 10
291.64260341765731
 20
250.59500806697409
 30
0.0
 11
291.64260341765731
 21
250.59500806697409
 31
0.0
  0
LINE
  5
1B22
  8
0
 62
     0
 10
291.00760341765732
 20
250.59500806697409
 30
0.0
 11
291.00760341765732
 21
250.59500806697409
 31
0.0
  0
LINE
  5
1B23
  8
0
 62
     0
 10
290.37260341765727
 20
250.59500806697409
 30
0.0
 11
290.37260341765727
 21
250.59500806697409
 31
0.0
  0
LINE
  5
1B24
  8
0
 62
     0
 10
289.73760341765728
 20
250.59500806697409
 30
0.0
 11
289.73760341765728
 21
250.59500806697409
 31
0.0
  0
LINE
  5
1B25
  8
0
 62
     0
 10
289.10260341765729
 20
250.59500806697409
 30
0.0
 11
289.10260341765729
 21
250.59500806697409
 31
0.0
  0
LINE
  5
1B26
  8
0
 62
     0
 10
288.4676034176573
 20
250.59500806697409
 30
0.0
 11
288.4676034176573
 21
250.59500806697409
 31
0.0
  0
LINE
  5
1B27
  8
0
 62
     0
 10
287.83260341765731
 20
250.59500806697409
 30
0.0
 11
287.83260341765731
 21
250.59500806697409
 31
0.0
  0
LINE
  5
1B28
  8
0
 62
     0
 10
287.19760341765732
 20
250.59500806697409
 30
0.0
 11
287.19760341765732
 21
250.59500806697409
 31
0.0
  0
LINE
  5
1B29
  8
0
 62
     0
 10
286.56260341765727
 20
250.59500806697409
 30
0.0
 11
286.56260341765727
 21
250.59500806697409
 31
0.0
  0
LINE
  5
1B2A
  8
0
 62
     0
 10
285.92760341765728
 20
250.59500806697409
 30
0.0
 11
285.92760341765728
 21
250.59500806697409
 31
0.0
  0
LINE
  5
1B2B
  8
0
 62
     0
 10
285.2926034176574
 20
250.59500806697409
 30
0.0
 11
285.2926034176574
 21
250.59500806697409
 31
0.0
  0
LINE
  5
1B2C
  8
0
 62
     0
 10
284.65760341765741
 20
250.59500806697409
 30
0.0
 11
284.65760341765741
 21
250.59500806697409
 31
0.0
  0
LINE
  5
1B2D
  8
0
 62
     0
 10
284.02260341765731
 20
250.59500806697409
 30
0.0
 11
284.02260341765731
 21
250.59500806697409
 31
0.0
  0
LINE
  5
1B2E
  8
0
 62
     0
 10
283.38760341765737
 20
250.59500806697409
 30
0.0
 11
283.38760341765737
 21
250.59500806697409
 31
0.0
  0
LINE
  5
1B2F
  8
0
 62
     0
 10
282.75260341765738
 20
250.59500806697409
 30
0.0
 11
282.75260341765738
 21
250.59500806697409
 31
0.0
  0
LINE
  5
1B30
  8
0
 62
     0
 10
282.11760341765739
 20
250.59500806697409
 30
0.0
 11
282.11760341765739
 21
250.59500806697409
 31
0.0
  0
LINE
  5
1B31
  8
0
 62
     0
 10
281.4826034176574
 20
250.59500806697409
 30
0.0
 11
281.4826034176574
 21
250.59500806697409
 31
0.0
  0
LINE
  5
1B32
  8
0
 62
     0
 10
280.84760341765741
 20
250.59500806697409
 30
0.0
 11
280.84760341765741
 21
250.59500806697409
 31
0.0
  0
LINE
  5
1B33
  8
0
 62
     0
 10
280.21260341765742
 20
250.59500806697409
 30
0.0
 11
280.21260341765742
 21
250.59500806697409
 31
0.0
  0
LINE
  5
1B34
  8
0
 62
     0
 10
279.57760341765737
 20
250.59500806697409
 30
0.0
 11
279.57760341765737
 21
250.59500806697409
 31
0.0
  0
LINE
  5
1B35
  8
0
 62
     0
 10
278.94260341765749
 20
250.59500806697409
 30
0.0
 11
278.94260341765749
 21
250.59500806697409
 31
0.0
  0
LINE
  5
1B36
  8
0
 62
     0
 10
278.30760341765739
 20
250.59500806697409
 30
0.0
 11
278.30760341765739
 21
250.59500806697409
 31
0.0
  0
LINE
  5
1B37
  8
0
 62
     0
 10
277.6726034176574
 20
250.59500806697409
 30
0.0
 11
277.6726034176574
 21
250.59500806697409
 31
0.0
  0
LINE
  5
1B38
  8
0
 62
     0
 10
326.88510341765709
 20
251.23000806697399
 30
0.0
 11
326.88510341765709
 21
251.23000806697399
 31
0.0
  0
LINE
  5
1B39
  8
0
 62
     0
 10
326.25010341765721
 20
251.23000806697399
 30
0.0
 11
326.25010341765721
 21
251.23000806697399
 31
0.0
  0
LINE
  5
1B3A
  8
0
 62
     0
 10
325.61510341765722
 20
251.23000806697399
 30
0.0
 11
325.61510341765722
 21
251.23000806697399
 31
0.0
  0
LINE
  5
1B3B
  8
0
 62
     0
 10
324.98010341765718
 20
251.23000806697399
 30
0.0
 11
324.98010341765718
 21
251.23000806697399
 31
0.0
  0
LINE
  5
1B3C
  8
0
 62
     0
 10
324.34510341765719
 20
251.23000806697399
 30
0.0
 11
324.34510341765719
 21
251.23000806697399
 31
0.0
  0
LINE
  5
1B3D
  8
0
 62
     0
 10
323.71010341765719
 20
251.23000806697399
 30
0.0
 11
323.71010341765719
 21
251.23000806697399
 31
0.0
  0
LINE
  5
1B3E
  8
0
 62
     0
 10
323.0751034176572
 20
251.23000806697399
 30
0.0
 11
323.0751034176572
 21
251.23000806697399
 31
0.0
  0
LINE
  5
1B3F
  8
0
 62
     0
 10
322.44010341765721
 20
251.23000806697399
 30
0.0
 11
322.44010341765721
 21
251.23000806697399
 31
0.0
  0
LINE
  5
1B40
  8
0
 62
     0
 10
321.80510341765722
 20
251.23000806697399
 30
0.0
 11
321.80510341765722
 21
251.23000806697399
 31
0.0
  0
LINE
  5
1B41
  8
0
 62
     0
 10
321.17010341765717
 20
251.23000806697399
 30
0.0
 11
321.17010341765717
 21
251.23000806697399
 31
0.0
  0
LINE
  5
1B42
  8
0
 62
     0
 10
320.53510341765718
 20
251.23000806697399
 30
0.0
 11
320.53510341765718
 21
251.23000806697399
 31
0.0
  0
LINE
  5
1B43
  8
0
 62
     0
 10
319.90010341765731
 20
251.23000806697399
 30
0.0
 11
319.90010341765731
 21
251.23000806697399
 31
0.0
  0
LINE
  5
1B44
  8
0
 62
     0
 10
319.26510341765731
 20
251.23000806697399
 30
0.0
 11
319.26510341765731
 21
251.23000806697399
 31
0.0
  0
LINE
  5
1B45
  8
0
 62
     0
 10
318.63010341765732
 20
251.23000806697399
 30
0.0
 11
318.63010341765732
 21
251.23000806697399
 31
0.0
  0
LINE
  5
1B46
  8
0
 62
     0
 10
317.99510341765728
 20
251.23000806697399
 30
0.0
 11
317.99510341765728
 21
251.23000806697399
 31
0.0
  0
LINE
  5
1B47
  8
0
 62
     0
 10
317.36010341765729
 20
251.23000806697399
 30
0.0
 11
317.36010341765729
 21
251.23000806697399
 31
0.0
  0
LINE
  5
1B48
  8
0
 62
     0
 10
316.72510341765729
 20
251.23000806697399
 30
0.0
 11
316.72510341765729
 21
251.23000806697399
 31
0.0
  0
LINE
  5
1B49
  8
0
 62
     0
 10
316.0901034176573
 20
251.23000806697399
 30
0.0
 11
316.0901034176573
 21
251.23000806697399
 31
0.0
  0
LINE
  5
1B4A
  8
0
 62
     0
 10
315.45510341765731
 20
251.23000806697399
 30
0.0
 11
315.45510341765731
 21
251.23000806697399
 31
0.0
  0
LINE
  5
1B4B
  8
0
 62
     0
 10
314.82010341765732
 20
251.23000806697399
 30
0.0
 11
314.82010341765732
 21
251.23000806697399
 31
0.0
  0
LINE
  5
1B4C
  8
0
 62
     0
 10
314.18510341765727
 20
251.23000806697399
 30
0.0
 11
314.18510341765727
 21
251.23000806697399
 31
0.0
  0
LINE
  5
1B4D
  8
0
 62
     0
 10
313.5501034176574
 20
251.23000806697399
 30
0.0
 11
313.5501034176574
 21
251.23000806697399
 31
0.0
  0
LINE
  5
1B4E
  8
0
 62
     0
 10
312.91510341765729
 20
251.23000806697399
 30
0.0
 11
312.91510341765729
 21
251.23000806697399
 31
0.0
  0
LINE
  5
1B4F
  8
0
 62
     0
 10
312.2801034176573
 20
251.23000806697399
 30
0.0
 11
312.2801034176573
 21
251.23000806697399
 31
0.0
  0
LINE
  5
1B50
  8
0
 62
     0
 10
311.64510341765742
 20
251.23000806697399
 30
0.0
 11
311.64510341765742
 21
251.23000806697399
 31
0.0
  0
LINE
  5
1B51
  8
0
 62
     0
 10
311.01010341765738
 20
251.23000806697399
 30
0.0
 11
311.01010341765738
 21
251.23000806697399
 31
0.0
  0
LINE
  5
1B52
  8
0
 62
     0
 10
310.37510341765739
 20
251.23000806697399
 30
0.0
 11
310.37510341765739
 21
251.23000806697399
 31
0.0
  0
LINE
  5
1B53
  8
0
 62
     0
 10
309.74010341765739
 20
251.23000806697399
 30
0.0
 11
309.74010341765739
 21
251.23000806697399
 31
0.0
  0
LINE
  5
1B54
  8
0
 62
     0
 10
309.1051034176574
 20
251.23000806697399
 30
0.0
 11
309.1051034176574
 21
251.23000806697399
 31
0.0
  0
LINE
  5
1B55
  8
0
 62
     0
 10
308.47010341765741
 20
251.23000806697399
 30
0.0
 11
308.47010341765741
 21
251.23000806697399
 31
0.0
  0
LINE
  5
1B56
  8
0
 62
     0
 10
307.83510341765742
 20
251.23000806697399
 30
0.0
 11
307.83510341765742
 21
251.23000806697399
 31
0.0
  0
LINE
  5
1B57
  8
0
 62
     0
 10
307.20010341765737
 20
251.23000806697399
 30
0.0
 11
307.20010341765737
 21
251.23000806697399
 31
0.0
  0
LINE
  5
1B58
  8
0
 62
     0
 10
297.04010341765712
 20
251.23000806697399
 30
0.0
 11
297.04010341765712
 21
251.23000806697399
 31
0.0
  0
LINE
  5
1B59
  8
0
 62
     0
 10
296.40510341765719
 20
251.23000806697399
 30
0.0
 11
296.40510341765719
 21
251.23000806697399
 31
0.0
  0
LINE
  5
1B5A
  8
0
 62
     0
 10
295.7701034176572
 20
251.23000806697399
 30
0.0
 11
295.7701034176572
 21
251.23000806697399
 31
0.0
  0
LINE
  5
1B5B
  8
0
 62
     0
 10
295.13510341765721
 20
251.23000806697399
 30
0.0
 11
295.13510341765721
 21
251.23000806697399
 31
0.0
  0
LINE
  5
1B5C
  8
0
 62
     0
 10
294.50010341765721
 20
251.23000806697399
 30
0.0
 11
294.50010341765721
 21
251.23000806697399
 31
0.0
  0
LINE
  5
1B5D
  8
0
 62
     0
 10
293.86510341765722
 20
251.23000806697399
 30
0.0
 11
293.86510341765722
 21
251.23000806697399
 31
0.0
  0
LINE
  5
1B5E
  8
0
 62
     0
 10
293.23010341765729
 20
251.23000806697399
 30
0.0
 11
293.23010341765729
 21
251.23000806697399
 31
0.0
  0
LINE
  5
1B5F
  8
0
 62
     0
 10
292.5951034176573
 20
251.23000806697399
 30
0.0
 11
292.5951034176573
 21
251.23000806697399
 31
0.0
  0
LINE
  5
1B60
  8
0
 62
     0
 10
291.96010341765719
 20
251.23000806697399
 30
0.0
 11
291.96010341765719
 21
251.23000806697399
 31
0.0
  0
LINE
  5
1B61
  8
0
 62
     0
 10
291.32510341765732
 20
251.23000806697399
 30
0.0
 11
291.32510341765732
 21
251.23000806697399
 31
0.0
  0
LINE
  5
1B62
  8
0
 62
     0
 10
290.69010341765733
 20
251.23000806697399
 30
0.0
 11
290.69010341765733
 21
251.23000806697399
 31
0.0
  0
LINE
  5
1B63
  8
0
 62
     0
 10
290.05510341765728
 20
251.23000806697399
 30
0.0
 11
290.05510341765728
 21
251.23000806697399
 31
0.0
  0
LINE
  5
1B64
  8
0
 62
     0
 10
289.42010341765729
 20
251.23000806697399
 30
0.0
 11
289.42010341765729
 21
251.23000806697399
 31
0.0
  0
LINE
  5
1B65
  8
0
 62
     0
 10
288.7851034176573
 20
251.23000806697399
 30
0.0
 11
288.7851034176573
 21
251.23000806697399
 31
0.0
  0
LINE
  5
1B66
  8
0
 62
     0
 10
288.15010341765731
 20
251.23000806697399
 30
0.0
 11
288.15010341765731
 21
251.23000806697399
 31
0.0
  0
LINE
  5
1B67
  8
0
 62
     0
 10
287.51510341765731
 20
251.23000806697399
 30
0.0
 11
287.51510341765731
 21
251.23000806697399
 31
0.0
  0
LINE
  5
1B68
  8
0
 62
     0
 10
286.88010341765732
 20
251.23000806697399
 30
0.0
 11
286.88010341765732
 21
251.23000806697399
 31
0.0
  0
LINE
  5
1B69
  8
0
 62
     0
 10
286.24510341765728
 20
251.23000806697399
 30
0.0
 11
286.24510341765728
 21
251.23000806697399
 31
0.0
  0
LINE
  5
1B6A
  8
0
 62
     0
 10
285.61010341765729
 20
251.23000806697399
 30
0.0
 11
285.61010341765729
 21
251.23000806697399
 31
0.0
  0
LINE
  5
1B6B
  8
0
 62
     0
 10
284.97510341765729
 20
251.23000806697399
 30
0.0
 11
284.97510341765729
 21
251.23000806697399
 31
0.0
  0
LINE
  5
1B6C
  8
0
 62
     0
 10
284.34010341765742
 20
251.23000806697399
 30
0.0
 11
284.34010341765742
 21
251.23000806697399
 31
0.0
  0
LINE
  5
1B6D
  8
0
 62
     0
 10
283.70510341765743
 20
251.23000806697399
 30
0.0
 11
283.70510341765743
 21
251.23000806697399
 31
0.0
  0
LINE
  5
1B6E
  8
0
 62
     0
 10
283.07010341765738
 20
251.23000806697399
 30
0.0
 11
283.07010341765738
 21
251.23000806697399
 31
0.0
  0
LINE
  5
1B6F
  8
0
 62
     0
 10
282.43510341765739
 20
251.23000806697399
 30
0.0
 11
282.43510341765739
 21
251.23000806697399
 31
0.0
  0
LINE
  5
1B70
  8
0
 62
     0
 10
281.8001034176574
 20
251.23000806697399
 30
0.0
 11
281.8001034176574
 21
251.23000806697399
 31
0.0
  0
LINE
  5
1B71
  8
0
 62
     0
 10
281.16510341765741
 20
251.23000806697399
 30
0.0
 11
281.16510341765741
 21
251.23000806697399
 31
0.0
  0
LINE
  5
1B72
  8
0
 62
     0
 10
280.53010341765741
 20
251.23000806697399
 30
0.0
 11
280.53010341765741
 21
251.23000806697399
 31
0.0
  0
LINE
  5
1B73
  8
0
 62
     0
 10
279.89510341765742
 20
251.23000806697399
 30
0.0
 11
279.89510341765742
 21
251.23000806697399
 31
0.0
  0
LINE
  5
1B74
  8
0
 62
     0
 10
279.26010341765738
 20
251.23000806697399
 30
0.0
 11
279.26010341765738
 21
251.23000806697399
 31
0.0
  0
LINE
  5
1B75
  8
0
 62
     0
 10
278.62510341765739
 20
251.23000806697399
 30
0.0
 11
278.62510341765739
 21
251.23000806697399
 31
0.0
  0
LINE
  5
1B76
  8
0
 62
     0
 10
277.99010341765751
 20
251.23000806697399
 30
0.0
 11
277.99010341765751
 21
251.23000806697399
 31
0.0
  0
LINE
  5
1B77
  8
0
 62
     0
 10
277.35510341765752
 20
251.23000806697399
 30
0.0
 11
277.35510341765752
 21
251.23000806697399
 31
0.0
  0
LINE
  5
1B78
  8
0
 62
     0
 10
326.56760341765732
 20
251.86500806697401
 30
0.0
 11
326.56760341765732
 21
251.86500806697401
 31
0.0
  0
LINE
  5
1B79
  8
0
 62
     0
 10
325.93260341765728
 20
251.86500806697401
 30
0.0
 11
325.93260341765728
 21
251.86500806697401
 31
0.0
  0
LINE
  5
1B7A
  8
0
 62
     0
 10
325.29760341765729
 20
251.86500806697401
 30
0.0
 11
325.29760341765729
 21
251.86500806697401
 31
0.0
  0
LINE
  5
1B7B
  8
0
 62
     0
 10
324.66260341765741
 20
251.86500806697401
 30
0.0
 11
324.66260341765741
 21
251.86500806697401
 31
0.0
  0
LINE
  5
1B7C
  8
0
 62
     0
 10
324.02760341765742
 20
251.86500806697401
 30
0.0
 11
324.02760341765742
 21
251.86500806697401
 31
0.0
  0
LINE
  5
1B7D
  8
0
 62
     0
 10
323.39260341765743
 20
251.86500806697401
 30
0.0
 11
323.39260341765743
 21
251.86500806697401
 31
0.0
  0
LINE
  5
1B7E
  8
0
 62
     0
 10
322.75760341765738
 20
251.86500806697401
 30
0.0
 11
322.75760341765738
 21
251.86500806697401
 31
0.0
  0
LINE
  5
1B7F
  8
0
 62
     0
 10
322.12260341765739
 20
251.86500806697401
 30
0.0
 11
322.12260341765739
 21
251.86500806697401
 31
0.0
  0
LINE
  5
1B80
  8
0
 62
     0
 10
321.4876034176574
 20
251.86500806697401
 30
0.0
 11
321.4876034176574
 21
251.86500806697401
 31
0.0
  0
LINE
  5
1B81
  8
0
 62
     0
 10
320.85260341765741
 20
251.86500806697401
 30
0.0
 11
320.85260341765741
 21
251.86500806697401
 31
0.0
  0
LINE
  5
1B82
  8
0
 62
     0
 10
320.21760341765741
 20
251.86500806697401
 30
0.0
 11
320.21760341765741
 21
251.86500806697401
 31
0.0
  0
LINE
  5
1B83
  8
0
 62
     0
 10
319.58260341765742
 20
251.86500806697401
 30
0.0
 11
319.58260341765742
 21
251.86500806697401
 31
0.0
  0
LINE
  5
1B84
  8
0
 62
     0
 10
318.94760341765738
 20
251.86500806697401
 30
0.0
 11
318.94760341765738
 21
251.86500806697401
 31
0.0
  0
LINE
  5
1B85
  8
0
 62
     0
 10
318.3126034176575
 20
251.86500806697401
 30
0.0
 11
318.3126034176575
 21
251.86500806697401
 31
0.0
  0
LINE
  5
1B86
  8
0
 62
     0
 10
317.67760341765751
 20
251.86500806697401
 30
0.0
 11
317.67760341765751
 21
251.86500806697401
 31
0.0
  0
LINE
  5
1B87
  8
0
 62
     0
 10
286.56260341765727
 20
251.86500806697401
 30
0.0
 11
286.56260341765727
 21
251.86500806697401
 31
0.0
  0
LINE
  5
1B88
  8
0
 62
     0
 10
285.92760341765728
 20
251.86500806697401
 30
0.0
 11
285.92760341765728
 21
251.86500806697401
 31
0.0
  0
LINE
  5
1B89
  8
0
 62
     0
 10
285.2926034176574
 20
251.86500806697401
 30
0.0
 11
285.2926034176574
 21
251.86500806697401
 31
0.0
  0
LINE
  5
1B8A
  8
0
 62
     0
 10
284.65760341765741
 20
251.86500806697401
 30
0.0
 11
284.65760341765741
 21
251.86500806697401
 31
0.0
  0
LINE
  5
1B8B
  8
0
 62
     0
 10
284.02260341765731
 20
251.86500806697401
 30
0.0
 11
284.02260341765731
 21
251.86500806697401
 31
0.0
  0
LINE
  5
1B8C
  8
0
 62
     0
 10
283.38760341765737
 20
251.86500806697401
 30
0.0
 11
283.38760341765737
 21
251.86500806697401
 31
0.0
  0
LINE
  5
1B8D
  8
0
 62
     0
 10
282.75260341765738
 20
251.86500806697401
 30
0.0
 11
282.75260341765738
 21
251.86500806697401
 31
0.0
  0
LINE
  5
1B8E
  8
0
 62
     0
 10
282.11760341765739
 20
251.86500806697401
 30
0.0
 11
282.11760341765739
 21
251.86500806697401
 31
0.0
  0
LINE
  5
1B8F
  8
0
 62
     0
 10
281.4826034176574
 20
251.86500806697401
 30
0.0
 11
281.4826034176574
 21
251.86500806697401
 31
0.0
  0
LINE
  5
1B90
  8
0
 62
     0
 10
280.84760341765741
 20
251.86500806697401
 30
0.0
 11
280.84760341765741
 21
251.86500806697401
 31
0.0
  0
LINE
  5
1B91
  8
0
 62
     0
 10
280.21260341765742
 20
251.86500806697401
 30
0.0
 11
280.21260341765742
 21
251.86500806697401
 31
0.0
  0
LINE
  5
1B92
  8
0
 62
     0
 10
279.57760341765737
 20
251.86500806697401
 30
0.0
 11
279.57760341765737
 21
251.86500806697401
 31
0.0
  0
LINE
  5
1B93
  8
0
 62
     0
 10
278.94260341765749
 20
251.86500806697401
 30
0.0
 11
278.94260341765749
 21
251.86500806697401
 31
0.0
  0
LINE
  5
1B94
  8
0
 62
     0
 10
278.30760341765739
 20
251.86500806697401
 30
0.0
 11
278.30760341765739
 21
251.86500806697401
 31
0.0
  0
LINE
  5
1B95
  8
0
 62
     0
 10
277.6726034176574
 20
251.86500806697401
 30
0.0
 11
277.6726034176574
 21
251.86500806697401
 31
0.0
  0
LINE
  5
1B96
  8
0
 62
     0
 10
326.88510341765732
 20
252.50000806697409
 30
0.0
 11
326.88510341765732
 21
252.50000806697409
 31
0.0
  0
LINE
  5
1B97
  8
0
 62
     0
 10
326.25010341765727
 20
252.50000806697409
 30
0.0
 11
326.25010341765727
 21
252.50000806697409
 31
0.0
  0
LINE
  5
1B98
  8
0
 62
     0
 10
325.61510341765739
 20
252.50000806697409
 30
0.0
 11
325.61510341765739
 21
252.50000806697409
 31
0.0
  0
LINE
  5
1B99
  8
0
 62
     0
 10
324.9801034176574
 20
252.50000806697409
 30
0.0
 11
324.9801034176574
 21
252.50000806697409
 31
0.0
  0
LINE
  5
1B9A
  8
0
 62
     0
 10
324.3451034176573
 20
252.50000806697409
 30
0.0
 11
324.3451034176573
 21
252.50000806697409
 31
0.0
  0
LINE
  5
1B9B
  8
0
 62
     0
 10
323.71010341765742
 20
252.50000806697409
 30
0.0
 11
323.71010341765742
 21
252.50000806697409
 31
0.0
  0
LINE
  5
1B9C
  8
0
 62
     0
 10
323.07510341765737
 20
252.50000806697409
 30
0.0
 11
323.07510341765737
 21
252.50000806697409
 31
0.0
  0
LINE
  5
1B9D
  8
0
 62
     0
 10
322.44010341765738
 20
252.50000806697409
 30
0.0
 11
322.44010341765738
 21
252.50000806697409
 31
0.0
  0
LINE
  5
1B9E
  8
0
 62
     0
 10
321.80510341765739
 20
252.50000806697409
 30
0.0
 11
321.80510341765739
 21
252.50000806697409
 31
0.0
  0
LINE
  5
1B9F
  8
0
 62
     0
 10
321.1701034176574
 20
252.50000806697409
 30
0.0
 11
321.1701034176574
 21
252.50000806697409
 31
0.0
  0
LINE
  5
1BA0
  8
0
 62
     0
 10
320.53510341765741
 20
252.50000806697409
 30
0.0
 11
320.53510341765741
 21
252.50000806697409
 31
0.0
  0
LINE
  5
1BA1
  8
0
 62
     0
 10
319.90010341765742
 20
252.50000806697409
 30
0.0
 11
319.90010341765742
 21
252.50000806697409
 31
0.0
  0
LINE
  5
1BA2
  8
0
 62
     0
 10
319.26510341765737
 20
252.50000806697409
 30
0.0
 11
319.26510341765737
 21
252.50000806697409
 31
0.0
  0
LINE
  5
1BA3
  8
0
 62
     0
 10
318.63010341765738
 20
252.50000806697409
 30
0.0
 11
318.63010341765738
 21
252.50000806697409
 31
0.0
  0
LINE
  5
1BA4
  8
0
 62
     0
 10
317.99510341765739
 20
252.50000806697409
 30
0.0
 11
317.99510341765739
 21
252.50000806697409
 31
0.0
  0
LINE
  5
1BA5
  8
0
 62
     0
 10
286.24510341765728
 20
252.50000806697409
 30
0.0
 11
286.24510341765728
 21
252.50000806697409
 31
0.0
  0
LINE
  5
1BA6
  8
0
 62
     0
 10
285.61010341765729
 20
252.50000806697409
 30
0.0
 11
285.61010341765729
 21
252.50000806697409
 31
0.0
  0
LINE
  5
1BA7
  8
0
 62
     0
 10
284.97510341765729
 20
252.50000806697409
 30
0.0
 11
284.97510341765729
 21
252.50000806697409
 31
0.0
  0
LINE
  5
1BA8
  8
0
 62
     0
 10
284.34010341765742
 20
252.50000806697409
 30
0.0
 11
284.34010341765742
 21
252.50000806697409
 31
0.0
  0
LINE
  5
1BA9
  8
0
 62
     0
 10
283.70510341765743
 20
252.50000806697409
 30
0.0
 11
283.70510341765743
 21
252.50000806697409
 31
0.0
  0
LINE
  5
1BAA
  8
0
 62
     0
 10
283.07010341765738
 20
252.50000806697409
 30
0.0
 11
283.07010341765738
 21
252.50000806697409
 31
0.0
  0
LINE
  5
1BAB
  8
0
 62
     0
 10
282.43510341765739
 20
252.50000806697409
 30
0.0
 11
282.43510341765739
 21
252.50000806697409
 31
0.0
  0
LINE
  5
1BAC
  8
0
 62
     0
 10
281.8001034176574
 20
252.50000806697409
 30
0.0
 11
281.8001034176574
 21
252.50000806697409
 31
0.0
  0
LINE
  5
1BAD
  8
0
 62
     0
 10
281.16510341765741
 20
252.50000806697409
 30
0.0
 11
281.16510341765741
 21
252.50000806697409
 31
0.0
  0
LINE
  5
1BAE
  8
0
 62
     0
 10
280.53010341765741
 20
252.50000806697409
 30
0.0
 11
280.53010341765741
 21
252.50000806697409
 31
0.0
  0
LINE
  5
1BAF
  8
0
 62
     0
 10
279.89510341765742
 20
252.50000806697409
 30
0.0
 11
279.89510341765742
 21
252.50000806697409
 31
0.0
  0
LINE
  5
1BB0
  8
0
 62
     0
 10
279.26010341765738
 20
252.50000806697409
 30
0.0
 11
279.26010341765738
 21
252.50000806697409
 31
0.0
  0
LINE
  5
1BB1
  8
0
 62
     0
 10
278.62510341765739
 20
252.50000806697409
 30
0.0
 11
278.62510341765739
 21
252.50000806697409
 31
0.0
  0
LINE
  5
1BB2
  8
0
 62
     0
 10
277.99010341765751
 20
252.50000806697409
 30
0.0
 11
277.99010341765751
 21
252.50000806697409
 31
0.0
  0
LINE
  5
1BB3
  8
0
 62
     0
 10
277.35510341765752
 20
252.50000806697409
 30
0.0
 11
277.35510341765752
 21
252.50000806697409
 31
0.0
  0
LINE
  5
1BB4
  8
0
 62
     0
 10
326.56760341765732
 20
253.135008066974
 30
0.0
 11
326.56760341765732
 21
253.135008066974
 31
0.0
  0
LINE
  5
1BB5
  8
0
 62
     0
 10
325.93260341765728
 20
253.135008066974
 30
0.0
 11
325.93260341765728
 21
253.135008066974
 31
0.0
  0
LINE
  5
1BB6
  8
0
 62
     0
 10
325.29760341765729
 20
253.135008066974
 30
0.0
 11
325.29760341765729
 21
253.135008066974
 31
0.0
  0
LINE
  5
1BB7
  8
0
 62
     0
 10
324.66260341765741
 20
253.135008066974
 30
0.0
 11
324.66260341765741
 21
253.135008066974
 31
0.0
  0
LINE
  5
1BB8
  8
0
 62
     0
 10
324.02760341765742
 20
253.135008066974
 30
0.0
 11
324.02760341765742
 21
253.135008066974
 31
0.0
  0
LINE
  5
1BB9
  8
0
 62
     0
 10
323.39260341765743
 20
253.135008066974
 30
0.0
 11
323.39260341765743
 21
253.135008066974
 31
0.0
  0
LINE
  5
1BBA
  8
0
 62
     0
 10
322.75760341765738
 20
253.135008066974
 30
0.0
 11
322.75760341765738
 21
253.135008066974
 31
0.0
  0
LINE
  5
1BBB
  8
0
 62
     0
 10
322.12260341765739
 20
253.135008066974
 30
0.0
 11
322.12260341765739
 21
253.135008066974
 31
0.0
  0
LINE
  5
1BBC
  8
0
 62
     0
 10
321.4876034176574
 20
253.135008066974
 30
0.0
 11
321.4876034176574
 21
253.135008066974
 31
0.0
  0
LINE
  5
1BBD
  8
0
 62
     0
 10
320.85260341765741
 20
253.135008066974
 30
0.0
 11
320.85260341765741
 21
253.135008066974
 31
0.0
  0
LINE
  5
1BBE
  8
0
 62
     0
 10
320.21760341765741
 20
253.135008066974
 30
0.0
 11
320.21760341765741
 21
253.135008066974
 31
0.0
  0
LINE
  5
1BBF
  8
0
 62
     0
 10
319.58260341765742
 20
253.135008066974
 30
0.0
 11
319.58260341765742
 21
253.135008066974
 31
0.0
  0
LINE
  5
1BC0
  8
0
 62
     0
 10
318.94760341765738
 20
253.135008066974
 30
0.0
 11
318.94760341765738
 21
253.135008066974
 31
0.0
  0
LINE
  5
1BC1
  8
0
 62
     0
 10
318.3126034176575
 20
253.135008066974
 30
0.0
 11
318.3126034176575
 21
253.135008066974
 31
0.0
  0
LINE
  5
1BC2
  8
0
 62
     0
 10
317.67760341765751
 20
253.135008066974
 30
0.0
 11
317.67760341765751
 21
253.135008066974
 31
0.0
  0
LINE
  5
1BC3
  8
0
 62
     0
 10
286.56260341765727
 20
253.135008066974
 30
0.0
 11
286.56260341765727
 21
253.135008066974
 31
0.0
  0
LINE
  5
1BC4
  8
0
 62
     0
 10
285.92760341765728
 20
253.135008066974
 30
0.0
 11
285.92760341765728
 21
253.135008066974
 31
0.0
  0
LINE
  5
1BC5
  8
0
 62
     0
 10
285.2926034176574
 20
253.135008066974
 30
0.0
 11
285.2926034176574
 21
253.135008066974
 31
0.0
  0
LINE
  5
1BC6
  8
0
 62
     0
 10
284.65760341765741
 20
253.135008066974
 30
0.0
 11
284.65760341765741
 21
253.135008066974
 31
0.0
  0
LINE
  5
1BC7
  8
0
 62
     0
 10
284.02260341765731
 20
253.135008066974
 30
0.0
 11
284.02260341765731
 21
253.135008066974
 31
0.0
  0
LINE
  5
1BC8
  8
0
 62
     0
 10
283.38760341765737
 20
253.135008066974
 30
0.0
 11
283.38760341765737
 21
253.135008066974
 31
0.0
  0
LINE
  5
1BC9
  8
0
 62
     0
 10
282.75260341765738
 20
253.135008066974
 30
0.0
 11
282.75260341765738
 21
253.135008066974
 31
0.0
  0
LINE
  5
1BCA
  8
0
 62
     0
 10
282.11760341765739
 20
253.135008066974
 30
0.0
 11
282.11760341765739
 21
253.135008066974
 31
0.0
  0
LINE
  5
1BCB
  8
0
 62
     0
 10
281.4826034176574
 20
253.135008066974
 30
0.0
 11
281.4826034176574
 21
253.135008066974
 31
0.0
  0
LINE
  5
1BCC
  8
0
 62
     0
 10
280.84760341765741
 20
253.135008066974
 30
0.0
 11
280.84760341765741
 21
253.135008066974
 31
0.0
  0
LINE
  5
1BCD
  8
0
 62
     0
 10
280.21260341765742
 20
253.135008066974
 30
0.0
 11
280.21260341765742
 21
253.135008066974
 31
0.0
  0
LINE
  5
1BCE
  8
0
 62
     0
 10
279.57760341765737
 20
253.135008066974
 30
0.0
 11
279.57760341765737
 21
253.135008066974
 31
0.0
  0
LINE
  5
1BCF
  8
0
 62
     0
 10
278.94260341765749
 20
253.135008066974
 30
0.0
 11
278.94260341765749
 21
253.135008066974
 31
0.0
  0
LINE
  5
1BD0
  8
0
 62
     0
 10
278.30760341765739
 20
253.135008066974
 30
0.0
 11
278.30760341765739
 21
253.135008066974
 31
0.0
  0
LINE
  5
1BD1
  8
0
 62
     0
 10
277.6726034176574
 20
253.135008066974
 30
0.0
 11
277.6726034176574
 21
253.135008066974
 31
0.0
  0
LINE
  5
1BD2
  8
0
 62
     0
 10
326.88510341765732
 20
257.58000806697402
 30
0.0
 11
326.88510341765732
 21
257.58000806697402
 31
0.0
  0
LINE
  5
1BD3
  8
0
 62
     0
 10
326.25010341765727
 20
257.58000806697402
 30
0.0
 11
326.25010341765727
 21
257.58000806697402
 31
0.0
  0
LINE
  5
1BD4
  8
0
 62
     0
 10
325.61510341765739
 20
257.58000806697402
 30
0.0
 11
325.61510341765739
 21
257.58000806697402
 31
0.0
  0
LINE
  5
1BD5
  8
0
 62
     0
 10
324.9801034176574
 20
257.58000806697402
 30
0.0
 11
324.9801034176574
 21
257.58000806697402
 31
0.0
  0
LINE
  5
1BD6
  8
0
 62
     0
 10
324.3451034176573
 20
257.58000806697402
 30
0.0
 11
324.3451034176573
 21
257.58000806697402
 31
0.0
  0
LINE
  5
1BD7
  8
0
 62
     0
 10
323.71010341765742
 20
257.58000806697402
 30
0.0
 11
323.71010341765742
 21
257.58000806697402
 31
0.0
  0
LINE
  5
1BD8
  8
0
 62
     0
 10
323.07510341765737
 20
257.58000806697402
 30
0.0
 11
323.07510341765737
 21
257.58000806697402
 31
0.0
  0
LINE
  5
1BD9
  8
0
 62
     0
 10
322.44010341765738
 20
257.58000806697402
 30
0.0
 11
322.44010341765738
 21
257.58000806697402
 31
0.0
  0
LINE
  5
1BDA
  8
0
 62
     0
 10
321.80510341765739
 20
257.58000806697402
 30
0.0
 11
321.80510341765739
 21
257.58000806697402
 31
0.0
  0
LINE
  5
1BDB
  8
0
 62
     0
 10
321.1701034176574
 20
257.58000806697402
 30
0.0
 11
321.1701034176574
 21
257.58000806697402
 31
0.0
  0
LINE
  5
1BDC
  8
0
 62
     0
 10
320.53510341765741
 20
257.58000806697402
 30
0.0
 11
320.53510341765741
 21
257.58000806697402
 31
0.0
  0
LINE
  5
1BDD
  8
0
 62
     0
 10
319.90010341765742
 20
257.58000806697402
 30
0.0
 11
319.90010341765742
 21
257.58000806697402
 31
0.0
  0
LINE
  5
1BDE
  8
0
 62
     0
 10
319.26510341765737
 20
257.58000806697402
 30
0.0
 11
319.26510341765737
 21
257.58000806697402
 31
0.0
  0
LINE
  5
1BDF
  8
0
 62
     0
 10
318.63010341765738
 20
257.58000806697402
 30
0.0
 11
318.63010341765738
 21
257.58000806697402
 31
0.0
  0
LINE
  5
1BE0
  8
0
 62
     0
 10
317.99510341765739
 20
257.58000806697402
 30
0.0
 11
317.99510341765739
 21
257.58000806697402
 31
0.0
  0
LINE
  5
1BE1
  8
0
 62
     0
 10
286.24510341765728
 20
257.58000806697402
 30
0.0
 11
286.24510341765728
 21
257.58000806697402
 31
0.0
  0
LINE
  5
1BE2
  8
0
 62
     0
 10
285.61010341765729
 20
257.58000806697402
 30
0.0
 11
285.61010341765729
 21
257.58000806697402
 31
0.0
  0
LINE
  5
1BE3
  8
0
 62
     0
 10
284.97510341765729
 20
257.58000806697402
 30
0.0
 11
284.97510341765729
 21
257.58000806697402
 31
0.0
  0
LINE
  5
1BE4
  8
0
 62
     0
 10
284.34010341765742
 20
257.58000806697402
 30
0.0
 11
284.34010341765742
 21
257.58000806697402
 31
0.0
  0
LINE
  5
1BE5
  8
0
 62
     0
 10
283.70510341765743
 20
257.58000806697402
 30
0.0
 11
283.70510341765743
 21
257.58000806697402
 31
0.0
  0
LINE
  5
1BE6
  8
0
 62
     0
 10
283.07010341765738
 20
257.58000806697402
 30
0.0
 11
283.07010341765738
 21
257.58000806697402
 31
0.0
  0
LINE
  5
1BE7
  8
0
 62
     0
 10
282.43510341765739
 20
257.58000806697402
 30
0.0
 11
282.43510341765739
 21
257.58000806697402
 31
0.0
  0
LINE
  5
1BE8
  8
0
 62
     0
 10
281.8001034176574
 20
257.58000806697402
 30
0.0
 11
281.8001034176574
 21
257.58000806697402
 31
0.0
  0
LINE
  5
1BE9
  8
0
 62
     0
 10
281.16510341765741
 20
257.58000806697402
 30
0.0
 11
281.16510341765741
 21
257.58000806697402
 31
0.0
  0
LINE
  5
1BEA
  8
0
 62
     0
 10
280.53010341765741
 20
257.58000806697402
 30
0.0
 11
280.53010341765741
 21
257.58000806697402
 31
0.0
  0
LINE
  5
1BEB
  8
0
 62
     0
 10
279.89510341765742
 20
257.58000806697402
 30
0.0
 11
279.89510341765742
 21
257.58000806697402
 31
0.0
  0
LINE
  5
1BEC
  8
0
 62
     0
 10
279.26010341765738
 20
257.58000806697402
 30
0.0
 11
279.26010341765738
 21
257.58000806697402
 31
0.0
  0
LINE
  5
1BED
  8
0
 62
     0
 10
278.62510341765739
 20
257.58000806697402
 30
0.0
 11
278.62510341765739
 21
257.58000806697402
 31
0.0
  0
LINE
  5
1BEE
  8
0
 62
     0
 10
277.99010341765751
 20
257.58000806697402
 30
0.0
 11
277.99010341765751
 21
257.58000806697402
 31
0.0
  0
LINE
  5
1BEF
  8
0
 62
     0
 10
277.35510341765752
 20
257.58000806697402
 30
0.0
 11
277.35510341765752
 21
257.58000806697402
 31
0.0
  0
LINE
  5
1BF0
  8
0
 62
     0
 10
326.56760341765732
 20
258.21500806697401
 30
0.0
 11
326.56760341765732
 21
258.21500806697401
 31
0.0
  0
LINE
  5
1BF1
  8
0
 62
     0
 10
325.93260341765728
 20
258.21500806697401
 30
0.0
 11
325.93260341765728
 21
258.21500806697401
 31
0.0
  0
LINE
  5
1BF2
  8
0
 62
     0
 10
325.29760341765729
 20
258.21500806697401
 30
0.0
 11
325.29760341765729
 21
258.21500806697401
 31
0.0
  0
LINE
  5
1BF3
  8
0
 62
     0
 10
324.66260341765741
 20
258.21500806697401
 30
0.0
 11
324.66260341765741
 21
258.21500806697401
 31
0.0
  0
LINE
  5
1BF4
  8
0
 62
     0
 10
324.02760341765742
 20
258.21500806697401
 30
0.0
 11
324.02760341765742
 21
258.21500806697401
 31
0.0
  0
LINE
  5
1BF5
  8
0
 62
     0
 10
323.39260341765743
 20
258.21500806697401
 30
0.0
 11
323.39260341765743
 21
258.21500806697401
 31
0.0
  0
LINE
  5
1BF6
  8
0
 62
     0
 10
322.75760341765738
 20
258.21500806697401
 30
0.0
 11
322.75760341765738
 21
258.21500806697401
 31
0.0
  0
LINE
  5
1BF7
  8
0
 62
     0
 10
322.12260341765739
 20
258.21500806697401
 30
0.0
 11
322.12260341765739
 21
258.21500806697401
 31
0.0
  0
LINE
  5
1BF8
  8
0
 62
     0
 10
321.4876034176574
 20
258.21500806697401
 30
0.0
 11
321.4876034176574
 21
258.21500806697401
 31
0.0
  0
LINE
  5
1BF9
  8
0
 62
     0
 10
320.85260341765741
 20
258.21500806697401
 30
0.0
 11
320.85260341765741
 21
258.21500806697401
 31
0.0
  0
LINE
  5
1BFA
  8
0
 62
     0
 10
320.21760341765741
 20
258.21500806697401
 30
0.0
 11
320.21760341765741
 21
258.21500806697401
 31
0.0
  0
LINE
  5
1BFB
  8
0
 62
     0
 10
319.58260341765742
 20
258.21500806697401
 30
0.0
 11
319.58260341765742
 21
258.21500806697401
 31
0.0
  0
LINE
  5
1BFC
  8
0
 62
     0
 10
318.94760341765738
 20
258.21500806697401
 30
0.0
 11
318.94760341765738
 21
258.21500806697401
 31
0.0
  0
LINE
  5
1BFD
  8
0
 62
     0
 10
318.3126034176575
 20
258.21500806697401
 30
0.0
 11
318.3126034176575
 21
258.21500806697401
 31
0.0
  0
LINE
  5
1BFE
  8
0
 62
     0
 10
317.67760341765751
 20
258.21500806697401
 30
0.0
 11
317.67760341765751
 21
258.21500806697401
 31
0.0
  0
LINE
  5
1BFF
  8
0
 62
     0
 10
286.56260341765727
 20
258.21500806697401
 30
0.0
 11
286.56260341765727
 21
258.21500806697401
 31
0.0
  0
LINE
  5
1C00
  8
0
 62
     0
 10
285.92760341765728
 20
258.21500806697401
 30
0.0
 11
285.92760341765728
 21
258.21500806697401
 31
0.0
  0
LINE
  5
1C01
  8
0
 62
     0
 10
285.2926034176574
 20
258.21500806697401
 30
0.0
 11
285.2926034176574
 21
258.21500806697401
 31
0.0
  0
LINE
  5
1C02
  8
0
 62
     0
 10
284.65760341765741
 20
258.21500806697401
 30
0.0
 11
284.65760341765741
 21
258.21500806697401
 31
0.0
  0
LINE
  5
1C03
  8
0
 62
     0
 10
284.02260341765731
 20
258.21500806697401
 30
0.0
 11
284.02260341765731
 21
258.21500806697401
 31
0.0
  0
LINE
  5
1C04
  8
0
 62
     0
 10
283.38760341765737
 20
258.21500806697401
 30
0.0
 11
283.38760341765737
 21
258.21500806697401
 31
0.0
  0
LINE
  5
1C05
  8
0
 62
     0
 10
282.75260341765738
 20
258.21500806697401
 30
0.0
 11
282.75260341765738
 21
258.21500806697401
 31
0.0
  0
LINE
  5
1C06
  8
0
 62
     0
 10
282.11760341765739
 20
258.21500806697401
 30
0.0
 11
282.11760341765739
 21
258.21500806697401
 31
0.0
  0
LINE
  5
1C07
  8
0
 62
     0
 10
281.4826034176574
 20
258.21500806697401
 30
0.0
 11
281.4826034176574
 21
258.21500806697401
 31
0.0
  0
LINE
  5
1C08
  8
0
 62
     0
 10
280.84760341765741
 20
258.21500806697401
 30
0.0
 11
280.84760341765741
 21
258.21500806697401
 31
0.0
  0
LINE
  5
1C09
  8
0
 62
     0
 10
280.21260341765742
 20
258.21500806697401
 30
0.0
 11
280.21260341765742
 21
258.21500806697401
 31
0.0
  0
LINE
  5
1C0A
  8
0
 62
     0
 10
279.57760341765737
 20
258.21500806697401
 30
0.0
 11
279.57760341765737
 21
258.21500806697401
 31
0.0
  0
LINE
  5
1C0B
  8
0
 62
     0
 10
278.94260341765749
 20
258.21500806697401
 30
0.0
 11
278.94260341765749
 21
258.21500806697401
 31
0.0
  0
LINE
  5
1C0C
  8
0
 62
     0
 10
278.30760341765739
 20
258.21500806697401
 30
0.0
 11
278.30760341765739
 21
258.21500806697401
 31
0.0
  0
LINE
  5
1C0D
  8
0
 62
     0
 10
277.6726034176574
 20
258.21500806697401
 30
0.0
 11
277.6726034176574
 21
258.21500806697401
 31
0.0
  0
LINE
  5
1C0E
  8
0
 62
     0
 10
326.88510341765732
 20
258.850008066974
 30
0.0
 11
326.88510341765732
 21
258.850008066974
 31
0.0
  0
LINE
  5
1C0F
  8
0
 62
     0
 10
326.25010341765727
 20
258.850008066974
 30
0.0
 11
326.25010341765727
 21
258.850008066974
 31
0.0
  0
LINE
  5
1C10
  8
0
 62
     0
 10
325.61510341765739
 20
258.850008066974
 30
0.0
 11
325.61510341765739
 21
258.850008066974
 31
0.0
  0
LINE
  5
1C11
  8
0
 62
     0
 10
324.9801034176574
 20
258.850008066974
 30
0.0
 11
324.9801034176574
 21
258.850008066974
 31
0.0
  0
LINE
  5
1C12
  8
0
 62
     0
 10
324.3451034176573
 20
258.850008066974
 30
0.0
 11
324.3451034176573
 21
258.850008066974
 31
0.0
  0
LINE
  5
1C13
  8
0
 62
     0
 10
323.71010341765742
 20
258.850008066974
 30
0.0
 11
323.71010341765742
 21
258.850008066974
 31
0.0
  0
LINE
  5
1C14
  8
0
 62
     0
 10
323.07510341765737
 20
258.850008066974
 30
0.0
 11
323.07510341765737
 21
258.850008066974
 31
0.0
  0
LINE
  5
1C15
  8
0
 62
     0
 10
322.44010341765738
 20
258.850008066974
 30
0.0
 11
322.44010341765738
 21
258.850008066974
 31
0.0
  0
LINE
  5
1C16
  8
0
 62
     0
 10
321.80510341765739
 20
258.850008066974
 30
0.0
 11
321.80510341765739
 21
258.850008066974
 31
0.0
  0
LINE
  5
1C17
  8
0
 62
     0
 10
321.1701034176574
 20
258.850008066974
 30
0.0
 11
321.1701034176574
 21
258.850008066974
 31
0.0
  0
LINE
  5
1C18
  8
0
 62
     0
 10
320.53510341765741
 20
258.850008066974
 30
0.0
 11
320.53510341765741
 21
258.850008066974
 31
0.0
  0
LINE
  5
1C19
  8
0
 62
     0
 10
319.90010341765742
 20
258.850008066974
 30
0.0
 11
319.90010341765742
 21
258.850008066974
 31
0.0
  0
LINE
  5
1C1A
  8
0
 62
     0
 10
319.26510341765737
 20
258.850008066974
 30
0.0
 11
319.26510341765737
 21
258.850008066974
 31
0.0
  0
LINE
  5
1C1B
  8
0
 62
     0
 10
318.63010341765738
 20
258.850008066974
 30
0.0
 11
318.63010341765738
 21
258.850008066974
 31
0.0
  0
LINE
  5
1C1C
  8
0
 62
     0
 10
317.99510341765739
 20
258.850008066974
 30
0.0
 11
317.99510341765739
 21
258.850008066974
 31
0.0
  0
LINE
  5
1C1D
  8
0
 62
     0
 10
286.24510341765728
 20
258.850008066974
 30
0.0
 11
286.24510341765728
 21
258.850008066974
 31
0.0
  0
LINE
  5
1C1E
  8
0
 62
     0
 10
285.61010341765729
 20
258.850008066974
 30
0.0
 11
285.61010341765729
 21
258.850008066974
 31
0.0
  0
LINE
  5
1C1F
  8
0
 62
     0
 10
284.97510341765729
 20
258.850008066974
 30
0.0
 11
284.97510341765729
 21
258.850008066974
 31
0.0
  0
LINE
  5
1C20
  8
0
 62
     0
 10
284.34010341765742
 20
258.850008066974
 30
0.0
 11
284.34010341765742
 21
258.850008066974
 31
0.0
  0
LINE
  5
1C21
  8
0
 62
     0
 10
283.70510341765743
 20
258.850008066974
 30
0.0
 11
283.70510341765743
 21
258.850008066974
 31
0.0
  0
LINE
  5
1C22
  8
0
 62
     0
 10
283.07010341765738
 20
258.850008066974
 30
0.0
 11
283.07010341765738
 21
258.850008066974
 31
0.0
  0
LINE
  5
1C23
  8
0
 62
     0
 10
282.43510341765739
 20
258.850008066974
 30
0.0
 11
282.43510341765739
 21
258.850008066974
 31
0.0
  0
LINE
  5
1C24
  8
0
 62
     0
 10
281.8001034176574
 20
258.850008066974
 30
0.0
 11
281.8001034176574
 21
258.850008066974
 31
0.0
  0
LINE
  5
1C25
  8
0
 62
     0
 10
281.16510341765741
 20
258.850008066974
 30
0.0
 11
281.16510341765741
 21
258.850008066974
 31
0.0
  0
LINE
  5
1C26
  8
0
 62
     0
 10
280.53010341765741
 20
258.850008066974
 30
0.0
 11
280.53010341765741
 21
258.850008066974
 31
0.0
  0
LINE
  5
1C27
  8
0
 62
     0
 10
279.89510341765742
 20
258.850008066974
 30
0.0
 11
279.89510341765742
 21
258.850008066974
 31
0.0
  0
LINE
  5
1C28
  8
0
 62
     0
 10
279.26010341765738
 20
258.850008066974
 30
0.0
 11
279.26010341765738
 21
258.850008066974
 31
0.0
  0
LINE
  5
1C29
  8
0
 62
     0
 10
278.62510341765739
 20
258.850008066974
 30
0.0
 11
278.62510341765739
 21
258.850008066974
 31
0.0
  0
LINE
  5
1C2A
  8
0
 62
     0
 10
277.99010341765751
 20
258.850008066974
 30
0.0
 11
277.99010341765751
 21
258.850008066974
 31
0.0
  0
LINE
  5
1C2B
  8
0
 62
     0
 10
277.35510341765752
 20
258.850008066974
 30
0.0
 11
277.35510341765752
 21
258.850008066974
 31
0.0
  0
LINE
  5
1C2C
  8
0
 62
     0
 10
326.56760341765721
 20
259.48500806697399
 30
0.0
 11
326.56760341765721
 21
259.48500806697399
 31
0.0
  0
LINE
  5
1C2D
  8
0
 62
     0
 10
325.93260341765711
 20
259.48500806697399
 30
0.0
 11
325.93260341765711
 21
259.48500806697399
 31
0.0
  0
LINE
  5
1C2E
  8
0
 62
     0
 10
325.29760341765723
 20
259.48500806697399
 30
0.0
 11
325.29760341765723
 21
259.48500806697399
 31
0.0
  0
LINE
  5
1C2F
  8
0
 62
     0
 10
324.66260341765718
 20
259.48500806697399
 30
0.0
 11
324.66260341765718
 21
259.48500806697399
 31
0.0
  0
LINE
  5
1C30
  8
0
 62
     0
 10
324.02760341765719
 20
259.48500806697399
 30
0.0
 11
324.02760341765719
 21
259.48500806697399
 31
0.0
  0
LINE
  5
1C31
  8
0
 62
     0
 10
323.3926034176572
 20
259.48500806697399
 30
0.0
 11
323.3926034176572
 21
259.48500806697399
 31
0.0
  0
LINE
  5
1C32
  8
0
 62
     0
 10
322.75760341765721
 20
259.48500806697399
 30
0.0
 11
322.75760341765721
 21
259.48500806697399
 31
0.0
  0
LINE
  5
1C33
  8
0
 62
     0
 10
322.12260341765722
 20
259.48500806697399
 30
0.0
 11
322.12260341765722
 21
259.48500806697399
 31
0.0
  0
LINE
  5
1C34
  8
0
 62
     0
 10
321.48760341765723
 20
259.48500806697399
 30
0.0
 11
321.48760341765723
 21
259.48500806697399
 31
0.0
  0
LINE
  5
1C35
  8
0
 62
     0
 10
320.85260341765718
 20
259.48500806697399
 30
0.0
 11
320.85260341765718
 21
259.48500806697399
 31
0.0
  0
LINE
  5
1C36
  8
0
 62
     0
 10
320.21760341765719
 20
259.48500806697399
 30
0.0
 11
320.21760341765719
 21
259.48500806697399
 31
0.0
  0
LINE
  5
1C37
  8
0
 62
     0
 10
319.5826034176572
 20
259.48500806697399
 30
0.0
 11
319.5826034176572
 21
259.48500806697399
 31
0.0
  0
LINE
  5
1C38
  8
0
 62
     0
 10
318.94760341765732
 20
259.48500806697399
 30
0.0
 11
318.94760341765732
 21
259.48500806697399
 31
0.0
  0
LINE
  5
1C39
  8
0
 62
     0
 10
318.31260341765727
 20
259.48500806697399
 30
0.0
 11
318.31260341765727
 21
259.48500806697399
 31
0.0
  0
LINE
  5
1C3A
  8
0
 62
     0
 10
317.67760341765728
 20
259.48500806697399
 30
0.0
 11
317.67760341765728
 21
259.48500806697399
 31
0.0
  0
LINE
  5
1C3B
  8
0
 62
     0
 10
317.04260341765729
 20
259.48500806697399
 30
0.0
 11
317.04260341765729
 21
259.48500806697399
 31
0.0
  0
LINE
  5
1C3C
  8
0
 62
     0
 10
316.4076034176573
 20
259.48500806697399
 30
0.0
 11
316.4076034176573
 21
259.48500806697399
 31
0.0
  0
LINE
  5
1C3D
  8
0
 62
     0
 10
315.77260341765731
 20
259.48500806697399
 30
0.0
 11
315.77260341765731
 21
259.48500806697399
 31
0.0
  0
LINE
  5
1C3E
  8
0
 62
     0
 10
315.13760341765732
 20
259.48500806697399
 30
0.0
 11
315.13760341765732
 21
259.48500806697399
 31
0.0
  0
LINE
  5
1C3F
  8
0
 62
     0
 10
314.50260341765733
 20
259.48500806697399
 30
0.0
 11
314.50260341765733
 21
259.48500806697399
 31
0.0
  0
LINE
  5
1C40
  8
0
 62
     0
 10
313.86760341765728
 20
259.48500806697399
 30
0.0
 11
313.86760341765728
 21
259.48500806697399
 31
0.0
  0
LINE
  5
1C41
  8
0
 62
     0
 10
313.23260341765729
 20
259.48500806697399
 30
0.0
 11
313.23260341765729
 21
259.48500806697399
 31
0.0
  0
LINE
  5
1C42
  8
0
 62
     0
 10
312.59760341765741
 20
259.48500806697399
 30
0.0
 11
312.59760341765741
 21
259.48500806697399
 31
0.0
  0
LINE
  5
1C43
  8
0
 62
     0
 10
311.96260341765742
 20
259.48500806697399
 30
0.0
 11
311.96260341765742
 21
259.48500806697399
 31
0.0
  0
LINE
  5
1C44
  8
0
 62
     0
 10
311.32760341765737
 20
259.48500806697399
 30
0.0
 11
311.32760341765737
 21
259.48500806697399
 31
0.0
  0
LINE
  5
1C45
  8
0
 62
     0
 10
310.69260341765738
 20
259.48500806697399
 30
0.0
 11
310.69260341765738
 21
259.48500806697399
 31
0.0
  0
LINE
  5
1C46
  8
0
 62
     0
 10
310.05760341765739
 20
259.48500806697399
 30
0.0
 11
310.05760341765739
 21
259.48500806697399
 31
0.0
  0
LINE
  5
1C47
  8
0
 62
     0
 10
309.4226034176574
 20
259.48500806697399
 30
0.0
 11
309.4226034176574
 21
259.48500806697399
 31
0.0
  0
LINE
  5
1C48
  8
0
 62
     0
 10
308.78760341765741
 20
259.48500806697399
 30
0.0
 11
308.78760341765741
 21
259.48500806697399
 31
0.0
  0
LINE
  5
1C49
  8
0
 62
     0
 10
308.15260341765742
 20
259.48500806697399
 30
0.0
 11
308.15260341765742
 21
259.48500806697399
 31
0.0
  0
LINE
  5
1C4A
  8
0
 62
     0
 10
307.51760341765743
 20
259.48500806697399
 30
0.0
 11
307.51760341765743
 21
259.48500806697399
 31
0.0
  0
LINE
  5
1C4B
  8
0
 62
     0
 10
296.72260341765718
 20
259.48500806697399
 30
0.0
 11
296.72260341765718
 21
259.48500806697399
 31
0.0
  0
LINE
  5
1C4C
  8
0
 62
     0
 10
296.08760341765719
 20
259.48500806697399
 30
0.0
 11
296.08760341765719
 21
259.48500806697399
 31
0.0
  0
LINE
  5
1C4D
  8
0
 62
     0
 10
295.4526034176572
 20
259.48500806697399
 30
0.0
 11
295.4526034176572
 21
259.48500806697399
 31
0.0
  0
LINE
  5
1C4E
  8
0
 62
     0
 10
294.81760341765721
 20
259.48500806697399
 30
0.0
 11
294.81760341765721
 21
259.48500806697399
 31
0.0
  0
LINE
  5
1C4F
  8
0
 62
     0
 10
294.18260341765722
 20
259.48500806697399
 30
0.0
 11
294.18260341765722
 21
259.48500806697399
 31
0.0
  0
LINE
  5
1C50
  8
0
 62
     0
 10
293.54760341765723
 20
259.48500806697399
 30
0.0
 11
293.54760341765723
 21
259.48500806697399
 31
0.0
  0
LINE
  5
1C51
  8
0
 62
     0
 10
292.91260341765718
 20
259.48500806697399
 30
0.0
 11
292.91260341765718
 21
259.48500806697399
 31
0.0
  0
LINE
  5
1C52
  8
0
 62
     0
 10
292.2776034176573
 20
259.48500806697399
 30
0.0
 11
292.2776034176573
 21
259.48500806697399
 31
0.0
  0
LINE
  5
1C53
  8
0
 62
     0
 10
291.64260341765731
 20
259.48500806697399
 30
0.0
 11
291.64260341765731
 21
259.48500806697399
 31
0.0
  0
LINE
  5
1C54
  8
0
 62
     0
 10
291.00760341765732
 20
259.48500806697399
 30
0.0
 11
291.00760341765732
 21
259.48500806697399
 31
0.0
  0
LINE
  5
1C55
  8
0
 62
     0
 10
290.37260341765727
 20
259.48500806697399
 30
0.0
 11
290.37260341765727
 21
259.48500806697399
 31
0.0
  0
LINE
  5
1C56
  8
0
 62
     0
 10
289.73760341765728
 20
259.48500806697399
 30
0.0
 11
289.73760341765728
 21
259.48500806697399
 31
0.0
  0
LINE
  5
1C57
  8
0
 62
     0
 10
289.10260341765729
 20
259.48500806697399
 30
0.0
 11
289.10260341765729
 21
259.48500806697399
 31
0.0
  0
LINE
  5
1C58
  8
0
 62
     0
 10
288.4676034176573
 20
259.48500806697399
 30
0.0
 11
288.4676034176573
 21
259.48500806697399
 31
0.0
  0
LINE
  5
1C59
  8
0
 62
     0
 10
287.83260341765731
 20
259.48500806697399
 30
0.0
 11
287.83260341765731
 21
259.48500806697399
 31
0.0
  0
LINE
  5
1C5A
  8
0
 62
     0
 10
287.19760341765732
 20
259.48500806697399
 30
0.0
 11
287.19760341765732
 21
259.48500806697399
 31
0.0
  0
LINE
  5
1C5B
  8
0
 62
     0
 10
286.56260341765727
 20
259.48500806697399
 30
0.0
 11
286.56260341765727
 21
259.48500806697399
 31
0.0
  0
LINE
  5
1C5C
  8
0
 62
     0
 10
285.92760341765728
 20
259.48500806697399
 30
0.0
 11
285.92760341765728
 21
259.48500806697399
 31
0.0
  0
LINE
  5
1C5D
  8
0
 62
     0
 10
285.2926034176574
 20
259.48500806697399
 30
0.0
 11
285.2926034176574
 21
259.48500806697399
 31
0.0
  0
LINE
  5
1C5E
  8
0
 62
     0
 10
284.65760341765741
 20
259.48500806697399
 30
0.0
 11
284.65760341765741
 21
259.48500806697399
 31
0.0
  0
LINE
  5
1C5F
  8
0
 62
     0
 10
284.02260341765731
 20
259.48500806697399
 30
0.0
 11
284.02260341765731
 21
259.48500806697399
 31
0.0
  0
LINE
  5
1C60
  8
0
 62
     0
 10
283.38760341765737
 20
259.48500806697399
 30
0.0
 11
283.38760341765737
 21
259.48500806697399
 31
0.0
  0
LINE
  5
1C61
  8
0
 62
     0
 10
282.75260341765738
 20
259.48500806697399
 30
0.0
 11
282.75260341765738
 21
259.48500806697399
 31
0.0
  0
LINE
  5
1C62
  8
0
 62
     0
 10
282.11760341765739
 20
259.48500806697399
 30
0.0
 11
282.11760341765739
 21
259.48500806697399
 31
0.0
  0
LINE
  5
1C63
  8
0
 62
     0
 10
281.4826034176574
 20
259.48500806697399
 30
0.0
 11
281.4826034176574
 21
259.48500806697399
 31
0.0
  0
LINE
  5
1C64
  8
0
 62
     0
 10
280.84760341765741
 20
259.48500806697399
 30
0.0
 11
280.84760341765741
 21
259.48500806697399
 31
0.0
  0
LINE
  5
1C65
  8
0
 62
     0
 10
280.21260341765742
 20
259.48500806697399
 30
0.0
 11
280.21260341765742
 21
259.48500806697399
 31
0.0
  0
LINE
  5
1C66
  8
0
 62
     0
 10
279.57760341765737
 20
259.48500806697399
 30
0.0
 11
279.57760341765737
 21
259.48500806697399
 31
0.0
  0
LINE
  5
1C67
  8
0
 62
     0
 10
278.94260341765749
 20
259.48500806697399
 30
0.0
 11
278.94260341765749
 21
259.48500806697399
 31
0.0
  0
LINE
  5
1C68
  8
0
 62
     0
 10
278.30760341765739
 20
259.48500806697399
 30
0.0
 11
278.30760341765739
 21
259.48500806697399
 31
0.0
  0
LINE
  5
1C69
  8
0
 62
     0
 10
277.6726034176574
 20
259.48500806697399
 30
0.0
 11
277.6726034176574
 21
259.48500806697399
 31
0.0
  0
LINE
  5
1C6A
  8
0
 62
     0
 10
326.88510341765709
 20
260.12000806697409
 30
0.0
 11
326.88510341765709
 21
260.12000806697409
 31
0.0
  0
LINE
  5
1C6B
  8
0
 62
     0
 10
326.25010341765721
 20
260.12000806697409
 30
0.0
 11
326.25010341765721
 21
260.12000806697409
 31
0.0
  0
LINE
  5
1C6C
  8
0
 62
     0
 10
325.61510341765722
 20
260.12000806697409
 30
0.0
 11
325.61510341765722
 21
260.12000806697409
 31
0.0
  0
LINE
  5
1C6D
  8
0
 62
     0
 10
324.98010341765718
 20
260.12000806697409
 30
0.0
 11
324.98010341765718
 21
260.12000806697409
 31
0.0
  0
LINE
  5
1C6E
  8
0
 62
     0
 10
324.34510341765719
 20
260.12000806697409
 30
0.0
 11
324.34510341765719
 21
260.12000806697409
 31
0.0
  0
LINE
  5
1C6F
  8
0
 62
     0
 10
323.71010341765719
 20
260.12000806697409
 30
0.0
 11
323.71010341765719
 21
260.12000806697409
 31
0.0
  0
LINE
  5
1C70
  8
0
 62
     0
 10
323.0751034176572
 20
260.12000806697409
 30
0.0
 11
323.0751034176572
 21
260.12000806697409
 31
0.0
  0
LINE
  5
1C71
  8
0
 62
     0
 10
322.44010341765721
 20
260.12000806697409
 30
0.0
 11
322.44010341765721
 21
260.12000806697409
 31
0.0
  0
LINE
  5
1C72
  8
0
 62
     0
 10
321.80510341765722
 20
260.12000806697409
 30
0.0
 11
321.80510341765722
 21
260.12000806697409
 31
0.0
  0
LINE
  5
1C73
  8
0
 62
     0
 10
321.17010341765717
 20
260.12000806697409
 30
0.0
 11
321.17010341765717
 21
260.12000806697409
 31
0.0
  0
LINE
  5
1C74
  8
0
 62
     0
 10
320.53510341765718
 20
260.12000806697409
 30
0.0
 11
320.53510341765718
 21
260.12000806697409
 31
0.0
  0
LINE
  5
1C75
  8
0
 62
     0
 10
319.90010341765731
 20
260.12000806697409
 30
0.0
 11
319.90010341765731
 21
260.12000806697409
 31
0.0
  0
LINE
  5
1C76
  8
0
 62
     0
 10
319.26510341765731
 20
260.12000806697409
 30
0.0
 11
319.26510341765731
 21
260.12000806697409
 31
0.0
  0
LINE
  5
1C77
  8
0
 62
     0
 10
318.63010341765732
 20
260.12000806697409
 30
0.0
 11
318.63010341765732
 21
260.12000806697409
 31
0.0
  0
LINE
  5
1C78
  8
0
 62
     0
 10
317.99510341765728
 20
260.12000806697409
 30
0.0
 11
317.99510341765728
 21
260.12000806697409
 31
0.0
  0
LINE
  5
1C79
  8
0
 62
     0
 10
317.36010341765729
 20
260.12000806697409
 30
0.0
 11
317.36010341765729
 21
260.12000806697409
 31
0.0
  0
LINE
  5
1C7A
  8
0
 62
     0
 10
316.72510341765729
 20
260.12000806697409
 30
0.0
 11
316.72510341765729
 21
260.12000806697409
 31
0.0
  0
LINE
  5
1C7B
  8
0
 62
     0
 10
316.0901034176573
 20
260.12000806697409
 30
0.0
 11
316.0901034176573
 21
260.12000806697409
 31
0.0
  0
LINE
  5
1C7C
  8
0
 62
     0
 10
315.45510341765731
 20
260.12000806697409
 30
0.0
 11
315.45510341765731
 21
260.12000806697409
 31
0.0
  0
LINE
  5
1C7D
  8
0
 62
     0
 10
314.82010341765732
 20
260.12000806697409
 30
0.0
 11
314.82010341765732
 21
260.12000806697409
 31
0.0
  0
LINE
  5
1C7E
  8
0
 62
     0
 10
314.18510341765727
 20
260.12000806697409
 30
0.0
 11
314.18510341765727
 21
260.12000806697409
 31
0.0
  0
LINE
  5
1C7F
  8
0
 62
     0
 10
313.5501034176574
 20
260.12000806697409
 30
0.0
 11
313.5501034176574
 21
260.12000806697409
 31
0.0
  0
LINE
  5
1C80
  8
0
 62
     0
 10
312.91510341765729
 20
260.12000806697409
 30
0.0
 11
312.91510341765729
 21
260.12000806697409
 31
0.0
  0
LINE
  5
1C81
  8
0
 62
     0
 10
312.2801034176573
 20
260.12000806697409
 30
0.0
 11
312.2801034176573
 21
260.12000806697409
 31
0.0
  0
LINE
  5
1C82
  8
0
 62
     0
 10
311.64510341765742
 20
260.12000806697409
 30
0.0
 11
311.64510341765742
 21
260.12000806697409
 31
0.0
  0
LINE
  5
1C83
  8
0
 62
     0
 10
311.01010341765738
 20
260.12000806697409
 30
0.0
 11
311.01010341765738
 21
260.12000806697409
 31
0.0
  0
LINE
  5
1C84
  8
0
 62
     0
 10
310.37510341765739
 20
260.12000806697409
 30
0.0
 11
310.37510341765739
 21
260.12000806697409
 31
0.0
  0
LINE
  5
1C85
  8
0
 62
     0
 10
309.74010341765739
 20
260.12000806697409
 30
0.0
 11
309.74010341765739
 21
260.12000806697409
 31
0.0
  0
LINE
  5
1C86
  8
0
 62
     0
 10
309.1051034176574
 20
260.12000806697409
 30
0.0
 11
309.1051034176574
 21
260.12000806697409
 31
0.0
  0
LINE
  5
1C87
  8
0
 62
     0
 10
308.47010341765741
 20
260.12000806697409
 30
0.0
 11
308.47010341765741
 21
260.12000806697409
 31
0.0
  0
LINE
  5
1C88
  8
0
 62
     0
 10
307.83510341765742
 20
260.12000806697409
 30
0.0
 11
307.83510341765742
 21
260.12000806697409
 31
0.0
  0
LINE
  5
1C89
  8
0
 62
     0
 10
307.20010341765737
 20
260.12000806697409
 30
0.0
 11
307.20010341765737
 21
260.12000806697409
 31
0.0
  0
LINE
  5
1C8A
  8
0
 62
     0
 10
297.04010341765712
 20
260.12000806697409
 30
0.0
 11
297.04010341765712
 21
260.12000806697409
 31
0.0
  0
LINE
  5
1C8B
  8
0
 62
     0
 10
296.40510341765719
 20
260.12000806697409
 30
0.0
 11
296.40510341765719
 21
260.12000806697409
 31
0.0
  0
LINE
  5
1C8C
  8
0
 62
     0
 10
295.7701034176572
 20
260.12000806697409
 30
0.0
 11
295.7701034176572
 21
260.12000806697409
 31
0.0
  0
LINE
  5
1C8D
  8
0
 62
     0
 10
295.13510341765721
 20
260.12000806697409
 30
0.0
 11
295.13510341765721
 21
260.12000806697409
 31
0.0
  0
LINE
  5
1C8E
  8
0
 62
     0
 10
294.50010341765721
 20
260.12000806697409
 30
0.0
 11
294.50010341765721
 21
260.12000806697409
 31
0.0
  0
LINE
  5
1C8F
  8
0
 62
     0
 10
293.86510341765722
 20
260.12000806697409
 30
0.0
 11
293.86510341765722
 21
260.12000806697409
 31
0.0
  0
LINE
  5
1C90
  8
0
 62
     0
 10
293.23010341765729
 20
260.12000806697409
 30
0.0
 11
293.23010341765729
 21
260.12000806697409
 31
0.0
  0
LINE
  5
1C91
  8
0
 62
     0
 10
292.5951034176573
 20
260.12000806697409
 30
0.0
 11
292.5951034176573
 21
260.12000806697409
 31
0.0
  0
LINE
  5
1C92
  8
0
 62
     0
 10
291.96010341765719
 20
260.12000806697409
 30
0.0
 11
291.96010341765719
 21
260.12000806697409
 31
0.0
  0
LINE
  5
1C93
  8
0
 62
     0
 10
291.32510341765732
 20
260.12000806697409
 30
0.0
 11
291.32510341765732
 21
260.12000806697409
 31
0.0
  0
LINE
  5
1C94
  8
0
 62
     0
 10
290.69010341765733
 20
260.12000806697409
 30
0.0
 11
290.69010341765733
 21
260.12000806697409
 31
0.0
  0
LINE
  5
1C95
  8
0
 62
     0
 10
290.05510341765728
 20
260.12000806697409
 30
0.0
 11
290.05510341765728
 21
260.12000806697409
 31
0.0
  0
LINE
  5
1C96
  8
0
 62
     0
 10
289.42010341765729
 20
260.12000806697409
 30
0.0
 11
289.42010341765729
 21
260.12000806697409
 31
0.0
  0
LINE
  5
1C97
  8
0
 62
     0
 10
288.7851034176573
 20
260.12000806697409
 30
0.0
 11
288.7851034176573
 21
260.12000806697409
 31
0.0
  0
LINE
  5
1C98
  8
0
 62
     0
 10
288.15010341765731
 20
260.12000806697409
 30
0.0
 11
288.15010341765731
 21
260.12000806697409
 31
0.0
  0
LINE
  5
1C99
  8
0
 62
     0
 10
287.51510341765731
 20
260.12000806697409
 30
0.0
 11
287.51510341765731
 21
260.12000806697409
 31
0.0
  0
LINE
  5
1C9A
  8
0
 62
     0
 10
286.88010341765732
 20
260.12000806697409
 30
0.0
 11
286.88010341765732
 21
260.12000806697409
 31
0.0
  0
LINE
  5
1C9B
  8
0
 62
     0
 10
286.24510341765728
 20
260.12000806697409
 30
0.0
 11
286.24510341765728
 21
260.12000806697409
 31
0.0
  0
LINE
  5
1C9C
  8
0
 62
     0
 10
285.61010341765729
 20
260.12000806697409
 30
0.0
 11
285.61010341765729
 21
260.12000806697409
 31
0.0
  0
LINE
  5
1C9D
  8
0
 62
     0
 10
284.97510341765729
 20
260.12000806697409
 30
0.0
 11
284.97510341765729
 21
260.12000806697409
 31
0.0
  0
LINE
  5
1C9E
  8
0
 62
     0
 10
284.34010341765742
 20
260.12000806697409
 30
0.0
 11
284.34010341765742
 21
260.12000806697409
 31
0.0
  0
LINE
  5
1C9F
  8
0
 62
     0
 10
283.70510341765743
 20
260.12000806697409
 30
0.0
 11
283.70510341765743
 21
260.12000806697409
 31
0.0
  0
LINE
  5
1CA0
  8
0
 62
     0
 10
283.07010341765738
 20
260.12000806697409
 30
0.0
 11
283.07010341765738
 21
260.12000806697409
 31
0.0
  0
LINE
  5
1CA1
  8
0
 62
     0
 10
282.43510341765739
 20
260.12000806697409
 30
0.0
 11
282.43510341765739
 21
260.12000806697409
 31
0.0
  0
LINE
  5
1CA2
  8
0
 62
     0
 10
281.8001034176574
 20
260.12000806697409
 30
0.0
 11
281.8001034176574
 21
260.12000806697409
 31
0.0
  0
LINE
  5
1CA3
  8
0
 62
     0
 10
281.16510341765741
 20
260.12000806697409
 30
0.0
 11
281.16510341765741
 21
260.12000806697409
 31
0.0
  0
LINE
  5
1CA4
  8
0
 62
     0
 10
280.53010341765741
 20
260.12000806697409
 30
0.0
 11
280.53010341765741
 21
260.12000806697409
 31
0.0
  0
LINE
  5
1CA5
  8
0
 62
     0
 10
279.89510341765742
 20
260.12000806697409
 30
0.0
 11
279.89510341765742
 21
260.12000806697409
 31
0.0
  0
LINE
  5
1CA6
  8
0
 62
     0
 10
279.26010341765738
 20
260.12000806697409
 30
0.0
 11
279.26010341765738
 21
260.12000806697409
 31
0.0
  0
LINE
  5
1CA7
  8
0
 62
     0
 10
278.62510341765739
 20
260.12000806697409
 30
0.0
 11
278.62510341765739
 21
260.12000806697409
 31
0.0
  0
LINE
  5
1CA8
  8
0
 62
     0
 10
277.99010341765751
 20
260.12000806697409
 30
0.0
 11
277.99010341765751
 21
260.12000806697409
 31
0.0
  0
LINE
  5
1CA9
  8
0
 62
     0
 10
277.35510341765752
 20
260.12000806697409
 30
0.0
 11
277.35510341765752
 21
260.12000806697409
 31
0.0
  0
LINE
  5
1CAA
  8
0
 62
     0
 10
326.56760341765721
 20
260.75500806697403
 30
0.0
 11
326.56760341765721
 21
260.75500806697403
 31
0.0
  0
LINE
  5
1CAB
  8
0
 62
     0
 10
325.93260341765722
 20
260.75500806697403
 30
0.0
 11
325.93260341765722
 21
260.75500806697403
 31
0.0
  0
LINE
  5
1CAC
  8
0
 62
     0
 10
325.29760341765723
 20
260.75500806697403
 30
0.0
 11
325.29760341765723
 21
260.75500806697403
 31
0.0
  0
LINE
  5
1CAD
  8
0
 62
     0
 10
324.66260341765718
 20
260.75500806697403
 30
0.0
 11
324.66260341765718
 21
260.75500806697403
 31
0.0
  0
LINE
  5
1CAE
  8
0
 62
     0
 10
324.02760341765719
 20
260.75500806697403
 30
0.0
 11
324.02760341765719
 21
260.75500806697403
 31
0.0
  0
LINE
  5
1CAF
  8
0
 62
     0
 10
323.3926034176572
 20
260.75500806697403
 30
0.0
 11
323.3926034176572
 21
260.75500806697403
 31
0.0
  0
LINE
  5
1CB0
  8
0
 62
     0
 10
322.75760341765732
 20
260.75500806697403
 30
0.0
 11
322.75760341765732
 21
260.75500806697403
 31
0.0
  0
LINE
  5
1CB1
  8
0
 62
     0
 10
322.12260341765727
 20
260.75500806697403
 30
0.0
 11
322.12260341765727
 21
260.75500806697403
 31
0.0
  0
LINE
  5
1CB2
  8
0
 62
     0
 10
321.48760341765728
 20
260.75500806697403
 30
0.0
 11
321.48760341765728
 21
260.75500806697403
 31
0.0
  0
LINE
  5
1CB3
  8
0
 62
     0
 10
320.85260341765729
 20
260.75500806697403
 30
0.0
 11
320.85260341765729
 21
260.75500806697403
 31
0.0
  0
LINE
  5
1CB4
  8
0
 62
     0
 10
320.2176034176573
 20
260.75500806697403
 30
0.0
 11
320.2176034176573
 21
260.75500806697403
 31
0.0
  0
LINE
  5
1CB5
  8
0
 62
     0
 10
319.58260341765731
 20
260.75500806697403
 30
0.0
 11
319.58260341765731
 21
260.75500806697403
 31
0.0
  0
LINE
  5
1CB6
  8
0
 62
     0
 10
318.94760341765732
 20
260.75500806697403
 30
0.0
 11
318.94760341765732
 21
260.75500806697403
 31
0.0
  0
LINE
  5
1CB7
  8
0
 62
     0
 10
318.31260341765727
 20
260.75500806697403
 30
0.0
 11
318.31260341765727
 21
260.75500806697403
 31
0.0
  0
LINE
  5
1CB8
  8
0
 62
     0
 10
317.67760341765728
 20
260.75500806697403
 30
0.0
 11
317.67760341765728
 21
260.75500806697403
 31
0.0
  0
LINE
  5
1CB9
  8
0
 62
     0
 10
317.04260341765729
 20
260.75500806697403
 30
0.0
 11
317.04260341765729
 21
260.75500806697403
 31
0.0
  0
LINE
  5
1CBA
  8
0
 62
     0
 10
316.40760341765741
 20
260.75500806697403
 30
0.0
 11
316.40760341765741
 21
260.75500806697403
 31
0.0
  0
LINE
  5
1CBB
  8
0
 62
     0
 10
315.77260341765742
 20
260.75500806697403
 30
0.0
 11
315.77260341765742
 21
260.75500806697403
 31
0.0
  0
LINE
  5
1CBC
  8
0
 62
     0
 10
315.13760341765737
 20
260.75500806697403
 30
0.0
 11
315.13760341765737
 21
260.75500806697403
 31
0.0
  0
LINE
  5
1CBD
  8
0
 62
     0
 10
314.50260341765738
 20
260.75500806697403
 30
0.0
 11
314.50260341765738
 21
260.75500806697403
 31
0.0
  0
LINE
  5
1CBE
  8
0
 62
     0
 10
313.86760341765739
 20
260.75500806697403
 30
0.0
 11
313.86760341765739
 21
260.75500806697403
 31
0.0
  0
LINE
  5
1CBF
  8
0
 62
     0
 10
313.2326034176574
 20
260.75500806697403
 30
0.0
 11
313.2326034176574
 21
260.75500806697403
 31
0.0
  0
LINE
  5
1CC0
  8
0
 62
     0
 10
312.59760341765741
 20
260.75500806697403
 30
0.0
 11
312.59760341765741
 21
260.75500806697403
 31
0.0
  0
LINE
  5
1CC1
  8
0
 62
     0
 10
311.96260341765742
 20
260.75500806697403
 30
0.0
 11
311.96260341765742
 21
260.75500806697403
 31
0.0
  0
LINE
  5
1CC2
  8
0
 62
     0
 10
311.32760341765737
 20
260.75500806697403
 30
0.0
 11
311.32760341765737
 21
260.75500806697403
 31
0.0
  0
LINE
  5
1CC3
  8
0
 62
     0
 10
310.69260341765738
 20
260.75500806697403
 30
0.0
 11
310.69260341765738
 21
260.75500806697403
 31
0.0
  0
LINE
  5
1CC4
  8
0
 62
     0
 10
310.0576034176575
 20
260.75500806697403
 30
0.0
 11
310.0576034176575
 21
260.75500806697403
 31
0.0
  0
LINE
  5
1CC5
  8
0
 62
     0
 10
309.42260341765751
 20
260.75500806697403
 30
0.0
 11
309.42260341765751
 21
260.75500806697403
 31
0.0
  0
LINE
  5
1CC6
  8
0
 62
     0
 10
308.78760341765741
 20
260.75500806697403
 30
0.0
 11
308.78760341765741
 21
260.75500806697403
 31
0.0
  0
LINE
  5
1CC7
  8
0
 62
     0
 10
308.15260341765747
 20
260.75500806697403
 30
0.0
 11
308.15260341765747
 21
260.75500806697403
 31
0.0
  0
LINE
  5
1CC8
  8
0
 62
     0
 10
307.51760341765748
 20
260.75500806697403
 30
0.0
 11
307.51760341765748
 21
260.75500806697403
 31
0.0
  0
LINE
  5
1CC9
  8
0
 62
     0
 10
296.72260341765718
 20
260.75500806697403
 30
0.0
 11
296.72260341765718
 21
260.75500806697403
 31
0.0
  0
LINE
  5
1CCA
  8
0
 62
     0
 10
296.08760341765719
 20
260.75500806697403
 30
0.0
 11
296.08760341765719
 21
260.75500806697403
 31
0.0
  0
LINE
  5
1CCB
  8
0
 62
     0
 10
295.4526034176572
 20
260.75500806697403
 30
0.0
 11
295.4526034176572
 21
260.75500806697403
 31
0.0
  0
LINE
  5
1CCC
  8
0
 62
     0
 10
294.81760341765721
 20
260.75500806697403
 30
0.0
 11
294.81760341765721
 21
260.75500806697403
 31
0.0
  0
LINE
  5
1CCD
  8
0
 62
     0
 10
294.18260341765722
 20
260.75500806697403
 30
0.0
 11
294.18260341765722
 21
260.75500806697403
 31
0.0
  0
LINE
  5
1CCE
  8
0
 62
     0
 10
293.54760341765723
 20
260.75500806697403
 30
0.0
 11
293.54760341765723
 21
260.75500806697403
 31
0.0
  0
LINE
  5
1CCF
  8
0
 62
     0
 10
292.91260341765718
 20
260.75500806697403
 30
0.0
 11
292.91260341765718
 21
260.75500806697403
 31
0.0
  0
LINE
  5
1CD0
  8
0
 62
     0
 10
292.2776034176573
 20
260.75500806697403
 30
0.0
 11
292.2776034176573
 21
260.75500806697403
 31
0.0
  0
LINE
  5
1CD1
  8
0
 62
     0
 10
291.64260341765731
 20
260.75500806697403
 30
0.0
 11
291.64260341765731
 21
260.75500806697403
 31
0.0
  0
LINE
  5
1CD2
  8
0
 62
     0
 10
291.00760341765732
 20
260.75500806697403
 30
0.0
 11
291.00760341765732
 21
260.75500806697403
 31
0.0
  0
LINE
  5
1CD3
  8
0
 62
     0
 10
290.37260341765727
 20
260.75500806697403
 30
0.0
 11
290.37260341765727
 21
260.75500806697403
 31
0.0
  0
LINE
  5
1CD4
  8
0
 62
     0
 10
289.73760341765728
 20
260.75500806697403
 30
0.0
 11
289.73760341765728
 21
260.75500806697403
 31
0.0
  0
LINE
  5
1CD5
  8
0
 62
     0
 10
289.10260341765729
 20
260.75500806697403
 30
0.0
 11
289.10260341765729
 21
260.75500806697403
 31
0.0
  0
LINE
  5
1CD6
  8
0
 62
     0
 10
288.4676034176573
 20
260.75500806697403
 30
0.0
 11
288.4676034176573
 21
260.75500806697403
 31
0.0
  0
LINE
  5
1CD7
  8
0
 62
     0
 10
287.83260341765731
 20
260.75500806697403
 30
0.0
 11
287.83260341765731
 21
260.75500806697403
 31
0.0
  0
LINE
  5
1CD8
  8
0
 62
     0
 10
287.19760341765732
 20
260.75500806697403
 30
0.0
 11
287.19760341765732
 21
260.75500806697403
 31
0.0
  0
LINE
  5
1CD9
  8
0
 62
     0
 10
286.56260341765727
 20
260.75500806697403
 30
0.0
 11
286.56260341765727
 21
260.75500806697403
 31
0.0
  0
LINE
  5
1CDA
  8
0
 62
     0
 10
285.92760341765728
 20
260.75500806697403
 30
0.0
 11
285.92760341765728
 21
260.75500806697403
 31
0.0
  0
LINE
  5
1CDB
  8
0
 62
     0
 10
285.2926034176574
 20
260.75500806697403
 30
0.0
 11
285.2926034176574
 21
260.75500806697403
 31
0.0
  0
LINE
  5
1CDC
  8
0
 62
     0
 10
284.65760341765741
 20
260.75500806697403
 30
0.0
 11
284.65760341765741
 21
260.75500806697403
 31
0.0
  0
LINE
  5
1CDD
  8
0
 62
     0
 10
284.02260341765731
 20
260.75500806697403
 30
0.0
 11
284.02260341765731
 21
260.75500806697403
 31
0.0
  0
LINE
  5
1CDE
  8
0
 62
     0
 10
283.38760341765737
 20
260.75500806697403
 30
0.0
 11
283.38760341765737
 21
260.75500806697403
 31
0.0
  0
LINE
  5
1CDF
  8
0
 62
     0
 10
282.75260341765738
 20
260.75500806697403
 30
0.0
 11
282.75260341765738
 21
260.75500806697403
 31
0.0
  0
LINE
  5
1CE0
  8
0
 62
     0
 10
282.11760341765739
 20
260.75500806697403
 30
0.0
 11
282.11760341765739
 21
260.75500806697403
 31
0.0
  0
LINE
  5
1CE1
  8
0
 62
     0
 10
281.4826034176574
 20
260.75500806697403
 30
0.0
 11
281.4826034176574
 21
260.75500806697403
 31
0.0
  0
LINE
  5
1CE2
  8
0
 62
     0
 10
280.84760341765741
 20
260.75500806697403
 30
0.0
 11
280.84760341765741
 21
260.75500806697403
 31
0.0
  0
LINE
  5
1CE3
  8
0
 62
     0
 10
280.21260341765742
 20
260.75500806697403
 30
0.0
 11
280.21260341765742
 21
260.75500806697403
 31
0.0
  0
LINE
  5
1CE4
  8
0
 62
     0
 10
279.57760341765737
 20
260.75500806697403
 30
0.0
 11
279.57760341765737
 21
260.75500806697403
 31
0.0
  0
LINE
  5
1CE5
  8
0
 62
     0
 10
278.94260341765749
 20
260.75500806697403
 30
0.0
 11
278.94260341765749
 21
260.75500806697403
 31
0.0
  0
LINE
  5
1CE6
  8
0
 62
     0
 10
278.30760341765739
 20
260.75500806697403
 30
0.0
 11
278.30760341765739
 21
260.75500806697403
 31
0.0
  0
LINE
  5
1CE7
  8
0
 62
     0
 10
277.6726034176574
 20
260.75500806697403
 30
0.0
 11
277.6726034176574
 21
260.75500806697403
 31
0.0
  0
LINE
  5
1CE8
  8
0
 62
     0
 10
326.88510341765721
 20
261.39000806697402
 30
0.0
 11
326.88510341765721
 21
261.39000806697402
 31
0.0
  0
LINE
  5
1CE9
  8
0
 62
     0
 10
326.25010341765721
 20
261.39000806697402
 30
0.0
 11
326.25010341765721
 21
261.39000806697402
 31
0.0
  0
LINE
  5
1CEA
  8
0
 62
     0
 10
325.61510341765722
 20
261.39000806697402
 30
0.0
 11
325.61510341765722
 21
261.39000806697402
 31
0.0
  0
LINE
  5
1CEB
  8
0
 62
     0
 10
324.98010341765718
 20
261.39000806697402
 30
0.0
 11
324.98010341765718
 21
261.39000806697402
 31
0.0
  0
LINE
  5
1CEC
  8
0
 62
     0
 10
324.34510341765719
 20
261.39000806697402
 30
0.0
 11
324.34510341765719
 21
261.39000806697402
 31
0.0
  0
LINE
  5
1CED
  8
0
 62
     0
 10
323.71010341765731
 20
261.39000806697402
 30
0.0
 11
323.71010341765731
 21
261.39000806697402
 31
0.0
  0
LINE
  5
1CEE
  8
0
 62
     0
 10
323.07510341765732
 20
261.39000806697402
 30
0.0
 11
323.07510341765732
 21
261.39000806697402
 31
0.0
  0
LINE
  5
1CEF
  8
0
 62
     0
 10
322.44010341765733
 20
261.39000806697402
 30
0.0
 11
322.44010341765733
 21
261.39000806697402
 31
0.0
  0
LINE
  5
1CF0
  8
0
 62
     0
 10
321.80510341765728
 20
261.39000806697402
 30
0.0
 11
321.80510341765728
 21
261.39000806697402
 31
0.0
  0
LINE
  5
1CF1
  8
0
 62
     0
 10
321.17010341765729
 20
261.39000806697402
 30
0.0
 11
321.17010341765729
 21
261.39000806697402
 31
0.0
  0
LINE
  5
1CF2
  8
0
 62
     0
 10
320.5351034176573
 20
261.39000806697402
 30
0.0
 11
320.5351034176573
 21
261.39000806697402
 31
0.0
  0
LINE
  5
1CF3
  8
0
 62
     0
 10
319.90010341765731
 20
261.39000806697402
 30
0.0
 11
319.90010341765731
 21
261.39000806697402
 31
0.0
  0
LINE
  5
1CF4
  8
0
 62
     0
 10
319.26510341765731
 20
261.39000806697402
 30
0.0
 11
319.26510341765731
 21
261.39000806697402
 31
0.0
  0
LINE
  5
1CF5
  8
0
 62
     0
 10
318.63010341765732
 20
261.39000806697402
 30
0.0
 11
318.63010341765732
 21
261.39000806697402
 31
0.0
  0
LINE
  5
1CF6
  8
0
 62
     0
 10
317.99510341765728
 20
261.39000806697402
 30
0.0
 11
317.99510341765728
 21
261.39000806697402
 31
0.0
  0
LINE
  5
1CF7
  8
0
 62
     0
 10
317.3601034176574
 20
261.39000806697402
 30
0.0
 11
317.3601034176574
 21
261.39000806697402
 31
0.0
  0
LINE
  5
1CF8
  8
0
 62
     0
 10
316.72510341765729
 20
261.39000806697402
 30
0.0
 11
316.72510341765729
 21
261.39000806697402
 31
0.0
  0
LINE
  5
1CF9
  8
0
 62
     0
 10
316.0901034176573
 20
261.39000806697402
 30
0.0
 11
316.0901034176573
 21
261.39000806697402
 31
0.0
  0
LINE
  5
1CFA
  8
0
 62
     0
 10
315.45510341765743
 20
261.39000806697402
 30
0.0
 11
315.45510341765743
 21
261.39000806697402
 31
0.0
  0
LINE
  5
1CFB
  8
0
 62
     0
 10
314.82010341765738
 20
261.39000806697402
 30
0.0
 11
314.82010341765738
 21
261.39000806697402
 31
0.0
  0
LINE
  5
1CFC
  8
0
 62
     0
 10
314.18510341765739
 20
261.39000806697402
 30
0.0
 11
314.18510341765739
 21
261.39000806697402
 31
0.0
  0
LINE
  5
1CFD
  8
0
 62
     0
 10
313.5501034176574
 20
261.39000806697402
 30
0.0
 11
313.5501034176574
 21
261.39000806697402
 31
0.0
  0
LINE
  5
1CFE
  8
0
 62
     0
 10
312.91510341765741
 20
261.39000806697402
 30
0.0
 11
312.91510341765741
 21
261.39000806697402
 31
0.0
  0
LINE
  5
1CFF
  8
0
 62
     0
 10
312.28010341765741
 20
261.39000806697402
 30
0.0
 11
312.28010341765741
 21
261.39000806697402
 31
0.0
  0
LINE
  5
1D00
  8
0
 62
     0
 10
311.64510341765742
 20
261.39000806697402
 30
0.0
 11
311.64510341765742
 21
261.39000806697402
 31
0.0
  0
LINE
  5
1D01
  8
0
 62
     0
 10
311.01010341765738
 20
261.39000806697402
 30
0.0
 11
311.01010341765738
 21
261.39000806697402
 31
0.0
  0
LINE
  5
1D02
  8
0
 62
     0
 10
310.37510341765739
 20
261.39000806697402
 30
0.0
 11
310.37510341765739
 21
261.39000806697402
 31
0.0
  0
LINE
  5
1D03
  8
0
 62
     0
 10
309.74010341765739
 20
261.39000806697402
 30
0.0
 11
309.74010341765739
 21
261.39000806697402
 31
0.0
  0
LINE
  5
1D04
  8
0
 62
     0
 10
309.10510341765752
 20
261.39000806697402
 30
0.0
 11
309.10510341765752
 21
261.39000806697402
 31
0.0
  0
LINE
  5
1D05
  8
0
 62
     0
 10
308.47010341765753
 20
261.39000806697402
 30
0.0
 11
308.47010341765753
 21
261.39000806697402
 31
0.0
  0
LINE
  5
1D06
  8
0
 62
     0
 10
307.83510341765748
 20
261.39000806697402
 30
0.0
 11
307.83510341765748
 21
261.39000806697402
 31
0.0
  0
LINE
  5
1D07
  8
0
 62
     0
 10
307.20010341765749
 20
261.39000806697402
 30
0.0
 11
307.20010341765749
 21
261.39000806697402
 31
0.0
  0
LINE
  5
1D08
  8
0
 62
     0
 10
297.04010341765712
 20
261.39000806697402
 30
0.0
 11
297.04010341765712
 21
261.39000806697402
 31
0.0
  0
LINE
  5
1D09
  8
0
 62
     0
 10
296.40510341765719
 20
261.39000806697402
 30
0.0
 11
296.40510341765719
 21
261.39000806697402
 31
0.0
  0
LINE
  5
1D0A
  8
0
 62
     0
 10
295.7701034176572
 20
261.39000806697402
 30
0.0
 11
295.7701034176572
 21
261.39000806697402
 31
0.0
  0
LINE
  5
1D0B
  8
0
 62
     0
 10
295.13510341765721
 20
261.39000806697402
 30
0.0
 11
295.13510341765721
 21
261.39000806697402
 31
0.0
  0
LINE
  5
1D0C
  8
0
 62
     0
 10
294.50010341765721
 20
261.39000806697402
 30
0.0
 11
294.50010341765721
 21
261.39000806697402
 31
0.0
  0
LINE
  5
1D0D
  8
0
 62
     0
 10
293.86510341765722
 20
261.39000806697402
 30
0.0
 11
293.86510341765722
 21
261.39000806697402
 31
0.0
  0
LINE
  5
1D0E
  8
0
 62
     0
 10
293.23010341765729
 20
261.39000806697402
 30
0.0
 11
293.23010341765729
 21
261.39000806697402
 31
0.0
  0
LINE
  5
1D0F
  8
0
 62
     0
 10
292.5951034176573
 20
261.39000806697402
 30
0.0
 11
292.5951034176573
 21
261.39000806697402
 31
0.0
  0
LINE
  5
1D10
  8
0
 62
     0
 10
291.96010341765719
 20
261.39000806697402
 30
0.0
 11
291.96010341765719
 21
261.39000806697402
 31
0.0
  0
LINE
  5
1D11
  8
0
 62
     0
 10
291.32510341765732
 20
261.39000806697402
 30
0.0
 11
291.32510341765732
 21
261.39000806697402
 31
0.0
  0
LINE
  5
1D12
  8
0
 62
     0
 10
290.69010341765733
 20
261.39000806697402
 30
0.0
 11
290.69010341765733
 21
261.39000806697402
 31
0.0
  0
LINE
  5
1D13
  8
0
 62
     0
 10
290.05510341765728
 20
261.39000806697402
 30
0.0
 11
290.05510341765728
 21
261.39000806697402
 31
0.0
  0
LINE
  5
1D14
  8
0
 62
     0
 10
289.42010341765729
 20
261.39000806697402
 30
0.0
 11
289.42010341765729
 21
261.39000806697402
 31
0.0
  0
LINE
  5
1D15
  8
0
 62
     0
 10
288.7851034176573
 20
261.39000806697402
 30
0.0
 11
288.7851034176573
 21
261.39000806697402
 31
0.0
  0
LINE
  5
1D16
  8
0
 62
     0
 10
288.15010341765731
 20
261.39000806697402
 30
0.0
 11
288.15010341765731
 21
261.39000806697402
 31
0.0
  0
LINE
  5
1D17
  8
0
 62
     0
 10
287.51510341765731
 20
261.39000806697402
 30
0.0
 11
287.51510341765731
 21
261.39000806697402
 31
0.0
  0
LINE
  5
1D18
  8
0
 62
     0
 10
286.88010341765732
 20
261.39000806697402
 30
0.0
 11
286.88010341765732
 21
261.39000806697402
 31
0.0
  0
LINE
  5
1D19
  8
0
 62
     0
 10
286.24510341765728
 20
261.39000806697402
 30
0.0
 11
286.24510341765728
 21
261.39000806697402
 31
0.0
  0
LINE
  5
1D1A
  8
0
 62
     0
 10
285.61010341765729
 20
261.39000806697402
 30
0.0
 11
285.61010341765729
 21
261.39000806697402
 31
0.0
  0
LINE
  5
1D1B
  8
0
 62
     0
 10
284.97510341765729
 20
261.39000806697402
 30
0.0
 11
284.97510341765729
 21
261.39000806697402
 31
0.0
  0
LINE
  5
1D1C
  8
0
 62
     0
 10
284.34010341765742
 20
261.39000806697402
 30
0.0
 11
284.34010341765742
 21
261.39000806697402
 31
0.0
  0
LINE
  5
1D1D
  8
0
 62
     0
 10
283.70510341765743
 20
261.39000806697402
 30
0.0
 11
283.70510341765743
 21
261.39000806697402
 31
0.0
  0
LINE
  5
1D1E
  8
0
 62
     0
 10
283.07010341765738
 20
261.39000806697402
 30
0.0
 11
283.07010341765738
 21
261.39000806697402
 31
0.0
  0
LINE
  5
1D1F
  8
0
 62
     0
 10
282.43510341765739
 20
261.39000806697402
 30
0.0
 11
282.43510341765739
 21
261.39000806697402
 31
0.0
  0
LINE
  5
1D20
  8
0
 62
     0
 10
281.8001034176574
 20
261.39000806697402
 30
0.0
 11
281.8001034176574
 21
261.39000806697402
 31
0.0
  0
LINE
  5
1D21
  8
0
 62
     0
 10
281.16510341765741
 20
261.39000806697402
 30
0.0
 11
281.16510341765741
 21
261.39000806697402
 31
0.0
  0
LINE
  5
1D22
  8
0
 62
     0
 10
280.53010341765741
 20
261.39000806697402
 30
0.0
 11
280.53010341765741
 21
261.39000806697402
 31
0.0
  0
LINE
  5
1D23
  8
0
 62
     0
 10
279.89510341765742
 20
261.39000806697402
 30
0.0
 11
279.89510341765742
 21
261.39000806697402
 31
0.0
  0
LINE
  5
1D24
  8
0
 62
     0
 10
279.26010341765738
 20
261.39000806697402
 30
0.0
 11
279.26010341765738
 21
261.39000806697402
 31
0.0
  0
LINE
  5
1D25
  8
0
 62
     0
 10
278.62510341765739
 20
261.39000806697402
 30
0.0
 11
278.62510341765739
 21
261.39000806697402
 31
0.0
  0
LINE
  5
1D26
  8
0
 62
     0
 10
277.99010341765751
 20
261.39000806697402
 30
0.0
 11
277.99010341765751
 21
261.39000806697402
 31
0.0
  0
LINE
  5
1D27
  8
0
 62
     0
 10
277.35510341765752
 20
261.39000806697402
 30
0.0
 11
277.35510341765752
 21
261.39000806697402
 31
0.0
  0
LINE
  5
1D28
  8
0
 62
     0
 10
326.56760341765721
 20
262.02500806697401
 30
0.0
 11
326.56760341765721
 21
262.02500806697401
 31
0.0
  0
LINE
  5
1D29
  8
0
 62
     0
 10
325.93260341765722
 20
262.02500806697401
 30
0.0
 11
325.93260341765722
 21
262.02500806697401
 31
0.0
  0
LINE
  5
1D2A
  8
0
 62
     0
 10
325.29760341765723
 20
262.02500806697401
 30
0.0
 11
325.29760341765723
 21
262.02500806697401
 31
0.0
  0
LINE
  5
1D2B
  8
0
 62
     0
 10
324.66260341765718
 20
262.02500806697401
 30
0.0
 11
324.66260341765718
 21
262.02500806697401
 31
0.0
  0
LINE
  5
1D2C
  8
0
 62
     0
 10
324.02760341765719
 20
262.02500806697401
 30
0.0
 11
324.02760341765719
 21
262.02500806697401
 31
0.0
  0
LINE
  5
1D2D
  8
0
 62
     0
 10
323.3926034176572
 20
262.02500806697401
 30
0.0
 11
323.3926034176572
 21
262.02500806697401
 31
0.0
  0
LINE
  5
1D2E
  8
0
 62
     0
 10
322.75760341765732
 20
262.02500806697401
 30
0.0
 11
322.75760341765732
 21
262.02500806697401
 31
0.0
  0
LINE
  5
1D2F
  8
0
 62
     0
 10
322.12260341765727
 20
262.02500806697401
 30
0.0
 11
322.12260341765727
 21
262.02500806697401
 31
0.0
  0
LINE
  5
1D30
  8
0
 62
     0
 10
321.48760341765728
 20
262.02500806697401
 30
0.0
 11
321.48760341765728
 21
262.02500806697401
 31
0.0
  0
LINE
  5
1D31
  8
0
 62
     0
 10
320.85260341765729
 20
262.02500806697401
 30
0.0
 11
320.85260341765729
 21
262.02500806697401
 31
0.0
  0
LINE
  5
1D32
  8
0
 62
     0
 10
320.2176034176573
 20
262.02500806697401
 30
0.0
 11
320.2176034176573
 21
262.02500806697401
 31
0.0
  0
LINE
  5
1D33
  8
0
 62
     0
 10
319.58260341765731
 20
262.02500806697401
 30
0.0
 11
319.58260341765731
 21
262.02500806697401
 31
0.0
  0
LINE
  5
1D34
  8
0
 62
     0
 10
318.94760341765732
 20
262.02500806697401
 30
0.0
 11
318.94760341765732
 21
262.02500806697401
 31
0.0
  0
LINE
  5
1D35
  8
0
 62
     0
 10
318.31260341765727
 20
262.02500806697401
 30
0.0
 11
318.31260341765727
 21
262.02500806697401
 31
0.0
  0
LINE
  5
1D36
  8
0
 62
     0
 10
317.67760341765728
 20
262.02500806697401
 30
0.0
 11
317.67760341765728
 21
262.02500806697401
 31
0.0
  0
LINE
  5
1D37
  8
0
 62
     0
 10
317.04260341765729
 20
262.02500806697401
 30
0.0
 11
317.04260341765729
 21
262.02500806697401
 31
0.0
  0
LINE
  5
1D38
  8
0
 62
     0
 10
316.40760341765741
 20
262.02500806697401
 30
0.0
 11
316.40760341765741
 21
262.02500806697401
 31
0.0
  0
LINE
  5
1D39
  8
0
 62
     0
 10
315.77260341765742
 20
262.02500806697401
 30
0.0
 11
315.77260341765742
 21
262.02500806697401
 31
0.0
  0
LINE
  5
1D3A
  8
0
 62
     0
 10
315.13760341765737
 20
262.02500806697401
 30
0.0
 11
315.13760341765737
 21
262.02500806697401
 31
0.0
  0
LINE
  5
1D3B
  8
0
 62
     0
 10
314.50260341765738
 20
262.02500806697401
 30
0.0
 11
314.50260341765738
 21
262.02500806697401
 31
0.0
  0
LINE
  5
1D3C
  8
0
 62
     0
 10
313.86760341765739
 20
262.02500806697401
 30
0.0
 11
313.86760341765739
 21
262.02500806697401
 31
0.0
  0
LINE
  5
1D3D
  8
0
 62
     0
 10
313.2326034176574
 20
262.02500806697401
 30
0.0
 11
313.2326034176574
 21
262.02500806697401
 31
0.0
  0
LINE
  5
1D3E
  8
0
 62
     0
 10
312.59760341765741
 20
262.02500806697401
 30
0.0
 11
312.59760341765741
 21
262.02500806697401
 31
0.0
  0
LINE
  5
1D3F
  8
0
 62
     0
 10
311.96260341765742
 20
262.02500806697401
 30
0.0
 11
311.96260341765742
 21
262.02500806697401
 31
0.0
  0
LINE
  5
1D40
  8
0
 62
     0
 10
311.32760341765737
 20
262.02500806697401
 30
0.0
 11
311.32760341765737
 21
262.02500806697401
 31
0.0
  0
LINE
  5
1D41
  8
0
 62
     0
 10
310.69260341765738
 20
262.02500806697401
 30
0.0
 11
310.69260341765738
 21
262.02500806697401
 31
0.0
  0
LINE
  5
1D42
  8
0
 62
     0
 10
310.0576034176575
 20
262.02500806697401
 30
0.0
 11
310.0576034176575
 21
262.02500806697401
 31
0.0
  0
LINE
  5
1D43
  8
0
 62
     0
 10
309.42260341765751
 20
262.02500806697401
 30
0.0
 11
309.42260341765751
 21
262.02500806697401
 31
0.0
  0
LINE
  5
1D44
  8
0
 62
     0
 10
308.78760341765741
 20
262.02500806697401
 30
0.0
 11
308.78760341765741
 21
262.02500806697401
 31
0.0
  0
LINE
  5
1D45
  8
0
 62
     0
 10
308.15260341765747
 20
262.02500806697401
 30
0.0
 11
308.15260341765747
 21
262.02500806697401
 31
0.0
  0
LINE
  5
1D46
  8
0
 62
     0
 10
307.51760341765748
 20
262.02500806697401
 30
0.0
 11
307.51760341765748
 21
262.02500806697401
 31
0.0
  0
LINE
  5
1D47
  8
0
 62
     0
 10
296.72260341765718
 20
262.02500806697401
 30
0.0
 11
296.72260341765718
 21
262.02500806697401
 31
0.0
  0
LINE
  5
1D48
  8
0
 62
     0
 10
296.08760341765719
 20
262.02500806697401
 30
0.0
 11
296.08760341765719
 21
262.02500806697401
 31
0.0
  0
LINE
  5
1D49
  8
0
 62
     0
 10
295.4526034176572
 20
262.02500806697401
 30
0.0
 11
295.4526034176572
 21
262.02500806697401
 31
0.0
  0
LINE
  5
1D4A
  8
0
 62
     0
 10
294.81760341765721
 20
262.02500806697401
 30
0.0
 11
294.81760341765721
 21
262.02500806697401
 31
0.0
  0
LINE
  5
1D4B
  8
0
 62
     0
 10
294.18260341765722
 20
262.02500806697401
 30
0.0
 11
294.18260341765722
 21
262.02500806697401
 31
0.0
  0
LINE
  5
1D4C
  8
0
 62
     0
 10
293.54760341765723
 20
262.02500806697401
 30
0.0
 11
293.54760341765723
 21
262.02500806697401
 31
0.0
  0
LINE
  5
1D4D
  8
0
 62
     0
 10
292.91260341765718
 20
262.02500806697401
 30
0.0
 11
292.91260341765718
 21
262.02500806697401
 31
0.0
  0
LINE
  5
1D4E
  8
0
 62
     0
 10
292.2776034176573
 20
262.02500806697401
 30
0.0
 11
292.2776034176573
 21
262.02500806697401
 31
0.0
  0
LINE
  5
1D4F
  8
0
 62
     0
 10
291.64260341765731
 20
262.02500806697401
 30
0.0
 11
291.64260341765731
 21
262.02500806697401
 31
0.0
  0
LINE
  5
1D50
  8
0
 62
     0
 10
291.00760341765732
 20
262.02500806697401
 30
0.0
 11
291.00760341765732
 21
262.02500806697401
 31
0.0
  0
LINE
  5
1D51
  8
0
 62
     0
 10
290.37260341765727
 20
262.02500806697401
 30
0.0
 11
290.37260341765727
 21
262.02500806697401
 31
0.0
  0
LINE
  5
1D52
  8
0
 62
     0
 10
289.73760341765728
 20
262.02500806697401
 30
0.0
 11
289.73760341765728
 21
262.02500806697401
 31
0.0
  0
LINE
  5
1D53
  8
0
 62
     0
 10
289.10260341765729
 20
262.02500806697401
 30
0.0
 11
289.10260341765729
 21
262.02500806697401
 31
0.0
  0
LINE
  5
1D54
  8
0
 62
     0
 10
288.4676034176573
 20
262.02500806697401
 30
0.0
 11
288.4676034176573
 21
262.02500806697401
 31
0.0
  0
LINE
  5
1D55
  8
0
 62
     0
 10
287.83260341765731
 20
262.02500806697401
 30
0.0
 11
287.83260341765731
 21
262.02500806697401
 31
0.0
  0
LINE
  5
1D56
  8
0
 62
     0
 10
287.19760341765732
 20
262.02500806697401
 30
0.0
 11
287.19760341765732
 21
262.02500806697401
 31
0.0
  0
LINE
  5
1D57
  8
0
 62
     0
 10
286.56260341765727
 20
262.02500806697401
 30
0.0
 11
286.56260341765727
 21
262.02500806697401
 31
0.0
  0
LINE
  5
1D58
  8
0
 62
     0
 10
285.92760341765728
 20
262.02500806697401
 30
0.0
 11
285.92760341765728
 21
262.02500806697401
 31
0.0
  0
LINE
  5
1D59
  8
0
 62
     0
 10
285.2926034176574
 20
262.02500806697401
 30
0.0
 11
285.2926034176574
 21
262.02500806697401
 31
0.0
  0
LINE
  5
1D5A
  8
0
 62
     0
 10
284.65760341765741
 20
262.02500806697401
 30
0.0
 11
284.65760341765741
 21
262.02500806697401
 31
0.0
  0
LINE
  5
1D5B
  8
0
 62
     0
 10
284.02260341765731
 20
262.02500806697401
 30
0.0
 11
284.02260341765731
 21
262.02500806697401
 31
0.0
  0
LINE
  5
1D5C
  8
0
 62
     0
 10
283.38760341765737
 20
262.02500806697401
 30
0.0
 11
283.38760341765737
 21
262.02500806697401
 31
0.0
  0
LINE
  5
1D5D
  8
0
 62
     0
 10
282.75260341765738
 20
262.02500806697401
 30
0.0
 11
282.75260341765738
 21
262.02500806697401
 31
0.0
  0
LINE
  5
1D5E
  8
0
 62
     0
 10
282.11760341765739
 20
262.02500806697401
 30
0.0
 11
282.11760341765739
 21
262.02500806697401
 31
0.0
  0
LINE
  5
1D5F
  8
0
 62
     0
 10
281.4826034176574
 20
262.02500806697401
 30
0.0
 11
281.4826034176574
 21
262.02500806697401
 31
0.0
  0
LINE
  5
1D60
  8
0
 62
     0
 10
280.84760341765741
 20
262.02500806697401
 30
0.0
 11
280.84760341765741
 21
262.02500806697401
 31
0.0
  0
LINE
  5
1D61
  8
0
 62
     0
 10
280.21260341765742
 20
262.02500806697401
 30
0.0
 11
280.21260341765742
 21
262.02500806697401
 31
0.0
  0
LINE
  5
1D62
  8
0
 62
     0
 10
279.57760341765737
 20
262.02500806697401
 30
0.0
 11
279.57760341765737
 21
262.02500806697401
 31
0.0
  0
LINE
  5
1D63
  8
0
 62
     0
 10
278.94260341765749
 20
262.02500806697401
 30
0.0
 11
278.94260341765749
 21
262.02500806697401
 31
0.0
  0
LINE
  5
1D64
  8
0
 62
     0
 10
278.30760341765739
 20
262.02500806697401
 30
0.0
 11
278.30760341765739
 21
262.02500806697401
 31
0.0
  0
LINE
  5
1D65
  8
0
 62
     0
 10
277.6726034176574
 20
262.02500806697401
 30
0.0
 11
277.6726034176574
 21
262.02500806697401
 31
0.0
  0
LINE
  5
1D66
  8
0
 62
     0
 10
326.88510341765721
 20
262.660008066974
 30
0.0
 11
326.88510341765721
 21
262.660008066974
 31
0.0
  0
LINE
  5
1D67
  8
0
 62
     0
 10
326.25010341765721
 20
262.660008066974
 30
0.0
 11
326.25010341765721
 21
262.660008066974
 31
0.0
  0
LINE
  5
1D68
  8
0
 62
     0
 10
325.61510341765722
 20
262.660008066974
 30
0.0
 11
325.61510341765722
 21
262.660008066974
 31
0.0
  0
LINE
  5
1D69
  8
0
 62
     0
 10
324.98010341765718
 20
262.660008066974
 30
0.0
 11
324.98010341765718
 21
262.660008066974
 31
0.0
  0
LINE
  5
1D6A
  8
0
 62
     0
 10
324.34510341765719
 20
262.660008066974
 30
0.0
 11
324.34510341765719
 21
262.660008066974
 31
0.0
  0
LINE
  5
1D6B
  8
0
 62
     0
 10
323.71010341765731
 20
262.660008066974
 30
0.0
 11
323.71010341765731
 21
262.660008066974
 31
0.0
  0
LINE
  5
1D6C
  8
0
 62
     0
 10
323.07510341765732
 20
262.660008066974
 30
0.0
 11
323.07510341765732
 21
262.660008066974
 31
0.0
  0
LINE
  5
1D6D
  8
0
 62
     0
 10
322.44010341765733
 20
262.660008066974
 30
0.0
 11
322.44010341765733
 21
262.660008066974
 31
0.0
  0
LINE
  5
1D6E
  8
0
 62
     0
 10
321.80510341765728
 20
262.660008066974
 30
0.0
 11
321.80510341765728
 21
262.660008066974
 31
0.0
  0
LINE
  5
1D6F
  8
0
 62
     0
 10
321.17010341765729
 20
262.660008066974
 30
0.0
 11
321.17010341765729
 21
262.660008066974
 31
0.0
  0
LINE
  5
1D70
  8
0
 62
     0
 10
320.5351034176573
 20
262.660008066974
 30
0.0
 11
320.5351034176573
 21
262.660008066974
 31
0.0
  0
LINE
  5
1D71
  8
0
 62
     0
 10
319.90010341765731
 20
262.660008066974
 30
0.0
 11
319.90010341765731
 21
262.660008066974
 31
0.0
  0
LINE
  5
1D72
  8
0
 62
     0
 10
319.26510341765731
 20
262.660008066974
 30
0.0
 11
319.26510341765731
 21
262.660008066974
 31
0.0
  0
LINE
  5
1D73
  8
0
 62
     0
 10
318.63010341765732
 20
262.660008066974
 30
0.0
 11
318.63010341765732
 21
262.660008066974
 31
0.0
  0
LINE
  5
1D74
  8
0
 62
     0
 10
317.99510341765728
 20
262.660008066974
 30
0.0
 11
317.99510341765728
 21
262.660008066974
 31
0.0
  0
LINE
  5
1D75
  8
0
 62
     0
 10
317.3601034176574
 20
262.660008066974
 30
0.0
 11
317.3601034176574
 21
262.660008066974
 31
0.0
  0
LINE
  5
1D76
  8
0
 62
     0
 10
316.72510341765729
 20
262.660008066974
 30
0.0
 11
316.72510341765729
 21
262.660008066974
 31
0.0
  0
LINE
  5
1D77
  8
0
 62
     0
 10
316.0901034176573
 20
262.660008066974
 30
0.0
 11
316.0901034176573
 21
262.660008066974
 31
0.0
  0
LINE
  5
1D78
  8
0
 62
     0
 10
315.45510341765743
 20
262.660008066974
 30
0.0
 11
315.45510341765743
 21
262.660008066974
 31
0.0
  0
LINE
  5
1D79
  8
0
 62
     0
 10
314.82010341765738
 20
262.660008066974
 30
0.0
 11
314.82010341765738
 21
262.660008066974
 31
0.0
  0
LINE
  5
1D7A
  8
0
 62
     0
 10
314.18510341765739
 20
262.660008066974
 30
0.0
 11
314.18510341765739
 21
262.660008066974
 31
0.0
  0
LINE
  5
1D7B
  8
0
 62
     0
 10
313.5501034176574
 20
262.660008066974
 30
0.0
 11
313.5501034176574
 21
262.660008066974
 31
0.0
  0
LINE
  5
1D7C
  8
0
 62
     0
 10
312.91510341765741
 20
262.660008066974
 30
0.0
 11
312.91510341765741
 21
262.660008066974
 31
0.0
  0
LINE
  5
1D7D
  8
0
 62
     0
 10
312.28010341765741
 20
262.660008066974
 30
0.0
 11
312.28010341765741
 21
262.660008066974
 31
0.0
  0
LINE
  5
1D7E
  8
0
 62
     0
 10
311.64510341765742
 20
262.660008066974
 30
0.0
 11
311.64510341765742
 21
262.660008066974
 31
0.0
  0
LINE
  5
1D7F
  8
0
 62
     0
 10
311.01010341765738
 20
262.660008066974
 30
0.0
 11
311.01010341765738
 21
262.660008066974
 31
0.0
  0
LINE
  5
1D80
  8
0
 62
     0
 10
310.37510341765739
 20
262.660008066974
 30
0.0
 11
310.37510341765739
 21
262.660008066974
 31
0.0
  0
LINE
  5
1D81
  8
0
 62
     0
 10
309.74010341765739
 20
262.660008066974
 30
0.0
 11
309.74010341765739
 21
262.660008066974
 31
0.0
  0
LINE
  5
1D82
  8
0
 62
     0
 10
309.10510341765752
 20
262.660008066974
 30
0.0
 11
309.10510341765752
 21
262.660008066974
 31
0.0
  0
LINE
  5
1D83
  8
0
 62
     0
 10
308.47010341765753
 20
262.660008066974
 30
0.0
 11
308.47010341765753
 21
262.660008066974
 31
0.0
  0
LINE
  5
1D84
  8
0
 62
     0
 10
307.83510341765748
 20
262.660008066974
 30
0.0
 11
307.83510341765748
 21
262.660008066974
 31
0.0
  0
LINE
  5
1D85
  8
0
 62
     0
 10
307.20010341765749
 20
262.660008066974
 30
0.0
 11
307.20010341765749
 21
262.660008066974
 31
0.0
  0
LINE
  5
1D86
  8
0
 62
     0
 10
297.04010341765712
 20
262.660008066974
 30
0.0
 11
297.04010341765712
 21
262.660008066974
 31
0.0
  0
LINE
  5
1D87
  8
0
 62
     0
 10
296.40510341765719
 20
262.660008066974
 30
0.0
 11
296.40510341765719
 21
262.660008066974
 31
0.0
  0
LINE
  5
1D88
  8
0
 62
     0
 10
295.7701034176572
 20
262.660008066974
 30
0.0
 11
295.7701034176572
 21
262.660008066974
 31
0.0
  0
LINE
  5
1D89
  8
0
 62
     0
 10
295.13510341765721
 20
262.660008066974
 30
0.0
 11
295.13510341765721
 21
262.660008066974
 31
0.0
  0
LINE
  5
1D8A
  8
0
 62
     0
 10
294.50010341765721
 20
262.660008066974
 30
0.0
 11
294.50010341765721
 21
262.660008066974
 31
0.0
  0
LINE
  5
1D8B
  8
0
 62
     0
 10
293.86510341765722
 20
262.660008066974
 30
0.0
 11
293.86510341765722
 21
262.660008066974
 31
0.0
  0
LINE
  5
1D8C
  8
0
 62
     0
 10
293.23010341765729
 20
262.660008066974
 30
0.0
 11
293.23010341765729
 21
262.660008066974
 31
0.0
  0
LINE
  5
1D8D
  8
0
 62
     0
 10
292.5951034176573
 20
262.660008066974
 30
0.0
 11
292.5951034176573
 21
262.660008066974
 31
0.0
  0
LINE
  5
1D8E
  8
0
 62
     0
 10
291.96010341765719
 20
262.660008066974
 30
0.0
 11
291.96010341765719
 21
262.660008066974
 31
0.0
  0
LINE
  5
1D8F
  8
0
 62
     0
 10
291.32510341765732
 20
262.660008066974
 30
0.0
 11
291.32510341765732
 21
262.660008066974
 31
0.0
  0
LINE
  5
1D90
  8
0
 62
     0
 10
290.69010341765733
 20
262.660008066974
 30
0.0
 11
290.69010341765733
 21
262.660008066974
 31
0.0
  0
LINE
  5
1D91
  8
0
 62
     0
 10
290.05510341765728
 20
262.660008066974
 30
0.0
 11
290.05510341765728
 21
262.660008066974
 31
0.0
  0
LINE
  5
1D92
  8
0
 62
     0
 10
289.42010341765729
 20
262.660008066974
 30
0.0
 11
289.42010341765729
 21
262.660008066974
 31
0.0
  0
LINE
  5
1D93
  8
0
 62
     0
 10
288.7851034176573
 20
262.660008066974
 30
0.0
 11
288.7851034176573
 21
262.660008066974
 31
0.0
  0
LINE
  5
1D94
  8
0
 62
     0
 10
288.15010341765731
 20
262.660008066974
 30
0.0
 11
288.15010341765731
 21
262.660008066974
 31
0.0
  0
LINE
  5
1D95
  8
0
 62
     0
 10
287.51510341765731
 20
262.660008066974
 30
0.0
 11
287.51510341765731
 21
262.660008066974
 31
0.0
  0
LINE
  5
1D96
  8
0
 62
     0
 10
286.88010341765732
 20
262.660008066974
 30
0.0
 11
286.88010341765732
 21
262.660008066974
 31
0.0
  0
LINE
  5
1D97
  8
0
 62
     0
 10
286.24510341765728
 20
262.660008066974
 30
0.0
 11
286.24510341765728
 21
262.660008066974
 31
0.0
  0
LINE
  5
1D98
  8
0
 62
     0
 10
285.61010341765729
 20
262.660008066974
 30
0.0
 11
285.61010341765729
 21
262.660008066974
 31
0.0
  0
LINE
  5
1D99
  8
0
 62
     0
 10
284.97510341765729
 20
262.660008066974
 30
0.0
 11
284.97510341765729
 21
262.660008066974
 31
0.0
  0
LINE
  5
1D9A
  8
0
 62
     0
 10
284.34010341765742
 20
262.660008066974
 30
0.0
 11
284.34010341765742
 21
262.660008066974
 31
0.0
  0
LINE
  5
1D9B
  8
0
 62
     0
 10
283.70510341765743
 20
262.660008066974
 30
0.0
 11
283.70510341765743
 21
262.660008066974
 31
0.0
  0
LINE
  5
1D9C
  8
0
 62
     0
 10
283.07010341765738
 20
262.660008066974
 30
0.0
 11
283.07010341765738
 21
262.660008066974
 31
0.0
  0
LINE
  5
1D9D
  8
0
 62
     0
 10
282.43510341765739
 20
262.660008066974
 30
0.0
 11
282.43510341765739
 21
262.660008066974
 31
0.0
  0
LINE
  5
1D9E
  8
0
 62
     0
 10
281.8001034176574
 20
262.660008066974
 30
0.0
 11
281.8001034176574
 21
262.660008066974
 31
0.0
  0
LINE
  5
1D9F
  8
0
 62
     0
 10
281.16510341765741
 20
262.660008066974
 30
0.0
 11
281.16510341765741
 21
262.660008066974
 31
0.0
  0
LINE
  5
1DA0
  8
0
 62
     0
 10
280.53010341765741
 20
262.660008066974
 30
0.0
 11
280.53010341765741
 21
262.660008066974
 31
0.0
  0
LINE
  5
1DA1
  8
0
 62
     0
 10
279.89510341765742
 20
262.660008066974
 30
0.0
 11
279.89510341765742
 21
262.660008066974
 31
0.0
  0
LINE
  5
1DA2
  8
0
 62
     0
 10
279.26010341765738
 20
262.660008066974
 30
0.0
 11
279.26010341765738
 21
262.660008066974
 31
0.0
  0
LINE
  5
1DA3
  8
0
 62
     0
 10
278.62510341765739
 20
262.660008066974
 30
0.0
 11
278.62510341765739
 21
262.660008066974
 31
0.0
  0
LINE
  5
1DA4
  8
0
 62
     0
 10
277.99010341765751
 20
262.660008066974
 30
0.0
 11
277.99010341765751
 21
262.660008066974
 31
0.0
  0
LINE
  5
1DA5
  8
0
 62
     0
 10
277.35510341765752
 20
262.660008066974
 30
0.0
 11
277.35510341765752
 21
262.660008066974
 31
0.0
  0
LINE
  5
1DA6
  8
0
 62
     0
 10
326.56760341765721
 20
263.29500806697399
 30
0.0
 11
326.56760341765721
 21
263.29500806697399
 31
0.0
  0
LINE
  5
1DA7
  8
0
 62
     0
 10
325.93260341765722
 20
263.29500806697399
 30
0.0
 11
325.93260341765722
 21
263.29500806697399
 31
0.0
  0
LINE
  5
1DA8
  8
0
 62
     0
 10
325.29760341765723
 20
263.29500806697399
 30
0.0
 11
325.29760341765723
 21
263.29500806697399
 31
0.0
  0
LINE
  5
1DA9
  8
0
 62
     0
 10
324.66260341765718
 20
263.29500806697399
 30
0.0
 11
324.66260341765718
 21
263.29500806697399
 31
0.0
  0
LINE
  5
1DAA
  8
0
 62
     0
 10
324.02760341765719
 20
263.29500806697399
 30
0.0
 11
324.02760341765719
 21
263.29500806697399
 31
0.0
  0
LINE
  5
1DAB
  8
0
 62
     0
 10
323.3926034176572
 20
263.29500806697399
 30
0.0
 11
323.3926034176572
 21
263.29500806697399
 31
0.0
  0
LINE
  5
1DAC
  8
0
 62
     0
 10
322.75760341765732
 20
263.29500806697399
 30
0.0
 11
322.75760341765732
 21
263.29500806697399
 31
0.0
  0
LINE
  5
1DAD
  8
0
 62
     0
 10
322.12260341765727
 20
263.29500806697399
 30
0.0
 11
322.12260341765727
 21
263.29500806697399
 31
0.0
  0
LINE
  5
1DAE
  8
0
 62
     0
 10
321.48760341765728
 20
263.29500806697399
 30
0.0
 11
321.48760341765728
 21
263.29500806697399
 31
0.0
  0
LINE
  5
1DAF
  8
0
 62
     0
 10
320.85260341765729
 20
263.29500806697399
 30
0.0
 11
320.85260341765729
 21
263.29500806697399
 31
0.0
  0
LINE
  5
1DB0
  8
0
 62
     0
 10
320.2176034176573
 20
263.29500806697399
 30
0.0
 11
320.2176034176573
 21
263.29500806697399
 31
0.0
  0
LINE
  5
1DB1
  8
0
 62
     0
 10
319.58260341765731
 20
263.29500806697399
 30
0.0
 11
319.58260341765731
 21
263.29500806697399
 31
0.0
  0
LINE
  5
1DB2
  8
0
 62
     0
 10
318.94760341765732
 20
263.29500806697399
 30
0.0
 11
318.94760341765732
 21
263.29500806697399
 31
0.0
  0
LINE
  5
1DB3
  8
0
 62
     0
 10
318.31260341765727
 20
263.29500806697399
 30
0.0
 11
318.31260341765727
 21
263.29500806697399
 31
0.0
  0
LINE
  5
1DB4
  8
0
 62
     0
 10
317.67760341765728
 20
263.29500806697399
 30
0.0
 11
317.67760341765728
 21
263.29500806697399
 31
0.0
  0
LINE
  5
1DB5
  8
0
 62
     0
 10
317.04260341765729
 20
263.29500806697399
 30
0.0
 11
317.04260341765729
 21
263.29500806697399
 31
0.0
  0
LINE
  5
1DB6
  8
0
 62
     0
 10
316.40760341765741
 20
263.29500806697399
 30
0.0
 11
316.40760341765741
 21
263.29500806697399
 31
0.0
  0
LINE
  5
1DB7
  8
0
 62
     0
 10
315.77260341765742
 20
263.29500806697399
 30
0.0
 11
315.77260341765742
 21
263.29500806697399
 31
0.0
  0
LINE
  5
1DB8
  8
0
 62
     0
 10
315.13760341765737
 20
263.29500806697399
 30
0.0
 11
315.13760341765737
 21
263.29500806697399
 31
0.0
  0
LINE
  5
1DB9
  8
0
 62
     0
 10
314.50260341765738
 20
263.29500806697399
 30
0.0
 11
314.50260341765738
 21
263.29500806697399
 31
0.0
  0
LINE
  5
1DBA
  8
0
 62
     0
 10
313.86760341765739
 20
263.29500806697399
 30
0.0
 11
313.86760341765739
 21
263.29500806697399
 31
0.0
  0
LINE
  5
1DBB
  8
0
 62
     0
 10
313.2326034176574
 20
263.29500806697399
 30
0.0
 11
313.2326034176574
 21
263.29500806697399
 31
0.0
  0
LINE
  5
1DBC
  8
0
 62
     0
 10
312.59760341765741
 20
263.29500806697399
 30
0.0
 11
312.59760341765741
 21
263.29500806697399
 31
0.0
  0
LINE
  5
1DBD
  8
0
 62
     0
 10
311.96260341765742
 20
263.29500806697399
 30
0.0
 11
311.96260341765742
 21
263.29500806697399
 31
0.0
  0
LINE
  5
1DBE
  8
0
 62
     0
 10
311.32760341765737
 20
263.29500806697399
 30
0.0
 11
311.32760341765737
 21
263.29500806697399
 31
0.0
  0
LINE
  5
1DBF
  8
0
 62
     0
 10
310.69260341765738
 20
263.29500806697399
 30
0.0
 11
310.69260341765738
 21
263.29500806697399
 31
0.0
  0
LINE
  5
1DC0
  8
0
 62
     0
 10
310.0576034176575
 20
263.29500806697399
 30
0.0
 11
310.0576034176575
 21
263.29500806697399
 31
0.0
  0
LINE
  5
1DC1
  8
0
 62
     0
 10
309.42260341765751
 20
263.29500806697399
 30
0.0
 11
309.42260341765751
 21
263.29500806697399
 31
0.0
  0
LINE
  5
1DC2
  8
0
 62
     0
 10
308.78760341765741
 20
263.29500806697399
 30
0.0
 11
308.78760341765741
 21
263.29500806697399
 31
0.0
  0
LINE
  5
1DC3
  8
0
 62
     0
 10
308.15260341765747
 20
263.29500806697399
 30
0.0
 11
308.15260341765747
 21
263.29500806697399
 31
0.0
  0
LINE
  5
1DC4
  8
0
 62
     0
 10
307.51760341765748
 20
263.29500806697399
 30
0.0
 11
307.51760341765748
 21
263.29500806697399
 31
0.0
  0
LINE
  5
1DC5
  8
0
 62
     0
 10
296.72260341765718
 20
263.29500806697399
 30
0.0
 11
296.72260341765718
 21
263.29500806697399
 31
0.0
  0
LINE
  5
1DC6
  8
0
 62
     0
 10
296.08760341765719
 20
263.29500806697399
 30
0.0
 11
296.08760341765719
 21
263.29500806697399
 31
0.0
  0
LINE
  5
1DC7
  8
0
 62
     0
 10
295.4526034176572
 20
263.29500806697399
 30
0.0
 11
295.4526034176572
 21
263.29500806697399
 31
0.0
  0
LINE
  5
1DC8
  8
0
 62
     0
 10
294.81760341765721
 20
263.29500806697399
 30
0.0
 11
294.81760341765721
 21
263.29500806697399
 31
0.0
  0
LINE
  5
1DC9
  8
0
 62
     0
 10
294.18260341765722
 20
263.29500806697399
 30
0.0
 11
294.18260341765722
 21
263.29500806697399
 31
0.0
  0
LINE
  5
1DCA
  8
0
 62
     0
 10
293.54760341765723
 20
263.29500806697399
 30
0.0
 11
293.54760341765723
 21
263.29500806697399
 31
0.0
  0
LINE
  5
1DCB
  8
0
 62
     0
 10
292.91260341765718
 20
263.29500806697399
 30
0.0
 11
292.91260341765718
 21
263.29500806697399
 31
0.0
  0
LINE
  5
1DCC
  8
0
 62
     0
 10
292.2776034176573
 20
263.29500806697399
 30
0.0
 11
292.2776034176573
 21
263.29500806697399
 31
0.0
  0
LINE
  5
1DCD
  8
0
 62
     0
 10
291.64260341765731
 20
263.29500806697399
 30
0.0
 11
291.64260341765731
 21
263.29500806697399
 31
0.0
  0
LINE
  5
1DCE
  8
0
 62
     0
 10
291.00760341765732
 20
263.29500806697399
 30
0.0
 11
291.00760341765732
 21
263.29500806697399
 31
0.0
  0
LINE
  5
1DCF
  8
0
 62
     0
 10
290.37260341765727
 20
263.29500806697399
 30
0.0
 11
290.37260341765727
 21
263.29500806697399
 31
0.0
  0
LINE
  5
1DD0
  8
0
 62
     0
 10
289.73760341765728
 20
263.29500806697399
 30
0.0
 11
289.73760341765728
 21
263.29500806697399
 31
0.0
  0
LINE
  5
1DD1
  8
0
 62
     0
 10
289.10260341765729
 20
263.29500806697399
 30
0.0
 11
289.10260341765729
 21
263.29500806697399
 31
0.0
  0
LINE
  5
1DD2
  8
0
 62
     0
 10
288.4676034176573
 20
263.29500806697399
 30
0.0
 11
288.4676034176573
 21
263.29500806697399
 31
0.0
  0
LINE
  5
1DD3
  8
0
 62
     0
 10
287.83260341765731
 20
263.29500806697399
 30
0.0
 11
287.83260341765731
 21
263.29500806697399
 31
0.0
  0
LINE
  5
1DD4
  8
0
 62
     0
 10
287.19760341765732
 20
263.29500806697399
 30
0.0
 11
287.19760341765732
 21
263.29500806697399
 31
0.0
  0
LINE
  5
1DD5
  8
0
 62
     0
 10
286.56260341765727
 20
263.29500806697399
 30
0.0
 11
286.56260341765727
 21
263.29500806697399
 31
0.0
  0
LINE
  5
1DD6
  8
0
 62
     0
 10
285.92760341765728
 20
263.29500806697399
 30
0.0
 11
285.92760341765728
 21
263.29500806697399
 31
0.0
  0
LINE
  5
1DD7
  8
0
 62
     0
 10
285.2926034176574
 20
263.29500806697399
 30
0.0
 11
285.2926034176574
 21
263.29500806697399
 31
0.0
  0
LINE
  5
1DD8
  8
0
 62
     0
 10
284.65760341765741
 20
263.29500806697399
 30
0.0
 11
284.65760341765741
 21
263.29500806697399
 31
0.0
  0
LINE
  5
1DD9
  8
0
 62
     0
 10
284.02260341765731
 20
263.29500806697399
 30
0.0
 11
284.02260341765731
 21
263.29500806697399
 31
0.0
  0
LINE
  5
1DDA
  8
0
 62
     0
 10
283.38760341765737
 20
263.29500806697399
 30
0.0
 11
283.38760341765737
 21
263.29500806697399
 31
0.0
  0
LINE
  5
1DDB
  8
0
 62
     0
 10
282.75260341765738
 20
263.29500806697399
 30
0.0
 11
282.75260341765738
 21
263.29500806697399
 31
0.0
  0
LINE
  5
1DDC
  8
0
 62
     0
 10
282.11760341765739
 20
263.29500806697399
 30
0.0
 11
282.11760341765739
 21
263.29500806697399
 31
0.0
  0
LINE
  5
1DDD
  8
0
 62
     0
 10
281.4826034176574
 20
263.29500806697399
 30
0.0
 11
281.4826034176574
 21
263.29500806697399
 31
0.0
  0
LINE
  5
1DDE
  8
0
 62
     0
 10
280.84760341765741
 20
263.29500806697399
 30
0.0
 11
280.84760341765741
 21
263.29500806697399
 31
0.0
  0
LINE
  5
1DDF
  8
0
 62
     0
 10
280.21260341765742
 20
263.29500806697399
 30
0.0
 11
280.21260341765742
 21
263.29500806697399
 31
0.0
  0
LINE
  5
1DE0
  8
0
 62
     0
 10
279.57760341765737
 20
263.29500806697399
 30
0.0
 11
279.57760341765737
 21
263.29500806697399
 31
0.0
  0
LINE
  5
1DE1
  8
0
 62
     0
 10
278.94260341765749
 20
263.29500806697399
 30
0.0
 11
278.94260341765749
 21
263.29500806697399
 31
0.0
  0
LINE
  5
1DE2
  8
0
 62
     0
 10
278.30760341765739
 20
263.29500806697399
 30
0.0
 11
278.30760341765739
 21
263.29500806697399
 31
0.0
  0
LINE
  5
1DE3
  8
0
 62
     0
 10
277.6726034176574
 20
263.29500806697399
 30
0.0
 11
277.6726034176574
 21
263.29500806697399
 31
0.0
  0
LINE
  5
1DE4
  8
0
 62
     0
 10
326.88510341765721
 20
263.93000806697398
 30
0.0
 11
326.88510341765721
 21
263.93000806697398
 31
0.0
  0
LINE
  5
1DE5
  8
0
 62
     0
 10
326.25010341765721
 20
263.93000806697398
 30
0.0
 11
326.25010341765721
 21
263.93000806697398
 31
0.0
  0
LINE
  5
1DE6
  8
0
 62
     0
 10
325.61510341765722
 20
263.93000806697398
 30
0.0
 11
325.61510341765722
 21
263.93000806697398
 31
0.0
  0
LINE
  5
1DE7
  8
0
 62
     0
 10
324.98010341765718
 20
263.93000806697398
 30
0.0
 11
324.98010341765718
 21
263.93000806697398
 31
0.0
  0
LINE
  5
1DE8
  8
0
 62
     0
 10
324.34510341765719
 20
263.93000806697398
 30
0.0
 11
324.34510341765719
 21
263.93000806697398
 31
0.0
  0
LINE
  5
1DE9
  8
0
 62
     0
 10
323.71010341765731
 20
263.93000806697398
 30
0.0
 11
323.71010341765731
 21
263.93000806697398
 31
0.0
  0
LINE
  5
1DEA
  8
0
 62
     0
 10
323.07510341765732
 20
263.93000806697398
 30
0.0
 11
323.07510341765732
 21
263.93000806697398
 31
0.0
  0
LINE
  5
1DEB
  8
0
 62
     0
 10
322.44010341765733
 20
263.93000806697398
 30
0.0
 11
322.44010341765733
 21
263.93000806697398
 31
0.0
  0
LINE
  5
1DEC
  8
0
 62
     0
 10
321.80510341765728
 20
263.93000806697398
 30
0.0
 11
321.80510341765728
 21
263.93000806697398
 31
0.0
  0
LINE
  5
1DED
  8
0
 62
     0
 10
321.17010341765729
 20
263.93000806697398
 30
0.0
 11
321.17010341765729
 21
263.93000806697398
 31
0.0
  0
LINE
  5
1DEE
  8
0
 62
     0
 10
320.5351034176573
 20
263.93000806697398
 30
0.0
 11
320.5351034176573
 21
263.93000806697398
 31
0.0
  0
LINE
  5
1DEF
  8
0
 62
     0
 10
319.90010341765731
 20
263.93000806697398
 30
0.0
 11
319.90010341765731
 21
263.93000806697398
 31
0.0
  0
LINE
  5
1DF0
  8
0
 62
     0
 10
319.26510341765731
 20
263.93000806697398
 30
0.0
 11
319.26510341765731
 21
263.93000806697398
 31
0.0
  0
LINE
  5
1DF1
  8
0
 62
     0
 10
318.63010341765732
 20
263.93000806697398
 30
0.0
 11
318.63010341765732
 21
263.93000806697398
 31
0.0
  0
LINE
  5
1DF2
  8
0
 62
     0
 10
317.99510341765728
 20
263.93000806697398
 30
0.0
 11
317.99510341765728
 21
263.93000806697398
 31
0.0
  0
LINE
  5
1DF3
  8
0
 62
     0
 10
317.3601034176574
 20
263.93000806697398
 30
0.0
 11
317.3601034176574
 21
263.93000806697398
 31
0.0
  0
LINE
  5
1DF4
  8
0
 62
     0
 10
316.72510341765729
 20
263.93000806697398
 30
0.0
 11
316.72510341765729
 21
263.93000806697398
 31
0.0
  0
LINE
  5
1DF5
  8
0
 62
     0
 10
316.0901034176573
 20
263.93000806697398
 30
0.0
 11
316.0901034176573
 21
263.93000806697398
 31
0.0
  0
LINE
  5
1DF6
  8
0
 62
     0
 10
315.45510341765743
 20
263.93000806697398
 30
0.0
 11
315.45510341765743
 21
263.93000806697398
 31
0.0
  0
LINE
  5
1DF7
  8
0
 62
     0
 10
314.82010341765738
 20
263.93000806697398
 30
0.0
 11
314.82010341765738
 21
263.93000806697398
 31
0.0
  0
LINE
  5
1DF8
  8
0
 62
     0
 10
314.18510341765739
 20
263.93000806697398
 30
0.0
 11
314.18510341765739
 21
263.93000806697398
 31
0.0
  0
LINE
  5
1DF9
  8
0
 62
     0
 10
313.5501034176574
 20
263.93000806697398
 30
0.0
 11
313.5501034176574
 21
263.93000806697398
 31
0.0
  0
LINE
  5
1DFA
  8
0
 62
     0
 10
312.91510341765741
 20
263.93000806697398
 30
0.0
 11
312.91510341765741
 21
263.93000806697398
 31
0.0
  0
LINE
  5
1DFB
  8
0
 62
     0
 10
312.28010341765741
 20
263.93000806697398
 30
0.0
 11
312.28010341765741
 21
263.93000806697398
 31
0.0
  0
LINE
  5
1DFC
  8
0
 62
     0
 10
311.64510341765742
 20
263.93000806697398
 30
0.0
 11
311.64510341765742
 21
263.93000806697398
 31
0.0
  0
LINE
  5
1DFD
  8
0
 62
     0
 10
311.01010341765738
 20
263.93000806697398
 30
0.0
 11
311.01010341765738
 21
263.93000806697398
 31
0.0
  0
LINE
  5
1DFE
  8
0
 62
     0
 10
310.37510341765739
 20
263.93000806697398
 30
0.0
 11
310.37510341765739
 21
263.93000806697398
 31
0.0
  0
LINE
  5
1DFF
  8
0
 62
     0
 10
309.74010341765739
 20
263.93000806697398
 30
0.0
 11
309.74010341765739
 21
263.93000806697398
 31
0.0
  0
LINE
  5
1E00
  8
0
 62
     0
 10
309.10510341765752
 20
263.93000806697398
 30
0.0
 11
309.10510341765752
 21
263.93000806697398
 31
0.0
  0
LINE
  5
1E01
  8
0
 62
     0
 10
308.47010341765753
 20
263.93000806697398
 30
0.0
 11
308.47010341765753
 21
263.93000806697398
 31
0.0
  0
LINE
  5
1E02
  8
0
 62
     0
 10
307.83510341765748
 20
263.93000806697398
 30
0.0
 11
307.83510341765748
 21
263.93000806697398
 31
0.0
  0
LINE
  5
1E03
  8
0
 62
     0
 10
307.20010341765749
 20
263.93000806697398
 30
0.0
 11
307.20010341765749
 21
263.93000806697398
 31
0.0
  0
LINE
  5
1E04
  8
0
 62
     0
 10
297.04010341765712
 20
263.93000806697398
 30
0.0
 11
297.04010341765712
 21
263.93000806697398
 31
0.0
  0
LINE
  5
1E05
  8
0
 62
     0
 10
296.40510341765719
 20
263.93000806697398
 30
0.0
 11
296.40510341765719
 21
263.93000806697398
 31
0.0
  0
LINE
  5
1E06
  8
0
 62
     0
 10
295.7701034176572
 20
263.93000806697398
 30
0.0
 11
295.7701034176572
 21
263.93000806697398
 31
0.0
  0
LINE
  5
1E07
  8
0
 62
     0
 10
295.13510341765721
 20
263.93000806697398
 30
0.0
 11
295.13510341765721
 21
263.93000806697398
 31
0.0
  0
LINE
  5
1E08
  8
0
 62
     0
 10
294.50010341765721
 20
263.93000806697398
 30
0.0
 11
294.50010341765721
 21
263.93000806697398
 31
0.0
  0
LINE
  5
1E09
  8
0
 62
     0
 10
293.86510341765722
 20
263.93000806697398
 30
0.0
 11
293.86510341765722
 21
263.93000806697398
 31
0.0
  0
LINE
  5
1E0A
  8
0
 62
     0
 10
293.23010341765729
 20
263.93000806697398
 30
0.0
 11
293.23010341765729
 21
263.93000806697398
 31
0.0
  0
LINE
  5
1E0B
  8
0
 62
     0
 10
292.5951034176573
 20
263.93000806697398
 30
0.0
 11
292.5951034176573
 21
263.93000806697398
 31
0.0
  0
LINE
  5
1E0C
  8
0
 62
     0
 10
291.96010341765719
 20
263.93000806697398
 30
0.0
 11
291.96010341765719
 21
263.93000806697398
 31
0.0
  0
LINE
  5
1E0D
  8
0
 62
     0
 10
291.32510341765732
 20
263.93000806697398
 30
0.0
 11
291.32510341765732
 21
263.93000806697398
 31
0.0
  0
LINE
  5
1E0E
  8
0
 62
     0
 10
290.69010341765733
 20
263.93000806697398
 30
0.0
 11
290.69010341765733
 21
263.93000806697398
 31
0.0
  0
LINE
  5
1E0F
  8
0
 62
     0
 10
290.05510341765728
 20
263.93000806697398
 30
0.0
 11
290.05510341765728
 21
263.93000806697398
 31
0.0
  0
LINE
  5
1E10
  8
0
 62
     0
 10
289.42010341765729
 20
263.93000806697398
 30
0.0
 11
289.42010341765729
 21
263.93000806697398
 31
0.0
  0
LINE
  5
1E11
  8
0
 62
     0
 10
288.7851034176573
 20
263.93000806697398
 30
0.0
 11
288.7851034176573
 21
263.93000806697398
 31
0.0
  0
LINE
  5
1E12
  8
0
 62
     0
 10
288.15010341765731
 20
263.93000806697398
 30
0.0
 11
288.15010341765731
 21
263.93000806697398
 31
0.0
  0
LINE
  5
1E13
  8
0
 62
     0
 10
287.51510341765731
 20
263.93000806697398
 30
0.0
 11
287.51510341765731
 21
263.93000806697398
 31
0.0
  0
LINE
  5
1E14
  8
0
 62
     0
 10
286.88010341765732
 20
263.93000806697398
 30
0.0
 11
286.88010341765732
 21
263.93000806697398
 31
0.0
  0
LINE
  5
1E15
  8
0
 62
     0
 10
286.24510341765728
 20
263.93000806697398
 30
0.0
 11
286.24510341765728
 21
263.93000806697398
 31
0.0
  0
LINE
  5
1E16
  8
0
 62
     0
 10
285.61010341765729
 20
263.93000806697398
 30
0.0
 11
285.61010341765729
 21
263.93000806697398
 31
0.0
  0
LINE
  5
1E17
  8
0
 62
     0
 10
284.97510341765729
 20
263.93000806697398
 30
0.0
 11
284.97510341765729
 21
263.93000806697398
 31
0.0
  0
LINE
  5
1E18
  8
0
 62
     0
 10
284.34010341765742
 20
263.93000806697398
 30
0.0
 11
284.34010341765742
 21
263.93000806697398
 31
0.0
  0
LINE
  5
1E19
  8
0
 62
     0
 10
283.70510341765743
 20
263.93000806697398
 30
0.0
 11
283.70510341765743
 21
263.93000806697398
 31
0.0
  0
LINE
  5
1E1A
  8
0
 62
     0
 10
283.07010341765738
 20
263.93000806697398
 30
0.0
 11
283.07010341765738
 21
263.93000806697398
 31
0.0
  0
LINE
  5
1E1B
  8
0
 62
     0
 10
282.43510341765739
 20
263.93000806697398
 30
0.0
 11
282.43510341765739
 21
263.93000806697398
 31
0.0
  0
LINE
  5
1E1C
  8
0
 62
     0
 10
281.8001034176574
 20
263.93000806697398
 30
0.0
 11
281.8001034176574
 21
263.93000806697398
 31
0.0
  0
LINE
  5
1E1D
  8
0
 62
     0
 10
281.16510341765741
 20
263.93000806697398
 30
0.0
 11
281.16510341765741
 21
263.93000806697398
 31
0.0
  0
LINE
  5
1E1E
  8
0
 62
     0
 10
280.53010341765741
 20
263.93000806697398
 30
0.0
 11
280.53010341765741
 21
263.93000806697398
 31
0.0
  0
LINE
  5
1E1F
  8
0
 62
     0
 10
279.89510341765742
 20
263.93000806697398
 30
0.0
 11
279.89510341765742
 21
263.93000806697398
 31
0.0
  0
LINE
  5
1E20
  8
0
 62
     0
 10
279.26010341765738
 20
263.93000806697398
 30
0.0
 11
279.26010341765738
 21
263.93000806697398
 31
0.0
  0
LINE
  5
1E21
  8
0
 62
     0
 10
278.62510341765739
 20
263.93000806697398
 30
0.0
 11
278.62510341765739
 21
263.93000806697398
 31
0.0
  0
LINE
  5
1E22
  8
0
 62
     0
 10
277.99010341765751
 20
263.93000806697398
 30
0.0
 11
277.99010341765751
 21
263.93000806697398
 31
0.0
  0
LINE
  5
1E23
  8
0
 62
     0
 10
277.35510341765752
 20
263.93000806697398
 30
0.0
 11
277.35510341765752
 21
263.93000806697398
 31
0.0
  0
LINE
  5
1E24
  8
0
 62
     0
 10
323.3926034176572
 20
264.56500806697397
 30
0.0
 11
323.3926034176572
 21
264.56500806697397
 31
0.0
  0
LINE
  5
1E25
  8
0
 62
     0
 10
322.75760341765732
 20
264.56500806697397
 30
0.0
 11
322.75760341765732
 21
264.56500806697397
 31
0.0
  0
LINE
  5
1E26
  8
0
 62
     0
 10
322.12260341765727
 20
264.56500806697397
 30
0.0
 11
322.12260341765727
 21
264.56500806697397
 31
0.0
  0
LINE
  5
1E27
  8
0
 62
     0
 10
321.48760341765728
 20
264.56500806697397
 30
0.0
 11
321.48760341765728
 21
264.56500806697397
 31
0.0
  0
LINE
  5
1E28
  8
0
 62
     0
 10
320.85260341765729
 20
264.56500806697397
 30
0.0
 11
320.85260341765729
 21
264.56500806697397
 31
0.0
  0
LINE
  5
1E29
  8
0
 62
     0
 10
320.2176034176573
 20
264.56500806697397
 30
0.0
 11
320.2176034176573
 21
264.56500806697397
 31
0.0
  0
LINE
  5
1E2A
  8
0
 62
     0
 10
319.58260341765731
 20
264.56500806697397
 30
0.0
 11
319.58260341765731
 21
264.56500806697397
 31
0.0
  0
LINE
  5
1E2B
  8
0
 62
     0
 10
318.94760341765732
 20
264.56500806697397
 30
0.0
 11
318.94760341765732
 21
264.56500806697397
 31
0.0
  0
LINE
  5
1E2C
  8
0
 62
     0
 10
318.31260341765727
 20
264.56500806697397
 30
0.0
 11
318.31260341765727
 21
264.56500806697397
 31
0.0
  0
LINE
  5
1E2D
  8
0
 62
     0
 10
317.67760341765728
 20
264.56500806697397
 30
0.0
 11
317.67760341765728
 21
264.56500806697397
 31
0.0
  0
LINE
  5
1E2E
  8
0
 62
     0
 10
317.04260341765729
 20
264.56500806697397
 30
0.0
 11
317.04260341765729
 21
264.56500806697397
 31
0.0
  0
LINE
  5
1E2F
  8
0
 62
     0
 10
316.40760341765741
 20
264.56500806697397
 30
0.0
 11
316.40760341765741
 21
264.56500806697397
 31
0.0
  0
LINE
  5
1E30
  8
0
 62
     0
 10
315.77260341765742
 20
264.56500806697397
 30
0.0
 11
315.77260341765742
 21
264.56500806697397
 31
0.0
  0
LINE
  5
1E31
  8
0
 62
     0
 10
315.13760341765737
 20
264.56500806697397
 30
0.0
 11
315.13760341765737
 21
264.56500806697397
 31
0.0
  0
LINE
  5
1E32
  8
0
 62
     0
 10
314.50260341765738
 20
264.56500806697397
 30
0.0
 11
314.50260341765738
 21
264.56500806697397
 31
0.0
  0
LINE
  5
1E33
  8
0
 62
     0
 10
313.86760341765739
 20
264.56500806697397
 30
0.0
 11
313.86760341765739
 21
264.56500806697397
 31
0.0
  0
LINE
  5
1E34
  8
0
 62
     0
 10
313.2326034176574
 20
264.56500806697397
 30
0.0
 11
313.2326034176574
 21
264.56500806697397
 31
0.0
  0
LINE
  5
1E35
  8
0
 62
     0
 10
312.59760341765741
 20
264.56500806697397
 30
0.0
 11
312.59760341765741
 21
264.56500806697397
 31
0.0
  0
LINE
  5
1E36
  8
0
 62
     0
 10
311.96260341765742
 20
264.56500806697397
 30
0.0
 11
311.96260341765742
 21
264.56500806697397
 31
0.0
  0
LINE
  5
1E37
  8
0
 62
     0
 10
311.32760341765737
 20
264.56500806697397
 30
0.0
 11
311.32760341765737
 21
264.56500806697397
 31
0.0
  0
LINE
  5
1E38
  8
0
 62
     0
 10
310.69260341765738
 20
264.56500806697397
 30
0.0
 11
310.69260341765738
 21
264.56500806697397
 31
0.0
  0
LINE
  5
1E39
  8
0
 62
     0
 10
310.0576034176575
 20
264.56500806697397
 30
0.0
 11
310.0576034176575
 21
264.56500806697397
 31
0.0
  0
LINE
  5
1E3A
  8
0
 62
     0
 10
309.42260341765751
 20
264.56500806697397
 30
0.0
 11
309.42260341765751
 21
264.56500806697397
 31
0.0
  0
LINE
  5
1E3B
  8
0
 62
     0
 10
308.78760341765741
 20
264.56500806697397
 30
0.0
 11
308.78760341765741
 21
264.56500806697397
 31
0.0
  0
LINE
  5
1E3C
  8
0
 62
     0
 10
308.15260341765747
 20
264.56500806697397
 30
0.0
 11
308.15260341765747
 21
264.56500806697397
 31
0.0
  0
LINE
  5
1E3D
  8
0
 62
     0
 10
307.51760341765748
 20
264.56500806697397
 30
0.0
 11
307.51760341765748
 21
264.56500806697397
 31
0.0
  0
LINE
  5
1E3E
  8
0
 62
     0
 10
296.72260341765718
 20
264.56500806697397
 30
0.0
 11
296.72260341765718
 21
264.56500806697397
 31
0.0
  0
LINE
  5
1E3F
  8
0
 62
     0
 10
296.08760341765731
 20
264.56500806697397
 30
0.0
 11
296.08760341765731
 21
264.56500806697397
 31
0.0
  0
LINE
  5
1E40
  8
0
 62
     0
 10
295.45260341765731
 20
264.56500806697397
 30
0.0
 11
295.45260341765731
 21
264.56500806697397
 31
0.0
  0
LINE
  5
1E41
  8
0
 62
     0
 10
294.81760341765732
 20
264.56500806697397
 30
0.0
 11
294.81760341765732
 21
264.56500806697397
 31
0.0
  0
LINE
  5
1E42
  8
0
 62
     0
 10
294.18260341765728
 20
264.56500806697397
 30
0.0
 11
294.18260341765728
 21
264.56500806697397
 31
0.0
  0
LINE
  5
1E43
  8
0
 62
     0
 10
293.54760341765729
 20
264.56500806697397
 30
0.0
 11
293.54760341765729
 21
264.56500806697397
 31
0.0
  0
LINE
  5
1E44
  8
0
 62
     0
 10
292.91260341765729
 20
264.56500806697397
 30
0.0
 11
292.91260341765729
 21
264.56500806697397
 31
0.0
  0
LINE
  5
1E45
  8
0
 62
     0
 10
292.2776034176573
 20
264.56500806697397
 30
0.0
 11
292.2776034176573
 21
264.56500806697397
 31
0.0
  0
LINE
  5
1E46
  8
0
 62
     0
 10
291.64260341765731
 20
264.56500806697397
 30
0.0
 11
291.64260341765731
 21
264.56500806697397
 31
0.0
  0
LINE
  5
1E47
  8
0
 62
     0
 10
291.00760341765732
 20
264.56500806697397
 30
0.0
 11
291.00760341765732
 21
264.56500806697397
 31
0.0
  0
LINE
  5
1E48
  8
0
 62
     0
 10
290.37260341765727
 20
264.56500806697397
 30
0.0
 11
290.37260341765727
 21
264.56500806697397
 31
0.0
  0
LINE
  5
1E49
  8
0
 62
     0
 10
289.73760341765728
 20
264.56500806697397
 30
0.0
 11
289.73760341765728
 21
264.56500806697397
 31
0.0
  0
LINE
  5
1E4A
  8
0
 62
     0
 10
289.10260341765741
 20
264.56500806697397
 30
0.0
 11
289.10260341765741
 21
264.56500806697397
 31
0.0
  0
LINE
  5
1E4B
  8
0
 62
     0
 10
288.46760341765741
 20
264.56500806697397
 30
0.0
 11
288.46760341765741
 21
264.56500806697397
 31
0.0
  0
LINE
  5
1E4C
  8
0
 62
     0
 10
287.83260341765731
 20
264.56500806697397
 30
0.0
 11
287.83260341765731
 21
264.56500806697397
 31
0.0
  0
LINE
  5
1E4D
  8
0
 62
     0
 10
287.19760341765738
 20
264.56500806697397
 30
0.0
 11
287.19760341765738
 21
264.56500806697397
 31
0.0
  0
LINE
  5
1E4E
  8
0
 62
     0
 10
286.56260341765739
 20
264.56500806697397
 30
0.0
 11
286.56260341765739
 21
264.56500806697397
 31
0.0
  0
LINE
  5
1E4F
  8
0
 62
     0
 10
285.92760341765739
 20
264.56500806697397
 30
0.0
 11
285.92760341765739
 21
264.56500806697397
 31
0.0
  0
LINE
  5
1E50
  8
0
 62
     0
 10
285.2926034176574
 20
264.56500806697397
 30
0.0
 11
285.2926034176574
 21
264.56500806697397
 31
0.0
  0
LINE
  5
1E51
  8
0
 62
     0
 10
284.65760341765741
 20
264.56500806697397
 30
0.0
 11
284.65760341765741
 21
264.56500806697397
 31
0.0
  0
LINE
  5
1E52
  8
0
 62
     0
 10
284.02260341765742
 20
264.56500806697397
 30
0.0
 11
284.02260341765742
 21
264.56500806697397
 31
0.0
  0
LINE
  5
1E53
  8
0
 62
     0
 10
283.38760341765737
 20
264.56500806697397
 30
0.0
 11
283.38760341765737
 21
264.56500806697397
 31
0.0
  0
LINE
  5
1E54
  8
0
 62
     0
 10
282.7526034176575
 20
264.56500806697397
 30
0.0
 11
282.7526034176575
 21
264.56500806697397
 31
0.0
  0
LINE
  5
1E55
  8
0
 62
     0
 10
282.11760341765739
 20
264.56500806697397
 30
0.0
 11
282.11760341765739
 21
264.56500806697397
 31
0.0
  0
LINE
  5
1E56
  8
0
 62
     0
 10
281.4826034176574
 20
264.56500806697397
 30
0.0
 11
281.4826034176574
 21
264.56500806697397
 31
0.0
  0
LINE
  5
1E57
  8
0
 62
     0
 10
280.84760341765752
 20
264.56500806697397
 30
0.0
 11
280.84760341765752
 21
264.56500806697397
 31
0.0
  0
LINE
  5
1E58
  8
0
 62
     0
 10
280.21260341765748
 20
264.56500806697397
 30
0.0
 11
280.21260341765748
 21
264.56500806697397
 31
0.0
  0
LINE
  5
1E59
  8
0
 62
     0
 10
311.01010341765738
 20
265.20000806697402
 30
0.0
 11
311.01010341765738
 21
265.20000806697402
 31
0.0
  0
LINE
  5
1E5A
  8
0
 62
     0
 10
310.37510341765739
 20
265.20000806697402
 30
0.0
 11
310.37510341765739
 21
265.20000806697402
 31
0.0
  0
LINE
  5
1E5B
  8
0
 62
     0
 10
309.74010341765739
 20
265.20000806697402
 30
0.0
 11
309.74010341765739
 21
265.20000806697402
 31
0.0
  0
LINE
  5
1E5C
  8
0
 62
     0
 10
309.10510341765752
 20
265.20000806697402
 30
0.0
 11
309.10510341765752
 21
265.20000806697402
 31
0.0
  0
LINE
  5
1E5D
  8
0
 62
     0
 10
308.47010341765753
 20
265.20000806697402
 30
0.0
 11
308.47010341765753
 21
265.20000806697402
 31
0.0
  0
LINE
  5
1E5E
  8
0
 62
     0
 10
307.83510341765748
 20
265.20000806697402
 30
0.0
 11
307.83510341765748
 21
265.20000806697402
 31
0.0
  0
LINE
  5
1E5F
  8
0
 62
     0
 10
307.20010341765749
 20
265.20000806697402
 30
0.0
 11
307.20010341765749
 21
265.20000806697402
 31
0.0
  0
LINE
  5
1E60
  8
0
 62
     0
 10
297.04010341765741
 20
265.20000806697402
 30
0.0
 11
297.04010341765741
 21
265.20000806697402
 31
0.0
  0
LINE
  5
1E61
  8
0
 62
     0
 10
296.40510341765741
 20
265.20000806697402
 30
0.0
 11
296.40510341765741
 21
265.20000806697402
 31
0.0
  0
LINE
  5
1E62
  8
0
 62
     0
 10
295.77010341765742
 20
265.20000806697402
 30
0.0
 11
295.77010341765742
 21
265.20000806697402
 31
0.0
  0
LINE
  5
1E63
  8
0
 62
     0
 10
295.13510341765738
 20
265.20000806697402
 30
0.0
 11
295.13510341765738
 21
265.20000806697402
 31
0.0
  0
LINE
  5
1E64
  8
0
 62
     0
 10
294.50010341765739
 20
265.20000806697402
 30
0.0
 11
294.50010341765739
 21
265.20000806697402
 31
0.0
  0
LINE
  5
1E65
  8
0
 62
     0
 10
293.86510341765739
 20
265.20000806697402
 30
0.0
 11
293.86510341765739
 21
265.20000806697402
 31
0.0
  0
LINE
  5
1E66
  8
0
 62
     0
 10
293.23010341765752
 20
265.20000806697402
 30
0.0
 11
293.23010341765752
 21
265.20000806697402
 31
0.0
  0
ENDBLK
  5
1E68
  8
0
  0
BLOCK
  8
0
  2
*U13
 70
     1
 10
0.0
 20
0.0
 30
0.0
  3
*U13
  1

  0
TEXT
  5
1E6A
  8
0
 62
     6
 10
436.67734158201017
 20
278.48331466442681
 30
0.0
 40
2.5
  1
呼び50フリ－寸法
 50
90.0
  7
STYLE3
  0
ENDBLK
  5
1E6C
  8
0
  0
BLOCK
  8
0
  2
*U14
 70
     1
 10
0.0
 20
0.0
 30
0.0
  3
*U14
  1

  0
TEXT
  5
1E6E
  8
0
 62
     6
 10
431.3219781515312
 20
323.14246577723509
 30
0.0
 40
2.5
  1
20
 50
90.0
  7
STYLE3
  0
ENDBLK
  5
1E70
  8
0
  0
BLOCK
  8
0
  2
*U15
 70
     1
 10
0.0
 20
0.0
 30
0.0
  3
*U15
  1

  0
TEXT
  5
1E72
  8
0
 62
     6
 10
452.25128805207999
 20
241.56023325680559
 30
0.0
 40
2.5
  1
\U+220550
 50
45.4477464924408
  7
STYLE3
  0
ENDBLK
  5
1E74
  8
0
  0
BLOCK
  8
0
  2
*U16
 70
     1
 10
0.0
 20
0.0
 30
0.0
  3
*U16
  1

  0
TEXT
  5
1E76
  8
0
 62
     6
 10
479.29998410312908
 20
289.77080002330598
 30
0.0
 40
2.5
  1
\U+2205100
 50
0.2178229621216667
  7
STYLE3
  0
ENDBLK
  5
1E78
  8
0
  0
BLOCK
  8
0
  2
*U17
 70
     1
 10
0.0
 20
0.0
 30
0.0
  3
*U17
  1

  0
TEXT
  5
1E7A
  8
0
 62
     6
 10
325.66573378624832
 20
214.18504432069551
 30
0.0
 40
2.5
  1
248.5
  7
STYLE3
  0
ENDBLK
  5
1E7C
  8
0
  0
BLOCK
  8
0
  2
*U18
 70
     1
 10
0.0
 20
0.0
 30
0.0
  3
*U18
  1

  0
TEXT
  5
1E7E
  8
0
 62
     6
 10
436.58205014768902
 20
247.0286608429264
 30
0.0
 40
2.5
  1
50.7
 50
90.0
  7
STYLE3
  0
ENDBLK
  5
1E80
  8
0
  0
BLOCK
  8
0
  2
*U19
 70
     1
 10
0.0
 20
0.0
 30
0.0
  3
*U19
  1

  0
TEXT
  5
1E8A
  8
0
 62
     6
 10
373.52287664339087
 20
285.91469313520469
 30
0.0
 40
2.5
  1
150
  7
STYLE3
  0
ENDBLK
  5
1E8C
  8
0
  0
BLOCK
  8
0
  2
*U20
 70
     1
 10
0.0
 20
0.0
 30
0.0
  3
*U20
  1

  0
TEXT
  5
1E8E
  8
0
 62
     6
 10
328.70144807196237
 20
293.16870899723813
 30
0.0
 40
2.5
  1
246
  7
STYLE3
  0
ENDBLK
  5
1E90
  8
0
  0
BLOCK
  8
0
  2
*U21
 70
     1
 10
0.0
 20
0.0
 30
0.0
  3
*U21
  1

  0
TEXT
  5
1E92
  8
0
 62
     6
 10
429.89680465356997
 20
275.99440284677979
 30
0.0
 40
2.5
  1
1.7
 50
90.0
  7
STYLE3
  0
ENDBLK
  5
1E94
  8
0
  0
BLOCK
  8
0
  2
*U22
 70
     1
 10
0.0
 20
0.0
 30
0.0
  3
*U22
  1

  0
TEXT
  5
1E96
  8
0
 62
     6
 10
429.5838091633583
 20
248.7548513191168
 30
0.0
 40
2.5
  1
44
 50
90.0
  7
STYLE3
  0
ENDBLK
  5
1E98
  8
0
  0
BLOCK
  8
0
  2
*U23
 70
     1
 10
0.0
 20
0.0
 30
0.0
  3
*U23
  1

  0
TEXT
  5
1E9E
  8
寸法線
 62
     6
 10
253.2114728011299
 20
285.91469313520469
 30
0.0
 40
2.5
  1
23
  7
STYLE3
  0
ENDBLK
  5
1EA0
  8
0
  0
BLOCK
  8
0
  2
*U24
 70
     1
 10
0.0
 20
0.0
 30
0.0
  3
*U24
  1

  0
TEXT
  5
1EA2
  8
寸法線
 62
     6
 10
381.2662516481243
 20
261.52866084292663
 30
0.0
 40
2.5
  1
20.7
 50
90.0
  7
STYLE3
  0
ENDBLK
  5
1EA4
  8
0
  0
BLOCK
  8
0
  2
*U25
 70
     1
 10
0.0
 20
0.0
 30
0.0
  3
*U25
  1

  0
TEXT
  5
1EA6
  8
寸法線
 62
     6
 10
429.89680465356997
 20
226.65485131911689
 30
0.0
 40
2.5
  1
5
 50
90.0
  7
STYLE3
  0
ENDBLK
  5
1EA8
  8
0
  0
BLOCK
  8
0
  2
*U26
 70
     1
 10
0.0
 20
0.0
 30
0.0
  3
*U26
  1

  0
TEXT
  5
1EAA
  8
寸法線
 62
     6
 10
417.7628519142234
 20
285.91469313520469
 30
0.0
 40
2.5
  1
3
  7
STYLE3
  0
ENDBLK
  5
1EAC
  8
0
  0
ENDSEC
  0
SECTION
  2
ENTITIES
  0
POLYLINE
  5
10B
  8
C
 66
     1
 10
0.0
 20
0.0
 30
0.0
 40
0.4
 41
0.4
  0
VERTEX
  5
193C
  8
C
 10
236.69156044454141
 20
366.85017525553718
 30
0.0
  0
VERTEX
  5
193D
  8
C
 10
491.69156044454138
 20
366.85017525553718
 30
0.0
  0
VERTEX
  5
193E
  8
C
 10
491.69156044454138
 20
171.85017525553721
 30
0.0
  0
VERTEX
  5
193F
  8
C
 10
236.69156044454141
 20
171.85017525553721
 30
0.0
  0
VERTEX
  5
1940
  8
C
 10
236.69156044454141
 20
366.85017525553718
 30
0.0
  0
SEQEND
  5
1941
  8
C
  0
LINE
  5
16A
  8
中心線
 10
241.752723562596
 20
255.3453275095932
 30
0.0
 11
422.61097463963279
 21
255.34532750959309
 31
0.0
  0
LINE
  5
16C
  8
外形線
 10
307.09242518208231
 20
265.30464133324659
 30
0.0
 11
307.09242518208231
 21
259.34532750959318
 31
0.0
1001
ACAD
1000
ASC_BOUNDS
1002
{
1070
    19
1005
317
1002
}
  0
LINE
  5
16D
  8
外形線
 10
327.09242518208231
 20
264.32655142381128
 30
0.0
 11
327.09242518208242
 21
257.34532750959318
 31
0.0
1001
ACAD
1000
ASC_BOUNDS
1002
{
1070
    19
1005
317
1002
}
  0
LINE
  5
16E
  8
外形線
 10
337.0924251820822
 20
262.45212881358901
 30
0.0
 11
337.0924251820822
 21
248.23852620559731
 31
0.0
  0
LINE
  5
171
  8
外形線
 10
267.09242518208231
 20
262.45212881358901
 30
0.0
 11
267.09242518208231
 21
261.34532750959318
 31
0.0
  0
ARC
  5
173
  8
外形線
 10
302.09242518208231
 20
-41.904672490406881
 30
0.0
 40
307.25
 50
83.625859040713934
 51
96.374140959286052
1001
ACAD
1000
ASC_BOUNDS
1002
{
1070
    19
1005
317
1005
317
1002
}
  0
ARC
  5
175
  8
外形線
 10
302.09242518208231
 20
552.59532750959295
 30
0.0
 40
307.25
 50
263.62585904071392
 51
276.37414095928608
1001
ACAD
1000
ASC_BOUNDS
1002
{
1070
    19
1005
317
1005
317
1002
}
  0
LINE
  5
176
  8
外形線
 10
317.09242518208231
 20
258.84532750959318
 30
0.0
 11
317.09242518208231
 21
251.84532750959309
 31
0.0
  0
LINE
  5
177
  8
外形線
 10
287.0924251820822
 20
258.84532750959318
 30
0.0
 11
287.0924251820822
 21
251.84532750959309
 31
0.0
  0
LINE
  5
178
  8
外形線
 10
287.0924251820822
 20
258.84532750959318
 30
0.0
 11
317.09242518208231
 21
258.84532750959318
 31
0.0
  0
LINE
  5
179
  8
外形線
 10
287.0924251820822
 20
251.84532750959309
 30
0.0
 11
317.09242518208231
 21
251.84532750959309
 31
0.0
  0
LINE
  5
17A
  8
外形線
 10
307.09242518208231
 20
259.34532750959318
 30
0.0
 11
317.59242518208231
 21
259.34532750959318
 31
0.0
1001
ACAD
1000
ASC_BOUNDS
1002
{
1070
    19
1005
317
1002
}
  0
LINE
  5
17C
  8
外形線
 10
317.59242518208231
 20
257.34532750959318
 30
0.0
 11
327.09242518208242
 21
257.34532750959318
 31
0.0
1001
ACAD
1000
ASC_BOUNDS
1002
{
1070
    19
1005
317
1002
}
  0
LINE
  5
17F
  8
外形線
 10
317.59242518208231
 20
259.34532750959318
 30
0.0
 11
317.59242518208231
 21
257.34532750959318
 31
0.0
1001
ACAD
1000
ASC_BOUNDS
1002
{
1070
    19
1005
317
1002
}
  0
LINE
  5
181
  8
外形線
 10
317.59242518208231
 20
253.34532750959309
 30
0.0
 11
327.09242518208242
 21
253.34532750959309
 31
0.0
1001
ACAD
1000
ASC_BOUNDS
1002
{
1070
    19
1005
317
1002
}
  0
LINE
  5
182
  8
外形線
 10
327.09242518208231
 20
246.36410359537501
 30
0.0
 11
327.09242518208242
 21
253.34532750959309
 31
0.0
1001
ACAD
1000
ASC_BOUNDS
1002
{
1070
    19
1005
317
1002
}
  0
LINE
  5
183
  8
外形線
 10
317.59242518208231
 20
251.34532750959309
 30
0.0
 11
317.59242518208231
 21
253.34532750959309
 31
0.0
1001
ACAD
1000
ASC_BOUNDS
1002
{
1070
    19
1005
317
1002
}
  0
LINE
  5
184
  8
外形線
 10
307.09242518208231
 20
251.34532750959309
 30
0.0
 11
317.59242518208231
 21
251.34532750959309
 31
0.0
1001
ACAD
1000
ASC_BOUNDS
1002
{
1070
    19
1005
317
1002
}
  0
LINE
  5
185
  8
外形線
 10
307.09242518208231
 20
245.3860136859397
 30
0.0
 11
307.09242518208231
 21
251.34532750959309
 31
0.0
1001
ACAD
1000
ASC_BOUNDS
1002
{
1070
    19
1005
317
1002
}
  0
LINE
  5
186
  8
外形線
 10
277.0924251820822
 20
246.36410359537501
 30
0.0
 11
277.09242518208208
 21
253.34532750959309
 31
0.0
1001
ACAD
1000
ASC_BOUNDS
1002
{
1070
    19
1005
317
1002
}
  0
LINE
  5
188
  8
外形線
 10
297.0924251820822
 20
245.3860136859397
 30
0.0
 11
297.0924251820822
 21
251.34532750959309
 31
0.0
1001
ACAD
1000
ASC_BOUNDS
1002
{
1070
    19
1005
317
1002
}
  0
LINE
  5
189
  8
外形線
 10
297.0924251820822
 20
251.34532750959309
 30
0.0
 11
286.59242518208231
 21
251.34532750959309
 31
0.0
1001
ACAD
1000
ASC_BOUNDS
1002
{
1070
    19
1005
317
1002
}
  0
LINE
  5
18A
  8
外形線
 10
286.59242518208231
 20
251.34532750959309
 30
0.0
 11
286.59242518208231
 21
253.34532750959309
 31
0.0
1001
ACAD
1000
ASC_BOUNDS
1002
{
1070
    19
1005
317
1002
}
  0
LINE
  5
18B
  8
外形線
 10
286.59242518208231
 20
253.34532750959309
 30
0.0
 11
277.09242518208208
 21
253.34532750959309
 31
0.0
1001
ACAD
1000
ASC_BOUNDS
1002
{
1070
    19
1005
317
1002
}
  0
LINE
  5
18D
  8
外形線
 10
297.0924251820822
 20
265.30464133324659
 30
0.0
 11
297.0924251820822
 21
259.34532750959318
 31
0.0
1001
ACAD
1000
ASC_BOUNDS
1002
{
1070
    19
1005
317
1002
}
  0
LINE
  5
18E
  8
外形線
 10
286.59242518208231
 20
257.34532750959318
 30
0.0
 11
277.09242518208208
 21
257.34532750959318
 31
0.0
1001
ACAD
1000
ASC_BOUNDS
1002
{
1070
    19
1005
317
1002
}
  0
LINE
  5
18F
  8
外形線
 10
277.0924251820822
 20
264.32655142381128
 30
0.0
 11
277.09242518208208
 21
257.34532750959318
 31
0.0
1001
ACAD
1000
ASC_BOUNDS
1002
{
1070
    19
1005
317
1002
}
  0
LINE
  5
190
  8
外形線
 10
286.59242518208231
 20
259.34532750959318
 30
0.0
 11
286.59242518208231
 21
257.34532750959318
 31
0.0
1001
ACAD
1000
ASC_BOUNDS
1002
{
1070
    19
1005
317
1002
}
  0
LINE
  5
191
  8
外形線
 10
297.0924251820822
 20
259.34532750959318
 30
0.0
 11
286.59242518208231
 21
259.34532750959318
 31
0.0
1001
ACAD
1000
ASC_BOUNDS
1002
{
1070
    19
1005
317
1002
}
  0
TEXT
  5
1AE
  8
文字
 10
294.63940479296463
 20
254.1182691942675
 30
0.0
 40
2.5
  1
50-100mm
 41
0.85
  7
STYLE3
  0
LINE
  5
1B2
  8
外形線
 10
337.0924251820822
 20
260.34532750959312
 30
0.0
 11
366.04804605772063
 21
260.34532750959301
 31
0.0
  0
LINE
  5
1B3
  8
外形線
 10
337.0924251820822
 20
250.3453275095932
 30
0.0
 11
362.64637086248121
 21
250.34532750959309
 31
0.0
  0
LINE
  5
1C3
  8
外形線
 10
366.04804605772063
 20
260.34532750959301
 30
0.0
 11
366.13235360240088
 21
260.34532750959301
 31
0.0
  0
LINE
  5
1C4
  8
外形線
 10
365.45155999008551
 20
250.34532750959309
 30
0.0
 11
386.45332810469972
 21
250.34532750959309
 31
0.0
  0
ARC
  5
24E
  8
外形線
 10
268.0924251820822
 20
262.45212881358901
 30
0.0
 40
1.0
 50
96.374140959279515
 51
180.0
  0
ARC
  5
24F
  8
外形線
 10
268.0924251820822
 20
248.23852620559731
 30
0.0
 40
1.0
 50
180.0
 51
263.62585904071119
  0
ARC
  5
250
  8
外形線
 10
336.09242518208231
 20
262.45212881358901
 30
0.0
 40
1.0
 50
0.0
 51
83.625859040714033
  0
ARC
  5
251
  8
外形線
 10
336.09242518208231
 20
248.23852620559731
 30
0.0
 40
1.0
 50
276.37414095928563
 51
0.0
  0
LINE
  5
253
  8
外形線
 10
244.09242518208231
 20
260.04532750959322
 30
0.0
 11
244.09242518208231
 21
253.1548025289043
 31
0.0
  0
LINE
  5
254
  8
外形線
 10
266.0924251820822
 20
260.34532750959318
 30
0.0
 11
266.0924251820822
 21
250.3453275095932
 31
0.0
  0
LINE
  5
255
  8
外形線
 10
255.09242518208231
 20
260.34532750959318
 30
0.0
 11
255.09242518208231
 21
253.1548025289043
 31
0.0
  0
LINE
  5
256
  8
外形線
 10
255.09242518208231
 20
260.34532750959318
 30
0.0
 11
266.0924251820822
 21
260.34532750959318
 31
0.0
  0
LINE
  5
257
  8
外形線
 10
257.00862366917789
 20
250.3453275095932
 30
0.0
 11
266.0924251820822
 21
250.3453275095932
 31
0.0
  0
LINE
  5
25C
  8
外形線
 10
267.0924251820822
 20
249.34532750959309
 30
0.0
 11
267.0924251820822
 21
248.23852620559731
 31
0.0
  0
LINE
  5
25E
  8
外形線
 10
267.09242518208231
 20
261.34532750959318
 30
0.0
 11
267.0924251820822
 21
249.34532750959309
 31
0.0
  0
ARC
  5
25F
  8
外形線
 10
264.85657663052802
 20
248.17215509176219
 30
0.0
 40
2.5
 50
26.57629387126569
 51
60.373799584725838
  0
ARC
  5
260
  8
外形線
 10
264.85657663052802
 20
262.5184999274241
 30
0.0
 40
2.5
 50
299.62620041527418
 51
333.4237061287343
  0
LINE
  5
261
  8
外形線
 10
245.09242518208231
 20
260.54532750959322
 30
0.0
 11
254.0924251820822
 21
260.54532750959322
 31
0.0
  0
LINE
  5
263
  8
外形線
 10
245.0924251820822
 20
259.54532750959322
 30
0.0
 11
254.0924251820822
 21
259.54532750959322
 31
0.0
  0
LINE
  5
264
  8
外形線
 10
254.0924251820822
 20
260.54532750959322
 30
0.0
 11
254.0924251820822
 21
259.54532750959322
 31
0.0
  0
LINE
  5
265
  8
外形線
 10
245.0924251820822
 20
260.54532750959322
 30
0.0
 11
245.0924251820822
 21
259.54532750959322
 31
0.0
  0
LINE
  5
26B
  8
外形線
 10
254.0924251820822
 20
259.54532750959322
 30
0.0
 11
255.09242518208231
 21
259.04532750959311
 31
0.0
  0
LINE
  5
26C
  8
外形線
 10
254.0924251820822
 20
260.54532750959322
 30
0.0
 11
255.09242518208231
 21
260.04532750959322
 31
0.0
  0
LINE
  5
273
  8
外形線
 10
245.0924251820822
 20
260.54532750959322
 30
0.0
 11
244.09242518208231
 21
260.04532750959322
 31
0.0
  0
LINE
  5
274
  8
外形線
 10
245.0924251820822
 20
259.54532750959322
 30
0.0
 11
244.09242518208231
 21
259.04532750959311
 31
0.0
  0
LINE
  5
275
  8
外形線
 10
245.0924251820822
 20
260.54532750959322
 30
0.0
 11
245.0924251820822
 21
259.54532750959322
 31
0.0
  0
LINE
  5
276
  8
中心線
 10
249.59242518208231
 20
258.43142320016779
 30
0.0
 11
249.5924251820822
 21
236.25923181901859
 31
0.0
  0
LINE
  5
277
  8
中心線
 10
239.1065644964776
 20
247.3453275095932
 30
0.0
 11
259.974233801926
 21
247.3453275095932
 31
0.0
  0
CIRCLE
  5
278
  8
外形線
 10
249.5924251820822
 20
247.3453275095932
 30
0.0
 40
8.0
  0
TEXT
  5
27E
  8
文字
 10
289.3704128721804
 20
253.9682505453828
 30
0.0
 40
1.0
  1
CG-3
  7
STYLE3
  0
ARC
  5
2F6
  8
外形線
 10
287.0924251820822
 20
245.1953310445991
 30
0.0
 40
2.0
 50
12.330391968689311
 51
162.08238913091691
1001
ACAD
1000
ASC_BOUNDS
1002
{
1070
    19
1005
317
1002
}
  0
INSERT
  5
317
  8
ﾊｯﾁﾝｸ
  6
CONTINUOUS
  2
*X12
 10
0.0
 20
0.0
 30
0.0
1001
ACAD
1000
HATCH
1002
{
1070
    19
1000
DOTS
1040
0.4
1040
0.0
1000
ASC_BOUNDS
1070
     4
1070
     1
1070
     7
1005
188
1005
2F6
1005
175
1005
186
1005
18B
1005
18A
1005
189
1070
     1
1070
     6
1005
182
1005
175
1005
185
1005
184
1005
183
1005
181
1070
     1
1070
     6
1005
16D
1005
17C
1005
17F
1005
17A
1005
16C
1005
173
1070
     1
1070
     6
1005
18D
1005
191
1005
190
1005
18E
1005
18F
1005
173
1000
ASC_SEEDPOINT
1011
281.52439472355309
1021
0.0
1031
0.0
1021
260.22921235913788
1031
0.0
1000
R14_HATCH_DATA
1000
317
1011
1.0
1021
0.0
1031
0.0
1021
0.0
1031
0.0
1011
0.0
1021
0.0
1031
0.0
1021
1.0
1031
0.0
1011
0.0
1021
0.0
1031
0.0
1021
0.0
1031
1.0
1040
0.0
1010
0.0
1020
0.0
1030
1.0
1000
DOTS
1070
     0
1070
     1
1071
        4
1071
        7
1070
     1
1070
     1
1071
        6
1040
286.59242518208231
1040
257.34532750959318
1040
0.0
1040
286.59242518208231
1040
259.34532750959318
1040
0.0
1040
297.0924251820822
1040
259.34532750959312
1040
0.0
1040
297.0924251820822
1040
265.30464133324648
1040
0.0162971688498792
1040
277.0924251820822
1040
264.32655142381122
1040
0.0
1040
277.09242518208208
1040
257.34532750959318
1040
0.0
1071
        6
1005
173
1005
18F
1005
18E
1005
190
1005
191
1005
18D
1071
        7
1070
     1
1070
     1
1071
        6
1040
317.5924251820822
1040
259.34532750959318
1040
0.0
1040
317.59242518208231
1040
257.34532750959318
1040
0.0
1040
327.09242518208242
1040
257.34532750959318
1040
0.0
1040
327.09242518208231
1040
264.32655142381122
1040
0.0162971688498792
1040
307.09242518208231
1040
265.30464133324648
1040
0.0
1040
307.09242518208231
1040
259.34532750959318
1040
0.0
1071
        6
1005
173
1005
16C
1005
17A
1005
17F
1005
17C
1005
16D
1071
        7
1070
     1
1070
     1
1071
        6
1040
327.09242518208231
1040
246.3641035953751
1040
0.0
1040
327.09242518208231
1040
253.34532750959309
1040
0.0
1040
317.59242518208231
1040
253.34532750959309
1040
0.0
1040
317.5924251820822
1040
251.34532750959309
1040
0.0
1040
307.09242518208231
1040
251.3453275095932
1040
0.0
1040
307.09242518208231
1040
245.3860136859397
1040
0.0162971688498792
1071
        6
1005
181
1005
183
1005
184
1005
185
1005
175
1005
182
1071
        7
1070
     1
1070
     1
1071
        8
1040
285.18942540718467
1040
245.81062922982269
1040
-0.7656091570196754
1040
289.04629005641351
1040
245.6224282851131
1040
0.0065500023894979
1040
297.0924251820822
1040
245.3860136859397
1040
0.0
1040
297.0924251820822
1040
251.34532750959309
1040
0.0
1040
286.59242518208231
1040
251.34532750959309
1040
0.0
1040
286.59242518208231
1040
253.34532750959309
1040
0.0
1040
277.09242518208208
1040
253.34532750959309
1040
0.0
1040
277.0924251820822
1040
246.3641035953751
1040
0.006603945187105
1071
        7
1005
189
1005
18A
1005
18B
1005
186
1005
175
1005
2F6
1005
188
1070
     0
1070
     1
1040
0.0
1040
0.4
1070
     0
1070
     1
1040
0.0
1040
-8.0773965823425442
1040
19.45500806697402
1040
0.3175
1040
0.635
1070
     2
1040
0.0
1040
-0.635
1040
0.3765170278403226
1071
        4
1040
281.52439472355309
1040
260.22921235913788
1040
0.0
1040
320.33769832923792
1040
260.60572911534251
1040
0.0
1040
320.71452639480509
1040
248.18066751484201
1040
0.0
1040
283.4085358546555
1040
248.9337014822907
1040
0.0
1002
}
  0
POINT
  5
39F
  8
DEFPOINTS
  6
BYBLOCK
 62
     0
 10
244.09242518208231
 20
259.04532750959311
 30
0.0
  0
POINT
  5
3A7
  8
DEFPOINTS
  6
BYBLOCK
 62
     0
 10
337.0924251820822
 20
262.45212881358901
 30
0.0
  0
LINE
  5
403
  8
外形線
 10
315.59242518208231
 20
257.84532750959318
 30
0.0
 11
315.59242518208231
 21
252.8453275095932
 31
0.0
  0
LINE
  5
404
  8
外形線
 10
288.59242518208231
 20
257.84532750959318
 30
0.0
 11
288.59242518208231
 21
252.8453275095932
 31
0.0
  0
LINE
  5
405
  8
外形線
 10
288.59242518208231
 20
257.84532750959318
 30
0.0
 11
315.59242518208231
 21
257.84532750959318
 31
0.0
  0
LINE
  5
406
  8
外形線
 10
288.59242518208231
 20
252.8453275095932
 30
0.0
 11
315.59242518208231
 21
252.8453275095932
 31
0.0
  0
LINE
  5
4DE
  8
外形線
 10
367.03939023312711
 20
320.52341815818761
 30
0.0
 11
386.45332810469978
 21
320.52341815818761
 31
0.0
  0
LINE
  5
4DF
  8
外形線
 10
370.52537279241602
 20
330.52341815818761
 30
0.0
 11
386.45332810469972
 21
330.52341815818761
 31
0.0
  0
INSERT
  5
523
  8
外形線
  2
六角ﾈｼ
 10
386.45332810469972
 20
255.34532750959309
 30
0.0
 41
-1.0
 50
180.0
  0
LINE
  5
524
  8
外形線
 10
386.45332810469972
 20
330.7234181581876
 30
0.0
 11
386.45332810469989
 21
320.32341815818768
 31
0.0
  0
LINE
  5
525
  8
外形線
 10
388.95332810470018
 20
255.34532750959309
 30
0.0
 11
386.45332810469978
 21
255.34532750959309
 31
0.0
  0
LINE
  5
527
  8
中心線
 10
365.18416228361002
 20
325.5234181581875
 30
0.0
 11
422.6059657049048
 21
325.5234181581875
 31
0.0
  0
POINT
  5
581
  8
DEFPOINTS
  6
BYBLOCK
 62
     0
 10
337.0924251820822
 20
262.45212881358901
 30
0.0
  0
LINE
  5
5D9
  8
0
  6
BYBLOCK
 62
     2
 10
373.764476859019
 20
257.84532750959312
 30
0.0
 11
373.764476859019
 21
252.8453275095932
 31
0.0
  0
INSERT
  5
5DA
  8
0
  6
BYBLOCK
 62
     2
  2
_OPEN
 10
373.764476859019
 20
260.34532750959312
 30
0.0
 41
2.5
 42
2.5
 43
2.5
 50
90.0
  0
INSERT
  5
5DB
  8
0
  6
BYBLOCK
 62
     2
  2
_OPEN
 10
373.764476859019
 20
250.3453275095932
 30
0.0
 41
2.5
 42
2.5
 43
2.5
 50
270.0
  0
POINT
  5
66B
  8
DEFPOINTS
  6
BYBLOCK
 62
     0
 10
417.45332810469949
 20
329.57341815818751
 30
0.0
  0
POINT
  5
66C
  8
DEFPOINTS
  6
BYBLOCK
 62
     0
 10
417.45332810469949
 20
321.47341815818749
 30
0.0
  0
LINE
  5
766
  8
外形線
 10
386.45332810469972
 20
330.7234181581876
 30
0.0
 11
388.95332810469961
 21
330.7234181581876
 31
0.0
  0
LINE
  5
767
  8
外形線
 10
388.95332810470012
 20
328.12341815818758
 30
0.0
 11
386.45332810469978
 21
328.12341815818758
 31
0.0
  0
LINE
  5
768
  8
外形線
 10
388.95332810469978
 20
322.92341815818759
 30
0.0
 11
386.45332810469972
 21
322.92341815818759
 31
0.0
  0
LINE
  5
769
  8
外形線
 10
386.45332810469989
 20
320.32341815818768
 30
0.0
 11
388.95332810469961
 21
320.32341815818768
 31
0.0
  0
LINE
  5
76A
  8
外形線
 10
386.45332810469961
 20
260.34532750959301
 30
0.0
 11
386.45332810469972
 21
250.34532750959309
 31
0.0
  0
ARC
  5
76B
  8
外形線
 10
387.5133281046995
 20
321.6234181581878
 30
0.0
 40
1.940000000000166
 50
317.92497794915579
 51
42.075022050834569
  0
ARC
  5
76C
  8
外形線
 10
382.443328104697
 20
325.52341815818818
 30
0.0
 40
7.0100000000027221
 50
338.2289458906867
 51
21.771054109304352
  0
ARC
  5
76D
  8
外形線
 10
387.5133281046995
 20
329.42341815818747
 30
0.0
 40
1.940000000000166
 50
317.92497794916551
 51
42.07502205084424
  0
LINE
  5
76E
  8
外形線
 10
389.45332810469972
 20
321.6234181581878
 30
0.0
 11
389.45332810469972
 21
329.42341815818747
 31
0.0
  0
LINE
  5
778
  8
外形線
 10
390.45332810469972
 20
266.34532750959312
 30
0.0
 11
390.45332810469972
 21
265.99097143333211
 31
0.0
  0
LINE
  5
77A
  8
外形線
 10
410.95332810469972
 20
266.34532750959301
 30
0.0
 11
410.95332810469972
 21
266.11874433587502
 31
0.0
  0
LINE
  5
77B
  8
外形線
 10
420.45332810469949
 20
267.34532750959301
 30
0.0
 11
420.45332810469989
 21
228.27834021148541
 31
0.0
  0
LINE
  5
77C
  8
外形線
 10
391.45332810469989
 20
249.34532750959309
 30
0.0
 11
407.95332810469978
 21
249.34532750959301
 31
0.0
  0
LINE
  5
77D
  8
外形線
 10
411.95332810469961
 20
267.34532750959301
 30
0.0
 11
414.82269045052033
 21
267.34532750959301
 31
0.0
  0
LINE
  5
77E
  8
外形線
 10
389.45332810469978
 20
259.09532750959312
 30
0.0
 11
390.45332810469972
 21
259.09532750959312
 31
0.0
  0
LINE
  5
77F
  8
外形線
 10
389.45332810469972
 20
251.59532750959309
 30
0.0
 11
390.45332810469978
 21
251.59532750959309
 31
0.0
  0
LINE
  5
780
  8
外形線
 10
391.45332810469972
 20
267.34532750959312
 30
0.0
 11
391.80768418096068
 21
267.34532750959312
 31
0.0
  0
LINE
  5
78E
  8
中心線
 10
392.95332810469972
 20
268.55505141782368
 30
0.0
 11
392.95332810469972
 21
258.71366915787081
 31
0.0
  0
LINE
  5
78F
  8
中心線
 10
389.5850394991275
 20
264.84532750959312
 30
0.0
 11
395.9217561264872
 21
264.84532750959312
 31
0.0
  0
CIRCLE
  5
790
  8
外形線
 10
392.95332810469961
 20
264.84532750959312
 30
0.0
 40
1.5
  0
LINE
  5
792
  8
中心線
 10
412.45332810469949
 20
266.44026405901462
 30
0.0
 11
412.45332810469961
 21
262.9218558019482
 31
0.0
  0
LINE
  5
793
  8
中心線
 10
410.8583915552781
 20
264.84532750959301
 30
0.0
 11
414.04826465412111
 21
264.84532750959301
 31
0.0
  0
CIRCLE
  5
794
  8
外形線
 10
412.45332810469949
 20
264.84532750959301
 30
0.0
 40
0.9849999999999999
  0
LINE
  5
797
  8
中心線
 10
409.45332810469972
 20
253.2833266650766
 30
0.0
 11
409.45332810469972
 21
249.323692563409
 31
0.0
  0
LINE
  5
798
  8
中心線
 10
407.47351105386582
 20
251.34532750959309
 30
0.0
 11
411.43314515553351
 21
251.34532750959309
 31
0.0
  0
LINE
  5
7AF
  8
中心線
 10
417.45332810469949
 20
280.6573455982558
 30
0.0
 11
417.45332810469972
 21
221.83423419360881
 31
0.0
  0
CIRCLE
  5
803
  8
外形線
 10
406.95332810469972
 20
270.84532750959312
 30
0.0
 40
1.5
  0
LINE
  5
80B
  8
外形線
 10
418.45332810469961
 20
267.34532750959301
 30
0.0
 11
420.45332810469949
 21
267.34532750959301
 31
0.0
  0
LINE
  5
819
  8
中心線
 10
406.95332810469972
 20
273.18540368020581
 30
0.0
 11
406.95332810469972
 21
268.50525133898037
 31
0.0
  0
LINE
  5
81A
  8
中心線
 10
404.61325193408692
 20
270.84532750959312
 30
0.0
 11
409.2934042753123
 21
270.84532750959312
 31
0.0
  0
LINE
  5
849
  8
外形線
 10
418.50332810469962
 20
275.44532750959303
 30
0.0
 11
418.25332810469962
 21
275.44532750959303
 31
0.0
  0
ARC
  5
84A
  8
外形線
 10
417.45332810469949
 20
275.04532750959311
 30
0.0
 40
1.0
 50
23.578178478193848
 51
156.42182152180311
  0
LINE
  5
84B
  8
外形線
 10
416.4033281047021
 20
274.65913952426422
 30
0.0
 11
416.40332810469948
 21
275.44532750959291
 31
0.0
  0
POINT
  5
84C
  8
DEFPOINTS
  6
BYBLOCK
 62
     0
 10
417.45332810469949
 20
276.04532750959299
 30
0.0
  0
POINT
  5
84D
  8
DEFPOINTS
  6
BYBLOCK
 62
     0
 10
417.45332810469949
 20
276.04532750959299
 30
0.0
  0
POINT
  5
84E
  8
DEFPOINTS
  6
BYBLOCK
 62
     0
 10
417.45332810469949
 20
276.04532750959299
 30
0.0
  0
LINE
  5
84F
  8
外形線
 10
418.50332810469951
 20
274.34532750959301
 30
0.0
 11
418.50332810469962
 21
275.44532750959291
 31
0.0
  0
LINE
  5
850
  8
外形線
 10
418.50332810469939
 20
275.44532750959303
 30
0.0
 11
418.25332810469962
 21
275.44532750959308
 31
0.0
  0
LINE
  5
85E
  8
外形線
 10
390.45332810469972
 20
321.5234181581875
 30
0.0
 11
390.45332810469972
 21
329.5234181581875
 31
0.0
  0
LINE
  5
85F
  8
外形線
 10
420.45332810469949
 20
321.5234181581875
 30
0.0
 11
420.45332810469949
 21
329.5234181581875
 31
0.0
  0
LINE
  5
860
  8
外形線
 10
410.95332810469972
 20
321.5234181581875
 30
0.0
 11
410.95332810469961
 21
329.5234181581875
 31
0.0
  0
LINE
  5
8BD
  8
外形線
 10
390.45332810469972
 20
329.5234181581875
 30
0.0
 11
405.45332810469961
 21
329.5234181581875
 31
0.0
  0
LINE
  5
8BE
  8
外形線
 10
390.45332810469972
 20
321.5234181581875
 30
0.0
 11
405.45332810470052
 21
321.5234181581875
 31
0.0
  0
LINE
  5
8BF
  8
外形線
 10
408.45332810470109
 20
323.02341815818761
 30
0.0
 11
416.30768418096051
 21
323.02341815818761
 31
0.0
  0
LINE
  5
8C2
  8
外形線
 10
389.45332810469978
 20
259.09532750959312
 30
0.0
 11
389.45332810469972
 21
251.59532750959309
 31
0.0
  0
POINT
  5
9FE
  8
DEFPOINTS
  6
BYBLOCK
 62
     0
 10
417.45332810469949
 20
276.04532750959299
 30
0.0
  0
CIRCLE
  5
FA6
  8
外形線
 10
417.45332810469961
 20
325.5234181581875
 30
0.0
 40
2.75
  0
CIRCLE
  5
FA9
  8
外形線
 10
417.45332810469961
 20
325.5234181581875
 30
0.0
 40
1.3
  0
CIRCLE
  5
FAA
  8
外形線
 10
417.45332810469961
 20
325.5234181581875
 30
0.0
 40
1.0
  0
LINE
  5
FC2
  8
外形線
 10
418.59897202843871
 20
323.02341815818761
 30
0.0
 11
420.45332810469949
 21
323.02341815818761
 31
0.0
  0
LINE
  5
FC3
  8
外形線
 10
389.45332810469978
 20
329.2734181581875
 30
0.0
 11
390.45332810469972
 21
329.2734181581875
 31
0.0
  0
LINE
  5
FC4
  8
外形線
 10
389.45332810469972
 20
321.7734181581875
 30
0.0
 11
390.45332810469978
 21
321.7734181581875
 31
0.0
  0
LINE
  5
FC5
  8
外形線
 10
389.45332810469978
 20
329.2734181581875
 30
0.0
 11
389.45332810469972
 21
321.7734181581875
 31
0.0
  0
LINE
  5
FC6
  8
中心線
 10
392.95332810469972
 20
312.59710534422601
 30
0.0
 11
392.95332810469972
 21
338.57566757287339
 31
0.0
  0
LINE
  5
FC7
  8
中心線
 10
406.95332810469949
 20
311.9248365215845
 30
0.0
 11
406.95332810469961
 21
338.42066299379502
 31
0.0
  0
LINE
  5
FCB
  8
外形線
 10
418.45332810469961
 20
335.5234181581875
 30
0.0
 11
418.45332810469961
 21
333.5234181581875
 31
0.0
  0
LINE
  5
1097
  8
外形線
 10
405.45332810470052
 20
321.5234181581875
 30
0.0
 11
405.45332810469949
 21
333.5234181581875
 31
0.0
  0
LINE
  5
10B3
  8
外形線
 10
392.16424348887222
 20
265.63441212542051
 30
0.0
 11
393.74241272052711
 21
264.05624289376561
 31
0.0
  0
LINE
  5
10B5
  8
外形線
 10
393.74241272052711
 20
265.63441212542051
 30
0.0
 11
392.16424348887222
 21
264.05624289376561
 31
0.0
  0
LINE
  5
10B6
  8
外形線
 10
406.1642434888721
 20
271.63441212542062
 30
0.0
 11
407.742412720527
 21
270.05624289376578
 31
0.0
  0
LINE
  5
10B7
  8
外形線
 10
407.742412720527
 20
271.63441212542062
 30
0.0
 11
406.1642434888721
 21
270.05624289376578
 31
0.0
  0
CIRCLE
  5
10B8
  8
外形線
 10
409.45332810469972
 20
251.34532750959309
 30
0.0
 40
1.25
  0
LINE
  5
10BC
  8
外形線
 10
408.76950803365321
 20
252.0291475806394
 30
0.0
 11
410.13714817574601
 21
250.66150743854661
 31
0.0
  0
LINE
  5
10BD
  8
外形線
 10
410.13714817574612
 20
252.02914758063949
 30
0.0
 11
408.76950803365332
 21
250.66150743854669
 31
0.0
  0
CIRCLE
  5
10C2
  8
外形線
 10
418.95332810469961
 20
251.34532750959309
 30
0.0
 40
1.25
  0
LINE
  5
10C3
  8
外形線
 10
419.63714817574612
 20
252.02914758063949
 30
0.0
 11
418.2695080336531
 21
250.66150743854669
 31
0.0
  0
LINE
  5
10C4
  8
外形線
 10
418.2695080336531
 20
252.02914758063949
 30
0.0
 11
419.63714817574601
 21
250.66150743854669
 31
0.0
  0
LINE
  5
10F3
  8
外形線
 10
390.45332810469972
 20
335.5234181581875
 30
0.0
 11
418.45332810469961
 21
335.5234181581875
 31
0.0
  0
LINE
  5
10F4
  8
外形線
 10
390.45332810469972
 20
333.5234181581875
 30
0.0
 11
411.46832810469948
 21
333.5234181581875
 31
0.0
  0
LINE
  5
10F7
  8
外形線
 10
390.45332810469972
 20
333.5234181581875
 30
0.0
 11
390.45332810469972
 21
335.5234181581875
 31
0.0
  0
LINE
  5
10F8
  8
外形線
 10
391.90332810469971
 20
336.82341815818751
 30
0.0
 11
394.00332810469968
 21
336.82341815818751
 31
0.0
  0
LINE
  5
10F9
  8
外形線
 10
391.20332810469972
 20
335.5234181581875
 30
0.0
 11
391.20332810469972
 21
336.12341815818752
 31
0.0
  0
LINE
  5
10FA
  8
外形線
 10
394.70332810469961
 20
335.5234181581875
 30
0.0
 11
394.70332810469961
 21
336.12341815818752
 31
0.0
  0
ARC
  5
10FB
  8
外形線
 10
391.90332810469971
 20
336.12341815818752
 30
0.0
 40
0.7
 50
90.0
 51
180.00000000000011
  0
ARC
  5
10FC
  8
外形線
 10
394.00332810469968
 20
336.12341815818752
 30
0.0
 40
0.7
 50
0.0000000000001527
 51
90.0
  0
LINE
  5
10FD
  8
外形線
 10
405.9033281046996
 20
336.82341815818751
 30
0.0
 11
408.00332810469962
 21
336.82341815818751
 31
0.0
  0
LINE
  5
10FE
  8
外形線
 10
405.20332810469972
 20
335.5234181581875
 30
0.0
 11
405.20332810469972
 21
336.12341815818752
 31
0.0
  0
ARC
  5
10FF
  8
外形線
 10
405.9033281046996
 20
336.12341815818752
 30
0.0
 40
0.7
 50
90.0
 51
180.00000000000011
  0
LINE
  5
1100
  8
外形線
 10
408.70332810469949
 20
335.5234181581875
 30
0.0
 11
408.70332810469961
 21
336.12341815818752
 31
0.0
  0
ARC
  5
1101
  8
外形線
 10
408.00332810469962
 20
336.12341815818752
 30
0.0
 40
0.7
 50
0.0000000000001527
 51
90.0
  0
LINE
  5
1102
  8
外形線
 10
391.90332810469971
 20
314.22341815818749
 30
0.0
 11
394.00332810469968
 21
314.22341815818749
 31
0.0
  0
LINE
  5
1103
  8
外形線
 10
390.45332810469972
 20
315.5234181581875
 30
0.0
 11
418.45332810469961
 21
315.5234181581875
 31
0.0
  0
LINE
  5
1104
  8
外形線
 10
390.45332810469972
 20
317.5234181581875
 30
0.0
 11
411.46832810469948
 21
317.5234181581875
 31
0.0
  0
LINE
  5
1105
  8
外形線
 10
391.20332810469972
 20
315.5234181581875
 30
0.0
 11
391.20332810469972
 21
314.92341815818747
 31
0.0
  0
ARC
  5
1106
  8
外形線
 10
391.90332810469971
 20
314.92341815818747
 30
0.0
 40
0.7
 50
179.9999999999998
 51
270.0
  0
LINE
  5
1107
  8
外形線
 10
390.45332810469972
 20
317.5234181581875
 30
0.0
 11
390.45332810469972
 21
315.5234181581875
 31
0.0
  0
LINE
  5
1109
  8
外形線
 10
394.70332810469961
 20
315.5234181581875
 30
0.0
 11
394.70332810469961
 21
314.92341815818747
 31
0.0
  0
ARC
  5
110A
  8
外形線
 10
394.00332810469968
 20
314.92341815818747
 30
0.0
 40
0.7
 50
270.0
 51
359.99999999999977
  0
LINE
  5
110C
  8
外形線
 10
405.9033281046996
 20
314.22341815818749
 30
0.0
 11
408.00332810469962
 21
314.22341815818749
 31
0.0
  0
ARC
  5
110D
  8
外形線
 10
405.9033281046996
 20
314.92341815818747
 30
0.0
 40
0.7
 50
179.9999999999998
 51
270.0
  0
LINE
  5
110E
  8
外形線
 10
405.20332810469972
 20
315.5234181581875
 30
0.0
 11
405.20332810469972
 21
314.92341815818747
 31
0.0
  0
LINE
  5
110F
  8
外形線
 10
405.45332810469961
 20
321.52341815818738
 30
0.0
 11
405.45332810469949
 21
317.5234181581875
 31
0.0
  0
ARC
  5
1110
  8
外形線
 10
408.00332810469962
 20
314.92341815818747
 30
0.0
 40
0.7
 50
270.0
 51
359.99999999999977
  0
LINE
  5
1111
  8
外形線
 10
408.70332810469949
 20
315.5234181581875
 30
0.0
 11
408.70332810469961
 21
314.92341815818747
 31
0.0
  0
LINE
  5
1112
  8
外形線
 10
408.45332810470171
 20
333.5234181581875
 30
0.0
 11
408.45332810469938
 21
317.5234181581875
 31
0.0
  0
LINE
  5
1113
  8
外形線
 10
418.45332810469961
 20
315.5234181581875
 30
0.0
 11
418.45332810469961
 21
317.5234181581875
 31
0.0
  0
POINT
  5
1114
  8
DEFPOINTS
  6
BYBLOCK
 62
     0
 10
417.45332810469949
 20
321.47341815818749
 30
0.0
  0
LINE
  5
1115
  8
外形線
 10
396.45332810469972
 20
321.5234181581875
 30
0.0
 11
396.45332810469972
 21
329.5234181581875
 31
0.0
  0
LINE
  5
111C
  8
外形線
 10
408.45332810469961
 20
329.5234181581875
 30
0.0
 11
420.45332810469949
 21
329.5234181581875
 31
0.0
  0
LINE
  5
111D
  8
外形線
 10
408.45332810470143
 20
321.5234181581875
 30
0.0
 11
420.45332810469949
 21
321.5234181581875
 31
0.0
  0
LINE
  5
1127
  8
中心線
 10
412.45332810469949
 20
337.03131976275318
 30
0.0
 11
412.45332810469961
 21
314.30995108183362
 31
0.0
  0
LINE
  5
1128
  8
外形線
 10
411.46832810469948
 20
315.5234181581875
 30
0.0
 11
411.46832810469948
 21
318.5234181581875
 31
0.0
  0
LINE
  5
1129
  8
外形線
 10
413.43832810469951
 20
315.5234181581875
 30
0.0
 11
413.43832810469962
 21
318.5234181581875
 31
0.0
  0
LINE
  5
112C
  8
外形線
 10
411.46832810469959
 20
329.5234181581875
 30
0.0
 11
411.46832810469948
 21
331.92341815818747
 31
0.0
  0
LINE
  5
112E
  8
外形線
 10
413.43832810469962
 20
333.5234181581875
 30
0.0
 11
418.45332810469961
 21
333.5234181581875
 31
0.0
  0
LINE
  5
118E
  8
中心線
 10
461.77719577704619
 20
278.77352361212792
 30
0.0
 11
461.77719577704619
 21
221.87194625587679
 31
0.0
  0
LINE
  5
118F
  8
外形線
 10
457.77719577704619
 20
267.34532750959318
 30
0.0
 11
457.77719577704642
 21
230.34532750959309
 31
0.0
  0
LINE
  5
1190
  8
外形線
 10
465.77719577704619
 20
267.34532750959312
 30
0.0
 11
465.7771957770463
 21
230.34532750959309
 31
0.0
  0
LINE
  5
1192
  8
外形線
 10
457.7771957770463
 20
267.34532750959318
 30
0.0
 11
465.77719577704619
 21
267.34532750959318
 31
0.0
  0
LINE
  5
1193
  8
外形線
 10
459.27719577704619
 20
267.34532750959318
 30
0.0
 11
459.27719577704619
 21
246.34532750959309
 31
0.0
  0
LINE
  5
1198
  8
外形線
 10
453.77719577704619
 20
275.84532750959312
 30
0.0
 11
453.77719577704607
 21
259.84532750959312
 31
0.0
  0
LINE
  5
1199
  8
外形線
 10
451.77719577704607
 20
273.84532750959312
 30
0.0
 11
451.77719577704607
 21
259.84532750959301
 31
0.0
  0
LINE
  5
11A8
  8
中心線
 10
453.6247871568209
 20
255.34532750959301
 30
0.0
 11
469.54213374437052
 21
255.34532750959301
 31
0.0
  0
LINE
  5
11B6
  8
中心線
 10
449.91646878936172
 20
270.84532750959312
 30
0.0
 11
474.2600739048703
 21
270.84532750959312
 31
0.0
  0
LINE
  5
11B7
  8
外形線
 10
450.47719577704618
 20
271.89532750959307
 30
0.0
 11
450.47719577704618
 21
269.79532750959322
 31
0.0
  0
LINE
  5
11B9
  8
外形線
 10
451.77719577704619
 20
269.09532750959318
 30
0.0
 11
451.17719577704622
 21
269.09532750959318
 31
0.0
  0
ARC
  5
11BA
  8
外形線
 10
451.17719577704622
 20
269.79532750959322
 30
0.0
 40
0.7
 50
180.0
 51
269.99999999999977
  0
LINE
  5
11BD
  8
外形線
 10
451.77719577704619
 20
272.59532750959312
 30
0.0
 11
451.17719577704622
 21
272.59532750959312
 31
0.0
  0
ARC
  5
11BE
  8
外形線
 10
451.17719577704622
 20
271.89532750959307
 30
0.0
 40
0.7
 50
89.999999999999844
 51
180.0
  0
ARC
  5
1246
  8
外形線
 10
453.77719577704619
 20
273.84532750959312
 30
0.0
 40
2.0
 50
90.000000000001606
 51
180.0
  0
POINT
  5
1289
  8
DEFPOINTS
  6
BYBLOCK
 62
     0
 10
420.45332810469949
 20
267.34532750959301
 30
0.0
  0
POINT
  5
1290
  8
DEFPOINTS
  6
BYBLOCK
 62
     0
 10
337.0924251820822
 20
262.45212881358901
 30
0.0
  0
INSERT
  5
129F
  8
寸法線
  2
*U13
 10
0.0
 20
0.0
 30
0.0
  0
POINT
  5
12B3
  8
DEFPOINTS
  6
BYBLOCK
 62
     0
 10
417.45332810469949
 20
276.04532750959299
 30
0.0
  0
POINT
  5
12B5
  8
DEFPOINTS
  6
BYBLOCK
 62
     0
 10
385.00979421459499
 20
255.34532750959301
 30
0.0
  0
POINT
  5
12CC
  8
DEFPOINTS
  6
BYBLOCK
 62
     0
 10
241.5924251820822
 20
247.3453275095932
 30
0.0
  0
LINE
  5
12FC
  8
外形線
 10
390.45332810469978
 20
250.34532750959309
 30
0.0
 11
391.45332810469989
 21
249.34532750959309
 31
0.0
  0
LINE
  5
12FD
  8
外形線
 10
410.95332810469972
 20
266.34532750959301
 30
0.0
 11
411.95332810469961
 21
267.34532750959301
 31
0.0
  0
LINE
  5
12FE
  8
中心線
 10
418.95332810469961
 20
252.99686185092341
 30
0.0
 11
418.95332810469961
 21
249.6750775131724
 31
0.0
  0
LINE
  5
1300
  8
中心線
 10
417.21414001039187
 20
251.34532750959309
 30
0.0
 11
421.17377411205962
 21
251.34532750959309
 31
0.0
  0
LINE
  5
1301
  8
外形線
 10
411.45332810469989
 20
230.34532750959309
 30
0.0
 11
420.45332810469978
 21
230.34532750959309
 31
0.0
  0
LINE
  5
1302
  8
外形線
 10
410.95332810469972
 20
246.34532750959309
 30
0.0
 11
410.95332810469989
 21
230.84532750959309
 31
0.0
  0
ARC
  5
1303
  8
外形線
 10
407.95332810469978
 20
246.34532750959301
 30
0.0
 40
3.0
 50
0.0000000000005343
 51
90.000000000000099
  0
LINE
  5
1304
  8
外形線
 10
411.45332810469989
 20
230.34532750959309
 30
0.0
 11
410.95332810469989
 21
230.84532750959309
 31
0.0
  0
LINE
  5
1305
  8
外形線
 10
410.95332810469972
 20
246.34532750959309
 30
0.0
 11
420.45332810469978
 21
246.34532750959309
 31
0.0
  0
LINE
  5
130F
  8
外形線
 10
457.7771957770463
 20
246.34532750959309
 30
0.0
 11
459.27719577704619
 21
246.34532750959301
 31
0.0
  0
LINE
  5
1310
  8
外形線
 10
457.77719577704642
 20
230.34532750959309
 30
0.0
 11
465.7771957770463
 21
230.34532750959309
 31
0.0
  0
LINE
  5
1328
  8
中心線
 10
417.45332810469961
 20
320.43214395301368
 30
0.0
 11
417.45332810469949
 21
330.01938938071231
 31
0.0
  0
LINE
  5
132C
  8
外形線
 10
410.95332810469972
 20
329.5234181581875
 30
0.0
 11
410.95332810469972
 21
330.12341815818752
 31
0.0
  0
ARC
  5
1332
  8
外形線
 10
390.50332810469968
 20
332.22341815818749
 30
0.0
 40
0.3
 50
89.999999999989143
 51
270.0000000000108
  0
ARC
  5
1333
  8
外形線
 10
395.40332810469971
 20
331.62341815818741
 30
0.0
 40
0.3
 50
270.0000000000108
 51
89.999999999989143
  0
ARC
  5
1334
  8
外形線
 10
390.50332810469968
 20
331.62341815818741
 30
0.0
 40
0.3
 50
89.999999999989143
 51
270.0000000000108
  0
ARC
  5
1335
  8
外形線
 10
390.50332810469968
 20
331.02341815818738
 30
0.0
 40
0.3
 50
89.999999999989143
 51
270.0000000000108
  0
ARC
  5
1336
  8
外形線
 10
390.50332810469968
 20
330.42341815818742
 30
0.0
 40
0.3
 50
89.999999999989143
 51
270.0000000000108
  0
ARC
  5
1337
  8
外形線
 10
390.50332810469968
 20
329.82341815818739
 30
0.0
 40
0.3
 50
89.999999999989143
 51
270.0000000000108
  0
ARC
  5
1338
  8
外形線
 10
395.40332810469971
 20
331.02341815818738
 30
0.0
 40
0.3
 50
270.0000000000108
 51
89.999999999989143
  0
ARC
  5
1339
  8
外形線
 10
395.40332810469971
 20
330.42341815818742
 30
0.0
 40
0.3
 50
270.0000000000108
 51
89.999999999989143
  0
ARC
  5
133A
  8
外形線
 10
395.40332810469971
 20
329.82341815818739
 30
0.0
 40
0.3
 50
270.0000000000108
 51
89.999999999989143
  0
LINE
  5
133B
  8
外形線
 10
390.50332810469968
 20
331.92341815818747
 30
0.0
 11
405.45332810469961
 21
331.92341815818747
 31
0.0
  0
LINE
  5
133C
  8
外形線
 10
390.50332810469962
 20
331.32341815818739
 30
0.0
 11
395.4033281046996
 21
331.32341815818739
 31
0.0
  0
LINE
  5
133D
  8
外形線
 10
390.50332810469962
 20
330.72341815818743
 30
0.0
 11
395.4033281046996
 21
330.72341815818743
 31
0.0
  0
LINE
  5
133E
  8
外形線
 10
390.50332810469962
 20
330.12341815818741
 30
0.0
 11
405.45332810469978
 21
330.12341815818752
 31
0.0
  0
LINE
  5
1340
  8
外形線
 10
408.4533281047012
 20
330.12341815818752
 30
0.0
 11
410.95332810469972
 21
330.12341815818752
 31
0.0
  0
LINE
  5
1341
  8
外形線
 10
408.45332810470143
 20
331.92341815818742
 30
0.0
 11
416.1078543776959
 21
331.92341815818759
 31
0.0
  0
LINE
  5
1342
  8
外形線
 10
390.50332810469968
 20
319.12341815818752
 30
0.0
 11
405.45332810469961
 21
319.12341815818752
 31
0.0
  0
LINE
  5
1343
  8
外形線
 10
390.50332810469962
 20
320.92341815818759
 30
0.0
 11
405.45332810469978
 21
320.92341815818747
 31
0.0
  0
LINE
  5
1344
  8
外形線
 10
390.45332810469972
 20
321.5234181581875
 30
0.0
 11
405.45332810469961
 21
321.5234181581875
 31
0.0
  0
LINE
  5
1345
  8
外形線
 10
390.50332810469962
 20
320.32341815818762
 30
0.0
 11
395.4033281046996
 21
320.32341815818762
 31
0.0
  0
LINE
  5
1346
  8
外形線
 10
390.50332810469962
 20
319.7234181581876
 30
0.0
 11
395.4033281046996
 21
319.7234181581876
 31
0.0
  0
ARC
  5
1347
  8
外形線
 10
390.50332810469968
 20
321.2234181581876
 30
0.0
 40
0.3
 50
89.999999999989186
 51
270.0000000000108
  0
ARC
  5
1348
  8
外形線
 10
390.50332810469968
 20
320.62341815818758
 30
0.0
 40
0.3
 50
89.999999999989186
 51
270.0000000000108
  0
ARC
  5
1349
  8
外形線
 10
390.50332810469968
 20
320.02341815818761
 30
0.0
 40
0.3
 50
89.999999999989186
 51
270.0000000000108
  0
ARC
  5
134A
  8
外形線
 10
390.50332810469968
 20
319.42341815818747
 30
0.0
 40
0.3
 50
89.999999999989186
 51
270.0000000000108
  0
ARC
  5
134B
  8
外形線
 10
390.50332810469968
 20
318.82341815818751
 30
0.0
 40
0.3
 50
89.999999999989186
 51
270.0000000000108
  0
ARC
  5
134C
  8
外形線
 10
395.40332810469971
 20
321.2234181581876
 30
0.0
 40
0.3
 50
270.0000000000108
 51
89.999999999989186
  0
ARC
  5
134D
  8
外形線
 10
395.40332810469971
 20
320.62341815818758
 30
0.0
 40
0.3
 50
270.0000000000108
 51
89.999999999989186
  0
ARC
  5
134E
  8
外形線
 10
395.40332810469971
 20
320.02341815818761
 30
0.0
 40
0.3
 50
270.0000000000108
 51
89.999999999989186
  0
ARC
  5
134F
  8
外形線
 10
395.40332810469971
 20
319.42341815818747
 30
0.0
 40
0.3
 50
270.0000000000108
 51
89.999999999989186
  0
LINE
  5
1350
  8
外形線
 10
408.45332810470143
 20
319.12341815818758
 30
0.0
 11
416.1078543776959
 21
319.12341815818741
 31
0.0
  0
LINE
  5
1351
  8
外形線
 10
408.4533281047012
 20
320.92341815818747
 30
0.0
 11
410.95332810469972
 21
320.92341815818747
 31
0.0
  0
LINE
  5
1352
  8
外形線
 10
410.95332810469972
 20
321.5234181581875
 30
0.0
 11
410.95332810469972
 21
320.92341815818747
 31
0.0
  0
LINE
  5
1397
  8
外形線
 10
390.45332810469978
 20
259.19968358585379
 30
0.0
 11
390.45332810469978
 21
250.34532750959309
 31
0.0
  0
LINE
  5
139B
  8
外形線
 10
407.95332810469961
 20
259.34532750959312
 30
0.0
 11
407.95332810469961
 21
249.34532750959309
 31
0.0
  0
LINE
  5
13C1
  8
隠れ線
 10
453.7771957770463
 20
272.34532750959312
 30
0.0
 11
451.77719577704619
 21
272.34532750959312
 31
0.0
  0
LINE
  5
13C2
  8
隠れ線
 10
453.7771957770463
 20
269.34532750959312
 30
0.0
 11
451.77719577704619
 21
269.34532750959312
 31
0.0
  0
ARC
  5
13D0
  8
外形線
 10
417.45332810469972
 20
226.84532750959301
 30
0.0
 40
1.5
 50
195.46600995342081
 51
344.53399004657922
  0
LINE
  5
13D1
  8
外形線
 10
415.6533281046996
 20
226.445327509593
 30
0.0
 11
419.25332810469968
 21
226.445327509593
 31
0.0
  0
LINE
  5
13D2
  8
外形線
 10
415.20332810469949
 20
227.84532750959301
 30
0.0
 11
419.70332810469961
 21
227.84532750959309
 31
0.0
  0
LINE
  5
13D3
  8
外形線
 10
414.45332810469972
 20
230.34532750959309
 30
0.0
 11
414.45332810469972
 21
228.27834021148519
 31
0.0
  0
LINE
  5
13D8
  8
外形線
 10
415.20332810469961
 20
227.84532750959309
 30
0.0
 11
415.6533281046996
 21
226.445327509593
 31
0.0
  0
LINE
  5
13D9
  8
外形線
 10
419.70332810469961
 20
227.84532750959309
 30
0.0
 11
419.25332810469968
 21
226.445327509593
 31
0.0
  0
LINE
  5
13E2
  8
外形線
 10
420.45332810469978
 20
228.27834021148541
 30
0.0
 11
419.70332810469961
 21
227.84532750959309
 31
0.0
  0
LINE
  5
13E3
  8
外形線
 10
414.45332810469938
 20
228.2783402114853
 30
0.0
 11
415.20332810469972
 21
227.84532750959301
 31
0.0
  0
LINE
  5
13E4
  8
外形線
 10
414.45332810469972
 20
228.27834021148519
 30
0.0
 11
415.80332810469957
 21
228.27834021148519
 31
0.0
  0
LINE
  5
13E5
  8
外形線
 10
415.80332810469969
 20
230.34532750959309
 30
0.0
 11
415.80332810469969
 21
228.2783402114853
 31
0.0
  0
LINE
  5
13E6
  8
外形線
 10
419.10332810469959
 20
230.34532750959309
 30
0.0
 11
419.10332810469959
 21
228.27834021148541
 31
0.0
  0
LINE
  5
13E7
  8
外形線
 10
419.10332810469959
 20
228.27834021148541
 30
0.0
 11
420.45332810469989
 21
228.27834021148541
 31
0.0
  0
ARC
  5
13E8
  8
外形線
 10
417.45332810469938
 20
231.2055060762759
 30
0.0
 40
3.360178566682845
 50
240.59068860280689
 51
299.40931139720021
  0
LINE
  5
13ED
  8
外形線
 10
459.52719577704619
 20
227.84532750959301
 30
0.0
 11
464.02719577704619
 21
227.84532750959309
 31
0.0
  0
LINE
  5
13EE
  8
外形線
 10
459.97719577704618
 20
226.445327509593
 30
0.0
 11
463.57719577704631
 21
226.445327509593
 31
0.0
  0
ARC
  5
13EF
  8
外形線
 10
461.7771957770463
 20
226.84532750959301
 30
0.0
 40
1.5
 50
195.46600995342081
 51
344.53399004657922
  0
LINE
  5
13F0
  8
外形線
 10
459.27719577704607
 20
228.27834021148519
 30
0.0
 11
464.27719577704607
 21
228.27834021148541
 31
0.0
  0
LINE
  5
13F1
  8
外形線
 10
459.27719577704619
 20
227.98966507689039
 30
0.0
 11
459.5271957770463
 21
227.84532750959301
 31
0.0
  0
LINE
  5
13F2
  8
外形線
 10
459.52719577704619
 20
227.84532750959309
 30
0.0
 11
459.97719577704629
 21
226.445327509593
 31
0.0
  0
LINE
  5
13F4
  8
外形線
 10
464.27719577704607
 20
227.9896650768905
 30
0.0
 11
464.02719577704619
 21
227.84532750959309
 31
0.0
  0
LINE
  5
13F5
  8
外形線
 10
464.02719577704619
 20
227.84532750959309
 30
0.0
 11
463.57719577704631
 21
226.445327509593
 31
0.0
  0
LINE
  5
13F6
  8
外形線
 10
459.27719577704607
 20
230.34532750959301
 30
0.0
 11
459.27719577704607
 21
227.9896650768905
 31
0.0
  0
LINE
  5
13F7
  8
外形線
 10
464.27719577704619
 20
230.34532750959301
 30
0.0
 11
464.27719577704619
 21
227.9896650768905
 31
0.0
  0
LINE
  5
13F9
  8
外形線
 10
457.17962432549251
 20
263.84532750959312
 30
0.0
 11
457.17962432549251
 21
262.3357910164151
 31
0.0
  0
LINE
  5
13FA
  8
外形線
 10
457.76009531566012
 20
256.54532750959311
 30
0.0
 11
457.7771957770463
 21
256.54532750959311
 31
0.0
  0
LINE
  5
1410
  8
外形線
 10
456.57719577704609
 20
262.37388604522829
 30
0.0
 11
456.57719577704609
 21
263.84532750959312
 31
0.0
  0
LINE
  5
1411
  8
外形線
 10
455.97719577704612
 20
262.37388604522829
 30
0.0
 11
455.97719577704612
 21
263.84532750959312
 31
0.0
  0
ARC
  5
1412
  8
外形線
 10
457.47719577704618
 20
262.3738860452284
 30
0.0
 40
0.3
 50
179.99999999998909
 51
0.0000000000108713
  0
ARC
  5
1413
  8
外形線
 10
456.8771957770461
 20
262.3738860452284
 30
0.0
 40
0.3
 50
179.99999999998909
 51
0.0000000000108713
  0
ARC
  5
1414
  8
外形線
 10
456.27719577704607
 20
262.3738860452284
 30
0.0
 40
0.3
 50
179.99999999998909
 51
0.0000000000108713
  0
ARC
  5
1415
  8
外形線
 10
455.67719577704611
 20
262.3738860452284
 30
0.0
 40
0.3
 50
179.99999999998909
 51
0.0000000000108713
  0
ARC
  5
1416
  8
外形線
 10
455.07719577704609
 20
262.3738860452284
 30
0.0
 40
0.3
 50
179.99999999998909
 51
0.0000000000108713
  0
LINE
  5
141B
  8
外形線
 10
457.17719577704622
 20
262.37388604522829
 30
0.0
 11
457.17719577704622
 21
263.84532750959312
 31
0.0
  0
LINE
  5
141C
  8
外形線
 10
455.3771957770461
 20
262.3738860452284
 30
0.0
 11
455.3771957770461
 21
263.84532750959312
 31
0.0
  0
CIRCLE
  5
1424
  8
外形線
 10
454.47186242553022
 20
266.80302430172821
 30
0.0
 40
0.3
  0
LINE
  5
1426
  8
外形線
 10
454.77719577704607
 20
262.3738860452284
 30
0.0
 11
454.77719577704607
 21
263.84532750959312
 31
0.0
  0
LINE
  5
1427
  8
外形線
 10
457.77476722859979
 20
257.8738860452284
 30
0.0
 11
457.77476722859979
 21
262.77388604522838
 31
0.0
  0
POINT
  5
1498
  8
DEFPOINTS
  6
BYBLOCK
 62
     0
 10
420.45332810469989
 20
228.27834021148541
 30
0.0
  0
POINT
  5
1499
  8
DEFPOINTS
  6
BYBLOCK
 62
     0
 10
241.5924251820822
 20
247.3453275095932
 30
0.0
  0
POINT
  5
14AC
  8
DEFPOINTS
  6
BYBLOCK
 62
     0
 10
416.76823426912449
 20
225.5109188628671
 30
0.0
  0
POINT
  5
14DC
  8
DEFPOINTS
  6
BYBLOCK
 62
     0
 10
491.24655181671187
 20
257.19556453809071
 30
0.0
  0
LINE
  5
14FE
  8
外形線
 10
390.45332810469972
 20
266.34532750959312
 30
0.0
 11
391.45332810469972
 21
267.34532750959312
 31
0.0
  0
ARC
  5
1504
  8
外形線
 10
392.95332810469972
 20
262.34532750959301
 30
0.0
 40
2.5
 50
179.99999999999869
 51
270.00000000000131
  0
ARC
  5
1505
  8
外形線
 10
392.95332810469961
 20
264.84532750959312
 30
0.0
 40
2.5
 50
111.1223163476137
 51
179.99999999999869
  0
LINE
  5
1506
  8
外形線
 10
390.45332810469961
 20
264.84532750959312
 30
0.0
 11
390.45332810469978
 21
259.09532750959312
 31
0.0
  0
LINE
  5
1508
  8
中心線
 10
403.61151954724431
 20
270.84532750959312
 30
0.0
 11
409.94823617460401
 21
270.84532750959312
 31
0.0
  0
LINE
  5
150A
  8
外形線
 10
392.95332810469972
 20
259.84532750959312
 30
0.0
 11
412.87732692545319
 21
259.84532750959312
 31
0.0
  0
LINE
  5
150B
  8
中心線
 10
412.45332810469961
 20
268.55505141782379
 30
0.0
 11
412.45332810469972
 21
261.94890913327907
 31
0.0
  0
ARC
  5
150D
  8
外形線
 10
406.95332810469972
 20
270.84532750959312
 30
0.0
 40
2.0
 50
14.869066698650281
 51
111.12231634761839
  0
LINE
  5
1513
  8
外形線
 10
415.20332810469961
 20
274.34532750959301
 30
0.0
 11
416.33550805604222
 21
274.34532750959301
 31
0.0
  0
LINE
  5
1515
  8
外形線
 10
414.70332810469961
 20
273.84532750959301
 30
0.0
 11
414.70332810469961
 21
267.34532750959301
 31
0.0
  0
LINE
  5
1516
  8
外形線
 10
420.20332810469961
 20
273.84532750959289
 30
0.0
 11
420.20332810469961
 21
267.34532750959301
 31
0.0
  0
ARC
  5
1517
  8
外形線
 10
415.20332810469961
 20
273.84532750959301
 30
0.0
 40
0.5
 50
90.0
 51
180.00000000000011
  0
ARC
  5
1518
  8
外形線
 10
419.70332810469961
 20
273.84532750959289
 30
0.0
 40
0.5
 50
0.0000000000001018
 51
90.0
  0
ARC
  5
1519
  8
外形線
 10
412.45332810469961
 20
265.83032750959302
 30
0.0
 40
6.0
 50
270.00000000000051
 51
0.1432395979912975
  0
ARC
  5
151A
  8
外形線
 10
417.45961108343869
 20
274.8516104883322
 30
0.0
 40
0.9937368837702461
 50
359.63774056406078
 51
171.3924509831424
  0
LINE
  5
1528
  8
外形線
 10
418.45332810469961
 20
274.84532750959301
 30
0.0
 11
418.45332810469961
 21
265.83032750959302
 31
0.0
  0
LINE
  5
1529
  8
外形線
 10
416.50333699805611
 20
275.12189342858392
 30
0.0
 11
414.37701170511968
 21
265.28311511437988
 31
0.0
  0
LINE
  5
152A
  8
外形線
 10
408.88635762744781
 20
271.3585495513878
 30
0.0
 11
410.5375837135698
 21
265.25438557586619
 31
0.0
  0
ARC
  5
152C
  8
外形線
 10
412.45332810469961
 20
265.83032750959302
 30
0.0
 40
2.0
 50
194.09642198324181
 51
351.48891599830858
  0
LINE
  5
152E
  8
外形線
 10
418.45332810469961
 20
274.34532750959301
 30
0.0
 11
419.70332810469961
 21
274.34532750959301
 31
0.0
  0
LINE
  5
152F
  8
外形線
 10
392.05243791616562
 20
267.17714771391309
 30
0.0
 11
406.23260757707288
 21
272.71095454025487
 31
0.0
  0
LINE
  5
1533
  8
隠れ線
 10
396.45332810469972
 20
267.34532750959329
 30
0.0
 11
396.45332810469972
 21
262.34532750959301
 31
0.0
  0
LINE
  5
1534
  8
隠れ線
 10
392.4833922503372
 20
267.34532750959318
 30
0.0
 11
396.45332810469961
 21
267.34532750959329
 31
0.0
  0
LINE
  5
1535
  8
外形線
 10
399.45332810469972
 20
259.34532750959312
 30
0.0
 11
407.95332810469949
 21
259.34532750959312
 31
0.0
  0
LINE
  5
1536
  8
隠れ線
 10
410.95332810469961
 20
264.50745185406078
 30
0.0
 11
410.95332810469961
 21
262.34532750959301
 31
0.0
  0
ARC
  5
1537
  8
隠れ線
 10
399.45332810469972
 20
262.34532750959301
 30
0.0
 40
3.0
 50
180.0000000000008
 51
236.44269023807951
  0
ARC
  5
1538
  8
外形線
 10
407.95332810469949
 20
262.34532750959301
 30
0.0
 40
3.0
 50
270.0
 51
303.55730976192052
  0
ARC
  5
1539
  8
外形線
 10
399.45332810469972
 20
262.34532750959301
 30
0.0
 40
3.0
 50
236.44269023807951
 51
270.0
  0
ARC
  5
153A
  8
隠れ線
 10
407.95332810469949
 20
262.34532750959301
 30
0.0
 40
3.0
 50
303.55730976192052
 51
0.0
  0
LINE
  5
153C
  8
外形線
 10
459.5271957770463
 20
274.34532750959312
 30
0.0
 11
464.02719577704619
 21
274.34532750959312
 31
0.0
  0
LINE
  5
153D
  8
外形線
 10
459.0271957770463
 20
273.84532750959312
 30
0.0
 11
459.0271957770463
 21
267.34532750959318
 31
0.0
  0
LINE
  5
153E
  8
外形線
 10
464.52719577704619
 20
273.84532750959312
 30
0.0
 11
464.52719577704619
 21
267.34532750959329
 31
0.0
  0
ARC
  5
153F
  8
外形線
 10
459.5271957770463
 20
273.84532750959312
 30
0.0
 40
0.5
 50
90.0
 51
180.0000000000002
  0
ARC
  5
1540
  8
外形線
 10
464.02719577704619
 20
273.84532750959312
 30
0.0
 40
0.5
 50
359.99999999999972
 51
90.0
  0
POINT
  5
1579
  8
DEFPOINTS
  6
BYBLOCK
 62
     0
 10
461.77719577704619
 20
276.04532750959299
 30
0.0
  0
POINT
  5
157A
  8
DEFPOINTS
  6
BYBLOCK
 62
     0
 10
461.77719577704619
 20
276.04532750959299
 30
0.0
  0
LINE
  5
157B
  8
外形線
 10
462.82719577704597
 20
275.44532750959303
 30
0.0
 11
460.72719577704618
 21
275.44532750959303
 31
0.0
  0
LINE
  5
157C
  8
外形線
 10
462.82719577704609
 20
274.34532750959301
 30
0.0
 11
462.82719577704609
 21
275.44532750959291
 31
0.0
  0
POINT
  5
157D
  8
DEFPOINTS
  6
BYBLOCK
 62
     0
 10
461.77719577704619
 20
276.04532750959299
 30
0.0
  0
POINT
  5
157E
  8
DEFPOINTS
  6
BYBLOCK
 62
     0
 10
461.77719577704619
 20
276.04532750959299
 30
0.0
  0
POINT
  5
157F
  8
DEFPOINTS
  6
BYBLOCK
 62
     0
 10
461.77719577704619
 20
276.04532750959299
 30
0.0
  0
LINE
  5
1580
  8
外形線
 10
460.7271957770497
 20
274.34532750959301
 30
0.0
 11
460.72719577704612
 21
275.44532750959291
 31
0.0
  0
ARC
  5
1581
  8
外形線
 10
461.77719577704619
 20
275.04532750959311
 30
0.0
 40
1.0
 50
23.578178478193848
 51
156.42182152180311
  0
LINE
  5
1582
  8
外形線
 10
462.82719577704609
 20
275.44532750959303
 30
0.0
 11
462.5771957770462
 21
275.44532750959303
 31
0.0
  0
LINE
  5
158E
  8
外形線
 10
451.77719577704602
 20
259.84532750959312
 30
0.0
 11
453.77719577704607
 21
259.84532750959312
 31
0.0
  0
LINE
  5
1590
  8
中心線
 10
449.3038648826265
 20
264.84532750959312
 30
0.0
 11
464.65343431221339
 21
264.84532750959312
 31
0.0
  0
LINE
  5
1592
  8
外形線
 10
450.47719577704618
 20
265.89532750959307
 30
0.0
 11
450.47719577704618
 21
263.79532750959322
 31
0.0
  0
LINE
  5
1593
  8
外形線
 10
451.77719577704607
 20
263.09532750959329
 30
0.0
 11
451.17719577704611
 21
263.09532750959318
 31
0.0
  0
ARC
  5
1594
  8
外形線
 10
451.17719577704611
 20
263.79532750959322
 30
0.0
 40
0.7
 50
180.0
 51
269.99999999999977
  0
LINE
  5
1595
  8
外形線
 10
451.77719577704607
 20
266.59532750959312
 30
0.0
 11
451.17719577704611
 21
266.59532750959312
 31
0.0
  0
ARC
  5
1596
  8
外形線
 10
451.17719577704611
 20
265.89532750959307
 30
0.0
 40
0.7
 50
89.999999999999844
 51
180.0
  0
LINE
  5
15BD
  8
外形線
 10
453.77719577704619
 20
272.84532750959312
 30
0.0
 11
459.0271957770463
 21
272.84532750959312
 31
0.0
  0
LINE
  5
15BE
  8
外形線
 10
453.77719577704619
 20
268.84532750959312
 30
0.0
 11
457.17962432549251
 21
268.84532750959312
 31
0.0
  0
LINE
  5
15BF
  8
外形線
 10
453.77719577704619
 20
265.84532750959312
 30
0.0
 11
457.77719577704607
 21
265.84532750959312
 31
0.0
  0
LINE
  5
15C0
  8
外形線
 10
453.77719577704607
 20
263.84532750959312
 30
0.0
 11
457.77719577704607
 21
263.84532750959312
 31
0.0
  0
LINE
  5
15C2
  8
中心線
 10
414.45332810469961
 20
265.23939745543959
 30
0.0
 11
414.45332810469961
 21
260.7296870357639
 31
0.0
  0
LINE
  5
15C3
  8
中心線
 10
412.33749732236907
 20
262.84532750959312
 30
0.0
 11
416.44199820151152
 21
262.84532750959312
 31
0.0
  0
LINE
  5
15C8
  8
外形線
 10
457.17719577704622
 20
267.31676897395789
 30
0.0
 11
457.17719577704622
 21
265.84532750959312
 31
0.0
  0
LINE
  5
15C9
  8
外形線
 10
457.17962432549251
 20
265.84532750959312
 30
0.0
 11
457.17962432549251
 21
269.01306969861952
 31
0.0
  0
LINE
  5
15CA
  8
外形線
 10
456.57719577704609
 20
267.31676897395789
 30
0.0
 11
456.57719577704609
 21
265.84532750959312
 31
0.0
  0
LINE
  5
15CB
  8
外形線
 10
455.97719577704612
 20
267.31676897395789
 30
0.0
 11
455.97719577704612
 21
265.84532750959312
 31
0.0
  0
LINE
  5
15CC
  8
外形線
 10
455.3771957770461
 20
267.31676897395778
 30
0.0
 11
455.3771957770461
 21
265.84532750959312
 31
0.0
  0
LINE
  5
15CD
  8
外形線
 10
454.77719577704607
 20
267.31676897395778
 30
0.0
 11
454.77719577704607
 21
265.84532750959312
 31
0.0
  0
LINE
  5
15CE
  8
外形線
 10
457.77476722859979
 20
269.06683461976093
 30
0.0
 11
457.77476722859979
 21
266.91676897395791
 31
0.0
  0
CIRCLE
  5
15CF
  8
外形線
 10
457.47962432549241
 20
269.01306969861952
 30
0.0
 40
0.3
  0
ARC
  5
15D0
  8
外形線
 10
457.47719577704618
 20
267.31676897395778
 30
0.0
 40
0.3
 50
359.99999999998909
 51
180.0000000000108
  0
ARC
  5
15D1
  8
外形線
 10
456.8771957770461
 20
267.31676897395778
 30
0.0
 40
0.3
 50
359.99999999998909
 51
180.0000000000108
  0
ARC
  5
15D2
  8
外形線
 10
456.27719577704607
 20
267.31676897395778
 30
0.0
 40
0.3
 50
359.99999999998909
 51
180.0000000000108
  0
ARC
  5
15D3
  8
外形線
 10
455.67719577704611
 20
267.31676897395778
 30
0.0
 40
0.3
 50
359.99999999998909
 51
180.0000000000108
  0
ARC
  5
15D4
  8
外形線
 10
455.07719577704609
 20
267.31676897395778
 30
0.0
 40
0.3
 50
359.99999999998909
 51
180.0000000000108
  0
ARC
  5
15D7
  8
外形線
 10
454.47719577704612
 20
267.31676897395778
 30
0.0
 40
0.3
 50
359.99999999998909
 51
180.0000000000108
  0
ARC
  5
15D8
  8
外形線
 10
454.47719577704612
 20
262.3738860452284
 30
0.0
 40
0.3
 50
179.99999999998909
 51
0.0000000000108713
  0
LINE
  5
15D9
  8
外形線
 10
454.17719577704599
 20
262.3738860452284
 30
0.0
 11
454.17719577704599
 21
263.84532750959312
 31
0.0
  0
LINE
  5
15DA
  8
外形線
 10
454.17719577704599
 20
267.31676897395778
 30
0.0
 11
454.17719577704599
 21
265.84532750959312
 31
0.0
  0
LINE
  5
15DB
  8
外形線
 10
453.77719577704619
 20
266.84532750959312
 30
0.0
 11
454.17719577704599
 21
266.84532750959312
 31
0.0
  0
LINE
  5
15DC
  8
外形線
 10
453.77719577704607
 20
262.84532750959312
 30
0.0
 11
454.17719577704611
 21
262.84532750959312
 31
0.0
  0
CIRCLE
  5
15E5
  8
隠れ線
 10
392.95332810469961
 20
264.84532750959312
 30
0.0
 40
2.149999999999999
  0
ARC
  5
15E6
  8
外形線
 10
392.95332810469961
 20
264.84532750959312
 30
0.0
 40
2.75
 50
86.687388975912526
 51
204.61997732865919
  0
ARC
  5
15EB
  8
隠れ線
 10
392.95332810469961
 20
264.84532750959312
 30
0.0
 40
2.75
 50
204.61997732865919
 51
86.687388975912526
  0
ARC
  5
15EC
  8
隠れ線
 10
406.95332810469972
 20
270.84532750959312
 30
0.0
 40
2.0
 50
111.12718772135371
 51
14.869066698650281
  0
LINE
  5
15F4
  8
隠れ線
 10
393.6214846593071
 20
262.1777318096162
 30
0.0
 11
410.49296784161442
 21
265.41931913682168
 31
0.0
  0
LINE
  5
15F7
  8
隠れ線
 10
415.99464457679392
 20
267.0873531660406
 30
0.0
 11
416.10785437769601
 21
266.49813033808852
 31
0.0
  0
LINE
  5
15F8
  8
隠れ線
 10
393.35819470319228
 20
262.73811912121522
 30
0.0
 11
410.33585982511329
 21
266.00010762039301
 31
0.0
  0
LINE
  5
1610
  8
隠れ線
 10
392.44099143571111
 20
267.54718078792069
 30
0.0
 11
409.50642923504449
 21
269.06630211104812
 31
0.0
  0
LINE
  5
1612
  8
隠れ線
 10
392.70789640029801
 20
266.98127303288589
 30
0.0
 11
409.6974889868319
 21
268.360002674626
 31
0.0
  0
LINE
  5
1613
  8
外形線
 10
411.89362202880699
 20
269.27880386565079
 30
0.0
 11
411.95332810469961
 21
268.5430672327052
 31
0.0
  0
LINE
  5
1615
  8
外形線
 10
409.6974889868319
 20
268.360002674626
 30
0.0
 11
411.95332810469961
 21
268.5430672327052
 31
0.0
  0
LINE
  5
1616
  8
外形線
 10
409.50642923504449
 20
269.06630211104812
 30
0.0
 11
411.8936220288071
 21
269.27880386565079
 31
0.0
  0
LINE
  5
1619
  8
隠れ線
 10
414.71375078496402
 20
266.8412497832955
 30
0.0
 11
415.99464457679392
 21
267.08735316604049
 31
0.0
  0
LINE
  5
161A
  8
隠れ線
 10
414.57598862110279
 20
266.20380668142508
 30
0.0
 11
416.1078543776959
 21
266.49813033808852
 31
0.0
  0
LINE
  5
161B
  8
外形線
 10
410.33585982511329
 20
266.00010762039301
 30
0.0
 11
414.71375078496391
 21
266.8412497832955
 31
0.0
  0
LINE
  5
161C
  8
外形線
 10
410.4929678416143
 20
265.41931913682168
 30
0.0
 11
414.57598862110279
 21
266.20380668142508
 31
0.0
  0
LINE
  5
161D
  8
外形線
 10
410.95332810469972
 20
265.50777004410952
 30
0.0
 11
410.95332810469961
 21
264.50745185406078
 31
0.0
  0
LINE
  5
1620
  8
外形線
 10
457.7747672285999
 20
268.84532750959312
 30
0.0
 11
459.0271957770463
 21
268.84532750959312
 31
0.0
  0
LINE
  5
1621
  8
外形線
 10
473.07719577704609
 20
271.89532750959307
 30
0.0
 11
473.07719577704609
 21
269.79532750959322
 31
0.0
  0
LINE
  5
1622
  8
外形線
 10
471.77719577704619
 20
273.84532750959312
 30
0.0
 11
471.7771957770463
 21
259.84532750959301
 31
0.0
  0
LINE
  5
1623
  8
外形線
 10
469.77719577704619
 20
275.84532750959312
 30
0.0
 11
469.7771957770463
 21
259.84532750959312
 31
0.0
  0
LINE
  5
1624
  8
中心線
 10
474.25052667146588
 20
264.84532750959312
 30
0.0
 11
458.90095724187898
 21
264.84532750959312
 31
0.0
  0
LINE
  5
1625
  8
外形線
 10
471.77719577704642
 20
259.84532750959312
 30
0.0
 11
469.7771957770463
 21
259.84532750959312
 31
0.0
  0
LINE
  5
1626
  8
隠れ線
 10
469.77719577704619
 20
269.34532750959312
 30
0.0
 11
471.77719577704607
 21
269.34532750959312
 31
0.0
  0
ARC
  5
1627
  8
外形線
 10
472.37719577704632
 20
265.89532750959307
 30
0.0
 40
0.7
 50
0.000000000000007
 51
90.000000000000171
  0
LINE
  5
1628
  8
外形線
 10
471.77719577704619
 20
266.59532750959312
 30
0.0
 11
472.37719577704632
 21
266.59532750959312
 31
0.0
  0
ARC
  5
1629
  8
外形線
 10
472.37719577704632
 20
263.79532750959322
 30
0.0
 40
0.7
 50
270.00000000000023
 51
0.000000000000007
  0
LINE
  5
162A
  8
外形線
 10
471.77719577704619
 20
263.09532750959329
 30
0.0
 11
472.37719577704632
 21
263.09532750959318
 31
0.0
  0
LINE
  5
162B
  8
外形線
 10
473.0771957770462
 20
265.89532750959307
 30
0.0
 11
473.0771957770462
 21
263.79532750959322
 31
0.0
  0
ARC
  5
162C
  8
外形線
 10
472.37719577704632
 20
269.79532750959322
 30
0.0
 40
0.7
 50
270.00000000000023
 51
0.000000000000007
  0
LINE
  5
162D
  8
外形線
 10
471.77719577704619
 20
269.09532750959318
 30
0.0
 11
472.37719577704632
 21
269.09532750959318
 31
0.0
  0
LINE
  5
162E
  8
外形線
 10
469.37719577704632
 20
262.3738860452284
 30
0.0
 11
469.37719577704632
 21
263.84532750959312
 31
0.0
  0
LINE
  5
162F
  8
外形線
 10
465.77962432549248
 20
257.8738860452284
 30
0.0
 11
465.77962432549248
 21
262.77388604522838
 31
0.0
  0
LINE
  5
1630
  8
外形線
 10
468.77719577704642
 20
262.3738860452284
 30
0.0
 11
468.77719577704642
 21
263.84532750959312
 31
0.0
  0
LINE
  5
1631
  8
外形線
 10
468.17719577704628
 20
262.3738860452284
 30
0.0
 11
468.17719577704628
 21
263.84532750959312
 31
0.0
  0
LINE
  5
1632
  8
外形線
 10
466.37719577704621
 20
262.37388604522829
 30
0.0
 11
466.37719577704621
 21
263.84532750959312
 31
0.0
  0
LINE
  5
1633
  8
外形線
 10
467.57719577704631
 20
262.37388604522829
 30
0.0
 11
467.57719577704631
 21
263.84532750959312
 31
0.0
  0
LINE
  5
1634
  8
外形線
 10
466.97719577704618
 20
262.37388604522829
 30
0.0
 11
466.97719577704618
 21
263.84532750959312
 31
0.0
  0
LINE
  5
1635
  8
外形線
 10
466.37476722859992
 20
263.84532750959312
 30
0.0
 11
466.37476722859992
 21
262.3357910164151
 31
0.0
  0
ARC
  5
1636
  8
外形線
 10
466.07719577704631
 20
262.3738860452284
 30
0.0
 40
0.3
 50
179.99999999998909
 51
0.0000000000108463
  0
ARC
  5
1637
  8
外形線
 10
469.07719577704643
 20
262.3738860452284
 30
0.0
 40
0.3
 50
179.99999999998909
 51
0.0000000000108463
  0
ARC
  5
1638
  8
外形線
 10
468.4771957770464
 20
262.3738860452284
 30
0.0
 40
0.3
 50
179.99999999998909
 51
0.0000000000108463
  0
ARC
  5
1639
  8
外形線
 10
467.87719577704638
 20
262.3738860452284
 30
0.0
 40
0.3
 50
179.99999999998909
 51
0.0000000000108463
  0
ARC
  5
163A
  8
外形線
 10
467.2771957770463
 20
262.3738860452284
 30
0.0
 40
0.3
 50
179.99999999998909
 51
0.0000000000108463
  0
ARC
  5
163B
  8
外形線
 10
466.67719577704628
 20
262.3738860452284
 30
0.0
 40
0.3
 50
179.99999999998909
 51
0.0000000000108463
  0
CIRCLE
  5
163C
  8
外形線
 10
466.07476722859991
 20
269.01306969861952
 30
0.0
 40
0.3
  0
ARC
  5
163D
  8
外形線
 10
466.07719577704631
 20
267.31676897395778
 30
0.0
 40
0.3
 50
359.99999999998909
 51
180.00000000001091
  0
LINE
  5
163E
  8
外形線
 10
469.7771957770463
 20
263.84532750959312
 30
0.0
 11
465.7771957770463
 21
263.84532750959312
 31
0.0
  0
LINE
  5
163F
  8
外形線
 10
469.7771957770463
 20
265.84532750959312
 30
0.0
 11
465.7771957770463
 21
265.84532750959312
 31
0.0
  0
CIRCLE
  5
1640
  8
外形線
 10
469.08252912856221
 20
266.80302430172821
 30
0.0
 40
0.3
  0
LINE
  5
1641
  8
外形線
 10
469.7771957770463
 20
268.84532750959312
 30
0.0
 11
466.37476722859992
 21
268.84532750959312
 31
0.0
  0
LINE
  5
1642
  8
外形線
 10
466.37476722859992
 20
265.84532750959312
 30
0.0
 11
466.37476722859992
 21
269.01306969861952
 31
0.0
  0
LINE
  5
1643
  8
外形線
 10
469.7771957770463
 20
262.84532750959312
 30
0.0
 11
469.37719577704632
 21
262.84532750959312
 31
0.0
  0
LINE
  5
1644
  8
外形線
 10
469.7771957770463
 20
266.84532750959312
 30
0.0
 11
469.37719577704638
 21
266.84532750959312
 31
0.0
  0
LINE
  5
1645
  8
外形線
 10
469.37719577704638
 20
267.31676897395778
 30
0.0
 11
469.37719577704638
 21
265.84532750959312
 31
0.0
  0
ARC
  5
1646
  8
外形線
 10
469.07719577704643
 20
267.31676897395778
 30
0.0
 40
0.3
 50
359.99999999998909
 51
180.00000000001091
  0
ARC
  5
1647
  8
外形線
 10
468.4771957770464
 20
267.31676897395778
 30
0.0
 40
0.3
 50
359.99999999998909
 51
180.00000000001091
  0
ARC
  5
1648
  8
外形線
 10
467.87719577704638
 20
267.31676897395778
 30
0.0
 40
0.3
 50
359.99999999998909
 51
180.00000000001091
  0
ARC
  5
1649
  8
外形線
 10
467.2771957770463
 20
267.31676897395778
 30
0.0
 40
0.3
 50
359.99999999998909
 51
180.00000000001091
  0
ARC
  5
164A
  8
外形線
 10
466.67719577704628
 20
267.31676897395778
 30
0.0
 40
0.3
 50
359.99999999998909
 51
180.00000000001091
  0
LINE
  5
164B
  8
外形線
 10
468.77719577704642
 20
267.31676897395778
 30
0.0
 11
468.77719577704642
 21
265.84532750959312
 31
0.0
  0
LINE
  5
164C
  8
外形線
 10
468.17719577704628
 20
267.31676897395778
 30
0.0
 11
468.17719577704628
 21
265.84532750959312
 31
0.0
  0
LINE
  5
164D
  8
外形線
 10
467.57719577704631
 20
267.31676897395789
 30
0.0
 11
467.57719577704631
 21
265.84532750959312
 31
0.0
  0
LINE
  5
164E
  8
外形線
 10
466.97719577704618
 20
267.31676897395789
 30
0.0
 11
466.97719577704618
 21
265.84532750959312
 31
0.0
  0
LINE
  5
164F
  8
外形線
 10
466.37719577704621
 20
267.31676897395789
 30
0.0
 11
466.37719577704621
 21
265.84532750959312
 31
0.0
  0
LINE
  5
1650
  8
外形線
 10
465.77962432549248
 20
268.84532750959312
 30
0.0
 11
464.52719577704607
 21
268.84532750959312
 31
0.0
  0
LINE
  5
1651
  8
外形線
 10
465.77962432549259
 20
269.06683461976093
 30
0.0
 11
465.77962432549248
 21
266.91676897395791
 31
0.0
  0
LINE
  5
1652
  8
隠れ線
 10
469.77719577704619
 20
272.34532750959312
 30
0.0
 11
471.77719577704607
 21
272.34532750959312
 31
0.0
  0
ARC
  5
1653
  8
外形線
 10
469.77719577704619
 20
273.84532750959312
 30
0.0
 40
2.0
 50
0.000000000000007
 51
89.999999999998394
  0
ARC
  5
1654
  8
外形線
 10
472.37719577704632
 20
271.89532750959307
 30
0.0
 40
0.7
 50
0.000000000000007
 51
90.000000000000171
  0
LINE
  5
1655
  8
外形線
 10
471.77719577704619
 20
272.59532750959312
 30
0.0
 11
472.37719577704632
 21
272.59532750959312
 31
0.0
  0
LINE
  5
1656
  8
外形線
 10
469.7771957770463
 20
272.84532750959312
 30
0.0
 11
464.52719577704607
 21
272.84532750959312
 31
0.0
  0
LINE
  5
1658
  8
中心線
 10
448.5408088020647
 20
250.34532750959309
 30
0.0
 11
472.7311896161662
 21
250.34532750959309
 31
0.0
  0
ARC
  5
1659
  8
想像線
 10
461.77719577704619
 20
250.34532750959309
 30
0.0
 40
25.0
 50
231.36357538344231
 51
130.40980257561739
  0
ARC
  5
165A
  8
想像線
 10
461.7771957770463
 20
225.34532750959309
 30
0.0
 40
50.0
 50
60.877976995418777
 51
108.9734753374225
  0
LINE
  5
166C
  8
隠れ線
 10
451.77719577704607
 20
266.09532750959312
 30
0.0
 11
453.77719577704607
 21
266.09532750959312
 31
0.0
  0
LINE
  5
166D
  8
隠れ線
 10
451.77719577704607
 20
263.59532750959312
 30
0.0
 11
453.77719577704607
 21
263.59532750959312
 31
0.0
  0
LINE
  5
166E
  8
隠れ線
 10
471.77719577704619
 20
266.09532750959312
 30
0.0
 11
469.7771957770463
 21
266.09532750959312
 31
0.0
  0
LINE
  5
166F
  8
隠れ線
 10
471.77719577704619
 20
263.59532750959312
 30
0.0
 11
469.7771957770463
 21
263.59532750959312
 31
0.0
  0
LINE
  5
1688
  8
外形線
 10
413.43832810469962
 20
329.5234181581875
 30
0.0
 11
413.43832810469962
 21
331.92341815818759
 31
0.0
  0
LINE
  5
1689
  8
外形線
 10
416.1078543776959
 20
318.5234181581875
 30
0.0
 11
416.10785437769579
 21
319.12341815818741
 31
0.0
  0
LINE
  5
168A
  8
0
  6
BYBLOCK
 62
     2
 10
418.45332810469961
 20
335.5234181581875
 30
0.0
 11
433.19697815153108
 21
335.5234181581875
 31
0.0
  0
LINE
  5
168B
  8
0
  6
BYBLOCK
 62
     2
 10
418.45332810469961
 20
315.5234181581875
 30
0.0
 11
433.19697815153108
 21
315.5234181581875
 31
0.0
  0
LINE
  5
168C
  8
0
  6
BYBLOCK
 62
     2
 10
431.94697815153108
 20
333.0234181581875
 30
0.0
 11
431.94697815153108
 21
315.52341815818738
 31
0.0
  0
INSERT
  5
168D
  8
0
  6
BYBLOCK
 62
     2
  2
_OPEN
 10
431.94697815153108
 20
335.5234181581875
 30
0.0
 41
2.5
 42
2.5
 43
2.5
 50
90.0
  0
INSERT
  5
168E
  8
0
  6
BYBLOCK
 62
     2
  2
_OPEN
 10
431.94697815153108
 20
315.5234181581875
 30
0.0
 41
2.5
 42
2.5
 43
2.5
 50
270.0
  0
INSERT
  5
168F
  8
寸法線
  2
*U14
 10
0.0
 20
0.0
 30
0.0
  0
POINT
  5
1690
  8
DEFPOINTS
  6
BYBLOCK
 62
     0
 10
418.45332810469961
 20
335.5234181581875
 30
0.0
  0
POINT
  5
1691
  8
DEFPOINTS
  6
BYBLOCK
 62
     0
 10
418.45332810469961
 20
315.5234181581875
 30
0.0
  0
POINT
  5
1692
  8
DEFPOINTS
  6
BYBLOCK
 62
     0
 10
431.94697815153108
 20
315.5234181581875
 30
0.0
  0
LINE
  5
1693
  8
外形線
 10
416.10785437769579
 20
331.92341815818759
 30
0.0
 11
416.1078543776959
 21
332.5234181581875
 31
0.0
  0
LINE
  5
1694
  8
外形線
 10
411.46832810469948
 20
332.5234181581875
 30
0.0
 11
411.46832810469948
 21
335.5234181581875
 31
0.0
  0
LINE
  5
1695
  8
外形線
 10
413.43832810469968
 20
332.5234181581875
 30
0.0
 11
413.43832810469962
 21
335.5234181581875
 31
0.0
  0
LINE
  5
1696
  8
外形線
 10
413.43832810469962
 20
319.12341815818741
 30
0.0
 11
413.43832810469962
 21
321.5234181581875
 31
0.0
  0
LINE
  5
1697
  8
外形線
 10
411.46832810469948
 20
319.12341815818741
 30
0.0
 11
411.46832810469959
 21
321.5234181581875
 31
0.0
  0
LINE
  5
16A0
  8
外形線
 10
390.50332810469968
 20
318.5234181581875
 30
0.0
 11
405.45332810469961
 21
318.5234181581875
 31
0.0
  0
LINE
  5
16A1
  8
外形線
 10
408.45332810469949
 20
318.5234181581875
 30
0.0
 11
416.1078543776959
 21
318.5234181581875
 31
0.0
  0
LINE
  5
16A2
  8
外形線
 10
390.95332810469978
 20
317.5234181581875
 30
0.0
 11
390.95332810469972
 21
318.52341815818738
 31
0.0
  0
LINE
  5
16A3
  8
外形線
 10
394.95332810469972
 20
317.5234181581875
 30
0.0
 11
394.95332810469961
 21
318.52341815818738
 31
0.0
  0
LINE
  5
16A4
  8
外形線
 10
390.50332810469968
 20
332.5234181581875
 30
0.0
 11
405.45332810469961
 21
332.5234181581875
 31
0.0
  0
LINE
  5
16A5
  8
外形線
 10
408.4533281047016
 20
332.5234181581875
 30
0.0
 11
416.1078543776959
 21
332.5234181581875
 31
0.0
  0
LINE
  5
16A6
  8
外形線
 10
390.95332810469961
 20
332.5234181581875
 30
0.0
 11
390.95332810469972
 21
333.5234181581875
 31
0.0
  0
LINE
  5
16A7
  8
外形線
 10
394.95332810469961
 20
332.5234181581875
 30
0.0
 11
394.95332810469961
 21
333.5234181581875
 31
0.0
  0
LINE
  5
16A8
  8
外形線
 10
413.43832810469962
 20
317.5234181581875
 30
0.0
 11
418.45332810469961
 21
317.5234181581875
 31
0.0
  0
LINE
  5
16B2
  8
0
  6
BYBLOCK
 62
     2
 10
479.31618212964781
 20
268.16060066840981
 30
0.0
 11
451.15029768777038
 21
239.55102683079269
 31
0.0
  0
INSERT
  5
16B3
  8
寸法線
  2
*U15
 10
0.0
 20
0.0
 30
0.0
  0
POINT
  5
16B6
  8
DEFPOINTS
  6
BYBLOCK
 62
     0
 10
479.31618212964781
 20
268.16060066840981
 30
0.0
  0
INSERT
  5
16B7
  8
0
  6
BYBLOCK
 62
     2
  2
_OPEN
 10
479.31618212964781
 20
268.16060066840981
 30
0.0
 41
2.5
 42
2.5
 43
2.5
 50
45.447746492440793
  0
LINE
  5
16C4
  8
0
  6
BYBLOCK
 62
     2
 10
480.24679800214727
 20
288.98150559318248
 30
0.0
 11
476.4107725140509
 21
275.7646534856728
 31
0.0
  0
INSERT
  5
16C6
  8
寸法線
  2
*U16
 10
0.0
 20
0.0
 30
0.0
  0
INSERT
  5
16C9
  8
0
  6
BYBLOCK
 62
     2
  2
_OPEN
 10
475.7139355265744
 20
273.3637332010976
 30
0.0
 41
2.5
 42
2.5
 43
2.5
 50
253.8152921677806
  0
POINT
  5
16CA
  8
DEFPOINTS
  6
BYBLOCK
 62
     0
 10
475.7139355265744
 20
273.3637332010976
 30
0.0
  0
LINE
  5
16CF
  8
寸法線
 10
480.24679800214727
 20
288.98150559318248
 30
0.0
 11
489.15923896813263
 21
288.98150559318248
 31
0.0
  0
DIMENSION
  5
16E6
  8
寸法線
  2
*D6
 10
430.52180465356997
 20
230.34532750959309
 30
0.0
 11
428.64680465356992
 21
227.84532750959309
 31
0.0
 70
     0
 13
417.45332810469972
 23
225.34532750959309
 33
0.0
 14
420.45332810469989
 24
230.34532750959309
 34
0.0
 50
90.0
1001
ACAD
1000
DSTYLE
1002
{
1070
   271
1070
     2
1002
}
  0
POINT
  5
171B
  8
DEFPOINTS
  6
BYBLOCK
 62
     0
 10
417.45332810469949
 20
276.04532750959299
 30
0.0
  0
LINE
  5
1738
  8
0
  6
BYBLOCK
 62
     2
 10
420.45332810469989
 20
228.27834021148541
 30
0.0
 11
420.45332810469989
 21
212.31004432069551
 31
0.0
  0
LINE
  5
1739
  8
0
  6
BYBLOCK
 62
     2
 10
241.5924251820822
 20
247.3453275095932
 30
0.0
 11
241.5924251820822
 21
212.31004432069551
 31
0.0
  0
LINE
  5
173A
  8
0
  6
BYBLOCK
 62
     2
 10
417.95332810469989
 20
213.56004432069551
 30
0.0
 11
244.09242518208231
 21
213.56004432069551
 31
0.0
  0
INSERT
  5
173B
  8
0
  6
BYBLOCK
 62
     2
  2
_OPEN
 10
420.45332810469989
 20
213.56004432069551
 30
0.0
 41
2.5
 42
2.5
 43
2.5
  0
INSERT
  5
173C
  8
0
  6
BYBLOCK
 62
     2
  2
_OPEN
 10
241.5924251820822
 20
213.56004432069551
 30
0.0
 41
2.5
 42
2.5
 43
2.5
 50
180.0
  0
INSERT
  5
173D
  8
寸法線
  2
*U17
 10
0.0
 20
0.0
 30
0.0
  0
POINT
  5
173E
  8
DEFPOINTS
  6
BYBLOCK
 62
     0
 10
420.45332810469989
 20
228.27834021148541
 30
0.0
  0
POINT
  5
173F
  8
DEFPOINTS
  6
BYBLOCK
 62
     0
 10
241.5924251820822
 20
247.3453275095932
 30
0.0
  0
POINT
  5
1740
  8
DEFPOINTS
  6
BYBLOCK
 62
     0
 10
241.5924251820822
 20
213.56004432069551
 30
0.0
  0
LINE
  5
1742
  8
0
  6
BYBLOCK
 62
     2
 10
431.77180465356997
 20
225.34532750959309
 30
0.0
 11
438.45705014768907
 21
225.34532750959309
 31
0.0
  0
LINE
  5
1744
  8
0
  6
BYBLOCK
 62
     2
 10
437.20705014768907
 20
227.84532750959309
 30
0.0
 11
437.20705014768907
 21
304.88875364083231
 31
0.0
  0
INSERT
  5
1745
  8
0
  6
BYBLOCK
 62
     2
  2
_OPEN
 10
437.20705014768907
 20
225.34532750959309
 30
0.0
 41
2.5
 42
2.5
 43
2.5
 50
270.0
  0
INSERT
  5
1746
  8
0
  6
BYBLOCK
 62
     2
  2
_OPEN
 10
437.20705014768907
 20
276.04532750959299
 30
0.0
 41
2.5
 42
2.5
 43
2.5
 50
90.0
  0
INSERT
  5
1747
  8
寸法線
  2
*U18
 10
0.0
 20
0.0
 30
0.0
  0
POINT
  5
1748
  8
DEFPOINTS
  6
BYBLOCK
 62
     0
 10
431.77180465356997
 20
225.34532750959309
 30
0.0
  0
POINT
  5
174A
  8
DEFPOINTS
  6
BYBLOCK
 62
     0
 10
437.20705014768907
 20
276.04532750959299
 30
0.0
  0
DIMENSION
  5
1759
  8
寸法線
  2
*D7
 10
417.45332810469949
 20
285.28969313520469
 30
0.0
 11
418.95332810469961
 21
287.16469313520457
 31
0.0
 70
     0
 13
420.45332810469949
 23
267.34532750959301
 33
0.0
 14
417.45332810469949
 24
280.6573455982558
 34
0.0
1001
ACAD
1000
DSTYLE
1002
{
1070
   271
1070
     2
1002
}
  0
DIMENSION
  5
1771
  8
寸法線
  2
*D8
 10
267.09242518208231
 20
285.28969313520469
 30
0.0
 11
302.09242518208231
 21
287.16469313520457
 31
0.0
 70
     0
 13
337.0924251820822
 23
262.45212881358901
 33
0.0
 14
267.09242518208231
 24
262.45212881358901
 34
0.0
1001
ACAD
1000
DSTYLE
1002
{
1070
   287
1070
     4
1070
    75
1070
     1
1070
   271
1070
     2
1070
   279
1070
     1
1002
}
  0
LINE
  5
1772
  8
0
  6
BYBLOCK
 62
     2
 10
337.0924251820822
 20
262.45212881358901
 30
0.0
 11
337.0924251820822
 21
286.53969313520457
 31
0.0
  0
LINE
  5
1773
  8
0
  6
BYBLOCK
 62
     2
 10
414.95332810469961
 20
285.28969313520469
 30
0.0
 11
339.59242518208231
 21
285.28969313520469
 31
0.0
  0
INSERT
  5
1774
  8
0
  6
BYBLOCK
 62
     2
  2
_OPEN
 10
417.45332810469949
 20
285.28969313520469
 30
0.0
 41
2.5
 42
2.5
 43
2.5
  0
INSERT
  5
1775
  8
0
  6
BYBLOCK
 62
     2
  2
_OPEN
 10
337.0924251820822
 20
285.28969313520469
 30
0.0
 41
2.5
 42
2.5
 43
2.5
 50
180.0
  0
INSERT
  5
1776
  8
寸法線
  2
*U19
 10
0.0
 20
0.0
 30
0.0
  0
POINT
  5
1777
  8
DEFPOINTS
  6
BYBLOCK
 62
     0
 10
417.45332810469949
 20
280.6573455982558
 30
0.0
  0
POINT
  5
1778
  8
DEFPOINTS
  6
BYBLOCK
 62
     0
 10
337.0924251820822
 20
262.45212881358901
 30
0.0
  0
POINT
  5
1779
  8
DEFPOINTS
  6
BYBLOCK
 62
     0
 10
337.0924251820822
 20
285.28969313520469
 30
0.0
  0
LINE
  5
1794
  8
0
  6
BYBLOCK
 62
     2
 10
420.45332810469949
 20
286.53969313520457
 30
0.0
 11
420.45332810469949
 21
293.79370899723813
 31
0.0
  0
LINE
  5
1795
  8
0
  6
BYBLOCK
 62
     2
 10
244.09242518208231
 20
260.04532750959322
 30
0.0
 11
244.09242518208231
 21
293.79370899723813
 31
0.0
  0
LINE
  5
1796
  8
0
  6
BYBLOCK
 62
     2
 10
417.95332810469961
 20
292.54370899723813
 30
0.0
 11
246.59242518208231
 21
292.54370899723813
 31
0.0
  0
INSERT
  5
1797
  8
0
  6
BYBLOCK
 62
     2
  2
_OPEN
 10
420.45332810469949
 20
292.54370899723813
 30
0.0
 41
2.5
 42
2.5
 43
2.5
  0
INSERT
  5
1798
  8
0
  6
BYBLOCK
 62
     2
  2
_OPEN
 10
244.09242518208231
 20
292.54370899723813
 30
0.0
 41
2.5
 42
2.5
 43
2.5
 50
180.0
  0
INSERT
  5
1799
  8
寸法線
  2
*U20
 10
0.0
 20
0.0
 30
0.0
  0
POINT
  5
179A
  8
DEFPOINTS
  6
BYBLOCK
 62
     0
 10
420.45332810469949
 20
286.53969313520457
 30
0.0
  0
POINT
  5
179B
  8
DEFPOINTS
  6
BYBLOCK
 62
     0
 10
244.09242518208231
 20
260.04532750959322
 30
0.0
  0
POINT
  5
179C
  8
DEFPOINTS
  6
BYBLOCK
 62
     0
 10
244.09242518208231
 20
292.54370899723813
 30
0.0
  0
TEXT
  5
179D
  8
寸法線
 62
     6
 10
372.96219486401338
 20
251.50890805825719
 30
0.0
 40
2.5
  1
φ10
 50
90.0
  7
STYLE3
  0
LINE
  5
17A6
  8
外形線
 10
416.65332810469948
 20
275.44532750959308
 30
0.0
 11
416.4033281046996
 21
275.44532750959303
 31
0.0
  0
LINE
  5
17A7
  8
寸法線
 10
417.45332810469949
 20
276.04532750959299
 30
0.0
 11
438.45463543205352
 21
276.04532750959299
 31
0.0
  0
DIMENSION
  5
17B4
  8
寸法線
  2
*D9
 10
381.89125164812441
 20
255.34532750959309
 30
0.0
 11
380.0162516481243
 21
265.6953275095932
 31
0.0
 70
     0
 13
417.45332810469949
 23
276.04532750959299
 33
0.0
 14
381.42378550735498
 24
255.34532750959309
 34
0.0
 50
90.0
1001
ACAD
1000
DSTYLE
1002
{
1070
   271
1070
     2
1002
}
  0
LINE
  5
17C5
  8
0
  6
BYBLOCK
 62
     2
 10
429.82995492564112
 20
276.04532750959299
 30
0.0
 11
431.77180465356997
 21
276.04532750959299
 31
0.0
  0
LINE
  5
17C6
  8
0
  6
BYBLOCK
 62
     2
 10
419.70332810469961
 20
274.34532750959301
 30
0.0
 11
431.77180465356997
 21
274.34532750959301
 31
0.0
  0
LINE
  5
17C7
  8
0
  6
BYBLOCK
 62
     2
 10
430.52180465356997
 20
278.54532750959299
 30
0.0
 11
430.52180465356997
 21
281.04532750959299
 31
0.0
  0
LINE
  5
17C8
  8
0
  6
BYBLOCK
 62
     2
 10
430.52180465356997
 20
271.84532750959289
 30
0.0
 11
430.52180465356997
 21
263.2143751286406
 31
0.0
  0
LINE
  5
17C9
  8
0
  6
BYBLOCK
 62
     2
 10
430.52180465356997
 20
276.04532750959299
 30
0.0
 11
430.52180465356997
 21
274.34532750959301
 31
0.0
  0
INSERT
  5
17CA
  8
0
  6
BYBLOCK
 62
     2
  2
_OPEN
 10
430.52180465356997
 20
276.04532750959299
 30
0.0
 41
2.5
 42
2.5
 43
2.5
 50
270.0
  0
INSERT
  5
17CB
  8
0
  6
BYBLOCK
 62
     2
  2
_OPEN
 10
430.52180465356997
 20
274.34532750959301
 30
0.0
 41
2.5
 42
2.5
 43
2.5
 50
90.0
  0
INSERT
  5
17CC
  8
寸法線
  2
*U21
 10
0.0
 20
0.0
 30
0.0
  0
POINT
  5
17CD
  8
DEFPOINTS
  6
BYBLOCK
 62
     0
 10
429.82995492564112
 20
276.04532750959299
 30
0.0
  0
POINT
  5
17CE
  8
DEFPOINTS
  6
BYBLOCK
 62
     0
 10
419.70332810469961
 20
274.34532750959301
 30
0.0
  0
POINT
  5
17CF
  8
DEFPOINTS
  6
BYBLOCK
 62
     0
 10
430.52180465356997
 20
274.34532750959301
 30
0.0
  0
LINE
  5
17D0
  8
寸法線
 10
430.52180465356997
 20
263.2143751286406
 30
0.0
 11
430.52180465356997
 21
235.34532750959301
 31
0.0
  0
INSERT
  5
17D1
  8
寸法線
  2
*U22
 10
0.0
 20
0.0
 30
0.0
  0
POLYLINE
  8
寸法線
  5
1EAE
  66
     1
 10
0.000000
 20
0.000000
 30
0.000000
  70
     8
  0
VERTEX
  8
寸法線
  5
1EAF
 10
370.525
 20
330.523
 30
0.000000
  70
    32
  0
VERTEX
  8
寸法線
  5
1EB0
 10
370.459
 20
330.423
 30
0.000000
  70
    32
  0
VERTEX
  8
寸法線
  5
1EB1
 10
370.399
 20
330.327
 30
0.000000
  70
    32
  0
VERTEX
  8
寸法線
  5
1EB2
 10
370.346
 20
330.234
 30
0.000000
  70
    32
  0
VERTEX
  8
寸法線
  5
1EB3
 10
370.298
 20
330.144
 30
0.000000
  70
    32
  0
VERTEX
  8
寸法線
  5
1EB4
 10
370.257
 20
330.058
 30
0.000000
  70
    32
  0
VERTEX
  8
寸法線
  5
1EB5
 10
370.222
 20
329.974
 30
0.000000
  70
    32
  0
VERTEX
  8
寸法線
  5
1EB6
 10
370.192
 20
329.894
 30
0.000000
  70
    32
  0
VERTEX
  8
寸法線
  5
1EB7
 10
370.167
 20
329.817
 30
0.000000
  70
    32
  0
VERTEX
  8
寸法線
  5
1EB8
 10
370.146
 20
329.742
 30
0.000000
  70
    32
  0
VERTEX
  8
寸法線
  5
1EB9
 10
370.131
 20
329.670
 30
0.000000
  70
    32
  0
VERTEX
  8
寸法線
  5
1EBA
 10
370.119
 20
329.601
 30
0.000000
  70
    32
  0
VERTEX
  8
寸法線
  5
1EBB
 10
370.112
 20
329.534
 30
0.000000
  70
    32
  0
VERTEX
  8
寸法線
  5
1EBC
 10
370.108
 20
329.469
 30
0.000000
  70
    32
  0
VERTEX
  8
寸法線
  5
1EBD
 10
370.107
 20
329.406
 30
0.000000
  70
    32
  0
VERTEX
  8
寸法線
  5
1EBE
 10
370.110
 20
329.346
 30
0.000000
  70
    32
  0
VERTEX
  8
寸法線
  5
1EBF
 10
370.115
 20
329.288
 30
0.000000
  70
    32
  0
VERTEX
  8
寸法線
  5
1EC0
 10
370.123
 20
329.231
 30
0.000000
  70
    32
  0
VERTEX
  8
寸法線
  5
1EC1
 10
370.134
 20
329.177
 30
0.000000
  70
    32
  0
VERTEX
  8
寸法線
  5
1EC2
 10
370.146
 20
329.124
 30
0.000000
  70
    32
  0
VERTEX
  8
寸法線
  5
1EC3
 10
370.160
 20
329.072
 30
0.000000
  70
    32
  0
VERTEX
  8
寸法線
  5
1EC4
 10
370.175
 20
329.022
 30
0.000000
  70
    32
  0
VERTEX
  8
寸法線
  5
1EC5
 10
370.192
 20
328.974
 30
0.000000
  70
    32
  0
VERTEX
  8
寸法線
  5
1EC6
 10
370.209
 20
328.926
 30
0.000000
  70
    32
  0
VERTEX
  8
寸法線
  5
1EC7
 10
370.227
 20
328.880
 30
0.000000
  70
    32
  0
VERTEX
  8
寸法線
  5
1EC8
 10
370.245
 20
328.834
 30
0.000000
  70
    32
  0
VERTEX
  8
寸法線
  5
1EC9
 10
370.264
 20
328.790
 30
0.000000
  70
    32
  0
VERTEX
  8
寸法線
  5
1ECA
 10
370.282
 20
328.746
 30
0.000000
  70
    32
  0
VERTEX
  8
寸法線
  5
1ECB
 10
370.299
 20
328.703
 30
0.000000
  70
    32
  0
VERTEX
  8
寸法線
  5
1ECC
 10
370.316
 20
328.661
 30
0.000000
  70
    32
  0
VERTEX
  8
寸法線
  5
1ECD
 10
370.331
 20
328.619
 30
0.000000
  70
    32
  0
VERTEX
  8
寸法線
  5
1ECE
 10
370.345
 20
328.577
 30
0.000000
  70
    32
  0
VERTEX
  8
寸法線
  5
1ECF
 10
370.357
 20
328.536
 30
0.000000
  70
    32
  0
VERTEX
  8
寸法線
  5
1ED0
 10
370.368
 20
328.494
 30
0.000000
  70
    32
  0
VERTEX
  8
寸法線
  5
1ED1
 10
370.377
 20
328.453
 30
0.000000
  70
    32
  0
VERTEX
  8
寸法線
  5
1ED2
 10
370.384
 20
328.412
 30
0.000000
  70
    32
  0
VERTEX
  8
寸法線
  5
1ED3
 10
370.389
 20
328.371
 30
0.000000
  70
    32
  0
VERTEX
  8
寸法線
  5
1ED4
 10
370.393
 20
328.331
 30
0.000000
  70
    32
  0
VERTEX
  8
寸法線
  5
1ED5
 10
370.396
 20
328.290
 30
0.000000
  70
    32
  0
VERTEX
  8
寸法線
  5
1ED6
 10
370.397
 20
328.250
 30
0.000000
  70
    32
  0
VERTEX
  8
寸法線
  5
1ED7
 10
370.396
 20
328.210
 30
0.000000
  70
    32
  0
VERTEX
  8
寸法線
  5
1ED8
 10
370.394
 20
328.170
 30
0.000000
  70
    32
  0
VERTEX
  8
寸法線
  5
1ED9
 10
370.390
 20
328.130
 30
0.000000
  70
    32
  0
VERTEX
  8
寸法線
  5
1EDA
 10
370.385
 20
328.090
 30
0.000000
  70
    32
  0
VERTEX
  8
寸法線
  5
1EDB
 10
370.379
 20
328.050
 30
0.000000
  70
    32
  0
VERTEX
  8
寸法線
  5
1EDC
 10
370.371
 20
328.011
 30
0.000000
  70
    32
  0
VERTEX
  8
寸法線
  5
1EDD
 10
370.362
 20
327.971
 30
0.000000
  70
    32
  0
VERTEX
  8
寸法線
  5
1EDE
 10
370.352
 20
327.932
 30
0.000000
  70
    32
  0
VERTEX
  8
寸法線
  5
1EDF
 10
370.341
 20
327.893
 30
0.000000
  70
    32
  0
VERTEX
  8
寸法線
  5
1EE0
 10
370.328
 20
327.854
 30
0.000000
  70
    32
  0
VERTEX
  8
寸法線
  5
1EE1
 10
370.315
 20
327.815
 30
0.000000
  70
    32
  0
VERTEX
  8
寸法線
  5
1EE2
 10
370.300
 20
327.776
 30
0.000000
  70
    32
  0
VERTEX
  8
寸法線
  5
1EE3
 10
370.284
 20
327.737
 30
0.000000
  70
    32
  0
VERTEX
  8
寸法線
  5
1EE4
 10
370.267
 20
327.698
 30
0.000000
  70
    32
  0
VERTEX
  8
寸法線
  5
1EE5
 10
370.249
 20
327.659
 30
0.000000
  70
    32
  0
VERTEX
  8
寸法線
  5
1EE6
 10
370.230
 20
327.620
 30
0.000000
  70
    32
  0
VERTEX
  8
寸法線
  5
1EE7
 10
370.210
 20
327.582
 30
0.000000
  70
    32
  0
VERTEX
  8
寸法線
  5
1EE8
 10
370.190
 20
327.543
 30
0.000000
  70
    32
  0
VERTEX
  8
寸法線
  5
1EE9
 10
370.168
 20
327.505
 30
0.000000
  70
    32
  0
VERTEX
  8
寸法線
  5
1EEA
 10
370.146
 20
327.466
 30
0.000000
  70
    32
  0
VERTEX
  8
寸法線
  5
1EEB
 10
370.122
 20
327.428
 30
0.000000
  70
    32
  0
VERTEX
  8
寸法線
  5
1EEC
 10
370.099
 20
327.389
 30
0.000000
  70
    32
  0
VERTEX
  8
寸法線
  5
1EED
 10
370.074
 20
327.351
 30
0.000000
  70
    32
  0
VERTEX
  8
寸法線
  5
1EEE
 10
370.049
 20
327.312
 30
0.000000
  70
    32
  0
VERTEX
  8
寸法線
  5
1EEF
 10
370.023
 20
327.274
 30
0.000000
  70
    32
  0
VERTEX
  8
寸法線
  5
1EF0
 10
369.996
 20
327.236
 30
0.000000
  70
    32
  0
VERTEX
  8
寸法線
  5
1EF1
 10
369.969
 20
327.197
 30
0.000000
  70
    32
  0
VERTEX
  8
寸法線
  5
1EF2
 10
369.941
 20
327.159
 30
0.000000
  70
    32
  0
VERTEX
  8
寸法線
  5
1EF3
 10
369.913
 20
327.121
 30
0.000000
  70
    32
  0
VERTEX
  8
寸法線
  5
1EF4
 10
369.884
 20
327.082
 30
0.000000
  70
    32
  0
VERTEX
  8
寸法線
  5
1EF5
 10
369.855
 20
327.044
 30
0.000000
  70
    32
  0
VERTEX
  8
寸法線
  5
1EF6
 10
369.826
 20
327.005
 30
0.000000
  70
    32
  0
VERTEX
  8
寸法線
  5
1EF7
 10
369.796
 20
326.967
 30
0.000000
  70
    32
  0
VERTEX
  8
寸法線
  5
1EF8
 10
369.765
 20
326.928
 30
0.000000
  70
    32
  0
VERTEX
  8
寸法線
  5
1EF9
 10
369.735
 20
326.890
 30
0.000000
  70
    32
  0
VERTEX
  8
寸法線
  5
1EFA
 10
369.704
 20
326.851
 30
0.000000
  70
    32
  0
VERTEX
  8
寸法線
  5
1EFB
 10
369.673
 20
326.813
 30
0.000000
  70
    32
  0
VERTEX
  8
寸法線
  5
1EFC
 10
369.642
 20
326.774
 30
0.000000
  70
    32
  0
VERTEX
  8
寸法線
  5
1EFD
 10
369.611
 20
326.735
 30
0.000000
  70
    32
  0
VERTEX
  8
寸法線
  5
1EFE
 10
369.579
 20
326.696
 30
0.000000
  70
    32
  0
VERTEX
  8
寸法線
  5
1EFF
 10
369.548
 20
326.657
 30
0.000000
  70
    32
  0
VERTEX
  8
寸法線
  5
1F00
 10
369.516
 20
326.618
 30
0.000000
  70
    32
  0
VERTEX
  8
寸法線
  5
1F01
 10
369.485
 20
326.579
 30
0.000000
  70
    32
  0
VERTEX
  8
寸法線
  5
1F02
 10
369.453
 20
326.540
 30
0.000000
  70
    32
  0
VERTEX
  8
寸法線
  5
1F03
 10
369.422
 20
326.501
 30
0.000000
  70
    32
  0
VERTEX
  8
寸法線
  5
1F04
 10
369.391
 20
326.461
 30
0.000000
  70
    32
  0
VERTEX
  8
寸法線
  5
1F05
 10
369.359
 20
326.422
 30
0.000000
  70
    32
  0
VERTEX
  8
寸法線
  5
1F06
 10
369.328
 20
326.382
 30
0.000000
  70
    32
  0
VERTEX
  8
寸法線
  5
1F07
 10
369.298
 20
326.343
 30
0.000000
  70
    32
  0
VERTEX
  8
寸法線
  5
1F08
 10
369.267
 20
326.303
 30
0.000000
  70
    32
  0
VERTEX
  8
寸法線
  5
1F09
 10
369.237
 20
326.263
 30
0.000000
  70
    32
  0
VERTEX
  8
寸法線
  5
1F0A
 10
369.207
 20
326.223
 30
0.000000
  70
    32
  0
VERTEX
  8
寸法線
  5
1F0B
 10
369.177
 20
326.182
 30
0.000000
  70
    32
  0
VERTEX
  8
寸法線
  5
1F0C
 10
369.148
 20
326.142
 30
0.000000
  70
    32
  0
VERTEX
  8
寸法線
  5
1F0D
 10
369.119
 20
326.101
 30
0.000000
  70
    32
  0
VERTEX
  8
寸法線
  5
1F0E
 10
369.091
 20
326.061
 30
0.000000
  70
    32
  0
VERTEX
  8
寸法線
  5
1F0F
 10
369.063
 20
326.020
 30
0.000000
  70
    32
  0
VERTEX
  8
寸法線
  5
1F10
 10
369.035
 20
325.979
 30
0.000000
  70
    32
  0
VERTEX
  8
寸法線
  5
1F11
 10
369.009
 20
325.938
 30
0.000000
  70
    32
  0
VERTEX
  8
寸法線
  5
1F12
 10
368.982
 20
325.896
 30
0.000000
  70
    32
  0
VERTEX
  8
寸法線
  5
1F13
 10
368.957
 20
325.855
 30
0.000000
  70
    32
  0
VERTEX
  8
寸法線
  5
1F14
 10
368.932
 20
325.813
 30
0.000000
  70
    32
  0
VERTEX
  8
寸法線
  5
1F15
 10
368.908
 20
325.771
 30
0.000000
  70
    32
  0
VERTEX
  8
寸法線
  5
1F16
 10
368.884
 20
325.729
 30
0.000000
  70
    32
  0
VERTEX
  8
寸法線
  5
1F17
 10
368.862
 20
325.687
 30
0.000000
  70
    32
  0
VERTEX
  8
寸法線
  5
1F18
 10
368.840
 20
325.644
 30
0.000000
  70
    32
  0
VERTEX
  8
寸法線
  5
1F19
 10
368.819
 20
325.601
 30
0.000000
  70
    32
  0
VERTEX
  8
寸法線
  5
1F1A
 10
368.799
 20
325.558
 30
0.000000
  70
    32
  0
VERTEX
  8
寸法線
  5
1F1B
 10
368.779
 20
325.515
 30
0.000000
  70
    32
  0
VERTEX
  8
寸法線
  5
1F1C
 10
368.761
 20
325.472
 30
0.000000
  70
    32
  0
VERTEX
  8
寸法線
  5
1F1D
 10
368.744
 20
325.428
 30
0.000000
  70
    32
  0
VERTEX
  8
寸法線
  5
1F1E
 10
368.728
 20
325.384
 30
0.000000
  70
    32
  0
VERTEX
  8
寸法線
  5
1F1F
 10
368.712
 20
325.340
 30
0.000000
  70
    32
  0
VERTEX
  8
寸法線
  5
1F20
 10
368.698
 20
325.295
 30
0.000000
  70
    32
  0
VERTEX
  8
寸法線
  5
1F21
 10
368.685
 20
325.251
 30
0.000000
  70
    32
  0
VERTEX
  8
寸法線
  5
1F22
 10
368.672
 20
325.206
 30
0.000000
  70
    32
  0
VERTEX
  8
寸法線
  5
1F23
 10
368.661
 20
325.161
 30
0.000000
  70
    32
  0
VERTEX
  8
寸法線
  5
1F24
 10
368.650
 20
325.116
 30
0.000000
  70
    32
  0
VERTEX
  8
寸法線
  5
1F25
 10
368.640
 20
325.070
 30
0.000000
  70
    32
  0
VERTEX
  8
寸法線
  5
1F26
 10
368.631
 20
325.025
 30
0.000000
  70
    32
  0
VERTEX
  8
寸法線
  5
1F27
 10
368.623
 20
324.979
 30
0.000000
  70
    32
  0
VERTEX
  8
寸法線
  5
1F28
 10
368.615
 20
324.933
 30
0.000000
  70
    32
  0
VERTEX
  8
寸法線
  5
1F29
 10
368.608
 20
324.887
 30
0.000000
  70
    32
  0
VERTEX
  8
寸法線
  5
1F2A
 10
368.602
 20
324.841
 30
0.000000
  70
    32
  0
VERTEX
  8
寸法線
  5
1F2B
 10
368.596
 20
324.795
 30
0.000000
  70
    32
  0
VERTEX
  8
寸法線
  5
1F2C
 10
368.592
 20
324.748
 30
0.000000
  70
    32
  0
VERTEX
  8
寸法線
  5
1F2D
 10
368.587
 20
324.702
 30
0.000000
  70
    32
  0
VERTEX
  8
寸法線
  5
1F2E
 10
368.584
 20
324.655
 30
0.000000
  70
    32
  0
VERTEX
  8
寸法線
  5
1F2F
 10
368.581
 20
324.608
 30
0.000000
  70
    32
  0
VERTEX
  8
寸法線
  5
1F30
 10
368.578
 20
324.561
 30
0.000000
  70
    32
  0
VERTEX
  8
寸法線
  5
1F31
 10
368.576
 20
324.514
 30
0.000000
  70
    32
  0
VERTEX
  8
寸法線
  5
1F32
 10
368.574
 20
324.467
 30
0.000000
  70
    32
  0
VERTEX
  8
寸法線
  5
1F33
 10
368.573
 20
324.420
 30
0.000000
  70
    32
  0
VERTEX
  8
寸法線
  5
1F34
 10
368.573
 20
324.373
 30
0.000000
  70
    32
  0
VERTEX
  8
寸法線
  5
1F35
 10
368.572
 20
324.326
 30
0.000000
  70
    32
  0
VERTEX
  8
寸法線
  5
1F36
 10
368.572
 20
324.279
 30
0.000000
  70
    32
  0
VERTEX
  8
寸法線
  5
1F37
 10
368.573
 20
324.231
 30
0.000000
  70
    32
  0
VERTEX
  8
寸法線
  5
1F38
 10
368.574
 20
324.184
 30
0.000000
  70
    32
  0
VERTEX
  8
寸法線
  5
1F39
 10
368.575
 20
324.137
 30
0.000000
  70
    32
  0
VERTEX
  8
寸法線
  5
1F3A
 10
368.576
 20
324.089
 30
0.000000
  70
    32
  0
VERTEX
  8
寸法線
  5
1F3B
 10
368.578
 20
324.042
 30
0.000000
  70
    32
  0
VERTEX
  8
寸法線
  5
1F3C
 10
368.579
 20
323.995
 30
0.000000
  70
    32
  0
VERTEX
  8
寸法線
  5
1F3D
 10
368.581
 20
323.947
 30
0.000000
  70
    32
  0
VERTEX
  8
寸法線
  5
1F3E
 10
368.583
 20
323.900
 30
0.000000
  70
    32
  0
VERTEX
  8
寸法線
  5
1F3F
 10
368.586
 20
323.853
 30
0.000000
  70
    32
  0
VERTEX
  8
寸法線
  5
1F40
 10
368.588
 20
323.805
 30
0.000000
  70
    32
  0
VERTEX
  8
寸法線
  5
1F41
 10
368.590
 20
323.758
 30
0.000000
  70
    32
  0
VERTEX
  8
寸法線
  5
1F42
 10
368.593
 20
323.711
 30
0.000000
  70
    32
  0
VERTEX
  8
寸法線
  5
1F43
 10
368.595
 20
323.664
 30
0.000000
  70
    32
  0
VERTEX
  8
寸法線
  5
1F44
 10
368.598
 20
323.617
 30
0.000000
  70
    32
  0
VERTEX
  8
寸法線
  5
1F45
 10
368.600
 20
323.570
 30
0.000000
  70
    32
  0
VERTEX
  8
寸法線
  5
1F46
 10
368.603
 20
323.523
 30
0.000000
  70
    32
  0
VERTEX
  8
寸法線
  5
1F47
 10
368.605
 20
323.477
 30
0.000000
  70
    32
  0
VERTEX
  8
寸法線
  5
1F48
 10
368.607
 20
323.430
 30
0.000000
  70
    32
  0
VERTEX
  8
寸法線
  5
1F49
 10
368.609
 20
323.383
 30
0.000000
  70
    32
  0
VERTEX
  8
寸法線
  5
1F4A
 10
368.611
 20
323.337
 30
0.000000
  70
    32
  0
VERTEX
  8
寸法線
  5
1F4B
 10
368.613
 20
323.291
 30
0.000000
  70
    32
  0
VERTEX
  8
寸法線
  5
1F4C
 10
368.614
 20
323.244
 30
0.000000
  70
    32
  0
VERTEX
  8
寸法線
  5
1F4D
 10
368.616
 20
323.198
 30
0.000000
  70
    32
  0
VERTEX
  8
寸法線
  5
1F4E
 10
368.617
 20
323.153
 30
0.000000
  70
    32
  0
VERTEX
  8
寸法線
  5
1F4F
 10
368.617
 20
323.107
 30
0.000000
  70
    32
  0
VERTEX
  8
寸法線
  5
1F50
 10
368.618
 20
323.061
 30
0.000000
  70
    32
  0
VERTEX
  8
寸法線
  5
1F51
 10
368.618
 20
323.016
 30
0.000000
  70
    32
  0
VERTEX
  8
寸法線
  5
1F52
 10
368.617
 20
322.971
 30
0.000000
  70
    32
  0
VERTEX
  8
寸法線
  5
1F53
 10
368.617
 20
322.926
 30
0.000000
  70
    32
  0
VERTEX
  8
寸法線
  5
1F54
 10
368.615
 20
322.881
 30
0.000000
  70
    32
  0
VERTEX
  8
寸法線
  5
1F55
 10
368.614
 20
322.837
 30
0.000000
  70
    32
  0
VERTEX
  8
寸法線
  5
1F56
 10
368.612
 20
322.792
 30
0.000000
  70
    32
  0
VERTEX
  8
寸法線
  5
1F57
 10
368.609
 20
322.748
 30
0.000000
  70
    32
  0
VERTEX
  8
寸法線
  5
1F58
 10
368.606
 20
322.704
 30
0.000000
  70
    32
  0
VERTEX
  8
寸法線
  5
1F59
 10
368.602
 20
322.661
 30
0.000000
  70
    32
  0
VERTEX
  8
寸法線
  5
1F5A
 10
368.598
 20
322.617
 30
0.000000
  70
    32
  0
VERTEX
  8
寸法線
  5
1F5B
 10
368.593
 20
322.574
 30
0.000000
  70
    32
  0
VERTEX
  8
寸法線
  5
1F5C
 10
368.587
 20
322.531
 30
0.000000
  70
    32
  0
VERTEX
  8
寸法線
  5
1F5D
 10
368.581
 20
322.489
 30
0.000000
  70
    32
  0
VERTEX
  8
寸法線
  5
1F5E
 10
368.574
 20
322.447
 30
0.000000
  70
    32
  0
VERTEX
  8
寸法線
  5
1F5F
 10
368.566
 20
322.405
 30
0.000000
  70
    32
  0
VERTEX
  8
寸法線
  5
1F60
 10
368.558
 20
322.363
 30
0.000000
  70
    32
  0
VERTEX
  8
寸法線
  5
1F61
 10
368.548
 20
322.321
 30
0.000000
  70
    32
  0
VERTEX
  8
寸法線
  5
1F62
 10
368.538
 20
322.280
 30
0.000000
  70
    32
  0
VERTEX
  8
寸法線
  5
1F63
 10
368.528
 20
322.240
 30
0.000000
  70
    32
  0
VERTEX
  8
寸法線
  5
1F64
 10
368.516
 20
322.199
 30
0.000000
  70
    32
  0
VERTEX
  8
寸法線
  5
1F65
 10
368.503
 20
322.159
 30
0.000000
  70
    32
  0
VERTEX
  8
寸法線
  5
1F66
 10
368.490
 20
322.120
 30
0.000000
  70
    32
  0
VERTEX
  8
寸法線
  5
1F67
 10
368.475
 20
322.080
 30
0.000000
  70
    32
  0
VERTEX
  8
寸法線
  5
1F68
 10
368.460
 20
322.041
 30
0.000000
  70
    32
  0
VERTEX
  8
寸法線
  5
1F69
 10
368.443
 20
322.003
 30
0.000000
  70
    32
  0
VERTEX
  8
寸法線
  5
1F6A
 10
368.426
 20
321.964
 30
0.000000
  70
    32
  0
VERTEX
  8
寸法線
  5
1F6B
 10
368.407
 20
321.926
 30
0.000000
  70
    32
  0
VERTEX
  8
寸法線
  5
1F6C
 10
368.388
 20
321.889
 30
0.000000
  70
    32
  0
VERTEX
  8
寸法線
  5
1F6D
 10
368.367
 20
321.852
 30
0.000000
  70
    32
  0
VERTEX
  8
寸法線
  5
1F6E
 10
368.345
 20
321.815
 30
0.000000
  70
    32
  0
VERTEX
  8
寸法線
  5
1F6F
 10
368.322
 20
321.779
 30
0.000000
  70
    32
  0
VERTEX
  8
寸法線
  5
1F70
 10
368.298
 20
321.743
 30
0.000000
  70
    32
  0
VERTEX
  8
寸法線
  5
1F71
 10
368.273
 20
321.708
 30
0.000000
  70
    32
  0
VERTEX
  8
寸法線
  5
1F72
 10
368.246
 20
321.673
 30
0.000000
  70
    32
  0
VERTEX
  8
寸法線
  5
1F73
 10
368.218
 20
321.639
 30
0.000000
  70
    32
  0
VERTEX
  8
寸法線
  5
1F74
 10
368.189
 20
321.605
 30
0.000000
  70
    32
  0
VERTEX
  8
寸法線
  5
1F75
 10
368.159
 20
321.571
 30
0.000000
  70
    32
  0
VERTEX
  8
寸法線
  5
1F76
 10
368.127
 20
321.538
 30
0.000000
  70
    32
  0
VERTEX
  8
寸法線
  5
1F77
 10
368.094
 20
321.506
 30
0.000000
  70
    32
  0
VERTEX
  8
寸法線
  5
1F78
 10
368.059
 20
321.474
 30
0.000000
  70
    32
  0
VERTEX
  8
寸法線
  5
1F79
 10
368.023
 20
321.442
 30
0.000000
  70
    32
  0
VERTEX
  8
寸法線
  5
1F7A
 10
367.986
 20
321.411
 30
0.000000
  70
    32
  0
VERTEX
  8
寸法線
  5
1F7B
 10
367.947
 20
321.381
 30
0.000000
  70
    32
  0
VERTEX
  8
寸法線
  5
1F7C
 10
367.907
 20
321.351
 30
0.000000
  70
    32
  0
VERTEX
  8
寸法線
  5
1F7D
 10
367.865
 20
321.322
 30
0.000000
  70
    32
  0
VERTEX
  8
寸法線
  5
1F7E
 10
367.821
 20
321.293
 30
0.000000
  70
    32
  0
VERTEX
  8
寸法線
  5
1F7F
 10
367.777
 20
321.263
 30
0.000000
  70
    32
  0
VERTEX
  8
寸法線
  5
1F80
 10
367.731
 20
321.233
 30
0.000000
  70
    32
  0
VERTEX
  8
寸法線
  5
1F81
 10
367.684
 20
321.203
 30
0.000000
  70
    32
  0
VERTEX
  8
寸法線
  5
1F82
 10
367.636
 20
321.171
 30
0.000000
  70
    32
  0
VERTEX
  8
寸法線
  5
1F83
 10
367.587
 20
321.137
 30
0.000000
  70
    32
  0
VERTEX
  8
寸法線
  5
1F84
 10
367.538
 20
321.100
 30
0.000000
  70
    32
  0
VERTEX
  8
寸法線
  5
1F85
 10
367.488
 20
321.061
 30
0.000000
  70
    32
  0
VERTEX
  8
寸法線
  5
1F86
 10
367.438
 20
321.020
 30
0.000000
  70
    32
  0
VERTEX
  8
寸法線
  5
1F87
 10
367.388
 20
320.974
 30
0.000000
  70
    32
  0
VERTEX
  8
寸法線
  5
1F88
 10
367.337
 20
320.925
 30
0.000000
  70
    32
  0
VERTEX
  8
寸法線
  5
1F89
 10
367.287
 20
320.871
 30
0.000000
  70
    32
  0
VERTEX
  8
寸法線
  5
1F8A
 10
367.236
 20
320.813
 30
0.000000
  70
    32
  0
VERTEX
  8
寸法線
  5
1F8B
 10
367.186
 20
320.749
 30
0.000000
  70
    32
  0
VERTEX
  8
寸法線
  5
1F8C
 10
367.137
 20
320.680
 30
0.000000
  70
    32
  0
VERTEX
  8
寸法線
  5
1F8D
 10
367.088
 20
320.605
 30
0.000000
  70
    32
  0
VERTEX
  8
寸法線
  5
1F8E
 10
367.039
 20
320.523
 30
0.000000
  70
    32
  0
SEQEND
  8
寸法線
  5
1F8F
  0
POLYLINE
  8
寸法線
  5
1F90
  66
     1
 10
0.000000
 20
0.000000
 30
0.000000
  70
     8
  0
VERTEX
  8
寸法線
  5
1F91
 10
368.938
 20
260.345
 30
0.000000
  70
    32
  0
VERTEX
  8
寸法線
  5
1F92
 10
368.871
 20
260.245
 30
0.000000
  70
    32
  0
VERTEX
  8
寸法線
  5
1F93
 10
368.811
 20
260.149
 30
0.000000
  70
    32
  0
VERTEX
  8
寸法線
  5
1F94
 10
368.758
 20
260.056
 30
0.000000
  70
    32
  0
VERTEX
  8
寸法線
  5
1F95
 10
368.711
 20
259.966
 30
0.000000
  70
    32
  0
VERTEX
  8
寸法線
  5
1F96
 10
368.669
 20
259.880
 30
0.000000
  70
    32
  0
VERTEX
  8
寸法線
  5
1F97
 10
368.634
 20
259.796
 30
0.000000
  70
    32
  0
VERTEX
  8
寸法線
  5
1F98
 10
368.604
 20
259.716
 30
0.000000
  70
    32
  0
VERTEX
  8
寸法線
  5
1F99
 10
368.579
 20
259.639
 30
0.000000
  70
    32
  0
VERTEX
  8
寸法線
  5
1F9A
 10
368.558
 20
259.564
 30
0.000000
  70
    32
  0
VERTEX
  8
寸法線
  5
1F9B
 10
368.543
 20
259.492
 30
0.000000
  70
    32
  0
VERTEX
  8
寸法線
  5
1F9C
 10
368.531
 20
259.422
 30
0.000000
  70
    32
  0
VERTEX
  8
寸法線
  5
1F9D
 10
368.524
 20
259.355
 30
0.000000
  70
    32
  0
VERTEX
  8
寸法線
  5
1F9E
 10
368.520
 20
259.291
 30
0.000000
  70
    32
  0
VERTEX
  8
寸法線
  5
1F9F
 10
368.519
 20
259.228
 30
0.000000
  70
    32
  0
VERTEX
  8
寸法線
  5
1FA0
 10
368.522
 20
259.168
 30
0.000000
  70
    32
  0
VERTEX
  8
寸法線
  5
1FA1
 10
368.528
 20
259.110
 30
0.000000
  70
    32
  0
VERTEX
  8
寸法線
  5
1FA2
 10
368.536
 20
259.053
 30
0.000000
  70
    32
  0
VERTEX
  8
寸法線
  5
1FA3
 10
368.546
 20
258.999
 30
0.000000
  70
    32
  0
VERTEX
  8
寸法線
  5
1FA4
 10
368.558
 20
258.946
 30
0.000000
  70
    32
  0
VERTEX
  8
寸法線
  5
1FA5
 10
368.572
 20
258.894
 30
0.000000
  70
    32
  0
VERTEX
  8
寸法線
  5
1FA6
 10
368.588
 20
258.844
 30
0.000000
  70
    32
  0
VERTEX
  8
寸法線
  5
1FA7
 10
368.604
 20
258.795
 30
0.000000
  70
    32
  0
VERTEX
  8
寸法線
  5
1FA8
 10
368.621
 20
258.748
 30
0.000000
  70
    32
  0
VERTEX
  8
寸法線
  5
1FA9
 10
368.639
 20
258.702
 30
0.000000
  70
    32
  0
VERTEX
  8
寸法線
  5
1FAA
 10
368.658
 20
258.656
 30
0.000000
  70
    32
  0
VERTEX
  8
寸法線
  5
1FAB
 10
368.676
 20
258.612
 30
0.000000
  70
    32
  0
VERTEX
  8
寸法線
  5
1FAC
 10
368.694
 20
258.568
 30
0.000000
  70
    32
  0
VERTEX
  8
寸法線
  5
1FAD
 10
368.711
 20
258.525
 30
0.000000
  70
    32
  0
VERTEX
  8
寸法線
  5
1FAE
 10
368.728
 20
258.483
 30
0.000000
  70
    32
  0
VERTEX
  8
寸法線
  5
1FAF
 10
368.743
 20
258.441
 30
0.000000
  70
    32
  0
VERTEX
  8
寸法線
  5
1FB0
 10
368.757
 20
258.399
 30
0.000000
  70
    32
  0
VERTEX
  8
寸法線
  5
1FB1
 10
368.769
 20
258.357
 30
0.000000
  70
    32
  0
VERTEX
  8
寸法線
  5
1FB2
 10
368.780
 20
258.316
 30
0.000000
  70
    32
  0
VERTEX
  8
寸法線
  5
1FB3
 10
368.789
 20
258.275
 30
0.000000
  70
    32
  0
VERTEX
  8
寸法線
  5
1FB4
 10
368.796
 20
258.234
 30
0.000000
  70
    32
  0
VERTEX
  8
寸法線
  5
1FB5
 10
368.802
 20
258.193
 30
0.000000
  70
    32
  0
VERTEX
  8
寸法線
  5
1FB6
 10
368.806
 20
258.153
 30
0.000000
  70
    32
  0
VERTEX
  8
寸法線
  5
1FB7
 10
368.808
 20
258.112
 30
0.000000
  70
    32
  0
VERTEX
  8
寸法線
  5
1FB8
 10
368.809
 20
258.072
 30
0.000000
  70
    32
  0
VERTEX
  8
寸法線
  5
1FB9
 10
368.808
 20
258.032
 30
0.000000
  70
    32
  0
VERTEX
  8
寸法線
  5
1FBA
 10
368.806
 20
257.992
 30
0.000000
  70
    32
  0
VERTEX
  8
寸法線
  5
1FBB
 10
368.802
 20
257.952
 30
0.000000
  70
    32
  0
VERTEX
  8
寸法線
  5
1FBC
 10
368.797
 20
257.912
 30
0.000000
  70
    32
  0
VERTEX
  8
寸法線
  5
1FBD
 10
368.791
 20
257.872
 30
0.000000
  70
    32
  0
VERTEX
  8
寸法線
  5
1FBE
 10
368.784
 20
257.833
 30
0.000000
  70
    32
  0
VERTEX
  8
寸法線
  5
1FBF
 10
368.775
 20
257.793
 30
0.000000
  70
    32
  0
VERTEX
  8
寸法線
  5
1FC0
 10
368.764
 20
257.754
 30
0.000000
  70
    32
  0
VERTEX
  8
寸法線
  5
1FC1
 10
368.753
 20
257.715
 30
0.000000
  70
    32
  0
VERTEX
  8
寸法線
  5
1FC2
 10
368.741
 20
257.676
 30
0.000000
  70
    32
  0
VERTEX
  8
寸法線
  5
1FC3
 10
368.727
 20
257.636
 30
0.000000
  70
    32
  0
VERTEX
  8
寸法線
  5
1FC4
 10
368.712
 20
257.598
 30
0.000000
  70
    32
  0
VERTEX
  8
寸法線
  5
1FC5
 10
368.696
 20
257.559
 30
0.000000
  70
    32
  0
VERTEX
  8
寸法線
  5
1FC6
 10
368.679
 20
257.520
 30
0.000000
  70
    32
  0
VERTEX
  8
寸法線
  5
1FC7
 10
368.661
 20
257.481
 30
0.000000
  70
    32
  0
VERTEX
  8
寸法線
  5
1FC8
 10
368.642
 20
257.442
 30
0.000000
  70
    32
  0
VERTEX
  8
寸法線
  5
1FC9
 10
368.623
 20
257.404
 30
0.000000
  70
    32
  0
VERTEX
  8
寸法線
  5
1FCA
 10
368.602
 20
257.365
 30
0.000000
  70
    32
  0
VERTEX
  8
寸法線
  5
1FCB
 10
368.580
 20
257.327
 30
0.000000
  70
    32
  0
VERTEX
  8
寸法線
  5
1FCC
 10
368.558
 20
257.288
 30
0.000000
  70
    32
  0
VERTEX
  8
寸法線
  5
1FCD
 10
368.535
 20
257.250
 30
0.000000
  70
    32
  0
VERTEX
  8
寸法線
  5
1FCE
 10
368.511
 20
257.211
 30
0.000000
  70
    32
  0
VERTEX
  8
寸法線
  5
1FCF
 10
368.486
 20
257.173
 30
0.000000
  70
    32
  0
VERTEX
  8
寸法線
  5
1FD0
 10
368.461
 20
257.134
 30
0.000000
  70
    32
  0
VERTEX
  8
寸法線
  5
1FD1
 10
368.435
 20
257.096
 30
0.000000
  70
    32
  0
VERTEX
  8
寸法線
  5
1FD2
 10
368.408
 20
257.058
 30
0.000000
  70
    32
  0
VERTEX
  8
寸法線
  5
1FD3
 10
368.381
 20
257.019
 30
0.000000
  70
    32
  0
VERTEX
  8
寸法線
  5
1FD4
 10
368.353
 20
256.981
 30
0.000000
  70
    32
  0
VERTEX
  8
寸法線
  5
1FD5
 10
368.325
 20
256.942
 30
0.000000
  70
    32
  0
VERTEX
  8
寸法線
  5
1FD6
 10
368.296
 20
256.904
 30
0.000000
  70
    32
  0
VERTEX
  8
寸法線
  5
1FD7
 10
368.267
 20
256.866
 30
0.000000
  70
    32
  0
VERTEX
  8
寸法線
  5
1FD8
 10
368.238
 20
256.827
 30
0.000000
  70
    32
  0
VERTEX
  8
寸法線
  5
1FD9
 10
368.208
 20
256.789
 30
0.000000
  70
    32
  0
VERTEX
  8
寸法線
  5
1FDA
 10
368.178
 20
256.750
 30
0.000000
  70
    32
  0
VERTEX
  8
寸法線
  5
1FDB
 10
368.147
 20
256.712
 30
0.000000
  70
    32
  0
VERTEX
  8
寸法線
  5
1FDC
 10
368.116
 20
256.673
 30
0.000000
  70
    32
  0
VERTEX
  8
寸法線
  5
1FDD
 10
368.085
 20
256.634
 30
0.000000
  70
    32
  0
VERTEX
  8
寸法線
  5
1FDE
 10
368.054
 20
256.596
 30
0.000000
  70
    32
  0
VERTEX
  8
寸法線
  5
1FDF
 10
368.023
 20
256.557
 30
0.000000
  70
    32
  0
VERTEX
  8
寸法線
  5
1FE0
 10
367.992
 20
256.518
 30
0.000000
  70
    32
  0
VERTEX
  8
寸法線
  5
1FE1
 10
367.960
 20
256.479
 30
0.000000
  70
    32
  0
VERTEX
  8
寸法線
  5
1FE2
 10
367.929
 20
256.440
 30
0.000000
  70
    32
  0
VERTEX
  8
寸法線
  5
1FE3
 10
367.897
 20
256.401
 30
0.000000
  70
    32
  0
VERTEX
  8
寸法線
  5
1FE4
 10
367.866
 20
256.362
 30
0.000000
  70
    32
  0
VERTEX
  8
寸法線
  5
1FE5
 10
367.834
 20
256.323
 30
0.000000
  70
    32
  0
VERTEX
  8
寸法線
  5
1FE6
 10
367.803
 20
256.283
 30
0.000000
  70
    32
  0
VERTEX
  8
寸法線
  5
1FE7
 10
367.772
 20
256.244
 30
0.000000
  70
    32
  0
VERTEX
  8
寸法線
  5
1FE8
 10
367.741
 20
256.204
 30
0.000000
  70
    32
  0
VERTEX
  8
寸法線
  5
1FE9
 10
367.710
 20
256.164
 30
0.000000
  70
    32
  0
VERTEX
  8
寸法線
  5
1FEA
 10
367.679
 20
256.125
 30
0.000000
  70
    32
  0
VERTEX
  8
寸法線
  5
1FEB
 10
367.649
 20
256.085
 30
0.000000
  70
    32
  0
VERTEX
  8
寸法線
  5
1FEC
 10
367.619
 20
256.045
 30
0.000000
  70
    32
  0
VERTEX
  8
寸法線
  5
1FED
 10
367.589
 20
256.004
 30
0.000000
  70
    32
  0
VERTEX
  8
寸法線
  5
1FEE
 10
367.560
 20
255.964
 30
0.000000
  70
    32
  0
VERTEX
  8
寸法線
  5
1FEF
 10
367.531
 20
255.923
 30
0.000000
  70
    32
  0
VERTEX
  8
寸法線
  5
1FF0
 10
367.503
 20
255.883
 30
0.000000
  70
    32
  0
VERTEX
  8
寸法線
  5
1FF1
 10
367.475
 20
255.842
 30
0.000000
  70
    32
  0
VERTEX
  8
寸法線
  5
1FF2
 10
367.447
 20
255.801
 30
0.000000
  70
    32
  0
VERTEX
  8
寸法線
  5
1FF3
 10
367.421
 20
255.760
 30
0.000000
  70
    32
  0
VERTEX
  8
寸法線
  5
1FF4
 10
367.394
 20
255.718
 30
0.000000
  70
    32
  0
VERTEX
  8
寸法線
  5
1FF5
 10
367.369
 20
255.677
 30
0.000000
  70
    32
  0
VERTEX
  8
寸法線
  5
1FF6
 10
367.344
 20
255.635
 30
0.000000
  70
    32
  0
VERTEX
  8
寸法線
  5
1FF7
 10
367.320
 20
255.593
 30
0.000000
  70
    32
  0
VERTEX
  8
寸法線
  5
1FF8
 10
367.296
 20
255.551
 30
0.000000
  70
    32
  0
VERTEX
  8
寸法線
  5
1FF9
 10
367.274
 20
255.509
 30
0.000000
  70
    32
  0
VERTEX
  8
寸法線
  5
1FFA
 10
367.252
 20
255.466
 30
0.000000
  70
    32
  0
VERTEX
  8
寸法線
  5
1FFB
 10
367.231
 20
255.423
 30
0.000000
  70
    32
  0
VERTEX
  8
寸法線
  5
1FFC
 10
367.211
 20
255.380
 30
0.000000
  70
    32
  0
VERTEX
  8
寸法線
  5
1FFD
 10
367.192
 20
255.337
 30
0.000000
  70
    32
  0
VERTEX
  8
寸法線
  5
1FFE
 10
367.173
 20
255.294
 30
0.000000
  70
    32
  0
VERTEX
  8
寸法線
  5
1FFF
 10
367.156
 20
255.250
 30
0.000000
  70
    32
  0
VERTEX
  8
寸法線
  5
2000
 10
367.140
 20
255.206
 30
0.000000
  70
    32
  0
VERTEX
  8
寸法線
  5
2001
 10
367.124
 20
255.162
 30
0.000000
  70
    32
  0
VERTEX
  8
寸法線
  5
2002
 10
367.110
 20
255.117
 30
0.000000
  70
    32
  0
VERTEX
  8
寸法線
  5
2003
 10
367.097
 20
255.073
 30
0.000000
  70
    32
  0
VERTEX
  8
寸法線
  5
2004
 10
367.084
 20
255.028
 30
0.000000
  70
    32
  0
VERTEX
  8
寸法線
  5
2005
 10
367.073
 20
254.983
 30
0.000000
  70
    32
  0
VERTEX
  8
寸法線
  5
2006
 10
367.062
 20
254.938
 30
0.000000
  70
    32
  0
VERTEX
  8
寸法線
  5
2007
 10
367.052
 20
254.892
 30
0.000000
  70
    32
  0
VERTEX
  8
寸法線
  5
2008
 10
367.043
 20
254.847
 30
0.000000
  70
    32
  0
VERTEX
  8
寸法線
  5
2009
 10
367.035
 20
254.801
 30
0.000000
  70
    32
  0
VERTEX
  8
寸法線
  5
200A
 10
367.027
 20
254.755
 30
0.000000
  70
    32
  0
VERTEX
  8
寸法線
  5
200B
 10
367.020
 20
254.709
 30
0.000000
  70
    32
  0
VERTEX
  8
寸法線
  5
200C
 10
367.014
 20
254.663
 30
0.000000
  70
    32
  0
VERTEX
  8
寸法線
  5
200D
 10
367.009
 20
254.617
 30
0.000000
  70
    32
  0
VERTEX
  8
寸法線
  5
200E
 10
367.004
 20
254.570
 30
0.000000
  70
    32
  0
VERTEX
  8
寸法線
  5
200F
 10
367.000
 20
254.524
 30
0.000000
  70
    32
  0
VERTEX
  8
寸法線
  5
2010
 10
366.996
 20
254.477
 30
0.000000
  70
    32
  0
VERTEX
  8
寸法線
  5
2011
 10
366.993
 20
254.430
 30
0.000000
  70
    32
  0
VERTEX
  8
寸法線
  5
2012
 10
366.990
 20
254.383
 30
0.000000
  70
    32
  0
VERTEX
  8
寸法線
  5
2013
 10
366.988
 20
254.336
 30
0.000000
  70
    32
  0
VERTEX
  8
寸法線
  5
2014
 10
366.987
 20
254.289
 30
0.000000
  70
    32
  0
VERTEX
  8
寸法線
  5
2015
 10
366.986
 20
254.242
 30
0.000000
  70
    32
  0
VERTEX
  8
寸法線
  5
2016
 10
366.985
 20
254.195
 30
0.000000
  70
    32
  0
VERTEX
  8
寸法線
  5
2017
 10
366.985
 20
254.148
 30
0.000000
  70
    32
  0
VERTEX
  8
寸法線
  5
2018
 10
366.985
 20
254.101
 30
0.000000
  70
    32
  0
VERTEX
  8
寸法線
  5
2019
 10
366.985
 20
254.053
 30
0.000000
  70
    32
  0
VERTEX
  8
寸法線
  5
201A
 10
366.986
 20
254.006
 30
0.000000
  70
    32
  0
VERTEX
  8
寸法線
  5
201B
 10
366.987
 20
253.959
 30
0.000000
  70
    32
  0
VERTEX
  8
寸法線
  5
201C
 10
366.988
 20
253.911
 30
0.000000
  70
    32
  0
VERTEX
  8
寸法線
  5
201D
 10
366.990
 20
253.864
 30
0.000000
  70
    32
  0
VERTEX
  8
寸法線
  5
201E
 10
366.991
 20
253.817
 30
0.000000
  70
    32
  0
VERTEX
  8
寸法線
  5
201F
 10
366.993
 20
253.769
 30
0.000000
  70
    32
  0
VERTEX
  8
寸法線
  5
2020
 10
366.996
 20
253.722
 30
0.000000
  70
    32
  0
VERTEX
  8
寸法線
  5
2021
 10
366.998
 20
253.675
 30
0.000000
  70
    32
  0
VERTEX
  8
寸法線
  5
2022
 10
367.000
 20
253.627
 30
0.000000
  70
    32
  0
VERTEX
  8
寸法線
  5
2023
 10
367.002
 20
253.580
 30
0.000000
  70
    32
  0
VERTEX
  8
寸法線
  5
2024
 10
367.005
 20
253.533
 30
0.000000
  70
    32
  0
VERTEX
  8
寸法線
  5
2025
 10
367.007
 20
253.486
 30
0.000000
  70
    32
  0
VERTEX
  8
寸法線
  5
2026
 10
367.010
 20
253.439
 30
0.000000
  70
    32
  0
VERTEX
  8
寸法線
  5
2027
 10
367.012
 20
253.392
 30
0.000000
  70
    32
  0
VERTEX
  8
寸法線
  5
2028
 10
367.015
 20
253.345
 30
0.000000
  70
    32
  0
VERTEX
  8
寸法線
  5
2029
 10
367.017
 20
253.298
 30
0.000000
  70
    32
  0
VERTEX
  8
寸法線
  5
202A
 10
367.019
 20
253.252
 30
0.000000
  70
    32
  0
VERTEX
  8
寸法線
  5
202B
 10
367.021
 20
253.205
 30
0.000000
  70
    32
  0
VERTEX
  8
寸法線
  5
202C
 10
367.023
 20
253.159
 30
0.000000
  70
    32
  0
VERTEX
  8
寸法線
  5
202D
 10
367.025
 20
253.113
 30
0.000000
  70
    32
  0
VERTEX
  8
寸法線
  5
202E
 10
367.027
 20
253.066
 30
0.000000
  70
    32
  0
VERTEX
  8
寸法線
  5
202F
 10
367.028
 20
253.020
 30
0.000000
  70
    32
  0
VERTEX
  8
寸法線
  5
2030
 10
367.029
 20
252.975
 30
0.000000
  70
    32
  0
VERTEX
  8
寸法線
  5
2031
 10
367.029
 20
252.929
 30
0.000000
  70
    32
  0
VERTEX
  8
寸法線
  5
2032
 10
367.030
 20
252.883
 30
0.000000
  70
    32
  0
VERTEX
  8
寸法線
  5
2033
 10
367.030
 20
252.838
 30
0.000000
  70
    32
  0
VERTEX
  8
寸法線
  5
2034
 10
367.029
 20
252.793
 30
0.000000
  70
    32
  0
VERTEX
  8
寸法線
  5
2035
 10
367.029
 20
252.748
 30
0.000000
  70
    32
  0
VERTEX
  8
寸法線
  5
2036
 10
367.028
 20
252.703
 30
0.000000
  70
    32
  0
VERTEX
  8
寸法線
  5
2037
 10
367.026
 20
252.659
 30
0.000000
  70
    32
  0
VERTEX
  8
寸法線
  5
2038
 10
367.024
 20
252.614
 30
0.000000
  70
    32
  0
VERTEX
  8
寸法線
  5
2039
 10
367.021
 20
252.570
 30
0.000000
  70
    32
  0
VERTEX
  8
寸法線
  5
203A
 10
367.018
 20
252.526
 30
0.000000
  70
    32
  0
VERTEX
  8
寸法線
  5
203B
 10
367.014
 20
252.483
 30
0.000000
  70
    32
  0
VERTEX
  8
寸法線
  5
203C
 10
367.010
 20
252.439
 30
0.000000
  70
    32
  0
VERTEX
  8
寸法線
  5
203D
 10
367.005
 20
252.396
 30
0.000000
  70
    32
  0
VERTEX
  8
寸法線
  5
203E
 10
366.999
 20
252.353
 30
0.000000
  70
    32
  0
VERTEX
  8
寸法線
  5
203F
 10
366.993
 20
252.311
 30
0.000000
  70
    32
  0
VERTEX
  8
寸法線
  5
2040
 10
366.986
 20
252.268
 30
0.000000
  70
    32
  0
VERTEX
  8
寸法線
  5
2041
 10
366.978
 20
252.226
 30
0.000000
  70
    32
  0
VERTEX
  8
寸法線
  5
2042
 10
366.970
 20
252.185
 30
0.000000
  70
    32
  0
VERTEX
  8
寸法線
  5
2043
 10
366.961
 20
252.143
 30
0.000000
  70
    32
  0
VERTEX
  8
寸法線
  5
2044
 10
366.951
 20
252.102
 30
0.000000
  70
    32
  0
VERTEX
  8
寸法線
  5
2045
 10
366.940
 20
252.062
 30
0.000000
  70
    32
  0
VERTEX
  8
寸法線
  5
2046
 10
366.928
 20
252.021
 30
0.000000
  70
    32
  0
VERTEX
  8
寸法線
  5
2047
 10
366.915
 20
251.981
 30
0.000000
  70
    32
  0
VERTEX
  8
寸法線
  5
2048
 10
366.902
 20
251.941
 30
0.000000
  70
    32
  0
VERTEX
  8
寸法線
  5
2049
 10
366.887
 20
251.902
 30
0.000000
  70
    32
  0
VERTEX
  8
寸法線
  5
204A
 10
366.872
 20
251.863
 30
0.000000
  70
    32
  0
VERTEX
  8
寸法線
  5
204B
 10
366.855
 20
251.824
 30
0.000000
  70
    32
  0
VERTEX
  8
寸法線
  5
204C
 10
366.838
 20
251.786
 30
0.000000
  70
    32
  0
VERTEX
  8
寸法線
  5
204D
 10
366.820
 20
251.748
 30
0.000000
  70
    32
  0
VERTEX
  8
寸法線
  5
204E
 10
366.800
 20
251.711
 30
0.000000
  70
    32
  0
VERTEX
  8
寸法線
  5
204F
 10
366.779
 20
251.674
 30
0.000000
  70
    32
  0
VERTEX
  8
寸法線
  5
2050
 10
366.757
 20
251.637
 30
0.000000
  70
    32
  0
VERTEX
  8
寸法線
  5
2051
 10
366.735
 20
251.601
 30
0.000000
  70
    32
  0
VERTEX
  8
寸法線
  5
2052
 10
366.710
 20
251.565
 30
0.000000
  70
    32
  0
VERTEX
  8
寸法線
  5
2053
 10
366.685
 20
251.530
 30
0.000000
  70
    32
  0
VERTEX
  8
寸法線
  5
2054
 10
366.658
 20
251.495
 30
0.000000
  70
    32
  0
VERTEX
  8
寸法線
  5
2055
 10
366.631
 20
251.461
 30
0.000000
  70
    32
  0
VERTEX
  8
寸法線
  5
2056
 10
366.601
 20
251.427
 30
0.000000
  70
    32
  0
VERTEX
  8
寸法線
  5
2057
 10
366.571
 20
251.393
 30
0.000000
  70
    32
  0
VERTEX
  8
寸法線
  5
2058
 10
366.539
 20
251.360
 30
0.000000
  70
    32
  0
VERTEX
  8
寸法線
  5
2059
 10
366.506
 20
251.328
 30
0.000000
  70
    32
  0
VERTEX
  8
寸法線
  5
205A
 10
366.472
 20
251.296
 30
0.000000
  70
    32
  0
VERTEX
  8
寸法線
  5
205B
 10
366.436
 20
251.264
 30
0.000000
  70
    32
  0
VERTEX
  8
寸法線
  5
205C
 10
366.398
 20
251.233
 30
0.000000
  70
    32
  0
VERTEX
  8
寸法線
  5
205D
 10
366.359
 20
251.203
 30
0.000000
  70
    32
  0
VERTEX
  8
寸法線
  5
205E
 10
366.319
 20
251.173
 30
0.000000
  70
    32
  0
VERTEX
  8
寸法線
  5
205F
 10
366.277
 20
251.144
 30
0.000000
  70
    32
  0
VERTEX
  8
寸法線
  5
2060
 10
366.234
 20
251.114
 30
0.000000
  70
    32
  0
VERTEX
  8
寸法線
  5
2061
 10
366.189
 20
251.085
 30
0.000000
  70
    32
  0
VERTEX
  8
寸法線
  5
2062
 10
366.143
 20
251.055
 30
0.000000
  70
    32
  0
VERTEX
  8
寸法線
  5
2063
 10
366.096
 20
251.025
 30
0.000000
  70
    32
  0
VERTEX
  8
寸法線
  5
2064
 10
366.048
 20
250.992
 30
0.000000
  70
    32
  0
VERTEX
  8
寸法線
  5
2065
 10
366.000
 20
250.958
 30
0.000000
  70
    32
  0
VERTEX
  8
寸法線
  5
2066
 10
365.950
 20
250.922
 30
0.000000
  70
    32
  0
VERTEX
  8
寸法線
  5
2067
 10
365.900
 20
250.883
 30
0.000000
  70
    32
  0
VERTEX
  8
寸法線
  5
2068
 10
365.850
 20
250.841
 30
0.000000
  70
    32
  0
VERTEX
  8
寸法線
  5
2069
 10
365.800
 20
250.796
 30
0.000000
  70
    32
  0
VERTEX
  8
寸法線
  5
206A
 10
365.749
 20
250.747
 30
0.000000
  70
    32
  0
VERTEX
  8
寸法線
  5
206B
 10
365.699
 20
250.693
 30
0.000000
  70
    32
  0
VERTEX
  8
寸法線
  5
206C
 10
365.649
 20
250.635
 30
0.000000
  70
    32
  0
VERTEX
  8
寸法線
  5
206D
 10
365.599
 20
250.571
 30
0.000000
  70
    32
  0
VERTEX
  8
寸法線
  5
206E
 10
365.549
 20
250.502
 30
0.000000
  70
    32
  0
VERTEX
  8
寸法線
  5
206F
 10
365.500
 20
250.427
 30
0.000000
  70
    32
  0
VERTEX
  8
寸法線
  5
2070
 10
365.452
 20
250.345
 30
0.000000
  70
    32
  0
SEQEND
  8
寸法線
  5
2071
  0
POLYLINE
  8
寸法線
  5
2072
  66
     1
 10
0.000000
 20
0.000000
 30
0.000000
  70
     8
  0
VERTEX
  8
寸法線
  5
2073
 10
366.132
 20
260.345
 30
0.000000
  70
    32
  0
VERTEX
  8
寸法線
  5
2074
 10
366.066
 20
260.245
 30
0.000000
  70
    32
  0
VERTEX
  8
寸法線
  5
2075
 10
366.006
 20
260.149
 30
0.000000
  70
    32
  0
VERTEX
  8
寸法線
  5
2076
 10
365.953
 20
260.056
 30
0.000000
  70
    32
  0
VERTEX
  8
寸法線
  5
2077
 10
365.905
 20
259.966
 30
0.000000
  70
    32
  0
VERTEX
  8
寸法線
  5
2078
 10
365.864
 20
259.880
 30
0.000000
  70
    32
  0
VERTEX
  8
寸法線
  5
2079
 10
365.829
 20
259.796
 30
0.000000
  70
    32
  0
VERTEX
  8
寸法線
  5
207A
 10
365.799
 20
259.716
 30
0.000000
  70
    32
  0
VERTEX
  8
寸法線
  5
207B
 10
365.774
 20
259.639
 30
0.000000
  70
    32
  0
VERTEX
  8
寸法線
  5
207C
 10
365.753
 20
259.564
 30
0.000000
  70
    32
  0
VERTEX
  8
寸法線
  5
207D
 10
365.738
 20
259.492
 30
0.000000
  70
    32
  0
VERTEX
  8
寸法線
  5
207E
 10
365.726
 20
259.422
 30
0.000000
  70
    32
  0
VERTEX
  8
寸法線
  5
207F
 10
365.719
 20
259.355
 30
0.000000
  70
    32
  0
VERTEX
  8
寸法線
  5
2080
 10
365.715
 20
259.291
 30
0.000000
  70
    32
  0
VERTEX
  8
寸法線
  5
2081
 10
365.714
 20
259.228
 30
0.000000
  70
    32
  0
VERTEX
  8
寸法線
  5
2082
 10
365.717
 20
259.168
 30
0.000000
  70
    32
  0
VERTEX
  8
寸法線
  5
2083
 10
365.722
 20
259.110
 30
0.000000
  70
    32
  0
VERTEX
  8
寸法線
  5
2084
 10
365.730
 20
259.053
 30
0.000000
  70
    32
  0
VERTEX
  8
寸法線
  5
2085
 10
365.741
 20
258.999
 30
0.000000
  70
    32
  0
VERTEX
  8
寸法線
  5
2086
 10
365.753
 20
258.946
 30
0.000000
  70
    32
  0
VERTEX
  8
寸法線
  5
2087
 10
365.767
 20
258.894
 30
0.000000
  70
    32
  0
VERTEX
  8
寸法線
  5
2088
 10
365.782
 20
258.844
 30
0.000000
  70
    32
  0
VERTEX
  8
寸法線
  5
2089
 10
365.799
 20
258.795
 30
0.000000
  70
    32
  0
VERTEX
  8
寸法線
  5
208A
 10
365.816
 20
258.748
 30
0.000000
  70
    32
  0
VERTEX
  8
寸法線
  5
208B
 10
365.834
 20
258.702
 30
0.000000
  70
    32
  0
VERTEX
  8
寸法線
  5
208C
 10
365.852
 20
258.656
 30
0.000000
  70
    32
  0
VERTEX
  8
寸法線
  5
208D
 10
365.871
 20
258.612
 30
0.000000
  70
    32
  0
VERTEX
  8
寸法線
  5
208E
 10
365.889
 20
258.568
 30
0.000000
  70
    32
  0
VERTEX
  8
寸法線
  5
208F
 10
365.906
 20
258.525
 30
0.000000
  70
    32
  0
VERTEX
  8
寸法線
  5
2090
 10
365.923
 20
258.483
 30
0.000000
  70
    32
  0
VERTEX
  8
寸法線
  5
2091
 10
365.938
 20
258.441
 30
0.000000
  70
    32
  0
VERTEX
  8
寸法線
  5
2092
 10
365.952
 20
258.399
 30
0.000000
  70
    32
  0
VERTEX
  8
寸法線
  5
2093
 10
365.964
 20
258.357
 30
0.000000
  70
    32
  0
VERTEX
  8
寸法線
  5
2094
 10
365.975
 20
258.316
 30
0.000000
  70
    32
  0
VERTEX
  8
寸法線
  5
2095
 10
365.984
 20
258.275
 30
0.000000
  70
    32
  0
VERTEX
  8
寸法線
  5
2096
 10
365.991
 20
258.234
 30
0.000000
  70
    32
  0
VERTEX
  8
寸法線
  5
2097
 10
365.996
 20
258.193
 30
0.000000
  70
    32
  0
VERTEX
  8
寸法線
  5
2098
 10
366.000
 20
258.153
 30
0.000000
  70
    32
  0
VERTEX
  8
寸法線
  5
2099
 10
366.003
 20
258.112
 30
0.000000
  70
    32
  0
VERTEX
  8
寸法線
  5
209A
 10
366.004
 20
258.072
 30
0.000000
  70
    32
  0
VERTEX
  8
寸法線
  5
209B
 10
366.003
 20
258.032
 30
0.000000
  70
    32
  0
VERTEX
  8
寸法線
  5
209C
 10
366.001
 20
257.992
 30
0.000000
  70
    32
  0
VERTEX
  8
寸法線
  5
209D
 10
365.997
 20
257.952
 30
0.000000
  70
    32
  0
VERTEX
  8
寸法線
  5
209E
 10
365.992
 20
257.912
 30
0.000000
  70
    32
  0
VERTEX
  8
寸法線
  5
209F
 10
365.986
 20
257.872
 30
0.000000
  70
    32
  0
VERTEX
  8
寸法線
  5
20A0
 10
365.978
 20
257.833
 30
0.000000
  70
    32
  0
VERTEX
  8
寸法線
  5
20A1
 10
365.969
 20
257.793
 30
0.000000
  70
    32
  0
VERTEX
  8
寸法線
  5
20A2
 10
365.959
 20
257.754
 30
0.000000
  70
    32
  0
VERTEX
  8
寸法線
  5
20A3
 10
365.948
 20
257.715
 30
0.000000
  70
    32
  0
VERTEX
  8
寸法線
  5
20A4
 10
365.935
 20
257.676
 30
0.000000
  70
    32
  0
VERTEX
  8
寸法線
  5
20A5
 10
365.922
 20
257.636
 30
0.000000
  70
    32
  0
VERTEX
  8
寸法線
  5
20A6
 10
365.907
 20
257.598
 30
0.000000
  70
    32
  0
VERTEX
  8
寸法線
  5
20A7
 10
365.891
 20
257.559
 30
0.000000
  70
    32
  0
VERTEX
  8
寸法線
  5
20A8
 10
365.874
 20
257.520
 30
0.000000
  70
    32
  0
VERTEX
  8
寸法線
  5
20A9
 10
365.856
 20
257.481
 30
0.000000
  70
    32
  0
VERTEX
  8
寸法線
  5
20AA
 10
365.837
 20
257.442
 30
0.000000
  70
    32
  0
VERTEX
  8
寸法線
  5
20AB
 10
365.817
 20
257.404
 30
0.000000
  70
    32
  0
VERTEX
  8
寸法線
  5
20AC
 10
365.797
 20
257.365
 30
0.000000
  70
    32
  0
VERTEX
  8
寸法線
  5
20AD
 10
365.775
 20
257.327
 30
0.000000
  70
    32
  0
VERTEX
  8
寸法線
  5
20AE
 10
365.753
 20
257.288
 30
0.000000
  70
    32
  0
VERTEX
  8
寸法線
  5
20AF
 10
365.729
 20
257.250
 30
0.000000
  70
    32
  0
VERTEX
  8
寸法線
  5
20B0
 10
365.706
 20
257.211
 30
0.000000
  70
    32
  0
VERTEX
  8
寸法線
  5
20B1
 10
365.681
 20
257.173
 30
0.000000
  70
    32
  0
VERTEX
  8
寸法線
  5
20B2
 10
365.656
 20
257.134
 30
0.000000
  70
    32
  0
VERTEX
  8
寸法線
  5
20B3
 10
365.630
 20
257.096
 30
0.000000
  70
    32
  0
VERTEX
  8
寸法線
  5
20B4
 10
365.603
 20
257.058
 30
0.000000
  70
    32
  0
VERTEX
  8
寸法線
  5
20B5
 10
365.576
 20
257.019
 30
0.000000
  70
    32
  0
VERTEX
  8
寸法線
  5
20B6
 10
365.548
 20
256.981
 30
0.000000
  70
    32
  0
VERTEX
  8
寸法線
  5
20B7
 10
365.520
 20
256.942
 30
0.000000
  70
    32
  0
VERTEX
  8
寸法線
  5
20B8
 10
365.491
 20
256.904
 30
0.000000
  70
    32
  0
VERTEX
  8
寸法線
  5
20B9
 10
365.462
 20
256.866
 30
0.000000
  70
    32
  0
VERTEX
  8
寸法線
  5
20BA
 10
365.433
 20
256.827
 30
0.000000
  70
    32
  0
VERTEX
  8
寸法線
  5
20BB
 10
365.403
 20
256.789
 30
0.000000
  70
    32
  0
VERTEX
  8
寸法線
  5
20BC
 10
365.372
 20
256.750
 30
0.000000
  70
    32
  0
VERTEX
  8
寸法線
  5
20BD
 10
365.342
 20
256.712
 30
0.000000
  70
    32
  0
VERTEX
  8
寸法線
  5
20BE
 10
365.311
 20
256.673
 30
0.000000
  70
    32
  0
VERTEX
  8
寸法線
  5
20BF
 10
365.280
 20
256.634
 30
0.000000
  70
    32
  0
VERTEX
  8
寸法線
  5
20C0
 10
365.249
 20
256.596
 30
0.000000
  70
    32
  0
VERTEX
  8
寸法線
  5
20C1
 10
365.218
 20
256.557
 30
0.000000
  70
    32
  0
VERTEX
  8
寸法線
  5
20C2
 10
365.186
 20
256.518
 30
0.000000
  70
    32
  0
VERTEX
  8
寸法線
  5
20C3
 10
365.155
 20
256.479
 30
0.000000
  70
    32
  0
VERTEX
  8
寸法線
  5
20C4
 10
365.123
 20
256.440
 30
0.000000
  70
    32
  0
VERTEX
  8
寸法線
  5
20C5
 10
365.092
 20
256.401
 30
0.000000
  70
    32
  0
VERTEX
  8
寸法線
  5
20C6
 10
365.060
 20
256.362
 30
0.000000
  70
    32
  0
VERTEX
  8
寸法線
  5
20C7
 10
365.029
 20
256.323
 30
0.000000
  70
    32
  0
VERTEX
  8
寸法線
  5
20C8
 10
364.998
 20
256.283
 30
0.000000
  70
    32
  0
VERTEX
  8
寸法線
  5
20C9
 10
364.966
 20
256.244
 30
0.000000
  70
    32
  0
VERTEX
  8
寸法線
  5
20CA
 10
364.935
 20
256.204
 30
0.000000
  70
    32
  0
VERTEX
  8
寸法線
  5
20CB
 10
364.904
 20
256.164
 30
0.000000
  70
    32
  0
VERTEX
  8
寸法線
  5
20CC
 10
364.874
 20
256.125
 30
0.000000
  70
    32
  0
VERTEX
  8
寸法線
  5
20CD
 10
364.844
 20
256.085
 30
0.000000
  70
    32
  0
VERTEX
  8
寸法線
  5
20CE
 10
364.814
 20
256.045
 30
0.000000
  70
    32
  0
VERTEX
  8
寸法線
  5
20CF
 10
364.784
 20
256.004
 30
0.000000
  70
    32
  0
VERTEX
  8
寸法線
  5
20D0
 10
364.755
 20
255.964
 30
0.000000
  70
    32
  0
VERTEX
  8
寸法線
  5
20D1
 10
364.726
 20
255.923
 30
0.000000
  70
    32
  0
VERTEX
  8
寸法線
  5
20D2
 10
364.698
 20
255.883
 30
0.000000
  70
    32
  0
VERTEX
  8
寸法線
  5
20D3
 10
364.670
 20
255.842
 30
0.000000
  70
    32
  0
VERTEX
  8
寸法線
  5
20D4
 10
364.642
 20
255.801
 30
0.000000
  70
    32
  0
VERTEX
  8
寸法線
  5
20D5
 10
364.615
 20
255.760
 30
0.000000
  70
    32
  0
VERTEX
  8
寸法線
  5
20D6
 10
364.589
 20
255.718
 30
0.000000
  70
    32
  0
VERTEX
  8
寸法線
  5
20D7
 10
364.564
 20
255.677
 30
0.000000
  70
    32
  0
VERTEX
  8
寸法線
  5
20D8
 10
364.539
 20
255.635
 30
0.000000
  70
    32
  0
VERTEX
  8
寸法線
  5
20D9
 10
364.515
 20
255.593
 30
0.000000
  70
    32
  0
VERTEX
  8
寸法線
  5
20DA
 10
364.491
 20
255.551
 30
0.000000
  70
    32
  0
VERTEX
  8
寸法線
  5
20DB
 10
364.469
 20
255.509
 30
0.000000
  70
    32
  0
VERTEX
  8
寸法線
  5
20DC
 10
364.447
 20
255.466
 30
0.000000
  70
    32
  0
VERTEX
  8
寸法線
  5
20DD
 10
364.426
 20
255.423
 30
0.000000
  70
    32
  0
VERTEX
  8
寸法線
  5
20DE
 10
364.406
 20
255.380
 30
0.000000
  70
    32
  0
VERTEX
  8
寸法線
  5
20DF
 10
364.386
 20
255.337
 30
0.000000
  70
    32
  0
VERTEX
  8
寸法線
  5
20E0
 10
364.368
 20
255.294
 30
0.000000
  70
    32
  0
VERTEX
  8
寸法線
  5
20E1
 10
364.351
 20
255.250
 30
0.000000
  70
    32
  0
VERTEX
  8
寸法線
  5
20E2
 10
364.335
 20
255.206
 30
0.000000
  70
    32
  0
VERTEX
  8
寸法線
  5
20E3
 10
364.319
 20
255.162
 30
0.000000
  70
    32
  0
VERTEX
  8
寸法線
  5
20E4
 10
364.305
 20
255.117
 30
0.000000
  70
    32
  0
VERTEX
  8
寸法線
  5
20E5
 10
364.292
 20
255.073
 30
0.000000
  70
    32
  0
VERTEX
  8
寸法線
  5
20E6
 10
364.279
 20
255.028
 30
0.000000
  70
    32
  0
VERTEX
  8
寸法線
  5
20E7
 10
364.268
 20
254.983
 30
0.000000
  70
    32
  0
VERTEX
  8
寸法線
  5
20E8
 10
364.257
 20
254.938
 30
0.000000
  70
    32
  0
VERTEX
  8
寸法線
  5
20E9
 10
364.247
 20
254.892
 30
0.000000
  70
    32
  0
VERTEX
  8
寸法線
  5
20EA
 10
364.238
 20
254.847
 30
0.000000
  70
    32
  0
VERTEX
  8
寸法線
  5
20EB
 10
364.230
 20
254.801
 30
0.000000
  70
    32
  0
VERTEX
  8
寸法線
  5
20EC
 10
364.222
 20
254.755
 30
0.000000
  70
    32
  0
VERTEX
  8
寸法線
  5
20ED
 10
364.215
 20
254.709
 30
0.000000
  70
    32
  0
VERTEX
  8
寸法線
  5
20EE
 10
364.209
 20
254.663
 30
0.000000
  70
    32
  0
VERTEX
  8
寸法線
  5
20EF
 10
364.203
 20
254.617
 30
0.000000
  70
    32
  0
VERTEX
  8
寸法線
  5
20F0
 10
364.199
 20
254.570
 30
0.000000
  70
    32
  0
VERTEX
  8
寸法線
  5
20F1
 10
364.194
 20
254.524
 30
0.000000
  70
    32
  0
VERTEX
  8
寸法線
  5
20F2
 10
364.191
 20
254.477
 30
0.000000
  70
    32
  0
VERTEX
  8
寸法線
  5
20F3
 10
364.188
 20
254.430
 30
0.000000
  70
    32
  0
VERTEX
  8
寸法線
  5
20F4
 10
364.185
 20
254.383
 30
0.000000
  70
    32
  0
VERTEX
  8
寸法線
  5
20F5
 10
364.183
 20
254.336
 30
0.000000
  70
    32
  0
VERTEX
  8
寸法線
  5
20F6
 10
364.181
 20
254.289
 30
0.000000
  70
    32
  0
VERTEX
  8
寸法線
  5
20F7
 10
364.180
 20
254.242
 30
0.000000
  70
    32
  0
VERTEX
  8
寸法線
  5
20F8
 10
364.180
 20
254.195
 30
0.000000
  70
    32
  0
VERTEX
  8
寸法線
  5
20F9
 10
364.179
 20
254.148
 30
0.000000
  70
    32
  0
VERTEX
  8
寸法線
  5
20FA
 10
364.179
 20
254.101
 30
0.000000
  70
    32
  0
VERTEX
  8
寸法線
  5
20FB
 10
364.180
 20
254.053
 30
0.000000
  70
    32
  0
VERTEX
  8
寸法線
  5
20FC
 10
364.181
 20
254.006
 30
0.000000
  70
    32
  0
VERTEX
  8
寸法線
  5
20FD
 10
364.182
 20
253.959
 30
0.000000
  70
    32
  0
VERTEX
  8
寸法線
  5
20FE
 10
364.183
 20
253.911
 30
0.000000
  70
    32
  0
VERTEX
  8
寸法線
  5
20FF
 10
364.185
 20
253.864
 30
0.000000
  70
    32
  0
VERTEX
  8
寸法線
  5
2100
 10
364.186
 20
253.817
 30
0.000000
  70
    32
  0
VERTEX
  8
寸法線
  5
2101
 10
364.188
 20
253.769
 30
0.000000
  70
    32
  0
VERTEX
  8
寸法線
  5
2102
 10
364.190
 20
253.722
 30
0.000000
  70
    32
  0
VERTEX
  8
寸法線
  5
2103
 10
364.193
 20
253.675
 30
0.000000
  70
    32
  0
VERTEX
  8
寸法線
  5
2104
 10
364.195
 20
253.627
 30
0.000000
  70
    32
  0
VERTEX
  8
寸法線
  5
2105
 10
364.197
 20
253.580
 30
0.000000
  70
    32
  0
VERTEX
  8
寸法線
  5
2106
 10
364.200
 20
253.533
 30
0.000000
  70
    32
  0
VERTEX
  8
寸法線
  5
2107
 10
364.202
 20
253.486
 30
0.000000
  70
    32
  0
VERTEX
  8
寸法線
  5
2108
 10
364.205
 20
253.439
 30
0.000000
  70
    32
  0
VERTEX
  8
寸法線
  5
2109
 10
364.207
 20
253.392
 30
0.000000
  70
    32
  0
VERTEX
  8
寸法線
  5
210A
 10
364.210
 20
253.345
 30
0.000000
  70
    32
  0
VERTEX
  8
寸法線
  5
210B
 10
364.212
 20
253.298
 30
0.000000
  70
    32
  0
VERTEX
  8
寸法線
  5
210C
 10
364.214
 20
253.252
 30
0.000000
  70
    32
  0
VERTEX
  8
寸法線
  5
210D
 10
364.216
 20
253.205
 30
0.000000
  70
    32
  0
VERTEX
  8
寸法線
  5
210E
 10
364.218
 20
253.159
 30
0.000000
  70
    32
  0
VERTEX
  8
寸法線
  5
210F
 10
364.220
 20
253.113
 30
0.000000
  70
    32
  0
VERTEX
  8
寸法線
  5
2110
 10
364.221
 20
253.066
 30
0.000000
  70
    32
  0
VERTEX
  8
寸法線
  5
2111
 10
364.223
 20
253.020
 30
0.000000
  70
    32
  0
VERTEX
  8
寸法線
  5
2112
 10
364.224
 20
252.975
 30
0.000000
  70
    32
  0
VERTEX
  8
寸法線
  5
2113
 10
364.224
 20
252.929
 30
0.000000
  70
    32
  0
VERTEX
  8
寸法線
  5
2114
 10
364.225
 20
252.883
 30
0.000000
  70
    32
  0
VERTEX
  8
寸法線
  5
2115
 10
364.225
 20
252.838
 30
0.000000
  70
    32
  0
VERTEX
  8
寸法線
  5
2116
 10
364.224
 20
252.793
 30
0.000000
  70
    32
  0
VERTEX
  8
寸法線
  5
2117
 10
364.224
 20
252.748
 30
0.000000
  70
    32
  0
VERTEX
  8
寸法線
  5
2118
 10
364.222
 20
252.703
 30
0.000000
  70
    32
  0
VERTEX
  8
寸法線
  5
2119
 10
364.221
 20
252.659
 30
0.000000
  70
    32
  0
VERTEX
  8
寸法線
  5
211A
 10
364.219
 20
252.614
 30
0.000000
  70
    32
  0
VERTEX
  8
寸法線
  5
211B
 10
364.216
 20
252.570
 30
0.000000
  70
    32
  0
VERTEX
  8
寸法線
  5
211C
 10
364.213
 20
252.526
 30
0.000000
  70
    32
  0
VERTEX
  8
寸法線
  5
211D
 10
364.209
 20
252.483
 30
0.000000
  70
    32
  0
VERTEX
  8
寸法線
  5
211E
 10
364.205
 20
252.439
 30
0.000000
  70
    32
  0
VERTEX
  8
寸法線
  5
211F
 10
364.200
 20
252.396
 30
0.000000
  70
    32
  0
VERTEX
  8
寸法線
  5
2120
 10
364.194
 20
252.353
 30
0.000000
  70
    32
  0
VERTEX
  8
寸法線
  5
2121
 10
364.188
 20
252.311
 30
0.000000
  70
    32
  0
VERTEX
  8
寸法線
  5
2122
 10
364.181
 20
252.268
 30
0.000000
  70
    32
  0
VERTEX
  8
寸法線
  5
2123
 10
364.173
 20
252.226
 30
0.000000
  70
    32
  0
VERTEX
  8
寸法線
  5
2124
 10
364.165
 20
252.185
 30
0.000000
  70
    32
  0
VERTEX
  8
寸法線
  5
2125
 10
364.155
 20
252.143
 30
0.000000
  70
    32
  0
VERTEX
  8
寸法線
  5
2126
 10
364.145
 20
252.102
 30
0.000000
  70
    32
  0
VERTEX
  8
寸法線
  5
2127
 10
364.134
 20
252.062
 30
0.000000
  70
    32
  0
VERTEX
  8
寸法線
  5
2128
 10
364.123
 20
252.021
 30
0.000000
  70
    32
  0
VERTEX
  8
寸法線
  5
2129
 10
364.110
 20
251.981
 30
0.000000
  70
    32
  0
VERTEX
  8
寸法線
  5
212A
 10
364.097
 20
251.941
 30
0.000000
  70
    32
  0
VERTEX
  8
寸法線
  5
212B
 10
364.082
 20
251.902
 30
0.000000
  70
    32
  0
VERTEX
  8
寸法線
  5
212C
 10
364.067
 20
251.863
 30
0.000000
  70
    32
  0
VERTEX
  8
寸法線
  5
212D
 10
364.050
 20
251.824
 30
0.000000
  70
    32
  0
VERTEX
  8
寸法線
  5
212E
 10
364.033
 20
251.786
 30
0.000000
  70
    32
  0
VERTEX
  8
寸法線
  5
212F
 10
364.014
 20
251.748
 30
0.000000
  70
    32
  0
VERTEX
  8
寸法線
  5
2130
 10
363.995
 20
251.711
 30
0.000000
  70
    32
  0
VERTEX
  8
寸法線
  5
2131
 10
363.974
 20
251.674
 30
0.000000
  70
    32
  0
VERTEX
  8
寸法線
  5
2132
 10
363.952
 20
251.637
 30
0.000000
  70
    32
  0
VERTEX
  8
寸法線
  5
2133
 10
363.929
 20
251.601
 30
0.000000
  70
    32
  0
VERTEX
  8
寸法線
  5
2134
 10
363.905
 20
251.565
 30
0.000000
  70
    32
  0
VERTEX
  8
寸法線
  5
2135
 10
363.880
 20
251.530
 30
0.000000
  70
    32
  0
VERTEX
  8
寸法線
  5
2136
 10
363.853
 20
251.495
 30
0.000000
  70
    32
  0
VERTEX
  8
寸法線
  5
2137
 10
363.825
 20
251.461
 30
0.000000
  70
    32
  0
VERTEX
  8
寸法線
  5
2138
 10
363.796
 20
251.427
 30
0.000000
  70
    32
  0
VERTEX
  8
寸法線
  5
2139
 10
363.766
 20
251.393
 30
0.000000
  70
    32
  0
VERTEX
  8
寸法線
  5
213A
 10
363.734
 20
251.360
 30
0.000000
  70
    32
  0
VERTEX
  8
寸法線
  5
213B
 10
363.701
 20
251.328
 30
0.000000
  70
    32
  0
VERTEX
  8
寸法線
  5
213C
 10
363.666
 20
251.296
 30
0.000000
  70
    32
  0
VERTEX
  8
寸法線
  5
213D
 10
363.630
 20
251.264
 30
0.000000
  70
    32
  0
VERTEX
  8
寸法線
  5
213E
 10
363.593
 20
251.233
 30
0.000000
  70
    32
  0
VERTEX
  8
寸法線
  5
213F
 10
363.554
 20
251.203
 30
0.000000
  70
    32
  0
VERTEX
  8
寸法線
  5
2140
 10
363.514
 20
251.173
 30
0.000000
  70
    32
  0
VERTEX
  8
寸法線
  5
2141
 10
363.472
 20
251.144
 30
0.000000
  70
    32
  0
VERTEX
  8
寸法線
  5
2142
 10
363.428
 20
251.114
 30
0.000000
  70
    32
  0
VERTEX
  8
寸法線
  5
2143
 10
363.384
 20
251.085
 30
0.000000
  70
    32
  0
VERTEX
  8
寸法線
  5
2144
 10
363.338
 20
251.055
 30
0.000000
  70
    32
  0
VERTEX
  8
寸法線
  5
2145
 10
363.291
 20
251.025
 30
0.000000
  70
    32
  0
VERTEX
  8
寸法線
  5
2146
 10
363.243
 20
250.992
 30
0.000000
  70
    32
  0
VERTEX
  8
寸法線
  5
2147
 10
363.194
 20
250.958
 30
0.000000
  70
    32
  0
VERTEX
  8
寸法線
  5
2148
 10
363.145
 20
250.922
 30
0.000000
  70
    32
  0
VERTEX
  8
寸法線
  5
2149
 10
363.095
 20
250.883
 30
0.000000
  70
    32
  0
VERTEX
  8
寸法線
  5
214A
 10
363.045
 20
250.841
 30
0.000000
  70
    32
  0
VERTEX
  8
寸法線
  5
214B
 10
362.995
 20
250.796
 30
0.000000
  70
    32
  0
VERTEX
  8
寸法線
  5
214C
 10
362.944
 20
250.747
 30
0.000000
  70
    32
  0
VERTEX
  8
寸法線
  5
214D
 10
362.894
 20
250.693
 30
0.000000
  70
    32
  0
VERTEX
  8
寸法線
  5
214E
 10
362.843
 20
250.635
 30
0.000000
  70
    32
  0
VERTEX
  8
寸法線
  5
214F
 10
362.793
 20
250.571
 30
0.000000
  70
    32
  0
VERTEX
  8
寸法線
  5
2150
 10
362.744
 20
250.502
 30
0.000000
  70
    32
  0
VERTEX
  8
寸法線
  5
2151
 10
362.695
 20
250.427
 30
0.000000
  70
    32
  0
VERTEX
  8
寸法線
  5
2152
 10
362.646
 20
250.345
 30
0.000000
  70
    32
  0
SEQEND
  8
寸法線
  5
2153
  0
DIMENSION
  5
180A
  8
寸法線
  2
*D10
 10
267.09242518208231
 20
285.28969313520469
 30
0.0
 11
255.5924251820822
 21
287.16469313520457
 31
0.0
 70
     0
 13
244.09242518208231
 23
260.04532750959322
 33
0.0
 14
267.09242518208231
 24
261.89872816159112
 34
0.0
1001
ACAD
1000
DSTYLE
1002
{
1070
   271
1070
     2
1070
   341
1005
0
1002
}
  0
LINE
  5
188A
  8
外形線
 10
368.93754273000508
 20
260.34532750959301
 30
0.0
 11
386.45332810469961
 21
260.34532750959301
 31
0.0
  0
LINE
  5
18BC
  8
外形線
 10
276.53955097613118
 20
353.8774776025316
 30
0.0
 11
403.53955097613112
 21
353.8774776025316
 31
0.0
  0
LINE
  5
18BD
  8
外形線
 10
276.53955097613118
 20
354.87747760253148
 30
0.0
 11
403.53955097613112
 21
354.87747760253148
 31
0.0
  0
TEXT
  5
18BE
  8
文字
 10
277.07884397613122
 20
356.5561496025316
 30
0.0
 40
3.5
  1
Model No.CG-3 Cylinder Gauge (Blind Hole Type)
  7
STYLE3
  0
LINE
  5
18BF
  8
外形線
 10
350.48623897613118
 20
172.5053516025315
 30
0.0
 11
350.48623897613118
 21
192.9003356025315
 31
0.0
  0
TEXT
  5
18C0
  8
0
  6
CONTINUOUS
 10
351.94370597613118
 20
184.0181196025315
 30
0.0
 40
2.1000000000000001
  1
Design and specifications are subject to change without notice for future improvement.
  7
STYLE3
  0
TEXT
  5
18C1
  8
0
  6
CONTINUOUS
 10
395.25648297613122
 20
176.00163560253151
 30
0.0
 40
2.399999999999999
  1
mm
  7
STYLE3
  0
LINE
  5
18C2
  8
外形線
 10
350.48623897613118
 20
182.12012960253151
 30
0.0
 11
491.2776569761312
 21
182.12012960253151
 31
0.0
  0
TEXT
  5
18C3
  8
0
  6
CONTINUOUS
 10
354.27565697613119
 20
177.74977460253149
 30
0.0
 40
3.0
  1
三　　角　　法
  7
STYLE3
  0
TEXT
  5
18C4
  8
0
  6
CONTINUOUS
 10
351.65221497613118
 20
174.25349160253151
 30
0.0
 40
2.1000000000000001
  1
3RD Angle Projection
  7
STYLE3
  0
TEXT
  5
18C5
  8
0
  6
CONTINUOUS
 10
387.38615697613119
 20
174.25349260253151
 30
0.0
 40
2.1000000000000001
  1
Unit
  7
STYLE3
  0
TEXT
  5
18C6
  8
0
  6
CONTINUOUS
 10
387.2144359761312
 20
177.75572960253149
 30
0.0
 40
3.0
  1
単位
  7
STYLE3
  0
LINE
  5
18C7
  8
外形線
 10
385.7569669761312
 20
182.12012960253151
 30
0.0
 11
385.7569669761312
 21
172.5053516025315
 31
0.0
  0
TEXT
  5
18C8
  8
0
  6
CONTINUOUS
 10
454.73244797613131
 20
174.25349260253151
 30
0.0
 40
2.1000000000000001
  1
OZAKI MFG. CO., LTD.
  7
STYLE3
  0
TEXT
  5
18C9
  8
0
  6
CONTINUOUS
 10
453.85796897613119
 20
178.04113160253149
 30
0.0
 40
3.0
  1
株式会社　尾崎製作所
  7
STYLE3
  0
TEXT
  5
18CA
  8
0
  6
CONTINUOUS
 10
433.45341397613112
 20
176.00163460253151
 30
0.0
 40
2.1000000000000001
  1
2010.06.23
  7
STYLE3
  0
TEXT
  5
18CB
  8
0
  6
CONTINUOUS
 10
414.61483597613108
 20
176.29299260253151
 30
0.0
 40
2.399999999999999
  1
1/1
  7
STYLE3
  0
TEXT
  5
18CC
  8
0
  6
CONTINUOUS
 10
404.99554697613121
 20
174.54484960253151
 30
0.0
 40
2.1000000000000001
  1
Scale
  7
STYLE3
  0
TEXT
  5
18CD
  8
0
  6
CONTINUOUS
 10
404.53233197613122
 20
177.46437160253149
 30
0.0
 40
3.0
  1
尺 度
  7
STYLE3
  0
LINE
  5
18CE
  8
外形線
 10
403.24658397613121
 20
182.12012960253151
 30
0.0
 11
403.24658397613121
 21
172.5053516025315
 31
0.0
  0
TEXT
  5
18CF
  8
0
  6
CONTINUOUS
 10
424.32524597613121
 20
177.58657760253149
 30
0.0
 40
3.0
  1
日 付
  7
STYLE3
  0
TEXT
  5
18D0
  8
0
  6
CONTINUOUS
 10
424.70860697613119
 20
174.25349360253151
 30
0.0
 40
2.1000000000000001
  1
Date
  7
STYLE3
  0
LINE
  5
18D1
  8
外形線
 10
422.77665597613111
 20
182.12012960253151
 30
0.0
 11
422.77665597613111
 21
172.5053516025315
 31
0.0
  0
LINE
  5
18D2
  8
外形線
 10
452.50900597613111
 20
182.12012960253151
 30
0.0
 11
452.50900597613111
 21
172.5053516025315
 31
0.0
  0
TEXT
  5
18D3
  8
0
  6
CONTINUOUS
 10
352.23519997613118
 20
187.9472676025315
 30
0.0
 40
3.5
  1
仕様及び外観は予告なく変更される場合がございますのでご了承下さい。
  7
STYLE3
  0
LINE
  5
18D4
  8
外形線
 10
350.48623897613118
 20
192.9003356025315
 30
0.0
 11
491.2776569761312
 21
192.9003356025315
 31
0.0
  0
ENDSEC
  0
EOF
