  0
SECTION
  2
HEADER
  9
$ACADVER
  1
AC1018
  9
$ACADMAINTVER
 70
     0
  9
$DWGCODEPAGE
  3
ANSI_932
  9
$INSBASE
 10
0.0
 20
0.0
 30
0.0
  9
$EXTMIN
 10
236.4655427980613
 20
171.6339896600951
 30
-0.0000000000112498
  9
$EXTMAX
 10
491.8990686337299
 20
367.055777876885
 30
0.0000000000002956
  9
$LIMMIN
 10
0.0
 20
0.0
  9
$LIMMAX
 10
420.0
 20
297.0
  9
$ORTHOMODE
 70
     0
  9
$REGENMODE
 70
     1
  9
$FILLMODE
 70
     1
  9
$QTEXTMODE
 70
     0
  9
$MIRRTEXT
 70
     1
  9
$LTSCALE
 40
1.0
  9
$ATTMODE
 70
     1
  9
$TEXTSIZE
 40
3.0
  9
$TRACEWID
 40
1.0
  9
$TEXTSTYLE
  7
STYLE3
  9
$CLAYER
  8
寸法線
  9
$CELTYPE
  6
BYLAYER
  9
$CECOLOR
 62
   256
  9
$CELTSCALE
 40
1.0
  9
$DISPSILH
 70
     0
  9
$DIMSCALE
 40
1.0
  9
$DIMASZ
 40
2.5
  9
$DIMEXO
 40
0.0
  9
$DIMDLI
 40
3.75
  9
$DIMRND
 40
0.0
  9
$DIMDLE
 40
0.0
  9
$DIMEXE
 40
1.25
  9
$DIMTP
 40
0.0
  9
$DIMTM
 40
0.0
  9
$DIMTXT
 40
2.5
  9
$DIMCEN
 40
2.5
  9
$DIMTSZ
 40
0.0
  9
$DIMTOL
 70
     0
  9
$DIMLIM
 70
     0
  9
$DIMTIH
 70
     0
  9
$DIMTOH
 70
     0
  9
$DIMSE1
 70
     0
  9
$DIMSE2
 70
     0
  9
$DIMTAD
 70
     1
  9
$DIMZIN
 70
     8
  9
$DIMBLK
  1

  9
$DIMASO
 70
     1
  9
$DIMSHO
 70
     1
  9
$DIMPOST
  1

  9
$DIMAPOST
  1

  9
$DIMALT
 70
     0
  9
$DIMALTD
 70
     4
  9
$DIMALTF
 40
0.0394
  9
$DIMLFAC
 40
1.0
  9
$DIMTOFL
 70
     1
  9
$DIMTVP
 40
0.0
  9
$DIMTIX
 70
     0
  9
$DIMSOXD
 70
     0
  9
$DIMSAH
 70
     1
  9
$DIMBLK1
  1
OPEN
  9
$DIMBLK2
  1
OPEN
  9
$DIMSTYLE
  2
STYLE3
  9
$DIMCLRD
 70
     2
  9
$DIMCLRE
 70
     2
  9
$DIMCLRT
 70
     6
  9
$DIMTFAC
 40
1.0
  9
$DIMGAP
 40
0.625
  9
$DIMJUST
 70
     0
  9
$DIMSD1
 70
     0
  9
$DIMSD2
 70
     0
  9
$DIMTOLJ
 70
     1
  9
$DIMTZIN
 70
     0
  9
$DIMALTZ
 70
     0
  9
$DIMALTTZ
 70
     0
  9
$DIMUPT
 70
     0
  9
$DIMDEC
 70
     2
  9
$DIMTDEC
 70
     4
  9
$DIMALTU
 70
     8
  9
$DIMALTTD
 70
     4
  9
$DIMTXSTY
  7
STYLE3
  9
$DIMAUNIT
 70
     0
  9
$DIMADEC
 70
     0
  9
$DIMALTRND
 40
0.0
  9
$DIMAZIN
 70
     0
  9
$DIMDSEP
 70
    46
  9
$DIMATFIT
 70
     3
  9
$DIMFRAC
 70
     0
  9
$DIMLDRBLK
  1

  9
$DIMLUNIT
 70
     2
  9
$DIMLWD
 70
    -2
  9
$DIMLWE
 70
    -2
  9
$DIMTMOVE
 70
     0
  9
$LUNITS
 70
     2
  9
$LUPREC
 70
     4
  9
$SKETCHINC
 40
1.0
  9
$FILLETRAD
 40
0.5
  9
$AUNITS
 70
     0
  9
$AUPREC
 70
     0
  9
$MENU
  1
.
  9
$ELEVATION
 40
0.0
  9
$PELEVATION
 40
0.0
  9
$THICKNESS
 40
0.0
  9
$LIMCHECK
 70
     0
  9
$CHAMFERA
 40
1.0
  9
$CHAMFERB
 40
1.0
  9
$CHAMFERC
 40
20.0
  9
$CHAMFERD
 40
0.0
  9
$SKPOLY
 70
     0
  9
$TDCREATE
 40
2450753.462540625
  9
$TDUCREATE
 40
2450753.087540625
  9
$TDUPDATE
 40
2455371.494048750
  9
$TDUUPDATE
 40
2455371.119048750
  9
$TDINDWG
 40
2.8982341551
  9
$TDUSRTIMER
 40
2.8982341551
  9
$USRTIMER
 70
     1
  9
$ANGBASE
 50
0.0
  9
$ANGDIR
 70
     0
  9
$PDMODE
 70
     0
  9
$PDSIZE
 40
0.0
  9
$PLINEWID
 40
0.0
  9
$SPLFRAME
 70
     0
  9
$SPLINETYPE
 70
     6
  9
$SPLINESEGS
 70
     8
  9
$HANDSEED
  5
1C9B
  9
$SURFTAB1
 70
     6
  9
$SURFTAB2
 70
     6
  9
$SURFTYPE
 70
     6
  9
$SURFU
 70
     6
  9
$SURFV
 70
     6
  9
$UCSBASE
  2

  9
$UCSNAME
  2

  9
$UCSORG
 10
0.0
 20
0.0
 30
0.0
  9
$UCSXDIR
 10
1.0
 20
0.0
 30
0.0
  9
$UCSYDIR
 10
0.0
 20
1.0
 30
0.0
  9
$UCSORTHOREF
  2

  9
$UCSORTHOVIEW
 70
     0
  9
$UCSORGTOP
 10
0.0
 20
0.0
 30
0.0
  9
$UCSORGBOTTOM
 10
0.0
 20
0.0
 30
0.0
  9
$UCSORGLEFT
 10
0.0
 20
0.0
 30
0.0
  9
$UCSORGRIGHT
 10
0.0
 20
0.0
 30
0.0
  9
$UCSORGFRONT
 10
0.0
 20
0.0
 30
0.0
  9
$UCSORGBACK
 10
0.0
 20
0.0
 30
0.0
  9
$PUCSBASE
  2

  9
$PUCSNAME
  2

  9
$PUCSORG
 10
0.0
 20
0.0
 30
0.0
  9
$PUCSXDIR
 10
1.0
 20
0.0
 30
0.0
  9
$PUCSYDIR
 10
0.0
 20
1.0
 30
0.0
  9
$PUCSORTHOREF
  2

  9
$PUCSORTHOVIEW
 70
     0
  9
$PUCSORGTOP
 10
0.0
 20
0.0
 30
0.0
  9
$PUCSORGBOTTOM
 10
0.0
 20
0.0
 30
0.0
  9
$PUCSORGLEFT
 10
0.0
 20
0.0
 30
0.0
  9
$PUCSORGRIGHT
 10
0.0
 20
0.0
 30
0.0
  9
$PUCSORGFRONT
 10
0.0
 20
0.0
 30
0.0
  9
$PUCSORGBACK
 10
0.0
 20
0.0
 30
0.0
  9
$USERI1
 70
     0
  9
$USERI2
 70
     0
  9
$USERI3
 70
     0
  9
$USERI4
 70
     0
  9
$USERI5
 70
     0
  9
$USERR1
 40
0.0
  9
$USERR2
 40
0.0
  9
$USERR3
 40
0.0
  9
$USERR4
 40
0.0
  9
$USERR5
 40
0.0
  9
$WORLDVIEW
 70
     1
  9
$SHADEDGE
 70
     3
  9
$SHADEDIF
 70
    70
  9
$TILEMODE
 70
     1
  9
$MAXACTVP
 70
    48
  9
$PINSBASE
 10
0.0
 20
0.0
 30
0.0
  9
$PLIMCHECK
 70
     0
  9
$PEXTMIN
 10
1.000000000000000E+20
 20
1.000000000000000E+20
 30
1.000000000000000E+20
  9
$PEXTMAX
 10
-1.000000000000000E+20
 20
-1.000000000000000E+20
 30
-1.000000000000000E+20
  9
$PLIMMIN
 10
0.0
 20
0.0
  9
$PLIMMAX
 10
420.0
 20
297.0
  9
$UNITMODE
 70
     0
  9
$VISRETAIN
 70
     1
  9
$PLINEGEN
 70
     0
  9
$PSLTSCALE
 70
     1
  9
$TREEDEPTH
 70
  3020
  9
$CMLSTYLE
  2
STANDARD
  9
$CMLJUST
 70
     0
  9
$CMLSCALE
 40
20.0
  9
$PROXYGRAPHICS
 70
     1
  9
$MEASUREMENT
 70
     1
  9
$CELWEIGHT
370
    -1
  9
$ENDCAPS
280
     0
  9
$JOINSTYLE
280
     0
  9
$LWDISPLAY
290
     0
  9
$INSUNITS
 70
     0
  9
$HYPERLINKBASE
  1

  9
$STYLESHEET
  1
AutoCAD LT 98.ctb
  9
$XEDIT
290
     1
  9
$CEPSNTYPE
380
     0
  9
$PSTYLEMODE
290
     1
  9
$FINGERPRINTGUID
  2
{C7BFE060-A3F1-4C79-819F-D0A672490614}
  9
$VERSIONGUID
  2
{E53C974D-23D7-478A-987F-B2BD85C44D8B}
  9
$EXTNAMES
290
     1
  9
$PSVPSCALE
 40
0.0
  9
$OLESTARTUP
290
     0
  9
$SORTENTS
280
    96
  9
$INDEXCTL
280
     0
  9
$HIDETEXT
280
     0
  9
$XCLIPFRAME
290
     0
  9
$HALOGAP
280
     0
  9
$OBSCOLOR
 70
   257
  9
$OBSLTYPE
280
     0
  9
$INTERSECTIONDISPLAY
280
     0
  9
$INTERSECTIONCOLOR
 70
   257
  9
$DIMASSOC
280
     1
  9
$PROJECTNAME
  1

  0
ENDSEC
  0
SECTION
  2
CLASSES
  0
CLASS
  1
DICTIONARYVAR
  2
AcDbDictionaryVar
  3
ObjectDBX Classes
 90
        0
 91
        2
280
     0
281
     0
  0
CLASS
  1
HATCH
  2
AcDbHatch
  3
ObjectDBX Classes
 90
        0
 91
        1
280
     0
281
     1
  0
CLASS
  1
ACDBDICTIONARYWDFLT
  2
AcDbDictionaryWithDefault
  3
ObjectDBX Classes
 90
        0
 91
        1
280
     0
281
     0
  0
CLASS
  1
TABLESTYLE
  2
AcDbTableStyle
  3
ObjectDBX Classes
 90
     2047
 91
        1
280
     0
281
     0
  0
CLASS
  1
SORTENTSTABLE
  2
AcDbSortentsTable
  3
ObjectDBX Classes
 90
        0
 91
        1
280
     0
281
     0
  0
ENDSEC
  0
SECTION
  2
TABLES
  0
TABLE
  2
VPORT
  5
8
330
0
100
AcDbSymbolTable
 70
     2
  0
VPORT
  5
1C9A
330
8
100
AcDbSymbolTableRecord
100
AcDbViewportTableRecord
  2
*Active
 70
     0
 10
0.0
 20
0.0
 11
1.0
 21
1.0
 12
364.1823057158956
 22
269.3448837684901
 13
0.0
 23
0.0
 14
10.0
 24
10.0
 15
10.0
 25
10.0
 16
0.0
 26
0.0
 36
1.0
 17
0.0
 27
0.0
 37
0.0
 40
196.9078854655868
 41
1.530456852791878
 42
50.0
 43
0.0
 44
0.0
 50
0.0
 51
0.0
 71
     0
 72
   100
 73
     1
 74
     1
 75
     0
 76
     0
 77
     0
 78
     0
281
     0
 65
     1
110
0.0
120
0.0
130
0.0
111
1.0
121
0.0
131
0.0
112
0.0
122
1.0
132
0.0
 79
     0
146
0.0
  0
ENDTAB
  0
TABLE
  2
LTYPE
  5
5
330
0
100
AcDbSymbolTable
 70
     4
  0
LTYPE
  5
12
330
5
100
AcDbSymbolTableRecord
100
AcDbLinetypeTableRecord
  2
BYBLOCK
 70
     0
  3

 72
    65
 73
     0
 40
0.0
  0
LTYPE
  5
13
330
5
100
AcDbSymbolTableRecord
100
AcDbLinetypeTableRecord
  2
BYLAYER
 70
     0
  3

 72
    65
 73
     0
 40
0.0
  0
LTYPE
  5
14
330
5
100
AcDbSymbolTableRecord
100
AcDbLinetypeTableRecord
  2
CONTINUOUS
 70
     0
  3
Solid line
 72
    65
 73
     0
 40
0.0
  0
LTYPE
  5
22
330
5
100
AcDbSymbolTableRecord
100
AcDbLinetypeTableRecord
  2
CENTER2
 70
     0
  3
Center (.5x) ___ _ ___ _ ___ _ ___ _ ___ _ ___
 72
    65
 73
     4
 40
28.575
 49
19.05
 74
     0
 49
-3.174999999999999
 74
     0
 49
3.174999999999999
 74
     0
 49
-3.174999999999999
 74
     0
  0
LTYPE
  5
10A4
330
5
100
AcDbSymbolTableRecord
100
AcDbLinetypeTableRecord
  2
PHANTOM2
 70
     0
  3
Phantom (.5x) ___ _ _ ___ _ _ ___ _ _ ___ _ _
 72
    65
 73
     6
 40
31.75
 49
15.875
 74
     0
 49
-3.174999999999999
 74
     0
 49
3.174999999999999
 74
     0
 49
-3.174999999999999
 74
     0
 49
3.174999999999999
 74
     0
 49
-3.174999999999999
 74
     0
  0
LTYPE
  5
1152
330
5
100
AcDbSymbolTableRecord
100
AcDbLinetypeTableRecord
  2
HIDDEN2
 70
     0
  3
Hidden (.5x) _ _ _ _ _ _ _ _ _ _ _ _ _ _ _ _ _
 72
    65
 73
     2
 40
4.762499999999999
 49
3.174999999999999
 74
     0
 49
-1.587499999999999
 74
     0
  0
ENDTAB
  0
TABLE
  2
LAYER
  5
2
330
0
100
AcDbSymbolTable
 70
    13
  0
LAYER
  5
E
330
2
100
AcDbSymbolTableRecord
100
AcDbLayerTableRecord
  2
0
 70
     0
 62
     7
  6
CONTINUOUS
370
    -3
390
1B33
  0
LAYER
  5
25
330
2
100
AcDbSymbolTableRecord
100
AcDbLayerTableRecord
  2
外形線
 70
     0
 62
     7
  6
CONTINUOUS
370
    -3
390
1B33
  0
LAYER
  5
26
330
2
100
AcDbSymbolTableRecord
100
AcDbLayerTableRecord
  2
寸法線
 70
     0
 62
     2
  6
CONTINUOUS
370
    -3
390
1B33
  0
LAYER
  5
27
330
2
100
AcDbSymbolTableRecord
100
AcDbLayerTableRecord
  2
中心線
 70
     0
 62
     4
  6
CENTER2
370
    -3
390
1B33
  0
LAYER
  5
2A
330
2
100
AcDbSymbolTableRecord
100
AcDbLayerTableRecord
  2
ﾊｯﾁﾝｸ
 70
     0
 62
     6
  6
CONTINUOUS
370
    -3
390
1B33
  0
LAYER
  5
2B
330
2
100
AcDbSymbolTableRecord
100
AcDbLayerTableRecord
  2
文字
 70
     0
 62
     6
  6
CONTINUOUS
370
    -3
390
1B33
  0
LAYER
  5
53
330
2
100
AcDbSymbolTableRecord
100
AcDbLayerTableRecord
  2
DEFPOINTS
 70
     0
 62
     7
  6
CONTINUOUS
290
     0
370
    -3
390
1B33
  0
LAYER
  5
A5
330
2
100
AcDbSymbolTableRecord
100
AcDbLayerTableRecord
  2
C
 70
     0
 62
     7
  6
CONTINUOUS
370
    -3
390
1B33
  0
LAYER
  5
10A5
330
2
100
AcDbSymbolTableRecord
100
AcDbLayerTableRecord
  2
想像線
 70
     0
 62
     1
  6
PHANTOM2
370
    -3
390
1B33
  0
LAYER
  5
10A6
330
2
100
AcDbSymbolTableRecord
100
AcDbLayerTableRecord
  2
隠れ線
 70
     0
 62
     1
  6
HIDDEN2
370
    -3
390
1B33
  0
ENDTAB
  0
TABLE
  2
STYLE
  5
3
330
0
100
AcDbSymbolTable
 70
     5
  0
STYLE
  5
F
330
3
100
AcDbSymbolTableRecord
100
AcDbTextStyleTableRecord
  2
STANDARD
 70
     0
 40
0.0
 41
1.0
 50
0.0
 71
     0
 42
2.5
  3
txt
  4

  0
STYLE
  5
3F
330
3
100
AcDbSymbolTableRecord
100
AcDbTextStyleTableRecord
  2
STYLE3
 70
     0
 40
0.0
 41
1.0
 50
0.0
 71
     0
 42
3.0
  3
romans.shx
  4
bigfont.shx
  0
ENDTAB
  0
TABLE
  2
VIEW
  5
6
330
0
100
AcDbSymbolTable
 70
     0
  0
ENDTAB
  0
TABLE
  2
UCS
  5
7
330
0
100
AcDbSymbolTable
 70
     0
  0
ENDTAB
  0
TABLE
  2
APPID
  5
9
330
0
100
AcDbSymbolTable
 70
     2
  0
APPID
  5
10
330
9
100
AcDbSymbolTableRecord
100
AcDbRegAppTableRecord
  2
ACAD
 70
     0
  0
APPID
  5
1BF9
330
9
100
AcDbSymbolTableRecord
100
AcDbRegAppTableRecord
  2
ACAD_PSEXT
 70
     0
  0
ENDTAB
  0
TABLE
  2
DIMSTYLE
  5
A
330
0
100
AcDbSymbolTable
 70
     4
100
AcDbDimStyleTable
 71
     1
340
8F
  0
DIMSTYLE
105
1D
330
A
100
AcDbSymbolTableRecord
100
AcDbDimStyleTableRecord
  2
STANDARD
 70
     0
 41
2.5
 42
0.625
 43
3.75
 44
1.25
 73
     0
 74
     0
 77
     1
 78
     8
140
2.5
141
2.5
143
0.0394
147
0.625
171
     4
172
     1
273
     8
274
     4
277
     6
340
F
  0
DIMSTYLE
105
8F
102
{ACAD_REACTORS
330
1759
330
1771
330
1B85
330
1B92
330
1BA1
330
1BAE
330
1BBB
330
1BC8
330
1C26
102
}
330
A
100
AcDbSymbolTableRecord
100
AcDbDimStyleTableRecord
  2
STYLE3
 70
     0
 41
2.5
 42
0.0
 43
3.75
 44
1.25
 73
     0
 74
     0
 77
     1
 78
     8
140
2.5
141
2.5
143
0.0394
147
0.625
171
     4
172
     1
173
     1
176
     2
177
     2
178
     6
271
     1
273
     8
274
     4
340
3F
341
45
343
45
344
45
  0
ENDTAB
  0
TABLE
  2
BLOCK_RECORD
  5
1
330
0
100
AcDbSymbolTable
 70
    17
  0
BLOCK_RECORD
  5
18
102
{ACAD_XDICTIONARY
360
1B83
102
}
330
1
100
AcDbSymbolTableRecord
100
AcDbBlockTableRecord
  2
*MODEL_SPACE
340
1B3A
  0
BLOCK_RECORD
  5
15
330
1
100
AcDbSymbolTableRecord
100
AcDbBlockTableRecord
  2
*PAPER_SPACE
340
1B3B
  0
BLOCK_RECORD
  5
45
330
1
100
AcDbSymbolTableRecord
100
AcDbBlockTableRecord
  2
_OPEN
340
0
102
{BLKREFS
331
5DA
331
5DB
331
168D
331
168E
331
16B7
331
173B
331
173C
331
1774
331
1775
331
1797
331
1798
331
1752
331
1753
331
176A
331
176B
331
1B8A
331
1B8B
331
1B99
331
1B9A
331
1BA6
331
1BA7
331
1BB3
331
1BB4
331
1BC0
331
1BC1
331
1BD9
331
1BDA
331
1BF6
331
1C2B
331
1C2C
102
}
  0
BLOCK_RECORD
  5
51C
330
1
100
AcDbSymbolTableRecord
100
AcDbBlockTableRecord
  2
六角ﾈｼ
340
0
102
{BLKREFS
331
523
331
F8A
102
}
  0
BLOCK_RECORD
  5
174B
330
1
100
AcDbSymbolTableRecord
100
AcDbBlockTableRecord
  2
*D6
340
0
  0
BLOCK_RECORD
  5
1766
330
1
100
AcDbSymbolTableRecord
100
AcDbBlockTableRecord
  2
*D7
340
0
  0
BLOCK_RECORD
  5
1B86
330
1
100
AcDbSymbolTableRecord
100
AcDbBlockTableRecord
  2
*D9
340
0
  0
BLOCK_RECORD
  5
1B93
330
1
100
AcDbSymbolTableRecord
100
AcDbBlockTableRecord
  2
*D10
340
0
  0
BLOCK_RECORD
  5
1BA2
330
1
100
AcDbSymbolTableRecord
100
AcDbBlockTableRecord
  2
*D11
340
0
  0
BLOCK_RECORD
  5
1BAF
330
1
100
AcDbSymbolTableRecord
100
AcDbBlockTableRecord
  2
*D12
340
0
  0
BLOCK_RECORD
  5
1BBC
330
1
100
AcDbSymbolTableRecord
100
AcDbBlockTableRecord
  2
*D13
340
0
  0
BLOCK_RECORD
  5
1BC9
330
1
100
AcDbSymbolTableRecord
100
AcDbBlockTableRecord
  2
*D14
340
0
  0
BLOCK_RECORD
  5
1C27
330
1
100
AcDbSymbolTableRecord
100
AcDbBlockTableRecord
  2
*D15
340
0
  0
ENDTAB
  0
ENDSEC
  0
SECTION
  2
BLOCKS
  0
BLOCK
  5
19
330
18
100
AcDbEntity
  8
0
100
AcDbBlockBegin
  2
*MODEL_SPACE
 70
     0
 10
0.0
 20
0.0
 30
0.0
  3
*MODEL_SPACE
  1

  0
ENDBLK
  5
1A
330
18
100
AcDbEntity
  8
0
100
AcDbBlockEnd
  0
BLOCK
  5
16
330
15
100
AcDbEntity
 67
     1
  8
0
100
AcDbBlockBegin
  2
*PAPER_SPACE
 70
     0
 10
0.0
 20
0.0
 30
0.0
  3
*PAPER_SPACE
  1

  0
ENDBLK
  5
17
330
15
100
AcDbEntity
 67
     1
  8
0
100
AcDbBlockEnd
  0
BLOCK
  5
46
330
45
100
AcDbEntity
  8
0
100
AcDbBlockBegin
  2
_OPEN
 70
     0
 10
0.0
 20
0.0
 30
0.0
  3
_OPEN
  1

  0
LINE
  5
47
330
45
100
AcDbEntity
  8
0
  6
ByBlock
 62
     0
100
AcDbLine
 10
-1.0
 20
0.1666666666666666
 30
0.0
 11
0.0
 21
0.0
 31
0.0
  0
LINE
  5
48
330
45
100
AcDbEntity
  8
0
  6
ByBlock
 62
     0
100
AcDbLine
 10
0.0
 20
0.0
 30
0.0
 11
-1.0
 21
-0.1666666666666666
 31
0.0
  0
LINE
  5
49
330
45
100
AcDbEntity
  8
0
  6
ByBlock
 62
     0
100
AcDbLine
 10
0.0
 20
0.0
 30
0.0
 11
-1.0
 21
0.0
 31
0.0
  0
ENDBLK
  5
4A
330
45
100
AcDbEntity
  8
0
100
AcDbBlockEnd
  0
BLOCK
  5
521
330
51C
100
AcDbEntity
  8
0
100
AcDbBlockBegin
  2
六角ﾈｼ
 70
     0
 10
0.0
 20
0.0
 30
0.0
  3
六角ﾈｼ
  1

  0
LINE
  5
51D
330
51C
100
AcDbEntity
  8
外形線
 48
0.8
100
AcDbLine
 10
-0.0000000000000568
 20
4.499999999999943
 30
0.0
 11
2.737599573181626
 21
4.499999999999943
 31
0.0
  0
ARC
  5
51E
330
51C
100
AcDbEntity
  8
外形線
100
AcDbCircle
 10
-4.010000000002662
 20
2.599999999999511
 30
0.0
 40
7.010000000002722
100
AcDbArc
 50
338.2289458906957
 51
15.72624379279067
  0
ARC
  5
51F
330
51C
100
AcDbEntity
  8
外形線
100
AcDbCircle
 10
-4.010000000002662
 20
-2.599999999999511
 30
0.0
 40
7.010000000002722
100
AcDbArc
 50
344.2737562072088
 51
21.77105410930435
  0
LINE
  5
520
330
51C
100
AcDbEntity
  8
外形線
 48
0.8
100
AcDbLine
 10
0.0000000000001705
 20
-4.5
 30
0.0
 11
2.737599573181569
 21
-4.5
 31
0.0
  0
ENDBLK
  5
522
330
51C
100
AcDbEntity
  8
0
100
AcDbBlockEnd
  0
BLOCK
  5
174C
330
174B
100
AcDbEntity
  8
0
100
AcDbBlockBegin
  2
*D6
 70
     1
 10
0.0
 20
0.0
 30
0.0
  3
*D6
  1

  0
LINE
  5
174D
330
174B
100
AcDbEntity
  8
0
  6
ByBlock
 62
     2
100
AcDbLine
 10
420.703028759816
 20
263.9408233559275
 30
0.0
 11
420.703028759816
 21
283.1351889815391
 31
0.0
  0
LINE
  5
174E
330
174B
100
AcDbEntity
  8
0
  6
ByBlock
 62
     2
100
AcDbLine
 10
417.7030287598161
 20
277.2528414445903
 30
0.0
 11
417.7030287598161
 21
283.1351889815391
 31
0.0
  0
LINE
  5
174F
330
174B
100
AcDbEntity
  8
0
  6
ByBlock
 62
     2
100
AcDbLine
 10
423.2030287598161
 20
281.8851889815391
 30
0.0
 11
425.703028759816
 21
281.8851889815391
 31
0.0
  0
LINE
  5
1750
330
174B
100
AcDbEntity
  8
0
  6
ByBlock
 62
     2
100
AcDbLine
 10
415.2030287598161
 20
281.8851889815391
 30
0.0
 11
412.703028759816
 21
281.8851889815391
 31
0.0
  0
LINE
  5
1751
330
174B
100
AcDbEntity
  8
0
  6
ByBlock
 62
     2
100
AcDbLine
 10
420.703028759816
 20
281.8851889815391
 30
0.0
 11
417.7030287598161
 21
281.8851889815391
 31
0.0
  0
INSERT
  5
1752
330
174B
100
AcDbEntity
  8
0
  6
ByBlock
 62
     2
100
AcDbBlockReference
  2
_OPEN
 10
420.703028759816
 20
281.8851889815391
 30
0.0
 41
2.5
 42
2.5
 43
2.5
 50
180.0
  0
INSERT
  5
1753
330
174B
100
AcDbEntity
  8
0
  6
ByBlock
 62
     2
100
AcDbBlockReference
  2
_OPEN
 10
417.7030287598161
 20
281.8851889815391
 30
0.0
 41
2.5
 42
2.5
 43
2.5
  0
MTEXT
  5
1754
330
174B
100
AcDbEntity
  8
0
  6
ByBlock
 62
     6
100
AcDbMText
 10
419.2030287598161
 20
283.7601889815391
 30
0.0
 40
2.5
 41
0.0
 71
     5
 72
     1
  1
\A1;3
  7
STYLE3
 73
     1
 44
1.0
  0
POINT
  5
1755
330
174B
100
AcDbEntity
  8
DEFPOINTS
  6
ByBlock
 62
     0
100
AcDbPoint
 10
420.703028759816
 20
263.9408233559275
 30
0.0
  0
POINT
  5
1756
330
174B
100
AcDbEntity
  8
DEFPOINTS
  6
ByBlock
 62
     0
100
AcDbPoint
 10
417.7030287598161
 20
277.2528414445903
 30
0.0
  0
POINT
  5
1757
330
174B
100
AcDbEntity
  8
DEFPOINTS
  6
ByBlock
 62
     0
100
AcDbPoint
 10
417.7030287598161
 20
281.8851889815391
 30
0.0
  0
ENDBLK
  5
1758
330
174B
100
AcDbEntity
  8
0
100
AcDbBlockEnd
  0
BLOCK
  5
1767
330
1766
100
AcDbEntity
  8
0
100
AcDbBlockBegin
  2
*D7
 70
     1
 10
0.0
 20
0.0
 30
0.0
  3
*D7
  1

  0
LINE
  5
1768
330
1766
100
AcDbEntity
  8
0
  6
ByBlock
 62
     2
100
AcDbLine
 10
267.3421258371988
 20
259.0476246599235
 30
0.0
 11
267.3421258371988
 21
283.1351889815391
 31
0.0
  0
LINE
  5
1769
330
1766
100
AcDbEntity
  8
0
  6
ByBlock
 62
     2
100
AcDbLine
 10
334.8421258371987
 20
281.8851889815391
 30
0.0
 11
269.8421258371987
 21
281.8851889815391
 31
0.0
  0
INSERT
  5
176A
330
1766
100
AcDbEntity
  8
0
  6
ByBlock
 62
     2
100
AcDbBlockReference
  2
_OPEN
 10
337.3421258371987
 20
281.8851889815391
 30
0.0
 41
2.5
 42
2.5
 43
2.5
  0
INSERT
  5
176B
330
1766
100
AcDbEntity
  8
0
  6
ByBlock
 62
     2
100
AcDbBlockReference
  2
_OPEN
 10
267.3421258371988
 20
281.8851889815391
 30
0.0
 41
2.5
 42
2.5
 43
2.5
 50
180.0
  0
MTEXT
  5
176C
330
1766
100
AcDbEntity
  8
0
  6
ByBlock
 62
     6
100
AcDbMText
 10
302.3421258371988
 20
283.7601889815391
 30
0.0
 40
2.5
 41
0.0
 71
     5
 72
     1
  1
\A1;70
  7
STYLE3
 73
     1
 44
1.0
  0
POINT
  5
176D
330
1766
100
AcDbEntity
  8
DEFPOINTS
  6
ByBlock
 62
     0
100
AcDbPoint
 10
337.3421258371987
 20
259.0476246599235
 30
0.0
  0
POINT
  5
176E
330
1766
100
AcDbEntity
  8
DEFPOINTS
  6
ByBlock
 62
     0
100
AcDbPoint
 10
267.3421258371988
 20
259.0476246599235
 30
0.0
  0
POINT
  5
176F
330
1766
100
AcDbEntity
  8
DEFPOINTS
  6
ByBlock
 62
     0
100
AcDbPoint
 10
267.3421258371988
 20
281.8851889815391
 30
0.0
  0
ENDBLK
  5
1770
330
1766
100
AcDbEntity
  8
0
100
AcDbBlockEnd
  0
BLOCK
  5
1B90
330
1B86
100
AcDbEntity
  8
0
100
AcDbBlockBegin
  2
*D9
 70
     1
 10
0.0
 20
0.0
 30
0.0
  3
*D9
  1

  0
LINE
  5
1B87
330
1B86
100
AcDbEntity
  8
寸法線
 62
     2
370
    -2
100
AcDbLine
 10
417.7030287598161
 20
317.4422483296528
 30
0.0
 11
386.6967594018422
 21
317.4422483296528
 31
0.0
  0
LINE
  5
1B88
330
1B86
100
AcDbEntity
  8
寸法線
 62
     2
370
    -2
100
AcDbLine
 10
387.4657064576052
 20
296.742248329653
 30
0.0
 11
389.1967594018422
 21
296.742248329653
 31
0.0
  0
LINE
  5
1B89
330
1B86
100
AcDbEntity
  8
寸法線
 62
     2
370
    -2
100
AcDbLine
 10
387.9467594018422
 20
314.9422483296528
 30
0.0
 11
387.9467594018422
 21
299.242248329653
 31
0.0
  0
INSERT
  5
1B8A
330
1B86
100
AcDbEntity
  8
寸法線
 62
     2
370
    -2
100
AcDbBlockReference
  2
_OPEN
 10
387.9467594018422
 20
317.4422483296528
 30
0.0
 41
2.5
 42
2.5
 43
2.5
 50
90.0
  0
INSERT
  5
1B8B
330
1B86
100
AcDbEntity
  8
寸法線
 62
     2
370
    -2
100
AcDbBlockReference
  2
_OPEN
 10
387.9467594018422
 20
296.742248329653
 30
0.0
 41
2.5
 42
2.5
 43
2.5
 50
270.0
  0
MTEXT
  5
1B8C
330
1B86
100
AcDbEntity
  8
寸法線
 62
     6
100
AcDbMText
 10
386.0717594018422
 20
307.092248329653
 30
0.0
 40
2.5
 41
0.0
 71
     5
 72
     1
  1
\A1;20.7
  7
STYLE3
 11
0.0000000000000001
 21
1.0
 31
0.0
 73
     1
 44
1.0
  0
POINT
  5
1B8D
330
1B86
100
AcDbEntity
  8
DEFPOINTS
 62
     0
100
AcDbPoint
 10
417.7030287598161
 20
317.4422483296528
 30
0.0
  0
POINT
  5
1B8E
330
1B86
100
AcDbEntity
  8
DEFPOINTS
 62
     0
100
AcDbPoint
 10
387.4657064576052
 20
296.742248329653
 30
0.0
  0
POINT
  5
1B8F
330
1B86
100
AcDbEntity
  8
DEFPOINTS
 62
     0
100
AcDbPoint
 10
387.9467594018422
 20
296.742248329653
 30
0.0
  0
ENDBLK
  5
1B91
330
1B86
100
AcDbEntity
  8
0
100
AcDbBlockEnd
  0
BLOCK
  5
1B9F
330
1B93
100
AcDbEntity
  8
0
100
AcDbBlockBegin
  2
*D10
 70
     1
 10
0.0
 20
0.0
 30
0.0
  3
*D10
  1

  0
LINE
  5
1B94
330
1B93
100
AcDbEntity
  8
寸法線
 62
     2
370
    -2
100
AcDbLine
 10
419.9530287598161
 20
315.7422483296528
 30
0.0
 11
432.6799383359254
 21
315.7422483296528
 31
0.0
  0
LINE
  5
1B95
330
1B93
100
AcDbEntity
  8
寸法線
 62
     2
370
    -2
100
AcDbLine
 10
417.7030287598161
 20
317.4422483296528
 30
0.0
 11
432.6799383359254
 21
317.4422483296528
 31
0.0
  0
LINE
  5
1B96
330
1B93
100
AcDbEntity
  8
寸法線
 62
     2
370
    -2
100
AcDbLine
 10
431.4299383359254
 20
313.2422483296527
 30
0.0
 11
431.4299383359254
 21
310.7422483296527
 31
0.0
  0
LINE
  5
1B97
330
1B93
100
AcDbEntity
  8
寸法線
 62
     2
370
    -2
100
AcDbLine
 10
431.4299383359254
 20
319.9422483296528
 30
0.0
 11
431.4299383359254
 21
328.5732007106052
 31
0.0
  0
LINE
  5
1B98
330
1B93
100
AcDbEntity
  8
寸法線
 62
     2
370
    -2
100
AcDbLine
 10
431.4299383359254
 20
315.7422483296528
 30
0.0
 11
431.4299383359254
 21
317.4422483296528
 31
0.0
  0
INSERT
  5
1B99
330
1B93
100
AcDbEntity
  8
寸法線
 62
     2
370
    -2
100
AcDbBlockReference
  2
_OPEN
 10
431.4299383359254
 20
315.7422483296528
 30
0.0
 41
2.5
 42
2.5
 43
2.5
 50
90.0
  0
INSERT
  5
1B9A
330
1B93
100
AcDbEntity
  8
寸法線
 62
     2
370
    -2
100
AcDbBlockReference
  2
_OPEN
 10
431.4299383359254
 20
317.4422483296528
 30
0.0
 41
2.5
 42
2.5
 43
2.5
 50
270.0
  0
MTEXT
  5
1B9B
330
1B93
100
AcDbEntity
  8
寸法線
 62
     6
100
AcDbMText
 10
429.5549383359254
 20
325.5077245201292
 30
0.0
 40
2.5
 41
0.0
 71
     5
 72
     1
  1
\A1;1.7
  7
STYLE3
 11
0.0000000000000001
 21
1.0
 31
0.0
 73
     1
 44
1.0
  0
POINT
  5
1B9C
330
1B93
100
AcDbEntity
  8
DEFPOINTS
 62
     0
100
AcDbPoint
 10
419.9530287598161
 20
315.7422483296528
 30
0.0
  0
POINT
  5
1B9D
330
1B93
100
AcDbEntity
  8
DEFPOINTS
 62
     0
100
AcDbPoint
 10
417.7030287598161
 20
317.4422483296528
 30
0.0
  0
POINT
  5
1B9E
330
1B93
100
AcDbEntity
  8
DEFPOINTS
 62
     0
100
AcDbPoint
 10
431.4299383359254
 20
317.4422483296528
 30
0.0
  0
ENDBLK
  5
1BA0
330
1B93
100
AcDbEntity
  8
0
100
AcDbBlockEnd
  0
BLOCK
  5
1BAC
330
1BA2
100
AcDbEntity
  8
0
100
AcDbBlockBegin
  2
*D11
 70
     1
 10
0.0
 20
0.0
 30
0.0
  3
*D11
  1

  0
LINE
  5
1BA3
330
1BA2
100
AcDbEntity
  8
寸法線
 62
     2
370
    -2
100
AcDbLine
 10
422.8606752947493
 20
296.7422483296529
 30
0.0
 11
432.6799383359254
 21
296.7422483296529
 31
0.0
  0
LINE
  5
1BA4
330
1BA2
100
AcDbEntity
  8
寸法線
 62
     2
370
    -2
100
AcDbLine
 10
427.9359234652509
 20
315.7422483296528
 30
0.0
 11
432.6799383359254
 21
315.7422483296528
 31
0.0
  0
LINE
  5
1BA5
330
1BA2
100
AcDbEntity
  8
寸法線
 62
     2
370
    -2
100
AcDbLine
 10
431.4299383359254
 20
299.2422483296529
 30
0.0
 11
431.4299383359254
 21
313.2422483296527
 31
0.0
  0
INSERT
  5
1BA6
330
1BA2
100
AcDbEntity
  8
寸法線
 62
     2
370
    -2
100
AcDbBlockReference
  2
_OPEN
 10
431.4299383359254
 20
296.7422483296529
 30
0.0
 41
2.5
 42
2.5
 43
2.5
 50
270.0
  0
INSERT
  5
1BA7
330
1BA2
100
AcDbEntity
  8
寸法線
 62
     2
370
    -2
100
AcDbBlockReference
  2
_OPEN
 10
431.4299383359254
 20
315.7422483296528
 30
0.0
 41
2.5
 42
2.5
 43
2.5
 50
90.0
  0
MTEXT
  5
1BA8
330
1BA2
100
AcDbEntity
  8
寸法線
 62
     6
100
AcDbMText
 10
429.5549383359254
 20
306.2422483296529
 30
0.0
 40
2.5
 41
0.0
 71
     5
 72
     1
  1
\A1;19
  7
STYLE3
 11
0.0000000000000001
 21
1.0
 31
0.0
 73
     1
 44
1.0
  0
POINT
  5
1BA9
330
1BA2
100
AcDbEntity
  8
DEFPOINTS
 62
     0
100
AcDbPoint
 10
422.8606752947493
 20
296.7422483296529
 30
0.0
  0
POINT
  5
1BAA
330
1BA2
100
AcDbEntity
  8
DEFPOINTS
 62
     0
100
AcDbPoint
 10
427.9359234652509
 20
315.7422483296528
 30
0.0
  0
POINT
  5
1BAB
330
1BA2
100
AcDbEntity
  8
DEFPOINTS
 62
     0
100
AcDbPoint
 10
431.4299383359254
 20
315.7422483296528
 30
0.0
  0
ENDBLK
  5
1BAD
330
1BA2
100
AcDbEntity
  8
0
100
AcDbBlockEnd
  0
BLOCK
  5
1BB9
330
1BAF
100
AcDbEntity
  8
0
100
AcDbBlockBegin
  2
*D12
 70
     1
 10
0.0
 20
0.0
 30
0.0
  3
*D12
  1

  0
LINE
  5
1BB0
330
1BAF
100
AcDbEntity
  8
寸法線
 62
     2
370
    -2
100
AcDbLine
 10
420.7030287598164
 20
271.7422483296529
 30
0.0
 11
432.6799383359254
 21
271.7422483296529
 31
0.0
  0
LINE
  5
1BB1
330
1BAF
100
AcDbEntity
  8
寸法線
 62
     2
370
    -2
100
AcDbLine
 10
427.7736966712876
 20
296.7422483296529
 30
0.0
 11
432.6799383359254
 21
296.7422483296529
 31
0.0
  0
LINE
  5
1BB2
330
1BAF
100
AcDbEntity
  8
寸法線
 62
     2
370
    -2
100
AcDbLine
 10
431.4299383359254
 20
274.2422483296528
 30
0.0
 11
431.4299383359254
 21
294.2422483296529
 31
0.0
  0
INSERT
  5
1BB3
330
1BAF
100
AcDbEntity
  8
寸法線
 62
     2
370
    -2
100
AcDbBlockReference
  2
_OPEN
 10
431.4299383359254
 20
271.7422483296529
 30
0.0
 41
2.5
 42
2.5
 43
2.5
 50
270.0
  0
INSERT
  5
1BB4
330
1BAF
100
AcDbEntity
  8
寸法線
 62
     2
370
    -2
100
AcDbBlockReference
  2
_OPEN
 10
431.4299383359254
 20
296.7422483296529
 30
0.0
 41
2.5
 42
2.5
 43
2.5
 50
90.0
  0
MTEXT
  5
1BB5
330
1BAF
100
AcDbEntity
  8
寸法線
 62
     6
100
AcDbMText
 10
429.5549383359254
 20
284.242248329653
 30
0.0
 40
2.5
 41
0.0
 71
     5
 72
     1
  1
\A1;25
  7
STYLE3
 11
0.0000000000000001
 21
1.0
 31
0.0
 73
     1
 44
1.0
  0
POINT
  5
1BB6
330
1BAF
100
AcDbEntity
  8
DEFPOINTS
 62
     0
100
AcDbPoint
 10
420.7030287598164
 20
271.7422483296529
 30
0.0
  0
POINT
  5
1BB7
330
1BAF
100
AcDbEntity
  8
DEFPOINTS
 62
     0
100
AcDbPoint
 10
427.7736966712876
 20
296.7422483296529
 30
0.0
  0
POINT
  5
1BB8
330
1BAF
100
AcDbEntity
  8
DEFPOINTS
 62
     0
100
AcDbPoint
 10
431.4299383359254
 20
296.7422483296529
 30
0.0
  0
ENDBLK
  5
1BBA
330
1BAF
100
AcDbEntity
  8
0
100
AcDbBlockEnd
  0
BLOCK
  5
1BC6
330
1BBC
100
AcDbEntity
  8
0
100
AcDbBlockBegin
  2
*D13
 70
     1
 10
0.0
 20
0.0
 30
0.0
  3
*D13
  1

  0
LINE
  5
1BBD
330
1BBC
100
AcDbEntity
  8
寸法線
 62
     2
370
    -2
100
AcDbLine
 10
420.7030287598163
 20
221.7422483296529
 30
0.0
 11
432.6799383359254
 21
221.7422483296529
 31
0.0
  0
LINE
  5
1BBE
330
1BBC
100
AcDbEntity
  8
寸法線
 62
     2
370
    -2
100
AcDbLine
 10
427.2790644753237
 20
271.7422483296529
 30
0.0
 11
432.6799383359254
 21
271.7422483296529
 31
0.0
  0
LINE
  5
1BBF
330
1BBC
100
AcDbEntity
  8
寸法線
 62
     2
370
    -2
100
AcDbLine
 10
431.4299383359254
 20
224.2422483296528
 30
0.0
 11
431.4299383359254
 21
269.2422483296529
 31
0.0
  0
INSERT
  5
1BC0
330
1BBC
100
AcDbEntity
  8
寸法線
 62
     2
370
    -2
100
AcDbBlockReference
  2
_OPEN
 10
431.4299383359254
 20
221.7422483296529
 30
0.0
 41
2.5
 42
2.5
 43
2.5
 50
270.0
  0
INSERT
  5
1BC1
330
1BBC
100
AcDbEntity
  8
寸法線
 62
     2
370
    -2
100
AcDbBlockReference
  2
_OPEN
 10
431.4299383359254
 20
271.7422483296529
 30
0.0
 41
2.5
 42
2.5
 43
2.5
 50
90.0
  0
MTEXT
  5
1BC2
330
1BBC
100
AcDbEntity
  8
寸法線
 62
     6
100
AcDbMText
 10
429.5549383359254
 20
246.7422483296529
 30
0.0
 40
2.5
 41
0.0
 71
     5
 72
     1
  1
\A1;50
  7
STYLE3
 11
0.0000000000000001
 21
1.0
 31
0.0
 73
     1
 44
1.0
  0
POINT
  5
1BC3
330
1BBC
100
AcDbEntity
  8
DEFPOINTS
 62
     0
100
AcDbPoint
 10
420.7030287598163
 20
221.7422483296529
 30
0.0
  0
POINT
  5
1BC4
330
1BBC
100
AcDbEntity
  8
DEFPOINTS
 62
     0
100
AcDbPoint
 10
427.2790644753237
 20
271.7422483296529
 30
0.0
  0
POINT
  5
1BC5
330
1BBC
100
AcDbEntity
  8
DEFPOINTS
 62
     0
100
AcDbPoint
 10
431.4299383359254
 20
271.7422483296529
 30
0.0
  0
ENDBLK
  5
1BC7
330
1BBC
100
AcDbEntity
  8
0
100
AcDbBlockEnd
  0
BLOCK
  5
1BD3
330
1BC9
100
AcDbEntity
  8
0
100
AcDbBlockBegin
  2
*D14
 70
     1
 10
0.0
 20
0.0
 30
0.0
  3
*D14
  1

  0
LINE
  5
1BD6
330
1BC9
100
AcDbEntity
  8
寸法線
 62
     2
370
    -2
100
AcDbLine
 10
417.7030287598162
 20
216.7422483296529
 30
0.0
 11
440.6159753993953
 21
216.7422483296529
 31
0.0
  0
LINE
  5
1BD7
330
1BC9
100
AcDbEntity
  8
寸法線
 62
     2
370
    -2
100
AcDbLine
 10
432.6799383359254
 20
317.4422483296528
 30
0.0
 11
440.6159753993953
 21
317.4422483296528
 31
0.0
  0
LINE
  5
1BD8
330
1BC9
100
AcDbEntity
  8
寸法線
 62
     2
370
    -2
100
AcDbLine
 10
439.3659753993953
 20
219.2422483296529
 30
0.0
 11
439.3659753993953
 21
314.9422483296528
 31
0.0
  0
INSERT
  5
1BD9
330
1BC9
100
AcDbEntity
  8
寸法線
 62
     2
370
    -2
100
AcDbBlockReference
  2
_OPEN
 10
439.3659753993953
 20
216.7422483296529
 30
0.0
 41
2.5
 42
2.5
 43
2.5
 50
270.0
  0
INSERT
  5
1BDA
330
1BC9
100
AcDbEntity
  8
寸法線
 62
     2
370
    -2
100
AcDbBlockReference
  2
_OPEN
 10
439.3659753993953
 20
317.4422483296528
 30
0.0
 41
2.5
 42
2.5
 43
2.5
 50
90.0
  0
MTEXT
  5
1BDB
330
1BC9
100
AcDbEntity
  8
寸法線
 62
     6
100
AcDbMText
 10
437.4909753993953
 20
267.0922483296529
 30
0.0
 40
2.5
 41
0.0
 71
     5
 72
     1
  1
\A1;50.7～150.7フリー時
  7
STYLE3
 11
0.0000000000000001
 21
1.0
 31
0.0
 73
     1
 44
1.0
  0
POINT
  5
1BDC
330
1BC9
100
AcDbEntity
  8
DEFPOINTS
 62
     0
100
AcDbPoint
 10
417.7030287598162
 20
216.7422483296529
 30
0.0
  0
POINT
  5
1BDD
330
1BC9
100
AcDbEntity
  8
DEFPOINTS
 62
     0
100
AcDbPoint
 10
432.6799383359254
 20
317.4422483296528
 30
0.0
  0
POINT
  5
1BDE
330
1BC9
100
AcDbEntity
  8
DEFPOINTS
 62
     0
100
AcDbPoint
 10
439.3659753993953
 20
317.4422483296528
 30
0.0
  0
ENDBLK
  5
1BD4
330
1BC9
100
AcDbEntity
  8
0
100
AcDbBlockEnd
  0
BLOCK
  5
1C31
330
1C27
100
AcDbEntity
  8
0
100
AcDbBlockBegin
  2
*D15
 70
     1
 10
0.0
 20
0.0
 30
0.0
  3
*D15
  1

  0
LINE
  5
1C28
330
1C27
100
AcDbEntity
  8
寸法線
 62
     2
370
    -2
100
AcDbLine
 10
244.3421258371988
 20
301.442248329653
 30
0.0
 11
244.3421258371988
 21
327.9366139552644
 31
0.0
  0
LINE
  5
1C29
330
1C27
100
AcDbEntity
  8
寸法線
 62
     2
370
    -2
100
AcDbLine
 10
267.3421258371988
 20
303.8490496336488
 30
0.0
 11
267.3421258371988
 21
327.9366139552644
 31
0.0
  0
LINE
  5
1C2A
330
1C27
100
AcDbEntity
  8
寸法線
 62
     2
370
    -2
100
AcDbLine
 10
246.8421258371988
 20
326.6866139552644
 30
0.0
 11
264.8421258371988
 21
326.6866139552644
 31
0.0
  0
INSERT
  5
1C2B
330
1C27
100
AcDbEntity
  8
寸法線
 62
     2
370
    -2
100
AcDbBlockReference
  2
_OPEN
 10
244.3421258371988
 20
326.6866139552644
 30
0.0
 41
2.5
 42
2.5
 43
2.5
 50
180.0
  0
INSERT
  5
1C2C
330
1C27
100
AcDbEntity
  8
寸法線
 62
     2
370
    -2
100
AcDbBlockReference
  2
_OPEN
 10
267.3421258371988
 20
326.6866139552644
 30
0.0
 41
2.5
 42
2.5
 43
2.5
  0
MTEXT
  5
1C2D
330
1C27
100
AcDbEntity
  8
寸法線
 62
     6
100
AcDbMText
 10
255.8421258371987
 20
328.5616139552644
 30
0.0
 40
2.5
 41
0.0
 71
     5
 72
     1
  1
\A1;23
  7
STYLE3
 73
     1
 44
1.0
  0
POINT
  5
1C2E
330
1C27
100
AcDbEntity
  8
DEFPOINTS
 62
     0
100
AcDbPoint
 10
244.3421258371988
 20
301.442248329653
 30
0.0
  0
POINT
  5
1C2F
330
1C27
100
AcDbEntity
  8
DEFPOINTS
 62
     0
100
AcDbPoint
 10
267.3421258371988
 20
303.8490496336488
 30
0.0
  0
POINT
  5
1C30
330
1C27
100
AcDbEntity
  8
DEFPOINTS
 62
     0
100
AcDbPoint
 10
267.3421258371988
 20
326.6866139552644
 30
0.0
  0
ENDBLK
  5
1C32
330
1C27
100
AcDbEntity
  8
0
100
AcDbBlockEnd
  0
ENDSEC
  0
SECTION
  2
ENTITIES
  0
LWPOLYLINE
  5
10B
330
18
100
AcDbEntity
  8
C
100
AcDbPolyline
 90
        5
 70
     0
 43
0.4
 10
236.6915604445414
 20
366.8501752555372
 10
491.6915604445414
 20
366.8501752555372
 10
491.6915604445414
 20
171.8501752555372
 10
236.6915604445414
 20
171.8501752555372
 10
236.6915604445414
 20
366.8501752555372
  0
LINE
  5
16A
330
18
100
AcDbEntity
  8
中心線
 48
0.5
100
AcDbLine
 10
242.0024242177125
 20
296.742248329653
 30
0.0
 11
422.8606752947493
 21
296.7422483296529
 31
0.0
  0
LINE
  5
16C
102
{ACAD_REACTORS
330
317
102
}
330
18
100
AcDbEntity
  8
外形線
100
AcDbLine
 10
307.3421258371987
 20
306.7015621533064
 30
0.0
 11
307.3421258371987
 21
300.742248329653
 31
0.0
  0
LINE
  5
16D
102
{ACAD_REACTORS
330
317
102
}
330
18
100
AcDbEntity
  8
外形線
100
AcDbLine
 10
327.3421258371988
 20
305.7234722438711
 30
0.0
 11
327.3421258371989
 21
298.742248329653
 31
0.0
  0
LINE
  5
16E
330
18
100
AcDbEntity
  8
外形線
100
AcDbLine
 10
337.3421258371987
 20
303.8490496336488
 30
0.0
 11
337.3421258371987
 21
289.6354470256571
 31
0.0
  0
LINE
  5
171
330
18
100
AcDbEntity
  8
外形線
100
AcDbLine
 10
267.3421258371988
 20
303.8490496336488
 30
0.0
 11
267.3421258371988
 21
302.742248329653
 31
0.0
  0
ARC
  5
173
102
{ACAD_REACTORS
330
317
102
}
330
18
100
AcDbEntity
  8
外形線
100
AcDbCircle
 10
302.3421258371988
 20
-0.5077516703470906
 30
0.0
 40
307.25
100
AcDbArc
 50
83.62585904071393
 51
96.37414095928605
  0
ARC
  5
175
102
{ACAD_REACTORS
330
317
102
}
330
18
100
AcDbEntity
  8
外形線
100
AcDbCircle
 10
302.3421258371988
 20
593.992248329653
 30
0.0
 40
307.25
100
AcDbArc
 50
263.6258590407139
 51
276.3741409592861
  0
LINE
  5
176
330
18
100
AcDbEntity
  8
外形線
100
AcDbLine
 10
317.3421258371988
 20
300.242248329653
 30
0.0
 11
317.3421258371988
 21
293.242248329653
 31
0.0
  0
LINE
  5
177
330
18
100
AcDbEntity
  8
外形線
100
AcDbLine
 10
287.3421258371987
 20
300.242248329653
 30
0.0
 11
287.3421258371987
 21
293.242248329653
 31
0.0
  0
LINE
  5
178
330
18
100
AcDbEntity
  8
外形線
100
AcDbLine
 10
287.3421258371987
 20
300.242248329653
 30
0.0
 11
317.3421258371988
 21
300.242248329653
 31
0.0
  0
LINE
  5
179
330
18
100
AcDbEntity
  8
外形線
100
AcDbLine
 10
287.3421258371987
 20
293.242248329653
 30
0.0
 11
317.3421258371988
 21
293.242248329653
 31
0.0
  0
LINE
  5
17A
102
{ACAD_REACTORS
330
317
102
}
330
18
100
AcDbEntity
  8
外形線
100
AcDbLine
 10
307.3421258371987
 20
300.742248329653
 30
0.0
 11
317.8421258371987
 21
300.742248329653
 31
0.0
  0
LINE
  5
17C
102
{ACAD_REACTORS
330
317
102
}
330
18
100
AcDbEntity
  8
外形線
100
AcDbLine
 10
317.8421258371987
 20
298.742248329653
 30
0.0
 11
327.3421258371989
 21
298.742248329653
 31
0.0
  0
LINE
  5
17F
102
{ACAD_REACTORS
330
317
102
}
330
18
100
AcDbEntity
  8
外形線
100
AcDbLine
 10
317.8421258371987
 20
300.742248329653
 30
0.0
 11
317.8421258371987
 21
298.742248329653
 31
0.0
  0
LINE
  5
181
102
{ACAD_REACTORS
330
317
102
}
330
18
100
AcDbEntity
  8
外形線
100
AcDbLine
 10
317.8421258371987
 20
294.742248329653
 30
0.0
 11
327.3421258371989
 21
294.742248329653
 31
0.0
  0
LINE
  5
182
102
{ACAD_REACTORS
330
317
102
}
330
18
100
AcDbEntity
  8
外形線
100
AcDbLine
 10
327.3421258371988
 20
287.7610244154348
 30
0.0
 11
327.3421258371989
 21
294.742248329653
 31
0.0
  0
LINE
  5
183
102
{ACAD_REACTORS
330
317
102
}
330
18
100
AcDbEntity
  8
外形線
100
AcDbLine
 10
317.8421258371987
 20
292.742248329653
 30
0.0
 11
317.8421258371987
 21
294.742248329653
 31
0.0
  0
LINE
  5
184
102
{ACAD_REACTORS
330
317
102
}
330
18
100
AcDbEntity
  8
外形線
100
AcDbLine
 10
307.3421258371987
 20
292.742248329653
 30
0.0
 11
317.8421258371987
 21
292.742248329653
 31
0.0
  0
LINE
  5
185
102
{ACAD_REACTORS
330
317
102
}
330
18
100
AcDbEntity
  8
外形線
100
AcDbLine
 10
307.3421258371987
 20
286.7829345059995
 30
0.0
 11
307.3421258371987
 21
292.742248329653
 31
0.0
  0
LINE
  5
186
102
{ACAD_REACTORS
330
317
102
}
330
18
100
AcDbEntity
  8
外形線
100
AcDbLine
 10
277.3421258371988
 20
287.7610244154348
 30
0.0
 11
277.3421258371986
 21
294.742248329653
 31
0.0
  0
LINE
  5
188
102
{ACAD_REACTORS
330
317
102
}
330
18
100
AcDbEntity
  8
外形線
100
AcDbLine
 10
297.3421258371987
 20
286.7829345059995
 30
0.0
 11
297.3421258371987
 21
292.742248329653
 31
0.0
  0
LINE
  5
189
102
{ACAD_REACTORS
330
317
102
}
330
18
100
AcDbEntity
  8
外形線
100
AcDbLine
 10
297.3421258371987
 20
292.742248329653
 30
0.0
 11
286.8421258371988
 21
292.742248329653
 31
0.0
  0
LINE
  5
18A
102
{ACAD_REACTORS
330
317
102
}
330
18
100
AcDbEntity
  8
外形線
100
AcDbLine
 10
286.8421258371988
 20
292.742248329653
 30
0.0
 11
286.8421258371988
 21
294.742248329653
 31
0.0
  0
LINE
  5
18B
102
{ACAD_REACTORS
330
317
102
}
330
18
100
AcDbEntity
  8
外形線
100
AcDbLine
 10
286.8421258371988
 20
294.742248329653
 30
0.0
 11
277.3421258371986
 21
294.742248329653
 31
0.0
  0
LINE
  5
18D
102
{ACAD_REACTORS
330
317
102
}
330
18
100
AcDbEntity
  8
外形線
100
AcDbLine
 10
297.3421258371987
 20
306.7015621533064
 30
0.0
 11
297.3421258371987
 21
300.742248329653
 31
0.0
  0
LINE
  5
18E
102
{ACAD_REACTORS
330
317
102
}
330
18
100
AcDbEntity
  8
外形線
100
AcDbLine
 10
286.8421258371988
 20
298.742248329653
 30
0.0
 11
277.3421258371986
 21
298.742248329653
 31
0.0
  0
LINE
  5
18F
102
{ACAD_REACTORS
330
317
102
}
330
18
100
AcDbEntity
  8
外形線
100
AcDbLine
 10
277.3421258371988
 20
305.7234722438711
 30
0.0
 11
277.3421258371986
 21
298.742248329653
 31
0.0
  0
LINE
  5
190
102
{ACAD_REACTORS
330
317
102
}
330
18
100
AcDbEntity
  8
外形線
100
AcDbLine
 10
286.8421258371988
 20
300.742248329653
 30
0.0
 11
286.8421258371988
 21
298.742248329653
 31
0.0
  0
LINE
  5
191
102
{ACAD_REACTORS
330
317
102
}
330
18
100
AcDbEntity
  8
外形線
100
AcDbLine
 10
297.3421258371987
 20
300.742248329653
 30
0.0
 11
286.8421258371988
 21
300.742248329653
 31
0.0
  0
TEXT
  5
1AE
330
18
100
AcDbEntity
  8
文字
100
AcDbText
 10
294.8891054480811
 20
295.5151900143274
 30
0.0
 40
2.5
  1
50-150mm
 41
0.85
  7
STYLE3
100
AcDbText
  0
LINE
  5
1B2
330
18
100
AcDbEntity
  8
外形線
100
AcDbLine
 10
337.3421258371987
 20
301.7422483296529
 30
0.0
 11
361.142555351043
 21
301.7422483296529
 31
0.0
  0
LINE
  5
1B3
330
18
100
AcDbEntity
  8
外形線
100
AcDbLine
 10
337.3421258371987
 20
291.742248329653
 30
0.0
 11
357.8510526628148
 21
291.7422483217114
 31
0.0
  0
LINE
  5
1C3
330
18
100
AcDbEntity
  8
外形線
100
AcDbLine
 10
364.0018263690784
 20
301.7422483296528
 30
0.0
 11
386.7030287598161
 21
301.7422483296528
 31
0.0
  0
LINE
  5
1C4
330
18
100
AcDbEntity
  8
外形線
100
AcDbLine
 10
360.7103236853341
 20
291.7422483296529
 30
0.0
 11
386.7030287598162
 21
291.7422483296529
 31
0.0
  0
ARC
  5
24E
330
18
100
AcDbEntity
  8
外形線
100
AcDbCircle
 10
268.3421258371987
 20
303.8490496336488
 30
0.0
 40
1.0
100
AcDbArc
 50
96.37414095927951
 51
180.0
  0
ARC
  5
24F
330
18
100
AcDbEntity
  8
外形線
100
AcDbCircle
 10
268.3421258371987
 20
289.6354470256571
 30
0.0
 40
1.0
100
AcDbArc
 50
180.0
 51
263.6258590407112
  0
ARC
  5
250
330
18
100
AcDbEntity
  8
外形線
100
AcDbCircle
 10
336.3421258371988
 20
303.8490496336488
 30
0.0
 40
1.0
100
AcDbArc
 50
0.0
 51
83.62585904071403
  0
ARC
  5
251
330
18
100
AcDbEntity
  8
外形線
100
AcDbCircle
 10
336.3421258371988
 20
289.6354470256571
 30
0.0
 40
1.0
100
AcDbArc
 50
276.3741409592856
 51
0.0
  0
LINE
  5
253
330
18
100
AcDbEntity
  8
外形線
100
AcDbLine
 10
244.3421258371988
 20
301.442248329653
 30
0.0
 11
244.3421258371988
 21
294.5517233489641
 31
0.0
  0
LINE
  5
254
330
18
100
AcDbEntity
  8
外形線
100
AcDbLine
 10
266.3421258371987
 20
301.742248329653
 30
0.0
 11
266.3421258371987
 21
291.742248329653
 31
0.0
  0
LINE
  5
255
330
18
100
AcDbEntity
  8
外形線
100
AcDbLine
 10
255.3421258371987
 20
301.742248329653
 30
0.0
 11
255.3421258371987
 21
294.5517233489641
 31
0.0
  0
LINE
  5
256
330
18
100
AcDbEntity
  8
外形線
100
AcDbLine
 10
255.3421258371987
 20
301.742248329653
 30
0.0
 11
266.3421258371987
 21
301.742248329653
 31
0.0
  0
LINE
  5
257
330
18
100
AcDbEntity
  8
外形線
100
AcDbLine
 10
257.2583243242945
 20
291.742248329653
 30
0.0
 11
266.3421258371987
 21
291.742248329653
 31
0.0
  0
LINE
  5
25C
330
18
100
AcDbEntity
  8
外形線
100
AcDbLine
 10
267.3421258371987
 20
290.742248329653
 30
0.0
 11
267.3421258371987
 21
289.6354470256571
 31
0.0
  0
LINE
  5
25E
330
18
100
AcDbEntity
  8
外形線
100
AcDbLine
 10
267.3421258371988
 20
302.742248329653
 30
0.0
 11
267.3421258371987
 21
290.742248329653
 31
0.0
  0
ARC
  5
25F
330
18
100
AcDbEntity
  8
外形線
100
AcDbCircle
 10
265.1062772856445
 20
289.569075911822
 30
0.0
 40
2.5
100
AcDbArc
 50
26.57629387126569
 51
60.37379958472584
  0
ARC
  5
260
330
18
100
AcDbEntity
  8
外形線
100
AcDbCircle
 10
265.1062772856445
 20
303.9154207474839
 30
0.0
 40
2.5
100
AcDbArc
 50
299.6262004152742
 51
333.4237061287343
  0
LINE
  5
261
330
18
100
AcDbEntity
  8
外形線
100
AcDbLine
 10
245.3421258371988
 20
301.9422483296529
 30
0.0
 11
254.3421258371987
 21
301.9422483296529
 31
0.0
  0
LINE
  5
263
330
18
100
AcDbEntity
  8
外形線
100
AcDbLine
 10
245.3421258371987
 20
300.942248329653
 30
0.0
 11
254.3421258371987
 21
300.942248329653
 31
0.0
  0
LINE
  5
264
330
18
100
AcDbEntity
  8
外形線
100
AcDbLine
 10
254.3421258371988
 20
301.9422483296529
 30
0.0
 11
254.3421258371988
 21
300.942248329653
 31
0.0
  0
LINE
  5
265
330
18
100
AcDbEntity
  8
外形線
100
AcDbLine
 10
245.3421258371987
 20
301.9422483296529
 30
0.0
 11
245.3421258371987
 21
300.942248329653
 31
0.0
  0
LINE
  5
26B
330
18
100
AcDbEntity
  8
外形線
100
AcDbLine
 10
254.3421258371988
 20
300.942248329653
 30
0.0
 11
255.3421258371987
 21
300.4422483296529
 31
0.0
  0
LINE
  5
26C
330
18
100
AcDbEntity
  8
外形線
100
AcDbLine
 10
254.3421258371988
 20
301.9422483296529
 30
0.0
 11
255.3421258371987
 21
301.442248329653
 31
0.0
  0
LINE
  5
273
330
18
100
AcDbEntity
  8
外形線
100
AcDbLine
 10
245.3421258371987
 20
301.9422483296529
 30
0.0
 11
244.3421258371988
 21
301.442248329653
 31
0.0
  0
LINE
  5
274
330
18
100
AcDbEntity
  8
外形線
100
AcDbLine
 10
245.3421258371987
 20
300.942248329653
 30
0.0
 11
244.3421258371988
 21
300.4422483296529
 31
0.0
  0
LINE
  5
275
330
18
100
AcDbEntity
  8
外形線
100
AcDbLine
 10
245.3421258371987
 20
301.9422483296529
 30
0.0
 11
245.3421258371987
 21
300.942248329653
 31
0.0
  0
LINE
  5
276
330
18
100
AcDbEntity
  8
中心線
 48
0.4
100
AcDbLine
 10
249.8421258371988
 20
299.8283440202276
 30
0.0
 11
249.8421258371987
 21
277.6561526390784
 31
0.0
  0
LINE
  5
277
330
18
100
AcDbEntity
  8
中心線
 48
0.4
100
AcDbLine
 10
239.3562651515941
 20
288.742248329653
 30
0.0
 11
260.2239344570425
 21
288.742248329653
 31
0.0
  0
CIRCLE
  5
278
330
18
100
AcDbEntity
  8
外形線
100
AcDbCircle
 10
249.8421258371987
 20
288.742248329653
 30
0.0
 40
8.0
  0
TEXT
  5
27E
330
18
100
AcDbEntity
  8
文字
100
AcDbText
 10
289.6201135272969
 20
295.3651713654425
 30
0.0
 40
1.0
  1
CG-3
  7
STYLE3
100
AcDbText
  0
ARC
  5
2F6
102
{ACAD_REACTORS
330
317
102
}
330
18
100
AcDbEntity
  8
外形線
100
AcDbCircle
 10
287.3421258371987
 20
286.5922518646589
 30
0.0
 40
2.0
100
AcDbArc
 50
12.33039196868931
 51
162.0823891309169
  0
HATCH
  5
317
330
18
100
AcDbEntity
  8
ﾊｯﾁﾝｸ
100
AcDbHatch
 10
0.0
 20
0.0
 30
0.0
210
0.0
220
0.0
230
1.0
  2
DOTS
 70
     0
 71
     1
 91
        4
 92
        7
 72
     1
 73
     1
 93
        6
 10
286.8421258371988
 20
298.742248329653
 42
0.0
 10
286.8421258371988
 20
300.742248329653
 42
0.0
 10
297.3421258371987
 20
300.742248329653
 42
0.0
 10
297.3421258371987
 20
306.7015621533063
 42
0.0162971688498792
 10
277.3421258371988
 20
305.723472243871
 42
0.0
 10
277.3421258371986
 20
298.742248329653
 42
0.0
 97
        6
330
173
330
18F
330
18E
330
190
330
191
330
18D
 92
        7
 72
     1
 73
     1
 93
        6
 10
317.8421258371987
 20
300.742248329653
 42
0.0
 10
317.8421258371987
 20
298.742248329653
 42
0.0
 10
327.3421258371988
 20
298.742248329653
 42
0.0
 10
327.3421258371988
 20
305.723472243871
 42
0.0162971688498792
 10
307.3421258371987
 20
306.7015621533063
 42
0.0
 10
307.3421258371987
 20
300.742248329653
 42
0.0
 97
        6
330
173
330
16C
330
17A
330
17F
330
17C
330
16D
 92
        7
 72
     1
 73
     1
 93
        6
 10
327.3421258371988
 20
287.761024415435
 42
0.0
 10
327.3421258371989
 20
294.742248329653
 42
0.0
 10
317.8421258371987
 20
294.742248329653
 42
0.0
 10
317.8421258371987
 20
292.742248329653
 42
0.0
 10
307.3421258371987
 20
292.742248329653
 42
0.0
 10
307.3421258371987
 20
286.7829345059996
 42
0.0162971688498792
 97
        6
330
181
330
183
330
184
330
185
330
175
330
182
 92
        7
 72
     1
 73
     1
 93
        8
 10
285.4391260623011
 20
287.2075500498826
 42
-0.7656091570196743
 10
289.2959907115299
 20
287.019349105173
 42
0.0065500023894979
 10
297.3421258371987
 20
286.7829345059996
 42
0.0
 10
297.3421258371987
 20
292.742248329653
 42
0.0
 10
286.8421258371988
 20
292.742248329653
 42
0.0
 10
286.8421258371988
 20
294.742248329653
 42
0.0
 10
277.3421258371986
 20
294.742248329653
 42
0.0
 10
277.3421258371988
 20
287.761024415435
 42
0.0066039451871049
 97
        7
330
189
330
18A
330
18B
330
186
330
175
330
2F6
330
188
 75
     0
 76
     1
 52
0.0
 41
0.4
 77
     0
 78
     1
 53
0.0
 43
-7.827695927226045
 44
60.85192888703381
 45
0.3175
 46
0.635
 79
     2
 49
0.0
 49
-0.635
 47
0.3765170278403226
 98
        4
 10
281.7740953786696
 20
301.6261331791977
 10
320.5873989843543
 20
302.0026499354023
 10
320.9642270499216
 20
289.5775883349019
 10
283.6582365097719
 20
290.3306223023504
  0
POINT
  5
39F
330
18
100
AcDbEntity
  8
DEFPOINTS
  6
ByBlock
 62
     0
100
AcDbPoint
 10
244.3421258371988
 20
300.4422483296529
 30
0.0
  0
POINT
  5
3A7
330
18
100
AcDbEntity
  8
DEFPOINTS
  6
ByBlock
 62
     0
100
AcDbPoint
 10
337.3421258371987
 20
303.8490496336488
 30
0.0
  0
LINE
  5
403
330
18
100
AcDbEntity
  8
外形線
100
AcDbLine
 10
315.8421258371988
 20
299.242248329653
 30
0.0
 11
315.8421258371987
 21
294.242248329653
 31
0.0
  0
LINE
  5
404
330
18
100
AcDbEntity
  8
外形線
100
AcDbLine
 10
288.8421258371987
 20
299.242248329653
 30
0.0
 11
288.8421258371987
 21
294.242248329653
 31
0.0
  0
LINE
  5
405
330
18
100
AcDbEntity
  8
外形線
100
AcDbLine
 10
288.8421258371987
 20
299.242248329653
 30
0.0
 11
315.8421258371988
 21
299.242248329653
 31
0.0
  0
LINE
  5
406
330
18
100
AcDbEntity
  8
外形線
100
AcDbLine
 10
288.8421258371987
 20
294.242248329653
 30
0.0
 11
315.8421258371987
 21
294.242248329653
 31
0.0
  0
LINE
  5
4DE
330
18
100
AcDbEntity
  8
外形線
100
AcDbLine
 10
367.2890908882436
 20
346.5895564498737
 30
0.0
 11
386.7030287598163
 21
346.5895564498737
 31
0.0
  0
LINE
  5
4DF
330
18
100
AcDbEntity
  8
外形線
100
AcDbLine
 10
370.6457962823323
 20
356.5895564419319
 30
0.0
 11
386.7030287598162
 21
356.5895564498737
 31
0.0
  0
INSERT
  5
523
330
18
100
AcDbEntity
  8
外形線
100
AcDbBlockReference
  2
六角ﾈｼ
 10
386.7030287598162
 20
296.7422483296529
 30
0.0
 41
-1.0
 50
180.0
  0
LINE
  5
524
330
18
100
AcDbEntity
  8
外形線
100
AcDbLine
 10
386.7030287598162
 20
356.7895564498737
 30
0.0
 11
386.7030287598164
 21
346.3895564498737
 31
0.0
  0
LINE
  5
525
330
18
100
AcDbEntity
  8
外形線
100
AcDbLine
 10
389.2030287598167
 20
296.7422483296529
 30
0.0
 11
386.7030287598163
 21
296.7422483296529
 31
0.0
  0
LINE
  5
527
330
18
100
AcDbEntity
  8
中心線
 48
0.5
100
AcDbLine
 10
366.0915743878883
 20
351.5895564498736
 30
0.0
 11
422.8556663600213
 21
351.5895564498736
 31
0.0
  0
POINT
  5
581
330
18
100
AcDbEntity
  8
DEFPOINTS
  6
ByBlock
 62
     0
100
AcDbPoint
 10
337.3421258371987
 20
303.8490496336488
 30
0.0
  0
LINE
  5
5D9
330
18
100
AcDbEntity
  8
0
  6
ByBlock
 62
     2
100
AcDbLine
 10
374.0141775141355
 20
299.2422483296529
 30
0.0
 11
374.0141775141355
 21
294.242248329653
 31
0.0
  0
INSERT
  5
5DA
330
18
100
AcDbEntity
  8
0
  6
ByBlock
 62
     2
100
AcDbBlockReference
  2
_OPEN
 10
374.0141775141355
 20
301.7422483296529
 30
0.0
 41
2.5
 42
2.5
 43
2.5
 50
90.0
  0
INSERT
  5
5DB
330
18
100
AcDbEntity
  8
0
  6
ByBlock
 62
     2
100
AcDbBlockReference
  2
_OPEN
 10
374.0141775141355
 20
291.742248329653
 30
0.0
 41
2.5
 42
2.5
 43
2.5
 50
270.0
  0
POINT
  5
66B
330
18
100
AcDbEntity
  8
DEFPOINTS
  6
ByBlock
 62
     0
100
AcDbPoint
 10
417.7030287598161
 20
355.6395564498736
 30
0.0
  0
POINT
  5
66C
330
18
100
AcDbEntity
  8
DEFPOINTS
  6
ByBlock
 62
     0
100
AcDbPoint
 10
417.7030287598161
 20
347.5395564498735
 30
0.0
  0
LINE
  5
766
330
18
100
AcDbEntity
  8
外形線
100
AcDbLine
 10
386.7030287598162
 20
356.7895564498737
 30
0.0
 11
389.2030287598161
 21
356.7895564498737
 31
0.0
  0
LINE
  5
767
330
18
100
AcDbEntity
  8
外形線
100
AcDbLine
 10
389.2030287598166
 20
354.1895564498737
 30
0.0
 11
386.7030287598163
 21
354.1895564498737
 31
0.0
  0
LINE
  5
768
330
18
100
AcDbEntity
  8
外形線
100
AcDbLine
 10
389.2030287598163
 20
348.9895564498736
 30
0.0
 11
386.7030287598162
 21
348.9895564498736
 31
0.0
  0
LINE
  5
769
330
18
100
AcDbEntity
  8
外形線
100
AcDbLine
 10
386.7030287598164
 20
346.3895564498737
 30
0.0
 11
389.2030287598161
 21
346.3895564498737
 31
0.0
  0
LINE
  5
76A
330
18
100
AcDbEntity
  8
外形線
100
AcDbLine
 10
386.7030287598161
 20
301.7422483296528
 30
0.0
 11
386.7030287598162
 21
291.7422483296529
 31
0.0
  0
ARC
  5
76B
330
18
100
AcDbEntity
  8
外形線
100
AcDbCircle
 10
387.763028759816
 20
347.6895564498738
 30
0.0
 40
1.940000000000166
100
AcDbArc
 50
317.9249779491558
 51
42.07502205083457
  0
ARC
  5
76C
330
18
100
AcDbEntity
  8
外形線
100
AcDbCircle
 10
382.6930287598135
 20
351.5895564498742
 30
0.0
 40
7.010000000002722
100
AcDbArc
 50
338.2289458906867
 51
21.77105410930435
  0
ARC
  5
76D
330
18
100
AcDbEntity
  8
外形線
100
AcDbCircle
 10
387.763028759816
 20
355.4895564498735
 30
0.0
 40
1.940000000000166
100
AcDbArc
 50
317.9249779491655
 51
42.07502205084424
  0
LINE
  5
76E
330
18
100
AcDbEntity
  8
外形線
100
AcDbLine
 10
389.7030287598162
 20
347.6895564498738
 30
0.0
 11
389.7030287598162
 21
355.4895564498735
 31
0.0
  0
LINE
  5
778
330
18
100
AcDbEntity
  8
外形線
100
AcDbLine
 10
390.7030287598162
 20
307.7422483296529
 30
0.0
 11
390.7030287598161
 21
307.3878922533919
 31
0.0
  0
LINE
  5
77A
330
18
100
AcDbEntity
  8
外形線
100
AcDbLine
 10
411.2030287598162
 20
307.7422483296528
 30
0.0
 11
411.2030287598162
 21
307.5156651559348
 31
0.0
  0
LINE
  5
77B
330
18
100
AcDbEntity
  8
外形線
100
AcDbLine
 10
420.703028759816
 20
308.7422483296528
 30
0.0
 11
420.7030287598164
 21
269.6752610315452
 31
0.0
  0
LINE
  5
77C
330
18
100
AcDbEntity
  8
外形線
100
AcDbLine
 10
391.7030287598164
 20
290.7422483296528
 30
0.0
 11
408.2030287598163
 21
290.7422483296528
 31
0.0
  0
LINE
  5
77D
330
18
100
AcDbEntity
  8
外形線
100
AcDbLine
 10
412.2030287598162
 20
308.7422483296528
 30
0.0
 11
415.0723911056368
 21
308.7422483296528
 31
0.0
  0
LINE
  5
77E
330
18
100
AcDbEntity
  8
外形線
100
AcDbLine
 10
389.7030287598163
 20
300.4922483296529
 30
0.0
 11
390.7030287598162
 21
300.4922483296529
 31
0.0
  0
LINE
  5
77F
330
18
100
AcDbEntity
  8
外形線
100
AcDbLine
 10
389.7030287598162
 20
292.9922483296529
 30
0.0
 11
390.7030287598163
 21
292.9922483296529
 31
0.0
  0
LINE
  5
780
330
18
100
AcDbEntity
  8
外形線
100
AcDbLine
 10
391.7030287598162
 20
308.7422483296529
 30
0.0
 11
392.0573848360772
 21
308.7422483296529
 31
0.0
  0
LINE
  5
78E
330
18
100
AcDbEntity
  8
中心線
 48
0.5
100
AcDbLine
 10
393.2030287598162
 20
309.9519722378835
 30
0.0
 11
393.2030287598162
 21
300.1105899779306
 31
0.0
  0
LINE
  5
78F
330
18
100
AcDbEntity
  8
中心線
 48
0.5
100
AcDbLine
 10
389.834740154244
 20
306.2422483296529
 30
0.0
 11
396.1714567816037
 21
306.2422483296529
 31
0.0
  0
CIRCLE
  5
790
330
18
100
AcDbEntity
  8
外形線
100
AcDbCircle
 10
393.2030287598161
 20
306.2422483296529
 30
0.0
 40
1.5
  0
LINE
  5
792
330
18
100
AcDbEntity
  8
中心線
 48
0.5
100
AcDbLine
 10
412.703028759816
 20
307.8371848790744
 30
0.0
 11
412.7030287598161
 21
304.318776622008
 31
0.0
  0
LINE
  5
793
330
18
100
AcDbEntity
  8
中心線
 48
0.5
100
AcDbLine
 10
411.1080922103946
 20
306.2422483296528
 30
0.0
 11
414.2979653092376
 21
306.2422483296528
 31
0.0
  0
CIRCLE
  5
794
330
18
100
AcDbEntity
  8
外形線
100
AcDbCircle
 10
412.703028759816
 20
306.2422483296528
 30
0.0
 40
0.9849999999999999
  0
LINE
  5
797
330
18
100
AcDbEntity
  8
中心線
 48
0.5
100
AcDbLine
 10
409.7030287598162
 20
294.6802474851364
 30
0.0
 11
409.7030287598162
 21
290.7206133834689
 31
0.0
  0
LINE
  5
798
330
18
100
AcDbEntity
  8
中心線
 48
0.5
100
AcDbLine
 10
407.7232117089823
 20
292.7422483296528
 30
0.0
 11
411.6828458106501
 21
292.7422483296528
 31
0.0
  0
LINE
  5
7AF
330
18
100
AcDbEntity
  8
中心線
 48
0.5
100
AcDbLine
 10
417.7030287598161
 20
322.0542664183156
 30
0.0
 11
417.7030287598162
 21
215.0487392704565
 31
0.0
  0
CIRCLE
  5
803
330
18
100
AcDbEntity
  8
外形線
100
AcDbCircle
 10
407.2030287598161
 20
312.2422483296529
 30
0.0
 40
1.5
  0
LINE
  5
80B
330
18
100
AcDbEntity
  8
外形線
100
AcDbLine
 10
418.7030287598161
 20
308.7422483296528
 30
0.0
 11
420.703028759816
 21
308.7422483296528
 31
0.0
  0
LINE
  5
819
330
18
100
AcDbEntity
  8
中心線
 48
0.5
100
AcDbLine
 10
407.2030287598161
 20
314.5823245002656
 30
0.0
 11
407.2030287598161
 21
309.9021721590402
 31
0.0
  0
LINE
  5
81A
330
18
100
AcDbEntity
  8
中心線
 48
0.5
100
AcDbLine
 10
404.8629525892033
 20
312.2422483296529
 30
0.0
 11
409.5431049304288
 21
312.2422483296529
 31
0.0
  0
ARC
  5
84A
330
18
100
AcDbEntity
  8
外形線
100
AcDbCircle
 10
417.7030287598161
 20
316.4422483296529
 30
0.0
 40
1.0
100
AcDbArc
 50
23.57817847819385
 51
156.4218215218031
  0
LINE
  5
84B
330
18
100
AcDbEntity
  8
外形線
100
AcDbLine
 10
416.6530287598183
 20
316.1155582730778
 30
0.0
 11
416.653028759816
 21
316.8422483296527
 31
0.0
  0
POINT
  5
84C
330
18
100
AcDbEntity
  8
DEFPOINTS
  6
ByBlock
 62
     0
100
AcDbPoint
 10
417.7030287598161
 20
318.4422483296529
 30
0.0
  0
POINT
  5
84D
330
18
100
AcDbEntity
  8
DEFPOINTS
  6
ByBlock
 62
     0
100
AcDbPoint
 10
417.7030287598161
 20
318.4422483296529
 30
0.0
  0
POINT
  5
84E
330
18
100
AcDbEntity
  8
DEFPOINTS
  6
ByBlock
 62
     0
100
AcDbPoint
 10
417.7030287598161
 20
318.4422483296529
 30
0.0
  0
LINE
  5
84F
330
18
100
AcDbEntity
  8
外形線
100
AcDbLine
 10
418.753028759816
 20
315.7422483296528
 30
0.0
 11
418.7530287598161
 21
316.8422483296527
 31
0.0
  0
LINE
  5
850
330
18
100
AcDbEntity
  8
外形線
100
AcDbLine
 10
418.7530287598159
 20
316.8422483296528
 30
0.0
 11
418.5030287598161
 21
316.8422483296528
 31
0.0
  0
LINE
  5
85E
330
18
100
AcDbEntity
  8
外形線
100
AcDbLine
 10
390.7030287598161
 20
347.5895564498736
 30
0.0
 11
390.7030287598161
 21
355.5895564498736
 31
0.0
  0
LINE
  5
85F
330
18
100
AcDbEntity
  8
外形線
100
AcDbLine
 10
420.703028759816
 20
347.5895564498736
 30
0.0
 11
420.703028759816
 21
355.5895564498736
 31
0.0
  0
LINE
  5
860
330
18
100
AcDbEntity
  8
外形線
100
AcDbLine
 10
411.2030287598162
 20
347.5895564498736
 30
0.0
 11
411.2030287598161
 21
355.5895564498736
 31
0.0
  0
LINE
  5
8BD
330
18
100
AcDbEntity
  8
外形線
100
AcDbLine
 10
390.7030287598162
 20
355.5895564498736
 30
0.0
 11
405.7030287598161
 21
355.5895564498736
 31
0.0
  0
LINE
  5
8BE
330
18
100
AcDbEntity
  8
外形線
100
AcDbLine
 10
390.7030287598162
 20
347.5895564498736
 30
0.0
 11
405.7030287598171
 21
347.5895564498736
 31
0.0
  0
LINE
  5
8BF
330
18
100
AcDbEntity
  8
外形線
100
AcDbLine
 10
408.7030287598176
 20
349.0895564498737
 30
0.0
 11
416.557384836077
 21
349.0895564498736
 31
0.0
  0
LINE
  5
8C2
330
18
100
AcDbEntity
  8
外形線
100
AcDbLine
 10
389.7030287598163
 20
300.4922483296529
 30
0.0
 11
389.7030287598162
 21
292.9922483296529
 31
0.0
  0
POINT
  5
9FE
330
18
100
AcDbEntity
  8
DEFPOINTS
  6
ByBlock
 62
     0
100
AcDbPoint
 10
417.7030287598161
 20
318.4422483296529
 30
0.0
  0
CIRCLE
  5
FA6
330
18
100
AcDbEntity
  8
外形線
100
AcDbCircle
 10
417.7030287598161
 20
351.5895564498736
 30
0.0
 40
2.75
  0
CIRCLE
  5
FA9
330
18
100
AcDbEntity
  8
外形線
100
AcDbCircle
 10
417.7030287598161
 20
351.5895564498736
 30
0.0
 40
1.3
  0
CIRCLE
  5
FAA
330
18
100
AcDbEntity
  8
外形線
100
AcDbCircle
 10
417.7030287598161
 20
351.5895564498736
 30
0.0
 40
1.0
  0
LINE
  5
FC2
330
18
100
AcDbEntity
  8
外形線
100
AcDbLine
 10
418.8486726835552
 20
349.0895564498736
 30
0.0
 11
420.703028759816
 21
349.0895564498736
 31
0.0
  0
LINE
  5
FC3
330
18
100
AcDbEntity
  8
外形線
100
AcDbLine
 10
389.7030287598163
 20
355.3395564498736
 30
0.0
 11
390.7030287598162
 21
355.3395564498736
 31
0.0
  0
LINE
  5
FC4
330
18
100
AcDbEntity
  8
外形線
100
AcDbLine
 10
389.7030287598162
 20
347.8395564498736
 30
0.0
 11
390.7030287598163
 21
347.8395564498736
 31
0.0
  0
LINE
  5
FC5
330
18
100
AcDbEntity
  8
外形線
100
AcDbLine
 10
389.7030287598163
 20
355.3395564498736
 30
0.0
 11
389.7030287598162
 21
347.8395564498736
 31
0.0
  0
LINE
  5
FC6
330
18
100
AcDbEntity
  8
中心線
 48
0.5
100
AcDbLine
 10
393.2030287598162
 20
338.663243635912
 30
0.0
 11
393.2030287598162
 21
364.6418058645594
 31
0.0
  0
LINE
  5
FC7
330
18
100
AcDbEntity
  8
中心線
 48
0.5
100
AcDbLine
 10
407.203028759816
 20
337.9909748132706
 30
0.0
 11
407.2030287598161
 21
364.486801285481
 31
0.0
  0
LINE
  5
FCB
330
18
100
AcDbEntity
  8
外形線
100
AcDbLine
 10
418.7030287598161
 20
361.5895564498736
 30
0.0
 11
418.7030287598161
 21
359.5895564498736
 31
0.0
  0
LINE
  5
1097
330
18
100
AcDbEntity
  8
外形線
100
AcDbLine
 10
405.7030287598171
 20
347.5895564498736
 30
0.0
 11
405.703028759816
 21
359.5895564498736
 31
0.0
  0
LINE
  5
10B3
330
18
100
AcDbEntity
  8
外形線
100
AcDbLine
 10
392.4139441439887
 20
307.0313329454803
 30
0.0
 11
393.9921133756436
 21
305.4531637138254
 31
0.0
  0
LINE
  5
10B5
330
18
100
AcDbEntity
  8
外形線
100
AcDbLine
 10
393.9921133756436
 20
307.0313329454803
 30
0.0
 11
392.4139441439887
 21
305.4531637138254
 31
0.0
  0
LINE
  5
10B6
330
18
100
AcDbEntity
  8
外形線
100
AcDbLine
 10
406.4139441439886
 20
313.0313329454804
 30
0.0
 11
407.9921133756435
 21
311.4531637138256
 31
0.0
  0
LINE
  5
10B7
330
18
100
AcDbEntity
  8
外形線
100
AcDbLine
 10
407.9921133756435
 20
313.0313329454804
 30
0.0
 11
406.4139441439886
 21
311.4531637138256
 31
0.0
  0
CIRCLE
  5
10B8
330
18
100
AcDbEntity
  8
外形線
100
AcDbCircle
 10
409.7030287598162
 20
292.7422483296528
 30
0.0
 40
1.25
  0
LINE
  5
10BC
330
18
100
AcDbEntity
  8
外形線
100
AcDbLine
 10
409.0192086887697
 20
293.4260684006992
 30
0.0
 11
410.3868488308625
 21
292.0584282586064
 31
0.0
  0
LINE
  5
10BD
330
18
100
AcDbEntity
  8
外形線
100
AcDbLine
 10
410.3868488308626
 20
293.4260684006993
 30
0.0
 11
409.0192086887697
 21
292.0584282586064
 31
0.0
  0
CIRCLE
  5
10C2
330
18
100
AcDbEntity
  8
外形線
100
AcDbCircle
 10
419.2030287598162
 20
292.7422483296529
 30
0.0
 40
1.25
  0
LINE
  5
10C3
330
18
100
AcDbEntity
  8
外形線
100
AcDbLine
 10
419.8868488308626
 20
293.4260684006994
 30
0.0
 11
418.5192086887696
 21
292.0584282586065
 31
0.0
  0
LINE
  5
10C4
330
18
100
AcDbEntity
  8
外形線
100
AcDbLine
 10
418.5192086887696
 20
293.4260684006993
 30
0.0
 11
419.8868488308625
 21
292.0584282586064
 31
0.0
  0
LINE
  5
10F3
330
18
100
AcDbEntity
  8
外形線
100
AcDbLine
 10
390.7030287598162
 20
361.5895564498736
 30
0.0
 11
418.7030287598161
 21
361.5895564498736
 31
0.0
  0
LINE
  5
10F4
330
18
100
AcDbEntity
  8
外形線
100
AcDbLine
 10
390.7030287598162
 20
359.5895564498736
 30
0.0
 11
411.718028759816
 21
359.5895564498735
 31
0.0
  0
LINE
  5
10F7
330
18
100
AcDbEntity
  8
外形線
100
AcDbLine
 10
390.7030287598161
 20
359.5895564498736
 30
0.0
 11
390.7030287598162
 21
361.5895564498736
 31
0.0
  0
LINE
  5
10F8
330
18
100
AcDbEntity
  8
外形線
100
AcDbLine
 10
392.1530287598162
 20
362.8895564498736
 30
0.0
 11
394.2530287598162
 21
362.8895564498736
 31
0.0
  0
LINE
  5
10F9
330
18
100
AcDbEntity
  8
外形線
100
AcDbLine
 10
391.4530287598162
 20
361.5895564498736
 30
0.0
 11
391.4530287598162
 21
362.1895564498736
 31
0.0
  0
LINE
  5
10FA
330
18
100
AcDbEntity
  8
外形線
100
AcDbLine
 10
394.9530287598161
 20
361.5895564498736
 30
0.0
 11
394.9530287598162
 21
362.1895564498736
 31
0.0
  0
ARC
  5
10FB
330
18
100
AcDbEntity
  8
外形線
100
AcDbCircle
 10
392.1530287598162
 20
362.1895564498736
 30
0.0
 40
0.7
100
AcDbArc
 50
90.0
 51
180.0000000000001
  0
ARC
  5
10FC
330
18
100
AcDbEntity
  8
外形線
100
AcDbCircle
 10
394.2530287598162
 20
362.1895564498736
 30
0.0
 40
0.7
100
AcDbArc
 50
0.0000000000001527
 51
90.0
  0
LINE
  5
10FD
330
18
100
AcDbEntity
  8
外形線
100
AcDbLine
 10
406.1530287598161
 20
362.8895564498736
 30
0.0
 11
408.2530287598161
 21
362.8895564498736
 31
0.0
  0
LINE
  5
10FE
330
18
100
AcDbEntity
  8
外形線
100
AcDbLine
 10
405.4530287598161
 20
361.5895564498736
 30
0.0
 11
405.4530287598161
 21
362.1895564498736
 31
0.0
  0
ARC
  5
10FF
330
18
100
AcDbEntity
  8
外形線
100
AcDbCircle
 10
406.1530287598161
 20
362.1895564498736
 30
0.0
 40
0.7
100
AcDbArc
 50
90.0
 51
180.0000000000001
  0
LINE
  5
1100
330
18
100
AcDbEntity
  8
外形線
100
AcDbLine
 10
408.953028759816
 20
361.5895564498736
 30
0.0
 11
408.9530287598161
 21
362.1895564498736
 31
0.0
  0
ARC
  5
1101
330
18
100
AcDbEntity
  8
外形線
100
AcDbCircle
 10
408.2530287598161
 20
362.1895564498736
 30
0.0
 40
0.7
100
AcDbArc
 50
0.0000000000001527
 51
90.0
  0
LINE
  5
1102
330
18
100
AcDbEntity
  8
外形線
100
AcDbLine
 10
392.1530287598162
 20
340.2895564498735
 30
0.0
 11
394.2530287598162
 21
340.2895564498735
 31
0.0
  0
LINE
  5
1103
330
18
100
AcDbEntity
  8
外形線
100
AcDbLine
 10
390.7030287598162
 20
341.5895564498736
 30
0.0
 11
418.7030287598161
 21
341.5895564498736
 31
0.0
  0
LINE
  5
1104
330
18
100
AcDbEntity
  8
外形線
100
AcDbLine
 10
390.7030287598162
 20
343.5895564498736
 30
0.0
 11
411.718028759816
 21
343.5895564498736
 31
0.0
  0
LINE
  5
1105
330
18
100
AcDbEntity
  8
外形線
100
AcDbLine
 10
391.4530287598162
 20
341.5895564498736
 30
0.0
 11
391.4530287598162
 21
340.9895564498735
 31
0.0
  0
ARC
  5
1106
330
18
100
AcDbEntity
  8
外形線
100
AcDbCircle
 10
392.1530287598162
 20
340.9895564498735
 30
0.0
 40
0.7
100
AcDbArc
 50
179.9999999999998
 51
270.0
  0
LINE
  5
1107
330
18
100
AcDbEntity
  8
外形線
100
AcDbLine
 10
390.7030287598162
 20
343.5895564498736
 30
0.0
 11
390.7030287598162
 21
341.5895564498736
 31
0.0
  0
LINE
  5
1109
330
18
100
AcDbEntity
  8
外形線
100
AcDbLine
 10
394.9530287598161
 20
341.5895564498736
 30
0.0
 11
394.9530287598162
 21
340.9895564498735
 31
0.0
  0
ARC
  5
110A
330
18
100
AcDbEntity
  8
外形線
100
AcDbCircle
 10
394.2530287598162
 20
340.9895564498735
 30
0.0
 40
0.7
100
AcDbArc
 50
270.0
 51
359.9999999999998
  0
LINE
  5
110C
330
18
100
AcDbEntity
  8
外形線
100
AcDbLine
 10
406.1530287598161
 20
340.2895564498735
 30
0.0
 11
408.2530287598161
 21
340.2895564498735
 31
0.0
  0
ARC
  5
110D
330
18
100
AcDbEntity
  8
外形線
100
AcDbCircle
 10
406.1530287598161
 20
340.9895564498735
 30
0.0
 40
0.7
100
AcDbArc
 50
179.9999999999998
 51
270.0
  0
LINE
  5
110E
330
18
100
AcDbEntity
  8
外形線
100
AcDbLine
 10
405.4530287598161
 20
341.5895564498736
 30
0.0
 11
405.4530287598161
 21
340.9895564498735
 31
0.0
  0
LINE
  5
110F
330
18
100
AcDbEntity
  8
外形線
100
AcDbLine
 10
405.7030287598161
 20
347.5895564498734
 30
0.0
 11
405.703028759816
 21
343.5895564498736
 31
0.0
  0
ARC
  5
1110
330
18
100
AcDbEntity
  8
外形線
100
AcDbCircle
 10
408.2530287598161
 20
340.9895564498735
 30
0.0
 40
0.7
100
AcDbArc
 50
270.0
 51
359.9999999999998
  0
LINE
  5
1111
330
18
100
AcDbEntity
  8
外形線
100
AcDbLine
 10
408.953028759816
 20
341.5895564498736
 30
0.0
 11
408.9530287598161
 21
340.9895564498735
 31
0.0
  0
LINE
  5
1112
330
18
100
AcDbEntity
  8
外形線
100
AcDbLine
 10
408.7030287598182
 20
359.5895564498735
 30
0.0
 11
408.7030287598159
 21
343.5895564498736
 31
0.0
  0
LINE
  5
1113
330
18
100
AcDbEntity
  8
外形線
100
AcDbLine
 10
418.7030287598161
 20
341.5895564498736
 30
0.0
 11
418.7030287598161
 21
343.5895564498736
 31
0.0
  0
POINT
  5
1114
330
18
100
AcDbEntity
  8
DEFPOINTS
  6
ByBlock
 62
     0
100
AcDbPoint
 10
417.7030287598161
 20
347.5395564498735
 30
0.0
  0
LINE
  5
1115
330
18
100
AcDbEntity
  8
外形線
100
AcDbLine
 10
396.7030287598161
 20
347.5895564498736
 30
0.0
 11
396.7030287598161
 21
355.5895564498736
 31
0.0
  0
LINE
  5
111C
330
18
100
AcDbEntity
  8
外形線
100
AcDbLine
 10
408.7030287598161
 20
355.5895564498736
 30
0.0
 11
420.703028759816
 21
355.5895564498736
 31
0.0
  0
LINE
  5
111D
330
18
100
AcDbEntity
  8
外形線
100
AcDbLine
 10
408.703028759818
 20
347.5895564498736
 30
0.0
 11
420.703028759816
 21
347.5895564498736
 31
0.0
  0
LINE
  5
1127
330
18
100
AcDbEntity
  8
中心線
 48
0.5
100
AcDbLine
 10
412.703028759816
 20
363.0974580544393
 30
0.0
 11
412.7030287598161
 21
340.3760893735197
 31
0.0
  0
LINE
  5
1128
330
18
100
AcDbEntity
  8
外形線
100
AcDbLine
 10
411.718028759816
 20
341.5895564498736
 30
0.0
 11
411.718028759816
 21
344.5895564498735
 31
0.0
  0
LINE
  5
1129
330
18
100
AcDbEntity
  8
外形線
100
AcDbLine
 10
413.688028759816
 20
341.5895564498736
 30
0.0
 11
413.688028759816
 21
344.5895564498735
 31
0.0
  0
LINE
  5
112C
330
18
100
AcDbEntity
  8
外形線
100
AcDbLine
 10
411.7180287598161
 20
355.5895564498736
 30
0.0
 11
411.718028759816
 21
357.9895564498736
 31
0.0
  0
LINE
  5
112E
330
18
100
AcDbEntity
  8
外形線
100
AcDbLine
 10
413.688028759816
 20
359.5895564498735
 30
0.0
 11
418.7030287598161
 21
359.5895564498736
 31
0.0
  0
LINE
  5
118E
330
18
100
AcDbEntity
  8
中心線
100
AcDbLine
 10
462.0268964321627
 20
320.1704444321877
 30
0.0
 11
462.0268964321627
 21
263.2688670759366
 31
0.0
  0
LINE
  5
118F
330
18
100
AcDbEntity
  8
外形線
100
AcDbLine
 10
458.0268964321627
 20
308.742248329653
 30
0.0
 11
458.0268964321628
 21
271.7422483296529
 31
0.0
  0
LINE
  5
1190
330
18
100
AcDbEntity
  8
外形線
100
AcDbLine
 10
466.0268964321627
 20
308.7422483296529
 30
0.0
 11
466.0268964321628
 21
271.7422483296529
 31
0.0
  0
LINE
  5
1192
330
18
100
AcDbEntity
  8
外形線
100
AcDbLine
 10
458.0268964321628
 20
308.742248329653
 30
0.0
 11
466.0268964321627
 21
308.742248329653
 31
0.0
  0
LINE
  5
1193
330
18
100
AcDbEntity
  8
外形線
100
AcDbLine
 10
459.5268964321627
 20
308.742248329653
 30
0.0
 11
459.5268964321627
 21
287.7422483296529
 31
0.0
  0
LINE
  5
1198
330
18
100
AcDbEntity
  8
外形線
100
AcDbLine
 10
454.0268964321627
 20
317.2422483296529
 30
0.0
 11
454.0268964321626
 21
301.2422483296528
 31
0.0
  0
LINE
  5
1199
330
18
100
AcDbEntity
  8
外形線
100
AcDbLine
 10
452.0268964321626
 20
315.2422483296529
 30
0.0
 11
452.0268964321626
 21
301.2422483296528
 31
0.0
  0
LINE
  5
11A8
330
18
100
AcDbEntity
  8
中心線
 48
0.5
100
AcDbLine
 10
453.8744878119374
 20
296.7422483296529
 30
0.0
 11
469.791834399487
 21
296.7422483296529
 31
0.0
  0
LINE
  5
11B6
330
18
100
AcDbEntity
  8
中心線
 48
0.5
100
AcDbLine
 10
450.1661694444782
 20
312.2422483296529
 30
0.0
 11
474.5097745599868
 21
312.2422483296529
 31
0.0
  0
LINE
  5
11B7
330
18
100
AcDbEntity
  8
外形線
100
AcDbLine
 10
450.7268964321627
 20
313.2922483296529
 30
0.0
 11
450.7268964321627
 21
311.192248329653
 31
0.0
  0
LINE
  5
11B9
330
18
100
AcDbEntity
  8
外形線
100
AcDbLine
 10
452.0268964321627
 20
310.492248329653
 30
0.0
 11
451.4268964321627
 21
310.492248329653
 31
0.0
  0
ARC
  5
11BA
330
18
100
AcDbEntity
  8
外形線
100
AcDbCircle
 10
451.4268964321627
 20
311.192248329653
 30
0.0
 40
0.7
100
AcDbArc
 50
180.0
 51
269.9999999999998
  0
LINE
  5
11BD
330
18
100
AcDbEntity
  8
外形線
100
AcDbLine
 10
452.0268964321627
 20
313.9922483296529
 30
0.0
 11
451.4268964321627
 21
313.9922483296529
 31
0.0
  0
ARC
  5
11BE
330
18
100
AcDbEntity
  8
外形線
100
AcDbCircle
 10
451.4268964321627
 20
313.2922483296529
 30
0.0
 40
0.7
100
AcDbArc
 50
89.99999999999984
 51
180.0
  0
ARC
  5
1246
330
18
100
AcDbEntity
  8
外形線
100
AcDbCircle
 10
454.0268964321627
 20
315.2422483296529
 30
0.0
 40
2.0
100
AcDbArc
 50
90.00000000000161
 51
180.0
  0
POINT
  5
1289
330
18
100
AcDbEntity
  8
DEFPOINTS
  6
ByBlock
 62
     0
100
AcDbPoint
 10
420.703028759816
 20
308.7422483296528
 30
0.0
  0
POINT
  5
1290
330
18
100
AcDbEntity
  8
DEFPOINTS
  6
ByBlock
 62
     0
100
AcDbPoint
 10
337.3421258371987
 20
303.8490496336488
 30
0.0
  0
POINT
  5
12B3
330
18
100
AcDbEntity
  8
DEFPOINTS
  6
ByBlock
 62
     0
100
AcDbPoint
 10
417.7030287598161
 20
318.4422483296529
 30
0.0
  0
POINT
  5
12B5
330
18
100
AcDbEntity
  8
DEFPOINTS
  6
ByBlock
 62
     0
100
AcDbPoint
 10
385.2594948697115
 20
296.7422483296529
 30
0.0
  0
POINT
  5
12CC
330
18
100
AcDbEntity
  8
DEFPOINTS
  6
ByBlock
 62
     0
100
AcDbPoint
 10
241.8421258371988
 20
288.742248329653
 30
0.0
  0
LINE
  5
12FC
330
18
100
AcDbEntity
  8
外形線
100
AcDbLine
 10
390.7030287598163
 20
291.7422483296529
 30
0.0
 11
391.7030287598164
 21
290.7422483296528
 31
0.0
  0
LINE
  5
12FD
330
18
100
AcDbEntity
  8
外形線
100
AcDbLine
 10
411.2030287598162
 20
307.7422483296528
 30
0.0
 11
412.2030287598162
 21
308.7422483296528
 31
0.0
  0
LINE
  5
12FE
330
18
100
AcDbEntity
  8
中心線
 48
0.5
100
AcDbLine
 10
419.2030287598161
 20
294.3937826709832
 30
0.0
 11
419.2030287598162
 21
291.0719983332322
 31
0.0
  0
LINE
  5
1300
330
18
100
AcDbEntity
  8
中心線
 48
0.5
100
AcDbLine
 10
417.4638406655084
 20
292.7422483296528
 30
0.0
 11
421.4234747671761
 21
292.7422483296528
 31
0.0
  0
LINE
  5
1301
330
18
100
AcDbEntity
  8
外形線
100
AcDbLine
 10
411.7030287598164
 20
271.7422483296529
 30
0.0
 11
420.7030287598163
 21
271.7422483296529
 31
0.0
  0
LINE
  5
1302
330
18
100
AcDbEntity
  8
外形線
100
AcDbLine
 10
411.2030287598163
 20
287.7422483296529
 30
0.0
 11
411.2030287598164
 21
272.2422483296528
 31
0.0
  0
ARC
  5
1303
330
18
100
AcDbEntity
  8
外形線
100
AcDbCircle
 10
408.2030287598163
 20
287.7422483296529
 30
0.0
 40
3.0
100
AcDbArc
 50
0.0000000000005343
 51
90.0000000000001
  0
LINE
  5
1304
330
18
100
AcDbEntity
  8
外形線
100
AcDbLine
 10
411.7030287598164
 20
271.7422483296529
 30
0.0
 11
411.2030287598164
 21
272.2422483296528
 31
0.0
  0
LINE
  5
1305
330
18
100
AcDbEntity
  8
外形線
100
AcDbLine
 10
411.2030287598163
 20
287.7422483296529
 30
0.0
 11
420.7030287598163
 21
287.7422483296529
 31
0.0
  0
LINE
  5
130F
330
18
100
AcDbEntity
  8
外形線
100
AcDbLine
 10
458.0268964321628
 20
287.7422483296529
 30
0.0
 11
459.5268964321627
 21
287.7422483296528
 31
0.0
  0
LINE
  5
1310
330
18
100
AcDbEntity
  8
外形線
100
AcDbLine
 10
458.0268964321628
 20
271.7422483296529
 30
0.0
 11
466.0268964321628
 21
271.7422483296529
 31
0.0
  0
LINE
  5
1328
330
18
100
AcDbEntity
  8
中心線
 48
0.5
100
AcDbLine
 10
417.7030287598161
 20
346.4982822446998
 30
0.0
 11
417.7030287598161
 21
356.0855276723984
 31
0.0
  0
LINE
  5
132C
330
18
100
AcDbEntity
  8
外形線
100
AcDbLine
 10
411.2030287598162
 20
355.5895564498736
 30
0.0
 11
411.2030287598162
 21
356.1895564498735
 31
0.0
  0
ARC
  5
1332
330
18
100
AcDbEntity
  8
外形線
100
AcDbCircle
 10
390.7530287598162
 20
358.2895564498735
 30
0.0
 40
0.3
100
AcDbArc
 50
89.99999999998914
 51
270.0000000000108
  0
ARC
  5
1333
330
18
100
AcDbEntity
  8
外形線
100
AcDbCircle
 10
395.6530287598162
 20
357.6895564498735
 30
0.0
 40
0.3
100
AcDbArc
 50
270.0000000000108
 51
89.99999999998914
  0
ARC
  5
1334
330
18
100
AcDbEntity
  8
外形線
100
AcDbCircle
 10
390.7530287598162
 20
357.6895564498735
 30
0.0
 40
0.3
100
AcDbArc
 50
89.99999999998914
 51
270.0000000000108
  0
ARC
  5
1335
330
18
100
AcDbEntity
  8
外形線
100
AcDbCircle
 10
390.7530287598162
 20
357.0895564498735
 30
0.0
 40
0.3
100
AcDbArc
 50
89.99999999998914
 51
270.0000000000108
  0
ARC
  5
1336
330
18
100
AcDbEntity
  8
外形線
100
AcDbCircle
 10
390.7530287598162
 20
356.4895564498735
 30
0.0
 40
0.3
100
AcDbArc
 50
89.99999999998914
 51
270.0000000000108
  0
ARC
  5
1337
330
18
100
AcDbEntity
  8
外形線
100
AcDbCircle
 10
390.7530287598162
 20
355.8895564498735
 30
0.0
 40
0.3
100
AcDbArc
 50
89.99999999998914
 51
270.0000000000108
  0
ARC
  5
1338
330
18
100
AcDbEntity
  8
外形線
100
AcDbCircle
 10
395.6530287598162
 20
357.0895564498735
 30
0.0
 40
0.3
100
AcDbArc
 50
270.0000000000108
 51
89.99999999998914
  0
ARC
  5
1339
330
18
100
AcDbEntity
  8
外形線
100
AcDbCircle
 10
395.6530287598162
 20
356.4895564498735
 30
0.0
 40
0.3
100
AcDbArc
 50
270.0000000000108
 51
89.99999999998914
  0
ARC
  5
133A
330
18
100
AcDbEntity
  8
外形線
100
AcDbCircle
 10
395.6530287598162
 20
355.8895564498735
 30
0.0
 40
0.3
100
AcDbArc
 50
270.0000000000108
 51
89.99999999998914
  0
LINE
  5
133B
330
18
100
AcDbEntity
  8
外形線
100
AcDbLine
 10
390.7530287598162
 20
357.9895564498735
 30
0.0
 11
405.7030287598161
 21
357.9895564498735
 31
0.0
  0
LINE
  5
133C
330
18
100
AcDbEntity
  8
外形線
100
AcDbLine
 10
390.7530287598161
 20
357.3895564498735
 30
0.0
 11
395.6530287598161
 21
357.3895564498735
 31
0.0
  0
LINE
  5
133D
330
18
100
AcDbEntity
  8
外形線
100
AcDbLine
 10
390.7530287598161
 20
356.7895564498735
 30
0.0
 11
395.6530287598161
 21
356.7895564498735
 31
0.0
  0
LINE
  5
133E
330
18
100
AcDbEntity
  8
外形線
100
AcDbLine
 10
390.7530287598161
 20
356.1895564498735
 30
0.0
 11
405.7030287598163
 21
356.1895564498735
 31
0.0
  0
LINE
  5
1340
330
18
100
AcDbEntity
  8
外形線
100
AcDbLine
 10
408.7030287598177
 20
356.1895564498735
 30
0.0
 11
411.2030287598162
 21
356.1895564498735
 31
0.0
  0
LINE
  5
1341
330
18
100
AcDbEntity
  8
外形線
100
AcDbLine
 10
408.703028759818
 20
357.9895564498735
 30
0.0
 11
416.3575550328124
 21
357.9895564498737
 31
0.0
  0
LINE
  5
1342
330
18
100
AcDbEntity
  8
外形線
100
AcDbLine
 10
390.7530287598162
 20
345.1895564498736
 30
0.0
 11
405.7030287598161
 21
345.1895564498736
 31
0.0
  0
LINE
  5
1343
330
18
100
AcDbEntity
  8
外形線
100
AcDbLine
 10
390.7530287598161
 20
346.9895564498736
 30
0.0
 11
405.7030287598163
 21
346.9895564498736
 31
0.0
  0
LINE
  5
1344
330
18
100
AcDbEntity
  8
外形線
100
AcDbLine
 10
390.7030287598162
 20
347.5895564498735
 30
0.0
 11
405.7030287598161
 21
347.5895564498735
 31
0.0
  0
LINE
  5
1345
330
18
100
AcDbEntity
  8
外形線
100
AcDbLine
 10
390.7530287598161
 20
346.3895564498736
 30
0.0
 11
395.6530287598161
 21
346.3895564498736
 31
0.0
  0
LINE
  5
1346
330
18
100
AcDbEntity
  8
外形線
100
AcDbLine
 10
390.7530287598161
 20
345.7895564498736
 30
0.0
 11
395.6530287598161
 21
345.7895564498736
 31
0.0
  0
ARC
  5
1347
330
18
100
AcDbEntity
  8
外形線
100
AcDbCircle
 10
390.7530287598162
 20
347.2895564498736
 30
0.0
 40
0.3
100
AcDbArc
 50
89.99999999998918
 51
270.0000000000108
  0
ARC
  5
1348
330
18
100
AcDbEntity
  8
外形線
100
AcDbCircle
 10
390.7530287598162
 20
346.6895564498736
 30
0.0
 40
0.3
100
AcDbArc
 50
89.99999999998918
 51
270.0000000000108
  0
ARC
  5
1349
330
18
100
AcDbEntity
  8
外形線
100
AcDbCircle
 10
390.7530287598162
 20
346.0895564498736
 30
0.0
 40
0.3
100
AcDbArc
 50
89.99999999998918
 51
270.0000000000108
  0
ARC
  5
134A
330
18
100
AcDbEntity
  8
外形線
100
AcDbCircle
 10
390.7530287598162
 20
345.4895564498736
 30
0.0
 40
0.3
100
AcDbArc
 50
89.99999999998918
 51
270.0000000000108
  0
ARC
  5
134B
330
18
100
AcDbEntity
  8
外形線
100
AcDbCircle
 10
390.7530287598162
 20
344.8895564498736
 30
0.0
 40
0.3
100
AcDbArc
 50
89.99999999998918
 51
270.0000000000108
  0
ARC
  5
134C
330
18
100
AcDbEntity
  8
外形線
100
AcDbCircle
 10
395.6530287598162
 20
347.2895564498736
 30
0.0
 40
0.3
100
AcDbArc
 50
270.0000000000108
 51
89.99999999998918
  0
ARC
  5
134D
330
18
100
AcDbEntity
  8
外形線
100
AcDbCircle
 10
395.6530287598162
 20
346.6895564498736
 30
0.0
 40
0.3
100
AcDbArc
 50
270.0000000000108
 51
89.99999999998918
  0
ARC
  5
134E
330
18
100
AcDbEntity
  8
外形線
100
AcDbCircle
 10
395.6530287598162
 20
346.0895564498736
 30
0.0
 40
0.3
100
AcDbArc
 50
270.0000000000108
 51
89.99999999998918
  0
ARC
  5
134F
330
18
100
AcDbEntity
  8
外形線
100
AcDbCircle
 10
395.6530287598162
 20
345.4895564498736
 30
0.0
 40
0.3
100
AcDbArc
 50
270.0000000000108
 51
89.99999999998918
  0
LINE
  5
1350
330
18
100
AcDbEntity
  8
外形線
100
AcDbLine
 10
408.703028759818
 20
345.1895564498737
 30
0.0
 11
416.3575550328124
 21
345.1895564498735
 31
0.0
  0
LINE
  5
1351
330
18
100
AcDbEntity
  8
外形線
100
AcDbLine
 10
408.7030287598177
 20
346.9895564498736
 30
0.0
 11
411.2030287598162
 21
346.9895564498736
 31
0.0
  0
LINE
  5
1352
330
18
100
AcDbEntity
  8
外形線
100
AcDbLine
 10
411.2030287598162
 20
347.5895564498735
 30
0.0
 11
411.2030287598162
 21
346.9895564498736
 31
0.0
  0
LINE
  5
1397
330
18
100
AcDbEntity
  8
外形線
100
AcDbLine
 10
390.7030287598163
 20
300.5966044059136
 30
0.0
 11
390.7030287598163
 21
291.7422483296529
 31
0.0
  0
LINE
  5
139B
330
18
100
AcDbEntity
  8
外形線
100
AcDbLine
 10
408.2030287598161
 20
300.7422483296529
 30
0.0
 11
408.2030287598162
 21
290.7422483296528
 31
0.0
  0
LINE
  5
13C1
330
18
100
AcDbEntity
  8
隠れ線
 48
0.3
100
AcDbLine
 10
454.0268964321628
 20
313.7422483296529
 30
0.0
 11
452.0268964321628
 21
313.7422483296529
 31
0.0
  0
LINE
  5
13C2
330
18
100
AcDbEntity
  8
隠れ線
 48
0.3
100
AcDbLine
 10
454.0268964321628
 20
310.7422483296529
 30
0.0
 11
452.0268964321628
 21
310.7422483296529
 31
0.0
  0
ARC
  5
13D0
330
18
100
AcDbEntity
  8
外形線
100
AcDbCircle
 10
417.7030287598162
 20
218.2422483296528
 30
0.0
 40
1.5
100
AcDbArc
 50
195.4660099534208
 51
344.5339900465792
  0
LINE
  5
13D1
330
18
100
AcDbEntity
  8
外形線
100
AcDbLine
 10
415.9030287598161
 20
217.8422483296529
 30
0.0
 11
419.5030287598163
 21
217.8422483296529
 31
0.0
  0
LINE
  5
13D2
330
18
100
AcDbEntity
  8
外形線
100
AcDbLine
 10
415.4530287598161
 20
219.2422483296529
 30
0.0
 11
419.9530287598162
 21
219.2422483296529
 31
0.0
  0
LINE
  5
13D3
330
18
100
AcDbEntity
  8
外形線
100
AcDbLine
 10
414.7030287598163
 20
221.7422483296529
 30
0.0
 11
414.7030287598163
 21
219.675261031545
 31
0.0
  0
LINE
  5
13D8
330
18
100
AcDbEntity
  8
外形線
100
AcDbLine
 10
415.4530287598162
 20
219.2422483296529
 30
0.0
 11
415.9030287598162
 21
217.8422483296529
 31
0.0
  0
LINE
  5
13D9
330
18
100
AcDbEntity
  8
外形線
100
AcDbLine
 10
419.9530287598162
 20
219.2422483296529
 30
0.0
 11
419.5030287598163
 21
217.8422483296529
 31
0.0
  0
LINE
  5
13E2
330
18
100
AcDbEntity
  8
外形線
100
AcDbLine
 10
420.7030287598164
 20
219.6752610315452
 30
0.0
 11
419.9530287598162
 21
219.2422483296529
 31
0.0
  0
LINE
  5
13E3
330
18
100
AcDbEntity
  8
外形線
100
AcDbLine
 10
414.703028759816
 20
219.6752610315451
 30
0.0
 11
415.4530287598162
 21
219.2422483296529
 31
0.0
  0
LINE
  5
13E4
330
18
100
AcDbEntity
  8
外形線
100
AcDbLine
 10
414.7030287598163
 20
219.675261031545
 30
0.0
 11
416.0530287598162
 21
219.675261031545
 31
0.0
  0
LINE
  5
13E5
330
18
100
AcDbEntity
  8
外形線
100
AcDbLine
 10
416.0530287598162
 20
221.7422483296529
 30
0.0
 11
416.0530287598162
 21
219.6752610315451
 31
0.0
  0
LINE
  5
13E6
330
18
100
AcDbEntity
  8
外形線
100
AcDbLine
 10
419.3530287598162
 20
221.7422483296529
 30
0.0
 11
419.3530287598162
 21
219.6752610315452
 31
0.0
  0
LINE
  5
13E7
330
18
100
AcDbEntity
  8
外形線
100
AcDbLine
 10
419.3530287598162
 20
219.6752610315452
 30
0.0
 11
420.7030287598165
 21
219.6752610315452
 31
0.0
  0
ARC
  5
13E8
330
18
100
AcDbEntity
  8
外形線
100
AcDbCircle
 10
417.703028759816
 20
222.6024268963357
 30
0.0
 40
3.360178566682845
100
AcDbArc
 50
240.5906886028069
 51
299.4093113972002
  0
LINE
  5
13ED
330
18
100
AcDbEntity
  8
外形線
100
AcDbLine
 10
459.7768964321627
 20
269.2422483296529
 30
0.0
 11
464.2768964321627
 21
269.2422483296529
 31
0.0
  0
LINE
  5
13EE
330
18
100
AcDbEntity
  8
外形線
100
AcDbLine
 10
460.2268964321627
 20
267.8422483296529
 30
0.0
 11
463.8268964321627
 21
267.8422483296529
 31
0.0
  0
ARC
  5
13EF
330
18
100
AcDbEntity
  8
外形線
100
AcDbCircle
 10
462.0268964321628
 20
268.2422483296528
 30
0.0
 40
1.5
100
AcDbArc
 50
195.4660099534208
 51
344.5339900465792
  0
LINE
  5
13F0
330
18
100
AcDbEntity
  8
外形線
100
AcDbLine
 10
459.5268964321626
 20
269.675261031545
 30
0.0
 11
464.5268964321626
 21
269.6752610315451
 31
0.0
  0
LINE
  5
13F1
330
18
100
AcDbEntity
  8
外形線
100
AcDbLine
 10
459.5268964321627
 20
269.3865858969502
 30
0.0
 11
459.7768964321628
 21
269.2422483296529
 31
0.0
  0
LINE
  5
13F2
330
18
100
AcDbEntity
  8
外形線
100
AcDbLine
 10
459.7768964321627
 20
269.2422483296529
 30
0.0
 11
460.2268964321628
 21
267.8422483296529
 31
0.0
  0
LINE
  5
13F4
330
18
100
AcDbEntity
  8
外形線
100
AcDbLine
 10
464.5268964321626
 20
269.3865858969502
 30
0.0
 11
464.2768964321627
 21
269.2422483296529
 31
0.0
  0
LINE
  5
13F5
330
18
100
AcDbEntity
  8
外形線
100
AcDbLine
 10
464.2768964321627
 20
269.2422483296529
 30
0.0
 11
463.8268964321627
 21
267.8422483296529
 31
0.0
  0
LINE
  5
13F6
330
18
100
AcDbEntity
  8
外形線
100
AcDbLine
 10
459.5268964321626
 20
271.7422483296529
 30
0.0
 11
459.5268964321626
 21
269.3865858969502
 31
0.0
  0
LINE
  5
13F7
330
18
100
AcDbEntity
  8
外形線
100
AcDbLine
 10
464.5268964321627
 20
271.7422483296529
 30
0.0
 11
464.5268964321627
 21
269.3865858969503
 31
0.0
  0
LINE
  5
13F9
330
18
100
AcDbEntity
  8
外形線
100
AcDbLine
 10
457.429324980609
 20
305.2422483296529
 30
0.0
 11
457.429324980609
 21
303.7327118364749
 31
0.0
  0
LINE
  5
13FA
330
18
100
AcDbEntity
  8
外形線
100
AcDbLine
 10
458.0097959707766
 20
297.9422483296529
 30
0.0
 11
458.0268964321628
 21
297.9422483296529
 31
0.0
  0
LINE
  5
1410
330
18
100
AcDbEntity
  8
外形線
100
AcDbLine
 10
456.8268964321626
 20
303.7708068652881
 30
0.0
 11
456.8268964321626
 21
305.2422483296529
 31
0.0
  0
LINE
  5
1411
330
18
100
AcDbEntity
  8
外形線
100
AcDbLine
 10
456.2268964321626
 20
303.7708068652881
 30
0.0
 11
456.2268964321626
 21
305.2422483296529
 31
0.0
  0
ARC
  5
1412
330
18
100
AcDbEntity
  8
外形線
100
AcDbCircle
 10
457.7268964321627
 20
303.7708068652882
 30
0.0
 40
0.3
100
AcDbArc
 50
179.9999999999891
 51
0.0000000000108713
  0
ARC
  5
1413
330
18
100
AcDbEntity
  8
外形線
100
AcDbCircle
 10
457.1268964321626
 20
303.7708068652882
 30
0.0
 40
0.3
100
AcDbArc
 50
179.9999999999891
 51
0.0000000000108713
  0
ARC
  5
1414
330
18
100
AcDbEntity
  8
外形線
100
AcDbCircle
 10
456.5268964321626
 20
303.7708068652882
 30
0.0
 40
0.3
100
AcDbArc
 50
179.9999999999891
 51
0.0000000000108713
  0
ARC
  5
1415
330
18
100
AcDbEntity
  8
外形線
100
AcDbCircle
 10
455.9268964321626
 20
303.7708068652882
 30
0.0
 40
0.3
100
AcDbArc
 50
179.9999999999891
 51
0.0000000000108713
  0
ARC
  5
1416
330
18
100
AcDbEntity
  8
外形線
100
AcDbCircle
 10
455.3268964321626
 20
303.7708068652882
 30
0.0
 40
0.3
100
AcDbArc
 50
179.9999999999891
 51
0.0000000000108713
  0
LINE
  5
141B
330
18
100
AcDbEntity
  8
外形線
100
AcDbLine
 10
457.4268964321626
 20
303.7708068652881
 30
0.0
 11
457.4268964321626
 21
305.2422483296529
 31
0.0
  0
LINE
  5
141C
330
18
100
AcDbEntity
  8
外形線
100
AcDbLine
 10
455.6268964321626
 20
303.7708068652882
 30
0.0
 11
455.6268964321626
 21
305.2422483296529
 31
0.0
  0
CIRCLE
  5
1424
330
18
100
AcDbEntity
  8
外形線
100
AcDbCircle
 10
454.7215630806467
 20
308.199945121788
 30
0.0
 40
0.3
  0
LINE
  5
1426
330
18
100
AcDbEntity
  8
外形線
100
AcDbLine
 10
455.0268964321626
 20
303.7708068652882
 30
0.0
 11
455.0268964321626
 21
305.2422483296529
 31
0.0
  0
LINE
  5
1427
330
18
100
AcDbEntity
  8
外形線
100
AcDbLine
 10
458.0244678837163
 20
299.2708068652882
 30
0.0
 11
458.0244678837163
 21
304.1708068652882
 31
0.0
  0
POINT
  5
1498
330
18
100
AcDbEntity
  8
DEFPOINTS
  6
ByBlock
 62
     0
100
AcDbPoint
 10
420.7030287598165
 20
219.6752610315452
 30
0.0
  0
POINT
  5
1499
330
18
100
AcDbEntity
  8
DEFPOINTS
  6
ByBlock
 62
     0
100
AcDbPoint
 10
241.8421258371988
 20
288.742248329653
 30
0.0
  0
POINT
  5
14AC
330
18
100
AcDbEntity
  8
DEFPOINTS
  6
ByBlock
 62
     0
100
AcDbPoint
 10
417.017934924241
 20
216.9078396829269
 30
0.0
  0
POINT
  5
14DC
330
18
100
AcDbEntity
  8
DEFPOINTS
  6
ByBlock
 62
     0
100
AcDbPoint
 10
491.2465518167119
 20
301.996989511816
 30
0.0
  0
LINE
  5
14FE
330
18
100
AcDbEntity
  8
外形線
100
AcDbLine
 10
390.7030287598162
 20
307.7422483296529
 30
0.0
 11
391.7030287598162
 21
308.7422483296529
 31
0.0
  0
ARC
  5
1504
330
18
100
AcDbEntity
  8
外形線
100
AcDbCircle
 10
393.2030287598162
 20
303.7422483296528
 30
0.0
 40
2.5
100
AcDbArc
 50
179.9999999999987
 51
270.0000000000013
  0
ARC
  5
1505
330
18
100
AcDbEntity
  8
外形線
100
AcDbCircle
 10
393.2030287598161
 20
306.2422483296529
 30
0.0
 40
2.5
100
AcDbArc
 50
111.1223163476137
 51
179.9999999999987
  0
LINE
  5
1506
330
18
100
AcDbEntity
  8
外形線
100
AcDbLine
 10
390.7030287598161
 20
306.2422483296529
 30
0.0
 11
390.7030287598163
 21
300.4922483296529
 31
0.0
  0
LINE
  5
1508
330
18
100
AcDbEntity
  8
中心線
 48
0.5
100
AcDbLine
 10
403.8612202023608
 20
312.2422483296529
 30
0.0
 11
410.1979368297205
 21
312.2422483296529
 31
0.0
  0
LINE
  5
150A
330
18
100
AcDbEntity
  8
外形線
100
AcDbLine
 10
393.2030287598162
 20
301.2422483296528
 30
0.0
 11
413.1270275805697
 21
301.2422483296528
 31
0.0
  0
LINE
  5
150B
330
18
100
AcDbEntity
  8
中心線
 48
0.5
100
AcDbLine
 10
412.7030287598161
 20
309.9519722378837
 30
0.0
 11
412.7030287598162
 21
303.3458299533389
 31
0.0
  0
ARC
  5
150D
330
18
100
AcDbEntity
  8
外形線
100
AcDbCircle
 10
407.2030287598161
 20
312.2422483296529
 30
0.0
 40
2.0
100
AcDbArc
 50
14.86906669865028
 51
111.1223163476184
  0
LINE
  5
1513
330
18
100
AcDbEntity
  8
外形線
100
AcDbLine
 10
415.4530287598161
 20
315.7422483296528
 30
0.0
 11
416.5852087111587
 21
315.7422483296528
 31
0.0
  0
LINE
  5
1515
330
18
100
AcDbEntity
  8
外形線
100
AcDbLine
 10
414.9530287598161
 20
315.2422483296528
 30
0.0
 11
414.9530287598161
 21
308.7422483296528
 31
0.0
  0
LINE
  5
1516
330
18
100
AcDbEntity
  8
外形線
100
AcDbLine
 10
420.4530287598161
 20
315.2422483296527
 30
0.0
 11
420.4530287598161
 21
308.7422483296528
 31
0.0
  0
ARC
  5
1517
330
18
100
AcDbEntity
  8
外形線
100
AcDbCircle
 10
415.4530287598161
 20
315.2422483296528
 30
0.0
 40
0.5
100
AcDbArc
 50
90.0
 51
180.0000000000001
  0
ARC
  5
1518
330
18
100
AcDbEntity
  8
外形線
100
AcDbCircle
 10
419.9530287598161
 20
315.2422483296527
 30
0.0
 40
0.5
100
AcDbArc
 50
0.0000000000001018
 51
90.0
  0
ARC
  5
1519
330
18
100
AcDbEntity
  8
外形線
100
AcDbCircle
 10
412.7030287598161
 20
307.2272483296528
 30
0.0
 40
6.0
100
AcDbArc
 50
270.0000000000005
 51
0.1432395979912975
  0
ARC
  5
151A
330
18
100
AcDbEntity
  8
外形線
100
AcDbCircle
 10
417.7030287598161
 20
316.2422483296528
 30
0.0
 40
1.0
100
AcDbArc
 50
0.0
 51
168.0905267851592
  0
LINE
  5
1528
330
18
100
AcDbEntity
  8
外形線
100
AcDbLine
 10
418.7030287598161
 20
316.2422483296528
 30
0.0
 11
418.7030287598161
 21
307.2272483296528
 31
0.0
  0
LINE
  5
1529
330
18
100
AcDbEntity
  8
外形線
100
AcDbLine
 10
416.7245538816393
 20
316.4486142977216
 30
0.0
 11
414.6267123602362
 21
306.6800359344397
 31
0.0
  0
LINE
  5
152A
330
18
100
AcDbEntity
  8
外形線
100
AcDbLine
 10
409.1360582825643
 20
312.7554703714476
 30
0.0
 11
410.7872843686863
 21
306.651306395926
 31
0.0
  0
ARC
  5
152C
330
18
100
AcDbEntity
  8
外形線
100
AcDbCircle
 10
412.7030287598161
 20
307.2272483296528
 30
0.0
 40
2.0
100
AcDbArc
 50
194.0964219832418
 51
351.4889159983086
  0
LINE
  5
152E
330
18
100
AcDbEntity
  8
外形線
100
AcDbLine
 10
418.7030287598161
 20
315.7422483296528
 30
0.0
 11
419.9530287598161
 21
315.7422483296528
 31
0.0
  0
LINE
  5
152F
330
18
100
AcDbEntity
  8
外形線
100
AcDbLine
 10
392.3021385712821
 20
308.5740685339729
 30
0.0
 11
406.4823082321894
 21
314.1078753603147
 31
0.0
  0
LINE
  5
1533
330
18
100
AcDbEntity
  8
隠れ線
 48
0.5
100
AcDbLine
 10
396.7030287598161
 20
308.7422483296531
 30
0.0
 11
396.7030287598161
 21
303.7422483296528
 31
0.0
  0
LINE
  5
1534
330
18
100
AcDbEntity
  8
隠れ線
100
AcDbLine
 10
392.7330929054537
 20
308.742248329653
 30
0.0
 11
396.7030287598161
 21
308.742248329653
 31
0.0
  0
LINE
  5
1535
330
18
100
AcDbEntity
  8
外形線
100
AcDbLine
 10
399.7030287598162
 20
300.7422483296529
 30
0.0
 11
408.203028759816
 21
300.7422483296529
 31
0.0
  0
LINE
  5
1536
330
18
100
AcDbEntity
  8
隠れ線
 48
0.3
100
AcDbLine
 10
411.2030287598161
 20
305.9043726741206
 30
0.0
 11
411.2030287598161
 21
303.7422483296528
 31
0.0
  0
ARC
  5
1537
330
18
100
AcDbEntity
  8
隠れ線
 48
0.5
100
AcDbCircle
 10
399.7030287598162
 20
303.7422483296528
 30
0.0
 40
3.0
100
AcDbArc
 50
180.0000000000008
 51
236.4426902380795
  0
ARC
  5
1538
330
18
100
AcDbEntity
  8
外形線
100
AcDbCircle
 10
408.203028759816
 20
303.7422483296528
 30
0.0
 40
3.0
100
AcDbArc
 50
270.0
 51
303.5573097619205
  0
ARC
  5
1539
330
18
100
AcDbEntity
  8
外形線
100
AcDbCircle
 10
399.7030287598162
 20
303.7422483296528
 30
0.0
 40
3.0
100
AcDbArc
 50
236.4426902380795
 51
270.0
  0
ARC
  5
153A
330
18
100
AcDbEntity
  8
隠れ線
 48
0.5
100
AcDbCircle
 10
408.203028759816
 20
303.7422483296528
 30
0.0
 40
3.0
100
AcDbArc
 50
303.5573097619205
 51
0.0
  0
LINE
  5
153C
330
18
100
AcDbEntity
  8
外形線
100
AcDbLine
 10
459.7768964321628
 20
315.7422483296529
 30
0.0
 11
464.2768964321627
 21
315.7422483296529
 31
0.0
  0
LINE
  5
153D
330
18
100
AcDbEntity
  8
外形線
100
AcDbLine
 10
459.2768964321628
 20
315.2422483296529
 30
0.0
 11
459.2768964321628
 21
308.742248329653
 31
0.0
  0
LINE
  5
153E
330
18
100
AcDbEntity
  8
外形線
100
AcDbLine
 10
464.7768964321627
 20
315.2422483296529
 30
0.0
 11
464.7768964321627
 21
308.742248329653
 31
0.0
  0
ARC
  5
153F
330
18
100
AcDbEntity
  8
外形線
100
AcDbCircle
 10
459.7768964321628
 20
315.2422483296529
 30
0.0
 40
0.5
100
AcDbArc
 50
90.0
 51
180.0000000000002
  0
ARC
  5
1540
330
18
100
AcDbEntity
  8
外形線
100
AcDbCircle
 10
464.2768964321627
 20
315.2422483296529
 30
0.0
 40
0.5
100
AcDbArc
 50
359.9999999999997
 51
90.0
  0
POINT
  5
1579
330
18
100
AcDbEntity
  8
DEFPOINTS
  6
ByBlock
 62
     0
100
AcDbPoint
 10
462.0268964321627
 20
317.4422483296528
 30
0.0
  0
POINT
  5
157A
330
18
100
AcDbEntity
  8
DEFPOINTS
  6
ByBlock
 62
     0
100
AcDbPoint
 10
462.0268964321627
 20
317.4422483296528
 30
0.0
  0
LINE
  5
157B
330
18
100
AcDbEntity
  8
外形線
100
AcDbLine
 10
463.0768964321625
 20
316.8422483296528
 30
0.0
 11
460.9768964321627
 21
316.8422483296528
 31
0.0
  0
LINE
  5
157C
330
18
100
AcDbEntity
  8
外形線
100
AcDbLine
 10
463.0768964321626
 20
315.7422483296528
 30
0.0
 11
463.0768964321626
 21
316.8422483296527
 31
0.0
  0
POINT
  5
157D
330
18
100
AcDbEntity
  8
DEFPOINTS
  6
ByBlock
 62
     0
100
AcDbPoint
 10
462.0268964321627
 20
317.4422483296528
 30
0.0
  0
POINT
  5
157E
330
18
100
AcDbEntity
  8
DEFPOINTS
  6
ByBlock
 62
     0
100
AcDbPoint
 10
462.0268964321627
 20
317.4422483296528
 30
0.0
  0
POINT
  5
157F
330
18
100
AcDbEntity
  8
DEFPOINTS
  6
ByBlock
 62
     0
100
AcDbPoint
 10
462.0268964321627
 20
317.4422483296528
 30
0.0
  0
LINE
  5
1580
330
18
100
AcDbEntity
  8
外形線
100
AcDbLine
 10
460.9768964321662
 20
315.7422483296528
 30
0.0
 11
460.9768964321626
 21
316.8422483296527
 31
0.0
  0
ARC
  5
1581
330
18
100
AcDbEntity
  8
外形線
100
AcDbCircle
 10
462.0268964321627
 20
316.4422483296529
 30
0.0
 40
1.0
100
AcDbArc
 50
23.57817847819385
 51
156.4218215218031
  0
LINE
  5
1582
330
18
100
AcDbEntity
  8
外形線
100
AcDbLine
 10
463.0768964321626
 20
316.8422483296528
 30
0.0
 11
462.8268964321627
 21
316.8422483296528
 31
0.0
  0
LINE
  5
158E
330
18
100
AcDbEntity
  8
外形線
100
AcDbLine
 10
452.0268964321625
 20
301.2422483296528
 30
0.0
 11
454.0268964321626
 21
301.2422483296528
 31
0.0
  0
LINE
  5
1590
330
18
100
AcDbEntity
  8
中心線
 48
0.5
100
AcDbLine
 10
449.553565537743
 20
306.2422483296529
 30
0.0
 11
464.90313496733
 21
306.2422483296529
 31
0.0
  0
LINE
  5
1592
330
18
100
AcDbEntity
  8
外形線
100
AcDbLine
 10
450.7268964321627
 20
307.2922483296529
 30
0.0
 11
450.7268964321627
 21
305.192248329653
 31
0.0
  0
LINE
  5
1593
330
18
100
AcDbEntity
  8
外形線
100
AcDbLine
 10
452.0268964321626
 20
304.492248329653
 30
0.0
 11
451.4268964321626
 21
304.492248329653
 31
0.0
  0
ARC
  5
1594
330
18
100
AcDbEntity
  8
外形線
100
AcDbCircle
 10
451.4268964321626
 20
305.192248329653
 30
0.0
 40
0.7
100
AcDbArc
 50
180.0
 51
269.9999999999998
  0
LINE
  5
1595
330
18
100
AcDbEntity
  8
外形線
100
AcDbLine
 10
452.0268964321626
 20
307.9922483296529
 30
0.0
 11
451.4268964321626
 21
307.9922483296529
 31
0.0
  0
ARC
  5
1596
330
18
100
AcDbEntity
  8
外形線
100
AcDbCircle
 10
451.4268964321626
 20
307.2922483296529
 30
0.0
 40
0.7
100
AcDbArc
 50
89.99999999999984
 51
180.0
  0
LINE
  5
15BD
330
18
100
AcDbEntity
  8
外形線
100
AcDbLine
 10
454.0268964321627
 20
314.2422483296529
 30
0.0
 11
459.2768964321628
 21
314.2422483296529
 31
0.0
  0
LINE
  5
15BE
330
18
100
AcDbEntity
  8
外形線
100
AcDbLine
 10
454.0268964321627
 20
310.2422483296529
 30
0.0
 11
457.429324980609
 21
310.2422483296529
 31
0.0
  0
LINE
  5
15BF
330
18
100
AcDbEntity
  8
外形線
100
AcDbLine
 10
454.0268964321627
 20
307.2422483296529
 30
0.0
 11
458.0268964321626
 21
307.2422483296529
 31
0.0
  0
LINE
  5
15C0
330
18
100
AcDbEntity
  8
外形線
100
AcDbLine
 10
454.0268964321626
 20
305.2422483296529
 30
0.0
 11
458.0268964321626
 21
305.2422483296529
 31
0.0
  0
LINE
  5
15C2
330
18
100
AcDbEntity
  8
中心線
 48
0.5
100
AcDbLine
 10
414.7030287598161
 20
306.6363182754994
 30
0.0
 11
414.7030287598161
 21
302.1266078558237
 31
0.0
  0
LINE
  5
15C3
330
18
100
AcDbEntity
  8
中心線
 48
0.5
100
AcDbLine
 10
412.5871979774855
 20
304.2422483296529
 30
0.0
 11
416.691698856628
 21
304.2422483296529
 31
0.0
  0
LINE
  5
15C8
330
18
100
AcDbEntity
  8
外形線
100
AcDbLine
 10
457.4268964321626
 20
308.7136897940177
 30
0.0
 11
457.4268964321626
 21
307.2422483296529
 31
0.0
  0
LINE
  5
15C9
330
18
100
AcDbEntity
  8
外形線
100
AcDbLine
 10
457.429324980609
 20
307.2422483296529
 30
0.0
 11
457.429324980609
 21
310.4099905186793
 31
0.0
  0
LINE
  5
15CA
330
18
100
AcDbEntity
  8
外形線
100
AcDbLine
 10
456.8268964321626
 20
308.7136897940177
 30
0.0
 11
456.8268964321626
 21
307.2422483296529
 31
0.0
  0
LINE
  5
15CB
330
18
100
AcDbEntity
  8
外形線
100
AcDbLine
 10
456.2268964321626
 20
308.7136897940177
 30
0.0
 11
456.2268964321626
 21
307.2422483296529
 31
0.0
  0
LINE
  5
15CC
330
18
100
AcDbEntity
  8
外形線
100
AcDbLine
 10
455.6268964321626
 20
308.7136897940176
 30
0.0
 11
455.6268964321626
 21
307.2422483296529
 31
0.0
  0
LINE
  5
15CD
330
18
100
AcDbEntity
  8
外形線
100
AcDbLine
 10
455.0268964321626
 20
308.7136897940176
 30
0.0
 11
455.0268964321626
 21
307.2422483296529
 31
0.0
  0
LINE
  5
15CE
330
18
100
AcDbEntity
  8
外形線
100
AcDbLine
 10
458.0244678837163
 20
310.4637554398207
 30
0.0
 11
458.0244678837163
 21
308.3136897940176
 31
0.0
  0
CIRCLE
  5
15CF
330
18
100
AcDbEntity
  8
外形線
100
AcDbCircle
 10
457.7293249806089
 20
310.4099905186793
 30
0.0
 40
0.3
  0
ARC
  5
15D0
330
18
100
AcDbEntity
  8
外形線
100
AcDbCircle
 10
457.7268964321627
 20
308.7136897940176
 30
0.0
 40
0.3
100
AcDbArc
 50
359.9999999999891
 51
180.0000000000108
  0
ARC
  5
15D1
330
18
100
AcDbEntity
  8
外形線
100
AcDbCircle
 10
457.1268964321626
 20
308.7136897940176
 30
0.0
 40
0.3
100
AcDbArc
 50
359.9999999999891
 51
180.0000000000108
  0
ARC
  5
15D2
330
18
100
AcDbEntity
  8
外形線
100
AcDbCircle
 10
456.5268964321626
 20
308.7136897940176
 30
0.0
 40
0.3
100
AcDbArc
 50
359.9999999999891
 51
180.0000000000108
  0
ARC
  5
15D3
330
18
100
AcDbEntity
  8
外形線
100
AcDbCircle
 10
455.9268964321626
 20
308.7136897940176
 30
0.0
 40
0.3
100
AcDbArc
 50
359.9999999999891
 51
180.0000000000108
  0
ARC
  5
15D4
330
18
100
AcDbEntity
  8
外形線
100
AcDbCircle
 10
455.3268964321626
 20
308.7136897940176
 30
0.0
 40
0.3
100
AcDbArc
 50
359.9999999999891
 51
180.0000000000108
  0
ARC
  5
15D7
330
18
100
AcDbEntity
  8
外形線
100
AcDbCircle
 10
454.7268964321625
 20
308.7136897940176
 30
0.0
 40
0.3
100
AcDbArc
 50
359.9999999999891
 51
180.0000000000108
  0
ARC
  5
15D8
330
18
100
AcDbEntity
  8
外形線
100
AcDbCircle
 10
454.7268964321625
 20
303.7708068652882
 30
0.0
 40
0.3
100
AcDbArc
 50
179.9999999999891
 51
0.0000000000108713
  0
LINE
  5
15D9
330
18
100
AcDbEntity
  8
外形線
100
AcDbLine
 10
454.4268964321625
 20
303.7708068652882
 30
0.0
 11
454.4268964321625
 21
305.2422483296529
 31
0.0
  0
LINE
  5
15DA
330
18
100
AcDbEntity
  8
外形線
100
AcDbLine
 10
454.4268964321625
 20
308.7136897940176
 30
0.0
 11
454.4268964321625
 21
307.2422483296529
 31
0.0
  0
LINE
  5
15DB
330
18
100
AcDbEntity
  8
外形線
100
AcDbLine
 10
454.0268964321627
 20
308.2422483296529
 30
0.0
 11
454.4268964321625
 21
308.2422483296529
 31
0.0
  0
LINE
  5
15DC
330
18
100
AcDbEntity
  8
外形線
100
AcDbLine
 10
454.0268964321626
 20
304.2422483296529
 30
0.0
 11
454.4268964321626
 21
304.2422483296529
 31
0.0
  0
CIRCLE
  5
15E5
330
18
100
AcDbEntity
  8
隠れ線
 48
0.5
100
AcDbCircle
 10
393.2030287598161
 20
306.2422483296529
 30
0.0
 40
2.149999999999999
  0
ARC
  5
15E6
330
18
100
AcDbEntity
  8
外形線
100
AcDbCircle
 10
393.2030287598161
 20
306.2422483296529
 30
0.0
 40
2.75
100
AcDbArc
 50
86.68738897591252
 51
204.6199773286592
  0
ARC
  5
15EB
330
18
100
AcDbEntity
  8
隠れ線
 48
0.5
100
AcDbCircle
 10
393.2030287598161
 20
306.2422483296529
 30
0.0
 40
2.75
100
AcDbArc
 50
204.6199773286592
 51
86.68738897591252
  0
ARC
  5
15EC
330
18
100
AcDbEntity
  8
隠れ線
 48
0.3
100
AcDbCircle
 10
407.2030287598161
 20
312.2422483296529
 30
0.0
 40
2.0
100
AcDbArc
 50
111.1271877213537
 51
14.86906669865028
  0
LINE
  5
15F4
330
18
100
AcDbEntity
  8
隠れ線
 48
0.3
100
AcDbLine
 10
393.8711853144236
 20
303.574652629676
 30
0.0
 11
410.7426684967309
 21
306.8162399568815
 31
0.0
  0
LINE
  5
15F7
330
18
100
AcDbEntity
  8
隠れ線
100
AcDbLine
 10
416.2443452319104
 20
308.4842739861004
 30
0.0
 11
416.3575550328125
 21
307.8950511581483
 31
0.0
  0
LINE
  5
15F8
330
18
100
AcDbEntity
  8
隠れ線
 48
0.3
100
AcDbLine
 10
393.6078953583089
 20
304.135039941275
 30
0.0
 11
410.5855604802298
 21
307.3970284404528
 31
0.0
  0
LINE
  5
1610
330
18
100
AcDbEntity
  8
隠れ線
 48
0.3
100
AcDbLine
 10
392.6906920908277
 20
308.9441016079805
 30
0.0
 11
409.7561298901609
 21
310.4632229311079
 31
0.0
  0
LINE
  5
1612
330
18
100
AcDbEntity
  8
隠れ線
 48
0.3
100
AcDbLine
 10
392.9575970554145
 20
308.3781938529456
 30
0.0
 11
409.9471896419485
 21
309.7569234946858
 31
0.0
  0
LINE
  5
1613
330
18
100
AcDbEntity
  8
外形線
100
AcDbLine
 10
412.1433226839235
 20
310.6757246857106
 30
0.0
 11
412.2030287598161
 21
309.939988052765
 31
0.0
  0
LINE
  5
1615
330
18
100
AcDbEntity
  8
外形線
100
AcDbLine
 10
409.9471896419485
 20
309.7569234946858
 30
0.0
 11
412.2030287598161
 21
309.939988052765
 31
0.0
  0
LINE
  5
1616
330
18
100
AcDbEntity
  8
外形線
100
AcDbLine
 10
409.7561298901609
 20
310.4632229311079
 30
0.0
 11
412.1433226839236
 21
310.6757246857106
 31
0.0
  0
LINE
  5
1619
330
18
100
AcDbEntity
  8
隠れ線
 48
0.3
100
AcDbLine
 10
414.9634514400805
 20
308.2381706033553
 30
0.0
 11
416.2443452319104
 21
308.4842739861003
 31
0.0
  0
LINE
  5
161A
330
18
100
AcDbEntity
  8
隠れ線
 48
0.3
100
AcDbLine
 10
414.8256892762193
 20
307.6007275014849
 30
0.0
 11
416.3575550328124
 21
307.8950511581483
 31
0.0
  0
LINE
  5
161B
330
18
100
AcDbEntity
  8
外形線
100
AcDbLine
 10
410.5855604802298
 20
307.3970284404528
 30
0.0
 11
414.9634514400804
 21
308.2381706033553
 31
0.0
  0
LINE
  5
161C
330
18
100
AcDbEntity
  8
外形線
100
AcDbLine
 10
410.7426684967308
 20
306.8162399568815
 30
0.0
 11
414.8256892762193
 21
307.6007275014849
 31
0.0
  0
LINE
  5
161D
330
18
100
AcDbEntity
  8
外形線
100
AcDbLine
 10
411.2030287598162
 20
306.9046908641693
 30
0.0
 11
411.2030287598161
 21
305.9043726741206
 31
0.0
  0
LINE
  5
1620
330
18
100
AcDbEntity
  8
外形線
100
AcDbLine
 10
458.0244678837164
 20
310.2422483296529
 30
0.0
 11
459.2768964321628
 21
310.2422483296529
 31
0.0
  0
LINE
  5
1621
330
18
100
AcDbEntity
  8
外形線
100
AcDbLine
 10
473.3268964321626
 20
313.2922483296529
 30
0.0
 11
473.3268964321626
 21
311.192248329653
 31
0.0
  0
LINE
  5
1622
330
18
100
AcDbEntity
  8
外形線
100
AcDbLine
 10
472.0268964321627
 20
315.2422483296529
 30
0.0
 11
472.0268964321628
 21
301.2422483296528
 31
0.0
  0
LINE
  5
1623
330
18
100
AcDbEntity
  8
外形線
100
AcDbLine
 10
470.0268964321627
 20
317.2422483296529
 30
0.0
 11
470.0268964321629
 21
301.2422483296528
 31
0.0
  0
LINE
  5
1624
330
18
100
AcDbEntity
  8
中心線
 48
0.5
100
AcDbLine
 10
474.5002273265824
 20
306.2422483296529
 30
0.0
 11
459.1506578969955
 21
306.2422483296529
 31
0.0
  0
LINE
  5
1625
330
18
100
AcDbEntity
  8
外形線
100
AcDbLine
 10
472.0268964321629
 20
301.2422483296528
 30
0.0
 11
470.0268964321629
 21
301.2422483296528
 31
0.0
  0
LINE
  5
1626
330
18
100
AcDbEntity
  8
隠れ線
 48
0.3
100
AcDbLine
 10
470.0268964321627
 20
310.7422483296529
 30
0.0
 11
472.0268964321626
 21
310.7422483296529
 31
0.0
  0
ARC
  5
1627
330
18
100
AcDbEntity
  8
外形線
100
AcDbCircle
 10
472.6268964321628
 20
307.2922483296529
 30
0.0
 40
0.7
100
AcDbArc
 50
0.000000000000007
 51
90.00000000000017
  0
LINE
  5
1628
330
18
100
AcDbEntity
  8
外形線
100
AcDbLine
 10
472.0268964321627
 20
307.9922483296529
 30
0.0
 11
472.6268964321628
 21
307.9922483296529
 31
0.0
  0
ARC
  5
1629
330
18
100
AcDbEntity
  8
外形線
100
AcDbCircle
 10
472.6268964321628
 20
305.192248329653
 30
0.0
 40
0.7
100
AcDbArc
 50
270.0000000000002
 51
0.000000000000007
  0
LINE
  5
162A
330
18
100
AcDbEntity
  8
外形線
100
AcDbLine
 10
472.0268964321627
 20
304.492248329653
 30
0.0
 11
472.6268964321628
 21
304.492248329653
 31
0.0
  0
LINE
  5
162B
330
18
100
AcDbEntity
  8
外形線
100
AcDbLine
 10
473.3268964321627
 20
307.2922483296529
 30
0.0
 11
473.3268964321627
 21
305.192248329653
 31
0.0
  0
ARC
  5
162C
330
18
100
AcDbEntity
  8
外形線
100
AcDbCircle
 10
472.6268964321628
 20
311.192248329653
 30
0.0
 40
0.7
100
AcDbArc
 50
270.0000000000002
 51
0.000000000000007
  0
LINE
  5
162D
330
18
100
AcDbEntity
  8
外形線
100
AcDbLine
 10
472.0268964321627
 20
310.492248329653
 30
0.0
 11
472.6268964321628
 21
310.492248329653
 31
0.0
  0
LINE
  5
162E
330
18
100
AcDbEntity
  8
外形線
100
AcDbLine
 10
469.6268964321628
 20
303.7708068652882
 30
0.0
 11
469.6268964321628
 21
305.2422483296529
 31
0.0
  0
LINE
  5
162F
330
18
100
AcDbEntity
  8
外形線
100
AcDbLine
 10
466.029324980609
 20
299.2708068652882
 30
0.0
 11
466.029324980609
 21
304.1708068652882
 31
0.0
  0
LINE
  5
1630
330
18
100
AcDbEntity
  8
外形線
100
AcDbLine
 10
469.0268964321629
 20
303.7708068652882
 30
0.0
 11
469.0268964321629
 21
305.2422483296529
 31
0.0
  0
LINE
  5
1631
330
18
100
AcDbEntity
  8
外形線
100
AcDbLine
 10
468.4268964321628
 20
303.7708068652882
 30
0.0
 11
468.4268964321628
 21
305.2422483296529
 31
0.0
  0
LINE
  5
1632
330
18
100
AcDbEntity
  8
外形線
100
AcDbLine
 10
466.6268964321627
 20
303.7708068652881
 30
0.0
 11
466.6268964321627
 21
305.2422483296529
 31
0.0
  0
LINE
  5
1633
330
18
100
AcDbEntity
  8
外形線
100
AcDbLine
 10
467.8268964321627
 20
303.7708068652881
 30
0.0
 11
467.8268964321627
 21
305.2422483296529
 31
0.0
  0
LINE
  5
1634
330
18
100
AcDbEntity
  8
外形線
100
AcDbLine
 10
467.2268964321627
 20
303.7708068652881
 30
0.0
 11
467.2268964321627
 21
305.2422483296529
 31
0.0
  0
LINE
  5
1635
330
18
100
AcDbEntity
  8
外形線
100
AcDbLine
 10
466.6244678837164
 20
305.2422483296529
 30
0.0
 11
466.6244678837164
 21
303.7327118364749
 31
0.0
  0
ARC
  5
1636
330
18
100
AcDbEntity
  8
外形線
100
AcDbCircle
 10
466.3268964321628
 20
303.7708068652882
 30
0.0
 40
0.3
100
AcDbArc
 50
179.9999999999891
 51
0.0000000000108463
  0
ARC
  5
1637
330
18
100
AcDbEntity
  8
外形線
100
AcDbCircle
 10
469.3268964321629
 20
303.7708068652882
 30
0.0
 40
0.3
100
AcDbArc
 50
179.9999999999891
 51
0.0000000000108463
  0
ARC
  5
1638
330
18
100
AcDbEntity
  8
外形線
100
AcDbCircle
 10
468.7268964321629
 20
303.7708068652882
 30
0.0
 40
0.3
100
AcDbArc
 50
179.9999999999891
 51
0.0000000000108463
  0
ARC
  5
1639
330
18
100
AcDbEntity
  8
外形線
100
AcDbCircle
 10
468.1268964321628
 20
303.7708068652882
 30
0.0
 40
0.3
100
AcDbArc
 50
179.9999999999891
 51
0.0000000000108463
  0
ARC
  5
163A
330
18
100
AcDbEntity
  8
外形線
100
AcDbCircle
 10
467.5268964321628
 20
303.7708068652882
 30
0.0
 40
0.3
100
AcDbArc
 50
179.9999999999891
 51
0.0000000000108463
  0
ARC
  5
163B
330
18
100
AcDbEntity
  8
外形線
100
AcDbCircle
 10
466.9268964321628
 20
303.7708068652882
 30
0.0
 40
0.3
100
AcDbArc
 50
179.9999999999891
 51
0.0000000000108463
  0
CIRCLE
  5
163C
330
18
100
AcDbEntity
  8
外形線
100
AcDbCircle
 10
466.3244678837165
 20
310.4099905186793
 30
0.0
 40
0.3
  0
ARC
  5
163D
330
18
100
AcDbEntity
  8
外形線
100
AcDbCircle
 10
466.3268964321628
 20
308.7136897940176
 30
0.0
 40
0.3
100
AcDbArc
 50
359.9999999999891
 51
180.0000000000109
  0
LINE
  5
163E
330
18
100
AcDbEntity
  8
外形線
100
AcDbLine
 10
470.0268964321629
 20
305.2422483296529
 30
0.0
 11
466.0268964321629
 21
305.2422483296529
 31
0.0
  0
LINE
  5
163F
330
18
100
AcDbEntity
  8
外形線
100
AcDbLine
 10
470.0268964321628
 20
307.2422483296529
 30
0.0
 11
466.0268964321629
 21
307.2422483296529
 31
0.0
  0
CIRCLE
  5
1640
330
18
100
AcDbEntity
  8
外形線
100
AcDbCircle
 10
469.3322297836787
 20
308.199945121788
 30
0.0
 40
0.3
  0
LINE
  5
1641
330
18
100
AcDbEntity
  8
外形線
100
AcDbLine
 10
470.0268964321628
 20
310.2422483296529
 30
0.0
 11
466.6244678837164
 21
310.2422483296529
 31
0.0
  0
LINE
  5
1642
330
18
100
AcDbEntity
  8
外形線
100
AcDbLine
 10
466.6244678837164
 20
307.2422483296529
 30
0.0
 11
466.6244678837164
 21
310.4099905186793
 31
0.0
  0
LINE
  5
1643
330
18
100
AcDbEntity
  8
外形線
100
AcDbLine
 10
470.0268964321629
 20
304.2422483296529
 30
0.0
 11
469.6268964321628
 21
304.2422483296529
 31
0.0
  0
LINE
  5
1644
330
18
100
AcDbEntity
  8
外形線
100
AcDbLine
 10
470.0268964321628
 20
308.2422483296529
 30
0.0
 11
469.6268964321629
 21
308.2422483296529
 31
0.0
  0
LINE
  5
1645
330
18
100
AcDbEntity
  8
外形線
100
AcDbLine
 10
469.6268964321629
 20
308.7136897940176
 30
0.0
 11
469.6268964321629
 21
307.2422483296529
 31
0.0
  0
ARC
  5
1646
330
18
100
AcDbEntity
  8
外形線
100
AcDbCircle
 10
469.3268964321629
 20
308.7136897940176
 30
0.0
 40
0.3
100
AcDbArc
 50
359.9999999999891
 51
180.0000000000109
  0
ARC
  5
1647
330
18
100
AcDbEntity
  8
外形線
100
AcDbCircle
 10
468.7268964321629
 20
308.7136897940176
 30
0.0
 40
0.3
100
AcDbArc
 50
359.9999999999891
 51
180.0000000000109
  0
ARC
  5
1648
330
18
100
AcDbEntity
  8
外形線
100
AcDbCircle
 10
468.1268964321628
 20
308.7136897940176
 30
0.0
 40
0.3
100
AcDbArc
 50
359.9999999999891
 51
180.0000000000109
  0
ARC
  5
1649
330
18
100
AcDbEntity
  8
外形線
100
AcDbCircle
 10
467.5268964321628
 20
308.7136897940176
 30
0.0
 40
0.3
100
AcDbArc
 50
359.9999999999891
 51
180.0000000000109
  0
ARC
  5
164A
330
18
100
AcDbEntity
  8
外形線
100
AcDbCircle
 10
466.9268964321628
 20
308.7136897940176
 30
0.0
 40
0.3
100
AcDbArc
 50
359.9999999999891
 51
180.0000000000109
  0
LINE
  5
164B
330
18
100
AcDbEntity
  8
外形線
100
AcDbLine
 10
469.0268964321629
 20
308.7136897940176
 30
0.0
 11
469.0268964321629
 21
307.2422483296529
 31
0.0
  0
LINE
  5
164C
330
18
100
AcDbEntity
  8
外形線
100
AcDbLine
 10
468.4268964321628
 20
308.7136897940176
 30
0.0
 11
468.4268964321628
 21
307.2422483296529
 31
0.0
  0
LINE
  5
164D
330
18
100
AcDbEntity
  8
外形線
100
AcDbLine
 10
467.8268964321627
 20
308.7136897940177
 30
0.0
 11
467.8268964321627
 21
307.2422483296529
 31
0.0
  0
LINE
  5
164E
330
18
100
AcDbEntity
  8
外形線
100
AcDbLine
 10
467.2268964321627
 20
308.7136897940177
 30
0.0
 11
467.2268964321627
 21
307.2422483296529
 31
0.0
  0
LINE
  5
164F
330
18
100
AcDbEntity
  8
外形線
100
AcDbLine
 10
466.6268964321627
 20
308.7136897940177
 30
0.0
 11
466.6268964321627
 21
307.2422483296529
 31
0.0
  0
LINE
  5
1650
330
18
100
AcDbEntity
  8
外形線
100
AcDbLine
 10
466.029324980609
 20
310.2422483296529
 30
0.0
 11
464.7768964321626
 21
310.2422483296529
 31
0.0
  0
LINE
  5
1651
330
18
100
AcDbEntity
  8
外形線
100
AcDbLine
 10
466.0293249806091
 20
310.4637554398207
 30
0.0
 11
466.029324980609
 21
308.3136897940176
 31
0.0
  0
LINE
  5
1652
330
18
100
AcDbEntity
  8
隠れ線
 48
0.3
100
AcDbLine
 10
470.0268964321627
 20
313.7422483296529
 30
0.0
 11
472.0268964321626
 21
313.7422483296529
 31
0.0
  0
ARC
  5
1653
330
18
100
AcDbEntity
  8
外形線
100
AcDbCircle
 10
470.0268964321627
 20
315.2422483296529
 30
0.0
 40
2.0
100
AcDbArc
 50
0.000000000000007
 51
89.9999999999984
  0
ARC
  5
1654
330
18
100
AcDbEntity
  8
外形線
100
AcDbCircle
 10
472.6268964321628
 20
313.2922483296529
 30
0.0
 40
0.7
100
AcDbArc
 50
0.000000000000007
 51
90.00000000000017
  0
LINE
  5
1655
330
18
100
AcDbEntity
  8
外形線
100
AcDbLine
 10
472.0268964321627
 20
313.9922483296529
 30
0.0
 11
472.6268964321628
 21
313.9922483296529
 31
0.0
  0
LINE
  5
1656
330
18
100
AcDbEntity
  8
外形線
100
AcDbLine
 10
470.0268964321628
 20
314.2422483296529
 30
0.0
 11
464.7768964321626
 21
314.2422483296529
 31
0.0
  0
LINE
  5
1658
330
18
100
AcDbEntity
  8
中心線
100
AcDbLine
 10
448.7905094571813
 20
291.7422483296529
 30
0.0
 11
472.9808902712827
 21
291.7422483296529
 31
0.0
  0
ARC
  5
1659
330
18
100
AcDbEntity
  8
想像線
 48
0.5
100
AcDbCircle
 10
462.0268964321627
 20
291.7422483296529
 30
0.0
 40
25.0
100
AcDbArc
 50
231.3635753834423
 51
130.4098025756174
  0
LINE
  5
166C
330
18
100
AcDbEntity
  8
隠れ線
 48
0.3
100
AcDbLine
 10
452.0268964321626
 20
307.4922483296528
 30
0.0
 11
454.0268964321626
 21
307.4922483296528
 31
0.0
  0
LINE
  5
166D
330
18
100
AcDbEntity
  8
隠れ線
 48
0.3
100
AcDbLine
 10
452.0268964321626
 20
304.9922483296529
 30
0.0
 11
454.0268964321626
 21
304.9922483296529
 31
0.0
  0
LINE
  5
166E
330
18
100
AcDbEntity
  8
隠れ線
 48
0.3
100
AcDbLine
 10
472.0268964321627
 20
307.4922483296528
 30
0.0
 11
470.0268964321629
 21
307.4922483296528
 31
0.0
  0
LINE
  5
166F
330
18
100
AcDbEntity
  8
隠れ線
 48
0.3
100
AcDbLine
 10
472.0268964321627
 20
304.9922483296529
 30
0.0
 11
470.0268964321629
 21
304.9922483296529
 31
0.0
  0
LINE
  5
1688
330
18
100
AcDbEntity
  8
外形線
100
AcDbLine
 10
413.688028759816
 20
355.5895564498736
 30
0.0
 11
413.6880287598161
 21
357.9895564498737
 31
0.0
  0
LINE
  5
1689
330
18
100
AcDbEntity
  8
外形線
100
AcDbLine
 10
416.3575550328124
 20
344.5895564498735
 30
0.0
 11
416.3575550328123
 21
345.1895564498734
 31
0.0
  0
LINE
  5
168A
330
18
100
AcDbEntity
  8
0
  6
ByBlock
 62
     2
100
AcDbLine
 10
418.7030287598161
 20
361.5895564498736
 30
0.0
 11
433.4466788066476
 21
361.5895564498736
 31
0.0
  0
LINE
  5
168B
330
18
100
AcDbEntity
  8
0
  6
ByBlock
 62
     2
100
AcDbLine
 10
418.7030287598161
 20
341.5895564498736
 30
0.0
 11
433.4466788066476
 21
341.5895564498736
 31
0.0
  0
LINE
  5
168C
330
18
100
AcDbEntity
  8
0
  6
ByBlock
 62
     2
100
AcDbLine
 10
432.1966788066476
 20
359.0895564498735
 30
0.0
 11
432.1966788066476
 21
341.5895564498735
 31
0.0
  0
INSERT
  5
168D
330
18
100
AcDbEntity
  8
0
  6
ByBlock
 62
     2
100
AcDbBlockReference
  2
_OPEN
 10
432.1966788066476
 20
361.5895564498736
 30
0.0
 41
2.5
 42
2.5
 43
2.5
 50
90.0
  0
INSERT
  5
168E
330
18
100
AcDbEntity
  8
0
  6
ByBlock
 62
     2
100
AcDbBlockReference
  2
_OPEN
 10
432.1966788066476
 20
341.5895564498736
 30
0.0
 41
2.5
 42
2.5
 43
2.5
 50
270.0
  0
MTEXT
  5
168F
330
18
100
AcDbEntity
  8
0
  6
ByBlock
 62
     6
100
AcDbMText
 10
430.3216788066476
 20
351.5895564498736
 30
0.0
 40
2.5
 41
0.0
 71
     5
 72
     1
  1
20
  7
STYLE3
 11
0.0000000000000001
 21
1.0
 31
0.0
 73
     1
 44
1.0
  0
POINT
  5
1690
330
18
100
AcDbEntity
  8
DEFPOINTS
  6
ByBlock
 62
     0
100
AcDbPoint
 10
418.7030287598161
 20
361.5895564498736
 30
0.0
  0
POINT
  5
1691
330
18
100
AcDbEntity
  8
DEFPOINTS
  6
ByBlock
 62
     0
100
AcDbPoint
 10
418.7030287598161
 20
341.5895564498736
 30
0.0
  0
POINT
  5
1692
330
18
100
AcDbEntity
  8
DEFPOINTS
  6
ByBlock
 62
     0
100
AcDbPoint
 10
432.1966788066476
 20
341.5895564498736
 30
0.0
  0
LINE
  5
1693
330
18
100
AcDbEntity
  8
外形線
100
AcDbLine
 10
416.3575550328123
 20
357.9895564498737
 30
0.0
 11
416.3575550328124
 21
358.5895564498736
 31
0.0
  0
LINE
  5
1694
330
18
100
AcDbEntity
  8
外形線
100
AcDbLine
 10
411.718028759816
 20
358.5895564498736
 30
0.0
 11
411.718028759816
 21
361.5895564498736
 31
0.0
  0
LINE
  5
1695
330
18
100
AcDbEntity
  8
外形線
100
AcDbLine
 10
413.6880287598162
 20
358.5895564498736
 30
0.0
 11
413.688028759816
 21
361.5895564498736
 31
0.0
  0
LINE
  5
1696
330
18
100
AcDbEntity
  8
外形線
100
AcDbLine
 10
413.688028759816
 20
345.1895564498735
 30
0.0
 11
413.688028759816
 21
347.5895564498736
 31
0.0
  0
LINE
  5
1697
330
18
100
AcDbEntity
  8
外形線
100
AcDbLine
 10
411.718028759816
 20
345.1895564498735
 30
0.0
 11
411.7180287598161
 21
347.5895564498735
 31
0.0
  0
LINE
  5
16A0
330
18
100
AcDbEntity
  8
外形線
100
AcDbLine
 10
390.7530287598162
 20
344.5895564498735
 30
0.0
 11
405.7030287598161
 21
344.5895564498735
 31
0.0
  0
LINE
  5
16A1
330
18
100
AcDbEntity
  8
外形線
100
AcDbLine
 10
408.703028759816
 20
344.5895564498735
 30
0.0
 11
416.3575550328124
 21
344.5895564498735
 31
0.0
  0
LINE
  5
16A2
330
18
100
AcDbEntity
  8
外形線
100
AcDbLine
 10
391.2030287598163
 20
343.5895564498736
 30
0.0
 11
391.2030287598162
 21
344.5895564498735
 31
0.0
  0
LINE
  5
16A3
330
18
100
AcDbEntity
  8
外形線
100
AcDbLine
 10
395.2030287598162
 20
343.5895564498736
 30
0.0
 11
395.2030287598162
 21
344.5895564498735
 31
0.0
  0
LINE
  5
16A4
330
18
100
AcDbEntity
  8
外形線
100
AcDbLine
 10
390.7530287598162
 20
358.5895564498736
 30
0.0
 11
405.7030287598161
 21
358.5895564498736
 31
0.0
  0
LINE
  5
16A5
330
18
100
AcDbEntity
  8
外形線
100
AcDbLine
 10
408.7030287598181
 20
358.5895564498736
 30
0.0
 11
416.3575550328124
 21
358.5895564498736
 31
0.0
  0
LINE
  5
16A6
330
18
100
AcDbEntity
  8
外形線
100
AcDbLine
 10
391.2030287598161
 20
358.5895564498736
 30
0.0
 11
391.2030287598162
 21
359.5895564498735
 31
0.0
  0
LINE
  5
16A7
330
18
100
AcDbEntity
  8
外形線
100
AcDbLine
 10
395.2030287598162
 20
358.5895564498736
 30
0.0
 11
395.2030287598161
 21
359.5895564498735
 31
0.0
  0
LINE
  5
16A8
330
18
100
AcDbEntity
  8
外形線
100
AcDbLine
 10
413.688028759816
 20
343.5895564498736
 30
0.0
 11
418.7030287598161
 21
343.5895564498736
 31
0.0
  0
LINE
  5
16B2
330
18
100
AcDbEntity
  8
0
  6
ByBlock
 62
     2
100
AcDbLine
 10
479.5658827847643
 20
310.5575214884695
 30
0.0
 11
451.3999983428869
 21
281.9479476508525
 31
0.0
  0
MTEXT
  5
16B3
330
18
100
AcDbEntity
  8
0
  6
ByBlock
 62
     6
100
AcDbMText
 10
453.9905160542515
 20
287.2518904660492
 30
0.0
 40
2.5
 41
0.0
 71
     5
 72
     1
  1
\A1;\U+220550
  7
STYLE3
 11
0.7015594541040628
 21
0.7126109263526694
 31
0.0
 73
     1
 44
1.0
  0
POINT
  5
16B6
330
18
100
AcDbEntity
  8
DEFPOINTS
  6
ByBlock
 62
     0
100
AcDbPoint
 10
479.5658827847643
 20
310.5575214884696
 30
0.0
  0
INSERT
  5
16B7
330
18
100
AcDbEntity
  8
0
  6
ByBlock
 62
     2
100
AcDbBlockReference
  2
_OPEN
 10
479.5658827847643
 20
310.5575214884695
 30
0.0
 41
2.5
 42
2.5
 43
2.5
 50
45.44774649244079
  0
POINT
  5
171B
330
18
100
AcDbEntity
  8
DEFPOINTS
  6
ByBlock
 62
     0
100
AcDbPoint
 10
417.7030287598161
 20
318.4422483296529
 30
0.0
  0
LINE
  5
1738
330
18
100
AcDbEntity
  8
0
  6
ByBlock
 62
     2
100
AcDbLine
 10
420.7030287598164
 20
219.6752610315453
 30
0.0
 11
420.7030287598164
 21
201.5206898258071
 31
0.0
  0
LINE
  5
1739
330
18
100
AcDbEntity
  8
0
  6
ByBlock
 62
     2
100
AcDbLine
 10
241.8421258371988
 20
288.742248329653
 30
0.0
 11
241.8421258371988
 21
201.5206898258071
 31
0.0
  0
LINE
  5
173A
330
18
100
AcDbEntity
  8
0
  6
ByBlock
 62
     2
100
AcDbLine
 10
418.2030287598164
 20
202.7706898258072
 30
0.0
 11
244.3421258371988
 21
202.7706898258072
 31
0.0
  0
INSERT
  5
173B
330
18
100
AcDbEntity
  8
0
  6
ByBlock
 62
     2
100
AcDbBlockReference
  2
_OPEN
 10
420.7030287598164
 20
202.7706898258072
 30
0.0
 41
2.5
 42
2.5
 43
2.5
  0
INSERT
  5
173C
330
18
100
AcDbEntity
  8
0
  6
ByBlock
 62
     2
100
AcDbBlockReference
  2
_OPEN
 10
241.8421258371988
 20
202.7706898258072
 30
0.0
 41
2.5
 42
2.5
 43
2.5
 50
180.0
  0
MTEXT
  5
173D
330
18
100
AcDbEntity
  8
0
  6
ByBlock
 62
     6
100
AcDbMText
 10
331.2725772985076
 20
204.6456898258071
 30
0.0
 40
2.5
 41
0.0
 71
     5
 72
     1
  1
248.5
  7
STYLE3
 73
     1
 44
1.0
  0
POINT
  5
173E
330
18
100
AcDbEntity
  8
DEFPOINTS
  6
ByBlock
 62
     0
100
AcDbPoint
 10
420.7030287598165
 20
219.6752610315452
 30
0.0
  0
POINT
  5
173F
330
18
100
AcDbEntity
  8
DEFPOINTS
  6
ByBlock
 62
     0
100
AcDbPoint
 10
241.8421258371988
 20
288.742248329653
 30
0.0
  0
POINT
  5
1740
330
18
100
AcDbEntity
  8
DEFPOINTS
  6
ByBlock
 62
     0
100
AcDbPoint
 10
241.8421258371988
 20
202.7706898258072
 30
0.0
  0
DIMENSION
  5
1759
330
18
100
AcDbEntity
  8
寸法線
100
AcDbDimension
  2
*D6
 10
417.7030287598161
 20
326.6866139552644
 30
0.0
 11
419.2030287598161
 21
328.5616139552644
 31
0.0
 12
0.0
 22
44.80142497372532
 32
0.0
 70
    32
 71
     5
 42
-1.0
  3
STYLE3
100
AcDbAlignedDimension
 13
420.703028759816
 23
308.7422483296528
 33
0.0
 14
417.7030287598161
 24
322.0542664183156
 34
0.0
100
AcDbRotatedDimension
1001
ACAD
1000
DSTYLE
1002
{
1070
   271
1070
     2
1002
}
  0
DIMENSION
  5
1771
330
18
100
AcDbEntity
  8
寸法線
100
AcDbDimension
  2
*D7
 10
267.3421258371988
 20
326.6866139552644
 30
0.0
 11
302.3421258371988
 21
328.5616139552644
 31
0.0
 12
0.0
 22
44.80142497372532
 32
0.0
 70
    32
 71
     5
 42
-1.0
  3
STYLE3
100
AcDbAlignedDimension
 13
337.3421258371987
 23
303.8490496336488
 33
0.0
 14
267.3421258371988
 24
303.8490496336488
 34
0.0
100
AcDbRotatedDimension
1001
ACAD
1000
DSTYLE
1002
{
1070
    75
1070
     1
1070
   271
1070
     2
1070
   279
1070
     1
1002
}
  0
LINE
  5
1772
330
18
100
AcDbEntity
  8
0
  6
ByBlock
 62
     2
100
AcDbLine
 10
337.3421258371987
 20
303.8490496336488
 30
0.0
 11
337.3421258371987
 21
327.9366139552644
 31
0.0
  0
LINE
  5
1773
330
18
100
AcDbEntity
  8
0
  6
ByBlock
 62
     2
100
AcDbLine
 10
415.2030287598161
 20
326.6866139552644
 30
0.0
 11
339.8421258371988
 21
326.6866139552644
 31
0.0
  0
INSERT
  5
1774
330
18
100
AcDbEntity
  8
0
  6
ByBlock
 62
     2
100
AcDbBlockReference
  2
_OPEN
 10
417.7030287598161
 20
326.6866139552644
 30
0.0
 41
2.5
 42
2.5
 43
2.5
  0
INSERT
  5
1775
330
18
100
AcDbEntity
  8
0
  6
ByBlock
 62
     2
100
AcDbBlockReference
  2
_OPEN
 10
337.3421258371987
 20
326.6866139552644
 30
0.0
 41
2.5
 42
2.5
 43
2.5
 50
180.0
  0
MTEXT
  5
1776
330
18
100
AcDbEntity
  8
0
  6
ByBlock
 62
     6
100
AcDbMText
 10
377.5225772985074
 20
328.5616139552644
 30
0.0
 40
2.5
 41
0.0
 71
     5
 72
     1
  1
150
  7
STYLE3
 73
     1
 44
1.0
  0
POINT
  5
1777
330
18
100
AcDbEntity
  8
DEFPOINTS
  6
ByBlock
 62
     0
100
AcDbPoint
 10
417.7030287598161
 20
322.0542664183156
 30
0.0
  0
POINT
  5
1778
330
18
100
AcDbEntity
  8
DEFPOINTS
  6
ByBlock
 62
     0
100
AcDbPoint
 10
337.3421258371987
 20
303.8490496336488
 30
0.0
  0
POINT
  5
1779
330
18
100
AcDbEntity
  8
DEFPOINTS
  6
ByBlock
 62
     0
100
AcDbPoint
 10
337.3421258371987
 20
326.6866139552644
 30
0.0
  0
LINE
  5
1794
330
18
100
AcDbEntity
  8
0
  6
ByBlock
 62
     2
100
AcDbLine
 10
420.703028759816
 20
327.9366139552644
 30
0.0
 11
420.703028759816
 21
335.1906298172979
 31
0.0
  0
LINE
  5
1795
330
18
100
AcDbEntity
  8
0
  6
ByBlock
 62
     2
100
AcDbLine
 10
244.3421258371988
 20
301.442248329653
 30
0.0
 11
244.3421258371988
 21
335.1906298172979
 31
0.0
  0
LINE
  5
1796
330
18
100
AcDbEntity
  8
0
  6
ByBlock
 62
     2
100
AcDbLine
 10
418.2030287598161
 20
333.9406298172979
 30
0.0
 11
246.8421258371988
 21
333.9406298172979
 31
0.0
  0
INSERT
  5
1797
330
18
100
AcDbEntity
  8
0
  6
ByBlock
 62
     2
100
AcDbBlockReference
  2
_OPEN
 10
420.703028759816
 20
333.9406298172979
 30
0.0
 41
2.5
 42
2.5
 43
2.5
  0
INSERT
  5
1798
330
18
100
AcDbEntity
  8
0
  6
ByBlock
 62
     2
100
AcDbBlockReference
  2
_OPEN
 10
244.3421258371988
 20
333.9406298172979
 30
0.0
 41
2.5
 42
2.5
 43
2.5
 50
180.0
  0
MTEXT
  5
1799
330
18
100
AcDbEntity
  8
0
  6
ByBlock
 62
     6
100
AcDbMText
 10
332.5225772985074
 20
335.8156298172979
 30
0.0
 40
2.5
 41
0.0
 71
     5
 72
     1
  1
246
  7
STYLE3
 73
     1
 44
1.0
  0
POINT
  5
179A
330
18
100
AcDbEntity
  8
DEFPOINTS
  6
ByBlock
 62
     0
100
AcDbPoint
 10
420.703028759816
 20
327.9366139552644
 30
0.0
  0
POINT
  5
179B
330
18
100
AcDbEntity
  8
DEFPOINTS
  6
ByBlock
 62
     0
100
AcDbPoint
 10
244.3421258371988
 20
301.442248329653
 30
0.0
  0
POINT
  5
179C
330
18
100
AcDbEntity
  8
DEFPOINTS
  6
ByBlock
 62
     0
100
AcDbPoint
 10
244.3421258371988
 20
333.9406298172979
 30
0.0
  0
TEXT
  5
179D
330
18
100
AcDbEntity
  8
寸法線
 62
     6
100
AcDbText
 10
373.2118955191299
 20
293.3393737756982
 30
0.0
 40
2.5
  1
φ10
 50
90.0
  7
STYLE3
100
AcDbText
  0
LINE
  5
17A8
330
18
100
AcDbEntity
  8
外形線
100
AcDbLine
 10
414.7030287598161
 20
221.7422483296529
 30
0.0
 11
420.7030287598163
 21
221.7422483296529
 31
0.0
  0
LINE
  5
17AA
330
18
100
AcDbEntity
  8
外形線
100
AcDbLine
 10
420.7030287598163
 20
221.7422483296529
 30
0.0
 11
420.7030287598165
 21
219.6752610315452
 31
0.0
  0
LINE
  5
17AB
330
18
100
AcDbEntity
  8
外形線
100
AcDbLine
 10
414.7030287598161
 20
271.7422483296529
 30
0.0
 11
414.7030287598162
 21
221.7422483296529
 31
0.0
  0
LINE
  5
17AC
330
18
100
AcDbEntity
  8
外形線
100
AcDbLine
 10
420.7030287598162
 20
271.7422483296529
 30
0.0
 11
420.7030287598162
 21
221.7422483296529
 31
0.0
  0
LINE
  5
17AD
330
18
100
AcDbEntity
  8
外形線
100
AcDbLine
 10
416.0430287598161
 20
268.7422483296529
 30
0.0
 11
419.3630287598162
 21
268.7422483296529
 31
0.0
  0
LINE
  5
17AE
330
18
100
AcDbEntity
  8
外形線
100
AcDbLine
 10
416.0430287598161
 20
266.7422483296529
 30
0.0
 11
419.3630287598162
 21
266.7422483296529
 31
0.0
  0
LINE
  5
17AF
330
18
100
AcDbEntity
  8
外形線
100
AcDbLine
 10
416.0430287598161
 20
268.7422483296529
 30
0.0
 11
416.0430287598161
 21
266.7422483296529
 31
0.0
  0
LINE
  5
17B0
330
18
100
AcDbEntity
  8
外形線
100
AcDbLine
 10
419.3630287598161
 20
268.7422483296529
 30
0.0
 11
419.3630287598161
 21
266.7422483296529
 31
0.0
  0
LINE
  5
17B1
330
18
100
AcDbEntity
  8
外形線
100
AcDbLine
 10
414.7030287598161
 20
261.7422483296528
 30
0.0
 11
420.7030287598163
 21
261.7422483296528
 31
0.0
  0
LINE
  5
17B2
330
18
100
AcDbEntity
  8
外形線
100
AcDbLine
 10
414.7030287598161
 20
251.7422483296528
 30
0.0
 11
420.7030287598163
 21
251.7422483296528
 31
0.0
  0
LINE
  5
17B3
330
18
100
AcDbEntity
  8
寸法線
100
AcDbLine
 10
417.227682042738
 20
251.7422483296528
 30
0.0
 11
417.227682042738
 21
261.7422483296528
 31
0.0
  0
LINE
  5
17B5
330
18
100
AcDbEntity
  8
寸法線
100
AcDbLine
 10
416.2331438982118
 20
251.7422483296528
 30
0.0
 11
416.2331438982118
 21
261.7422483296528
 31
0.0
  0
LINE
  5
17B7
330
18
100
AcDbEntity
  8
寸法線
100
AcDbLine
 10
415.2662323256759
 20
251.7422483296528
 30
0.0
 11
415.2662323256759
 21
261.7422483296528
 31
0.0
  0
LINE
  5
17B9
330
18
100
AcDbEntity
  8
寸法線
100
AcDbLine
 10
418.2498459572057
 20
251.7422483296528
 30
0.0
 11
418.2498459572057
 21
261.7422483296528
 31
0.0
  0
LINE
  5
17BB
330
18
100
AcDbEntity
  8
寸法線
100
AcDbLine
 10
419.2167575297417
 20
251.7422483296528
 30
0.0
 11
419.2167575297417
 21
261.7422483296528
 31
0.0
  0
LINE
  5
17BD
330
18
100
AcDbEntity
  8
寸法線
100
AcDbLine
 10
420.1007909904046
 20
251.7422483296528
 30
0.0
 11
420.1007909904046
 21
261.7422483296528
 31
0.0
  0
LINE
  5
1B82
330
18
100
AcDbEntity
  8
外形線
100
AcDbLine
 10
416.903028759816
 20
316.8422483296528
 30
0.0
 11
416.6530287598162
 21
316.8422483296528
 31
0.0
  0
DIMENSION
  5
1B85
330
18
100
AcDbEntity
  8
寸法線
100
AcDbDimension
  2
*D9
 10
387.9467594018422
 20
296.742248329653
 30
0.0
 11
386.0717594018422
 21
307.092248329653
 31
0.0
 70
    32
 71
     5
 42
20.69999999999987
  3
STYLE3
100
AcDbAlignedDimension
 13
417.7030287598161
 23
317.4422483296528
 33
0.0
 14
387.4657064576052
 24
296.742248329653
 34
0.0
 50
90.0
100
AcDbRotatedDimension
1001
ACAD
1000
DSTYLE
1002
{
1070
   271
1070
     2
1070
   341
1005
0
1002
}
  0
DIMENSION
  5
1B92
330
18
100
AcDbEntity
  8
寸法線
100
AcDbDimension
  2
*D10
 10
431.4299383359254
 20
317.4422483296528
 30
0.0
 11
429.5549383359254
 21
325.5077245201292
 31
0.0
 70
    32
 71
     5
 42
1.700000000000102
  3
STYLE3
100
AcDbAlignedDimension
 13
419.9530287598161
 23
315.7422483296528
 33
0.0
 14
417.7030287598161
 24
317.4422483296528
 34
0.0
 50
90.0
100
AcDbRotatedDimension
1001
ACAD
1000
DSTYLE
1002
{
1070
   271
1070
     2
1070
   341
1005
0
1002
}
  0
DIMENSION
  5
1BA1
330
18
100
AcDbEntity
  8
寸法線
100
AcDbDimension
  2
*D11
 10
431.4299383359254
 20
315.7422483296528
 30
0.0
 11
429.5549383359254
 21
306.2422483296529
 31
0.0
 70
    32
 71
     5
 42
18.99999999999988
  3
STYLE3
100
AcDbAlignedDimension
 13
422.8606752947493
 23
296.7422483296529
 33
0.0
 14
427.9359234652509
 24
315.7422483296528
 34
0.0
 50
90.0
100
AcDbRotatedDimension
1001
ACAD
1000
DSTYLE
1002
{
1070
   271
1070
     2
1070
   341
1005
0
1002
}
  0
DIMENSION
  5
1BAE
330
18
100
AcDbEntity
  8
寸法線
100
AcDbDimension
  2
*D12
 10
431.4299383359254
 20
296.7422483296529
 30
0.0
 11
429.5549383359254
 21
284.242248329653
 31
0.0
 70
    32
 71
     5
 42
25.0
  3
STYLE3
100
AcDbAlignedDimension
 13
420.7030287598164
 23
271.7422483296529
 33
0.0
 14
427.7736966712876
 24
296.7422483296529
 34
0.0
 50
90.0
100
AcDbRotatedDimension
1001
ACAD
1000
DSTYLE
1002
{
1070
   271
1070
     2
1070
   341
1005
0
1002
}
  0
DIMENSION
  5
1BBB
330
18
100
AcDbEntity
  8
寸法線
100
AcDbDimension
  2
*D13
 10
431.4299383359254
 20
271.7422483296529
 30
0.0
 11
429.5549383359254
 21
246.7422483296529
 31
0.0
 70
    32
 71
     5
 42
50.00000000000003
  3
STYLE3
100
AcDbAlignedDimension
 13
420.7030287598163
 23
221.7422483296529
 33
0.0
 14
427.2790644753237
 24
271.7422483296529
 34
0.0
 50
90.0
100
AcDbRotatedDimension
1001
ACAD
1000
DSTYLE
1002
{
1070
   271
1070
     2
1070
   341
1005
0
1002
}
  0
DIMENSION
  5
1BC8
330
18
100
AcDbEntity
  8
寸法線
100
AcDbDimension
  2
*D14
 10
439.3659753993953
 20
317.4422483296528
 30
0.0
 11
437.4909753993953
 21
267.0922483296529
 31
0.0
 70
    32
  1
50.7～150.7フリー時
 71
     5
 42
100.7
  3
STYLE3
100
AcDbAlignedDimension
 13
417.7030287598162
 23
216.7422483296529
 33
0.0
 14
432.6799383359254
 24
317.4422483296528
 34
0.0
 50
90.0
100
AcDbRotatedDimension
1001
ACAD
1000
DSTYLE
1002
{
1070
   271
1070
     2
1070
   341
1005
0
1002
}
  0
ARC
  5
1BE2
330
18
100
AcDbEntity
  8
想像線
100
AcDbCircle
 10
462.0268964321627
 20
241.7422483296529
 30
0.0
 40
75.0
100
AcDbArc
 50
69.95050713244218
 51
103.0169486621704
  0
LINE
  5
1BF1
330
18
100
AcDbEntity
  8
寸法線
 62
     2
100
AcDbLine
 10
488.6257922865647
 20
327.6595806712489
 30
0.0
 11
484.9466597693113
 21
315.7755816908428
 31
0.0
  0
MTEXT
  5
1BF3
330
18
100
AcDbEntity
  8
寸法線
 62
     6
100
AcDbMText
 10
485.364770597218
 20
323.4661776063188
 30
0.0
 40
2.5
 41
0.0
 71
     5
 72
     1
  1
\A1;\U+2205150
  7
STYLE3
 11
0.2957388817696593
 21
0.9552688175637429
 31
0.0
 73
     1
 44
1.0
  0
INSERT
  5
1BF6
330
18
100
AcDbEntity
  8
寸法線
 62
     2
100
AcDbBlockReference
  2
_OPEN
 10
484.207312564887
 20
313.3874096469335
 30
0.0
 41
2.5
 42
2.5
 43
2.5
 50
252.7981507624922
  0
SPLINE
  5
1C1B
330
18
100
AcDbEntity
  8
寸法線
100
AcDbSpline
210
0.0
220
0.0
230
1.0
 70
     8
 71
     3
 72
    11
 73
     7
 74
     0
 42
0.0000000001
 43
0.0000000001
 40
5.323779294015077
 40
5.323779294015077
 40
5.323779294015077
 40
5.323779294015077
 40
7.017882561639436
 40
10.36094023867079
 40
14.42667205030958
 40
15.17621735588277
 40
15.17621735588277
 40
15.17621735588277
 40
15.17621735588277
 10
370.6457962823323
 20
356.5895564419319
 30
0.0
 10
369.7924119670221
 20
355.7824122095853
 30
0.0
 10
371.6872031724894
 20
353.9985338818421
 30
0.0
 10
367.6247326196809
 20
351.5564967616548
 30
0.0
 10
369.6567310263434
 20
348.0187836704995
 30
0.0
 10
367.5705126721991
 20
347.0879849395893
 30
0.0
 10
367.2890907021452
 20
346.5895564419321
 30
0.0
  0
SPLINE
  5
1C23
330
18
100
AcDbEntity
  8
寸法線
100
AcDbSpline
210
0.0
220
0.0
230
1.0
 70
     8
 71
     3
 72
    11
 73
     7
 74
     0
 42
0.0000000001
 43
0.0000000001
 40
5.323779294015077
 40
5.323779294015077
 40
5.323779294015077
 40
5.323779294015077
 40
7.017882561639436
 40
10.36094023867079
 40
14.42667205030958
 40
15.17621735588277
 40
15.17621735588277
 40
15.17621735588277
 40
15.17621735588277
 10
364.0670292610372
 20
301.7422483217113
 30
0.0
 10
363.213644945727
 20
300.9351040893646
 30
0.0
 10
365.1084361511943
 20
299.1512257616215
 30
0.0
 10
361.0459655983858
 20
296.7091886414341
 30
0.0
 10
363.0779640050483
 20
293.1714755502788
 30
0.0
 10
360.991745650904
 20
292.2406768193686
 30
0.0
 10
360.7103236808502
 20
291.7422483217114
 30
0.0
  0
SPLINE
  5
1C24
330
18
100
AcDbEntity
  8
寸法線
100
AcDbSpline
210
0.0
220
0.0
230
1.0
 70
     8
 71
     3
 72
    11
 73
     7
 74
     0
 42
0.0000000001
 43
0.0000000001
 40
5.323779294015077
 40
5.323779294015077
 40
5.323779294015077
 40
5.323779294015077
 40
7.017882561639436
 40
10.36094023867079
 40
14.42667205030958
 40
15.17621735588277
 40
15.17621735588277
 40
15.17621735588277
 40
15.17621735588277
 10
361.2077582430018
 20
301.7422483217113
 30
0.0
 10
360.3543739276916
 20
300.9351040893647
 30
0.0
 10
361.6143651086649
 20
299.4105514872777
 30
0.0
 10
358.1866945803505
 20
296.7091886414341
 30
0.0
 10
360.2186929870129
 20
293.1714755502788
 30
0.0
 10
358.1324746328686
 20
292.2406768193687
 30
0.0
 10
357.8510526628148
 20
291.7422483217115
 30
0.0
  0
DIMENSION
  5
1C26
330
18
100
AcDbEntity
  8
寸法線
100
AcDbDimension
  2
*D15
 10
267.3421258371988
 20
326.6866139552644
 30
0.0
 11
255.8421258371987
 21
328.5616139552644
 31
0.0
 70
    32
 71
     5
 42
23.0
  3
STYLE3
100
AcDbAlignedDimension
 13
244.3421258371988
 23
301.442248329653
 33
0.0
 14
267.3421258371988
 24
303.8490496336488
 34
0.0
100
AcDbRotatedDimension
1001
ACAD
1000
DSTYLE
1002
{
1070
   271
1070
     2
1070
   341
1005
0
1002
}
  0
LINE
  5
1C81
330
18
100
AcDbEntity
  8
外形線
100
AcDbLine
 10
240.8423240275436
 20
356.0084142202981
 30
0.0
 11
355.8423240275436
 21
356.0084142202981
 31
0.0
  0
LINE
  5
1C82
330
18
100
AcDbEntity
  8
外形線
100
AcDbLine
 10
240.8423240275436
 20
357.008414220298
 30
0.0
 11
355.8423240275436
 21
357.008414220298
 31
0.0
  0
TEXT
  5
1C83
330
18
100
AcDbEntity
  8
文字
100
AcDbText
 10
241.0645120275436
 20
358.6870862202981
 30
0.0
 40
3.1
  1
Model No.CG-3C Cylinder Gauge (Blind Hole Type)
  7
STYLE3
100
AcDbText
  0
LINE
  5
1C84
330
18
100
AcDbEntity
  8
外形線
100
AcDbLine
 10
350.3171540275436
 20
172.513122220298
 30
0.0
 11
350.3171540275436
 21
192.908106220298
 31
0.0
  0
TEXT
  5
1C85
330
18
100
AcDbEntity
  8
0
  6
Continuous
100
AcDbText
 10
351.7746210275436
 20
184.025890220298
 30
0.0
 40
2.1
  1
Design and specifications are subject to change without notice for future improvement.
  7
STYLE3
100
AcDbText
  0
TEXT
  5
1C86
330
18
100
AcDbEntity
  8
0
  6
Continuous
100
AcDbText
 10
395.0873980275436
 20
176.009406220298
 30
0.0
 40
2.399999999999999
  1
mm
  7
STYLE3
100
AcDbText
  0
LINE
  5
1C87
330
18
100
AcDbEntity
  8
外形線
100
AcDbLine
 10
350.3171540275436
 20
182.127900220298
 30
0.0
 11
491.1085720275436
 21
182.127900220298
 31
0.0
  0
TEXT
  5
1C88
330
18
100
AcDbEntity
  8
0
  6
Continuous
100
AcDbText
 10
354.1065720275436
 20
177.757545220298
 30
0.0
 40
3.0
  1
三　　角　　法
  7
STYLE3
100
AcDbText
  0
TEXT
  5
1C89
330
18
100
AcDbEntity
  8
0
  6
Continuous
100
AcDbText
 10
351.4831300275436
 20
174.261262220298
 30
0.0
 40
2.1
  1
3RD Angle Projection
  7
STYLE3
100
AcDbText
  0
TEXT
  5
1C8A
330
18
100
AcDbEntity
  8
0
  6
Continuous
100
AcDbText
 10
387.2170720275436
 20
174.261263220298
 30
0.0
 40
2.1
  1
Unit
  7
STYLE3
100
AcDbText
  0
TEXT
  5
1C8B
330
18
100
AcDbEntity
  8
0
  6
Continuous
100
AcDbText
 10
387.0453510275437
 20
177.763500220298
 30
0.0
 40
3.0
  1
単位
  7
STYLE3
100
AcDbText
  0
LINE
  5
1C8C
330
18
100
AcDbEntity
  8
外形線
100
AcDbLine
 10
385.5878820275436
 20
182.127900220298
 30
0.0
 11
385.5878820275436
 21
172.513122220298
 31
0.0
  0
TEXT
  5
1C8D
330
18
100
AcDbEntity
  8
0
  6
Continuous
100
AcDbText
 10
454.5633630275435
 20
174.261263220298
 30
0.0
 40
2.1
  1
OZAKI MFG. CO., LTD.
  7
STYLE3
100
AcDbText
  0
TEXT
  5
1C8E
330
18
100
AcDbEntity
  8
0
  6
Continuous
100
AcDbText
 10
453.6888840275437
 20
178.048902220298
 30
0.0
 40
3.0
  1
株式会社　尾崎製作所
  7
STYLE3
100
AcDbText
  0
TEXT
  5
1C8F
330
18
100
AcDbEntity
  8
0
  6
Continuous
100
AcDbText
 10
433.2843290275436
 20
176.009405220298
 30
0.0
 40
2.1
  1
2010.06.23
  7
STYLE3
100
AcDbText
  0
TEXT
  5
1C90
330
18
100
AcDbEntity
  8
0
  6
Continuous
100
AcDbText
 10
414.4457510275436
 20
176.300763220298
 30
0.0
 40
2.399999999999999
  1
1/1
  7
STYLE3
100
AcDbText
  0
TEXT
  5
1C91
330
18
100
AcDbEntity
  8
0
  6
Continuous
100
AcDbText
 10
404.8264620275435
 20
174.552620220298
 30
0.0
 40
2.1
  1
Scale
  7
STYLE3
100
AcDbText
  0
TEXT
  5
1C92
330
18
100
AcDbEntity
  8
0
  6
Continuous
100
AcDbText
 10
404.3632470275436
 20
177.472142220298
 30
0.0
 40
3.0
  1
尺 度
  7
STYLE3
100
AcDbText
  0
LINE
  5
1C93
330
18
100
AcDbEntity
  8
外形線
100
AcDbLine
 10
403.0774990275435
 20
182.127900220298
 30
0.0
 11
403.0774990275435
 21
172.513122220298
 31
0.0
  0
TEXT
  5
1C94
330
18
100
AcDbEntity
  8
0
  6
Continuous
100
AcDbText
 10
424.1561610275436
 20
177.594348220298
 30
0.0
 40
3.0
  1
日 付
  7
STYLE3
100
AcDbText
  0
TEXT
  5
1C95
330
18
100
AcDbEntity
  8
0
  6
Continuous
100
AcDbText
 10
424.5395220275436
 20
174.261264220298
 30
0.0
 40
2.1
  1
Date
  7
STYLE3
100
AcDbText
  0
LINE
  5
1C96
330
18
100
AcDbEntity
  8
外形線
100
AcDbLine
 10
422.6075710275436
 20
182.127900220298
 30
0.0
 11
422.6075710275436
 21
172.513122220298
 31
0.0
  0
LINE
  5
1C97
330
18
100
AcDbEntity
  8
外形線
100
AcDbLine
 10
452.3399210275435
 20
182.127900220298
 30
0.0
 11
452.3399210275435
 21
172.513122220298
 31
0.0
  0
TEXT
  5
1C98
330
18
100
AcDbEntity
  8
0
  6
Continuous
100
AcDbText
 10
352.0661150275436
 20
187.955038220298
 30
0.0
 40
3.5
  1
仕様及び外観は予告なく変更される場合がございますのでご了承下さい。
  7
STYLE3
100
AcDbText
  0
LINE
  5
1C99
330
18
100
AcDbEntity
  8
外形線
100
AcDbLine
 10
350.3171540275436
 20
192.908106220298
 30
0.0
 11
491.1085720275436
 21
192.908106220298
 31
0.0
  0
ENDSEC
  0
SECTION
  2
OBJECTS
  0
DICTIONARY
  5
C
330
0
100
AcDbDictionary
281
     1
  3
ACAD_COLOR
350
1B35
  3
ACAD_GROUP
350
D
  3
ACAD_LAYOUT
350
1B38
  3
ACAD_MATERIAL
350
1B34
  3
ACAD_MLINESTYLE
350
1B
  3
ACAD_PLOTSETTINGS
350
1B39
  3
ACAD_PLOTSTYLENAME
350
1B32
  3
ACAD_TABLESTYLE
350
1B36
  3
ACDBVARIABLEDICTIONARY
350
192
  0
DICTIONARY
  5
1B83
330
18
100
AcDbDictionary
280
     1
281
     1
  3
ACAD_SORTENTS
360
1B84
  0
DICTIONARY
  5
1B35
102
{ACAD_REACTORS
330
C
102
}
330
C
100
AcDbDictionary
281
     1
  0
DICTIONARY
  5
D
102
{ACAD_REACTORS
330
C
102
}
330
C
100
AcDbDictionary
281
     1
  0
DICTIONARY
  5
1B38
102
{ACAD_REACTORS
330
C
102
}
330
C
100
AcDbDictionary
281
     1
  3
Model
350
1B3A
  3
レイアウト1
350
1B3B
  0
DICTIONARY
  5
1B34
102
{ACAD_REACTORS
330
C
102
}
330
C
100
AcDbDictionary
281
     1
  0
DICTIONARY
  5
1B
102
{ACAD_REACTORS
330
C
102
}
330
C
100
AcDbDictionary
281
     1
  3
STANDARD
350
1C
  0
DICTIONARY
  5
1B39
102
{ACAD_REACTORS
330
C
102
}
330
C
100
AcDbDictionary
281
     1
  0
ACDBDICTIONARYWDFLT
  5
1B32
102
{ACAD_REACTORS
330
C
102
}
330
C
100
AcDbDictionary
281
     1
  3
Normal
350
1B33
100
AcDbDictionaryWithDefault
340
1B33
  0
DICTIONARY
  5
1B36
102
{ACAD_REACTORS
330
C
102
}
330
C
100
AcDbDictionary
281
     1
  3
Standard
350
1B37
  0
DICTIONARY
  5
192
102
{ACAD_REACTORS
330
C
102
}
330
C
100
AcDbDictionary
281
     1
  3
CTABLESTYLE
350
1B42
  3
SORTENTS
350
193
  0
SORTENTSTABLE
  5
1B84
102
{ACAD_REACTORS
330
1B83
102
}
330
1B83
100
AcDbSortentsTable
330
18
331
1338
  5
1339
331
1642
  5
1643
331
14AE
  5
14AF
331
1535
  5
1536
331
9FE
  5
FA6
331
10DC
  5
10DD
331
1340
  5
1341
331
11BA
  5
11BD
331
164A
  5
164B
331
17AF
  5
17B0
331
10E4
  5
10E5
331
1348
  5
1349
331
10F4
  5
10F7
331
1301
  5
1302
331
13E7
  5
13E8
331
13EF
  5
13F0
331
1350
  5
1351
331
10FC
  5
10FD
331
119
  5
119
331
403
  5
403
331
127
  5
127
331
176
  5
176
331
5DA
  5
5DA
331
40B
  5
40B
331
2E4
  5
2E4
331
12F
  5
12F
331
1613
  5
1615
331
153D
  5
153E
331
14FE
  5
1504
331
2EC
  5
2EC
331
186
  5
186
331
137
  5
137
331
255
  5
255
331
13F7
  5
13F9
331
15CC
  5
15CD
331
1652
  5
1653
331
161B
  5
161C
331
15D4
  5
15D7
331
13F
  5
13F
331
18E
  5
18E
331
1506
  5
1508
331
1104
  5
1105
331
1623
  5
1624
331
157D
  5
157E
331
15DC
  5
15E5
331
85F
  5
860
331
10B5
  5
10B6
331
110C
  5
110D
331
1739
  5
173A
331
168A
  5
168B
331
162B
  5
162C
331
1516
  5
1517
331
1778
  5
1779
331
FA6
  5
FA9
331
10BD
  5
10C2
331
1193
  5
1198
331
8BF
  5
8C2
331
10C5
  5
10D7
331
1114
  5
1115
331
FC6
  5
FC7
331
111C
  5
111D
331
13D0
  5
13D1
331
1BE2
  5
1BE2
331
17B5
  5
17B7
331
17BD
  5
1815
331
1BBB
  5
1BBB
331
147
  5
147
331
265
  5
265
331
76A
  5
76A
331
1AE
  5
1AE
331
14F
  5
14F
331
1633
  5
1634
331
77A
  5
77A
331
275
  5
275
331
850
  5
850
331
1427
  5
1498
331
15EC
  5
15F4
331
1692
  5
1693
331
1798
  5
1799
331
163B
  5
163C
331
15F4
  5
15F7
331
523
  5
523
331
152E
  5
152F
331
1595
  5
1596
331
16A2
  5
16A3
331
1339
  5
133A
331
15BD
  5
15BE
331
14AF
  5
14DC
331
1536
  5
1537
331
1643
  5
1644
331
17A8
  5
17AA
331
10DD
  5
10DE
331
13D8
  5
13D9
331
112C
  5
112E
331
1759
  5
1771
331
164B
  5
164C
331
10E5
  5
10F3
331
1341
  5
1342
331
13E8
  5
13ED
331
1349
  5
134A
331
1302
  5
1303
331
1351
  5
1352
331
10FD
  5
10FE
331
127B
  5
127E
331
112
  5
112
331
11A
  5
11A
331
1815
  5
1817
331
120
  5
120
331
404
  5
404
331
177
  5
177
331
128
  5
128
331
5DB
  5
5DB
331
24E
  5
24E
331
130
  5
130
331
17F
  5
17F
331
40C
  5
40C
331
13F0
  5
13F1
331
16B2
  5
16B3
331
15CD
  5
15CE
331
819
  5
819
331
66B
  5
66B
331
138
  5
138
331
256
  5
256
331
2ED
  5
2ED
331
792
  5
792
331
153E
  5
153F
331
1653
  5
1654
331
25E
  5
25E
331
18F
  5
18F
331
1410
  5
1411
331
161C
  5
161D
331
172A
  5
1738
331
157E
  5
157F
331
1624
  5
1625
331
1771
  5
1772
331
860
  5
8BD
331
10B6
  5
10B7
331
1105
  5
1106
331
173A
  5
173B
331
162C
  5
162D
331
1517
  5
1518
331
15E5
  5
15E6
331
168B
  5
168C
331
1779
  5
1786
331
110D
  5
110E
331
1293
  5
1294
331
12B3
  5
12B5
331
1115
  5
111C
331
13C1
  5
13C2
331
13D1
  5
13D2
331
1332
  5
1333
331
111D
  5
1127
331
FC7
  5
FCB
331
1BF3
  5
1BF3
331
1B85
  5
1B85
331
140
  5
140
331
150
  5
150
331
76B
  5
76B
331
1693
  5
1694
331
77B
  5
77B
331
276
  5
276
331
1498
  5
1499
331
158E
  5
1590
331
1634
  5
1635
331
1799
  5
179A
331
16A3
  5
16A4
331
1596
  5
15BD
331
27E
  5
27E
331
524
  5
524
331
152F
  5
1533
331
163C
  5
163D
331
133A
  5
133B
331
15BE
  5
15BF
331
1537
  5
1538
331
1644
  5
1645
331
10DE
  5
10E1
331
12EB
  5
12EC
331
13D9
  5
13E2
331
164C
  5
164D
331
1097
  5
10A8
331
1342
  5
1343
331
134A
  5
134B
331
1303
  5
1304
331
10FE
  5
10FF
331
1352
  5
1397
331
10B
  5
10B
331
113
  5
113
331
11B
  5
11B
331
121
  5
121
331
405
  5
405
331
178
  5
178
331
129
  5
129
331
24F
  5
24F
331
131
  5
131
331
2E6
  5
2E6
331
13F1
  5
13F2
331
16B3
  5
16B6
331
1654
  5
1655
331
1615
  5
1616
331
153F
  5
1540
331
793
  5
793
331
2EE
  5
2EE
331
188
  5
188
331
139
  5
139
331
257
  5
257
331
66C
  5
66C
331
81A
  5
81A
331
13F9
  5
13FA
331
15CE
  5
15CF
331
171B
  5
172A
331
161D
  5
1620
331
1508
  5
150A
331
2F6
  5
2F6
331
25F
  5
25F
331
6EC
  5
6EC
331
1411
  5
1412
331
1106
  5
1107
331
1772
  5
1773
331
166C
  5
166D
331
1625
  5
1626
331
157F
  5
1580
331
10B7
  5
10B8
331
173B
  5
173C
331
162D
  5
162E
331
15E6
  5
15EB
331
168C
  5
168D
331
110E
  5
110F
331
1294
  5
12B3
331
13C2
  5
13D0
331
1333
  5
1334
331
10D7
  5
10DB
331
12CC
  5
12EB
331
13D2
  5
13D3
331
17B7
  5
17B9
331
141
  5
141
331
190
  5
190
331
149
  5
149
331
76C
  5
76C
331
151
  5
151
331
84A
  5
84A
331
1518
  5
1519
331
1694
  5
1695
331
1635
  5
1636
331
1528
  5
1529
331
77C
  5
77C
331
277
  5
277
331
1499
  5
14AB
331
179A
  5
179B
331
16A4
  5
16A5
331
525
  5
525
331
163D
  5
163E
331
133B
  5
133C
331
17AA
  5
17AB
331
15BF
  5
15C0
331
1645
  5
1646
331
12EC
  5
12ED
331
13E2
  5
13E3
331
12FC
  5
12FD
331
11BD
  5
11BE
331
164D
  5
164E
331
112E
  5
118E
331
1343
  5
1344
331
134B
  5
134C
331
10F7
  5
10F8
331
1304
  5
1305
331
10FF
  5
1100
331
114
  5
114
331
11C
  5
11C
331
1817
  5
1B4A
331
171
  5
171
331
122
  5
122
331
406
  5
406
331
179
  5
179
331
12A
  5
12A
331
803
  5
803
331
80B
  5
80B
331
2E7
  5
2E7
331
250
  5
250
331
132
  5
132
331
181
  5
181
331
40E
  5
40E
331
13F2
  5
13F4
331
1538
  5
1539
331
1655
  5
1656
331
15CF
  5
15D0
331
794
  5
794
331
189
  5
189
331
13A
  5
13A
331
2EF
  5
2EF
331
13FA
  5
1410
331
1540
  5
1577
331
1616
  5
1619
331
1412
  5
1413
331
15D7
  5
15D8
331
118E
  5
118F
331
1773
  5
1774
331
1580
  5
1581
331
1626
  5
1627
331
166D
  5
166E
331
10B8
  5
10BC
331
1107
  5
1109
331
173C
  5
173D
331
162E
  5
162F
331
168D
  5
168E
331
FA9
  5
FAA
331
110F
  5
1110
331
139B
  5
13C1
331
132C
  5
1332
331
8C2
  5
9FE
331
12B5
  5
12CC
331
13D3
  5
13D8
331
1334
  5
1335
331
17B0
  5
17B1
331
1BAE
  5
1BAE
331
260
  5
260
331
191
  5
191
331
142
  5
142
331
317
  5
317
331
14A
  5
14A
331
76D
  5
76D
331
39F
  5
39F
331
4DE
  5
4DE
331
84B
  5
84B
331
1519
  5
151A
331
1695
  5
1696
331
1636
  5
1637
331
1590
  5
1592
331
77D
  5
77D
331
16A
  5
16A
331
278
  5
278
331
3A7
  5
3A7
331
1529
  5
152A
331
179B
  5
179C
331
163E
  5
163F
331
15F7
  5
15F8
331
16A5
  5
16A6
331
133C
  5
133D
331
12ED
  5
12EE
331
11B6
  5
11B7
331
1646
  5
1647
331
15C0
  5
15C2
331
17AB
  5
17AC
331
1127
  5
1128
331
1344
  5
1345
331
12FD
  5
12FE
331
164E
  5
164F
331
11BE
  5
1246
331
13E3
  5
13E4
331
134C
  5
134D
331
1246
  5
127B
331
10F8
  5
10F9
331
1305
  5
130F
331
127E
  5
127F
331
115
  5
115
331
11D
  5
11D
331
123
  5
123
331
17A
  5
17A
331
12B
  5
12B
331
2E0
  5
2E0
331
40F
  5
40F
331
2E8
  5
2E8
331
182
  5
182
331
133
  5
133
331
251
  5
251
331
1539
  5
153A
331
15C8
  5
15C9
331
1656
  5
1658
331
18A
  5
18A
331
13B
  5
13B
331
2F0
  5
2F0
331
15D0
  5
15D1
331
15D8
  5
15D9
331
150A
  5
150B
331
1413
  5
1414
331
1579
  5
157A
331
1100
  5
1101
331
1774
  5
1775
331
166E
  5
166F
331
1627
  5
1628
331
141B
  5
141C
331
1581
  5
1582
331
118F
  5
1190
331
173D
  5
173E
331
168E
  5
168F
331
162F
  5
1630
331
FAA
  5
FC2
331
1110
  5
1111
331
FC2
  5
FC3
331
1335
  5
1336
331
17B1
  5
17B2
331
17B9
  5
17BB
331
1BF6
  5
1BF6
331
143
  5
143
331
261
  5
261
331
766
  5
766
331
14B
  5
14B
331
84C
  5
84C
331
4DF
  5
4DF
331
1B2
  5
1B2
331
76E
  5
76E
331
151A
  5
1528
331
1794
  5
1795
331
1637
  5
1638
331
77E
  5
77E
331
152A
  5
152C
331
1696
  5
1697
331
179C
  5
179D
331
163F
  5
1640
331
527
  5
527
331
14AB
  5
14AC
331
15F8
  5
1610
331
16A6
  5
16A7
331
133D
  5
133E
331
12EE
  5
12FC
331
11B7
  5
11B9
331
1128
  5
1129
331
1647
  5
1648
331
17AC
  5
17AD
331
10E1
  5
10E4
331
13E4
  5
13E5
331
1345
  5
1346
331
164F
  5
1650
331
12FE
  5
1300
331
134D
  5
134E
331
10F9
  5
10FA
331
127F
  5
1289
331
116
  5
116
331
11E
  5
11E
331
173
  5
173
331
124
  5
124
331
281
  5
281
331
12C
  5
12C
331
15C9
  5
15CA
331
78E
  5
78E
331
2E9
  5
2E9
331
134
  5
134
331
183
  5
183
331
410
  5
410
331
13F4
  5
13F5
331
153A
  5
153C
331
1610
  5
1612
331
16B6
  5
16B7
331
18B
  5
18B
331
13C
  5
13C
331
2F1
  5
2F1
331
15D1
  5
15D2
331
1620
  5
1621
331
15D9
  5
15DA
331
157A
  5
157B
331
1414
  5
1415
331
150B
  5
150D
331
1101
  5
1102
331
1190
  5
1192
331
1775
  5
1776
331
166F
  5
1688
331
1628
  5
1629
331
1513
  5
1515
331
141C
  5
1424
331
1582
  5
1583
331
1109
  5
110A
331
1198
  5
1199
331
1111
  5
1112
331
173E
  5
173F
331
168F
  5
1690
331
10C2
  5
10C3
331
FC3
  5
FC4
331
11A8
  5
11B6
331
1336
  5
1337
331
17B2
  5
17B3
331
144
  5
144
331
14C
  5
14C
331
767
  5
767
331
84D
  5
84D
331
1B3
  5
1B3
331
1424
  5
1426
331
1630
  5
1631
331
1697
  5
16A0
331
77F
  5
77F
331
16C
  5
16C
331
1592
  5
1593
331
1638
  5
1639
331
1795
  5
1796
331
1640
  5
1641
331
14AC
  5
14AE
331
1533
  5
1534
331
16A7
  5
16A8
331
179D
  5
17A8
331
FCB
  5
1097
331
133E
  5
1340
331
1648
  5
1649
331
14DC
  5
14FE
331
15C2
  5
15C3
331
17AD
  5
17AE
331
1129
  5
112C
331
1346
  5
1347
331
13E5
  5
13E6
331
13ED
  5
13EE
331
134E
  5
134F
331
10FA
  5
10FB
331
1BC8
  5
1BC8
331
117
  5
117
331
11F
  5
11F
331
282
  5
282
331
125
  5
125
331
1C3
  5
1C3
331
17C
  5
17C
331
12D
  5
12D
331
2E2
  5
2E2
331
1650
  5
1651
331
78F
  5
78F
331
184
  5
184
331
135
  5
135
331
253
  5
253
331
13F5
  5
13F6
331
15CA
  5
15CB
331
16B7
  5
16C4
331
1619
  5
161A
331
15D2
  5
15D3
331
797
  5
797
331
13D
  5
13D
331
1504
  5
1505
331
1658
  5
1659
331
1102
  5
1103
331
15DA
  5
15DB
331
1415
  5
1416
331
157B
  5
157C
331
1621
  5
1622
331
10B3
  5
10B5
331
1776
  5
1777
331
1688
  5
1689
331
1629
  5
162A
331
110A
  5
110C
331
1290
  5
1293
331
130F
  5
1310
331
1112
  5
1113
331
173F
  5
1740
331
8BD
  5
8BE
331
10C3
  5
10C4
331
1199
  5
11A8
331
FC4
  5
FC5
331
1337
  5
1338
331
1BA1
  5
1BA1
331
17B3
  5
17B5
331
17BB
  5
17BD
331
1B82
  5
85E
331
145
  5
145
331
263
  5
263
331
768
  5
768
331
26B
  5
26B
331
14D
  5
14D
331
7AF
  5
7AF
331
778
  5
778
331
273
  5
273
331
84E
  5
84E
331
1631
  5
1632
331
1690
  5
1691
331
1796
  5
1797
331
1639
  5
163A
331
16D
  5
16D
331
152C
  5
152E
331
1593
  5
1594
331
16A0
  5
16A1
331
1641
  5
1642
331
1534
  5
1535
331
16A8
  5
16B2
331
10DB
  5
10DC
331
15C3
  5
15C8
331
1649
  5
164A
331
17AE
  5
17AF
331
11B9
  5
11BA
331
1347
  5
1348
331
10F3
  5
10F4
331
1300
  5
1301
331
13E6
  5
13E7
331
13EE
  5
13EF
331
134F
  5
1350
331
10FB
  5
10FC
331
1B92
  5
1B92
331
118
  5
118
331
780
  5
780
331
283
  5
283
331
175
  5
175
331
126
  5
126
331
1C4
  5
1C4
331
581
  5
581
331
5D9
  5
5D9
331
2E3
  5
2E3
331
12E
  5
12E
331
40A
  5
40A
331
1651
  5
1652
331
15CB
  5
15CC
331
254
  5
254
331
136
  5
136
331
185
  5
185
331
790
  5
790
331
13F6
  5
13F7
331
153C
  5
153D
331
1612
  5
1613
331
1659
  5
165A
331
161A
  5
161B
331
15D3
  5
15D4
331
25C
  5
25C
331
18D
  5
18D
331
13E
  5
13E
331
798
  5
798
331
1505
  5
1506
331
1289
  5
1290
331
1622
  5
1623
331
157C
  5
157D
331
1416
  5
141B
331
150D
  5
1513
331
15DB
  5
15DC
331
85E
  5
85F
331
1103
  5
1104
331
1397
  5
139B
331
1777
  5
1778
331
1738
  5
1739
331
162A
  5
162B
331
1515
  5
1516
331
1689
  5
168A
331
10BC
  5
10BD
331
1192
  5
1193
331
1310
  5
1328
331
1328
  5
132C
331
1113
  5
1114
331
8BE
  5
8BF
331
10C4
  5
10C5
331
FC5
  5
FC6
331
1BF1
  5
1BF1
331
146
  5
146
331
264
  5
264
331
769
  5
769
331
14E
  5
14E
331
26C
  5
26C
331
1740
  5
1759
331
1691
  5
1692
331
15EB
  5
15EC
331
84F
  5
84F
331
274
  5
274
331
1426
  5
1427
331
1632
  5
1633
331
1797
  5
1798
331
16A1
  5
16A2
331
16E
  5
16E
331
1594
  5
1595
331
163A
  5
163B
  0
LAYOUT
  5
1B3A
102
{ACAD_REACTORS
330
1B38
102
}
330
1B38
100
AcDbPlotSettings
  1

  2
A4 EPSON LP-6100.pc3
  4
A4
  6

 40
5.873749732971191
 41
5.873747825622558
 42
5.873748779296875
 43
5.873748779296875
 44
209.9733276367187
 45
297.0106506347656
 46
1.409999999999999
 47
25.0
 48
0.0
 49
0.0
140
0.0
141
0.0
142
1.0
143
1.0
 70
 28336
 72
     1
 73
     1
 74
     1
  7
AutoCAD LT 98.ctb
 75
    16
147
1.0
 76
     1
 77
     2
 78
   300
148
-236.460584293892
149
-171.631703725755
100
AcDbLayout
  1
Model
 70
     1
 71
     0
 10
0.0
 20
0.0
 11
12.0
 21
9.0
 12
0.0
 22
0.0
 32
0.0
 14
0.0
 24
0.0
 34
0.0
 15
0.0
 25
0.0
 35
0.0
146
0.0
 13
0.0
 23
0.0
 33
0.0
 16
1.0
 26
0.0
 36
0.0
 17
0.0
 27
1.0
 37
0.0
 76
     0
330
18
1001
ACAD_PSEXT
1000
A4 EPSON LP-6100.pc3
1000
EPSON LP-6100
1000
USB002
1000

1070
     0
  0
LAYOUT
  5
1B3B
102
{ACAD_REACTORS
330
1B38
102
}
330
1B38
100
AcDbPlotSettings
  1

  2
C:\Documents and Settings\佐藤\Application Data\Autodesk\AutoCAD LT 2005\R10\jpn\plotters\PEACOCK EPSON LP-6100.pc3
  4

  6

 40
0.0
 41
0.0
 42
0.0
 43
0.0
 44
0.0
 45
0.0
 46
0.0
 47
0.0
 48
0.0
 49
0.0
140
0.0
141
0.0
142
1.0
143
1.0
 70
   688
 72
     0
 73
     0
 74
     5
  7
AutoCAD LT 98.ctb
 75
    16
147
1.0
 76
     0
 77
     2
 78
   300
148
0.0
149
0.0
100
AcDbLayout
  1
レイアウト1
 70
     1
 71
     1
 10
0.0
 20
0.0
 11
420.0
 21
297.0
 12
0.0
 22
0.0
 32
0.0
 14
1.000000000000000E+20
 24
1.000000000000000E+20
 34
1.000000000000000E+20
 15
-1.000000000000000E+20
 25
-1.000000000000000E+20
 35
-1.000000000000000E+20
146
0.0
 13
0.0
 23
0.0
 33
0.0
 16
1.0
 26
0.0
 36
0.0
 17
0.0
 27
1.0
 37
0.0
 76
     0
330
15
  0
MLINESTYLE
  5
1C
102
{ACAD_REACTORS
330
1B
102
}
330
1B
100
AcDbMlineStyle
  2
STANDARD
 70
     0
  3

 62
   256
 51
90.0
 52
90.0
 71
     2
 49
0.5
 62
   256
  6
BYLAYER
 49
-0.5
 62
   256
  6
BYLAYER
  0
ACDBPLACEHOLDER
  5
1B33
102
{ACAD_REACTORS
330
1B32
102
}
330
1B32
  0
ACAD_PROXY_OBJECT
  5
1B37
102
{ACAD_REACTORS
330
1B36
102
}
330
1B36
100
AcDbProxyObject
 90
      499
 91
      503
 95
  2555929
 70
     0
 93
     1849
310
4214DD185B99185C992420000000000000F83F0000000000003E0FC00000000000004901028000000C1008070000C3001FDFF8000000C1003FBFF000000182007F7FE00000030400FEFFC00000060801FDFF8000000C1003FBFF000000182000000000000000C2020B0000001820100E000186003FBFF000000182007F7FE0
310
0000030400FEFFC00000060801FDFF8000000C1003FBFF000000182007F7FE0000003040000000000000012404160000003040201C00030C007F7FE00000030400FEFFC00000060801FDFF8000000C1003FBFF000000182007F7FE00000030400FEFFC000000608000
340
F
340
F
340
F
 94
        0
  0
DICTIONARYVAR
  5
1B42
102
{ACAD_REACTORS
330
192
102
}
330
192
100
DictionaryVariables
280
     0
  1
STANDARD
  0
DICTIONARYVAR
  5
193
102
{ACAD_REACTORS
330
192
102
}
330
192
100
DictionaryVariables
280
     0
  1
96
  0
ENDSEC
  0
EOF
