  0
SECTION
  2
HEADER
  9
$ACADVER
  1
AC1018
  9
$ACADMAINTVER
 70
     0
  9
$DWGCODEPAGE
  3
ANSI_932
  9
$INSBASE
 10
0.0
 20
0.0
 30
0.0
  9
$EXTMIN
 10
-0.4320690801881711
 20
-0.4226863569169837
 30
-0.0000762951084532
  9
$EXTMAX
 10
377.9298505522884
 20
282.9180543561672
 30
0.0000000046571813
  9
$LIMMIN
 10
0.0
 20
0.0
  9
$LIMMAX
 10
420.0
 20
297.0
  9
$ORTHOMODE
 70
     0
  9
$REGENMODE
 70
     1
  9
$FILLMODE
 70
     1
  9
$QTEXTMODE
 70
     0
  9
$MIRRTEXT
 70
     1
  9
$LTSCALE
 40
1.0
  9
$ATTMODE
 70
     1
  9
$TEXTSIZE
 40
2.5
  9
$TRACEWID
 40
1.0
  9
$TEXTSTYLE
  7
STYLE3
  9
$CLAYER
  8
寸法線
  9
$CELTYPE
  6
BYLAYER
  9
$CECOLOR
 62
   256
  9
$CELTSCALE
 40
1.0
  9
$DISPSILH
 70
     0
  9
$DIMSCALE
 40
1.0
  9
$DIMASZ
 40
2.5
  9
$DIMEXO
 40
0.0
  9
$DIMDLI
 40
3.75
  9
$DIMRND
 40
0.0
  9
$DIMDLE
 40
0.0
  9
$DIMEXE
 40
1.25
  9
$DIMTP
 40
0.0
  9
$DIMTM
 40
0.0
  9
$DIMTXT
 40
2.5
  9
$DIMCEN
 40
2.5
  9
$DIMTSZ
 40
0.0
  9
$DIMTOL
 70
     0
  9
$DIMLIM
 70
     0
  9
$DIMTIH
 70
     0
  9
$DIMTOH
 70
     0
  9
$DIMSE1
 70
     0
  9
$DIMSE2
 70
     0
  9
$DIMTAD
 70
     1
  9
$DIMZIN
 70
     8
  9
$DIMBLK
  1

  9
$DIMASO
 70
     1
  9
$DIMSHO
 70
     1
  9
$DIMPOST
  1

  9
$DIMAPOST
  1

  9
$DIMALT
 70
     0
  9
$DIMALTD
 70
     4
  9
$DIMALTF
 40
0.0394
  9
$DIMLFAC
 40
1.0
  9
$DIMTOFL
 70
     1
  9
$DIMTVP
 40
0.0
  9
$DIMTIX
 70
     0
  9
$DIMSOXD
 70
     0
  9
$DIMSAH
 70
     1
  9
$DIMBLK1
  1
OPEN
  9
$DIMBLK2
  1
OPEN
  9
$DIMSTYLE
  2
STYLE3
  9
$DIMCLRD
 70
     2
  9
$DIMCLRE
 70
     2
  9
$DIMCLRT
 70
     6
  9
$DIMTFAC
 40
1.0
  9
$DIMGAP
 40
0.625
  9
$DIMJUST
 70
     0
  9
$DIMSD1
 70
     0
  9
$DIMSD2
 70
     0
  9
$DIMTOLJ
 70
     1
  9
$DIMTZIN
 70
     0
  9
$DIMALTZ
 70
     0
  9
$DIMALTTZ
 70
     0
  9
$DIMUPT
 70
     0
  9
$DIMDEC
 70
     7
  9
$DIMTDEC
 70
     4
  9
$DIMALTU
 70
     8
  9
$DIMALTTD
 70
     4
  9
$DIMTXSTY
  7
STYLE3
  9
$DIMAUNIT
 70
     0
  9
$DIMADEC
 70
     0
  9
$DIMALTRND
 40
0.0
  9
$DIMAZIN
 70
     0
  9
$DIMDSEP
 70
    46
  9
$DIMATFIT
 70
     3
  9
$DIMFRAC
 70
     0
  9
$DIMLDRBLK
  1

  9
$DIMLUNIT
 70
     2
  9
$DIMLWD
 70
    -2
  9
$DIMLWE
 70
    -2
  9
$DIMTMOVE
 70
     0
  9
$LUNITS
 70
     2
  9
$LUPREC
 70
     4
  9
$SKETCHINC
 40
1.0
  9
$FILLETRAD
 40
0.5
  9
$AUNITS
 70
     0
  9
$AUPREC
 70
     0
  9
$MENU
  1
.
  9
$ELEVATION
 40
0.0
  9
$PELEVATION
 40
0.0
  9
$THICKNESS
 40
0.0
  9
$LIMCHECK
 70
     0
  9
$CHAMFERA
 40
2.0
  9
$CHAMFERB
 40
2.0
  9
$CHAMFERC
 40
20.0
  9
$CHAMFERD
 40
0.0
  9
$SKPOLY
 70
     0
  9
$TDCREATE
 40
2452027.403950926
  9
$TDUCREATE
 40
2452027.028950926
  9
$TDUPDATE
 40
2455378.443864109
  9
$TDUUPDATE
 40
2455378.068864109
  9
$TDINDWG
 40
0.4549927778
  9
$TDUSRTIMER
 40
0.4549927778
  9
$USRTIMER
 70
     1
  9
$ANGBASE
 50
0.0
  9
$ANGDIR
 70
     0
  9
$PDMODE
 70
     0
  9
$PDSIZE
 40
0.0
  9
$PLINEWID
 40
0.0
  9
$SPLFRAME
 70
     0
  9
$SPLINETYPE
 70
     6
  9
$SPLINESEGS
 70
     8
  9
$HANDSEED
  5
EC6
  9
$SURFTAB1
 70
     6
  9
$SURFTAB2
 70
     6
  9
$SURFTYPE
 70
     6
  9
$SURFU
 70
     6
  9
$SURFV
 70
     6
  9
$UCSBASE
  2

  9
$UCSNAME
  2

  9
$UCSORG
 10
0.0
 20
0.0
 30
0.0
  9
$UCSXDIR
 10
1.0
 20
0.0
 30
0.0
  9
$UCSYDIR
 10
0.0
 20
1.0
 30
0.0
  9
$UCSORTHOREF
  2

  9
$UCSORTHOVIEW
 70
     0
  9
$UCSORGTOP
 10
0.0
 20
0.0
 30
0.0
  9
$UCSORGBOTTOM
 10
0.0
 20
0.0
 30
0.0
  9
$UCSORGLEFT
 10
0.0
 20
0.0
 30
0.0
  9
$UCSORGRIGHT
 10
0.0
 20
0.0
 30
0.0
  9
$UCSORGFRONT
 10
0.0
 20
0.0
 30
0.0
  9
$UCSORGBACK
 10
0.0
 20
0.0
 30
0.0
  9
$PUCSBASE
  2

  9
$PUCSNAME
  2

  9
$PUCSORG
 10
0.0
 20
0.0
 30
0.0
  9
$PUCSXDIR
 10
1.0
 20
0.0
 30
0.0
  9
$PUCSYDIR
 10
0.0
 20
1.0
 30
0.0
  9
$PUCSORTHOREF
  2

  9
$PUCSORTHOVIEW
 70
     0
  9
$PUCSORGTOP
 10
0.0
 20
0.0
 30
0.0
  9
$PUCSORGBOTTOM
 10
0.0
 20
0.0
 30
0.0
  9
$PUCSORGLEFT
 10
0.0
 20
0.0
 30
0.0
  9
$PUCSORGRIGHT
 10
0.0
 20
0.0
 30
0.0
  9
$PUCSORGFRONT
 10
0.0
 20
0.0
 30
0.0
  9
$PUCSORGBACK
 10
0.0
 20
0.0
 30
0.0
  9
$USERI1
 70
     0
  9
$USERI2
 70
     0
  9
$USERI3
 70
     0
  9
$USERI4
 70
     0
  9
$USERI5
 70
     0
  9
$USERR1
 40
0.0
  9
$USERR2
 40
0.0
  9
$USERR3
 40
0.0
  9
$USERR4
 40
0.0
  9
$USERR5
 40
0.0
  9
$WORLDVIEW
 70
     1
  9
$SHADEDGE
 70
     3
  9
$SHADEDIF
 70
    70
  9
$TILEMODE
 70
     1
  9
$MAXACTVP
 70
    48
  9
$PINSBASE
 10
0.0
 20
0.0
 30
0.0
  9
$PLIMCHECK
 70
     0
  9
$PEXTMIN
 10
1.000000000000000E+20
 20
1.000000000000000E+20
 30
1.000000000000000E+20
  9
$PEXTMAX
 10
-1.000000000000000E+20
 20
-1.000000000000000E+20
 30
-1.000000000000000E+20
  9
$PLIMMIN
 10
0.0
 20
0.0
  9
$PLIMMAX
 10
420.0
 20
297.0
  9
$UNITMODE
 70
     0
  9
$VISRETAIN
 70
     1
  9
$PLINEGEN
 70
     0
  9
$PSLTSCALE
 70
     1
  9
$TREEDEPTH
 70
  3020
  9
$CMLSTYLE
  2
STANDARD
  9
$CMLJUST
 70
     0
  9
$CMLSCALE
 40
20.0
  9
$PROXYGRAPHICS
 70
     1
  9
$MEASUREMENT
 70
     1
  9
$CELWEIGHT
370
    -1
  9
$ENDCAPS
280
     0
  9
$JOINSTYLE
280
     0
  9
$LWDISPLAY
290
     0
  9
$INSUNITS
 70
     0
  9
$HYPERLINKBASE
  1

  9
$STYLESHEET
  1
AutoCAD LT 98.ctb
  9
$XEDIT
290
     1
  9
$CEPSNTYPE
380
     0
  9
$PSTYLEMODE
290
     1
  9
$FINGERPRINTGUID
  2
{F96C169A-9AEE-4DF5-9180-8E8E36228DCE}
  9
$VERSIONGUID
  2
{1DA7981D-7CF5-4871-B7DD-133BDEEDE4BA}
  9
$EXTNAMES
290
     1
  9
$PSVPSCALE
 40
0.0
  9
$OLESTARTUP
290
     0
  9
$SORTENTS
280
    96
  9
$INDEXCTL
280
     0
  9
$HIDETEXT
280
     0
  9
$XCLIPFRAME
290
     0
  9
$HALOGAP
280
     0
  9
$OBSCOLOR
 70
   257
  9
$OBSLTYPE
280
     0
  9
$INTERSECTIONDISPLAY
280
     0
  9
$INTERSECTIONCOLOR
 70
   257
  9
$DIMASSOC
280
     1
  9
$PROJECTNAME
  1

  0
ENDSEC
  0
SECTION
  2
CLASSES
  0
CLASS
  1
HATCH
  2
AcDbHatch
  3
ObjectDBX Classes
 90
        0
 91
       24
280
     0
281
     1
  0
CLASS
  1
DICTIONARYVAR
  2
AcDbDictionaryVar
  3
ObjectDBX Classes
 90
        0
 91
        2
280
     0
281
     0
  0
CLASS
  1
LWPOLYLINE
  2
AcDbPolyline
  3
ObjectDBX Classes
 90
        0
 91
        5
280
     0
281
     1
  0
CLASS
  1
ACDBDICTIONARYWDFLT
  2
AcDbDictionaryWithDefault
  3
ObjectDBX Classes
 90
        0
 91
        1
280
     0
281
     0
  0
CLASS
  1
TABLESTYLE
  2
AcDbTableStyle
  3
ObjectDBX Classes
 90
     2047
 91
        1
280
     0
281
     0
  0
ENDSEC
  0
SECTION
  2
TABLES
  0
TABLE
  2
VPORT
  5
8
330
0
100
AcDbSymbolTable
 70
     2
  0
VPORT
  5
EC5
330
8
100
AcDbSymbolTableRecord
100
AcDbViewportTableRecord
  2
*Active
 70
     0
 10
0.0
 20
0.0
 11
1.0
 21
1.0
 12
188.7488907360501
 22
141.2476839996251
 13
0.0
 23
0.0
 14
10.0
 24
10.0
 15
10.0
 25
10.0
 16
0.0
 26
0.0
 36
1.0
 17
0.0
 27
0.0
 37
0.0
 40
285.495423151967
 41
1.530456852791878
 42
50.0
 43
0.0
 44
0.0
 50
0.0
 51
0.0
 71
     0
 72
   100
 73
     1
 74
     1
 75
     0
 76
     0
 77
     0
 78
     0
281
     0
 65
     1
110
0.0
120
0.0
130
0.0
111
1.0
121
0.0
131
0.0
112
0.0
122
1.0
132
0.0
 79
     0
146
0.0
  0
ENDTAB
  0
TABLE
  2
LTYPE
  5
5
330
0
100
AcDbSymbolTable
 70
    12
  0
LTYPE
  5
12
330
5
100
AcDbSymbolTableRecord
100
AcDbLinetypeTableRecord
  2
BYBLOCK
 70
     0
  3

 72
    65
 73
     0
 40
0.0
  0
LTYPE
  5
13
330
5
100
AcDbSymbolTableRecord
100
AcDbLinetypeTableRecord
  2
BYLAYER
 70
     0
  3

 72
    65
 73
     0
 40
0.0
  0
LTYPE
  5
14
330
5
100
AcDbSymbolTableRecord
100
AcDbLinetypeTableRecord
  2
CONTINUOUS
 70
     0
  3
Solid line
 72
    65
 73
     0
 40
0.0
  0
LTYPE
  5
22
330
5
100
AcDbSymbolTableRecord
100
AcDbLinetypeTableRecord
  2
CENTER2
 70
     0
  3
Center (.5x) ___ _ ___ _ ___ _ ___ _ ___ _ ___
 72
    65
 73
     4
 40
28.575
 49
19.05
 74
     0
 49
-3.174999999999999
 74
     0
 49
3.174999999999999
 74
     0
 49
-3.174999999999999
 74
     0
  0
LTYPE
  5
24
330
5
100
AcDbSymbolTableRecord
100
AcDbLinetypeTableRecord
  2
PHANTOM2
 70
     0
  3
Phantom (.5x) ___ _ _ ___ _ _ ___ _ _ ___ _ _
 72
    65
 73
     6
 40
31.75
 49
15.875
 74
     0
 49
-3.174999999999999
 74
     0
 49
3.174999999999999
 74
     0
 49
-3.174999999999999
 74
     0
 49
3.174999999999999
 74
     0
 49
-3.174999999999999
 74
     0
  0
ENDTAB
  0
TABLE
  2
LAYER
  5
2
330
0
100
AcDbSymbolTable
 70
    16
  0
LAYER
  5
E
330
2
100
AcDbSymbolTableRecord
100
AcDbLayerTableRecord
  2
0
 70
     0
 62
     7
  6
CONTINUOUS
370
    -3
390
DCE
  0
LAYER
  5
25
330
2
100
AcDbSymbolTableRecord
100
AcDbLayerTableRecord
  2
外形線
 70
     0
 62
     7
  6
CONTINUOUS
370
    -3
390
DCE
  0
LAYER
  5
26
330
2
100
AcDbSymbolTableRecord
100
AcDbLayerTableRecord
  2
寸法線
 70
     0
 62
     2
  6
CONTINUOUS
370
    -3
390
DCE
  0
LAYER
  5
27
330
2
100
AcDbSymbolTableRecord
100
AcDbLayerTableRecord
  2
中心線
 70
     0
 62
     4
  6
CENTER2
370
    -3
390
DCE
  0
LAYER
  5
29
330
2
100
AcDbSymbolTableRecord
100
AcDbLayerTableRecord
  2
想像線
 70
     0
 62
     1
  6
PHANTOM2
370
    -3
390
DCE
  0
LAYER
  5
2B
330
2
100
AcDbSymbolTableRecord
100
AcDbLayerTableRecord
  2
文字
 70
     0
 62
     6
  6
CONTINUOUS
370
    -3
390
DCE
  0
LAYER
  5
53
330
2
100
AcDbSymbolTableRecord
100
AcDbLayerTableRecord
  2
DEFPOINTS
 70
     0
 62
     7
  6
CONTINUOUS
290
     0
370
    -3
390
DCE
  0
LAYER
  5
A5
330
2
100
AcDbSymbolTableRecord
100
AcDbLayerTableRecord
  2
C
 70
     0
 62
     7
  6
CONTINUOUS
370
    -3
390
DCE
  0
LAYER
  5
23D
330
2
100
AcDbSymbolTableRecord
100
AcDbLayerTableRecord
  2
ROGO
 70
     0
 62
     6
  6
CONTINUOUS
370
    -3
390
DCE
  0
ENDTAB
  0
TABLE
  2
STYLE
  5
3
330
0
100
AcDbSymbolTable
 70
     7
  0
STYLE
  5
F
330
3
100
AcDbSymbolTableRecord
100
AcDbTextStyleTableRecord
  2
STANDARD
 70
     0
 40
0.0
 41
1.0
 50
0.0
 71
     0
 42
2.5
  3
txt
  4

  0
STYLE
  5
3F
330
3
100
AcDbSymbolTableRecord
100
AcDbTextStyleTableRecord
  2
STYLE3
 70
     0
 40
0.0
 41
1.0
 50
0.0
 71
     0
 42
2.5
  3
romans.shx
  4
bigfont.shx
  0
STYLE
  5
BB1
330
3
100
AcDbSymbolTableRecord
100
AcDbTextStyleTableRecord
  2
4
 70
     0
 40
0.0
 41
1.0
 50
0.0
 71
     0
 42
3.0
  3
MS PGothic.ttf
  4

1001
ACAD
1000
MS PGothic
1071
    32818
  0
ENDTAB
  0
TABLE
  2
VIEW
  5
6
330
0
100
AcDbSymbolTable
 70
     0
  0
ENDTAB
  0
TABLE
  2
UCS
  5
7
330
0
100
AcDbSymbolTable
 70
     0
  0
ENDTAB
  0
TABLE
  2
APPID
  5
9
330
0
100
AcDbSymbolTable
 70
     2
  0
APPID
  5
10
330
9
100
AcDbSymbolTableRecord
100
AcDbRegAppTableRecord
  2
ACAD
 70
     0
  0
APPID
  5
DDD
330
9
100
AcDbSymbolTableRecord
100
AcDbRegAppTableRecord
  2
ACAD_PSEXT
 70
     0
  0
ENDTAB
  0
TABLE
  2
DIMSTYLE
  5
A
330
0
100
AcDbSymbolTable
 70
     4
100
AcDbDimStyleTable
 71
     1
340
8F
  0
DIMSTYLE
105
1D
330
A
100
AcDbSymbolTableRecord
100
AcDbDimStyleTableRecord
  2
STANDARD
 70
     0
 41
2.5
 42
0.625
 43
3.75
 44
1.25
 73
     0
 74
     0
 77
     1
 78
     8
140
2.5
141
2.5
143
0.0394
147
0.625
171
     4
172
     1
273
     8
274
     4
277
     6
340
F
  0
DIMSTYLE
105
8F
102
{ACAD_REACTORS
330
61C
330
82F
330
9AC
330
9B8
330
9C5
330
9D2
330
9DF
330
9EC
330
9F9
330
A07
330
A13
330
A1F
330
A2B
330
A37
330
A77
330
B34
102
}
330
A
100
AcDbSymbolTableRecord
100
AcDbDimStyleTableRecord
  2
STYLE3
 70
     0
 41
2.5
 42
0.0
 43
3.75
 44
1.25
 73
     0
 74
     0
 77
     1
 78
     8
140
2.5
141
2.5
143
0.0394
147
0.625
171
     4
172
     1
173
     1
176
     2
177
     2
178
     6
271
     1
273
     8
274
     4
340
3F
341
45
343
45
344
45
  0
ENDTAB
  0
TABLE
  2
BLOCK_RECORD
  5
1
330
0
100
AcDbSymbolTable
 70
    26
  0
BLOCK_RECORD
  5
18
330
1
100
AcDbSymbolTableRecord
100
AcDbBlockTableRecord
  2
*MODEL_SPACE
340
DD5
  0
BLOCK_RECORD
  5
15
330
1
100
AcDbSymbolTableRecord
100
AcDbBlockTableRecord
  2
*PAPER_SPACE
340
DD6
  0
BLOCK_RECORD
  5
45
330
1
100
AcDbSymbolTableRecord
100
AcDbBlockTableRecord
  2
_OPEN
340
0
102
{BLKREFS
331
A95
331
A96
331
AB1
331
AB2
331
251
331
252
331
262
331
370
331
372
331
38A
331
392
331
398
331
3A8
331
3C6
331
E25
331
E26
331
E2D
331
E2E
331
E35
331
E36
331
E3E
331
E3F
331
E46
331
E47
331
E4E
331
E4F
331
E57
331
E58
331
E60
331
E61
331
E69
331
E6A
331
E72
331
E73
331
E7B
331
E7C
331
E83
331
E84
331
E8C
331
E8D
331
E95
331
E96
331
E9E
331
E9F
331
EA9
331
EAA
102
}
  0
BLOCK_RECORD
  5
610
330
1
100
AcDbSymbolTableRecord
100
AcDbBlockTableRecord
  2
*D3
340
0
  0
BLOCK_RECORD
  5
821
330
1
100
AcDbSymbolTableRecord
100
AcDbBlockTableRecord
  2
*D7
340
0
  0
BLOCK_RECORD
  5
9A0
330
1
100
AcDbSymbolTableRecord
100
AcDbBlockTableRecord
  2
*D8
340
0
  0
BLOCK_RECORD
  5
9AD
330
1
100
AcDbSymbolTableRecord
100
AcDbBlockTableRecord
  2
*D9
340
0
  0
BLOCK_RECORD
  5
9B9
330
1
100
AcDbSymbolTableRecord
100
AcDbBlockTableRecord
  2
*D10
340
0
  0
BLOCK_RECORD
  5
9C6
330
1
100
AcDbSymbolTableRecord
100
AcDbBlockTableRecord
  2
*D11
340
0
  0
BLOCK_RECORD
  5
9D3
330
1
100
AcDbSymbolTableRecord
100
AcDbBlockTableRecord
  2
*D12
340
0
  0
BLOCK_RECORD
  5
9E0
330
1
100
AcDbSymbolTableRecord
100
AcDbBlockTableRecord
  2
*D13
340
0
  0
BLOCK_RECORD
  5
9ED
330
1
100
AcDbSymbolTableRecord
100
AcDbBlockTableRecord
  2
*D14
340
0
  0
BLOCK_RECORD
  5
9FB
330
1
100
AcDbSymbolTableRecord
100
AcDbBlockTableRecord
  2
*D15
340
0
  0
BLOCK_RECORD
  5
A08
330
1
100
AcDbSymbolTableRecord
100
AcDbBlockTableRecord
  2
*D16
340
0
  0
BLOCK_RECORD
  5
A14
330
1
100
AcDbSymbolTableRecord
100
AcDbBlockTableRecord
  2
*D17
340
0
  0
BLOCK_RECORD
  5
A20
330
1
100
AcDbSymbolTableRecord
100
AcDbBlockTableRecord
  2
*D18
340
0
  0
BLOCK_RECORD
  5
A2C
330
1
100
AcDbSymbolTableRecord
100
AcDbBlockTableRecord
  2
*D19
340
0
  0
BLOCK_RECORD
  5
A6B
330
1
100
AcDbSymbolTableRecord
100
AcDbBlockTableRecord
  2
*D20
340
0
  0
BLOCK_RECORD
  5
B28
330
1
100
AcDbSymbolTableRecord
100
AcDbBlockTableRecord
  2
*D21
340
0
  0
BLOCK_RECORD
  5
B5C
330
1
100
AcDbSymbolTableRecord
100
AcDbBlockTableRecord
  2
A$C46B047FA
340
0
102
{BLKREFS
331
BD2
331
BB8
102
}
  0
ENDTAB
  0
ENDSEC
  0
SECTION
  2
BLOCKS
  0
BLOCK
  5
19
330
18
100
AcDbEntity
  8
0
100
AcDbBlockBegin
  2
*MODEL_SPACE
 70
     0
 10
0.0
 20
0.0
 30
0.0
  3
*MODEL_SPACE
  1

  0
ENDBLK
  5
1A
330
18
100
AcDbEntity
  8
0
100
AcDbBlockEnd
  0
BLOCK
  5
16
330
15
100
AcDbEntity
 67
     1
  8
0
100
AcDbBlockBegin
  2
*PAPER_SPACE
 70
     0
 10
0.0
 20
0.0
 30
0.0
  3
*PAPER_SPACE
  1

  0
ENDBLK
  5
17
330
15
100
AcDbEntity
 67
     1
  8
0
100
AcDbBlockEnd
  0
BLOCK
  5
46
330
45
100
AcDbEntity
  8
0
100
AcDbBlockBegin
  2
_OPEN
 70
     0
 10
0.0
 20
0.0
 30
0.0
  3
_OPEN
  1

  0
LINE
  5
47
330
45
100
AcDbEntity
  8
0
  6
ByBlock
 62
     0
100
AcDbLine
 10
-1.0
 20
0.1666666666666666
 30
0.0
 11
0.0
 21
0.0
 31
0.0
  0
LINE
  5
48
330
45
100
AcDbEntity
  8
0
  6
ByBlock
 62
     0
100
AcDbLine
 10
0.0
 20
0.0
 30
0.0
 11
-1.0
 21
-0.1666666666666666
 31
0.0
  0
LINE
  5
49
330
45
100
AcDbEntity
  8
0
  6
ByBlock
 62
     0
100
AcDbLine
 10
0.0
 20
0.0
 30
0.0
 11
-1.0
 21
0.0
 31
0.0
  0
ENDBLK
  5
4A
330
45
100
AcDbEntity
  8
0
100
AcDbBlockEnd
  0
BLOCK
  5
83D
330
610
100
AcDbEntity
  8
0
100
AcDbBlockBegin
  2
*D3
 70
     1
 10
0.0
 20
0.0
 30
0.0
  3
*D3
  1

  0
LINE
  5
E3B
330
610
100
AcDbEntity
  8
外形線
 62
     2
370
    -2
100
AcDbLine
 10
72.05419346884696
 20
180.2713680274449
 30
0.0
 11
74.12817155014886
 21
180.2713680274449
 31
0.0
  0
LINE
  5
E3C
330
610
100
AcDbEntity
  8
外形線
 62
     2
370
    -2
100
AcDbLine
 10
72.87817155014886
 20
200.2713680274449
 30
0.0
 11
71.62817155014886
 21
200.2713680274449
 31
0.0
  0
LINE
  5
E3D
330
610
100
AcDbEntity
  8
外形線
 62
     2
370
    -2
100
AcDbLine
 10
72.87817155014886
 20
182.7713680274449
 30
0.0
 11
72.87817155014886
 21
197.7713680274448
 31
0.0
  0
INSERT
  5
E3E
330
610
100
AcDbEntity
  8
外形線
 62
     2
370
    -2
100
AcDbBlockReference
  2
_OPEN
 10
72.87817155014886
 20
180.2713680274449
 30
0.0
 41
2.5
 42
2.5
 43
2.5
 50
270.0
  0
INSERT
  5
E3F
330
610
100
AcDbEntity
  8
外形線
 62
     2
370
    -2
100
AcDbBlockReference
  2
_OPEN
 10
72.87817155014886
 20
200.2713680274449
 30
0.0
 41
2.5
 42
2.5
 43
2.5
 50
90.0
  0
MTEXT
  5
E40
330
610
100
AcDbEntity
  8
外形線
 62
     6
100
AcDbMText
 10
71.00317155014884
 20
190.2713680274449
 30
0.0
 40
2.5
 41
0.0
 71
     5
 72
     1
  1
\A1;φ20
  7
STYLE3
 11
0.0000000000000001
 21
1.0
 31
0.0
 73
     1
 44
1.0
  0
POINT
  5
E41
330
610
100
AcDbEntity
  8
DEFPOINTS
 62
     0
100
AcDbPoint
 10
72.05419346884696
 20
180.2713680274449
 30
0.0
  0
POINT
  5
E42
330
610
100
AcDbEntity
  8
DEFPOINTS
 62
     0
100
AcDbPoint
 10
72.87817155014886
 20
200.2713680274449
 30
0.0
  0
POINT
  5
E43
330
610
100
AcDbEntity
  8
DEFPOINTS
 62
     0
100
AcDbPoint
 10
72.87817155014886
 20
200.2713680274449
 30
0.0
  0
ENDBLK
  5
847
330
610
100
AcDbEntity
  8
0
100
AcDbBlockEnd
  0
BLOCK
  5
830
330
821
100
AcDbEntity
  8
0
100
AcDbBlockBegin
  2
*D7
 70
     1
 10
0.0
 20
0.0
 30
0.0
  3
*D7
  1

  0
LINE
  5
EA4
330
821
100
AcDbEntity
  8
外形線
 62
     2
370
    -2
100
AcDbLine
 10
340.2916170773649
 20
187.2713680274448
 30
0.0
 11
335.3940578474178
 21
187.2713680274448
 31
0.0
  0
LINE
  5
EA5
330
821
100
AcDbEntity
  8
外形線
 62
     2
370
    -2
100
AcDbLine
 10
337.5559473710485
 20
193.2713680274448
 30
0.0
 11
335.3940578474178
 21
193.2713680274448
 31
0.0
  0
LINE
  5
EA6
330
821
100
AcDbEntity
  8
外形線
 62
     2
370
    -2
100
AcDbLine
 10
336.6440578474178
 20
184.7713680274448
 30
0.0
 11
336.6440578474178
 21
182.2713680274448
 31
0.0
  0
LINE
  5
EA7
330
821
100
AcDbEntity
  8
外形線
 62
     2
370
    -2
100
AcDbLine
 10
336.6440578474178
 20
195.7713680274448
 30
0.0
 11
336.6440578474178
 21
198.2713680274448
 31
0.0
  0
LINE
  5
EA8
330
821
100
AcDbEntity
  8
外形線
 62
     2
370
    -2
100
AcDbLine
 10
336.6440578474178
 20
187.2713680274448
 30
0.0
 11
336.6440578474178
 21
193.2713680274448
 31
0.0
  0
INSERT
  5
EA9
330
821
100
AcDbEntity
  8
外形線
 62
     2
370
    -2
100
AcDbBlockReference
  2
_OPEN
 10
336.6440578474178
 20
187.2713680274448
 30
0.0
 41
2.5
 42
2.5
 43
2.5
 50
90.0
  0
INSERT
  5
EAA
330
821
100
AcDbEntity
  8
外形線
 62
     2
370
    -2
100
AcDbBlockReference
  2
_OPEN
 10
336.6440578474178
 20
193.2713680274448
 30
0.0
 41
2.5
 42
2.5
 43
2.5
 50
270.0
  0
MTEXT
  5
EAB
330
821
100
AcDbEntity
  8
外形線
 62
     6
100
AcDbMText
 10
334.7690578474177
 20
190.2713680274449
 30
0.0
 40
2.5
 41
0.0
 71
     5
 72
     1
  1
\A1;φ6
  7
STYLE3
 11
0.0000000000000001
 21
1.0
 31
0.0
 73
     1
 44
1.0
  0
POINT
  5
EAC
330
821
100
AcDbEntity
  8
DEFPOINTS
 62
     0
100
AcDbPoint
 10
340.2916170773649
 20
187.2713680274448
 30
0.0
  0
POINT
  5
EAD
330
821
100
AcDbEntity
  8
DEFPOINTS
 62
     0
100
AcDbPoint
 10
337.5559473710485
 20
193.2713680274448
 30
0.0
  0
POINT
  5
EAE
330
821
100
AcDbEntity
  8
DEFPOINTS
 62
     0
100
AcDbPoint
 10
336.6440578474178
 20
193.2713680274448
 30
0.0
  0
ENDBLK
  5
83C
330
821
100
AcDbEntity
  8
0
100
AcDbBlockEnd
  0
BLOCK
  5
9A1
330
9A0
100
AcDbEntity
  8
0
100
AcDbBlockBegin
  2
*D8
 70
     1
 10
0.0
 20
0.0
 30
0.0
  3
*D8
  1

  0
LINE
  5
E89
330
9A0
100
AcDbEntity
  8
寸法線
 62
     2
370
    -2
100
AcDbLine
 10
265.3171604398838
 20
205.2713680274449
 30
0.0
 11
277.0781529245758
 21
205.2713680274449
 31
0.0
  0
LINE
  5
E8A
330
9A0
100
AcDbEntity
  8
寸法線
 62
     2
370
    -2
100
AcDbLine
 10
275.5357887869639
 20
190.2713680274448
 30
0.0
 11
277.0781529245758
 21
190.2713680274448
 31
0.0
  0
LINE
  5
E8B
330
9A0
100
AcDbEntity
  8
寸法線
 62
     2
370
    -2
100
AcDbLine
 10
275.8281529245758
 20
202.7713680274449
 30
0.0
 11
275.8281529245758
 21
192.7713680274448
 31
0.0
  0
INSERT
  5
E8C
330
9A0
100
AcDbEntity
  8
寸法線
 62
     2
370
    -2
100
AcDbBlockReference
  2
_OPEN
 10
275.8281529245758
 20
205.2713680274449
 30
0.0
 41
2.5
 42
2.5
 43
2.5
 50
90.0
  0
INSERT
  5
E8D
330
9A0
100
AcDbEntity
  8
寸法線
 62
     2
370
    -2
100
AcDbBlockReference
  2
_OPEN
 10
275.8281529245758
 20
190.2713680274448
 30
0.0
 41
2.5
 42
2.5
 43
2.5
 50
270.0
  0
MTEXT
  5
E8E
330
9A0
100
AcDbEntity
  8
寸法線
 62
     6
100
AcDbMText
 10
273.9531529245757
 20
197.7713680274449
 30
0.0
 40
2.5
 41
0.0
 71
     5
 72
     1
  1
\A1;15
  7
STYLE3
 11
0.0000000000000001
 21
1.0
 31
0.0
 73
     1
 44
1.0
  0
POINT
  5
E8F
330
9A0
100
AcDbEntity
  8
DEFPOINTS
 62
     0
100
AcDbPoint
 10
265.3171604398838
 20
205.2713680274449
 30
0.0
  0
POINT
  5
E90
330
9A0
100
AcDbEntity
  8
DEFPOINTS
 62
     0
100
AcDbPoint
 10
275.5357887869639
 20
190.2713680274448
 30
0.0
  0
POINT
  5
E91
330
9A0
100
AcDbEntity
  8
DEFPOINTS
 62
     0
100
AcDbPoint
 10
275.8281529245758
 20
190.2713680274448
 30
0.0
  0
ENDBLK
  5
9AB
330
9A0
100
AcDbEntity
  8
0
100
AcDbBlockEnd
  0
BLOCK
  5
9AE
330
9AD
100
AcDbEntity
  8
0
100
AcDbBlockBegin
  2
*D9
 70
     1
 10
0.0
 20
0.0
 30
0.0
  3
*D9
  1

  0
LINE
  5
E81
330
9AD
100
AcDbEntity
  8
寸法線
 62
     2
370
    -2
100
AcDbLine
 10
265.3171604398837
 20
175.2713680274448
 30
0.0
 11
277.0781529245758
 21
175.2713680274448
 31
0.0
  0
LINE
  5
E82
330
9AD
100
AcDbEntity
  8
寸法線
 62
     2
370
    -2
100
AcDbLine
 10
275.8281529245758
 20
187.7713680274448
 30
0.0
 11
275.8281529245758
 21
177.7713680274448
 31
0.0
  0
INSERT
  5
E83
330
9AD
100
AcDbEntity
  8
寸法線
 62
     2
370
    -2
100
AcDbBlockReference
  2
_OPEN
 10
275.8281529245758
 20
190.2713680274448
 30
0.0
 41
2.5
 42
2.5
 43
2.5
 50
90.0
  0
INSERT
  5
E84
330
9AD
100
AcDbEntity
  8
寸法線
 62
     2
370
    -2
100
AcDbBlockReference
  2
_OPEN
 10
275.8281529245758
 20
175.2713680274448
 30
0.0
 41
2.5
 42
2.5
 43
2.5
 50
270.0
  0
MTEXT
  5
E85
330
9AD
100
AcDbEntity
  8
寸法線
 62
     6
100
AcDbMText
 10
273.9531529245757
 20
182.7713680274449
 30
0.0
 40
2.5
 41
0.0
 71
     5
 72
     1
  1
\A1;15
  7
STYLE3
 11
0.0000000000000001
 21
1.0
 31
0.0
 73
     1
 44
1.0
  0
POINT
  5
E86
330
9AD
100
AcDbEntity
  8
DEFPOINTS
 62
     0
100
AcDbPoint
 10
275.5357887869639
 20
190.2713680274448
 30
0.0
  0
POINT
  5
E87
330
9AD
100
AcDbEntity
  8
DEFPOINTS
 62
     0
100
AcDbPoint
 10
265.3171604398837
 20
175.2713680274448
 30
0.0
  0
POINT
  5
E88
330
9AD
100
AcDbEntity
  8
DEFPOINTS
 62
     0
100
AcDbPoint
 10
275.8281529245758
 20
175.2713680274448
 30
0.0
  0
ENDBLK
  5
9B7
330
9AD
100
AcDbEntity
  8
0
100
AcDbBlockEnd
  0
BLOCK
  5
9BA
330
9B9
100
AcDbEntity
  8
0
100
AcDbBlockBegin
  2
*D10
 70
     1
 10
0.0
 20
0.0
 30
0.0
  3
*D10
  1

  0
LINE
  5
E9B
330
9B9
100
AcDbEntity
  8
寸法線
 62
     2
370
    -2
100
AcDbLine
 10
277.0781529245758
 20
205.2713680274448
 30
0.0
 11
283.3639772321208
 21
205.2713680274448
 31
0.0
  0
LINE
  5
E9C
330
9B9
100
AcDbEntity
  8
寸法線
 62
     2
370
    -2
100
AcDbLine
 10
277.0781529245758
 20
175.2713680274448
 30
0.0
 11
283.3639772321208
 21
175.2713680274448
 31
0.0
  0
LINE
  5
E9D
330
9B9
100
AcDbEntity
  8
寸法線
 62
     2
370
    -2
100
AcDbLine
 10
282.1139772321208
 20
202.7713680274448
 30
0.0
 11
282.1139772321208
 21
177.7713680274448
 31
0.0
  0
INSERT
  5
E9E
330
9B9
100
AcDbEntity
  8
寸法線
 62
     2
370
    -2
100
AcDbBlockReference
  2
_OPEN
 10
282.1139772321208
 20
205.2713680274448
 30
0.0
 41
2.5
 42
2.5
 43
2.5
 50
90.0
  0
INSERT
  5
E9F
330
9B9
100
AcDbEntity
  8
寸法線
 62
     2
370
    -2
100
AcDbBlockReference
  2
_OPEN
 10
282.1139772321208
 20
175.2713680274448
 30
0.0
 41
2.5
 42
2.5
 43
2.5
 50
270.0
  0
MTEXT
  5
EA0
330
9B9
100
AcDbEntity
  8
寸法線
 62
     6
100
AcDbMText
 10
280.2389772321207
 20
190.2713680274448
 30
0.0
 40
2.5
 41
0.0
 71
     5
 72
     1
  1
\A1;30
  7
STYLE3
 11
0.0000000000000001
 21
1.0
 31
0.0
 73
     1
 44
1.0
  0
POINT
  5
EA1
330
9B9
100
AcDbEntity
  8
DEFPOINTS
 62
     0
100
AcDbPoint
 10
277.0781529245758
 20
205.2713680274448
 30
0.0
  0
POINT
  5
EA2
330
9B9
100
AcDbEntity
  8
DEFPOINTS
 62
     0
100
AcDbPoint
 10
277.0781529245758
 20
175.2713680274448
 30
0.0
  0
POINT
  5
EA3
330
9B9
100
AcDbEntity
  8
DEFPOINTS
 62
     0
100
AcDbPoint
 10
282.1139772321208
 20
175.2713680274448
 30
0.0
  0
ENDBLK
  5
9C4
330
9B9
100
AcDbEntity
  8
0
100
AcDbBlockEnd
  0
BLOCK
  5
9C7
330
9C6
100
AcDbEntity
  8
0
100
AcDbBlockBegin
  2
*D11
 70
     1
 10
0.0
 20
0.0
 30
0.0
  3
*D11
  1

  0
LINE
  5
E66
330
9C6
100
AcDbEntity
  8
寸法線
 62
     2
370
    -2
100
AcDbLine
 10
267.1512383696523
 20
114.9375680934471
 30
0.0
 11
277.9024866313555
 21
114.9375680934471
 31
0.0
  0
LINE
  5
E67
330
9C6
100
AcDbEntity
  8
寸法線
 62
     2
370
    -2
100
AcDbLine
 10
276.3933465368559
 20
99.93756809344711
 30
0.0
 11
277.9024866313555
 21
99.93756809344711
 31
0.0
  0
LINE
  5
E68
330
9C6
100
AcDbEntity
  8
寸法線
 62
     2
370
    -2
100
AcDbLine
 10
276.6524866313555
 20
112.4375680934471
 30
0.0
 11
276.6524866313555
 21
102.4375680934471
 31
0.0
  0
INSERT
  5
E69
330
9C6
100
AcDbEntity
  8
寸法線
 62
     2
370
    -2
100
AcDbBlockReference
  2
_OPEN
 10
276.6524866313555
 20
114.9375680934471
 30
0.0
 41
2.5
 42
2.5
 43
2.5
 50
90.0
  0
INSERT
  5
E6A
330
9C6
100
AcDbEntity
  8
寸法線
 62
     2
370
    -2
100
AcDbBlockReference
  2
_OPEN
 10
276.6524866313555
 20
99.93756809344711
 30
0.0
 41
2.5
 42
2.5
 43
2.5
 50
270.0
  0
MTEXT
  5
E6B
330
9C6
100
AcDbEntity
  8
寸法線
 62
     6
100
AcDbMText
 10
274.7774866313555
 20
107.4375680934471
 30
0.0
 40
2.5
 41
0.0
 71
     5
 72
     1
  1
\A1;15
  7
STYLE3
 11
0.0000000000000001
 21
1.0
 31
0.0
 73
     1
 44
1.0
  0
POINT
  5
E6C
330
9C6
100
AcDbEntity
  8
DEFPOINTS
 62
     0
100
AcDbPoint
 10
267.1512383696523
 20
114.9375680934471
 30
0.0
  0
POINT
  5
E6D
330
9C6
100
AcDbEntity
  8
DEFPOINTS
 62
     0
100
AcDbPoint
 10
276.3933465368559
 20
99.93756809344711
 30
0.0
  0
POINT
  5
E6E
330
9C6
100
AcDbEntity
  8
DEFPOINTS
 62
     0
100
AcDbPoint
 10
276.6524866313555
 20
99.93756809344711
 30
0.0
  0
ENDBLK
  5
9D1
330
9C6
100
AcDbEntity
  8
0
100
AcDbBlockEnd
  0
BLOCK
  5
9D4
330
9D3
100
AcDbEntity
  8
0
100
AcDbBlockBegin
  2
*D12
 70
     1
 10
0.0
 20
0.0
 30
0.0
  3
*D12
  1

  0
LINE
  5
E5D
330
9D3
100
AcDbEntity
  8
寸法線
 62
     2
370
    -2
100
AcDbLine
 10
277.9024866313555
 20
114.9375680934471
 30
0.0
 11
283.8627250837315
 21
114.9375680934471
 31
0.0
  0
LINE
  5
E5E
330
9D3
100
AcDbEntity
  8
寸法線
 62
     2
370
    -2
100
AcDbLine
 10
267.1512383696521
 20
74.93756809344711
 30
0.0
 11
283.8627250837315
 21
74.93756809344711
 31
0.0
  0
LINE
  5
E5F
330
9D3
100
AcDbEntity
  8
寸法線
 62
     2
370
    -2
100
AcDbLine
 10
282.6127250837314
 20
112.4375680934471
 30
0.0
 11
282.6127250837314
 21
77.43756809344711
 31
0.0
  0
INSERT
  5
E60
330
9D3
100
AcDbEntity
  8
寸法線
 62
     2
370
    -2
100
AcDbBlockReference
  2
_OPEN
 10
282.6127250837314
 20
114.9375680934471
 30
0.0
 41
2.5
 42
2.5
 43
2.5
 50
90.0
  0
INSERT
  5
E61
330
9D3
100
AcDbEntity
  8
寸法線
 62
     2
370
    -2
100
AcDbBlockReference
  2
_OPEN
 10
282.6127250837314
 20
74.93756809344711
 30
0.0
 41
2.5
 42
2.5
 43
2.5
 50
270.0
  0
MTEXT
  5
E62
330
9D3
100
AcDbEntity
  8
寸法線
 62
     6
100
AcDbMText
 10
280.7377250837315
 20
94.93756809344715
 30
0.0
 40
2.5
 41
0.0
 71
     5
 72
     1
  1
\A1;40
  7
STYLE3
 11
0.0000000000000001
 21
1.0
 31
0.0
 73
     1
 44
1.0
  0
POINT
  5
E63
330
9D3
100
AcDbEntity
  8
DEFPOINTS
 62
     0
100
AcDbPoint
 10
277.9024866313555
 20
114.9375680934471
 30
0.0
  0
POINT
  5
E64
330
9D3
100
AcDbEntity
  8
DEFPOINTS
 62
     0
100
AcDbPoint
 10
267.1512383696521
 20
74.93756809344711
 30
0.0
  0
POINT
  5
E65
330
9D3
100
AcDbEntity
  8
DEFPOINTS
 62
     0
100
AcDbPoint
 10
282.6127250837314
 20
74.93756809344711
 30
0.0
  0
ENDBLK
  5
9DE
330
9D3
100
AcDbEntity
  8
0
100
AcDbBlockEnd
  0
BLOCK
  5
9E1
330
9E0
100
AcDbEntity
  8
0
100
AcDbBlockBegin
  2
*D13
 70
     1
 10
0.0
 20
0.0
 30
0.0
  3
*D13
  1

  0
LINE
  5
E54
330
9E0
100
AcDbEntity
  8
寸法線
 62
     2
370
    -2
100
AcDbLine
 10
264.3171604398838
 20
120.9375680934471
 30
0.0
 11
291.1186663341607
 21
120.9375680934471
 31
0.0
  0
LINE
  5
E55
330
9E0
100
AcDbEntity
  8
寸法線
 62
     2
370
    -2
100
AcDbLine
 10
264.3171604398836
 20
67.93756809344711
 30
0.0
 11
291.1186663341607
 21
67.9375680934471
 31
0.0
  0
LINE
  5
E56
330
9E0
100
AcDbEntity
  8
寸法線
 62
     2
370
    -2
100
AcDbLine
 10
289.8686663341607
 20
118.4375680934471
 30
0.0
 11
289.8686663341607
 21
70.4375680934471
 31
0.0
  0
INSERT
  5
E57
330
9E0
100
AcDbEntity
  8
寸法線
 62
     2
370
    -2
100
AcDbBlockReference
  2
_OPEN
 10
289.8686663341607
 20
120.9375680934471
 30
0.0
 41
2.5
 42
2.5
 43
2.5
 50
90.0
  0
INSERT
  5
E58
330
9E0
100
AcDbEntity
  8
寸法線
 62
     2
370
    -2
100
AcDbBlockReference
  2
_OPEN
 10
289.8686663341607
 20
67.9375680934471
 30
0.0
 41
2.5
 42
2.5
 43
2.5
 50
270.0
  0
MTEXT
  5
E59
330
9E0
100
AcDbEntity
  8
寸法線
 62
     6
100
AcDbMText
 10
287.9936663341607
 20
94.43756809344716
 30
0.0
 40
2.5
 41
0.0
 71
     5
 72
     1
  1
\A1;53
  7
STYLE3
 11
0.0000000000000001
 21
1.0
 31
0.0
 73
     1
 44
1.0
  0
POINT
  5
E5A
330
9E0
100
AcDbEntity
  8
DEFPOINTS
 62
     0
100
AcDbPoint
 10
264.3171604398838
 20
120.9375680934471
 30
0.0
  0
POINT
  5
E5B
330
9E0
100
AcDbEntity
  8
DEFPOINTS
 62
     0
100
AcDbPoint
 10
264.3171604398836
 20
67.93756809344711
 30
0.0
  0
POINT
  5
E5C
330
9E0
100
AcDbEntity
  8
DEFPOINTS
 62
     0
100
AcDbPoint
 10
289.8686663341607
 20
67.9375680934471
 30
0.0
  0
ENDBLK
  5
9EB
330
9E0
100
AcDbEntity
  8
0
100
AcDbBlockEnd
  0
BLOCK
  5
9EE
330
9ED
100
AcDbEntity
  8
0
100
AcDbBlockBegin
  2
*D14
 70
     1
 10
0.0
 20
0.0
 30
0.0
  3
*D14
  1

  0
LINE
  5
E6F
330
9ED
100
AcDbEntity
  8
寸法線
 62
     2
370
    -2
100
AcDbLine
 10
239.5953554446014
 20
120.9375680934471
 30
0.0
 11
242.6593407572086
 21
120.9375680934471
 31
0.0
  0
LINE
  5
E70
330
9ED
100
AcDbEntity
  8
寸法線
 62
     2
370
    -2
100
AcDbLine
 10
241.4093407572086
 20
99.93756809344711
 30
0.0
 11
242.6593407572086
 21
99.93756809344711
 31
0.0
  0
LINE
  5
E71
330
9ED
100
AcDbEntity
  8
寸法線
 62
     2
370
    -2
100
AcDbLine
 10
241.4093407572086
 20
118.4375680934471
 30
0.0
 11
241.4093407572086
 21
102.4375680934471
 31
0.0
  0
INSERT
  5
E72
330
9ED
100
AcDbEntity
  8
寸法線
 62
     2
370
    -2
100
AcDbBlockReference
  2
_OPEN
 10
241.4093407572086
 20
120.9375680934471
 30
0.0
 41
2.5
 42
2.5
 43
2.5
 50
90.0
  0
INSERT
  5
E73
330
9ED
100
AcDbEntity
  8
寸法線
 62
     2
370
    -2
100
AcDbBlockReference
  2
_OPEN
 10
241.4093407572086
 20
99.93756809344711
 30
0.0
 41
2.5
 42
2.5
 43
2.5
 50
270.0
  0
MTEXT
  5
E74
330
9ED
100
AcDbEntity
  8
寸法線
 62
     6
100
AcDbMText
 10
239.5343407572086
 20
110.4375680934471
 30
0.0
 40
2.5
 41
0.0
 71
     5
 72
     1
  1
\A1;21
  7
STYLE3
 11
0.0000000000000001
 21
1.0
 31
0.0
 73
     1
 44
1.0
  0
POINT
  5
E75
330
9ED
100
AcDbEntity
  8
DEFPOINTS
 62
     0
100
AcDbPoint
 10
239.5953554446014
 20
120.9375680934471
 30
0.0
  0
POINT
  5
E76
330
9ED
100
AcDbEntity
  8
DEFPOINTS
 62
     0
100
AcDbPoint
 10
241.4093407572086
 20
99.93756809344711
 30
0.0
  0
POINT
  5
E77
330
9ED
100
AcDbEntity
  8
DEFPOINTS
 62
     0
100
AcDbPoint
 10
241.4093407572086
 20
99.93756809344711
 30
0.0
  0
ENDBLK
  5
9F8
330
9ED
100
AcDbEntity
  8
0
100
AcDbBlockEnd
  0
BLOCK
  5
A60
330
9FB
100
AcDbEntity
  8
0
100
AcDbBlockBegin
  2
*D15
 70
     1
 10
0.0
 20
0.0
 30
0.0
  3
*D15
  1

  0
LINE
  5
E78
330
9FB
100
AcDbEntity
  8
寸法線
 62
     2
370
    -2
100
AcDbLine
 10
367.3171604398838
 20
99.93756809344711
 30
0.0
 11
367.3171604398838
 21
133.9798233399029
 31
0.0
  0
LINE
  5
E79
330
9FB
100
AcDbEntity
  8
寸法線
 62
     2
370
    -2
100
AcDbLine
 10
353.3171604398837
 20
114.6962133725683
 30
0.0
 11
353.3171604398837
 21
133.9798233399029
 31
0.0
  0
LINE
  5
E7A
330
9FB
100
AcDbEntity
  8
寸法線
 62
     2
370
    -2
100
AcDbLine
 10
364.8171604398838
 20
132.7298233399029
 30
0.0
 11
355.8171604398837
 21
132.7298233399029
 31
0.0
  0
INSERT
  5
E7B
330
9FB
100
AcDbEntity
  8
寸法線
 62
     2
370
    -2
100
AcDbBlockReference
  2
_OPEN
 10
367.3171604398838
 20
132.7298233399029
 30
0.0
 41
2.5
 42
2.5
 43
2.5
  0
INSERT
  5
E7C
330
9FB
100
AcDbEntity
  8
寸法線
 62
     2
370
    -2
100
AcDbBlockReference
  2
_OPEN
 10
353.3171604398837
 20
132.7298233399029
 30
0.0
 41
2.5
 42
2.5
 43
2.5
 50
180.0
  0
MTEXT
  5
E7D
330
9FB
100
AcDbEntity
  8
寸法線
 62
     6
100
AcDbMText
 10
360.3171604398838
 20
134.6048233399029
 30
0.0
 40
2.5
 41
0.0
 71
     5
 72
     1
  1
\A1;14
  7
STYLE3
 73
     1
 44
1.0
  0
POINT
  5
E7E
330
9FB
100
AcDbEntity
  8
DEFPOINTS
 62
     0
100
AcDbPoint
 10
367.3171604398838
 20
99.93756809344711
 30
0.0
  0
POINT
  5
E7F
330
9FB
100
AcDbEntity
  8
DEFPOINTS
 62
     0
100
AcDbPoint
 10
353.3171604398837
 20
114.6962133725683
 30
0.0
  0
POINT
  5
E80
330
9FB
100
AcDbEntity
  8
DEFPOINTS
 62
     0
100
AcDbPoint
 10
353.3171604398837
 20
132.7298233399029
 30
0.0
  0
ENDBLK
  5
A6A
330
9FB
100
AcDbEntity
  8
0
100
AcDbBlockEnd
  0
BLOCK
  5
AE4
330
A08
100
AcDbEntity
  8
0
100
AcDbBlockBegin
  2
*D16
 70
     1
 10
0.0
 20
0.0
 30
0.0
  3
*D16
  1

  0
LINE
  5
E44
330
A08
100
AcDbEntity
  8
寸法線
 62
     2
370
    -2
100
AcDbLine
 10
298.3171604398838
 20
107.9375680934472
 30
0.0
 11
298.3171604398838
 21
133.9798233399029
 31
0.0
  0
LINE
  5
E45
330
A08
100
AcDbEntity
  8
寸法線
 62
     2
370
    -2
100
AcDbLine
 10
350.8171604398837
 20
132.7298233399029
 30
0.0
 11
300.8171604398838
 21
132.7298233399029
 31
0.0
  0
INSERT
  5
E46
330
A08
100
AcDbEntity
  8
寸法線
 62
     2
370
    -2
100
AcDbBlockReference
  2
_OPEN
 10
353.3171604398837
 20
132.7298233399029
 30
0.0
 41
2.5
 42
2.5
 43
2.5
  0
INSERT
  5
E47
330
A08
100
AcDbEntity
  8
寸法線
 62
     2
370
    -2
100
AcDbBlockReference
  2
_OPEN
 10
298.3171604398838
 20
132.7298233399029
 30
0.0
 41
2.5
 42
2.5
 43
2.5
 50
180.0
  0
MTEXT
  5
E48
330
A08
100
AcDbEntity
  8
寸法線
 62
     6
100
AcDbMText
 10
325.8171604398838
 20
134.6048233399029
 30
0.0
 40
2.5
 41
0.0
 71
     5
 72
     1
  1
\A1;105
  7
STYLE3
 73
     1
 44
1.0
  0
POINT
  5
E49
330
A08
100
AcDbEntity
  8
DEFPOINTS
 62
     0
100
AcDbPoint
 10
353.3171604398837
 20
114.6962133725683
 30
0.0
  0
POINT
  5
E4A
330
A08
100
AcDbEntity
  8
DEFPOINTS
 62
     0
100
AcDbPoint
 10
298.3171604398838
 20
107.9375680934472
 30
0.0
  0
POINT
  5
E4B
330
A08
100
AcDbEntity
  8
DEFPOINTS
 62
     0
100
AcDbPoint
 10
298.3171604398838
 20
132.7298233399029
 30
0.0
  0
ENDBLK
  5
AED
330
A08
100
AcDbEntity
  8
0
100
AcDbBlockEnd
  0
BLOCK
  5
A56
330
A14
100
AcDbEntity
  8
0
100
AcDbBlockBegin
  2
*D17
 70
     1
 10
0.0
 20
0.0
 30
0.0
  3
*D17
  1

  0
LINE
  5
E4C
330
A14
100
AcDbEntity
  8
寸法線
 62
     2
370
    -2
100
AcDbLine
 10
268.3171604398837
 20
110.9375680934471
 30
0.0
 11
268.3171604398837
 21
133.9798233399029
 31
0.0
  0
LINE
  5
E4D
330
A14
100
AcDbEntity
  8
寸法線
 62
     2
370
    -2
100
AcDbLine
 10
295.8171604398838
 20
132.7298233399029
 30
0.0
 11
270.8171604398837
 21
132.7298233399029
 31
0.0
  0
INSERT
  5
E4E
330
A14
100
AcDbEntity
  8
寸法線
 62
     2
370
    -2
100
AcDbBlockReference
  2
_OPEN
 10
298.3171604398838
 20
132.7298233399029
 30
0.0
 41
2.5
 42
2.5
 43
2.5
  0
INSERT
  5
E4F
330
A14
100
AcDbEntity
  8
寸法線
 62
     2
370
    -2
100
AcDbBlockReference
  2
_OPEN
 10
268.3171604398837
 20
132.7298233399029
 30
0.0
 41
2.5
 42
2.5
 43
2.5
 50
180.0
  0
MTEXT
  5
E50
330
A14
100
AcDbEntity
  8
寸法線
 62
     6
100
AcDbMText
 10
283.3171604398838
 20
134.6048233399029
 30
0.0
 40
2.5
 41
0.0
 71
     5
 72
     1
  1
\A1;30
  7
STYLE3
 73
     1
 44
1.0
  0
POINT
  5
E51
330
A14
100
AcDbEntity
  8
DEFPOINTS
 62
     0
100
AcDbPoint
 10
298.3171604398838
 20
107.9375680934472
 30
0.0
  0
POINT
  5
E52
330
A14
100
AcDbEntity
  8
DEFPOINTS
 62
     0
100
AcDbPoint
 10
268.3171604398837
 20
110.9375680934471
 30
0.0
  0
POINT
  5
E53
330
A14
100
AcDbEntity
  8
DEFPOINTS
 62
     0
100
AcDbPoint
 10
268.3171604398837
 20
132.7298233399029
 30
0.0
  0
ENDBLK
  5
A5F
330
A14
100
AcDbEntity
  8
0
100
AcDbBlockEnd
  0
BLOCK
  5
ACB
330
A20
100
AcDbEntity
  8
0
100
AcDbBlockBegin
  2
*D18
 70
     1
 10
0.0
 20
0.0
 30
0.0
  3
*D18
  1

  0
LINE
  5
E2B
330
A20
100
AcDbEntity
  8
寸法線
 62
     2
370
    -2
100
AcDbLine
 10
119.3171604398838
 20
119.9375680934471
 30
0.0
 11
119.3171604398838
 21
133.9798233399029
 31
0.0
  0
LINE
  5
E2C
330
A20
100
AcDbEntity
  8
寸法線
 62
     2
370
    -2
100
AcDbLine
 10
265.8171604398837
 20
132.7298233399029
 30
0.0
 11
121.8171604398838
 21
132.7298233399029
 31
0.0
  0
INSERT
  5
E2D
330
A20
100
AcDbEntity
  8
寸法線
 62
     2
370
    -2
100
AcDbBlockReference
  2
_OPEN
 10
268.3171604398837
 20
132.7298233399029
 30
0.0
 41
2.5
 42
2.5
 43
2.5
  0
INSERT
  5
E2E
330
A20
100
AcDbEntity
  8
寸法線
 62
     2
370
    -2
100
AcDbBlockReference
  2
_OPEN
 10
119.3171604398838
 20
132.7298233399029
 30
0.0
 41
2.5
 42
2.5
 43
2.5
 50
180.0
  0
MTEXT
  5
E2F
330
A20
100
AcDbEntity
  8
寸法線
 62
     6
100
AcDbMText
 10
193.8171604398837
 20
134.6048233399029
 30
0.0
 40
2.5
 41
0.0
 71
     5
 72
     1
  1
\A1;149
  7
STYLE3
 73
     1
 44
1.0
  0
POINT
  5
E30
330
A20
100
AcDbEntity
  8
DEFPOINTS
 62
     0
100
AcDbPoint
 10
268.3171604398837
 20
110.9375680934471
 30
0.0
  0
POINT
  5
E31
330
A20
100
AcDbEntity
  8
DEFPOINTS
 62
     0
100
AcDbPoint
 10
119.3171604398838
 20
119.9375680934471
 30
0.0
  0
POINT
  5
E32
330
A20
100
AcDbEntity
  8
DEFPOINTS
 62
     0
100
AcDbPoint
 10
119.3171604398838
 20
132.7298233399029
 30
0.0
  0
ENDBLK
  5
AD4
330
A20
100
AcDbEntity
  8
0
100
AcDbBlockEnd
  0
BLOCK
  5
B13
330
A2C
100
AcDbEntity
  8
0
100
AcDbBlockBegin
  2
*D19
 70
     1
 10
0.0
 20
0.0
 30
0.0
  3
*D19
  1

  0
LINE
  5
E33
330
A2C
100
AcDbEntity
  8
寸法線
 62
     2
370
    -2
100
AcDbLine
 10
17.08873217424252
 20
108.4375680934471
 30
0.0
 11
17.08873217424252
 21
133.9798233399029
 31
0.0
  0
LINE
  5
E34
330
A2C
100
AcDbEntity
  8
寸法線
 62
     2
370
    -2
100
AcDbLine
 10
116.8171604398838
 20
132.7298233399029
 30
0.0
 11
19.58873217424252
 21
132.7298233399029
 31
0.0
  0
INSERT
  5
E35
330
A2C
100
AcDbEntity
  8
寸法線
 62
     2
370
    -2
100
AcDbBlockReference
  2
_OPEN
 10
119.3171604398838
 20
132.7298233399029
 30
0.0
 41
2.5
 42
2.5
 43
2.5
  0
INSERT
  5
E36
330
A2C
100
AcDbEntity
  8
寸法線
 62
     2
370
    -2
100
AcDbBlockReference
  2
_OPEN
 10
17.08873217424252
 20
132.7298233399029
 30
0.0
 41
2.5
 42
2.5
 43
2.5
 50
180.0
  0
MTEXT
  5
E37
330
A2C
100
AcDbEntity
  8
寸法線
 62
     6
100
AcDbMText
 10
68.20294630706317
 20
134.6048233399029
 30
0.0
 40
2.5
 41
0.0
 71
     5
 72
     1
  1
\A1;132.5
  7
STYLE3
 73
     1
 44
1.0
  0
POINT
  5
E38
330
A2C
100
AcDbEntity
  8
DEFPOINTS
 62
     0
100
AcDbPoint
 10
119.3171604398838
 20
119.9375680934471
 30
0.0
  0
POINT
  5
E39
330
A2C
100
AcDbEntity
  8
DEFPOINTS
 62
     0
100
AcDbPoint
 10
17.08873217424252
 20
108.4375680934471
 30
0.0
  0
POINT
  5
E3A
330
A2C
100
AcDbEntity
  8
DEFPOINTS
 62
     0
100
AcDbPoint
 10
17.08873217424252
 20
132.7298233399029
 30
0.0
  0
ENDBLK
  5
B1C
330
A2C
100
AcDbEntity
  8
0
100
AcDbBlockEnd
  0
BLOCK
  5
B1D
330
A6B
100
AcDbEntity
  8
0
100
AcDbBlockBegin
  2
*D20
 70
     1
 10
0.0
 20
0.0
 30
0.0
  3
*D20
  1

  0
LINE
  5
E22
330
A6B
100
AcDbEntity
  8
寸法線
 62
     2
370
    -2
100
AcDbLine
 10
17.08873217424252
 20
133.9798233399029
 30
0.0
 11
17.08873217424252
 21
140.6230980682546
 31
0.0
  0
LINE
  5
E23
330
A6B
100
AcDbEntity
  8
寸法線
 62
     2
370
    -2
100
AcDbLine
 10
367.3171604398838
 20
133.9798233399029
 30
0.0
 11
367.3171604398838
 21
140.6230980682546
 31
0.0
  0
LINE
  5
E24
330
A6B
100
AcDbEntity
  8
寸法線
 62
     2
370
    -2
100
AcDbLine
 10
19.58873217424252
 20
139.3730980682546
 30
0.0
 11
364.8171604398838
 21
139.3730980682546
 31
0.0
  0
INSERT
  5
E25
330
A6B
100
AcDbEntity
  8
寸法線
 62
     2
370
    -2
100
AcDbBlockReference
  2
_OPEN
 10
17.08873217424252
 20
139.3730980682546
 30
0.0
 41
2.5
 42
2.5
 43
2.5
 50
180.0
  0
INSERT
  5
E26
330
A6B
100
AcDbEntity
  8
寸法線
 62
     2
370
    -2
100
AcDbBlockReference
  2
_OPEN
 10
367.3171604398838
 20
139.3730980682546
 30
0.0
 41
2.5
 42
2.5
 43
2.5
  0
MTEXT
  5
E27
330
A6B
100
AcDbEntity
  8
寸法線
 62
     6
100
AcDbMText
 10
192.2029463070631
 20
141.2480980682546
 30
0.0
 40
2.5
 41
0.0
 71
     5
 72
     1
  1
\A1;430.5
  7
STYLE3
 73
     1
 44
1.0
  0
POINT
  5
E28
330
A6B
100
AcDbEntity
  8
DEFPOINTS
 62
     0
100
AcDbPoint
 10
17.08873217424252
 20
133.9798233399029
 30
0.0
  0
POINT
  5
E29
330
A6B
100
AcDbEntity
  8
DEFPOINTS
 62
     0
100
AcDbPoint
 10
367.3171604398838
 20
133.9798233399029
 30
0.0
  0
POINT
  5
E2A
330
A6B
100
AcDbEntity
  8
DEFPOINTS
 62
     0
100
AcDbPoint
 10
367.3171604398838
 20
139.3730980682546
 30
0.0
  0
ENDBLK
  5
B27
330
A6B
100
AcDbEntity
  8
0
100
AcDbBlockEnd
  0
BLOCK
  5
B29
330
B28
100
AcDbEntity
  8
0
100
AcDbBlockBegin
  2
*D21
 70
     1
 10
0.0
 20
0.0
 30
0.0
  3
*D21
  1

  0
LINE
  5
E92
330
B28
100
AcDbEntity
  8
寸法線
 62
     2
370
    -2
100
AcDbLine
 10
251.3171604398838
 20
205.2713680274449
 30
0.0
 11
251.3171604398838
 21
215.010984501613
 31
0.0
  0
LINE
  5
E93
330
B28
100
AcDbEntity
  8
寸法線
 62
     2
370
    -2
100
AcDbLine
 10
268.3171604398838
 20
201.2713680274448
 30
0.0
 11
268.3171604398838
 21
215.010984501613
 31
0.0
  0
LINE
  5
E94
330
B28
100
AcDbEntity
  8
寸法線
 62
     2
370
    -2
100
AcDbLine
 10
253.8171604398838
 20
213.7609845016131
 30
0.0
 11
265.8171604398837
 21
213.7609845016131
 31
0.0
  0
INSERT
  5
E95
330
B28
100
AcDbEntity
  8
寸法線
 62
     2
370
    -2
100
AcDbBlockReference
  2
_OPEN
 10
251.3171604398838
 20
213.7609845016131
 30
0.0
 41
2.5
 42
2.5
 43
2.5
 50
180.0
  0
INSERT
  5
E96
330
B28
100
AcDbEntity
  8
寸法線
 62
     2
370
    -2
100
AcDbBlockReference
  2
_OPEN
 10
268.3171604398838
 20
213.7609845016131
 30
0.0
 41
2.5
 42
2.5
 43
2.5
  0
MTEXT
  5
E97
330
B28
100
AcDbEntity
  8
寸法線
 62
     6
100
AcDbMText
 10
259.8171604398838
 20
215.635984501613
 30
0.0
 40
2.5
 41
0.0
 71
     5
 72
     1
  1
\A1;17
  7
STYLE3
 73
     1
 44
1.0
  0
POINT
  5
E98
330
B28
100
AcDbEntity
  8
DEFPOINTS
 62
     0
100
AcDbPoint
 10
251.3171604398838
 20
205.2713680274449
 30
0.0
  0
POINT
  5
E99
330
B28
100
AcDbEntity
  8
DEFPOINTS
 62
     0
100
AcDbPoint
 10
268.3171604398838
 20
201.2713680274448
 30
0.0
  0
POINT
  5
E9A
330
B28
100
AcDbEntity
  8
DEFPOINTS
 62
     0
100
AcDbPoint
 10
268.3171604398838
 20
213.7609845016131
 30
0.0
  0
ENDBLK
  5
B33
330
B28
100
AcDbEntity
  8
0
100
AcDbBlockEnd
  0
BLOCK
  5
BAF
330
B5C
100
AcDbEntity
  8
0
100
AcDbBlockBegin
  2
A$C46B047FA
 70
     0
 10
0.0
 20
0.0
 30
0.0
  3
A$C46B047FA
  1

  0
LINE
  5
B5D
102
{ACAD_REACTORS
330
B60
102
}
330
B5C
100
AcDbEntity
  8
ROGO
 62
     4
100
AcDbLine
 10
5.483320721481106
 20
0.5346185261392407
 30
0.0
 11
4.957014942215948
 21
0.5346185261392407
 31
0.0
  0
LINE
  5
B5E
102
{ACAD_REACTORS
330
B60
102
}
330
B5C
100
AcDbEntity
  8
ROGO
 62
     4
100
AcDbLine
 10
4.798028326966687
 20
1.484935992939711
 30
0.0
 11
5.483320721481106
 21
0.5346185261392407
 31
0.0
  0
LINE
  5
B5F
102
{ACAD_REACTORS
330
B61
102
}
330
B5C
100
AcDbEntity
  8
ROGO
 62
     4
100
AcDbLine
 10
0.7472799628276335
 20
0.1488426046267932
 30
0.0
 11
9.578582315110054
 21
0.1488426046267932
 31
0.0
  0
HATCH
  5
B60
330
B5C
100
AcDbEntity
  8
ROGO
 62
     4
100
AcDbHatch
 10
0.0
 20
0.0
 30
0.0
210
0.0
220
0.0
230
1.0
  2
SOLID
 70
     1
 71
     1
 91
        2
 92
        7
 72
     0
 73
     1
 93
        8
 10
4.798028326966687
 20
1.484935992939597
 10
4.24878199962751
 20
1.484935992939597
 10
3.56348960511309
 20
0.534618526139127
 10
4.089795384378248
 20
0.534618526139127
 10
4.220270816254185
 20
0.7155530920158526
 10
4.826539510339955
 20
0.7155530920157958
 10
4.957014942215948
 20
0.534618526139127
 10
5.483320721481106
 20
0.534618526139127
 97
        8
330
B81
330
B7C
330
B77
330
B7B
330
B82
330
B68
330
B5D
330
B5E
 92
       22
 72
     0
 73
     1
 93
        3
 10
4.688923137875178
 20
0.906390234698108
 10
4.357887188719018
 20
0.906390234698108
 10
4.52340516329707
 20
1.135919445251261
 97
        3
330
B66
330
B67
330
B65
 75
     0
 76
     1
 47
0.0514683685270805
 98
        2
 10
4.861853918220901
 20
0.9980511167917711
 10
4.861853918220901
 20
0.9980511167917711
450
        0
451
        0
460
0.0
461
0.0
452
        0
462
0.0
453
        0
470

  0
HATCH
  5
B61
330
B5C
100
AcDbEntity
  8
ROGO
 62
     4
100
AcDbHatch
 10
0.0
 20
0.0
 30
0.0
210
0.0
220
0.0
230
1.0
  2
SOLID
 70
     1
 71
     1
 91
        1
 92
        7
 72
     0
 73
     1
 93
        4
 10
9.578582315110054
 20
0.1488426046266795
 10
0.757602359408736
 20
0.1488426046266795
 10
0.6902617161883314
 20
-0.0000000591880962
 10
9.504364555761469
 20
-0.0000000591880962
 97
        4
330
B5F
330
B79
330
B62
330
B84
 75
     0
 76
     1
 47
0.0514683685270805
 98
        1
 10
6.327335468702983
 20
0.1094761121222518
450
        0
451
        0
460
0.0
461
0.0
452
        0
462
0.0
453
        0
470

  0
LINE
  5
B62
102
{ACAD_REACTORS
330
B61
330
B85
330
B64
102
}
330
B5C
100
AcDbEntity
  8
ROGO
 62
     4
100
AcDbLine
 10
-0.0000000265826543
 20
-0.0000000591879825
 30
0.0
 11
10.05153918222152
 21
-0.0000000591879825
 31
0.0
  0
LINE
  5
B63
102
{ACAD_REACTORS
330
B64
102
}
330
B5C
100
AcDbEntity
  8
ROGO
 62
     4
100
AcDbLine
 10
0.7347325219557206
 20
1.484935992939711
 30
0.0
 11
-0.0000000265826543
 21
-0.0000000591879825
 31
0.0
  0
HATCH
  5
B64
330
B5C
100
AcDbEntity
  8
ROGO
 62
     4
100
AcDbHatch
 10
0.0
 20
0.0
 30
0.0
210
0.0
220
0.0
230
1.0
  2
SOLID
 70
     1
 71
     1
 91
        2
 92
        5
 93
        6
 72
     4
 94
        3
 73
     0
 74
     0
 95
       18
 96
       14
 40
0.108740278791501
 40
0.108740278791501
 40
0.108740278791501
 40
0.108740278791501
 40
0.6623149649549278
 40
1.384304701649787
 40
2.097394834876493
 40
2.774073369849618
 40
3.428974823686337
 40
4.005208313035923
 40
4.455173659284313
 40
4.720999734343524
 40
5.086034088486724
 40
5.569973738255373
 40
6.060470601257719
 40
6.060470601257719
 40
6.060470601257719
 40
6.060470601257719
 10
1.577391485369219
 20
0.534618526139127
 10
1.622803336473907
 20
0.5349566944440767
 10
1.727442770127709
 20
0.5357359126228403
 10
1.873832519012296
 20
0.613940533182074
 10
2.012651827277124
 20
0.713567521861819
 10
2.124461336400656
 20
0.8380410501108599
 10
2.194122029264406
 20
0.98035520437395
 10
2.204912250403367
 20
1.116750249304743
 10
2.198325085495298
 20
1.224637034167358
 10
2.151256483647159
 20
1.299836801611604
 10
2.102322928309888
 20
1.376156875384538
 10
2.012595334482341
 20
1.442268158006243
 10
1.939076563619892
 20
1.471234727313287
 10
1.901690773369352
 20
1.484935992939654
 72
     1
 10
1.901690773369466
 20
1.484935992939597
 11
0.7347325219557206
 21
1.484935992939597
 72
     1
 10
0.7347325219557206
 20
1.484935992939597
 11
-0.0000000265826543
 21
-0.000000059188096
 72
     1
 10
-0.0000000265826543
 20
-0.0000000591880962
 11
0.6902617161883314
 21
-0.0000000591880962
 72
     1
 10
0.6902617161883314
 20
-0.0000000591880962
 11
0.932138329323493
 21
0.5346185261391269
 72
     1
 10
0.932138329323493
 20
0.534618526139127
 11
1.577391485369219
 21
0.534618526139127
 97
        6
330
B7F
330
B76
330
B63
330
B62
330
B79
330
B7A
 92
       20
 93
        4
 72
     1
 10
1.081483445011883
 20
0.8647152371851802
 11
1.195825786135401
 21
1.117445502679345
 72
     1
 10
1.195825786135401
 20
1.117445502679288
 11
1.489636870927654
 21
1.117445502679288
 72
     4
 94
        3
 73
     0
 74
     0
 95
       15
 96
       11
 40
0.0
 40
0.0
 40
0.0
 40
0.0
 40
0.458245544397197
 40
0.6671803073175111
 40
0.9043351724393449
 40
1.065896092998139
 40
1.321406364485703
 40
1.474450037341961
 40
1.737022829061231
 40
1.824547148828933
 40
1.824547148828933
 40
1.824547148828933
 40
1.824547148828933
 10
1.489636870927427
 20
1.117445502679288
 10
1.531486993944213
 20
1.117637198581689
 10
1.592418471133726
 20
1.117916297271506
 10
1.625737972995125
 20
1.042543883780695
 10
1.61080258358146
 20
0.9940158074456348
 10
1.592027581834656
 20
0.9441925981577696
 10
1.558847901491105
 20
0.9103369760057944
 10
1.514315910544837
 20
0.8777283046038064
 10
1.472231051009316
 20
0.873780878915852
 10
1.444859574066413
 20
0.8665283662256229
 10
1.438016701555113
 20
0.8647152371851234
 72
     1
 10
1.438016701555113
 20
0.8647152371851802
 11
1.081483445011883
 21
0.8647152371851802
 97
        4
330
B73
330
B75
330
B71
330
B74
 75
     0
 76
     1
 47
0.0514683685270805
 98
        2
 10
0.7409697327581739
 20
1.023081472030241
 10
0.7409697327581739
 20
1.023081472030241
450
        0
451
        0
460
0.0
461
0.0
452
        0
462
0.0
453
        0
470

  0
LINE
  5
B65
102
{ACAD_REACTORS
330
B60
102
}
330
B5C
100
AcDbEntity
  8
ROGO
 62
     4
100
AcDbLine
 10
4.52340516329707
 20
1.135919445251374
 30
0.0
 11
4.688923137875121
 21
0.9063902346982217
 31
0.0
  0
LINE
  5
B66
102
{ACAD_REACTORS
330
B60
102
}
330
B5C
100
AcDbEntity
  8
ROGO
 62
     4
100
AcDbLine
 10
4.357887188719018
 20
0.9063902346982786
 30
0.0
 11
4.688923137875121
 21
0.9063902346982786
 31
0.0
  0
LINE
  5
B67
102
{ACAD_REACTORS
330
B60
102
}
330
B5C
100
AcDbEntity
  8
ROGO
 62
     4
100
AcDbLine
 10
4.52340516329707
 20
1.135919445251374
 30
0.0
 11
4.357887188719018
 21
0.9063902346982217
 31
0.0
  0
LINE
  5
B68
102
{ACAD_REACTORS
330
B60
102
}
330
B5C
100
AcDbEntity
  8
ROGO
 62
     4
100
AcDbLine
 10
4.826539510339955
 20
0.7155530920159663
 30
0.0
 11
4.957014942215948
 21
0.5346185261392407
 31
0.0
  0
LINE
  5
B69
102
{ACAD_REACTORS
330
B80
102
}
330
B5C
100
AcDbEntity
  8
ROGO
 62
     4
100
AcDbLine
 10
2.922617336811697
 20
0.9225102099042601
 30
0.0
 11
2.838397403018575
 21
0.7522969585028818
 31
0.0
  0
LINE
  5
B6A
102
{ACAD_REACTORS
330
B80
102
}
330
B5C
100
AcDbEntity
  8
ROGO
 62
     4
100
AcDbLine
 10
3.684517612092918
 20
1.09704056486214
 30
0.0
 11
3.598161615609569
 21
0.9225102099042601
 31
0.0
  0
LINE
  5
B6B
102
{ACAD_REACTORS
330
B80
102
}
330
B5C
100
AcDbEntity
  8
ROGO
 62
     4
100
AcDbLine
 10
2.922617336811697
 20
0.9225102099042601
 30
0.0
 11
3.598161615609569
 21
0.9225102099043169
 31
0.0
  0
LINE
  5
B6C
102
{ACAD_REACTORS
330
B80
102
}
330
B5C
100
AcDbEntity
  8
ROGO
 62
     4
100
AcDbLine
 10
2.838397403018632
 20
0.7522969585028818
 30
0.0
 11
3.513941681816504
 21
0.7522969585028818
 31
0.0
  0
LINE
  5
B6D
102
{ACAD_REACTORS
330
B80
102
}
330
B5C
100
AcDbEntity
  8
ROGO
 62
     4
100
AcDbLine
 10
3.008973333294989
 20
1.09704056486214
 30
0.0
 11
3.684517612092918
 21
1.09704056486214
 31
0.0
  0
LINE
  5
B6E
102
{ACAD_REACTORS
330
B80
102
}
330
B5C
100
AcDbEntity
  8
ROGO
 62
     4
100
AcDbLine
 10
3.093189701771905
 20
1.267246610557776
 30
0.0
 11
3.768733980569777
 21
1.267246610557776
 31
0.0
  0
LINE
  5
B6F
102
{ACAD_REACTORS
330
B80
102
}
330
B5C
100
AcDbEntity
  8
ROGO
 62
     4
100
AcDbLine
 10
3.093189701771905
 20
1.267246610557776
 30
0.0
 11
3.008973333294989
 21
1.09704056486214
 31
0.0
  0
LINE
  5
B70
102
{ACAD_REACTORS
330
B80
102
}
330
B5C
100
AcDbEntity
  8
ROGO
 62
     4
100
AcDbLine
 10
3.876444662439212
 20
1.484935992939711
 30
0.0
 11
3.768733980569777
 21
1.267246610557776
 31
0.0
  0
SPLINE
  5
B71
102
{ACAD_REACTORS
330
B64
102
}
330
B5C
100
AcDbEntity
  8
ROGO
 62
     4
100
AcDbSpline
210
0.0
220
0.0
230
1.0
 70
     8
 71
     3
 72
    15
 73
    11
 74
     9
 42
0.0000000001
 43
0.0000000001
 44
0.0000000001
 40
0.0
 40
0.0
 40
0.0
 40
0.0
 40
0.1114278057886432
 40
0.1622327562563865
 40
0.2198997572250677
 40
0.259185199493265
 40
0.3213155338880433
 40
0.3585299069784071
 40
0.4223775764185194
 40
0.4436601464819452
 40
0.4436601464819452
 40
0.4436601464819452
 40
0.4436601464819452
 10
1.489636870927427
 20
1.117445502679402
 30
0.0
 10
1.53148699394423
 20
1.117637198581768
 30
0.0
 10
1.592418471133713
 20
1.117916297271578
 30
0.0
 10
1.625737972995128
 20
1.042543883780852
 30
0.0
 10
1.6108025835815
 20
0.9940158074457743
 30
0.0
 10
1.592027581834693
 20
0.9441925981578666
 30
0.0
 10
1.558847901491109
 20
0.9103369760058937
 30
0.0
 10
1.514315910544882
 20
0.8777283046039702
 30
0.0
 10
1.472231051009326
 20
0.873780878915954
 30
0.0
 10
1.444859574066393
 20
0.8665283662257074
 30
0.0
 10
1.438016701555113
 20
0.8647152371852371
 30
0.0
 11
1.489636870927427
 21
1.117445502679402
 31
0.0
 11
1.59803931565716
 21
1.091656631446085
 31
0.0
 11
1.618687442771317
 21
1.045236831374268
 31
0.0
 11
1.608363527627375
 21
0.9885014828089992
 31
0.0
 11
1.592877506498325
 21
0.9523970630823441
 31
0.0
 11
1.551581252269954
 21
0.9059772630104703
 31
0.0
 11
1.520609210011855
 21
0.8853461660238508
 31
0.0
 11
1.458664828669327
 21
0.8698730114319346
 31
0.0
 11
1.438016701555113
 21
0.8647152371852371
 31
0.0
  0
LINE
  5
B72
102
{ACAD_REACTORS
330
B80
102
}
330
B5C
100
AcDbEntity
  8
ROGO
 62
     4
100
AcDbLine
 10
2.591100753158968
 20
1.484935992939711
 30
0.0
 11
3.876444662439212
 21
1.484935992939767
 31
0.0
  0
LINE
  5
B73
102
{ACAD_REACTORS
330
B64
102
}
330
B5C
100
AcDbEntity
  8
ROGO
 62
     4
100
AcDbLine
 10
1.195825786135401
 20
1.117445502679402
 30
0.0
 11
1.081483445011883
 21
0.8647152371852939
 31
0.0
  0
LINE
  5
B74
102
{ACAD_REACTORS
330
B64
102
}
330
B5C
100
AcDbEntity
  8
ROGO
 62
     4
100
AcDbLine
 10
1.438016701555113
 20
0.8647152371852371
 30
0.0
 11
1.081483445011883
 21
0.8647152371852939
 31
0.0
  0
LINE
  5
B75
102
{ACAD_REACTORS
330
B64
102
}
330
B5C
100
AcDbEntity
  8
ROGO
 62
     4
100
AcDbLine
 10
1.489636870927427
 20
1.117445502679402
 30
0.0
 11
1.195825786135401
 21
1.117445502679402
 31
0.0
  0
LINE
  5
B76
102
{ACAD_REACTORS
330
B64
102
}
330
B5C
100
AcDbEntity
  8
ROGO
 62
     4
100
AcDbLine
 10
0.7347325219557206
 20
1.484935992939711
 30
0.0
 11
1.901690773369352
 21
1.484935992939711
 31
0.0
  0
LINE
  5
B77
102
{ACAD_REACTORS
330
B60
102
}
330
B5C
100
AcDbEntity
  8
ROGO
 62
     4
100
AcDbLine
 10
3.56348960511309
 20
0.5346185261392407
 30
0.0
 11
4.089795384378248
 21
0.5346185261392407
 31
0.0
  0
LINE
  5
B78
102
{ACAD_REACTORS
330
B80
102
}
330
B5C
100
AcDbEntity
  8
ROGO
 62
     4
100
AcDbLine
 10
2.120892508634028
 20
0.5346185261392407
 30
0.0
 11
3.406236417914271
 21
0.5346185261392407
 31
0.0
  0
LINE
  5
B79
102
{ACAD_REACTORS
330
B61
330
B64
102
}
330
B5C
100
AcDbEntity
  8
ROGO
 62
     4
100
AcDbLine
 10
0.932138329323493
 20
0.5346185261392407
 30
0.0
 11
0.6902617161883314
 21
-0.0000000591879825
 31
0.0
  0
LINE
  5
B7A
102
{ACAD_REACTORS
330
B64
102
}
330
B5C
100
AcDbEntity
  8
ROGO
 62
     4
100
AcDbLine
 10
1.577391485592897
 20
0.5346185261392407
 30
0.0
 11
0.9321383293234362
 21
0.5346185261392407
 31
0.0
  0
LINE
  5
B7B
102
{ACAD_REACTORS
330
B60
102
}
330
B5C
100
AcDbEntity
  8
ROGO
 62
     4
100
AcDbLine
 10
4.220270816254185
 20
0.7155530920159663
 30
0.0
 11
4.089795384378248
 21
0.5346185261392407
 31
0.0
  0
LINE
  5
B7C
102
{ACAD_REACTORS
330
B60
102
}
330
B5C
100
AcDbEntity
  8
ROGO
 62
     4
100
AcDbLine
 10
4.24878199962751
 20
1.484935992939711
 30
0.0
 11
3.56348960511309
 21
0.5346185261392407
 31
0.0
  0
LINE
  5
B7D
102
{ACAD_REACTORS
330
B80
102
}
330
B5C
100
AcDbEntity
  8
ROGO
 62
     4
100
AcDbLine
 10
3.513941681816504
 20
0.7522969585028818
 30
0.0
 11
3.406236417914271
 21
0.5346185261392407
 31
0.0
  0
LINE
  5
B7E
102
{ACAD_REACTORS
330
B80
102
}
330
B5C
100
AcDbEntity
  8
ROGO
 62
     4
100
AcDbLine
 10
2.591100753159025
 20
1.484935992939711
 30
0.0
 11
2.120892508634028
 21
0.5346185261392407
 31
0.0
  0
SPLINE
  5
B7F
102
{ACAD_REACTORS
330
B64
102
}
330
B5C
100
AcDbEntity
  8
ROGO
 62
     4
100
AcDbSpline
210
0.0
220
0.0
230
1.0
 70
     8
 71
     3
 72
    18
 73
    14
 74
     0
 42
0.0000000001
 43
0.0000000001
 40
0.1087402787915014
 40
0.1087402787915014
 40
0.1087402787915014
 40
0.1087402787915014
 40
0.5992371417938475
 40
1.083176791562496
 40
1.448211145705696
 40
1.714037220764907
 40
2.164002567013297
 40
2.740236056362883
 40
3.395137510199602
 40
4.071816045172726
 40
4.784906178399433
 40
5.506895915094292
 40
6.060470601257719
 40
6.060470601257719
 40
6.060470601257719
 40
6.060470601257719
 10
1.901690773369352
 20
1.484935992939767
 30
0.0
 10
1.939076563619892
 20
1.471234727313401
 30
0.0
 10
2.012595334482341
 20
1.442268158006356
 30
0.0
 10
2.102322928309888
 20
1.376156875384708
 30
0.0
 10
2.151256483647159
 20
1.299836801611718
 30
0.0
 10
2.198325085495298
 20
1.224637034167471
 30
0.0
 10
2.204912250403367
 20
1.116750249304857
 30
0.0
 10
2.194122029264406
 20
0.9803552043740637
 30
0.0
 10
2.124461336400656
 20
0.8380410501109736
 30
0.0
 10
2.012651827277124
 20
0.7135675218619327
 30
0.0
 10
1.873832519012296
 20
0.6139405331821877
 30
0.0
 10
1.727442770127709
 20
0.535735912622954
 30
0.0
 10
1.622803336473907
 20
0.5349566944441904
 30
0.0
 10
1.577391485369219
 20
0.5346185261392407
 30
0.0
  0
HATCH
  5
B80
330
B5C
100
AcDbEntity
  8
ROGO
 62
     4
100
AcDbHatch
 10
0.0
 20
0.0
 30
0.0
210
0.0
220
0.0
230
1.0
  2
SOLID
 70
     1
 71
     1
 91
        1
 92
        1
 93
       12
 72
     1
 10
2.591100753158968
 20
1.484935992939597
 11
3.876444662439212
 21
1.484935992939597
 72
     1
 10
3.876444662439212
 20
1.484935992939597
 11
3.76873398056972
 21
1.267246610557663
 72
     1
 10
3.768733980569777
 20
1.267246610557663
 11
3.093189701771905
 21
1.267246610557663
 72
     1
 10
3.093189701771905
 20
1.267246610557663
 11
3.008973333295045
 21
1.097040564862027
 72
     1
 10
3.008973333295045
 20
1.097040564862027
 11
3.684517612092918
 21
1.097040564862027
 72
     1
 10
3.684517612092861
 20
1.097040564862027
 11
3.598161615609512
 21
0.9225102099041464
 72
     1
 10
3.598161615609569
 20
0.9225102099041464
 11
2.922617336811697
 21
0.9225102099041464
 72
     1
 10
2.922617336811697
 20
0.9225102099041464
 11
2.838397403018632
 21
0.7522969585027682
 72
     1
 10
2.838397403018632
 20
0.7522969585027682
 11
3.513941681816504
 21
0.7522969585027682
 72
     1
 10
3.513941681816504
 20
0.7522969585027682
 11
3.406236417914271
 21
0.534618526139127
 72
     1
 10
3.406236417914271
 20
0.534618526139127
 11
2.120892508634028
 21
0.534618526139127
 72
     1
 10
2.120892508634028
 20
0.534618526139127
 11
2.591100753159025
 21
1.484935992939597
 97
       12
330
B72
330
B70
330
B6E
330
B6F
330
B6D
330
B6A
330
B6B
330
B69
330
B6C
330
B7D
330
B78
330
B7E
 75
     0
 76
     1
 98
        1
 10
-49.98549222387413
 20
-64.22526447222606
450
        0
451
        0
460
0.0
461
0.0
452
        0
462
0.0
453
        0
470

  0
LINE
  5
B81
102
{ACAD_REACTORS
330
B60
102
}
330
B5C
100
AcDbEntity
  8
ROGO
 62
     4
100
AcDbLine
 10
4.24878199962751
 20
1.484935992939711
 30
0.0
 11
4.798028326966687
 21
1.484935992939711
 31
0.0
  0
LINE
  5
B82
102
{ACAD_REACTORS
330
B60
102
}
330
B5C
100
AcDbEntity
  8
ROGO
 62
     4
100
AcDbLine
 10
4.220270816254185
 20
0.7155530920159663
 30
0.0
 11
4.826539510339955
 21
0.7155530920159663
 31
0.0
  0
LINE
  5
B83
102
{ACAD_REACTORS
330
B85
102
}
330
B5C
100
AcDbEntity
  8
ROGO
 62
     4
100
AcDbLine
 10
10.24480163032234
 20
0.387585039623616
 30
0.0
 11
10.05153918222152
 21
-0.0000000591879825
 31
0.0
  0
LINE
  5
B84
102
{ACAD_REACTORS
330
B61
330
B85
102
}
330
B5C
100
AcDbEntity
  8
ROGO
 62
     4
100
AcDbLine
 10
10.24480163032234
 20
1.484935992939711
 30
0.0
 11
9.504364555761469
 21
-0.0000000591879825
 31
0.0
  0
HATCH
  5
B85
330
B5C
100
AcDbEntity
  8
ROGO
 62
     4
100
AcDbHatch
 10
0.0
 20
0.0
 30
0.0
210
0.0
220
0.0
230
1.0
  2
SOLID
 70
     1
 71
     1
 91
        1
 92
        7
 72
     0
 73
     1
 93
       11
 10
11.51449603063281
 20
1.484935992939597
 10
10.96733337591359
 20
1.484935992939597
 10
10.71113559568618
 20
1.322811193596237
 10
10.79197625678233
 20
1.484935992939597
 10
10.24480163032234
 20
1.484935992939597
 10
9.504364555761469
 20
-0.0000000591880962
 10
10.05153918222152
 20
-0.0000000591880962
 10
10.24480163032234
 20
0.3875850396235023
 10
10.43806407842322
 20
-0.0000000591880962
 10
10.98522673314244
 20
-0.0000000591880962
 10
10.61500819586206
 20
0.7424679668757222
 97
       11
330
BAA
330
BA7
330
BA8
330
BA9
330
B84
330
B62
330
B83
330
BAD
330
BAC
330
BAE
330
BAB
 75
     0
 76
     1
 47
0.0514683685270805
 98
        1
 10
10.19770984280899
 20
0.8478694898053618
450
        0
451
        0
460
0.0
461
0.0
452
        0
462
0.0
453
        0
470

  0
LINE
  5
B86
102
{ACAD_REACTORS
330
BA6
102
}
330
B5C
100
AcDbEntity
  8
ROGO
 62
     4
100
AcDbLine
 10
9.274750120805435
 20
1.13135628124138
 30
0.0
 11
9.869459389163182
 21
1.13135628124138
 31
0.0
  0
LINE
  5
B87
102
{ACAD_REACTORS
330
BA6
102
}
330
B5C
100
AcDbEntity
  8
ROGO
 62
     4
100
AcDbLine
 10
9.140537442976494
 20
0.8881944935250771
 30
0.0
 11
9.748211068413183
 21
0.8881944935250771
 31
0.0
  0
SPLINE
  5
B88
102
{ACAD_REACTORS
330
BA6
102
}
330
B5C
100
AcDbEntity
  8
ROGO
 62
     4
100
AcDbSpline
210
0.0
220
0.0
230
1.0
 70
     8
 71
     3
 72
    16
 73
    12
 74
    10
 42
0.0000000001
 43
0.0000000001
 44
0.0000000001
 40
0.0
 40
0.0
 40
0.0
 40
0.0
 40
0.090889463558755
 40
0.1352824120538207
 40
0.1571739758861895
 40
0.1802441192684573
 40
0.2132804986121272
 40
0.2433617673669184
 40
0.2747358298622198
 40
0.3273367126566715
 40
0.3794005943324707
 40
0.3794005943324707
 40
0.3794005943324707
 40
0.3794005943324707
 10
9.274750120805492
 20
1.131356281241323
 30
0.0
 10
9.243970826466007
 20
1.126663770171344
 30
0.0
 10
9.198158066476853
 20
1.119679305842035
 30
0.0
 10
9.156729556811942
 20
1.086884953393294
 30
0.0
 10
9.133366753805926
 20
1.067374496594591
 30
0.0
 10
9.125418624138809
 20
1.041537113468487
 30
0.0
 10
9.104072443806678
 20
1.021697969439739
 30
0.0
 10
9.086477119434254
 20
0.9944325995127421
 30
0.0
 10
9.08227575482366
 20
0.9569831722858753
 30
0.0
 10
9.085359652638807
 20
0.9044286084941507
 30
0.0
 10
9.122207864957958
 20
0.8935873241379798
 30
0.0
 10
9.140537442976494
 20
0.8881944935250203
 30
0.0
 11
9.274750120805492
 21
1.131356281241323
 31
0.0
 11
9.186995803189972
 21
1.107690391741186
 31
0.0
 11
9.150861654946709
 21
1.081901688655932
 31
0.0
 11
9.135375633817659
 21
1.066428365915896
 31
0.0
 11
9.125051421847388
 21
1.045797268929277
 31
0.0
 11
9.104403294733231
 21
1.020008565844079
 31
0.0
 11
9.088917273604181
 21
0.9942196946107628
 31
0.0
 11
9.083755167619017
 21
0.9632732172788109
 31
0.0
 11
9.094079379589288
 21
0.9116954748122338
 31
0.0
 11
9.140537442976494
 21
0.8881944935250203
 31
0.0
  0
LINE
  5
B89
102
{ACAD_REACTORS
330
BA3
102
}
330
B5C
100
AcDbEntity
  8
ROGO
 62
     4
100
AcDbLine
 10
7.465432464168998
 20
1.484935992939711
 30
0.0
 11
7.849706463946802
 21
1.484935992939711
 31
0.0
  0
LINE
  5
B8A
330
B5C
100
AcDbEntity
  8
ROGO
 62
     4
100
AcDbLine
 10
7.465432464169111
 20
1.484935992939711
 30
0.0
 11
7.734745873315546
 21
1.484935992939711
 31
0.0
  0
ARC
  5
B8B
102
{ACAD_REACTORS
330
BA3
102
}
330
B5C
100
AcDbEntity
  8
ROGO
 62
     4
100
AcDbCircle
 10
7.69637869428368
 20
0.9474790028461939
 30
0.0
 40
0.0888850530907803
100
AcDbArc
 50
256.5902863289752
 51
337.7287536965499
  0
ARC
  5
B8C
102
{ACAD_REACTORS
330
BA3
102
}
330
B5C
100
AcDbEntity
  8
ROGO
 62
     4
100
AcDbCircle
 10
7.647054026183525
 20
0.9614983755789694
 30
0.0
 40
0.0958388019806556
100
AcDbArc
 50
188.5583509056651
 51
266.5736774635929
  0
ARC
  5
B8D
102
{ACAD_REACTORS
330
BA3
102
}
330
B5C
100
AcDbEntity
  8
ROGO
 62
     4
100
AcDbCircle
 10
7.660765915210504
 20
0.9978905261285717
 30
0.0
 40
0.1037824301982561
100
AcDbArc
 50
82.57970078354313
 51
157.4341870372611
  0
ARC
  5
B8E
102
{ACAD_REACTORS
330
BA3
102
}
330
B5C
100
AcDbEntity
  8
ROGO
 62
     4
100
AcDbCircle
 10
7.691623277836299
 20
0.9975628894870851
 30
0.0
 40
0.0998820093152177
100
AcDbArc
 50
3.851923331663601
 51
80.20940670206341
  0
LINE
  5
B8F
102
{ACAD_REACTORS
330
BA3
102
}
330
B5C
100
AcDbEntity
  8
ROGO
 62
     4
100
AcDbLine
 10
7.641326222715235
 20
0.8658308877238596
 30
0.0
 11
7.675765110943416
 21
0.8610172607585582
 31
0.0
  0
LINE
  5
B90
102
{ACAD_REACTORS
330
BA3
102
}
330
B5C
100
AcDbEntity
  8
ROGO
 62
     4
100
AcDbLine
 10
7.552282406598749
 20
0.9472359744360119
 30
0.0
 11
7.564929135047407
 21
1.037716452179495
 31
0.0
  0
LINE
  5
B91
102
{ACAD_REACTORS
330
BA3
102
}
330
B5C
100
AcDbEntity
  8
ROGO
 62
     4
100
AcDbLine
 10
7.791279653589811
 20
1.004272774473065
 30
0.0
 11
7.778632925141153
 21
0.9137922967295253
 31
0.0
  0
LINE
  5
B92
102
{ACAD_REACTORS
330
BA3
102
}
330
B5C
100
AcDbEntity
  8
ROGO
 62
     4
100
AcDbLine
 10
7.674169097026947
 20
1.100803827188428
 30
0.0
 11
7.708607985255127
 21
1.095990200223184
 31
0.0
  0
LINE
  5
B93
102
{ACAD_REACTORS
330
BA2
102
}
330
B5C
100
AcDbEntity
  8
ROGO
 62
     4
100
AcDbLine
 10
6.032071970508525
 20
1.484935992939767
 30
0.0
 11
6.983758243896545
 21
1.484935992939767
 31
0.0
  0
LINE
  5
B94
102
{ACAD_REACTORS
330
BA2
102
}
330
B5C
100
AcDbEntity
  8
ROGO
 62
     4
100
AcDbLine
 10
6.07853003389539
 20
0.8881944935250771
 30
0.0
 11
6.686203659332079
 21
0.8881944935250771
 31
0.0
  0
LINE
  5
B95
102
{ACAD_REACTORS
330
BA2
102
}
330
B5C
100
AcDbEntity
  8
ROGO
 62
     4
100
AcDbLine
 10
6.212742711724388
 20
1.13135628124138
 30
0.0
 11
6.807451980082134
 21
1.13135628124138
 31
0.0
  0
LINE
  5
B96
102
{ACAD_REACTORS
330
BA2
102
}
330
B5C
100
AcDbEntity
  8
ROGO
 62
     4
100
AcDbLine
 10
6.983758243896545
 20
1.484935992939711
 30
0.0
 11
6.807451980082134
 21
1.13135628124138
 31
0.0
  0
SPLINE
  5
B97
102
{ACAD_REACTORS
330
BA2
102
}
330
B5C
100
AcDbEntity
  8
ROGO
 62
     4
100
AcDbSpline
210
0.0
220
0.0
230
1.0
 70
     8
 71
     3
 72
    16
 73
    12
 74
    10
 42
0.0000000001
 43
0.0000000001
 44
0.0000000001
 40
0.0
 40
0.0
 40
0.0
 40
0.0
 40
0.0908894635587698
 40
0.1352824120537892
 40
0.1571739758861179
 40
0.1802441192684364
 40
0.2132804986121064
 40
0.2433617673669269
 40
0.2747358298621628
 40
0.3273367126566702
 40
0.3794005943324437
 40
0.3794005943324437
 40
0.3794005943324437
 40
0.3794005943324437
 10
6.212742711724388
 20
1.13135628124138
 30
0.0
 10
6.181963417384888
 20
1.126663770171392
 30
0.0
 10
6.136150657395735
 20
1.119679305842073
 30
0.0
 10
6.094722147730919
 20
1.086884953393267
 30
0.0
 10
6.071359344724846
 20
1.067374496594637
 30
0.0
 10
6.063411215057785
 20
1.041537113468491
 30
0.0
 10
6.042065034725641
 20
1.021697969439723
 30
0.0
 10
6.024469710353133
 20
0.9944325995127819
 30
0.0
 10
6.02026834574265
 20
0.9569831722858836
 30
0.0
 10
6.023352243557721
 20
0.9044286084941568
 30
0.0
 10
6.060200455876909
 20
0.8935873241380171
 30
0.0
 10
6.078530033895447
 20
0.8881944935250771
 30
0.0
 11
6.212742711724388
 21
1.13135628124138
 31
0.0
 11
6.124988394108868
 21
1.107690391741186
 31
0.0
 11
6.088854245865661
 21
1.081901688655932
 31
0.0
 11
6.073368224736611
 21
1.066428365915953
 31
0.0
 11
6.06304401276634
 21
1.045797268929277
 31
0.0
 11
6.042395885652183
 21
1.020008565844079
 31
0.0
 11
6.026909864523076
 21
0.9942196946107628
 31
0.0
 11
6.021747758537969
 21
0.9632732172788678
 31
0.0
 11
6.032071970508241
 21
0.9116954748122338
 31
0.0
 11
6.078530033895447
 21
0.8881944935250771
 31
0.0
  0
LINE
  5
B98
102
{ACAD_REACTORS
330
BA6
102
}
330
B5C
100
AcDbEntity
  8
ROGO
 62
     4
100
AcDbLine
 10
8.753385727444708
 20
0.5346185261392407
 30
0.0
 11
9.571906671633882
 21
0.5346185261392407
 31
0.0
  0
LINE
  5
B99
102
{ACAD_REACTORS
330
BA3
102
}
330
B5C
100
AcDbEntity
  8
ROGO
 62
     4
100
AcDbLine
 10
7.465432464168998
 20
0.5346185261392407
 30
0.0
 11
7.877322089673725
 21
0.5346185261392407
 31
0.0
  0
LINE
  5
B9A
330
B5C
100
AcDbEntity
  8
ROGO
 62
     4
100
AcDbLine
 10
7.465432464169339
 20
0.5346185261392407
 30
0.0
 11
7.877322089673384
 21
0.5346185261392407
 31
0.0
  0
LINE
  5
B9B
102
{ACAD_REACTORS
330
BA2
102
}
330
B5C
100
AcDbEntity
  8
ROGO
 62
     4
100
AcDbLine
 10
5.691378318363661
 20
0.5346185261392407
 30
0.0
 11
6.509899262552778
 21
0.5346185261392407
 31
0.0
  0
ARC
  5
B9C
102
{ACAD_REACTORS
330
BA3
102
}
330
B5C
100
AcDbEntity
  8
ROGO
 62
     4
100
AcDbCircle
 10
7.849706463946802
 20
1.009376013213397
 30
0.0
 40
0.4755599797263065
100
AcDbArc
 50
273.3290215232082
 51
90.0000000000006
  0
ARC
  5
B9D
102
{ACAD_REACTORS
330
BA3
102
}
330
B5C
100
AcDbEntity
  8
ROGO
 62
     4
100
AcDbCircle
 10
7.48496378237229
 20
1.009777259539475
 30
0.0
 40
0.4755599797263065
100
AcDbArc
 50
92.3538081120337
 51
270.0
  0
LINE
  5
B9E
102
{ACAD_REACTORS
330
BA6
102
}
330
B5C
100
AcDbEntity
  8
ROGO
 62
     4
100
AcDbLine
 10
9.748211068413127
 20
0.8881944935250771
 30
0.0
 11
9.571906671633882
 21
0.5346185261391839
 31
0.0
  0
LINE
  5
B9F
102
{ACAD_REACTORS
330
BA2
102
}
330
B5C
100
AcDbEntity
  8
ROGO
 62
     4
100
AcDbLine
 10
6.686203659332079
 20
0.8881944935250771
 30
0.0
 11
6.509899262552778
 21
0.5346185261392407
 31
0.0
  0
SPLINE
  5
BA0
102
{ACAD_REACTORS
330
BA2
102
}
330
B5C
100
AcDbEntity
  8
ROGO
 62
     4
100
AcDbSpline
210
0.0
220
0.0
230
1.0
 70
     8
 71
     3
 72
    26
 73
    22
 74
    20
 42
0.0000000001
 43
0.0000000001
 44
0.0000000001
 40
0.0
 40
0.0
 40
0.0
 40
0.0
 40
0.172398475942452
 40
0.2878059064037132
 40
0.3710240621887256
 40
0.4331603664333846
 40
0.5137544142125073
 40
0.5725802121924657
 40
0.6788058922658211
 40
0.7652720686804854
 40
0.8240829233522674
 40
0.8817499774613789
 40
0.9849051260984648
 40
1.05784812826095
 40
1.097133570529095
 40
1.152937380796455
 40
1.193234564309741
 40
1.251611879021481
 40
1.284648389624348
 40
1.356539542406023
 40
1.389365667278791
 40
1.389365667278791
 40
1.389365667278791
 40
1.389365667278791
 10
6.032071970508241
 20
1.484935992939711
 30
0.0
 10
5.973557264069641
 20
1.481444905211402
 30
0.0
 10
5.875871492589096
 20
1.47561680457137
 30
0.0
 10
5.768613109753668
 20
1.410458488868562
 30
0.0
 10
5.690029339238584
 20
1.372578307494294
 30
0.0
 10
5.633983489410011
 20
1.321083428095256
 30
0.0
 10
5.592901654292559
 20
1.26789297930569
 30
0.0
 10
5.541110288827273
 20
1.204516949575323
 30
0.0
 10
5.49887591022997
 20
1.130718127534994
 30
0.0
 10
5.477368508803827
 20
1.049378960065351
 30
0.0
 10
5.458317456747558
 20
0.9845511716472696
 30
0.0
 10
5.444188877610419
 20
0.9123090616542125
 30
0.0
 10
5.447783588117866
 20
0.8342621694164586
 30
0.0
 10
5.452931378081073
 20
0.7617762114914332
 30
0.0
 10
5.475915008490222
 20
0.7100320901693001
 30
0.0
 10
5.502089292423582
 20
0.6731938414330762
 30
0.0
 10
5.534139344645077
 20
0.6326205945144422
 30
0.0
 10
5.569209110546427
 20
0.6057490644615085
 30
0.0
 10
5.598214669540071
 20
0.5570694820472437
 30
0.0
 10
5.648987922074967
 20
0.5508576162517939
 30
0.0
 10
5.681261421323124
 20
0.5384941493247972
 30
0.0
 10
5.691378318363717
 20
0.5346185261392407
 30
0.0
 11
6.032071970508241
 21
1.484935992939711
 31
0.0
 11
5.861725144435979
 21
1.458418199773859
 31
0.0
 11
5.75848450886508
 21
1.406840625455288
 31
0.0
 11
5.68621621237861
 21
1.365578599630055
 31
0.0
 11
5.639758148991347
 21
1.324316405656759
 31
0.0
 11
5.588137979619091
 21
1.262423282844906
 31
0.0
 11
5.552003831375827
 21
1.216003482773032
 31
0.0
 11
5.500383365177242
 21
1.123163714481165
 31
0.0
 11
5.47457342890425
 21
1.040639494682636
 31
0.0
 11
5.4590874077752
 21
0.9839041461174247
 31
0.0
 11
5.448763195804929
 21
0.9271687975522127
 31
0.0
 11
5.448763195804929
 21
0.8240136489151268
 31
0.0
 11
5.4590874077752
 21
0.7518049776098792
 31
0.0
 11
5.47457342890425
 21
0.7157005578832809
 31
0.0
 11
5.505545471162349
 21
0.6692807578113503
 31
0.0
 11
5.53135570426167
 21
0.6383341123313926
 31
0.0
 11
5.572651661663712
 21
0.5970720865061594
 31
0.0
 11
5.593299788777926
 21
0.5712832152728425
 31
0.0
 11
5.660406276105618
 21
0.5454945121876449
 31
0.0
 11
5.691378318363717
 21
0.5346185261392407
 31
0.0
  0
SPLINE
  5
BA1
102
{ACAD_REACTORS
330
BA6
102
}
330
B5C
100
AcDbEntity
  8
ROGO
 62
     4
100
AcDbSpline
210
0.0
220
0.0
230
1.0
 70
     8
 71
     3
 72
    26
 73
    22
 74
    20
 42
0.0000000001
 43
0.0000000001
 44
0.0000000001
 40
0.0
 40
0.0
 40
0.0
 40
0.0
 40
0.1723984759424608
 40
0.2878059064036966
 40
0.3710240621887089
 40
0.4331603664333254
 40
0.5137544142124919
 40
0.5725802121924054
 40
0.6788058922657609
 40
0.7652720686804421
 40
0.824082923352279
 40
0.8817499774613345
 40
0.9849051260984204
 40
1.057848128260906
 40
1.097133570529051
 40
1.152937380796411
 40
1.193234564309733
 40
1.251611879021433
 40
1.284648389624335
 40
1.356539542405977
 40
1.389365667278781
 40
1.389365667278781
 40
1.389365667278781
 40
1.389365667278781
 10
9.094079379589288
 20
1.484935992939711
 30
0.0
 10
9.035564673150693
 20
1.481444905211369
 30
0.0
 10
8.937878901670169
 20
1.475616804571283
 30
0.0
 10
8.830620518834708
 20
1.410458488868567
 30
0.0
 10
8.752036748319635
 20
1.372578307494311
 30
0.0
 10
8.695990898491096
 20
1.321083428095232
 30
0.0
 10
8.654909063373702
 20
1.267892979305642
 30
0.0
 10
8.603117697908345
 20
1.204516949575328
 30
0.0
 10
8.560883319311107
 20
1.130718127534976
 30
0.0
 10
8.539375917884848
 20
1.049378960065346
 30
0.0
 10
8.520324865828625
 20
0.9845511716472456
 30
0.0
 10
8.506196286691453
 20
0.9123090616541963
 30
0.0
 10
8.509790997198916
 20
0.8342621694164582
 30
0.0
 10
8.514938787162119
 20
0.7617762114914318
 30
0.0
 10
8.537922417571271
 20
0.7100320901693033
 30
0.0
 10
8.56409670150462
 20
0.6731938414330492
 30
0.0
 10
8.596146753726191
 20
0.6326205945144875
 30
0.0
 10
8.631216519627461
 20
0.6057490644614584
 30
0.0
 10
8.660222078621195
 20
0.5570694820473007
 30
0.0
 10
8.710995331156015
 20
0.5508576162516721
 30
0.0
 10
8.743268830404206
 20
0.5384941493247713
 30
0.0
 10
8.753385727444822
 20
0.5346185261392407
 30
0.0
 11
9.094079379589288
 21
1.484935992939711
 31
0.0
 11
8.923732553517027
 21
1.458418199773802
 31
0.0
 11
8.820491917946128
 21
1.406840625455288
 31
0.0
 11
8.748223621459658
 21
1.365578599630055
 31
0.0
 11
8.701765558072452
 21
1.324316405656759
 31
0.0
 11
8.650145388700195
 21
1.262423282844849
 31
0.0
 11
8.614011240456932
 21
1.216003482773032
 31
0.0
 11
8.562390774258346
 21
1.123163714481165
 31
0.0
 11
8.536580837985297
 21
1.040639494682636
 31
0.0
 11
8.521094816856248
 21
0.9839041461173678
 31
0.0
 11
8.510770604885976
 21
0.9271687975522127
 31
0.0
 11
8.510770604885976
 21
0.8240136489151268
 31
0.0
 11
8.521094816856248
 21
0.7518049776098792
 31
0.0
 11
8.536580837985297
 21
0.7157005578832809
 31
0.0
 11
8.567552880243397
 21
0.6692807578113503
 31
0.0
 11
8.593363113342775
 21
0.6383341123313926
 31
0.0
 11
8.63465907074476
 21
0.5970720865061594
 31
0.0
 11
8.655307197859031
 21
0.5712832152728425
 31
0.0
 11
8.722413685186666
 21
0.5454945121875881
 31
0.0
 11
8.753385727444822
 21
0.5346185261392407
 31
0.0
  0
HATCH
  5
BA2
330
B5C
100
AcDbEntity
  8
ROGO
 62
     4
100
AcDbHatch
 10
0.0
 20
0.0
 30
0.0
210
0.0
220
0.0
230
1.0
  2
SOLID
 70
     1
 71
     1
 91
        1
 92
        5
 93
        8
 72
     1
 10
6.983758243896545
 20
1.484935992939597
 11
6.032071970508411
 21
1.484935992939597
 72
     4
 94
        3
 73
     0
 74
     0
 95
       26
 96
       22
 40
0.0
 40
0.0
 40
0.0
 40
0.0
 40
0.7089867102952115
 40
1.183598414482279
 40
1.525832104103439
 40
1.781366926528389
 40
2.112809002752968
 40
2.354729406992515
 40
2.791581270399936
 40
3.147172406765291
 40
3.389031356825354
 40
3.626186440486682
 40
4.050410779375985
 40
4.350388020238963
 40
4.511948940797758
 40
4.741441456013356
 40
4.907163150576407
 40
5.147239172635527
 40
5.28310143501293
 40
5.578752957634333
 40
5.713750011164293
 40
5.713750011164293
 40
5.713750011164293
 40
5.713750011164293
 10
6.032071970508241
 20
1.484935992939597
 10
5.973557264069597
 20
1.481444905211276
 10
5.875871492589055
 20
1.475616804571245
 10
5.768613109753687
 20
1.410458488868414
 10
5.690029339238549
 20
1.372578307494222
 10
5.633983489410013
 20
1.321083428095107
 10
5.592901654292575
 20
1.267892979305543
 10
5.541110288827269
 20
1.204516949575179
 10
5.498875910230026
 20
1.130718127534862
 10
5.477368508803749
 20
1.049378960065212
 10
5.458317456747579
 20
0.9845511716471264
 10
5.444188877610429
 20
0.9123090616540707
 10
5.447783588117886
 20
0.8342621694163199
 10
5.452931378081132
 20
0.7617762114913376
 10
5.475915008490176
 20
0.710032090169193
 10
5.50208929242359
 20
0.6731938414329762
 10
5.534139344645041
 20
0.6326205945143215
 10
5.56920911054641
 20
0.6057490644614063
 10
5.598214669540084
 20
0.5570694820471545
 10
5.648987922074923
 20
0.5508576162516193
 10
5.681261421323085
 20
0.5384941493246629
 10
5.691378318363717
 20
0.534618526139127
 72
     1
 10
5.691378318363661
 20
0.534618526139127
 11
6.509899262552835
 21
0.534618526139127
 72
     1
 10
6.509899262552778
 20
0.534618526139127
 11
6.686203659332079
 21
0.8881944935249634
 72
     1
 10
6.686203659332079
 20
0.8881944935249634
 11
6.078530033895333
 21
0.8881944935249634
 72
     4
 94
        3
 73
     0
 74
     0
 95
       16
 96
       12
 40
0.0
 40
0.0
 40
0.0
 40
0.0
 40
0.2141121027475241
 40
0.4304326162973471
 40
0.5594580803306056
 40
0.6831669452691567
 40
0.8190286678446897
 40
0.9139043619204622
 40
1.003933161420314
 40
1.186498641432482
 40
1.560280494298353
 40
1.560280494298353
 40
1.560280494298353
 40
1.560280494298353
 10
6.078530033895447
 20
0.8881944935249634
 10
6.060200455876895
 20
0.8935873241379113
 10
6.023352243557667
 20
0.9044286084940154
 10
6.020268345742636
 20
0.9569831722857884
 10
6.024469710353116
 20
0.9944325995126064
 10
6.042065034725681
 20
1.021697969439628
 10
6.063411215057783
 20
1.041537113468336
 10
6.071359344724839
 20
1.067374496594538
 10
6.094722147730863
 20
1.086884953393166
 10
6.136150657395774
 20
1.119679305841884
 10
6.181963417384906
 20
1.126663770171262
 10
6.212742711724388
 20
1.131356281241266
 72
     1
 10
6.212742711724388
 20
1.131356281241266
 11
6.807451980082078
 21
1.131356281241266
 72
     1
 10
6.807451980082134
 20
1.131356281241266
 11
6.983758243896602
 21
1.484935992939597
 97
        8
330
B93
330
BA0
330
B9B
330
B9F
330
B94
330
B97
330
B95
330
B96
 75
     0
 76
     1
 47
0.0514683685270805
 98
        1
 10
6.364911895882585
 20
1.273384183674238
450
        0
451
        0
460
0.0
461
0.0
452
        0
462
0.0
453
        0
470

  0
HATCH
  5
BA3
330
B5C
100
AcDbEntity
  8
ROGO
 62
     4
100
AcDbHatch
 10
0.0
 20
0.0
 30
0.0
210
0.0
220
0.0
230
1.0
  2
SOLID
 70
     1
 71
     1
 91
        2
 92
        7
 72
     1
 73
     1
 93
        4
 10
7.849706463946802
 20
1.484935992939597
 42
0.0
 10
7.465432464168998
 20
1.484935992939597
 42
0.9597396185052668
 10
7.465432464168941
 20
0.534618526139127
 42
0.0
 10
7.877322089673668
 20
0.534618526139127
 42
0.9713627655772736
 97
        4
330
B89
330
B9D
330
B99
330
B9C
 92
       22
 72
     1
 73
     1
 93
        8
 10
7.791279653589811
 20
1.004272774472838
 42
0.0
 10
7.778632925141153
 20
0.9137922967292411
 42
-0.3696060376523694
 10
7.675765110943643
 20
0.8610172607583876
 42
0.0
 10
7.641326222715747
 20
0.8658308877236891
 42
-0.3541938351274232
 10
7.552282406598749
 20
0.9472359744358982
 42
0.0
 10
7.564929135047407
 20
1.037716452179495
 42
-0.3439742752229287
 10
7.676094128137322
 20
1.100534759801462
 42
0.0
 10
7.708607985255127
 20
1.09599020022307
 42
-0.3460733018205655
 97
        8
330
B91
330
B8B
330
B8F
330
B8C
330
B90
330
B8D
330
B92
330
B8E
 75
     0
 76
     1
 47
0.0514683685270805
 98
        2
 10
7.943122727903357
 20
1.098172201449415
 10
7.943122727903357
 20
1.098172201449415
450
        0
451
        0
460
0.0
461
0.0
452
        0
462
0.0
453
        0
470

  0
LINE
  5
BA4
102
{ACAD_REACTORS
330
BA6
102
}
330
B5C
100
AcDbEntity
  8
ROGO
 62
     4
100
AcDbLine
 10
10.04576565297765
 20
1.484935992939711
 30
0.0
 11
9.869459389163182
 21
1.13135628124138
 31
0.0
  0
LINE
  5
BA5
102
{ACAD_REACTORS
330
BA6
102
}
330
B5C
100
AcDbEntity
  8
ROGO
 62
     4
100
AcDbLine
 10
9.094079379589572
 20
1.484935992939711
 30
0.0
 11
10.04576565297765
 21
1.484935992939711
 31
0.0
  0
HATCH
  5
BA6
330
B5C
100
AcDbEntity
  8
ROGO
 62
     4
100
AcDbHatch
 10
0.0
 20
0.0
 30
0.0
210
0.0
220
0.0
230
1.0
  2
SOLID
 70
     1
 71
     1
 91
        1
 92
        5
 93
        8
 72
     1
 10
10.04576565297765
 20
1.484935992939597
 11
9.094079379589459
 21
1.484935992939597
 72
     4
 94
        3
 73
     0
 74
     0
 95
       26
 96
       22
 40
0.0
 40
0.0
 40
0.0
 40
0.0
 40
0.7089867102952115
 40
1.183598414482279
 40
1.525832104103439
 40
1.781366926528389
 40
2.112809002752968
 40
2.354729406992515
 40
2.791581270399936
 40
3.147172406765291
 40
3.389031356825354
 40
3.626186440486682
 40
4.050410779375985
 40
4.350388020238963
 40
4.511948940797758
 40
4.741441456013356
 40
4.907163150576407
 40
5.147239172635527
 40
5.28310143501293
 40
5.578752957634333
 40
5.713750011164293
 40
5.713750011164293
 40
5.713750011164293
 40
5.713750011164293
 10
9.094079379589288
 20
1.484935992939597
 10
9.035564673150702
 20
1.481444905211276
 10
8.93787890167016
 20
1.475616804571245
 10
8.830620518834734
 20
1.410458488868414
 10
8.752036748319653
 20
1.372578307494222
 10
8.695990898491118
 20
1.321083428095107
 10
8.654909063373622
 20
1.267892979305543
 10
8.603117697908373
 20
1.204516949575179
 10
8.560883319311074
 20
1.130718127534805
 10
8.539375917884854
 20
1.049378960065212
 10
8.520324865828627
 20
0.9845511716471264
 10
8.506196286691476
 20
0.9123090616540707
 10
8.509790997198933
 20
0.8342621694163199
 10
8.514938787162179
 20
0.7617762114913376
 10
8.537922417571223
 20
0.710032090169193
 10
8.564096701504638
 20
0.6731938414329762
 10
8.596146753726145
 20
0.6326205945143215
 10
8.631216519627514
 20
0.6057490644614063
 10
8.660222078621131
 20
0.5570694820471545
 10
8.710995331156027
 20
0.5508576162516193
 10
8.74326883040419
 20
0.5384941493246629
 10
8.753385727444822
 20
0.534618526139127
 72
     1
 10
8.753385727444708
 20
0.534618526139127
 11
9.571906671633882
 21
0.534618526139127
 72
     1
 10
9.571906671633882
 20
0.534618526139127
 11
9.748211068413127
 21
0.8881944935249634
 72
     1
 10
9.748211068413183
 20
0.8881944935249066
 11
9.140537442976494
 21
0.8881944935249066
 72
     4
 94
        3
 73
     0
 74
     0
 95
       16
 96
       12
 40
0.0
 40
0.0
 40
0.0
 40
0.0
 40
0.2141121027475241
 40
0.4304326162973471
 40
0.5594580803306056
 40
0.6831669452691567
 40
0.8190286678446897
 40
0.9139043619204622
 40
1.003933161420314
 40
1.186498641432482
 40
1.560280494298353
 40
1.560280494298353
 40
1.560280494298353
 40
1.560280494298353
 10
9.140537442976494
 20
0.8881944935249066
 10
9.122207864957999
 20
0.8935873241378544
 10
9.085359652638771
 20
0.9044286084939585
 10
9.082275754823683
 20
0.9569831722857315
 10
9.086477119434221
 20
0.9944325995126064
 10
9.104072443806728
 20
1.021697969439628
 10
9.125418624138831
 20
1.041537113468336
 10
9.133366753805887
 20
1.067374496594482
 10
9.156729556811967
 20
1.086884953393166
 10
9.198158066476821
 20
1.119679305841884
 10
9.243970826466011
 20
1.126663770171262
 10
9.274750120805492
 20
1.13135628124121
 72
     1
 10
9.274750120805435
 20
1.131356281241266
 11
9.869459389163182
 21
1.131356281241266
 72
     1
 10
9.869459389163182
 20
1.131356281241266
 11
10.04576565297765
 21
1.484935992939597
 97
        8
330
BA5
330
BA1
330
B98
330
B9E
330
B87
330
B88
330
B86
330
BA4
 75
     0
 76
     1
 47
0.0514683685270805
 98
        1
 10
9.258298569667147
 20
1.310929632457884
450
        0
451
        0
460
0.0
461
0.0
452
        0
462
0.0
453
        0
470

  0
LINE
  5
BA7
102
{ACAD_REACTORS
330
B85
102
}
330
B5C
100
AcDbEntity
  8
ROGO
 62
     4
100
AcDbLine
 10
10.71113559568613
 20
1.322811193596351
 30
0.0
 11
10.96733337591359
 21
1.484935992939711
 31
0.0
  0
LINE
  5
BA8
102
{ACAD_REACTORS
330
B85
102
}
330
B5C
100
AcDbEntity
  8
ROGO
 62
     4
100
AcDbLine
 10
10.79197625678233
 20
1.484935992939711
 30
0.0
 11
10.71113559568613
 21
1.322811193596351
 31
0.0
  0
LINE
  5
BA9
102
{ACAD_REACTORS
330
B85
102
}
330
B5C
100
AcDbEntity
  8
ROGO
 62
     4
100
AcDbLine
 10
10.24480163032234
 20
1.484935992939711
 30
0.0
 11
10.79197625678233
 21
1.484935992939711
 31
0.0
  0
LINE
  5
BAA
102
{ACAD_REACTORS
330
B85
102
}
330
B5C
100
AcDbEntity
  8
ROGO
 62
     4
100
AcDbLine
 10
10.96733337591359
 20
1.484935992939711
 30
0.0
 11
11.51449603063281
 21
1.484935992939711
 31
0.0
  0
LINE
  5
BAB
102
{ACAD_REACTORS
330
B85
102
}
330
B5C
100
AcDbEntity
  8
ROGO
 62
     4
100
AcDbLine
 10
10.61500819586206
 20
0.7424679668758359
 30
0.0
 11
11.51449603063281
 21
1.484935992939711
 31
0.0
  0
LINE
  5
BAC
102
{ACAD_REACTORS
330
B85
102
}
330
B5C
100
AcDbEntity
  8
ROGO
 62
     4
100
AcDbLine
 10
10.43806407842322
 20
-0.0000000591879825
 30
0.0
 11
10.98522673314249
 21
-0.0000000591879825
 31
0.0
  0
LINE
  5
BAD
102
{ACAD_REACTORS
330
B85
102
}
330
B5C
100
AcDbEntity
  8
ROGO
 62
     4
100
AcDbLine
 10
10.24480163032234
 20
0.3875850396236728
 30
0.0
 11
10.43806407842322
 21
-0.0000000591879825
 31
0.0
  0
LINE
  5
BAE
102
{ACAD_REACTORS
330
B85
102
}
330
B5C
100
AcDbEntity
  8
ROGO
 62
     4
100
AcDbLine
 10
10.61500819586206
 20
0.7424679668758359
 30
0.0
 11
10.98522673314249
 21
-0.0000000591879825
 31
0.0
  0
ENDBLK
  5
BB0
330
B5C
100
AcDbEntity
  8
0
100
AcDbBlockEnd
  0
ENDSEC
  0
SECTION
  2
ENTITIES
  0
LWPOLYLINE
  5
1A0
330
18
100
AcDbEntity
  8
C
100
AcDbPolyline
 90
        5
 70
     0
 43
0.8
 10
0.0
 20
282.5
 10
377.4999999999999
 20
282.5
 10
377.4999999999999
 20
0.0
 10
0.0
 20
0.0
 10
0.0
 20
282.5
  0
LINE
  5
223
102
{ACAD_REACTORS
330
7ED
330
7F2
102
}
330
18
100
AcDbEntity
  8
中心線
100
AcDbLine
 10
13.17812775960783
 20
190.2713680274448
 30
0.0
 11
370.2181874572186
 21
190.2713680274448
 31
0.0
  0
LINE
  5
227
330
18
100
AcDbEntity
  8
外形線
100
AcDbLine
 10
298.3171604398838
 20
198.2713680274449
 30
0.0
 11
298.3171604398837
 21
182.2713680274448
 31
0.0
  0
LINE
  5
229
330
18
100
AcDbEntity
  8
外形線
100
AcDbLine
 10
353.3171604398838
 20
193.5213680274448
 30
0.0
 11
353.3171604398838
 21
187.0213680274448
 31
0.0
  0
LINE
  5
22D
330
18
100
AcDbEntity
  8
外形線
100
AcDbLine
 10
18.58873217424252
 20
200.2713680274448
 30
0.0
 11
37.68190159621565
 21
200.2713680274449
 31
0.0
  0
LINE
  5
22E
330
18
100
AcDbEntity
  8
外形線
100
AcDbLine
 10
18.58873217424252
 20
180.2713680274449
 30
0.0
 11
40.68441402767669
 21
180.2713680274449
 31
0.0
  0
LINE
  5
22F
330
18
100
AcDbEntity
  8
外形線
100
AcDbLine
 10
268.3171604398838
 20
200.2713680274448
 30
0.0
 11
296.1100536586973
 21
200.2713680274449
 31
0.0
  0
LINE
  5
230
330
18
100
AcDbEntity
  8
外形線
100
AcDbLine
 10
268.3171604398837
 20
180.2713680274448
 30
0.0
 11
296.1100536586971
 21
180.2713680274449
 31
0.0
  0
LINE
  5
233
330
18
100
AcDbEntity
  8
外形線
100
AcDbLine
 10
298.3171604398838
 20
193.2713680274449
 30
0.0
 11
323.3858118696251
 21
193.2713680274449
 31
0.0
  0
LINE
  5
234
330
18
100
AcDbEntity
  8
外形線
100
AcDbLine
 10
298.3171604398838
 20
187.2713680274448
 30
0.0
 11
324.2865655990635
 21
187.2713680274448
 31
0.0
  0
LINE
  5
582
330
18
100
AcDbEntity
  8
外形線
100
AcDbLine
 10
296.3171604398837
 20
200.2264578880072
 30
0.0
 11
296.3171604398837
 21
180.3162781668827
 31
0.0
  0
LINE
  5
5E6
330
18
100
AcDbEntity
  8
中心線
100
AcDbLine
 10
14.30546159946334
 20
99.93756809344711
 30
0.0
 11
370.2181874572186
 21
99.93756809344711
 31
0.0
  0
LINE
  5
5E7
330
18
100
AcDbEntity
  8
外形線
100
AcDbLine
 10
18.58873217424241
 20
89.93756809344715
 30
0.0
 11
40.64933118696962
 21
89.93756809344715
 31
0.0
  0
LINE
  5
5E8
330
18
100
AcDbEntity
  8
外形線
100
AcDbLine
 10
18.58873217424252
 20
109.9375680934471
 30
0.0
 11
37.64681875550852
 21
109.9375680934471
 31
0.0
  0
DIMENSION
  5
61C
330
18
100
AcDbEntity
  8
外形線
100
AcDbDimension
  2
*D3
 10
72.87817155014886
 20
200.2713680274449
 30
0.0
 11
71.00317155014884
 21
190.2713680274449
 31
0.0
 70
    32
  1
φ20
 71
     5
 42
19.99999999999997
  3
STYLE3
100
AcDbAlignedDimension
 13
72.05419346884696
 23
180.2713680274449
 33
0.0
 14
72.87817155014886
 24
200.2713680274449
 34
0.0
 50
90.0
100
AcDbRotatedDimension
1001
ACAD
1000
DSTYLE
1002
{
1070
   271
1070
     2
1002
}
  0
LINE
  5
6D5
330
18
100
AcDbEntity
  8
外形線
100
AcDbLine
 10
298.3171604398837
 20
102.9375680934471
 30
0.0
 11
323.350729028918
 21
102.9375680934471
 31
0.0
  0
LINE
  5
6D6
330
18
100
AcDbEntity
  8
外形線
100
AcDbLine
 10
298.3171604398837
 20
96.93756809344709
 30
0.0
 11
324.2514827583564
 21
96.9375680934471
 31
0.0
  0
LINE
  5
76E
102
{ACAD_REACTORS
330
7ED
330
7F2
102
}
330
18
100
AcDbEntity
  8
外形線
100
AcDbLine
 10
354.3171604398838
 20
196.2713680274448
 30
0.0
 11
356.3171604398838
 21
196.2713680274448
 31
0.0
  0
LINE
  5
76F
330
18
100
AcDbEntity
  8
外形線
100
AcDbLine
 10
354.3171604398838
 20
184.2713680274448
 30
0.0
 11
356.3171604398838
 21
184.2713680274448
 31
0.0
  0
LINE
  5
770
330
18
100
AcDbEntity
  8
外形線
100
AcDbLine
 10
353.8171604398838
 20
195.7713680274448
 30
0.0
 11
353.8171604398838
 21
184.7713680274448
 31
0.0
  0
LINE
  5
771
330
18
100
AcDbEntity
  8
外形線
100
AcDbLine
 10
356.8171604398837
 20
187.2713680274448
 30
0.0
 11
356.8171604398838
 21
184.7713680274448
 31
0.0
  0
LINE
  5
772
330
18
100
AcDbEntity
  8
外形線
100
AcDbLine
 10
353.3171604398838
 20
193.5213680274448
 30
0.0
 11
353.8171604398838
 21
193.5213680274448
 31
0.0
  0
LINE
  5
773
330
18
100
AcDbEntity
  8
外形線
100
AcDbLine
 10
353.3171604398838
 20
187.0213680274448
 30
0.0
 11
353.8171604398838
 21
187.0213680274448
 31
0.0
  0
LINE
  5
774
330
18
100
AcDbEntity
  8
外形線
100
AcDbLine
 10
353.8171604398838
 20
195.7713680274448
 30
0.0
 11
354.3171604398838
 21
196.2713680274448
 31
0.0
  0
LINE
  5
775
330
18
100
AcDbEntity
  8
外形線
100
AcDbLine
 10
353.8171604398838
 20
184.7713680274448
 30
0.0
 11
354.3171604398838
 21
184.2713680274448
 31
0.0
  0
LINE
  5
776
330
18
100
AcDbEntity
  8
外形線
100
AcDbLine
 10
356.3171604398838
 20
184.2713680274448
 30
0.0
 11
356.8171604398838
 21
184.7713680274448
 31
0.0
  0
LINE
  5
777
330
18
100
AcDbEntity
  8
外形線
100
AcDbLine
 10
356.8171604398838
 20
195.7713680274448
 30
0.0
 11
356.3171604398838
 21
196.2713680274448
 31
0.0
  0
LINE
  5
779
102
{ACAD_REACTORS
330
7ED
330
7F2
102
}
330
18
100
AcDbEntity
  8
外形線
100
AcDbLine
 10
354.3171604398838
 20
196.2713680274448
 30
0.0
 11
354.3171604398838
 21
184.2713680274448
 31
0.0
  0
LINE
  5
77A
102
{ACAD_REACTORS
330
7ED
330
7F2
102
}
330
18
100
AcDbEntity
  8
外形線
100
AcDbLine
 10
356.3171604398838
 20
196.2713680274448
 30
0.0
 11
356.3171604398838
 21
184.2713680274448
 31
0.0
  0
LINE
  5
7A9
330
18
100
AcDbEntity
  8
外形線
100
AcDbLine
 10
362.8171604398838
 20
192.7713680274449
 30
0.0
 11
366.3171604398838
 21
191.5713680274448
 31
0.0
  0
LINE
  5
7AE
330
18
100
AcDbEntity
  8
外形線
100
AcDbLine
 10
362.8171604398838
 20
187.7713680274448
 30
0.0
 11
366.3171604398838
 21
188.9713680274448
 31
0.0
  0
LINE
  5
7B1
330
18
100
AcDbEntity
  8
外形線
100
AcDbLine
 10
366.3171604398838
 20
188.9713680274448
 30
0.0
 11
366.3171604398838
 21
191.5713680274448
 31
0.0
  0
POINT
  5
7B2
330
18
100
AcDbEntity
  8
DEFPOINTS
  6
ByBlock
 62
     0
100
AcDbPoint
 10
367.3171604398838
 20
190.2713680274448
 30
0.0
  0
ARC
  5
7B3
330
18
100
AcDbEntity
  8
外形線
100
AcDbCircle
 10
366.1671604398838
 20
190.2713680274448
 30
0.0
 40
1.150000000000005
100
AcDbArc
 50
277.494717453927
 51
82.50528254607301
  0
LINE
  5
7D8
330
18
100
AcDbEntity
  8
外形線
100
AcDbLine
 10
362.8171604398838
 20
192.7713680274449
 30
0.0
 11
362.8171604398838
 21
187.7713680274448
 31
0.0
  0
LINE
  5
7DA
330
18
100
AcDbEntity
  8
外形線
100
AcDbLine
 10
357.3171604398837
 20
187.7713680274448
 30
0.0
 11
362.8171604398838
 21
187.7713680274448
 31
0.0
  0
ARC
  5
7DB
330
18
100
AcDbEntity
  8
外形線
100
AcDbCircle
 10
357.3171604398837
 20
187.2713680274448
 30
0.0
 40
0.5
100
AcDbArc
 50
90.0
 51
180.0
  0
LINE
  5
7DC
330
18
100
AcDbEntity
  8
外形線
100
AcDbLine
 10
357.3171604398837
 20
192.7713680274448
 30
0.0
 11
362.8171604398838
 21
192.7713680274448
 31
0.0
  0
ARC
  5
7DD
330
18
100
AcDbEntity
  8
外形線
100
AcDbCircle
 10
357.3171604398837
 20
193.2713680274448
 30
0.0
 40
0.5
100
AcDbArc
 50
180.0
 51
270.0
  0
LINE
  5
7DE
330
18
100
AcDbEntity
  8
外形線
100
AcDbLine
 10
356.8171604398835
 20
187.2713680274448
 30
0.0
 11
356.8171604398838
 21
195.7713680274449
 31
0.0
  0
LINE
  5
7DF
330
18
100
AcDbEntity
  8
外形線
100
AcDbLine
 10
357.3171604398837
 20
192.7713680274448
 30
0.0
 11
357.3171604398837
 21
187.7713680274448
 31
0.0
  0
LINE
  5
7E0
330
18
100
AcDbEntity
  8
外形線
 62
     4
100
AcDbLine
 10
357.3171604398837
 20
188.2713680274448
 30
0.0
 11
362.8171604398838
 21
188.2713680274448
 31
0.0
  0
LINE
  5
7E1
330
18
100
AcDbEntity
  8
外形線
 62
     4
100
AcDbLine
 10
357.3171604398837
 20
188.7713680274448
 30
0.0
 11
362.8171604398838
 21
188.7713680274448
 31
0.0
  0
LINE
  5
7E2
330
18
100
AcDbEntity
  8
外形線
 62
     4
100
AcDbLine
 10
357.3171604398837
 20
189.2713680274448
 30
0.0
 11
362.8171604398838
 21
189.2713680274448
 31
0.0
  0
LINE
  5
7E3
330
18
100
AcDbEntity
  8
外形線
 62
     4
100
AcDbLine
 10
357.3171604398837
 20
189.7713680274448
 30
0.0
 11
362.8171604398838
 21
189.7713680274448
 31
0.0
  0
LINE
  5
7E4
330
18
100
AcDbEntity
  8
外形線
 62
     4
100
AcDbLine
 10
357.3171604398837
 20
190.2713680274448
 30
0.0
 11
362.8171604398838
 21
190.2713680274448
 31
0.0
  0
HATCH
  5
7ED
330
18
100
AcDbEntity
  8
外形線
 62
     4
100
AcDbHatch
 10
0.0
 20
0.0
 30
0.0
210
0.0
220
0.0
230
1.0
  2
ANSI31
 70
     0
 71
     1
 91
        1
 92
        7
 72
     0
 73
     1
 93
        4
 10
354.3171604398838
 20
190.2713680274448
 10
356.3171604398838
 20
190.2713680274448
 10
356.3171604398838
 20
196.2713680274448
 10
354.3171604398838
 20
196.2713680274448
 97
        4
330
76E
330
779
330
223
330
77A
 75
     0
 76
     1
 52
345.0
 41
0.3
 77
     0
 78
     1
 53
30.00000000000005
 43
62.00474963563715
 44
-1.087444030241158
 45
-0.47625
 46
0.8248891971046777
 79
     0
 47
0.0394247914087948
 98
        1
 10
355.2282040021157
 20
192.8083509380869
  0
HATCH
  5
7F2
330
18
100
AcDbEntity
  8
外形線
 62
     4
100
AcDbHatch
 10
0.0
 20
0.0
 30
0.0
210
0.0
220
0.0
230
1.0
  2
ANSI31
 70
     0
 71
     1
 91
        1
 92
        7
 72
     0
 73
     1
 93
        4
 10
354.3171604398838
 20
190.2713680274449
 10
356.3171604398837
 20
190.2713680274448
 10
356.3171604398838
 20
196.2713680274449
 10
354.3171604398838
 20
196.2713680274448
 97
        4
330
76E
330
779
330
223
330
77A
 75
     0
 76
     1
 52
105.0
 41
0.3
 77
     0
 78
     1
 53
150.0
 43
62.00474963563715
 44
-1.087444030241158
 45
-0.47625
 46
-0.8248891971046777
 79
     0
 47
0.0394247914087948
 98
        1
 10
355.1492931822791
 20
193.0054753467444
  0
HATCH
  5
7F3
330
18
100
AcDbEntity
  8
外形線
 62
     4
100
AcDbHatch
 10
0.0
 20
0.0
 30
0.0
210
0.0
220
0.0
230
1.0
  2
ANSI31
 70
     0
 71
     0
 91
        1
 92
        7
 72
     0
 73
     1
 93
        4
 10
356.3171604398837
 20
105.9375680934471
 10
354.3171604398837
 20
105.9375680934471
 10
354.3171604398837
 20
99.93756809344715
 10
356.3171604398837
 20
99.93756809344711
 97
        0
 75
     0
 76
     1
 52
105.0
 41
0.3
 77
     0
 78
     1
 53
150.0
 43
62.0047496356371
 44
-91.4212439642389
 45
-0.47625
 46
-0.8248891971046777
 79
     0
 47
0.0394247914087948
 98
        1
 10
355.149293182279
 20
102.6716754127467
  0
HATCH
  5
7F4
330
18
100
AcDbEntity
  8
外形線
 62
     4
100
AcDbHatch
 10
0.0
 20
0.0
 30
0.0
210
0.0
220
0.0
230
1.0
  2
ANSI31
 70
     0
 71
     0
 91
        1
 92
        7
 72
     0
 73
     1
 93
        4
 10
356.3171604398837
 20
105.9375680934471
 10
354.3171604398837
 20
105.9375680934471
 10
354.3171604398837
 20
99.93756809344715
 10
356.3171604398837
 20
99.93756809344711
 97
        0
 75
     0
 76
     1
 52
345.0
 41
0.3
 77
     0
 78
     1
 53
30.00000000000005
 43
62.0047496356371
 44
-91.4212439642389
 45
-0.47625
 46
0.8248891971046777
 79
     0
 47
0.0394247914087948
 98
        1
 10
355.2282040021156
 20
102.4745510040892
  0
LINE
  5
7F5
330
18
100
AcDbEntity
  8
外形線
100
AcDbLine
 10
354.3171604398837
 20
105.9375680934471
 30
0.0
 11
354.3171604398837
 21
93.93756809344708
 31
0.0
  0
LINE
  5
7F6
330
18
100
AcDbEntity
  8
外形線
100
AcDbLine
 10
356.3171604398837
 20
105.9375680934471
 30
0.0
 11
356.3171604398837
 21
93.93756809344708
 31
0.0
  0
LINE
  5
7F7
330
18
100
AcDbEntity
  8
外形線
100
AcDbLine
 10
356.8171604398835
 20
96.93756809344712
 30
0.0
 11
356.8171604398837
 21
105.4375680934471
 31
0.0
  0
LINE
  5
7F8
330
18
100
AcDbEntity
  8
外形線
100
AcDbLine
 10
353.8171604398837
 20
105.4375680934471
 30
0.0
 11
353.8171604398837
 21
94.43756809344709
 31
0.0
  0
LINE
  5
7F9
330
18
100
AcDbEntity
  8
外形線
100
AcDbLine
 10
353.8171604398837
 20
94.43756809344709
 30
0.0
 11
354.3171604398837
 21
93.93756809344708
 31
0.0
  0
LINE
  5
7FA
330
18
100
AcDbEntity
  8
外形線
100
AcDbLine
 10
353.3171604398837
 20
103.1875680934471
 30
0.0
 11
353.3171604398837
 21
96.68756809344712
 31
0.0
  0
LINE
  5
7FB
330
18
100
AcDbEntity
  8
外形線
100
AcDbLine
 10
353.3171604398837
 20
96.68756809344712
 30
0.0
 11
353.8171604398837
 21
96.68756809344712
 31
0.0
  0
LINE
  5
7FC
330
18
100
AcDbEntity
  8
外形線
100
AcDbLine
 10
353.3171604398837
 20
103.1875680934471
 30
0.0
 11
353.8171604398837
 21
103.1875680934471
 31
0.0
  0
LINE
  5
7FD
330
18
100
AcDbEntity
  8
外形線
 62
     4
100
AcDbLine
 10
357.3171604398837
 20
97.93756809344712
 30
0.0
 11
362.8171604398838
 21
97.93756809344712
 31
0.0
  0
LINE
  5
7FE
330
18
100
AcDbEntity
  8
外形線
 62
     4
100
AcDbLine
 10
357.3171604398837
 20
98.43756809344711
 30
0.0
 11
362.8171604398838
 21
98.43756809344711
 31
0.0
  0
LINE
  5
7FF
330
18
100
AcDbEntity
  8
外形線
 62
     4
100
AcDbLine
 10
357.3171604398837
 20
98.93756809344711
 30
0.0
 11
362.8171604398838
 21
98.93756809344711
 31
0.0
  0
LINE
  5
800
330
18
100
AcDbEntity
  8
外形線
 62
     4
100
AcDbLine
 10
357.3171604398837
 20
99.43756809344712
 30
0.0
 11
362.8171604398838
 21
99.43756809344712
 31
0.0
  0
LINE
  5
801
330
18
100
AcDbEntity
  8
外形線
 62
     4
100
AcDbLine
 10
357.3171604398837
 20
99.93756809344711
 30
0.0
 11
362.8171604398838
 21
99.93756809344711
 31
0.0
  0
LINE
  5
802
330
18
100
AcDbEntity
  8
外形線
100
AcDbLine
 10
357.3171604398837
 20
97.43756809344711
 30
0.0
 11
362.8171604398838
 21
97.43756809344711
 31
0.0
  0
LINE
  5
803
330
18
100
AcDbEntity
  8
外形線
100
AcDbLine
 10
357.3171604398837
 20
102.4375680934471
 30
0.0
 11
362.8171604398838
 21
102.4375680934471
 31
0.0
  0
LINE
  5
804
330
18
100
AcDbEntity
  8
外形線
100
AcDbLine
 10
357.3171604398837
 20
102.4375680934471
 30
0.0
 11
357.3171604398837
 21
97.43756809344711
 31
0.0
  0
ARC
  5
805
330
18
100
AcDbEntity
  8
外形線
100
AcDbCircle
 10
357.3171604398837
 20
96.93756809344712
 30
0.0
 40
0.5
100
AcDbArc
 50
90.0
 51
180.0
  0
LINE
  5
806
330
18
100
AcDbEntity
  8
外形線
100
AcDbLine
 10
356.8171604398837
 20
96.93756809344712
 30
0.0
 11
356.8171604398837
 21
94.43756809344709
 31
0.0
  0
LINE
  5
807
330
18
100
AcDbEntity
  8
外形線
100
AcDbLine
 10
356.3171604398837
 20
93.93756809344708
 30
0.0
 11
356.8171604398837
 21
94.43756809344709
 31
0.0
  0
LINE
  5
808
330
18
100
AcDbEntity
  8
外形線
100
AcDbLine
 10
354.3171604398837
 20
93.93756809344708
 30
0.0
 11
356.3171604398837
 21
93.93756809344708
 31
0.0
  0
ARC
  5
809
330
18
100
AcDbEntity
  8
外形線
100
AcDbCircle
 10
357.3171604398837
 20
102.9375680934471
 30
0.0
 40
0.5
100
AcDbArc
 50
180.0
 51
270.0
  0
LINE
  5
80A
330
18
100
AcDbEntity
  8
外形線
100
AcDbLine
 10
362.8171604398837
 20
102.4375680934471
 30
0.0
 11
362.8171604398837
 21
97.43756809344709
 31
0.0
  0
LINE
  5
80B
330
18
100
AcDbEntity
  8
外形線
100
AcDbLine
 10
362.8171604398838
 20
97.43756809344711
 30
0.0
 11
366.3171604398837
 21
98.63756809344705
 31
0.0
  0
LINE
  5
80C
330
18
100
AcDbEntity
  8
外形線
100
AcDbLine
 10
362.8171604398837
 20
102.4375680934471
 30
0.0
 11
366.3171604398837
 21
101.237568093447
 31
0.0
  0
LINE
  5
80D
330
18
100
AcDbEntity
  8
外形線
100
AcDbLine
 10
366.3171604398837
 20
98.63756809344705
 30
0.0
 11
366.3171604398837
 21
101.237568093447
 31
0.0
  0
ARC
  5
80E
330
18
100
AcDbEntity
  8
外形線
100
AcDbCircle
 10
366.1671604398837
 20
99.93756809344711
 30
0.0
 40
1.150000000000005
100
AcDbArc
 50
277.494717453927
 51
82.50528254607301
  0
POINT
  5
80F
330
18
100
AcDbEntity
  8
DEFPOINTS
  6
ByBlock
 62
     0
100
AcDbPoint
 10
367.3171604398837
 20
99.93756809344711
 30
0.0
  0
LINE
  5
810
330
18
100
AcDbEntity
  8
外形線
100
AcDbLine
 10
353.8171604398837
 20
105.4375680934471
 30
0.0
 11
354.3171604398837
 21
105.9375680934471
 31
0.0
  0
LINE
  5
811
330
18
100
AcDbEntity
  8
外形線
100
AcDbLine
 10
354.3171604398837
 20
105.9375680934471
 30
0.0
 11
356.3171604398837
 21
105.9375680934471
 31
0.0
  0
LINE
  5
812
330
18
100
AcDbEntity
  8
外形線
100
AcDbLine
 10
356.8171604398837
 20
105.4375680934471
 30
0.0
 11
356.3171604398837
 21
105.9375680934471
 31
0.0
  0
DIMENSION
  5
82F
330
18
100
AcDbEntity
  8
外形線
100
AcDbDimension
  2
*D7
 10
336.6440578474178
 20
193.2713680274448
 30
0.0
 11
334.7690578474177
 21
190.2713680274449
 31
0.0
 70
    32
  1
φ6
 71
     5
 42
6.000000000000028
  3
STYLE3
100
AcDbAlignedDimension
 13
340.2916170773649
 23
187.2713680274448
 33
0.0
 14
337.5559473710485
 24
193.2713680274448
 34
0.0
 50
90.0
100
AcDbRotatedDimension
1001
ACAD
1000
DSTYLE
1002
{
1070
   271
1070
     2
1002
}
  0
LINE
  5
908
330
18
100
AcDbEntity
  8
外形線
100
AcDbLine
 10
350.8171604398838
 20
193.2713680274449
 30
0.0
 11
350.8171604398838
 21
192.7713680274449
 31
0.0
  0
LINE
  5
909
330
18
100
AcDbEntity
  8
外形線
100
AcDbLine
 10
350.8171604398838
 20
192.7713680274448
 30
0.0
 11
353.3171604398838
 21
192.7713680274448
 31
0.0
  0
LINE
  5
90A
330
18
100
AcDbEntity
  8
外形線
100
AcDbLine
 10
350.8171604398838
 20
187.7713680274448
 30
0.0
 11
353.3171604398838
 21
187.7713680274448
 31
0.0
  0
LINE
  5
90B
330
18
100
AcDbEntity
  8
外形線
100
AcDbLine
 10
350.8171604398838
 20
187.7713680274448
 30
0.0
 11
350.8171604398838
 21
187.2713680274448
 31
0.0
  0
LINE
  5
90D
330
18
100
AcDbEntity
  8
外形線
100
AcDbLine
 10
296.4636070492904
 20
180.4178146368516
 30
0.0
 11
298.3171604398837
 21
182.2713680274448
 31
0.0
  0
LINE
  5
90E
330
18
100
AcDbEntity
  8
外形線
100
AcDbLine
 10
298.3171604398838
 20
198.2713680274449
 30
0.0
 11
296.4636070492905
 21
200.1249214180382
 31
0.0
  0
LINE
  5
912
330
18
100
AcDbEntity
  8
外形線
100
AcDbLine
 10
268.3171604398838
 20
109.9375680934471
 30
0.0
 11
296.1100536586972
 21
109.9375680934472
 31
0.0
  0
LINE
  5
913
330
18
100
AcDbEntity
  8
外形線
100
AcDbLine
 10
268.3171604398836
 20
89.93756809344706
 30
0.0
 11
296.110053658697
 21
89.93756809344715
 31
0.0
  0
LINE
  5
914
330
18
100
AcDbEntity
  8
外形線
100
AcDbLine
 10
268.3171604398837
 20
110.9375680934471
 30
0.0
 11
268.3171604398837
 21
88.93756809344711
 31
0.0
  0
LINE
  5
915
330
18
100
AcDbEntity
  8
外形線
100
AcDbLine
 10
298.3171604398838
 20
107.9375680934472
 30
0.0
 11
298.3171604398836
 21
91.93756809344714
 31
0.0
  0
LINE
  5
916
330
18
100
AcDbEntity
  8
外形線
100
AcDbLine
 10
296.3171604398837
 20
109.8926579540094
 30
0.0
 11
296.3171604398837
 21
89.98247823288496
 31
0.0
  0
LINE
  5
918
330
18
100
AcDbEntity
  8
外形線
100
AcDbLine
 10
296.4636070492903
 20
90.08401470285386
 30
0.0
 11
298.3171604398836
 21
91.93756809344714
 31
0.0
  0
LINE
  5
919
330
18
100
AcDbEntity
  8
外形線
100
AcDbLine
 10
298.3171604398838
 20
107.9375680934472
 30
0.0
 11
296.4636070492905
 21
109.7911214840405
 31
0.0
  0
LINE
  5
926
330
18
100
AcDbEntity
  8
外形線
100
AcDbLine
 10
350.8171604398837
 20
101.5958804886248
 30
0.0
 11
350.8171604398837
 21
98.27925569826939
 31
0.0
  0
LINE
  5
92B
330
18
100
AcDbEntity
  8
外形線
100
AcDbLine
 10
350.8171604398837
 20
101.5958804886248
 30
0.0
 11
353.3171604398837
 21
101.5958804886248
 31
0.0
  0
LINE
  5
92C
330
18
100
AcDbEntity
  8
外形線
100
AcDbLine
 10
350.8171604398837
 20
98.27925569826939
 30
0.0
 11
353.3171604398837
 21
98.27925569826938
 31
0.0
  0
LINE
  5
92D
330
18
100
AcDbEntity
  8
外形線
100
AcDbLine
 10
119.3171604398837
 20
203.7713680274448
 30
0.0
 11
119.3171604398837
 21
176.2713680274448
 31
0.0
  0
LINE
  5
92E
330
18
100
AcDbEntity
  8
外形線
100
AcDbLine
 10
119.3171604398838
 20
119.9375680934471
 30
0.0
 11
119.3171604398835
 21
68.93756809344712
 31
0.0
  0
LINE
  5
92F
330
18
100
AcDbEntity
  8
外形線
100
AcDbLine
 10
17.08873217424252
 20
198.7713680274448
 30
0.0
 11
17.08873217424252
 21
181.7713680274449
 31
0.0
  0
LINE
  5
930
330
18
100
AcDbEntity
  8
外形線
100
AcDbLine
 10
17.08873217424252
 20
108.4375680934471
 30
0.0
 11
17.08873217424241
 21
91.43756809344715
 31
0.0
  0
LINE
  5
931
330
18
100
AcDbEntity
  8
外形線
100
AcDbLine
 10
19.08873217424258
 20
200.2713680274448
 30
0.0
 11
19.08873217424246
 21
180.2713680274449
 31
0.0
  0
LINE
  5
932
330
18
100
AcDbEntity
  8
外形線
100
AcDbLine
 10
19.08873217424252
 20
109.9375680934471
 30
0.0
 11
19.08873217424241
 21
89.93756809344715
 31
0.0
  0
LINE
  5
933
330
18
100
AcDbEntity
  8
外形線
100
AcDbLine
 10
118.8171604398838
 20
200.2713680274445
 30
0.0
 11
118.8171604398838
 21
193.2570823131591
 31
0.0
  0
ARC
  5
934
330
18
100
AcDbEntity
  8
外形線
100
AcDbCircle
 10
18.58873217424252
 20
198.7713680274448
 30
0.0
 40
1.5
100
AcDbArc
 50
90.0
 51
179.9999999999998
  0
ARC
  5
935
330
18
100
AcDbEntity
  8
外形線
100
AcDbCircle
 10
18.58873217424252
 20
181.7713680274449
 30
0.0
 40
1.5
100
AcDbArc
 50
179.9999999999998
 51
270.0
  0
LINE
  5
936
330
18
100
AcDbEntity
  8
外形線
100
AcDbLine
 10
118.8171604398837
 20
109.9375680934467
 30
0.0
 11
118.8171604398836
 21
89.93756809344679
 31
0.0
  0
ARC
  5
937
330
18
100
AcDbEntity
  8
外形線
100
AcDbCircle
 10
18.58873217424241
 20
91.43756809344715
 30
0.0
 40
1.5
100
AcDbArc
 50
179.9999999999997
 51
270.0
  0
ARC
  5
938
330
18
100
AcDbEntity
  8
外形線
100
AcDbCircle
 10
18.58873217424252
 20
108.4375680934471
 30
0.0
 40
1.5
100
AcDbArc
 50
89.99999999999998
 51
179.9999999999997
  0
LINE
  5
939
330
18
100
AcDbEntity
  8
外形線
100
AcDbLine
 10
120.3171604398838
 20
120.9375680934471
 30
0.0
 11
264.3171604398838
 21
120.9375680934471
 31
0.0
  0
LINE
  5
93A
330
18
100
AcDbEntity
  8
外形線
100
AcDbLine
 10
120.3171604398835
 20
67.93756809344711
 30
0.0
 11
264.3171604398836
 21
67.93756809344711
 31
0.0
  0
LINE
  5
93B
330
18
100
AcDbEntity
  8
外形線
100
AcDbLine
 10
266.3171604398838
 20
118.9375680934471
 30
0.0
 11
266.3171604398836
 21
69.93756809344711
 31
0.0
  0
LINE
  5
93C
330
18
100
AcDbEntity
  8
外形線
100
AcDbLine
 10
267.3171604398838
 20
111.9375680934471
 30
0.0
 11
267.3171604398837
 21
111.9375680934471
 31
0.0
  0
LINE
  5
93D
330
18
100
AcDbEntity
  8
外形線
100
AcDbLine
 10
267.3171604398837
 20
87.93756809344712
 30
0.0
 11
267.3171604398837
 21
87.93756809344712
 31
0.0
  0
ARC
  5
93E
330
18
100
AcDbEntity
  8
外形線
100
AcDbCircle
 10
267.3171604398837
 20
110.9375680934471
 30
0.0
 40
1.0
100
AcDbArc
 50
359.9999999999998
 51
90.0
  0
ARC
  5
93F
330
18
100
AcDbEntity
  8
外形線
100
AcDbCircle
 10
267.3171604398837
 20
88.93756809344711
 30
0.0
 40
1.0
100
AcDbArc
 50
270.0
 51
359.9999999999999
  0
ARC
  5
941
330
18
100
AcDbEntity
  8
外形線
100
AcDbCircle
 10
267.3171604398837
 20
86.9375680934471
 30
0.0
 40
1.0
100
AcDbArc
 50
90.0
 51
179.9999999999997
  0
ARC
  5
942
330
18
100
AcDbEntity
  8
外形線
100
AcDbCircle
 10
267.3171604398838
 20
112.9375680934471
 30
0.0
 40
1.0
100
AcDbArc
 50
179.9999999999997
 51
269.9999999999992
  0
LINE
  5
943
330
18
100
AcDbEntity
  8
外形線
100
AcDbLine
 10
264.3171604398838
 20
120.9375680934471
 30
0.0
 11
266.3171604398838
 21
118.9375680934471
 31
0.0
  0
LINE
  5
944
330
18
100
AcDbEntity
  8
外形線
100
AcDbLine
 10
264.3171604398836
 20
67.93756809344711
 30
0.0
 11
266.3171604398836
 21
69.93756809344711
 31
0.0
  0
LINE
  5
945
330
18
100
AcDbEntity
  8
外形線
100
AcDbLine
 10
122.3171604398838
 20
120.9375680934471
 30
0.0
 11
122.3171604398835
 21
67.9375680934471
 31
0.0
  0
LINE
  5
946
330
18
100
AcDbEntity
  8
外形線
100
AcDbLine
 10
256.3171604398839
 20
120.9375680934471
 30
0.0
 11
256.3171604398836
 21
67.93756809344711
 31
0.0
  0
ARC
  5
947
330
18
100
AcDbEntity
  8
外形線
100
AcDbCircle
 10
120.3171604398835
 20
68.93756809344711
 30
0.0
 40
1.0
100
AcDbArc
 50
179.9999999999997
 51
270.0
  0
ARC
  5
948
330
18
100
AcDbEntity
  8
外形線
100
AcDbCircle
 10
120.3171604398838
 20
119.9375680934471
 30
0.0
 40
1.0
100
AcDbArc
 50
89.99999999999998
 51
179.9999999999997
  0
LINE
  5
949
330
18
100
AcDbEntity
  8
中心線
 48
0.3
100
AcDbLine
 10
261.3171604398839
 20
120.9375680934471
 30
0.0
 11
261.3171604398838
 21
109.1034901636786
 31
0.0
  0
LINE
  5
94A
330
18
100
AcDbEntity
  8
中心線
 48
0.3
100
AcDbLine
 10
256.6523283981422
 20
74.93756809344711
 30
0.0
 11
267.1512383696521
 21
74.93756809344711
 31
0.0
  0
LINE
  5
94B
330
18
100
AcDbEntity
  8
中心線
 48
0.3
100
AcDbLine
 10
255.4830825101154
 20
114.9375680934471
 30
0.0
 11
267.1512383696523
 21
114.9375680934471
 31
0.0
  0
CIRCLE
  5
94C
330
18
100
AcDbEntity
  8
外形線
100
AcDbCircle
 10
261.3171604398837
 20
74.93756809344711
 30
0.0
 40
2.25
  0
CIRCLE
  5
94D
330
18
100
AcDbEntity
  8
外形線
100
AcDbCircle
 10
261.3171604398837
 20
74.93756809344711
 30
0.0
 40
3.75
  0
CIRCLE
  5
950
330
18
100
AcDbEntity
  8
外形線
100
AcDbCircle
 10
261.3171604398838
 20
114.9375680934471
 30
0.0
 40
3.75
  0
CIRCLE
  5
951
330
18
100
AcDbEntity
  8
外形線
100
AcDbCircle
 10
261.3171604398838
 20
114.9375680934471
 30
0.0
 40
2.25
  0
LINE
  5
952
330
18
100
AcDbEntity
  8
中心線
 48
0.3
100
AcDbLine
 10
261.3171604398837
 20
80.77164602321557
 30
0.0
 11
261.3171604398837
 21
69.10349016367866
 31
0.0
  0
LINE
  5
955
330
18
100
AcDbEntity
  8
中心線
100
AcDbLine
 10
84.31716043988362
 20
113.9375680934471
 30
0.0
 11
124.1838258026698
 21
113.9375680934471
 31
0.0
  0
LINE
  5
957
330
18
100
AcDbEntity
  8
外形線
100
AcDbLine
 10
98.31716043988382
 20
116.3375680934471
 30
0.0
 11
98.31716043988377
 21
111.5375680934471
 31
0.0
  0
LINE
  5
95C
330
18
100
AcDbEntity
  8
外形線
100
AcDbLine
 10
98.31716043988379
 20
116.3375680934471
 30
0.0
 11
119.3171604398838
 21
116.9375680934471
 31
0.0
  0
LINE
  5
95D
330
18
100
AcDbEntity
  8
外形線
100
AcDbLine
 10
119.3171604398837
 20
110.9375680934471
 30
0.0
 11
98.31716043988377
 21
111.5375680934471
 31
0.0
  0
LINE
  5
95F
330
18
100
AcDbEntity
  8
外形線
100
AcDbLine
 10
84.31716043988359
 20
115.9375680934471
 30
0.0
 11
98.31716043988382
 21
115.9375680934471
 31
0.0
  0
LINE
  5
960
330
18
100
AcDbEntity
  8
外形線
100
AcDbLine
 10
84.31716043988354
 20
111.9375680934471
 30
0.0
 11
98.31716043988379
 21
111.9375680934471
 31
0.0
  0
ARC
  5
962
330
18
100
AcDbEntity
  8
外形線
100
AcDbCircle
 10
84.31716043988387
 20
173.9375680934471
 30
0.0
 40
58.0
100
AcDbArc
 50
240.0
 51
269.9999999999998
  0
ARC
  5
963
330
18
100
AcDbEntity
  8
外形線
100
AcDbCircle
 10
84.31716043988387
 20
173.9375680934471
 30
0.0
 40
62.0
100
AcDbArc
 50
240.0
 51
269.9999999999998
  0
LINE
  5
964
330
18
100
AcDbEntity
  8
想像線
 48
0.3
100
AcDbLine
 10
57.61401603061921
 20
127.0463521737949
 30
0.0
 11
50.93190988856162
 21
116.0632430649625
 31
0.0
  0
ARC
  5
967
330
18
100
AcDbEntity
  8
中心線
100
AcDbCircle
 10
84.31716043988387
 20
173.9375680934471
 30
0.0
 40
60.0
100
AcDbArc
 50
233.8881275693504
 51
269.9999999999998
  0
LINE
  5
969
330
18
100
AcDbEntity
  8
外形線
100
AcDbLine
 10
98.31716043988377
 20
192.6713680274448
 30
0.0
 11
119.3171604398838
 21
193.2713680274448
 31
0.0
  0
LINE
  5
96A
330
18
100
AcDbEntity
  8
中心線
100
AcDbLine
 10
84.31716043988359
 20
190.2713680274448
 30
0.0
 11
124.1838258026698
 21
190.2713680274448
 31
0.0
  0
LINE
  5
96B
330
18
100
AcDbEntity
  8
外形線
100
AcDbLine
 10
119.3171604398837
 20
187.2713680274448
 30
0.0
 11
98.31716043988377
 21
187.8713680274448
 31
0.0
  0
LINE
  5
96C
330
18
100
AcDbEntity
  8
外形線
100
AcDbLine
 10
98.31716043988379
 20
192.6713680274448
 30
0.0
 11
98.31716043988377
 21
187.8713680274448
 31
0.0
  0
LINE
  5
96D
330
18
100
AcDbEntity
  8
外形線
100
AcDbLine
 10
57.31704170691291
 20
192.2713680274449
 30
0.0
 11
98.31716043988379
 21
192.2713680274448
 31
0.0
  0
LINE
  5
96E
330
18
100
AcDbEntity
  8
外形線
100
AcDbLine
 10
56.500031390716
 20
188.2713680274448
 30
0.0
 11
98.31716043988377
 21
188.2713680274448
 31
0.0
  0
LINE
  5
96F
330
18
100
AcDbEntity
  8
想像線
 48
0.3
100
AcDbLine
 10
58.14346825747406
 20
196.3174689599673
 30
0.0
 11
55.678854171186
 21
184.2509672895323
 31
0.0
  0
LINE
  5
970
330
18
100
AcDbEntity
  8
外形線
100
AcDbLine
 10
118.8171604398837
 20
187.2856537417305
 30
0.0
 11
118.8171604398837
 21
180.2713680274446
 31
0.0
  0
LINE
  5
979
330
18
100
AcDbEntity
  8
外形線
100
AcDbLine
 10
268.3171604398838
 20
201.2713680274448
 30
0.0
 11
268.3171604398838
 21
179.2713680274448
 31
0.0
  0
ARC
  5
97A
330
18
100
AcDbEntity
  8
外形線
100
AcDbCircle
 10
267.3171604398837
 20
177.2713680274448
 30
0.0
 40
1.0
100
AcDbArc
 50
90.0
 51
179.9999999999997
  0
ARC
  5
97B
330
18
100
AcDbEntity
  8
外形線
100
AcDbCircle
 10
267.3171604398838
 20
179.2713680274448
 30
0.0
 40
1.0
100
AcDbArc
 50
270.0
 51
359.9999999999999
  0
LINE
  5
97C
330
18
100
AcDbEntity
  8
外形線
100
AcDbLine
 10
267.3171604398837
 20
178.2713680274448
 30
0.0
 11
267.3171604398838
 21
178.2713680274448
 31
0.0
  0
ARC
  5
97D
330
18
100
AcDbEntity
  8
外形線
100
AcDbCircle
 10
267.3171604398839
 20
203.2713680274448
 30
0.0
 40
1.0
100
AcDbArc
 50
179.9999999999997
 51
269.9999999999992
  0
ARC
  5
97E
330
18
100
AcDbEntity
  8
外形線
100
AcDbCircle
 10
267.3171604398838
 20
201.2713680274448
 30
0.0
 40
1.0
100
AcDbArc
 50
359.9999999999998
 51
90.0
  0
LINE
  5
97F
330
18
100
AcDbEntity
  8
外形線
100
AcDbLine
 10
267.3171604398838
 20
202.2713680274449
 30
0.0
 11
267.3171604398838
 21
202.2713680274449
 31
0.0
  0
LINE
  5
980
330
18
100
AcDbEntity
  8
外形線
100
AcDbLine
 10
266.3171604398838
 20
204.2713680274448
 30
0.0
 11
266.3171604398837
 21
176.2713680274448
 31
0.0
  0
LINE
  5
981
330
18
100
AcDbEntity
  8
外形線
100
AcDbLine
 10
256.3171604398839
 20
199.2713680274448
 30
0.0
 11
256.3171604398838
 21
175.2713680274448
 31
0.0
  0
LINE
  5
982
330
18
100
AcDbEntity
  8
外形線
100
AcDbLine
 10
264.3171604398838
 20
205.2713680274448
 30
0.0
 11
264.3171604398838
 21
175.2713680274448
 31
0.0
  0
LINE
  5
983
330
18
100
AcDbEntity
  8
外形線
100
AcDbLine
 10
122.3171604398837
 20
199.2713680274448
 30
0.0
 11
122.3171604398837
 21
175.2713680274448
 31
0.0
  0
LINE
  5
984
330
18
100
AcDbEntity
  8
外形線
100
AcDbLine
 10
251.3171604398838
 20
205.2713680274448
 30
0.0
 11
265.3171604398838
 21
205.2713680274449
 31
0.0
  0
LINE
  5
985
330
18
100
AcDbEntity
  8
外形線
100
AcDbLine
 10
120.3171604398837
 20
175.2713680274448
 30
0.0
 11
265.3171604398837
 21
175.2713680274448
 31
0.0
  0
LINE
  5
987
330
18
100
AcDbEntity
  8
外形線
100
AcDbLine
 10
123.3171604398837
 20
200.2713680274448
 30
0.0
 11
255.3171604398839
 21
200.2713680274448
 31
0.0
  0
LINE
  5
989
330
18
100
AcDbEntity
  8
外形線
100
AcDbLine
 10
120.3171604398837
 20
204.7713680274448
 30
0.0
 11
250.8171604398838
 21
204.7713680274448
 31
0.0
  0
LINE
  5
98B
330
18
100
AcDbEntity
  8
外形線
100
AcDbLine
 10
251.3171604398838
 20
205.2713680274449
 30
0.0
 11
250.8171604398838
 21
204.7713680274448
 31
0.0
  0
ARC
  5
98C
330
18
100
AcDbEntity
  8
外形線
100
AcDbCircle
 10
255.3171604398839
 20
199.2713680274448
 30
0.0
 40
1.0
100
AcDbArc
 50
359.9999999999997
 51
90.0
  0
ARC
  5
98D
330
18
100
AcDbEntity
  8
外形線
100
AcDbCircle
 10
265.3171604398838
 20
204.2713680274448
 30
0.0
 40
1.0
100
AcDbArc
 50
359.9999999999999
 51
90.0000000000001
  0
ARC
  5
98E
330
18
100
AcDbEntity
  8
外形線
100
AcDbCircle
 10
265.3171604398837
 20
176.2713680274448
 30
0.0
 40
1.0
100
AcDbArc
 50
270.0
 51
360.0
  0
ARC
  5
98F
330
18
100
AcDbEntity
  8
外形線
100
AcDbCircle
 10
120.3171604398837
 20
176.2713680274448
 30
0.0
 40
1.0
100
AcDbArc
 50
180.0
 51
270.0
  0
ARC
  5
990
330
18
100
AcDbEntity
  8
外形線
100
AcDbCircle
 10
123.3171604398837
 20
199.2713680274448
 30
0.0
 40
1.0
100
AcDbArc
 50
90.0
 51
179.9999999999999
  0
ARC
  5
991
330
18
100
AcDbEntity
  8
外形線
100
AcDbCircle
 10
120.3171604398837
 20
203.7713680274448
 30
0.0
 40
1.0
100
AcDbArc
 50
90.0
 51
180.0
  0
LINE
  5
992
330
18
100
AcDbEntity
  8
中心線
 48
0.2
100
AcDbLine
 10
122.923488717837
 20
197.2713680274448
 30
0.0
 11
129.7108321619304
 21
197.2713680274448
 31
0.0
  0
LINE
  5
993
330
18
100
AcDbEntity
  8
中心線
 48
0.2
100
AcDbLine
 10
253.3171604398837
 20
200.6650397494915
 30
0.0
 11
253.3171604398837
 21
193.8776963053981
 31
0.0
  0
LINE
  5
994
330
18
100
AcDbEntity
  8
中心線
 48
0.2
100
AcDbLine
 10
126.3171604398837
 20
200.6650397494915
 30
0.0
 11
126.3171604398837
 21
193.8776963053981
 31
0.0
  0
CIRCLE
  5
995
330
18
100
AcDbEntity
  8
外形線
100
AcDbCircle
 10
253.3171604398837
 20
197.2713680274448
 30
0.0
 40
1.75
  0
LINE
  5
999
330
18
100
AcDbEntity
  8
外形線
100
AcDbLine
 10
254.2497525593872
 20
198.2039601469483
 30
0.0
 11
252.3845683203802
 21
196.3387759079413
 31
0.0
  0
LINE
  5
99A
330
18
100
AcDbEntity
  8
外形線
100
AcDbLine
 10
252.3845683203802
 20
198.2039601469483
 30
0.0
 11
254.2497525593873
 21
196.3387759079413
 31
0.0
  0
LINE
  5
99C
330
18
100
AcDbEntity
  8
外形線
100
AcDbLine
 10
125.3845683203802
 20
198.2039601469483
 30
0.0
 11
127.2497525593873
 21
196.3387759079413
 31
0.0
  0
LINE
  5
99D
330
18
100
AcDbEntity
  8
外形線
100
AcDbLine
 10
127.2497525593872
 20
198.2039601469483
 30
0.0
 11
125.3845683203802
 21
196.3387759079413
 31
0.0
  0
CIRCLE
  5
99E
330
18
100
AcDbEntity
  8
外形線
100
AcDbCircle
 10
126.3171604398837
 20
197.2713680274448
 30
0.0
 40
1.75
  0
LINE
  5
99F
330
18
100
AcDbEntity
  8
中心線
 48
0.2
100
AcDbLine
 10
249.923488717837
 20
197.2713680274448
 30
0.0
 11
256.7108321619305
 21
197.2713680274448
 31
0.0
  0
DIMENSION
  5
9AC
330
18
100
AcDbEntity
  8
寸法線
100
AcDbDimension
  2
*D8
 10
275.8281529245758
 20
190.2713680274448
 30
0.0
 11
273.9531529245757
 21
197.7713680274449
 31
0.0
 70
    32
 71
     5
 42
15.0
  3
STYLE3
100
AcDbAlignedDimension
 13
265.3171604398838
 23
205.2713680274449
 33
0.0
 14
275.5357887869639
 24
190.2713680274448
 34
0.0
 50
90.0
100
AcDbRotatedDimension
1001
ACAD
1000
DSTYLE
1002
{
1070
   271
1070
     7
1002
}
  0
DIMENSION
  5
9B8
330
18
100
AcDbEntity
  8
寸法線
100
AcDbDimension
  2
*D9
 10
275.8281529245758
 20
175.2713680274448
 30
0.0
 11
273.9531529245757
 21
182.7713680274449
 31
0.0
 70
    32
 71
     5
 42
15.00000000000003
  3
STYLE3
100
AcDbAlignedDimension
 13
275.5357887869639
 23
190.2713680274448
 33
0.0
 14
265.3171604398837
 24
175.2713680274448
 34
0.0
 50
90.0
100
AcDbRotatedDimension
1001
ACAD
1000
DSTYLE
1002
{
1070
    75
1070
     1
1070
   271
1070
     7
1070
   279
1070
     1
1002
}
  0
DIMENSION
  5
9C5
330
18
100
AcDbEntity
  8
寸法線
100
AcDbDimension
  2
*D10
 10
282.1139772321208
 20
175.2713680274448
 30
0.0
 11
280.2389772321207
 21
190.2713680274448
 31
0.0
 70
    32
 71
     5
 42
30.00000000000003
  3
STYLE3
100
AcDbAlignedDimension
 13
277.0781529245758
 23
205.2713680274448
 33
0.0
 14
277.0781529245758
 24
175.2713680274448
 34
0.0
 50
90.0
100
AcDbRotatedDimension
1001
ACAD
1000
DSTYLE
1002
{
1070
   271
1070
     7
1002
}
  0
DIMENSION
  5
9D2
330
18
100
AcDbEntity
  8
寸法線
100
AcDbDimension
  2
*D11
 10
276.6524866313555
 20
99.93756809344711
 30
0.0
 11
274.7774866313555
 21
107.4375680934471
 31
0.0
 70
    32
 71
     5
 42
15.0
  3
STYLE3
100
AcDbAlignedDimension
 13
267.1512383696523
 23
114.9375680934471
 33
0.0
 14
276.3933465368559
 24
99.93756809344711
 34
0.0
 50
90.0
100
AcDbRotatedDimension
1001
ACAD
1000
DSTYLE
1002
{
1070
   271
1070
     7
1002
}
  0
DIMENSION
  5
9DF
330
18
100
AcDbEntity
  8
寸法線
100
AcDbDimension
  2
*D12
 10
282.6127250837314
 20
74.93756809344711
 30
0.0
 11
280.7377250837315
 21
94.93756809344715
 31
0.0
 70
    32
 71
     5
 42
40.0
  3
STYLE3
100
AcDbAlignedDimension
 13
277.9024866313555
 23
114.9375680934471
 33
0.0
 14
267.1512383696521
 24
74.93756809344711
 34
0.0
 50
90.0
100
AcDbRotatedDimension
1001
ACAD
1000
DSTYLE
1002
{
1070
   271
1070
     7
1002
}
  0
DIMENSION
  5
9EC
330
18
100
AcDbEntity
  8
寸法線
100
AcDbDimension
  2
*D13
 10
289.8686663341607
 20
67.9375680934471
 30
0.0
 11
287.9936663341607
 21
94.43756809344716
 31
0.0
 70
    32
 71
     5
 42
53.0
  3
STYLE3
100
AcDbAlignedDimension
 13
264.3171604398838
 23
120.9375680934471
 33
0.0
 14
264.3171604398836
 24
67.93756809344711
 34
0.0
 50
90.0
100
AcDbRotatedDimension
1001
ACAD
1000
DSTYLE
1002
{
1070
   271
1070
     7
1002
}
  0
DIMENSION
  5
9F9
330
18
100
AcDbEntity
  8
寸法線
100
AcDbDimension
  2
*D14
 10
241.4093407572086
 20
99.93756809344711
 30
0.0
 11
239.5343407572086
 21
110.4375680934471
 31
0.0
 70
    32
 71
     5
 42
21.0
  3
STYLE3
100
AcDbAlignedDimension
 13
239.5953554446014
 23
120.9375680934471
 33
0.0
 14
241.4093407572086
 24
99.93756809344711
 34
0.0
 50
90.0
100
AcDbRotatedDimension
1001
ACAD
1000
DSTYLE
1002
{
1070
   271
1070
     7
1002
}
  0
LINE
  5
9FA
330
18
100
AcDbEntity
  8
寸法線
100
AcDbLine
 10
353.3171604398837
 20
103.1875680934471
 30
0.0
 11
353.3171604398837
 21
114.6962133725683
 31
0.0
  0
DIMENSION
  5
A07
330
18
100
AcDbEntity
  8
寸法線
100
AcDbDimension
  2
*D15
 10
353.3171604398837
 20
132.7298233399029
 30
0.0
 11
360.3171604398838
 21
134.6048233399029
 31
0.0
 70
    32
 71
     5
 42
14.00000000000005
  3
STYLE3
100
AcDbAlignedDimension
 13
367.3171604398838
 23
99.93756809344711
 33
0.0
 14
353.3171604398837
 24
114.6962133725683
 34
0.0
100
AcDbRotatedDimension
1001
ACAD
1000
DSTYLE
1002
{
1070
   271
1070
     7
1002
}
  0
DIMENSION
  5
A13
330
18
100
AcDbEntity
  8
寸法線
100
AcDbDimension
  2
*D16
 10
298.3171604398838
 20
132.7298233399029
 30
0.0
 11
325.8171604398838
 21
134.6048233399029
 31
0.0
 70
    32
  1
105
 71
     5
 42
54.99999999999994
  3
STYLE3
100
AcDbAlignedDimension
 13
353.3171604398837
 23
114.6962133725683
 33
0.0
 14
298.3171604398838
 24
107.9375680934472
 34
0.0
100
AcDbRotatedDimension
1001
ACAD
1000
DSTYLE
1002
{
1070
    75
1070
     1
1070
   271
1070
     7
1070
   279
1070
     1
1002
}
  0
DIMENSION
  5
A1F
330
18
100
AcDbEntity
  8
寸法線
100
AcDbDimension
  2
*D17
 10
268.3171604398837
 20
132.7298233399029
 30
0.0
 11
283.3171604398838
 21
134.6048233399029
 31
0.0
 70
    32
 71
     5
 42
30.00000000000006
  3
STYLE3
100
AcDbAlignedDimension
 13
298.3171604398838
 23
107.9375680934472
 33
0.0
 14
268.3171604398837
 24
110.9375680934471
 34
0.0
100
AcDbRotatedDimension
1001
ACAD
1000
DSTYLE
1002
{
1070
    75
1070
     1
1070
   271
1070
     7
1070
   279
1070
     1
1002
}
  0
DIMENSION
  5
A2B
330
18
100
AcDbEntity
  8
寸法線
100
AcDbDimension
  2
*D18
 10
119.3171604398838
 20
132.7298233399029
 30
0.0
 11
193.8171604398837
 21
134.6048233399029
 31
0.0
 70
    32
 71
     5
 42
148.9999999999999
  3
STYLE3
100
AcDbAlignedDimension
 13
268.3171604398837
 23
110.9375680934471
 33
0.0
 14
119.3171604398838
 24
119.9375680934471
 34
0.0
100
AcDbRotatedDimension
1001
ACAD
1000
DSTYLE
1002
{
1070
    75
1070
     1
1070
   271
1070
     7
1070
   279
1070
     1
1002
}
  0
DIMENSION
  5
A37
330
18
100
AcDbEntity
  8
寸法線
100
AcDbDimension
  2
*D19
 10
17.08873217424252
 20
132.7298233399029
 30
0.0
 11
68.20294630706317
 21
134.6048233399029
 31
0.0
 70
    32
  1
132.5
 71
     5
 42
102.2284282656413
  3
STYLE3
100
AcDbAlignedDimension
 13
119.3171604398838
 23
119.9375680934471
 33
0.0
 14
17.08873217424252
 24
108.4375680934471
 34
0.0
100
AcDbRotatedDimension
1001
ACAD
1000
DSTYLE
1002
{
1070
    75
1070
     1
1070
   271
1070
     7
1070
   279
1070
     1
1002
}
  0
DIMENSION
  5
A77
330
18
100
AcDbEntity
  8
寸法線
100
AcDbDimension
  2
*D20
 10
367.3171604398838
 20
139.3730980682546
 30
0.0
 11
192.2029463070631
 21
141.2480980682546
 31
0.0
 70
    32
  1
430.5
 71
     5
 42
350.2284282656412
  3
STYLE3
100
AcDbAlignedDimension
 13
17.08873217424252
 23
133.9798233399029
 33
0.0
 14
367.3171604398838
 24
133.9798233399029
 34
0.0
100
AcDbRotatedDimension
1001
ACAD
1000
DSTYLE
1002
{
1070
   271
1070
     7
1002
}
  0
ARC
  5
A78
330
18
100
AcDbEntity
  8
外形線
100
AcDbCircle
 10
296.110053658697
 20
90.43756809344714
 30
0.0
 40
0.5
100
AcDbArc
 50
270.0000000000002
 51
315.0
  0
ARC
  5
A79
330
18
100
AcDbEntity
  8
外形線
100
AcDbCircle
 10
296.1100536586972
 20
109.4375680934472
 30
0.0
 40
0.5
100
AcDbArc
 50
45.0
 51
90.00000000000019
  0
ARC
  5
A7A
330
18
100
AcDbEntity
  8
外形線
100
AcDbCircle
 10
296.1100536586973
 20
199.7713680274449
 30
0.0
 40
0.5
100
AcDbArc
 50
44.99999999999918
 51
90.00000000000019
  0
ARC
  5
A7B
330
18
100
AcDbEntity
  8
外形線
100
AcDbCircle
 10
296.1100536586971
 20
180.7713680274449
 30
0.0
 40
0.5
100
AcDbArc
 50
270.0000000000002
 51
315.0
  0
MTEXT
  5
A81
330
18
100
AcDbEntity
  8
0
  6
ByBlock
 62
     6
100
AcDbMText
 10
320.4571897052264
 20
116.9475983732217
 30
0.0
 40
2.5
 41
0.0
 71
     5
 72
     1
  1
φ20.0
  7
STYLE3
 73
     1
 44
1.0
  0
LINE
  5
A92
330
18
100
AcDbEntity
  8
0
  6
ByBlock
 62
     2
100
AcDbLine
 10
296.1100536586972
 20
109.9375680934472
 30
0.0
 11
308.8389544346421
 21
109.9375680934472
 31
0.0
  0
LINE
  5
A93
330
18
100
AcDbEntity
  8
0
  6
ByBlock
 62
     2
100
AcDbLine
 10
296.110053658697
 20
89.93756809344715
 30
0.0
 11
308.8389544346421
 21
89.93756809344715
 31
0.0
  0
LINE
  5
A94
330
18
100
AcDbEntity
  8
0
  6
ByBlock
 62
     2
100
AcDbLine
 10
307.5889544346421
 20
107.4375680934472
 30
0.0
 11
307.5889544346421
 21
92.43756809344715
 31
0.0
  0
INSERT
  5
A95
330
18
100
AcDbEntity
  8
0
  6
ByBlock
 62
     2
100
AcDbBlockReference
  2
_OPEN
 10
307.5889544346421
 20
109.9375680934472
 30
0.0
 41
2.5
 42
2.5
 43
2.5
 50
90.0
  0
INSERT
  5
A96
330
18
100
AcDbEntity
  8
0
  6
ByBlock
 62
     2
100
AcDbBlockReference
  2
_OPEN
 10
307.5889544346421
 20
89.93756809344715
 30
0.0
 41
2.5
 42
2.5
 43
2.5
 50
270.0
  0
MTEXT
  5
A97
330
18
100
AcDbEntity
  8
0
  6
ByBlock
 62
     6
100
AcDbMText
 10
329.5408136751093
 20
119.5768915629483
 30
0.0
 40
1.7
 41
0.0
 71
     5
 72
     1
  1
0
  7
STYLE3
 73
     1
 44
1.0
  0
POINT
  5
A98
330
18
100
AcDbEntity
  8
DEFPOINTS
  6
ByBlock
 62
     0
100
AcDbPoint
 10
296.1100536586972
 20
109.9375680934472
 30
0.0
  0
POINT
  5
A99
330
18
100
AcDbEntity
  8
DEFPOINTS
  6
ByBlock
 62
     0
100
AcDbPoint
 10
296.110053658697
 20
89.93756809344715
 30
0.0
  0
POINT
  5
A9A
330
18
100
AcDbEntity
  8
DEFPOINTS
  6
ByBlock
 62
     0
100
AcDbPoint
 10
307.5889544346421
 20
89.93756809344715
 30
0.0
  0
LINE
  5
A9B
330
18
100
AcDbEntity
  8
寸法線
100
AcDbLine
 10
307.5889544346421
 20
99.93756809344711
 30
0.0
 11
316.0475751158535
 21
115.0137127877927
 31
0.0
  0
LINE
  5
A9C
330
18
100
AcDbEntity
  8
寸法線
100
AcDbLine
 10
316.0475751158535
 20
115.0137127877927
 30
0.0
 11
335.1110340825635
 21
115.0137127877927
 31
0.0
  0
MTEXT
  5
A9D
330
18
100
AcDbEntity
  8
0
  6
ByBlock
 62
     6
100
AcDbMText
 10
330.6440570203985
 20
117.5199533280406
 30
0.0
 40
1.7
 41
0.0
 71
     5
 72
     1
  1
-0.03
  7
STYLE3
 73
     1
 44
1.0
  0
LINE
  5
AAD
330
18
100
AcDbEntity
  8
0
  6
ByBlock
 62
     2
100
AcDbLine
 10
272.5173966787726
 20
56.63874455896396
 30
0.0
 11
263.7968879984973
 21
70.88621631471299
 31
0.0
  0
LINE
  5
AAE
330
18
100
AcDbEntity
  8
0
  6
ByBlock
 62
     2
100
AcDbLine
 10
258.8374328812701
 20
78.98891987218123
 30
0.0
 11
257.5323131135787
 21
81.12121028204128
 31
0.0
  0
LINE
  5
AB0
330
18
100
AcDbEntity
  8
0
  6
ByBlock
 62
     2
100
AcDbLine
 10
260.1425526489614
 20
76.85662946232117
 30
0.0
 11
262.4917682308058
 21
73.01850672457305
 31
0.0
  0
INSERT
  5
AB1
330
18
100
AcDbEntity
  8
0
  6
ByBlock
 62
     2
100
AcDbBlockReference
  2
_OPEN
 10
260.1425526489614
 20
76.85662946232117
 30
0.0
 41
2.5
 42
2.5
 43
2.5
 50
301.469721574464
  0
INSERT
  5
AB2
330
18
100
AcDbEntity
  8
0
  6
ByBlock
 62
     2
100
AcDbBlockReference
  2
_OPEN
 10
262.4917682308058
 20
73.01850672457305
 30
0.0
 41
2.5
 42
2.5
 43
2.5
 50
121.469721574464
  0
POINT
  5
AB3
330
18
100
AcDbEntity
  8
DEFPOINTS
  6
ByBlock
 62
     0
100
AcDbPoint
 10
262.4917682308058
 20
73.01850672457305
 30
0.0
  0
POINT
  5
AB4
330
18
100
AcDbEntity
  8
DEFPOINTS
  6
ByBlock
 62
     0
100
AcDbPoint
 10
260.1425526489614
 20
76.85662946232117
 30
0.0
  0
LINE
  5
AB5
330
18
100
AcDbEntity
  8
寸法線
100
AcDbLine
 10
272.5173966787726
 20
56.63874455896396
 30
0.0
 11
310.9786870547066
 21
56.63874455896396
 31
0.0
  0
MTEXT
  5
AB6
330
18
100
AcDbEntity
  8
0
  6
ByBlock
 62
     6
100
AcDbMText
 10
291.3936960827488
 20
58.86925552134176
 30
0.0
 40
2.5
 41
0.0
 71
     5
 72
     1
  1
2-φ4.5×φ7.5深さ10
  7
STYLE3
 73
     1
 44
1.0
  0
LINE
  5
AE0
330
18
100
AcDbEntity
  8
想像線
 48
0.3
100
AcDbLine
 10
323.0114238739666
 20
105.1977096428782
 30
0.0
 11
324.6592931780931
 21
94.22110693602689
 31
0.0
  0
LINE
  5
AE1
330
18
100
AcDbEntity
  8
想像線
 48
0.3
100
AcDbLine
 10
324.9339390311288
 20
105.1977096428782
 30
0.0
 11
326.5818083352554
 21
94.22110693602689
 31
0.0
  0
LINE
  5
AE2
330
18
100
AcDbEntity
  8
外形線
100
AcDbLine
 10
325.2732441860803
 20
102.9375680934471
 30
0.0
 11
353.3171604398837
 21
102.9375680934471
 31
0.0
  0
LINE
  5
AE3
330
18
100
AcDbEntity
  8
外形線
100
AcDbLine
 10
326.1739979155186
 20
96.9375680934471
 30
0.0
 11
353.3171604398837
 21
96.93756809344709
 31
0.0
  0
LINE
  5
B03
330
18
100
AcDbEntity
  8
想像線
 48
0.3
100
AcDbLine
 10
323.0114238739666
 20
195.765199471642
 30
0.0
 11
324.6592931780931
 21
184.7885967647908
 31
0.0
  0
LINE
  5
B04
330
18
100
AcDbEntity
  8
想像線
 48
0.3
100
AcDbLine
 10
324.9339390311288
 20
195.765199471642
 30
0.0
 11
326.5818083352554
 21
184.7885967647908
 31
0.0
  0
LINE
  5
B05
330
18
100
AcDbEntity
  8
外形線
100
AcDbLine
 10
326.2090807562258
 20
187.2713680274448
 30
0.0
 11
350.8171604398838
 21
187.2713680274448
 31
0.0
  0
LINE
  5
B06
330
18
100
AcDbEntity
  8
外形線
100
AcDbLine
 10
325.3083270267874
 20
193.2713680274449
 30
0.0
 11
350.8171604398838
 21
193.2713680274449
 31
0.0
  0
LINE
  5
B07
330
18
100
AcDbEntity
  8
想像線
 48
0.5
100
AcDbLine
 10
37.07144435578186
 20
113.7701876936042
 30
0.0
 11
41.18999537689996
 21
86.33615626070907
 31
0.0
  0
LINE
  5
B08
330
18
100
AcDbEntity
  8
想像線
 48
0.5
100
AcDbLine
 10
38.99395951294412
 20
113.7701876936042
 30
0.0
 11
43.11251053406221
 21
86.33615626070907
 31
0.0
  0
LINE
  5
B09
330
18
100
AcDbEntity
  8
想像線
 48
0.5
100
AcDbLine
 10
37.13556324862475
 20
203.9105759245793
 30
0.0
 11
41.29614019627621
 21
176.1966060901442
 31
0.0
  0
LINE
  5
B0A
330
18
100
AcDbEntity
  8
想像線
 48
0.5
100
AcDbLine
 10
39.058078405787
 20
203.9105759245793
 30
0.0
 11
43.21865535343846
 21
176.1966060901442
 31
0.0
  0
LINE
  5
B0F
330
18
100
AcDbEntity
  8
外形線
100
AcDbLine
 10
42.60692918483897
 20
180.2713680274449
 30
0.0
 11
119.3171604398837
 21
180.2713680274449
 31
0.0
  0
LINE
  5
B10
330
18
100
AcDbEntity
  8
外形線
100
AcDbLine
 10
39.60441675337788
 20
200.2713680274449
 30
0.0
 11
119.3171604398838
 21
200.2713680274448
 31
0.0
  0
LINE
  5
B11
330
18
100
AcDbEntity
  8
外形線
100
AcDbLine
 10
39.56933391267077
 20
109.9375680934471
 30
0.0
 11
119.3171604398837
 21
109.9375680934471
 31
0.0
  0
LINE
  5
B12
330
18
100
AcDbEntity
  8
外形線
100
AcDbLine
 10
42.57184634413184
 20
89.93756809344715
 30
0.0
 11
119.3171604398836
 21
89.93756809344715
 31
0.0
  0
DIMENSION
  5
B34
330
18
100
AcDbEntity
  8
寸法線
100
AcDbDimension
  2
*D21
 10
268.3171604398838
 20
213.7609845016131
 30
0.0
 11
259.8171604398838
 21
215.635984501613
 31
0.0
 70
    32
 71
     5
 42
16.99999999999997
  3
STYLE3
100
AcDbAlignedDimension
 13
251.3171604398838
 23
205.2713680274449
 33
0.0
 14
268.3171604398838
 24
201.2713680274448
 34
0.0
100
AcDbRotatedDimension
1001
ACAD
1000
DSTYLE
1002
{
1070
   271
1070
     7
1002
}
  0
LINE
  5
B4C
330
18
100
AcDbEntity
  8
外形線
100
AcDbLine
 10
122.3171604398835
 20
69.93756809344711
 30
0.0
 11
256.3171604398836
 21
69.93756809344711
 31
0.0
  0
LINE
  5
B4D
330
18
100
AcDbEntity
  8
外形線
100
AcDbLine
 10
122.3171604398836
 20
85.93756809344711
 30
0.0
 11
256.3171604398837
 21
85.93756809344711
 31
0.0
  0
LINE
  5
B4E
330
18
100
AcDbEntity
  8
外形線
100
AcDbLine
 10
122.8171604398835
 20
70.43756809344711
 30
0.0
 11
235.3171604398836
 21
70.4375680934471
 31
0.0
  0
LINE
  5
B4F
330
18
100
AcDbEntity
  8
外形線
100
AcDbLine
 10
122.8171604398836
 20
85.4375680934471
 30
0.0
 11
235.3171604398837
 21
85.43756809344712
 31
0.0
  0
LINE
  5
B50
330
18
100
AcDbEntity
  8
外形線
100
AcDbLine
 10
122.8171604398836
 20
85.43756809344712
 30
0.0
 11
122.8171604398835
 21
70.43756809344711
 31
0.0
  0
LINE
  5
B51
330
18
100
AcDbEntity
  8
外形線
100
AcDbLine
 10
255.8171604398837
 20
85.43756809344712
 30
0.0
 11
255.8171604398836
 21
70.43756809344713
 31
0.0
  0
LINE
  5
B52
330
18
100
AcDbEntity
  8
外形線
100
AcDbLine
 10
235.8171604398837
 20
85.4375680934473
 30
0.0
 11
235.8171604398836
 21
70.43756809344731
 31
0.0
  0
LINE
  5
B53
330
18
100
AcDbEntity
  8
外形線
100
AcDbLine
 10
235.3171604398837
 20
85.4375680934473
 30
0.0
 11
235.3171604398835
 21
70.43756809344731
 31
0.0
  0
LINE
  5
B54
330
18
100
AcDbEntity
  8
外形線
100
AcDbLine
 10
235.8171604398836
 20
70.4375680934471
 30
0.0
 11
255.8171604398836
 21
70.4375680934471
 31
0.0
  0
LINE
  5
B55
330
18
100
AcDbEntity
  8
外形線
100
AcDbLine
 10
235.8171604398837
 20
85.43756809344712
 30
0.0
 11
255.8171604398837
 21
85.43756809344712
 31
0.0
  0
LINE
  5
B56
330
18
100
AcDbEntity
  8
外形線
100
AcDbLine
 10
234.3171604398837
 20
80.93756809344711
 30
0.0
 11
234.3171604398836
 21
71.4375680934471
 31
0.0
  0
LINE
  5
B57
330
18
100
AcDbEntity
  8
外形線
100
AcDbLine
 10
122.8171604398836
 20
81.9375680934471
 30
0.0
 11
235.3171604398837
 21
81.9375680934471
 31
0.0
  0
LINE
  5
B58
330
18
100
AcDbEntity
  8
外形線
100
AcDbLine
 10
123.8171604398835
 20
80.93756809344711
 30
0.0
 11
234.3171604398836
 21
80.93756809344711
 31
0.0
  0
LINE
  5
B59
330
18
100
AcDbEntity
  8
外形線
100
AcDbLine
 10
123.8171604398836
 20
71.43756809344712
 30
0.0
 11
234.3171604398836
 21
71.4375680934471
 31
0.0
  0
INSERT
  5
BD2
330
18
100
AcDbEntity
  8
外形線
100
AcDbBlockReference
  2
A$C46B047FA
 10
253.7637277692544
 20
79.46580436306144
 30
0.0
 41
1.362234848541108
 42
1.362234848541108
 43
1.362234848541108
 50
180.0
  0
TEXT
  5
BD7
330
18
100
AcDbEntity
  8
文字
100
AcDbText
 10
187.6262520520326
 20
84.50623499841018
 30
0.0
 40
1.5
  1
OZAKI  MFG. CO.,  LTD.  JAPAN
 50
180.0
 41
1.6
  7
4
100
AcDbText
  0
TEXT
  5
BDB
330
18
100
AcDbEntity
  8
0
  6
ByBlock
 62
     6
100
AcDbText
 10
222.7352502391232
 20
77.42717881129014
 30
0.0
 40
2.0
  1
DIGITAL  LINEAR  GAUGE/MODEL D-100S
 50
180.0
 41
1.6
  7
4
100
AcDbText
  0
LINE
  5
BE3
330
18
100
AcDbEntity
  8
外形線
100
AcDbLine
 10
123.8171604398836
 20
80.93756809344711
 30
0.0
 11
123.8171604398836
 21
71.43756809344711
 31
0.0
  0
LINE
  5
E1E
330
18
100
AcDbEntity
  8
外形線
100
AcDbLine
 10
135.8963550496978
 20
255.1488754026106
 30
0.0
 11
229.8963550496978
 21
255.1488754026106
 31
0.0
  0
LINE
  5
E1F
330
18
100
AcDbEntity
  8
外形線
100
AcDbLine
 10
135.8963550496978
 20
254.1488754026107
 30
0.0
 11
229.8963550496978
 21
254.1488754026107
 31
0.0
  0
TEXT
  5
E20
330
18
100
AcDbEntity
  8
文字
100
AcDbText
 10
135.7792450496978
 20
257.2609814026106
 30
0.0
 40
4.0
  1
Model No.D-100S Linear Gauge
  7
STYLE3
100
AcDbText
  0
LINE
  5
EAF
330
18
100
AcDbEntity
  8
外形線
100
AcDbLine
 10
236.1395295354048
 20
20.90799410201986
 30
0.0
 11
376.9309475354047
 21
20.90799410201986
 31
0.0
  0
LINE
  5
EB0
330
18
100
AcDbEntity
  8
外形線
100
AcDbLine
 10
236.1395295354048
 20
10.12778810201986
 30
0.0
 11
376.9309475354047
 21
10.12778810201986
 31
0.0
  0
TEXT
  5
EB1
330
18
100
AcDbEntity
  8
0
  6
Continuous
100
AcDbText
 10
237.5969965354048
 20
12.02577810201986
 30
0.0
 40
2.1
  1
Design and specifications are subject to change without notice for future improvement.
  7
STYLE3
100
AcDbText
  0
TEXT
  5
EB2
330
18
100
AcDbEntity
  8
0
  6
Continuous
100
AcDbText
 10
237.8884905354048
 20
15.95492610201986
 30
0.0
 40
3.5
  1
仕様及び外観は予告なく変更される場合がございますのでご了承下さい。
  7
STYLE3
100
AcDbText
  0
TEXT
  5
EB3
330
18
100
AcDbEntity
  8
0
  6
Continuous
100
AcDbText
 10
237.3055055354047
 20
2.261150102019862
 30
0.0
 40
2.1
  1
3RD Angle Projection
  7
STYLE3
100
AcDbText
  0
TEXT
  5
EB4
330
18
100
AcDbEntity
  8
0
  6
Continuous
100
AcDbText
 10
239.9289485354048
 20
5.757433102019862
 30
0.0
 40
3.0
  1
三　　角　　法
  7
STYLE3
100
AcDbText
  0
LINE
  5
EB5
330
18
100
AcDbEntity
  8
外形線
100
AcDbLine
 10
236.1395295354048
 20
0.5130101020198623
 30
0.0
 11
236.1395295354048
 21
20.90799410201986
 31
0.0
  0
LINE
  5
EB6
330
18
100
AcDbEntity
  8
外形線
100
AcDbLine
 10
338.1622965354048
 20
10.12778810201986
 30
0.0
 11
338.1622965354048
 21
0.5130101020198623
 31
0.0
  0
LINE
  5
EB7
330
18
100
AcDbEntity
  8
外形線
100
AcDbLine
 10
308.4299465354048
 20
10.12778810201986
 30
0.0
 11
308.4299465354048
 21
0.5130101020198623
 31
0.0
  0
LINE
  5
EB8
330
18
100
AcDbEntity
  8
外形線
100
AcDbLine
 10
288.8998745354048
 20
10.12778810201986
 30
0.0
 11
288.8998745354048
 21
0.5130101020198623
 31
0.0
  0
LINE
  5
EB9
330
18
100
AcDbEntity
  8
外形線
100
AcDbLine
 10
271.4102575354047
 20
10.12778810201986
 30
0.0
 11
271.4102575354047
 21
0.5130101020198623
 31
0.0
  0
TEXT
  5
EBA
330
18
100
AcDbEntity
  8
0
  6
Continuous
100
AcDbText
 10
272.8677265354047
 20
5.763388102019861
 30
0.0
 40
3.0
  1
単位
  7
STYLE3
100
AcDbText
  0
TEXT
  5
EBB
330
18
100
AcDbEntity
  8
0
  6
Continuous
100
AcDbText
 10
273.0394475354048
 20
2.261151102019862
 30
0.0
 40
2.1
  1
Unit
  7
STYLE3
100
AcDbText
  0
TEXT
  5
EBC
330
18
100
AcDbEntity
  8
0
  6
Continuous
100
AcDbText
 10
290.1856225354048
 20
5.472030102019862
 30
0.0
 40
3.0
  1
尺 度
  7
STYLE3
100
AcDbText
  0
TEXT
  5
EBD
330
18
100
AcDbEntity
  8
0
  6
Continuous
100
AcDbText
 10
280.9097745354048
 20
4.009294102019861
 30
0.0
 40
2.399999999999999
  1
mm
  7
STYLE3
100
AcDbText
  0
TEXT
  5
EBE
330
18
100
AcDbEntity
  8
0
  6
Continuous
100
AcDbText
 10
290.6488375354048
 20
2.552508102019862
 30
0.0
 40
2.1
  1
Scale
  7
STYLE3
100
AcDbText
  0
TEXT
  5
EBF
330
18
100
AcDbEntity
  8
0
  6
Continuous
100
AcDbText
 10
300.2681265354048
 20
4.300651102019863
 30
0.0
 40
2.399999999999999
  1
1/1
  7
STYLE3
100
AcDbText
  0
TEXT
  5
EC0
330
18
100
AcDbEntity
  8
0
  6
Continuous
100
AcDbText
 10
310.3618975354048
 20
2.261152102019861
 30
0.0
 40
2.1
  1
Date
  7
STYLE3
100
AcDbText
  0
TEXT
  5
EC1
330
18
100
AcDbEntity
  8
0
  6
Continuous
100
AcDbText
 10
309.9785365354048
 20
5.594235102019862
 30
0.0
 40
3.0
  1
日 付
  7
STYLE3
100
AcDbText
  0
TEXT
  5
EC2
330
18
100
AcDbEntity
  8
0
  6
Continuous
100
AcDbText
 10
319.1067055354048
 20
4.009293102019862
 30
0.0
 40
2.1
  1
2010.06.30
  7
STYLE3
100
AcDbText
  0
TEXT
  5
EC3
330
18
100
AcDbEntity
  8
0
  6
Continuous
100
AcDbText
 10
339.5112595354047
 20
6.048790102019862
 30
0.0
 40
3.0
  1
株式会社　尾崎製作所
  7
STYLE3
100
AcDbText
  0
TEXT
  5
EC4
330
18
100
AcDbEntity
  8
0
  6
Continuous
100
AcDbText
 10
340.3857385354048
 20
2.261151102019862
 30
0.0
 40
2.1
  1
OZAKI MFG. CO., LTD.
  7
STYLE3
100
AcDbText
  0
ENDSEC
  0
SECTION
  2
OBJECTS
  0
DICTIONARY
  5
C
330
0
100
AcDbDictionary
281
     1
  3
ACAD_COLOR
350
DD0
  3
ACAD_GROUP
350
D
  3
ACAD_LAYOUT
350
DD3
  3
ACAD_MATERIAL
350
DCF
  3
ACAD_MLINESTYLE
350
1B
  3
ACAD_PLOTSETTINGS
350
DD4
  3
ACAD_PLOTSTYLENAME
350
DCD
  3
ACAD_TABLESTYLE
350
DD1
  3
ACDBVARIABLEDICTIONARY
350
7E5
  0
DICTIONARY
  5
DD0
102
{ACAD_REACTORS
330
C
102
}
330
C
100
AcDbDictionary
281
     1
  0
DICTIONARY
  5
D
102
{ACAD_REACTORS
330
C
102
}
330
C
100
AcDbDictionary
281
     1
  0
DICTIONARY
  5
DD3
102
{ACAD_REACTORS
330
C
102
}
330
C
100
AcDbDictionary
281
     1
  3
Model
350
DD5
  3
レイアウト1
350
DD6
  0
DICTIONARY
  5
DCF
102
{ACAD_REACTORS
330
C
102
}
330
C
100
AcDbDictionary
281
     1
  0
DICTIONARY
  5
1B
102
{ACAD_REACTORS
330
C
102
}
330
C
100
AcDbDictionary
281
     1
  3
STANDARD
350
1C
  0
DICTIONARY
  5
DD4
102
{ACAD_REACTORS
330
C
102
}
330
C
100
AcDbDictionary
281
     1
  0
ACDBDICTIONARYWDFLT
  5
DCD
102
{ACAD_REACTORS
330
C
102
}
330
C
100
AcDbDictionary
281
     1
  3
Normal
350
DCE
100
AcDbDictionaryWithDefault
340
DCE
  0
DICTIONARY
  5
DD1
102
{ACAD_REACTORS
330
C
102
}
330
C
100
AcDbDictionary
281
     1
  3
Standard
350
DD2
  0
DICTIONARY
  5
7E5
102
{ACAD_REACTORS
330
C
102
}
330
C
100
AcDbDictionary
281
     1
  3
CTABLESTYLE
350
DE7
  3
SORTENTS
350
7E6
  0
LAYOUT
  5
DD5
102
{ACAD_REACTORS
330
DD3
102
}
330
DD3
100
AcDbPlotSettings
  1

  2
A3 EPSON LP-6100.pc3
  4
A3
  6

 40
5.873749732971191
 41
5.873747825622558
 42
5.873748779296875
 43
5.873748779296875
 44
297.0106506347656
 45
419.9466552734374
 46
1.5
 47
25.0
 48
0.0
 49
0.0
140
0.0
141
0.0
142
1.0
143
1.0
 70
 28336
 72
     1
 73
     1
 74
     1
  7
AutoCAD LT 98.ctb
 75
    16
147
1.0
 76
     1
 77
     2
 78
   300
148
0.4064110753653268
149
0.4045353325730048
100
AcDbLayout
  1
Model
 70
     1
 71
     0
 10
0.0
 20
0.0
 11
12.0
 21
9.0
 12
0.0
 22
0.0
 32
0.0
 14
0.0
 24
0.0
 34
0.0
 15
0.0
 25
0.0
 35
0.0
146
0.0
 13
0.0
 23
0.0
 33
0.0
 16
1.0
 26
0.0
 36
0.0
 17
0.0
 27
1.0
 37
0.0
 76
     0
330
18
1001
ACAD_PSEXT
1000
A3 EPSON LP-6100.pc3
1000
EPSON LP-6100
1000
USB002
1000

1070
     0
  0
LAYOUT
  5
DD6
102
{ACAD_REACTORS
330
DD3
102
}
330
DD3
100
AcDbPlotSettings
  1

  2
C:\Documents and Settings\佐藤\Application Data\Autodesk\AutoCAD LT 2005\R10\jpn\plotters\PEACOCK EPSON LP-6100.pc3
  4

  6

 40
0.0
 41
0.0
 42
0.0
 43
0.0
 44
0.0
 45
0.0
 46
0.0
 47
0.0
 48
0.0
 49
0.0
140
0.0
141
0.0
142
1.0
143
1.0
 70
   688
 72
     0
 73
     0
 74
     5
  7
AutoCAD LT 98.ctb
 75
    16
147
1.0
 76
     0
 77
     2
 78
   300
148
0.0
149
0.0
100
AcDbLayout
  1
レイアウト1
 70
     1
 71
     1
 10
0.0
 20
0.0
 11
420.0
 21
297.0
 12
0.0
 22
0.0
 32
0.0
 14
1.000000000000000E+20
 24
1.000000000000000E+20
 34
1.000000000000000E+20
 15
-1.000000000000000E+20
 25
-1.000000000000000E+20
 35
-1.000000000000000E+20
146
0.0
 13
0.0
 23
0.0
 33
0.0
 16
1.0
 26
0.0
 36
0.0
 17
0.0
 27
1.0
 37
0.0
 76
     0
330
15
  0
MLINESTYLE
  5
1C
102
{ACAD_REACTORS
330
1B
102
}
330
1B
100
AcDbMlineStyle
  2
STANDARD
 70
     0
  3

 62
   256
 51
90.0
 52
90.0
 71
     2
 49
0.5
 62
   256
  6
BYLAYER
 49
-0.5
 62
   256
  6
BYLAYER
  0
ACDBPLACEHOLDER
  5
DCE
102
{ACAD_REACTORS
330
DCD
102
}
330
DCD
  0
ACAD_PROXY_OBJECT
  5
DD2
102
{ACAD_REACTORS
330
DD1
102
}
330
DD1
100
AcDbProxyObject
 90
      499
 91
      504
 95
  2555929
 70
     0
 93
     1849
310
4214DD185B99185C992420000000000000F83F0000000000003E0FC00000000000004901028000000C1008070000C3001FDFF8000000C1003FBFF000000182007F7FE00000030400FEFFC00000060801FDFF8000000C1003FBFF000000182000000000000000C2020B0000001820100E000186003FBFF000000182007F7FE0
310
0000030400FEFFC00000060801FDFF8000000C1003FBFF000000182007F7FE0000003040000000000000012404160000003040201C00030C007F7FE00000030400FEFFC00000060801FDFF8000000C1003FBFF000000182007F7FE00000030400FEFFC000000608000
340
F
340
F
340
F
 94
        0
  0
DICTIONARYVAR
  5
DE7
102
{ACAD_REACTORS
330
7E5
102
}
330
7E5
100
DictionaryVariables
280
     0
  1
STANDARD
  0
DICTIONARYVAR
  5
7E6
102
{ACAD_REACTORS
330
7E5
102
}
330
7E5
100
DictionaryVariables
280
     0
  1
96
  0
ENDSEC
  0
EOF
