  0
SECTION
  2
HEADER
  9
$ACADVER
  1
AC1018
  9
$ACADMAINTVER
 70
     0
  9
$DWGCODEPAGE
  3
ANSI_932
  9
$INSBASE
 10
0.0
 20
0.0
 30
0.0
  9
$EXTMIN
 10
-0.2128225079886761
 20
-0.2090691322566727
 30
-0.0000457728747811
  9
$EXTMAX
 10
255.2310249564599
 20
195.2002935422122
 30
0.000030519906467
  9
$LIMMIN
 10
0.0
 20
0.0
  9
$LIMMAX
 10
420.0
 20
297.0
  9
$ORTHOMODE
 70
     0
  9
$REGENMODE
 70
     1
  9
$FILLMODE
 70
     1
  9
$QTEXTMODE
 70
     0
  9
$MIRRTEXT
 70
     1
  9
$LTSCALE
 40
1.0
  9
$ATTMODE
 70
     1
  9
$TEXTSIZE
 40
3.0
  9
$TRACEWID
 40
1.0
  9
$TEXTSTYLE
  7
STYLE3
  9
$CLAYER
  8
想像線
  9
$CELTYPE
  6
BYLAYER
  9
$CECOLOR
 62
   256
  9
$CELTSCALE
 40
1.0
  9
$DISPSILH
 70
     0
  9
$DIMSCALE
 40
1.0
  9
$DIMASZ
 40
2.5
  9
$DIMEXO
 40
0.0
  9
$DIMDLI
 40
3.75
  9
$DIMRND
 40
0.0
  9
$DIMDLE
 40
0.0
  9
$DIMEXE
 40
1.25
  9
$DIMTP
 40
0.0
  9
$DIMTM
 40
0.0
  9
$DIMTXT
 40
2.5
  9
$DIMCEN
 40
2.5
  9
$DIMTSZ
 40
0.0
  9
$DIMTOL
 70
     0
  9
$DIMLIM
 70
     0
  9
$DIMTIH
 70
     0
  9
$DIMTOH
 70
     0
  9
$DIMSE1
 70
     0
  9
$DIMSE2
 70
     0
  9
$DIMTAD
 70
     1
  9
$DIMZIN
 70
     8
  9
$DIMBLK
  1

  9
$DIMASO
 70
     1
  9
$DIMSHO
 70
     1
  9
$DIMPOST
  1

  9
$DIMAPOST
  1

  9
$DIMALT
 70
     0
  9
$DIMALTD
 70
     4
  9
$DIMALTF
 40
0.0394
  9
$DIMLFAC
 40
1.0
  9
$DIMTOFL
 70
     1
  9
$DIMTVP
 40
0.0
  9
$DIMTIX
 70
     0
  9
$DIMSOXD
 70
     0
  9
$DIMSAH
 70
     1
  9
$DIMBLK1
  1
OPEN
  9
$DIMBLK2
  1
OPEN
  9
$DIMSTYLE
  2
STYLE3
  9
$DIMCLRD
 70
     2
  9
$DIMCLRE
 70
     2
  9
$DIMCLRT
 70
     6
  9
$DIMTFAC
 40
1.0
  9
$DIMGAP
 40
0.625
  9
$DIMJUST
 70
     0
  9
$DIMSD1
 70
     0
  9
$DIMSD2
 70
     0
  9
$DIMTOLJ
 70
     1
  9
$DIMTZIN
 70
     0
  9
$DIMALTZ
 70
     0
  9
$DIMALTTZ
 70
     0
  9
$DIMUPT
 70
     0
  9
$DIMDEC
 70
     2
  9
$DIMTDEC
 70
     4
  9
$DIMALTU
 70
     8
  9
$DIMALTTD
 70
     4
  9
$DIMTXSTY
  7
STYLE3
  9
$DIMAUNIT
 70
     0
  9
$DIMADEC
 70
     0
  9
$DIMALTRND
 40
0.0
  9
$DIMAZIN
 70
     0
  9
$DIMDSEP
 70
    46
  9
$DIMATFIT
 70
     3
  9
$DIMFRAC
 70
     0
  9
$DIMLDRBLK
  1

  9
$DIMLUNIT
 70
     2
  9
$DIMLWD
 70
    -2
  9
$DIMLWE
 70
    -2
  9
$DIMTMOVE
 70
     0
  9
$LUNITS
 70
     2
  9
$LUPREC
 70
     4
  9
$SKETCHINC
 40
1.0
  9
$FILLETRAD
 40
5.0
  9
$AUNITS
 70
     0
  9
$AUPREC
 70
     0
  9
$MENU
  1
.
  9
$ELEVATION
 40
0.0
  9
$PELEVATION
 40
0.0
  9
$THICKNESS
 40
0.0
  9
$LIMCHECK
 70
     0
  9
$CHAMFERA
 40
0.3
  9
$CHAMFERB
 40
0.3
  9
$CHAMFERC
 40
20.0
  9
$CHAMFERD
 40
0.0
  9
$SKPOLY
 70
     0
  9
$TDCREATE
 40
2451576.389683565
  9
$TDUCREATE
 40
2451576.014683565
  9
$TDUPDATE
 40
2455378.360354271
  9
$TDUUPDATE
 40
2455377.985354271
  9
$TDINDWG
 40
0.5405084144
  9
$TDUSRTIMER
 40
0.5405084144
  9
$USRTIMER
 70
     1
  9
$ANGBASE
 50
0.0
  9
$ANGDIR
 70
     0
  9
$PDMODE
 70
     0
  9
$PDSIZE
 40
0.0
  9
$PLINEWID
 40
0.0
  9
$SPLFRAME
 70
     0
  9
$SPLINETYPE
 70
     6
  9
$SPLINESEGS
 70
     8
  9
$HANDSEED
  5
D18
  9
$SURFTAB1
 70
     6
  9
$SURFTAB2
 70
     6
  9
$SURFTYPE
 70
     6
  9
$SURFU
 70
     6
  9
$SURFV
 70
     6
  9
$UCSBASE
  2

  9
$UCSNAME
  2

  9
$UCSORG
 10
0.0
 20
0.0
 30
0.0
  9
$UCSXDIR
 10
1.0
 20
0.0
 30
0.0
  9
$UCSYDIR
 10
0.0
 20
1.0
 30
0.0
  9
$UCSORTHOREF
  2

  9
$UCSORTHOVIEW
 70
     0
  9
$UCSORGTOP
 10
0.0
 20
0.0
 30
0.0
  9
$UCSORGBOTTOM
 10
0.0
 20
0.0
 30
0.0
  9
$UCSORGLEFT
 10
0.0
 20
0.0
 30
0.0
  9
$UCSORGRIGHT
 10
0.0
 20
0.0
 30
0.0
  9
$UCSORGFRONT
 10
0.0
 20
0.0
 30
0.0
  9
$UCSORGBACK
 10
0.0
 20
0.0
 30
0.0
  9
$PUCSBASE
  2

  9
$PUCSNAME
  2

  9
$PUCSORG
 10
0.0
 20
0.0
 30
0.0
  9
$PUCSXDIR
 10
1.0
 20
0.0
 30
0.0
  9
$PUCSYDIR
 10
0.0
 20
1.0
 30
0.0
  9
$PUCSORTHOREF
  2

  9
$PUCSORTHOVIEW
 70
     0
  9
$PUCSORGTOP
 10
0.0
 20
0.0
 30
0.0
  9
$PUCSORGBOTTOM
 10
0.0
 20
0.0
 30
0.0
  9
$PUCSORGLEFT
 10
0.0
 20
0.0
 30
0.0
  9
$PUCSORGRIGHT
 10
0.0
 20
0.0
 30
0.0
  9
$PUCSORGFRONT
 10
0.0
 20
0.0
 30
0.0
  9
$PUCSORGBACK
 10
0.0
 20
0.0
 30
0.0
  9
$USERI1
 70
     0
  9
$USERI2
 70
     0
  9
$USERI3
 70
     0
  9
$USERI4
 70
     0
  9
$USERI5
 70
     0
  9
$USERR1
 40
0.0
  9
$USERR2
 40
0.0
  9
$USERR3
 40
0.0
  9
$USERR4
 40
0.0
  9
$USERR5
 40
0.0
  9
$WORLDVIEW
 70
     1
  9
$SHADEDGE
 70
     3
  9
$SHADEDIF
 70
    70
  9
$TILEMODE
 70
     1
  9
$MAXACTVP
 70
    48
  9
$PINSBASE
 10
0.0
 20
0.0
 30
0.0
  9
$PLIMCHECK
 70
     0
  9
$PEXTMIN
 10
-0.2
 20
-0.2
 30
0.0
  9
$PEXTMAX
 10
255.2
 20
195.2
 30
0.0
  9
$PLIMMIN
 10
0.0
 20
0.0
  9
$PLIMMAX
 10
420.0
 20
297.0
  9
$UNITMODE
 70
     0
  9
$VISRETAIN
 70
     1
  9
$PLINEGEN
 70
     0
  9
$PSLTSCALE
 70
     1
  9
$TREEDEPTH
 70
  3020
  9
$CMLSTYLE
  2
STANDARD
  9
$CMLJUST
 70
     0
  9
$CMLSCALE
 40
20.0
  9
$PROXYGRAPHICS
 70
     1
  9
$MEASUREMENT
 70
     1
  9
$CELWEIGHT
370
    -1
  9
$ENDCAPS
280
     0
  9
$JOINSTYLE
280
     0
  9
$LWDISPLAY
290
     0
  9
$INSUNITS
 70
     0
  9
$HYPERLINKBASE
  1

  9
$STYLESHEET
  1

  9
$XEDIT
290
     1
  9
$CEPSNTYPE
380
     0
  9
$PSTYLEMODE
290
     1
  9
$FINGERPRINTGUID
  2
{EE01BDDD-0CEE-4A32-9273-957F5D07339E}
  9
$VERSIONGUID
  2
{9D62447B-F647-4201-ADFE-7CA3FF3F6C00}
  9
$EXTNAMES
290
     1
  9
$PSVPSCALE
 40
0.0
  9
$OLESTARTUP
290
     0
  9
$SORTENTS
280
   127
  9
$INDEXCTL
280
     0
  9
$HIDETEXT
280
     0
  9
$XCLIPFRAME
290
     0
  9
$HALOGAP
280
     0
  9
$OBSCOLOR
 70
   257
  9
$OBSLTYPE
280
     0
  9
$INTERSECTIONDISPLAY
280
     0
  9
$INTERSECTIONCOLOR
 70
   257
  9
$DIMASSOC
280
     1
  9
$PROJECTNAME
  1

  0
ENDSEC
  0
SECTION
  2
CLASSES
  0
CLASS
  1
ACDBDICTIONARYWDFLT
  2
AcDbDictionaryWithDefault
  3
ObjectDBX Classes
 90
        0
 91
        1
280
     0
281
     0
  0
ENDSEC
  0
SECTION
  2
TABLES
  0
TABLE
  2
VPORT
  5
8
330
0
100
AcDbSymbolTable
 70
     2
  0
VPORT
  5
D17
330
8
100
AcDbSymbolTableRecord
100
AcDbViewportTableRecord
  2
*Active
 70
     0
 10
0.0
 20
0.0
 11
1.0
 21
1.0
 12
127.5091012242356
 22
97.49561220497778
 13
0.0
 23
0.0
 14
10.0
 24
10.0
 15
10.0
 25
10.0
 16
0.0
 26
0.0
 36
1.0
 17
0.0
 27
0.0
 37
0.0
 40
196.8953654324496
 41
1.530456852791878
 42
50.0
 43
0.0
 44
0.0
 50
0.0
 51
0.0
 71
     0
 72
   100
 73
     1
 74
     1
 75
     0
 76
     0
 77
     0
 78
     0
281
     0
 65
     1
110
0.0
120
0.0
130
0.0
111
1.0
121
0.0
131
0.0
112
0.0
122
1.0
132
0.0
 79
     0
146
0.0
  0
ENDTAB
  0
TABLE
  2
LTYPE
  5
5
330
0
100
AcDbSymbolTable
 70
    12
  0
LTYPE
  5
12
330
5
100
AcDbSymbolTableRecord
100
AcDbLinetypeTableRecord
  2
BYBLOCK
 70
     0
  3

 72
    65
 73
     0
 40
0.0
  0
LTYPE
  5
13
330
5
100
AcDbSymbolTableRecord
100
AcDbLinetypeTableRecord
  2
BYLAYER
 70
     0
  3

 72
    65
 73
     0
 40
0.0
  0
LTYPE
  5
14
330
5
100
AcDbSymbolTableRecord
100
AcDbLinetypeTableRecord
  2
CONTINUOUS
 70
     0
  3
Solid line
 72
    65
 73
     0
 40
0.0
  0
LTYPE
  5
22
330
5
100
AcDbSymbolTableRecord
100
AcDbLinetypeTableRecord
  2
CENTER2
 70
     0
  3
Center (.5x) ___ _ ___ _ ___ _ ___ _ ___ _ ___
 72
    65
 73
     4
 40
28.575
 49
19.05
 74
     0
 49
-3.174999999999999
 74
     0
 49
3.174999999999999
 74
     0
 49
-3.174999999999999
 74
     0
  0
LTYPE
  5
24
330
5
100
AcDbSymbolTableRecord
100
AcDbLinetypeTableRecord
  2
PHANTOM2
 70
     0
  3
Phantom (.5x) ___ _ _ ___ _ _ ___ _ _ ___ _ _
 72
    65
 73
     6
 40
31.75
 49
15.875
 74
     0
 49
-3.174999999999999
 74
     0
 49
3.174999999999999
 74
     0
 49
-3.174999999999999
 74
     0
 49
3.174999999999999
 74
     0
 49
-3.174999999999999
 74
     0
  0
ENDTAB
  0
TABLE
  2
LAYER
  5
2
330
0
100
AcDbSymbolTable
 70
    16
  0
LAYER
  5
E
330
2
100
AcDbSymbolTableRecord
100
AcDbLayerTableRecord
  2
0
 70
     0
 62
     7
  6
CONTINUOUS
370
    -3
390
C82
  0
LAYER
  5
25
330
2
100
AcDbSymbolTableRecord
100
AcDbLayerTableRecord
  2
外形線
 70
     0
 62
     7
  6
CONTINUOUS
370
    -3
390
C82
  0
LAYER
  5
26
330
2
100
AcDbSymbolTableRecord
100
AcDbLayerTableRecord
  2
寸法線
 70
     0
 62
     2
  6
CONTINUOUS
370
    -3
390
C82
  0
LAYER
  5
27
330
2
100
AcDbSymbolTableRecord
100
AcDbLayerTableRecord
  2
中心線
 70
     0
 62
     4
  6
CENTER2
370
    -3
390
C82
  0
LAYER
  5
29
330
2
100
AcDbSymbolTableRecord
100
AcDbLayerTableRecord
  2
想像線
 70
     0
 62
     1
  6
PHANTOM2
370
    -3
390
C82
  0
LAYER
  5
2A
330
2
100
AcDbSymbolTableRecord
100
AcDbLayerTableRecord
  2
ﾊｯﾁﾝｸ
 70
     0
 62
     6
  6
CONTINUOUS
370
    -3
390
C82
  0
LAYER
  5
2B
330
2
100
AcDbSymbolTableRecord
100
AcDbLayerTableRecord
  2
文字
 70
     0
 62
     6
  6
CONTINUOUS
370
    -3
390
C82
  0
LAYER
  5
53
330
2
100
AcDbSymbolTableRecord
100
AcDbLayerTableRecord
  2
DEFPOINTS
 70
     0
 62
     7
  6
CONTINUOUS
290
     0
370
    -3
390
C82
  0
LAYER
  5
A5
330
2
100
AcDbSymbolTableRecord
100
AcDbLayerTableRecord
  2
C
 70
     0
 62
     7
  6
CONTINUOUS
370
    -3
390
C82
  0
LAYER
  5
85A
330
2
100
AcDbSymbolTableRecord
100
AcDbLayerTableRecord
  2
ROGO
 70
     0
 62
     6
  6
CONTINUOUS
370
    -3
390
C82
  0
ENDTAB
  0
TABLE
  2
STYLE
  5
3
330
0
100
AcDbSymbolTable
 70
     7
  0
STYLE
  5
F
330
3
100
AcDbSymbolTableRecord
100
AcDbTextStyleTableRecord
  2
STANDARD
 70
     0
 40
0.0
 41
1.0
 50
0.0
 71
     0
 42
2.5
  3
txt
  4

  0
STYLE
  5
3F
330
3
100
AcDbSymbolTableRecord
100
AcDbTextStyleTableRecord
  2
STYLE3
 70
     0
 40
0.0
 41
1.0
 50
0.0
 71
     0
 42
3.0
  3
romans.shx
  4
bigfont.shx
  0
STYLE
  5
858
330
3
100
AcDbSymbolTableRecord
100
AcDbTextStyleTableRecord
  2
4
 70
     0
 40
0.0
 41
1.0
 50
0.0
 71
     0
 42
3.0
  3
MS PGothic.ttf
  4

1001
ACAD
1000
MS PGothic
1071
    32818
  0
ENDTAB
  0
TABLE
  2
VIEW
  5
6
330
0
100
AcDbSymbolTable
 70
     0
  0
ENDTAB
  0
TABLE
  2
UCS
  5
7
330
0
100
AcDbSymbolTable
 70
     0
  0
ENDTAB
  0
TABLE
  2
APPID
  5
9
330
0
100
AcDbSymbolTable
 70
     1
  0
APPID
  5
10
330
9
100
AcDbSymbolTableRecord
100
AcDbRegAppTableRecord
  2
ACAD
 70
     0
  0
ENDTAB
  0
TABLE
  2
DIMSTYLE
  5
A
330
0
100
AcDbSymbolTable
 70
     4
100
AcDbDimStyleTable
 71
     0
  0
DIMSTYLE
105
1D
330
A
100
AcDbSymbolTableRecord
100
AcDbDimStyleTableRecord
  2
STANDARD
 70
     0
 41
2.5
 42
0.625
 43
3.75
 44
1.25
 73
     0
 74
     0
 77
     1
 78
     8
140
2.5
141
2.5
143
0.0394
147
0.625
171
     4
172
     1
273
     8
274
     4
277
     6
340
F
  0
DIMSTYLE
105
8F
102
{ACAD_REACTORS
330
AF4
330
B00
330
B1A
330
B32
330
B3E
330
B77
330
BA3
330
BAF
330
BBC
102
}
330
A
100
AcDbSymbolTableRecord
100
AcDbDimStyleTableRecord
  2
STYLE3
 70
     0
 41
2.5
 42
0.0
 43
3.75
 44
1.25
 73
     0
 74
     0
 77
     1
 78
     8
140
2.5
141
2.5
143
0.0394
147
0.625
171
     4
172
     1
173
     1
176
     2
177
     2
178
     6
271
     1
273
     8
274
     4
340
3F
341
45
343
45
344
45
  0
ENDTAB
  0
TABLE
  2
BLOCK_RECORD
  5
1
330
0
100
AcDbSymbolTable
 70
    16
  0
BLOCK_RECORD
  5
18
330
1
100
AcDbSymbolTableRecord
100
AcDbBlockTableRecord
  2
*MODEL_SPACE
340
C87
  0
BLOCK_RECORD
  5
15
330
1
100
AcDbSymbolTableRecord
100
AcDbBlockTableRecord
  2
*PAPER_SPACE
340
C88
  0
BLOCK_RECORD
  5
45
330
1
100
AcDbSymbolTableRecord
100
AcDbBlockTableRecord
  2
_OPEN
340
0
102
{BLKREFS
331
AA1
331
AAE
331
AB5
331
AC2
331
ACC
331
ADB
331
ADC
331
BDE
331
BDF
331
BE8
331
BE9
331
A5E
331
A6B
331
A72
331
A7F
331
A89
331
A98
331
A99
331
84F
331
850
331
BB5
331
BB6
331
BD2
331
BD3
331
C01
331
C02
331
C10
331
C11
331
C33
331
C34
331
C42
331
C43
331
C51
331
C52
331
C92
331
C93
331
C9A
331
C9B
331
CA3
331
CA4
331
CAB
331
CAC
331
CB3
331
CB4
331
CBC
331
CBD
331
CC5
331
CC6
331
CCD
331
CCE
331
CD6
331
CD7
102
}
  0
BLOCK_RECORD
  5
85B
330
1
100
AcDbSymbolTableRecord
100
AcDbBlockTableRecord
  2
ROGO
340
0
102
{BLKREFS
331
983
331
940
102
}
  0
BLOCK_RECORD
  5
AE8
330
1
100
AcDbSymbolTableRecord
100
AcDbBlockTableRecord
  2
*D5
340
0
  0
BLOCK_RECORD
  5
AF5
330
1
100
AcDbSymbolTableRecord
100
AcDbBlockTableRecord
  2
*D6
340
0
  0
BLOCK_RECORD
  5
B0E
330
1
100
AcDbSymbolTableRecord
100
AcDbBlockTableRecord
  2
*D7
340
0
  0
BLOCK_RECORD
  5
B26
330
1
100
AcDbSymbolTableRecord
100
AcDbBlockTableRecord
  2
*D8
340
0
  0
BLOCK_RECORD
  5
B33
330
1
100
AcDbSymbolTableRecord
100
AcDbBlockTableRecord
  2
*D9
340
0
  0
BLOCK_RECORD
  5
B6C
330
1
100
AcDbSymbolTableRecord
100
AcDbBlockTableRecord
  2
*D10
340
0
  0
BLOCK_RECORD
  5
B97
330
1
100
AcDbSymbolTableRecord
100
AcDbBlockTableRecord
  2
*D11
340
0
  0
BLOCK_RECORD
  5
BA4
330
1
100
AcDbSymbolTableRecord
100
AcDbBlockTableRecord
  2
*D12
340
0
  0
BLOCK_RECORD
  5
BB0
330
1
100
AcDbSymbolTableRecord
100
AcDbBlockTableRecord
  2
*D13
340
0
  0
ENDTAB
  0
ENDSEC
  0
SECTION
  2
BLOCKS
  0
BLOCK
  5
19
330
18
100
AcDbEntity
  8
0
100
AcDbBlockBegin
  2
*MODEL_SPACE
 70
     0
 10
0.0
 20
0.0
 30
0.0
  3
*MODEL_SPACE
  1

  0
ENDBLK
  5
1A
330
18
100
AcDbEntity
  8
0
100
AcDbBlockEnd
  0
BLOCK
  5
16
330
15
100
AcDbEntity
 67
     1
  8
0
100
AcDbBlockBegin
  2
*PAPER_SPACE
 70
     0
 10
0.0
 20
0.0
 30
0.0
  3
*PAPER_SPACE
  1

  0
ENDBLK
  5
17
330
15
100
AcDbEntity
 67
     1
  8
0
100
AcDbBlockEnd
  0
BLOCK
  5
46
330
45
100
AcDbEntity
  8
0
100
AcDbBlockBegin
  2
_OPEN
 70
     0
 10
0.0
 20
0.0
 30
0.0
  3
_OPEN
  1

  0
LINE
  5
47
330
45
100
AcDbEntity
  8
0
  6
ByBlock
 62
     0
100
AcDbLine
 10
-1.0
 20
0.1666666666666666
 30
0.0
 11
0.0
 21
0.0
 31
0.0
  0
LINE
  5
48
330
45
100
AcDbEntity
  8
0
  6
ByBlock
 62
     0
100
AcDbLine
 10
0.0
 20
0.0
 30
0.0
 11
-1.0
 21
-0.1666666666666666
 31
0.0
  0
LINE
  5
49
330
45
100
AcDbEntity
  8
0
  6
ByBlock
 62
     0
100
AcDbLine
 10
0.0
 20
0.0
 30
0.0
 11
-1.0
 21
0.0
 31
0.0
  0
ENDBLK
  5
4A
330
45
100
AcDbEntity
  8
0
100
AcDbBlockEnd
  0
BLOCK
  5
8AE
330
85B
100
AcDbEntity
  8
0
100
AcDbBlockBegin
  2
ROGO
 70
     0
 10
0.0
 20
0.0
 30
0.0
  3
ROGO
  1

  0
HATCH
  5
85C
330
85B
100
AcDbEntity
  8
ROGO
 62
     4
100
AcDbHatch
 10
0.0
 20
0.0
 30
0.0
210
0.0
220
0.0
230
1.0
  2
SOLID
 70
     1
 71
     1
 91
        1
 92
        7
 72
     0
 73
     1
 93
       11
 10
38.38165352405156
 20
4.949786840425588
 10
36.55777800832078
 20
4.949786840425588
 10
35.70378540756275
 20
4.409370842614521
 10
35.97325427788326
 20
4.949786840425588
 10
34.14933885635003
 20
4.949786840425645
 10
31.68121527448045
 20
0.0
 10
33.50513069601385
 20
0.0
 10
34.14933885635003
 20
1.291950329371957
 10
34.79354701668632
 20
0.0
 10
36.61742253241704
 20
0.0
 10
35.38336074148237
 20
2.474893420212765
 97
       11
330
8AA
330
8AD
330
8AC
330
8AB
330
861
330
85E
330
8A7
330
8A6
330
8A8
330
8A5
330
8A9
 75
     0
 76
     1
 47
0.0514683685270805
 98
        1
 10
33.99236623130548
 20
2.826231829978155
450
        0
451
        0
460
0.0
461
0.0
452
        0
462
0.0
453
        0
470

  0
HATCH
  5
85D
330
85B
100
AcDbEntity
  8
ROGO
 62
     4
100
AcDbHatch
 10
0.0
 20
0.0
 30
0.0
210
0.0
220
0.0
230
1.0
  2
SOLID
 70
     1
 71
     1
 91
        1
 92
        5
 93
        8
 72
     1
 10
33.48588559853425
 20
4.949786840425645
 11
30.31359802057352
 21
4.949786840425645
 72
     4
 94
        3
 73
     0
 74
     0
 95
       26
 96
       22
 40
0.0
 40
0.0
 40
0.0
 40
0.0
 40
0.7089867102952115
 40
1.183598414482279
 40
1.525832104103439
 40
1.781366926528389
 40
2.112809002752968
 40
2.354729406992515
 40
2.791581270399936
 40
3.147172406765291
 40
3.389031356825354
 40
3.626186440486682
 40
4.050410779375985
 40
4.350388020238963
 40
4.511948940797758
 40
4.741441456013356
 40
4.907163150576407
 40
5.147239172635527
 40
5.28310143501293
 40
5.578752957634333
 40
5.713750011164293
 40
5.713750011164293
 40
5.713750011164293
 40
5.713750011164293
 10
30.31359802057318
 20
4.949786840425645
 10
30.11854899911117
 20
4.938149881331241
 10
29.7929297608427
 20
4.91872287919773
 10
29.43540181805798
 20
4.70152849352172
 10
29.17345591634097
 20
4.575261222274434
 10
28.98663641691252
 20
4.403611624277345
 10
28.84969696652098
 20
4.226310128312206
 10
28.67705908163674
 20
4.015056695877603
 10
28.53627781964582
 20
3.769060622409767
 10
28.46458648155834
 20
3.497930064177694
 10
28.40108297470425
 20
3.28183743611737
 10
28.35398771091377
 20
3.041030402807223
 10
28.36597007927202
 20
2.780874095348053
 10
28.38312937914947
 20
2.539254235598093
 10
28.45974148051295
 20
2.366773831190926
 10
28.5469890936244
 20
2.243979668736869
 10
28.65382260102928
 20
2.108735512341411
 10
28.77072182070049
 20
2.019163745498303
 10
28.86740701734601
 20
1.85689847078413
 10
29.03665119246222
 20
1.836192251465718
 10
29.14422952328943
 20
1.794980695042454
 10
29.17795251342483
 20
1.782061951090668
 72
     1
 10
29.1779525134246
 20
1.782061951090668
 11
31.90635566072177
 21
1.782061951090724
 72
     1
 10
31.90635566072177
 20
1.782061951090668
 11
32.49403698331935
 21
2.960648509043437
 72
     1
 10
32.49403698331941
 20
2.960648509043437
 11
30.46845823186379
 21
2.960648509043437
 72
     4
 94
        3
 73
     0
 74
     0
 95
       16
 96
       12
 40
0.0
 40
0.0
 40
0.0
 40
0.0
 40
0.2141121027475241
 40
0.4304326162973471
 40
0.5594580803306056
 40
0.6831669452691567
 40
0.8190286678446897
 40
0.9139043619204622
 40
1.003933161420314
 40
1.186498641432482
 40
1.560280494298353
 40
1.560280494298353
 40
1.560280494298353
 40
1.560280494298353
 10
30.46845823186391
 20
2.960648509043437
 10
30.40735963846879
 20
2.978624611086559
 10
30.2845322640714
 20
3.014762225606943
 10
30.27425260468789
 20
3.189944104912854
 10
30.28825715338957
 20
3.314775529002304
 10
30.34690823463126
 20
3.405660095425673
 10
30.41806216907168
 20
3.471790575521367
 10
30.44455593462857
 20
3.557915185941965
 10
30.52243194464864
 20
3.622950041937542
 10
30.66052697686496
 20
3.732264550099898
 10
30.81323617682881
 20
3.755546097864453
 10
30.9158338246271
 20
3.771187801431096
 72
     1
 10
30.91583382462705
 20
3.77118780143121
 11
32.89819805248612
 21
3.77118780143121
 72
     1
 10
32.89819805248612
 20
3.77118780143121
 11
33.48588559853425
 21
4.949786840425701
 97
        8
330
85F
330
883
330
88F
330
888
330
8A3
330
8A2
330
8A4
330
860
 75
     0
 76
     1
 47
0.0514683685270805
 98
        1
 10
30.86099532083267
 20
4.369765638819899
450
        0
451
        0
460
0.0
461
0.0
452
        0
462
0.0
453
        0
470

  0
LINE
  5
85E
102
{ACAD_REACTORS
330
862
330
85C
330
867
102
}
330
85B
100
AcDbEntity
  8
ROGO
 62
     4
100
AcDbLine
 10
0.0000000000000568
 20
0.0
 30
0.0
 11
33.50513069601385
 21
0.0
 31
0.0
  0
LINE
  5
85F
102
{ACAD_REACTORS
330
85D
102
}
330
85B
100
AcDbEntity
  8
ROGO
 62
     4
100
AcDbLine
 10
30.31359802057415
 20
4.949786840425645
 30
0.0
 11
33.48588559853425
 21
4.949786840425645
 31
0.0
  0
LINE
  5
860
102
{ACAD_REACTORS
330
85D
102
}
330
85B
100
AcDbEntity
  8
ROGO
 62
     4
100
AcDbLine
 10
33.48588559853425
 20
4.949786840425645
 30
0.0
 11
32.89819805248607
 21
3.77118780143121
 31
0.0
  0
LINE
  5
861
102
{ACAD_REACTORS
330
862
330
85C
102
}
330
85B
100
AcDbEntity
  8
ROGO
 62
     4
100
AcDbLine
 10
34.14933885635003
 20
4.949786840425645
 30
0.0
 11
31.6812152744804
 21
0.0
 31
0.0
  0
HATCH
  5
862
330
85B
100
AcDbEntity
  8
ROGO
 62
     4
100
AcDbHatch
 10
0.0
 20
0.0
 30
0.0
210
0.0
220
0.0
230
1.0
  2
SOLID
 70
     1
 71
     1
 91
        1
 92
        7
 72
     0
 73
     1
 93
        4
 10
31.9286078056424
 20
0.4961422127159381
 10
2.525341286638024
 20
0.4961422127159381
 10
2.30087247590319
 20
-0.0000000000000568
 10
31.68121527448045
 20
-0.0000000000000568
 97
        4
330
866
330
870
330
85E
330
861
 75
     0
 76
     1
 47
0.0514683685270805
 98
        1
 10
21.09111831761885
 20
0.3649205710345882
450
        0
451
        0
460
0.0
461
0.0
452
        0
462
0.0
453
        0
470

  0
HATCH
  5
863
330
85B
100
AcDbEntity
  8
ROGO
 62
     4
100
AcDbHatch
 10
0.0
 20
0.0
 30
0.0
210
0.0
220
0.0
230
1.0
  2
SOLID
 70
     1
 71
     1
 91
        2
 92
        7
 72
     0
 73
     1
 93
        8
 10
15.99342784516449
 20
4.949786840425645
 10
14.16260675403379
 20
4.949786840425645
 10
11.87829877231911
 20
1.782061951090668
 10
13.63265136986962
 20
1.782061951090668
 10
14.06756947612285
 20
2.38517717067981
 10
16.08846512307536
 20
2.385177170679696
 10
16.52338322932866
 20
1.782061951090668
 10
18.27773582687916
 20
1.782061951090668
 97
        8
330
865
330
86D
330
872
330
86E
330
864
330
886
330
88C
330
885
 92
       22
 72
     0
 73
     1
 93
        3
 10
15.62974388152605
 20
3.021300979620718
 10
14.52629071767222
 20
3.021300979620718
 10
15.07801729959914
 20
3.786398348131172
 97
        3
330
891
330
890
330
892
 75
     0
 76
     1
 47
0.0514683685270805
 98
        2
 10
16.20617981601185
 20
3.326837253266262
 10
16.20617981601185
 20
3.326837253266262
450
        0
451
        0
460
0.0
461
0.0
452
        0
462
0.0
453
        0
470

  0
LINE
  5
864
102
{ACAD_REACTORS
330
863
102
}
330
85B
100
AcDbEntity
  8
ROGO
 62
     4
100
AcDbLine
 10
14.06756947612285
 20
2.385177170679753
 30
0.0
 11
16.08846512307542
 21
2.385177170679753
 31
0.0
  0
LINE
  5
865
102
{ACAD_REACTORS
330
863
102
}
330
85B
100
AcDbEntity
  8
ROGO
 62
     4
100
AcDbLine
 10
14.16260675403379
 20
4.949786840425645
 30
0.0
 11
15.99342784516443
 21
4.949786840425645
 31
0.0
  0
LINE
  5
866
102
{ACAD_REACTORS
330
862
102
}
330
85B
100
AcDbEntity
  8
ROGO
 62
     4
100
AcDbLine
 10
2.490933298034235
 20
0.4961422127159381
 30
0.0
 11
31.92860780564246
 21
0.4961422127159381
 31
0.0
  0
HATCH
  5
867
330
85B
100
AcDbEntity
  8
ROGO
 62
     4
100
AcDbHatch
 10
0.0
 20
0.0
 30
0.0
210
0.0
220
0.0
230
1.0
  2
SOLID
 70
     1
 71
     1
 91
        2
 92
        5
 93
        6
 72
     4
 94
        3
 73
     0
 74
     0
 95
       18
 96
       14
 40
0.108740278791501
 40
0.108740278791501
 40
0.108740278791501
 40
0.108740278791501
 40
0.6623149649549278
 40
1.384304701649787
 40
2.097394834876493
 40
2.774073369849618
 40
3.428974823686337
 40
4.005208313035923
 40
4.455173659284313
 40
4.720999734343524
 40
5.086034088486724
 40
5.569973738255373
 40
6.060470601257719
 40
6.060470601257719
 40
6.060470601257719
 40
6.060470601257719
 10
5.257971706506339
 20
1.782061951090668
 10
5.409344543521854
 20
1.783189178773909
 10
5.758142655701249
 20
1.785786572703102
 10
6.246108485316483
 20
2.046468641233957
 10
6.708839512865949
 20
2.378558603499755
 10
7.081537876611037
 20
2.793470364329778
 10
7.313740186156906
 20
3.267850878540173
 10
7.349707589953482
 20
3.722501028309523
 10
7.327750373593119
 20
4.082123644518105
 10
7.170855034099304
 20
4.33278953599904
 10
7.007743182975218
 20
4.587189781908875
 10
6.708651203549891
 20
4.807560723981168
 10
6.463588634008544
 20
4.904115955004613
 10
6.338969333173452
 20
4.949786840425758
 72
     1
 10
6.338969333173679
 20
4.949786840425645
 11
2.449108495127859
 21
4.949786840425645
 72
     1
 10
2.449108495127859
 20
4.949786840425645
 11
0.0
 21
-0.0000000000000568
 72
     1
 10
-0.0000000000000568
 20
0.0
 11
2.300872475903247
 21
0.0
 72
     1
 10
2.300872475903304
 20
0.0
 11
3.107127853020472
 21
1.782061951090724
 72
     1
 10
3.107127853020472
 20
1.782061951090668
 11
5.257971706506168
 21
1.782061951090668
 97
        6
330
869
330
873
330
86A
330
85E
330
870
330
86F
 92
       20
 93
        4
 72
     1
 10
3.604944905315051
 20
2.882384321244217
 11
3.98608604239348
 21
3.724818539558043
 72
     1
 10
3.98608604239348
 20
3.724818539557986
 11
4.965456325034381
 21
3.724818539557986
 72
     4
 94
        3
 73
     0
 74
     0
 95
       15
 96
       11
 40
0.0
 40
0.0
 40
0.0
 40
0.0
 40
0.458245544397197
 40
0.6671803073175111
 40
0.9043351724393449
 40
1.065896092998139
 40
1.321406364485703
 40
1.474450037341961
 40
1.737022829061231
 40
1.824547148828933
 40
1.824547148828933
 40
1.824547148828933
 40
1.824547148828933
 10
4.965456325033528
 20
3.724818539557986
 10
5.104956735089615
 20
3.72545752589923
 10
5.308061659054601
 20
3.726387854865265
 10
5.419126665259284
 20
3.475146476562713
 10
5.369342033880457
 20
3.313386222112512
 10
5.306758694724408
 20
3.147308857819552
 10
5.196159760245848
 20
3.034456783979635
 10
5.047719790425048
 20
2.925761212639713
 10
4.907436925306626
 20
2.912603127013085
 10
4.816198668830168
 20
2.888428084712359
 10
4.793389093792598
 20
2.88238432124416
 72
     1
 10
4.793389093792541
 20
2.882384321244217
 11
3.604944905315051
 21
2.882384321244217
 97
        4
330
876
330
874
330
878
330
875
 75
     0
 76
     1
 47
0.0514683685270805
 98
        2
 10
2.469899197802817
 20
3.410271770727717
 10
2.469899197802817
 20
3.410271770727717
450
        0
451
        0
460
0.0
461
0.0
452
        0
462
0.0
453
        0
470

  0
HATCH
  5
868
330
85B
100
AcDbEntity
  8
ROGO
 62
     4
100
AcDbHatch
 10
0.0
 20
0.0
 30
0.0
210
0.0
220
0.0
230
1.0
  2
SOLID
 70
     1
 71
     1
 91
        1
 92
        1
 93
       12
 72
     1
 10
8.637002599138838
 20
4.949786840425645
 11
12.92148229673961
 21
4.949786840425701
 72
     1
 10
12.92148229673961
 20
4.949786840425645
 11
12.56244669050807
 21
4.224155565819216
 72
     1
 10
12.56244669050812
 20
4.224155565819273
 11
10.31063242784853
 21
4.224155565819273
 72
     1
 10
10.31063242784847
 20
4.224155565819273
 11
10.02991119959222
 21
3.656802080167153
 72
     1
 10
10.02991119959228
 20
3.656802080167153
 11
12.28172546225187
 21
3.656802080167153
 72
     1
 10
12.28172546225181
 20
3.656802080167153
 11
11.99387214064069
 21
3.075034230307551
 72
     1
 10
11.99387214064069
 20
3.075034230307551
 11
9.742057877981153
 21
3.075034230307494
 72
     1
 10
9.742057877981153
 20
3.075034230307551
 11
9.461324765337508
 21
2.507656725636252
 72
     1
 10
9.461324765337565
 20
2.507656725636138
 11
11.71313902799716
 21
2.507656725636138
 72
     1
 10
11.71313902799716
 20
2.507656725636138
 11
11.3541214816563
 21
1.782061951090668
 72
     1
 10
11.35412148165636
 20
1.782061951090668
 11
7.06964178405559
 21
1.782061951090668
 72
     1
 10
7.06964178405559
 20
1.782061951090668
 11
8.637002599138838
 21
4.949786840425645
 97
       12
330
877
330
879
330
87B
330
87A
330
87C
330
87F
330
87E
330
880
330
87D
330
86C
330
871
330
86B
 75
     0
 76
     1
 98
        1
 10
-166.6183073243049
 20
-214.0842147101267
450
        0
451
        0
460
0.0
461
0.0
452
        0
462
0.0
453
        0
470

  0
SPLINE
  5
869
102
{ACAD_REACTORS
330
867
102
}
330
85B
100
AcDbEntity
  8
ROGO
 62
     4
100
AcDbSpline
210
0.0
220
0.0
230
1.0
 70
     8
 71
     3
 72
    18
 73
    14
 74
     0
 42
0.0000000001
 43
0.0000000001
 40
0.1087402787915014
 40
0.1087402787915014
 40
0.1087402787915014
 40
0.1087402787915014
 40
0.5992371417938475
 40
1.083176791562496
 40
1.448211145705696
 40
1.714037220764907
 40
2.164002567013297
 40
2.740236056362883
 40
3.395137510199602
 40
4.071816045172726
 40
4.784906178399433
 40
5.506895915094292
 40
6.060470601257719
 40
6.060470601257719
 40
6.060470601257719
 40
6.060470601257719
 10
6.338969333173452
 20
4.949786840425758
 30
0.0
 10
6.463588634008544
 20
4.904115955004613
 30
0.0
 10
6.708651203549891
 20
4.807560723981168
 30
0.0
 10
7.007743182975218
 20
4.587189781908875
 30
0.0
 10
7.170855034099304
 20
4.33278953599904
 30
0.0
 10
7.327750373593119
 20
4.082123644518105
 30
0.0
 10
7.349707589953482
 20
3.722501028309523
 30
0.0
 10
7.313740186156906
 20
3.267850878540173
 30
0.0
 10
7.081537876611037
 20
2.793470364329778
 30
0.0
 10
6.708839512865949
 20
2.378558603499755
 30
0.0
 10
6.246108485316483
 20
2.046468641233957
 30
0.0
 10
5.758142655701249
 20
1.785786572703102
 30
0.0
 10
5.409344543521854
 20
1.783189178773909
 30
0.0
 10
5.257971706506339
 20
1.782061951090668
 30
0.0
  0
LINE
  5
86A
102
{ACAD_REACTORS
330
867
102
}
330
85B
100
AcDbEntity
  8
ROGO
 62
     4
100
AcDbLine
 10
2.449108495127859
 20
4.949786840425645
 30
0.0
 11
0.0
 21
0.0
 31
0.0
  0
LINE
  5
86B
102
{ACAD_REACTORS
330
868
102
}
330
85B
100
AcDbEntity
  8
ROGO
 62
     4
100
AcDbLine
 10
8.637002599138952
 20
4.949786840425645
 30
0.0
 11
7.06964178405559
 21
1.782061951090668
 31
0.0
  0
LINE
  5
86C
102
{ACAD_REACTORS
330
868
102
}
330
85B
100
AcDbEntity
  8
ROGO
 62
     4
100
AcDbLine
 10
11.71313902799716
 20
2.507656725636195
 30
0.0
 11
11.35412148165636
 21
1.782061951090668
 31
0.0
  0
LINE
  5
86D
102
{ACAD_REACTORS
330
863
102
}
330
85B
100
AcDbEntity
  8
ROGO
 62
     4
100
AcDbLine
 10
14.16260675403384
 20
4.949786840425645
 30
0.0
 11
11.87829877231911
 21
1.782061951090668
 31
0.0
  0
LINE
  5
86E
102
{ACAD_REACTORS
330
863
102
}
330
85B
100
AcDbEntity
  8
ROGO
 62
     4
100
AcDbLine
 10
14.06756947612285
 20
2.385177170679753
 30
0.0
 11
13.63265136986962
 21
1.782061951090781
 31
0.0
  0
LINE
  5
86F
102
{ACAD_REACTORS
330
867
102
}
330
85B
100
AcDbEntity
  8
ROGO
 62
     4
100
AcDbLine
 10
5.257971707251897
 20
1.782061951090668
 30
0.0
 11
3.107127853020358
 21
1.782061951090668
 31
0.0
  0
LINE
  5
870
102
{ACAD_REACTORS
330
862
330
867
102
}
330
85B
100
AcDbEntity
  8
ROGO
 62
     4
100
AcDbLine
 10
3.107127853020472
 20
1.782061951090668
 30
0.0
 11
2.300872475903304
 21
0.0
 31
0.0
  0
LINE
  5
871
102
{ACAD_REACTORS
330
868
102
}
330
85B
100
AcDbEntity
  8
ROGO
 62
     4
100
AcDbLine
 10
7.06964178405559
 20
1.782061951090668
 30
0.0
 11
11.35412148165636
 21
1.782061951090668
 31
0.0
  0
LINE
  5
872
102
{ACAD_REACTORS
330
863
102
}
330
85B
100
AcDbEntity
  8
ROGO
 62
     4
100
AcDbLine
 10
11.87829877231917
 20
1.782061951090668
 30
0.0
 11
13.63265136986962
 21
1.782061951090668
 31
0.0
  0
LINE
  5
873
102
{ACAD_REACTORS
330
867
102
}
330
85B
100
AcDbEntity
  8
ROGO
 62
     4
100
AcDbLine
 10
2.449108495127859
 20
4.949786840425645
 30
0.0
 11
6.338969333173452
 21
4.949786840425645
 31
0.0
  0
LINE
  5
874
102
{ACAD_REACTORS
330
867
102
}
330
85B
100
AcDbEntity
  8
ROGO
 62
     4
100
AcDbLine
 10
4.965456325033528
 20
3.724818539557986
 30
0.0
 11
3.986086042393537
 21
3.724818539557986
 31
0.0
  0
LINE
  5
875
102
{ACAD_REACTORS
330
867
102
}
330
85B
100
AcDbEntity
  8
ROGO
 62
     4
100
AcDbLine
 10
4.793389093792598
 20
2.88238432124416
 30
0.0
 11
3.604944905315107
 21
2.882384321244217
 31
0.0
  0
LINE
  5
876
102
{ACAD_REACTORS
330
867
102
}
330
85B
100
AcDbEntity
  8
ROGO
 62
     4
100
AcDbLine
 10
3.986086042393537
 20
3.724818539557986
 30
0.0
 11
3.604944905315051
 21
2.882384321244217
 31
0.0
  0
LINE
  5
877
102
{ACAD_REACTORS
330
868
102
}
330
85B
100
AcDbEntity
  8
ROGO
 62
     4
100
AcDbLine
 10
8.637002599138838
 20
4.949786840425645
 30
0.0
 11
12.92148229673961
 21
4.949786840425758
 31
0.0
  0
SPLINE
  5
878
102
{ACAD_REACTORS
330
867
102
}
330
85B
100
AcDbEntity
  8
ROGO
 62
     4
100
AcDbSpline
210
0.0
220
0.0
230
1.0
 70
     8
 71
     3
 72
    15
 73
    11
 74
     9
 42
0.0000000001
 43
0.0000000001
 44
0.0000000001
 40
0.0
 40
0.0
 40
0.0
 40
0.0
 40
0.3714260192954959
 40
0.5407758541881006
 40
0.7329991907503102
 40
0.8639506649775173
 40
1.071051779626874
 40
1.195099689928134
 40
1.407925254728536
 40
1.478867154939799
 40
1.478867154939799
 40
1.478867154939799
 40
1.478867154939799
 10
4.965456325033528
 20
3.724818539557986
 30
0.0
 10
5.104956735089532
 20
3.725457525899206
 30
0.0
 10
5.308061659054509
 20
3.726387854865235
 30
0.0
 10
5.419126665259303
 20
3.475146476562761
 30
0.0
 10
5.369342033880415
 20
3.31338622211255
 30
0.0
 10
5.306758694724477
 20
3.147308857819524
 30
0.0
 10
5.19615976024584
 20
3.034456783979611
 30
0.0
 10
5.047719790425087
 20
2.925761212639771
 30
0.0
 10
4.907436925306584
 20
2.912603127013052
 30
0.0
 10
4.816198668830153
 20
2.888428084712352
 30
0.0
 10
4.793389093792598
 20
2.88238432124416
 30
0.0
 11
4.965456325033528
 21
3.724818539557986
 31
0.0
 11
5.326797807465993
 21
3.63885563544693
 31
0.0
 11
5.395624897846573
 21
3.484122968540759
 31
0.0
 11
5.361211847366689
 21
3.295005139989939
 31
0.0
 11
5.309591776936599
 21
3.174657074234517
 31
0.0
 11
5.171937596175325
 21
3.019924407328176
 31
0.0
 11
5.068697455314975
 21
2.951154084039387
 31
0.0
 11
4.862216184173178
 21
2.899576902066371
 31
0.0
 11
4.793389093792598
 21
2.88238432124416
 31
0.0
  0
LINE
  5
879
102
{ACAD_REACTORS
330
868
102
}
330
85B
100
AcDbEntity
  8
ROGO
 62
     4
100
AcDbLine
 10
12.92148229673961
 20
4.949786840425645
 30
0.0
 11
12.56244669050807
 21
4.224155565819273
 31
0.0
  0
LINE
  5
87A
102
{ACAD_REACTORS
330
868
102
}
330
85B
100
AcDbEntity
  8
ROGO
 62
     4
100
AcDbLine
 10
10.31063242784847
 20
4.224155565819273
 30
0.0
 11
10.02991119959222
 21
3.656802080167153
 31
0.0
  0
LINE
  5
87B
102
{ACAD_REACTORS
330
868
102
}
330
85B
100
AcDbEntity
  8
ROGO
 62
     4
100
AcDbLine
 10
10.31063242784847
 20
4.224155565819273
 30
0.0
 11
12.56244669050807
 21
4.224155565819273
 31
0.0
  0
LINE
  5
87C
102
{ACAD_REACTORS
330
868
102
}
330
85B
100
AcDbEntity
  8
ROGO
 62
     4
100
AcDbLine
 10
10.02991119959222
 20
3.656802080167153
 30
0.0
 11
12.28172546225187
 21
3.656802080167153
 31
0.0
  0
LINE
  5
87D
102
{ACAD_REACTORS
330
868
102
}
330
85B
100
AcDbEntity
  8
ROGO
 62
     4
100
AcDbLine
 10
9.461324765337565
 20
2.507656725636195
 30
0.0
 11
11.71313902799716
 21
2.507656725636195
 31
0.0
  0
LINE
  5
87E
102
{ACAD_REACTORS
330
868
102
}
330
85B
100
AcDbEntity
  8
ROGO
 62
     4
100
AcDbLine
 10
9.742057877981153
 20
3.075034230307551
 30
0.0
 11
11.99387214064069
 21
3.075034230307608
 31
0.0
  0
LINE
  5
87F
102
{ACAD_REACTORS
330
868
102
}
330
85B
100
AcDbEntity
  8
ROGO
 62
     4
100
AcDbLine
 10
12.28172546225187
 20
3.656802080167153
 30
0.0
 11
11.99387214064069
 21
3.075034230307551
 31
0.0
  0
LINE
  5
880
102
{ACAD_REACTORS
330
868
102
}
330
85B
100
AcDbEntity
  8
ROGO
 62
     4
100
AcDbLine
 10
9.742057877981153
 20
3.075034230307551
 30
0.0
 11
9.461324765337508
 21
2.507656725636195
 31
0.0
  0
HATCH
  5
881
330
85B
100
AcDbEntity
  8
ROGO
 62
     4
100
AcDbHatch
 10
0.0
 20
0.0
 30
0.0
210
0.0
220
0.0
230
1.0
  2
SOLID
 70
     1
 71
     1
 91
        2
 92
        7
 72
     1
 73
     1
 93
        4
 10
26.16568830176476
 20
4.949786840425645
 42
0.0
 10
24.88477496917216
 20
4.949786840425645
 42
0.9597396185052668
 10
24.88477496917204
 20
1.782061951090668
 42
0.0
 10
26.25774038752116
 20
1.782061951090668
 42
0.9713627655772736
 97
        4
330
8A1
330
889
330
88E
330
88A
 92
       22
 72
     1
 73
     1
 93
        8
 10
25.9709322672415
 20
3.347576112203057
 42
0.0
 10
25.92877650574593
 20
3.045974519724552
 42
-0.3696060376523694
 10
25.58588379175427
 20
2.870057733155022
 42
0.0
 10
25.47108749766136
 20
2.886103156372541
 42
-0.3541938351274232
 10
25.17427477727125
 20
3.157453445413239
 42
0.0
 10
25.21643053876682
 20
3.459055037891914
 42
-0.3439742752229287
 10
25.58698051573322
 20
3.668449396631842
 42
0.0
 10
25.69536003945933
 20
3.653300864703851
 42
-0.3460733018205655
 97
        8
330
899
330
89F
330
89B
330
89E
330
89A
330
89D
330
898
330
89C
 75
     0
 76
     1
 47
0.0514683685270805
 98
        2
 10
26.4770758482868
 20
3.660574202124962
 10
26.4770758482868
 20
3.660574202124962
450
        0
451
        0
460
0.0
461
0.0
452
        0
462
0.0
453
        0
470

  0
HATCH
  5
882
330
85B
100
AcDbEntity
  8
ROGO
 62
     4
100
AcDbHatch
 10
0.0
 20
0.0
 30
0.0
210
0.0
220
0.0
230
1.0
  2
SOLID
 70
     1
 71
     1
 91
        1
 92
        5
 93
        8
 72
     1
 10
23.27919423493069
 20
4.949786840425645
 11
20.10690665697018
 21
4.949786840425701
 72
     4
 94
        3
 73
     0
 74
     0
 95
       26
 96
       22
 40
0.0
 40
0.0
 40
0.0
 40
0.0
 40
0.7089867102952115
 40
1.183598414482279
 40
1.525832104103439
 40
1.781366926528389
 40
2.112809002752968
 40
2.354729406992515
 40
2.791581270399936
 40
3.147172406765291
 40
3.389031356825354
 40
3.626186440486682
 40
4.050410779375985
 40
4.350388020238963
 40
4.511948940797758
 40
4.741441456013356
 40
4.907163150576407
 40
5.147239172635527
 40
5.28310143501293
 40
5.578752957634333
 40
5.713750011164293
 40
5.713750011164293
 40
5.713750011164293
 40
5.713750011164293
 10
20.10690665696961
 20
4.949786840425645
 10
19.9118576355076
 20
4.938149881331241
 10
19.58623839723913
 20
4.91872287919773
 10
19.22871045445441
 20
4.701528493521777
 10
18.9667645527374
 20
4.575261222274434
 10
18.77994505330895
 20
4.403611624277402
 10
18.64300560291741
 20
4.226310128312206
 10
18.47036771803317
 20
4.01505669587766
 10
18.32958645604225
 20
3.769060622409824
 10
18.25789511795477
 20
3.497930064177751
 10
18.19439161110068
 20
3.281837436117484
 10
18.14729634731026
 20
3.041030402807223
 10
18.15927871566845
 20
2.780874095348053
 10
18.1764380155459
 20
2.53925423559815
 10
18.25305011690938
 20
2.366773831190926
 10
18.34029773002083
 20
2.243979668736869
 10
18.44713123742571
 20
2.108735512341468
 10
18.56403045709697
 20
2.019163745498303
 10
18.66071565374244
 20
1.85689847078413
 10
18.82995982885865
 20
1.836192251465718
 10
18.93753815968586
 20
1.794980695042511
 10
18.97126114982126
 20
1.782061951090668
 72
     1
 10
18.97126114982103
 20
1.782061951090668
 11
21.6996642971182
 21
1.782061951090724
 72
     1
 10
21.6996642971182
 20
1.782061951090781
 11
22.28734561971584
 21
2.960648509043551
 72
     1
 10
22.28734561971584
 20
2.960648509043494
 11
20.26176686826005
 21
2.960648509043494
 72
     4
 94
        3
 73
     0
 74
     0
 95
       16
 96
       12
 40
0.0
 40
0.0
 40
0.0
 40
0.0
 40
0.2141121027475241
 40
0.4304326162973471
 40
0.5594580803306056
 40
0.6831669452691567
 40
0.8190286678446897
 40
0.9139043619204622
 40
1.003933161420314
 40
1.186498641432482
 40
1.560280494298353
 40
1.560280494298353
 40
1.560280494298353
 40
1.560280494298353
 10
20.26176686826034
 20
2.960648509043494
 10
20.20066827486522
 20
2.978624611086615
 10
20.07784090046783
 20
3.014762225607
 10
20.06756124108432
 20
3.18994410491291
 10
20.081565789786
 20
3.314775529002361
 10
20.14021687102769
 20
3.40566009542573
 10
20.21137080546811
 20
3.471790575521481
 10
20.237864571025
 20
3.557915185942079
 10
20.31574058104508
 20
3.622950041937542
 10
20.45383561326139
 20
3.732264550099955
 10
20.60654481322524
 20
3.755546097864453
 10
20.70914246102353
 20
3.77118780143121
 72
     1
 10
20.70914246102353
 20
3.77118780143121
 11
22.69150668888256
 21
3.771187801431267
 72
     1
 10
22.69150668888256
 20
3.77118780143121
 11
23.27919423493069
 21
4.949786840425645
 97
        8
330
897
330
884
330
88B
330
887
330
896
330
893
330
895
330
894
 75
     0
 76
     1
 47
0.0514683685270805
 98
        1
 10
21.21637307488407
 20
4.244614142874524
450
        0
451
        0
460
0.0
461
0.0
452
        0
462
0.0
453
        0
470

  0
SPLINE
  5
883
102
{ACAD_REACTORS
330
85D
102
}
330
85B
100
AcDbEntity
  8
ROGO
 62
     4
100
AcDbSpline
210
0.0
220
0.0
230
1.0
 70
     8
 71
     3
 72
    26
 73
    22
 74
    20
 42
0.0000000001
 43
0.0000000001
 44
0.0000000001
 40
0.0
 40
0.0
 40
0.0
 40
0.0
 40
0.5746615864749196
 40
0.9593530213456462
 40
1.236746873962384
 40
1.443867888111121
 40
1.712514714041724
 40
1.90860070730817
 40
2.262686307552686
 40
2.55090689560158
 40
2.746943077840944
 40
2.939166591537864
 40
3.283017086994854
 40
3.526160427536374
 40
3.657111901763582
 40
3.843124602654698
 40
3.97744854769916
 40
4.172039596738211
 40
4.282161298747791
 40
4.521798474686698
 40
4.631218890929293
 40
4.631218890929293
 40
4.631218890929293
 40
4.631218890929293
 10
30.31359802057318
 20
4.949786840425645
 30
0.0
 10
30.11854899911117
 20
4.938149881331216
 30
0.0
 10
29.79292976084273
 20
4.918722879197668
 30
0.0
 10
29.43540181805795
 20
4.701528493521752
 30
0.0
 10
29.17345591634098
 20
4.575261222274342
 30
0.0
 10
28.98663641691248
 20
4.403611624277403
 30
0.0
 10
28.84969696652104
 20
4.226310128312151
 30
0.0
 10
28.67705908163667
 20
4.015056695877607
 30
0.0
 10
28.53627781964588
 20
3.769060622409776
 30
0.0
 10
28.46458648155826
 20
3.49793006417775
 30
0.0
 10
28.40108297470428
 20
3.28183743611741
 30
0.0
 10
28.35398771091379
 20
3.041030402807234
 30
0.0
 10
28.36597007927193
 20
2.780874095348088
 30
0.0
 10
28.38312937914937
 20
2.539254235598058
 30
0.0
 10
28.45974148051292
 20
2.366773831190866
 30
0.0
 10
28.54698909362438
 20
2.243979668736892
 30
0.0
 10
28.65382260102934
 20
2.108735512341419
 30
0.0
 10
28.77072182070049
 20
2.019163745498228
 30
0.0
 10
28.86740701734603
 20
1.85689847078413
 30
0.0
 10
29.03665119246222
 20
1.836192251465618
 30
0.0
 10
29.14422952328949
 20
1.794980695042471
 30
0.0
 10
29.17795251342483
 20
1.782061951090668
 30
0.0
 11
30.31359802057318
 21
4.949786840425645
 31
0.0
 11
29.74577526699892
 21
4.861394196539322
 31
0.0
 11
29.40163981509602
 21
4.689468948810883
 31
0.0
 11
29.1607454934744
 21
4.551928862726811
 31
0.0
 11
29.00588528218367
 21
4.414388216149177
 31
0.0
 11
28.83381805094274
 21
4.208077806776145
 31
0.0
 11
28.7133708901319
 21
4.053345139869975
 31
0.0
 11
28.54130266946999
 21
3.743879245563732
 31
0.0
 11
28.45526954855979
 21
3.468798512902026
 31
0.0
 11
28.4036494781297
 21
3.279680684351205
 31
0.0
 11
28.36923543822883
 21
3.090562855800612
 31
0.0
 11
28.36923543822883
 21
2.746712360343622
 31
0.0
 11
28.4036494781297
 21
2.506016789326224
 31
0.0
 11
28.45526954855979
 21
2.385668723570802
 31
0.0
 11
28.55850968942019
 21
2.230936056664518
 31
0.0
 11
28.64454379975138
 21
2.127780571731193
 31
0.0
 11
28.78219699109144
 21
1.99024048564712
 31
0.0
 11
28.85102408147219
 21
1.904277581536064
 31
0.0
 11
29.07471237256442
 21
1.818315237918568
 31
0.0
 11
29.17795251342483
 21
1.782061951090668
 31
0.0
  0
SPLINE
  5
884
102
{ACAD_REACTORS
330
882
102
}
330
85B
100
AcDbEntity
  8
ROGO
 62
     4
100
AcDbSpline
210
0.0
220
0.0
230
1.0
 70
     8
 71
     3
 72
    26
 73
    22
 74
    20
 42
0.0000000001
 43
0.0000000001
 44
0.0000000001
 40
0.0
 40
0.0
 40
0.0
 40
0.0
 40
0.5746615864749109
 40
0.9593530213456375
 40
1.236746873962375
 40
1.44386788811115
 40
1.71251471404171
 40
1.9086007073082
 40
2.262686307552666
 40
2.550906895601598
 40
2.746943077840867
 40
2.939166591537899
 40
3.28301708699489
 40
3.526160427536353
 40
3.657111901763635
 40
3.843124602654719
 40
3.977448547699138
 40
4.172039596738189
 40
4.282161298747769
 40
4.521798474686655
 40
4.631218890929288
 40
4.631218890929288
 40
4.631218890929288
 40
4.631218890929288
 10
20.10690665696961
 20
4.949786840425645
 30
0.0
 10
19.91185763550759
 20
4.938149881331241
 30
0.0
 10
19.58623839723914
 20
4.918722879197736
 30
0.0
 10
19.22871045445439
 20
4.701528493521801
 30
0.0
 10
18.96676455273739
 20
4.575261222274411
 30
0.0
 10
18.77994505330897
 20
4.4036116242774
 30
0.0
 10
18.64300560291743
 20
4.226310128312206
 30
0.0
 10
18.47036771803315
 20
4.015056695877609
 30
0.0
 10
18.32958645604223
 20
3.769060622409829
 30
0.0
 10
18.25789511795483
 20
3.497930064177774
 30
0.0
 10
18.19439161110065
 20
3.281837436117467
 30
0.0
 10
18.14729634731024
 20
3.041030402807263
 30
0.0
 10
18.15927871566836
 20
2.780874095348114
 30
0.0
 10
18.17643801554578
 20
2.539254235598062
 30
0.0
 10
18.25305011690943
 20
2.366773831190911
 30
0.0
 10
18.3402977300208
 20
2.243979668736876
 30
0.0
 10
18.44713123742579
 20
2.10873551234148
 30
0.0
 10
18.56403045709692
 20
2.019163745498289
 30
0.0
 10
18.66071565374245
 20
1.856898470784175
 30
0.0
 10
18.82995982885869
 20
1.836192251465799
 30
0.0
 10
18.93753815968592
 20
1.794980695042517
 30
0.0
 10
18.97126114982126
 20
1.782061951090668
 30
0.0
 11
20.10690665696961
 21
4.949786840425645
 31
0.0
 11
19.53908390339535
 21
4.861394196539379
 31
0.0
 11
19.19494845149245
 21
4.68946894881094
 31
0.0
 11
18.95405412987082
 21
4.551928862726867
 31
0.0
 11
18.7991939185801
 21
4.414388216149177
 31
0.0
 11
18.62712668733917
 21
4.208077806776202
 31
0.0
 11
18.50667952652833
 21
4.053345139869975
 31
0.0
 11
18.33461130586641
 21
3.743879245563789
 31
0.0
 11
18.24857818495627
 21
3.468798512902026
 31
0.0
 11
18.19695811452612
 21
3.279680684351319
 31
0.0
 11
18.16254407462526
 21
3.090562855800612
 31
0.0
 11
18.16254407462526
 21
2.746712360343622
 31
0.0
 11
18.19695811452612
 21
2.506016789326281
 31
0.0
 11
18.24857818495627
 21
2.385668723570802
 31
0.0
 11
18.35181832581662
 21
2.230936056664518
 31
0.0
 11
18.43785243614781
 21
2.12778057173125
 31
0.0
 11
18.57550562748787
 21
1.990240485647177
 31
0.0
 11
18.64433271786862
 21
1.904277581536121
 31
0.0
 11
18.86802100896085
 21
1.818315237918682
 31
0.0
 11
18.97126114982126
 21
1.782061951090668
 31
0.0
  0
LINE
  5
885
102
{ACAD_REACTORS
330
863
102
}
330
85B
100
AcDbEntity
  8
ROGO
 62
     4
100
AcDbLine
 10
15.99342784516443
 20
4.949786840425645
 30
0.0
 11
18.27773582687916
 21
1.782061951090668
 31
0.0
  0
LINE
  5
886
102
{ACAD_REACTORS
330
863
102
}
330
85B
100
AcDbEntity
  8
ROGO
 62
     4
100
AcDbLine
 10
16.08846512307542
 20
2.385177170679753
 30
0.0
 11
16.52338322932866
 21
1.782061951090781
 31
0.0
  0
LINE
  5
887
102
{ACAD_REACTORS
330
882
102
}
330
85B
100
AcDbEntity
  8
ROGO
 62
     4
100
AcDbLine
 10
22.28734561971584
 20
2.960648509043494
 30
0.0
 11
21.69966429711815
 21
1.782061951090668
 31
0.0
  0
LINE
  5
888
102
{ACAD_REACTORS
330
85D
102
}
330
85B
100
AcDbEntity
  8
ROGO
 62
     4
100
AcDbLine
 10
32.49403698331935
 20
2.960648509043494
 30
0.0
 11
31.90635566072177
 21
1.782061951090611
 31
0.0
  0
ARC
  5
889
102
{ACAD_REACTORS
330
881
102
}
330
85B
100
AcDbEntity
  8
ROGO
 62
     4
100
AcDbCircle
 10
24.94987936318324
 20
3.365924395758156
 30
0.0
 40
1.585199932421021
100
AcDbArc
 50
92.3538081120337
 51
270.0
  0
ARC
  5
88A
102
{ACAD_REACTORS
330
881
102
}
330
85B
100
AcDbEntity
  8
ROGO
 62
     4
100
AcDbCircle
 10
26.16568830176476
 20
3.364586908004639
 30
0.0
 40
1.585199932421021
100
AcDbArc
 50
273.3290215232082
 51
90.0000000000006
  0
LINE
  5
88B
102
{ACAD_REACTORS
330
882
102
}
330
85B
100
AcDbEntity
  8
ROGO
 62
     4
100
AcDbLine
 10
18.97126114982109
 20
1.782061951090668
 30
0.0
 11
21.6996642971182
 21
1.782061951090668
 31
0.0
  0
LINE
  5
88C
102
{ACAD_REACTORS
330
863
102
}
330
85B
100
AcDbEntity
  8
ROGO
 62
     4
100
AcDbLine
 10
18.27773582687911
 20
1.782061951090668
 30
0.0
 11
16.52338322932866
 21
1.782061951090668
 31
0.0
  0
LINE
  5
88D
330
85B
100
AcDbEntity
  8
ROGO
 62
     4
100
AcDbLine
 10
24.8847749691733
 20
1.782061951090668
 30
0.0
 11
26.25774038752019
 21
1.782061951090668
 31
0.0
  0
LINE
  5
88E
102
{ACAD_REACTORS
330
881
102
}
330
85B
100
AcDbEntity
  8
ROGO
 62
     4
100
AcDbLine
 10
24.8847749691721
 20
1.782061951090668
 30
0.0
 11
26.25774038752121
 21
1.782061951090668
 31
0.0
  0
LINE
  5
88F
102
{ACAD_REACTORS
330
85D
102
}
330
85B
100
AcDbEntity
  8
ROGO
 62
     4
100
AcDbLine
 10
29.1779525134246
 20
1.782061951090668
 30
0.0
 11
31.90635566072177
 21
1.782061951090668
 31
0.0
  0
LINE
  5
890
102
{ACAD_REACTORS
330
863
102
}
330
85B
100
AcDbEntity
  8
ROGO
 62
     4
100
AcDbLine
 10
15.07801729959914
 20
3.786398348131228
 30
0.0
 11
14.52629071767222
 21
3.021300979620718
 31
0.0
  0
LINE
  5
891
102
{ACAD_REACTORS
330
863
102
}
330
85B
100
AcDbEntity
  8
ROGO
 62
     4
100
AcDbLine
 10
14.52629071767222
 20
3.021300979620775
 30
0.0
 11
15.62974388152599
 21
3.021300979620775
 31
0.0
  0
LINE
  5
892
102
{ACAD_REACTORS
330
863
102
}
330
85B
100
AcDbEntity
  8
ROGO
 62
     4
100
AcDbLine
 10
15.07801729959914
 20
3.786398348131228
 30
0.0
 11
15.62974388152599
 21
3.021300979620718
 31
0.0
  0
SPLINE
  5
893
102
{ACAD_REACTORS
330
882
102
}
330
85B
100
AcDbEntity
  8
ROGO
 62
     4
100
AcDbSpline
210
0.0
220
0.0
230
1.0
 70
     8
 71
     3
 72
    16
 73
    12
 74
    10
 42
0.0000000001
 43
0.0000000001
 44
0.0000000001
 40
0.0
 40
0.0
 40
0.0
 40
0.0
 40
0.3029648785292891
 40
0.4509413735127203
 40
0.5239132529538693
 40
0.6008137308948465
 40
0.7109349953737907
 40
0.8112058912231434
 40
0.9157860995406091
 40
1.091122375522293
 40
1.264668647774888
 40
1.264668647774888
 40
1.264668647774888
 40
1.264668647774888
 10
20.70914246102353
 20
3.77118780143121
 30
0.0
 10
20.60654481322523
 20
3.75554609786451
 30
0.0
 10
20.45383561326141
 20
3.732264550100005
 30
0.0
 10
20.31574058104511
 20
3.622950041937553
 30
0.0
 10
20.237864571025
 20
3.557915185941986
 30
0.0
 10
20.21137080546809
 20
3.471790575521536
 30
0.0
 10
20.14021687102763
 20
3.405660095425645
 30
0.0
 10
20.08156578978607
 20
3.314775529002434
 30
0.0
 10
20.06756124108431
 20
3.189944104912836
 30
0.0
 10
20.07784090046788
 20
3.014762225607029
 30
0.0
 10
20.2006682748652
 20
2.978624611086606
 30
0.0
 10
20.26176686826034
 20
2.960648509043494
 30
0.0
 11
20.70914246102353
 21
3.77118780143121
 31
0.0
 11
20.41662806897176
 21
3.692301503097155
 31
0.0
 11
20.29618090816098
 21
3.606339159479716
 31
0.0
 11
20.24456083773083
 21
3.554761417013025
 31
0.0
 11
20.21014679782997
 21
3.48599109372418
 31
0.0
 11
20.14131970744944
 21
3.400028750106798
 31
0.0
 11
20.08969963701918
 21
3.314065845995742
 31
0.0
 11
20.07249261706875
 21
3.210910921556092
 31
0.0
 11
20.10690665696961
 21
3.038985113333978
 31
0.0
 11
20.26176686826034
 21
2.960648509043494
 31
0.0
  0
LINE
  5
894
102
{ACAD_REACTORS
330
882
102
}
330
85B
100
AcDbEntity
  8
ROGO
 62
     4
100
AcDbLine
 10
23.27919423493069
 20
4.949786840425645
 30
0.0
 11
22.69150668888256
 21
3.77118780143121
 31
0.0
  0
LINE
  5
895
102
{ACAD_REACTORS
330
882
102
}
330
85B
100
AcDbEntity
  8
ROGO
 62
     4
100
AcDbLine
 10
20.70914246102342
 20
3.77118780143121
 30
0.0
 11
22.69150668888256
 21
3.771187801431267
 31
0.0
  0
LINE
  5
896
102
{ACAD_REACTORS
330
882
102
}
330
85B
100
AcDbEntity
  8
ROGO
 62
     4
100
AcDbLine
 10
20.26176686826017
 20
2.960648509043494
 30
0.0
 11
22.28734561971584
 21
2.960648509043494
 31
0.0
  0
LINE
  5
897
102
{ACAD_REACTORS
330
882
102
}
330
85B
100
AcDbEntity
  8
ROGO
 62
     4
100
AcDbLine
 10
20.10690665697052
 20
4.949786840425758
 30
0.0
 11
23.27919423493069
 21
4.949786840425758
 31
0.0
  0
LINE
  5
898
102
{ACAD_REACTORS
330
881
102
}
330
85B
100
AcDbEntity
  8
ROGO
 62
     4
100
AcDbLine
 10
25.58056374536529
 20
3.669346287921371
 30
0.0
 11
25.69536003945927
 21
3.653300864703908
 31
0.0
  0
LINE
  5
899
102
{ACAD_REACTORS
330
881
102
}
330
85B
100
AcDbEntity
  8
ROGO
 62
     4
100
AcDbLine
 10
25.97093226724161
 20
3.347576112203455
 30
0.0
 11
25.92877650574604
 21
3.04597451972495
 31
0.0
  0
LINE
  5
89A
102
{ACAD_REACTORS
330
881
102
}
330
85B
100
AcDbEntity
  8
ROGO
 62
     4
100
AcDbLine
 10
25.17427477727125
 20
3.157453445413295
 30
0.0
 11
25.21643053876682
 21
3.45905503789163
 31
0.0
  0
LINE
  5
89B
102
{ACAD_REACTORS
330
881
102
}
330
85B
100
AcDbEntity
  8
ROGO
 62
     4
100
AcDbLine
 10
25.4710874976596
 20
2.886103156372769
 30
0.0
 11
25.58588379175365
 21
2.870057733155078
 31
0.0
  0
ARC
  5
89C
102
{ACAD_REACTORS
330
881
102
}
330
85B
100
AcDbEntity
  8
ROGO
 62
     4
100
AcDbCircle
 10
25.6387443480632
 20
3.325209828916854
 30
0.0
 40
0.3329400310507254
100
AcDbArc
 50
3.851923331663601
 51
80.20940670206341
  0
ARC
  5
89D
102
{ACAD_REACTORS
330
881
102
}
330
85B
100
AcDbEntity
  8
ROGO
 62
     4
100
AcDbCircle
 10
25.53588647264388
 20
3.326301951055086
 30
0.0
 40
0.3459414339941871
100
AcDbArc
 50
82.57970078354313
 51
157.4341870372611
  0
ARC
  5
89E
102
{ACAD_REACTORS
330
881
102
}
330
85B
100
AcDbEntity
  8
ROGO
 62
     4
100
AcDbCircle
 10
25.49018017588719
 20
3.204994782556525
 30
0.0
 40
0.3194626732688521
100
AcDbArc
 50
188.5583509056651
 51
266.5736774635929
  0
ARC
  5
89F
102
{ACAD_REACTORS
330
881
102
}
330
85B
100
AcDbEntity
  8
ROGO
 62
     4
100
AcDbCircle
 10
25.6545957362211
 20
3.158263540113921
 30
0.0
 40
0.2962835103026008
100
AcDbArc
 50
256.5902863289752
 51
337.7287536965499
  0
LINE
  5
8A0
330
85B
100
AcDbEntity
  8
ROGO
 62
     4
100
AcDbLine
 10
24.88477496917261
 20
4.949786840425645
 30
0.0
 11
25.78248633299404
 21
4.949786840425645
 31
0.0
  0
LINE
  5
8A1
102
{ACAD_REACTORS
330
881
102
}
330
85B
100
AcDbEntity
  8
ROGO
 62
     4
100
AcDbLine
 10
24.88477496917216
 20
4.949786840425645
 30
0.0
 11
26.16568830176476
 21
4.949786840425645
 31
0.0
  0
SPLINE
  5
8A2
102
{ACAD_REACTORS
330
85D
102
}
330
85B
100
AcDbEntity
  8
ROGO
 62
     4
100
AcDbSpline
210
0.0
220
0.0
230
1.0
 70
     8
 71
     3
 72
    16
 73
    12
 74
    10
 42
0.0000000001
 43
0.0000000001
 44
0.0000000001
 40
0.0
 40
0.0
 40
0.0
 40
0.0
 40
0.3029648785292594
 40
0.4509413735127369
 40
0.5239132529538859
 40
0.6008137308948632
 40
0.710934995373763
 40
0.811205891223145
 40
0.9157860995407135
 40
1.091122375522274
 40
1.264668647774946
 40
1.264668647774946
 40
1.264668647774946
 40
1.264668647774946
 10
30.9158338246271
 20
3.771187801431096
 30
0.0
 10
30.81323617682881
 20
3.755546097864422
 30
0.0
 10
30.660526976865
 20
3.732264550099954
 30
0.0
 10
30.5224319446486
 20
3.62295004193761
 30
0.0
 10
30.44455593462858
 20
3.557915185941908
 30
0.0
 10
30.41806216907167
 20
3.4717905755215
 30
0.0
 10
30.34690823463119
 20
3.405660095425618
 30
0.0
 10
30.28825715338954
 20
3.314775529002425
 30
0.0
 10
30.27425260468793
 20
3.189944104912787
 30
0.0
 10
30.28453226407141
 20
3.014762225606994
 30
0.0
 10
30.40735963846873
 20
2.978624611086564
 30
0.0
 10
30.46845823186391
 20
2.960648509043437
 30
0.0
 11
30.9158338246271
 21
3.771187801431096
 31
0.0
 11
30.62331943257533
 21
3.692301503097155
 31
0.0
 11
30.50287227176449
 21
3.606339159479716
 31
0.0
 11
30.4512522013344
 21
3.554761417012969
 31
0.0
 11
30.41683816143353
 21
3.485991093724123
 31
0.0
 11
30.34801107105301
 21
3.400028750106798
 31
0.0
 11
30.29639100062269
 21
3.314065845995742
 31
0.0
 11
30.27918398067232
 21
3.210910921555978
 31
0.0
 11
30.31359802057313
 21
3.038985113333978
 31
0.0
 11
30.46845823186391
 21
2.960648509043437
 31
0.0
  0
LINE
  5
8A3
102
{ACAD_REACTORS
330
85D
102
}
330
85B
100
AcDbEntity
  8
ROGO
 62
     4
100
AcDbLine
 10
30.46845823186379
 20
2.960648509043494
 30
0.0
 11
32.49403698331941
 21
2.960648509043494
 31
0.0
  0
LINE
  5
8A4
102
{ACAD_REACTORS
330
85D
102
}
330
85B
100
AcDbEntity
  8
ROGO
 62
     4
100
AcDbLine
 10
30.91583382462699
 20
3.77118780143121
 30
0.0
 11
32.89819805248607
 21
3.77118780143121
 31
0.0
  0
LINE
  5
8A5
102
{ACAD_REACTORS
330
85C
102
}
330
85B
100
AcDbEntity
  8
ROGO
 62
     4
100
AcDbLine
 10
35.38336074148231
 20
2.474893420212765
 30
0.0
 11
36.6174225324171
 21
0.0
 31
0.0
  0
LINE
  5
8A6
102
{ACAD_REACTORS
330
85C
102
}
330
85B
100
AcDbEntity
  8
ROGO
 62
     4
100
AcDbLine
 10
34.14933885635003
 20
1.291950329372127
 30
0.0
 11
34.79354701668626
 21
0.0
 31
0.0
  0
LINE
  5
8A7
102
{ACAD_REACTORS
330
85C
102
}
330
85B
100
AcDbEntity
  8
ROGO
 62
     4
100
AcDbLine
 10
34.14933885635008
 20
1.29195032937207
 30
0.0
 11
33.50513069601385
 21
0.0
 31
0.0
  0
LINE
  5
8A8
102
{ACAD_REACTORS
330
85C
102
}
330
85B
100
AcDbEntity
  8
ROGO
 62
     4
100
AcDbLine
 10
34.79354701668626
 20
0.0
 30
0.0
 11
36.6174225324171
 21
0.0
 31
0.0
  0
LINE
  5
8A9
102
{ACAD_REACTORS
330
85C
102
}
330
85B
100
AcDbEntity
  8
ROGO
 62
     4
100
AcDbLine
 10
35.38336074148231
 20
2.474893420212765
 30
0.0
 11
38.38165352405161
 21
4.949786840425645
 31
0.0
  0
LINE
  5
8AA
102
{ACAD_REACTORS
330
85C
102
}
330
85B
100
AcDbEntity
  8
ROGO
 62
     4
100
AcDbLine
 10
36.55777800832078
 20
4.949786840425645
 30
0.0
 11
38.38165352405156
 21
4.949786840425645
 31
0.0
  0
LINE
  5
8AB
102
{ACAD_REACTORS
330
85C
102
}
330
85B
100
AcDbEntity
  8
ROGO
 62
     4
100
AcDbLine
 10
34.14933885635003
 20
4.949786840425645
 30
0.0
 11
35.97325427788326
 21
4.949786840425588
 31
0.0
  0
LINE
  5
8AC
102
{ACAD_REACTORS
330
85C
102
}
330
85B
100
AcDbEntity
  8
ROGO
 62
     4
100
AcDbLine
 10
35.97325427788326
 20
4.949786840425588
 30
0.0
 11
35.70378540756269
 21
4.409370842614521
 31
0.0
  0
LINE
  5
8AD
102
{ACAD_REACTORS
330
85C
102
}
330
85B
100
AcDbEntity
  8
ROGO
 62
     4
100
AcDbLine
 10
35.70378540756269
 20
4.409370842614521
 30
0.0
 11
36.55777800832078
 21
4.949786840425645
 31
0.0
  0
ENDBLK
  5
8AF
330
85B
100
AcDbEntity
  8
0
100
AcDbBlockEnd
  0
BLOCK
  5
B1B
330
AE8
100
AcDbEntity
  8
0
100
AcDbBlockBegin
  2
*D5
 70
     1
 10
0.0
 20
0.0
 30
0.0
  3
*D5
  1

  0
LINE
  5
CD3
330
AE8
100
AcDbEntity
  8
寸法線
 62
     2
370
    -2
100
AcDbLine
 10
157.687818627581
 20
148.977561156084
 30
0.0
 11
143.3823710389766
 21
148.977561156084
 31
0.0
  0
LINE
  5
CD4
330
AE8
100
AcDbEntity
  8
寸法線
 62
     2
370
    -2
100
AcDbLine
 10
157.687818627581
 20
84.97756115608401
 30
0.0
 11
143.3823710389766
 21
84.97756115608401
 31
0.0
  0
LINE
  5
CD5
330
AE8
100
AcDbEntity
  8
寸法線
 62
     2
370
    -2
100
AcDbLine
 10
144.6323710389766
 20
146.477561156084
 30
0.0
 11
144.6323710389766
 21
87.47756115608401
 31
0.0
  0
INSERT
  5
CD6
330
AE8
100
AcDbEntity
  8
寸法線
 62
     2
370
    -2
100
AcDbBlockReference
  2
_OPEN
 10
144.6323710389766
 20
148.977561156084
 30
0.0
 41
2.5
 42
2.5
 43
2.5
 50
90.0
  0
INSERT
  5
CD7
330
AE8
100
AcDbEntity
  8
寸法線
 62
     2
370
    -2
100
AcDbBlockReference
  2
_OPEN
 10
144.6323710389766
 20
84.97756115608401
 30
0.0
 41
2.5
 42
2.5
 43
2.5
 50
270.0
  0
MTEXT
  5
CD8
330
AE8
100
AcDbEntity
  8
寸法線
 62
     6
100
AcDbMText
 10
142.7573710389766
 20
116.977561156084
 30
0.0
 40
2.5
 41
0.0
 71
     5
 72
     1
  1
\A1;φ64
  7
STYLE3
 11
0.0000000000000001
 21
1.0
 31
0.0
 73
     1
 44
1.0
  0
POINT
  5
CD9
330
AE8
100
AcDbEntity
  8
DEFPOINTS
 62
     0
100
AcDbPoint
 10
157.687818627581
 20
148.977561156084
 30
0.0
  0
POINT
  5
CDA
330
AE8
100
AcDbEntity
  8
DEFPOINTS
 62
     0
100
AcDbPoint
 10
157.687818627581
 20
84.97756115608401
 30
0.0
  0
POINT
  5
CDB
330
AE8
100
AcDbEntity
  8
DEFPOINTS
 62
     0
100
AcDbPoint
 10
144.6323710389766
 20
84.97756115608401
 30
0.0
  0
ENDBLK
  5
B25
330
AE8
100
AcDbEntity
  8
0
100
AcDbBlockEnd
  0
BLOCK
  5
AF6
330
AF5
100
AcDbEntity
  8
0
100
AcDbBlockBegin
  2
*D6
 70
     1
 10
0.0
 20
0.0
 30
0.0
  3
*D6
  1

  0
LINE
  5
CCB
330
AF5
100
AcDbEntity
  8
寸法線
 62
     2
370
    -2
100
AcDbLine
 10
167.4878186275811
 20
58.67756115608401
 30
0.0
 11
143.3823710389766
 21
58.67756115608401
 31
0.0
  0
LINE
  5
CCC
330
AF5
100
AcDbEntity
  8
寸法線
 62
     2
370
    -2
100
AcDbLine
 10
144.6323710389767
 20
82.47756115608401
 30
0.0
 11
144.6323710389766
 21
61.17756115608401
 31
0.0
  0
INSERT
  5
CCD
330
AF5
100
AcDbEntity
  8
寸法線
 62
     2
370
    -2
100
AcDbBlockReference
  2
_OPEN
 10
144.6323710389767
 20
84.97756115608401
 30
0.0
 41
2.5
 42
2.5
 43
2.5
 50
90.0
  0
INSERT
  5
CCE
330
AF5
100
AcDbEntity
  8
寸法線
 62
     2
370
    -2
100
AcDbBlockReference
  2
_OPEN
 10
144.6323710389766
 20
58.67756115608401
 30
0.0
 41
2.5
 42
2.5
 43
2.5
 50
270.0
  0
MTEXT
  5
CCF
330
AF5
100
AcDbEntity
  8
寸法線
 62
     6
100
AcDbMText
 10
142.7573710389766
 20
71.82756115608403
 30
0.0
 40
2.5
 41
0.0
 71
     5
 72
     1
  1
\A1;26.3
  7
STYLE3
 11
0.0000000000000001
 21
1.0
 31
0.0
 73
     1
 44
1.0
  0
POINT
  5
CD0
330
AF5
100
AcDbEntity
  8
DEFPOINTS
 62
     0
100
AcDbPoint
 10
157.687818627581
 20
84.97756115608401
 30
0.0
  0
POINT
  5
CD1
330
AF5
100
AcDbEntity
  8
DEFPOINTS
 62
     0
100
AcDbPoint
 10
167.4878186275811
 20
58.67756115608401
 30
0.0
  0
POINT
  5
CD2
330
AF5
100
AcDbEntity
  8
DEFPOINTS
 62
     0
100
AcDbPoint
 10
144.6323710389766
 20
58.67756115608401
 30
0.0
  0
ENDBLK
  5
AFF
330
AF5
100
AcDbEntity
  8
0
100
AcDbBlockEnd
  0
BLOCK
  5
B0F
330
B0E
100
AcDbEntity
  8
0
100
AcDbBlockBegin
  2
*D7
 70
     1
 10
0.0
 20
0.0
 30
0.0
  3
*D7
  1

  0
LINE
  5
CC2
330
B0E
100
AcDbEntity
  8
寸法線
 62
     2
370
    -2
100
AcDbLine
 10
152.687818627581
 20
89.97756115608401
 30
0.0
 11
152.687818627581
 21
75.33128976835365
 31
0.0
  0
LINE
  5
CC3
330
B0E
100
AcDbEntity
  8
寸法線
 62
     2
370
    -2
100
AcDbLine
 10
171.187818627581
 20
77.66710111075565
 30
0.0
 11
171.187818627581
 21
75.33128976835365
 31
0.0
  0
LINE
  5
CC4
330
B0E
100
AcDbEntity
  8
寸法線
 62
     2
370
    -2
100
AcDbLine
 10
155.187818627581
 20
76.58128976835365
 30
0.0
 11
168.687818627581
 21
76.58128976835365
 31
0.0
  0
INSERT
  5
CC5
330
B0E
100
AcDbEntity
  8
寸法線
 62
     2
370
    -2
100
AcDbBlockReference
  2
_OPEN
 10
152.687818627581
 20
76.58128976835365
 30
0.0
 41
2.5
 42
2.5
 43
2.5
 50
180.0
  0
INSERT
  5
CC6
330
B0E
100
AcDbEntity
  8
寸法線
 62
     2
370
    -2
100
AcDbBlockReference
  2
_OPEN
 10
171.187818627581
 20
76.58128976835365
 30
0.0
 41
2.5
 42
2.5
 43
2.5
  0
MTEXT
  5
CC7
330
B0E
100
AcDbEntity
  8
寸法線
 62
     6
100
AcDbMText
 10
161.937818627581
 20
78.45628976835365
 30
0.0
 40
2.5
 41
0.0
 71
     5
 72
     1
  1
\A1;18.5
  7
STYLE3
 73
     1
 44
1.0
  0
POINT
  5
CC8
330
B0E
100
AcDbEntity
  8
DEFPOINTS
 62
     0
100
AcDbPoint
 10
152.687818627581
 20
89.97756115608401
 30
0.0
  0
POINT
  5
CC9
330
B0E
100
AcDbEntity
  8
DEFPOINTS
 62
     0
100
AcDbPoint
 10
171.187818627581
 20
77.66710111075565
 30
0.0
  0
POINT
  5
CCA
330
B0E
100
AcDbEntity
  8
DEFPOINTS
 62
     0
100
AcDbPoint
 10
171.187818627581
 20
76.58128976835365
 30
0.0
  0
ENDBLK
  5
B19
330
B0E
100
AcDbEntity
  8
0
100
AcDbBlockEnd
  0
BLOCK
  5
B82
330
B26
100
AcDbEntity
  8
0
100
AcDbBlockBegin
  2
*D8
 70
     1
 10
0.0
 20
0.0
 30
0.0
  3
*D8
  1

  0
LINE
  5
CB9
330
B26
100
AcDbEntity
  8
寸法線
 62
     2
370
    -2
100
AcDbLine
 10
86.27603644875762
 20
26.97756115608399
 30
0.0
 11
48.76365669888514
 21
26.97756115608401
 31
0.0
  0
LINE
  5
CBA
330
B26
100
AcDbEntity
  8
寸法線
 62
     2
370
    -2
100
AcDbLine
 10
83.77603644875767
 20
35.977561156084
 30
0.0
 11
48.76365669888514
 21
35.977561156084
 31
0.0
  0
LINE
  5
CBB
330
B26
100
AcDbEntity
  8
寸法線
 62
     2
370
    -2
100
AcDbLine
 10
50.01365669888514
 20
29.47756115608401
 30
0.0
 11
50.01365669888514
 21
33.477561156084
 31
0.0
  0
INSERT
  5
CBC
330
B26
100
AcDbEntity
  8
寸法線
 62
     2
370
    -2
100
AcDbBlockReference
  2
_OPEN
 10
50.01365669888514
 20
26.97756115608401
 30
0.0
 41
2.5
 42
2.5
 43
2.5
 50
270.0
  0
INSERT
  5
CBD
330
B26
100
AcDbEntity
  8
寸法線
 62
     2
370
    -2
100
AcDbBlockReference
  2
_OPEN
 10
50.01365669888514
 20
35.977561156084
 30
0.0
 41
2.5
 42
2.5
 43
2.5
 50
90.0
  0
MTEXT
  5
CBE
330
B26
100
AcDbEntity
  8
寸法線
 62
     6
100
AcDbMText
 10
48.13865669888514
 20
31.47756115608401
 30
0.0
 40
2.5
 41
0.0
 71
     5
 72
     1
  1
\A1;9
  7
STYLE3
 11
0.0000000000000001
 21
1.0
 31
0.0
 73
     1
 44
1.0
  0
POINT
  5
CBF
330
B26
100
AcDbEntity
  8
DEFPOINTS
 62
     0
100
AcDbPoint
 10
86.27603644875762
 20
26.97756115608399
 30
0.0
  0
POINT
  5
CC0
330
B26
100
AcDbEntity
  8
DEFPOINTS
 62
     0
100
AcDbPoint
 10
83.77603644875767
 20
35.977561156084
 30
0.0
  0
POINT
  5
CC1
330
B26
100
AcDbEntity
  8
DEFPOINTS
 62
     0
100
AcDbPoint
 10
50.01365669888514
 20
35.977561156084
 30
0.0
  0
ENDBLK
  5
B8C
330
B26
100
AcDbEntity
  8
0
100
AcDbBlockEnd
  0
BLOCK
  5
B78
330
B33
100
AcDbEntity
  8
0
100
AcDbBlockBegin
  2
*D9
 70
     1
 10
0.0
 20
0.0
 30
0.0
  3
*D9
  1

  0
LINE
  5
CB1
330
B33
100
AcDbEntity
  8
寸法線
 62
     2
370
    -2
100
AcDbLine
 10
82.5760364487577
 20
58.67756115608401
 30
0.0
 11
48.76365669888515
 21
58.67756115608401
 31
0.0
  0
LINE
  5
CB2
330
B33
100
AcDbEntity
  8
寸法線
 62
     2
370
    -2
100
AcDbLine
 10
50.01365669888514
 20
38.477561156084
 30
0.0
 11
50.01365669888515
 21
56.17756115608401
 31
0.0
  0
INSERT
  5
CB3
330
B33
100
AcDbEntity
  8
寸法線
 62
     2
370
    -2
100
AcDbBlockReference
  2
_OPEN
 10
50.01365669888514
 20
35.977561156084
 30
0.0
 41
2.5
 42
2.5
 43
2.5
 50
270.0
  0
INSERT
  5
CB4
330
B33
100
AcDbEntity
  8
寸法線
 62
     2
370
    -2
100
AcDbBlockReference
  2
_OPEN
 10
50.01365669888515
 20
58.67756115608401
 30
0.0
 41
2.5
 42
2.5
 43
2.5
 50
90.0
  0
MTEXT
  5
CB5
330
B33
100
AcDbEntity
  8
寸法線
 62
     6
100
AcDbMText
 10
48.13865669888514
 20
47.32756115608402
 30
0.0
 40
2.5
 41
0.0
 71
     5
 72
     1
  1
\A1;22.7
  7
STYLE3
 11
0.0000000000000001
 21
1.0
 31
0.0
 73
     1
 44
1.0
  0
POINT
  5
CB6
330
B33
100
AcDbEntity
  8
DEFPOINTS
 62
     0
100
AcDbPoint
 10
83.77603644875767
 20
35.977561156084
 30
0.0
  0
POINT
  5
CB7
330
B33
100
AcDbEntity
  8
DEFPOINTS
 62
     0
100
AcDbPoint
 10
82.5760364487577
 20
58.67756115608401
 30
0.0
  0
POINT
  5
CB8
330
B33
100
AcDbEntity
  8
DEFPOINTS
 62
     0
100
AcDbPoint
 10
50.01365669888515
 20
58.67756115608401
 30
0.0
  0
ENDBLK
  5
B81
330
B33
100
AcDbEntity
  8
0
100
AcDbBlockEnd
  0
BLOCK
  5
B8D
330
B6C
100
AcDbEntity
  8
0
100
AcDbBlockBegin
  2
*D10
 70
     1
 10
0.0
 20
0.0
 30
0.0
  3
*D10
  1

  0
LINE
  5
CA9
330
B6C
100
AcDbEntity
  8
寸法線
 62
     2
370
    -2
100
AcDbLine
 10
52.0760545385823
 20
116.977561156084
 30
0.0
 11
48.76365669888516
 21
116.977561156084
 31
0.0
  0
LINE
  5
CAA
330
B6C
100
AcDbEntity
  8
寸法線
 62
     2
370
    -2
100
AcDbLine
 10
50.01365669888514
 20
61.17756115608401
 30
0.0
 11
50.01365669888516
 21
114.477561156084
 31
0.0
  0
INSERT
  5
CAB
330
B6C
100
AcDbEntity
  8
寸法線
 62
     2
370
    -2
100
AcDbBlockReference
  2
_OPEN
 10
50.01365669888514
 20
58.67756115608401
 30
0.0
 41
2.5
 42
2.5
 43
2.5
 50
270.0
  0
INSERT
  5
CAC
330
B6C
100
AcDbEntity
  8
寸法線
 62
     2
370
    -2
100
AcDbBlockReference
  2
_OPEN
 10
50.01365669888516
 20
116.977561156084
 30
0.0
 41
2.5
 42
2.5
 43
2.5
 50
90.0
  0
MTEXT
  5
CAD
330
B6C
100
AcDbEntity
  8
寸法線
 62
     6
100
AcDbMText
 10
48.13865669888514
 20
87.82756115608401
 30
0.0
 40
2.5
 41
0.0
 71
     5
 72
     1
  1
\A1;58.3
  7
STYLE3
 11
0.0000000000000001
 21
1.0
 31
0.0
 73
     1
 44
1.0
  0
POINT
  5
CAE
330
B6C
100
AcDbEntity
  8
DEFPOINTS
 62
     0
100
AcDbPoint
 10
82.5760364487577
 20
58.67756115608401
 30
0.0
  0
POINT
  5
CAF
330
B6C
100
AcDbEntity
  8
DEFPOINTS
 62
     0
100
AcDbPoint
 10
52.0760545385823
 20
116.977561156084
 30
0.0
  0
POINT
  5
CB0
330
B6C
100
AcDbEntity
  8
DEFPOINTS
 62
     0
100
AcDbPoint
 10
50.01365669888516
 20
116.977561156084
 30
0.0
  0
ENDBLK
  5
B96
330
B6C
100
AcDbEntity
  8
0
100
AcDbBlockEnd
  0
BLOCK
  5
B98
330
B97
100
AcDbEntity
  8
0
100
AcDbBlockBegin
  2
*D11
 70
     1
 10
0.0
 20
0.0
 30
0.0
  3
*D11
  1

  0
LINE
  5
CA0
330
B97
100
AcDbEntity
  8
寸法線
 62
     2
370
    -2
100
AcDbLine
 10
48.76365669888514
 20
26.977561156084
 30
0.0
 11
42.92919710153737
 21
26.977561156084
 31
0.0
  0
LINE
  5
CA1
330
B97
100
AcDbEntity
  8
寸法線
 62
     2
370
    -2
100
AcDbLine
 10
48.76365669888516
 20
116.977561156084
 30
0.0
 11
42.92919710153739
 21
116.977561156084
 31
0.0
  0
LINE
  5
CA2
330
B97
100
AcDbEntity
  8
寸法線
 62
     2
370
    -2
100
AcDbLine
 10
44.17919710153737
 20
29.477561156084
 30
0.0
 11
44.17919710153739
 21
114.477561156084
 31
0.0
  0
INSERT
  5
CA3
330
B97
100
AcDbEntity
  8
寸法線
 62
     2
370
    -2
100
AcDbBlockReference
  2
_OPEN
 10
44.17919710153737
 20
26.977561156084
 30
0.0
 41
2.5
 42
2.5
 43
2.5
 50
270.0
  0
INSERT
  5
CA4
330
B97
100
AcDbEntity
  8
寸法線
 62
     2
370
    -2
100
AcDbBlockReference
  2
_OPEN
 10
44.17919710153739
 20
116.977561156084
 30
0.0
 41
2.5
 42
2.5
 43
2.5
 50
90.0
  0
MTEXT
  5
CA5
330
B97
100
AcDbEntity
  8
寸法線
 62
     6
100
AcDbMText
 10
42.30419710153737
 20
71.97756115608401
 30
0.0
 40
2.5
 41
0.0
 71
     5
 72
     1
  1
\A1;90
  7
STYLE3
 11
0.0000000000000001
 21
1.0
 31
0.0
 73
     1
 44
1.0
  0
POINT
  5
CA6
330
B97
100
AcDbEntity
  8
DEFPOINTS
 62
     0
100
AcDbPoint
 10
48.76365669888514
 20
26.977561156084
 30
0.0
  0
POINT
  5
CA7
330
B97
100
AcDbEntity
  8
DEFPOINTS
 62
     0
100
AcDbPoint
 10
48.76365669888516
 20
116.977561156084
 30
0.0
  0
POINT
  5
CA8
330
B97
100
AcDbEntity
  8
DEFPOINTS
 62
     0
100
AcDbPoint
 10
44.17919710153739
 20
116.977561156084
 30
0.0
  0
ENDBLK
  5
BA2
330
B97
100
AcDbEntity
  8
0
100
AcDbBlockEnd
  0
BLOCK
  5
BA5
330
BA4
100
AcDbEntity
  8
0
100
AcDbBlockBegin
  2
*D12
 70
     1
 10
0.0
 20
0.0
 30
0.0
  3
*D12
  1

  0
LINE
  5
C98
330
BA4
100
AcDbEntity
  8
寸法線
 62
     2
370
    -2
100
AcDbLine
 10
83.02603644875764
 20
178.977561156084
 30
0.0
 11
42.92919710153739
 21
178.977561156084
 31
0.0
  0
LINE
  5
C99
330
BA4
100
AcDbEntity
  8
寸法線
 62
     2
370
    -2
100
AcDbLine
 10
44.17919710153738
 20
119.477561156084
 30
0.0
 11
44.17919710153739
 21
176.4775611560841
 31
0.0
  0
INSERT
  5
C9A
330
BA4
100
AcDbEntity
  8
寸法線
 62
     2
370
    -2
100
AcDbBlockReference
  2
_OPEN
 10
44.17919710153738
 20
116.977561156084
 30
0.0
 41
2.5
 42
2.5
 43
2.5
 50
270.0
  0
INSERT
  5
C9B
330
BA4
100
AcDbEntity
  8
寸法線
 62
     2
370
    -2
100
AcDbBlockReference
  2
_OPEN
 10
44.17919710153739
 20
178.977561156084
 30
0.0
 41
2.5
 42
2.5
 43
2.5
 50
90.0
  0
MTEXT
  5
C9C
330
BA4
100
AcDbEntity
  8
寸法線
 62
     6
100
AcDbMText
 10
42.30419710153736
 20
147.977561156084
 30
0.0
 40
2.5
 41
0.0
 71
     5
 72
     1
  1
\A1;62
  7
STYLE3
 11
0.0000000000000001
 21
1.0
 31
0.0
 73
     1
 44
1.0
  0
POINT
  5
C9D
330
BA4
100
AcDbEntity
  8
DEFPOINTS
 62
     0
100
AcDbPoint
 10
48.76365669888516
 20
116.977561156084
 30
0.0
  0
POINT
  5
C9E
330
BA4
100
AcDbEntity
  8
DEFPOINTS
 62
     0
100
AcDbPoint
 10
83.02603644875764
 20
178.977561156084
 30
0.0
  0
POINT
  5
C9F
330
BA4
100
AcDbEntity
  8
DEFPOINTS
 62
     0
100
AcDbPoint
 10
44.17919710153739
 20
178.977561156084
 30
0.0
  0
ENDBLK
  5
BAE
330
BA4
100
AcDbEntity
  8
0
100
AcDbBlockEnd
  0
BLOCK
  5
C68
330
BB0
100
AcDbEntity
  8
0
100
AcDbBlockBegin
  2
*D13
 70
     1
 10
0.0
 20
0.0
 30
0.0
  3
*D13
  1

  0
LINE
  5
C8F
330
BB0
100
AcDbEntity
  8
寸法線
 62
     2
370
    -2
100
AcDbLine
 10
42.92919710153739
 20
178.977561156084
 30
0.0
 11
37.4036627182101
 21
178.977561156084
 31
0.0
  0
LINE
  5
C90
330
BB0
100
AcDbEntity
  8
寸法線
 62
     2
370
    -2
100
AcDbLine
 10
42.92919710153738
 20
26.977561156084
 30
0.0
 11
37.40366271821006
 21
26.97756115608401
 31
0.0
  0
LINE
  5
C91
330
BB0
100
AcDbEntity
  8
寸法線
 62
     2
370
    -2
100
AcDbLine
 10
38.6536627182101
 20
176.477561156084
 30
0.0
 11
38.65366271821006
 21
29.47756115608401
 31
0.0
  0
INSERT
  5
C92
330
BB0
100
AcDbEntity
  8
寸法線
 62
     2
370
    -2
100
AcDbBlockReference
  2
_OPEN
 10
38.6536627182101
 20
178.977561156084
 30
0.0
 41
2.5
 42
2.5
 43
2.5
 50
90.0
  0
INSERT
  5
C93
330
BB0
100
AcDbEntity
  8
寸法線
 62
     2
370
    -2
100
AcDbBlockReference
  2
_OPEN
 10
38.65366271821006
 20
26.97756115608401
 30
0.0
 41
2.5
 42
2.5
 43
2.5
 50
270.0
  0
MTEXT
  5
C94
330
BB0
100
AcDbEntity
  8
寸法線
 62
     6
100
AcDbMText
 10
36.77866271821006
 20
102.977561156084
 30
0.0
 40
2.5
 41
0.0
 71
     5
 72
     1
  1
\A1;152
  7
STYLE3
 11
0.0000000000000001
 21
1.0
 31
0.0
 73
     1
 44
1.0
  0
POINT
  5
C95
330
BB0
100
AcDbEntity
  8
DEFPOINTS
 62
     0
100
AcDbPoint
 10
42.92919710153739
 20
178.977561156084
 30
0.0
  0
POINT
  5
C96
330
BB0
100
AcDbEntity
  8
DEFPOINTS
 62
     0
100
AcDbPoint
 10
42.92919710153738
 20
26.977561156084
 30
0.0
  0
POINT
  5
C97
330
BB0
100
AcDbEntity
  8
DEFPOINTS
 62
     0
100
AcDbPoint
 10
38.65366271821006
 20
26.97756115608401
 30
0.0
  0
ENDBLK
  5
C72
330
BB0
100
AcDbEntity
  8
0
100
AcDbBlockEnd
  0
ENDSEC
  0
SECTION
  2
ENTITIES
  0
LWPOLYLINE
  5
26C
330
18
100
AcDbEntity
  8
C
100
AcDbPolyline
 90
        5
 70
     0
 43
0.4
 10
0.0
 20
195.0
 10
255.0
 20
195.0
 10
255.0
 20
0.0
 10
0.0
 20
0.0
 10
0.0
 20
195.0
  0
TEXT
  5
856
330
18
100
AcDbEntity
  8
文字
100
AcDbText
 10
101.7286525511811
 20
78.42930612090942
 30
0.0
 40
1.5
  1
0
  7
STYLE3
100
AcDbText
  0
TEXT
  5
857
330
18
100
AcDbEntity
  8
文字
100
AcDbText
 10
99.87947353020956
 20
76.56735572777654
 30
0.0
 40
1.5
  1
-0.03
  7
STYLE3
100
AcDbText
  0
LINE
  5
970
330
18
100
AcDbEntity
  8
中心線
100
AcDbLine
 10
106.0052980436356
 20
136.7068227509619
 30
0.0
 11
137.1188691117265
 21
167.8203938190529
 31
0.0
  0
CIRCLE
  5
971
330
18
100
AcDbEntity
  8
外形線
100
AcDbCircle
 10
86.27603644875762
 20
116.977561156084
 30
0.0
 40
32.0
  0
CIRCLE
  5
972
330
18
100
AcDbEntity
  8
外形線
100
AcDbCircle
 10
86.27603644875762
 20
116.977561156084
 30
0.0
 40
19.5
  0
LINE
  5
974
330
18
100
AcDbEntity
  8
外形線
100
AcDbLine
 10
82.27603644875769
 20
58.97756115608402
 30
0.0
 11
82.27603644875761
 21
85.2285454233089
 31
0.0
  0
LINE
  5
976
330
18
100
AcDbEntity
  8
外形線
100
AcDbLine
 10
90.27603644875766
 20
58.97756115608399
 30
0.0
 11
90.27603644875762
 21
85.2285454233089
 31
0.0
  0
TEXT
  5
978
330
18
100
AcDbEntity
  8
文字
100
AcDbText
 10
78.5236563419877
 20
122.118700025056
 30
0.0
 40
2.5
  1
DIGITAL
 41
1.199999999999999
  7
4
100
AcDbText
  0
ARC
  5
979
330
18
100
AcDbEntity
  8
外形線
100
AcDbCircle
 10
86.27603644875762
 20
116.977561156084
 30
0.0
 40
18.25
100
AcDbArc
 50
152.5135737496184
 51
207.486426250381
  0
ARC
  5
97A
330
18
100
AcDbEntity
  8
外形線
100
AcDbCircle
 10
86.27603644875762
 20
116.977561156084
 30
0.0
 40
18.25
100
AcDbArc
 50
332.513573749619
 51
27.48642625038153
  0
TEXT
  5
97B
330
18
100
AcDbEntity
  8
文字
100
AcDbText
 10
75.69132345353819
 20
110.968866247164
 30
0.0
 40
2.0
  1
MODEL
  7
4
100
AcDbText
  0
TEXT
  5
97C
330
18
100
AcDbEntity
  8
文字
100
AcDbText
 10
76.53366894294947
 20
103.8621870833179
 30
0.0
 40
1.5
  1
OZAKI MFG.CD;LTD
  7
STYLE3
100
AcDbText
  0
LINE
  5
97D
330
18
100
AcDbEntity
  8
外形線
100
AcDbLine
 10
77.31513548914802
 20
121.6177767156226
 30
0.0
 11
95.03925325840681
 21
121.6177767156226
 31
0.0
  0
TEXT
  5
97E
330
18
100
AcDbEntity
  8
文字
100
AcDbText
 10
79.43309885274732
 20
118.6269167855998
 30
0.0
 40
2.5
  1
GAUGE
 41
1.199999999999999
  7
4
100
AcDbText
  0
LINE
  5
97F
330
18
100
AcDbEntity
  8
外形線
100
AcDbLine
 10
71.86033320541913
 20
107.477561156084
 30
0.0
 11
100.6917396920961
 21
107.477561156084
 31
0.0
  0
ARC
  5
980
330
18
100
AcDbEntity
  8
外形線
100
AcDbCircle
 10
71.86033320541913
 20
109.477561156084
 30
0.0
 40
2.0
100
AcDbArc
 50
207.4864262503808
 51
270.0
  0
TEXT
  5
981
330
18
100
AcDbEntity
  8
文字
100
AcDbText
 10
86.57269113333734
 20
111.2810108480775
 30
0.0
 40
2.5
  1
D-20S
  7
4
100
AcDbText
  0
ARC
  5
982
330
18
100
AcDbEntity
  8
外形線
100
AcDbCircle
 10
100.6917396920961
 20
109.477561156084
 30
0.0
 40
2.0
100
AcDbArc
 50
270.0
 51
332.5135737496192
  0
INSERT
  5
983
330
18
100
AcDbEntity
  8
文字
100
AcDbBlockReference
  2
ROGO
 10
76.90671933742805
 20
128.3504968460709
 30
0.0
 41
0.5
 42
0.5
 43
0.5
  0
LINE
  5
984
330
18
100
AcDbEntity
  8
外形線
100
AcDbLine
 10
71.86033320541918
 20
126.477561156084
 30
0.0
 11
100.6917396920961
 21
126.477561156084
 31
0.0
  0
ARC
  5
985
330
18
100
AcDbEntity
  8
外形線
100
AcDbCircle
 10
71.86033320541918
 20
124.477561156084
 30
0.0
 40
2.0
100
AcDbArc
 50
90.0
 51
152.5135737496184
  0
ARC
  5
986
330
18
100
AcDbEntity
  8
外形線
100
AcDbCircle
 10
100.6917396920961
 20
124.477561156084
 30
0.0
 40
2.0
100
AcDbArc
 50
27.48642625038152
 51
90.0
  0
LINE
  5
987
330
18
100
AcDbEntity
  8
外形線
100
AcDbLine
 10
90.52603644875762
 20
177.977561156084
 30
0.0
 11
90.52603644875762
 21
159.477561156084
 31
0.0
  0
LINE
  5
988
330
18
100
AcDbEntity
  8
外形線
100
AcDbLine
 10
82.02603644875763
 20
177.977561156084
 30
0.0
 11
82.02603644875763
 21
159.477561156084
 31
0.0
  0
LINE
  5
989
330
18
100
AcDbEntity
  8
外形線
100
AcDbLine
 10
81.77603644875764
 20
153.477561156084
 30
0.0
 11
90.77603644875763
 21
153.477561156084
 31
0.0
  0
LINE
  5
98A
330
18
100
AcDbEntity
  8
外形線
100
AcDbLine
 10
81.77603644875764
 20
159.477561156084
 30
0.0
 11
90.77603644875763
 21
159.477561156084
 31
0.0
  0
LINE
  5
98B
330
18
100
AcDbEntity
  8
寸法線
100
AcDbLine
 10
81.9909648816341
 20
159.477561156084
 30
0.0
 11
81.9909648816341
 21
153.4775611560839
 31
0.0
  0
LINE
  5
98C
330
18
100
AcDbEntity
  8
寸法線
100
AcDbLine
 10
82.34995401481411
 20
159.477561156084
 30
0.0
 11
82.34995401481411
 21
153.4775611560839
 31
0.0
  0
LINE
  5
98D
330
18
100
AcDbEntity
  8
寸法線
100
AcDbLine
 10
82.81151060596073
 20
159.477561156084
 30
0.0
 11
82.81151060596073
 21
153.4775611560839
 31
0.0
  0
LINE
  5
98E
330
18
100
AcDbEntity
  8
寸法線
100
AcDbLine
 10
83.37563566517292
 20
159.477561156084
 30
0.0
 11
83.37563566517292
 21
153.4775611560839
 31
0.0
  0
LINE
  5
98F
330
18
100
AcDbEntity
  8
寸法線
100
AcDbLine
 10
83.93975971428631
 20
159.477561156084
 30
0.0
 11
83.93975971428631
 21
153.4775611560839
 31
0.0
  0
LINE
  5
990
330
18
100
AcDbEntity
  8
寸法線
100
AcDbLine
 10
84.55516850248182
 20
159.477561156084
 30
0.0
 11
84.55516850248182
 21
153.4775611560839
 31
0.0
  0
LINE
  5
991
330
18
100
AcDbEntity
  8
外形線
100
AcDbLine
 10
81.77603644875764
 20
159.477561156084
 30
0.0
 11
81.77603644875764
 21
153.477561156084
 31
0.0
  0
LINE
  5
992
330
18
100
AcDbEntity
  8
外形線
100
AcDbLine
 10
82.02603644875763
 20
153.477561156084
 30
0.0
 11
82.02603644875763
 21
148.69407893468
 31
0.0
  0
LINE
  5
993
330
18
100
AcDbEntity
  8
寸法線
100
AcDbLine
 10
85.11929356169401
 20
159.477561156084
 30
0.0
 11
85.11929356169401
 21
153.4775611560839
 31
0.0
  0
LINE
  5
994
330
18
100
AcDbEntity
  8
寸法線
100
AcDbLine
 10
85.73470234988951
 20
159.477561156084
 30
0.0
 11
85.73470234988951
 21
153.4775611560839
 31
0.0
  0
LINE
  5
995
330
18
100
AcDbEntity
  8
外形線
100
AcDbLine
 10
90.77603644875763
 20
159.477561156084
 30
0.0
 11
90.77603644875763
 21
153.477561156084
 31
0.0
  0
LINE
  5
996
330
18
100
AcDbEntity
  8
外形線
100
AcDbLine
 10
90.52603644875764
 20
153.477561156084
 30
0.0
 11
90.52603644875762
 21
148.69407893468
 31
0.0
  0
LINE
  5
998
330
18
100
AcDbEntity
  8
外形線
100
AcDbLine
 10
82.02603644875763
 20
177.9775611560841
 30
0.0
 11
90.52603644875762
 21
177.9775611560841
 31
0.0
  0
LINE
  5
999
330
18
100
AcDbEntity
  8
外形線
100
AcDbLine
 10
83.02603644875762
 20
178.977561156084
 30
0.0
 11
89.52603644875763
 21
178.977561156084
 31
0.0
  0
LINE
  5
99A
330
18
100
AcDbEntity
  8
外形線
100
AcDbLine
 10
82.02603644875763
 20
177.977561156084
 30
0.0
 11
83.02603644875762
 21
178.977561156084
 31
0.0
  0
LINE
  5
99B
330
18
100
AcDbEntity
  8
外形線
100
AcDbLine
 10
89.52603644875763
 20
178.977561156084
 30
0.0
 11
90.52603644875762
 21
177.977561156084
 31
0.0
  0
LINE
  5
99C
330
18
100
AcDbEntity
  8
外形線
100
AcDbLine
 10
130.2934335776202
 20
157.8129777696071
 30
0.0
 11
110.796565418403
 21
137.5382921510847
 31
0.0
  0
LINE
  5
99D
330
18
100
AcDbEntity
  8
外形線
100
AcDbLine
 10
106.8367674437583
 20
141.4980901257293
 30
0.0
 11
127.1114530622807
 21
160.9949582849465
 31
0.0
  0
LINE
  5
99E
330
18
100
AcDbEntity
  8
外形線
100
AcDbLine
 10
116.1321477189075
 20
103.2546073871452
 30
0.0
 11
118.8133032698239
 21
101.0048507532422
 31
0.0
  0
LINE
  5
99F
330
18
100
AcDbEntity
  8
外形線
100
AcDbLine
 10
113.4003003777398
 20
99.99891850388948
 30
0.0
 11
116.2928446213292
 21
103.4461184979249
 31
0.0
  0
LINE
  5
9A0
330
18
100
AcDbEntity
  8
中心線
 48
0.2
100
AcDbLine
 10
110.8423356009244
 20
105.0824722056773
 30
0.0
 11
119.15094126862
 21
98.1107242543165
 31
0.0
  0
LINE
  5
9A1
330
18
100
AcDbEntity
  8
外形線
100
AcDbLine
 10
116.2421528310778
 20
97.94067298076639
 30
0.0
 11
118.8133032698239
 21
101.0048507532422
 31
0.0
  0
LINE
  5
9A2
330
18
100
AcDbEntity
  8
外形線
100
AcDbLine
 10
113.5609972801614
 20
100.1904296146692
 30
0.0
 11
116.2421528310778
 21
97.94067298076635
 31
0.0
  0
LINE
  5
9A6
330
18
100
AcDbEntity
  8
外形線
100
AcDbLine
 10
115.5551788650118
 20
104.065093561983
 30
0.0
 11
116.2928446213292
 21
103.4461184979249
 31
0.0
  0
LINE
  5
9A9
330
18
100
AcDbEntity
  8
外形線
100
AcDbLine
 10
127.465006452874
 20
160.6414048943533
 30
0.0
 11
134.0540589952266
 21
167.2304574367059
 31
0.0
  0
LINE
  5
9AA
330
18
100
AcDbEntity
  8
外形線
100
AcDbLine
 10
127.1114530622807
 20
160.9949582849465
 30
0.0
 11
130.2934335776202
 21
157.8129777696071
 31
0.0
  0
LINE
  5
9AB
330
18
100
AcDbEntity
  8
外形線
100
AcDbLine
 10
129.9398801870269
 20
158.1665311602004
 30
0.0
 11
137.0336412688642
 21
165.2602922420377
 31
0.0
  0
LINE
  5
9AC
330
18
100
AcDbEntity
  8
想像線
 48
0.2
100
AcDbLine
 10
132.8559113136102
 20
168.0226989805218
 30
0.0
 11
138.2555038043256
 21
164.45236991637
 31
0.0
  0
LINE
  5
9AD
330
18
100
AcDbEntity
  8
中心線
100
AcDbLine
 10
86.27603644875762
 20
182.1149090625869
 30
0.0
 11
86.27603644875762
 21
24.13808161937453
 31
0.0
  0
LINE
  5
9AE
330
18
100
AcDbEntity
  8
中心線
100
AcDbLine
 10
52.0760545385823
 20
116.977561156084
 30
0.0
 11
121.4433198983552
 21
116.977561156084
 31
0.0
  0
LINE
  5
9BC
330
18
100
AcDbEntity
  8
外形線
100
AcDbLine
 10
83.77603644875733
 20
58.67756115608401
 30
0.0
 11
83.77603644875767
 21
35.977561156084
 31
0.0
  0
LINE
  5
9BD
330
18
100
AcDbEntity
  8
外形線
100
AcDbLine
 10
88.77603644875733
 20
58.67756115608401
 30
0.0
 11
88.77603644875756
 21
35.977561156084
 31
0.0
  0
LINE
  5
9C2
330
18
100
AcDbEntity
  8
外形線
 48
0.5
100
AcDbLine
 10
88.77603644875774
 20
33.62756115608397
 30
0.0
 11
88.77603644875767
 21
32.477561156084
 31
0.0
  0
LINE
  5
9C3
330
18
100
AcDbEntity
  8
ﾊｯﾁﾝｸ
100
AcDbLine
 10
85.57908831174421
 20
32.477561156084
 30
0.0
 11
84.42908831174424
 21
33.62756115608409
 31
0.0
  0
LINE
  5
9C4
330
18
100
AcDbEntity
  8
ﾊｯﾁﾝｸ
100
AcDbLine
 10
84.76231507807757
 20
32.477561156084
 30
0.0
 11
85.91231507807771
 21
33.62756115608403
 31
0.0
  0
LINE
  5
9C5
330
18
100
AcDbEntity
  8
ﾊｯﾁﾝｸ
100
AcDbLine
 10
83.77724218055801
 20
32.8395266767248
 30
0.0
 11
84.56527665991728
 21
33.62756115608397
 31
0.0
  0
LINE
  5
9C6
330
18
100
AcDbEntity
  8
外形線
 48
0.5
100
AcDbLine
 10
83.7760364487578
 20
33.62756115608397
 30
0.0
 11
83.77603644875774
 21
32.477561156084
 31
0.0
  0
LINE
  5
9C7
330
18
100
AcDbEntity
  8
ﾊｯﾁﾝｸ
100
AcDbLine
 10
86.92612672990453
 20
32.477561156084
 30
0.0
 11
85.7761267299046
 21
33.62756115608403
 31
0.0
  0
LINE
  5
9C8
330
18
100
AcDbEntity
  8
ﾊｯﾁﾝｸ
100
AcDbLine
 10
86.17652864045068
 20
32.477561156084
 30
0.0
 11
87.3265286404507
 21
33.62756115608397
 31
0.0
  0
LINE
  5
9C9
330
18
100
AcDbEntity
  8
ﾊｯﾁﾝｸ
100
AcDbLine
 10
87.59074220282371
 20
32.477561156084
 30
0.0
 11
88.74074220282393
 21
33.62756115608403
 31
0.0
  0
LINE
  5
9CA
330
18
100
AcDbEntity
  8
ﾊｯﾁﾝｸ
100
AcDbLine
 10
88.27316514806495
 20
32.477561156084
 30
0.0
 11
87.12316514806502
 21
33.62756115608397
 31
0.0
  0
LINE
  5
9CB
330
18
100
AcDbEntity
  8
外形線
100
AcDbLine
 10
83.77603644875774
 20
32.477561156084
 30
0.0
 11
88.77603644875767
 21
32.477561156084
 31
0.0
  0
LINE
  5
9CC
330
18
100
AcDbEntity
  8
外形線
100
AcDbLine
 10
88.77603644875767
 20
32.477561156084
 30
0.0
 11
87.57603644875757
 21
27.97756115608399
 31
0.0
  0
LINE
  5
9CD
330
18
100
AcDbEntity
  8
ﾊｯﾁﾝｸ
100
AcDbLine
 10
84.23204989358401
 20
32.477561156084
 30
0.0
 11
83.77603644875762
 21
32.93357460091028
 31
0.0
  0
ARC
  5
9CE
330
18
100
AcDbEntity
  8
外形線
100
AcDbCircle
 10
86.27603644875762
 20
28.127561156084
 30
0.0
 40
1.150000000000005
100
AcDbArc
 50
187.494717453927
 51
352.505282546073
  0
POINT
  5
9CF
330
18
100
AcDbEntity
  8
DEFPOINTS
  6
ByBlock
 62
     0
100
AcDbPoint
 10
86.27603644875762
 20
26.97756115608399
 30
0.0
  0
LINE
  5
9D0
330
18
100
AcDbEntity
  8
外形線
100
AcDbLine
 10
84.97603644875756
 20
27.97756115608399
 30
0.0
 11
87.57603644875757
 21
27.97756115608399
 31
0.0
  0
LINE
  5
9D1
330
18
100
AcDbEntity
  8
外形線
100
AcDbLine
 10
83.77603644875774
 20
32.477561156084
 30
0.0
 11
84.97603644875756
 21
27.97756115608399
 31
0.0
  0
LINE
  5
9D2
330
18
100
AcDbEntity
  8
ﾊｯﾁﾝｸ
100
AcDbLine
 10
88.68441712859846
 20
34.82756115608396
 30
0.0
 11
87.53441712859853
 21
35.977561156084
 31
0.0
  0
LINE
  5
9D3
330
18
100
AcDbEntity
  8
外形線
100
AcDbLine
 10
83.7760364487578
 20
33.62756115608394
 30
0.0
 11
88.77603644875774
 21
33.62756115608394
 31
0.0
  0
LINE
  5
9D4
330
18
100
AcDbEntity
  8
外形線
100
AcDbLine
 10
83.7760364487578
 20
34.82756115608402
 30
0.0
 11
88.77603644875774
 21
34.82756115608402
 31
0.0
  0
LINE
  5
9D6
330
18
100
AcDbEntity
  8
外形線
100
AcDbLine
 10
83.7760364487578
 20
35.977561156084
 30
0.0
 11
88.77603644875774
 21
35.97756115608394
 31
0.0
  0
LINE
  5
9D8
330
18
100
AcDbEntity
  8
ﾊｯﾁﾝｸ
100
AcDbLine
 10
87.2702035662254
 20
34.82756115608402
 30
0.0
 11
86.12020356622537
 21
35.977561156084
 31
0.0
  0
LINE
  5
9D9
330
18
100
AcDbEntity
  8
ﾊｯﾁﾝｸ
100
AcDbLine
 10
85.92316514806503
 20
34.82756115608396
 30
0.0
 11
84.77316514806501
 21
35.977561156084
 31
0.0
  0
LINE
  5
9DA
330
18
100
AcDbEntity
  8
ﾊｯﾁﾝｸ
100
AcDbLine
 10
84.41823824175685
 20
34.82756115608396
 30
0.0
 11
85.53020376239771
 21
35.93952667672482
 31
0.0
  0
LINE
  5
9DB
330
18
100
AcDbEntity
  8
ﾊｯﾁﾝｸ
100
AcDbLine
 10
84.57612672990462
 20
34.82756115608402
 30
0.0
 11
83.77603644875767
 21
35.62765143723095
 31
0.0
  0
LINE
  5
9DC
330
18
100
AcDbEntity
  8
ﾊｯﾁﾝｸ
100
AcDbLine
 10
85.76527665991727
 20
34.82756115608396
 30
0.0
 11
86.91527665991726
 21
35.977561156084
 31
0.0
  0
LINE
  5
9DD
330
18
100
AcDbEntity
  8
外形線
 48
0.5
100
AcDbLine
 10
83.7760364487578
 20
35.977561156084
 30
0.0
 11
83.7760364487578
 21
34.82756115608402
 31
0.0
  0
ARC
  5
9DE
330
18
100
AcDbEntity
  8
外形線
100
AcDbCircle
 10
83.41548132121124
 20
34.22756115608397
 30
0.0
 40
0.7
100
AcDbArc
 50
301.0027191338726
 51
58.99728086611813
  0
LINE
  5
9DF
330
18
100
AcDbEntity
  8
ﾊｯﾁﾝｸ
100
AcDbLine
 10
83.77603644875767
 20
35.53239778124521
 30
0.0
 11
84.22119982359651
 21
35.97756115608405
 31
0.0
  0
LINE
  5
9E0
330
18
100
AcDbEntity
  8
ﾊｯﾁﾝｸ
100
AcDbLine
 10
87.11231507807758
 20
34.82756115608402
 30
0.0
 11
88.26231507807762
 21
35.977561156084
 31
0.0
  0
LINE
  5
9E3
330
18
100
AcDbEntity
  8
ﾊｯﾁﾝｸ
100
AcDbLine
 10
88.52652864045069
 20
34.82756115608396
 30
0.0
 11
88.77603644875774
 21
35.07706896439095
 31
0.0
  0
LINE
  5
9E4
330
18
100
AcDbEntity
  8
外形線
 48
0.5
100
AcDbLine
 10
88.77603644875774
 20
35.97756115608394
 30
0.0
 11
88.77603644875774
 21
34.82756115608402
 31
0.0
  0
ARC
  5
9E5
330
18
100
AcDbEntity
  8
外形線
100
AcDbCircle
 10
89.1365915763041
 20
34.22756115608397
 30
0.0
 40
0.7
100
AcDbArc
 50
121.0027191338818
 51
238.9972808661273
  0
LINE
  5
9E6
330
18
100
AcDbEntity
  8
ﾊｯﾁﾝｸ
100
AcDbLine
 10
88.77603644875767
 20
33.32172827355157
 30
0.0
 11
88.47020356622527
 21
33.62756115608403
 31
0.0
  0
LINE
  5
A03
330
18
100
AcDbEntity
  8
外形線
100
AcDbLine
 10
82.5760364487577
 20
58.67756115608401
 30
0.0
 11
89.97603644875766
 21
58.67756115608401
 31
0.0
  0
LINE
  5
A04
330
18
100
AcDbEntity
  8
外形線
100
AcDbLine
 10
82.27603644875769
 20
63.67756115608404
 30
0.0
 11
90.27603644875766
 21
63.67756115608404
 31
0.0
  0
LINE
  5
A05
330
18
100
AcDbEntity
  8
外形線
100
AcDbLine
 10
82.27603644875769
 20
58.97756115608402
 30
0.0
 11
82.5760364487577
 21
58.67756115608401
 31
0.0
  0
LINE
  5
A06
330
18
100
AcDbEntity
  8
外形線
100
AcDbLine
 10
89.97603644875766
 20
58.67756115608401
 30
0.0
 11
90.27603644875766
 21
58.97756115608399
 31
0.0
  0
LINE
  5
A07
330
18
100
AcDbEntity
  8
外形線
100
AcDbLine
 10
82.27603644875769
 20
58.97756115608402
 30
0.0
 11
90.27603644875767
 21
58.97756115608402
 31
0.0
  0
LINE
  5
A08
330
18
100
AcDbEntity
  8
外形線
100
AcDbLine
 10
166.937818627581
 20
177.977561156084
 30
0.0
 11
166.937818627581
 21
159.477561156084
 31
0.0
  0
LINE
  5
A09
330
18
100
AcDbEntity
  8
外形線
100
AcDbLine
 10
175.437818627581
 20
177.977561156084
 30
0.0
 11
175.437818627581
 21
159.477561156084
 31
0.0
  0
LINE
  5
A0A
330
18
100
AcDbEntity
  8
外形線
100
AcDbLine
 10
175.437818627581
 20
153.477561156084
 30
0.0
 11
175.437818627581
 21
148.227561156084
 31
0.0
  0
LINE
  5
A0B
330
18
100
AcDbEntity
  8
外形線
100
AcDbLine
 10
166.937818627581
 20
153.477561156084
 30
0.0
 11
166.937818627581
 21
148.227561156084
 31
0.0
  0
LINE
  5
A0C
330
18
100
AcDbEntity
  8
外形線
100
AcDbLine
 10
166.687818627581
 20
159.477561156084
 30
0.0
 11
168.9402270048023
 21
159.477561156084
 31
0.0
  0
LINE
  5
A0D
330
18
100
AcDbEntity
  8
外形線
100
AcDbLine
 10
166.687818627581
 20
153.477561156084
 30
0.0
 11
168.777482532438
 21
153.477561156084
 31
0.0
  0
LINE
  5
A0E
330
18
100
AcDbEntity
  8
外形線
100
AcDbLine
 10
166.687818627581
 20
159.477561156084
 30
0.0
 11
166.687818627581
 21
153.477561156084
 31
0.0
  0
LINE
  5
A11
330
18
100
AcDbEntity
  8
寸法線
100
AcDbLine
 10
168.2874178439963
 20
159.477561156084
 30
0.0
 11
168.2874178439963
 21
153.4775611560839
 31
0.0
  0
LINE
  5
A12
330
18
100
AcDbEntity
  8
寸法線
100
AcDbLine
 10
167.7232927847841
 20
159.477561156084
 30
0.0
 11
167.7232927847841
 21
153.4775611560839
 31
0.0
  0
LINE
  5
A13
330
18
100
AcDbEntity
  8
寸法線
100
AcDbLine
 10
167.2617361936375
 20
159.477561156084
 30
0.0
 11
167.2617361936375
 21
153.4775611560839
 31
0.0
  0
LINE
  5
A14
330
18
100
AcDbEntity
  8
寸法線
100
AcDbLine
 10
166.9027470604575
 20
159.477561156084
 30
0.0
 11
166.9027470604575
 21
153.4775611560839
 31
0.0
  0
LINE
  5
A17
330
18
100
AcDbEntity
  8
外形線
100
AcDbLine
 10
175.687818627581
 20
159.477561156084
 30
0.0
 11
175.687818627581
 21
153.477561156084
 31
0.0
  0
LINE
  5
A18
330
18
100
AcDbEntity
  8
外形線
100
AcDbLine
 10
174.437818627581
 20
178.977561156084
 30
0.0
 11
175.437818627581
 21
177.977561156084
 31
0.0
  0
LINE
  5
A19
330
18
100
AcDbEntity
  8
外形線
100
AcDbLine
 10
166.937818627581
 20
177.9775611560841
 30
0.0
 11
175.437818627581
 21
177.9775611560841
 31
0.0
  0
LINE
  5
A1A
330
18
100
AcDbEntity
  8
外形線
100
AcDbLine
 10
167.937818627581
 20
178.977561156084
 30
0.0
 11
174.437818627581
 21
178.977561156084
 31
0.0
  0
LINE
  5
A1B
330
18
100
AcDbEntity
  8
外形線
100
AcDbLine
 10
166.937818627581
 20
177.977561156084
 30
0.0
 11
167.937818627581
 21
178.977561156084
 31
0.0
  0
LINE
  5
A1C
330
18
100
AcDbEntity
  8
中心線
100
AcDbLine
 10
148.8281871464821
 20
116.977561156084
 30
0.0
 11
202.4084681866301
 21
116.977561156084
 31
0.0
  0
LINE
  5
A1D
330
18
100
AcDbEntity
  8
外形線
100
AcDbLine
 10
175.187818627581
 20
58.97756115608399
 30
0.0
 11
175.187818627581
 21
85.2285454233089
 31
0.0
  0
LINE
  5
A1E
330
18
100
AcDbEntity
  8
外形線
100
AcDbLine
 10
167.1878186275811
 20
58.97756115608402
 30
0.0
 11
167.187818627581
 21
85.2285454233089
 31
0.0
  0
LINE
  5
A1F
330
18
100
AcDbEntity
  8
中心線
100
AcDbLine
 10
171.187818627581
 20
182.1149090625869
 30
0.0
 11
171.187818627581
 21
24.13808161937453
 31
0.0
  0
LINE
  5
A20
330
18
100
AcDbEntity
  8
外形線
100
AcDbLine
 10
174.887818627581
 20
58.67756115608401
 30
0.0
 11
175.187818627581
 21
58.97756115608399
 31
0.0
  0
LINE
  5
A21
330
18
100
AcDbEntity
  8
外形線
100
AcDbLine
 10
167.1878186275811
 20
58.97756115608402
 30
0.0
 11
175.187818627581
 21
58.97756115608402
 31
0.0
  0
LINE
  5
A22
330
18
100
AcDbEntity
  8
外形線
100
AcDbLine
 10
167.1878186275811
 20
63.67756115608404
 30
0.0
 11
175.187818627581
 21
63.67756115608404
 31
0.0
  0
LINE
  5
A23
330
18
100
AcDbEntity
  8
外形線
100
AcDbLine
 10
167.4878186275811
 20
58.67756115608401
 30
0.0
 11
174.887818627581
 21
58.67756115608401
 31
0.0
  0
LINE
  5
A24
330
18
100
AcDbEntity
  8
外形線
100
AcDbLine
 10
167.1878186275811
 20
58.97756115608402
 30
0.0
 11
167.4878186275811
 21
58.67756115608401
 31
0.0
  0
LINE
  5
A25
330
18
100
AcDbEntity
  8
外形線
100
AcDbLine
 10
173.6878186275807
 20
58.67756115608401
 30
0.0
 11
173.6878186275809
 21
35.977561156084
 31
0.0
  0
LINE
  5
A26
330
18
100
AcDbEntity
  8
外形線
100
AcDbLine
 10
168.6878186275807
 20
58.67756115608401
 30
0.0
 11
168.687818627581
 21
35.977561156084
 31
0.0
  0
ARC
  5
A27
330
18
100
AcDbEntity
  8
外形線
100
AcDbCircle
 10
174.0483737551275
 20
34.22756115608397
 30
0.0
 40
0.7
100
AcDbArc
 50
121.0027191338818
 51
238.9972808661273
  0
ARC
  5
A28
330
18
100
AcDbEntity
  8
外形線
100
AcDbCircle
 10
168.3272635000346
 20
34.22756115608397
 30
0.0
 40
0.7
100
AcDbArc
 50
301.0027191338726
 51
58.99728086611813
  0
ARC
  5
A29
330
18
100
AcDbEntity
  8
外形線
100
AcDbCircle
 10
171.187818627581
 20
28.127561156084
 30
0.0
 40
1.150000000000005
100
AcDbArc
 50
187.494717453927
 51
352.505282546073
  0
POINT
  5
A2A
330
18
100
AcDbEntity
  8
DEFPOINTS
  6
ByBlock
 62
     0
100
AcDbPoint
 10
171.187818627581
 20
26.97756115608399
 30
0.0
  0
LINE
  5
A2B
330
18
100
AcDbEntity
  8
ﾊｯﾁﾝｸ
100
AcDbLine
 10
170.4908704905676
 20
32.477561156084
 30
0.0
 11
169.3408704905676
 21
33.62756115608409
 31
0.0
  0
LINE
  5
A2C
330
18
100
AcDbEntity
  8
外形線
100
AcDbLine
 10
168.6878186275811
 20
33.62756115608394
 30
0.0
 11
173.6878186275811
 21
33.62756115608394
 31
0.0
  0
LINE
  5
A2D
330
18
100
AcDbEntity
  8
外形線
100
AcDbLine
 10
168.6878186275811
 20
32.477561156084
 30
0.0
 11
173.687818627581
 21
32.477561156084
 31
0.0
  0
LINE
  5
A2E
330
18
100
AcDbEntity
  8
外形線
100
AcDbLine
 10
168.6878186275811
 20
32.477561156084
 30
0.0
 11
169.8878186275809
 21
27.97756115608399
 31
0.0
  0
LINE
  5
A2F
330
18
100
AcDbEntity
  8
ﾊｯﾁﾝｸ
100
AcDbLine
 10
169.1438320724074
 20
32.477561156084
 30
0.0
 11
168.687818627581
 21
32.93357460091028
 31
0.0
  0
LINE
  5
A30
330
18
100
AcDbEntity
  8
外形線
 48
0.5
100
AcDbLine
 10
168.6878186275811
 20
33.62756115608397
 30
0.0
 11
168.6878186275811
 21
32.477561156084
 31
0.0
  0
LINE
  5
A31
330
18
100
AcDbEntity
  8
ﾊｯﾁﾝｸ
100
AcDbLine
 10
168.6890243593814
 20
32.8395266767248
 30
0.0
 11
169.4770588387406
 21
33.62756115608397
 31
0.0
  0
LINE
  5
A32
330
18
100
AcDbEntity
  8
ﾊｯﾁﾝｸ
100
AcDbLine
 10
173.687818627581
 20
33.32172827355157
 30
0.0
 11
173.3819857450486
 21
33.62756115608403
 31
0.0
  0
LINE
  5
A33
330
18
100
AcDbEntity
  8
ﾊｯﾁﾝｸ
100
AcDbLine
 10
173.1849473268883
 20
32.477561156084
 30
0.0
 11
172.0349473268884
 21
33.62756115608397
 31
0.0
  0
LINE
  5
A34
330
18
100
AcDbEntity
  8
ﾊｯﾁﾝｸ
100
AcDbLine
 10
172.5025243816471
 20
32.477561156084
 30
0.0
 11
173.6525243816473
 21
33.62756115608403
 31
0.0
  0
LINE
  5
A35
330
18
100
AcDbEntity
  8
ﾊｯﾁﾝｸ
100
AcDbLine
 10
171.088310819274
 20
32.477561156084
 30
0.0
 11
172.2383108192741
 21
33.62756115608397
 31
0.0
  0
LINE
  5
A36
330
18
100
AcDbEntity
  8
ﾊｯﾁﾝｸ
100
AcDbLine
 10
171.8379089087279
 20
32.477561156084
 30
0.0
 11
170.687908908728
 21
33.62756115608403
 31
0.0
  0
LINE
  5
A37
330
18
100
AcDbEntity
  8
外形線
 48
0.5
100
AcDbLine
 10
173.6878186275811
 20
33.62756115608397
 30
0.0
 11
173.687818627581
 21
32.477561156084
 31
0.0
  0
LINE
  5
A38
330
18
100
AcDbEntity
  8
ﾊｯﾁﾝｸ
100
AcDbLine
 10
169.6740972569009
 20
32.477561156084
 30
0.0
 11
170.8240972569011
 21
33.62756115608403
 31
0.0
  0
LINE
  5
A39
330
18
100
AcDbEntity
  8
外形線
100
AcDbLine
 10
169.8878186275809
 20
27.97756115608399
 30
0.0
 11
172.4878186275809
 21
27.97756115608399
 31
0.0
  0
LINE
  5
A3A
330
18
100
AcDbEntity
  8
外形線
100
AcDbLine
 10
173.687818627581
 20
32.477561156084
 30
0.0
 11
172.4878186275809
 21
27.97756115608399
 31
0.0
  0
LINE
  5
A3B
330
18
100
AcDbEntity
  8
ﾊｯﾁﾝｸ
100
AcDbLine
 10
169.3300204205802
 20
34.82756115608396
 30
0.0
 11
170.4419859412211
 21
35.93952667672482
 31
0.0
  0
LINE
  5
A3C
330
18
100
AcDbEntity
  8
ﾊｯﾁﾝｸ
100
AcDbLine
 10
169.487908908728
 20
34.82756115608402
 30
0.0
 11
168.687818627581
 21
35.62765143723095
 31
0.0
  0
LINE
  5
A3D
330
18
100
AcDbEntity
  8
外形線
100
AcDbLine
 10
168.6878186275811
 20
35.977561156084
 30
0.0
 11
173.6878186275811
 21
35.97756115608394
 31
0.0
  0
LINE
  5
A3E
330
18
100
AcDbEntity
  8
外形線
100
AcDbLine
 10
168.6878186275811
 20
34.82756115608402
 30
0.0
 11
173.6878186275811
 21
34.82756115608402
 31
0.0
  0
LINE
  5
A3F
330
18
100
AcDbEntity
  8
ﾊｯﾁﾝｸ
100
AcDbLine
 10
168.687818627581
 20
35.53239778124521
 30
0.0
 11
169.1329820024199
 21
35.97756115608405
 31
0.0
  0
LINE
  5
A40
330
18
100
AcDbEntity
  8
外形線
 48
0.5
100
AcDbLine
 10
168.6878186275811
 20
35.977561156084
 30
0.0
 11
168.6878186275811
 21
34.82756115608402
 31
0.0
  0
LINE
  5
A41
330
18
100
AcDbEntity
  8
外形線
 48
0.5
100
AcDbLine
 10
173.6878186275811
 20
35.97756115608394
 30
0.0
 11
173.6878186275811
 21
34.82756115608402
 31
0.0
  0
LINE
  5
A42
330
18
100
AcDbEntity
  8
ﾊｯﾁﾝｸ
100
AcDbLine
 10
173.4383108192741
 20
34.82756115608396
 30
0.0
 11
173.6878186275811
 21
35.07706896439095
 31
0.0
  0
LINE
  5
A43
330
18
100
AcDbEntity
  8
ﾊｯﾁﾝｸ
100
AcDbLine
 10
172.0240972569009
 20
34.82756115608402
 30
0.0
 11
173.174097256901
 21
35.977561156084
 31
0.0
  0
LINE
  5
A44
330
18
100
AcDbEntity
  8
ﾊｯﾁﾝｸ
100
AcDbLine
 10
170.6770588387406
 20
34.82756115608396
 30
0.0
 11
171.8270588387406
 21
35.977561156084
 31
0.0
  0
LINE
  5
A45
330
18
100
AcDbEntity
  8
ﾊｯﾁﾝｸ
100
AcDbLine
 10
172.1819857450488
 20
34.82756115608402
 30
0.0
 11
171.0319857450487
 21
35.977561156084
 31
0.0
  0
LINE
  5
A46
330
18
100
AcDbEntity
  8
ﾊｯﾁﾝｸ
100
AcDbLine
 10
173.5961993074218
 20
34.82756115608396
 30
0.0
 11
172.4461993074219
 21
35.977561156084
 31
0.0
  0
LINE
  5
A47
330
18
100
AcDbEntity
  8
ﾊｯﾁﾝｸ
100
AcDbLine
 10
170.8349473268884
 20
34.82756115608396
 30
0.0
 11
169.6849473268884
 21
35.977561156084
 31
0.0
  0
LINE
  5
A48
330
18
100
AcDbEntity
  8
外形線
100
AcDbLine
 10
152.687818627581
 20
143.977561156084
 30
0.0
 11
152.687818627581
 21
89.97756115608401
 31
0.0
  0
LINE
  5
A49
330
18
100
AcDbEntity
  8
外形線
100
AcDbLine
 10
157.687818627581
 20
148.977561156084
 30
0.0
 11
165.487818627581
 21
148.977561156084
 31
0.0
  0
LINE
  5
A4A
330
18
100
AcDbEntity
  8
外形線
100
AcDbLine
 10
157.687818627581
 20
84.97756115608401
 30
0.0
 11
165.487818627581
 21
84.977561156084
 31
0.0
  0
LINE
  5
A4B
330
18
100
AcDbEntity
  8
外形線
100
AcDbLine
 10
165.487818627581
 20
148.977561156084
 30
0.0
 11
165.487818627581
 21
84.977561156084
 31
0.0
  0
LINE
  5
A4C
330
18
100
AcDbEntity
  8
外形線
100
AcDbLine
 10
178.687818627581
 20
148.227561156084
 30
0.0
 11
178.687818627581
 21
85.72756115608401
 31
0.0
  0
LINE
  5
A4D
330
18
100
AcDbEntity
  8
外形線
100
AcDbLine
 10
165.487818627581
 20
148.227561156084
 30
0.0
 11
168.6354463007388
 21
148.227561156084
 31
0.0
  0
LINE
  5
A4E
330
18
100
AcDbEntity
  8
外形線
100
AcDbLine
 10
165.487818627581
 20
85.72756115608401
 30
0.0
 11
178.687818627581
 21
85.72756115608401
 31
0.0
  0
ARC
  5
A4F
330
18
100
AcDbEntity
  8
外形線
100
AcDbCircle
 10
157.687818627581
 20
143.977561156084
 30
0.0
 40
5.0
100
AcDbArc
 50
90.0
 51
180.0
  0
ARC
  5
A50
330
18
100
AcDbEntity
  8
外形線
100
AcDbCircle
 10
157.687818627581
 20
89.97756115608401
 30
0.0
 40
5.0
100
AcDbArc
 50
179.9999999999999
 51
269.9999999999999
  0
MTEXT
  5
A9F
330
18
100
AcDbEntity
  8
0
  6
ByBlock
 62
     6
100
AcDbMText
 10
210.0173947603994
 20
116.977561156084
 30
0.0
 40
2.5
 41
0.0
 71
     5
 72
     1
  1
\A1;φ62.5
  7
STYLE3
 11
0.0000000000000001
 21
1.0
 31
0.0
 73
     1
 44
1.0
  0
LINE
  5
AA0
330
18
100
AcDbEntity
  8
0
  6
ByBlock
 62
     2
100
AcDbLine
 10
211.8923947603994
 20
145.727561156084
 30
0.0
 11
211.8923947603994
 21
88.22756115608399
 31
0.0
  0
INSERT
  5
AA1
330
18
100
AcDbEntity
  8
0
  6
ByBlock
 62
     2
100
AcDbBlockReference
  2
_OPEN
 10
192.8239305003971
 20
119.7856989624656
 30
0.0
 41
2.5
 42
2.5
 43
2.5
 50
239.7735393033029
  0
LINE
  5
AA2
330
18
100
AcDbEntity
  8
想像線
 48
0.5
100
AcDbLine
 10
186.9868219833333
 20
125.3594699419247
 30
0.0
 11
186.9868219833333
 21
108.5956523702433
 31
0.0
  0
LINE
  5
AA3
330
18
100
AcDbEntity
  8
想像線
 48
0.5
100
AcDbLine
 10
181.9868219833332
 20
126.1149546908836
 30
0.0
 11
181.9868219833331
 21
107.8401676212843
 31
0.0
  0
LINE
  5
AA4
330
18
100
AcDbEntity
  8
外形線
100
AcDbLine
 10
180.1888163336968
 20
129.2573764205225
 30
0.0
 11
180.1888163336968
 21
104.6977458916442
 31
0.0
  0
ARC
  5
AA5
330
18
100
AcDbEntity
  8
外形線
100
AcDbCircle
 10
-92.8794941314327
 20
122.5017469538401
 30
0.0
 40
272.6532446783106
100
AcDbArc
 50
358.8390595143408
 51
5.028737861739205
  0
ARC
  5
AA6
330
18
100
AcDbEntity
  8
外形線
100
AcDbCircle
 10
191.187818627581
 20
116.977561156084
 30
0.0
 40
8.0
100
AcDbArc
 50
270.0
 51
90.00000000000447
  0
LINE
  5
AA7
330
18
100
AcDbEntity
  8
中心線
 48
0.5
100
AcDbLine
 10
191.187818627581
 20
127.1250960040659
 30
0.0
 11
191.1878186275809
 21
106.4482623912272
 31
0.0
  0
LINE
  5
AA8
330
18
100
AcDbEntity
  8
外形線
100
AcDbLine
 10
178.687818627581
 20
148.227561156084
 30
0.0
 11
178.687818627581
 21
85.72756115608399
 31
0.0
  0
LINE
  5
AA9
330
18
100
AcDbEntity
  8
0
  6
ByBlock
 62
     2
100
AcDbLine
 10
178.687818627581
 20
85.72756115608399
 30
0.0
 11
213.1423947603994
 21
85.72756115608399
 31
0.0
  0
LINE
  5
AAA
330
18
100
AcDbEntity
  8
0
  6
ByBlock
 62
     2
100
AcDbLine
 10
191.1878186275809
 20
106.4482623912272
 30
0.0
 11
191.1878186275809
 21
75.33128976835365
 31
0.0
  0
ARC
  5
AAB
330
18
100
AcDbEntity
  8
外形線
100
AcDbCircle
 10
-92.87949413141035
 20
111.4533753583275
 30
0.0
 40
272.6532446782883
100
AcDbArc
 50
354.9712621382604
 51
1.160940485659371
  0
LINE
  5
AAC
330
18
100
AcDbEntity
  8
0
  6
ByBlock
 62
     2
100
AcDbLine
 10
173.687818627581
 20
76.58128976835365
 30
0.0
 11
188.6878186275809
 21
76.58128976835365
 31
0.0
  0
POINT
  5
AAD
330
18
100
AcDbEntity
  8
DEFPOINTS
  6
ByBlock
 62
     0
100
AcDbPoint
 10
171.187818627581
 20
76.38812785090152
 30
0.0
  0
INSERT
  5
AAE
330
18
100
AcDbEntity
  8
0
  6
ByBlock
 62
     2
100
AcDbBlockReference
  2
_OPEN
 10
171.187818627581
 20
76.58128976835365
 30
0.0
 41
2.5
 42
2.5
 43
2.5
 50
180.0
  0
LINE
  5
AAF
330
18
100
AcDbEntity
  8
0
  6
ByBlock
 62
     2
100
AcDbLine
 10
171.187818627581
 20
76.38812785090152
 30
0.0
 11
171.187818627581
 21
77.83128976835365
 31
0.0
  0
MTEXT
  5
AB0
330
18
100
AcDbEntity
  8
0
  6
ByBlock
 62
     6
100
AcDbMText
 10
181.187818627581
 20
78.45628976835365
 30
0.0
 40
2.5
 41
0.0
 71
     5
 72
     1
  1
\A1;20
  7
STYLE3
 73
     1
 44
1.0
  0
POINT
  5
AB1
330
18
100
AcDbEntity
  8
DEFPOINTS
  6
ByBlock
 62
     0
100
AcDbPoint
 10
178.687818627581
 20
85.72756115608399
 30
0.0
  0
ARC
  5
AB2
330
18
100
AcDbEntity
  8
外形線
100
AcDbCircle
 10
178.5248959260565
 20
87.56966486495276
 30
0.0
 40
0.2
100
AcDbArc
 50
324.5491643084112
 51
355.4640429693032
  0
LINE
  5
AB3
330
18
100
AcDbEntity
  8
外形線
100
AcDbLine
 10
178.6878186275809
 20
87.17756115608393
 30
0.0
 11
178.887818627581
 21
87.17756115608393
 31
0.0
  0
POINT
  5
AB4
330
18
100
AcDbEntity
  8
DEFPOINTS
  6
ByBlock
 62
     0
100
AcDbPoint
 10
191.1878186275809
 20
76.58128976835365
 30
0.0
  0
INSERT
  5
AB5
330
18
100
AcDbEntity
  8
0
  6
ByBlock
 62
     2
100
AcDbBlockReference
  2
_OPEN
 10
191.1878186275809
 20
76.58128976835365
 30
0.0
 41
2.5
 42
2.5
 43
2.5
  0
LINE
  5
AB6
330
18
100
AcDbEntity
  8
外形線
100
AcDbLine
 10
183.3709435164322
 20
108.2669361459795
 30
0.0
 11
191.187818627581
 21
108.977561156084
 31
0.0
  0
ARC
  5
AB7
330
18
100
AcDbEntity
  8
外形線
100
AcDbCircle
 10
183.687818627581
 20
104.7813099233426
 30
0.0
 40
3.5
100
AcDbArc
 50
95.19442890773484
 51
181.3680918081467
  0
LINE
  5
AB8
330
18
100
AcDbEntity
  8
外形線
100
AcDbLine
 10
180.0425122537352
 20
104.3322547822382
 30
0.0
 11
179.8263986975108
 21
104.1161412260138
 31
0.0
  0
LINE
  5
AB9
330
18
100
AcDbEntity
  8
外形線
100
AcDbLine
 10
179.6803230716671
 20
103.7818451959417
 30
0.0
 11
179.6627610554952
 21
103.6744955396011
 31
0.0
  0
ARC
  5
ABA
330
18
100
AcDbEntity
  8
外形線
100
AcDbCircle
 10
180.179952088104
 20
103.7625878354205
 30
0.0
 40
0.5
100
AcDbArc
 50
135.0
 51
177.7927230991813
  0
ARC
  5
ABB
330
18
100
AcDbEntity
  8
外形線
100
AcDbCircle
 10
179.688958863142
 20
104.6858081728315
 30
0.0
 40
0.5
100
AcDbArc
 50
315.0
 51
1.368091808148501
  0
LINE
  5
ABC
330
18
100
AcDbEntity
  8
外形線
100
AcDbLine
 10
180.187818627581
 20
104.6520600554939
 30
0.0
 11
180.187818627581
 21
104.7813099233426
 31
0.0
  0
POINT
  5
ABD
330
18
100
AcDbEntity
  8
DEFPOINTS
  6
ByBlock
 62
     0
100
AcDbPoint
 10
191.1878186275809
 20
106.4482623912272
 30
0.0
  0
CIRCLE
  5
ABE
330
18
100
AcDbEntity
  8
外形線
100
AcDbCircle
 10
191.187818627581
 20
116.977561156084
 30
0.0
 40
3.25
  0
POINT
  5
ABF
330
18
100
AcDbEntity
  8
DEFPOINTS
  6
ByBlock
 62
     0
100
AcDbPoint
 10
189.5517067547649
 20
114.1694233497022
 30
0.0
  0
POINT
  5
AC0
330
18
100
AcDbEntity
  8
DEFPOINTS
  6
ByBlock
 62
     0
100
AcDbPoint
 10
192.8239305003971
 20
119.7856989624656
 30
0.0
  0
POINT
  5
AC1
330
18
100
AcDbEntity
  8
DEFPOINTS
  6
ByBlock
 62
     0
100
AcDbPoint
 10
211.8923947603994
 20
85.72756115608399
 30
0.0
  0
INSERT
  5
AC2
330
18
100
AcDbEntity
  8
0
  6
ByBlock
 62
     2
100
AcDbBlockReference
  2
_OPEN
 10
211.8923947603994
 20
85.72756115608399
 30
0.0
 41
2.5
 42
2.5
 43
2.5
 50
270.0
  0
LINE
  5
AC3
330
18
100
AcDbEntity
  8
0
  6
ByBlock
 62
     2
100
AcDbLine
 10
178.687818627581
 20
148.227561156084
 30
0.0
 11
213.1423947603994
 21
148.227561156084
 31
0.0
  0
TEXT
  5
AC4
330
18
100
AcDbEntity
  8
文字
100
AcDbText
 10
201.6743774039285
 20
135.056209226218
 30
0.0
 40
2.5
  1
φ6.5
  7
STYLE3
100
AcDbText
  0
LINE
  5
AC5
330
18
100
AcDbEntity
  8
寸法線
100
AcDbLine
 10
201.3348527982524
 20
134.3934058490658
 30
0.0
 11
210.3373506198711
 21
134.3934058490658
 31
0.0
  0
TEXT
  5
AC6
330
18
100
AcDbEntity
  8
寸法線
 62
     6
100
AcDbText
 10
183.2013756356405
 20
134.9728385965346
 30
0.0
 40
2.5
  1
5
  7
STYLE3
100
AcDbText
  0
LINE
  5
AC7
330
18
100
AcDbEntity
  8
0
  6
ByBlock
 62
     2
100
AcDbLine
 10
181.9868219833332
 20
134.3934058490658
 30
0.0
 11
186.9868219833333
 21
134.3934058490658
 31
0.0
  0
LINE
  5
AC8
330
18
100
AcDbEntity
  8
外形線
100
AcDbLine
 10
183.3709435164322
 20
125.6881861661884
 30
0.0
 11
191.187818627581
 21
124.977561156084
 31
0.0
  0
LINE
  5
AC9
330
18
100
AcDbEntity
  8
0
  6
ByBlock
 62
     2
100
AcDbLine
 10
181.9868219833332
 20
126.1149546908836
 30
0.0
 11
181.9868219833332
 21
135.6434058490658
 31
0.0
  0
ARC
  5
ACA
330
18
100
AcDbEntity
  8
外形線
100
AcDbCircle
 10
183.687818627581
 20
129.1738123888254
 30
0.0
 40
3.5
100
AcDbArc
 50
178.6319081918533
 51
264.8055710922652
  0
POINT
  5
ACB
330
18
100
AcDbEntity
  8
DEFPOINTS
  6
ByBlock
 62
     0
100
AcDbPoint
 10
181.9868219833332
 20
126.1149546908836
 30
0.0
  0
INSERT
  5
ACC
330
18
100
AcDbEntity
  8
0
  6
ByBlock
 62
     2
100
AcDbBlockReference
  2
_OPEN
 10
181.9868219833332
 20
134.3934058490658
 30
0.0
 41
2.5
 42
2.5
 43
2.5
  0
LINE
  5
ACD
330
18
100
AcDbEntity
  8
外形線
100
AcDbLine
 10
180.0425122537352
 20
129.6228675299297
 30
0.0
 11
179.8263986975108
 21
129.8389810861542
 31
0.0
  0
LINE
  5
ACE
330
18
100
AcDbEntity
  8
0
  6
ByBlock
 62
     2
100
AcDbLine
 10
179.4868219833332
 20
134.3934058490658
 30
0.0
 11
176.9868219833332
 21
134.3934058490658
 31
0.0
  0
LINE
  5
ACF
330
18
100
AcDbEntity
  8
外形線
100
AcDbLine
 10
179.6803230716671
 20
130.1732771162263
 30
0.0
 11
179.6631135021491
 21
130.2682685625247
 31
0.0
  0
ARC
  5
AD0
330
18
100
AcDbEntity
  8
外形線
100
AcDbCircle
 10
180.179952088104
 20
130.1925344767474
 30
0.0
 40
0.5
100
AcDbArc
 50
182.2072769008187
 51
225.0
  0
ARC
  5
AD1
330
18
100
AcDbEntity
  8
外形線
100
AcDbCircle
 10
179.688958863142
 20
129.2693141393364
 30
0.0
 40
0.5
100
AcDbArc
 50
358.6319081918515
 51
45.0
  0
LINE
  5
AD2
330
18
100
AcDbEntity
  8
外形線
100
AcDbLine
 10
180.187818627581
 20
129.3030622566741
 30
0.0
 11
180.187818627581
 21
129.1738123888254
 31
0.0
  0
POINT
  5
AD3
330
18
100
AcDbEntity
  8
DEFPOINTS
  6
ByBlock
 62
     0
100
AcDbPoint
 10
178.687818627581
 20
148.227561156084
 30
0.0
  0
POINT
  5
AD4
330
18
100
AcDbEntity
  8
DEFPOINTS
  6
ByBlock
 62
     0
100
AcDbPoint
 10
178.687818627581
 20
148.227561156084
 30
0.0
  0
ARC
  5
AD5
330
18
100
AcDbEntity
  8
外形線
100
AcDbCircle
 10
178.5248959260565
 20
146.3854574472152
 30
0.0
 40
0.2
100
AcDbArc
 50
4.535957030696843
 51
35.45083569158889
  0
LINE
  5
AD6
330
18
100
AcDbEntity
  8
0
  6
ByBlock
 62
     2
100
AcDbLine
 10
186.9868219833333
 20
125.3594699419247
 30
0.0
 11
186.9868219833333
 21
135.6434058490658
 31
0.0
  0
LINE
  5
AD7
330
18
100
AcDbEntity
  8
0
  6
ByBlock
 62
     2
100
AcDbLine
 10
201.3348527982524
 20
134.3934058490658
 30
0.0
 11
194.082478094871
 21
121.9458049673747
 31
0.0
  0
POINT
  5
AD8
330
18
100
AcDbEntity
  8
DEFPOINTS
  6
ByBlock
 62
     0
100
AcDbPoint
 10
186.9868219833333
 20
125.3594699419247
 30
0.0
  0
LINE
  5
AD9
330
18
100
AcDbEntity
  8
0
  6
ByBlock
 62
     2
100
AcDbLine
 10
189.4868219833333
 20
134.3934058490658
 30
0.0
 11
191.9868219833333
 21
134.3934058490658
 31
0.0
  0
POINT
  5
ADA
330
18
100
AcDbEntity
  8
DEFPOINTS
  6
ByBlock
 62
     0
100
AcDbPoint
 10
186.9868219833333
 20
134.3934058490658
 30
0.0
  0
INSERT
  5
ADB
330
18
100
AcDbEntity
  8
0
  6
ByBlock
 62
     2
100
AcDbBlockReference
  2
_OPEN
 10
186.9868219833333
 20
134.3934058490658
 30
0.0
 41
2.5
 42
2.5
 43
2.5
 50
180.0
  0
INSERT
  5
ADC
330
18
100
AcDbEntity
  8
0
  6
ByBlock
 62
     2
100
AcDbBlockReference
  2
_OPEN
 10
211.8923947603994
 20
148.227561156084
 30
0.0
 41
2.5
 42
2.5
 43
2.5
 50
90.0
  0
DIMENSION
  5
AF4
330
18
100
AcDbEntity
  8
寸法線
100
AcDbDimension
  2
*D5
 10
144.6323710389766
 20
84.97756115608401
 30
0.0
 11
142.7573710389766
 21
116.977561156084
 31
0.0
 70
    32
  1
φ<>
 71
     5
 42
63.99999999999998
  3
STYLE3
100
AcDbAlignedDimension
 13
157.687818627581
 23
148.977561156084
 33
0.0
 14
157.687818627581
 24
84.97756115608401
 34
0.0
 50
90.0
100
AcDbRotatedDimension
1001
ACAD
1000
DSTYLE
1002
{
1070
   271
1070
     2
1002
}
  0
DIMENSION
  5
B00
330
18
100
AcDbEntity
  8
寸法線
100
AcDbDimension
  2
*D6
 10
144.6323710389766
 20
58.67756115608401
 30
0.0
 11
142.7573710389766
 21
71.82756115608403
 31
0.0
 70
    32
 71
     5
 42
26.29999999999999
  3
STYLE3
100
AcDbAlignedDimension
 13
157.687818627581
 23
84.97756115608401
 33
0.0
 14
167.4878186275811
 24
58.67756115608401
 34
0.0
 50
90.0
100
AcDbRotatedDimension
1001
ACAD
1000
DSTYLE
1002
{
1070
    75
1070
     1
1070
   271
1070
     2
1070
   279
1070
     1
1002
}
  0
DIMENSION
  5
B1A
330
18
100
AcDbEntity
  8
寸法線
100
AcDbDimension
  2
*D7
 10
171.187818627581
 20
76.58128976835365
 30
0.0
 11
161.937818627581
 21
78.45628976835365
 31
0.0
 70
    32
 71
     5
 42
18.5
  3
STYLE3
100
AcDbAlignedDimension
 13
152.687818627581
 23
89.97756115608401
 33
0.0
 14
171.187818627581
 24
77.66710111075565
 34
0.0
100
AcDbRotatedDimension
1001
ACAD
1000
DSTYLE
1002
{
1070
   271
1070
     2
1002
}
  0
DIMENSION
  5
B32
330
18
100
AcDbEntity
  8
寸法線
100
AcDbDimension
  2
*D8
 10
50.01365669888514
 20
35.977561156084
 30
0.0
 11
48.13865669888514
 21
31.47756115608401
 31
0.0
 70
    32
 71
     5
 42
9.000000000000003
  3
STYLE3
100
AcDbAlignedDimension
 13
86.27603644875762
 23
26.97756115608399
 33
0.0
 14
83.77603644875767
 24
35.977561156084
 34
0.0
 50
90.0
100
AcDbRotatedDimension
1001
ACAD
1000
DSTYLE
1002
{
1070
   271
1070
     2
1002
}
  0
DIMENSION
  5
B3E
330
18
100
AcDbEntity
  8
寸法線
100
AcDbDimension
  2
*D9
 10
50.01365669888515
 20
58.67756115608401
 30
0.0
 11
48.13865669888514
 21
47.32756115608402
 31
0.0
 70
    32
 71
     5
 42
22.70000000000002
  3
STYLE3
100
AcDbAlignedDimension
 13
83.77603644875767
 23
35.977561156084
 33
0.0
 14
82.5760364487577
 24
58.67756115608401
 34
0.0
 50
90.0
100
AcDbRotatedDimension
1001
ACAD
1000
DSTYLE
1002
{
1070
    75
1070
     1
1070
   271
1070
     2
1070
   279
1070
     1
1002
}
  0
DIMENSION
  5
B77
330
18
100
AcDbEntity
  8
寸法線
100
AcDbDimension
  2
*D10
 10
50.01365669888516
 20
116.977561156084
 30
0.0
 11
48.13865669888514
 21
87.82756115608401
 31
0.0
 70
    32
 71
     5
 42
58.29999999999998
  3
STYLE3
100
AcDbAlignedDimension
 13
82.5760364487577
 23
58.67756115608401
 33
0.0
 14
52.0760545385823
 24
116.977561156084
 34
0.0
 50
90.0
100
AcDbRotatedDimension
1001
ACAD
1000
DSTYLE
1002
{
1070
    75
1070
     1
1070
   271
1070
     2
1070
   279
1070
     1
1002
}
  0
DIMENSION
  5
BA3
330
18
100
AcDbEntity
  8
寸法線
100
AcDbDimension
  2
*D11
 10
44.17919710153739
 20
116.977561156084
 30
0.0
 11
42.30419710153737
 21
71.97756115608401
 31
0.0
 70
    32
 71
     5
 42
90.0
  3
STYLE3
100
AcDbAlignedDimension
 13
48.76365669888514
 23
26.977561156084
 33
0.0
 14
48.76365669888516
 24
116.977561156084
 34
0.0
 50
90.0
100
AcDbRotatedDimension
1001
ACAD
1000
DSTYLE
1002
{
1070
   271
1070
     2
1002
}
  0
DIMENSION
  5
BAF
330
18
100
AcDbEntity
  8
寸法線
100
AcDbDimension
  2
*D12
 10
44.17919710153739
 20
178.977561156084
 30
0.0
 11
42.30419710153736
 21
147.977561156084
 31
0.0
 70
    32
 71
     5
 42
62.00000000000007
  3
STYLE3
100
AcDbAlignedDimension
 13
48.76365669888516
 23
116.977561156084
 33
0.0
 14
83.02603644875764
 24
178.977561156084
 34
0.0
 50
90.0
100
AcDbRotatedDimension
1001
ACAD
1000
DSTYLE
1002
{
1070
    75
1070
     1
1070
   271
1070
     2
1070
   279
1070
     1
1002
}
  0
DIMENSION
  5
BBC
330
18
100
AcDbEntity
  8
寸法線
100
AcDbDimension
  2
*D13
 10
38.65366271821006
 20
26.97756115608401
 30
0.0
 11
36.77866271821006
 21
102.977561156084
 31
0.0
 70
    32
 71
     5
 42
152.0
  3
STYLE3
100
AcDbAlignedDimension
 13
42.92919710153739
 23
178.977561156084
 33
0.0
 14
42.92919710153738
 24
26.977561156084
 34
0.0
 50
90.0
100
AcDbRotatedDimension
1001
ACAD
1000
DSTYLE
1002
{
1070
   271
1070
     2
1002
}
  0
LINE
  5
BD9
330
18
100
AcDbEntity
  8
0
  6
ByBlock
 62
     2
100
AcDbLine
 10
88.77603644875751
 20
47.66887811183429
 30
0.0
 11
88.77603644875751
 21
45.78929537122974
 31
0.0
  0
LINE
  5
BDA
330
18
100
AcDbEntity
  8
0
  6
ByBlock
 62
     2
100
AcDbLine
 10
83.7760364487576
 20
48.61325245205804
 30
0.0
 11
83.7760364487576
 21
45.78929537122974
 31
0.0
  0
LINE
  5
BDB
330
18
100
AcDbEntity
  8
0
  6
ByBlock
 62
     2
100
AcDbLine
 10
91.27603644875751
 20
47.03929537122974
 30
0.0
 11
95.33115768009691
 21
47.03929537122974
 31
0.0
  0
LINE
  5
BDC
330
18
100
AcDbEntity
  8
0
  6
ByBlock
 62
     2
100
AcDbLine
 10
81.2760364487576
 20
47.03929537122974
 30
0.0
 11
78.40422797003014
 21
47.03929537122974
 31
0.0
  0
LINE
  5
BDD
330
18
100
AcDbEntity
  8
0
  6
ByBlock
 62
     2
100
AcDbLine
 10
88.77603644875751
 20
47.03929537122974
 30
0.0
 11
83.7760364487576
 21
47.03929537122974
 31
0.0
  0
INSERT
  5
BDE
330
18
100
AcDbEntity
  8
0
  6
ByBlock
 62
     2
100
AcDbBlockReference
  2
_OPEN
 10
88.77603644875751
 20
47.03929537122974
 30
0.0
 41
2.5
 42
2.5
 43
2.5
 50
180.0
  0
INSERT
  5
BDF
330
18
100
AcDbEntity
  8
0
  6
ByBlock
 62
     2
100
AcDbBlockReference
  2
_OPEN
 10
83.7760364487576
 20
47.03929537122974
 30
0.0
 41
2.5
 42
2.5
 43
2.5
  0
MTEXT
  5
BE0
330
18
100
AcDbEntity
  8
0
  6
ByBlock
 62
     6
100
AcDbMText
 10
91.11295144903753
 20
48.91429537122974
 30
0.0
 40
2.5
 41
0.0
 71
     5
 72
     1
  1
\A1;φ5
  7
STYLE3
 73
     1
 44
1.0
  0
POINT
  5
BE1
330
18
100
AcDbEntity
  8
DEFPOINTS
  6
ByBlock
 62
     0
100
AcDbPoint
 10
88.77603644875751
 20
47.66887811183429
 30
0.0
  0
POINT
  5
BE2
330
18
100
AcDbEntity
  8
DEFPOINTS
  6
ByBlock
 62
     0
100
AcDbPoint
 10
83.7760364487576
 20
48.61325245205804
 30
0.0
  0
POINT
  5
BE3
330
18
100
AcDbEntity
  8
DEFPOINTS
  6
ByBlock
 62
     0
100
AcDbPoint
 10
83.7760364487576
 20
47.03929537122974
 30
0.0
  0
LINE
  5
BE4
330
18
100
AcDbEntity
  8
0
  6
ByBlock
 62
     2
100
AcDbLine
 10
82.27603644875784
 20
75.27558965493295
 30
0.0
 11
82.27603644875784
 21
73.78662745595511
 31
0.0
  0
LINE
  5
BE5
330
18
100
AcDbEntity
  8
0
  6
ByBlock
 62
     2
100
AcDbLine
 10
90.27603644875785
 20
75.15610855544406
 30
0.0
 11
90.27603644875785
 21
73.78662745595511
 31
0.0
  0
LINE
  5
BE6
330
18
100
AcDbEntity
  8
0
  6
ByBlock
 62
     2
100
AcDbLine
 10
84.77603644875784
 20
75.03662745595511
 30
0.0
 11
87.77603644875785
 21
75.03662745595511
 31
0.0
  0
LINE
  5
BE7
330
18
100
AcDbEntity
  8
0
  6
ByBlock
 62
     2
100
AcDbLine
 10
90.27603644875785
 20
75.03662745595511
 30
0.0
 11
99.5839713694534
 21
75.03662745595511
 31
0.0
  0
INSERT
  5
BE8
330
18
100
AcDbEntity
  8
0
  6
ByBlock
 62
     2
100
AcDbBlockReference
  2
_OPEN
 10
82.27603644875784
 20
75.03662745595511
 30
0.0
 41
2.5
 42
2.5
 43
2.5
 50
180.0
  0
INSERT
  5
BE9
330
18
100
AcDbEntity
  8
0
  6
ByBlock
 62
     2
100
AcDbBlockReference
  2
_OPEN
 10
90.27603644875785
 20
75.03662745595511
 30
0.0
 41
2.5
 42
2.5
 43
2.5
  0
MTEXT
  5
BEA
330
18
100
AcDbEntity
  8
0
  6
ByBlock
 62
     6
100
AcDbMText
 10
94.58395762583736
 20
76.91162745595511
 30
0.0
 40
2.5
 41
0.0
 71
     5
 72
     1
  1
\A1;φ8.0
  7
STYLE3
 73
     1
 44
1.0
  0
POINT
  5
BEB
330
18
100
AcDbEntity
  8
DEFPOINTS
  6
ByBlock
 62
     0
100
AcDbPoint
 10
82.27603644875784
 20
75.27558965493295
 30
0.0
  0
POINT
  5
BEC
330
18
100
AcDbEntity
  8
DEFPOINTS
  6
ByBlock
 62
     0
100
AcDbPoint
 10
90.27603644875785
 20
75.15610855544406
 30
0.0
  0
POINT
  5
BED
330
18
100
AcDbEntity
  8
DEFPOINTS
  6
ByBlock
 62
     0
100
AcDbPoint
 10
90.27603644875785
 20
75.03662745595511
 30
0.0
  0
LINE
  5
C18
330
18
100
AcDbEntity
  8
外形線
100
AcDbLine
 10
169.187818627581
 20
101.7225185009072
 30
0.0
 11
169.187818627581
 21
99.47276186700431
 31
0.0
  0
LINE
  5
C19
330
18
100
AcDbEntity
  8
外形線
100
AcDbLine
 10
173.187818627581
 20
101.7225185009072
 30
0.0
 11
173.187818627581
 21
99.47276186700431
 31
0.0
  0
ELLIPSE
  5
C1A
330
18
100
AcDbEntity
  8
外形線
100
AcDbEllipse
 10
171.187818627581
 20
99.47276186700431
 30
0.0
 11
2.0
 21
0.0
 31
0.0
210
0.0
220
0.0
230
1.0
 40
0.7660444431189788
 41
0.0
 42
6.283185307179586
  0
ELLIPSE
  5
C1B
330
18
100
AcDbEntity
  8
外形線
100
AcDbEllipse
 10
171.187818627581
 20
101.7225185009072
 30
0.0
 11
2.0
 21
0.0
 31
0.0
210
0.0
220
0.0
230
1.0
 40
0.7660444431189788
 41
0.0
 42
3.141592653589793
  0
ELLIPSE
  5
C1E
330
18
100
AcDbEntity
  8
外形線
100
AcDbEllipse
 10
171.187818627581
 20
101.7225185009072
 30
0.0
 11
2.25
 21
0.0
 31
0.0
210
0.0
220
0.0
230
1.0
 40
0.7660444431190096
 41
5.807303057519163
 42
9.900660210429794
  0
LINE
  5
C21
330
18
100
AcDbEntity
  8
中心線
 48
0.1
100
AcDbLine
 10
168.5226203315023
 20
99.47276186700431
 30
0.0
 11
174.0120428308211
 21
99.47276186700431
 31
0.0
  0
ELLIPSE
  5
C5D
330
18
100
AcDbEntity
  8
外形線
100
AcDbEllipse
 10
171.187818627581
 20
139.0746480681636
 30
0.0
 11
2.799999999999996
 21
0.0
 31
0.0
210
0.0
220
0.0
230
1.0
 40
0.7429104014740373
 41
3.101399896162018
 42
6.323378064607566
  0
ELLIPSE
  5
C5E
330
18
100
AcDbEntity
  8
外形線
100
AcDbEllipse
 10
171.187818627581
 20
159.4039680272768
 30
0.0
 11
-2.25
 21
0.0
 31
0.0
210
0.0
220
0.0
230
1.0
 40
0.7071067811865407
 41
5.603511488271422
 42
10.10445177967771
  0
LINE
  5
C5F
330
18
100
AcDbEntity
  8
外形線
100
AcDbLine
 10
168.387818627581
 20
139.0746480681636
 30
0.0
 11
168.937818627581
 21
159.4039680272768
 31
0.0
  0
LINE
  5
C60
330
18
100
AcDbEntity
  8
外形線
100
AcDbLine
 10
173.437818627581
 20
159.4039680272768
 30
0.0
 11
173.987818627581
 21
139.0746480681636
 31
0.0
  0
LINE
  5
C61
330
18
100
AcDbEntity
  8
外形線
100
AcDbLine
 10
169.437818627581
 20
169.5114691466659
 30
0.0
 11
169.437818627581
 21
159.4039680272768
 31
0.0
  0
LINE
  5
C62
330
18
100
AcDbEntity
  8
外形線
100
AcDbLine
 10
172.937818627581
 20
170.6120658053737
 30
0.0
 11
172.937818627581
 21
159.4039680272768
 31
0.0
  0
ELLIPSE
  5
C63
330
18
100
AcDbEntity
  8
外形線
100
AcDbEllipse
 10
171.187818627581
 20
159.4039680272768
 30
0.0
 11
1.75
 21
0.0
 31
0.0
210
0.0
220
0.0
230
1.0
 40
0.7071067811865371
 41
3.141592653589793
 42
6.283185307179586
  0
LINE
  5
C64
330
18
100
AcDbEntity
  8
想像線
 48
0.2
100
AcDbLine
 10
167.8231564411821
 20
169.0037286302967
 30
0.0
 11
174.4649248598606
 21
171.0922738101562
 31
0.0
  0
LINE
  5
C65
330
18
100
AcDbEntity
  8
外形線
100
AcDbLine
 10
173.598154722724
 20
153.477561156084
 30
0.0
 11
175.687818627581
 21
153.477561156084
 31
0.0
  0
LINE
  5
C66
330
18
100
AcDbEntity
  8
外形線
100
AcDbLine
 10
173.4354102503596
 20
159.477561156084
 30
0.0
 11
175.687818627581
 21
159.477561156084
 31
0.0
  0
LINE
  5
C7E
330
18
100
AcDbEntity
  8
外形線
100
AcDbLine
 10
173.7401909544232
 20
148.227561156084
 30
0.0
 11
178.687818627581
 21
148.227561156084
 31
0.0
  0
TEXT
  5
CFD
330
18
100
AcDbEntity
  8
文字
100
AcDbText
 10
84.34592507131563
 20
187.793646999795
 30
0.0
 40
4.0
  1
Model No.D-20S Linear Gauge
  7
STYLE3
100
AcDbText
  0
LINE
  5
CFE
330
18
100
AcDbEntity
  8
外形線
100
AcDbLine
 10
83.56890607131564
 20
185.6815409997949
 30
0.0
 11
174.5689060713156
 21
185.6815409997949
 31
0.0
  0
LINE
  5
CFF
330
18
100
AcDbEntity
  8
外形線
100
AcDbLine
 10
83.56890607131564
 20
184.6815409997949
 30
0.0
 11
174.5689060713156
 21
184.6815409997949
 31
0.0
  0
LINE
  5
D01
330
18
100
AcDbEntity
  8
外形線
100
AcDbLine
 10
113.5127069783924
 20
21.06499170430822
 30
0.0
 11
254.3041249783924
 21
21.06499170430822
 31
0.0
  0
LINE
  5
D02
330
18
100
AcDbEntity
  8
外形線
100
AcDbLine
 10
113.5127069783924
 20
10.28478570430821
 30
0.0
 11
254.3041249783924
 21
10.28478570430821
 31
0.0
  0
TEXT
  5
D03
330
18
100
AcDbEntity
  8
0
  6
Continuous
100
AcDbText
 10
114.9701739783923
 20
12.18277570430821
 30
0.0
 40
2.1
  1
Design and specifications are subject to change without notice for future improvement.
  7
STYLE3
100
AcDbText
  0
TEXT
  5
D04
330
18
100
AcDbEntity
  8
0
  6
Continuous
100
AcDbText
 10
115.2616679783924
 20
16.11192370430821
 30
0.0
 40
3.5
  1
仕様及び外観は予告なく変更される場合がございますのでご了承下さい。
  7
STYLE3
100
AcDbText
  0
TEXT
  5
D05
330
18
100
AcDbEntity
  8
0
  6
Continuous
100
AcDbText
 10
114.6786829783924
 20
2.418147704308214
 30
0.0
 40
2.1
  1
3RD Angle Projection
  7
STYLE3
100
AcDbText
  0
TEXT
  5
D06
330
18
100
AcDbEntity
  8
0
  6
Continuous
100
AcDbText
 10
117.3021259783924
 20
5.914430704308214
 30
0.0
 40
3.0
  1
三　　角　　法
  7
STYLE3
100
AcDbText
  0
LINE
  5
D07
330
18
100
AcDbEntity
  8
外形線
100
AcDbLine
 10
113.5127069783924
 20
0.6700077043082145
 30
0.0
 11
113.5127069783924
 21
21.06499170430822
 31
0.0
  0
LINE
  5
D08
330
18
100
AcDbEntity
  8
外形線
100
AcDbLine
 10
215.5354739783924
 20
10.28478570430821
 30
0.0
 11
215.5354739783924
 21
0.6700077043082145
 31
0.0
  0
LINE
  5
D09
330
18
100
AcDbEntity
  8
外形線
100
AcDbLine
 10
185.8031239783924
 20
10.28478570430821
 30
0.0
 11
185.8031239783924
 21
0.6700077043082145
 31
0.0
  0
LINE
  5
D0A
330
18
100
AcDbEntity
  8
外形線
100
AcDbLine
 10
166.2730519783923
 20
10.28478570430821
 30
0.0
 11
166.2730519783923
 21
0.6700077043082145
 31
0.0
  0
LINE
  5
D0B
330
18
100
AcDbEntity
  8
外形線
100
AcDbLine
 10
148.7834349783924
 20
10.28478570430821
 30
0.0
 11
148.7834349783924
 21
0.6700077043082145
 31
0.0
  0
TEXT
  5
D0C
330
18
100
AcDbEntity
  8
0
  6
Continuous
100
AcDbText
 10
150.2409039783924
 20
5.920385704308213
 30
0.0
 40
3.0
  1
単位
  7
STYLE3
100
AcDbText
  0
TEXT
  5
D0D
330
18
100
AcDbEntity
  8
0
  6
Continuous
100
AcDbText
 10
150.4126249783924
 20
2.418148704308214
 30
0.0
 40
2.1
  1
Unit
  7
STYLE3
100
AcDbText
  0
TEXT
  5
D0E
330
18
100
AcDbEntity
  8
0
  6
Continuous
100
AcDbText
 10
167.5587999783924
 20
5.629027704308214
 30
0.0
 40
3.0
  1
尺 度
  7
STYLE3
100
AcDbText
  0
TEXT
  5
D0F
330
18
100
AcDbEntity
  8
0
  6
Continuous
100
AcDbText
 10
158.2829519783924
 20
4.166291704308214
 30
0.0
 40
2.399999999999999
  1
mm
  7
STYLE3
100
AcDbText
  0
TEXT
  5
D10
330
18
100
AcDbEntity
  8
0
  6
Continuous
100
AcDbText
 10
168.0220149783924
 20
2.709505704308214
 30
0.0
 40
2.1
  1
Scale
  7
STYLE3
100
AcDbText
  0
TEXT
  5
D11
330
18
100
AcDbEntity
  8
0
  6
Continuous
100
AcDbText
 10
177.6413039783924
 20
4.457648704308214
 30
0.0
 40
2.399999999999999
  1
1/1
  7
STYLE3
100
AcDbText
  0
TEXT
  5
D12
330
18
100
AcDbEntity
  8
0
  6
Continuous
100
AcDbText
 10
187.7350749783924
 20
2.418149704308214
 30
0.0
 40
2.1
  1
Date
  7
STYLE3
100
AcDbText
  0
TEXT
  5
D13
330
18
100
AcDbEntity
  8
0
  6
Continuous
100
AcDbText
 10
187.3517139783924
 20
5.751232704308214
 30
0.0
 40
3.0
  1
日 付
  7
STYLE3
100
AcDbText
  0
TEXT
  5
D14
330
18
100
AcDbEntity
  8
0
  6
Continuous
100
AcDbText
 10
196.4798829783923
 20
4.166290704308214
 30
0.0
 40
2.1
  1
2010.06.30
  7
STYLE3
100
AcDbText
  0
TEXT
  5
D15
330
18
100
AcDbEntity
  8
0
  6
Continuous
100
AcDbText
 10
216.8844369783924
 20
6.205787704308214
 30
0.0
 40
3.0
  1
株式会社　尾崎製作所
  7
STYLE3
100
AcDbText
  0
TEXT
  5
D16
330
18
100
AcDbEntity
  8
0
  6
Continuous
100
AcDbText
 10
217.7589159783924
 20
2.418148704308214
 30
0.0
 40
2.1
  1
OZAKI MFG. CO., LTD.
  7
STYLE3
100
AcDbText
  0
VIEWPORT
  5
177
330
15
100
AcDbEntity
 67
     1
  8
0
100
AcDbViewport
 10
127.5041203589828
 20
97.49391214526822
 30
0.0
 40
418.3086347473814
 41
243.0346063651093
 68
     1
 69
     1
 12
127.5041203589828
 22
97.49391214526822
 13
0.0
 23
0.0
 14
10.0
 24
10.0
 15
10.0
 25
10.0
 16
0.0
 26
0.0
 36
1.0
 17
0.0
 27
0.0
 37
0.0
 42
50.0
 43
0.0
 44
0.0
 45
243.0346063651093
 50
0.0
 51
0.0
 72
   100
 90
    32800
  1

281
     0
 71
     1
 74
     0
110
0.0
120
0.0
130
0.0
111
1.0
121
0.0
131
0.0
112
0.0
122
1.0
132
0.0
 79
     0
146
0.0
170
     0
  0
ENDSEC
  0
SECTION
  2
OBJECTS
  0
DICTIONARY
  5
C
330
0
100
AcDbDictionary
281
     1
  3
ACAD_COLOR
350
C84
  3
ACAD_GROUP
350
D
  3
ACAD_LAYOUT
350
C85
  3
ACAD_MATERIAL
350
C83
  3
ACAD_MLINESTYLE
350
1B
  3
ACAD_PLOTSETTINGS
350
C86
  3
ACAD_PLOTSTYLENAME
350
C81
  0
DICTIONARY
  5
C84
102
{ACAD_REACTORS
330
C
102
}
330
C
100
AcDbDictionary
281
     1
  0
DICTIONARY
  5
D
102
{ACAD_REACTORS
330
C
102
}
330
C
100
AcDbDictionary
281
     1
  0
DICTIONARY
  5
C85
102
{ACAD_REACTORS
330
C
102
}
330
C
100
AcDbDictionary
281
     1
  3
Model
350
C87
  3
レイアウト1
350
C88
  0
DICTIONARY
  5
C83
102
{ACAD_REACTORS
330
C
102
}
330
C
100
AcDbDictionary
281
     1
  0
DICTIONARY
  5
1B
102
{ACAD_REACTORS
330
C
102
}
330
C
100
AcDbDictionary
281
     1
  3
STANDARD
350
1C
  0
DICTIONARY
  5
C86
102
{ACAD_REACTORS
330
C
102
}
330
C
100
AcDbDictionary
281
     1
  0
ACDBDICTIONARYWDFLT
  5
C81
102
{ACAD_REACTORS
330
C
102
}
330
C
100
AcDbDictionary
281
     1
  3
Normal
350
C82
100
AcDbDictionaryWithDefault
340
C82
  0
LAYOUT
  5
C87
102
{ACAD_REACTORS
330
C85
102
}
330
C85
100
AcDbPlotSettings
  1

  2
EPSON PX-101
  4

  6

 40
0.0
 41
0.0
 42
0.0
 43
0.0
 44
0.0
 45
0.0
 46
0.0
 47
0.0
 48
0.0
 49
0.0
140
0.0
141
0.0
142
1.0
143
1.0
 70
  1712
 72
     0
 73
     0
 74
     0
  7
AutoCad LT 98fukui.ctb
 75
     0
147
1.0
 76
     0
 77
     2
 78
   300
148
0.0
149
0.0
100
AcDbLayout
  1
Model
 70
     1
 71
     0
 10
0.0
 20
0.0
 11
12.0
 21
9.0
 12
0.0
 22
0.0
 32
0.0
 14
0.0
 24
0.0
 34
0.0
 15
0.0
 25
0.0
 35
0.0
146
0.0
 13
0.0
 23
0.0
 33
0.0
 16
1.0
 26
0.0
 36
0.0
 17
0.0
 27
1.0
 37
0.0
 76
     0
330
18
  0
LAYOUT
  5
C88
102
{ACAD_REACTORS
330
C85
102
}
330
C85
100
AcDbPlotSettings
  1

  2
EPSON PX-101
  4

  6

 40
0.0
 41
0.0
 42
0.0
 43
0.0
 44
0.0
 45
0.0
 46
0.0
 47
0.0
 48
0.0
 49
0.0
140
0.0
141
0.0
142
1.0
143
1.0
 70
   688
 72
     0
 73
     0
 74
     5
  7
AutoCad LT 98fukui.ctb
 75
    16
147
1.0
 76
     0
 77
     2
 78
   300
148
0.0
149
0.0
100
AcDbLayout
  1
レイアウト1
 70
     1
 71
     1
 10
0.0
 20
0.0
 11
420.0
 21
297.0
 12
0.0
 22
0.0
 32
0.0
 14
-0.2
 24
-0.2
 34
0.0
 15
255.2
 25
195.2
 35
0.0
146
0.0
 13
0.0
 23
0.0
 33
0.0
 16
1.0
 26
0.0
 36
0.0
 17
0.0
 27
1.0
 37
0.0
 76
     0
330
15
331
177
  0
MLINESTYLE
  5
1C
102
{ACAD_REACTORS
330
1B
102
}
330
1B
100
AcDbMlineStyle
  2
STANDARD
 70
     0
  3

 62
   256
 51
90.0
 52
90.0
 71
     2
 49
0.5
 62
   256
  6
BYLAYER
 49
-0.5
 62
   256
  6
BYLAYER
  0
ACDBPLACEHOLDER
  5
C82
102
{ACAD_REACTORS
330
C81
102
}
330
C81
  0
ENDSEC
  0
EOF
