  0
SECTION
  2
HEADER
  9
$ACADVER
  1
AC1018
  9
$ACADMAINTVER
 70
     0
  9
$DWGCODEPAGE
  3
ANSI_932
  9
$INSBASE
 10
0.0
 20
0.0
 30
0.0
  9
$EXTMIN
 10
-0.2192307289083146
 20
-0.2136015531452813
 30
-0.0000305122223523
  9
$EXTMAX
 10
255.2285122392454
 20
197.9424047720918
 30
0.0000457828865983
  9
$LIMMIN
 10
0.0
 20
0.0
  9
$LIMMAX
 10
420.0
 20
297.0
  9
$ORTHOMODE
 70
     0
  9
$REGENMODE
 70
     1
  9
$FILLMODE
 70
     1
  9
$QTEXTMODE
 70
     0
  9
$MIRRTEXT
 70
     1
  9
$LTSCALE
 40
1.0
  9
$ATTMODE
 70
     1
  9
$TEXTSIZE
 40
3.0
  9
$TRACEWID
 40
1.0
  9
$TEXTSTYLE
  7
4
  9
$CLAYER
  8
外形線
  9
$CELTYPE
  6
BYLAYER
  9
$CECOLOR
 62
   256
  9
$CELTSCALE
 40
1.0
  9
$DISPSILH
 70
     0
  9
$DIMSCALE
 40
1.0
  9
$DIMASZ
 40
2.5
  9
$DIMEXO
 40
0.0
  9
$DIMDLI
 40
3.75
  9
$DIMRND
 40
0.0
  9
$DIMDLE
 40
0.0
  9
$DIMEXE
 40
1.25
  9
$DIMTP
 40
0.0
  9
$DIMTM
 40
0.0
  9
$DIMTXT
 40
2.5
  9
$DIMCEN
 40
2.5
  9
$DIMTSZ
 40
0.0
  9
$DIMTOL
 70
     0
  9
$DIMLIM
 70
     0
  9
$DIMTIH
 70
     0
  9
$DIMTOH
 70
     0
  9
$DIMSE1
 70
     0
  9
$DIMSE2
 70
     0
  9
$DIMTAD
 70
     1
  9
$DIMZIN
 70
     8
  9
$DIMBLK
  1

  9
$DIMASO
 70
     1
  9
$DIMSHO
 70
     1
  9
$DIMPOST
  1

  9
$DIMAPOST
  1

  9
$DIMALT
 70
     0
  9
$DIMALTD
 70
     4
  9
$DIMALTF
 40
0.0394
  9
$DIMLFAC
 40
1.0
  9
$DIMTOFL
 70
     1
  9
$DIMTVP
 40
0.0
  9
$DIMTIX
 70
     0
  9
$DIMSOXD
 70
     0
  9
$DIMSAH
 70
     1
  9
$DIMBLK1
  1
OPEN
  9
$DIMBLK2
  1
OPEN
  9
$DIMSTYLE
  2
STYLE3
  9
$DIMCLRD
 70
     2
  9
$DIMCLRE
 70
     2
  9
$DIMCLRT
 70
     6
  9
$DIMTFAC
 40
1.0
  9
$DIMGAP
 40
0.625
  9
$DIMJUST
 70
     0
  9
$DIMSD1
 70
     0
  9
$DIMSD2
 70
     0
  9
$DIMTOLJ
 70
     1
  9
$DIMTZIN
 70
     0
  9
$DIMALTZ
 70
     0
  9
$DIMALTTZ
 70
     0
  9
$DIMUPT
 70
     0
  9
$DIMDEC
 70
     2
  9
$DIMTDEC
 70
     4
  9
$DIMALTU
 70
     8
  9
$DIMALTTD
 70
     4
  9
$DIMTXSTY
  7
STYLE3
  9
$DIMAUNIT
 70
     0
  9
$DIMADEC
 70
     0
  9
$DIMALTRND
 40
0.0
  9
$DIMAZIN
 70
     0
  9
$DIMDSEP
 70
    46
  9
$DIMATFIT
 70
     3
  9
$DIMFRAC
 70
     0
  9
$DIMLDRBLK
  1

  9
$DIMLUNIT
 70
     2
  9
$DIMLWD
 70
    -2
  9
$DIMLWE
 70
    -2
  9
$DIMTMOVE
 70
     0
  9
$LUNITS
 70
     2
  9
$LUPREC
 70
     4
  9
$SKETCHINC
 40
1.0
  9
$FILLETRAD
 40
0.5
  9
$AUNITS
 70
     0
  9
$AUPREC
 70
     0
  9
$MENU
  1
.
  9
$ELEVATION
 40
0.0
  9
$PELEVATION
 40
0.0
  9
$THICKNESS
 40
0.0
  9
$LIMCHECK
 70
     0
  9
$CHAMFERA
 40
1.0
  9
$CHAMFERB
 40
1.0
  9
$CHAMFERC
 40
20.0
  9
$CHAMFERD
 40
0.0
  9
$SKPOLY
 70
     0
  9
$TDCREATE
 40
2451464.356372338
  9
$TDUCREATE
 40
2451463.981372338
  9
$TDUPDATE
 40
2455377.682482095
  9
$TDUUPDATE
 40
2455377.307482095
  9
$TDINDWG
 40
0.5415998148
  9
$TDUSRTIMER
 40
0.5415998148
  9
$USRTIMER
 70
     1
  9
$ANGBASE
 50
0.0
  9
$ANGDIR
 70
     0
  9
$PDMODE
 70
     0
  9
$PDSIZE
 40
0.0
  9
$PLINEWID
 40
0.0
  9
$SPLFRAME
 70
     0
  9
$SPLINETYPE
 70
     6
  9
$SPLINESEGS
 70
     8
  9
$HANDSEED
  5
115D
  9
$SURFTAB1
 70
     6
  9
$SURFTAB2
 70
     6
  9
$SURFTYPE
 70
     6
  9
$SURFU
 70
     6
  9
$SURFV
 70
     6
  9
$UCSBASE
  2

  9
$UCSNAME
  2

  9
$UCSORG
 10
0.0
 20
0.0
 30
0.0
  9
$UCSXDIR
 10
1.0
 20
0.0
 30
0.0
  9
$UCSYDIR
 10
0.0
 20
1.0
 30
0.0
  9
$UCSORTHOREF
  2

  9
$UCSORTHOVIEW
 70
     0
  9
$UCSORGTOP
 10
0.0
 20
0.0
 30
0.0
  9
$UCSORGBOTTOM
 10
0.0
 20
0.0
 30
0.0
  9
$UCSORGLEFT
 10
0.0
 20
0.0
 30
0.0
  9
$UCSORGRIGHT
 10
0.0
 20
0.0
 30
0.0
  9
$UCSORGFRONT
 10
0.0
 20
0.0
 30
0.0
  9
$UCSORGBACK
 10
0.0
 20
0.0
 30
0.0
  9
$PUCSBASE
  2

  9
$PUCSNAME
  2

  9
$PUCSORG
 10
0.0
 20
0.0
 30
0.0
  9
$PUCSXDIR
 10
1.0
 20
0.0
 30
0.0
  9
$PUCSYDIR
 10
0.0
 20
1.0
 30
0.0
  9
$PUCSORTHOREF
  2

  9
$PUCSORTHOVIEW
 70
     0
  9
$PUCSORGTOP
 10
0.0
 20
0.0
 30
0.0
  9
$PUCSORGBOTTOM
 10
0.0
 20
0.0
 30
0.0
  9
$PUCSORGLEFT
 10
0.0
 20
0.0
 30
0.0
  9
$PUCSORGRIGHT
 10
0.0
 20
0.0
 30
0.0
  9
$PUCSORGFRONT
 10
0.0
 20
0.0
 30
0.0
  9
$PUCSORGBACK
 10
0.0
 20
0.0
 30
0.0
  9
$USERI1
 70
     0
  9
$USERI2
 70
     0
  9
$USERI3
 70
     0
  9
$USERI4
 70
     0
  9
$USERI5
 70
     0
  9
$USERR1
 40
0.0
  9
$USERR2
 40
0.0
  9
$USERR3
 40
0.0
  9
$USERR4
 40
0.0
  9
$USERR5
 40
0.0
  9
$WORLDVIEW
 70
     1
  9
$SHADEDGE
 70
     3
  9
$SHADEDIF
 70
    70
  9
$TILEMODE
 70
     1
  9
$MAXACTVP
 70
    48
  9
$PINSBASE
 10
0.0
 20
0.0
 30
0.0
  9
$PLIMCHECK
 70
     0
  9
$PEXTMIN
 10
-0.2
 20
-0.2
 30
0.0
  9
$PEXTMAX
 10
255.2
 20
195.2
 30
0.0
  9
$PLIMMIN
 10
0.0
 20
0.0
  9
$PLIMMAX
 10
420.0
 20
297.0
  9
$UNITMODE
 70
     0
  9
$VISRETAIN
 70
     1
  9
$PLINEGEN
 70
     0
  9
$PSLTSCALE
 70
     1
  9
$TREEDEPTH
 70
  3020
  9
$CMLSTYLE
  2
STANDARD
  9
$CMLJUST
 70
     0
  9
$CMLSCALE
 40
20.0
  9
$PROXYGRAPHICS
 70
     1
  9
$MEASUREMENT
 70
     1
  9
$CELWEIGHT
370
    -1
  9
$ENDCAPS
280
     0
  9
$JOINSTYLE
280
     0
  9
$LWDISPLAY
290
     0
  9
$INSUNITS
 70
     0
  9
$HYPERLINKBASE
  1

  9
$STYLESHEET
  1

  9
$XEDIT
290
     1
  9
$CEPSNTYPE
380
     0
  9
$PSTYLEMODE
290
     1
  9
$FINGERPRINTGUID
  2
{B3E84309-8CF9-4991-945B-E35BDEFBBC6E}
  9
$VERSIONGUID
  2
{020BC1A3-9D37-4CEF-BD83-2B2D5C14189C}
  9
$EXTNAMES
290
     1
  9
$PSVPSCALE
 40
0.0
  9
$OLESTARTUP
290
     0
  9
$SORTENTS
280
    96
  9
$INDEXCTL
280
     0
  9
$HIDETEXT
280
     0
  9
$XCLIPFRAME
290
     0
  9
$HALOGAP
280
     0
  9
$OBSCOLOR
 70
   257
  9
$OBSLTYPE
280
     0
  9
$INTERSECTIONDISPLAY
280
     0
  9
$INTERSECTIONCOLOR
 70
   257
  9
$DIMASSOC
280
     1
  9
$PROJECTNAME
  1

  0
ENDSEC
  0
SECTION
  2
CLASSES
  0
CLASS
  1
DICTIONARYVAR
  2
AcDbDictionaryVar
  3
ObjectDBX Classes
 90
        0
 91
        1
280
     0
281
     0
  0
CLASS
  1
ACDBDICTIONARYWDFLT
  2
AcDbDictionaryWithDefault
  3
ObjectDBX Classes
 90
        0
 91
        1
280
     0
281
     0
  0
ENDSEC
  0
SECTION
  2
TABLES
  0
TABLE
  2
VPORT
  5
8
330
0
100
AcDbSymbolTable
 70
     2
  0
VPORT
  5
115C
330
8
100
AcDbSymbolTableRecord
100
AcDbViewportTableRecord
  2
*Active
 70
     0
 10
0.0
 20
0.0
 11
1.0
 21
1.0
 12
127.5046407551686
 22
98.8644016094733
 13
0.0
 23
0.0
 14
10.0
 24
10.0
 15
10.0
 25
10.0
 16
0.0
 26
0.0
 36
1.0
 17
0.0
 27
0.0
 37
0.0
 40
199.6628961071781
 41
1.530456852791878
 42
50.0
 43
0.0
 44
0.0
 50
0.0
 51
0.0
 71
     0
 72
   100
 73
     1
 74
     1
 75
     0
 76
     0
 77
     0
 78
     0
281
     0
 65
     1
110
0.0
120
0.0
130
0.0
111
1.0
121
0.0
131
0.0
112
0.0
122
1.0
132
0.0
 79
     0
146
0.0
  0
ENDTAB
  0
TABLE
  2
LTYPE
  5
5
330
0
100
AcDbSymbolTable
 70
    12
  0
LTYPE
  5
12
330
5
100
AcDbSymbolTableRecord
100
AcDbLinetypeTableRecord
  2
BYBLOCK
 70
     0
  3

 72
    65
 73
     0
 40
0.0
  0
LTYPE
  5
13
330
5
100
AcDbSymbolTableRecord
100
AcDbLinetypeTableRecord
  2
BYLAYER
 70
     0
  3

 72
    65
 73
     0
 40
0.0
  0
LTYPE
  5
14
330
5
100
AcDbSymbolTableRecord
100
AcDbLinetypeTableRecord
  2
CONTINUOUS
 70
     0
  3
Solid line
 72
    65
 73
     0
 40
0.0
  0
LTYPE
  5
22
330
5
100
AcDbSymbolTableRecord
100
AcDbLinetypeTableRecord
  2
CENTER2
 70
     0
  3
Center (.5x) ___ _ ___ _ ___ _ ___ _ ___ _ ___
 72
    65
 73
     4
 40
28.575
 49
19.05
 74
     0
 49
-3.174999999999999
 74
     0
 49
3.174999999999999
 74
     0
 49
-3.174999999999999
 74
     0
  0
LTYPE
  5
24
330
5
100
AcDbSymbolTableRecord
100
AcDbLinetypeTableRecord
  2
PHANTOM2
 70
     0
  3
Phantom (.5x) ___ _ _ ___ _ _ ___ _ _ ___ _ _
 72
    65
 73
     6
 40
31.75
 49
15.875
 74
     0
 49
-3.174999999999999
 74
     0
 49
3.174999999999999
 74
     0
 49
-3.174999999999999
 74
     0
 49
3.174999999999999
 74
     0
 49
-3.174999999999999
 74
     0
  0
ENDTAB
  0
TABLE
  2
LAYER
  5
2
330
0
100
AcDbSymbolTable
 70
    16
  0
LAYER
  5
E
330
2
100
AcDbSymbolTableRecord
100
AcDbLayerTableRecord
  2
0
 70
     0
 62
     7
  6
CONTINUOUS
370
    -3
390
10FA
  0
LAYER
  5
25
330
2
100
AcDbSymbolTableRecord
100
AcDbLayerTableRecord
  2
外形線
 70
     0
 62
     7
  6
CONTINUOUS
370
    -3
390
10FA
  0
LAYER
  5
26
330
2
100
AcDbSymbolTableRecord
100
AcDbLayerTableRecord
  2
寸法線
 70
     0
 62
     2
  6
CONTINUOUS
370
    -3
390
10FA
  0
LAYER
  5
27
330
2
100
AcDbSymbolTableRecord
100
AcDbLayerTableRecord
  2
中心線
 70
     0
 62
     4
  6
CENTER2
370
    -3
390
10FA
  0
LAYER
  5
29
330
2
100
AcDbSymbolTableRecord
100
AcDbLayerTableRecord
  2
想像線
 70
     0
 62
     1
  6
PHANTOM2
370
    -3
390
10FA
  0
LAYER
  5
2B
330
2
100
AcDbSymbolTableRecord
100
AcDbLayerTableRecord
  2
文字
 70
     0
 62
     6
  6
CONTINUOUS
370
    -3
390
10FA
  0
LAYER
  5
53
330
2
100
AcDbSymbolTableRecord
100
AcDbLayerTableRecord
  2
DEFPOINTS
 70
     0
 62
     7
  6
CONTINUOUS
290
     0
370
    -3
390
10FA
  0
LAYER
  5
A5
330
2
100
AcDbSymbolTableRecord
100
AcDbLayerTableRecord
  2
C
 70
     0
 62
     7
  6
CONTINUOUS
370
    -3
390
10FA
  0
LAYER
  5
37A
330
2
100
AcDbSymbolTableRecord
100
AcDbLayerTableRecord
  2
ROGO
 70
     0
 62
     6
  6
CONTINUOUS
370
    -3
390
10FA
  0
ENDTAB
  0
TABLE
  2
STYLE
  5
3
330
0
100
AcDbSymbolTable
 70
     7
  0
STYLE
  5
F
330
3
100
AcDbSymbolTableRecord
100
AcDbTextStyleTableRecord
  2
STANDARD
 70
     0
 40
0.0
 41
1.0
 50
0.0
 71
     0
 42
2.5
  3
txt
  4

  0
STYLE
  5
3F
330
3
100
AcDbSymbolTableRecord
100
AcDbTextStyleTableRecord
  2
STYLE3
 70
     0
 40
0.0
 41
1.0
 50
0.0
 71
     0
 42
3.0
  3
romans.shx
  4
bigfont.shx
  0
STYLE
  5
BAF
330
3
100
AcDbSymbolTableRecord
100
AcDbTextStyleTableRecord
  2
4
 70
     0
 40
0.0
 41
1.0
 50
0.0
 71
     0
 42
3.0
  3
MS PGothic.ttf
  4

1001
ACAD
1000
MS PGothic
1071
    32818
  0
ENDTAB
  0
TABLE
  2
VIEW
  5
6
330
0
100
AcDbSymbolTable
 70
     0
  0
ENDTAB
  0
TABLE
  2
UCS
  5
7
330
0
100
AcDbSymbolTable
 70
     0
  0
ENDTAB
  0
TABLE
  2
APPID
  5
9
330
0
100
AcDbSymbolTable
 70
     1
  0
APPID
  5
10
330
9
100
AcDbSymbolTableRecord
100
AcDbRegAppTableRecord
  2
ACAD
 70
     0
  0
ENDTAB
  0
TABLE
  2
DIMSTYLE
  5
A
330
0
100
AcDbSymbolTable
 70
     4
100
AcDbDimStyleTable
 71
     0
  0
DIMSTYLE
105
1D
330
A
100
AcDbSymbolTableRecord
100
AcDbDimStyleTableRecord
  2
STANDARD
 70
     0
 41
2.5
 42
0.625
 43
3.75
 44
1.25
 73
     0
 74
     0
 77
     1
 78
     8
140
2.5
141
2.5
143
0.0394
147
0.625
171
     4
172
     1
273
     8
274
     4
277
     6
340
F
  0
DIMSTYLE
105
8F
102
{ACAD_REACTORS
330
F5E
330
F6A
330
FD8
330
F26
102
}
330
A
100
AcDbSymbolTableRecord
100
AcDbDimStyleTableRecord
  2
STYLE3
 70
     0
 41
2.5
 42
0.0
 43
3.75
 44
1.25
 73
     0
 74
     0
 77
     1
 78
     8
140
2.5
141
2.5
143
0.0394
147
0.625
171
     4
172
     1
173
     1
176
     2
177
     2
178
     6
271
     1
273
     8
274
     4
340
3F
341
45
343
45
344
45
  0
ENDTAB
  0
TABLE
  2
BLOCK_RECORD
  5
1
330
0
100
AcDbSymbolTable
 70
    18
  0
BLOCK_RECORD
  5
18
330
1
100
AcDbSymbolTableRecord
100
AcDbBlockTableRecord
  2
*MODEL_SPACE
340
10FF
  0
BLOCK_RECORD
  5
15
330
1
100
AcDbSymbolTableRecord
100
AcDbBlockTableRecord
  2
*PAPER_SPACE
340
1100
  0
BLOCK_RECORD
  5
45
330
1
100
AcDbSymbolTableRecord
100
AcDbBlockTableRecord
  2
_OPEN
340
0
102
{BLKREFS
331
F4C
331
F4D
331
FF4
331
FF5
331
FFE
331
FFF
331
1019
331
101A
331
1071
331
1072
331
1087
331
1088
331
390
331
391
331
3B9
331
3CD
331
3CF
331
3D0
331
3D1
331
3D3
331
3E1
331
3E2
331
3F6
331
402
331
42A
331
43E
331
452
331
49B
331
4B3
331
4C3
331
F1D
331
F1E
331
1044
331
1045
331
104E
331
104F
331
1145
331
1146
331
114D
331
114E
331
1156
331
1157
102
}
  0
BLOCK_RECORD
  5
F52
330
1
100
AcDbSymbolTableRecord
100
AcDbBlockTableRecord
  2
*D12
340
0
  0
BLOCK_RECORD
  5
F5F
330
1
100
AcDbSymbolTableRecord
100
AcDbBlockTableRecord
  2
*D13
340
0
  0
BLOCK_RECORD
  5
FCC
330
1
100
AcDbSymbolTableRecord
100
AcDbBlockTableRecord
  2
*D14
340
0
  0
BLOCK_RECORD
  5
109A
330
1
100
AcDbSymbolTableRecord
100
AcDbBlockTableRecord
  2
A$C46B047FA
340
0
102
{BLKREFS
331
10EF
102
}
  0
ENDTAB
  0
ENDSEC
  0
SECTION
  2
BLOCKS
  0
BLOCK
  5
19
330
18
100
AcDbEntity
  8
0
100
AcDbBlockBegin
  2
*MODEL_SPACE
 70
     0
 10
0.0
 20
0.0
 30
0.0
  3
*MODEL_SPACE
  1

  0
ENDBLK
  5
1A
330
18
100
AcDbEntity
  8
0
100
AcDbBlockEnd
  0
BLOCK
  5
16
330
15
100
AcDbEntity
 67
     1
  8
0
100
AcDbBlockBegin
  2
*PAPER_SPACE
 70
     0
 10
0.0
 20
0.0
 30
0.0
  3
*PAPER_SPACE
  1

  0
ENDBLK
  5
17
330
15
100
AcDbEntity
 67
     1
  8
0
100
AcDbBlockEnd
  0
BLOCK
  5
46
330
45
100
AcDbEntity
  8
0
100
AcDbBlockBegin
  2
_OPEN
 70
     0
 10
0.0
 20
0.0
 30
0.0
  3
_OPEN
  1

  0
LINE
  5
47
330
45
100
AcDbEntity
  8
0
  6
ByBlock
 62
     0
100
AcDbLine
 10
-1.0
 20
0.1666666666666666
 30
0.0
 11
0.0
 21
0.0
 31
0.0
  0
LINE
  5
48
330
45
100
AcDbEntity
  8
0
  6
ByBlock
 62
     0
100
AcDbLine
 10
0.0
 20
0.0
 30
0.0
 11
-1.0
 21
-0.1666666666666666
 31
0.0
  0
LINE
  5
49
330
45
100
AcDbEntity
  8
0
  6
ByBlock
 62
     0
100
AcDbLine
 10
0.0
 20
0.0
 30
0.0
 11
-1.0
 21
0.0
 31
0.0
  0
ENDBLK
  5
4A
330
45
100
AcDbEntity
  8
0
100
AcDbBlockEnd
  0
BLOCK
  5
1055
330
F52
100
AcDbEntity
  8
0
100
AcDbBlockBegin
  2
*D12
 70
     1
 10
0.0
 20
0.0
 30
0.0
  3
*D12
  1

  0
LINE
  5
1153
330
F52
100
AcDbEntity
  8
寸法線
 62
     2
370
    -2
100
AcDbLine
 10
53.35940678000923
 20
97.02463636186761
 30
0.0
 11
53.35940678000923
 21
125.4373549314764
 31
0.0
  0
LINE
  5
1154
330
F52
100
AcDbEntity
  8
寸法線
 62
     2
370
    -2
100
AcDbLine
 10
62.35940678000924
 20
99.22463636186764
 30
0.0
 11
62.35940678000924
 21
125.4373549314764
 31
0.0
  0
LINE
  5
1155
330
F52
100
AcDbEntity
  8
寸法線
 62
     2
370
    -2
100
AcDbLine
 10
55.85940678000923
 20
124.1873549314764
 30
0.0
 11
59.85940678000924
 21
124.1873549314764
 31
0.0
  0
INSERT
  5
1156
330
F52
100
AcDbEntity
  8
寸法線
 62
     2
370
    -2
100
AcDbBlockReference
  2
_OPEN
 10
53.35940678000923
 20
124.1873549314764
 30
0.0
 41
2.5
 42
2.5
 43
2.5
 50
180.0
  0
INSERT
  5
1157
330
F52
100
AcDbEntity
  8
寸法線
 62
     2
370
    -2
100
AcDbBlockReference
  2
_OPEN
 10
62.35940678000924
 20
124.1873549314764
 30
0.0
 41
2.5
 42
2.5
 43
2.5
  0
MTEXT
  5
1158
330
F52
100
AcDbEntity
  8
寸法線
 62
     6
100
AcDbMText
 10
57.85940678000923
 20
126.0623549314763
 30
0.0
 40
2.5
 41
0.0
 71
     5
 72
     1
  1
\A1;9
  7
STYLE3
 73
     1
 44
1.0
  0
POINT
  5
1159
330
F52
100
AcDbEntity
  8
DEFPOINTS
 62
     0
100
AcDbPoint
 10
53.35940678000923
 20
97.02463636186761
 30
0.0
  0
POINT
  5
115A
330
F52
100
AcDbEntity
  8
DEFPOINTS
 62
     0
100
AcDbPoint
 10
62.35940678000924
 20
99.22463636186764
 30
0.0
  0
POINT
  5
115B
330
F52
100
AcDbEntity
  8
DEFPOINTS
 62
     0
100
AcDbPoint
 10
62.35940678000924
 20
124.1873549314764
 30
0.0
  0
ENDBLK
  5
105F
330
F52
100
AcDbEntity
  8
0
100
AcDbBlockEnd
  0
BLOCK
  5
1060
330
F5F
100
AcDbEntity
  8
0
100
AcDbBlockBegin
  2
*D13
 70
     1
 10
0.0
 20
0.0
 30
0.0
  3
*D13
  1

  0
LINE
  5
114B
330
F5F
100
AcDbEntity
  8
寸法線
 62
     2
370
    -2
100
AcDbLine
 10
73.31449848038715
 20
99.63728938467388
 30
0.0
 11
73.31449848038715
 21
125.4373549314764
 31
0.0
  0
LINE
  5
114C
330
F5F
100
AcDbEntity
  8
寸法線
 62
     2
370
    -2
100
AcDbLine
 10
64.85940678000924
 20
124.1873549314764
 30
0.0
 11
70.81449848038715
 21
124.1873549314764
 31
0.0
  0
INSERT
  5
114D
330
F5F
100
AcDbEntity
  8
寸法線
 62
     2
370
    -2
100
AcDbBlockReference
  2
_OPEN
 10
62.35940678000924
 20
124.1873549314764
 30
0.0
 41
2.5
 42
2.5
 43
2.5
 50
180.0
  0
INSERT
  5
114E
330
F5F
100
AcDbEntity
  8
寸法線
 62
     2
370
    -2
100
AcDbBlockReference
  2
_OPEN
 10
73.31449848038715
 20
124.1873549314764
 30
0.0
 41
2.5
 42
2.5
 43
2.5
  0
MTEXT
  5
114F
330
F5F
100
AcDbEntity
  8
寸法線
 62
     6
100
AcDbMText
 10
67.83695263019819
 20
126.0623549314763
 30
0.0
 40
2.5
 41
0.0
 71
     5
 72
     1
  1
\A1;11
  7
STYLE3
 73
     1
 44
1.0
  0
POINT
  5
1150
330
F5F
100
AcDbEntity
  8
DEFPOINTS
 62
     0
100
AcDbPoint
 10
62.35940678000924
 20
99.22463636186764
 30
0.0
  0
POINT
  5
1151
330
F5F
100
AcDbEntity
  8
DEFPOINTS
 62
     0
100
AcDbPoint
 10
73.31449848038715
 20
99.63728938467388
 30
0.0
  0
POINT
  5
1152
330
F5F
100
AcDbEntity
  8
DEFPOINTS
 62
     0
100
AcDbPoint
 10
73.31449848038715
 20
124.1873549314764
 30
0.0
  0
ENDBLK
  5
1069
330
F5F
100
AcDbEntity
  8
0
100
AcDbBlockEnd
  0
BLOCK
  5
1036
330
FCC
100
AcDbEntity
  8
0
100
AcDbBlockBegin
  2
*D14
 70
     1
 10
0.0
 20
0.0
 30
0.0
  3
*D14
  1

  0
LINE
  5
1142
330
FCC
100
AcDbEntity
  8
寸法線
 62
     2
370
    -2
100
AcDbLine
 10
167.8144984803872
 20
125.4373549314764
 30
0.0
 11
167.8144984803872
 21
133.4138444788264
 31
0.0
  0
LINE
  5
1143
330
FCC
100
AcDbEntity
  8
寸法線
 62
     2
370
    -2
100
AcDbLine
 10
53.35940678000923
 20
125.4373549314764
 30
0.0
 11
53.35940678000923
 21
133.4138444788264
 31
0.0
  0
LINE
  5
1144
330
FCC
100
AcDbEntity
  8
寸法線
 62
     2
370
    -2
100
AcDbLine
 10
165.3144984803872
 20
132.1638444788264
 30
0.0
 11
55.85940678000923
 21
132.1638444788264
 31
0.0
  0
INSERT
  5
1145
330
FCC
100
AcDbEntity
  8
寸法線
 62
     2
370
    -2
100
AcDbBlockReference
  2
_OPEN
 10
167.8144984803872
 20
132.1638444788264
 30
0.0
 41
2.5
 42
2.5
 43
2.5
  0
INSERT
  5
1146
330
FCC
100
AcDbEntity
  8
寸法線
 62
     2
370
    -2
100
AcDbBlockReference
  2
_OPEN
 10
53.35940678000923
 20
132.1638444788264
 30
0.0
 41
2.5
 42
2.5
 43
2.5
 50
180.0
  0
MTEXT
  5
1147
330
FCC
100
AcDbEntity
  8
寸法線
 62
     6
100
AcDbMText
 10
110.5869526301982
 20
134.0388444788264
 30
0.0
 40
2.5
 41
0.0
 71
     5
 72
     1
  1
\A1;114.5
  7
STYLE3
 73
     1
 44
1.0
  0
POINT
  5
1148
330
FCC
100
AcDbEntity
  8
DEFPOINTS
 62
     0
100
AcDbPoint
 10
167.8144984803872
 20
125.4373549314764
 30
0.0
  0
POINT
  5
1149
330
FCC
100
AcDbEntity
  8
DEFPOINTS
 62
     0
100
AcDbPoint
 10
53.35940678000923
 20
125.4373549314764
 30
0.0
  0
POINT
  5
114A
330
FCC
100
AcDbEntity
  8
DEFPOINTS
 62
     0
100
AcDbPoint
 10
53.35940678000923
 20
132.1638444788264
 30
0.0
  0
ENDBLK
  5
1040
330
FCC
100
AcDbEntity
  8
0
100
AcDbBlockEnd
  0
BLOCK
  5
10ED
330
109A
100
AcDbEntity
  8
0
100
AcDbBlockBegin
  2
A$C46B047FA
 70
     0
 10
0.0
 20
0.0
 30
0.0
  3
A$C46B047FA
  1

  0
LINE
  5
109B
102
{ACAD_REACTORS
330
109E
102
}
330
109A
100
AcDbEntity
  8
ROGO
 62
     4
100
AcDbLine
 10
5.483320721481106
 20
0.5346185261392407
 30
0.0
 11
4.957014942215948
 21
0.5346185261392407
 31
0.0
  0
LINE
  5
109C
102
{ACAD_REACTORS
330
109E
102
}
330
109A
100
AcDbEntity
  8
ROGO
 62
     4
100
AcDbLine
 10
4.798028326966687
 20
1.484935992939711
 30
0.0
 11
5.483320721481106
 21
0.5346185261392407
 31
0.0
  0
LINE
  5
109D
102
{ACAD_REACTORS
330
109F
102
}
330
109A
100
AcDbEntity
  8
ROGO
 62
     4
100
AcDbLine
 10
0.7472799628276335
 20
0.1488426046267932
 30
0.0
 11
9.578582315110054
 21
0.1488426046267932
 31
0.0
  0
HATCH
  5
109E
330
109A
100
AcDbEntity
  8
ROGO
 62
     4
100
AcDbHatch
 10
0.0
 20
0.0
 30
0.0
210
0.0
220
0.0
230
1.0
  2
SOLID
 70
     1
 71
     1
 91
        2
 92
        7
 72
     0
 73
     1
 93
        8
 10
4.798028326966687
 20
1.484935992939597
 10
4.24878199962751
 20
1.484935992939597
 10
3.56348960511309
 20
0.534618526139127
 10
4.089795384378248
 20
0.534618526139127
 10
4.220270816254185
 20
0.7155530920158526
 10
4.826539510339955
 20
0.7155530920157958
 10
4.957014942215948
 20
0.534618526139127
 10
5.483320721481106
 20
0.534618526139127
 97
        8
330
10BF
330
10BA
330
10B5
330
10B9
330
10C0
330
10A6
330
109B
330
109C
 92
       22
 72
     0
 73
     1
 93
        3
 10
4.688923137875178
 20
0.906390234698108
 10
4.357887188719018
 20
0.906390234698108
 10
4.52340516329707
 20
1.135919445251261
 97
        3
330
10A4
330
10A5
330
10A3
 75
     0
 76
     1
 47
0.0514683685270805
 98
        2
 10
4.861853918220901
 20
0.9980511167917711
 10
4.861853918220901
 20
0.9980511167917711
450
        0
451
        0
460
0.0
461
0.0
452
        0
462
0.0
453
        0
470

  0
HATCH
  5
109F
330
109A
100
AcDbEntity
  8
ROGO
 62
     4
100
AcDbHatch
 10
0.0
 20
0.0
 30
0.0
210
0.0
220
0.0
230
1.0
  2
SOLID
 70
     1
 71
     1
 91
        1
 92
        7
 72
     0
 73
     1
 93
        4
 10
9.578582315110054
 20
0.1488426046266795
 10
0.757602359408736
 20
0.1488426046266795
 10
0.6902617161883314
 20
-0.0000000591880962
 10
9.504364555761469
 20
-0.0000000591880962
 97
        4
330
109D
330
10B7
330
10A0
330
10C2
 75
     0
 76
     1
 47
0.0514683685270805
 98
        1
 10
6.327335468702983
 20
0.1094761121222518
450
        0
451
        0
460
0.0
461
0.0
452
        0
462
0.0
453
        0
470

  0
LINE
  5
10A0
102
{ACAD_REACTORS
330
109F
330
10C3
330
10A2
102
}
330
109A
100
AcDbEntity
  8
ROGO
 62
     4
100
AcDbLine
 10
-0.0000000265826543
 20
-0.0000000591879825
 30
0.0
 11
10.05153918222152
 21
-0.0000000591879825
 31
0.0
  0
LINE
  5
10A1
102
{ACAD_REACTORS
330
10A2
102
}
330
109A
100
AcDbEntity
  8
ROGO
 62
     4
100
AcDbLine
 10
0.7347325219557206
 20
1.484935992939711
 30
0.0
 11
-0.0000000265826543
 21
-0.0000000591879825
 31
0.0
  0
HATCH
  5
10A2
330
109A
100
AcDbEntity
  8
ROGO
 62
     4
100
AcDbHatch
 10
0.0
 20
0.0
 30
0.0
210
0.0
220
0.0
230
1.0
  2
SOLID
 70
     1
 71
     1
 91
        2
 92
        5
 93
        6
 72
     4
 94
        3
 73
     0
 74
     0
 95
       18
 96
       14
 40
0.108740278791501
 40
0.108740278791501
 40
0.108740278791501
 40
0.108740278791501
 40
0.6623149649549278
 40
1.384304701649787
 40
2.097394834876493
 40
2.774073369849618
 40
3.428974823686337
 40
4.005208313035923
 40
4.455173659284313
 40
4.720999734343524
 40
5.086034088486724
 40
5.569973738255373
 40
6.060470601257719
 40
6.060470601257719
 40
6.060470601257719
 40
6.060470601257719
 10
1.577391485369219
 20
0.534618526139127
 10
1.622803336473907
 20
0.5349566944440767
 10
1.727442770127709
 20
0.5357359126228403
 10
1.873832519012296
 20
0.613940533182074
 10
2.012651827277124
 20
0.713567521861819
 10
2.124461336400656
 20
0.8380410501108599
 10
2.194122029264406
 20
0.98035520437395
 10
2.204912250403367
 20
1.116750249304743
 10
2.198325085495298
 20
1.224637034167358
 10
2.151256483647159
 20
1.299836801611604
 10
2.102322928309888
 20
1.376156875384538
 10
2.012595334482341
 20
1.442268158006243
 10
1.939076563619892
 20
1.471234727313287
 10
1.901690773369352
 20
1.484935992939654
 72
     1
 10
1.901690773369466
 20
1.484935992939597
 11
0.7347325219557206
 21
1.484935992939597
 72
     1
 10
0.7347325219557206
 20
1.484935992939597
 11
-0.0000000265826543
 21
-0.000000059188096
 72
     1
 10
-0.0000000265826543
 20
-0.0000000591880962
 11
0.6902617161883314
 21
-0.0000000591880962
 72
     1
 10
0.6902617161883314
 20
-0.0000000591880962
 11
0.932138329323493
 21
0.5346185261391269
 72
     1
 10
0.932138329323493
 20
0.534618526139127
 11
1.577391485369219
 21
0.534618526139127
 97
        6
330
10BD
330
10B4
330
10A1
330
10A0
330
10B7
330
10B8
 92
       20
 93
        4
 72
     1
 10
1.081483445011883
 20
0.8647152371851802
 11
1.195825786135401
 21
1.117445502679345
 72
     1
 10
1.195825786135401
 20
1.117445502679288
 11
1.489636870927654
 21
1.117445502679288
 72
     4
 94
        3
 73
     0
 74
     0
 95
       15
 96
       11
 40
0.0
 40
0.0
 40
0.0
 40
0.0
 40
0.458245544397197
 40
0.6671803073175111
 40
0.9043351724393449
 40
1.065896092998139
 40
1.321406364485703
 40
1.474450037341961
 40
1.737022829061231
 40
1.824547148828933
 40
1.824547148828933
 40
1.824547148828933
 40
1.824547148828933
 10
1.489636870927427
 20
1.117445502679288
 10
1.531486993944213
 20
1.117637198581689
 10
1.592418471133726
 20
1.117916297271506
 10
1.625737972995125
 20
1.042543883780695
 10
1.61080258358146
 20
0.9940158074456348
 10
1.592027581834656
 20
0.9441925981577696
 10
1.558847901491105
 20
0.9103369760057944
 10
1.514315910544837
 20
0.8777283046038064
 10
1.472231051009316
 20
0.873780878915852
 10
1.444859574066413
 20
0.8665283662256229
 10
1.438016701555113
 20
0.8647152371851234
 72
     1
 10
1.438016701555113
 20
0.8647152371851802
 11
1.081483445011883
 21
0.8647152371851802
 97
        4
330
10B1
330
10B3
330
10AF
330
10B2
 75
     0
 76
     1
 47
0.0514683685270805
 98
        2
 10
0.7409697327581739
 20
1.023081472030241
 10
0.7409697327581739
 20
1.023081472030241
450
        0
451
        0
460
0.0
461
0.0
452
        0
462
0.0
453
        0
470

  0
LINE
  5
10A3
102
{ACAD_REACTORS
330
109E
102
}
330
109A
100
AcDbEntity
  8
ROGO
 62
     4
100
AcDbLine
 10
4.52340516329707
 20
1.135919445251374
 30
0.0
 11
4.688923137875121
 21
0.9063902346982217
 31
0.0
  0
LINE
  5
10A4
102
{ACAD_REACTORS
330
109E
102
}
330
109A
100
AcDbEntity
  8
ROGO
 62
     4
100
AcDbLine
 10
4.357887188719018
 20
0.9063902346982786
 30
0.0
 11
4.688923137875121
 21
0.9063902346982786
 31
0.0
  0
LINE
  5
10A5
102
{ACAD_REACTORS
330
109E
102
}
330
109A
100
AcDbEntity
  8
ROGO
 62
     4
100
AcDbLine
 10
4.52340516329707
 20
1.135919445251374
 30
0.0
 11
4.357887188719018
 21
0.9063902346982217
 31
0.0
  0
LINE
  5
10A6
102
{ACAD_REACTORS
330
109E
102
}
330
109A
100
AcDbEntity
  8
ROGO
 62
     4
100
AcDbLine
 10
4.826539510339955
 20
0.7155530920159663
 30
0.0
 11
4.957014942215948
 21
0.5346185261392407
 31
0.0
  0
LINE
  5
10A7
102
{ACAD_REACTORS
330
10BE
102
}
330
109A
100
AcDbEntity
  8
ROGO
 62
     4
100
AcDbLine
 10
2.922617336811697
 20
0.9225102099042601
 30
0.0
 11
2.838397403018575
 21
0.7522969585028818
 31
0.0
  0
LINE
  5
10A8
102
{ACAD_REACTORS
330
10BE
102
}
330
109A
100
AcDbEntity
  8
ROGO
 62
     4
100
AcDbLine
 10
3.684517612092918
 20
1.09704056486214
 30
0.0
 11
3.598161615609569
 21
0.9225102099042601
 31
0.0
  0
LINE
  5
10A9
102
{ACAD_REACTORS
330
10BE
102
}
330
109A
100
AcDbEntity
  8
ROGO
 62
     4
100
AcDbLine
 10
2.922617336811697
 20
0.9225102099042601
 30
0.0
 11
3.598161615609569
 21
0.9225102099043169
 31
0.0
  0
LINE
  5
10AA
102
{ACAD_REACTORS
330
10BE
102
}
330
109A
100
AcDbEntity
  8
ROGO
 62
     4
100
AcDbLine
 10
2.838397403018632
 20
0.7522969585028818
 30
0.0
 11
3.513941681816504
 21
0.7522969585028818
 31
0.0
  0
LINE
  5
10AB
102
{ACAD_REACTORS
330
10BE
102
}
330
109A
100
AcDbEntity
  8
ROGO
 62
     4
100
AcDbLine
 10
3.008973333294989
 20
1.09704056486214
 30
0.0
 11
3.684517612092918
 21
1.09704056486214
 31
0.0
  0
LINE
  5
10AC
102
{ACAD_REACTORS
330
10BE
102
}
330
109A
100
AcDbEntity
  8
ROGO
 62
     4
100
AcDbLine
 10
3.093189701771905
 20
1.267246610557776
 30
0.0
 11
3.768733980569777
 21
1.267246610557776
 31
0.0
  0
LINE
  5
10AD
102
{ACAD_REACTORS
330
10BE
102
}
330
109A
100
AcDbEntity
  8
ROGO
 62
     4
100
AcDbLine
 10
3.093189701771905
 20
1.267246610557776
 30
0.0
 11
3.008973333294989
 21
1.09704056486214
 31
0.0
  0
LINE
  5
10AE
102
{ACAD_REACTORS
330
10BE
102
}
330
109A
100
AcDbEntity
  8
ROGO
 62
     4
100
AcDbLine
 10
3.876444662439212
 20
1.484935992939711
 30
0.0
 11
3.768733980569777
 21
1.267246610557776
 31
0.0
  0
SPLINE
  5
10AF
102
{ACAD_REACTORS
330
10A2
102
}
330
109A
100
AcDbEntity
  8
ROGO
 62
     4
100
AcDbSpline
210
0.0
220
0.0
230
1.0
 70
     8
 71
     3
 72
    15
 73
    11
 74
     9
 42
0.0000000001
 43
0.0000000001
 44
0.0000000001
 40
0.0
 40
0.0
 40
0.0
 40
0.0
 40
0.1114278057886432
 40
0.1622327562563865
 40
0.2198997572250677
 40
0.259185199493265
 40
0.3213155338880433
 40
0.3585299069784071
 40
0.4223775764185194
 40
0.4436601464819452
 40
0.4436601464819452
 40
0.4436601464819452
 40
0.4436601464819452
 10
1.489636870927427
 20
1.117445502679402
 30
0.0
 10
1.53148699394423
 20
1.117637198581768
 30
0.0
 10
1.592418471133713
 20
1.117916297271578
 30
0.0
 10
1.625737972995128
 20
1.042543883780852
 30
0.0
 10
1.6108025835815
 20
0.9940158074457743
 30
0.0
 10
1.592027581834693
 20
0.9441925981578666
 30
0.0
 10
1.558847901491109
 20
0.9103369760058937
 30
0.0
 10
1.514315910544882
 20
0.8777283046039702
 30
0.0
 10
1.472231051009326
 20
0.873780878915954
 30
0.0
 10
1.444859574066393
 20
0.8665283662257074
 30
0.0
 10
1.438016701555113
 20
0.8647152371852371
 30
0.0
 11
1.489636870927427
 21
1.117445502679402
 31
0.0
 11
1.59803931565716
 21
1.091656631446085
 31
0.0
 11
1.618687442771317
 21
1.045236831374268
 31
0.0
 11
1.608363527627375
 21
0.9885014828089992
 31
0.0
 11
1.592877506498325
 21
0.9523970630823441
 31
0.0
 11
1.551581252269954
 21
0.9059772630104703
 31
0.0
 11
1.520609210011855
 21
0.8853461660238508
 31
0.0
 11
1.458664828669327
 21
0.8698730114319346
 31
0.0
 11
1.438016701555113
 21
0.8647152371852371
 31
0.0
  0
LINE
  5
10B0
102
{ACAD_REACTORS
330
10BE
102
}
330
109A
100
AcDbEntity
  8
ROGO
 62
     4
100
AcDbLine
 10
2.591100753158968
 20
1.484935992939711
 30
0.0
 11
3.876444662439212
 21
1.484935992939767
 31
0.0
  0
LINE
  5
10B1
102
{ACAD_REACTORS
330
10A2
102
}
330
109A
100
AcDbEntity
  8
ROGO
 62
     4
100
AcDbLine
 10
1.195825786135401
 20
1.117445502679402
 30
0.0
 11
1.081483445011883
 21
0.8647152371852939
 31
0.0
  0
LINE
  5
10B2
102
{ACAD_REACTORS
330
10A2
102
}
330
109A
100
AcDbEntity
  8
ROGO
 62
     4
100
AcDbLine
 10
1.438016701555113
 20
0.8647152371852371
 30
0.0
 11
1.081483445011883
 21
0.8647152371852939
 31
0.0
  0
LINE
  5
10B3
102
{ACAD_REACTORS
330
10A2
102
}
330
109A
100
AcDbEntity
  8
ROGO
 62
     4
100
AcDbLine
 10
1.489636870927427
 20
1.117445502679402
 30
0.0
 11
1.195825786135401
 21
1.117445502679402
 31
0.0
  0
LINE
  5
10B4
102
{ACAD_REACTORS
330
10A2
102
}
330
109A
100
AcDbEntity
  8
ROGO
 62
     4
100
AcDbLine
 10
0.7347325219557206
 20
1.484935992939711
 30
0.0
 11
1.901690773369352
 21
1.484935992939711
 31
0.0
  0
LINE
  5
10B5
102
{ACAD_REACTORS
330
109E
102
}
330
109A
100
AcDbEntity
  8
ROGO
 62
     4
100
AcDbLine
 10
3.56348960511309
 20
0.5346185261392407
 30
0.0
 11
4.089795384378248
 21
0.5346185261392407
 31
0.0
  0
LINE
  5
10B6
102
{ACAD_REACTORS
330
10BE
102
}
330
109A
100
AcDbEntity
  8
ROGO
 62
     4
100
AcDbLine
 10
2.120892508634028
 20
0.5346185261392407
 30
0.0
 11
3.406236417914271
 21
0.5346185261392407
 31
0.0
  0
LINE
  5
10B7
102
{ACAD_REACTORS
330
109F
330
10A2
102
}
330
109A
100
AcDbEntity
  8
ROGO
 62
     4
100
AcDbLine
 10
0.932138329323493
 20
0.5346185261392407
 30
0.0
 11
0.6902617161883314
 21
-0.0000000591879825
 31
0.0
  0
LINE
  5
10B8
102
{ACAD_REACTORS
330
10A2
102
}
330
109A
100
AcDbEntity
  8
ROGO
 62
     4
100
AcDbLine
 10
1.577391485592897
 20
0.5346185261392407
 30
0.0
 11
0.9321383293234362
 21
0.5346185261392407
 31
0.0
  0
LINE
  5
10B9
102
{ACAD_REACTORS
330
109E
102
}
330
109A
100
AcDbEntity
  8
ROGO
 62
     4
100
AcDbLine
 10
4.220270816254185
 20
0.7155530920159663
 30
0.0
 11
4.089795384378248
 21
0.5346185261392407
 31
0.0
  0
LINE
  5
10BA
102
{ACAD_REACTORS
330
109E
102
}
330
109A
100
AcDbEntity
  8
ROGO
 62
     4
100
AcDbLine
 10
4.24878199962751
 20
1.484935992939711
 30
0.0
 11
3.56348960511309
 21
0.5346185261392407
 31
0.0
  0
LINE
  5
10BB
102
{ACAD_REACTORS
330
10BE
102
}
330
109A
100
AcDbEntity
  8
ROGO
 62
     4
100
AcDbLine
 10
3.513941681816504
 20
0.7522969585028818
 30
0.0
 11
3.406236417914271
 21
0.5346185261392407
 31
0.0
  0
LINE
  5
10BC
102
{ACAD_REACTORS
330
10BE
102
}
330
109A
100
AcDbEntity
  8
ROGO
 62
     4
100
AcDbLine
 10
2.591100753159025
 20
1.484935992939711
 30
0.0
 11
2.120892508634028
 21
0.5346185261392407
 31
0.0
  0
SPLINE
  5
10BD
102
{ACAD_REACTORS
330
10A2
102
}
330
109A
100
AcDbEntity
  8
ROGO
 62
     4
100
AcDbSpline
210
0.0
220
0.0
230
1.0
 70
     8
 71
     3
 72
    18
 73
    14
 74
     0
 42
0.0000000001
 43
0.0000000001
 40
0.1087402787915014
 40
0.1087402787915014
 40
0.1087402787915014
 40
0.1087402787915014
 40
0.5992371417938475
 40
1.083176791562496
 40
1.448211145705696
 40
1.714037220764907
 40
2.164002567013297
 40
2.740236056362883
 40
3.395137510199602
 40
4.071816045172726
 40
4.784906178399433
 40
5.506895915094292
 40
6.060470601257719
 40
6.060470601257719
 40
6.060470601257719
 40
6.060470601257719
 10
1.901690773369352
 20
1.484935992939767
 30
0.0
 10
1.939076563619892
 20
1.471234727313401
 30
0.0
 10
2.012595334482341
 20
1.442268158006356
 30
0.0
 10
2.102322928309888
 20
1.376156875384708
 30
0.0
 10
2.151256483647159
 20
1.299836801611718
 30
0.0
 10
2.198325085495298
 20
1.224637034167471
 30
0.0
 10
2.204912250403367
 20
1.116750249304857
 30
0.0
 10
2.194122029264406
 20
0.9803552043740637
 30
0.0
 10
2.124461336400656
 20
0.8380410501109736
 30
0.0
 10
2.012651827277124
 20
0.7135675218619327
 30
0.0
 10
1.873832519012296
 20
0.6139405331821877
 30
0.0
 10
1.727442770127709
 20
0.535735912622954
 30
0.0
 10
1.622803336473907
 20
0.5349566944441904
 30
0.0
 10
1.577391485369219
 20
0.5346185261392407
 30
0.0
  0
HATCH
  5
10BE
330
109A
100
AcDbEntity
  8
ROGO
 62
     4
100
AcDbHatch
 10
0.0
 20
0.0
 30
0.0
210
0.0
220
0.0
230
1.0
  2
SOLID
 70
     1
 71
     1
 91
        1
 92
        1
 93
       12
 72
     1
 10
2.591100753158968
 20
1.484935992939597
 11
3.876444662439212
 21
1.484935992939597
 72
     1
 10
3.876444662439212
 20
1.484935992939597
 11
3.76873398056972
 21
1.267246610557663
 72
     1
 10
3.768733980569777
 20
1.267246610557663
 11
3.093189701771905
 21
1.267246610557663
 72
     1
 10
3.093189701771905
 20
1.267246610557663
 11
3.008973333295045
 21
1.097040564862027
 72
     1
 10
3.008973333295045
 20
1.097040564862027
 11
3.684517612092918
 21
1.097040564862027
 72
     1
 10
3.684517612092861
 20
1.097040564862027
 11
3.598161615609512
 21
0.9225102099041464
 72
     1
 10
3.598161615609569
 20
0.9225102099041464
 11
2.922617336811697
 21
0.9225102099041464
 72
     1
 10
2.922617336811697
 20
0.9225102099041464
 11
2.838397403018632
 21
0.7522969585027682
 72
     1
 10
2.838397403018632
 20
0.7522969585027682
 11
3.513941681816504
 21
0.7522969585027682
 72
     1
 10
3.513941681816504
 20
0.7522969585027682
 11
3.406236417914271
 21
0.534618526139127
 72
     1
 10
3.406236417914271
 20
0.534618526139127
 11
2.120892508634028
 21
0.534618526139127
 72
     1
 10
2.120892508634028
 20
0.534618526139127
 11
2.591100753159025
 21
1.484935992939597
 97
       12
330
10B0
330
10AE
330
10AC
330
10AD
330
10AB
330
10A8
330
10A9
330
10A7
330
10AA
330
10BB
330
10B6
330
10BC
 75
     0
 76
     1
 98
        1
 10
-49.98549222387413
 20
-64.22526447222606
450
        0
451
        0
460
0.0
461
0.0
452
        0
462
0.0
453
        0
470

  0
LINE
  5
10BF
102
{ACAD_REACTORS
330
109E
102
}
330
109A
100
AcDbEntity
  8
ROGO
 62
     4
100
AcDbLine
 10
4.24878199962751
 20
1.484935992939711
 30
0.0
 11
4.798028326966687
 21
1.484935992939711
 31
0.0
  0
LINE
  5
10C0
102
{ACAD_REACTORS
330
109E
102
}
330
109A
100
AcDbEntity
  8
ROGO
 62
     4
100
AcDbLine
 10
4.220270816254185
 20
0.7155530920159663
 30
0.0
 11
4.826539510339955
 21
0.7155530920159663
 31
0.0
  0
LINE
  5
10C1
102
{ACAD_REACTORS
330
10C3
102
}
330
109A
100
AcDbEntity
  8
ROGO
 62
     4
100
AcDbLine
 10
10.24480163032234
 20
0.387585039623616
 30
0.0
 11
10.05153918222152
 21
-0.0000000591879825
 31
0.0
  0
LINE
  5
10C2
102
{ACAD_REACTORS
330
109F
330
10C3
102
}
330
109A
100
AcDbEntity
  8
ROGO
 62
     4
100
AcDbLine
 10
10.24480163032234
 20
1.484935992939711
 30
0.0
 11
9.504364555761469
 21
-0.0000000591879825
 31
0.0
  0
HATCH
  5
10C3
330
109A
100
AcDbEntity
  8
ROGO
 62
     4
100
AcDbHatch
 10
0.0
 20
0.0
 30
0.0
210
0.0
220
0.0
230
1.0
  2
SOLID
 70
     1
 71
     1
 91
        1
 92
        7
 72
     0
 73
     1
 93
       11
 10
11.51449603063281
 20
1.484935992939597
 10
10.96733337591359
 20
1.484935992939597
 10
10.71113559568618
 20
1.322811193596237
 10
10.79197625678233
 20
1.484935992939597
 10
10.24480163032234
 20
1.484935992939597
 10
9.504364555761469
 20
-0.0000000591880962
 10
10.05153918222152
 20
-0.0000000591880962
 10
10.24480163032234
 20
0.3875850396235023
 10
10.43806407842322
 20
-0.0000000591880962
 10
10.98522673314244
 20
-0.0000000591880962
 10
10.61500819586206
 20
0.7424679668757222
 97
       11
330
10E8
330
10E5
330
10E6
330
10E7
330
10C2
330
10A0
330
10C1
330
10EB
330
10EA
330
10EC
330
10E9
 75
     0
 76
     1
 47
0.0514683685270805
 98
        1
 10
10.19770984280899
 20
0.8478694898053618
450
        0
451
        0
460
0.0
461
0.0
452
        0
462
0.0
453
        0
470

  0
LINE
  5
10C4
102
{ACAD_REACTORS
330
10E4
102
}
330
109A
100
AcDbEntity
  8
ROGO
 62
     4
100
AcDbLine
 10
9.274750120805435
 20
1.13135628124138
 30
0.0
 11
9.869459389163182
 21
1.13135628124138
 31
0.0
  0
LINE
  5
10C5
102
{ACAD_REACTORS
330
10E4
102
}
330
109A
100
AcDbEntity
  8
ROGO
 62
     4
100
AcDbLine
 10
9.140537442976494
 20
0.8881944935250771
 30
0.0
 11
9.748211068413183
 21
0.8881944935250771
 31
0.0
  0
SPLINE
  5
10C6
102
{ACAD_REACTORS
330
10E4
102
}
330
109A
100
AcDbEntity
  8
ROGO
 62
     4
100
AcDbSpline
210
0.0
220
0.0
230
1.0
 70
     8
 71
     3
 72
    16
 73
    12
 74
    10
 42
0.0000000001
 43
0.0000000001
 44
0.0000000001
 40
0.0
 40
0.0
 40
0.0
 40
0.0
 40
0.090889463558755
 40
0.1352824120538207
 40
0.1571739758861895
 40
0.1802441192684573
 40
0.2132804986121272
 40
0.2433617673669184
 40
0.2747358298622198
 40
0.3273367126566715
 40
0.3794005943324707
 40
0.3794005943324707
 40
0.3794005943324707
 40
0.3794005943324707
 10
9.274750120805492
 20
1.131356281241323
 30
0.0
 10
9.243970826466007
 20
1.126663770171344
 30
0.0
 10
9.198158066476853
 20
1.119679305842035
 30
0.0
 10
9.156729556811942
 20
1.086884953393294
 30
0.0
 10
9.133366753805926
 20
1.067374496594591
 30
0.0
 10
9.125418624138809
 20
1.041537113468487
 30
0.0
 10
9.104072443806678
 20
1.021697969439739
 30
0.0
 10
9.086477119434254
 20
0.9944325995127421
 30
0.0
 10
9.08227575482366
 20
0.9569831722858753
 30
0.0
 10
9.085359652638807
 20
0.9044286084941507
 30
0.0
 10
9.122207864957958
 20
0.8935873241379798
 30
0.0
 10
9.140537442976494
 20
0.8881944935250203
 30
0.0
 11
9.274750120805492
 21
1.131356281241323
 31
0.0
 11
9.186995803189972
 21
1.107690391741186
 31
0.0
 11
9.150861654946709
 21
1.081901688655932
 31
0.0
 11
9.135375633817659
 21
1.066428365915896
 31
0.0
 11
9.125051421847388
 21
1.045797268929277
 31
0.0
 11
9.104403294733231
 21
1.020008565844079
 31
0.0
 11
9.088917273604181
 21
0.9942196946107628
 31
0.0
 11
9.083755167619017
 21
0.9632732172788109
 31
0.0
 11
9.094079379589288
 21
0.9116954748122338
 31
0.0
 11
9.140537442976494
 21
0.8881944935250203
 31
0.0
  0
LINE
  5
10C7
102
{ACAD_REACTORS
330
10E1
102
}
330
109A
100
AcDbEntity
  8
ROGO
 62
     4
100
AcDbLine
 10
7.465432464168998
 20
1.484935992939711
 30
0.0
 11
7.849706463946802
 21
1.484935992939711
 31
0.0
  0
LINE
  5
10C8
330
109A
100
AcDbEntity
  8
ROGO
 62
     4
100
AcDbLine
 10
7.465432464169111
 20
1.484935992939711
 30
0.0
 11
7.734745873315546
 21
1.484935992939711
 31
0.0
  0
ARC
  5
10C9
102
{ACAD_REACTORS
330
10E1
102
}
330
109A
100
AcDbEntity
  8
ROGO
 62
     4
100
AcDbCircle
 10
7.69637869428368
 20
0.9474790028461939
 30
0.0
 40
0.0888850530907803
100
AcDbArc
 50
256.5902863289752
 51
337.7287536965499
  0
ARC
  5
10CA
102
{ACAD_REACTORS
330
10E1
102
}
330
109A
100
AcDbEntity
  8
ROGO
 62
     4
100
AcDbCircle
 10
7.647054026183525
 20
0.9614983755789694
 30
0.0
 40
0.0958388019806556
100
AcDbArc
 50
188.5583509056651
 51
266.5736774635929
  0
ARC
  5
10CB
102
{ACAD_REACTORS
330
10E1
102
}
330
109A
100
AcDbEntity
  8
ROGO
 62
     4
100
AcDbCircle
 10
7.660765915210504
 20
0.9978905261285717
 30
0.0
 40
0.1037824301982561
100
AcDbArc
 50
82.57970078354313
 51
157.4341870372611
  0
ARC
  5
10CC
102
{ACAD_REACTORS
330
10E1
102
}
330
109A
100
AcDbEntity
  8
ROGO
 62
     4
100
AcDbCircle
 10
7.691623277836299
 20
0.9975628894870851
 30
0.0
 40
0.0998820093152177
100
AcDbArc
 50
3.851923331663601
 51
80.20940670206341
  0
LINE
  5
10CD
102
{ACAD_REACTORS
330
10E1
102
}
330
109A
100
AcDbEntity
  8
ROGO
 62
     4
100
AcDbLine
 10
7.641326222715235
 20
0.8658308877238596
 30
0.0
 11
7.675765110943416
 21
0.8610172607585582
 31
0.0
  0
LINE
  5
10CE
102
{ACAD_REACTORS
330
10E1
102
}
330
109A
100
AcDbEntity
  8
ROGO
 62
     4
100
AcDbLine
 10
7.552282406598749
 20
0.9472359744360119
 30
0.0
 11
7.564929135047407
 21
1.037716452179495
 31
0.0
  0
LINE
  5
10CF
102
{ACAD_REACTORS
330
10E1
102
}
330
109A
100
AcDbEntity
  8
ROGO
 62
     4
100
AcDbLine
 10
7.791279653589811
 20
1.004272774473065
 30
0.0
 11
7.778632925141153
 21
0.9137922967295253
 31
0.0
  0
LINE
  5
10D0
102
{ACAD_REACTORS
330
10E1
102
}
330
109A
100
AcDbEntity
  8
ROGO
 62
     4
100
AcDbLine
 10
7.674169097026947
 20
1.100803827188428
 30
0.0
 11
7.708607985255127
 21
1.095990200223184
 31
0.0
  0
LINE
  5
10D1
102
{ACAD_REACTORS
330
10E0
102
}
330
109A
100
AcDbEntity
  8
ROGO
 62
     4
100
AcDbLine
 10
6.032071970508525
 20
1.484935992939767
 30
0.0
 11
6.983758243896545
 21
1.484935992939767
 31
0.0
  0
LINE
  5
10D2
102
{ACAD_REACTORS
330
10E0
102
}
330
109A
100
AcDbEntity
  8
ROGO
 62
     4
100
AcDbLine
 10
6.07853003389539
 20
0.8881944935250771
 30
0.0
 11
6.686203659332079
 21
0.8881944935250771
 31
0.0
  0
LINE
  5
10D3
102
{ACAD_REACTORS
330
10E0
102
}
330
109A
100
AcDbEntity
  8
ROGO
 62
     4
100
AcDbLine
 10
6.212742711724388
 20
1.13135628124138
 30
0.0
 11
6.807451980082134
 21
1.13135628124138
 31
0.0
  0
LINE
  5
10D4
102
{ACAD_REACTORS
330
10E0
102
}
330
109A
100
AcDbEntity
  8
ROGO
 62
     4
100
AcDbLine
 10
6.983758243896545
 20
1.484935992939711
 30
0.0
 11
6.807451980082134
 21
1.13135628124138
 31
0.0
  0
SPLINE
  5
10D5
102
{ACAD_REACTORS
330
10E0
102
}
330
109A
100
AcDbEntity
  8
ROGO
 62
     4
100
AcDbSpline
210
0.0
220
0.0
230
1.0
 70
     8
 71
     3
 72
    16
 73
    12
 74
    10
 42
0.0000000001
 43
0.0000000001
 44
0.0000000001
 40
0.0
 40
0.0
 40
0.0
 40
0.0
 40
0.0908894635587698
 40
0.1352824120537892
 40
0.1571739758861179
 40
0.1802441192684364
 40
0.2132804986121064
 40
0.2433617673669269
 40
0.2747358298621628
 40
0.3273367126566702
 40
0.3794005943324437
 40
0.3794005943324437
 40
0.3794005943324437
 40
0.3794005943324437
 10
6.212742711724388
 20
1.13135628124138
 30
0.0
 10
6.181963417384888
 20
1.126663770171392
 30
0.0
 10
6.136150657395735
 20
1.119679305842073
 30
0.0
 10
6.094722147730919
 20
1.086884953393267
 30
0.0
 10
6.071359344724846
 20
1.067374496594637
 30
0.0
 10
6.063411215057785
 20
1.041537113468491
 30
0.0
 10
6.042065034725641
 20
1.021697969439723
 30
0.0
 10
6.024469710353133
 20
0.9944325995127819
 30
0.0
 10
6.02026834574265
 20
0.9569831722858836
 30
0.0
 10
6.023352243557721
 20
0.9044286084941568
 30
0.0
 10
6.060200455876909
 20
0.8935873241380171
 30
0.0
 10
6.078530033895447
 20
0.8881944935250771
 30
0.0
 11
6.212742711724388
 21
1.13135628124138
 31
0.0
 11
6.124988394108868
 21
1.107690391741186
 31
0.0
 11
6.088854245865661
 21
1.081901688655932
 31
0.0
 11
6.073368224736611
 21
1.066428365915953
 31
0.0
 11
6.06304401276634
 21
1.045797268929277
 31
0.0
 11
6.042395885652183
 21
1.020008565844079
 31
0.0
 11
6.026909864523076
 21
0.9942196946107628
 31
0.0
 11
6.021747758537969
 21
0.9632732172788678
 31
0.0
 11
6.032071970508241
 21
0.9116954748122338
 31
0.0
 11
6.078530033895447
 21
0.8881944935250771
 31
0.0
  0
LINE
  5
10D6
102
{ACAD_REACTORS
330
10E4
102
}
330
109A
100
AcDbEntity
  8
ROGO
 62
     4
100
AcDbLine
 10
8.753385727444708
 20
0.5346185261392407
 30
0.0
 11
9.571906671633882
 21
0.5346185261392407
 31
0.0
  0
LINE
  5
10D7
102
{ACAD_REACTORS
330
10E1
102
}
330
109A
100
AcDbEntity
  8
ROGO
 62
     4
100
AcDbLine
 10
7.465432464168998
 20
0.5346185261392407
 30
0.0
 11
7.877322089673725
 21
0.5346185261392407
 31
0.0
  0
LINE
  5
10D8
330
109A
100
AcDbEntity
  8
ROGO
 62
     4
100
AcDbLine
 10
7.465432464169339
 20
0.5346185261392407
 30
0.0
 11
7.877322089673384
 21
0.5346185261392407
 31
0.0
  0
LINE
  5
10D9
102
{ACAD_REACTORS
330
10E0
102
}
330
109A
100
AcDbEntity
  8
ROGO
 62
     4
100
AcDbLine
 10
5.691378318363661
 20
0.5346185261392407
 30
0.0
 11
6.509899262552778
 21
0.5346185261392407
 31
0.0
  0
ARC
  5
10DA
102
{ACAD_REACTORS
330
10E1
102
}
330
109A
100
AcDbEntity
  8
ROGO
 62
     4
100
AcDbCircle
 10
7.849706463946802
 20
1.009376013213397
 30
0.0
 40
0.4755599797263065
100
AcDbArc
 50
273.3290215232082
 51
90.0000000000006
  0
ARC
  5
10DB
102
{ACAD_REACTORS
330
10E1
102
}
330
109A
100
AcDbEntity
  8
ROGO
 62
     4
100
AcDbCircle
 10
7.48496378237229
 20
1.009777259539475
 30
0.0
 40
0.4755599797263065
100
AcDbArc
 50
92.3538081120337
 51
270.0
  0
LINE
  5
10DC
102
{ACAD_REACTORS
330
10E4
102
}
330
109A
100
AcDbEntity
  8
ROGO
 62
     4
100
AcDbLine
 10
9.748211068413127
 20
0.8881944935250771
 30
0.0
 11
9.571906671633882
 21
0.5346185261391839
 31
0.0
  0
LINE
  5
10DD
102
{ACAD_REACTORS
330
10E0
102
}
330
109A
100
AcDbEntity
  8
ROGO
 62
     4
100
AcDbLine
 10
6.686203659332079
 20
0.8881944935250771
 30
0.0
 11
6.509899262552778
 21
0.5346185261392407
 31
0.0
  0
SPLINE
  5
10DE
102
{ACAD_REACTORS
330
10E0
102
}
330
109A
100
AcDbEntity
  8
ROGO
 62
     4
100
AcDbSpline
210
0.0
220
0.0
230
1.0
 70
     8
 71
     3
 72
    26
 73
    22
 74
    20
 42
0.0000000001
 43
0.0000000001
 44
0.0000000001
 40
0.0
 40
0.0
 40
0.0
 40
0.0
 40
0.172398475942452
 40
0.2878059064037132
 40
0.3710240621887256
 40
0.4331603664333846
 40
0.5137544142125073
 40
0.5725802121924657
 40
0.6788058922658211
 40
0.7652720686804854
 40
0.8240829233522674
 40
0.8817499774613789
 40
0.9849051260984648
 40
1.05784812826095
 40
1.097133570529095
 40
1.152937380796455
 40
1.193234564309741
 40
1.251611879021481
 40
1.284648389624348
 40
1.356539542406023
 40
1.389365667278791
 40
1.389365667278791
 40
1.389365667278791
 40
1.389365667278791
 10
6.032071970508241
 20
1.484935992939711
 30
0.0
 10
5.973557264069641
 20
1.481444905211402
 30
0.0
 10
5.875871492589096
 20
1.47561680457137
 30
0.0
 10
5.768613109753668
 20
1.410458488868562
 30
0.0
 10
5.690029339238584
 20
1.372578307494294
 30
0.0
 10
5.633983489410011
 20
1.321083428095256
 30
0.0
 10
5.592901654292559
 20
1.26789297930569
 30
0.0
 10
5.541110288827273
 20
1.204516949575323
 30
0.0
 10
5.49887591022997
 20
1.130718127534994
 30
0.0
 10
5.477368508803827
 20
1.049378960065351
 30
0.0
 10
5.458317456747558
 20
0.9845511716472696
 30
0.0
 10
5.444188877610419
 20
0.9123090616542125
 30
0.0
 10
5.447783588117866
 20
0.8342621694164586
 30
0.0
 10
5.452931378081073
 20
0.7617762114914332
 30
0.0
 10
5.475915008490222
 20
0.7100320901693001
 30
0.0
 10
5.502089292423582
 20
0.6731938414330762
 30
0.0
 10
5.534139344645077
 20
0.6326205945144422
 30
0.0
 10
5.569209110546427
 20
0.6057490644615085
 30
0.0
 10
5.598214669540071
 20
0.5570694820472437
 30
0.0
 10
5.648987922074967
 20
0.5508576162517939
 30
0.0
 10
5.681261421323124
 20
0.5384941493247972
 30
0.0
 10
5.691378318363717
 20
0.5346185261392407
 30
0.0
 11
6.032071970508241
 21
1.484935992939711
 31
0.0
 11
5.861725144435979
 21
1.458418199773859
 31
0.0
 11
5.75848450886508
 21
1.406840625455288
 31
0.0
 11
5.68621621237861
 21
1.365578599630055
 31
0.0
 11
5.639758148991347
 21
1.324316405656759
 31
0.0
 11
5.588137979619091
 21
1.262423282844906
 31
0.0
 11
5.552003831375827
 21
1.216003482773032
 31
0.0
 11
5.500383365177242
 21
1.123163714481165
 31
0.0
 11
5.47457342890425
 21
1.040639494682636
 31
0.0
 11
5.4590874077752
 21
0.9839041461174247
 31
0.0
 11
5.448763195804929
 21
0.9271687975522127
 31
0.0
 11
5.448763195804929
 21
0.8240136489151268
 31
0.0
 11
5.4590874077752
 21
0.7518049776098792
 31
0.0
 11
5.47457342890425
 21
0.7157005578832809
 31
0.0
 11
5.505545471162349
 21
0.6692807578113503
 31
0.0
 11
5.53135570426167
 21
0.6383341123313926
 31
0.0
 11
5.572651661663712
 21
0.5970720865061594
 31
0.0
 11
5.593299788777926
 21
0.5712832152728425
 31
0.0
 11
5.660406276105618
 21
0.5454945121876449
 31
0.0
 11
5.691378318363717
 21
0.5346185261392407
 31
0.0
  0
SPLINE
  5
10DF
102
{ACAD_REACTORS
330
10E4
102
}
330
109A
100
AcDbEntity
  8
ROGO
 62
     4
100
AcDbSpline
210
0.0
220
0.0
230
1.0
 70
     8
 71
     3
 72
    26
 73
    22
 74
    20
 42
0.0000000001
 43
0.0000000001
 44
0.0000000001
 40
0.0
 40
0.0
 40
0.0
 40
0.0
 40
0.1723984759424608
 40
0.2878059064036966
 40
0.3710240621887089
 40
0.4331603664333254
 40
0.5137544142124919
 40
0.5725802121924054
 40
0.6788058922657609
 40
0.7652720686804421
 40
0.824082923352279
 40
0.8817499774613345
 40
0.9849051260984204
 40
1.057848128260906
 40
1.097133570529051
 40
1.152937380796411
 40
1.193234564309733
 40
1.251611879021433
 40
1.284648389624335
 40
1.356539542405977
 40
1.389365667278781
 40
1.389365667278781
 40
1.389365667278781
 40
1.389365667278781
 10
9.094079379589288
 20
1.484935992939711
 30
0.0
 10
9.035564673150693
 20
1.481444905211369
 30
0.0
 10
8.937878901670169
 20
1.475616804571283
 30
0.0
 10
8.830620518834708
 20
1.410458488868567
 30
0.0
 10
8.752036748319635
 20
1.372578307494311
 30
0.0
 10
8.695990898491096
 20
1.321083428095232
 30
0.0
 10
8.654909063373702
 20
1.267892979305642
 30
0.0
 10
8.603117697908345
 20
1.204516949575328
 30
0.0
 10
8.560883319311107
 20
1.130718127534976
 30
0.0
 10
8.539375917884848
 20
1.049378960065346
 30
0.0
 10
8.520324865828625
 20
0.9845511716472456
 30
0.0
 10
8.506196286691453
 20
0.9123090616541963
 30
0.0
 10
8.509790997198916
 20
0.8342621694164582
 30
0.0
 10
8.514938787162119
 20
0.7617762114914318
 30
0.0
 10
8.537922417571271
 20
0.7100320901693033
 30
0.0
 10
8.56409670150462
 20
0.6731938414330492
 30
0.0
 10
8.596146753726191
 20
0.6326205945144875
 30
0.0
 10
8.631216519627461
 20
0.6057490644614584
 30
0.0
 10
8.660222078621195
 20
0.5570694820473007
 30
0.0
 10
8.710995331156015
 20
0.5508576162516721
 30
0.0
 10
8.743268830404206
 20
0.5384941493247713
 30
0.0
 10
8.753385727444822
 20
0.5346185261392407
 30
0.0
 11
9.094079379589288
 21
1.484935992939711
 31
0.0
 11
8.923732553517027
 21
1.458418199773802
 31
0.0
 11
8.820491917946128
 21
1.406840625455288
 31
0.0
 11
8.748223621459658
 21
1.365578599630055
 31
0.0
 11
8.701765558072452
 21
1.324316405656759
 31
0.0
 11
8.650145388700195
 21
1.262423282844849
 31
0.0
 11
8.614011240456932
 21
1.216003482773032
 31
0.0
 11
8.562390774258346
 21
1.123163714481165
 31
0.0
 11
8.536580837985297
 21
1.040639494682636
 31
0.0
 11
8.521094816856248
 21
0.9839041461173678
 31
0.0
 11
8.510770604885976
 21
0.9271687975522127
 31
0.0
 11
8.510770604885976
 21
0.8240136489151268
 31
0.0
 11
8.521094816856248
 21
0.7518049776098792
 31
0.0
 11
8.536580837985297
 21
0.7157005578832809
 31
0.0
 11
8.567552880243397
 21
0.6692807578113503
 31
0.0
 11
8.593363113342775
 21
0.6383341123313926
 31
0.0
 11
8.63465907074476
 21
0.5970720865061594
 31
0.0
 11
8.655307197859031
 21
0.5712832152728425
 31
0.0
 11
8.722413685186666
 21
0.5454945121875881
 31
0.0
 11
8.753385727444822
 21
0.5346185261392407
 31
0.0
  0
HATCH
  5
10E0
330
109A
100
AcDbEntity
  8
ROGO
 62
     4
100
AcDbHatch
 10
0.0
 20
0.0
 30
0.0
210
0.0
220
0.0
230
1.0
  2
SOLID
 70
     1
 71
     1
 91
        1
 92
        5
 93
        8
 72
     1
 10
6.983758243896545
 20
1.484935992939597
 11
6.032071970508411
 21
1.484935992939597
 72
     4
 94
        3
 73
     0
 74
     0
 95
       26
 96
       22
 40
0.0
 40
0.0
 40
0.0
 40
0.0
 40
0.7089867102952115
 40
1.183598414482279
 40
1.525832104103439
 40
1.781366926528389
 40
2.112809002752968
 40
2.354729406992515
 40
2.791581270399936
 40
3.147172406765291
 40
3.389031356825354
 40
3.626186440486682
 40
4.050410779375985
 40
4.350388020238963
 40
4.511948940797758
 40
4.741441456013356
 40
4.907163150576407
 40
5.147239172635527
 40
5.28310143501293
 40
5.578752957634333
 40
5.713750011164293
 40
5.713750011164293
 40
5.713750011164293
 40
5.713750011164293
 10
6.032071970508241
 20
1.484935992939597
 10
5.973557264069597
 20
1.481444905211276
 10
5.875871492589055
 20
1.475616804571245
 10
5.768613109753687
 20
1.410458488868414
 10
5.690029339238549
 20
1.372578307494222
 10
5.633983489410013
 20
1.321083428095107
 10
5.592901654292575
 20
1.267892979305543
 10
5.541110288827269
 20
1.204516949575179
 10
5.498875910230026
 20
1.130718127534862
 10
5.477368508803749
 20
1.049378960065212
 10
5.458317456747579
 20
0.9845511716471264
 10
5.444188877610429
 20
0.9123090616540707
 10
5.447783588117886
 20
0.8342621694163199
 10
5.452931378081132
 20
0.7617762114913376
 10
5.475915008490176
 20
0.710032090169193
 10
5.50208929242359
 20
0.6731938414329762
 10
5.534139344645041
 20
0.6326205945143215
 10
5.56920911054641
 20
0.6057490644614063
 10
5.598214669540084
 20
0.5570694820471545
 10
5.648987922074923
 20
0.5508576162516193
 10
5.681261421323085
 20
0.5384941493246629
 10
5.691378318363717
 20
0.534618526139127
 72
     1
 10
5.691378318363661
 20
0.534618526139127
 11
6.509899262552835
 21
0.534618526139127
 72
     1
 10
6.509899262552778
 20
0.534618526139127
 11
6.686203659332079
 21
0.8881944935249634
 72
     1
 10
6.686203659332079
 20
0.8881944935249634
 11
6.078530033895333
 21
0.8881944935249634
 72
     4
 94
        3
 73
     0
 74
     0
 95
       16
 96
       12
 40
0.0
 40
0.0
 40
0.0
 40
0.0
 40
0.2141121027475241
 40
0.4304326162973471
 40
0.5594580803306056
 40
0.6831669452691567
 40
0.8190286678446897
 40
0.9139043619204622
 40
1.003933161420314
 40
1.186498641432482
 40
1.560280494298353
 40
1.560280494298353
 40
1.560280494298353
 40
1.560280494298353
 10
6.078530033895447
 20
0.8881944935249634
 10
6.060200455876895
 20
0.8935873241379113
 10
6.023352243557667
 20
0.9044286084940154
 10
6.020268345742636
 20
0.9569831722857884
 10
6.024469710353116
 20
0.9944325995126064
 10
6.042065034725681
 20
1.021697969439628
 10
6.063411215057783
 20
1.041537113468336
 10
6.071359344724839
 20
1.067374496594538
 10
6.094722147730863
 20
1.086884953393166
 10
6.136150657395774
 20
1.119679305841884
 10
6.181963417384906
 20
1.126663770171262
 10
6.212742711724388
 20
1.131356281241266
 72
     1
 10
6.212742711724388
 20
1.131356281241266
 11
6.807451980082078
 21
1.131356281241266
 72
     1
 10
6.807451980082134
 20
1.131356281241266
 11
6.983758243896602
 21
1.484935992939597
 97
        8
330
10D1
330
10DE
330
10D9
330
10DD
330
10D2
330
10D5
330
10D3
330
10D4
 75
     0
 76
     1
 47
0.0514683685270805
 98
        1
 10
6.364911895882585
 20
1.273384183674238
450
        0
451
        0
460
0.0
461
0.0
452
        0
462
0.0
453
        0
470

  0
HATCH
  5
10E1
330
109A
100
AcDbEntity
  8
ROGO
 62
     4
100
AcDbHatch
 10
0.0
 20
0.0
 30
0.0
210
0.0
220
0.0
230
1.0
  2
SOLID
 70
     1
 71
     1
 91
        2
 92
        7
 72
     1
 73
     1
 93
        4
 10
7.849706463946802
 20
1.484935992939597
 42
0.0
 10
7.465432464168998
 20
1.484935992939597
 42
0.9597396185052668
 10
7.465432464168941
 20
0.534618526139127
 42
0.0
 10
7.877322089673668
 20
0.534618526139127
 42
0.9713627655772736
 97
        4
330
10C7
330
10DB
330
10D7
330
10DA
 92
       22
 72
     1
 73
     1
 93
        8
 10
7.791279653589811
 20
1.004272774472838
 42
0.0
 10
7.778632925141153
 20
0.9137922967292411
 42
-0.3696060376523694
 10
7.675765110943643
 20
0.8610172607583876
 42
0.0
 10
7.641326222715747
 20
0.8658308877236891
 42
-0.3541938351274232
 10
7.552282406598749
 20
0.9472359744358982
 42
0.0
 10
7.564929135047407
 20
1.037716452179495
 42
-0.3439742752229287
 10
7.676094128137322
 20
1.100534759801462
 42
0.0
 10
7.708607985255127
 20
1.09599020022307
 42
-0.3460733018205655
 97
        8
330
10CF
330
10C9
330
10CD
330
10CA
330
10CE
330
10CB
330
10D0
330
10CC
 75
     0
 76
     1
 47
0.0514683685270805
 98
        2
 10
7.943122727903357
 20
1.098172201449415
 10
7.943122727903357
 20
1.098172201449415
450
        0
451
        0
460
0.0
461
0.0
452
        0
462
0.0
453
        0
470

  0
LINE
  5
10E2
102
{ACAD_REACTORS
330
10E4
102
}
330
109A
100
AcDbEntity
  8
ROGO
 62
     4
100
AcDbLine
 10
10.04576565297765
 20
1.484935992939711
 30
0.0
 11
9.869459389163182
 21
1.13135628124138
 31
0.0
  0
LINE
  5
10E3
102
{ACAD_REACTORS
330
10E4
102
}
330
109A
100
AcDbEntity
  8
ROGO
 62
     4
100
AcDbLine
 10
9.094079379589572
 20
1.484935992939711
 30
0.0
 11
10.04576565297765
 21
1.484935992939711
 31
0.0
  0
HATCH
  5
10E4
330
109A
100
AcDbEntity
  8
ROGO
 62
     4
100
AcDbHatch
 10
0.0
 20
0.0
 30
0.0
210
0.0
220
0.0
230
1.0
  2
SOLID
 70
     1
 71
     1
 91
        1
 92
        5
 93
        8
 72
     1
 10
10.04576565297765
 20
1.484935992939597
 11
9.094079379589459
 21
1.484935992939597
 72
     4
 94
        3
 73
     0
 74
     0
 95
       26
 96
       22
 40
0.0
 40
0.0
 40
0.0
 40
0.0
 40
0.7089867102952115
 40
1.183598414482279
 40
1.525832104103439
 40
1.781366926528389
 40
2.112809002752968
 40
2.354729406992515
 40
2.791581270399936
 40
3.147172406765291
 40
3.389031356825354
 40
3.626186440486682
 40
4.050410779375985
 40
4.350388020238963
 40
4.511948940797758
 40
4.741441456013356
 40
4.907163150576407
 40
5.147239172635527
 40
5.28310143501293
 40
5.578752957634333
 40
5.713750011164293
 40
5.713750011164293
 40
5.713750011164293
 40
5.713750011164293
 10
9.094079379589288
 20
1.484935992939597
 10
9.035564673150702
 20
1.481444905211276
 10
8.93787890167016
 20
1.475616804571245
 10
8.830620518834734
 20
1.410458488868414
 10
8.752036748319653
 20
1.372578307494222
 10
8.695990898491118
 20
1.321083428095107
 10
8.654909063373622
 20
1.267892979305543
 10
8.603117697908373
 20
1.204516949575179
 10
8.560883319311074
 20
1.130718127534805
 10
8.539375917884854
 20
1.049378960065212
 10
8.520324865828627
 20
0.9845511716471264
 10
8.506196286691476
 20
0.9123090616540707
 10
8.509790997198933
 20
0.8342621694163199
 10
8.514938787162179
 20
0.7617762114913376
 10
8.537922417571223
 20
0.710032090169193
 10
8.564096701504638
 20
0.6731938414329762
 10
8.596146753726145
 20
0.6326205945143215
 10
8.631216519627514
 20
0.6057490644614063
 10
8.660222078621131
 20
0.5570694820471545
 10
8.710995331156027
 20
0.5508576162516193
 10
8.74326883040419
 20
0.5384941493246629
 10
8.753385727444822
 20
0.534618526139127
 72
     1
 10
8.753385727444708
 20
0.534618526139127
 11
9.571906671633882
 21
0.534618526139127
 72
     1
 10
9.571906671633882
 20
0.534618526139127
 11
9.748211068413127
 21
0.8881944935249634
 72
     1
 10
9.748211068413183
 20
0.8881944935249066
 11
9.140537442976494
 21
0.8881944935249066
 72
     4
 94
        3
 73
     0
 74
     0
 95
       16
 96
       12
 40
0.0
 40
0.0
 40
0.0
 40
0.0
 40
0.2141121027475241
 40
0.4304326162973471
 40
0.5594580803306056
 40
0.6831669452691567
 40
0.8190286678446897
 40
0.9139043619204622
 40
1.003933161420314
 40
1.186498641432482
 40
1.560280494298353
 40
1.560280494298353
 40
1.560280494298353
 40
1.560280494298353
 10
9.140537442976494
 20
0.8881944935249066
 10
9.122207864957999
 20
0.8935873241378544
 10
9.085359652638771
 20
0.9044286084939585
 10
9.082275754823683
 20
0.9569831722857315
 10
9.086477119434221
 20
0.9944325995126064
 10
9.104072443806728
 20
1.021697969439628
 10
9.125418624138831
 20
1.041537113468336
 10
9.133366753805887
 20
1.067374496594482
 10
9.156729556811967
 20
1.086884953393166
 10
9.198158066476821
 20
1.119679305841884
 10
9.243970826466011
 20
1.126663770171262
 10
9.274750120805492
 20
1.13135628124121
 72
     1
 10
9.274750120805435
 20
1.131356281241266
 11
9.869459389163182
 21
1.131356281241266
 72
     1
 10
9.869459389163182
 20
1.131356281241266
 11
10.04576565297765
 21
1.484935992939597
 97
        8
330
10E3
330
10DF
330
10D6
330
10DC
330
10C5
330
10C6
330
10C4
330
10E2
 75
     0
 76
     1
 47
0.0514683685270805
 98
        1
 10
9.258298569667147
 20
1.310929632457884
450
        0
451
        0
460
0.0
461
0.0
452
        0
462
0.0
453
        0
470

  0
LINE
  5
10E5
102
{ACAD_REACTORS
330
10C3
102
}
330
109A
100
AcDbEntity
  8
ROGO
 62
     4
100
AcDbLine
 10
10.71113559568613
 20
1.322811193596351
 30
0.0
 11
10.96733337591359
 21
1.484935992939711
 31
0.0
  0
LINE
  5
10E6
102
{ACAD_REACTORS
330
10C3
102
}
330
109A
100
AcDbEntity
  8
ROGO
 62
     4
100
AcDbLine
 10
10.79197625678233
 20
1.484935992939711
 30
0.0
 11
10.71113559568613
 21
1.322811193596351
 31
0.0
  0
LINE
  5
10E7
102
{ACAD_REACTORS
330
10C3
102
}
330
109A
100
AcDbEntity
  8
ROGO
 62
     4
100
AcDbLine
 10
10.24480163032234
 20
1.484935992939711
 30
0.0
 11
10.79197625678233
 21
1.484935992939711
 31
0.0
  0
LINE
  5
10E8
102
{ACAD_REACTORS
330
10C3
102
}
330
109A
100
AcDbEntity
  8
ROGO
 62
     4
100
AcDbLine
 10
10.96733337591359
 20
1.484935992939711
 30
0.0
 11
11.51449603063281
 21
1.484935992939711
 31
0.0
  0
LINE
  5
10E9
102
{ACAD_REACTORS
330
10C3
102
}
330
109A
100
AcDbEntity
  8
ROGO
 62
     4
100
AcDbLine
 10
10.61500819586206
 20
0.7424679668758359
 30
0.0
 11
11.51449603063281
 21
1.484935992939711
 31
0.0
  0
LINE
  5
10EA
102
{ACAD_REACTORS
330
10C3
102
}
330
109A
100
AcDbEntity
  8
ROGO
 62
     4
100
AcDbLine
 10
10.43806407842322
 20
-0.0000000591879825
 30
0.0
 11
10.98522673314249
 21
-0.0000000591879825
 31
0.0
  0
LINE
  5
10EB
102
{ACAD_REACTORS
330
10C3
102
}
330
109A
100
AcDbEntity
  8
ROGO
 62
     4
100
AcDbLine
 10
10.24480163032234
 20
0.3875850396236728
 30
0.0
 11
10.43806407842322
 21
-0.0000000591879825
 31
0.0
  0
LINE
  5
10EC
102
{ACAD_REACTORS
330
10C3
102
}
330
109A
100
AcDbEntity
  8
ROGO
 62
     4
100
AcDbLine
 10
10.61500819586206
 20
0.7424679668758359
 30
0.0
 11
10.98522673314249
 21
-0.0000000591879825
 31
0.0
  0
ENDBLK
  5
10EE
330
109A
100
AcDbEntity
  8
0
100
AcDbBlockEnd
  0
ENDSEC
  0
SECTION
  2
ENTITIES
  0
LWPOLYLINE
  5
26C
330
18
100
AcDbEntity
  8
C
100
AcDbPolyline
 90
        5
 70
     0
 43
0.4
 10
0.0
 20
197.7274940416472
 10
255.0
 20
197.7274940416472
 10
255.0
 20
0.0
 10
0.0
 20
0.0
 10
0.0
 20
197.7274940416472
  0
LINE
  5
E55
330
18
100
AcDbEntity
  8
中心線
100
AcDbLine
 10
207.3056822227729
 20
97.02463636186758
 30
0.0
 11
50.07154513184343
 21
97.02463636186761
 31
0.0
  0
LINE
  5
E56
330
18
100
AcDbEntity
  8
外形線
100
AcDbLine
 10
165.6144984803871
 20
88.02463636186756
 30
0.0
 11
165.6144984803871
 21
106.0246363618676
 31
0.0
  0
LINE
  5
E57
330
18
100
AcDbEntity
  8
外形線
100
AcDbLine
 10
165.6144984803871
 20
88.02463636186756
 30
0.0
 11
95.31449848038722
 21
88.02463636186759
 31
0.0
  0
LINE
  5
E58
330
18
100
AcDbEntity
  8
外形線
100
AcDbLine
 10
165.6144984803871
 20
106.0246363618676
 30
0.0
 11
95.31449848038718
 21
106.0246363618676
 31
0.0
  0
LINE
  5
E59
330
18
100
AcDbEntity
  8
外形線
100
AcDbLine
 10
167.8144984803871
 20
92.52463636186758
 30
0.0
 11
167.8144984803871
 21
101.5246363618676
 31
0.0
  0
LINE
  5
E5C
330
18
100
AcDbEntity
  8
外形線
100
AcDbLine
 10
167.8144984803871
 20
92.52463636186758
 30
0.0
 11
165.6144984803871
 21
88.02463636186756
 31
0.0
  0
LINE
  5
E5D
330
18
100
AcDbEntity
  8
外形線
100
AcDbLine
 10
167.8144984803871
 20
101.5246363618676
 30
0.0
 11
165.6144984803871
 21
106.0246363618676
 31
0.0
  0
LINE
  5
E5E
330
18
100
AcDbEntity
  8
外形線
100
AcDbLine
 10
184.8144984803871
 20
94.52463636186754
 30
0.0
 11
184.8144984803871
 21
99.52463636186758
 31
0.0
  0
LINE
  5
E64
330
18
100
AcDbEntity
  8
外形線
100
AcDbLine
 10
184.8144984803871
 20
94.52463636186758
 30
0.0
 11
167.8144984803871
 21
94.15507114447628
 31
0.0
  0
LINE
  5
E65
330
18
100
AcDbEntity
  8
外形線
100
AcDbLine
 10
184.8144984803871
 20
99.52463636186758
 30
0.0
 11
167.8144984803871
 21
99.89420157925891
 31
0.0
  0
LINE
  5
E66
330
18
100
AcDbEntity
  8
想像線
 48
0.3
100
AcDbLine
 10
202.6166333622634
 20
92.23737428109172
 30
0.0
 11
204.6993870548765
 21
102.8352007556122
 31
0.0
  0
LINE
  5
E67
330
18
100
AcDbEntity
  8
外形線
100
AcDbLine
 10
203.2626674574417
 20
95.52463636186757
 30
0.0
 11
184.8144984803871
 21
95.52463636186761
 31
0.0
  0
LINE
  5
E68
330
18
100
AcDbEntity
  8
外形線
100
AcDbLine
 10
203.8522469427127
 20
98.52463636186758
 30
0.0
 11
184.8144984803871
 21
98.52463636186758
 31
0.0
  0
LINE
  5
E69
330
18
100
AcDbEntity
  8
外形線
100
AcDbLine
 10
93.31449848038719
 20
92.52463636186758
 30
0.0
 11
93.31449848038719
 21
101.5246363618675
 31
0.0
  0
LINE
  5
E6C
330
18
100
AcDbEntity
  8
外形線
100
AcDbLine
 10
94.31449848038722
 20
89.02463636186759
 30
0.0
 11
94.31449848038718
 21
105.0246363618676
 31
0.0
  0
LINE
  5
E6D
330
18
100
AcDbEntity
  8
外形線
100
AcDbLine
 10
95.31449848038718
 20
88.02463636186759
 30
0.0
 11
95.31449848038716
 21
106.0246363618676
 31
0.0
  0
LINE
  5
E6E
330
18
100
AcDbEntity
  8
外形線
100
AcDbLine
 10
94.31449848038718
 20
92.02463636186761
 30
0.0
 11
93.81449848038721
 21
92.02463636186759
 31
0.0
  0
LINE
  5
E6F
330
18
100
AcDbEntity
  8
外形線
100
AcDbLine
 10
94.31449848038718
 20
102.0246363618675
 30
0.0
 11
93.81449848038718
 21
102.0246363618675
 31
0.0
  0
ARC
  5
E70
330
18
100
AcDbEntity
  8
外形線
100
AcDbCircle
 10
93.81449848038716
 20
92.5246363618676
 30
0.0
 40
0.5
100
AcDbArc
 50
180.0
 51
270.0000000000017
  0
ARC
  5
E71
330
18
100
AcDbEntity
  8
外形線
100
AcDbCircle
 10
93.81449848038716
 20
101.5246363618675
 30
0.0
 40
0.5
100
AcDbArc
 50
89.9999999999992
 51
180.0
  0
LINE
  5
E72
330
18
100
AcDbEntity
  8
外形線
100
AcDbLine
 10
95.31449848038722
 20
88.02463636186759
 30
0.0
 11
94.31449848038722
 21
89.02463636186759
 31
0.0
  0
LINE
  5
E73
330
18
100
AcDbEntity
  8
外形線
100
AcDbLine
 10
94.31449848038718
 20
105.0246363618676
 30
0.0
 11
95.31449848038718
 21
106.0246363618676
 31
0.0
  0
LINE
  5
E74
330
18
100
AcDbEntity
  8
外形線
100
AcDbLine
 10
96.3144984803872
 20
88.02463636186759
 30
0.0
 11
96.31449848038716
 21
106.0246363618676
 31
0.0
  0
ARC
  5
E75
330
18
100
AcDbEntity
  8
外形線
100
AcDbCircle
 10
74.65068874512536
 20
100.7246363618678
 30
0.0
 40
0.7
100
AcDbArc
 50
220.0052008848602
 51
341.4956607735114
  0
LINE
  5
E76
330
18
100
AcDbEntity
  8
外形線
 48
0.5
100
AcDbLine
 10
75.31449848038727
 20
100.5246363618675
 30
0.0
 11
73.31449848038727
 21
100.5246363618674
 31
0.0
  0
ARC
  5
E77
330
18
100
AcDbEntity
  8
外形線
100
AcDbCircle
 10
74.65068874512536
 20
93.3246363618675
 30
0.0
 40
0.7
100
AcDbArc
 50
18.50433922648862
 51
139.9947991151398
  0
LINE
  5
E78
330
18
100
AcDbEntity
  8
外形線
 48
0.5
100
AcDbLine
 10
75.31449848038715
 20
93.52463636186753
 30
0.0
 11
73.3144984803871
 21
93.52463636186753
 31
0.0
  0
LINE
  5
E79
330
18
100
AcDbEntity
  8
外形線
 48
0.5
100
AcDbLine
 10
62.2044984803874
 20
94.12463636186767
 30
0.0
 11
60.65940678000933
 21
94.12463636186762
 31
0.0
  0
LINE
  5
E7A
330
18
100
AcDbEntity
  8
外形線
100
AcDbLine
 10
62.35940678000924
 20
94.82463636186761
 30
0.0
 11
61.85940678000924
 21
94.82463636186761
 31
0.0
  0
LINE
  5
E7B
330
18
100
AcDbEntity
  8
外形線
 48
0.5
100
AcDbLine
 10
62.37449848038733
 20
99.92463636186757
 30
0.0
 11
60.65940678000933
 21
99.92463636186757
 31
0.0
  0
LINE
  5
E7C
330
18
100
AcDbEntity
  8
外形線
100
AcDbLine
 10
62.35940678000924
 20
99.22463636186764
 30
0.0
 11
61.85940678000924
 21
99.22463636186764
 31
0.0
  0
LINE
  5
E7D
330
18
100
AcDbEntity
  8
中心線
100
AcDbLine
 10
58.85940678000932
 20
97.4605887583435
 30
0.0
 11
59.75940678000924
 21
97.98020400061417
 31
0.0
  0
LINE
  5
E7E
330
18
100
AcDbEntity
  8
中心線
100
AcDbLine
 10
58.85940678000932
 20
97.95246798352328
 30
0.0
 11
59.75940678000924
 21
97.43285274125266
 31
0.0
  0
ARC
  5
E7F
330
18
100
AcDbEntity
  8
外形線
100
AcDbCircle
 10
54.50940678000922
 20
97.02463636186761
 30
0.0
 40
1.149999999999999
100
AcDbArc
 50
97.494717453927
 51
262.5052825460745
  0
LINE
  5
E80
330
18
100
AcDbEntity
  8
外形線
100
AcDbLine
 10
54.35940678000924
 20
98.32463636186757
 30
0.0
 11
54.35940678000926
 21
95.72463636186766
 31
0.0
  0
LINE
  5
E81
330
18
100
AcDbEntity
  8
外形線
100
AcDbLine
 10
58.85940678000927
 20
99.52463636186765
 30
0.0
 11
58.85940678000927
 21
94.52463636186754
 31
0.0
  0
LINE
  5
E82
330
18
100
AcDbEntity
  8
外形線
100
AcDbLine
 10
61.85940678000926
 20
99.52463636186765
 30
0.0
 11
61.85940678000926
 21
94.52463636186754
 31
0.0
  0
LINE
  5
E83
330
18
100
AcDbEntity
  8
外形線
100
AcDbLine
 10
60.95940678000926
 20
99.52463636186765
 30
0.0
 11
60.95940678000926
 21
94.52463636186754
 31
0.0
  0
LINE
  5
E84
330
18
100
AcDbEntity
  8
外形線
100
AcDbLine
 10
59.75940678000927
 20
99.52463636186765
 30
0.0
 11
59.75940678000927
 21
94.52463636186754
 31
0.0
  0
LINE
  5
E85
330
18
100
AcDbEntity
  8
外形線
100
AcDbLine
 10
60.65940678000933
 20
99.92463636186757
 30
0.0
 11
60.65940678000933
 21
94.12463636186762
 31
0.0
  0
LINE
  5
E86
330
18
100
AcDbEntity
  8
中心線
100
AcDbLine
 10
60.95940678000937
 20
97.95246798352339
 30
0.0
 11
61.85940678000929
 21
97.43285274125277
 31
0.0
  0
LINE
  5
E87
330
18
100
AcDbEntity
  8
中心線
100
AcDbLine
 10
60.95940678000937
 20
97.46058875834361
 30
0.0
 11
61.85940678000929
 21
97.98020400061428
 31
0.0
  0
LINE
  5
E88
330
18
100
AcDbEntity
  8
外形線
100
AcDbLine
 10
58.85940678000927
 20
99.52463636186765
 30
0.0
 11
54.35940678000926
 21
98.32463636186757
 31
0.0
  0
LINE
  5
E89
330
18
100
AcDbEntity
  8
外形線
100
AcDbLine
 10
59.75940678000927
 20
99.52463636186765
 30
0.0
 11
58.85940678000927
 21
99.52463636186765
 31
0.0
  0
LINE
  5
E8A
330
18
100
AcDbEntity
  8
中心線
100
AcDbLine
 10
58.85940678000927
 20
98.52981825271292
 30
0.0
 11
59.75940678000924
 21
98.01020301044232
 31
0.0
  0
LINE
  5
E8B
330
18
100
AcDbEntity
  8
中心線
100
AcDbLine
 10
58.85940678000929
 20
98.61528929672267
 30
0.0
 11
59.75940678000924
 21
99.1349045389933
 31
0.0
  0
LINE
  5
E8C
330
18
100
AcDbEntity
  8
中心線
100
AcDbLine
 10
58.85940678000929
 20
99.10716852190253
 30
0.0
 11
59.75940678000924
 21
98.58755327963191
 31
0.0
  0
LINE
  5
E8D
330
18
100
AcDbEntity
  8
中心線
100
AcDbLine
 10
58.85940678000932
 20
98.03793902753309
 30
0.0
 11
59.75940678000924
 21
98.55755426980371
 31
0.0
  0
LINE
  5
E8E
330
18
100
AcDbEntity
  8
中心線
100
AcDbLine
 10
58.85940678000927
 20
99.19263956591223
 30
0.0
 11
59.43444209855397
 21
99.52463636186759
 31
0.0
  0
LINE
  5
E8F
330
18
100
AcDbEntity
  8
外形線
100
AcDbLine
 10
61.85940678000926
 20
99.52463636186765
 30
0.0
 11
60.95940678000928
 21
99.52463636186765
 31
0.0
  0
ARC
  5
E90
330
18
100
AcDbEntity
  8
外形線
100
AcDbCircle
 10
60.35940678000918
 20
99.88519148941399
 30
0.0
 40
0.7
100
AcDbArc
 50
211.0027191338767
 51
328.9972808661326
  0
LINE
  5
E91
330
18
100
AcDbEntity
  8
中心線
100
AcDbLine
 10
59.13633127066376
 20
99.52463636186759
 30
0.0
 11
59.75940678000924
 21
99.16490354882157
 31
0.0
  0
LINE
  5
E92
330
18
100
AcDbEntity
  8
中心線
100
AcDbLine
 10
60.95940678000932
 20
99.19263956591233
 30
0.0
 11
61.53444209855402
 21
99.5246363618677
 31
0.0
  0
LINE
  5
E93
330
18
100
AcDbEntity
  8
中心線
100
AcDbLine
 10
60.95940678000935
 20
99.10716852190263
 30
0.0
 11
61.85940678000929
 21
98.58755327963201
 31
0.0
  0
LINE
  5
E94
330
18
100
AcDbEntity
  8
中心線
100
AcDbLine
 10
60.95940678000932
 20
98.52981825271305
 30
0.0
 11
61.85940678000929
 21
98.01020301044243
 31
0.0
  0
LINE
  5
E95
330
18
100
AcDbEntity
  8
中心線
100
AcDbLine
 10
60.95940678000937
 20
98.03793902753319
 30
0.0
 11
61.85940678000929
 21
98.55755426980381
 31
0.0
  0
LINE
  5
E96
330
18
100
AcDbEntity
  8
中心線
100
AcDbLine
 10
60.95940678000935
 20
98.6152892967228
 30
0.0
 11
61.85940678000929
 21
99.13490453899342
 31
0.0
  0
LINE
  5
E97
330
18
100
AcDbEntity
  8
中心線
100
AcDbLine
 10
61.23633127066381
 20
99.5246363618677
 30
0.0
 11
61.85940678000929
 21
99.16490354882167
 31
0.0
  0
LINE
  5
E98
330
18
100
AcDbEntity
  8
外形線
100
AcDbLine
 10
58.85940678000927
 20
94.52463636186754
 30
0.0
 11
54.35940678000926
 21
95.72463636186766
 31
0.0
  0
POINT
  5
E99
330
18
100
AcDbEntity
  8
DEFPOINTS
  6
ByBlock
 62
     0
100
AcDbPoint
 10
53.35940678000923
 20
97.02463636186761
 30
0.0
  0
LINE
  5
E9A
330
18
100
AcDbEntity
  8
外形線
100
AcDbLine
 10
59.75940678000927
 20
94.52463636186754
 30
0.0
 11
58.85940678000927
 21
94.52463636186754
 31
0.0
  0
LINE
  5
E9B
330
18
100
AcDbEntity
  8
中心線
100
AcDbLine
 10
58.85940678000924
 20
97.3751177143338
 30
0.0
 11
59.4664582895862
 21
97.02463636186759
 31
0.0
  0
LINE
  5
E9C
330
18
100
AcDbEntity
  8
中心線
100
AcDbLine
 10
59.10431507963142
 20
97.02463636186759
 30
0.0
 11
59.75940678000924
 21
97.40285373142457
 31
0.0
  0
LINE
  5
E9D
330
18
100
AcDbEntity
  8
中心線
100
AcDbLine
 10
60.95940678000928
 20
97.37511771433391
 30
0.0
 11
61.56645828958625
 21
97.0246363618677
 31
0.0
  0
LINE
  5
E9E
330
18
100
AcDbEntity
  8
中心線
100
AcDbLine
 10
61.20431507963147
 20
97.0246363618677
 30
0.0
 11
61.85940678000929
 21
97.40285373142469
 31
0.0
  0
LINE
  5
E9F
330
18
100
AcDbEntity
  8
外形線
100
AcDbLine
 10
61.85940678000926
 20
94.52463636186754
 30
0.0
 11
60.95940678000928
 21
94.52463636186754
 31
0.0
  0
ARC
  5
EA0
330
18
100
AcDbEntity
  8
外形線
100
AcDbCircle
 10
60.35940678000918
 20
94.16408123432123
 30
0.0
 40
0.7
100
AcDbArc
 50
31.00271913386748
 51
148.9972808661232
  0
LINE
  5
EA1
330
18
100
AcDbEntity
  8
外形線
100
AcDbLine
 10
62.35940678000924
 20
99.22463636186764
 30
0.0
 11
62.35940678000924
 21
94.82463636186761
 31
0.0
  0
LINE
  5
EA2
330
18
100
AcDbEntity
  8
外形線
100
AcDbLine
 10
74.11449848038717
 20
100.2746363618676
 30
0.0
 11
74.11449848038722
 21
93.77463636186753
 31
0.0
  0
LINE
  5
EA3
330
18
100
AcDbEntity
  8
外形線
100
AcDbLine
 10
73.31449848038715
 20
100.0746363618676
 30
0.0
 11
73.31449848038722
 21
93.97463636186758
 31
0.0
  0
LINE
  5
EA4
330
18
100
AcDbEntity
  8
外形線
100
AcDbLine
 10
73.31449848038719
 20
99.02463636186759
 30
0.0
 11
62.35940678000924
 21
99.02463636186759
 31
0.0
  0
LINE
  5
EA5
330
18
100
AcDbEntity
  8
外形線
100
AcDbLine
 10
68.48449848038723
 20
100.5246363618673
 30
0.0
 11
69.28949848038723
 21
99.50295031495741
 31
0.0
  0
LINE
  5
EA6
330
18
100
AcDbEntity
  8
外形線
100
AcDbLine
 10
73.31449848038722
 20
99.02463636186759
 30
0.0
 11
67.31449848038721
 21
99.02463636186759
 31
0.0
  0
LINE
  5
EA7
330
18
100
AcDbEntity
  8
外形線
100
AcDbLine
 10
65.2644984803872
 20
100.5246363618673
 30
0.0
 11
66.06949848038721
 21
99.50295031495741
 31
0.0
  0
LINE
  5
EA8
330
18
100
AcDbEntity
  8
外形線
100
AcDbLine
 10
62.94796480543721
 20
99.62792133408063
 30
0.0
 11
63.7037316429122
 21
100.5871218714289
 31
0.0
  0
LINE
  5
EA9
330
18
100
AcDbEntity
  8
外形線
100
AcDbLine
 10
62.37449848038735
 20
99.92463636186759
 30
0.0
 11
62.94796480543721
 21
99.62792133408063
 31
0.0
  0
LINE
  5
EAA
330
18
100
AcDbEntity
  8
外形線
100
AcDbLine
 10
66.87449848038721
 20
100.5246363618673
 30
0.0
 11
67.67949848038722
 21
99.50295031495741
 31
0.0
  0
LINE
  5
EAB
330
18
100
AcDbEntity
  8
外形線
100
AcDbLine
 10
67.67949848038722
 20
99.50295031495741
 30
0.0
 11
68.48449848038723
 21
100.5246363618673
 31
0.0
  0
LINE
  5
EAC
330
18
100
AcDbEntity
  8
外形線
100
AcDbLine
 10
66.06949848038721
 20
99.50295031495741
 30
0.0
 11
66.87449848038721
 21
100.5246363618673
 31
0.0
  0
LINE
  5
EAD
330
18
100
AcDbEntity
  8
外形線
100
AcDbLine
 10
70.09449848038724
 20
100.5246363618673
 30
0.0
 11
70.89949848038725
 21
99.50295031495741
 31
0.0
  0
LINE
  5
EAE
330
18
100
AcDbEntity
  8
外形線
100
AcDbLine
 10
69.28949848038723
 20
99.50295031495741
 30
0.0
 11
70.09449848038724
 21
100.5246363618673
 31
0.0
  0
LINE
  5
EAF
330
18
100
AcDbEntity
  8
外形線
100
AcDbLine
 10
71.7044984803872
 20
100.5246363618673
 30
0.0
 11
72.50949848038721
 21
99.50295031495741
 31
0.0
  0
LINE
  5
EB0
330
18
100
AcDbEntity
  8
外形線
100
AcDbLine
 10
70.89949848038719
 20
99.50295031495741
 30
0.0
 11
71.7044984803872
 21
100.5246363618673
 31
0.0
  0
LINE
  5
EB1
330
18
100
AcDbEntity
  8
外形線
100
AcDbLine
 10
72.50949848038721
 20
99.50295031495741
 30
0.0
 11
73.31449848038722
 21
100.5246363618673
 31
0.0
  0
LINE
  5
EB2
330
18
100
AcDbEntity
  8
外形線
100
AcDbLine
 10
73.51449848038715
 20
100.2746363618676
 30
0.0
 11
73.31449848038715
 21
100.0746363618676
 31
0.0
  0
LINE
  5
EB3
330
18
100
AcDbEntity
  8
外形線
100
AcDbLine
 10
74.11449848038717
 20
100.2746363618676
 30
0.0
 11
73.51449848038715
 21
100.2746363618676
 31
0.0
  0
LINE
  5
EB4
330
18
100
AcDbEntity
  8
外形線
100
AcDbLine
 10
73.31449848038719
 20
95.02463636186758
 30
0.0
 11
62.35940678000924
 21
95.02463636186758
 31
0.0
  0
LINE
  5
EB5
330
18
100
AcDbEntity
  8
外形線
100
AcDbLine
 10
73.31449848038722
 20
95.02463636186771
 30
0.0
 11
67.31449848038721
 21
95.02463636186771
 31
0.0
  0
LINE
  5
EB6
330
18
100
AcDbEntity
  8
外形線
100
AcDbLine
 10
68.48449848038723
 20
93.52463636186781
 30
0.0
 11
69.28949848038723
 21
94.54632240877778
 31
0.0
  0
LINE
  5
EB7
330
18
100
AcDbEntity
  8
外形線
100
AcDbLine
 10
62.20449848038725
 20
94.12463636186762
 30
0.0
 11
62.89873164291219
 21
94.48383689921623
 31
0.0
  0
LINE
  5
EB8
330
18
100
AcDbEntity
  8
外形線
100
AcDbLine
 10
65.2644984803872
 20
93.52463636186781
 30
0.0
 11
66.06949848038721
 21
94.54632240877778
 31
0.0
  0
LINE
  5
EB9
330
18
100
AcDbEntity
  8
外形線
100
AcDbLine
 10
62.89873164291219
 20
94.48383689921623
 30
0.0
 11
63.65449848038719
 21
93.52463636186781
 31
0.0
  0
LINE
  5
EBA
330
18
100
AcDbEntity
  8
外形線
100
AcDbLine
 10
67.67949848038722
 20
94.54632240877778
 30
0.0
 11
68.48449848038723
 21
93.52463636186781
 31
0.0
  0
LINE
  5
EBB
330
18
100
AcDbEntity
  8
外形線
100
AcDbLine
 10
66.87449848038721
 20
93.52463636186781
 30
0.0
 11
67.67949848038722
 21
94.54632240877778
 31
0.0
  0
LINE
  5
EBC
330
18
100
AcDbEntity
  8
外形線
100
AcDbLine
 10
66.06949848038721
 20
94.54632240877778
 30
0.0
 11
66.87449848038721
 21
93.52463636186781
 31
0.0
  0
LINE
  5
EBD
330
18
100
AcDbEntity
  8
外形線
 48
0.5
100
AcDbLine
 10
73.31449848038722
 20
93.97463636186758
 30
0.0
 11
73.5144984803872
 21
93.77463636186758
 31
0.0
  0
LINE
  5
EBE
330
18
100
AcDbEntity
  8
外形線
100
AcDbLine
 10
74.11449848038722
 20
93.77463636186753
 30
0.0
 11
73.5144984803872
 21
93.77463636186758
 31
0.0
  0
LINE
  5
EBF
330
18
100
AcDbEntity
  8
外形線
100
AcDbLine
 10
71.7044984803872
 20
93.52463636186781
 30
0.0
 11
72.50949848038721
 21
94.54632240877778
 31
0.0
  0
LINE
  5
EC0
330
18
100
AcDbEntity
  8
外形線
100
AcDbLine
 10
70.89949848038719
 20
94.54632240877778
 30
0.0
 11
71.7044984803872
 21
93.52463636186781
 31
0.0
  0
LINE
  5
EC1
330
18
100
AcDbEntity
  8
外形線
100
AcDbLine
 10
69.28949848038723
 20
94.54632240877778
 30
0.0
 11
70.09449848038724
 21
93.52463636186781
 31
0.0
  0
LINE
  5
EC2
330
18
100
AcDbEntity
  8
外形線
100
AcDbLine
 10
70.09449848038724
 20
93.52463636186781
 30
0.0
 11
70.89949848038725
 21
94.54632240877778
 31
0.0
  0
LINE
  5
EC3
330
18
100
AcDbEntity
  8
外形線
100
AcDbLine
 10
72.50949848038721
 20
94.54632240877778
 30
0.0
 11
73.31449848038722
 21
93.52463636186781
 31
0.0
  0
LINE
  5
EC4
330
18
100
AcDbEntity
  8
外形線
100
AcDbLine
 10
78.31449848038715
 20
93.02463636186759
 30
0.0
 11
93.31449848038719
 21
93.02463636186756
 31
0.0
  0
LINE
  5
EC5
330
18
100
AcDbEntity
  8
外形線
100
AcDbLine
 10
78.31449848038715
 20
101.0246363618676
 30
0.0
 11
93.31449848038719
 21
101.0246363618676
 31
0.0
  0
LINE
  5
EC6
330
18
100
AcDbEntity
  8
外形線
100
AcDbLine
 10
75.31449848038722
 20
100.9246363618676
 30
0.0
 11
75.31449848038722
 21
93.12463636186768
 31
0.0
  0
LINE
  5
EC7
330
18
100
AcDbEntity
  8
外形線
100
AcDbLine
 10
78.31449848038722
 20
101.0246363618676
 30
0.0
 11
78.31449848038715
 21
93.02463636186759
 31
0.0
  0
LINE
  5
EC8
330
18
100
AcDbEntity
  8
外形線
100
AcDbLine
 10
77.81449848038722
 20
100.9246363618677
 30
0.0
 11
77.81449848038715
 21
93.12463636186775
 31
0.0
  0
LINE
  5
EC9
330
18
100
AcDbEntity
  8
外形線
100
AcDbLine
 10
78.31449848038722
 20
100.9246363618677
 30
0.0
 11
75.31449848038722
 21
100.9246363618676
 31
0.0
  0
LINE
  5
ECA
330
18
100
AcDbEntity
  8
外形線
100
AcDbLine
 10
78.31449848038715
 20
93.12463636186775
 30
0.0
 11
75.31449848038722
 21
93.12463636186768
 31
0.0
  0
LINE
  5
ECF
330
18
100
AcDbEntity
  8
外形線
100
AcDbLine
 10
63.65449848038719
 20
93.52463636186781
 30
0.0
 11
64.45949848038719
 21
94.54632240877778
 31
0.0
  0
LINE
  5
ED0
330
18
100
AcDbEntity
  8
外形線
100
AcDbLine
 10
64.45949848038719
 20
94.54632240877778
 30
0.0
 11
65.2644984803872
 21
93.52463636186781
 31
0.0
  0
LINE
  5
ED1
330
18
100
AcDbEntity
  8
外形線
100
AcDbLine
 10
64.50873164291221
 20
99.56543582451901
 30
0.0
 11
65.2644984803872
 21
100.5246363618673
 31
0.0
  0
LINE
  5
ED2
330
18
100
AcDbEntity
  8
外形線
100
AcDbLine
 10
63.7037316429122
 20
100.5871218714289
 30
0.0
 11
64.50873164291221
 21
99.56543582451901
 31
0.0
  0
LINE
  5
F4A
330
18
100
AcDbEntity
  8
0
  6
ByBlock
 62
     2
100
AcDbLine
 10
83.96350131888494
 20
98.5246363618676
 30
0.0
 11
83.96350131888494
 21
95.52463636186759
 31
0.0
  0
INSERT
  5
F4C
330
18
100
AcDbEntity
  8
0
  6
ByBlock
 62
     2
100
AcDbBlockReference
  2
_OPEN
 10
83.96350131888494
 20
101.0246363618676
 30
0.0
 41
2.5
 42
2.5
 43
2.5
 50
90.0
  0
INSERT
  5
F4D
330
18
100
AcDbEntity
  8
0
  6
ByBlock
 62
     2
100
AcDbBlockReference
  2
_OPEN
 10
83.96350131888494
 20
93.02463636186761
 30
0.0
 41
2.5
 42
2.5
 43
2.5
 50
270.0
  0
POINT
  5
F50
330
18
100
AcDbEntity
  8
DEFPOINTS
  6
ByBlock
 62
     0
100
AcDbPoint
 10
84.08298241837389
 20
93.02463636186759
 30
0.0
  0
POINT
  5
F51
330
18
100
AcDbEntity
  8
DEFPOINTS
  6
ByBlock
 62
     0
100
AcDbPoint
 10
83.96350131888494
 20
93.02463636186759
 30
0.0
  0
DIMENSION
  5
F5E
330
18
100
AcDbEntity
  8
寸法線
100
AcDbDimension
  2
*D12
 10
62.35940678000924
 20
124.1873549314764
 30
0.0
 11
57.85940678000923
 21
126.0623549314763
 31
0.0
 70
    32
 71
     5
 42
9.0
  3
STYLE3
100
AcDbAlignedDimension
 13
53.35940678000923
 23
97.02463636186761
 33
0.0
 14
62.35940678000924
 24
99.22463636186764
 34
0.0
 50
180.0
100
AcDbRotatedDimension
1001
ACAD
1000
DSTYLE
1002
{
1070
   271
1070
     2
1002
}
  0
DIMENSION
  5
F6A
330
18
100
AcDbEntity
  8
寸法線
100
AcDbDimension
  2
*D13
 10
73.31449848038715
 20
124.1873549314764
 30
0.0
 11
67.83695263019819
 21
126.0623549314763
 31
0.0
 70
    32
  1
11
 71
     5
 42
10.95509170037792
  3
STYLE3
100
AcDbAlignedDimension
 13
62.35940678000924
 23
99.22463636186764
 33
0.0
 14
73.31449848038715
 24
99.63728938467388
 34
0.0
 50
180.0
100
AcDbRotatedDimension
1001
ACAD
1000
DSTYLE
1002
{
1070
    75
1070
     1
1070
   271
1070
     2
1070
   279
1070
     1
1002
}
  0
DIMENSION
  5
FD8
330
18
100
AcDbEntity
  8
寸法線
100
AcDbDimension
  2
*D14
 10
53.35940678000923
 20
132.1638444788264
 30
0.0
 11
110.5869526301982
 21
134.0388444788264
 31
0.0
 70
    32
  1
114.5
 71
     5
 42
114.4550917003779
  3
STYLE3
100
AcDbAlignedDimension
 13
167.8144984803872
 23
125.4373549314764
 33
0.0
 14
53.35940678000923
 24
125.4373549314764
 34
0.0
 50
180.0
100
AcDbRotatedDimension
1001
ACAD
1000
DSTYLE
1002
{
1070
   271
1070
     2
1002
}
  0
LINE
  5
FF1
330
18
100
AcDbEntity
  8
0
  6
ByBlock
 62
     2
100
AcDbLine
 10
165.6144984803871
 20
88.02463636186756
 30
0.0
 11
178.6062404969012
 21
88.02463636186756
 31
0.0
  0
LINE
  5
FF2
330
18
100
AcDbEntity
  8
0
  6
ByBlock
 62
     2
100
AcDbLine
 10
165.6144984803871
 20
106.0246363618676
 30
0.0
 11
178.6062404969012
 21
106.0246363618675
 31
0.0
  0
LINE
  5
FF3
330
18
100
AcDbEntity
  8
0
  6
ByBlock
 62
     2
100
AcDbLine
 10
177.3562404969012
 20
90.52463636186756
 30
0.0
 11
177.3562404969012
 21
103.5246363618675
 31
0.0
  0
INSERT
  5
FF4
330
18
100
AcDbEntity
  8
0
  6
ByBlock
 62
     2
100
AcDbBlockReference
  2
_OPEN
 10
177.3562404969012
 20
88.02463636186756
 30
0.0
 41
2.5
 42
2.5
 43
2.5
 50
270.0
  0
INSERT
  5
FF5
330
18
100
AcDbEntity
  8
0
  6
ByBlock
 62
     2
100
AcDbBlockReference
  2
_OPEN
 10
177.3562404969012
 20
106.0246363618676
 30
0.0
 41
2.5
 42
2.5
 43
2.5
 50
90.0
  0
POINT
  5
FF7
330
18
100
AcDbEntity
  8
DEFPOINTS
  6
ByBlock
 62
     0
100
AcDbPoint
 10
165.6144984803871
 20
88.02463636186756
 30
0.0
  0
POINT
  5
FF8
330
18
100
AcDbEntity
  8
DEFPOINTS
  6
ByBlock
 62
     0
100
AcDbPoint
 10
165.6144984803871
 20
106.0246363618676
 30
0.0
  0
POINT
  5
FF9
330
18
100
AcDbEntity
  8
DEFPOINTS
  6
ByBlock
 62
     0
100
AcDbPoint
 10
177.3562404969012
 20
106.0246363618675
 30
0.0
  0
LINE
  5
FFA
330
18
100
AcDbEntity
  8
寸法線
100
AcDbLine
 10
177.3562404969012
 20
97.02463636186758
 30
0.0
 11
189.5089647304661
 21
73.45493734090388
 31
0.0
  0
LINE
  5
FFB
330
18
100
AcDbEntity
  8
寸法線
100
AcDbLine
 10
199.5539730181278
 20
73.45493734090388
 30
0.0
 11
189.5089647304661
 21
73.45493734090388
 31
0.0
  0
LINE
  5
FFC
330
18
100
AcDbEntity
  8
0
  6
ByBlock
 62
     2
100
AcDbLine
 10
184.8144984803871
 20
99.52463636186758
 30
0.0
 11
184.8144984803871
 21
125.4373549314763
 31
0.0
  0
LINE
  5
FFD
330
18
100
AcDbEntity
  8
0
  6
ByBlock
 62
     2
100
AcDbLine
 10
170.3144984803872
 20
124.1873549314764
 30
0.0
 11
182.3144984803872
 21
124.1873549314763
 31
0.0
  0
INSERT
  5
FFE
330
18
100
AcDbEntity
  8
0
  6
ByBlock
 62
     2
100
AcDbBlockReference
  2
_OPEN
 10
167.8144984803871
 20
124.1873549314764
 30
0.0
 41
2.5
 42
2.5
 43
2.5
 50
180.0
  0
INSERT
  5
FFF
330
18
100
AcDbEntity
  8
0
  6
ByBlock
 62
     2
100
AcDbBlockReference
  2
_OPEN
 10
184.8144984803871
 20
124.1873549314764
 30
0.0
 41
2.5
 42
2.5
 43
2.5
  0
POINT
  5
1001
330
18
100
AcDbEntity
  8
DEFPOINTS
  6
ByBlock
 62
     0
100
AcDbPoint
 10
167.8144984803871
 20
101.5246363618676
 30
0.0
  0
POINT
  5
1002
330
18
100
AcDbEntity
  8
DEFPOINTS
  6
ByBlock
 62
     0
100
AcDbPoint
 10
184.8144984803871
 20
99.52463636186758
 30
0.0
  0
POINT
  5
1003
330
18
100
AcDbEntity
  8
DEFPOINTS
  6
ByBlock
 62
     0
100
AcDbPoint
 10
184.8144984803871
 20
124.1873549314763
 30
0.0
  0
LINE
  5
1014
330
18
100
AcDbEntity
  8
0
  6
ByBlock
 62
     2
100
AcDbLine
 10
65.48885594216312
 20
99.02463636186759
 30
0.0
 11
66.73885594216312
 21
99.02463636186759
 31
0.0
  0
LINE
  5
1015
330
18
100
AcDbEntity
  8
0
  6
ByBlock
 62
     2
100
AcDbLine
 10
65.80046471020273
 20
95.02463636186758
 30
0.0
 11
64.23885594216312
 21
95.02463636186758
 31
0.0
  0
LINE
  5
1016
330
18
100
AcDbEntity
  8
0
  6
ByBlock
 62
     2
100
AcDbLine
 10
65.48885594216312
 20
101.5246363618676
 30
0.0
 11
65.48885594216312
 21
104.0246363618676
 31
0.0
  0
LINE
  5
1017
330
18
100
AcDbEntity
  8
0
  6
ByBlock
 62
     2
100
AcDbLine
 10
65.48885594216312
 20
92.52463636186758
 30
0.0
 11
65.48885594216312
 21
90.02463636186758
 31
0.0
  0
LINE
  5
1018
330
18
100
AcDbEntity
  8
0
  6
ByBlock
 62
     2
100
AcDbLine
 10
65.48885594216312
 20
99.02463636186759
 30
0.0
 11
65.48885594216312
 21
95.02463636186758
 31
0.0
  0
INSERT
  5
1019
330
18
100
AcDbEntity
  8
0
  6
ByBlock
 62
     2
100
AcDbBlockReference
  2
_OPEN
 10
65.48885594216312
 20
99.02463636186761
 30
0.0
 41
2.5
 42
2.5
 43
2.5
 50
270.0
  0
INSERT
  5
101A
330
18
100
AcDbEntity
  8
0
  6
ByBlock
 62
     2
100
AcDbBlockReference
  2
_OPEN
 10
65.48885594216312
 20
95.0246363618676
 30
0.0
 41
2.5
 42
2.5
 43
2.5
 50
90.0
  0
POINT
  5
101C
330
18
100
AcDbEntity
  8
DEFPOINTS
  6
ByBlock
 62
     0
100
AcDbPoint
 10
65.48885594216312
 20
99.02463636186759
 30
0.0
  0
POINT
  5
101D
330
18
100
AcDbEntity
  8
DEFPOINTS
  6
ByBlock
 62
     0
100
AcDbPoint
 10
65.80046471020273
 20
95.02463636186758
 30
0.0
  0
POINT
  5
101E
330
18
100
AcDbEntity
  8
DEFPOINTS
  6
ByBlock
 62
     0
100
AcDbPoint
 10
65.48885594216312
 20
95.02463636186758
 30
0.0
  0
LINE
  5
101F
330
18
100
AcDbEntity
  8
寸法線
100
AcDbLine
 10
65.48885594216312
 20
97.02463636186759
 30
0.0
 11
77.64158017572796
 21
73.45493734090389
 31
0.0
  0
LINE
  5
1020
330
18
100
AcDbEntity
  8
寸法線
100
AcDbLine
 10
85.43178756339827
 20
73.45493734090389
 30
0.0
 11
77.64158017572796
 21
73.45493734090389
 31
0.0
  0
LINE
  5
1034
330
18
100
AcDbEntity
  8
外形線
100
AcDbLine
 10
165.6144984803871
 20
94.32463636186758
 30
0.0
 11
103.8144984803871
 21
94.32463636186758
 31
0.0
  0
LINE
  5
1035
330
18
100
AcDbEntity
  8
外形線
100
AcDbLine
 10
165.6144984803871
 20
99.72463636186759
 30
0.0
 11
103.8144984803871
 21
99.72463636186759
 31
0.0
  0
TEXT
  5
106A
330
18
100
AcDbEntity
  8
0
  6
ByBlock
 62
     6
100
AcDbText
 10
78.00856553648441
 20
74.03571580823854
 30
0.0
 40
2.5
  1
φ4
  7
STYLE3
100
AcDbText
  0
TEXT
  5
106B
330
18
100
AcDbEntity
  8
0
  6
ByBlock
 62
     6
100
AcDbText
 10
189.6344730908737
 20
73.87418660569483
 30
0.0
 40
2.5
  1
φ18
  7
STYLE3
100
AcDbText
  0
TEXT
  5
106C
330
18
100
AcDbEntity
  8
0
  6
ByBlock
 62
     6
100
AcDbText
 10
174.0460323599827
 20
124.6862247465884
 30
0.0
 40
2.5
  1
17
  7
STYLE3
100
AcDbText
  0
LINE
  5
106F
330
18
100
AcDbEntity
  8
0
  6
ByBlock
 62
     2
100
AcDbLine
 10
167.8144984803871
 20
101.5246363618676
 30
0.0
 11
167.8144984803871
 21
125.4373549314764
 31
0.0
  0
LINE
  5
1070
330
18
100
AcDbEntity
  8
0
  6
ByBlock
 62
     2
100
AcDbLine
 10
95.81449848038719
 20
124.1873549314764
 30
0.0
 11
165.3144984803871
 21
124.1873549314764
 31
0.0
  0
INSERT
  5
1071
330
18
100
AcDbEntity
  8
0
  6
ByBlock
 62
     2
100
AcDbBlockReference
  2
_OPEN
 10
93.31449848038719
 20
124.1873549314764
 30
0.0
 41
2.5
 42
2.5
 43
2.5
 50
180.0
  0
INSERT
  5
1072
330
18
100
AcDbEntity
  8
0
  6
ByBlock
 62
     2
100
AcDbBlockReference
  2
_OPEN
 10
167.8144984803871
 20
124.1873549314764
 30
0.0
 41
2.5
 42
2.5
 43
2.5
  0
MTEXT
  5
1073
330
18
100
AcDbEntity
  8
0
  6
ByBlock
 62
     6
100
AcDbMText
 10
130.5644984803872
 20
126.0623549314763
 30
0.0
 40
2.5
 41
0.0
 71
     5
 72
     1
  1
\A1;74.5
  7
STYLE3
 73
     1
 44
1.0
  0
POINT
  5
1074
330
18
100
AcDbEntity
  8
DEFPOINTS
  6
ByBlock
 62
     0
100
AcDbPoint
 10
93.31449848038719
 20
101.5246363618675
 30
0.0
  0
POINT
  5
1075
330
18
100
AcDbEntity
  8
DEFPOINTS
  6
ByBlock
 62
     0
100
AcDbPoint
 10
167.8144984803871
 20
101.5246363618676
 30
0.0
  0
POINT
  5
1076
330
18
100
AcDbEntity
  8
DEFPOINTS
  6
ByBlock
 62
     0
100
AcDbPoint
 10
167.8144984803871
 20
124.1873549314764
 30
0.0
  0
LINE
  5
1077
330
18
100
AcDbEntity
  8
寸法線
100
AcDbLine
 10
83.96350131888494
 20
97.02463636186761
 30
0.0
 11
96.11622555244977
 21
73.45493734090391
 31
0.0
  0
TEXT
  5
1078
330
18
100
AcDbEntity
  8
0
  6
ByBlock
 62
     6
100
AcDbText
 10
96.20900603325935
 20
74.03571580823855
 30
0.0
 40
2.5
  1
φ8.0
  7
STYLE3
100
AcDbText
  0
LINE
  5
1079
330
18
100
AcDbEntity
  8
寸法線
100
AcDbLine
 10
111.6371783555392
 20
73.45493734090391
 30
0.0
 11
96.11622555244977
 21
73.45493734090391
 31
0.0
  0
TEXT
  5
107A
330
18
100
AcDbEntity
  8
0
  6
ByBlock
 62
     6
100
AcDbText
 10
107.3756394485544
 20
77.36257323579606
 30
0.0
 40
1.5
  1
0
  7
STYLE3
100
AcDbText
  0
TEXT
  5
107B
330
18
100
AcDbEntity
  8
0
  6
ByBlock
 62
     6
100
AcDbText
 10
105.5503236255825
 20
75.21621332006079
 30
0.0
 40
1.5
  1
-0.03
  7
STYLE3
100
AcDbText
  0
ELLIPSE
  5
107F
330
18
100
AcDbEntity
  8
外形線
100
AcDbEllipse
 10
103.8144984803871
 20
97.02463636186758
 30
0.0
 11
0.0
 21
2.700000000000002
 31
0.0
210
0.0
220
0.0
230
1.0
 40
0.2055555555555526
 41
0.0
 42
3.141592653589793
  0
LINE
  5
1080
330
18
100
AcDbEntity
  8
中心線
100
AcDbLine
 10
163.5144984803871
 20
94.82600589717682
 30
0.0
 11
163.5144984803871
 21
98.99312991953618
 31
0.0
  0
CIRCLE
  5
1081
330
18
100
AcDbEntity
  8
寸法線
100
AcDbCircle
 10
163.5144984803871
 20
97.02463636186759
 30
0.0
 40
1.25
  0
CIRCLE
  5
1082
330
18
100
AcDbEntity
  8
外形線
100
AcDbCircle
 10
163.5144984803871
 20
97.02463636186759
 30
0.0
 40
0.85
  0
LINE
  5
1085
330
18
100
AcDbEntity
  8
0
  6
ByBlock
 62
     2
100
AcDbLine
 10
93.31449848038719
 20
101.5246363618675
 30
0.0
 11
93.31449848038719
 21
125.4373549314764
 31
0.0
  0
LINE
  5
1086
330
18
100
AcDbEntity
  8
0
  6
ByBlock
 62
     2
100
AcDbLine
 10
75.81449848038715
 20
124.1873549314764
 30
0.0
 11
90.81449848038719
 21
124.1873549314764
 31
0.0
  0
INSERT
  5
1087
330
18
100
AcDbEntity
  8
0
  6
ByBlock
 62
     2
100
AcDbBlockReference
  2
_OPEN
 10
73.31449848038715
 20
124.1873549314764
 30
0.0
 41
2.5
 42
2.5
 43
2.5
 50
180.0
  0
INSERT
  5
1088
330
18
100
AcDbEntity
  8
0
  6
ByBlock
 62
     2
100
AcDbBlockReference
  2
_OPEN
 10
93.31449848038719
 20
124.1873549314764
 30
0.0
 41
2.5
 42
2.5
 43
2.5
  0
MTEXT
  5
1089
330
18
100
AcDbEntity
  8
0
  6
ByBlock
 62
     6
100
AcDbMText
 10
83.31449848038717
 20
126.0623549314763
 30
0.0
 40
2.5
 41
0.0
 71
     5
 72
     1
  1
\A1;20
  7
STYLE3
 73
     1
 44
1.0
  0
POINT
  5
108A
330
18
100
AcDbEntity
  8
DEFPOINTS
  6
ByBlock
 62
     0
100
AcDbPoint
 10
73.31449848038715
 20
99.63728938467388
 30
0.0
  0
POINT
  5
108B
330
18
100
AcDbEntity
  8
DEFPOINTS
  6
ByBlock
 62
     0
100
AcDbPoint
 10
93.31449848038719
 20
101.5246363618675
 30
0.0
  0
POINT
  5
108C
330
18
100
AcDbEntity
  8
DEFPOINTS
  6
ByBlock
 62
     0
100
AcDbPoint
 10
93.31449848038719
 20
124.1873549314764
 30
0.0
  0
MTEXT
  5
108D
330
18
100
AcDbEntity
  8
0
  6
ByBlock
 62
     6
100
AcDbMText
 10
110.3644634395121
 20
96.97764558989412
 30
0.0
 40
2.0
 41
0.0
 71
     5
 72
     1
  1
H12345
  7
STYLE3
 73
     1
 44
1.0
  0
INSERT
  5
10EF
330
18
100
AcDbEntity
  8
外形線
100
AcDbBlockReference
  2
A$C46B047FA
 10
116.6081079820973
 20
96.47623038716455
 30
0.0
  0
TEXT
  5
10F0
330
18
100
AcDbEntity
  8
0
  6
ByBlock
 62
     6
100
AcDbText
 10
130.8427018725012
 20
97.70659904997582
 30
0.0
 40
1.5
  1
DIGITAL  LINEAR  GAUGE
 41
1.1
  7
STYLE3
100
AcDbText
  0
TEXT
  5
10F1
330
18
100
AcDbEntity
  8
0
  6
ByBlock
 62
     6
100
AcDbText
 10
136.8078878364014
 20
94.8589748759913
 30
0.0
 40
1.5
  1
MODEL
  7
STYLE3
100
AcDbText
  0
TEXT
  5
10F2
330
18
100
AcDbEntity
  8
0
  6
ByBlock
 62
     6
100
AcDbText
 10
148.1150326262216
 20
94.76998626010518
 30
0.0
 40
2.0
  1
D-5
  7
STYLE3
100
AcDbText
  0
LINE
  5
10F6
330
18
100
AcDbEntity
  8
外形線
100
AcDbLine
 10
161.3182762723724
 20
94.3246363618676
 30
0.0
 11
161.3182762723724
 21
99.72463636186759
 31
0.0
  0
TEXT
  5
1128
330
18
100
AcDbEntity
  8
文字
100
AcDbText
 10
78.71537099014159
 20
179.9552335099148
 30
0.0
 40
4.0
  1
Model No.D-5 Linear Gauge
  7
STYLE3
100
AcDbText
  0
LINE
  5
1129
330
18
100
AcDbEntity
  8
外形線
100
AcDbLine
 10
78.64007699014158
 20
176.8431275099148
 30
0.0
 11
161.6400769901416
 21
176.8431275099148
 31
0.0
  0
LINE
  5
112A
330
18
100
AcDbEntity
  8
外形線
100
AcDbLine
 10
78.64007699014158
 20
177.8431275099148
 30
0.0
 11
161.6400769901416
 21
177.8431275099148
 31
0.0
  0
LINE
  5
112C
330
18
100
AcDbEntity
  8
外形線
100
AcDbLine
 10
113.6243369901416
 20
21.09738950991481
 30
0.0
 11
254.4157549901416
 21
21.09738950991481
 31
0.0
  0
LINE
  5
112D
330
18
100
AcDbEntity
  8
外形線
100
AcDbLine
 10
113.6243369901416
 20
10.31718350991481
 30
0.0
 11
254.4157549901416
 21
10.31718350991481
 31
0.0
  0
TEXT
  5
112E
330
18
100
AcDbEntity
  8
0
  6
Continuous
100
AcDbText
 10
115.0818039901416
 20
12.21517350991481
 30
0.0
 40
2.1
  1
Design and specifications are subject to change without notice for future improvement.
  7
STYLE3
100
AcDbText
  0
TEXT
  5
112F
330
18
100
AcDbEntity
  8
0
  6
Continuous
100
AcDbText
 10
115.3732979901415
 20
16.14432150991481
 30
0.0
 40
3.5
  1
仕様及び外観は予告なく変更される場合がございますのでご了承下さい。
  7
STYLE3
100
AcDbText
  0
TEXT
  5
1130
330
18
100
AcDbEntity
  8
0
  6
Continuous
100
AcDbText
 10
114.7903129901416
 20
2.450545509914809
 30
0.0
 40
2.1
  1
3RD Angle Projection
  7
STYLE3
100
AcDbText
  0
TEXT
  5
1131
330
18
100
AcDbEntity
  8
0
  6
Continuous
100
AcDbText
 10
117.4137559901416
 20
5.946828509914809
 30
0.0
 40
3.0
  1
三　　角　　法
  7
STYLE3
100
AcDbText
  0
LINE
  5
1132
330
18
100
AcDbEntity
  8
外形線
100
AcDbLine
 10
113.6243369901416
 20
0.7024055099148089
 30
0.0
 11
113.6243369901416
 21
21.09738950991481
 31
0.0
  0
LINE
  5
1133
330
18
100
AcDbEntity
  8
外形線
100
AcDbLine
 10
215.6471039901416
 20
10.31718350991481
 30
0.0
 11
215.6471039901416
 21
0.7024055099148089
 31
0.0
  0
LINE
  5
1134
330
18
100
AcDbEntity
  8
外形線
100
AcDbLine
 10
185.9147539901416
 20
10.31718350991481
 30
0.0
 11
185.9147539901416
 21
0.7024055099148089
 31
0.0
  0
LINE
  5
1135
330
18
100
AcDbEntity
  8
外形線
100
AcDbLine
 10
166.3846819901416
 20
10.31718350991481
 30
0.0
 11
166.3846819901416
 21
0.7024055099148089
 31
0.0
  0
LINE
  5
1136
330
18
100
AcDbEntity
  8
外形線
100
AcDbLine
 10
148.8950649901416
 20
10.31718350991481
 30
0.0
 11
148.8950649901416
 21
0.7024055099148089
 31
0.0
  0
TEXT
  5
1137
330
18
100
AcDbEntity
  8
0
  6
Continuous
100
AcDbText
 10
150.3525339901416
 20
5.952783509914808
 30
0.0
 40
3.0
  1
単位
  7
STYLE3
100
AcDbText
  0
TEXT
  5
1138
330
18
100
AcDbEntity
  8
0
  6
Continuous
100
AcDbText
 10
150.5242549901415
 20
2.450546509914808
 30
0.0
 40
2.1
  1
Unit
  7
STYLE3
100
AcDbText
  0
TEXT
  5
1139
330
18
100
AcDbEntity
  8
0
  6
Continuous
100
AcDbText
 10
167.6704299901416
 20
5.661425509914808
 30
0.0
 40
3.0
  1
尺 度
  7
STYLE3
100
AcDbText
  0
TEXT
  5
113A
330
18
100
AcDbEntity
  8
0
  6
Continuous
100
AcDbText
 10
158.3945819901416
 20
4.198689509914808
 30
0.0
 40
2.399999999999999
  1
mm
  7
STYLE3
100
AcDbText
  0
TEXT
  5
113B
330
18
100
AcDbEntity
  8
0
  6
Continuous
100
AcDbText
 10
168.1336449901416
 20
2.741903509914808
 30
0.0
 40
2.1
  1
Scale
  7
STYLE3
100
AcDbText
  0
TEXT
  5
113C
330
18
100
AcDbEntity
  8
0
  6
Continuous
100
AcDbText
 10
177.7529339901415
 20
4.490046509914809
 30
0.0
 40
2.399999999999999
  1
1/1
  7
STYLE3
100
AcDbText
  0
TEXT
  5
113D
330
18
100
AcDbEntity
  8
0
  6
Continuous
100
AcDbText
 10
187.8467049901415
 20
2.450547509914808
 30
0.0
 40
2.1
  1
Date
  7
STYLE3
100
AcDbText
  0
TEXT
  5
113E
330
18
100
AcDbEntity
  8
0
  6
Continuous
100
AcDbText
 10
187.4633439901416
 20
5.783630509914808
 30
0.0
 40
3.0
  1
日 付
  7
STYLE3
100
AcDbText
  0
TEXT
  5
113F
330
18
100
AcDbEntity
  8
0
  6
Continuous
100
AcDbText
 10
196.5915129901416
 20
4.198688509914808
 30
0.0
 40
2.1
  1
2010.06.29
  7
STYLE3
100
AcDbText
  0
TEXT
  5
1140
330
18
100
AcDbEntity
  8
0
  6
Continuous
100
AcDbText
 10
216.9960669901416
 20
6.238185509914808
 30
0.0
 40
3.0
  1
株式会社　尾崎製作所
  7
STYLE3
100
AcDbText
  0
TEXT
  5
1141
330
18
100
AcDbEntity
  8
0
  6
Continuous
100
AcDbText
 10
217.8705459901416
 20
2.450546509914808
 30
0.0
 40
2.1
  1
OZAKI MFG. CO., LTD.
  7
STYLE3
100
AcDbText
  0
VIEWPORT
  5
177
330
15
100
AcDbEntity
 67
     1
  8
0
100
AcDbViewport
 10
127.5041203589828
 20
97.49391214526822
 30
0.0
 40
418.3086347473814
 41
243.0346063651093
 68
     1
 69
     1
 12
127.5041203589828
 22
97.49391214526822
 13
0.0
 23
0.0
 14
10.0
 24
10.0
 15
10.0
 25
10.0
 16
0.0
 26
0.0
 36
1.0
 17
0.0
 27
0.0
 37
0.0
 42
50.0
 43
0.0
 44
0.0
 45
243.0346063651093
 50
0.0
 51
0.0
 72
   100
 90
    32800
  1

281
     0
 71
     1
 74
     0
110
0.0
120
0.0
130
0.0
111
1.0
121
0.0
131
0.0
112
0.0
122
1.0
132
0.0
 79
     0
146
0.0
170
     0
  0
ENDSEC
  0
SECTION
  2
OBJECTS
  0
DICTIONARY
  5
C
330
0
100
AcDbDictionary
281
     1
  3
ACAD_COLOR
350
10FC
  3
ACAD_GROUP
350
D
  3
ACAD_LAYOUT
350
10FD
  3
ACAD_MATERIAL
350
10FB
  3
ACAD_MLINESTYLE
350
1B
  3
ACAD_PLOTSETTINGS
350
10FE
  3
ACAD_PLOTSTYLENAME
350
10F9
  3
ACDBVARIABLEDICTIONARY
350
BA0
  0
DICTIONARY
  5
10FC
102
{ACAD_REACTORS
330
C
102
}
330
C
100
AcDbDictionary
281
     1
  0
DICTIONARY
  5
D
102
{ACAD_REACTORS
330
C
102
}
330
C
100
AcDbDictionary
281
     1
  0
DICTIONARY
  5
10FD
102
{ACAD_REACTORS
330
C
102
}
330
C
100
AcDbDictionary
281
     1
  3
Model
350
10FF
  3
レイアウト1
350
1100
  0
DICTIONARY
  5
10FB
102
{ACAD_REACTORS
330
C
102
}
330
C
100
AcDbDictionary
281
     1
  0
DICTIONARY
  5
1B
102
{ACAD_REACTORS
330
C
102
}
330
C
100
AcDbDictionary
281
     1
  3
STANDARD
350
1C
  0
DICTIONARY
  5
10FE
102
{ACAD_REACTORS
330
C
102
}
330
C
100
AcDbDictionary
281
     1
  0
ACDBDICTIONARYWDFLT
  5
10F9
102
{ACAD_REACTORS
330
C
102
}
330
C
100
AcDbDictionary
281
     1
  3
Normal
350
10FA
100
AcDbDictionaryWithDefault
340
10FA
  0
DICTIONARY
  5
BA0
102
{ACAD_REACTORS
330
C
102
}
330
C
100
AcDbDictionary
281
     1
  3
SORTENTS
350
BA1
  0
LAYOUT
  5
10FF
102
{ACAD_REACTORS
330
10FD
102
}
330
10FD
100
AcDbPlotSettings
  1

  2
EPSON PX-101
  4

  6

 40
0.0
 41
0.0
 42
0.0
 43
0.0
 44
0.0
 45
0.0
 46
0.0
 47
0.0
 48
0.0
 49
0.0
140
0.0
141
0.0
142
1.0
143
1.0
 70
  1712
 72
     0
 73
     0
 74
     0
  7
AutoCad LT 98fukui.ctb
 75
     0
147
1.0
 76
     0
 77
     2
 78
   300
148
0.0
149
0.0
100
AcDbLayout
  1
Model
 70
     1
 71
     0
 10
0.0
 20
0.0
 11
12.0
 21
9.0
 12
0.0
 22
0.0
 32
0.0
 14
0.0
 24
0.0
 34
0.0
 15
0.0
 25
0.0
 35
0.0
146
0.0
 13
0.0
 23
0.0
 33
0.0
 16
1.0
 26
0.0
 36
0.0
 17
0.0
 27
1.0
 37
0.0
 76
     0
330
18
  0
LAYOUT
  5
1100
102
{ACAD_REACTORS
330
10FD
102
}
330
10FD
100
AcDbPlotSettings
  1

  2
EPSON PX-101
  4

  6

 40
0.0
 41
0.0
 42
0.0
 43
0.0
 44
0.0
 45
0.0
 46
0.0
 47
0.0
 48
0.0
 49
0.0
140
0.0
141
0.0
142
1.0
143
1.0
 70
   688
 72
     0
 73
     0
 74
     5
  7
AutoCad LT 98fukui.ctb
 75
    16
147
1.0
 76
     0
 77
     2
 78
   300
148
0.0
149
0.0
100
AcDbLayout
  1
レイアウト1
 70
     1
 71
     1
 10
0.0
 20
0.0
 11
420.0
 21
297.0
 12
0.0
 22
0.0
 32
0.0
 14
-0.2
 24
-0.2
 34
0.0
 15
255.2
 25
195.2
 35
0.0
146
0.0
 13
0.0
 23
0.0
 33
0.0
 16
1.0
 26
0.0
 36
0.0
 17
0.0
 27
1.0
 37
0.0
 76
     0
330
15
331
177
  0
MLINESTYLE
  5
1C
102
{ACAD_REACTORS
330
1B
102
}
330
1B
100
AcDbMlineStyle
  2
STANDARD
 70
     0
  3

 62
   256
 51
90.0
 52
90.0
 71
     2
 49
0.5
 62
   256
  6
BYLAYER
 49
-0.5
 62
   256
  6
BYLAYER
  0
ACDBPLACEHOLDER
  5
10FA
102
{ACAD_REACTORS
330
10F9
102
}
330
10F9
  0
DICTIONARYVAR
  5
BA1
102
{ACAD_REACTORS
330
BA0
102
}
330
BA0
100
DictionaryVariables
280
     0
  1
96
  0
ENDSEC
  0
EOF
