  0
SECTION
  2
HEADER
  9
$ACADVER
  1
AC1018
  9
$ACADMAINTVER
 70
     0
  9
$DWGCODEPAGE
  3
ANSI_932
  9
$INSBASE
 10
0.0
 20
0.0
 30
0.0
  9
$EXTMIN
 10
-65.83772171939154
 20
164.0559815520956
 30
-0.0000762951084532
  9
$EXTMAX
 10
189.6166392902917
 20
359.4717332057953
 30
0.0000000046571813
  9
$LIMMIN
 10
0.0
 20
0.0
  9
$LIMMAX
 10
420.0
 20
297.0
  9
$ORTHOMODE
 70
     0
  9
$REGENMODE
 70
     1
  9
$FILLMODE
 70
     1
  9
$QTEXTMODE
 70
     0
  9
$MIRRTEXT
 70
     1
  9
$LTSCALE
 40
1.0
  9
$ATTMODE
 70
     1
  9
$TEXTSIZE
 40
2.5
  9
$TRACEWID
 40
1.0
  9
$TEXTSTYLE
  7
STYLE3
  9
$CLAYER
  8
寸法線
  9
$CELTYPE
  6
BYLAYER
  9
$CECOLOR
 62
   256
  9
$CELTSCALE
 40
1.0
  9
$DISPSILH
 70
     0
  9
$DIMSCALE
 40
1.0
  9
$DIMASZ
 40
2.5
  9
$DIMEXO
 40
0.0
  9
$DIMDLI
 40
3.75
  9
$DIMRND
 40
0.0
  9
$DIMDLE
 40
0.0
  9
$DIMEXE
 40
1.25
  9
$DIMTP
 40
0.0
  9
$DIMTM
 40
0.0
  9
$DIMTXT
 40
2.5
  9
$DIMCEN
 40
2.5
  9
$DIMTSZ
 40
0.0
  9
$DIMTOL
 70
     0
  9
$DIMLIM
 70
     0
  9
$DIMTIH
 70
     0
  9
$DIMTOH
 70
     0
  9
$DIMSE1
 70
     0
  9
$DIMSE2
 70
     0
  9
$DIMTAD
 70
     1
  9
$DIMZIN
 70
     8
  9
$DIMBLK
  1

  9
$DIMASO
 70
     1
  9
$DIMSHO
 70
     1
  9
$DIMPOST
  1

  9
$DIMAPOST
  1

  9
$DIMALT
 70
     0
  9
$DIMALTD
 70
     4
  9
$DIMALTF
 40
0.0394
  9
$DIMLFAC
 40
1.0
  9
$DIMTOFL
 70
     1
  9
$DIMTVP
 40
0.0
  9
$DIMTIX
 70
     0
  9
$DIMSOXD
 70
     0
  9
$DIMSAH
 70
     1
  9
$DIMBLK1
  1
OPEN
  9
$DIMBLK2
  1
OPEN
  9
$DIMSTYLE
  2
STYLE3
  9
$DIMCLRD
 70
     2
  9
$DIMCLRE
 70
     2
  9
$DIMCLRT
 70
     6
  9
$DIMTFAC
 40
1.0
  9
$DIMGAP
 40
0.625
  9
$DIMJUST
 70
     0
  9
$DIMSD1
 70
     0
  9
$DIMSD2
 70
     0
  9
$DIMTOLJ
 70
     1
  9
$DIMTZIN
 70
     0
  9
$DIMALTZ
 70
     0
  9
$DIMALTTZ
 70
     0
  9
$DIMUPT
 70
     0
  9
$DIMDEC
 70
     2
  9
$DIMTDEC
 70
     4
  9
$DIMALTU
 70
     8
  9
$DIMALTTD
 70
     4
  9
$DIMTXSTY
  7
STYLE3
  9
$DIMAUNIT
 70
     0
  9
$DIMADEC
 70
     0
  9
$DIMALTRND
 40
0.0
  9
$DIMAZIN
 70
     0
  9
$DIMDSEP
 70
    46
  9
$DIMATFIT
 70
     3
  9
$DIMFRAC
 70
     0
  9
$DIMLDRBLK
  1

  9
$DIMLUNIT
 70
     2
  9
$DIMLWD
 70
    -2
  9
$DIMLWE
 70
    -2
  9
$DIMTMOVE
 70
     0
  9
$LUNITS
 70
     2
  9
$LUPREC
 70
     4
  9
$SKETCHINC
 40
1.0
  9
$FILLETRAD
 40
0.0
  9
$AUNITS
 70
     0
  9
$AUPREC
 70
     0
  9
$MENU
  1
.
  9
$ELEVATION
 40
0.0
  9
$PELEVATION
 40
0.0
  9
$THICKNESS
 40
0.0
  9
$LIMCHECK
 70
     0
  9
$CHAMFERA
 40
0.3
  9
$CHAMFERB
 40
0.3
  9
$CHAMFERC
 40
20.0
  9
$CHAMFERD
 40
0.0
  9
$SKPOLY
 70
     0
  9
$TDCREATE
 40
2450920.409121760
  9
$TDUCREATE
 40
2450920.034121759
  9
$TDUPDATE
 40
2455378.653937164
  9
$TDUUPDATE
 40
2455378.278937164
  9
$TDINDWG
 40
1.8701054977
  9
$TDUSRTIMER
 40
1.8701054977
  9
$USRTIMER
 70
     1
  9
$ANGBASE
 50
0.0
  9
$ANGDIR
 70
     0
  9
$PDMODE
 70
     0
  9
$PDSIZE
 40
0.0
  9
$PLINEWID
 40
0.0
  9
$SPLFRAME
 70
     0
  9
$SPLINETYPE
 70
     6
  9
$SPLINESEGS
 70
     8
  9
$HANDSEED
  5
19D3
  9
$SURFTAB1
 70
     6
  9
$SURFTAB2
 70
     6
  9
$SURFTYPE
 70
     6
  9
$SURFU
 70
     6
  9
$SURFV
 70
     6
  9
$UCSBASE
  2

  9
$UCSNAME
  2

  9
$UCSORG
 10
0.0
 20
0.0
 30
0.0
  9
$UCSXDIR
 10
1.0
 20
0.0
 30
0.0
  9
$UCSYDIR
 10
0.0
 20
1.0
 30
0.0
  9
$UCSORTHOREF
  2

  9
$UCSORTHOVIEW
 70
     0
  9
$UCSORGTOP
 10
0.0
 20
0.0
 30
0.0
  9
$UCSORGBOTTOM
 10
0.0
 20
0.0
 30
0.0
  9
$UCSORGLEFT
 10
0.0
 20
0.0
 30
0.0
  9
$UCSORGRIGHT
 10
0.0
 20
0.0
 30
0.0
  9
$UCSORGFRONT
 10
0.0
 20
0.0
 30
0.0
  9
$UCSORGBACK
 10
0.0
 20
0.0
 30
0.0
  9
$PUCSBASE
  2

  9
$PUCSNAME
  2

  9
$PUCSORG
 10
0.0
 20
0.0
 30
0.0
  9
$PUCSXDIR
 10
1.0
 20
0.0
 30
0.0
  9
$PUCSYDIR
 10
0.0
 20
1.0
 30
0.0
  9
$PUCSORTHOREF
  2

  9
$PUCSORTHOVIEW
 70
     0
  9
$PUCSORGTOP
 10
0.0
 20
0.0
 30
0.0
  9
$PUCSORGBOTTOM
 10
0.0
 20
0.0
 30
0.0
  9
$PUCSORGLEFT
 10
0.0
 20
0.0
 30
0.0
  9
$PUCSORGRIGHT
 10
0.0
 20
0.0
 30
0.0
  9
$PUCSORGFRONT
 10
0.0
 20
0.0
 30
0.0
  9
$PUCSORGBACK
 10
0.0
 20
0.0
 30
0.0
  9
$USERI1
 70
     0
  9
$USERI2
 70
     0
  9
$USERI3
 70
     0
  9
$USERI4
 70
     0
  9
$USERI5
 70
     0
  9
$USERR1
 40
0.0
  9
$USERR2
 40
0.0
  9
$USERR3
 40
0.0
  9
$USERR4
 40
0.0
  9
$USERR5
 40
0.0
  9
$WORLDVIEW
 70
     1
  9
$SHADEDGE
 70
     3
  9
$SHADEDIF
 70
    70
  9
$TILEMODE
 70
     1
  9
$MAXACTVP
 70
    48
  9
$PINSBASE
 10
0.0
 20
0.0
 30
0.0
  9
$PLIMCHECK
 70
     0
  9
$PEXTMIN
 10
1.000000000000000E+20
 20
1.000000000000000E+20
 30
1.000000000000000E+20
  9
$PEXTMAX
 10
-1.000000000000000E+20
 20
-1.000000000000000E+20
 30
-1.000000000000000E+20
  9
$PLIMMIN
 10
0.0
 20
0.0
  9
$PLIMMAX
 10
420.0
 20
297.0
  9
$UNITMODE
 70
     0
  9
$VISRETAIN
 70
     1
  9
$PLINEGEN
 70
     0
  9
$PSLTSCALE
 70
     1
  9
$TREEDEPTH
 70
  3020
  9
$CMLSTYLE
  2
STANDARD
  9
$CMLJUST
 70
     0
  9
$CMLSCALE
 40
20.0
  9
$PROXYGRAPHICS
 70
     1
  9
$MEASUREMENT
 70
     1
  9
$CELWEIGHT
370
    -1
  9
$ENDCAPS
280
     0
  9
$JOINSTYLE
280
     0
  9
$LWDISPLAY
290
     0
  9
$INSUNITS
 70
     0
  9
$HYPERLINKBASE
  1

  9
$STYLESHEET
  1
monochrome.ctb
  9
$XEDIT
290
     1
  9
$CEPSNTYPE
380
     0
  9
$PSTYLEMODE
290
     1
  9
$FINGERPRINTGUID
  2
{7E1FE7C2-7AD6-4D57-A36C-831D17690421}
  9
$VERSIONGUID
  2
{35BD3473-EF81-43DF-BF3B-291D20751747}
  9
$EXTNAMES
290
     1
  9
$PSVPSCALE
 40
0.0
  9
$OLESTARTUP
290
     0
  9
$SORTENTS
280
    96
  9
$INDEXCTL
280
     0
  9
$HIDETEXT
280
     0
  9
$XCLIPFRAME
290
     0
  9
$HALOGAP
280
     0
  9
$OBSCOLOR
 70
   257
  9
$OBSLTYPE
280
     0
  9
$INTERSECTIONDISPLAY
280
     0
  9
$INTERSECTIONCOLOR
 70
   257
  9
$DIMASSOC
280
     1
  9
$PROJECTNAME
  1

  0
ENDSEC
  0
SECTION
  2
CLASSES
  0
CLASS
  1
DICTIONARYVAR
  2
AcDbDictionaryVar
  3
ObjectDBX Classes
 90
        0
 91
        2
280
     0
281
     0
  0
CLASS
  1
HATCH
  2
AcDbHatch
  3
ObjectDBX Classes
 90
        0
 91
        8
280
     0
281
     1
  0
CLASS
  1
LWPOLYLINE
  2
AcDbPolyline
  3
ObjectDBX Classes
 90
        0
 91
        4
280
     0
281
     1
  0
CLASS
  1
ACDBDICTIONARYWDFLT
  2
AcDbDictionaryWithDefault
  3
ObjectDBX Classes
 90
        0
 91
        1
280
     0
281
     0
  0
CLASS
  1
TABLESTYLE
  2
AcDbTableStyle
  3
ObjectDBX Classes
 90
     2047
 91
        1
280
     0
281
     0
  0
CLASS
  1
SORTENTSTABLE
  2
AcDbSortentsTable
  3
ObjectDBX Classes
 90
        0
 91
        0
280
     0
281
     0
  0
ENDSEC
  0
SECTION
  2
TABLES
  0
TABLE
  2
VPORT
  5
8
330
0
100
AcDbSymbolTable
 70
     2
  0
VPORT
  5
19D2
330
8
100
AcDbSymbolTableRecord
100
AcDbViewportTableRecord
  2
*Active
 70
     0
 10
0.0
 20
0.0
 11
1.0
 21
1.0
 12
61.88945878545007
 22
261.7638573789455
 13
0.0
 23
0.0
 14
10.0
 24
10.0
 15
10.0
 25
10.0
 16
0.0
 26
0.0
 36
1.0
 17
0.0
 27
0.0
 37
0.0
 40
196.9018029970738
 41
1.530456852791878
 42
50.0
 43
0.0
 44
0.0
 50
0.0
 51
0.0
 71
     0
 72
   100
 73
     1
 74
     1
 75
     0
 76
     0
 77
     0
 78
     0
281
     0
 65
     1
110
0.0
120
0.0
130
0.0
111
1.0
121
0.0
131
0.0
112
0.0
122
1.0
132
0.0
 79
     0
146
0.0
  0
ENDTAB
  0
TABLE
  2
LTYPE
  5
5
330
0
100
AcDbSymbolTable
 70
    12
  0
LTYPE
  5
12
330
5
100
AcDbSymbolTableRecord
100
AcDbLinetypeTableRecord
  2
BYBLOCK
 70
     0
  3

 72
    65
 73
     0
 40
0.0
  0
LTYPE
  5
13
330
5
100
AcDbSymbolTableRecord
100
AcDbLinetypeTableRecord
  2
BYLAYER
 70
     0
  3

 72
    65
 73
     0
 40
0.0
  0
LTYPE
  5
14
330
5
100
AcDbSymbolTableRecord
100
AcDbLinetypeTableRecord
  2
CONTINUOUS
 70
     0
  3
Solid line
 72
    65
 73
     0
 40
0.0
  0
LTYPE
  5
22
330
5
100
AcDbSymbolTableRecord
100
AcDbLinetypeTableRecord
  2
CENTER2
 70
     0
  3
Center (.5x) ___ _ ___ _ ___ _ ___ _ ___ _ ___
 72
    65
 73
     4
 40
28.575
 49
19.05
 74
     0
 49
-3.174999999999999
 74
     0
 49
3.174999999999999
 74
     0
 49
-3.174999999999999
 74
     0
  0
ENDTAB
  0
TABLE
  2
LAYER
  5
2
102
{ACAD_XDICTIONARY
360
1015
102
}
330
0
100
AcDbSymbolTable
 70
    15
  0
LAYER
  5
E
330
2
100
AcDbSymbolTableRecord
100
AcDbLayerTableRecord
  2
0
 70
     0
 62
     7
  6
CONTINUOUS
370
    -3
390
895
  0
LAYER
  5
25
330
2
100
AcDbSymbolTableRecord
100
AcDbLayerTableRecord
  2
外形線
 70
     0
 62
     7
  6
CONTINUOUS
370
    -3
390
895
  0
LAYER
  5
26
330
2
100
AcDbSymbolTableRecord
100
AcDbLayerTableRecord
  2
寸法線
 70
     0
 62
     2
  6
CONTINUOUS
370
    -3
390
895
  0
LAYER
  5
27
330
2
100
AcDbSymbolTableRecord
100
AcDbLayerTableRecord
  2
中心線
 70
     0
 62
     4
  6
CENTER2
370
    -3
390
895
  0
LAYER
  5
2B
330
2
100
AcDbSymbolTableRecord
100
AcDbLayerTableRecord
  2
文字
 70
     0
 62
     6
  6
CONTINUOUS
370
    -3
390
895
  0
LAYER
  5
53
330
2
100
AcDbSymbolTableRecord
100
AcDbLayerTableRecord
  2
DEFPOINTS
 70
     0
 62
     7
  6
CONTINUOUS
290
     0
370
    -3
390
895
  0
LAYER
  5
A5
330
2
100
AcDbSymbolTableRecord
100
AcDbLayerTableRecord
  2
C
 70
     0
 62
     7
  6
CONTINUOUS
370
    -3
390
895
  0
LAYER
  5
563
330
2
100
AcDbSymbolTableRecord
100
AcDbLayerTableRecord
  2
ROGO
 70
     0
 62
     6
  6
CONTINUOUS
370
    -3
390
895
  0
ENDTAB
  0
TABLE
  2
STYLE
  5
3
330
0
100
AcDbSymbolTable
 70
     8
  0
STYLE
  5
F
330
3
100
AcDbSymbolTableRecord
100
AcDbTextStyleTableRecord
  2
STANDARD
 70
     0
 40
0.0
 41
1.0
 50
0.0
 71
     0
 42
2.5
  3
txt
  4

  0
STYLE
  5
3F
330
3
100
AcDbSymbolTableRecord
100
AcDbTextStyleTableRecord
  2
STYLE3
 70
     0
 40
0.0
 41
1.0
 50
0.0
 71
     0
 42
2.5
  3
romans.shx
  4
bigfont.shx
  0
STYLE
  5
565
330
3
100
AcDbSymbolTableRecord
100
AcDbTextStyleTableRecord
  2
STYLE4
 70
     0
 40
0.0
 41
1.0
 50
0.0
 71
     0
 42
5.0
  3
romans.shx
  4
bigfont.shx
  0
ENDTAB
  0
TABLE
  2
VIEW
  5
6
330
0
100
AcDbSymbolTable
 70
     0
  0
ENDTAB
  0
TABLE
  2
UCS
  5
7
330
0
100
AcDbSymbolTable
 70
     0
  0
ENDTAB
  0
TABLE
  2
APPID
  5
9
330
0
100
AcDbSymbolTable
 70
     2
  0
APPID
  5
10
330
9
100
AcDbSymbolTableRecord
100
AcDbRegAppTableRecord
  2
ACAD
 70
     0
  0
APPID
  5
962
330
9
100
AcDbSymbolTableRecord
100
AcDbRegAppTableRecord
  2
ACAD_PSEXT
 70
     0
  0
ENDTAB
  0
TABLE
  2
DIMSTYLE
  5
A
330
0
100
AcDbSymbolTable
 70
     6
100
AcDbDimStyleTable
 71
     1
340
8F
  0
DIMSTYLE
105
1D
330
A
100
AcDbSymbolTableRecord
100
AcDbDimStyleTableRecord
  2
STANDARD
 70
     0
 41
2.5
 42
0.625
 43
3.75
 44
1.25
 73
     0
 74
     0
 77
     1
 78
     8
140
2.5
141
2.5
143
0.0394
147
0.625
171
     4
172
     1
273
     8
274
     4
277
     6
340
F
  0
DIMSTYLE
105
8F
102
{ACAD_REACTORS
330
78E
330
78F
330
790
330
791
330
7AC
330
BB9
330
BBA
330
BBB
330
BC2
330
BC3
330
BE3
330
BF3
330
CB5
330
CB6
330
CB7
330
CB8
330
CB9
330
CBA
330
ECB
330
ED8
102
}
330
A
100
AcDbSymbolTableRecord
100
AcDbDimStyleTableRecord
  2
STYLE3
 70
     0
 41
2.5
 42
0.0
 43
3.75
 44
1.25
 73
     0
 74
     0
 77
     1
 78
     8
140
2.5
141
2.5
143
0.0394
147
0.625
171
     4
172
     1
173
     1
176
     2
177
     2
178
     6
271
     1
273
     8
274
     4
340
3F
341
45
343
45
344
45
  0
ENDTAB
  0
TABLE
  2
BLOCK_RECORD
  5
1
330
0
100
AcDbSymbolTable
 70
    24
  0
BLOCK_RECORD
  5
18
330
1
100
AcDbSymbolTableRecord
100
AcDbBlockTableRecord
  2
*MODEL_SPACE
340
89C
  0
BLOCK_RECORD
  5
15
330
1
100
AcDbSymbolTableRecord
100
AcDbBlockTableRecord
  2
*PAPER_SPACE
340
89D
  0
BLOCK_RECORD
  5
45
330
1
100
AcDbSymbolTableRecord
100
AcDbBlockTableRecord
  2
_OPEN
340
0
102
{BLKREFS
331
754
331
755
331
761
331
762
331
76D
331
76E
331
779
331
77A
331
785
331
786
331
BB6
331
BB7
331
BBF
331
BC0
331
1945
331
1946
331
194E
331
194F
331
1957
331
1958
331
1960
331
1961
331
1969
331
196A
331
1972
331
1973
331
197D
331
197E
331
1986
331
1987
331
1990
331
1991
331
1997
331
1998
331
19A0
331
19A1
331
19A9
331
19AA
331
19B2
331
19B3
331
19BB
331
19BC
331
19C5
331
19C6
102
}
  0
BLOCK_RECORD
  5
D0B
330
1
100
AcDbSymbolTableRecord
100
AcDbBlockTableRecord
  2
*D8
340
0
  0
BLOCK_RECORD
  5
D17
330
1
100
AcDbSymbolTableRecord
100
AcDbBlockTableRecord
  2
*D9
340
0
  0
BLOCK_RECORD
  5
D23
330
1
100
AcDbSymbolTableRecord
100
AcDbBlockTableRecord
  2
*D10
340
0
  0
BLOCK_RECORD
  5
D2F
330
1
100
AcDbSymbolTableRecord
100
AcDbBlockTableRecord
  2
*D11
340
0
  0
BLOCK_RECORD
  5
D3B
330
1
100
AcDbSymbolTableRecord
100
AcDbBlockTableRecord
  2
*D12
340
0
  0
BLOCK_RECORD
  5
D46
330
1
100
AcDbSymbolTableRecord
100
AcDbBlockTableRecord
  2
*D13
340
0
  0
BLOCK_RECORD
  5
D60
330
1
100
AcDbSymbolTableRecord
100
AcDbBlockTableRecord
  2
*D14
340
0
  0
BLOCK_RECORD
  5
D6D
330
1
100
AcDbSymbolTableRecord
100
AcDbBlockTableRecord
  2
*D15
340
0
  0
BLOCK_RECORD
  5
D79
330
1
100
AcDbSymbolTableRecord
100
AcDbBlockTableRecord
  2
*D16
340
0
  0
BLOCK_RECORD
  5
D85
330
1
100
AcDbSymbolTableRecord
100
AcDbBlockTableRecord
  2
*D17
340
0
  0
BLOCK_RECORD
  5
D91
330
1
100
AcDbSymbolTableRecord
100
AcDbBlockTableRecord
  2
*D18
340
0
  0
BLOCK_RECORD
  5
D9D
330
1
100
AcDbSymbolTableRecord
100
AcDbBlockTableRecord
  2
*D19
340
0
  0
BLOCK_RECORD
  5
DA9
330
1
100
AcDbSymbolTableRecord
100
AcDbBlockTableRecord
  2
*D20
340
0
  0
BLOCK_RECORD
  5
ECC
330
1
100
AcDbSymbolTableRecord
100
AcDbBlockTableRecord
  2
*D21
340
0
  0
BLOCK_RECORD
  5
ED9
330
1
100
AcDbSymbolTableRecord
100
AcDbBlockTableRecord
  2
*D22
340
0
  0
ENDTAB
  0
ENDSEC
  0
SECTION
  2
BLOCKS
  0
BLOCK
  5
19
330
18
100
AcDbEntity
  8
0
100
AcDbBlockBegin
  2
*MODEL_SPACE
 70
     0
 10
0.0
 20
0.0
 30
0.0
  3
*MODEL_SPACE
  1

  0
ENDBLK
  5
1A
330
18
100
AcDbEntity
  8
0
100
AcDbBlockEnd
  0
BLOCK
  5
16
330
15
100
AcDbEntity
 67
     1
  8
0
100
AcDbBlockBegin
  2
*PAPER_SPACE
 70
     0
 10
0.0
 20
0.0
 30
0.0
  3
*PAPER_SPACE
  1

  0
ENDBLK
  5
17
330
15
100
AcDbEntity
 67
     1
  8
0
100
AcDbBlockEnd
  0
BLOCK
  5
46
330
45
100
AcDbEntity
  8
0
100
AcDbBlockBegin
  2
_OPEN
 70
     0
 10
0.0
 20
0.0
 30
0.0
  3
_OPEN
  1

  0
LINE
  5
47
330
45
100
AcDbEntity
  8
0
  6
ByBlock
 62
     0
100
AcDbLine
 10
-1.0
 20
0.1666666666666666
 30
0.0
 11
0.0
 21
0.0
 31
0.0
  0
LINE
  5
48
330
45
100
AcDbEntity
  8
0
  6
ByBlock
 62
     0
100
AcDbLine
 10
0.0
 20
0.0
 30
0.0
 11
-1.0
 21
-0.1666666666666666
 31
0.0
  0
LINE
  5
49
330
45
100
AcDbEntity
  8
0
  6
ByBlock
 62
     0
100
AcDbLine
 10
0.0
 20
0.0
 30
0.0
 11
-1.0
 21
0.0
 31
0.0
  0
ENDBLK
  5
4A
330
45
100
AcDbEntity
  8
0
100
AcDbBlockEnd
  0
BLOCK
  5
D15
330
D0B
100
AcDbEntity
  8
0
100
AcDbBlockBegin
  2
*D8
 70
     1
 10
0.0
 20
0.0
 30
0.0
  3
*D8
  1

  0
LINE
  5
199D
330
D0B
100
AcDbEntity
  8
外形線
 62
     2
370
    -2
100
AcDbLine
 10
90.28060310782256
 20
312.1245081449785
 30
0.0
 11
103.8402616193404
 21
312.1245081449785
 31
0.0
  0
LINE
  5
199E
330
D0B
100
AcDbEntity
  8
外形線
 62
     2
370
    -2
100
AcDbLine
 10
90.28060310782263
 20
253.3245081449785
 30
0.0
 11
103.8402616193403
 21
253.3245081449785
 31
0.0
  0
LINE
  5
199F
330
D0B
100
AcDbEntity
  8
外形線
 62
     2
370
    -2
100
AcDbLine
 10
102.5902616193403
 20
309.6245081449784
 30
0.0
 11
102.5902616193403
 21
255.8245081449785
 31
0.0
  0
INSERT
  5
19A0
330
D0B
100
AcDbEntity
  8
外形線
 62
     2
370
    -2
100
AcDbBlockReference
  2
_OPEN
 10
102.5902616193403
 20
312.1245081449785
 30
0.0
 41
2.5
 42
2.5
 43
2.5
 50
90.0
  0
INSERT
  5
19A1
330
D0B
100
AcDbEntity
  8
外形線
 62
     2
370
    -2
100
AcDbBlockReference
  2
_OPEN
 10
102.5902616193403
 20
253.3245081449785
 30
0.0
 41
2.5
 42
2.5
 43
2.5
 50
270.0
  0
MTEXT
  5
19A2
330
D0B
100
AcDbEntity
  8
外形線
 62
     6
100
AcDbMText
 10
100.7152616193403
 20
282.7245081449785
 30
0.0
 40
2.5
 41
0.0
 71
     5
 72
     1
  1
\A1;%%c58.8
  7
STYLE3
 11
0.0000000000000001
 21
1.0
 31
0.0
 73
     1
 44
1.0
  0
POINT
  5
19A3
330
D0B
100
AcDbEntity
  8
DEFPOINTS
 62
     0
100
AcDbPoint
 10
90.28060310782256
 20
312.1245081449785
 30
0.0
  0
POINT
  5
19A4
330
D0B
100
AcDbEntity
  8
DEFPOINTS
 62
     0
100
AcDbPoint
 10
90.28060310782263
 20
253.3245081449785
 30
0.0
  0
POINT
  5
19A5
330
D0B
100
AcDbEntity
  8
DEFPOINTS
 62
     0
100
AcDbPoint
 10
102.5902616193403
 20
253.3245081449785
 30
0.0
  0
ENDBLK
  5
D16
330
D0B
100
AcDbEntity
  8
0
100
AcDbBlockEnd
  0
BLOCK
  5
D21
330
D17
100
AcDbEntity
  8
0
100
AcDbBlockBegin
  2
*D9
 70
     1
 10
0.0
 20
0.0
 30
0.0
  3
*D9
  1

  0
LINE
  5
19A6
330
D17
100
AcDbEntity
  8
外形線
 62
     2
370
    -2
100
AcDbLine
 10
59.28060310782257
 20
312.7245081449785
 30
0.0
 11
49.20556312597729
 21
312.7245081449785
 31
0.0
  0
LINE
  5
19A7
330
D17
100
AcDbEntity
  8
外形線
 62
     2
370
    -2
100
AcDbLine
 10
59.28060310782257
 20
252.7245081449785
 30
0.0
 11
49.20556312597728
 21
252.7245081449785
 31
0.0
  0
LINE
  5
19A8
330
D17
100
AcDbEntity
  8
外形線
 62
     2
370
    -2
100
AcDbLine
 10
50.45556312597729
 20
310.2245081449785
 30
0.0
 11
50.45556312597728
 21
255.2245081449785
 31
0.0
  0
INSERT
  5
19A9
330
D17
100
AcDbEntity
  8
外形線
 62
     2
370
    -2
100
AcDbBlockReference
  2
_OPEN
 10
50.45556312597729
 20
312.7245081449785
 30
0.0
 41
2.5
 42
2.5
 43
2.5
 50
90.0
  0
INSERT
  5
19AA
330
D17
100
AcDbEntity
  8
外形線
 62
     2
370
    -2
100
AcDbBlockReference
  2
_OPEN
 10
50.45556312597728
 20
252.7245081449785
 30
0.0
 41
2.5
 42
2.5
 43
2.5
 50
270.0
  0
MTEXT
  5
19AB
330
D17
100
AcDbEntity
  8
外形線
 62
     6
100
AcDbMText
 10
48.58056312597724
 20
282.7245081449785
 30
0.0
 40
2.5
 41
0.0
 71
     5
 72
     1
  1
\A1;%%c60
  7
STYLE3
 11
0.0000000000000001
 21
1.0
 31
0.0
 73
     1
 44
1.0
  0
POINT
  5
19AC
330
D17
100
AcDbEntity
  8
DEFPOINTS
 62
     0
100
AcDbPoint
 10
59.28060310782257
 20
312.7245081449785
 30
0.0
  0
POINT
  5
19AD
330
D17
100
AcDbEntity
  8
DEFPOINTS
 62
     0
100
AcDbPoint
 10
59.28060310782257
 20
252.7245081449785
 30
0.0
  0
POINT
  5
19AE
330
D17
100
AcDbEntity
  8
DEFPOINTS
 62
     0
100
AcDbPoint
 10
50.45556312597728
 20
252.7245081449785
 30
0.0
  0
ENDBLK
  5
D22
330
D17
100
AcDbEntity
  8
0
100
AcDbBlockEnd
  0
BLOCK
  5
D2D
330
D23
100
AcDbEntity
  8
0
100
AcDbBlockBegin
  2
*D10
 70
     1
 10
0.0
 20
0.0
 30
0.0
  3
*D10
  1

  0
LINE
  5
19AF
330
D23
100
AcDbEntity
  8
外形線
 62
     2
370
    -2
100
AcDbLine
 10
56.68314117230398
 20
260.7245081449785
 30
0.0
 11
56.68314117230398
 21
220.0983097883102
 31
0.0
  0
LINE
  5
19B0
330
D23
100
AcDbEntity
  8
外形線
 62
     2
370
    -2
100
AcDbLine
 10
80.78060310782257
 20
221.7344977406817
 30
0.0
 11
80.78060310782257
 21
220.0983097883102
 31
0.0
  0
LINE
  5
19B1
330
D23
100
AcDbEntity
  8
外形線
 62
     2
370
    -2
100
AcDbLine
 10
59.18314117230398
 20
221.3483097883103
 30
0.0
 11
78.28060310782257
 21
221.3483097883103
 31
0.0
  0
INSERT
  5
19B2
330
D23
100
AcDbEntity
  8
外形線
 62
     2
370
    -2
100
AcDbBlockReference
  2
_OPEN
 10
56.68314117230398
 20
221.3483097883103
 30
0.0
 41
2.5
 42
2.5
 43
2.5
 50
180.0
  0
INSERT
  5
19B3
330
D23
100
AcDbEntity
  8
外形線
 62
     2
370
    -2
100
AcDbBlockReference
  2
_OPEN
 10
80.78060310782257
 20
221.3483097883103
 30
0.0
 41
2.5
 42
2.5
 43
2.5
  0
MTEXT
  5
19B4
330
D23
100
AcDbEntity
  8
外形線
 62
     6
100
AcDbMText
 10
68.73187214006327
 20
223.2233097883102
 30
0.0
 40
2.5
 41
0.0
 71
     5
 72
     1
  1
\A1;24.1
  7
STYLE3
 73
     1
 44
1.0
  0
POINT
  5
19B5
330
D23
100
AcDbEntity
  8
DEFPOINTS
 62
     0
100
AcDbPoint
 10
56.68314117230398
 20
260.7245081449785
 30
0.0
  0
POINT
  5
19B6
330
D23
100
AcDbEntity
  8
DEFPOINTS
 62
     0
100
AcDbPoint
 10
80.78060310782257
 20
221.7344977406817
 30
0.0
  0
POINT
  5
19B7
330
D23
100
AcDbEntity
  8
DEFPOINTS
 62
     0
100
AcDbPoint
 10
80.78060310782257
 20
221.3483097883103
 30
0.0
  0
ENDBLK
  5
D2E
330
D23
100
AcDbEntity
  8
0
100
AcDbBlockEnd
  0
BLOCK
  5
D39
330
D2F
100
AcDbEntity
  8
0
100
AcDbBlockBegin
  2
*D11
 70
     1
 10
0.0
 20
0.0
 30
0.0
  3
*D11
  1

  0
LINE
  5
19B8
330
D2F
100
AcDbEntity
  8
外形線
 62
     2
370
    -2
100
AcDbLine
 10
59.28060310782257
 20
311.5255334342273
 30
0.0
 11
59.28060310782257
 21
323.6370650451647
 31
0.0
  0
LINE
  5
19B9
330
D2F
100
AcDbEntity
  8
外形線
 62
     2
370
    -2
100
AcDbLine
 10
80.78060310782257
 20
319.0101067783904
 30
0.0
 11
80.78060310782257
 21
323.6370650451647
 31
0.0
  0
LINE
  5
19BA
330
D2F
100
AcDbEntity
  8
外形線
 62
     2
370
    -2
100
AcDbLine
 10
61.78060310782257
 20
322.3870650451647
 30
0.0
 11
78.28060310782257
 21
322.3870650451647
 31
0.0
  0
INSERT
  5
19BB
330
D2F
100
AcDbEntity
  8
外形線
 62
     2
370
    -2
100
AcDbBlockReference
  2
_OPEN
 10
59.28060310782257
 20
322.3870650451647
 30
0.0
 41
2.5
 42
2.5
 43
2.5
 50
180.0
  0
INSERT
  5
19BC
330
D2F
100
AcDbEntity
  8
外形線
 62
     2
370
    -2
100
AcDbBlockReference
  2
_OPEN
 10
80.78060310782257
 20
322.3870650451647
 30
0.0
 41
2.5
 42
2.5
 43
2.5
  0
MTEXT
  5
19BD
330
D2F
100
AcDbEntity
  8
外形線
 62
     6
100
AcDbMText
 10
70.03060310782257
 20
324.2620650451647
 30
0.0
 40
2.5
 41
0.0
 71
     5
 72
     1
  1
\A1;21.5
  7
STYLE3
 73
     1
 44
1.0
  0
POINT
  5
19BE
330
D2F
100
AcDbEntity
  8
DEFPOINTS
 62
     0
100
AcDbPoint
 10
59.28060310782257
 20
311.5255334342273
 30
0.0
  0
POINT
  5
19BF
330
D2F
100
AcDbEntity
  8
DEFPOINTS
 62
     0
100
AcDbPoint
 10
80.78060310782257
 20
319.0101067783904
 30
0.0
  0
POINT
  5
19C0
330
D2F
100
AcDbEntity
  8
DEFPOINTS
 62
     0
100
AcDbPoint
 10
80.78060310782257
 20
322.3870650451647
 30
0.0
  0
ENDBLK
  5
D3A
330
D2F
100
AcDbEntity
  8
0
100
AcDbBlockEnd
  0
BLOCK
  5
D44
330
D3B
100
AcDbEntity
  8
0
100
AcDbBlockBegin
  2
*D12
 70
     1
 10
0.0
 20
0.0
 30
0.0
  3
*D12
  1

  0
LINE
  5
19C1
330
D3B
100
AcDbEntity
  8
外形線
 62
     2
370
    -2
100
AcDbLine
 10
90.28060310782256
 20
318.6458708488946
 30
0.0
 11
90.28060310782256
 21
323.6370650451647
 31
0.0
  0
LINE
  5
19C2
330
D3B
100
AcDbEntity
  8
外形線
 62
     2
370
    -2
100
AcDbLine
 10
83.28060310782257
 20
322.3870650451647
 30
0.0
 11
87.78060310782256
 21
322.3870650451647
 31
0.0
  0
LINE
  5
19C3
330
D3B
100
AcDbEntity
  8
外形線
 62
     2
370
    -2
100
AcDbLine
 10
99.58192321244112
 20
322.3870650451647
 30
0.0
 11
90.28060310782256
 21
322.3870650451647
 31
0.0
  0
MTEXT
  5
19C4
330
D3B
100
AcDbEntity
  8
外形線
 62
     6
100
AcDbMText
 10
96.33787559339351
 20
324.2620650451647
 30
0.0
 40
2.5
 41
0.0
 71
     5
 72
     1
  1
\A1;9.5
  7
STYLE3
 73
     1
 44
1.0
  0
INSERT
  5
19C5
330
D3B
100
AcDbEntity
  8
外形線
 62
     2
370
    -2
100
AcDbBlockReference
  2
_OPEN
 10
80.78060310782257
 20
322.3870650451647
 30
0.0
 41
2.5
 42
2.5
 43
2.5
 50
180.0
  0
INSERT
  5
19C6
330
D3B
100
AcDbEntity
  8
外形線
 62
     2
370
    -2
100
AcDbBlockReference
  2
_OPEN
 10
90.28060310782256
 20
322.3870650451647
 30
0.0
 41
2.5
 42
2.5
 43
2.5
  0
POINT
  5
19C7
330
D3B
100
AcDbEntity
  8
DEFPOINTS
 62
     0
100
AcDbPoint
 10
80.78060310782257
 20
319.0101067783904
 30
0.0
  0
POINT
  5
19C8
330
D3B
100
AcDbEntity
  8
DEFPOINTS
 62
     0
100
AcDbPoint
 10
90.28060310782256
 20
318.6458708488946
 30
0.0
  0
POINT
  5
19C9
330
D3B
100
AcDbEntity
  8
DEFPOINTS
 62
     0
100
AcDbPoint
 10
90.28060310782256
 20
322.3870650451647
 30
0.0
  0
ENDBLK
  5
D45
330
D3B
100
AcDbEntity
  8
0
100
AcDbBlockEnd
  0
BLOCK
  5
D52
330
D46
100
AcDbEntity
  8
0
100
AcDbBlockBegin
  2
*D13
 70
     1
 10
0.0
 20
0.0
 30
0.0
  3
*D13
  1

  0
LINE
  5
1978
330
D46
100
AcDbEntity
  8
文字
 62
     2
370
    -2
100
AcDbLine
 10
0.7644122967431031
 20
221.3094647004068
 30
0.0
 11
0.7644122967431029
 21
218.1926389192339
 31
0.0
  0
LINE
  5
1979
330
D46
100
AcDbEntity
  8
文字
 62
     2
370
    -2
100
AcDbLine
 10
4.764412296743103
 20
220.8003303137323
 30
0.0
 11
4.764412296743103
 21
218.1926389192339
 31
0.0
  0
LINE
  5
197A
330
D46
100
AcDbEntity
  8
文字
 62
     2
370
    -2
100
AcDbLine
 10
-1.735587703256896
 20
219.4426389192339
 30
0.0
 11
-4.235587703256896
 21
219.4426389192339
 31
0.0
  0
LINE
  5
197B
330
D46
100
AcDbEntity
  8
文字
 62
     2
370
    -2
100
AcDbLine
 10
7.264412296743103
 20
219.4426389192339
 30
0.0
 11
15.06203134436215
 21
219.4426389192339
 31
0.0
  0
LINE
  5
197C
330
D46
100
AcDbEntity
  8
文字
 62
     2
370
    -2
100
AcDbLine
 10
0.764412296743103
 20
219.4426389192339
 30
0.0
 11
4.764412296743103
 21
219.4426389192339
 31
0.0
  0
INSERT
  5
197D
330
D46
100
AcDbEntity
  8
文字
 62
     2
370
    -2
100
AcDbBlockReference
  2
_OPEN
 10
0.764412296743103
 20
219.4426389192339
 30
0.0
 41
2.5
 42
2.5
 43
2.5
  0
INSERT
  5
197E
330
D46
100
AcDbEntity
  8
文字
 62
     2
370
    -2
100
AcDbBlockReference
  2
_OPEN
 10
4.764412296743103
 20
219.4426389192339
 30
0.0
 41
2.5
 42
2.5
 43
2.5
 50
180.0
  0
MTEXT
  5
197F
330
D46
100
AcDbEntity
  8
文字
 62
     6
100
AcDbMText
 10
12.41322182055262
 20
221.3176389192339
 30
0.0
 40
2.5
 41
0.0
 71
     5
 72
     1
  1
\A1;%%C4
  7
STYLE3
 73
     1
 44
1.0
  0
POINT
  5
1980
330
D46
100
AcDbEntity
  8
DEFPOINTS
 62
     0
100
AcDbPoint
 10
0.7644122967431031
 20
221.3094647004068
 30
0.0
  0
POINT
  5
1981
330
D46
100
AcDbEntity
  8
DEFPOINTS
 62
     0
100
AcDbPoint
 10
4.764412296743103
 20
220.8003303137323
 30
0.0
  0
POINT
  5
1982
330
D46
100
AcDbEntity
  8
DEFPOINTS
 62
     0
100
AcDbPoint
 10
4.764412296743103
 20
219.4426389192339
 30
0.0
  0
ENDBLK
  5
D53
330
D46
100
AcDbEntity
  8
0
100
AcDbBlockEnd
  0
BLOCK
  5
D6B
330
D60
100
AcDbEntity
  8
0
100
AcDbBlockBegin
  2
*D14
 70
     1
 10
0.0
 20
0.0
 30
0.0
  3
*D14
  1

  0
LINE
  5
198C
330
D60
100
AcDbEntity
  8
外形線
 62
     2
370
    -2
100
AcDbLine
 10
-1.235587703256896
 20
239.4675112916702
 30
0.0
 11
-1.235587703256896
 21
237.8427168048364
 31
0.0
  0
LINE
  5
198D
330
D60
100
AcDbEntity
  8
外形線
 62
     2
370
    -2
100
AcDbLine
 10
6.764412296743103
 20
239.3480301921813
 30
0.0
 11
6.764412296743103
 21
237.8427168048364
 31
0.0
  0
LINE
  5
198E
330
D60
100
AcDbEntity
  8
外形線
 62
     2
370
    -2
100
AcDbLine
 10
1.264412296743103
 20
239.0927168048364
 30
0.0
 11
4.264412296743103
 21
239.0927168048364
 31
0.0
  0
LINE
  5
198F
330
D60
100
AcDbEntity
  8
外形線
 62
     2
370
    -2
100
AcDbLine
 10
6.764412296743103
 20
239.0927168048364
 30
0.0
 11
14.44298372531453
 21
239.0927168048364
 31
0.0
  0
INSERT
  5
1990
330
D60
100
AcDbEntity
  8
外形線
 62
     2
370
    -2
100
AcDbBlockReference
  2
_OPEN
 10
-1.235587703256896
 20
239.0927168048364
 30
0.0
 41
2.5
 42
2.5
 43
2.5
 50
180.0
  0
INSERT
  5
1991
330
D60
100
AcDbEntity
  8
外形線
 62
     2
370
    -2
100
AcDbBlockReference
  2
_OPEN
 10
6.764412296743103
 20
239.0927168048364
 30
0.0
 41
2.5
 42
2.5
 43
2.5
  0
MTEXT
  5
1992
330
D60
100
AcDbEntity
  8
外形線
 62
     6
100
AcDbMText
 10
11.85369801102882
 20
240.9677168048364
 30
0.0
 40
2.5
 41
0.0
 71
     5
 72
     1
  1
\A1;%%C8
  7
STYLE3
 73
     1
 44
1.0
  0
POINT
  5
1993
330
D60
100
AcDbEntity
  8
DEFPOINTS
 62
     0
100
AcDbPoint
 10
-1.235587703256896
 20
239.4675112916702
 30
0.0
  0
POINT
  5
1994
330
D60
100
AcDbEntity
  8
DEFPOINTS
 62
     0
100
AcDbPoint
 10
6.764412296743103
 20
239.3480301921813
 30
0.0
  0
POINT
  5
1995
330
D60
100
AcDbEntity
  8
DEFPOINTS
 62
     0
100
AcDbPoint
 10
6.764412296743103
 20
239.0927168048364
 30
0.0
  0
ENDBLK
  5
D6C
330
D60
100
AcDbEntity
  8
0
100
AcDbBlockEnd
  0
BLOCK
  5
D77
330
D6D
100
AcDbEntity
  8
0
100
AcDbBlockBegin
  2
*D15
 70
     1
 10
0.0
 20
0.0
 30
0.0
  3
*D15
  1

  0
LINE
  5
1954
330
D6D
100
AcDbEntity
  8
寸法線
 62
     2
370
    -2
100
AcDbLine
 10
2.764412296743103
 20
346.7245081449785
 30
0.0
 11
-46.4987952771837
 21
346.7245081449785
 31
0.0
  0
LINE
  5
1955
330
D6D
100
AcDbEntity
  8
寸法線
 62
     2
370
    -2
100
AcDbLine
 10
-33.15454965531103
 20
282.7245081449785
 30
0.0
 11
-46.49879527718371
 21
282.7245081449785
 31
0.0
  0
LINE
  5
1956
330
D6D
100
AcDbEntity
  8
寸法線
 62
     2
370
    -2
100
AcDbLine
 10
-45.2487952771837
 20
344.2245081449785
 30
0.0
 11
-45.24879527718371
 21
285.2245081449785
 31
0.0
  0
INSERT
  5
1957
330
D6D
100
AcDbEntity
  8
寸法線
 62
     2
370
    -2
100
AcDbBlockReference
  2
_OPEN
 10
-45.2487952771837
 20
346.7245081449785
 30
0.0
 41
2.5
 42
2.5
 43
2.5
 50
90.0
  0
INSERT
  5
1958
330
D6D
100
AcDbEntity
  8
寸法線
 62
     2
370
    -2
100
AcDbBlockReference
  2
_OPEN
 10
-45.24879527718371
 20
282.7245081449785
 30
0.0
 41
2.5
 42
2.5
 43
2.5
 50
270.0
  0
MTEXT
  5
1959
330
D6D
100
AcDbEntity
  8
寸法線
 62
     6
100
AcDbMText
 10
-47.12379527718375
 20
314.7245081449785
 30
0.0
 40
2.5
 41
0.0
 71
     5
 72
     1
  1
\A1;64
  7
STYLE3
 11
0.0000000000000001
 21
1.0
 31
0.0
 73
     1
 44
1.0
  0
POINT
  5
195A
330
D6D
100
AcDbEntity
  8
DEFPOINTS
 62
     0
100
AcDbPoint
 10
2.764412296743103
 20
346.7245081449785
 30
0.0
  0
POINT
  5
195B
330
D6D
100
AcDbEntity
  8
DEFPOINTS
 62
     0
100
AcDbPoint
 10
-33.15454965531103
 20
282.7245081449785
 30
0.0
  0
POINT
  5
195C
330
D6D
100
AcDbEntity
  8
DEFPOINTS
 62
     0
100
AcDbPoint
 10
-45.24879527718371
 20
282.7245081449785
 30
0.0
  0
ENDBLK
  5
D78
330
D6D
100
AcDbEntity
  8
0
100
AcDbBlockEnd
  0
BLOCK
  5
D83
330
D79
100
AcDbEntity
  8
0
100
AcDbBlockBegin
  2
*D16
 70
     1
 10
0.0
 20
0.0
 30
0.0
  3
*D16
  1

  0
LINE
  5
1983
330
D79
100
AcDbEntity
  8
寸法線
 62
     2
370
    -2
100
AcDbLine
 10
-33.15454965531103
 20
282.7245081449785
 30
0.0
 11
-46.49879527718371
 21
282.7245081449785
 31
0.0
  0
LINE
  5
1984
330
D79
100
AcDbEntity
  8
寸法線
 62
     2
370
    -2
100
AcDbLine
 10
-2.235587703256896
 20
247.6245081449785
 30
0.0
 11
-46.49879527718371
 21
247.6245081449785
 31
0.0
  0
LINE
  5
1985
330
D79
100
AcDbEntity
  8
寸法線
 62
     2
370
    -2
100
AcDbLine
 10
-45.24879527718371
 20
280.2245081449785
 30
0.0
 11
-45.24879527718371
 21
250.1245081449785
 31
0.0
  0
INSERT
  5
1986
330
D79
100
AcDbEntity
  8
寸法線
 62
     2
370
    -2
100
AcDbBlockReference
  2
_OPEN
 10
-45.24879527718371
 20
282.7245081449785
 30
0.0
 41
2.5
 42
2.5
 43
2.5
 50
90.0
  0
INSERT
  5
1987
330
D79
100
AcDbEntity
  8
寸法線
 62
     2
370
    -2
100
AcDbBlockReference
  2
_OPEN
 10
-45.24879527718371
 20
247.6245081449785
 30
0.0
 41
2.5
 42
2.5
 43
2.5
 50
270.0
  0
MTEXT
  5
1988
330
D79
100
AcDbEntity
  8
寸法線
 62
     6
100
AcDbMText
 10
-47.12379527718375
 20
265.1745081449785
 30
0.0
 40
2.5
 41
0.0
 71
     5
 72
     1
  1
\A1;35.1
  7
STYLE3
 11
0.0000000000000001
 21
1.0
 31
0.0
 73
     1
 44
1.0
  0
POINT
  5
1989
330
D79
100
AcDbEntity
  8
DEFPOINTS
 62
     0
100
AcDbPoint
 10
-33.15454965531103
 20
282.7245081449785
 30
0.0
  0
POINT
  5
198A
330
D79
100
AcDbEntity
  8
DEFPOINTS
 62
     0
100
AcDbPoint
 10
-2.235587703256896
 20
247.6245081449785
 30
0.0
  0
POINT
  5
198B
330
D79
100
AcDbEntity
  8
DEFPOINTS
 62
     0
100
AcDbPoint
 10
-45.24879527718371
 20
247.6245081449785
 30
0.0
  0
ENDBLK
  5
D84
330
D79
100
AcDbEntity
  8
0
100
AcDbBlockEnd
  0
BLOCK
  5
D8F
330
D85
100
AcDbEntity
  8
0
100
AcDbBlockBegin
  2
*D17
 70
     1
 10
0.0
 20
0.0
 30
0.0
  3
*D17
  1

  0
LINE
  5
195D
330
D85
100
AcDbEntity
  8
寸法線
 62
     2
370
    -2
100
AcDbLine
 10
-2.235587703256896
 20
247.6245081449785
 30
0.0
 11
-46.49879527718371
 21
247.6245081449785
 31
0.0
  0
LINE
  5
195E
330
D85
100
AcDbEntity
  8
寸法線
 62
     2
370
    -2
100
AcDbLine
 10
-0.9855877032568969
 20
226.6245081449786
 30
0.0
 11
-46.49879527718371
 21
226.6245081449786
 31
0.0
  0
LINE
  5
195F
330
D85
100
AcDbEntity
  8
寸法線
 62
     2
370
    -2
100
AcDbLine
 10
-45.24879527718371
 20
245.1245081449785
 30
0.0
 11
-45.24879527718371
 21
229.1245081449786
 31
0.0
  0
INSERT
  5
1960
330
D85
100
AcDbEntity
  8
寸法線
 62
     2
370
    -2
100
AcDbBlockReference
  2
_OPEN
 10
-45.24879527718371
 20
247.6245081449785
 30
0.0
 41
2.5
 42
2.5
 43
2.5
 50
90.0
  0
INSERT
  5
1961
330
D85
100
AcDbEntity
  8
寸法線
 62
     2
370
    -2
100
AcDbBlockReference
  2
_OPEN
 10
-45.24879527718371
 20
226.6245081449786
 30
0.0
 41
2.5
 42
2.5
 43
2.5
 50
270.0
  0
MTEXT
  5
1962
330
D85
100
AcDbEntity
  8
寸法線
 62
     6
100
AcDbMText
 10
-47.12379527718375
 20
237.1245081449785
 30
0.0
 40
2.5
 41
0.0
 71
     5
 72
     1
  1
\A1;21
  7
STYLE3
 11
0.0000000000000001
 21
1.0
 31
0.0
 73
     1
 44
1.0
  0
POINT
  5
1963
330
D85
100
AcDbEntity
  8
DEFPOINTS
 62
     0
100
AcDbPoint
 10
-2.235587703256896
 20
247.6245081449785
 30
0.0
  0
POINT
  5
1964
330
D85
100
AcDbEntity
  8
DEFPOINTS
 62
     0
100
AcDbPoint
 10
-0.9855877032568969
 20
226.6245081449786
 30
0.0
  0
POINT
  5
1965
330
D85
100
AcDbEntity
  8
DEFPOINTS
 62
     0
100
AcDbPoint
 10
-45.24879527718371
 20
226.6245081449786
 30
0.0
  0
ENDBLK
  5
D90
330
D85
100
AcDbEntity
  8
0
100
AcDbBlockEnd
  0
BLOCK
  5
D9B
330
D91
100
AcDbEntity
  8
0
100
AcDbBlockBegin
  2
*D18
 70
     1
 10
0.0
 20
0.0
 30
0.0
  3
*D18
  1

  0
LINE
  5
196F
330
D91
100
AcDbEntity
  8
寸法線
 62
     2
370
    -2
100
AcDbLine
 10
-0.9855877032568969
 20
226.6245081449786
 30
0.0
 11
-46.49879527718371
 21
226.6245081449786
 31
0.0
  0
LINE
  5
1970
330
D91
100
AcDbEntity
  8
寸法線
 62
     2
370
    -2
100
AcDbLine
 10
0.7644122967431031
 20
200.2245081449785
 30
0.0
 11
-46.49879527718371
 21
200.2245081449785
 31
0.0
  0
LINE
  5
1971
330
D91
100
AcDbEntity
  8
寸法線
 62
     2
370
    -2
100
AcDbLine
 10
-45.24879527718371
 20
224.1245081449786
 30
0.0
 11
-45.24879527718371
 21
202.7245081449785
 31
0.0
  0
INSERT
  5
1972
330
D91
100
AcDbEntity
  8
寸法線
 62
     2
370
    -2
100
AcDbBlockReference
  2
_OPEN
 10
-45.24879527718371
 20
226.6245081449786
 30
0.0
 41
2.5
 42
2.5
 43
2.5
 50
90.0
  0
INSERT
  5
1973
330
D91
100
AcDbEntity
  8
寸法線
 62
     2
370
    -2
100
AcDbBlockReference
  2
_OPEN
 10
-45.24879527718371
 20
200.2245081449785
 30
0.0
 41
2.5
 42
2.5
 43
2.5
 50
270.0
  0
MTEXT
  5
1974
330
D91
100
AcDbEntity
  8
寸法線
 62
     6
100
AcDbMText
 10
-47.12379527718375
 20
213.4245081449785
 30
0.0
 40
2.5
 41
0.0
 71
     5
 72
     1
  1
\A1;26.4
  7
STYLE3
 11
0.0000000000000001
 21
1.0
 31
0.0
 73
     1
 44
1.0
  0
POINT
  5
1975
330
D91
100
AcDbEntity
  8
DEFPOINTS
 62
     0
100
AcDbPoint
 10
-0.9855877032568969
 20
226.6245081449786
 30
0.0
  0
POINT
  5
1976
330
D91
100
AcDbEntity
  8
DEFPOINTS
 62
     0
100
AcDbPoint
 10
0.7644122967431031
 20
200.2245081449785
 30
0.0
  0
POINT
  5
1977
330
D91
100
AcDbEntity
  8
DEFPOINTS
 62
     0
100
AcDbPoint
 10
-45.24879527718371
 20
200.2245081449785
 30
0.0
  0
ENDBLK
  5
D9C
330
D91
100
AcDbEntity
  8
0
100
AcDbBlockEnd
  0
BLOCK
  5
DA7
330
D9D
100
AcDbEntity
  8
0
100
AcDbBlockBegin
  2
*D19
 70
     1
 10
0.0
 20
0.0
 30
0.0
  3
*D19
  1

  0
LINE
  5
1966
330
D9D
100
AcDbEntity
  8
寸法線
 62
     2
370
    -2
100
AcDbLine
 10
0.7644122967431031
 20
200.2245081449785
 30
0.0
 11
-46.49879527718371
 21
200.2245081449785
 31
0.0
  0
LINE
  5
1967
330
D9D
100
AcDbEntity
  8
寸法線
 62
     2
370
    -2
100
AcDbLine
 10
2.764412296743103
 20
191.2245081449785
 30
0.0
 11
-46.49879527718371
 21
191.2245081449785
 31
0.0
  0
LINE
  5
1968
330
D9D
100
AcDbEntity
  8
寸法線
 62
     2
370
    -2
100
AcDbLine
 10
-45.24879527718371
 20
197.7245081449785
 30
0.0
 11
-45.24879527718371
 21
193.7245081449785
 31
0.0
  0
INSERT
  5
1969
330
D9D
100
AcDbEntity
  8
寸法線
 62
     2
370
    -2
100
AcDbBlockReference
  2
_OPEN
 10
-45.24879527718371
 20
200.2245081449785
 30
0.0
 41
2.5
 42
2.5
 43
2.5
 50
90.0
  0
INSERT
  5
196A
330
D9D
100
AcDbEntity
  8
寸法線
 62
     2
370
    -2
100
AcDbBlockReference
  2
_OPEN
 10
-45.24879527718371
 20
191.2245081449785
 30
0.0
 41
2.5
 42
2.5
 43
2.5
 50
270.0
  0
MTEXT
  5
196B
330
D9D
100
AcDbEntity
  8
寸法線
 62
     6
100
AcDbMText
 10
-47.12379527718375
 20
195.7245081449785
 30
0.0
 40
2.5
 41
0.0
 71
     5
 72
     1
  1
\A1;9
  7
STYLE3
 11
0.0000000000000001
 21
1.0
 31
0.0
 73
     1
 44
1.0
  0
POINT
  5
196C
330
D9D
100
AcDbEntity
  8
DEFPOINTS
 62
     0
100
AcDbPoint
 10
0.7644122967431031
 20
200.2245081449785
 30
0.0
  0
POINT
  5
196D
330
D9D
100
AcDbEntity
  8
DEFPOINTS
 62
     0
100
AcDbPoint
 10
2.764412296743103
 20
191.2245081449785
 30
0.0
  0
POINT
  5
196E
330
D9D
100
AcDbEntity
  8
DEFPOINTS
 62
     0
100
AcDbPoint
 10
-45.24879527718371
 20
191.2245081449785
 30
0.0
  0
ENDBLK
  5
DA8
330
D9D
100
AcDbEntity
  8
0
100
AcDbBlockEnd
  0
BLOCK
  5
DB3
330
DA9
100
AcDbEntity
  8
0
100
AcDbBlockBegin
  2
*D20
 70
     1
 10
0.0
 20
0.0
 30
0.0
  3
*D20
  1

  0
LINE
  5
194B
330
DA9
100
AcDbEntity
  8
寸法線
 62
     2
370
    -2
100
AcDbLine
 10
2.764412296743103
 20
346.7245081449785
 30
0.0
 11
-55.69426673527513
 21
346.7245081449785
 31
0.0
  0
LINE
  5
194C
330
DA9
100
AcDbEntity
  8
寸法線
 62
     2
370
    -2
100
AcDbLine
 10
2.764412296743103
 20
191.2245081449785
 30
0.0
 11
-55.69426673527517
 21
191.2245081449785
 31
0.0
  0
LINE
  5
194D
330
DA9
100
AcDbEntity
  8
寸法線
 62
     2
370
    -2
100
AcDbLine
 10
-54.44426673527513
 20
344.2245081449785
 30
0.0
 11
-54.44426673527517
 21
193.7245081449785
 31
0.0
  0
INSERT
  5
194E
330
DA9
100
AcDbEntity
  8
寸法線
 62
     2
370
    -2
100
AcDbBlockReference
  2
_OPEN
 10
-54.44426673527513
 20
346.7245081449785
 30
0.0
 41
2.5
 42
2.5
 43
2.5
 50
90.0
  0
INSERT
  5
194F
330
DA9
100
AcDbEntity
  8
寸法線
 62
     2
370
    -2
100
AcDbBlockReference
  2
_OPEN
 10
-54.44426673527517
 20
191.2245081449785
 30
0.0
 41
2.5
 42
2.5
 43
2.5
 50
270.0
  0
MTEXT
  5
1950
330
DA9
100
AcDbEntity
  8
寸法線
 62
     6
100
AcDbMText
 10
-56.31926673527519
 20
268.9745081449785
 30
0.0
 40
2.5
 41
0.0
 71
     5
 72
     1
  1
\A1;155.5
  7
STYLE3
 11
0.0000000000000001
 21
1.0
 31
0.0
 73
     1
 44
1.0
  0
POINT
  5
1951
330
DA9
100
AcDbEntity
  8
DEFPOINTS
 62
     0
100
AcDbPoint
 10
2.764412296743103
 20
346.7245081449785
 30
0.0
  0
POINT
  5
1952
330
DA9
100
AcDbEntity
  8
DEFPOINTS
 62
     0
100
AcDbPoint
 10
2.764412296743103
 20
191.2245081449785
 30
0.0
  0
POINT
  5
1953
330
DA9
100
AcDbEntity
  8
DEFPOINTS
 62
     0
100
AcDbPoint
 10
-54.44426673527517
 20
191.2245081449785
 30
0.0
  0
ENDBLK
  5
DB4
330
DA9
100
AcDbEntity
  8
0
100
AcDbBlockEnd
  0
BLOCK
  5
ED6
330
ECC
100
AcDbEntity
  8
0
100
AcDbBlockBegin
  2
*D21
 70
     1
 10
0.0
 20
0.0
 30
0.0
  3
*D21
  1

  0
LINE
  5
1942
330
ECC
100
AcDbEntity
  8
寸法線
 62
     2
370
    -2
100
AcDbLine
 10
-33.15454965531103
 20
282.7245081449785
 30
0.0
 11
-35.97536543204809
 21
282.7245081449785
 31
0.0
  0
LINE
  5
1943
330
ECC
100
AcDbEntity
  8
寸法線
 62
     2
370
    -2
100
AcDbLine
 10
-2.23558770325684
 20
329.7245081449785
 30
0.0
 11
-35.97536543204808
 21
329.7245081449785
 31
0.0
  0
LINE
  5
1944
330
ECC
100
AcDbEntity
  8
寸法線
 62
     2
370
    -2
100
AcDbLine
 10
-34.72536543204809
 20
285.2245081449785
 30
0.0
 11
-34.72536543204808
 21
327.2245081449785
 31
0.0
  0
INSERT
  5
1945
330
ECC
100
AcDbEntity
  8
寸法線
 62
     2
370
    -2
100
AcDbBlockReference
  2
_OPEN
 10
-34.72536543204809
 20
282.7245081449785
 30
0.0
 41
2.5
 42
2.5
 43
2.5
 50
270.0
  0
INSERT
  5
1946
330
ECC
100
AcDbEntity
  8
寸法線
 62
     2
370
    -2
100
AcDbBlockReference
  2
_OPEN
 10
-34.72536543204808
 20
329.7245081449785
 30
0.0
 41
2.5
 42
2.5
 43
2.5
 50
90.0
  0
MTEXT
  5
1947
330
ECC
100
AcDbEntity
  8
寸法線
 62
     6
100
AcDbMText
 10
-36.60036543204813
 20
306.2245081449785
 30
0.0
 40
2.5
 41
0.0
 71
     5
 72
     1
  1
\A1;47
  7
STYLE3
 11
0.0000000000000001
 21
1.0
 31
0.0
 73
     1
 44
1.0
  0
POINT
  5
1948
330
ECC
100
AcDbEntity
  8
DEFPOINTS
 62
     0
100
AcDbPoint
 10
-33.15454965531103
 20
282.7245081449785
 30
0.0
  0
POINT
  5
1949
330
ECC
100
AcDbEntity
  8
DEFPOINTS
 62
     0
100
AcDbPoint
 10
-2.23558770325684
 20
329.7245081449785
 30
0.0
  0
POINT
  5
194A
330
ECC
100
AcDbEntity
  8
DEFPOINTS
 62
     0
100
AcDbPoint
 10
-34.72536543204808
 20
329.7245081449785
 30
0.0
  0
ENDBLK
  5
ED7
330
ECC
100
AcDbEntity
  8
0
100
AcDbBlockEnd
  0
BLOCK
  5
EE3
330
ED9
100
AcDbEntity
  8
0
100
AcDbBlockBegin
  2
*D22
 70
     1
 10
0.0
 20
0.0
 30
0.0
  3
*D22
  1

  0
LINE
  5
1996
330
ED9
100
AcDbEntity
  8
寸法線
 62
     2
370
    -2
100
AcDbLine
 10
-0.735587703256897
 20
320.9314144707241
 30
0.0
 11
6.264412296743103
 21
320.9314144707241
 31
0.0
  0
INSERT
  5
1997
330
ED9
100
AcDbEntity
  8
寸法線
 62
     2
370
    -2
100
AcDbBlockReference
  2
_OPEN
 10
-3.235587703256896
 20
320.9314144707241
 30
0.0
 41
2.5
 42
2.5
 43
2.5
 50
180.0
  0
INSERT
  5
1998
330
ED9
100
AcDbEntity
  8
寸法線
 62
     2
370
    -2
100
AcDbBlockReference
  2
_OPEN
 10
8.764412296743103
 20
320.9314144707241
 30
0.0
 41
2.5
 42
2.5
 43
2.5
  0
MTEXT
  5
1999
330
ED9
100
AcDbEntity
  8
寸法線
 62
     6
100
AcDbMText
 10
2.764412296743103
 20
322.8064144707241
 30
0.0
 40
2.5
 41
0.0
 71
     5
 72
     1
  1
\A1;%%C12
  7
STYLE3
 73
     1
 44
1.0
  0
POINT
  5
199A
330
ED9
100
AcDbEntity
  8
DEFPOINTS
 62
     0
100
AcDbPoint
 10
-3.235587703256896
 20
320.931414470724
 30
0.0
  0
POINT
  5
199B
330
ED9
100
AcDbEntity
  8
DEFPOINTS
 62
     0
100
AcDbPoint
 10
8.764412296743103
 20
320.9314144707241
 30
0.0
  0
POINT
  5
199C
330
ED9
100
AcDbEntity
  8
DEFPOINTS
 62
     0
100
AcDbPoint
 10
8.764412296743103
 20
320.9314144707241
 30
0.0
  0
ENDBLK
  5
EE4
330
ED9
100
AcDbEntity
  8
0
100
AcDbBlockEnd
  0
ENDSEC
  0
SECTION
  2
ENTITIES
  0
LWPOLYLINE
  5
B3A
330
18
100
AcDbEntity
  8
C
100
AcDbPolyline
 90
        5
 70
     0
 43
0.4
 10
-65.60066372595565
 20
359.2717302764469
 10
189.3993362740443
 20
359.2717302764469
 10
189.3993362740443
 20
164.2717302764469
 10
-65.60066372595565
 20
164.2717302764469
 10
-65.60066372595565
 20
359.2717302764469
  0
LINE
  5
B7A
330
18
100
AcDbEntity
  8
中心線
100
AcDbLine
 10
-33.15454965531103
 20
282.7245081449785
 30
0.0
 11
37.12532983410461
 21
282.7245081449785
 31
0.0
  0
LINE
  5
B7B
330
18
100
AcDbEntity
  8
中心線
100
AcDbLine
 10
2.764412296743103
 20
348.8952471296464
 30
0.0
 11
2.764412296743103
 21
188.9972132967123
 31
0.0
  0
CIRCLE
  5
B7C
330
18
100
AcDbEntity
  8
外形線
100
AcDbCircle
 10
2.764412296743103
 20
282.7245081449785
 30
0.0
 40
30.0
  0
LINE
  5
B7D
330
18
100
AcDbEntity
  8
中心線
100
AcDbLine
 10
80.78060310782257
 20
350.2987827010019
 30
0.0
 11
80.78060310782262
 21
188.9972132967123
 31
0.0
  0
LINE
  5
B7E
330
18
100
AcDbEntity
  8
中心線
100
AcDbLine
 10
52.63295187226185
 20
282.7245081449785
 30
0.0
 11
97.10208190402251
 21
282.7245081449785
 31
0.0
  0
LINE
  5
B7F
330
18
100
AcDbEntity
  8
外形線
100
AcDbLine
 10
74.28060310782263
 20
312.1245081449786
 30
0.0
 11
90.28060310782256
 21
312.1245081449785
 31
0.0
  0
LINE
  5
B80
330
18
100
AcDbEntity
  8
外形線
100
AcDbLine
 10
74.28060310782257
 20
253.3245081449785
 30
0.0
 11
90.28060310782263
 21
253.3245081449785
 31
0.0
  0
LINE
  5
B81
330
18
100
AcDbEntity
  8
外形線
100
AcDbLine
 10
90.28060310782256
 20
312.1245081449785
 30
0.0
 11
90.28060310782263
 21
253.3245081449785
 31
0.0
  0
LINE
  5
B82
330
18
100
AcDbEntity
  8
外形線
100
AcDbLine
 10
59.28060310782257
 20
312.7245081449785
 30
0.0
 11
59.28060310782257
 21
252.7245081449785
 31
0.0
  0
LINE
  5
B83
330
18
100
AcDbEntity
  8
外形線
100
AcDbLine
 10
88.78060310782258
 20
312.1245081449785
 30
0.0
 11
88.78060310782263
 21
253.3245081449785
 31
0.0
  0
LINE
  5
B84
330
18
100
AcDbEntity
  8
外形線
100
AcDbLine
 10
87.78060310782256
 20
312.1245081449785
 30
0.0
 11
87.78060310782263
 21
253.3245081449785
 31
0.0
  0
LINE
  5
B85
330
18
100
AcDbEntity
  8
外形線
100
AcDbLine
 10
72.28060310782263
 20
313.7245081449785
 30
0.0
 11
72.28060310782268
 21
309.2245081449785
 31
0.0
  0
LINE
  5
B86
330
18
100
AcDbEntity
  8
外形線
100
AcDbLine
 10
66.78060310782257
 20
313.7245081449785
 30
0.0
 11
66.78060310782263
 21
309.2245081449786
 31
0.0
  0
LINE
  5
B87
330
18
100
AcDbEntity
  8
外形線
100
AcDbLine
 10
59.28060310782257
 20
312.7245081449785
 30
0.0
 11
66.78060310782257
 21
312.7245081449785
 31
0.0
  0
LINE
  5
B88
330
18
100
AcDbEntity
  8
外形線
100
AcDbLine
 10
59.28060310782263
 20
252.7245081449785
 30
0.0
 11
72.2806031078228
 21
252.7245081449785
 31
0.0
  0
LINE
  5
B89
330
18
100
AcDbEntity
  8
外形線
100
AcDbLine
 10
66.78060310782257
 20
313.7245081449785
 30
0.0
 11
72.28060310782263
 21
313.7245081449785
 31
0.0
  0
LINE
  5
B8A
330
18
100
AcDbEntity
  8
外形線
100
AcDbLine
 10
66.78060310782257
 20
310.2245081449785
 30
0.0
 11
72.28060310782263
 21
310.2245081449785
 31
0.0
  0
LINE
  5
B8B
330
18
100
AcDbEntity
  8
外形線
100
AcDbLine
 10
66.78060310782263
 20
309.2245081449786
 30
0.0
 11
72.28060310782268
 21
309.2245081449785
 31
0.0
  0
LINE
  5
B8C
330
18
100
AcDbEntity
  8
外形線
100
AcDbLine
 10
72.28060310782268
 20
309.2245081449785
 30
0.0
 11
72.28060310782268
 21
252.7245081449785
 31
0.0
  0
LINE
  5
B8D
330
18
100
AcDbEntity
  8
外形線
100
AcDbLine
 10
71.28060310782274
 20
255.2245081449785
 30
0.0
 11
71.28060310782268
 21
252.7245081449785
 31
0.0
  0
LINE
  5
B8E
330
18
100
AcDbEntity
  8
外形線
100
AcDbLine
 10
65.78060310782262
 20
255.2245081449785
 30
0.0
 11
65.78060310782269
 21
252.7245081449785
 31
0.0
  0
LINE
  5
B8F
330
18
100
AcDbEntity
  8
外形線
100
AcDbLine
 10
65.78060310782262
 20
255.2245081449785
 30
0.0
 11
71.28060310782274
 21
255.2245081449785
 31
0.0
  0
LINE
  5
B90
330
18
100
AcDbEntity
  8
外形線
100
AcDbLine
 10
58.28060310782257
 20
282.7245081449785
 30
0.0
 11
58.28060310782257
 21
271.2245081449785
 31
0.0
  0
LINE
  5
B91
330
18
100
AcDbEntity
  8
外形線
100
AcDbLine
 10
56.68060310782255
 20
271.2245081449785
 30
0.0
 11
58.28060310782257
 21
271.2245081449785
 31
0.0
  0
ARC
  5
B92
330
18
100
AcDbEntity
  8
外形線
100
AcDbCircle
 10
237.897857348149
 20
287.2353148027801
 30
0.0
 40
181.9206400838717
100
AcDbArc
 50
185.0491250177044
 51
187.1079812663745
  0
LINE
  5
B93
330
18
100
AcDbEntity
  8
外形線
100
AcDbLine
 10
56.68314117230403
 20
264.7245081449785
 30
0.0
 11
57.68314117230397
 21
264.7245081449785
 31
0.0
  0
LINE
  5
B94
330
18
100
AcDbEntity
  8
外形線
100
AcDbLine
 10
56.68314117230398
 20
260.7245081449785
 30
0.0
 11
58.68314117230397
 21
260.7245081449785
 31
0.0
  0
LINE
  5
B95
330
18
100
AcDbEntity
  8
外形線
100
AcDbLine
 10
58.28060310782257
 20
282.7245081449785
 30
0.0
 11
59.28060310782257
 21
282.7245081449785
 31
0.0
  0
LINE
  5
B96
330
18
100
AcDbEntity
  8
外形線
100
AcDbLine
 10
56.68314117230398
 20
264.7245081449785
 30
0.0
 11
56.68314117230398
 21
260.7245081449785
 31
0.0
  0
LINE
  5
B97
330
18
100
AcDbEntity
  8
外形線
100
AcDbLine
 10
57.68314117230397
 20
264.7245081449785
 30
0.0
 11
58.68314117230397
 21
260.7245081449785
 31
0.0
  0
ARC
  5
B98
330
18
100
AcDbEntity
  8
外形線
100
AcDbCircle
 10
237.897857348149
 20
287.2353148027801
 30
0.0
 40
181.9206400838717
100
AcDbArc
 50
188.379398725257
 51
190.9354250164128
  0
LINE
  5
B99
330
18
100
AcDbEntity
  8
外形線
100
AcDbLine
 10
74.28060310782263
 20
312.1245081449786
 30
0.0
 11
74.28060310782257
 21
253.3245081449785
 31
0.0
  0
LINE
  5
B9A
330
18
100
AcDbEntity
  8
外形線
100
AcDbLine
 10
72.2806031078228
 20
252.7245081449785
 30
0.0
 11
74.28060310782257
 21
253.3245081449785
 31
0.0
  0
LINE
  5
BB3
330
18
100
AcDbEntity
  8
外形線
 62
     2
100
AcDbLine
 10
-2.235587703256896
 20
337.6245081449787
 30
0.0
 11
-2.235587703256896
 21
352.4251548538338
 31
0.0
  0
LINE
  5
BB4
330
18
100
AcDbEntity
  8
外形線
 62
     2
100
AcDbLine
 10
7.764412296743103
 20
337.6245081449785
 30
0.0
 11
7.764412296743103
 21
352.4251548538338
 31
0.0
  0
LINE
  5
BB5
330
18
100
AcDbEntity
  8
外形線
 62
     2
100
AcDbLine
 10
0.2644122967431031
 20
351.1751548538338
 30
0.0
 11
5.264412296743103
 21
351.1751548538338
 31
0.0
  0
INSERT
  5
BB6
330
18
100
AcDbEntity
  8
外形線
 62
     2
100
AcDbBlockReference
  2
_OPEN
 10
-2.235587703256896
 20
351.1751548538338
 30
0.0
 41
2.5
 42
2.5
 43
2.5
 50
180.0
  0
INSERT
  5
BB7
330
18
100
AcDbEntity
  8
外形線
 62
     2
100
AcDbBlockReference
  2
_OPEN
 10
7.764412296743103
 20
351.1751548538338
 30
0.0
 41
2.5
 42
2.5
 43
2.5
  0
MTEXT
  5
BB8
330
18
100
AcDbEntity
  8
外形線
 62
     6
100
AcDbMText
 10
2.764412296743103
 20
353.0501548538338
 30
0.0
 40
2.5
 41
0.0
 71
     5
 72
     1
  1
\A1;φ10
  7
STYLE3
 73
     1
 44
1.0
  0
DIMENSION
  5
BB9
330
18
100
AcDbEntity
  8
外形線
100
AcDbDimension
  2
*D8
 10
102.5902616193403
 20
253.3245081449785
 30
0.0
 11
100.7152616193403
 21
282.7245081449785
 31
0.0
 70
    32
  1
%%c<>
 71
     5
 42
58.79999999999987
  3
STYLE3
100
AcDbAlignedDimension
 13
90.28060310782256
 23
312.1245081449785
 33
0.0
 14
90.28060310782263
 24
253.3245081449785
 34
0.0
 50
90.0
100
AcDbRotatedDimension
1001
ACAD
1000
DSTYLE
1002
{
1070
   271
1070
     2
1002
}
  0
DIMENSION
  5
BBA
330
18
100
AcDbEntity
  8
外形線
100
AcDbDimension
  2
*D9
 10
50.45556312597728
 20
252.7245081449785
 30
0.0
 11
48.58056312597724
 21
282.7245081449785
 31
0.0
 70
    32
  1
%%c<>
 71
     5
 42
59.99999999999994
  3
STYLE3
100
AcDbAlignedDimension
 13
59.28060310782257
 23
312.7245081449785
 33
0.0
 14
59.28060310782257
 24
252.7245081449785
 34
0.0
 50
90.0
100
AcDbRotatedDimension
1001
ACAD
1000
DSTYLE
1002
{
1070
   271
1070
     2
1002
}
  0
DIMENSION
  5
BBB
330
18
100
AcDbEntity
  8
外形線
100
AcDbDimension
  2
*D10
 10
80.78060310782257
 20
221.3483097883103
 30
0.0
 11
68.73187214006327
 21
223.2233097883102
 31
0.0
 70
    32
 71
     5
 42
24.0974619355186
  3
STYLE3
100
AcDbAlignedDimension
 13
56.68314117230398
 23
260.7245081449785
 33
0.0
 14
80.78060310782257
 24
221.7344977406817
 34
0.0
100
AcDbRotatedDimension
1001
ACAD
1000
DSTYLE
1002
{
1070
   271
1070
     2
1002
}
  0
LINE
  5
BBC
330
18
100
AcDbEntity
  8
外形線
 62
     2
100
AcDbLine
 10
59.28060310782257
 20
312.7245081449785
 30
0.0
 11
59.28060310782257
 21
353.4520943543351
 31
0.0
  0
LINE
  5
BBD
330
18
100
AcDbEntity
  8
外形線
 62
     2
100
AcDbLine
 10
90.28060310782269
 20
312.1245081449785
 30
0.0
 11
90.28060310782256
 21
353.4520943543351
 31
0.0
  0
LINE
  5
BBE
330
18
100
AcDbEntity
  8
外形線
 62
     2
100
AcDbLine
 10
61.78060310782257
 20
352.2020943543351
 30
0.0
 11
87.78060310782256
 21
352.2020943543351
 31
0.0
  0
INSERT
  5
BBF
330
18
100
AcDbEntity
  8
外形線
 62
     2
100
AcDbBlockReference
  2
_OPEN
 10
59.28060310782257
 20
352.2020943543351
 30
0.0
 41
2.5
 42
2.5
 43
2.5
 50
180.0
  0
INSERT
  5
BC0
330
18
100
AcDbEntity
  8
外形線
 62
     2
100
AcDbBlockReference
  2
_OPEN
 10
90.28060310782256
 20
352.2020943543351
 30
0.0
 41
2.5
 42
2.5
 43
2.5
  0
MTEXT
  5
BC1
330
18
100
AcDbEntity
  8
外形線
 62
     6
100
AcDbMText
 10
74.78060310782257
 20
354.0770943543351
 30
0.0
 40
2.5
 41
0.0
 71
     5
 72
     1
  1
\A1;31
  7
STYLE3
 73
     1
 44
1.0
  0
DIMENSION
  5
BC2
330
18
100
AcDbEntity
  8
外形線
100
AcDbDimension
  2
*D11
 10
80.78060310782257
 20
322.3870650451647
 30
0.0
 11
70.03060310782257
 21
324.2620650451647
 31
0.0
 70
    32
 71
     5
 42
21.5
  3
STYLE3
100
AcDbAlignedDimension
 13
59.28060310782257
 23
311.5255334342273
 33
0.0
 14
80.78060310782257
 24
319.0101067783904
 34
0.0
100
AcDbRotatedDimension
1001
ACAD
1000
DSTYLE
1002
{
1070
   271
1070
     2
1002
}
  0
DIMENSION
  5
BC3
330
18
100
AcDbEntity
  8
外形線
100
AcDbDimension
  2
*D12
 10
90.28060310782256
 20
322.3870650451647
 30
0.0
 11
96.33787559339351
 21
322.4659731223412
 31
0.0
 70
   160
 71
     5
 42
9.5
  3
STYLE3
100
AcDbAlignedDimension
 13
80.78060310782257
 23
319.0101067783904
 33
0.0
 14
90.28060310782256
 24
318.6458708488946
 34
0.0
100
AcDbRotatedDimension
1001
ACAD
1000
DSTYLE
1002
{
1070
    75
1070
     1
1070
   271
1070
     2
1070
   279
1070
     1
1002
}
  0
LINE
  5
BC4
330
18
100
AcDbEntity
  8
外形線
100
AcDbLine
 10
74.28060310782263
 20
312.1245081449786
 30
0.0
 11
72.28060310782263
 21
312.7245081449785
 31
0.0
  0
DIMENSION
  5
BE3
330
18
100
AcDbEntity
  8
文字
100
AcDbDimension
  2
*D13
 10
4.764412296743103
 20
219.4426389192339
 30
0.0
 11
12.41322182055262
 21
221.3176389192339
 31
0.0
 70
    32
  1
%%C<>
 71
     5
 42
4.0
  3
STYLE3
100
AcDbAlignedDimension
 13
0.7644122967431031
 23
221.3094647004068
 33
0.0
 14
4.764412296743103
 24
220.8003303137323
 34
0.0
100
AcDbRotatedDimension
1001
ACAD
1000
DSTYLE
1002
{
1070
   271
1070
     2
1002
}
  0
TEXT
  5
BF2
330
18
100
AcDbEntity
  8
文字
100
AcDbText
 10
14.26255087566426
 20
240.6493079628905
 30
0.0
 40
1.5
  1
-0.03
  7
STYLE3
100
AcDbText
  0
DIMENSION
  5
BF3
330
18
100
AcDbEntity
  8
外形線
100
AcDbDimension
  2
*D14
 10
6.764412296743103
 20
239.0927168048364
 30
0.0
 11
11.85369801102882
 21
239.0927168048364
 31
0.0
 70
   160
  1
%%C<>
 71
     5
 42
8.0
  3
STYLE3
100
AcDbAlignedDimension
 13
-1.235587703256896
 23
239.4675112916702
 33
0.0
 14
6.764412296743103
 24
239.3480301921813
 34
0.0
100
AcDbRotatedDimension
1001
ACAD
1000
DSTYLE
1002
{
1070
   271
1070
     2
1002
}
  0
TEXT
  5
BF4
330
18
100
AcDbEntity
  8
文字
100
AcDbText
 10
16.1492003973326
 20
242.5112583560234
 30
0.0
 40
1.5
  1
0
  7
STYLE3
100
AcDbText
  0
LINE
  5
BF8
330
18
100
AcDbEntity
  8
外形線
100
AcDbLine
 10
6.764412296743103
 20
247.6245081449786
 30
0.0
 11
6.764412296743103
 21
231.4245081449786
 31
0.0
  0
LINE
  5
BF9
330
18
100
AcDbEntity
  8
外形線
100
AcDbLine
 10
-1.235587703256896
 20
247.6245081449786
 30
0.0
 11
-1.23558770325701
 21
231.4245081449786
 31
0.0
  0
LINE
  5
BFA
330
18
100
AcDbEntity
  8
外形線
100
AcDbLine
 10
24.76441229674311
 20
292.7245081449785
 30
0.0
 11
24.76441229674311
 21
272.7245081449785
 31
0.0
  0
LINE
  5
BFB
330
18
100
AcDbEntity
  8
外形線
100
AcDbLine
 10
-19.2355877032569
 20
292.7245081449785
 30
0.0
 11
-19.23558770325701
 21
272.7245081449785
 31
0.0
  0
ARC
  5
BFC
330
18
100
AcDbEntity
  8
外形線
100
AcDbCircle
 10
23.2644122967431
 20
272.7245081449785
 30
0.0
 40
1.5
100
AcDbArc
 50
270.0
 51
0.0
  0
LINE
  5
BFD
330
18
100
AcDbEntity
  8
外形線
100
AcDbLine
 10
6.514412296743103
 20
228.6245081449786
 30
0.0
 11
6.514412296743046
 21
231.4245081449786
 31
0.0
  0
LINE
  5
BFE
330
18
100
AcDbEntity
  8
外形線
100
AcDbLine
 10
-0.9855877032568969
 20
228.6245081449785
 30
0.0
 11
-0.9855877032568969
 21
231.4245081449786
 31
0.0
  0
LINE
  5
BFF
330
18
100
AcDbEntity
  8
外形線
100
AcDbLine
 10
-0.9855877032568969
 20
227.1245081449786
 30
0.0
 11
6.514412296743103
 21
227.1245081449786
 31
0.0
  0
LINE
  5
C00
330
18
100
AcDbEntity
  8
外形線
100
AcDbLine
 10
-0.9855877032568969
 20
228.6245081449785
 30
0.0
 11
6.514412296743103
 21
228.6245081449786
 31
0.0
  0
LINE
  5
C01
330
18
100
AcDbEntity
  8
外形線
100
AcDbLine
 10
-0.9855877032568969
 20
226.6245081449786
 30
0.0
 11
6.514412296743103
 21
226.6245081449786
 31
0.0
  0
LINE
  5
C02
330
18
100
AcDbEntity
  8
外形線
100
AcDbLine
 10
-0.9855877032568969
 20
227.1245081449786
 30
0.0
 11
-0.9855877032568969
 21
226.6245081449786
 31
0.0
  0
LINE
  5
C03
330
18
100
AcDbEntity
  8
外形線
100
AcDbLine
 10
-0.2355877032568969
 20
228.6245081449786
 30
0.0
 11
-0.2355877032568969
 21
227.1245081449786
 31
0.0
  0
LINE
  5
C04
330
18
100
AcDbEntity
  8
外形線
100
AcDbLine
 10
6.514412296743103
 20
227.1245081449786
 30
0.0
 11
6.514412296743103
 21
226.6245081449786
 31
0.0
  0
LINE
  5
C05
330
18
100
AcDbEntity
  8
外形線
100
AcDbLine
 10
5.764412296743103
 20
228.6245081449786
 30
0.0
 11
5.764412296743103
 21
227.1245081449786
 31
0.0
  0
TEXT
  5
C06
330
18
100
AcDbEntity
  8
寸法線
100
AcDbText
 10
-7.176919843589303
 20
267.8350007421314
 30
0.0
 40
1.199999999999999
  1
MODE
  7
STYLE4
100
AcDbText
  0
LINE
  5
C07
330
18
100
AcDbEntity
  8
外形線
100
AcDbLine
 10
-17.73558770325701
 20
271.2245081449785
 30
0.0
 11
23.2644122967431
 21
271.2245081449785
 31
0.0
  0
LINE
  5
C08
330
18
100
AcDbEntity
  8
外形線
100
AcDbLine
 10
-1.23558770325701
 20
231.4245081449786
 30
0.0
 11
6.764412296743103
 21
231.4245081449786
 31
0.0
  0
LINE
  5
C09
330
18
100
AcDbEntity
  8
外形線
100
AcDbLine
 10
-2.235587703256896
 20
247.6245081449785
 30
0.0
 11
7.764412296743103
 21
247.6245081449786
 31
0.0
  0
POINT
  5
C0A
330
18
100
AcDbEntity
  8
DEFPOINTS
  6
ByBlock
 62
     0
100
AcDbPoint
 10
-3.235587703256896
 20
251.7245081449785
 30
0.0
  0
LINE
  5
C0B
330
18
100
AcDbEntity
  8
外形線
100
AcDbLine
 10
-3.235587703256896
 20
253.3306312315804
 30
0.0
 11
-3.235587703256896
 21
249.6245081449785
 31
0.0
  0
ARC
  5
C0C
330
18
100
AcDbEntity
  8
外形線
100
AcDbCircle
 10
-17.73558770325701
 20
272.7245081449785
 30
0.0
 40
1.5
100
AcDbArc
 50
180.0
 51
270.0
  0
LINE
  5
C0D
330
18
100
AcDbEntity
  8
外形線
100
AcDbLine
 10
8.764412296743103
 20
253.3306312315804
 30
0.0
 11
8.764412296743103
 21
249.6245081449786
 31
0.0
  0
TEXT
  5
C0E
330
18
100
AcDbEntity
  8
寸法線
100
AcDbText
 10
7.028767716597826
 20
267.8350007421314
 30
0.0
 40
1.199999999999999
  1
ON/OFF
  7
STYLE4
100
AcDbText
  0
LINE
  5
C0F
330
18
100
AcDbEntity
  8
外形線
100
AcDbLine
 10
-26.2355877032569
 20
282.7245081449785
 30
0.0
 11
-19.2355877032569
 21
282.7245081449785
 31
0.0
  0
ARC
  5
C10
330
18
100
AcDbEntity
  8
外形線
100
AcDbCircle
 10
2.764412296743103
 20
282.7245081449785
 30
0.0
 40
29.0
100
AcDbArc
 50
0.0
 51
180.0
  0
ARC
  5
C11
330
18
100
AcDbEntity
  8
外形線
100
AcDbCircle
 10
23.2644122967431
 20
292.7245081449785
 30
0.0
 40
1.5
100
AcDbArc
 50
0.0
 51
90.0
  0
LINE
  5
C12
330
18
100
AcDbEntity
  8
外形線
100
AcDbLine
 10
8.764412296743103
 20
328.7245081449786
 30
0.0
 11
8.764412296743103
 21
313.1383207964696
 31
0.0
  0
LINE
  5
C13
330
18
100
AcDbEntity
  8
外形線
100
AcDbLine
 10
-3.235587703256896
 20
328.7245081449784
 30
0.0
 11
-3.235587703256896
 21
313.1383207964696
 31
0.0
  0
LINE
  5
C14
102
{ACAD_REACTORS
330
C18
102
}
330
18
100
AcDbEntity
  8
ROGO
 62
     4
100
AcDbLine
 10
-2.023989312260937
 20
299.4806676909205
 30
0.0
 11
-0.823820769409167
 21
299.4806676909205
 31
0.0
  0
LINE
  5
C15
102
{ACAD_REACTORS
330
C18
102
}
330
18
100
AcDbEntity
  8
ROGO
 62
     4
100
AcDbLine
 10
-2.173607685787828
 20
299.1782804925409
 30
0.0
 11
-0.9734391429361721
 21
299.1782804925409
 31
0.0
  0
LINE
  5
C16
102
{ACAD_REACTORS
330
C18
102
}
330
18
100
AcDbEntity
  8
ROGO
 62
     4
100
AcDbLine
 10
-2.327027311589858
 20
298.8682107482365
 30
0.0
 11
-1.126858768738202
 21
298.8682107482365
 31
0.0
  0
LINE
  5
C17
102
{ACAD_REACTORS
330
C18
102
}
330
18
100
AcDbEntity
  8
ROGO
 62
     4
100
AcDbLine
 10
-2.915997994372673
 20
299.8674135446675
 30
0.0
 11
-0.6324625177504686
 21
299.8674135446676
 31
0.0
  0
HATCH
  5
C18
330
18
100
AcDbEntity
  8
ROGO
 62
     4
100
AcDbHatch
 10
0.0
 20
0.0
 30
0.0
210
0.0
220
0.0
230
1.0
  2
SOLID
 70
     1
 71
     1
 91
        1
 92
        1
 93
       12
 72
     1
 10
-2.915997994372673
 20
299.8674135446675
 11
-0.6324625177504686
 21
299.8674135446676
 72
     1
 10
-0.6324625177504686
 20
299.8674135446675
 11
-0.823820769409167
 21
299.4806676909205
 72
     1
 10
-0.823820769409167
 20
299.4806676909205
 11
-2.023989312260937
 21
299.4806676909205
 72
     1
 10
-2.023989312260937
 20
299.4806676909205
 11
-2.173607685787828
 21
299.1782804925409
 72
     1
 10
-2.173607685787828
 20
299.1782804925409
 11
-0.9734391429361721
 21
299.1782804925409
 72
     1
 10
-0.9734391429361721
 20
299.1782804925409
 11
-1.126858768738202
 21
298.8682107482365
 72
     1
 10
-1.126858768738202
 20
298.8682107482365
 11
-2.327027311589858
 21
298.8682107482365
 72
     1
 10
-2.327027311589858
 20
298.8682107482365
 11
-2.476652019239509
 21
298.5658107482364
 72
     1
 10
-2.476652019239509
 20
298.5658107482364
 11
-1.276483476387852
 21
298.5658107482364
 72
     1
 10
-1.276483476387852
 20
298.5658107482364
 11
-1.467832102513511
 21
298.1790843482365
 72
     1
 10
-1.467832102513511
 20
298.1790843482365
 11
-3.751367579135603
 21
298.1790843482365
 72
     1
 10
-3.751367579135603
 20
298.1790843482365
 11
-2.915997994372673
 21
299.8674135446675
 97
       12
330
C17
330
C40
330
C14
330
C24
330
C15
330
C49
330
C16
330
C27
330
C25
330
C26
330
C2E
330
C22
 75
     0
 76
     1
 98
        1
 10
-96.32330668128417
 20
183.127004339953
450
        0
451
        0
460
0.0
461
0.0
452
        0
462
0.0
453
        0
470

  0
TEXT
  5
C19
330
18
100
AcDbEntity
  8
文字
100
AcDbText
 10
-2.122593641022376
 20
302.0677277157902
 30
0.0
 40
2.0
  1
DG-205
 51
10.0
  7
STYLE3
100
AcDbText
  0
LINE
  5
C1A
102
{ACAD_REACTORS
330
C21
330
C3F
102
}
330
18
100
AcDbEntity
  8
ROGO
 62
     4
100
AcDbLine
 10
-7.519334511022748
 20
297.2292836783598
 30
0.0
 11
10.33817911800781
 21
297.2292836783598
 31
0.0
  0
LINE
  5
C1B
330
18
100
AcDbEntity
  8
ROGO
 62
     4
100
AcDbLine
 10
-6.191720668169068
 20
297.4937168007343
 30
0.0
 11
9.497926344284564
 21
297.4937168007343
 31
0.0
  0
HATCH
  5
C1C
330
18
100
AcDbEntity
  8
ROGO
 62
     4
100
AcDbHatch
 10
0.0
 20
0.0
 30
0.0
210
0.0
220
0.0
230
1.0
  2
SOLID
 70
     1
 71
     0
 91
        1
 92
        7
 72
     0
 73
     1
 93
        4
 10
-6.173381950704765
 20
297.4937168007343
 10
-6.293018996247269
 20
297.2292836783598
 10
9.366071449073842
 20
297.2292836783598
 10
9.497926344284564
 20
297.4937168007343
 97
        0
 75
     0
 76
     1
 47
0.0514683685270805
 98
        1
 10
3.721777670437404
 20
297.4237784896139
450
        0
451
        0
460
0.0
461
0.0
452
        0
462
0.0
453
        0
470

  0
ARC
  5
C1D
330
18
100
AcDbEntity
  8
外形線
100
AcDbCircle
 10
2.764412296743103
 20
282.7245081449785
 30
0.0
 40
31.0
100
AcDbArc
 50
69.2164404041531
 51
110.7835595958469
  0
LINE
  5
C1E
330
18
100
AcDbEntity
  8
外形線
100
AcDbLine
 10
-17.7355877032569
 20
294.2245081449785
 30
0.0
 11
23.2644122967431
 21
294.2245081449785
 31
0.0
  0
LINE
  5
C1F
102
{ACAD_REACTORS
330
C21
102
}
330
18
100
AcDbEntity
  8
ROGO
 62
     4
100
AcDbLine
 10
-6.214012388046398
 20
299.8674135446675
 30
0.0
 11
-7.519334511022748
 21
297.2292836783598
 31
0.0
  0
SPLINE
  5
C20
102
{ACAD_REACTORS
330
C21
102
}
330
18
100
AcDbEntity
  8
ROGO
 62
     4
100
AcDbSpline
210
0.0
220
0.0
230
1.0
 70
     8
 71
     3
 72
    18
 73
    14
 74
     0
 42
0.0000000001
 43
0.0000000001
 40
0.1087402787915014
 40
0.1087402787915014
 40
0.1087402787915014
 40
0.1087402787915014
 40
0.5992371417938475
 40
1.083176791562496
 40
1.448211145705696
 40
1.714037220764907
 40
2.164002567013297
 40
2.740236056362883
 40
3.395137510199602
 40
4.071816045172726
 40
4.784906178399433
 40
5.506895915094292
 40
6.060470601257719
 40
6.060470601257719
 40
6.060470601257719
 40
6.060470601257719
 10
-4.140800271351281
 20
299.8674135446676
 30
0.0
 10
-4.074380865819193
 20
299.8430719455776
 30
0.0
 10
-3.943767790011406
 20
299.7916100853152
 30
0.0
 10
-3.7843582014508
 20
299.6741571155833
 30
0.0
 10
-3.697423094976102
 20
299.5385672592184
 30
0.0
 10
-3.613801255420753
 20
299.4049677334005
 30
0.0
 10
-3.602098531620981
 20
299.2132966180564
 30
0.0
 10
-3.621268383824371
 20
298.9709778723214
 30
0.0
 10
-3.745027217808001
 20
298.7181432669376
 30
0.0
 10
-3.943667425198327
 20
298.4970042273353
 30
0.0
 10
-4.190293104889406
 20
298.3200074240388
 30
0.0
 10
-4.450368391027268
 20
298.1810694914019
 30
0.0
 10
-4.636270278667552
 20
298.1796851363336
 30
0.0
 10
-4.716948743246462
 20
298.1790843482365
 30
0.0
  0
HATCH
  5
C21
330
18
100
AcDbEntity
  8
ROGO
 62
     4
100
AcDbHatch
 10
0.0
 20
0.0
 30
0.0
210
0.0
220
0.0
230
1.0
  2
SOLID
 70
     1
 71
     1
 91
        2
 92
        5
 93
        6
 72
     1
 10
-7.519334511022757
 20
297.2292836783598
 11
-6.293018996247267
 21
297.2292836783598
 72
     1
 10
-6.293018996247267
 20
297.2292836783598
 11
-5.86330223089637
 21
298.1790843482365
 72
     1
 10
-5.86330223089637
 20
298.1790843482365
 11
-4.716948743246517
 21
298.1790843482365
 72
     4
 94
        3
 73
     0
 74
     0
 95
       18
 96
       14
 40
0.108740278791501
 40
0.108740278791501
 40
0.108740278791501
 40
0.108740278791501
 40
0.6623149649549278
 40
1.384304701649787
 40
2.097394834876493
 40
2.774073369849618
 40
3.428974823686337
 40
4.005208313035923
 40
4.455173659284313
 40
4.720999734343524
 40
5.086034088486724
 40
5.569973738255373
 40
6.060470601257719
 40
6.060470601257719
 40
6.060470601257719
 40
6.060470601257719
 10
-4.716948743246462
 20
298.1790843482365
 10
-4.636270278667552
 20
298.1796851363336
 10
-4.450368391027268
 20
298.1810694914019
 10
-4.190293104889406
 20
298.3200074240388
 10
-3.943667425198327
 20
298.4970042273353
 10
-3.745027217808001
 20
298.7181432669376
 10
-3.621268383824371
 20
298.9709778723214
 10
-3.602098531620981
 20
299.2132966180564
 10
-3.613801255420753
 20
299.4049677334005
 10
-3.697423094976102
 20
299.5385672592184
 10
-3.7843582014508
 20
299.6741571155833
 10
-3.943767790011406
 20
299.7916100853152
 10
-4.074380865819193
 20
299.8430719455776
 10
-4.140800271351281
 20
299.8674135446676
 72
     1
 10
-4.140800271351134
 20
299.8674135446675
 11
-6.21401238804638
 21
299.8674135446675
 72
     1
 10
-6.21401238804638
 20
299.8674135446675
 11
-7.519334511022757
 21
297.2292836783598
 97
        6
330
C20
330
C30
330
C1F
330
C1A
330
C2D
330
C28
 92
       20
 93
        4
 72
     1
 10
-5.59797645506908
 20
298.7655324925406
 11
-5.394836431180892
 21
299.2145318016789
 72
     1
 10
-5.394836431180892
 20
299.2145318016789
 11
-4.87285314662715
 21
299.214531801679
 72
     4
 94
        3
 73
     0
 74
     0
 95
       15
 96
       11
 40
0.0
 40
0.0
 40
0.0
 40
0.0
 40
0.1979620751796092
 40
0.2882218927611821
 40
0.390672794493828
 40
0.4604671121752228
 40
0.570847549457819
 40
0.6369624161317818
 40
0.7503938621545029
 40
0.7882043682941406
 40
0.7882043682941406
 40
0.7882043682941406
 40
0.7882043682941406
 10
-4.872853146627107
 20
299.2145318016789
 10
-4.798502430122447
 20
299.2148723676477
 10
-4.690251876476347
 20
299.2153682129658
 10
-4.631056618293235
 20
299.0814619650567
 10
-4.657590755450701
 20
298.9952472305227
 10
-4.690946328424383
 20
298.9067315693471
 10
-4.749893180407475
 20
298.8465838425723
 10
-4.829008489886949
 20
298.7886514421816
 10
-4.903776238101489
 20
298.7816384657054
 10
-4.952404265351965
 20
298.7687536884071
 10
-4.964561277983875
 20
298.7655324925406
 72
     1
 10
-4.964561277984138
 20
298.7655324925404
 11
-5.59797645506908
 21
298.7655324925406
 97
        4
330
C29
330
C2B
330
C2A
330
C2C
 75
     0
 76
     1
 47
0.0514683685270805
 98
        2
 10
-6.202931390937578
 20
299.0468851429532
 10
-6.202931390937578
 20
299.0468851429532
450
        0
451
        0
460
0.0
461
0.0
452
        0
462
0.0
453
        0
470

  0
LINE
  5
C22
102
{ACAD_REACTORS
330
C18
102
}
330
18
100
AcDbEntity
  8
ROGO
 62
     4
100
AcDbLine
 10
-2.915997994372673
 20
299.8674135446675
 30
0.0
 11
-3.751367579135603
 21
298.1790843482365
 31
0.0
  0
ARC
  5
C23
330
18
100
AcDbEntity
  8
外形線
100
AcDbCircle
 10
-17.7355877032569
 20
292.7245081449785
 30
0.0
 40
1.5
100
AcDbArc
 50
90.0
 51
180.0
  0
LINE
  5
C24
102
{ACAD_REACTORS
330
C18
102
}
330
18
100
AcDbEntity
  8
ROGO
 62
     4
100
AcDbLine
 10
-2.023989312260937
 20
299.4806676909205
 30
0.0
 11
-2.173607685787828
 21
299.1782804925409
 31
0.0
  0
LINE
  5
C25
102
{ACAD_REACTORS
330
C18
102
}
330
18
100
AcDbEntity
  8
ROGO
 62
     4
100
AcDbLine
 10
-2.476652019239509
 20
298.5658107482364
 30
0.0
 11
-1.276483476387852
 21
298.5658107482364
 31
0.0
  0
LINE
  5
C26
102
{ACAD_REACTORS
330
C18
102
}
330
18
100
AcDbEntity
  8
ROGO
 62
     4
100
AcDbLine
 10
-1.276483476387852
 20
298.5658107482364
 30
0.0
 11
-1.467832102513511
 21
298.1790843482365
 31
0.0
  0
LINE
  5
C27
102
{ACAD_REACTORS
330
C18
102
}
330
18
100
AcDbEntity
  8
ROGO
 62
     4
100
AcDbLine
 10
-2.327027311589858
 20
298.8682107482365
 30
0.0
 11
-2.476652019239509
 21
298.5658107482364
 31
0.0
  0
LINE
  5
C28
102
{ACAD_REACTORS
330
C21
102
}
330
18
100
AcDbEntity
  8
ROGO
 62
     4
100
AcDbLine
 10
-4.716948742849126
 20
298.1790843482365
 30
0.0
 11
-5.863302230896351
 21
298.1790843482365
 31
0.0
  0
LINE
  5
C29
102
{ACAD_REACTORS
330
C21
102
}
330
18
100
AcDbEntity
  8
ROGO
 62
     4
100
AcDbLine
 10
-5.39483643118092
 20
299.2145318016789
 30
0.0
 11
-5.597976455069101
 21
298.7655324925406
 31
0.0
  0
SPLINE
  5
C2A
102
{ACAD_REACTORS
330
C21
102
}
330
18
100
AcDbEntity
  8
ROGO
 62
     4
100
AcDbSpline
210
0.0
220
0.0
230
1.0
 70
     8
 71
     3
 72
    15
 73
    11
 74
     9
 42
0.0000000001
 43
0.0000000001
 44
0.0000000001
 40
0.0
 40
0.0
 40
0.0
 40
0.0
 40
0.1979620751796092
 40
0.2882218927611821
 40
0.390672794493828
 40
0.4604671121752228
 40
0.570847549457819
 40
0.6369624161317818
 40
0.7503938621545029
 40
0.7882043682941406
 40
0.7882043682941406
 40
0.7882043682941406
 40
0.7882043682941406
 10
-4.872853146627107
 20
299.2145318016789
 30
0.0
 10
-4.798502430122447
 20
299.2148723676477
 30
0.0
 10
-4.690251876476347
 20
299.2153682129658
 30
0.0
 10
-4.631056618293235
 20
299.0814619650567
 30
0.0
 10
-4.657590755450701
 20
298.9952472305227
 30
0.0
 10
-4.690946328424383
 20
298.9067315693471
 30
0.0
 10
-4.749893180407475
 20
298.8465838425723
 30
0.0
 10
-4.829008489886949
 20
298.7886514421816
 30
0.0
 10
-4.903776238101489
 20
298.7816384657054
 30
0.0
 10
-4.952404265351965
 20
298.7687536884071
 30
0.0
 10
-4.964561277983875
 20
298.7655324925406
 30
0.0
 11
-4.872853146627107
 21
299.2145318016789
 31
0.0
 11
-4.680265912575805
 21
299.1687154237133
 31
0.0
 11
-4.643582554565114
 21
299.0862462421064
 31
0.0
 11
-4.661923969900499
 21
298.9854505093131
 31
0.0
 11
-4.689436356573423
 21
298.9213075801613
 31
0.0
 11
-4.76280307259492
 21
298.8388383985544
 31
0.0
 11
-4.817827845940996
 21
298.8021852961819
 31
0.0
 11
-4.927877919973184
 21
298.7746957681336
 31
0.0
 11
-4.964561277983875
 21
298.7655324925406
 31
0.0
  0
LINE
  5
C2B
102
{ACAD_REACTORS
330
C21
102
}
330
18
100
AcDbEntity
  8
ROGO
 62
     4
100
AcDbLine
 10
-4.872853146627107
 20
299.2145318016789
 30
0.0
 11
-5.39483643118092
 21
299.2145318016789
 31
0.0
  0
LINE
  5
C2C
102
{ACAD_REACTORS
330
C21
102
}
330
18
100
AcDbEntity
  8
ROGO
 62
     4
100
AcDbLine
 10
-4.964561277983762
 20
298.7655324925404
 30
0.0
 11
-5.597976455069101
 21
298.7655324925406
 31
0.0
  0
LINE
  5
C2D
102
{ACAD_REACTORS
330
C21
102
}
330
18
100
AcDbEntity
  8
ROGO
 62
     4
100
AcDbLine
 10
-5.863302230896351
 20
298.1790843482365
 30
0.0
 11
-6.293018996247269
 21
297.2292836783598
 31
0.0
  0
LINE
  5
C2E
102
{ACAD_REACTORS
330
C18
102
}
330
18
100
AcDbEntity
  8
ROGO
 62
     4
100
AcDbLine
 10
-3.751367579135603
 20
298.1790843482365
 30
0.0
 11
-1.467832102513511
 21
298.1790843482365
 31
0.0
  0
LINE
  5
C2F
330
18
100
AcDbEntity
  8
外形線
100
AcDbLine
 10
-8.235587703256896
 20
311.7072616373574
 30
0.0
 11
-8.235587703256896
 21
310.6350796188843
 31
0.0
  0
LINE
  5
C30
102
{ACAD_REACTORS
330
C21
102
}
330
18
100
AcDbEntity
  8
ROGO
 62
     4
100
AcDbLine
 10
-6.214012388046398
 20
299.8674135446675
 30
0.0
 11
-4.140800271351281
 21
299.8674135446675
 31
0.0
  0
LINE
  5
C31
102
{ACAD_REACTORS
330
C3F
102
}
330
18
100
AcDbEntity
  8
ROGO
 62
     4
100
AcDbLine
 10
11.65363587301192
 20
299.8674135446675
 30
0.0
 11
11.41646792532401
 21
299.3917765891034
 31
0.0
  0
LINE
  5
C32
102
{ACAD_REACTORS
330
C3F
102
}
330
18
100
AcDbEntity
  8
ROGO
 62
     4
100
AcDbLine
 10
11.33923531264599
 20
298.5483486115136
 30
0.0
 11
12.93726084235766
 21
299.8674135446675
 31
0.0
  0
LINE
  5
C33
102
{ACAD_REACTORS
330
C3F
102
}
330
18
100
AcDbEntity
  8
ROGO
 62
     4
100
AcDbLine
 10
11.41646792532401
 20
299.3917765891034
 30
0.0
 11
11.96517444235769
 21
299.8674135446675
 31
0.0
  0
SPLINE
  5
C34
330
18
100
AcDbEntity
  8
ROGO
 62
     4
100
AcDbSpline
210
0.0
220
0.0
230
1.0
 70
     8
 71
     3
 72
    26
 73
    22
 74
    20
 42
0.0000000001
 43
0.0000000001
 44
0.0000000001
 40
0.0
 40
0.0
 40
0.0
 40
0.0
 40
0.306282258847545
 40
0.5113145150563467
 40
0.6591594689727181
 40
0.7695505122602936
 40
0.9127334891893321
 40
1.017243103820775
 40
1.205963108812882
 40
1.359578479722684
 40
1.464061546148625
 40
1.566512542290257
 40
1.74977745669044
 40
1.879367624743214
 40
1.949161942424609
 40
2.048302708997821
 40
2.119894481049017
 40
2.223607322578586
 40
2.282299819925649
 40
2.41002127769804
 40
2.468340004822995
 40
2.468340004822995
 40
2.468340004822995
 40
2.468340004822995
 10
8.637160883927094
 20
299.8674135446675
 30
0.0
 10
8.533203952951689
 20
299.8612112958981
 30
0.0
 10
8.359655906295504
 20
299.8508571218309
 30
0.0
 10
8.169101206808885
 20
299.7350971882987
 30
0.0
 10
8.029489678281485
 20
299.6677994500013
 30
0.0
 10
7.92991890545024
 20
299.5763139081762
 30
0.0
 10
7.856933125335016
 20
299.4818160263629
 30
0.0
 10
7.764920847866562
 20
299.3692224930589
 30
0.0
 10
7.689887464844851
 20
299.2381118797472
 30
0.0
 10
7.651677524444973
 20
299.0936051269515
 30
0.0
 10
7.617831521890224
 20
298.9784324065187
 30
0.0
 10
7.592730759782162
 20
298.8500874399428
 30
0.0
 10
7.59911710425592
 20
298.7114297266426
 30
0.0
 10
7.608262641821677
 20
298.5826515410663
 30
0.0
 10
7.649095243152458
 20
298.4907231973035
 30
0.0
 10
7.695596343368283
 20
298.4252765512515
 30
0.0
 10
7.75253630375307
 20
298.353194326353
 30
0.0
 10
7.814841072161343
 20
298.3054545022143
 30
0.0
 10
7.866372201303508
 20
298.2189706027477
 30
0.0
 10
7.95657570449803
 20
298.2079346334498
 30
0.0
 10
8.013912639738368
 20
298.1859697607508
 30
0.0
 10
8.031886267760228
 20
298.1790843482365
 30
0.0
 11
8.637160883927094
 21
299.8674135446675
 31
0.0
 11
8.334523575843604
 21
299.8203021676898
 31
0.0
 11
8.151106785790034
 21
299.7286697104898
 31
0.0
 11
8.022715296422461
 21
299.6553638044759
 31
0.0
 11
7.940178136403346
 21
299.582057599731
 31
0.0
 11
7.848470005046692
 21
299.4720985913446
 31
0.0
 11
7.784274260362849
 21
299.3896294097378
 31
0.0
 11
7.692565601666046
 21
299.2246907477926
 31
0.0
 11
7.646711799657623
 21
299.0780786370339
 31
0.0
 11
7.619199412984698
 21
298.9772829042406
 31
0.0
 11
7.600857470309279
 21
298.8764871714476
 31
0.0
 11
7.600857470309279
 21
298.6932222570473
 31
0.0
 11
7.619199412984698
 21
298.5649366974748
 31
0.0
 11
7.646711799657623
 21
298.5007937683231
 31
0.0
 11
7.701736573003699
 21
298.418324586716
 31
0.0
 11
7.747590902352158
 21
298.3633449331573
 31
0.0
 11
7.820957091033506
 21
298.2900390271435
 31
0.0
 11
7.857640449044311
 21
298.2442226491778
 31
0.0
 11
7.976861494414151
 21
298.1984065699433
 31
0.0
 11
8.031886267760228
 21
298.1790843482365
 31
0.0
  0
LINE
  5
C35
330
18
100
AcDbEntity
  8
ROGO
 62
     4
100
AcDbLine
 10
10.3279218952066
 20
299.8674135446675
 30
0.0
 11
10.0146970802258
 21
299.2392456203887
 31
0.0
  0
LINE
  5
C36
102
{ACAD_REACTORS
330
C3F
102
}
330
18
100
AcDbEntity
  8
ROGO
 62
     4
100
AcDbLine
 10
10.68152820407795
 20
299.8674135446675
 30
0.0
 11
9.366071449073842
 21
297.2292836783598
 31
0.0
  0
HATCH
  5
C37
330
18
100
AcDbEntity
  8
ROGO
 62
     4
100
AcDbHatch
 10
0.0
 20
0.0
 30
0.0
210
0.0
220
0.0
230
1.0
  2
SOLID
 70
     1
 71
     0
 91
        1
 92
        5
 93
        8
 72
     4
 94
        3
 73
     0
 74
     0
 95
       26
 96
       22
 40
0.0
 40
0.0
 40
0.0
 40
0.0
 40
0.306282258847545
 40
0.5113145150563467
 40
0.6591594689727181
 40
0.7695505122602936
 40
0.9127334891893321
 40
1.017243103820775
 40
1.205963108812882
 40
1.359578479722684
 40
1.464061546148625
 40
1.566512542290257
 40
1.74977745669044
 40
1.879367624743214
 40
1.949161942424609
 40
2.048302708997821
 40
2.119894481049017
 40
2.223607322578586
 40
2.282299819925649
 40
2.41002127769804
 40
2.468340004822995
 40
2.468340004822995
 40
2.468340004822995
 40
2.468340004822995
 10
8.637160883927094
 20
299.8674135446675
 10
8.53320395295168
 20
299.861211295898
 10
8.359655906295529
 20
299.8508571218309
 10
8.169101206808818
 20
299.7350971882988
 10
8.029489678281493
 20
299.6677994500014
 10
7.929918905450222
 20
299.5763139081763
 10
7.85693312533499
 20
299.4818160263629
 10
7.764920847866505
 20
299.369222493059
 10
7.689887464844787
 20
299.2381118797472
 10
7.651677524444949
 20
299.0936051269516
 10
7.617831521890138
 20
298.9784324065187
 10
7.59273075978217
 20
298.8500874399428
 10
7.599117104255924
 20
298.7114297266426
 10
7.608262641821625
 20
298.5826515410664
 10
7.649095243152487
 20
298.4907231973035
 10
7.695596343368265
 20
298.4252765512516
 10
7.752536303753004
 20
298.353194326353
 10
7.814841072161243
 20
298.3054545022143
 10
7.86637220130342
 20
298.2189706027478
 10
7.95657570449805
 20
298.2079346334497
 10
8.01391263973835
 20
298.1859697607509
 10
8.031886267760228
 20
298.1790843482365
 72
     1
 10
8.031886267760228
 20
298.1790843482365
 11
9.486066429908987
 21
298.1790843482365
 72
     1
 10
9.486066429908987
 20
298.1790843482365
 11
9.799287927924638
 21
298.8072456203886
 72
     1
 10
9.799287927924638
 20
298.8072456203886
 11
8.719698043946095
 21
298.8072456203886
 72
     4
 94
        3
 73
     0
 74
     0
 95
       16
 96
       12
 40
0.0
 40
0.0
 40
0.0
 40
0.0
 40
0.0924964283868937
 40
0.185946890240525
 40
0.2416858907028844
 40
0.2951281203562444
 40
0.3538203845089212
 40
0.3948066843497379
 40
0.4336991257335823
 40
0.5125674130988856
 40
0.6740411735369252
 40
0.6740411735369252
 40
0.6740411735369252
 40
0.6740411735369252
 10
8.719698043946209
 20
298.8072456203886
 10
8.687133808511134
 20
298.8168264959311
 10
8.621669461208057
 20
298.8360870667874
 10
8.616190623975171
 20
298.9294552385353
 10
8.623654747054843
 20
298.9959877011971
 10
8.654914511182596
 20
299.0444272192606
 10
8.692838027003517
 20
299.0796733420208
 10
8.706958633898238
 20
299.1255759059693
 10
8.748464871343799
 20
299.1602380846619
 10
8.822066551703414
 20
299.2185003650595
 10
8.903457268975216
 20
299.2309089289978
 10
8.958139607345742
 20
299.2392456203887
 72
     1
 10
8.958139607345742
 20
299.2392456203887
 11
10.0146970802258
 21
299.2392456203887
 72
     1
 10
10.0146970802258
 20
299.2392456203887
 11
10.3279218952066
 21
299.8674135446675
 72
     1
 10
10.3279218952066
 20
299.8674135446675
 11
8.637160883927208
 21
299.8674135446675
 97
        0
 75
     0
 76
     1
 47
0.0514683685270805
 98
        1
 10
8.928911864950464
 20
299.5582747262944
450
        0
451
        0
460
0.0
461
0.0
452
        0
462
0.0
453
        0
470

  0
SPLINE
  5
C38
102
{ACAD_REACTORS
330
C3E
102
}
330
18
100
AcDbEntity
  8
ROGO
 62
     4
100
AcDbSpline
210
0.0
220
0.0
230
1.0
 70
     8
 71
     3
 72
    25
 73
    21
 74
     0
 42
0.0000000001
 43
0.0000000001
 40
0.0
 40
0.0
 40
0.0
 40
0.0
 40
0.4087168505087288
 40
0.6887487002771746
 40
0.9415836120477687
 40
1.17452070575514
 40
1.41154617586699
 40
1.599156012919487
 40
1.80099909059943
 40
2.178735911501585
 40
2.521686161369157
 40
2.762704659361267
 40
3.06256558063785
 40
3.222432137207705
 40
3.399493810628493
 40
3.567459719866414
 40
3.743172740007509
 40
3.995988754699505
 40
4.17170091132118
 40
4.337226830236035
 40
4.337226830236035
 40
4.337226830236035
 40
4.337226830236035
 10
6.790419659592657
 20
299.8744556836033
 30
0.0
 10
6.853702581568313
 20
299.8724224685883
 30
0.0
 10
6.960343720063633
 20
299.8689961987949
 30
0.0
 10
7.07483613829072
 20
299.7795070267406
 30
0.0
 10
7.162442422124172
 20
299.7053136466214
 30
0.0
 10
7.224626449802144
 20
299.6156173241918
 30
0.0
 10
7.279132492342341
 20
299.5331463337497
 30
0.0
 10
7.31504784190281
 20
299.4460759434648
 30
0.0
 10
7.363899813198941
 20
299.341599449203
 30
0.0
 10
7.384122115888203
 20
299.2018254217918
 30
0.0
 10
7.370459545883932
 20
299.057356067876
 30
0.0
 10
7.33480661738713
 20
298.929297274543
 30
0.0
 10
7.297409561915742
 20
298.8310535765005
 30
0.0
 10
7.253332680450512
 20
298.7455263425126
 30
0.0
 10
7.200787405345181
 20
298.6901474518711
 30
0.0
 10
7.16433360536655
 20
298.6197337322813
 30
0.0
 10
7.094310518730139
 20
298.5621390900155
 30
0.0
 10
7.037546027550092
 20
298.4910753851461
 30
0.0
 10
6.973130151870577
 20
298.4300806515678
 30
0.0
 10
6.936812195622678
 20
298.392447635997
 30
0.0
 10
6.91766449325928
 20
298.3766246794955
 30
0.0
  0
LINE
  5
C39
102
{ACAD_REACTORS
330
C3B
102
}
330
18
100
AcDbEntity
  8
ROGO
 62
     4
100
AcDbLine
 10
4.887975046870792
 20
299.8674135446675
 30
0.0
 11
4.574750231889993
 21
299.2392456203887
 31
0.0
  0
SPLINE
  5
C3A
102
{ACAD_REACTORS
330
C3B
102
}
330
18
100
AcDbEntity
  8
ROGO
 62
     4
100
AcDbSpline
210
0.0
220
0.0
230
1.0
 70
     8
 71
     3
 72
    26
 73
    22
 74
    20
 42
0.0000000001
 43
0.0000000001
 44
0.0000000001
 40
0.0
 40
0.0
 40
0.0
 40
0.0
 40
0.306282258847545
 40
0.5113145150563467
 40
0.6591594689727181
 40
0.7695505122602936
 40
0.9127334891892449
 40
1.017243103820777
 40
1.205963108812785
 40
1.359578479722587
 40
1.464061546148638
 40
1.566512542290269
 40
1.749777456690453
 40
1.879367624743226
 40
1.949161942424621
 40
2.048302708997833
 40
2.119894481049029
 40
2.223607322578598
 40
2.282299819925661
 40
2.410021277698012
 40
2.468340004823004
 40
2.468340004823004
 40
2.468340004823004
 40
2.468340004823004
 10
3.197214035591287
 20
299.8674135446675
 30
0.0
 10
3.093257104615881
 20
299.8612112958981
 30
0.0
 10
2.919709057959696
 20
299.8508571218309
 30
0.0
 10
2.729154358473079
 20
299.7350971882987
 30
0.0
 10
2.589542829945671
 20
299.6677994500015
 30
0.0
 10
2.489972057114472
 20
299.5763139081759
 30
0.0
 10
2.416986276999129
 20
299.481816026363
 30
0.0
 10
2.324973999530841
 20
299.3692224930588
 30
0.0
 10
2.249940616509011
 20
299.2381118797473
 30
0.0
 10
2.211730676109147
 20
299.0936051269517
 30
0.0
 10
2.17788467355443
 20
298.9784324065187
 30
0.0
 10
2.152783911446351
 20
298.8500874399428
 30
0.0
 10
2.159170255920114
 20
298.7114297266426
 30
0.0
 10
2.168315793485871
 20
298.5826515410664
 30
0.0
 10
2.209148394816649
 20
298.4907231973034
 30
0.0
 10
2.255649495032475
 20
298.4252765512515
 30
0.0
 10
2.312589455417261
 20
298.353194326353
 30
0.0
 10
2.374894223825538
 20
298.3054545022143
 30
0.0
 10
2.426425352967681
 20
298.2189706027477
 30
0.0
 10
2.516628856162275
 20
298.2079346334498
 30
0.0
 10
2.573965791402565
 20
298.1859697607508
 30
0.0
 10
2.59193941942442
 20
298.1790843482365
 30
0.0
 11
3.197214035591287
 21
299.8674135446675
 31
0.0
 11
2.894576727507796
 21
299.8203021676898
 31
0.0
 11
2.711159937454226
 21
299.7286697104898
 31
0.0
 11
2.582768448086653
 21
299.6553638044759
 31
0.0
 11
2.500231288067539
 21
299.582057599731
 31
0.0
 11
2.408523156710884
 21
299.4720985913447
 31
0.0
 11
2.344327412027041
 21
299.3896294097378
 31
0.0
 11
2.252618753330239
 21
299.2246907477928
 31
0.0
 11
2.206764951321815
 21
299.078078637034
 31
0.0
 11
2.179252564648891
 21
298.9772829042406
 31
0.0
 11
2.160910621973471
 21
298.8764871714476
 31
0.0
 11
2.160910621973471
 21
298.6932222570473
 31
0.0
 11
2.179252564648891
 21
298.5649366974748
 31
0.0
 11
2.206764951321815
 21
298.5007937683231
 31
0.0
 11
2.261789724667892
 21
298.418324586716
 31
0.0
 11
2.30764405401635
 21
298.3633449331573
 31
0.0
 11
2.381010242697698
 21
298.2900390271435
 31
0.0
 11
2.417693600708503
 21
298.2442226491778
 31
0.0
 11
2.536914646078344
 21
298.1984065699434
 31
0.0
 11
2.59193941942442
 21
298.1790843482365
 31
0.0
  0
HATCH
  5
C3B
330
18
100
AcDbEntity
  8
ROGO
 62
     4
100
AcDbHatch
 10
0.0
 20
0.0
 30
0.0
210
0.0
220
0.0
230
1.0
  2
SOLID
 70
     1
 71
     1
 91
        1
 92
        5
 93
        8
 72
     1
 10
4.574750231890053
 20
299.2392456203888
 11
4.887975046870871
 21
299.8674135446677
 72
     1
 10
4.887975046870871
 20
299.8674135446677
 11
3.197214035591435
 21
299.8674135446676
 72
     4
 94
        3
 73
     0
 74
     0
 95
       26
 96
       22
 40
0.0
 40
0.0
 40
0.0
 40
0.0
 40
0.306282258847545
 40
0.5113145150563467
 40
0.6591594689727181
 40
0.7695505122602936
 40
0.9127334891892449
 40
1.017243103820777
 40
1.205963108812785
 40
1.359578479722587
 40
1.464061546148638
 40
1.566512542290269
 40
1.749777456690453
 40
1.879367624743226
 40
1.949161942424621
 40
2.048302708997833
 40
2.119894481049029
 40
2.223607322578598
 40
2.282299819925661
 40
2.410021277698012
 40
2.468340004823004
 40
2.468340004823004
 40
2.468340004823004
 40
2.468340004823004
 10
3.197214035591287
 20
299.8674135446675
 10
3.093257104615881
 20
299.8612112958981
 10
2.919709057959696
 20
299.8508571218309
 10
2.729154358473079
 20
299.7350971882987
 10
2.589542829945671
 20
299.6677994500015
 10
2.489972057114472
 20
299.5763139081759
 10
2.416986276999129
 20
299.481816026363
 10
2.324973999530841
 20
299.3692224930588
 10
2.249940616509011
 20
299.2381118797473
 10
2.211730676109147
 20
299.0936051269517
 10
2.17788467355443
 20
298.9784324065187
 10
2.152783911446351
 20
298.8500874399428
 10
2.159170255920114
 20
298.7114297266426
 10
2.168315793485871
 20
298.5826515410664
 10
2.209148394816649
 20
298.4907231973034
 10
2.255649495032475
 20
298.4252765512515
 10
2.312589455417261
 20
298.353194326353
 10
2.374894223825538
 20
298.3054545022143
 10
2.426425352967681
 20
298.2189706027477
 10
2.516628856162275
 20
298.2079346334498
 10
2.573965791402565
 20
298.1859697607508
 10
2.59193941942442
 20
298.1790843482365
 72
     1
 10
2.59193941942435
 20
298.1790843482365
 11
4.046119581573202
 21
298.1790843482365
 72
     1
 10
4.046119581573202
 20
298.1790843482365
 11
4.35934107958881
 21
298.8072456203886
 72
     1
 10
4.35934107958881
 20
298.8072456203886
 11
3.279751195610393
 21
298.8072456203886
 72
     4
 94
        3
 73
     0
 74
     0
 95
       16
 96
       12
 40
0.0
 40
0.0
 40
0.0
 40
0.0
 40
0.092496428386945
 40
0.1859468902404647
 40
0.2416858907028242
 40
0.2951281203562815
 40
0.3538203845089407
 40
0.3948066843496557
 40
0.4336991257336609
 40
0.512567413098898
 40
0.6740411735369377
 40
0.6740411735369377
 40
0.6740411735369377
 40
0.6740411735369377
 10
3.279751195610401
 20
298.8072456203886
 10
3.247186960175333
 20
298.8168264959311
 10
3.181722612872342
 20
298.8360870667875
 10
3.176243775639422
 20
298.9294552385353
 10
3.183707898719079
 20
298.9959877011973
 10
3.214967662846754
 20
299.0444272192608
 10
3.252891178667875
 20
299.0796733420208
 10
3.267011785562386
 20
299.1255759059694
 10
3.308518023007922
 20
299.1602380846619
 10
3.382119703367716
 20
299.2185003650593
 10
3.463510420639494
 20
299.2309089289978
 10
3.518192759009934
 20
299.2392456203887
 72
     1
 10
3.518192759010002
 20
299.2392456203887
 11
4.574750231890053
 21
299.2392456203888
 97
        8
330
C5F
330
C3A
330
C44
330
C48
330
C46
330
C47
330
C45
330
C39
 75
     0
 76
     1
 47
0.0514683685270805
 98
        1
 10
3.788535760571676
 20
299.4915716722214
450
        0
451
        0
460
0.0
461
0.0
452
        0
462
0.0
453
        0
470

  0
LINE
  5
C3C
102
{ACAD_REACTORS
330
C42
102
}
330
18
100
AcDbEntity
  8
ROGO
 62
     4
100
AcDbLine
 10
1.379548872495547
 20
299.8674135446675
 30
0.0
 11
2.129571600131271
 21
298.1790843482365
 31
0.0
  0
SPLINE
  5
C3D
102
{ACAD_REACTORS
330
C3E
102
}
330
18
100
AcDbEntity
  8
ROGO
 62
     4
100
AcDbSpline
210
0.0
220
0.0
230
1.0
 70
     8
 71
     3
 72
    38
 73
    34
 74
    32
 42
0.0000000001
 43
0.0000000001
 44
0.0000000001
 40
0.0
 40
0.0
 40
0.0
 40
0.0
 40
0.2324160190625641
 40
0.3054076598660179
 40
0.3991969555208118
 40
0.4773548548861183
 40
0.5433001127836845
 40
0.6308904647837286
 40
0.6756456824938584
 40
0.7260518053353911
 40
0.8003409450195571
 40
0.884494420029689
 40
0.9390839551137702
 40
0.9983865037096219
 40
1.064308042580248
 40
1.164347318186099
 40
1.259395062462607
 40
1.303582284428296
 40
1.353971899974848
 40
1.413666953858189
 40
1.456162161198055
 40
1.491785383230425
 40
1.542647296663551
 40
1.598535826931799
 40
1.654424046021893
 40
1.703326315520178
 40
1.815321205179844
 40
1.859508427145426
 40
1.947882923564461
 40
2.026002047025105
 40
2.175555252260891
 40
2.360088422381767
 40
2.626581173122162
 40
2.626581173122162
 40
2.626581173122162
 40
2.626581173122162
 10
5.825550458354314
 20
299.8744556836033
 30
0.0
 10
5.748079232835598
 20
299.8689828876166
 30
0.0
 10
5.646277705608446
 20
299.8617913273188
 30
0.0
 10
5.517013569524626
 20
299.8263768079124
 30
0.0
 10
5.446550313814872
 20
299.7841867114665
 30
0.0
 10
5.373219212121289
 20
299.7531749682802
 30
0.0
 10
5.310697618197709
 20
299.7072527263881
 30
0.0
 10
5.247458345874328
 20
299.6835894375683
 30
0.0
 10
5.203176271534119
 20
299.6409202982318
 30
0.0
 10
5.151923382506009
 20
299.6148561462927
 30
0.0
 10
5.111109797003475
 20
299.5565169968455
 30
0.0
 10
5.06549178431984
 20
299.5019720061419
 30
0.0
 10
5.012569150653606
 20
299.4621565955423
 30
0.0
 10
4.969134834934259
 20
299.4203387654478
 30
0.0
 10
4.929289889745915
 20
299.3558012887827
 30
0.0
 10
4.905707867868719
 20
299.2700500927584
 30
0.0
 10
4.839234106485255
 20
299.2159098801061
 30
0.0
 10
4.829225239292681
 20
299.1508171902367
 30
0.0
 10
4.792456574755431
 20
299.1124135985631
 30
0.0
 10
4.776468273454943
 20
299.062840078868
 30
0.0
 10
4.770379158724317
 20
299.0174219783129
 30
0.0
 10
4.763070769098265
 20
298.9750046164765
 30
0.0
 10
4.743953405942206
 20
298.9303834255278
 30
0.0
 10
4.750193379235453
 20
298.8752644954685
 30
0.0
 10
4.748415798181238
 20
298.8218910060059
 30
0.0
 10
4.749461906718279
 20
298.7498351332198
 30
0.0
 10
4.745686356130503
 20
298.6796798800376
 30
0.0
 10
4.775794892507066
 20
298.6033343249638
 30
0.0
 10
4.793612125139321
 20
298.5352828246783
 30
0.0
 10
4.842407515066721
 20
298.441057270355
 30
0.0
 10
4.926578540118478
 20
298.3323413541579
 30
0.0
 10
5.08663678499802
 20
298.2003808299242
 30
0.0
 10
5.240537467145752
 20
298.186994049002
 30
0.0
 10
5.331471079227412
 20
298.1790843482365
 30
0.0
 11
5.825550458354314
 21
299.8744556836033
 31
0.0
 11
5.594820496564921
 21
299.8465112628801
 31
0.0
 11
5.524902342971586
 21
299.8255534141051
 31
0.0
 11
5.441000888247003
 21
299.7836370941984
 31
0.0
 11
5.371082734653668
 21
299.7487070350616
 31
0.0
 11
5.315148431503985
 21
299.7137766647467
 31
0.0
 11
5.238238627345026
 21
299.6718606560183
 31
0.0
 11
5.2032792758921
 21
299.6439165464731
 31
0.0
 11
5.16132827387355
 21
299.6159721257499
 31
0.0
 11
5.11238562128949
 21
299.5600839066599
 31
0.0
 11
5.056451318139806
 21
299.497209737978
 31
0.0
 11
5.014500316121257
 21
299.4622793676631
 31
0.0
 11
4.972549863415224
 21
299.4203633589347
 31
0.0
 11
4.937590511962298
 21
299.3644751398446
 31
0.0
 11
4.895640059256379
 21
299.2736565504396
 31
0.0
 11
4.839705206794064
 21
299.1968101713963
 31
0.0
 11
4.825721905662931
 21
299.1548938514896
 31
0.0
 11
4.797754754088146
 21
299.1129778427612
 31
0.0
 11
4.776779253078871
 21
299.0570893124929
 31
0.0
 11
4.76978705320073
 21
299.0151733037645
 31
0.0
 11
4.762795402635106
 21
298.9802429334496
 31
0.0
 11
4.748812101503972
 21
298.9313409751293
 31
0.0
 11
4.748812101503972
 21
298.8754524448611
 31
0.0
 11
4.748812101503972
 21
298.819564225771
 31
0.0
 11
4.748812101503972
 21
298.7706619562727
 31
0.0
 11
4.755803752069596
 21
298.6588855180925
 31
0.0
 11
4.76978705320073
 21
298.6169691981859
 31
0.0
 11
4.797754754088146
 21
298.5331368695508
 31
0.0
 11
4.832713556228554
 21
298.4632764400991
 31
0.0
 11
4.923607210831164
 21
298.3445140523273
 31
0.0
 11
5.070435168583571
 21
298.232737302969
 31
0.0
 11
5.331471079227412
 21
298.1790843482365
 31
0.0
  0
HATCH
  5
C3E
330
18
100
AcDbEntity
  8
ROGO
 62
     4
100
AcDbHatch
 10
0.0
 20
0.0
 30
0.0
210
0.0
220
0.0
230
1.0
  2
SOLID
 70
     1
 71
     1
 91
        1
 92
        5
 93
        6
 72
     4
 94
        3
 73
     0
 74
     0
 95
       38
 96
       34
 40
0.0
 40
0.0
 40
0.0
 40
0.0
 40
0.2324160190625641
 40
0.3054076598660179
 40
0.3991969555208118
 40
0.4773548548861183
 40
0.5433001127836845
 40
0.6308904647837286
 40
0.6756456824938584
 40
0.7260518053353911
 40
0.8003409450195571
 40
0.884494420029689
 40
0.9390839551137702
 40
0.9983865037096219
 40
1.064308042580248
 40
1.164347318186099
 40
1.259395062462607
 40
1.303582284428296
 40
1.353971899974848
 40
1.413666953858189
 40
1.456162161198055
 40
1.491785383230425
 40
1.542647296663551
 40
1.598535826931799
 40
1.654424046021893
 40
1.703326315520178
 40
1.815321205179844
 40
1.859508427145426
 40
1.947882923564461
 40
2.026002047025105
 40
2.175555252260891
 40
2.360088422381767
 40
2.626581173122162
 40
2.626581173122162
 40
2.626581173122162
 40
2.626581173122162
 10
5.825550458354314
 20
299.8744556836033
 10
5.748079232835598
 20
299.8689828876166
 10
5.646277705608446
 20
299.8617913273188
 10
5.517013569524626
 20
299.8263768079124
 10
5.446550313814872
 20
299.7841867114665
 10
5.373219212121289
 20
299.7531749682802
 10
5.310697618197709
 20
299.7072527263881
 10
5.247458345874328
 20
299.6835894375683
 10
5.203176271534119
 20
299.6409202982318
 10
5.151923382506009
 20
299.6148561462927
 10
5.111109797003475
 20
299.5565169968455
 10
5.06549178431984
 20
299.5019720061419
 10
5.012569150653606
 20
299.4621565955423
 10
4.969134834934259
 20
299.4203387654478
 10
4.929289889745915
 20
299.3558012887827
 10
4.905707867868719
 20
299.2700500927584
 10
4.839234106485255
 20
299.2159098801061
 10
4.829225239292681
 20
299.1508171902367
 10
4.792456574755431
 20
299.1124135985631
 10
4.776468273454943
 20
299.062840078868
 10
4.770379158724317
 20
299.0174219783129
 10
4.763070769098265
 20
298.9750046164765
 10
4.743953405942206
 20
298.9303834255278
 10
4.750193379235453
 20
298.8752644954685
 10
4.748415798181238
 20
298.8218910060059
 10
4.749461906718279
 20
298.7498351332198
 10
4.745686356130503
 20
298.6796798800376
 10
4.775794892507066
 20
298.6033343249638
 10
4.793612125139321
 20
298.5352828246783
 10
4.842407515066721
 20
298.441057270355
 10
4.926578540118478
 20
298.3323413541579
 10
5.08663678499802
 20
298.2003808299242
 10
5.240537467145752
 20
298.186994049002
 10
5.331471079227412
 20
298.1790843482365
 72
     1
 10
5.331471079227402
 20
298.1790843482364
 11
6.296340280466248
 21
298.1790843482365
 72
     4
 94
        3
 73
     0
 74
     0
 95
       11
 96
        7
 40
0.1647869275458135
 40
0.1647869275458135
 40
0.1647869275458135
 40
0.1647869275458135
 40
0.2545010798212315
 40
0.5111620267764023
 40
0.7602998271033902
 40
0.8850764140209603
 40
0.8850764140209603
 40
0.8850764140209603
 40
0.8850764140209603
 10
6.296340280465756
 20
298.1790843482365
 10
6.309804152305673
 20
298.1788248709811
 10
6.361786474228097
 20
298.1778230618153
 10
6.450624885494903
 20
298.1905857439955
 10
6.544094728958157
 20
298.2028159653327
 10
6.599818886516345
 20
298.2117228664835
 10
6.617791298688871
 20
298.2167254942618
 72
     4
 94
        3
 73
     0
 74
     0
 95
        9
 96
        5
 40
0.0
 40
0.0
 40
0.0
 40
0.0
 40
0.146030572742497
 40
0.3423777932799819
 40
0.3423777932799819
 40
0.3423777932799819
 40
0.3423777932799819
 10
6.617791298688871
 20
298.2167254942618
 10
6.664700543669167
 20
298.2310770739059
 10
6.774682196683049
 20
298.2647252482323
 10
6.865552235987482
 20
298.3358410853711
 10
6.91766449325928
 20
298.3766246794955
 72
     4
 94
        3
 73
     0
 74
     0
 95
       25
 96
       21
 40
0.0
 40
0.0
 40
0.0
 40
0.0
 40
0.165525918914855
 40
0.3412380755365305
 40
0.5940540902285263
 40
0.7697671103696209
 40
0.9377330196075423
 40
1.11479469302833
 40
1.274661249598185
 40
1.574522170874768
 40
1.815540668866877
 40
2.15849091873445
 40
2.536227739636605
 40
2.738070817316548
 40
2.925680654369045
 40
3.162706124480894
 40
3.395643218188267
 40
3.648478129958861
 40
3.928509979727306
 40
4.337226830236035
 40
4.337226830236035
 40
4.337226830236035
 40
4.337226830236035
 10
6.91766449325928
 20
298.3766246794955
 10
6.936812195622678
 20
298.392447635997
 10
6.973130151870577
 20
298.4300806515678
 10
7.037546027550092
 20
298.4910753851461
 10
7.094310518730139
 20
298.5621390900155
 10
7.16433360536655
 20
298.6197337322813
 10
7.200787405345181
 20
298.6901474518711
 10
7.253332680450512
 20
298.7455263425126
 10
7.297409561915742
 20
298.8310535765005
 10
7.33480661738713
 20
298.929297274543
 10
7.370459545883932
 20
299.057356067876
 10
7.384122115888203
 20
299.2018254217918
 10
7.363899813198941
 20
299.341599449203
 10
7.31504784190281
 20
299.4460759434648
 10
7.279132492342341
 20
299.5331463337497
 10
7.224626449802144
 20
299.6156173241918
 10
7.162442422124172
 20
299.7053136466214
 10
7.07483613829072
 20
299.7795070267406
 10
6.960343720063633
 20
299.8689961987949
 10
6.853702581568313
 20
299.8724224685883
 10
6.790419659592657
 20
299.8744556836033
 72
     1
 10
6.790419659592685
 20
299.8744556836034
 11
5.825550458354263
 21
299.8744556836033
 97
        6
330
C38
330
C62
330
C3D
330
C5A
330
C58
330
C59
 75
     0
 76
     1
 47
0.088756267210375
 98
        1
 10
6.114694320296393
 20
299.4061873268813
450
        0
451
        0
460
0.0
461
0.0
452
        0
462
0.0
453
        0
470

  0
HATCH
  5
C3F
330
18
100
AcDbEntity
  8
ROGO
 62
     4
100
AcDbHatch
 10
0.0
 20
0.0
 30
0.0
210
0.0
220
0.0
230
1.0
  2
SOLID
 70
     1
 71
     1
 91
        1
 92
        7
 72
     0
 73
     1
 93
       11
 10
11.41646792532429
 20
299.3917765891035
 10
11.6536358730119
 20
299.8674135446675
 10
10.68152820407795
 20
299.8674135446675
 10
9.366071449073817
 20
297.2292836783598
 10
10.33817911800782
 20
297.2292836783598
 10
10.68152820407796
 20
297.9178654010849
 10
11.02487729014808
 20
297.2292836783598
 10
11.99696369014803
 20
297.2292836783598
 10
11.33923531264602
 20
298.5483486115136
 10
12.93726084235762
 20
299.8674135446675
 10
11.96517444235768
 20
299.8674135446675
 97
       11
330
C64
330
C33
330
C31
330
C5E
330
C36
330
C1A
330
C57
330
C5C
330
C43
330
C5D
330
C32
 75
     0
 76
     1
 47
0.015942268611278
 98
        1
 10
11.20627908586766
 20
299.0115534688737
450
        0
451
        0
460
0.0
461
0.0
452
        0
462
0.0
453
        0
470

  0
LINE
  5
C40
102
{ACAD_REACTORS
330
C18
102
}
330
18
100
AcDbEntity
  8
ROGO
 62
     4
100
AcDbLine
 10
-0.6324625177504686
 20
299.8674135446675
 30
0.0
 11
-0.823820769409167
 21
299.4806676909205
 31
0.0
  0
LINE
  5
C41
102
{ACAD_REACTORS
330
C42
102
}
330
18
100
AcDbEntity
  8
ROGO
 62
     4
100
AcDbLine
 10
0.0290301089322611
 20
299.8674135446675
 30
0.0
 11
-1.188456886909534
 21
298.1790843482365
 31
0.0
  0
HATCH
  5
C42
330
18
100
AcDbEntity
  8
ROGO
 62
     4
100
AcDbHatch
 10
0.0
 20
0.0
 30
0.0
210
0.0
220
0.0
230
1.0
  2
SOLID
 70
     1
 71
     1
 91
        2
 92
        7
 72
     0
 73
     1
 93
        8
 10
1.379548872495555
 20
299.8674135446675
 10
0.0290301089322625
 20
299.8674135446675
 10
-1.188456886909511
 20
298.1790843482364
 10
-0.2534247061632493
 20
298.1790843482364
 10
-0.0216227149877771
 20
298.5005317812103
 10
1.045361984877778
 20
298.5005317812104
 10
1.188161671680757
 20
298.1790843482365
 10
2.129571600131213
 20
298.1790843482366
 97
        8
330
C60
330
C41
330
C4E
330
C4D
330
C4B
330
C50
330
C51
330
C3C
 92
       22
 72
     0
 73
     1
 93
        3
 10
0.8947468491056451
 20
298.8395720819625
 10
0.2228658350559209
 20
298.8395720819625
 10
0.638623067458707
 20
299.4161162885868
 97
        3
330
C4C
330
C4A
330
C4F
 75
     0
 76
     1
 47
0.0128389261915577
 98
        2
 10
1.273792582143869
 20
299.4623596516273
 10
1.273792582143869
 20
299.4623596516273
450
        0
451
        0
460
0.0
461
0.0
452
        0
462
0.0
453
        0
470

  0
LINE
  5
C43
102
{ACAD_REACTORS
330
C3F
102
}
330
18
100
AcDbEntity
  8
ROGO
 62
     4
100
AcDbLine
 10
11.02487729014808
 20
297.2292836783598
 30
0.0
 11
11.99696369014805
 21
297.2292836783598
 31
0.0
  0
LINE
  5
C44
102
{ACAD_REACTORS
330
C3B
102
}
330
18
100
AcDbEntity
  8
ROGO
 62
     4
100
AcDbLine
 10
2.591939419424306
 20
298.1790843482365
 30
0.0
 11
4.046119581573179
 21
298.1790843482365
 31
0.0
  0
LINE
  5
C45
102
{ACAD_REACTORS
330
C3B
102
}
330
18
100
AcDbEntity
  8
ROGO
 62
     4
100
AcDbLine
 10
3.518192759009934
 20
299.2392456203887
 30
0.0
 11
4.574750231889993
 21
299.2392456203888
 31
0.0
  0
LINE
  5
C46
102
{ACAD_REACTORS
330
C3B
102
}
330
18
100
AcDbEntity
  8
ROGO
 62
     4
100
AcDbLine
 10
3.279751195610288
 20
298.8072456203886
 30
0.0
 11
4.35934107958883
 21
298.8072456203886
 31
0.0
  0
SPLINE
  5
C47
102
{ACAD_REACTORS
330
C3B
102
}
330
18
100
AcDbEntity
  8
ROGO
 62
     4
100
AcDbSpline
210
0.0
220
0.0
230
1.0
 70
     8
 71
     3
 72
    16
 73
    12
 74
    10
 42
0.0000000001
 43
0.0000000001
 44
0.0000000001
 40
0.0
 40
0.0
 40
0.0
 40
0.0
 40
0.1614737604380397
 40
0.2403420478032769
 40
0.279234489187282
 40
0.320220789027997
 40
0.3789130531806562
 40
0.4323552828341136
 40
0.488094283296473
 40
0.5815447451499928
 40
0.6740411735369377
 40
0.6740411735369377
 40
0.6740411735369377
 40
0.6740411735369377
 10
3.518192759009934
 20
299.2392456203887
 30
0.0
 10
3.463510420639494
 20
299.2309089289978
 30
0.0
 10
3.382119703367716
 20
299.2185003650593
 30
0.0
 10
3.308518023007922
 20
299.1602380846619
 30
0.0
 10
3.267011785562386
 20
299.1255759059694
 30
0.0
 10
3.252891178667875
 20
299.0796733420208
 30
0.0
 10
3.214967662846754
 20
299.0444272192608
 30
0.0
 10
3.183707898719079
 20
298.9959877011973
 30
0.0
 10
3.176243775639422
 20
298.9294552385353
 30
0.0
 10
3.181722612872342
 20
298.8360870667875
 30
0.0
 10
3.247186960175333
 20
298.8168264959311
 30
0.0
 10
3.279751195610401
 20
298.8072456203886
 30
0.0
 11
3.518192759009934
 21
299.2392456203887
 31
0.0
 11
3.362288882969437
 21
299.1972009210135
 31
0.0
 11
3.298093138285707
 21
299.1513848417789
 31
0.0
 11
3.270580751612669
 21
299.1238950149995
 31
0.0
 11
3.252238808937363
 21
299.087241912627
 31
0.0
 11
3.215555450926558
 21
299.0414258333926
 31
0.0
 11
3.18804306425352
 21
298.9956094554269
 31
0.0
 11
3.178872092915753
 21
298.9406301005993
 31
0.0
 11
3.197214035591287
 21
298.8489973446683
 31
0.0
 11
3.279751195610401
 21
298.8072456203886
 31
0.0
  0
LINE
  5
C48
102
{ACAD_REACTORS
330
C3B
102
}
330
18
100
AcDbEntity
  8
ROGO
 62
     4
100
AcDbLine
 10
4.35934107958883
 20
298.8072456203886
 30
0.0
 11
4.046119581573179
 21
298.1790843482365
 31
0.0
  0
LINE
  5
C49
102
{ACAD_REACTORS
330
C18
102
}
330
18
100
AcDbEntity
  8
ROGO
 62
     4
100
AcDbLine
 10
-0.9734391429361721
 20
299.1782804925409
 30
0.0
 11
-1.126858768738202
 21
298.8682107482365
 31
0.0
  0
LINE
  5
C4A
102
{ACAD_REACTORS
330
C42
102
}
330
18
100
AcDbEntity
  8
ROGO
 62
     4
100
AcDbLine
 10
0.6386230674586387
 20
299.4161162885867
 30
0.0
 11
0.2228658350559272
 21
298.8395720819625
 31
0.0
  0
LINE
  5
C4B
102
{ACAD_REACTORS
330
C42
102
}
330
18
100
AcDbEntity
  8
ROGO
 62
     4
100
AcDbLine
 10
-0.0216227149877568
 20
298.5005317812103
 30
0.0
 11
1.045361984877786
 21
298.5005317812103
 31
0.0
  0
LINE
  5
C4C
102
{ACAD_REACTORS
330
C42
102
}
330
18
100
AcDbEntity
  8
ROGO
 62
     4
100
AcDbLine
 10
0.2228658350560408
 20
298.8395720819625
 30
0.0
 11
0.8947468491056724
 21
298.8395720819625
 31
0.0
  0
LINE
  5
C4D
102
{ACAD_REACTORS
330
C42
102
}
330
18
100
AcDbEntity
  8
ROGO
 62
     4
100
AcDbLine
 10
-0.0216227149877568
 20
298.5005317812103
 30
0.0
 11
-0.2534247061631731
 21
298.1790843482366
 31
0.0
  0
LINE
  5
C4E
102
{ACAD_REACTORS
330
C42
102
}
330
18
100
AcDbEntity
  8
ROGO
 62
     4
100
AcDbLine
 10
-1.188456886909534
 20
298.1790843482365
 30
0.0
 11
-0.2534247061631731
 21
298.1790843482365
 31
0.0
  0
LINE
  5
C4F
102
{ACAD_REACTORS
330
C42
102
}
330
18
100
AcDbEntity
  8
ROGO
 62
     4
100
AcDbLine
 10
0.6386230674587523
 20
299.4161162885867
 30
0.0
 11
0.8947468491056724
 21
298.8395720819625
 31
0.0
  0
LINE
  5
C50
102
{ACAD_REACTORS
330
C42
102
}
330
18
100
AcDbEntity
  8
ROGO
 62
     4
100
AcDbLine
 10
1.045361984877786
 20
298.5005317812103
 30
0.0
 11
1.188161671680745
 21
298.1790843482365
 31
0.0
  0
LINE
  5
C51
102
{ACAD_REACTORS
330
C42
102
}
330
18
100
AcDbEntity
  8
ROGO
 62
     4
100
AcDbLine
 10
2.129571600131271
 20
298.1790843482366
 30
0.0
 11
1.188161671680745
 21
298.1790843482365
 31
0.0
  0
LINE
  5
C52
330
18
100
AcDbEntity
  8
ROGO
 62
     4
100
AcDbLine
 10
8.031886267760114
 20
298.1790843482365
 30
0.0
 11
9.486066429908987
 21
298.1790843482365
 31
0.0
  0
SPLINE
  5
C53
330
18
100
AcDbEntity
  8
ROGO
 62
     4
100
AcDbSpline
210
0.0
220
0.0
230
1.0
 70
     8
 71
     3
 72
    16
 73
    12
 74
    10
 42
0.0000000001
 43
0.0000000001
 44
0.0000000001
 40
0.0
 40
0.0
 40
0.0
 40
0.0
 40
0.1614737604380397
 40
0.2403420478033429
 40
0.2792344891871872
 40
0.320220789028004
 40
0.3789130531806808
 40
0.4323552828340408
 40
0.4880942832964002
 40
0.5815447451500316
 40
0.6740411735369252
 40
0.6740411735369252
 40
0.6740411735369252
 40
0.6740411735369252
 10
8.958139607345742
 20
299.2392456203887
 30
0.0
 10
8.903457268975296
 20
299.2309089289978
 30
0.0
 10
8.822066551703487
 20
299.2185003650594
 30
0.0
 10
8.748464871343756
 20
299.1602380846618
 30
0.0
 10
8.706958633898326
 20
299.1255759059693
 30
0.0
 10
8.692838027003457
 20
299.0796733420208
 30
0.0
 10
8.654914511182676
 20
299.0444272192606
 30
0.0
 10
8.623654747054839
 20
298.9959877011971
 30
0.0
 10
8.616190623975256
 20
298.9294552385353
 30
0.0
 10
8.621669461208087
 20
298.8360870667873
 30
0.0
 10
8.68713380851114
 20
298.8168264959311
 30
0.0
 10
8.719698043946209
 20
298.8072456203886
 30
0.0
 11
8.958139607345742
 21
299.2392456203887
 31
0.0
 11
8.802235731305245
 21
299.1972009210135
 31
0.0
 11
8.738039986621515
 21
299.1513848417788
 31
0.0
 11
8.710527599948591
 21
299.1238950149995
 31
0.0
 11
8.692185657273057
 21
299.087241912627
 31
0.0
 11
8.655502299262366
 21
299.0414258333924
 31
0.0
 11
8.627989912589328
 21
298.9956094554269
 31
0.0
 11
8.618818941251561
 21
298.9406301005993
 31
0.0
 11
8.637160883927094
 21
298.8489973446681
 31
0.0
 11
8.719698043946209
 21
298.8072456203886
 31
0.0
  0
LINE
  5
C54
330
18
100
AcDbEntity
  8
ROGO
 62
     4
100
AcDbLine
 10
9.799287927924638
 20
298.8072456203886
 30
0.0
 11
9.486066429908987
 21
298.1790843482365
 31
0.0
  0
LINE
  5
C55
330
18
100
AcDbEntity
  8
ROGO
 62
     4
100
AcDbLine
 10
8.719698043946095
 20
298.8072456203886
 30
0.0
 11
9.799287927924638
 21
298.8072456203886
 31
0.0
  0
LINE
  5
C56
330
18
100
AcDbEntity
  8
ROGO
 62
     4
100
AcDbLine
 10
8.958139607345628
 20
299.2392456203887
 30
0.0
 11
10.0146970802258
 21
299.2392456203887
 31
0.0
  0
LINE
  5
C57
102
{ACAD_REACTORS
330
C3F
102
}
330
18
100
AcDbEntity
  8
ROGO
 62
     4
100
AcDbLine
 10
10.68152820407795
 20
297.917865401085
 30
0.0
 11
10.33817911800781
 21
297.2292836783598
 31
0.0
  0
SPLINE
  5
C58
102
{ACAD_REACTORS
330
C3E
102
}
330
18
100
AcDbEntity
  8
ROGO
 62
     4
100
AcDbSpline
210
0.0
220
0.0
230
1.0
 70
     8
 71
     3
 72
    11
 73
     7
 74
     0
 42
0.0000000001
 43
0.0000000001
 40
0.1647869275458134
 40
0.1647869275458134
 40
0.1647869275458134
 40
0.1647869275458134
 40
0.2895635144633836
 40
0.5387013147903714
 40
0.7953622617455423
 40
0.8850764140209602
 40
0.8850764140209602
 40
0.8850764140209602
 40
0.8850764140209602
 10
6.617791298688871
 20
298.2167254942618
 30
0.0
 10
6.599818886516345
 20
298.2117228664835
 30
0.0
 10
6.544094728958157
 20
298.2028159653327
 30
0.0
 10
6.450624885494903
 20
298.1905857439955
 30
0.0
 10
6.361786474228097
 20
298.1778230618153
 30
0.0
 10
6.309804152305673
 20
298.1788248709811
 30
0.0
 10
6.296340280465756
 20
298.1790843482365
 30
0.0
  0
SPLINE
  5
C59
102
{ACAD_REACTORS
330
C3E
102
}
330
18
100
AcDbEntity
  8
ROGO
 62
     4
100
AcDbSpline
210
0.0
220
0.0
230
1.0
 70
     8
 71
     3
 72
     9
 73
     5
 74
     3
 42
0.0000000001
 43
0.0000000001
 44
0.0000000001
 40
0.0
 40
0.0
 40
0.0
 40
0.0
 40
0.146030572742497
 40
0.3423777932799819
 40
0.3423777932799819
 40
0.3423777932799819
 40
0.3423777932799819
 10
6.617791298688871
 20
298.2167254942618
 30
0.0
 10
6.664700543669167
 20
298.2310770739059
 30
0.0
 10
6.774682196683049
 20
298.2647252482323
 30
0.0
 10
6.865552235987482
 20
298.3358410853711
 30
0.0
 10
6.91766449325928
 20
298.3766246794955
 30
0.0
 11
6.617791298688871
 21
298.2167254942618
 31
0.0
 11
6.755042281263513
 21
298.2665962868943
 31
0.0
 11
6.91766449325928
 21
298.3766246794955
 31
0.0
  0
LINE
  5
C5A
102
{ACAD_REACTORS
330
C3E
102
}
330
18
100
AcDbEntity
  8
ROGO
 62
     4
100
AcDbLine
 10
5.331471079227412
 20
298.1790843482365
 30
0.0
 11
6.296340280465756
 21
298.1790843482365
 31
0.0
  0
ELLIPSE
  5
C5B
330
18
100
AcDbEntity
  8
ROGO
 62
     4
100
AcDbEllipse
 10
6.047282680022362
 20
299.0031322650361
 30
0.0
 11
0.2292231973722778
 21
0.2015731185223643
 31
0.0
210
0.0
220
0.0
230
1.0
 40
0.6788083417438792
 41
0.0
 42
6.283185307179586
  0
LINE
  5
C5C
102
{ACAD_REACTORS
330
C3F
102
}
330
18
100
AcDbEntity
  8
ROGO
 62
     4
100
AcDbLine
 10
10.68152820407795
 20
297.917865401085
 30
0.0
 11
11.02487729014808
 21
297.2292836783598
 31
0.0
  0
LINE
  5
C5D
102
{ACAD_REACTORS
330
C3F
102
}
330
18
100
AcDbEntity
  8
ROGO
 62
     4
100
AcDbLine
 10
11.33923531264599
 20
298.5483486115136
 30
0.0
 11
11.99696369014805
 21
297.2292836783598
 31
0.0
  0
LINE
  5
C5E
102
{ACAD_REACTORS
330
C3F
102
}
330
18
100
AcDbEntity
  8
ROGO
 62
     4
100
AcDbLine
 10
10.68152820407795
 20
299.8674135446675
 30
0.0
 11
11.65363587301192
 21
299.8674135446675
 31
0.0
  0
LINE
  5
C5F
102
{ACAD_REACTORS
330
C3B
102
}
330
18
100
AcDbEntity
  8
ROGO
 62
     4
100
AcDbLine
 10
3.197214035591741
 20
299.8674135446676
 30
0.0
 11
4.887975046870792
 21
299.8674135446676
 31
0.0
  0
LINE
  5
C60
102
{ACAD_REACTORS
330
C42
102
}
330
18
100
AcDbEntity
  8
ROGO
 62
     4
100
AcDbLine
 10
0.0290301089322611
 20
299.8674135446675
 30
0.0
 11
1.379548872495547
 21
299.8674135446675
 31
0.0
  0
LINE
  5
C61
330
18
100
AcDbEntity
  8
ROGO
 62
     4
100
AcDbLine
 10
8.637160883927549
 20
299.8674135446675
 30
0.0
 11
10.3279218952066
 21
299.8674135446675
 31
0.0
  0
LINE
  5
C62
102
{ACAD_REACTORS
330
C3E
102
}
330
18
100
AcDbEntity
  8
ROGO
 62
     4
100
AcDbLine
 10
5.825550458354314
 20
299.8744556836033
 30
0.0
 11
6.790419659592657
 21
299.8744556836033
 31
0.0
  0
LINE
  5
C63
330
18
100
AcDbEntity
  8
外形線
100
AcDbLine
 10
13.7644122967431
 20
311.7072616373574
 30
0.0
 11
13.7644122967431
 21
310.6350796188843
 31
0.0
  0
LINE
  5
C64
102
{ACAD_REACTORS
330
C3F
102
}
330
18
100
AcDbEntity
  8
ROGO
 62
     4
100
AcDbLine
 10
11.96517444235769
 20
299.8674135446675
 30
0.0
 11
12.93726084235766
 21
299.8674135446675
 31
0.0
  0
LINE
  5
C65
330
18
100
AcDbEntity
  8
外形線
100
AcDbLine
 10
-13.23558770325689
 20
269.2245081449785
 30
0.0
 11
-13.23558770325689
 21
259.0813273099048
 31
0.0
  0
LINE
  5
C66
330
18
100
AcDbEntity
  8
外形線
100
AcDbLine
 10
18.7644122967431
 20
269.2245081449785
 30
0.0
 11
18.7644122967431
 21
259.0813273099048
 31
0.0
  0
LINE
  5
C67
330
18
100
AcDbEntity
  8
外形線
100
AcDbLine
 10
-12.2355877032569
 20
270.2245081449785
 30
0.0
 11
17.7644122967431
 21
270.2245081449785
 31
0.0
  0
ARC
  5
C68
330
18
100
AcDbEntity
  8
外形線
100
AcDbCircle
 10
2.764412296743103
 20
282.7245081449785
 30
0.0
 40
29.0
100
AcDbArc
 50
56.5146233770071
 51
123.4853766229929
  0
ARC
  5
C69
330
18
100
AcDbEntity
  8
外形線
100
AcDbCircle
 10
2.764412296743103
 20
282.7245081449785
 30
0.0
 40
29.0
100
AcDbArc
 50
237.6076345141541
 51
302.3923654858458
  0
ARC
  5
C6A
330
18
100
AcDbEntity
  8
外形線
100
AcDbCircle
 10
-12.2355877032569
 20
269.2245081449785
 30
0.0
 40
1.0
100
AcDbArc
 50
90.0
 51
180.0
  0
ARC
  5
C6B
330
18
100
AcDbEntity
  8
外形線
100
AcDbCircle
 10
17.7644122967431
 20
269.2245081449785
 30
0.0
 40
1.0
100
AcDbArc
 50
0.0
 51
90.0
  0
ARC
  5
C6C
330
18
100
AcDbEntity
  8
外形線
100
AcDbCircle
 10
17.7644122967431
 20
259.0813273099048
 30
0.0
 40
1.0
100
AcDbArc
 50
302.3923654858406
 51
0.0
  0
ARC
  5
C6D
330
18
100
AcDbEntity
  8
外形線
100
AcDbCircle
 10
-12.2355877032569
 20
259.0813273099048
 30
0.0
 40
1.0
100
AcDbArc
 50
180.0
 51
237.6076345141557
  0
ELLIPSE
  5
C6E
330
18
100
AcDbEntity
  8
外形線
100
AcDbEllipse
 10
10.61319418435175
 20
262.8162246717993
 30
0.0
 11
-4.089143464216689
 21
0.0
 31
0.0
210
0.0
220
0.0
230
1.0
 40
0.6358299782710266
 41
0.0
 42
6.283185307179586
  0
ELLIPSE
  5
C6F
330
18
100
AcDbEntity
  8
外形線
100
AcDbEllipse
 10
-4.563001512657251
 20
262.8162246717993
 30
0.0
 11
-4.089143464216689
 21
0.0
 31
0.0
210
0.0
220
0.0
230
1.0
 40
0.6358299782710266
 41
0.0
 42
6.283185307179586
  0
TEXT
  5
C70
330
18
100
AcDbEntity
  8
寸法線
100
AcDbText
 10
8.91890860544106
 20
256.6817769795401
 30
0.0
 40
1.199999999999999
  1
SET
  7
STYLE4
100
AcDbText
  0
ELLIPSE
  5
C71
330
18
100
AcDbEntity
  8
外形線
100
AcDbEllipse
 10
10.61319418435175
 20
262.8162246717993
 30
0.0
 11
-5.473687379191062
 21
0.0
 31
0.0
210
0.0
220
0.0
230
1.0
 40
0.7307688077339824
 41
0.0
 42
6.283185307179586
  0
ELLIPSE
  5
C72
330
18
100
AcDbEntity
  8
外形線
100
AcDbEllipse
 10
-4.563001512657251
 20
262.8162246717993
 30
0.0
 11
-5.473687379191062
 21
0.0
 31
0.0
210
0.0
220
0.0
230
1.0
 40
0.7307688077339824
 41
0.0
 42
6.283185307179586
  0
LINE
  5
C73
330
18
100
AcDbEntity
  8
外形線
100
AcDbLine
 10
-3.235587703256896
 20
249.6245081449785
 30
0.0
 11
8.764412296743103
 21
249.6245081449786
 31
0.0
  0
LINE
  5
C74
330
18
100
AcDbEntity
  8
外形線
100
AcDbLine
 10
-3.235587703256896
 20
249.6245081449785
 30
0.0
 11
-2.235587703256896
 21
247.6245081449785
 31
0.0
  0
LINE
  5
C75
330
18
100
AcDbEntity
  8
外形線
100
AcDbLine
 10
8.764412296743103
 20
249.6245081449786
 30
0.0
 11
7.764412296743103
 21
247.6245081449786
 31
0.0
  0
LINE
  5
C76
330
18
100
AcDbEntity
  8
外形線
100
AcDbLine
 10
-3.235587703256896
 20
250.1245081449785
 30
0.0
 11
8.764412296743103
 21
250.1245081449786
 31
0.0
  0
LINE
  5
C77
330
18
100
AcDbEntity
  8
中心線
 48
0.3
100
AcDbLine
 10
-11.53258961022334
 20
262.8162246717993
 30
0.0
 11
2.406586584908836
 21
262.8162246717993
 31
0.0
  0
LINE
  5
C78
330
18
100
AcDbEntity
  8
中心線
 48
0.3
100
AcDbLine
 10
-4.563001512657251
 20
268.1338346555897
 30
0.0
 11
-4.563001512657251
 21
257.5349859153495
 31
0.0
  0
LINE
  5
C79
330
18
100
AcDbEntity
  8
中心線
 48
0.3
100
AcDbLine
 10
10.61319418435175
 20
268.1338346555897
 30
0.0
 11
10.61319418435175
 21
257.5349859153495
 31
0.0
  0
LINE
  5
C7A
330
18
100
AcDbEntity
  8
中心線
 48
0.3
100
AcDbLine
 10
3.643606086785666
 20
262.8162246717993
 30
0.0
 11
17.58278228191784
 21
262.8162246717993
 31
0.0
  0
LINE
  5
C7B
330
18
100
AcDbEntity
  8
外形線
100
AcDbLine
 10
7.764412296743159
 20
337.6245081449785
 30
0.0
 11
7.764412296743159
 21
330.3245081449786
 31
0.0
  0
LINE
  5
C7C
330
18
100
AcDbEntity
  8
外形線
100
AcDbLine
 10
-2.23558770325684
 20
337.6245081449786
 30
0.0
 11
-2.235587703256896
 21
330.3245081449786
 31
0.0
  0
LINE
  5
C7D
330
18
100
AcDbEntity
  8
外形線
100
AcDbLine
 10
-2.23558770325684
 20
330.3245081449786
 30
0.0
 11
7.764412296743159
 21
330.3245081449786
 31
0.0
  0
LINE
  5
C7E
330
18
100
AcDbEntity
  8
外形線
100
AcDbLine
 10
-2.23558770325684
 20
329.7245081449785
 30
0.0
 11
7.764412296743159
 21
329.7245081449785
 31
0.0
  0
LINE
  5
C7F
330
18
100
AcDbEntity
  8
外形線
100
AcDbLine
 10
-3.235587703256896
 20
328.7245081449785
 30
0.0
 11
8.764412296743159
 21
328.7245081449785
 31
0.0
  0
LINE
  5
C80
330
18
100
AcDbEntity
  8
外形線
100
AcDbLine
 10
-3.23558770325684
 20
328.7245081449785
 30
0.0
 11
-2.23558770325684
 21
329.7245081449785
 31
0.0
  0
LINE
  5
C81
330
18
100
AcDbEntity
  8
外形線
100
AcDbLine
 10
-1.235587703256896
 20
330.3245081449786
 30
0.0
 11
-1.235587703256896
 21
329.7245081449785
 31
0.0
  0
POINT
  5
C82
330
18
100
AcDbEntity
  8
DEFPOINTS
  6
ByBlock
 62
     0
100
AcDbPoint
 10
-2.23558770325684
 20
329.7245081449785
 30
0.0
  0
LINE
  5
C83
330
18
100
AcDbEntity
  8
外形線
100
AcDbLine
 10
7.764412296743159
 20
329.7245081449785
 30
0.0
 11
8.764412296743159
 21
328.7245081449785
 31
0.0
  0
LINE
  5
C84
330
18
100
AcDbEntity
  8
外形線
100
AcDbLine
 10
6.764412296743159
 20
330.3245081449787
 30
0.0
 11
6.764412296743159
 21
329.7245081449785
 31
0.0
  0
LINE
  5
C85
330
18
100
AcDbEntity
  8
外形線
100
AcDbLine
 10
-0.7355877032568401
 20
346.7245081449785
 30
0.0
 11
6.264412296743159
 21
346.7245081449785
 31
0.0
  0
LINE
  5
C86
330
18
100
AcDbEntity
  8
外形線
100
AcDbLine
 10
-2.235587703256783
 20
337.6245081449786
 30
0.0
 11
7.764412296743216
 21
337.6245081449785
 31
0.0
  0
LINE
  5
C87
330
18
100
AcDbEntity
  8
外形線
100
AcDbLine
 10
-2.235587703256783
 20
339.1245081449786
 30
0.0
 11
7.764412296743216
 21
339.1245081449785
 31
0.0
  0
LINE
  5
C88
330
18
100
AcDbEntity
  8
外形線
100
AcDbLine
 10
-2.235587703256783
 20
340.4245081449787
 30
0.0
 11
7.764412296743216
 21
340.4245081449786
 31
0.0
  0
LINE
  5
C89
330
18
100
AcDbEntity
  8
外形線
100
AcDbLine
 10
-2.235587703256783
 20
341.4245081449787
 30
0.0
 11
7.764412296743216
 21
341.4245081449786
 31
0.0
  0
LINE
  5
C8A
330
18
100
AcDbEntity
  8
外形線
100
AcDbLine
 10
-2.235587703256783
 20
342.7245081449787
 30
0.0
 11
7.764412296743216
 21
342.7245081449787
 31
0.0
  0
LINE
  5
C8B
330
18
100
AcDbEntity
  8
外形線
100
AcDbLine
 10
-2.235587703256783
 20
343.7245081449786
 30
0.0
 11
7.764412296743216
 21
343.7245081449786
 31
0.0
  0
LINE
  5
C8C
330
18
100
AcDbEntity
  8
外形線
100
AcDbLine
 10
-2.23558770325684
 20
345.2245081449785
 30
0.0
 11
-2.23558770325684
 21
343.7245081449786
 31
0.0
  0
LINE
  5
C8D
330
18
100
AcDbEntity
  8
外形線
100
AcDbLine
 10
-1.235587703256953
 20
343.7245081449786
 30
0.0
 11
-1.235587703256953
 21
342.7245081449787
 31
0.0
  0
LINE
  5
C8E
330
18
100
AcDbEntity
  8
外形線
100
AcDbLine
 10
-1.235587703256953
 20
341.4245081449785
 30
0.0
 11
-1.235587703256896
 21
340.4245081449786
 31
0.0
  0
LINE
  5
C8F
330
18
100
AcDbEntity
  8
外形線
100
AcDbLine
 10
-2.23558770325684
 20
342.7245081449787
 30
0.0
 11
-2.23558770325684
 21
341.4245081449787
 31
0.0
  0
ARC
  5
C90
330
18
100
AcDbEntity
  8
外形線
100
AcDbCircle
 10
-0.7355877032568401
 20
345.2245081449785
 30
0.0
 40
1.5
100
AcDbArc
 50
90.0
 51
180.0
  0
LINE
  5
C91
330
18
100
AcDbEntity
  8
外形線
100
AcDbLine
 10
-1.235587703256896
 20
339.1245081449786
 30
0.0
 11
-1.235587703256896
 21
337.6245081449785
 31
0.0
  0
LINE
  5
C92
330
18
100
AcDbEntity
  8
外形線
100
AcDbLine
 10
-2.23558770325684
 20
340.4245081449787
 30
0.0
 11
-2.23558770325684
 21
339.1245081449786
 31
0.0
  0
LINE
  5
C93
330
18
100
AcDbEntity
  8
外形線
100
AcDbLine
 10
7.764412296743159
 20
345.2245081449785
 30
0.0
 11
7.764412296743159
 21
343.7245081449784
 31
0.0
  0
LINE
  5
C94
330
18
100
AcDbEntity
  8
外形線
100
AcDbLine
 10
6.764412296743159
 20
343.7245081449785
 30
0.0
 11
6.764412296743159
 21
342.7245081449787
 31
0.0
  0
LINE
  5
C95
330
18
100
AcDbEntity
  8
外形線
100
AcDbLine
 10
6.764412296743159
 20
341.4245081449786
 30
0.0
 11
6.764412296743159
 21
340.4245081449785
 31
0.0
  0
LINE
  5
C96
330
18
100
AcDbEntity
  8
外形線
100
AcDbLine
 10
7.764412296743159
 20
342.7245081449785
 30
0.0
 11
7.764412296743159
 21
341.4245081449785
 31
0.0
  0
ARC
  5
C97
330
18
100
AcDbEntity
  8
外形線
100
AcDbCircle
 10
6.264412296743159
 20
345.2245081449785
 30
0.0
 40
1.5
100
AcDbArc
 50
0.0
 51
90.0
  0
LINE
  5
C98
330
18
100
AcDbEntity
  8
外形線
100
AcDbLine
 10
6.764412296743159
 20
339.1245081449785
 30
0.0
 11
6.764412296743159
 21
337.6245081449785
 31
0.0
  0
LINE
  5
C99
330
18
100
AcDbEntity
  8
外形線
100
AcDbLine
 10
7.764412296743159
 20
340.4245081449786
 30
0.0
 11
7.764412296743159
 21
339.1245081449785
 31
0.0
  0
LINE
  5
C9A
330
18
100
AcDbEntity
  8
外形線
100
AcDbLine
 10
-0.9855877032568969
 20
226.6245081449786
 30
0.0
 11
6.514412296743103
 21
226.6245081449786
 31
0.0
  0
LINE
  5
C9B
330
18
100
AcDbEntity
  8
外形線
100
AcDbLine
 10
4.764412296743103
 20
226.6245081449786
 30
0.0
 11
4.764412296743103
 21
200.2245081449785
 31
0.0
  0
LINE
  5
C9C
330
18
100
AcDbEntity
  8
外形線
100
AcDbLine
 10
0.7644122967431031
 20
226.6245081449786
 30
0.0
 11
0.7644122967431031
 21
200.2245081449785
 31
0.0
  0
LINE
  5
C9D
330
18
100
AcDbEntity
  8
外形線
100
AcDbLine
 10
5.264412296743103
 20
200.0245081449786
 30
0.0
 11
5.264412296742989
 21
196.9245081449785
 31
0.0
  0
LINE
  5
C9E
330
18
100
AcDbEntity
  8
寸法線
100
AcDbLine
 10
2.764412296743103
 20
198.559671323645
 30
0.0
 11
1.29957547540971
 21
200.0245081449785
 31
0.0
  0
LINE
  5
C9F
330
18
100
AcDbEntity
  8
寸法線
100
AcDbLine
 10
2.764412296743103
 20
197.2126329054846
 30
0.0
 11
0.2644122967431031
 21
199.7126329054846
 31
0.0
  0
LINE
  5
CA0
330
18
100
AcDbEntity
  8
外形線
100
AcDbLine
 10
0.2644122967431031
 20
200.0245081449786
 30
0.0
 11
0.2644122967431031
 21
196.9245081449785
 31
0.0
  0
LINE
  5
CA1
330
18
100
AcDbEntity
  8
寸法線
100
AcDbLine
 10
0.2644122967431031
 20
198.2703408313385
 30
0.0
 11
2.018579610383085
 21
200.0245081449785
 31
0.0
  0
LINE
  5
CA2
330
18
100
AcDbEntity
  8
寸法線
100
AcDbLine
 10
0.2644122967431031
 20
199.6173792494989
 30
0.0
 11
0.6715411922227759
 21
200.0245081449786
 31
0.0
  0
LINE
  5
CA3
330
18
100
AcDbEntity
  8
外形線
100
AcDbLine
 10
0.5144122967431031
 20
196.7245081449785
 30
0.0
 11
1.464412296743034
 21
192.2245081449785
 31
0.0
  0
LINE
  5
CA4
330
18
100
AcDbEntity
  8
外形線
100
AcDbLine
 10
5.014412296743103
 20
196.7245081449785
 30
0.0
 11
4.064412296743057
 21
192.2245081449785
 31
0.0
  0
LINE
  5
CA5
330
18
100
AcDbEntity
  8
外形線
100
AcDbLine
 10
1.464412296743034
 20
192.2245081449785
 30
0.0
 11
4.064412296743057
 21
192.2245081449785
 31
0.0
  0
ARC
  5
CA6
330
18
100
AcDbEntity
  8
外形線
100
AcDbCircle
 10
2.764412296743103
 20
192.3745081449785
 30
0.0
 40
1.150000000000005
100
AcDbArc
 50
187.4947174539263
 51
352.5052825460737
  0
POINT
  5
CA7
330
18
100
AcDbEntity
  8
DEFPOINTS
  6
ByBlock
 62
     0
100
AcDbPoint
 10
2.764412296743103
 20
191.2245081449785
 30
0.0
  0
LINE
  5
CA8
330
18
100
AcDbEntity
  8
寸法線
100
AcDbLine
 10
0.2656180285434857
 20
196.9245081449785
 30
0.0
 11
2.764412296743216
 21
199.4233024131782
 31
0.0
  0
LINE
  5
CA9
330
18
100
AcDbEntity
  8
寸法線
100
AcDbLine
 10
1.705498639089
 20
196.9245081449784
 30
0.0
 11
0.2644122967431031
 21
198.3655944873243
 31
0.0
  0
LINE
  5
CAA
330
18
100
AcDbEntity
  8
外形線
100
AcDbLine
 10
0.2644122967429894
 20
196.9245081449785
 30
0.0
 11
5.264412296743103
 21
196.9245081449785
 31
0.0
  0
LINE
  5
CAB
330
18
100
AcDbEntity
  8
外形線
100
AcDbLine
 10
0.5144122967431031
 20
196.7245081449785
 30
0.0
 11
5.014412296742989
 21
196.7245081449785
 31
0.0
  0
LINE
  5
CAC
330
18
100
AcDbEntity
  8
寸法線
100
AcDbLine
 10
0.3584602209285776
 20
196.9245081449785
 30
0.0
 11
0.2644122967431031
 21
197.0185560691639
 31
0.0
  0
LINE
  5
CAD
330
18
100
AcDbEntity
  8
外形線
100
AcDbLine
 10
0.2644122967431031
 20
196.9245081449785
 30
0.0
 11
0.5144122967431031
 21
196.7245081449785
 31
0.0
  0
LINE
  5
CAE
330
18
100
AcDbEntity
  8
外形線
100
AcDbLine
 10
5.264412296743103
 20
196.9245081449785
 30
0.0
 11
5.014412296743103
 21
196.7245081449785
 31
0.0
  0
LINE
  5
CAF
330
18
100
AcDbEntity
  8
寸法線
100
AcDbLine
 10
1.612656446703908
 20
196.9245081449785
 30
0.0
 11
2.764412296743103
 21
198.0762639950177
 31
0.0
  0
LINE
  5
CB0
330
18
100
AcDbEntity
  8
外形線
100
AcDbLine
 10
0.2644122967429894
 20
200.0245081449786
 30
0.0
 11
5.264412296743103
 21
200.0245081449786
 31
0.0
  0
LINE
  5
CB1
330
18
100
AcDbEntity
  8
外形線
100
AcDbLine
 10
0.5144122967431031
 20
200.2245081449785
 30
0.0
 11
5.014412296743103
 21
200.2245081449785
 31
0.0
  0
LINE
  5
CB2
330
18
100
AcDbEntity
  8
外形線
100
AcDbLine
 10
0.5144122967431031
 20
200.2245081449785
 30
0.0
 11
0.2644122967431031
 21
200.0245081449786
 31
0.0
  0
LINE
  5
CB3
330
18
100
AcDbEntity
  8
外形線
100
AcDbLine
 10
5.014412296743103
 20
200.2245081449785
 30
0.0
 11
5.264412296743103
 21
200.0245081449786
 31
0.0
  0
LINE
  5
CB4
330
18
100
AcDbEntity
  8
寸法線
100
AcDbLine
 10
2.764412296743216
 20
199.9067097418054
 30
0.0
 11
2.64661389357002
 21
200.0245081449785
 31
0.0
  0
DIMENSION
  5
CB5
330
18
100
AcDbEntity
  8
寸法線
100
AcDbDimension
  2
*D15
 10
-45.24879527718371
 20
282.7245081449785
 30
0.0
 11
-47.12379527718375
 21
314.7245081449785
 31
0.0
 70
    32
 71
     5
 42
64.0
  3
STYLE3
100
AcDbAlignedDimension
 13
2.764412296743103
 23
346.7245081449785
 33
0.0
 14
-33.15454965531103
 24
282.7245081449785
 34
0.0
 50
90.0
100
AcDbRotatedDimension
1001
ACAD
1000
DSTYLE
1002
{
1070
   271
1070
     2
1070
   341
1005
0
1002
}
  0
DIMENSION
  5
CB6
330
18
100
AcDbEntity
  8
寸法線
100
AcDbDimension
  2
*D16
 10
-45.24879527718371
 20
247.6245081449785
 30
0.0
 11
-47.12379527718375
 21
265.1745081449785
 31
0.0
 70
    32
 71
     5
 42
35.10000000000002
  3
STYLE3
100
AcDbAlignedDimension
 13
-33.15454965531103
 23
282.7245081449785
 33
0.0
 14
-2.235587703256896
 24
247.6245081449785
 34
0.0
 50
90.0
100
AcDbRotatedDimension
1001
ACAD
1000
DSTYLE
1002
{
1070
   279
1070
     1
1070
   271
1070
     2
1070
   341
1005
0
1002
}
  0
DIMENSION
  5
CB7
330
18
100
AcDbEntity
  8
寸法線
100
AcDbDimension
  2
*D17
 10
-45.24879527718371
 20
226.6245081449786
 30
0.0
 11
-47.12379527718375
 21
237.1245081449785
 31
0.0
 70
    32
 71
     5
 42
20.99999999999994
  3
STYLE3
100
AcDbAlignedDimension
 13
-2.235587703256896
 23
247.6245081449785
 33
0.0
 14
-0.9855877032568969
 24
226.6245081449786
 34
0.0
 50
90.0
100
AcDbRotatedDimension
1001
ACAD
1000
DSTYLE
1002
{
1070
   279
1070
     1
1070
   271
1070
     2
1070
   341
1005
0
1002
}
  0
DIMENSION
  5
CB8
330
18
100
AcDbEntity
  8
寸法線
100
AcDbDimension
  2
*D18
 10
-45.24879527718371
 20
200.2245081449785
 30
0.0
 11
-47.12379527718375
 21
213.4245081449785
 31
0.0
 70
    32
 71
     5
 42
26.40000000000004
  3
STYLE3
100
AcDbAlignedDimension
 13
-0.9855877032568969
 23
226.6245081449786
 33
0.0
 14
0.7644122967431031
 24
200.2245081449785
 34
0.0
 50
90.0
100
AcDbRotatedDimension
1001
ACAD
1000
DSTYLE
1002
{
1070
   279
1070
     1
1070
   271
1070
     2
1070
   341
1005
0
1002
}
  0
DIMENSION
  5
CB9
330
18
100
AcDbEntity
  8
寸法線
100
AcDbDimension
  2
*D19
 10
-45.24879527718371
 20
191.2245081449785
 30
0.0
 11
-47.12379527718375
 21
195.7245081449785
 31
0.0
 70
    32
 71
     5
 42
9.0
  3
STYLE3
100
AcDbAlignedDimension
 13
0.7644122967431031
 23
200.2245081449785
 33
0.0
 14
2.764412296743103
 24
191.2245081449785
 34
0.0
 50
90.0
100
AcDbRotatedDimension
1001
ACAD
1000
DSTYLE
1002
{
1070
   279
1070
     1
1070
   271
1070
     2
1070
   341
1005
0
1002
}
  0
DIMENSION
  5
CBA
330
18
100
AcDbEntity
  8
寸法線
100
AcDbDimension
  2
*D20
 10
-54.44426673527517
 20
191.2245081449785
 30
0.0
 11
-56.31926673527519
 21
268.9745081449785
 31
0.0
 70
    32
 71
     5
 42
155.5
  3
STYLE3
100
AcDbAlignedDimension
 13
2.764412296743103
 23
346.7245081449785
 33
0.0
 14
2.764412296743103
 24
191.2245081449785
 34
0.0
 50
90.0
100
AcDbRotatedDimension
1001
ACAD
1000
DSTYLE
1002
{
1070
   271
1070
     2
1070
   341
1005
0
1002
}
  0
LINE
  5
CBB
330
18
100
AcDbEntity
  8
外形線
100
AcDbLine
 10
86.78060310782257
 20
328.7245081449786
 30
0.0
 11
86.78060310782257
 21
312.1245081449784
 31
0.0
  0
LINE
  5
CBC
330
18
100
AcDbEntity
  8
外形線
100
AcDbLine
 10
74.78060310782257
 20
328.7245081449784
 30
0.0
 11
74.78060310782251
 21
312.1245081449785
 31
0.0
  0
LINE
  5
CBD
330
18
100
AcDbEntity
  8
外形線
100
AcDbLine
 10
85.78060310782262
 20
337.6245081449785
 30
0.0
 11
85.78060310782262
 21
330.3245081449786
 31
0.0
  0
LINE
  5
CBE
330
18
100
AcDbEntity
  8
外形線
100
AcDbLine
 10
75.78060310782262
 20
337.6245081449786
 30
0.0
 11
75.78060310782257
 21
330.3245081449786
 31
0.0
  0
LINE
  5
CBF
330
18
100
AcDbEntity
  8
外形線
100
AcDbLine
 10
75.78060310782262
 20
330.3245081449786
 30
0.0
 11
85.78060310782262
 21
330.3245081449786
 31
0.0
  0
LINE
  5
CC0
330
18
100
AcDbEntity
  8
外形線
100
AcDbLine
 10
75.78060310782262
 20
329.7245081449785
 30
0.0
 11
85.78060310782262
 21
329.7245081449785
 31
0.0
  0
LINE
  5
CC1
330
18
100
AcDbEntity
  8
外形線
100
AcDbLine
 10
74.78060310782257
 20
328.7245081449785
 30
0.0
 11
86.78060310782262
 21
328.7245081449785
 31
0.0
  0
LINE
  5
CC2
330
18
100
AcDbEntity
  8
外形線
100
AcDbLine
 10
74.78060310782263
 20
328.7245081449785
 30
0.0
 11
75.78060310782262
 21
329.7245081449785
 31
0.0
  0
LINE
  5
CC3
330
18
100
AcDbEntity
  8
外形線
100
AcDbLine
 10
76.78060310782257
 20
330.3245081449786
 30
0.0
 11
76.78060310782257
 21
329.7245081449785
 31
0.0
  0
POINT
  5
CC4
330
18
100
AcDbEntity
  8
DEFPOINTS
  6
ByBlock
 62
     0
100
AcDbPoint
 10
75.78060310782262
 20
329.7245081449785
 30
0.0
  0
LINE
  5
CC5
330
18
100
AcDbEntity
  8
外形線
100
AcDbLine
 10
85.78060310782262
 20
329.7245081449785
 30
0.0
 11
86.78060310782262
 21
328.7245081449785
 31
0.0
  0
LINE
  5
CC6
330
18
100
AcDbEntity
  8
外形線
100
AcDbLine
 10
84.78060310782263
 20
330.3245081449787
 30
0.0
 11
84.78060310782263
 21
329.7245081449785
 31
0.0
  0
LINE
  5
CC7
330
18
100
AcDbEntity
  8
外形線
100
AcDbLine
 10
77.28060310782263
 20
346.7245081449785
 30
0.0
 11
84.28060310782262
 21
346.7245081449785
 31
0.0
  0
LINE
  5
CC8
330
18
100
AcDbEntity
  8
外形線
100
AcDbLine
 10
75.78060310782269
 20
337.6245081449786
 30
0.0
 11
85.78060310782268
 21
337.6245081449785
 31
0.0
  0
LINE
  5
CC9
330
18
100
AcDbEntity
  8
外形線
100
AcDbLine
 10
75.78060310782269
 20
339.1245081449786
 30
0.0
 11
85.78060310782268
 21
339.1245081449785
 31
0.0
  0
LINE
  5
CCA
330
18
100
AcDbEntity
  8
外形線
100
AcDbLine
 10
75.78060310782269
 20
340.4245081449787
 30
0.0
 11
85.78060310782268
 21
340.4245081449786
 31
0.0
  0
LINE
  5
CCB
330
18
100
AcDbEntity
  8
外形線
100
AcDbLine
 10
75.78060310782269
 20
341.4245081449787
 30
0.0
 11
85.78060310782268
 21
341.4245081449786
 31
0.0
  0
LINE
  5
CCC
330
18
100
AcDbEntity
  8
外形線
100
AcDbLine
 10
75.78060310782269
 20
342.7245081449787
 30
0.0
 11
85.78060310782268
 21
342.7245081449787
 31
0.0
  0
LINE
  5
CCD
330
18
100
AcDbEntity
  8
外形線
100
AcDbLine
 10
75.78060310782269
 20
343.7245081449786
 30
0.0
 11
85.78060310782268
 21
343.7245081449786
 31
0.0
  0
LINE
  5
CCE
330
18
100
AcDbEntity
  8
外形線
100
AcDbLine
 10
75.78060310782262
 20
345.2245081449785
 30
0.0
 11
75.78060310782262
 21
343.7245081449786
 31
0.0
  0
LINE
  5
CCF
330
18
100
AcDbEntity
  8
外形線
100
AcDbLine
 10
76.78060310782251
 20
343.7245081449786
 30
0.0
 11
76.78060310782251
 21
342.7245081449787
 31
0.0
  0
LINE
  5
CD0
330
18
100
AcDbEntity
  8
外形線
100
AcDbLine
 10
76.78060310782251
 20
341.4245081449785
 30
0.0
 11
76.78060310782257
 21
340.4245081449786
 31
0.0
  0
LINE
  5
CD1
330
18
100
AcDbEntity
  8
外形線
100
AcDbLine
 10
75.78060310782262
 20
342.7245081449787
 30
0.0
 11
75.78060310782262
 21
341.4245081449787
 31
0.0
  0
ARC
  5
CD2
330
18
100
AcDbEntity
  8
外形線
100
AcDbCircle
 10
77.28060310782263
 20
345.2245081449785
 30
0.0
 40
1.5
100
AcDbArc
 50
90.0
 51
180.0
  0
LINE
  5
CD3
330
18
100
AcDbEntity
  8
外形線
100
AcDbLine
 10
76.78060310782257
 20
339.1245081449786
 30
0.0
 11
76.78060310782257
 21
337.6245081449785
 31
0.0
  0
LINE
  5
CD4
330
18
100
AcDbEntity
  8
外形線
100
AcDbLine
 10
75.78060310782262
 20
340.4245081449787
 30
0.0
 11
75.78060310782262
 21
339.1245081449786
 31
0.0
  0
LINE
  5
CD5
330
18
100
AcDbEntity
  8
外形線
100
AcDbLine
 10
85.78060310782262
 20
345.2245081449785
 30
0.0
 11
85.78060310782262
 21
343.7245081449784
 31
0.0
  0
LINE
  5
CD6
330
18
100
AcDbEntity
  8
外形線
100
AcDbLine
 10
84.78060310782263
 20
343.7245081449785
 30
0.0
 11
84.78060310782263
 21
342.7245081449787
 31
0.0
  0
LINE
  5
CD7
330
18
100
AcDbEntity
  8
外形線
100
AcDbLine
 10
84.78060310782263
 20
341.4245081449786
 30
0.0
 11
84.78060310782263
 21
340.4245081449785
 31
0.0
  0
LINE
  5
CD8
330
18
100
AcDbEntity
  8
外形線
100
AcDbLine
 10
85.78060310782262
 20
342.7245081449785
 30
0.0
 11
85.78060310782262
 21
341.4245081449785
 31
0.0
  0
ARC
  5
CD9
330
18
100
AcDbEntity
  8
外形線
100
AcDbCircle
 10
84.28060310782262
 20
345.2245081449785
 30
0.0
 40
1.5
100
AcDbArc
 50
0.0
 51
90.0
  0
LINE
  5
CDA
330
18
100
AcDbEntity
  8
外形線
100
AcDbLine
 10
84.78060310782263
 20
339.1245081449785
 30
0.0
 11
84.78060310782263
 21
337.6245081449785
 31
0.0
  0
LINE
  5
CDB
330
18
100
AcDbEntity
  8
外形線
100
AcDbLine
 10
85.78060310782262
 20
340.4245081449786
 30
0.0
 11
85.78060310782262
 21
339.1245081449785
 31
0.0
  0
LINE
  5
CDC
330
18
100
AcDbEntity
  8
外形線
100
AcDbLine
 10
75.78060310782257
 20
247.6245081449785
 30
0.0
 11
85.78060310782257
 21
247.6245081449786
 31
0.0
  0
POINT
  5
CDD
330
18
100
AcDbEntity
  8
DEFPOINTS
  6
ByBlock
 62
     0
100
AcDbPoint
 10
74.78060310782257
 20
251.7245081449785
 30
0.0
  0
LINE
  5
CDE
330
18
100
AcDbEntity
  8
外形線
100
AcDbLine
 10
74.78060310782257
 20
253.3306312315804
 30
0.0
 11
74.78060310782257
 21
249.6245081449785
 31
0.0
  0
LINE
  5
CDF
330
18
100
AcDbEntity
  8
外形線
100
AcDbLine
 10
86.78060310782257
 20
253.3306312315804
 30
0.0
 11
86.78060310782257
 21
249.6245081449786
 31
0.0
  0
LINE
  5
CE0
330
18
100
AcDbEntity
  8
外形線
100
AcDbLine
 10
74.78060310782257
 20
249.6245081449785
 30
0.0
 11
86.78060310782257
 21
249.6245081449786
 31
0.0
  0
LINE
  5
CE1
330
18
100
AcDbEntity
  8
外形線
100
AcDbLine
 10
74.78060310782257
 20
249.6245081449785
 30
0.0
 11
75.78060310782257
 21
247.6245081449785
 31
0.0
  0
LINE
  5
CE2
330
18
100
AcDbEntity
  8
外形線
100
AcDbLine
 10
86.78060310782257
 20
249.6245081449786
 30
0.0
 11
85.78060310782257
 21
247.6245081449786
 31
0.0
  0
LINE
  5
CE3
330
18
100
AcDbEntity
  8
外形線
100
AcDbLine
 10
74.78060310782257
 20
250.1245081449785
 30
0.0
 11
86.78060310782257
 21
250.1245081449786
 31
0.0
  0
LINE
  5
CE4
330
18
100
AcDbEntity
  8
外形線
100
AcDbLine
 10
82.78060310782256
 20
226.6245081449786
 30
0.0
 11
82.78060310782256
 21
200.2245081449785
 31
0.0
  0
LINE
  5
CE5
330
18
100
AcDbEntity
  8
外形線
100
AcDbLine
 10
78.78060310782257
 20
226.6245081449786
 30
0.0
 11
78.78060310782257
 21
200.2245081449785
 31
0.0
  0
LINE
  5
CE6
330
18
100
AcDbEntity
  8
外形線
100
AcDbLine
 10
83.28060310782257
 20
200.0245081449786
 30
0.0
 11
83.28060310782246
 21
196.9245081449785
 31
0.0
  0
LINE
  5
CE7
330
18
100
AcDbEntity
  8
寸法線
100
AcDbLine
 10
80.78060310782257
 20
198.559671323645
 30
0.0
 11
79.31576628648918
 21
200.0245081449785
 31
0.0
  0
LINE
  5
CE8
330
18
100
AcDbEntity
  8
寸法線
100
AcDbLine
 10
80.78060310782257
 20
197.2126329054846
 30
0.0
 11
78.28060310782257
 21
199.7126329054846
 31
0.0
  0
LINE
  5
CE9
330
18
100
AcDbEntity
  8
外形線
100
AcDbLine
 10
78.28060310782257
 20
200.0245081449786
 30
0.0
 11
78.28060310782257
 21
196.9245081449785
 31
0.0
  0
LINE
  5
CEA
330
18
100
AcDbEntity
  8
寸法線
100
AcDbLine
 10
78.28060310782257
 20
198.2703408313385
 30
0.0
 11
80.03477042146256
 21
200.0245081449785
 31
0.0
  0
LINE
  5
CEB
330
18
100
AcDbEntity
  8
寸法線
100
AcDbLine
 10
78.28060310782257
 20
199.6173792494989
 30
0.0
 11
78.68773200330224
 21
200.0245081449786
 31
0.0
  0
LINE
  5
CEC
330
18
100
AcDbEntity
  8
外形線
100
AcDbLine
 10
78.53060310782257
 20
196.7245081449785
 30
0.0
 11
79.4806031078225
 21
192.2245081449785
 31
0.0
  0
LINE
  5
CED
330
18
100
AcDbEntity
  8
外形線
100
AcDbLine
 10
83.03060310782257
 20
196.7245081449785
 30
0.0
 11
82.08060310782252
 21
192.2245081449785
 31
0.0
  0
LINE
  5
CEE
330
18
100
AcDbEntity
  8
外形線
100
AcDbLine
 10
79.4806031078225
 20
192.2245081449785
 30
0.0
 11
82.08060310782252
 21
192.2245081449785
 31
0.0
  0
ARC
  5
CEF
330
18
100
AcDbEntity
  8
外形線
100
AcDbCircle
 10
80.78060310782257
 20
192.3745081449785
 30
0.0
 40
1.150000000000005
100
AcDbArc
 50
187.4947174539263
 51
352.5052825460737
  0
POINT
  5
CF0
330
18
100
AcDbEntity
  8
DEFPOINTS
  6
ByBlock
 62
     0
100
AcDbPoint
 10
80.78060310782257
 20
191.2245081449785
 30
0.0
  0
LINE
  5
CF1
330
18
100
AcDbEntity
  8
寸法線
100
AcDbLine
 10
78.28180883962295
 20
196.9245081449785
 30
0.0
 11
80.78060310782268
 21
199.4233024131782
 31
0.0
  0
LINE
  5
CF2
330
18
100
AcDbEntity
  8
寸法線
100
AcDbLine
 10
79.72168945016846
 20
196.9245081449784
 30
0.0
 11
78.28060310782257
 21
198.3655944873243
 31
0.0
  0
LINE
  5
CF3
330
18
100
AcDbEntity
  8
外形線
100
AcDbLine
 10
78.28060310782245
 20
196.9245081449785
 30
0.0
 11
83.28060310782257
 21
196.9245081449785
 31
0.0
  0
LINE
  5
CF4
330
18
100
AcDbEntity
  8
外形線
100
AcDbLine
 10
78.53060310782257
 20
196.7245081449785
 30
0.0
 11
83.03060310782246
 21
196.7245081449785
 31
0.0
  0
LINE
  5
CF5
330
18
100
AcDbEntity
  8
寸法線
100
AcDbLine
 10
78.37465103200805
 20
196.9245081449785
 30
0.0
 11
78.28060310782257
 21
197.0185560691639
 31
0.0
  0
LINE
  5
CF6
330
18
100
AcDbEntity
  8
外形線
100
AcDbLine
 10
78.28060310782257
 20
196.9245081449785
 30
0.0
 11
78.53060310782257
 21
196.7245081449785
 31
0.0
  0
LINE
  5
CF7
330
18
100
AcDbEntity
  8
外形線
100
AcDbLine
 10
83.28060310782257
 20
196.9245081449785
 30
0.0
 11
83.03060310782257
 21
196.7245081449785
 31
0.0
  0
LINE
  5
CF8
330
18
100
AcDbEntity
  8
寸法線
100
AcDbLine
 10
79.62884725778337
 20
196.9245081449785
 30
0.0
 11
80.78060310782257
 21
198.0762639950177
 31
0.0
  0
LINE
  5
CF9
330
18
100
AcDbEntity
  8
外形線
100
AcDbLine
 10
78.28060310782245
 20
200.0245081449786
 30
0.0
 11
83.28060310782257
 21
200.0245081449786
 31
0.0
  0
LINE
  5
CFA
330
18
100
AcDbEntity
  8
外形線
100
AcDbLine
 10
78.53060310782257
 20
200.2245081449785
 30
0.0
 11
83.03060310782257
 21
200.2245081449785
 31
0.0
  0
LINE
  5
CFB
330
18
100
AcDbEntity
  8
外形線
100
AcDbLine
 10
78.53060310782257
 20
200.2245081449785
 30
0.0
 11
78.28060310782257
 21
200.0245081449786
 31
0.0
  0
LINE
  5
CFC
330
18
100
AcDbEntity
  8
外形線
100
AcDbLine
 10
83.03060310782257
 20
200.2245081449785
 30
0.0
 11
83.28060310782257
 21
200.0245081449786
 31
0.0
  0
LINE
  5
CFD
330
18
100
AcDbEntity
  8
寸法線
100
AcDbLine
 10
80.78060310782268
 20
199.9067097418054
 30
0.0
 11
80.66280470464949
 21
200.0245081449785
 31
0.0
  0
LINE
  5
CFE
330
18
100
AcDbEntity
  8
外形線
100
AcDbLine
 10
84.78060310782257
 20
247.6245081449786
 30
0.0
 11
84.78060310782257
 21
231.4245081449786
 31
0.0
  0
LINE
  5
CFF
330
18
100
AcDbEntity
  8
外形線
100
AcDbLine
 10
76.78060310782257
 20
247.6245081449786
 30
0.0
 11
76.78060310782246
 21
231.4245081449786
 31
0.0
  0
LINE
  5
D00
330
18
100
AcDbEntity
  8
外形線
100
AcDbLine
 10
84.53060310782257
 20
228.6245081449786
 30
0.0
 11
84.53060310782252
 21
231.4245081449786
 31
0.0
  0
LINE
  5
D01
330
18
100
AcDbEntity
  8
外形線
100
AcDbLine
 10
77.03060310782257
 20
228.6245081449785
 30
0.0
 11
77.03060310782257
 21
231.4245081449786
 31
0.0
  0
LINE
  5
D02
330
18
100
AcDbEntity
  8
外形線
100
AcDbLine
 10
77.03060310782257
 20
227.1245081449786
 30
0.0
 11
84.53060310782257
 21
227.1245081449786
 31
0.0
  0
LINE
  5
D03
330
18
100
AcDbEntity
  8
外形線
100
AcDbLine
 10
77.03060310782257
 20
228.6245081449785
 30
0.0
 11
84.53060310782257
 21
228.6245081449786
 31
0.0
  0
LINE
  5
D04
330
18
100
AcDbEntity
  8
外形線
100
AcDbLine
 10
77.03060310782257
 20
226.6245081449786
 30
0.0
 11
84.53060310782257
 21
226.6245081449786
 31
0.0
  0
LINE
  5
D05
330
18
100
AcDbEntity
  8
外形線
100
AcDbLine
 10
77.03060310782257
 20
227.1245081449786
 30
0.0
 11
77.03060310782257
 21
226.6245081449786
 31
0.0
  0
LINE
  5
D06
330
18
100
AcDbEntity
  8
外形線
100
AcDbLine
 10
77.78060310782257
 20
228.6245081449786
 30
0.0
 11
77.78060310782257
 21
227.1245081449786
 31
0.0
  0
LINE
  5
D07
330
18
100
AcDbEntity
  8
外形線
100
AcDbLine
 10
84.53060310782257
 20
227.1245081449786
 30
0.0
 11
84.53060310782257
 21
226.6245081449786
 31
0.0
  0
LINE
  5
D08
330
18
100
AcDbEntity
  8
外形線
100
AcDbLine
 10
83.78060310782258
 20
228.6245081449786
 30
0.0
 11
83.78060310782258
 21
227.1245081449786
 31
0.0
  0
LINE
  5
D09
330
18
100
AcDbEntity
  8
外形線
100
AcDbLine
 10
76.78060310782246
 20
231.4245081449786
 30
0.0
 11
84.78060310782257
 21
231.4245081449786
 31
0.0
  0
LINE
  5
D0A
330
18
100
AcDbEntity
  8
外形線
100
AcDbLine
 10
77.03060310782257
 20
226.6245081449786
 30
0.0
 11
84.53060310782257
 21
226.6245081449786
 31
0.0
  0
DIMENSION
  5
ECB
330
18
100
AcDbEntity
  8
寸法線
100
AcDbDimension
  2
*D21
 10
-34.72536543204808
 20
329.7245081449785
 30
0.0
 11
-36.60036543204813
 21
306.2245081449785
 31
0.0
 70
    32
 71
     5
 42
47.0
  3
STYLE3
100
AcDbAlignedDimension
 13
-33.15454965531103
 23
282.7245081449785
 33
0.0
 14
-2.23558770325684
 24
329.7245081449785
 34
0.0
 50
90.0
100
AcDbRotatedDimension
1001
ACAD
1000
DSTYLE
1002
{
1070
   271
1070
     2
1070
   341
1005
0
1002
}
  0
DIMENSION
  5
ED8
330
18
100
AcDbEntity
  8
寸法線
100
AcDbDimension
  2
*D22
 10
8.764412296743103
 20
320.9314144707241
 30
0.0
 11
2.764412296743103
 21
322.8064144707241
 31
0.0
 70
    32
  1
%%C<>
 71
     5
 42
12.0
  3
STYLE3
100
AcDbAlignedDimension
 13
-3.235587703256896
 23
320.931414470724
 33
0.0
 14
8.764412296743103
 24
320.9314144707241
 34
0.0
100
AcDbRotatedDimension
1001
ACAD
1000
DSTYLE
1002
{
1070
    76
1070
     1
1070
    75
1070
     1
1070
   271
1070
     2
1070
   341
1005
0
1002
}
  0
TEXT
  5
18FC
330
18
100
AcDbEntity
  8
文字
100
AcDbText
 10
93.8106103132322
 20
342.1206367779709
 30
0.0
 40
4.0
  1
Model No.DG-205 Digital Gauge
  7
STYLE3
100
AcDbText
  0
LINE
  5
18FD
330
18
100
AcDbEntity
  8
外形線
100
AcDbLine
 10
93.92772031323222
 20
339.0085307779709
 30
0.0
 11
187.9277203132322
 21
339.0085307779709
 31
0.0
  0
LINE
  5
18FE
330
18
100
AcDbEntity
  8
外形線
100
AcDbLine
 10
93.92772031323222
 20
340.0085307779709
 30
0.0
 11
187.9277203132322
 21
340.0085307779709
 31
0.0
  0
TEXT
  5
18FF
330
18
100
AcDbEntity
  8
0
  6
Continuous
100
AcDbText
 10
103.1277496016291
 20
167.2041724394497
 30
0.0
 40
2.1
  1
Scale
  7
STYLE3
100
AcDbText
  0
TEXT
  5
1900
330
18
100
AcDbEntity
  8
0
  6
Continuous
100
AcDbText
 10
102.6645346016291
 20
170.1236944394497
 30
0.0
 40
3.0
  1
尺 度
  7
STYLE3
100
AcDbText
  0
TEXT
  5
1901
330
18
100
AcDbEntity
  8
0
  6
Continuous
100
AcDbText
 10
50.36740260162913
 20
180.6065904394497
 30
0.0
 40
3.5
  1
仕様及び外観は予告なく変更される場合がございますのでご了承下さい。
  7
STYLE3
100
AcDbText
  0
TEXT
  5
1902
330
18
100
AcDbEntity
  8
0
  6
Continuous
100
AcDbText
 10
50.07590860162913
 20
176.6774424394497
 30
0.0
 40
2.1
  1
Design and specifications are subject to change without notice for future improvement.
  7
STYLE3
100
AcDbText
  0
LINE
  5
1903
330
18
100
AcDbEntity
  8
外形線
100
AcDbLine
 10
48.61844160162912
 20
174.7794524394497
 30
0.0
 11
189.4098596016291
 21
174.7794524394497
 31
0.0
  0
LINE
  5
1904
330
18
100
AcDbEntity
  8
外形線
100
AcDbLine
 10
48.61844160162912
 20
185.5596584394497
 30
0.0
 11
189.4098596016291
 21
185.5596584394497
 31
0.0
  0
LINE
  5
1905
330
18
100
AcDbEntity
  8
外形線
100
AcDbLine
 10
48.61844160162912
 20
165.1646744394497
 30
0.0
 11
48.61844160162912
 21
185.5596584394497
 31
0.0
  0
TEXT
  5
1906
330
18
100
AcDbEntity
  8
0
  6
Continuous
100
AcDbText
 10
52.40786060162912
 20
170.4090974394497
 30
0.0
 40
3.0
  1
三　　角　　法
  7
STYLE3
100
AcDbText
  0
TEXT
  5
1907
330
18
100
AcDbEntity
  8
0
  6
Continuous
100
AcDbText
 10
49.78441760162912
 20
166.9128144394497
 30
0.0
 40
2.1
  1
3RD Angle Projection
  7
STYLE3
100
AcDbText
  0
TEXT
  5
1908
330
18
100
AcDbEntity
  8
0
  6
Continuous
100
AcDbText
 10
85.51835960162913
 20
166.9128154394497
 30
0.0
 40
2.1
  1
Unit
  7
STYLE3
100
AcDbText
  0
TEXT
  5
1909
330
18
100
AcDbEntity
  8
0
  6
Continuous
100
AcDbText
 10
85.34663860162913
 20
170.4150524394497
 30
0.0
 40
3.0
  1
単位
  7
STYLE3
100
AcDbText
  0
LINE
  5
190A
330
18
100
AcDbEntity
  8
外形線
100
AcDbLine
 10
83.88916960162912
 20
174.7794524394497
 30
0.0
 11
83.88916960162912
 21
165.1646744394497
 31
0.0
  0
TEXT
  5
190B
330
18
100
AcDbEntity
  8
0
  6
Continuous
100
AcDbText
 10
93.38868660162914
 20
168.6609584394497
 30
0.0
 40
2.399999999999999
  1
mm
  7
STYLE3
100
AcDbText
  0
LINE
  5
190C
330
18
100
AcDbEntity
  8
外形線
100
AcDbLine
 10
101.3787866016291
 20
174.7794524394497
 30
0.0
 11
101.3787866016291
 21
165.1646744394497
 31
0.0
  0
TEXT
  5
190D
330
18
100
AcDbEntity
  8
0
  6
Continuous
100
AcDbText
 10
122.4574486016291
 20
170.2458994394497
 30
0.0
 40
3.0
  1
日 付
  7
STYLE3
100
AcDbText
  0
TEXT
  5
190E
330
18
100
AcDbEntity
  8
0
  6
Continuous
100
AcDbText
 10
112.7470386016291
 20
168.9523154394497
 30
0.0
 40
2.399999999999999
  1
1/1
  7
STYLE3
100
AcDbText
  0
LINE
  5
190F
330
18
100
AcDbEntity
  8
外形線
100
AcDbLine
 10
120.9088586016291
 20
174.7794524394497
 30
0.0
 11
120.9088586016291
 21
165.1646744394497
 31
0.0
  0
TEXT
  5
1910
330
18
100
AcDbEntity
  8
0
  6
Continuous
100
AcDbText
 10
122.8408096016291
 20
166.9128164394497
 30
0.0
 40
2.1
  1
Date
  7
STYLE3
100
AcDbText
  0
TEXT
  5
1911
330
18
100
AcDbEntity
  8
0
  6
Continuous
100
AcDbText
 10
131.5856176016291
 20
168.6609574394497
 30
0.0
 40
2.1
  1
2010.06.30
  7
STYLE3
100
AcDbText
  0
TEXT
  5
1912
330
18
100
AcDbEntity
  8
0
  6
Continuous
100
AcDbText
 10
152.8646506016291
 20
166.9128154394497
 30
0.0
 40
2.1
  1
OZAKI MFG. CO., LTD.
  7
STYLE3
100
AcDbText
  0
TEXT
  5
1913
330
18
100
AcDbEntity
  8
0
  6
Continuous
100
AcDbText
 10
151.9901716016291
 20
170.7004544394497
 30
0.0
 40
3.0
  1
株式会社　尾崎製作所
  7
STYLE3
100
AcDbText
  0
LINE
  5
1914
330
18
100
AcDbEntity
  8
外形線
100
AcDbLine
 10
150.6412086016291
 20
174.7794524394497
 30
0.0
 11
150.6412086016291
 21
165.1646744394497
 31
0.0
  0
ENDSEC
  0
SECTION
  2
OBJECTS
  0
DICTIONARY
  5
C
330
0
100
AcDbDictionary
281
     1
  3
ACAD_COLOR
350
897
  3
ACAD_GROUP
350
D
  3
ACAD_LAYOUT
350
89A
  3
ACAD_MATERIAL
350
896
  3
ACAD_MLINESTYLE
350
1B
  3
ACAD_PLOTSETTINGS
350
89B
  3
ACAD_PLOTSTYLENAME
350
894
  3
ACAD_TABLESTYLE
350
898
  3
ACDBVARIABLEDICTIONARY
350
208
  0
DICTIONARY
  5
1015
330
2
100
AcDbDictionary
280
     1
281
     1
  3
ACAD_LAYERSTATES
360
1016
  0
DICTIONARY
  5
897
102
{ACAD_REACTORS
330
C
102
}
330
C
100
AcDbDictionary
281
     1
  0
DICTIONARY
  5
D
102
{ACAD_REACTORS
330
C
102
}
330
C
100
AcDbDictionary
281
     1
  0
DICTIONARY
  5
89A
102
{ACAD_REACTORS
330
C
102
}
330
C
100
AcDbDictionary
281
     1
  3
Model
350
89C
  3
レイアウト1
350
89D
  0
DICTIONARY
  5
896
102
{ACAD_REACTORS
330
C
102
}
330
C
100
AcDbDictionary
281
     1
  0
DICTIONARY
  5
1B
102
{ACAD_REACTORS
330
C
102
}
330
C
100
AcDbDictionary
281
     1
  3
STANDARD
350
1C
  0
DICTIONARY
  5
89B
102
{ACAD_REACTORS
330
C
102
}
330
C
100
AcDbDictionary
281
     1
  0
ACDBDICTIONARYWDFLT
  5
894
102
{ACAD_REACTORS
330
C
102
}
330
C
100
AcDbDictionary
281
     1
  3
Normal
350
895
100
AcDbDictionaryWithDefault
340
895
  0
DICTIONARY
  5
898
102
{ACAD_REACTORS
330
C
102
}
330
C
100
AcDbDictionary
281
     1
  3
Standard
350
899
  0
DICTIONARY
  5
208
102
{ACAD_REACTORS
330
C
102
}
330
C
100
AcDbDictionary
281
     1
  3
CTABLESTYLE
350
8A4
  3
SORTENTS
350
209
  0
DICTIONARY
  5
1016
102
{ACAD_REACTORS
330
1015
102
}
330
1015
100
AcDbDictionary
281
     1
  0
LAYOUT
  5
89C
102
{ACAD_REACTORS
330
89A
102
}
330
89A
100
AcDbPlotSettings
  1

  2
A4 EPSON LP-6100.pc3
  4
A4
  6

 40
5.873749732971191
 41
5.873747825622558
 42
5.873748779296875
 43
5.873748779296875
 44
209.9733276367187
 45
297.0106506347656
 46
0.0
 47
25.0
 48
0.0
 49
0.0
140
0.0
141
0.0
142
1.0
143
1.0
 70
 28336
 72
     1
 73
     1
 74
     1
  7
monochrome.ctb
 75
    16
147
1.0
 76
     1
 77
     2
 78
   300
148
65.80220398530435
149
-164.0663962830298
100
AcDbLayout
  1
Model
 70
     1
 71
     0
 10
0.0
 20
0.0
 11
12.0
 21
9.0
 12
0.0
 22
0.0
 32
0.0
 14
0.0
 24
0.0
 34
0.0
 15
0.0
 25
0.0
 35
0.0
146
0.0
 13
0.0
 23
0.0
 33
0.0
 16
1.0
 26
0.0
 36
0.0
 17
0.0
 27
1.0
 37
0.0
 76
     0
330
18
1001
ACAD_PSEXT
1000
A4 EPSON LP-6100.pc3
1000
EPSON LP-6100
1000
\\SATO-MATE2
1000

1070
     0
  0
LAYOUT
  5
89D
102
{ACAD_REACTORS
330
89A
102
}
330
89A
100
AcDbPlotSettings
  1

  2
WIDR Printer
  4

  6

 40
0.0
 41
0.0
 42
0.0
 43
0.0
 44
0.0
 45
0.0
 46
0.0
 47
0.0
 48
0.0
 49
0.0
140
0.0
141
0.0
142
1.0
143
1.0
 70
   688
 72
     0
 73
     0
 74
     5
  7
monochrome.ctb
 75
    16
147
1.0
 76
     0
 77
     2
 78
   300
148
0.0
149
0.0
100
AcDbLayout
  1
レイアウト1
 70
     1
 71
     1
 10
0.0
 20
0.0
 11
420.0
 21
297.0
 12
0.0
 22
0.0
 32
0.0
 14
1.000000000000000E+20
 24
1.000000000000000E+20
 34
1.000000000000000E+20
 15
-1.000000000000000E+20
 25
-1.000000000000000E+20
 35
-1.000000000000000E+20
146
0.0
 13
0.0
 23
0.0
 33
0.0
 16
1.0
 26
0.0
 36
0.0
 17
0.0
 27
1.0
 37
0.0
 76
     0
330
15
  0
MLINESTYLE
  5
1C
102
{ACAD_REACTORS
330
1B
102
}
330
1B
100
AcDbMlineStyle
  2
STANDARD
 70
     0
  3

 62
   256
 51
90.0
 52
90.0
 71
     2
 49
0.5
 62
   256
  6
BYLAYER
 49
-0.5
 62
   256
  6
BYLAYER
  0
ACDBPLACEHOLDER
  5
895
102
{ACAD_REACTORS
330
894
102
}
330
894
  0
ACAD_PROXY_OBJECT
  5
899
102
{ACAD_REACTORS
330
898
102
}
330
898
100
AcDbProxyObject
 90
      499
 91
      504
 95
  2555929
 70
     0
 93
     1849
310
4214DD185B99185C992420000000000000F83F0000000000003E0FC00000000000004901028000000C1008070000C3001FDFF8000000C1003FBFF000000182007F7FE00000030400FEFFC00000060801FDFF8000000C1003FBFF000000182000000000000000C2020B0000001820100E000186003FBFF000000182007F7FE0
310
0000030400FEFFC00000060801FDFF8000000C1003FBFF000000182007F7FE0000003040000000000000012404160000003040201C00030C007F7FE00000030400FEFFC00000060801FDFF8000000C1003FBFF000000182007F7FE00000030400FEFFC000000608000
340
F
340
F
340
F
 94
        0
  0
DICTIONARYVAR
  5
8A4
102
{ACAD_REACTORS
330
208
102
}
330
208
100
DictionaryVariables
280
     0
  1
STANDARD
  0
DICTIONARYVAR
  5
209
102
{ACAD_REACTORS
330
208
102
}
330
208
100
DictionaryVariables
280
     0
  1
96
  0
ENDSEC
  0
EOF
