  0
SECTION
  2
HEADER
  9
$ACADVER
  1
AC1018
  9
$ACADMAINTVER
 70
     0
  9
$DWGCODEPAGE
  3
ANSI_932
  9
$INSBASE
 10
0.0
 20
0.0
 30
0.0
  9
$EXTMIN
 10
234.9896076243012
 20
-37.60447681956691
 30
-1.000061032362211
  9
$EXTMAX
 10
490.4228528349888
 20
157.8341906993852
 30
0.0000610416757212
  9
$LIMMIN
 10
0.0
 20
0.0
  9
$LIMMAX
 10
420.0
 20
297.0
  9
$ORTHOMODE
 70
     1
  9
$REGENMODE
 70
     1
  9
$FILLMODE
 70
     1
  9
$QTEXTMODE
 70
     0
  9
$MIRRTEXT
 70
     1
  9
$LTSCALE
 40
1.0
  9
$ATTMODE
 70
     1
  9
$TEXTSIZE
 40
2.5
  9
$TRACEWID
 40
1.0
  9
$TEXTSTYLE
  7
STYLE3
  9
$CLAYER
  8
寸法線
  9
$CELTYPE
  6
BYLAYER
  9
$CECOLOR
 62
   256
  9
$CELTSCALE
 40
1.0
  9
$DISPSILH
 70
     0
  9
$DIMSCALE
 40
1.0
  9
$DIMASZ
 40
2.5
  9
$DIMEXO
 40
0.0
  9
$DIMDLI
 40
3.75
  9
$DIMRND
 40
0.0
  9
$DIMDLE
 40
0.0
  9
$DIMEXE
 40
1.25
  9
$DIMTP
 40
0.0
  9
$DIMTM
 40
0.0
  9
$DIMTXT
 40
2.5
  9
$DIMCEN
 40
2.5
  9
$DIMTSZ
 40
0.0
  9
$DIMTOL
 70
     0
  9
$DIMLIM
 70
     0
  9
$DIMTIH
 70
     0
  9
$DIMTOH
 70
     0
  9
$DIMSE1
 70
     0
  9
$DIMSE2
 70
     0
  9
$DIMTAD
 70
     1
  9
$DIMZIN
 70
     8
  9
$DIMBLK
  1

  9
$DIMASO
 70
     1
  9
$DIMSHO
 70
     1
  9
$DIMPOST
  1

  9
$DIMAPOST
  1

  9
$DIMALT
 70
     0
  9
$DIMALTD
 70
     4
  9
$DIMALTF
 40
0.0394
  9
$DIMLFAC
 40
1.0
  9
$DIMTOFL
 70
     1
  9
$DIMTVP
 40
0.0
  9
$DIMTIX
 70
     0
  9
$DIMSOXD
 70
     0
  9
$DIMSAH
 70
     1
  9
$DIMBLK1
  1
OPEN
  9
$DIMBLK2
  1
OPEN
  9
$DIMSTYLE
  2
STYLE3
  9
$DIMCLRD
 70
     2
  9
$DIMCLRE
 70
     2
  9
$DIMCLRT
 70
     6
  9
$DIMTFAC
 40
1.0
  9
$DIMGAP
 40
0.625
  9
$DIMJUST
 70
     0
  9
$DIMSD1
 70
     0
  9
$DIMSD2
 70
     0
  9
$DIMTOLJ
 70
     1
  9
$DIMTZIN
 70
     0
  9
$DIMALTZ
 70
     0
  9
$DIMALTTZ
 70
     0
  9
$DIMUPT
 70
     0
  9
$DIMDEC
 70
     2
  9
$DIMTDEC
 70
     4
  9
$DIMALTU
 70
     8
  9
$DIMALTTD
 70
     4
  9
$DIMTXSTY
  7
STYLE3
  9
$DIMAUNIT
 70
     0
  9
$DIMADEC
 70
     0
  9
$DIMALTRND
 40
0.0
  9
$DIMAZIN
 70
     0
  9
$DIMDSEP
 70
    46
  9
$DIMATFIT
 70
     3
  9
$DIMFRAC
 70
     0
  9
$DIMLDRBLK
  1

  9
$DIMLUNIT
 70
     2
  9
$DIMLWD
 70
    -2
  9
$DIMLWE
 70
    -2
  9
$DIMTMOVE
 70
     0
  9
$LUNITS
 70
     2
  9
$LUPREC
 70
     4
  9
$SKETCHINC
 40
1.0
  9
$FILLETRAD
 40
0.0
  9
$AUNITS
 70
     0
  9
$AUPREC
 70
     0
  9
$MENU
  1
.
  9
$ELEVATION
 40
0.0
  9
$PELEVATION
 40
0.0
  9
$THICKNESS
 40
0.0
  9
$LIMCHECK
 70
     0
  9
$CHAMFERA
 40
0.3
  9
$CHAMFERB
 40
0.3
  9
$CHAMFERC
 40
20.0
  9
$CHAMFERD
 40
0.0
  9
$SKPOLY
 70
     0
  9
$TDCREATE
 40
2450920.409121760
  9
$TDUCREATE
 40
2450920.034121759
  9
$TDUPDATE
 40
2455378.659832709
  9
$TDUUPDATE
 40
2455378.284832709
  9
$TDINDWG
 40
2.9985616435
  9
$TDUSRTIMER
 40
2.9985616435
  9
$USRTIMER
 70
     1
  9
$ANGBASE
 50
0.0
  9
$ANGDIR
 70
     0
  9
$PDMODE
 70
     0
  9
$PDSIZE
 40
0.0
  9
$PLINEWID
 40
0.0
  9
$SPLFRAME
 70
     0
  9
$SPLINETYPE
 70
     6
  9
$SPLINESEGS
 70
     8
  9
$HANDSEED
  5
1C92
  9
$SURFTAB1
 70
     6
  9
$SURFTAB2
 70
     6
  9
$SURFTYPE
 70
     6
  9
$SURFU
 70
     6
  9
$SURFV
 70
     6
  9
$UCSBASE
  2

  9
$UCSNAME
  2

  9
$UCSORG
 10
0.0
 20
0.0
 30
0.0
  9
$UCSXDIR
 10
1.0
 20
0.0
 30
0.0
  9
$UCSYDIR
 10
0.0
 20
1.0
 30
0.0
  9
$UCSORTHOREF
  2

  9
$UCSORTHOVIEW
 70
     0
  9
$UCSORGTOP
 10
0.0
 20
0.0
 30
0.0
  9
$UCSORGBOTTOM
 10
0.0
 20
0.0
 30
0.0
  9
$UCSORGLEFT
 10
0.0
 20
0.0
 30
0.0
  9
$UCSORGRIGHT
 10
0.0
 20
0.0
 30
0.0
  9
$UCSORGFRONT
 10
0.0
 20
0.0
 30
0.0
  9
$UCSORGBACK
 10
0.0
 20
0.0
 30
0.0
  9
$PUCSBASE
  2

  9
$PUCSNAME
  2

  9
$PUCSORG
 10
0.0
 20
0.0
 30
0.0
  9
$PUCSXDIR
 10
1.0
 20
0.0
 30
0.0
  9
$PUCSYDIR
 10
0.0
 20
1.0
 30
0.0
  9
$PUCSORTHOREF
  2

  9
$PUCSORTHOVIEW
 70
     0
  9
$PUCSORGTOP
 10
0.0
 20
0.0
 30
0.0
  9
$PUCSORGBOTTOM
 10
0.0
 20
0.0
 30
0.0
  9
$PUCSORGLEFT
 10
0.0
 20
0.0
 30
0.0
  9
$PUCSORGRIGHT
 10
0.0
 20
0.0
 30
0.0
  9
$PUCSORGFRONT
 10
0.0
 20
0.0
 30
0.0
  9
$PUCSORGBACK
 10
0.0
 20
0.0
 30
0.0
  9
$USERI1
 70
     0
  9
$USERI2
 70
     0
  9
$USERI3
 70
     0
  9
$USERI4
 70
     0
  9
$USERI5
 70
     0
  9
$USERR1
 40
0.0
  9
$USERR2
 40
0.0
  9
$USERR3
 40
0.0
  9
$USERR4
 40
0.0
  9
$USERR5
 40
0.0
  9
$WORLDVIEW
 70
     1
  9
$SHADEDGE
 70
     3
  9
$SHADEDIF
 70
    70
  9
$TILEMODE
 70
     1
  9
$MAXACTVP
 70
    48
  9
$PINSBASE
 10
0.0
 20
0.0
 30
0.0
  9
$PLIMCHECK
 70
     0
  9
$PEXTMIN
 10
1.000000000000000E+20
 20
1.000000000000000E+20
 30
1.000000000000000E+20
  9
$PEXTMAX
 10
-1.000000000000000E+20
 20
-1.000000000000000E+20
 30
-1.000000000000000E+20
  9
$PLIMMIN
 10
0.0
 20
0.0
  9
$PLIMMAX
 10
420.0
 20
297.0
  9
$UNITMODE
 70
     0
  9
$VISRETAIN
 70
     1
  9
$PLINEGEN
 70
     0
  9
$PSLTSCALE
 70
     1
  9
$TREEDEPTH
 70
  3020
  9
$CMLSTYLE
  2
STANDARD
  9
$CMLJUST
 70
     0
  9
$CMLSCALE
 40
20.0
  9
$PROXYGRAPHICS
 70
     1
  9
$MEASUREMENT
 70
     1
  9
$CELWEIGHT
370
    -1
  9
$ENDCAPS
280
     0
  9
$JOINSTYLE
280
     0
  9
$LWDISPLAY
290
     0
  9
$INSUNITS
 70
     0
  9
$HYPERLINKBASE
  1

  9
$STYLESHEET
  1
AutoCAD LT 98.ctb
  9
$XEDIT
290
     1
  9
$CEPSNTYPE
380
     0
  9
$PSTYLEMODE
290
     1
  9
$FINGERPRINTGUID
  2
{8A97E4E0-CEB5-44D0-B479-DC1AB1302DEE}
  9
$VERSIONGUID
  2
{056E7815-470E-4728-8F48-729F2CE895B2}
  9
$EXTNAMES
290
     1
  9
$PSVPSCALE
 40
0.0
  9
$OLESTARTUP
290
     0
  9
$SORTENTS
280
    96
  9
$INDEXCTL
280
     0
  9
$HIDETEXT
280
     0
  9
$XCLIPFRAME
290
     0
  9
$HALOGAP
280
     0
  9
$OBSCOLOR
 70
   257
  9
$OBSLTYPE
280
     0
  9
$INTERSECTIONDISPLAY
280
     0
  9
$INTERSECTIONCOLOR
 70
   257
  9
$DIMASSOC
280
     1
  9
$PROJECTNAME
  1

  0
ENDSEC
  0
SECTION
  2
CLASSES
  0
CLASS
  1
DICTIONARYVAR
  2
AcDbDictionaryVar
  3
ObjectDBX Classes
 90
        0
 91
        2
280
     0
281
     0
  0
CLASS
  1
HATCH
  2
AcDbHatch
  3
ObjectDBX Classes
 90
        0
 91
       16
280
     0
281
     1
  0
CLASS
  1
LWPOLYLINE
  2
AcDbPolyline
  3
ObjectDBX Classes
 90
        0
 91
        5
280
     0
281
     1
  0
CLASS
  1
ACDBDICTIONARYWDFLT
  2
AcDbDictionaryWithDefault
  3
ObjectDBX Classes
 90
        0
 91
        1
280
     0
281
     0
  0
CLASS
  1
TABLESTYLE
  2
AcDbTableStyle
  3
ObjectDBX Classes
 90
     2047
 91
        1
280
     0
281
     0
  0
CLASS
  1
SORTENTSTABLE
  2
AcDbSortentsTable
  3
ObjectDBX Classes
 90
        0
 91
        0
280
     0
281
     0
  0
ENDSEC
  0
SECTION
  2
TABLES
  0
TABLE
  2
VPORT
  5
8
330
0
100
AcDbSymbolTable
 70
     2
  0
VPORT
  5
1C91
330
8
100
AcDbSymbolTableRecord
100
AcDbViewportTableRecord
  2
*Active
 70
     0
 10
0.0
 20
0.0
 11
1.0
 21
1.0
 12
362.706230229645
 22
60.11485693990914
 13
0.0
 23
0.0
 14
10.0
 24
10.0
 15
10.0
 25
10.0
 16
0.0
 26
0.0
 36
1.0
 17
0.0
 27
0.0
 37
0.0
 40
196.9248931274612
 41
1.530456852791878
 42
50.0
 43
0.0
 44
0.0
 50
0.0
 51
0.0
 71
     0
 72
   100
 73
     1
 74
     1
 75
     0
 76
     0
 77
     0
 78
     0
281
     0
 65
     1
110
0.0
120
0.0
130
0.0
111
1.0
121
0.0
131
0.0
112
0.0
122
1.0
132
0.0
 79
     0
146
0.0
  0
ENDTAB
  0
TABLE
  2
LTYPE
  5
5
330
0
100
AcDbSymbolTable
 70
    12
  0
LTYPE
  5
12
330
5
100
AcDbSymbolTableRecord
100
AcDbLinetypeTableRecord
  2
BYBLOCK
 70
     0
  3

 72
    65
 73
     0
 40
0.0
  0
LTYPE
  5
13
330
5
100
AcDbSymbolTableRecord
100
AcDbLinetypeTableRecord
  2
BYLAYER
 70
     0
  3

 72
    65
 73
     0
 40
0.0
  0
LTYPE
  5
14
330
5
100
AcDbSymbolTableRecord
100
AcDbLinetypeTableRecord
  2
CONTINUOUS
 70
     0
  3
Solid line
 72
    65
 73
     0
 40
0.0
  0
LTYPE
  5
22
330
5
100
AcDbSymbolTableRecord
100
AcDbLinetypeTableRecord
  2
CENTER2
 70
     0
  3
Center (.5x) ___ _ ___ _ ___ _ ___ _ ___ _ ___
 72
    65
 73
     4
 40
28.575
 49
19.05
 74
     0
 49
-3.174999999999999
 74
     0
 49
3.174999999999999
 74
     0
 49
-3.174999999999999
 74
     0
  0
ENDTAB
  0
TABLE
  2
LAYER
  5
2
102
{ACAD_XDICTIONARY
360
101B
102
}
330
0
100
AcDbSymbolTable
 70
    15
  0
LAYER
  5
E
330
2
100
AcDbSymbolTableRecord
100
AcDbLayerTableRecord
  2
0
 70
     0
 62
     7
  6
CONTINUOUS
370
    -3
390
8C2
  0
LAYER
  5
25
330
2
100
AcDbSymbolTableRecord
100
AcDbLayerTableRecord
  2
外形線
 70
     0
 62
     7
  6
CONTINUOUS
370
    -3
390
8C2
  0
LAYER
  5
26
330
2
100
AcDbSymbolTableRecord
100
AcDbLayerTableRecord
  2
寸法線
 70
     0
 62
     2
  6
CONTINUOUS
370
    -3
390
8C2
  0
LAYER
  5
27
330
2
100
AcDbSymbolTableRecord
100
AcDbLayerTableRecord
  2
中心線
 70
     0
 62
     4
  6
CENTER2
370
    -3
390
8C2
  0
LAYER
  5
2B
330
2
100
AcDbSymbolTableRecord
100
AcDbLayerTableRecord
  2
文字
 70
     0
 62
     6
  6
CONTINUOUS
370
    -3
390
8C2
  0
LAYER
  5
53
330
2
100
AcDbSymbolTableRecord
100
AcDbLayerTableRecord
  2
DEFPOINTS
 70
     0
 62
     7
  6
CONTINUOUS
290
     0
370
    -3
390
8C2
  0
LAYER
  5
A5
330
2
100
AcDbSymbolTableRecord
100
AcDbLayerTableRecord
  2
C
 70
     0
 62
     7
  6
CONTINUOUS
370
    -3
390
8C2
  0
LAYER
  5
576
330
2
100
AcDbSymbolTableRecord
100
AcDbLayerTableRecord
  2
ROGO
 70
     0
 62
     6
  6
CONTINUOUS
370
    -3
390
8C2
  0
ENDTAB
  0
TABLE
  2
STYLE
  5
3
330
0
100
AcDbSymbolTable
 70
     8
  0
STYLE
  5
F
330
3
100
AcDbSymbolTableRecord
100
AcDbTextStyleTableRecord
  2
STANDARD
 70
     0
 40
0.0
 41
1.0
 50
0.0
 71
     0
 42
2.5
  3
txt
  4

  0
STYLE
  5
3F
330
3
100
AcDbSymbolTableRecord
100
AcDbTextStyleTableRecord
  2
STYLE3
 70
     0
 40
0.0
 41
1.0
 50
0.0
 71
     0
 42
2.5
  3
romans.shx
  4
bigfont.shx
  0
STYLE
  5
578
330
3
100
AcDbSymbolTableRecord
100
AcDbTextStyleTableRecord
  2
STYLE4
 70
     0
 40
0.0
 41
1.0
 50
0.0
 71
     0
 42
5.0
  3
romans.shx
  4
bigfont.shx
  0
ENDTAB
  0
TABLE
  2
VIEW
  5
6
330
0
100
AcDbSymbolTable
 70
     0
  0
ENDTAB
  0
TABLE
  2
UCS
  5
7
330
0
100
AcDbSymbolTable
 70
     0
  0
ENDTAB
  0
TABLE
  2
APPID
  5
9
330
0
100
AcDbSymbolTable
 70
     2
  0
APPID
  5
10
330
9
100
AcDbSymbolTableRecord
100
AcDbRegAppTableRecord
  2
ACAD
 70
     0
  0
APPID
  5
97A
330
9
100
AcDbSymbolTableRecord
100
AcDbRegAppTableRecord
  2
ACAD_PSEXT
 70
     0
  0
ENDTAB
  0
TABLE
  2
DIMSTYLE
  5
A
330
0
100
AcDbSymbolTable
 70
     6
100
AcDbDimStyleTable
 71
     1
340
8F
  0
DIMSTYLE
105
1D
330
A
100
AcDbSymbolTableRecord
100
AcDbDimStyleTableRecord
  2
STANDARD
 70
     0
 41
2.5
 42
0.625
 43
3.75
 44
1.25
 73
     0
 74
     0
 77
     1
 78
     8
140
2.5
141
2.5
143
0.0394
147
0.625
171
     4
172
     1
273
     8
274
     4
277
     6
340
F
  0
DIMSTYLE
105
8F
102
{ACAD_REACTORS
330
7C2
330
7C3
330
7C4
330
7C5
330
7E0
330
BD1
330
BD2
330
BD3
330
BDA
330
BDB
330
BFB
330
C0B
330
CCD
330
CCE
330
CCF
330
CD0
330
CD1
330
CD2
330
EF0
330
EFD
102
}
330
A
100
AcDbSymbolTableRecord
100
AcDbDimStyleTableRecord
  2
STYLE3
 70
     0
 41
2.5
 42
0.0
 43
3.75
 44
1.25
 73
     0
 74
     0
 77
     1
 78
     8
140
2.5
141
2.5
143
0.0394
147
0.625
171
     4
172
     1
173
     1
176
     2
177
     2
178
     6
271
     1
273
     8
274
     4
340
3F
341
45
343
45
344
45
  0
ENDTAB
  0
TABLE
  2
BLOCK_RECORD
  5
1
330
0
100
AcDbSymbolTable
 70
    30
  0
BLOCK_RECORD
  5
18
330
1
100
AcDbSymbolTableRecord
100
AcDbBlockTableRecord
  2
*MODEL_SPACE
340
8C9
  0
BLOCK_RECORD
  5
15
330
1
100
AcDbSymbolTableRecord
100
AcDbBlockTableRecord
  2
*PAPER_SPACE
340
8CA
  0
BLOCK_RECORD
  5
45
330
1
100
AcDbSymbolTableRecord
100
AcDbBlockTableRecord
  2
_OPEN
340
0
102
{BLKREFS
331
788
331
789
331
795
331
796
331
7A1
331
7A2
331
7AD
331
7AE
331
7B9
331
7BA
331
BCE
331
BCF
331
BD7
331
BD8
331
1AC8
331
1AC9
331
1BD7
331
1BD8
331
1BE0
331
1BE1
331
1BE9
331
1BEA
331
1C04
331
1C05
331
1C0D
331
1C0E
331
1C18
331
1C19
331
1C21
331
1C22
331
1C2A
331
1C2B
331
1C34
331
1C35
331
1C3D
331
1C3E
331
1C68
331
1C69
331
1C71
331
1C72
331
1C7A
331
1C7B
331
1C83
331
1C84
331
1C8C
331
1C8D
102
}
  0
BLOCK_RECORD
  5
D23
330
1
100
AcDbSymbolTableRecord
100
AcDbBlockTableRecord
  2
*D13
340
0
  0
BLOCK_RECORD
  5
D2F
330
1
100
AcDbSymbolTableRecord
100
AcDbBlockTableRecord
  2
*D14
340
0
  0
BLOCK_RECORD
  5
D3B
330
1
100
AcDbSymbolTableRecord
100
AcDbBlockTableRecord
  2
*D15
340
0
  0
BLOCK_RECORD
  5
D47
330
1
100
AcDbSymbolTableRecord
100
AcDbBlockTableRecord
  2
*D16
340
0
  0
BLOCK_RECORD
  5
D53
330
1
100
AcDbSymbolTableRecord
100
AcDbBlockTableRecord
  2
*D17
340
0
  0
BLOCK_RECORD
  5
D5E
330
1
100
AcDbSymbolTableRecord
100
AcDbBlockTableRecord
  2
*D18
340
0
  0
BLOCK_RECORD
  5
D78
330
1
100
AcDbSymbolTableRecord
100
AcDbBlockTableRecord
  2
*D19
340
0
  0
BLOCK_RECORD
  5
D85
330
1
100
AcDbSymbolTableRecord
100
AcDbBlockTableRecord
  2
*D20
340
0
  0
BLOCK_RECORD
  5
D91
330
1
100
AcDbSymbolTableRecord
100
AcDbBlockTableRecord
  2
*D21
340
0
  0
BLOCK_RECORD
  5
D9D
330
1
100
AcDbSymbolTableRecord
100
AcDbBlockTableRecord
  2
*D22
340
0
  0
BLOCK_RECORD
  5
DA9
330
1
100
AcDbSymbolTableRecord
100
AcDbBlockTableRecord
  2
*D23
340
0
  0
BLOCK_RECORD
  5
DB5
330
1
100
AcDbSymbolTableRecord
100
AcDbBlockTableRecord
  2
*D24
340
0
  0
BLOCK_RECORD
  5
DC1
330
1
100
AcDbSymbolTableRecord
100
AcDbBlockTableRecord
  2
*D25
340
0
  0
BLOCK_RECORD
  5
EF1
330
1
100
AcDbSymbolTableRecord
100
AcDbBlockTableRecord
  2
*D26
340
0
  0
BLOCK_RECORD
  5
EFE
330
1
100
AcDbSymbolTableRecord
100
AcDbBlockTableRecord
  2
*D27
340
0
  0
ENDTAB
  0
ENDSEC
  0
SECTION
  2
BLOCKS
  0
BLOCK
  5
19
330
18
100
AcDbEntity
  8
0
100
AcDbBlockBegin
  2
*MODEL_SPACE
 70
     0
 10
0.0
 20
0.0
 30
0.0
  3
*MODEL_SPACE
  1

  0
ENDBLK
  5
1A
330
18
100
AcDbEntity
  8
0
100
AcDbBlockEnd
  0
BLOCK
  5
16
330
15
100
AcDbEntity
 67
     1
  8
0
100
AcDbBlockBegin
  2
*PAPER_SPACE
 70
     0
 10
0.0
 20
0.0
 30
0.0
  3
*PAPER_SPACE
  1

  0
ENDBLK
  5
17
330
15
100
AcDbEntity
 67
     1
  8
0
100
AcDbBlockEnd
  0
BLOCK
  5
46
330
45
100
AcDbEntity
  8
0
100
AcDbBlockBegin
  2
_OPEN
 70
     0
 10
0.0
 20
0.0
 30
0.0
  3
_OPEN
  1

  0
LINE
  5
47
330
45
100
AcDbEntity
  8
0
  6
ByBlock
 62
     0
100
AcDbLine
 10
-1.0
 20
0.1666666666666666
 30
0.0
 11
0.0
 21
0.0
 31
0.0
  0
LINE
  5
48
330
45
100
AcDbEntity
  8
0
  6
ByBlock
 62
     0
100
AcDbLine
 10
0.0
 20
0.0
 30
0.0
 11
-1.0
 21
-0.1666666666666666
 31
0.0
  0
LINE
  5
49
330
45
100
AcDbEntity
  8
0
  6
ByBlock
 62
     0
100
AcDbLine
 10
0.0
 20
0.0
 30
0.0
 11
-1.0
 21
0.0
 31
0.0
  0
ENDBLK
  5
4A
330
45
100
AcDbEntity
  8
0
100
AcDbBlockEnd
  0
BLOCK
  5
D2D
330
D23
100
AcDbEntity
  8
0
100
AcDbBlockBegin
  2
*D13
 70
     1
 10
0.0
 20
0.0
 30
0.0
  3
*D13
  1

  0
LINE
  5
1C65
330
D23
100
AcDbEntity
  8
外形線
 62
     2
370
    -2
100
AcDbLine
 10
389.4106291517279
 20
109.9698056657311
 30
0.0
 11
403.5514989898766
 21
109.9698056657311
 31
0.0
  0
LINE
  5
1C66
330
D23
100
AcDbEntity
  8
外形線
 62
     2
370
    -2
100
AcDbLine
 10
389.410629151728
 20
51.16980566573125
 30
0.0
 11
403.5514989898766
 21
51.16980566573124
 31
0.0
  0
LINE
  5
1C67
330
D23
100
AcDbEntity
  8
外形線
 62
     2
370
    -2
100
AcDbLine
 10
402.3014989898767
 20
107.4698056657311
 30
0.0
 11
402.3014989898767
 21
53.66980566573124
 31
0.0
  0
INSERT
  5
1C68
330
D23
100
AcDbEntity
  8
外形線
 62
     2
370
    -2
100
AcDbBlockReference
  2
_OPEN
 10
402.3014989898767
 20
109.9698056657311
 30
0.0
 41
2.5
 42
2.5
 43
2.5
 50
90.0
  0
INSERT
  5
1C69
330
D23
100
AcDbEntity
  8
外形線
 62
     2
370
    -2
100
AcDbBlockReference
  2
_OPEN
 10
402.3014989898767
 20
51.16980566573124
 30
0.0
 41
2.5
 42
2.5
 43
2.5
 50
270.0
  0
MTEXT
  5
1C6A
330
D23
100
AcDbEntity
  8
外形線
 62
     6
100
AcDbMText
 10
400.4264989898766
 20
80.56980566573125
 30
0.0
 40
2.5
 41
0.0
 71
     5
 72
     1
  1
\A1;%%C58.8
  7
STYLE3
 11
0.0000000000000001
 21
1.0
 31
0.0
 73
     1
 44
1.0
  0
POINT
  5
1C6B
330
D23
100
AcDbEntity
  8
DEFPOINTS
 62
     0
100
AcDbPoint
 10
389.4106291517279
 20
109.9698056657311
 30
0.0
  0
POINT
  5
1C6C
330
D23
100
AcDbEntity
  8
DEFPOINTS
 62
     0
100
AcDbPoint
 10
389.410629151728
 20
51.16980566573125
 30
0.0
  0
POINT
  5
1C6D
330
D23
100
AcDbEntity
  8
DEFPOINTS
 62
     0
100
AcDbPoint
 10
402.3014989898767
 20
51.16980566573124
 30
0.0
  0
ENDBLK
  5
D2E
330
D23
100
AcDbEntity
  8
0
100
AcDbBlockEnd
  0
BLOCK
  5
D39
330
D2F
100
AcDbEntity
  8
0
100
AcDbBlockBegin
  2
*D14
 70
     1
 10
0.0
 20
0.0
 30
0.0
  3
*D14
  1

  0
LINE
  5
1C77
330
D2F
100
AcDbEntity
  8
外形線
 62
     2
370
    -2
100
AcDbLine
 10
358.4106291517279
 20
110.5698056657312
 30
0.0
 11
348.3355891698826
 21
110.5698056657312
 31
0.0
  0
LINE
  5
1C78
330
D2F
100
AcDbEntity
  8
外形線
 62
     2
370
    -2
100
AcDbLine
 10
358.4106291517279
 20
50.56980566573122
 30
0.0
 11
348.3355891698826
 21
50.56980566573122
 31
0.0
  0
LINE
  5
1C79
330
D2F
100
AcDbEntity
  8
外形線
 62
     2
370
    -2
100
AcDbLine
 10
349.5855891698826
 20
108.0698056657312
 30
0.0
 11
349.5855891698826
 21
53.06980566573122
 31
0.0
  0
INSERT
  5
1C7A
330
D2F
100
AcDbEntity
  8
外形線
 62
     2
370
    -2
100
AcDbBlockReference
  2
_OPEN
 10
349.5855891698826
 20
110.5698056657312
 30
0.0
 41
2.5
 42
2.5
 43
2.5
 50
90.0
  0
INSERT
  5
1C7B
330
D2F
100
AcDbEntity
  8
外形線
 62
     2
370
    -2
100
AcDbBlockReference
  2
_OPEN
 10
349.5855891698826
 20
50.56980566573122
 30
0.0
 41
2.5
 42
2.5
 43
2.5
 50
270.0
  0
MTEXT
  5
1C7C
330
D2F
100
AcDbEntity
  8
外形線
 62
     6
100
AcDbMText
 10
347.7105891698826
 20
80.56980566573127
 30
0.0
 40
2.5
 41
0.0
 71
     5
 72
     1
  1
\A1;%%C60
  7
STYLE3
 11
0.0000000000000001
 21
1.0
 31
0.0
 73
     1
 44
1.0
  0
POINT
  5
1C7D
330
D2F
100
AcDbEntity
  8
DEFPOINTS
 62
     0
100
AcDbPoint
 10
358.4106291517279
 20
110.5698056657312
 30
0.0
  0
POINT
  5
1C7E
330
D2F
100
AcDbEntity
  8
DEFPOINTS
 62
     0
100
AcDbPoint
 10
358.4106291517279
 20
50.56980566573122
 30
0.0
  0
POINT
  5
1C7F
330
D2F
100
AcDbEntity
  8
DEFPOINTS
 62
     0
100
AcDbPoint
 10
349.5855891698826
 20
50.56980566573122
 30
0.0
  0
ENDBLK
  5
D3A
330
D2F
100
AcDbEntity
  8
0
100
AcDbBlockEnd
  0
BLOCK
  5
D45
330
D3B
100
AcDbEntity
  8
0
100
AcDbBlockBegin
  2
*D15
 70
     1
 10
0.0
 20
0.0
 30
0.0
  3
*D15
  1

  0
LINE
  5
1C6E
330
D3B
100
AcDbEntity
  8
外形線
 62
     2
370
    -2
100
AcDbLine
 10
355.8131672162093
 20
58.56980566573122
 30
0.0
 11
355.8131672162093
 21
17.94360730906294
 31
0.0
  0
LINE
  5
1C6F
330
D3B
100
AcDbEntity
  8
外形線
 62
     2
370
    -2
100
AcDbLine
 10
379.9106291517279
 20
19.57979526143438
 30
0.0
 11
379.9106291517279
 21
17.94360730906294
 31
0.0
  0
LINE
  5
1C70
330
D3B
100
AcDbEntity
  8
外形線
 62
     2
370
    -2
100
AcDbLine
 10
358.3131672162093
 20
19.19360730906294
 30
0.0
 11
377.4106291517279
 21
19.19360730906294
 31
0.0
  0
INSERT
  5
1C71
330
D3B
100
AcDbEntity
  8
外形線
 62
     2
370
    -2
100
AcDbBlockReference
  2
_OPEN
 10
355.8131672162093
 20
19.19360730906294
 30
0.0
 41
2.5
 42
2.5
 43
2.5
 50
180.0
  0
INSERT
  5
1C72
330
D3B
100
AcDbEntity
  8
外形線
 62
     2
370
    -2
100
AcDbBlockReference
  2
_OPEN
 10
379.9106291517279
 20
19.19360730906294
 30
0.0
 41
2.5
 42
2.5
 43
2.5
  0
MTEXT
  5
1C73
330
D3B
100
AcDbEntity
  8
外形線
 62
     6
100
AcDbMText
 10
367.8618981839686
 20
21.06860730906294
 30
0.0
 40
2.5
 41
0.0
 71
     5
 72
     1
  1
\A1;24.1
  7
STYLE3
 73
     1
 44
1.0
  0
POINT
  5
1C74
330
D3B
100
AcDbEntity
  8
DEFPOINTS
 62
     0
100
AcDbPoint
 10
355.8131672162093
 20
58.56980566573122
 30
0.0
  0
POINT
  5
1C75
330
D3B
100
AcDbEntity
  8
DEFPOINTS
 62
     0
100
AcDbPoint
 10
379.9106291517279
 20
19.57979526143438
 30
0.0
  0
POINT
  5
1C76
330
D3B
100
AcDbEntity
  8
DEFPOINTS
 62
     0
100
AcDbPoint
 10
379.9106291517279
 20
19.19360730906294
 30
0.0
  0
ENDBLK
  5
D46
330
D3B
100
AcDbEntity
  8
0
100
AcDbBlockEnd
  0
BLOCK
  5
D51
330
D47
100
AcDbEntity
  8
0
100
AcDbBlockBegin
  2
*D16
 70
     1
 10
0.0
 20
0.0
 30
0.0
  3
*D16
  1

  0
LINE
  5
1C80
330
D47
100
AcDbEntity
  8
外形線
 62
     2
370
    -2
100
AcDbLine
 10
358.4106291517279
 20
109.3708309549799
 30
0.0
 11
358.4106291517279
 21
121.4823625659173
 31
0.0
  0
LINE
  5
1C81
330
D47
100
AcDbEntity
  8
外形線
 62
     2
370
    -2
100
AcDbLine
 10
379.9106291517279
 20
116.855404299143
 30
0.0
 11
379.9106291517279
 21
121.4823625659173
 31
0.0
  0
LINE
  5
1C82
330
D47
100
AcDbEntity
  8
外形線
 62
     2
370
    -2
100
AcDbLine
 10
360.9106291517279
 20
120.2323625659173
 30
0.0
 11
377.4106291517279
 21
120.2323625659173
 31
0.0
  0
INSERT
  5
1C83
330
D47
100
AcDbEntity
  8
外形線
 62
     2
370
    -2
100
AcDbBlockReference
  2
_OPEN
 10
358.4106291517279
 20
120.2323625659173
 30
0.0
 41
2.5
 42
2.5
 43
2.5
 50
180.0
  0
INSERT
  5
1C84
330
D47
100
AcDbEntity
  8
外形線
 62
     2
370
    -2
100
AcDbBlockReference
  2
_OPEN
 10
379.9106291517279
 20
120.2323625659173
 30
0.0
 41
2.5
 42
2.5
 43
2.5
  0
MTEXT
  5
1C85
330
D47
100
AcDbEntity
  8
外形線
 62
     6
100
AcDbMText
 10
369.1606291517279
 20
122.1073625659173
 30
0.0
 40
2.5
 41
0.0
 71
     5
 72
     1
  1
\A1;21.5
  7
STYLE3
 73
     1
 44
1.0
  0
POINT
  5
1C86
330
D47
100
AcDbEntity
  8
DEFPOINTS
 62
     0
100
AcDbPoint
 10
358.4106291517279
 20
109.3708309549799
 30
0.0
  0
POINT
  5
1C87
330
D47
100
AcDbEntity
  8
DEFPOINTS
 62
     0
100
AcDbPoint
 10
379.9106291517279
 20
116.855404299143
 30
0.0
  0
POINT
  5
1C88
330
D47
100
AcDbEntity
  8
DEFPOINTS
 62
     0
100
AcDbPoint
 10
379.9106291517279
 20
120.2323625659173
 30
0.0
  0
ENDBLK
  5
D52
330
D47
100
AcDbEntity
  8
0
100
AcDbBlockEnd
  0
BLOCK
  5
D5C
330
D53
100
AcDbEntity
  8
0
100
AcDbBlockBegin
  2
*D17
 70
     1
 10
0.0
 20
0.0
 30
0.0
  3
*D17
  1

  0
LINE
  5
1C89
330
D53
100
AcDbEntity
  8
外形線
 62
     2
370
    -2
100
AcDbLine
 10
389.4106291517279
 20
116.4911683696473
 30
0.0
 11
389.4106291517279
 21
121.4823625659173
 31
0.0
  0
LINE
  5
1C8A
330
D53
100
AcDbEntity
  8
外形線
 62
     2
370
    -2
100
AcDbLine
 10
382.4106291517279
 20
120.2323625659173
 30
0.0
 11
386.9106291517279
 21
120.2323625659173
 31
0.0
  0
MTEXT
  5
1C8B
330
D53
100
AcDbEntity
  8
外形線
 62
     6
100
AcDbMText
 10
393.1655934737441
 20
122.1331676020557
 30
0.0
 40
2.5
 41
0.0
 71
     5
 72
     1
  1
\A1;9.5
  7
STYLE3
 73
     1
 44
1.0
  0
INSERT
  5
1C8C
330
D53
100
AcDbEntity
  8
外形線
 62
     2
370
    -2
100
AcDbBlockReference
  2
_OPEN
 10
379.9106291517279
 20
120.2323625659173
 30
0.0
 41
2.5
 42
2.5
 43
2.5
 50
180.0
  0
INSERT
  5
1C8D
330
D53
100
AcDbEntity
  8
外形線
 62
     2
370
    -2
100
AcDbBlockReference
  2
_OPEN
 10
389.4106291517279
 20
120.2323625659173
 30
0.0
 41
2.5
 42
2.5
 43
2.5
  0
POINT
  5
1C8E
330
D53
100
AcDbEntity
  8
DEFPOINTS
 62
     0
100
AcDbPoint
 10
379.9106291517279
 20
116.855404299143
 30
0.0
  0
POINT
  5
1C8F
330
D53
100
AcDbEntity
  8
DEFPOINTS
 62
     0
100
AcDbPoint
 10
389.4106291517279
 20
116.4911683696473
 30
0.0
  0
POINT
  5
1C90
330
D53
100
AcDbEntity
  8
DEFPOINTS
 62
     0
100
AcDbPoint
 10
389.4106291517279
 20
120.2323625659173
 30
0.0
  0
ENDBLK
  5
D5D
330
D53
100
AcDbEntity
  8
0
100
AcDbBlockEnd
  0
BLOCK
  5
D6A
330
D5E
100
AcDbEntity
  8
0
100
AcDbBlockBegin
  2
*D18
 70
     1
 10
0.0
 20
0.0
 30
0.0
  3
*D18
  1

  0
LINE
  5
1C13
330
D5E
100
AcDbEntity
  8
文字
 62
     2
370
    -2
100
AcDbLine
 10
301.557994908871
 20
19.15476222115953
 30
0.0
 11
301.557994908871
 21
16.03793643998662
 31
0.0
  0
LINE
  5
1C14
330
D5E
100
AcDbEntity
  8
文字
 62
     2
370
    -2
100
AcDbLine
 10
305.557994908871
 20
18.64562783448497
 30
0.0
 11
305.557994908871
 21
16.03793643998662
 31
0.0
  0
LINE
  5
1C15
330
D5E
100
AcDbEntity
  8
文字
 62
     2
370
    -2
100
AcDbLine
 10
299.057994908871
 20
17.28793643998662
 30
0.0
 11
296.557994908871
 21
17.28793643998662
 31
0.0
  0
LINE
  5
1C16
330
D5E
100
AcDbEntity
  8
文字
 62
     2
370
    -2
100
AcDbLine
 10
308.057994908871
 20
17.28793643998662
 30
0.0
 11
316.4508520517282
 21
17.28793643998662
 31
0.0
  0
LINE
  5
1C17
330
D5E
100
AcDbEntity
  8
文字
 62
     2
370
    -2
100
AcDbLine
 10
301.557994908871
 20
17.28793643998662
 30
0.0
 11
305.557994908871
 21
17.28793643998662
 31
0.0
  0
INSERT
  5
1C18
330
D5E
100
AcDbEntity
  8
文字
 62
     2
370
    -2
100
AcDbBlockReference
  2
_OPEN
 10
301.557994908871
 20
17.28793643998662
 30
0.0
 41
2.5
 42
2.5
 43
2.5
  0
INSERT
  5
1C19
330
D5E
100
AcDbEntity
  8
文字
 62
     2
370
    -2
100
AcDbBlockReference
  2
_OPEN
 10
305.557994908871
 20
17.28793643998662
 30
0.0
 41
2.5
 42
2.5
 43
2.5
 50
180.0
  0
MTEXT
  5
1C1A
330
D5E
100
AcDbEntity
  8
文字
 62
     6
100
AcDbMText
 10
313.5044234802996
 20
19.16293643998662
 30
0.0
 40
2.5
 41
0.0
 71
     5
 72
     1
  1
\A1;φ4
  7
STYLE3
 73
     1
 44
1.0
  0
POINT
  5
1C1B
330
D5E
100
AcDbEntity
  8
DEFPOINTS
 62
     0
100
AcDbPoint
 10
301.557994908871
 20
19.15476222115953
 30
0.0
  0
POINT
  5
1C1C
330
D5E
100
AcDbEntity
  8
DEFPOINTS
 62
     0
100
AcDbPoint
 10
305.557994908871
 20
18.64562783448497
 30
0.0
  0
POINT
  5
1C1D
330
D5E
100
AcDbEntity
  8
DEFPOINTS
 62
     0
100
AcDbPoint
 10
305.557994908871
 20
17.28793643998662
 30
0.0
  0
ENDBLK
  5
D6B
330
D5E
100
AcDbEntity
  8
0
100
AcDbBlockEnd
  0
BLOCK
  5
D83
330
D78
100
AcDbEntity
  8
0
100
AcDbBlockBegin
  2
*D19
 70
     1
 10
0.0
 20
0.0
 30
0.0
  3
*D19
  1

  0
LINE
  5
1C30
330
D78
100
AcDbEntity
  8
外形線
 62
     2
370
    -2
100
AcDbLine
 10
299.557994908871
 20
37.31280881242287
 30
0.0
 11
299.557994908871
 21
35.82384661344503
 31
0.0
  0
LINE
  5
1C31
330
D78
100
AcDbEntity
  8
外形線
 62
     2
370
    -2
100
AcDbLine
 10
307.557994908871
 20
37.19332771293398
 30
0.0
 11
307.557994908871
 21
35.82384661344503
 31
0.0
  0
LINE
  5
1C32
330
D78
100
AcDbEntity
  8
外形線
 62
     2
370
    -2
100
AcDbLine
 10
302.057994908871
 20
37.07384661344503
 30
0.0
 11
305.057994908871
 21
37.07384661344503
 31
0.0
  0
LINE
  5
1C33
330
D78
100
AcDbEntity
  8
外形線
 62
     2
370
    -2
100
AcDbLine
 10
307.557994908871
 20
37.07384661344503
 30
0.0
 11
318.807994908871
 21
37.07384661344503
 31
0.0
  0
INSERT
  5
1C34
330
D78
100
AcDbEntity
  8
外形線
 62
     2
370
    -2
100
AcDbBlockReference
  2
_OPEN
 10
299.557994908871
 20
37.07384661344503
 30
0.0
 41
2.5
 42
2.5
 43
2.5
 50
180.0
  0
INSERT
  5
1C35
330
D78
100
AcDbEntity
  8
外形線
 62
     2
370
    -2
100
AcDbBlockReference
  2
_OPEN
 10
307.557994908871
 20
37.07384661344503
 30
0.0
 41
2.5
 42
2.5
 43
2.5
  0
MTEXT
  5
1C36
330
D78
100
AcDbEntity
  8
外形線
 62
     6
100
AcDbMText
 10
314.432994908871
 20
38.94884661344503
 30
0.0
 40
2.5
 41
0.0
 71
     5
 72
     1
  1
\A1;%%C8.0
  7
STYLE3
 73
     1
 44
1.0
  0
POINT
  5
1C37
330
D78
100
AcDbEntity
  8
DEFPOINTS
 62
     0
100
AcDbPoint
 10
299.557994908871
 20
37.31280881242287
 30
0.0
  0
POINT
  5
1C38
330
D78
100
AcDbEntity
  8
DEFPOINTS
 62
     0
100
AcDbPoint
 10
307.557994908871
 20
37.19332771293398
 30
0.0
  0
POINT
  5
1C39
330
D78
100
AcDbEntity
  8
DEFPOINTS
 62
     0
100
AcDbPoint
 10
307.557994908871
 20
37.07384661344503
 30
0.0
  0
ENDBLK
  5
D84
330
D78
100
AcDbEntity
  8
0
100
AcDbBlockEnd
  0
BLOCK
  5
D8F
330
D85
100
AcDbEntity
  8
0
100
AcDbBlockBegin
  2
*D20
 70
     1
 10
0.0
 20
0.0
 30
0.0
  3
*D20
  1

  0
LINE
  5
1BE6
330
D85
100
AcDbEntity
  8
寸法線
 62
     2
370
    -2
100
AcDbLine
 10
303.557994908871
 20
144.5698056657312
 30
0.0
 11
254.8236276783676
 21
144.5698056657312
 31
0.0
  0
LINE
  5
1BE7
330
D85
100
AcDbEntity
  8
寸法線
 62
     2
370
    -2
100
AcDbLine
 10
267.6390329568169
 20
80.56980566573122
 30
0.0
 11
254.8236276783676
 21
80.56980566573122
 31
0.0
  0
LINE
  5
1BE8
330
D85
100
AcDbEntity
  8
寸法線
 62
     2
370
    -2
100
AcDbLine
 10
256.0736276783676
 20
142.0698056657312
 30
0.0
 11
256.0736276783675
 21
83.06980566573122
 31
0.0
  0
INSERT
  5
1BE9
330
D85
100
AcDbEntity
  8
寸法線
 62
     2
370
    -2
100
AcDbBlockReference
  2
_OPEN
 10
256.0736276783676
 20
144.5698056657312
 30
0.0
 41
2.5
 42
2.5
 43
2.5
 50
90.0
  0
INSERT
  5
1BEA
330
D85
100
AcDbEntity
  8
寸法線
 62
     2
370
    -2
100
AcDbBlockReference
  2
_OPEN
 10
256.0736276783675
 20
80.56980566573122
 30
0.0
 41
2.5
 42
2.5
 43
2.5
 50
270.0
  0
MTEXT
  5
1BEB
330
D85
100
AcDbEntity
  8
寸法線
 62
     6
100
AcDbMText
 10
254.1986276783675
 20
112.5698056657312
 30
0.0
 40
2.5
 41
0.0
 71
     5
 72
     1
  1
\A1;64
  7
STYLE3
 11
0.0000000000000001
 21
1.0
 31
0.0
 73
     1
 44
1.0
  0
POINT
  5
1BEC
330
D85
100
AcDbEntity
  8
DEFPOINTS
 62
     0
100
AcDbPoint
 10
303.557994908871
 20
144.5698056657312
 30
0.0
  0
POINT
  5
1BED
330
D85
100
AcDbEntity
  8
DEFPOINTS
 62
     0
100
AcDbPoint
 10
267.6390329568169
 20
80.56980566573122
 30
0.0
  0
POINT
  5
1BEE
330
D85
100
AcDbEntity
  8
DEFPOINTS
 62
     0
100
AcDbPoint
 10
256.0736276783675
 20
80.56980566573122
 30
0.0
  0
ENDBLK
  5
D90
330
D85
100
AcDbEntity
  8
0
100
AcDbBlockEnd
  0
BLOCK
  5
D9B
330
D91
100
AcDbEntity
  8
0
100
AcDbBlockBegin
  2
*D21
 70
     1
 10
0.0
 20
0.0
 30
0.0
  3
*D21
  1

  0
LINE
  5
1C1E
330
D91
100
AcDbEntity
  8
寸法線
 62
     2
370
    -2
100
AcDbLine
 10
267.6390329568169
 20
80.56980566573122
 30
0.0
 11
254.8236276783676
 21
80.56980566573122
 31
0.0
  0
LINE
  5
1C1F
330
D91
100
AcDbEntity
  8
寸法線
 62
     2
370
    -2
100
AcDbLine
 10
298.557994908871
 20
45.4698056657312
 30
0.0
 11
254.8236276783675
 21
45.46980566573121
 31
0.0
  0
LINE
  5
1C20
330
D91
100
AcDbEntity
  8
寸法線
 62
     2
370
    -2
100
AcDbLine
 10
256.0736276783675
 20
78.06980566573122
 30
0.0
 11
256.0736276783675
 21
47.96980566573121
 31
0.0
  0
INSERT
  5
1C21
330
D91
100
AcDbEntity
  8
寸法線
 62
     2
370
    -2
100
AcDbBlockReference
  2
_OPEN
 10
256.0736276783675
 20
80.56980566573122
 30
0.0
 41
2.5
 42
2.5
 43
2.5
 50
90.0
  0
INSERT
  5
1C22
330
D91
100
AcDbEntity
  8
寸法線
 62
     2
370
    -2
100
AcDbBlockReference
  2
_OPEN
 10
256.0736276783675
 20
45.46980566573121
 30
0.0
 41
2.5
 42
2.5
 43
2.5
 50
270.0
  0
MTEXT
  5
1C23
330
D91
100
AcDbEntity
  8
寸法線
 62
     6
100
AcDbMText
 10
254.1986276783675
 20
63.01980566573125
 30
0.0
 40
2.5
 41
0.0
 71
     5
 72
     1
  1
\A1;35.1
  7
STYLE3
 11
0.0000000000000001
 21
1.0
 31
0.0
 73
     1
 44
1.0
  0
POINT
  5
1C24
330
D91
100
AcDbEntity
  8
DEFPOINTS
 62
     0
100
AcDbPoint
 10
267.6390329568169
 20
80.56980566573122
 30
0.0
  0
POINT
  5
1C25
330
D91
100
AcDbEntity
  8
DEFPOINTS
 62
     0
100
AcDbPoint
 10
298.557994908871
 20
45.4698056657312
 30
0.0
  0
POINT
  5
1C26
330
D91
100
AcDbEntity
  8
DEFPOINTS
 62
     0
100
AcDbPoint
 10
256.0736276783675
 20
45.46980566573121
 30
0.0
  0
ENDBLK
  5
D9C
330
D91
100
AcDbEntity
  8
0
100
AcDbBlockEnd
  0
BLOCK
  5
DA7
330
D9D
100
AcDbEntity
  8
0
100
AcDbBlockBegin
  2
*D22
 70
     1
 10
0.0
 20
0.0
 30
0.0
  3
*D22
  1

  0
LINE
  5
1C27
330
D9D
100
AcDbEntity
  8
寸法線
 62
     2
370
    -2
100
AcDbLine
 10
298.557994908871
 20
45.4698056657312
 30
0.0
 11
255.0023939475047
 21
45.46980566573121
 31
0.0
  0
LINE
  5
1C28
330
D9D
100
AcDbEntity
  8
寸法線
 62
     2
370
    -2
100
AcDbLine
 10
299.807994908871
 20
24.46980566573126
 30
0.0
 11
255.0023939475047
 21
24.46980566573127
 31
0.0
  0
LINE
  5
1C29
330
D9D
100
AcDbEntity
  8
寸法線
 62
     2
370
    -2
100
AcDbLine
 10
256.2523939475047
 20
42.96980566573121
 30
0.0
 11
256.2523939475047
 21
26.96980566573127
 31
0.0
  0
INSERT
  5
1C2A
330
D9D
100
AcDbEntity
  8
寸法線
 62
     2
370
    -2
100
AcDbBlockReference
  2
_OPEN
 10
256.2523939475047
 20
45.46980566573121
 30
0.0
 41
2.5
 42
2.5
 43
2.5
 50
90.0
  0
INSERT
  5
1C2B
330
D9D
100
AcDbEntity
  8
寸法線
 62
     2
370
    -2
100
AcDbBlockReference
  2
_OPEN
 10
256.2523939475047
 20
24.46980566573127
 30
0.0
 41
2.5
 42
2.5
 43
2.5
 50
270.0
  0
MTEXT
  5
1C2C
330
D9D
100
AcDbEntity
  8
寸法線
 62
     6
100
AcDbMText
 10
254.3773939475047
 20
34.96980566573129
 30
0.0
 40
2.5
 41
0.0
 71
     5
 72
     1
  1
\A1;21
  7
STYLE3
 11
0.0000000000000001
 21
1.0
 31
0.0
 73
     1
 44
1.0
  0
POINT
  5
1C2D
330
D9D
100
AcDbEntity
  8
DEFPOINTS
 62
     0
100
AcDbPoint
 10
298.557994908871
 20
45.4698056657312
 30
0.0
  0
POINT
  5
1C2E
330
D9D
100
AcDbEntity
  8
DEFPOINTS
 62
     0
100
AcDbPoint
 10
299.807994908871
 20
24.46980566573126
 30
0.0
  0
POINT
  5
1C2F
330
D9D
100
AcDbEntity
  8
DEFPOINTS
 62
     0
100
AcDbPoint
 10
256.2523939475047
 20
24.46980566573127
 30
0.0
  0
ENDBLK
  5
DA8
330
D9D
100
AcDbEntity
  8
0
100
AcDbBlockEnd
  0
BLOCK
  5
DB3
330
DA9
100
AcDbEntity
  8
0
100
AcDbBlockBegin
  2
*D23
 70
     1
 10
0.0
 20
0.0
 30
0.0
  3
*D23
  1

  0
LINE
  5
1C01
330
DA9
100
AcDbEntity
  8
寸法線
 62
     2
370
    -2
100
AcDbLine
 10
299.807994908871
 20
24.46980566573126
 30
0.0
 11
255.0023939475047
 21
24.46980566573127
 31
0.0
  0
LINE
  5
1C02
330
DA9
100
AcDbEntity
  8
寸法線
 62
     2
370
    -2
100
AcDbLine
 10
301.557994908871
 20
-1.930194334268776
 30
0.0
 11
255.0023939475047
 21
-1.930194334268763
 31
0.0
  0
LINE
  5
1C03
330
DA9
100
AcDbEntity
  8
寸法線
 62
     2
370
    -2
100
AcDbLine
 10
256.2523939475047
 20
21.96980566573127
 30
0.0
 11
256.2523939475047
 21
0.5698056657312364
 31
0.0
  0
INSERT
  5
1C04
330
DA9
100
AcDbEntity
  8
寸法線
 62
     2
370
    -2
100
AcDbBlockReference
  2
_OPEN
 10
256.2523939475047
 20
24.46980566573127
 30
0.0
 41
2.5
 42
2.5
 43
2.5
 50
90.0
  0
INSERT
  5
1C05
330
DA9
100
AcDbEntity
  8
寸法線
 62
     2
370
    -2
100
AcDbBlockReference
  2
_OPEN
 10
256.2523939475047
 20
-1.930194334268763
 30
0.0
 41
2.5
 42
2.5
 43
2.5
 50
270.0
  0
MTEXT
  5
1C06
330
DA9
100
AcDbEntity
  8
寸法線
 62
     6
100
AcDbMText
 10
254.3773939475047
 20
11.26980566573129
 30
0.0
 40
2.5
 41
0.0
 71
     5
 72
     1
  1
\A1;26.4
  7
STYLE3
 11
0.0000000000000001
 21
1.0
 31
0.0
 73
     1
 44
1.0
  0
POINT
  5
1C07
330
DA9
100
AcDbEntity
  8
DEFPOINTS
 62
     0
100
AcDbPoint
 10
299.807994908871
 20
24.46980566573126
 30
0.0
  0
POINT
  5
1C08
330
DA9
100
AcDbEntity
  8
DEFPOINTS
 62
     0
100
AcDbPoint
 10
301.557994908871
 20
-1.930194334268776
 30
0.0
  0
POINT
  5
1C09
330
DA9
100
AcDbEntity
  8
DEFPOINTS
 62
     0
100
AcDbPoint
 10
256.2523939475047
 20
-1.930194334268763
 30
0.0
  0
ENDBLK
  5
DB4
330
DA9
100
AcDbEntity
  8
0
100
AcDbBlockEnd
  0
BLOCK
  5
DBF
330
DB5
100
AcDbEntity
  8
0
100
AcDbBlockBegin
  2
*D24
 70
     1
 10
0.0
 20
0.0
 30
0.0
  3
*D24
  1

  0
LINE
  5
1C0A
330
DB5
100
AcDbEntity
  8
寸法線
 62
     2
370
    -2
100
AcDbLine
 10
301.557994908871
 20
-1.930194334268776
 30
0.0
 11
255.0023939475047
 21
-1.930194334268763
 31
0.0
  0
LINE
  5
1C0B
330
DB5
100
AcDbEntity
  8
寸法線
 62
     2
370
    -2
100
AcDbLine
 10
303.557994908871
 20
-10.93019433426877
 30
0.0
 11
255.0023939475047
 21
-10.93019433426876
 31
0.0
  0
LINE
  5
1C0C
330
DB5
100
AcDbEntity
  8
寸法線
 62
     2
370
    -2
100
AcDbLine
 10
256.2523939475047
 20
-4.430194334268763
 30
0.0
 11
256.2523939475047
 21
-8.430194334268762
 31
0.0
  0
INSERT
  5
1C0D
330
DB5
100
AcDbEntity
  8
寸法線
 62
     2
370
    -2
100
AcDbBlockReference
  2
_OPEN
 10
256.2523939475047
 20
-1.930194334268763
 30
0.0
 41
2.5
 42
2.5
 43
2.5
 50
90.0
  0
INSERT
  5
1C0E
330
DB5
100
AcDbEntity
  8
寸法線
 62
     2
370
    -2
100
AcDbBlockReference
  2
_OPEN
 10
256.2523939475047
 20
-10.93019433426876
 30
0.0
 41
2.5
 42
2.5
 43
2.5
 50
270.0
  0
MTEXT
  5
1C0F
330
DB5
100
AcDbEntity
  8
寸法線
 62
     6
100
AcDbMText
 10
254.3773939475047
 20
-6.430194334268722
 30
0.0
 40
2.5
 41
0.0
 71
     5
 72
     1
  1
\A1;9
  7
STYLE3
 11
0.0000000000000001
 21
1.0
 31
0.0
 73
     1
 44
1.0
  0
POINT
  5
1C10
330
DB5
100
AcDbEntity
  8
DEFPOINTS
 62
     0
100
AcDbPoint
 10
301.557994908871
 20
-1.930194334268776
 30
0.0
  0
POINT
  5
1C11
330
DB5
100
AcDbEntity
  8
DEFPOINTS
 62
     0
100
AcDbPoint
 10
303.557994908871
 20
-10.93019433426877
 30
0.0
  0
POINT
  5
1C12
330
DB5
100
AcDbEntity
  8
DEFPOINTS
 62
     0
100
AcDbPoint
 10
256.2523939475047
 20
-10.93019433426876
 30
0.0
  0
ENDBLK
  5
DC0
330
DB5
100
AcDbEntity
  8
0
100
AcDbBlockEnd
  0
BLOCK
  5
DCB
330
DC1
100
AcDbEntity
  8
0
100
AcDbBlockBegin
  2
*D25
 70
     1
 10
0.0
 20
0.0
 30
0.0
  3
*D25
  1

  0
LINE
  5
1BD4
330
DC1
100
AcDbEntity
  8
寸法線
 62
     2
370
    -2
100
AcDbLine
 10
303.557994908871
 20
144.5698056657312
 30
0.0
 11
246.1880846366423
 21
144.5698056657312
 31
0.0
  0
LINE
  5
1BD5
330
DC1
100
AcDbEntity
  8
寸法線
 62
     2
370
    -2
100
AcDbLine
 10
303.557994908871
 20
-10.93019433426877
 30
0.0
 11
246.1880846366422
 21
-10.93019433426876
 31
0.0
  0
LINE
  5
1BD6
330
DC1
100
AcDbEntity
  8
寸法線
 62
     2
370
    -2
100
AcDbLine
 10
247.4380846366422
 20
142.0698056657312
 30
0.0
 11
247.4380846366422
 21
-8.43019433426876
 31
0.0
  0
INSERT
  5
1BD7
330
DC1
100
AcDbEntity
  8
寸法線
 62
     2
370
    -2
100
AcDbBlockReference
  2
_OPEN
 10
247.4380846366422
 20
144.5698056657312
 30
0.0
 41
2.5
 42
2.5
 43
2.5
 50
90.0
  0
INSERT
  5
1BD8
330
DC1
100
AcDbEntity
  8
寸法線
 62
     2
370
    -2
100
AcDbBlockReference
  2
_OPEN
 10
247.4380846366422
 20
-10.93019433426876
 30
0.0
 41
2.5
 42
2.5
 43
2.5
 50
270.0
  0
MTEXT
  5
1BD9
330
DC1
100
AcDbEntity
  8
寸法線
 62
     6
100
AcDbMText
 10
245.5630846366422
 20
66.81980566573127
 30
0.0
 40
2.5
 41
0.0
 71
     5
 72
     1
  1
\A1;155.5
  7
STYLE3
 11
0.0000000000000001
 21
1.0
 31
0.0
 73
     1
 44
1.0
  0
POINT
  5
1BDA
330
DC1
100
AcDbEntity
  8
DEFPOINTS
 62
     0
100
AcDbPoint
 10
303.557994908871
 20
144.5698056657312
 30
0.0
  0
POINT
  5
1BDB
330
DC1
100
AcDbEntity
  8
DEFPOINTS
 62
     0
100
AcDbPoint
 10
303.557994908871
 20
-10.93019433426877
 30
0.0
  0
POINT
  5
1BDC
330
DC1
100
AcDbEntity
  8
DEFPOINTS
 62
     0
100
AcDbPoint
 10
247.4380846366422
 20
-10.93019433426876
 30
0.0
  0
ENDBLK
  5
DCC
330
DC1
100
AcDbEntity
  8
0
100
AcDbBlockEnd
  0
BLOCK
  5
EFB
330
EF1
100
AcDbEntity
  8
0
100
AcDbBlockBegin
  2
*D26
 70
     1
 10
0.0
 20
0.0
 30
0.0
  3
*D26
  1

  0
LINE
  5
1BDD
330
EF1
100
AcDbEntity
  8
寸法線
 62
     2
370
    -2
100
AcDbLine
 10
298.5579949088711
 20
127.5698056657312
 30
0.0
 11
265.1157062567637
 21
127.5698056657312
 31
0.0
  0
LINE
  5
1BDE
330
EF1
100
AcDbEntity
  8
寸法線
 62
     2
370
    -2
100
AcDbLine
 10
267.6390329568169
 20
80.56980566573122
 30
0.0
 11
265.1157062567637
 21
80.56980566573122
 31
0.0
  0
LINE
  5
1BDF
330
EF1
100
AcDbEntity
  8
寸法線
 62
     2
370
    -2
100
AcDbLine
 10
266.3657062567637
 20
125.0698056657312
 30
0.0
 11
266.3657062567637
 21
83.06980566573122
 31
0.0
  0
INSERT
  5
1BE0
330
EF1
100
AcDbEntity
  8
寸法線
 62
     2
370
    -2
100
AcDbBlockReference
  2
_OPEN
 10
266.3657062567637
 20
127.5698056657312
 30
0.0
 41
2.5
 42
2.5
 43
2.5
 50
90.0
  0
INSERT
  5
1BE1
330
EF1
100
AcDbEntity
  8
寸法線
 62
     2
370
    -2
100
AcDbBlockReference
  2
_OPEN
 10
266.3657062567637
 20
80.56980566573122
 30
0.0
 41
2.5
 42
2.5
 43
2.5
 50
270.0
  0
MTEXT
  5
1BE2
330
EF1
100
AcDbEntity
  8
寸法線
 62
     6
100
AcDbMText
 10
264.4907062567637
 20
104.0698056657312
 30
0.0
 40
2.5
 41
0.0
 71
     5
 72
     1
  1
\A1;47
  7
STYLE3
 11
0.0000000000000001
 21
1.0
 31
0.0
 73
     1
 44
1.0
  0
POINT
  5
1BE3
330
EF1
100
AcDbEntity
  8
DEFPOINTS
 62
     0
100
AcDbPoint
 10
298.5579949088711
 20
127.5698056657312
 30
0.0
  0
POINT
  5
1BE4
330
EF1
100
AcDbEntity
  8
DEFPOINTS
 62
     0
100
AcDbPoint
 10
267.6390329568169
 20
80.56980566573122
 30
0.0
  0
POINT
  5
1BE5
330
EF1
100
AcDbEntity
  8
DEFPOINTS
 62
     0
100
AcDbPoint
 10
266.3657062567637
 20
80.56980566573122
 30
0.0
  0
ENDBLK
  5
EFC
330
EF1
100
AcDbEntity
  8
0
100
AcDbBlockEnd
  0
BLOCK
  5
F08
330
EFE
100
AcDbEntity
  8
0
100
AcDbBlockBegin
  2
*D27
 70
     1
 10
0.0
 20
0.0
 30
0.0
  3
*D27
  1

  0
LINE
  5
1C3A
330
EFE
100
AcDbEntity
  8
寸法線
 62
     2
370
    -2
100
AcDbLine
 10
297.5579949088711
 20
117.8187759263313
 30
0.0
 11
297.5579949088711
 21
119.1818432248893
 31
0.0
  0
LINE
  5
1C3B
330
EFE
100
AcDbEntity
  8
寸法線
 62
     2
370
    -2
100
AcDbLine
 10
309.557994908871
 20
117.8187759263313
 30
0.0
 11
309.557994908871
 21
119.1818432248893
 31
0.0
  0
LINE
  5
1C3C
330
EFE
100
AcDbEntity
  8
寸法線
 62
     2
370
    -2
100
AcDbLine
 10
300.057994908871
 20
117.9318432248893
 30
0.0
 11
307.057994908871
 21
117.9318432248893
 31
0.0
  0
INSERT
  5
1C3D
330
EFE
100
AcDbEntity
  8
寸法線
 62
     2
370
    -2
100
AcDbBlockReference
  2
_OPEN
 10
297.5579949088711
 20
117.9318432248893
 30
0.0
 41
2.5
 42
2.5
 43
2.5
 50
180.0
  0
INSERT
  5
1C3E
330
EFE
100
AcDbEntity
  8
寸法線
 62
     2
370
    -2
100
AcDbBlockReference
  2
_OPEN
 10
309.557994908871
 20
117.9318432248893
 30
0.0
 41
2.5
 42
2.5
 43
2.5
  0
MTEXT
  5
1C3F
330
EFE
100
AcDbEntity
  8
寸法線
 62
     6
100
AcDbMText
 10
303.878859258638
 20
120.3818432248893
 30
0.0
 40
2.5
 41
0.0
 71
     5
 72
     1
  1
\A1;%%C12
  7
STYLE3
 73
     1
 44
1.0
  0
POINT
  5
1C40
330
EFE
100
AcDbEntity
  8
DEFPOINTS
 62
     0
100
AcDbPoint
 10
297.5579949088711
 20
117.8187759263313
 30
0.0
  0
POINT
  5
1C41
330
EFE
100
AcDbEntity
  8
DEFPOINTS
 62
     0
100
AcDbPoint
 10
309.557994908871
 20
117.8187759263313
 30
0.0
  0
POINT
  5
1C42
330
EFE
100
AcDbEntity
  8
DEFPOINTS
 62
     0
100
AcDbPoint
 10
309.557994908871
 20
117.9318432248893
 30
0.0
  0
ENDBLK
  5
F09
330
EFE
100
AcDbEntity
  8
0
100
AcDbBlockEnd
  0
ENDSEC
  0
SECTION
  2
ENTITIES
  0
TEXT
  5
605
330
18
100
AcDbEntity
  8
文字
100
AcDbText
 10
298.6709889711055
 20
99.91302523654292
 30
0.0
 40
2.0
  1
DG-257
 51
10.0
  7
STYLE3
100
AcDbText
  0
LWPOLYLINE
  5
B52
330
18
100
AcDbEntity
  8
C
100
AcDbPolyline
 90
        5
 70
     0
 43
0.4
 10
235.1929188861723
 20
157.6159433241645
 10
490.1929188861722
 20
157.6159433241645
 10
490.1929188861722
 20
-37.38405667583544
 10
235.1929188861723
 20
-37.38405667583544
 10
235.1929188861723
 20
157.6159433241645
  0
LINE
  5
B92
330
18
100
AcDbEntity
  8
中心線
100
AcDbLine
 10
267.6390329568169
 20
80.56980566573122
 30
0.0
 11
337.9189124462325
 21
80.56980566573122
 31
0.0
  0
LINE
  5
B93
330
18
100
AcDbEntity
  8
中心線
100
AcDbLine
 10
303.557994908871
 20
146.7405446503991
 30
0.0
 11
303.557994908871
 21
-13.15748918253496
 31
0.0
  0
CIRCLE
  5
B94
330
18
100
AcDbEntity
  8
外形線
100
AcDbCircle
 10
303.557994908871
 20
80.56980566573122
 30
0.0
 40
30.0
  0
LINE
  5
B95
330
18
100
AcDbEntity
  8
中心線
100
AcDbLine
 10
379.9106291517279
 20
148.1440802217546
 30
0.0
 11
379.910629151728
 21
-13.15748918253493
 31
0.0
  0
LINE
  5
B96
330
18
100
AcDbEntity
  8
中心線
100
AcDbLine
 10
351.7629779161672
 20
80.56980566573122
 30
0.0
 11
393.1820267236148
 21
80.56980566573122
 31
0.0
  0
LINE
  5
B97
330
18
100
AcDbEntity
  8
外形線
100
AcDbLine
 10
373.410629151728
 20
109.9698056657312
 30
0.0
 11
389.4106291517279
 21
109.9698056657311
 31
0.0
  0
LINE
  5
B98
330
18
100
AcDbEntity
  8
外形線
100
AcDbLine
 10
373.4106291517279
 20
51.16980566573118
 30
0.0
 11
389.410629151728
 21
51.16980566573125
 31
0.0
  0
LINE
  5
B99
330
18
100
AcDbEntity
  8
外形線
100
AcDbLine
 10
389.4106291517279
 20
109.9698056657311
 30
0.0
 11
389.410629151728
 21
51.16980566573125
 31
0.0
  0
LINE
  5
B9A
330
18
100
AcDbEntity
  8
外形線
100
AcDbLine
 10
358.4106291517279
 20
110.5698056657312
 30
0.0
 11
358.4106291517279
 21
50.56980566573122
 31
0.0
  0
LINE
  5
B9B
330
18
100
AcDbEntity
  8
外形線
100
AcDbLine
 10
387.9106291517279
 20
109.9698056657311
 30
0.0
 11
387.910629151728
 21
51.16980566573125
 31
0.0
  0
LINE
  5
B9C
330
18
100
AcDbEntity
  8
外形線
100
AcDbLine
 10
386.9106291517279
 20
109.9698056657311
 30
0.0
 11
386.910629151728
 21
51.16980566573125
 31
0.0
  0
LINE
  5
B9D
330
18
100
AcDbEntity
  8
外形線
100
AcDbLine
 10
371.410629151728
 20
111.5698056657312
 30
0.0
 11
371.410629151728
 21
107.0698056657312
 31
0.0
  0
LINE
  5
B9E
330
18
100
AcDbEntity
  8
外形線
100
AcDbLine
 10
365.9106291517279
 20
111.5698056657312
 30
0.0
 11
365.910629151728
 21
107.0698056657312
 31
0.0
  0
LINE
  5
B9F
330
18
100
AcDbEntity
  8
外形線
100
AcDbLine
 10
358.4106291517279
 20
110.5698056657312
 30
0.0
 11
365.9106291517279
 21
110.5698056657312
 31
0.0
  0
LINE
  5
BA0
330
18
100
AcDbEntity
  8
外形線
100
AcDbLine
 10
358.410629151728
 20
50.56980566573122
 30
0.0
 11
371.4106291517281
 21
50.56980566573122
 31
0.0
  0
LINE
  5
BA1
330
18
100
AcDbEntity
  8
外形線
100
AcDbLine
 10
365.9106291517279
 20
111.5698056657312
 30
0.0
 11
371.410629151728
 21
111.5698056657312
 31
0.0
  0
LINE
  5
BA2
330
18
100
AcDbEntity
  8
外形線
100
AcDbLine
 10
365.9106291517279
 20
108.0698056657312
 30
0.0
 11
371.410629151728
 21
108.0698056657312
 31
0.0
  0
LINE
  5
BA3
330
18
100
AcDbEntity
  8
外形線
100
AcDbLine
 10
365.910629151728
 20
107.0698056657312
 30
0.0
 11
371.410629151728
 21
107.0698056657312
 31
0.0
  0
LINE
  5
BA4
330
18
100
AcDbEntity
  8
外形線
100
AcDbLine
 10
371.410629151728
 20
107.0698056657312
 30
0.0
 11
371.410629151728
 21
50.56980566573116
 31
0.0
  0
LINE
  5
BA5
330
18
100
AcDbEntity
  8
外形線
100
AcDbLine
 10
370.4106291517281
 20
53.06980566573122
 30
0.0
 11
370.410629151728
 21
50.56980566573116
 31
0.0
  0
LINE
  5
BA6
330
18
100
AcDbEntity
  8
外形線
100
AcDbLine
 10
364.910629151728
 20
53.06980566573116
 30
0.0
 11
364.910629151728
 21
50.56980566573116
 31
0.0
  0
LINE
  5
BA7
330
18
100
AcDbEntity
  8
外形線
100
AcDbLine
 10
364.910629151728
 20
53.06980566573116
 30
0.0
 11
370.4106291517281
 21
53.06980566573122
 31
0.0
  0
LINE
  5
BA8
330
18
100
AcDbEntity
  8
外形線
100
AcDbLine
 10
357.4106291517279
 20
80.56980566573122
 30
0.0
 11
357.4106291517279
 21
69.06980566573122
 31
0.0
  0
LINE
  5
BA9
330
18
100
AcDbEntity
  8
外形線
100
AcDbLine
 10
355.8106291517279
 20
69.06980566573122
 30
0.0
 11
357.4106291517279
 21
69.06980566573122
 31
0.0
  0
ARC
  5
BAA
330
18
100
AcDbEntity
  8
外形線
100
AcDbCircle
 10
537.0278833920544
 20
85.08061232353282
 30
0.0
 40
181.9206400838717
100
AcDbArc
 50
185.0491250177045
 51
187.1079812663745
  0
LINE
  5
BAB
330
18
100
AcDbEntity
  8
外形線
100
AcDbLine
 10
355.8131672162094
 20
62.56980566573123
 30
0.0
 11
356.8131672162093
 21
62.56980566573123
 31
0.0
  0
LINE
  5
BAC
330
18
100
AcDbEntity
  8
外形線
100
AcDbLine
 10
355.8131672162093
 20
58.56980566573122
 30
0.0
 11
357.8131672162093
 21
58.56980566573122
 31
0.0
  0
LINE
  5
BAD
330
18
100
AcDbEntity
  8
外形線
100
AcDbLine
 10
357.4106291517279
 20
80.56980566573122
 30
0.0
 11
358.4106291517279
 21
80.56980566573122
 31
0.0
  0
LINE
  5
BAE
330
18
100
AcDbEntity
  8
外形線
100
AcDbLine
 10
355.8131672162093
 20
62.56980566573123
 30
0.0
 11
355.8131672162093
 21
58.56980566573122
 31
0.0
  0
LINE
  5
BAF
330
18
100
AcDbEntity
  8
外形線
100
AcDbLine
 10
356.8131672162093
 20
62.56980566573123
 30
0.0
 11
357.8131672162093
 21
58.56980566573122
 31
0.0
  0
ARC
  5
BB0
330
18
100
AcDbEntity
  8
外形線
100
AcDbCircle
 10
537.0278833920544
 20
85.08061232353282
 30
0.0
 40
181.9206400838717
100
AcDbArc
 50
188.379398725257
 51
190.9354250164128
  0
LINE
  5
BB1
330
18
100
AcDbEntity
  8
外形線
100
AcDbLine
 10
373.410629151728
 20
109.9698056657312
 30
0.0
 11
373.4106291517279
 21
51.16980566573118
 31
0.0
  0
LINE
  5
BB2
330
18
100
AcDbEntity
  8
外形線
100
AcDbLine
 10
371.4106291517281
 20
50.56980566573122
 30
0.0
 11
373.4106291517279
 21
51.16980566573118
 31
0.0
  0
LINE
  5
BCB
330
18
100
AcDbEntity
  8
外形線
 62
     2
100
AcDbLine
 10
298.557994908871
 20
135.4698056657313
 30
0.0
 11
298.557994908871
 21
150.2704523745865
 31
0.0
  0
LINE
  5
BCC
330
18
100
AcDbEntity
  8
外形線
 62
     2
100
AcDbLine
 10
308.557994908871
 20
135.4698056657312
 30
0.0
 11
308.557994908871
 21
150.2704523745865
 31
0.0
  0
LINE
  5
BCD
330
18
100
AcDbEntity
  8
外形線
 62
     2
100
AcDbLine
 10
301.057994908871
 20
149.0204523745865
 30
0.0
 11
306.057994908871
 21
149.0204523745865
 31
0.0
  0
INSERT
  5
BCE
330
18
100
AcDbEntity
  8
外形線
 62
     2
100
AcDbBlockReference
  2
_OPEN
 10
298.557994908871
 20
149.0204523745865
 30
0.0
 41
2.5
 42
2.5
 43
2.5
 50
180.0
  0
INSERT
  5
BCF
330
18
100
AcDbEntity
  8
外形線
 62
     2
100
AcDbBlockReference
  2
_OPEN
 10
308.557994908871
 20
149.0204523745865
 30
0.0
 41
2.5
 42
2.5
 43
2.5
  0
MTEXT
  5
BD0
330
18
100
AcDbEntity
  8
外形線
 62
     6
100
AcDbMText
 10
303.557994908871
 20
150.8954523745865
 30
0.0
 40
2.5
 41
0.0
 71
     5
 72
     1
  1
%%C10
  7
STYLE3
 73
     1
 44
1.0
  0
DIMENSION
  5
BD1
330
18
100
AcDbEntity
  8
外形線
100
AcDbDimension
  2
*D13
 10
402.3014989898767
 20
51.16980566573124
 30
0.0
 11
400.4264989898766
 21
80.56980566573125
 31
0.0
 70
    32
  1
%%C<>
 71
     5
 42
58.7999999999999
  3
STYLE3
100
AcDbAlignedDimension
 13
389.4106291517279
 23
109.9698056657311
 33
0.0
 14
389.410629151728
 24
51.16980566573125
 34
0.0
 50
90.0
100
AcDbRotatedDimension
1001
ACAD
1000
DSTYLE
1002
{
1070
   271
1070
     2
1002
}
  0
DIMENSION
  5
BD2
330
18
100
AcDbEntity
  8
外形線
100
AcDbDimension
  2
*D14
 10
349.5855891698826
 20
50.56980566573122
 30
0.0
 11
347.7105891698826
 21
80.56980566573127
 31
0.0
 70
    32
  1
%%C60
 71
     5
 42
59.99999999999995
  3
STYLE3
100
AcDbAlignedDimension
 13
358.4106291517279
 23
110.5698056657312
 33
0.0
 14
358.4106291517279
 24
50.56980566573122
 34
0.0
 50
90.0
100
AcDbRotatedDimension
1001
ACAD
1000
DSTYLE
1002
{
1070
   271
1070
     2
1002
}
  0
DIMENSION
  5
BD3
330
18
100
AcDbEntity
  8
外形線
100
AcDbDimension
  2
*D15
 10
379.9106291517279
 20
19.19360730906294
 30
0.0
 11
367.8618981839686
 21
21.06860730906294
 31
0.0
 70
    32
 71
     5
 42
24.0974619355186
  3
STYLE3
100
AcDbAlignedDimension
 13
355.8131672162093
 23
58.56980566573122
 33
0.0
 14
379.9106291517279
 24
19.57979526143438
 34
0.0
100
AcDbRotatedDimension
1001
ACAD
1000
DSTYLE
1002
{
1070
   271
1070
     2
1002
}
  0
LINE
  5
BD4
330
18
100
AcDbEntity
  8
外形線
 62
     2
100
AcDbLine
 10
358.4106291517279
 20
103.132334062184
 30
0.0
 11
358.4106291517279
 21
151.2973918750878
 31
0.0
  0
LINE
  5
BD5
330
18
100
AcDbEntity
  8
外形線
 62
     2
100
AcDbLine
 10
389.410629151728
 20
102.5323340621839
 30
0.0
 11
389.4106291517279
 21
151.2973918750878
 31
0.0
  0
LINE
  5
BD6
330
18
100
AcDbEntity
  8
外形線
 62
     2
100
AcDbLine
 10
360.9106291517279
 20
150.0473918750877
 30
0.0
 11
386.9106291517279
 21
150.0473918750877
 31
0.0
  0
INSERT
  5
BD7
330
18
100
AcDbEntity
  8
外形線
 62
     2
100
AcDbBlockReference
  2
_OPEN
 10
358.4106291517279
 20
150.0473918750877
 30
0.0
 41
2.5
 42
2.5
 43
2.5
 50
180.0
  0
INSERT
  5
BD8
330
18
100
AcDbEntity
  8
外形線
 62
     2
100
AcDbBlockReference
  2
_OPEN
 10
389.4106291517279
 20
150.0473918750877
 30
0.0
 41
2.5
 42
2.5
 43
2.5
  0
MTEXT
  5
BD9
330
18
100
AcDbEntity
  8
外形線
 62
     6
100
AcDbMText
 10
373.9106291517279
 20
151.9223918750878
 30
0.0
 40
2.5
 41
0.0
 71
     5
 72
     1
  1
\A1;31
  7
STYLE3
 73
     1
 44
1.0
  0
DIMENSION
  5
BDA
330
18
100
AcDbEntity
  8
外形線
100
AcDbDimension
  2
*D16
 10
379.9106291517279
 20
120.2323625659173
 30
0.0
 11
369.1606291517279
 21
122.1073625659173
 31
0.0
 70
    32
 71
     5
 42
21.5
  3
STYLE3
100
AcDbAlignedDimension
 13
358.4106291517279
 23
109.3708309549799
 33
0.0
 14
379.9106291517279
 24
116.855404299143
 34
0.0
100
AcDbRotatedDimension
1001
ACAD
1000
DSTYLE
1002
{
1070
   271
1070
     2
1002
}
  0
DIMENSION
  5
BDB
330
18
100
AcDbEntity
  8
外形線
100
AcDbDimension
  2
*D17
 10
389.4106291517279
 20
120.2323625659173
 30
0.0
 11
393.1655934737441
 21
120.2581676020557
 31
0.0
 70
   160
 71
     5
 42
9.5
  3
STYLE3
100
AcDbAlignedDimension
 13
379.9106291517279
 23
116.855404299143
 33
0.0
 14
389.4106291517279
 24
116.4911683696473
 34
0.0
100
AcDbRotatedDimension
1001
ACAD
1000
DSTYLE
1002
{
1070
    75
1070
     1
1070
   271
1070
     2
1070
   279
1070
     1
1002
}
  0
LINE
  5
BDC
330
18
100
AcDbEntity
  8
外形線
100
AcDbLine
 10
373.410629151728
 20
109.9698056657312
 30
0.0
 11
371.410629151728
 21
110.5698056657312
 31
0.0
  0
DIMENSION
  5
BFB
330
18
100
AcDbEntity
  8
文字
100
AcDbDimension
  2
*D18
 10
305.557994908871
 20
17.28793643998662
 30
0.0
 11
313.5044234802996
 21
19.16293643998662
 31
0.0
 70
    32
  1
φ4
 71
     5
 42
4.0
  3
STYLE3
100
AcDbAlignedDimension
 13
301.557994908871
 23
19.15476222115953
 33
0.0
 14
305.557994908871
 24
18.64562783448497
 34
0.0
100
AcDbRotatedDimension
1001
ACAD
1000
DSTYLE
1002
{
1070
   271
1070
     2
1002
}
  0
TEXT
  5
C0A
330
18
100
AcDbEntity
  8
文字
100
AcDbText
 10
318.6297386763463
 20
38.20222843029416
 30
0.0
 40
1.5
  1
-0.03
  7
STYLE3
100
AcDbText
  0
DIMENSION
  5
C0B
330
18
100
AcDbEntity
  8
外形線
100
AcDbDimension
  2
*D19
 10
307.557994908871
 20
37.07384661344503
 30
0.0
 11
314.432994908871
 21
38.94884661344503
 31
0.0
 70
    32
  1
%%C8.0
 71
     5
 42
8.0
  3
STYLE3
100
AcDbAlignedDimension
 13
299.557994908871
 23
37.31280881242287
 33
0.0
 14
307.557994908871
 24
37.19332771293398
 34
0.0
100
AcDbRotatedDimension
1001
ACAD
1000
DSTYLE
1002
{
1070
   271
1070
     2
1002
}
  0
TEXT
  5
C0C
330
18
100
AcDbEntity
  8
文字
100
AcDbText
 10
320.5163881980146
 20
40.06417882342702
 30
0.0
 40
1.5
  1
0
  7
STYLE3
100
AcDbText
  0
LINE
  5
C10
330
18
100
AcDbEntity
  8
外形線
100
AcDbLine
 10
307.557994908871
 20
45.46980566573125
 30
0.0
 11
307.557994908871
 21
29.2698056657313
 31
0.0
  0
LINE
  5
C11
330
18
100
AcDbEntity
  8
外形線
100
AcDbLine
 10
299.557994908871
 20
45.46980566573125
 30
0.0
 11
299.5579949088709
 21
29.2698056657313
 31
0.0
  0
LINE
  5
C12
330
18
100
AcDbEntity
  8
外形線
100
AcDbLine
 10
325.557994908871
 20
90.56980566573122
 30
0.0
 11
325.557994908871
 21
70.56980566573122
 31
0.0
  0
LINE
  5
C13
330
18
100
AcDbEntity
  8
外形線
100
AcDbLine
 10
281.557994908871
 20
90.56980566573122
 30
0.0
 11
281.5579949088709
 21
70.56980566573122
 31
0.0
  0
ARC
  5
C14
330
18
100
AcDbEntity
  8
外形線
100
AcDbCircle
 10
324.057994908871
 20
70.56980566573122
 30
0.0
 40
1.5
100
AcDbArc
 50
270.0
 51
0.0
  0
LINE
  5
C15
330
18
100
AcDbEntity
  8
外形線
100
AcDbLine
 10
307.307994908871
 20
26.46980566573134
 30
0.0
 11
307.307994908871
 21
29.2698056657313
 31
0.0
  0
LINE
  5
C16
330
18
100
AcDbEntity
  8
外形線
100
AcDbLine
 10
299.807994908871
 20
26.46980566573123
 30
0.0
 11
299.807994908871
 21
29.2698056657313
 31
0.0
  0
LINE
  5
C17
330
18
100
AcDbEntity
  8
外形線
100
AcDbLine
 10
299.807994908871
 20
24.96980566573129
 30
0.0
 11
307.307994908871
 21
24.96980566573129
 31
0.0
  0
LINE
  5
C18
330
18
100
AcDbEntity
  8
外形線
100
AcDbLine
 10
299.807994908871
 20
26.46980566573123
 30
0.0
 11
307.307994908871
 21
26.46980566573134
 31
0.0
  0
LINE
  5
C19
330
18
100
AcDbEntity
  8
外形線
100
AcDbLine
 10
299.807994908871
 20
24.46980566573129
 30
0.0
 11
307.307994908871
 21
24.46980566573129
 31
0.0
  0
LINE
  5
C1A
330
18
100
AcDbEntity
  8
外形線
100
AcDbLine
 10
299.807994908871
 20
24.96980566573129
 30
0.0
 11
299.807994908871
 21
24.46980566573129
 31
0.0
  0
LINE
  5
C1B
330
18
100
AcDbEntity
  8
外形線
100
AcDbLine
 10
300.557994908871
 20
26.46980566573129
 30
0.0
 11
300.557994908871
 21
24.96980566573129
 31
0.0
  0
LINE
  5
C1C
330
18
100
AcDbEntity
  8
外形線
100
AcDbLine
 10
307.307994908871
 20
24.96980566573129
 30
0.0
 11
307.307994908871
 21
24.46980566573129
 31
0.0
  0
LINE
  5
C1D
330
18
100
AcDbEntity
  8
外形線
100
AcDbLine
 10
306.557994908871
 20
26.46980566573129
 30
0.0
 11
306.557994908871
 21
24.96980566573129
 31
0.0
  0
TEXT
  5
C1E
330
18
100
AcDbEntity
  8
寸法線
100
AcDbText
 10
293.6166627685386
 20
65.68029826288409
 30
0.0
 40
1.199999999999999
  1
MODE
  7
STYLE4
100
AcDbText
  0
LINE
  5
C1F
330
18
100
AcDbEntity
  8
外形線
100
AcDbLine
 10
283.0579949088709
 20
69.06980566573122
 30
0.0
 11
324.057994908871
 21
69.06980566573122
 31
0.0
  0
LINE
  5
C20
330
18
100
AcDbEntity
  8
外形線
100
AcDbLine
 10
299.5579949088709
 20
29.2698056657313
 30
0.0
 11
307.557994908871
 21
29.2698056657313
 31
0.0
  0
LINE
  5
C21
330
18
100
AcDbEntity
  8
外形線
100
AcDbLine
 10
298.557994908871
 20
45.4698056657312
 30
0.0
 11
308.557994908871
 21
45.46980566573131
 31
0.0
  0
POINT
  5
C22
330
18
100
AcDbEntity
  8
DEFPOINTS
  6
ByBlock
 62
     0
100
AcDbPoint
 10
297.5579949088711
 20
49.56980566573122
 30
0.0
  0
LINE
  5
C23
330
18
100
AcDbEntity
  8
外形線
100
AcDbLine
 10
297.5579949088711
 20
51.1759287523331
 30
0.0
 11
297.5579949088711
 21
47.4698056657312
 31
0.0
  0
ARC
  5
C24
330
18
100
AcDbEntity
  8
外形線
100
AcDbCircle
 10
283.0579949088709
 20
70.56980566573122
 30
0.0
 40
1.5
100
AcDbArc
 50
180.0
 51
270.0
  0
LINE
  5
C25
330
18
100
AcDbEntity
  8
外形線
100
AcDbLine
 10
309.557994908871
 20
51.1759287523331
 30
0.0
 11
309.557994908871
 21
47.46980566573131
 31
0.0
  0
TEXT
  5
C26
330
18
100
AcDbEntity
  8
寸法線
100
AcDbText
 10
307.8223503287258
 20
65.68029826288409
 30
0.0
 40
1.199999999999999
  1
ON/OFF
  7
STYLE4
100
AcDbText
  0
LINE
  5
C27
330
18
100
AcDbEntity
  8
外形線
100
AcDbLine
 10
274.557994908871
 20
80.56980566573122
 30
0.0
 11
281.557994908871
 21
80.56980566573122
 31
0.0
  0
ARC
  5
C28
330
18
100
AcDbEntity
  8
外形線
100
AcDbCircle
 10
303.557994908871
 20
80.56980566573122
 30
0.0
 40
29.0
100
AcDbArc
 50
0.0
 51
180.0
  0
ARC
  5
C29
330
18
100
AcDbEntity
  8
外形線
100
AcDbCircle
 10
324.057994908871
 20
90.56980566573122
 30
0.0
 40
1.5
100
AcDbArc
 50
0.0
 51
90.0
  0
LINE
  5
C2A
330
18
100
AcDbEntity
  8
外形線
100
AcDbLine
 10
309.557994908871
 20
126.5698056657313
 30
0.0
 11
309.557994908871
 21
110.9836183172223
 31
0.0
  0
LINE
  5
C2B
330
18
100
AcDbEntity
  8
外形線
100
AcDbLine
 10
297.5579949088711
 20
126.5698056657311
 30
0.0
 11
297.5579949088711
 21
110.9836183172223
 31
0.0
  0
LINE
  5
C2C
102
{ACAD_REACTORS
330
C30
102
}
330
18
100
AcDbEntity
  8
ROGO
 62
     4
100
AcDbLine
 10
298.769593299867
 20
97.32596521167318
 30
0.0
 11
299.9697618427187
 21
97.32596521167318
 31
0.0
  0
LINE
  5
C2D
102
{ACAD_REACTORS
330
C30
102
}
330
18
100
AcDbEntity
  8
ROGO
 62
     4
100
AcDbLine
 10
298.6199749263401
 20
97.02357801329355
 30
0.0
 11
299.8201434691917
 21
97.02357801329355
 31
0.0
  0
LINE
  5
C2E
102
{ACAD_REACTORS
330
C30
102
}
330
18
100
AcDbEntity
  8
ROGO
 62
     4
100
AcDbLine
 10
298.4665553005381
 20
96.71350826898914
 30
0.0
 11
299.6667238433897
 21
96.71350826898924
 31
0.0
  0
LINE
  5
C2F
102
{ACAD_REACTORS
330
C30
102
}
330
18
100
AcDbEntity
  8
ROGO
 62
     4
100
AcDbLine
 10
297.8775846177553
 20
97.7127110654202
 30
0.0
 11
300.1611200943774
 21
97.7127110654203
 31
0.0
  0
HATCH
  5
C30
330
18
100
AcDbEntity
  8
ROGO
 62
     4
100
AcDbHatch
 10
0.0
 20
0.0
 30
0.0
210
0.0
220
0.0
230
1.0
  2
SOLID
 70
     1
 71
     1
 91
        1
 92
        1
 93
       12
 72
     1
 10
297.8775846177553
 20
97.7127110654202
 11
300.1611200943774
 21
97.7127110654203
 72
     1
 10
300.1611200943774
 20
97.7127110654202
 11
299.9697618427187
 21
97.32596521167318
 72
     1
 10
299.9697618427187
 20
97.32596521167318
 11
298.769593299867
 21
97.32596521167318
 72
     1
 10
298.769593299867
 20
97.32596521167318
 11
298.6199749263401
 21
97.02357801329355
 72
     1
 10
298.6199749263401
 20
97.02357801329355
 11
299.8201434691917
 21
97.02357801329355
 72
     1
 10
299.8201434691917
 20
97.02357801329355
 11
299.6667238433897
 21
96.71350826898914
 72
     1
 10
299.6667238433897
 20
96.71350826898924
 11
298.4665553005381
 21
96.71350826898914
 72
     1
 10
298.4665553005381
 20
96.71350826898914
 11
298.3169305928884
 21
96.41110826898909
 72
     1
 10
298.3169305928884
 20
96.41110826898909
 11
299.5170991357401
 21
96.41110826898909
 72
     1
 10
299.5170991357401
 20
96.41110826898909
 11
299.3257505096144
 21
96.02438186898917
 72
     1
 10
299.3257505096144
 20
96.02438186898917
 11
297.0422150329923
 21
96.02438186898917
 72
     1
 10
297.0422150329923
 20
96.02438186898917
 11
297.8775846177553
 21
97.7127110654202
 97
       12
330
C2F
330
C58
330
C2C
330
C3C
330
C2D
330
C61
330
C2E
330
C3F
330
C3D
330
C3E
330
C46
330
C3A
 75
     0
 76
     1
 98
        1
 10
204.4702759308437
 20
-19.0276981392943
450
        0
451
        0
460
0.0
461
0.0
452
        0
462
0.0
453
        0
470

  0
LINE
  5
C32
102
{ACAD_REACTORS
330
C39
330
C57
102
}
330
18
100
AcDbEntity
  8
ROGO
 62
     4
100
AcDbLine
 10
293.2742481011052
 20
95.07458119911246
 30
0.0
 11
311.1317617301357
 21
95.07458119911246
 31
0.0
  0
LINE
  5
C33
330
18
100
AcDbEntity
  8
ROGO
 62
     4
100
AcDbLine
 10
294.6018619439588
 20
95.33901432148695
 30
0.0
 11
310.2915089564125
 21
95.33901432148695
 31
0.0
  0
HATCH
  5
C34
330
18
100
AcDbEntity
  8
ROGO
 62
     4
100
AcDbHatch
 10
0.0
 20
0.0
 30
0.0
210
0.0
220
0.0
230
1.0
  2
SOLID
 70
     1
 71
     0
 91
        1
 92
        7
 72
     0
 73
     1
 93
        4
 10
294.6202006614232
 20
95.33901432148695
 10
294.5005636158807
 20
95.07458119911246
 10
310.1596540612018
 20
95.07458119911246
 10
310.2915089564125
 20
95.33901432148695
 97
        0
 75
     0
 76
     1
 47
0.0514683685270805
 98
        1
 10
304.5153602825653
 20
95.26907601036658
450
        0
451
        0
460
0.0
461
0.0
452
        0
462
0.0
453
        0
470

  0
ARC
  5
C35
330
18
100
AcDbEntity
  8
外形線
100
AcDbCircle
 10
303.557994908871
 20
80.56980566573122
 30
0.0
 40
31.0
100
AcDbArc
 50
69.21644040415324
 51
110.7835595958467
  0
LINE
  5
C36
330
18
100
AcDbEntity
  8
外形線
100
AcDbLine
 10
283.057994908871
 20
92.06980566573122
 30
0.0
 11
324.057994908871
 21
92.06980566573122
 31
0.0
  0
LINE
  5
C37
102
{ACAD_REACTORS
330
C39
102
}
330
18
100
AcDbEntity
  8
ROGO
 62
     4
100
AcDbLine
 10
294.5795702240815
 20
97.7127110654202
 30
0.0
 11
293.2742481011052
 21
95.07458119911246
 31
0.0
  0
SPLINE
  5
C38
102
{ACAD_REACTORS
330
C39
102
}
330
18
100
AcDbEntity
  8
ROGO
 62
     4
100
AcDbSpline
210
0.0
220
0.0
230
1.0
 70
     8
 71
     3
 72
    18
 73
    14
 74
     0
 42
0.0000000001
 43
0.0000000001
 40
0.1087402787915014
 40
0.1087402787915014
 40
0.1087402787915014
 40
0.1087402787915014
 40
0.5992371417938475
 40
1.083176791562496
 40
1.448211145705696
 40
1.714037220764907
 40
2.164002567013297
 40
2.740236056362883
 40
3.395137510199602
 40
4.071816045172726
 40
4.784906178399433
 40
5.506895915094292
 40
6.060470601257719
 40
6.060470601257719
 40
6.060470601257719
 40
6.060470601257719
 10
296.6527823407766
 20
97.7127110654203
 30
0.0
 10
296.7192017463087
 20
97.6883694663303
 30
0.0
 10
296.8498148221165
 20
97.6369076060679
 30
0.0
 10
297.0092244106771
 20
97.51945463633603
 30
0.0
 10
297.0961595171518
 20
97.38386477997108
 30
0.0
 10
297.1797813567071
 20
97.25026525415319
 30
0.0
 10
297.1914840805069
 20
97.0585941388091
 30
0.0
 10
297.1723142283035
 20
96.81627539307408
 30
0.0
 10
297.0485553943199
 20
96.56344078769031
 30
0.0
 10
296.8499151869296
 20
96.34230174808795
 30
0.0
 10
296.6032895072385
 20
96.1653049447915
 30
0.0
 10
296.3432142211006
 20
96.02636701215454
 30
0.0
 10
296.1573123334604
 20
96.0249826570863
 30
0.0
 10
296.0766338688815
 20
96.02438186898917
 30
0.0
  0
HATCH
  5
C39
330
18
100
AcDbEntity
  8
ROGO
 62
     4
100
AcDbHatch
 10
0.0
 20
0.0
 30
0.0
210
0.0
220
0.0
230
1.0
  2
SOLID
 70
     1
 71
     1
 91
        2
 92
        5
 93
        6
 72
     1
 10
293.2742481011052
 20
95.07458119911246
 11
294.5005636158807
 21
95.07458119911246
 72
     1
 10
294.5005636158807
 20
95.07458119911246
 11
294.9302803812316
 21
96.02438186898917
 72
     1
 10
294.9302803812316
 20
96.02438186898917
 11
296.0766338688814
 21
96.02438186898917
 72
     4
 94
        3
 73
     0
 74
     0
 95
       18
 96
       14
 40
0.108740278791501
 40
0.108740278791501
 40
0.108740278791501
 40
0.108740278791501
 40
0.6623149649549278
 40
1.384304701649787
 40
2.097394834876493
 40
2.774073369849618
 40
3.428974823686337
 40
4.005208313035923
 40
4.455173659284313
 40
4.720999734343524
 40
5.086034088486724
 40
5.569973738255373
 40
6.060470601257719
 40
6.060470601257719
 40
6.060470601257719
 40
6.060470601257719
 10
296.0766338688815
 20
96.02438186898917
 10
296.1573123334604
 20
96.0249826570863
 10
296.3432142211006
 20
96.02636701215454
 10
296.6032895072385
 20
96.1653049447915
 10
296.8499151869296
 20
96.34230174808795
 10
297.0485553943199
 20
96.56344078769031
 10
297.1723142283035
 20
96.81627539307408
 10
297.1914840805069
 20
97.0585941388091
 10
297.1797813567071
 20
97.25026525415319
 10
297.0961595171518
 20
97.38386477997108
 10
297.0092244106771
 20
97.51945463633603
 10
296.8498148221165
 20
97.6369076060679
 10
296.7192017463087
 20
97.6883694663303
 10
296.6527823407766
 20
97.7127110654203
 72
     1
 10
296.6527823407768
 20
97.7127110654202
 11
294.5795702240815
 21
97.71271106542018
 72
     1
 10
294.5795702240815
 20
97.71271106542018
 11
293.2742481011052
 21
95.07458119911246
 97
        6
330
C38
330
C48
330
C37
330
C32
330
C45
330
C40
 92
       20
 93
        4
 72
     1
 10
295.1956061570588
 20
96.61083001329325
 11
295.398746180947
 21
97.05982932243159
 72
     1
 10
295.398746180947
 20
97.05982932243159
 11
295.9207294655008
 21
97.05982932243159
 72
     4
 94
        3
 73
     0
 74
     0
 95
       15
 96
       11
 40
0.0
 40
0.0
 40
0.0
 40
0.0
 40
0.1979620751796092
 40
0.2882218927611821
 40
0.390672794493828
 40
0.4604671121752228
 40
0.570847549457819
 40
0.6369624161317818
 40
0.7503938621545029
 40
0.7882043682941406
 40
0.7882043682941406
 40
0.7882043682941406
 40
0.7882043682941406
 10
295.9207294655008
 20
97.05982932243159
 10
295.9950801820054
 20
97.06016988840046
 10
296.1033307356515
 20
97.0606657337186
 10
296.1625259938348
 20
96.92675948580934
 10
296.1359918566771
 20
96.84054475127545
 10
296.1026362837036
 20
96.75202909009971
 10
296.0436894317206
 20
96.69188136332493
 10
295.9645741222408
 20
96.63394896293432
 10
295.8898063740265
 20
96.62693598645802
 10
295.8411783467759
 20
96.61405120915972
 10
295.829021334144
 20
96.61083001329325
 72
     1
 10
295.8290213341438
 20
96.61083001329314
 11
295.1956061570588
 21
96.61083001329325
 97
        4
330
C41
330
C43
330
C42
330
C44
 75
     0
 76
     1
 47
0.0514683685270805
 98
        2
 10
294.5906512211903
 20
96.89218266370586
 10
294.5906512211903
 20
96.89218266370586
450
        0
451
        0
460
0.0
461
0.0
452
        0
462
0.0
453
        0
470

  0
LINE
  5
C3A
102
{ACAD_REACTORS
330
C30
102
}
330
18
100
AcDbEntity
  8
ROGO
 62
     4
100
AcDbLine
 10
297.8775846177553
 20
97.7127110654202
 30
0.0
 11
297.0422150329923
 21
96.02438186898917
 31
0.0
  0
ARC
  5
C3B
330
18
100
AcDbEntity
  8
外形線
100
AcDbCircle
 10
283.057994908871
 20
90.56980566573122
 30
0.0
 40
1.5
100
AcDbArc
 50
90.0
 51
180.0
  0
LINE
  5
C3C
102
{ACAD_REACTORS
330
C30
102
}
330
18
100
AcDbEntity
  8
ROGO
 62
     4
100
AcDbLine
 10
298.769593299867
 20
97.32596521167318
 30
0.0
 11
298.6199749263401
 21
97.02357801329355
 31
0.0
  0
LINE
  5
C3D
102
{ACAD_REACTORS
330
C30
102
}
330
18
100
AcDbEntity
  8
ROGO
 62
     4
100
AcDbLine
 10
298.3169305928884
 20
96.41110826898909
 30
0.0
 11
299.5170991357401
 21
96.41110826898909
 31
0.0
  0
LINE
  5
C3E
102
{ACAD_REACTORS
330
C30
102
}
330
18
100
AcDbEntity
  8
ROGO
 62
     4
100
AcDbLine
 10
299.5170991357401
 20
96.41110826898909
 30
0.0
 11
299.3257505096144
 21
96.02438186898917
 31
0.0
  0
LINE
  5
C3F
102
{ACAD_REACTORS
330
C30
102
}
330
18
100
AcDbEntity
  8
ROGO
 62
     4
100
AcDbLine
 10
298.4665553005381
 20
96.71350826898914
 30
0.0
 11
298.3169305928884
 21
96.41110826898909
 31
0.0
  0
LINE
  5
C40
102
{ACAD_REACTORS
330
C39
102
}
330
18
100
AcDbEntity
  8
ROGO
 62
     4
100
AcDbLine
 10
296.0766338692788
 20
96.02438186898917
 30
0.0
 11
294.9302803812316
 21
96.02438186898917
 31
0.0
  0
LINE
  5
C41
102
{ACAD_REACTORS
330
C39
102
}
330
18
100
AcDbEntity
  8
ROGO
 62
     4
100
AcDbLine
 10
295.398746180947
 20
97.05982932243159
 30
0.0
 11
295.1956061570588
 21
96.61083001329325
 31
0.0
  0
SPLINE
  5
C42
102
{ACAD_REACTORS
330
C39
102
}
330
18
100
AcDbEntity
  8
ROGO
 62
     4
100
AcDbSpline
210
0.0
220
0.0
230
1.0
 70
     8
 71
     3
 72
    15
 73
    11
 74
     9
 42
0.0000000001
 43
0.0000000001
 44
0.0000000001
 40
0.0
 40
0.0
 40
0.0
 40
0.0
 40
0.1979620751796092
 40
0.2882218927611821
 40
0.390672794493828
 40
0.4604671121752228
 40
0.570847549457819
 40
0.6369624161317818
 40
0.7503938621545029
 40
0.7882043682941406
 40
0.7882043682941406
 40
0.7882043682941406
 40
0.7882043682941406
 10
295.9207294655008
 20
97.05982932243159
 30
0.0
 10
295.9950801820054
 20
97.06016988840046
 30
0.0
 10
296.1033307356515
 20
97.0606657337186
 30
0.0
 10
296.1625259938348
 20
96.92675948580934
 30
0.0
 10
296.1359918566771
 20
96.84054475127545
 30
0.0
 10
296.1026362837036
 20
96.75202909009971
 30
0.0
 10
296.0436894317206
 20
96.69188136332493
 30
0.0
 10
295.9645741222408
 20
96.63394896293432
 30
0.0
 10
295.8898063740265
 20
96.62693598645802
 30
0.0
 10
295.8411783467759
 20
96.61405120915972
 30
0.0
 10
295.829021334144
 20
96.61083001329325
 30
0.0
 11
295.9207294655008
 21
97.05982932243159
 31
0.0
 11
296.1133166995521
 21
97.01401294446601
 31
0.0
 11
296.1500000575628
 21
96.93154376285907
 31
0.0
 11
296.1316586422274
 21
96.83074803006583
 31
0.0
 11
296.1041462555545
 21
96.76660510091403
 31
0.0
 11
296.030779539533
 21
96.68413591930709
 31
0.0
 11
295.9757547661869
 21
96.6474828169346
 31
0.0
 11
295.8657046921548
 21
96.61999328888635
 31
0.0
 11
295.829021334144
 21
96.61083001329325
 31
0.0
  0
LINE
  5
C43
102
{ACAD_REACTORS
330
C39
102
}
330
18
100
AcDbEntity
  8
ROGO
 62
     4
100
AcDbLine
 10
295.9207294655008
 20
97.05982932243159
 30
0.0
 11
295.398746180947
 21
97.05982932243159
 31
0.0
  0
LINE
  5
C44
102
{ACAD_REACTORS
330
C39
102
}
330
18
100
AcDbEntity
  8
ROGO
 62
     4
100
AcDbLine
 10
295.8290213341442
 20
96.61083001329314
 30
0.0
 11
295.1956061570588
 21
96.61083001329325
 31
0.0
  0
LINE
  5
C45
102
{ACAD_REACTORS
330
C39
102
}
330
18
100
AcDbEntity
  8
ROGO
 62
     4
100
AcDbLine
 10
294.9302803812316
 20
96.02438186898917
 30
0.0
 11
294.5005636158807
 21
95.07458119911246
 31
0.0
  0
LINE
  5
C46
102
{ACAD_REACTORS
330
C30
102
}
330
18
100
AcDbEntity
  8
ROGO
 62
     4
100
AcDbLine
 10
297.0422150329923
 20
96.02438186898917
 30
0.0
 11
299.3257505096144
 21
96.02438186898917
 31
0.0
  0
LINE
  5
C47
330
18
100
AcDbEntity
  8
外形線
100
AcDbLine
 10
292.557994908871
 20
109.55255915811
 30
0.0
 11
292.557994908871
 21
108.4803771396369
 31
0.0
  0
LINE
  5
C48
102
{ACAD_REACTORS
330
C39
102
}
330
18
100
AcDbEntity
  8
ROGO
 62
     4
100
AcDbLine
 10
294.5795702240815
 20
97.7127110654202
 30
0.0
 11
296.6527823407766
 21
97.7127110654202
 31
0.0
  0
LINE
  5
C49
102
{ACAD_REACTORS
330
C57
102
}
330
18
100
AcDbEntity
  8
ROGO
 62
     4
100
AcDbLine
 10
312.4472184851398
 20
97.7127110654202
 30
0.0
 11
312.2100505374519
 21
97.23707410985605
 31
0.0
  0
LINE
  5
C4A
102
{ACAD_REACTORS
330
C57
102
}
330
18
100
AcDbEntity
  8
ROGO
 62
     4
100
AcDbLine
 10
312.1328179247739
 20
96.39364613226632
 30
0.0
 11
313.7308434544856
 21
97.7127110654202
 31
0.0
  0
LINE
  5
C4B
102
{ACAD_REACTORS
330
C57
102
}
330
18
100
AcDbEntity
  8
ROGO
 62
     4
100
AcDbLine
 10
312.2100505374519
 20
97.23707410985605
 30
0.0
 11
312.7587570544856
 21
97.7127110654202
 31
0.0
  0
SPLINE
  5
C4C
330
18
100
AcDbEntity
  8
ROGO
 62
     4
100
AcDbSpline
210
0.0
220
0.0
230
1.0
 70
     8
 71
     3
 72
    26
 73
    22
 74
    20
 42
0.0000000001
 43
0.0000000001
 44
0.0000000001
 40
0.0
 40
0.0
 40
0.0
 40
0.0
 40
0.306282258847545
 40
0.5113145150563467
 40
0.6591594689727181
 40
0.7695505122602936
 40
0.9127334891893321
 40
1.017243103820775
 40
1.205963108812882
 40
1.359578479722684
 40
1.464061546148625
 40
1.566512542290257
 40
1.74977745669044
 40
1.879367624743214
 40
1.949161942424609
 40
2.048302708997821
 40
2.119894481049017
 40
2.223607322578586
 40
2.282299819925649
 40
2.41002127769804
 40
2.468340004822995
 40
2.468340004822995
 40
2.468340004822995
 40
2.468340004822995
 10
309.430743496055
 20
97.7127110654202
 30
0.0
 10
309.3267865650796
 20
97.70650881665076
 30
0.0
 10
309.1532385184235
 20
97.69615464258356
 30
0.0
 10
308.9626838189369
 20
97.58039470905139
 30
0.0
 10
308.8230722904094
 20
97.51309697075404
 30
0.0
 10
308.7235015175783
 20
97.42161142892889
 30
0.0
 10
308.650515737463
 20
97.32711354711554
 30
0.0
 10
308.5585034599944
 20
97.21452001381162
 30
0.0
 10
308.4834700769728
 20
97.08340940049991
 30
0.0
 10
308.4452601365728
 20
96.93890264770423
 30
0.0
 10
308.4114141340182
 20
96.82372992727138
 30
0.0
 10
308.3863133719101
 20
96.69538496069542
 30
0.0
 10
308.3926997163837
 20
96.55672724739531
 30
0.0
 10
308.4018452539496
 20
96.42794906181904
 30
0.0
 10
308.4426778552804
 20
96.33602071805613
 30
0.0
 10
308.4891789554962
 20
96.27057407200419
 30
0.0
 10
308.546118915881
 20
96.19849184710574
 30
0.0
 10
308.6084236842893
 20
96.15075202296694
 30
0.0
 10
308.6599548134314
 20
96.06426812350044
 30
0.0
 10
308.750158316626
 20
96.05323215420236
 30
0.0
 10
308.8074952518663
 20
96.0312672815035
 30
0.0
 10
308.8254688798881
 20
96.02438186898917
 30
0.0
 11
309.430743496055
 21
97.7127110654202
 31
0.0
 11
309.1281061879715
 21
97.66559968844251
 31
0.0
 11
308.944689397918
 21
97.57396723124248
 31
0.0
 11
308.8162979085504
 21
97.50066132522864
 31
0.0
 11
308.7337607485313
 21
97.42735512048376
 31
0.0
 11
308.6420526171746
 21
97.3173961120973
 31
0.0
 11
308.5778568724908
 21
97.23492693049047
 31
0.0
 11
308.486148213794
 21
97.06998826854533
 31
0.0
 11
308.4402944117855
 21
96.92337615778662
 31
0.0
 11
308.4127820251126
 21
96.82258042499336
 31
0.0
 11
308.3944400824372
 21
96.72178469220023
 31
0.0
 11
308.3944400824372
 21
96.53851977780005
 31
0.0
 11
308.4127820251126
 21
96.41023421822751
 31
0.0
 11
308.4402944117855
 21
96.34609128907573
 31
0.0
 11
308.4953191851316
 21
96.26362210746869
 31
0.0
 11
308.5411735144801
 21
96.20864245390999
 31
0.0
 11
308.6145397031614
 21
96.13533654789614
 31
0.0
 11
308.6512230611722
 21
96.08952016993056
 31
0.0
 11
308.7704441065421
 21
96.043704090696
 31
0.0
 11
308.8254688798881
 21
96.02438186898917
 31
0.0
  0
LINE
  5
C4D
330
18
100
AcDbEntity
  8
ROGO
 62
     4
100
AcDbLine
 10
311.1215045073345
 20
97.7127110654202
 30
0.0
 11
310.8082796923537
 21
97.08454314114135
 31
0.0
  0
LINE
  5
C4E
102
{ACAD_REACTORS
330
C57
102
}
330
18
100
AcDbEntity
  8
ROGO
 62
     4
100
AcDbLine
 10
311.4751108162059
 20
97.7127110654202
 30
0.0
 11
310.1596540612018
 21
95.07458119911246
 31
0.0
  0
HATCH
  5
C4F
330
18
100
AcDbEntity
  8
ROGO
 62
     4
100
AcDbHatch
 10
0.0
 20
0.0
 30
0.0
210
0.0
220
0.0
230
1.0
  2
SOLID
 70
     1
 71
     0
 91
        1
 92
        5
 93
        8
 72
     4
 94
        3
 73
     0
 74
     0
 95
       26
 96
       22
 40
0.0
 40
0.0
 40
0.0
 40
0.0
 40
0.306282258847545
 40
0.5113145150563467
 40
0.6591594689727181
 40
0.7695505122602936
 40
0.9127334891893321
 40
1.017243103820775
 40
1.205963108812882
 40
1.359578479722684
 40
1.464061546148625
 40
1.566512542290257
 40
1.74977745669044
 40
1.879367624743214
 40
1.949161942424609
 40
2.048302708997821
 40
2.119894481049017
 40
2.223607322578586
 40
2.282299819925649
 40
2.41002127769804
 40
2.468340004822995
 40
2.468340004822995
 40
2.468340004822995
 40
2.468340004822995
 10
309.430743496055
 20
97.7127110654202
 10
309.3267865650796
 20
97.70650881665075
 10
309.1532385184235
 20
97.69615464258357
 10
308.9626838189368
 20
97.58039470905146
 10
308.8230722904094
 20
97.51309697075408
 10
308.7235015175782
 20
97.42161142892895
 10
308.6505157374629
 20
97.32711354711558
 10
308.5585034599944
 20
97.2145200138117
 10
308.4834700769727
 20
97.08340940049993
 10
308.4452601365729
 20
96.93890264770425
 10
308.411414134018
 20
96.82372992727142
 10
308.3863133719101
 20
96.69538496069543
 10
308.3926997163839
 20
96.55672724739531
 10
308.4018452539496
 20
96.42794906181904
 10
308.4426778552804
 20
96.33602071805615
 10
308.4891789554962
 20
96.27057407200425
 10
308.5461189158809
 20
96.19849184710574
 10
308.6084236842892
 20
96.15075202296697
 10
308.6599548134314
 20
96.06426812350049
 10
308.750158316626
 20
96.05323215420241
 10
308.8074952518663
 20
96.03126728150357
 10
308.8254688798881
 20
96.02438186898917
 72
     1
 10
308.8254688798881
 20
96.02438186898922
 11
310.2796490420369
 21
96.02438186898917
 72
     1
 10
310.2796490420369
 20
96.02438186898917
 11
310.5928705400526
 21
96.65254314114134
 72
     1
 10
310.5928705400526
 20
96.65254314114134
 11
309.513280656074
 21
96.65254314114134
 72
     4
 94
        3
 73
     0
 74
     0
 95
       16
 96
       12
 40
0.0
 40
0.0
 40
0.0
 40
0.0
 40
0.0924964283868937
 40
0.185946890240525
 40
0.2416858907028844
 40
0.2951281203562444
 40
0.3538203845089212
 40
0.3948066843497379
 40
0.4336991257335823
 40
0.5125674130988856
 40
0.6740411735369252
 40
0.6740411735369252
 40
0.6740411735369252
 40
0.6740411735369252
 10
309.5132806560741
 20
96.65254314114134
 10
309.4807164206391
 20
96.66212401668383
 10
309.415252073336
 20
96.68138458754009
 10
309.4097732361031
 20
96.77475275928799
 10
309.4172373591828
 20
96.84128522194981
 10
309.4484971233105
 20
96.88972474001332
 10
309.4864206391314
 20
96.92497086277349
 10
309.5005412460261
 20
96.97087342672205
 10
309.5420474834717
 20
97.00553560541459
 10
309.6156491638313
 20
97.06379788581216
 10
309.6970398811031
 20
97.07620644975055
 10
309.7517222194737
 20
97.08454314114135
 72
     1
 10
309.7517222194737
 20
97.08454314114135
 11
310.8082796923537
 21
97.08454314114135
 72
     1
 10
310.8082796923537
 20
97.08454314114135
 11
311.1215045073345
 21
97.7127110654202
 72
     1
 10
311.1215045073345
 20
97.7127110654202
 11
309.4307434960551
 21
97.7127110654202
 97
        0
 75
     0
 76
     1
 47
0.0514683685270805
 98
        1
 10
309.7224944770784
 20
97.40357224704712
450
        0
451
        0
460
0.0
461
0.0
452
        0
462
0.0
453
        0
470

  0
SPLINE
  5
C50
102
{ACAD_REACTORS
330
C56
102
}
330
18
100
AcDbEntity
  8
ROGO
 62
     4
100
AcDbSpline
210
0.0
220
0.0
230
1.0
 70
     8
 71
     3
 72
    25
 73
    21
 74
     0
 42
0.0000000001
 43
0.0000000001
 40
0.0
 40
0.0
 40
0.0
 40
0.0
 40
0.4087168505087288
 40
0.6887487002771746
 40
0.9415836120477687
 40
1.17452070575514
 40
1.41154617586699
 40
1.599156012919487
 40
1.80099909059943
 40
2.178735911501585
 40
2.521686161369157
 40
2.762704659361267
 40
3.06256558063785
 40
3.222432137207705
 40
3.399493810628493
 40
3.567459719866414
 40
3.743172740007509
 40
3.995988754699505
 40
4.17170091132118
 40
4.337226830236035
 40
4.337226830236035
 40
4.337226830236035
 40
4.337226830236035
 10
307.5840022717206
 20
97.71975320435604
 30
0.0
 10
307.6472851936963
 20
97.71771998934106
 30
0.0
 10
307.7539263321916
 20
97.71429371954765
 30
0.0
 10
307.8684187504186
 20
97.62480454749335
 30
0.0
 10
307.9560250342521
 20
97.55061116737408
 30
0.0
 10
308.0182090619301
 20
97.46091484494446
 30
0.0
 10
308.0727151044702
 20
97.37844385450239
 30
0.0
 10
308.1086304540307
 20
97.29137346421749
 30
0.0
 10
308.1574824253269
 20
97.18689696995568
 30
0.0
 10
308.1777047280161
 20
97.04712294254443
 30
0.0
 10
308.1640421580118
 20
96.90265358862871
 30
0.0
 10
308.1283892295151
 20
96.77459479529568
 30
0.0
 10
308.0909921740436
 20
96.67635109725324
 30
0.0
 10
308.0469152925784
 20
96.59082386326531
 30
0.0
 10
307.9943700174731
 20
96.53544497262373
 30
0.0
 10
307.9579162174945
 20
96.465031253034
 30
0.0
 10
307.887893130858
 20
96.40743661076818
 30
0.0
 10
307.831128639678
 20
96.33637290589877
 30
0.0
 10
307.7667127639985
 20
96.27537817232052
 30
0.0
 10
307.7303948077506
 20
96.23774515674973
 30
0.0
 10
307.7112471053872
 20
96.22192220024817
 30
0.0
  0
LINE
  5
C51
102
{ACAD_REACTORS
330
C53
102
}
330
18
100
AcDbEntity
  8
ROGO
 62
     4
100
AcDbLine
 10
305.6815576589987
 20
97.7127110654202
 30
0.0
 11
305.3683328440179
 21
97.08454314114135
 31
0.0
  0
SPLINE
  5
C52
102
{ACAD_REACTORS
330
C53
102
}
330
18
100
AcDbEntity
  8
ROGO
 62
     4
100
AcDbSpline
210
0.0
220
0.0
230
1.0
 70
     8
 71
     3
 72
    26
 73
    22
 74
    20
 42
0.0000000001
 43
0.0000000001
 44
0.0000000001
 40
0.0
 40
0.0
 40
0.0
 40
0.0
 40
0.306282258847545
 40
0.5113145150563467
 40
0.6591594689727181
 40
0.7695505122602936
 40
0.9127334891892449
 40
1.017243103820777
 40
1.205963108812785
 40
1.359578479722587
 40
1.464061546148638
 40
1.566512542290269
 40
1.749777456690453
 40
1.879367624743226
 40
1.949161942424621
 40
2.048302708997833
 40
2.119894481049029
 40
2.223607322578598
 40
2.282299819925661
 40
2.410021277698012
 40
2.468340004823004
 40
2.468340004823004
 40
2.468340004823004
 40
2.468340004823004
 10
303.9907966477192
 20
97.7127110654202
 30
0.0
 10
303.8868397167438
 20
97.70650881665076
 30
0.0
 10
303.7132916700877
 20
97.69615464258356
 30
0.0
 10
303.5227369706011
 20
97.58039470905139
 30
0.0
 10
303.3831254420736
 20
97.51309697075406
 30
0.0
 10
303.2835546692423
 20
97.42161142892882
 30
0.0
 10
303.2105688891271
 20
97.32711354711568
 30
0.0
 10
303.1185566116586
 20
97.21452001381159
 30
0.0
 10
303.0435232286369
 20
97.0834094005
 30
0.0
 10
303.005313288237
 20
96.93890264770436
 30
0.0
 10
302.9714672856824
 20
96.82372992727142
 30
0.0
 10
302.9463665235742
 20
96.6953849606954
 30
0.0
 10
302.952752868048
 20
96.55672724739531
 30
0.0
 10
302.9618984056138
 20
96.42794906181904
 30
0.0
 10
303.0027310069446
 20
96.33602071805613
 30
0.0
 10
303.0492321071605
 20
96.27057407200419
 30
0.0
 10
303.1061720675452
 20
96.19849184710574
 30
0.0
 10
303.1684768359535
 20
96.15075202296697
 30
0.0
 10
303.2200079650956
 20
96.06426812350036
 30
0.0
 10
303.3102114682902
 20
96.05323215420256
 30
0.0
 10
303.3675484035305
 20
96.03126728150355
 30
0.0
 10
303.3855220315524
 20
96.02438186898917
 30
0.0
 11
303.9907966477192
 21
97.7127110654202
 31
0.0
 11
303.6881593396357
 21
97.66559968844251
 31
0.0
 11
303.5047425495822
 21
97.57396723124248
 31
0.0
 11
303.3763510602146
 21
97.50066132522864
 31
0.0
 11
303.2938139001954
 21
97.42735512048376
 31
0.0
 11
303.2021057688388
 21
97.31739611209741
 31
0.0
 11
303.1379100241549
 21
97.23492693049047
 31
0.0
 11
303.0462013654581
 21
97.06998826854544
 31
0.0
 11
303.0003475634497
 21
96.92337615778672
 31
0.0
 11
302.9728351767768
 21
96.82258042499336
 31
0.0
 11
302.9544932341014
 21
96.72178469220023
 31
0.0
 11
302.9544932341014
 21
96.53851977780005
 31
0.0
 11
302.9728351767768
 21
96.41023421822751
 31
0.0
 11
303.0003475634497
 21
96.34609128907573
 31
0.0
 11
303.0553723367958
 21
96.26362210746869
 31
0.0
 11
303.1012266661443
 21
96.20864245390999
 31
0.0
 11
303.1745928548256
 21
96.13533654789614
 31
0.0
 11
303.2112762128364
 21
96.08952016993056
 31
0.0
 11
303.3304972582063
 21
96.04370409069611
 31
0.0
 11
303.3855220315524
 21
96.02438186898917
 31
0.0
  0
HATCH
  5
C53
330
18
100
AcDbEntity
  8
ROGO
 62
     4
100
AcDbHatch
 10
0.0
 20
0.0
 30
0.0
210
0.0
220
0.0
230
1.0
  2
SOLID
 70
     1
 71
     1
 91
        1
 92
        5
 93
        8
 72
     1
 10
305.368332844018
 20
97.08454314114147
 11
305.6815576589988
 21
97.71271106542034
 72
     1
 10
305.6815576589988
 20
97.71271106542034
 11
303.9907966477196
 21
97.7127110654203
 72
     4
 94
        3
 73
     0
 74
     0
 95
       26
 96
       22
 40
0.0
 40
0.0
 40
0.0
 40
0.0
 40
0.306282258847545
 40
0.5113145150563467
 40
0.6591594689727181
 40
0.7695505122602936
 40
0.9127334891892449
 40
1.017243103820777
 40
1.205963108812785
 40
1.359578479722587
 40
1.464061546148638
 40
1.566512542290269
 40
1.749777456690453
 40
1.879367624743226
 40
1.949161942424621
 40
2.048302708997833
 40
2.119894481049029
 40
2.223607322578598
 40
2.282299819925661
 40
2.410021277698012
 40
2.468340004823004
 40
2.468340004823004
 40
2.468340004823004
 40
2.468340004823004
 10
303.9907966477192
 20
97.7127110654202
 10
303.8868397167438
 20
97.70650881665076
 10
303.7132916700877
 20
97.69615464258356
 10
303.5227369706011
 20
97.58039470905139
 10
303.3831254420736
 20
97.51309697075406
 10
303.2835546692423
 20
97.42161142892882
 10
303.2105688891271
 20
97.32711354711568
 10
303.1185566116586
 20
97.21452001381159
 10
303.0435232286369
 20
97.0834094005
 10
303.005313288237
 20
96.93890264770436
 10
302.9714672856824
 20
96.82372992727142
 10
302.9463665235742
 20
96.6953849606954
 10
302.952752868048
 20
96.55672724739531
 10
302.9618984056138
 20
96.42794906181904
 10
303.0027310069446
 20
96.33602071805613
 10
303.0492321071605
 20
96.27057407200419
 10
303.1061720675452
 20
96.19849184710574
 10
303.1684768359535
 20
96.15075202296697
 10
303.2200079650956
 20
96.06426812350036
 10
303.3102114682902
 20
96.05323215420256
 10
303.3675484035305
 20
96.03126728150355
 10
303.3855220315524
 20
96.02438186898917
 72
     1
 10
303.3855220315524
 20
96.02438186898915
 11
304.8397021937011
 21
96.02438186898917
 72
     1
 10
304.8397021937011
 20
96.02438186898917
 11
305.1529236917168
 21
96.65254314114136
 72
     1
 10
305.1529236917168
 20
96.65254314114136
 11
304.0733338077383
 21
96.65254314114134
 72
     4
 94
        3
 73
     0
 74
     0
 95
       16
 96
       12
 40
0.0
 40
0.0
 40
0.0
 40
0.0
 40
0.092496428386945
 40
0.1859468902404647
 40
0.2416858907028242
 40
0.2951281203562815
 40
0.3538203845089407
 40
0.3948066843496557
 40
0.4336991257336609
 40
0.512567413098898
 40
0.6740411735369377
 40
0.6740411735369377
 40
0.6740411735369377
 40
0.6740411735369377
 10
304.0733338077383
 20
96.65254314114134
 10
304.0407695723033
 20
96.66212401668381
 10
303.9753052250003
 20
96.68138458754015
 10
303.9698263877673
 20
96.77475275928802
 10
303.977290510847
 20
96.84128522194981
 10
304.0085502749747
 20
96.88972474001342
 10
304.0464737907959
 20
96.92497086277345
 10
304.0605943976903
 20
96.97087342672212
 10
304.1021006351359
 20
97.00553560541465
 10
304.1757023154957
 20
97.06379788581209
 10
304.2570930327674
 20
97.07620644975053
 10
304.3117753711379
 20
97.08454314114135
 72
     1
 10
304.3117753711379
 20
97.08454314114135
 11
305.368332844018
 21
97.08454314114147
 97
        8
330
C77
330
C52
330
C5C
330
C60
330
C5E
330
C5F
330
C5D
330
C51
 75
     0
 76
     1
 47
0.0514683685270805
 98
        1
 10
304.5821183726996
 20
97.33686919297406
450
        0
451
        0
460
0.0
461
0.0
452
        0
462
0.0
453
        0
470

  0
LINE
  5
C54
102
{ACAD_REACTORS
330
C5A
102
}
330
18
100
AcDbEntity
  8
ROGO
 62
     4
100
AcDbLine
 10
302.1731314846235
 20
97.7127110654202
 30
0.0
 11
302.9231542122592
 21
96.02438186898917
 31
0.0
  0
SPLINE
  5
C55
102
{ACAD_REACTORS
330
C56
102
}
330
18
100
AcDbEntity
  8
ROGO
 62
     4
100
AcDbSpline
210
0.0
220
0.0
230
1.0
 70
     8
 71
     3
 72
    38
 73
    34
 74
    32
 42
0.0000000001
 43
0.0000000001
 44
0.0000000001
 40
0.0
 40
0.0
 40
0.0
 40
0.0
 40
0.2324160190625641
 40
0.3054076598660179
 40
0.3991969555208118
 40
0.4773548548861183
 40
0.5433001127836845
 40
0.6308904647837286
 40
0.6756456824938584
 40
0.7260518053353911
 40
0.8003409450195571
 40
0.884494420029689
 40
0.9390839551137702
 40
0.9983865037096219
 40
1.064308042580248
 40
1.164347318186099
 40
1.259395062462607
 40
1.303582284428296
 40
1.353971899974848
 40
1.413666953858189
 40
1.456162161198055
 40
1.491785383230425
 40
1.542647296663551
 40
1.598535826931799
 40
1.654424046021893
 40
1.703326315520178
 40
1.815321205179844
 40
1.859508427145426
 40
1.947882923564461
 40
2.026002047025105
 40
2.175555252260891
 40
2.360088422381767
 40
2.626581173122162
 40
2.626581173122162
 40
2.626581173122162
 40
2.626581173122162
 10
306.6191330704822
 20
97.71975320435604
 30
0.0
 10
306.5416618449635
 20
97.71428040836921
 30
0.0
 10
306.4398603177364
 20
97.7070888480714
 30
0.0
 10
306.3105961816526
 20
97.67167432866513
 30
0.0
 10
306.2401329259428
 20
97.62948423221923
 30
0.0
 10
306.1668018242492
 20
97.59847248903286
 30
0.0
 10
306.1042802303256
 20
97.5525502471409
 30
0.0
 10
306.0410409580022
 20
97.52888695832101
 30
0.0
 10
305.9967588836621
 20
97.48621781898448
 30
0.0
 10
305.945505994634
 20
97.46015366704543
 30
0.0
 10
305.9046924091313
 20
97.40181451759831
 30
0.0
 10
305.8590743964477
 20
97.34726952689452
 30
0.0
 10
305.8061517627816
 20
97.30745411629495
 30
0.0
 10
305.7627174470622
 20
97.2656362862005
 30
0.0
 10
305.7228725018738
 20
97.20109880953543
 30
0.0
 10
305.6992904799966
 20
97.11534761351108
 30
0.0
 10
305.6328167186133
 20
97.06120740085873
 30
0.0
 10
305.6228078514206
 20
96.99611471098947
 30
0.0
 10
305.5860391868834
 20
96.95771111931572
 30
0.0
 10
305.5700508855829
 20
96.90813759962075
 30
0.0
 10
305.5639617708522
 20
96.86271949906554
 30
0.0
 10
305.5566533812262
 20
96.82030213722919
 30
0.0
 10
305.5375360180702
 20
96.7756809462805
 30
0.0
 10
305.5437759913634
 20
96.72056201622128
 30
0.0
 10
305.5419984103091
 20
96.66718852675854
 30
0.0
 10
305.5430445188463
 20
96.59513265397247
 30
0.0
 10
305.5392689682586
 20
96.52497740079022
 30
0.0
 10
305.5693775046349
 20
96.44863184571656
 30
0.0
 10
305.5871947372673
 20
96.38058034543103
 30
0.0
 10
305.6359901271946
 20
96.28635479110769
 30
0.0
 10
305.7201611522464
 20
96.17763887491058
 30
0.0
 10
305.8802193971259
 20
96.0456783506769
 30
0.0
 10
306.0341200792736
 20
96.03229156975471
 30
0.0
 10
306.1250536913553
 20
96.02438186898917
 30
0.0
 11
306.6191330704822
 21
97.71975320435604
 31
0.0
 11
306.3884031086928
 21
97.69180878363284
 31
0.0
 11
306.3184849550995
 21
97.67085093485775
 31
0.0
 11
306.2345835003749
 21
97.62893461495105
 31
0.0
 11
306.1646653467816
 21
97.59400455581431
 31
0.0
 11
306.1087310436319
 21
97.55907418549941
 31
0.0
 11
306.0318212394729
 21
97.51715817677098
 31
0.0
 11
305.99686188802
 21
97.48921406722582
 31
0.0
 11
305.9549108860015
 21
97.46126964650262
 31
0.0
 11
305.9059682334174
 21
97.40538142741264
 31
0.0
 11
305.8500339302677
 21
97.34250725873074
 31
0.0
 11
305.8080829282492
 21
97.30757688841585
 31
0.0
 11
305.7661324755431
 21
97.26566087968741
 31
0.0
 11
305.7311731240902
 21
97.20977266059732
 31
0.0
 11
305.6892226713843
 21
97.11895407119232
 31
0.0
 11
305.633287818922
 21
97.04210769214899
 31
0.0
 11
305.6193045177908
 21
97.00019137224229
 31
0.0
 11
305.5913373662161
 21
96.95827536351385
 31
0.0
 11
305.5703618652068
 21
96.9023868332456
 31
0.0
 11
305.5633696653286
 21
96.86047082451716
 31
0.0
 11
305.556378014763
 21
96.82554045420227
 31
0.0
 11
305.5423947136319
 21
96.77663849588203
 31
0.0
 11
305.5423947136319
 21
96.72074996561377
 31
0.0
 11
305.5423947136319
 21
96.66486174652369
 31
0.0
 11
305.5423947136319
 21
96.6159594770254
 31
0.0
 11
305.5493863641975
 21
96.50418303884521
 31
0.0
 11
305.5633696653286
 21
96.46226671893863
 31
0.0
 11
305.5913373662161
 21
96.37843439030348
 31
0.0
 11
305.6262961683565
 21
96.30857396085184
 31
0.0
 11
305.7171898229591
 21
96.18981157307997
 31
0.0
 11
305.8640177807115
 21
96.07803482372162
 31
0.0
 11
306.1250536913553
 21
96.02438186898917
 31
0.0
  0
HATCH
  5
C56
330
18
100
AcDbEntity
  8
ROGO
 62
     4
100
AcDbHatch
 10
0.0
 20
0.0
 30
0.0
210
0.0
220
0.0
230
1.0
  2
SOLID
 70
     1
 71
     1
 91
        1
 92
        5
 93
        6
 72
     4
 94
        3
 73
     0
 74
     0
 95
       38
 96
       34
 40
0.0
 40
0.0
 40
0.0
 40
0.0
 40
0.2324160190625641
 40
0.3054076598660179
 40
0.3991969555208118
 40
0.4773548548861183
 40
0.5433001127836845
 40
0.6308904647837286
 40
0.6756456824938584
 40
0.7260518053353911
 40
0.8003409450195571
 40
0.884494420029689
 40
0.9390839551137702
 40
0.9983865037096219
 40
1.064308042580248
 40
1.164347318186099
 40
1.259395062462607
 40
1.303582284428296
 40
1.353971899974848
 40
1.413666953858189
 40
1.456162161198055
 40
1.491785383230425
 40
1.542647296663551
 40
1.598535826931799
 40
1.654424046021893
 40
1.703326315520178
 40
1.815321205179844
 40
1.859508427145426
 40
1.947882923564461
 40
2.026002047025105
 40
2.175555252260891
 40
2.360088422381767
 40
2.626581173122162
 40
2.626581173122162
 40
2.626581173122162
 40
2.626581173122162
 10
306.6191330704822
 20
97.71975320435604
 10
306.5416618449635
 20
97.71428040836921
 10
306.4398603177364
 20
97.7070888480714
 10
306.3105961816526
 20
97.67167432866513
 10
306.2401329259428
 20
97.62948423221923
 10
306.1668018242492
 20
97.59847248903286
 10
306.1042802303256
 20
97.5525502471409
 10
306.0410409580022
 20
97.52888695832101
 10
305.9967588836621
 20
97.48621781898448
 10
305.945505994634
 20
97.46015366704543
 10
305.9046924091313
 20
97.40181451759831
 10
305.8590743964477
 20
97.34726952689452
 10
305.8061517627816
 20
97.30745411629495
 10
305.7627174470622
 20
97.2656362862005
 10
305.7228725018738
 20
97.20109880953543
 10
305.6992904799966
 20
97.11534761351108
 10
305.6328167186133
 20
97.06120740085873
 10
305.6228078514206
 20
96.99611471098947
 10
305.5860391868834
 20
96.95771111931572
 10
305.5700508855829
 20
96.90813759962075
 10
305.5639617708522
 20
96.86271949906554
 10
305.5566533812262
 20
96.82030213722919
 10
305.5375360180702
 20
96.7756809462805
 10
305.5437759913634
 20
96.72056201622128
 10
305.5419984103091
 20
96.66718852675854
 10
305.5430445188463
 20
96.59513265397247
 10
305.5392689682586
 20
96.52497740079022
 10
305.5693775046349
 20
96.44863184571656
 10
305.5871947372673
 20
96.38058034543103
 10
305.6359901271946
 20
96.28635479110769
 10
305.7201611522464
 20
96.17763887491058
 10
305.8802193971259
 20
96.0456783506769
 10
306.0341200792736
 20
96.03229156975471
 10
306.1250536913553
 20
96.02438186898917
 72
     1
 10
306.1250536913552
 20
96.02438186898915
 11
307.0899228925937
 21
96.02438186898915
 72
     4
 94
        3
 73
     0
 74
     0
 95
       11
 96
        7
 40
0.1647869275458135
 40
0.1647869275458135
 40
0.1647869275458135
 40
0.1647869275458135
 40
0.2545010798212315
 40
0.5111620267764023
 40
0.7602998271033902
 40
0.8850764140209603
 40
0.8850764140209603
 40
0.8850764140209603
 40
0.8850764140209603
 10
307.0899228925937
 20
96.02438186898917
 10
307.1033867644336
 20
96.02412239173384
 10
307.155369086356
 20
96.02312058256803
 10
307.2442074976228
 20
96.03588326474824
 10
307.3376773410861
 20
96.04811348608542
 10
307.3934014986443
 20
96.0570203872362
 10
307.4113739108168
 20
96.06202301501447
 72
     4
 94
        3
 73
     0
 74
     0
 95
        9
 96
        5
 40
0.0
 40
0.0
 40
0.0
 40
0.0
 40
0.146030572742497
 40
0.3423777932799819
 40
0.3423777932799819
 40
0.3423777932799819
 40
0.3423777932799819
 10
307.4113739108168
 20
96.06202301501447
 10
307.4582831557971
 20
96.07637459465861
 10
307.5682648088109
 20
96.1100227689851
 10
307.6591348481155
 20
96.18113860612371
 10
307.7112471053872
 20
96.22192220024817
 72
     4
 94
        3
 73
     0
 74
     0
 95
       25
 96
       21
 40
0.0
 40
0.0
 40
0.0
 40
0.0
 40
0.165525918914855
 40
0.3412380755365305
 40
0.5940540902285263
 40
0.7697671103696209
 40
0.9377330196075423
 40
1.11479469302833
 40
1.274661249598185
 40
1.574522170874768
 40
1.815540668866877
 40
2.15849091873445
 40
2.536227739636605
 40
2.738070817316548
 40
2.925680654369045
 40
3.162706124480894
 40
3.395643218188267
 40
3.648478129958861
 40
3.928509979727306
 40
4.337226830236035
 40
4.337226830236035
 40
4.337226830236035
 40
4.337226830236035
 10
307.7112471053872
 20
96.22192220024817
 10
307.7303948077506
 20
96.23774515674973
 10
307.7667127639985
 20
96.27537817232052
 10
307.831128639678
 20
96.33637290589877
 10
307.887893130858
 20
96.40743661076818
 10
307.9579162174945
 20
96.465031253034
 10
307.9943700174731
 20
96.53544497262373
 10
308.0469152925784
 20
96.59082386326531
 10
308.0909921740436
 20
96.67635109725324
 10
308.1283892295151
 20
96.77459479529568
 10
308.1640421580118
 20
96.90265358862871
 10
308.1777047280161
 20
97.04712294254443
 10
308.1574824253269
 20
97.18689696995568
 10
308.1086304540307
 20
97.29137346421749
 10
308.0727151044702
 20
97.37844385450239
 10
308.0182090619301
 20
97.46091484494446
 10
307.9560250342521
 20
97.55061116737408
 10
307.8684187504186
 20
97.62480454749335
 10
307.7539263321916
 20
97.71429371954765
 10
307.6472851936963
 20
97.71771998934106
 10
307.5840022717206
 20
97.71975320435604
 72
     1
 10
307.5840022717205
 20
97.71975320435604
 11
306.6191330704823
 21
97.71975320435606
 97
        6
330
C50
330
C7A
330
C55
330
C72
330
C70
330
C71
 75
     0
 76
     1
 47
0.088756267210375
 98
        1
 10
306.9082769324243
 20
97.25148484763394
450
        0
451
        0
460
0.0
461
0.0
452
        0
462
0.0
453
        0
470

  0
HATCH
  5
C57
330
18
100
AcDbEntity
  8
ROGO
 62
     4
100
AcDbHatch
 10
0.0
 20
0.0
 30
0.0
210
0.0
220
0.0
230
1.0
  2
SOLID
 70
     1
 71
     1
 91
        1
 92
        7
 72
     0
 73
     1
 93
       11
 10
312.2100505374526
 20
97.23707410985721
 10
312.4472184851398
 20
97.71271106542018
 10
311.4751108162059
 20
97.71271106542018
 10
310.1596540612018
 20
95.07458119911246
 10
311.1317617301358
 20
95.07458119911246
 10
311.4751108162058
 20
95.7631629218376
 10
311.818459902276
 20
95.07458119911246
 10
312.790546302276
 20
95.07458119911246
 10
312.1328179247738
 20
96.39364613226634
 10
313.7308434544856
 20
97.7127110654202
 10
312.7587570544857
 20
97.71271106542021
 97
       11
330
C7C
330
C4B
330
C49
330
C76
330
C4E
330
C32
330
C6F
330
C74
330
C5B
330
C75
330
C4A
 75
     0
 76
     1
 47
0.015942268611278
 98
        1
 10
311.9998616979956
 20
96.85685098962643
450
        0
451
        0
460
0.0
461
0.0
452
        0
462
0.0
453
        0
470

  0
LINE
  5
C58
102
{ACAD_REACTORS
330
C30
102
}
330
18
100
AcDbEntity
  8
ROGO
 62
     4
100
AcDbLine
 10
300.1611200943774
 20
97.7127110654202
 30
0.0
 11
299.9697618427187
 21
97.32596521167318
 31
0.0
  0
LINE
  5
C59
102
{ACAD_REACTORS
330
C5A
102
}
330
18
100
AcDbEntity
  8
ROGO
 62
     4
100
AcDbLine
 10
300.8226127210602
 20
97.7127110654202
 30
0.0
 11
299.6051257252184
 21
96.02438186898917
 31
0.0
  0
HATCH
  5
C5A
330
18
100
AcDbEntity
  8
ROGO
 62
     4
100
AcDbHatch
 10
0.0
 20
0.0
 30
0.0
210
0.0
220
0.0
230
1.0
  2
SOLID
 70
     1
 71
     1
 91
        2
 92
        7
 72
     0
 73
     1
 93
        8
 10
302.1731314846234
 20
97.7127110654202
 10
300.8226127210602
 20
97.71271106542021
 10
299.6051257252184
 20
96.02438186898917
 10
300.5401579059647
 20
96.02438186898918
 10
300.7719598971402
 20
96.34582930196302
 10
301.8389445970058
 20
96.34582930196302
 10
301.9817442838087
 20
96.02438186898917
 10
302.9231542122591
 20
96.02438186898929
 97
        8
330
C78
330
C59
330
C66
330
C65
330
C63
330
C68
330
C69
330
C54
 92
       22
 72
     0
 73
     1
 93
        3
 10
301.6883294612335
 20
96.68486960271515
 10
301.0164484471839
 20
96.68486960271513
 10
301.4322056795867
 20
97.26141380933949
 97
        3
330
C64
330
C62
330
C67
 75
     0
 76
     1
 47
0.0128389261915577
 98
        2
 10
302.0673751942718
 20
97.30765717238
 10
302.0673751942718
 20
97.30765717238
450
        0
451
        0
460
0.0
461
0.0
452
        0
462
0.0
453
        0
470

  0
LINE
  5
C5B
102
{ACAD_REACTORS
330
C57
102
}
330
18
100
AcDbEntity
  8
ROGO
 62
     4
100
AcDbLine
 10
311.818459902276
 20
95.07458119911246
 30
0.0
 11
312.790546302276
 21
95.07458119911246
 31
0.0
  0
LINE
  5
C5C
102
{ACAD_REACTORS
330
C53
102
}
330
18
100
AcDbEntity
  8
ROGO
 62
     4
100
AcDbLine
 10
303.3855220315522
 20
96.02438186898917
 30
0.0
 11
304.8397021937011
 21
96.02438186898917
 31
0.0
  0
LINE
  5
C5D
102
{ACAD_REACTORS
330
C53
102
}
330
18
100
AcDbEntity
  8
ROGO
 62
     4
100
AcDbLine
 10
304.3117753711379
 20
97.08454314114135
 30
0.0
 11
305.3683328440179
 21
97.08454314114147
 31
0.0
  0
LINE
  5
C5E
102
{ACAD_REACTORS
330
C53
102
}
330
18
100
AcDbEntity
  8
ROGO
 62
     4
100
AcDbLine
 10
304.0733338077382
 20
96.65254314114134
 30
0.0
 11
305.1529236917168
 21
96.65254314114134
 31
0.0
  0
SPLINE
  5
C5F
102
{ACAD_REACTORS
330
C53
102
}
330
18
100
AcDbEntity
  8
ROGO
 62
     4
100
AcDbSpline
210
0.0
220
0.0
230
1.0
 70
     8
 71
     3
 72
    16
 73
    12
 74
    10
 42
0.0000000001
 43
0.0000000001
 44
0.0000000001
 40
0.0
 40
0.0
 40
0.0
 40
0.0
 40
0.1614737604380397
 40
0.2403420478032769
 40
0.279234489187282
 40
0.320220789027997
 40
0.3789130531806562
 40
0.4323552828341136
 40
0.488094283296473
 40
0.5815447451499928
 40
0.6740411735369377
 40
0.6740411735369377
 40
0.6740411735369377
 40
0.6740411735369377
 10
304.3117753711379
 20
97.08454314114135
 30
0.0
 10
304.2570930327674
 20
97.07620644975053
 30
0.0
 10
304.1757023154957
 20
97.06379788581209
 30
0.0
 10
304.1021006351359
 20
97.00553560541465
 30
0.0
 10
304.0605943976903
 20
96.97087342672212
 30
0.0
 10
304.0464737907959
 20
96.92497086277345
 30
0.0
 10
304.0085502749747
 20
96.88972474001342
 30
0.0
 10
303.977290510847
 20
96.84128522194981
 30
0.0
 10
303.9698263877673
 20
96.77475275928802
 30
0.0
 10
303.9753052250003
 20
96.68138458754015
 30
0.0
 10
304.0407695723033
 20
96.66212401668381
 30
0.0
 10
304.0733338077383
 20
96.65254314114134
 30
0.0
 11
304.3117753711379
 21
97.08454314114135
 31
0.0
 11
304.1558714950974
 21
97.04249844176615
 31
0.0
 11
304.0916757504136
 21
96.9966823625316
 31
0.0
 11
304.0641633637406
 21
96.9691925357522
 31
0.0
 11
304.0458214210653
 21
96.93253943337971
 31
0.0
 11
304.0091380630545
 21
96.88672335414526
 31
0.0
 11
303.9816256763814
 21
96.84090697617968
 31
0.0
 11
303.9724547050437
 21
96.78592762135203
 31
0.0
 11
303.9907966477192
 21
96.69429486542094
 31
0.0
 11
304.0733338077383
 21
96.65254314114134
 31
0.0
  0
LINE
  5
C60
102
{ACAD_REACTORS
330
C53
102
}
330
18
100
AcDbEntity
  8
ROGO
 62
     4
100
AcDbLine
 10
305.1529236917168
 20
96.65254314114134
 30
0.0
 11
304.8397021937011
 21
96.02438186898917
 31
0.0
  0
LINE
  5
C61
102
{ACAD_REACTORS
330
C30
102
}
330
18
100
AcDbEntity
  8
ROGO
 62
     4
100
AcDbLine
 10
299.8201434691917
 20
97.02357801329355
 30
0.0
 11
299.6667238433897
 21
96.71350826898914
 31
0.0
  0
LINE
  5
C62
102
{ACAD_REACTORS
330
C5A
102
}
330
18
100
AcDbEntity
  8
ROGO
 62
     4
100
AcDbLine
 10
301.4322056795866
 20
97.26141380933938
 30
0.0
 11
301.0164484471839
 21
96.68486960271515
 31
0.0
  0
LINE
  5
C63
102
{ACAD_REACTORS
330
C5A
102
}
330
18
100
AcDbEntity
  8
ROGO
 62
     4
100
AcDbLine
 10
300.7719598971402
 20
96.34582930196302
 30
0.0
 11
301.8389445970057
 21
96.34582930196302
 31
0.0
  0
LINE
  5
C64
102
{ACAD_REACTORS
330
C5A
102
}
330
18
100
AcDbEntity
  8
ROGO
 62
     4
100
AcDbLine
 10
301.016448447184
 20
96.68486960271515
 30
0.0
 11
301.6883294612336
 21
96.68486960271515
 31
0.0
  0
LINE
  5
C65
102
{ACAD_REACTORS
330
C5A
102
}
330
18
100
AcDbEntity
  8
ROGO
 62
     4
100
AcDbLine
 10
300.7719598971402
 20
96.34582930196302
 30
0.0
 11
300.5401579059647
 21
96.02438186898929
 31
0.0
  0
LINE
  5
C66
102
{ACAD_REACTORS
330
C5A
102
}
330
18
100
AcDbEntity
  8
ROGO
 62
     4
100
AcDbLine
 10
299.6051257252184
 20
96.02438186898917
 30
0.0
 11
300.5401579059647
 21
96.02438186898917
 31
0.0
  0
LINE
  5
C67
102
{ACAD_REACTORS
330
C5A
102
}
330
18
100
AcDbEntity
  8
ROGO
 62
     4
100
AcDbLine
 10
301.4322056795867
 20
97.26141380933938
 30
0.0
 11
301.6883294612336
 21
96.68486960271515
 31
0.0
  0
LINE
  5
C68
102
{ACAD_REACTORS
330
C5A
102
}
330
18
100
AcDbEntity
  8
ROGO
 62
     4
100
AcDbLine
 10
301.8389445970057
 20
96.34582930196302
 30
0.0
 11
301.9817442838087
 21
96.02438186898917
 31
0.0
  0
LINE
  5
C69
102
{ACAD_REACTORS
330
C5A
102
}
330
18
100
AcDbEntity
  8
ROGO
 62
     4
100
AcDbLine
 10
302.9231542122592
 20
96.02438186898929
 30
0.0
 11
301.9817442838087
 21
96.02438186898917
 31
0.0
  0
LINE
  5
C6A
330
18
100
AcDbEntity
  8
ROGO
 62
     4
100
AcDbLine
 10
308.825468879888
 20
96.02438186898917
 30
0.0
 11
310.2796490420369
 21
96.02438186898917
 31
0.0
  0
SPLINE
  5
C6B
330
18
100
AcDbEntity
  8
ROGO
 62
     4
100
AcDbSpline
210
0.0
220
0.0
230
1.0
 70
     8
 71
     3
 72
    16
 73
    12
 74
    10
 42
0.0000000001
 43
0.0000000001
 44
0.0000000001
 40
0.0
 40
0.0
 40
0.0
 40
0.0
 40
0.1614737604380397
 40
0.2403420478033429
 40
0.2792344891871872
 40
0.320220789028004
 40
0.3789130531806808
 40
0.4323552828340408
 40
0.4880942832964002
 40
0.5815447451500316
 40
0.6740411735369252
 40
0.6740411735369252
 40
0.6740411735369252
 40
0.6740411735369252
 10
309.7517222194737
 20
97.08454314114135
 30
0.0
 10
309.6970398811032
 20
97.07620644975055
 30
0.0
 10
309.6156491638314
 20
97.06379788581214
 30
0.0
 10
309.5420474834716
 20
97.00553560541459
 30
0.0
 10
309.5005412460263
 20
96.97087342672205
 30
0.0
 10
309.4864206391313
 20
96.92497086277349
 30
0.0
 10
309.4484971233106
 20
96.8897247400133
 30
0.0
 10
309.4172373591827
 20
96.84128522194978
 30
0.0
 10
309.4097732361032
 20
96.77475275928799
 30
0.0
 10
309.415252073336
 20
96.68138458754004
 30
0.0
 10
309.4807164206391
 20
96.6621240166838
 30
0.0
 10
309.5132806560741
 20
96.65254314114134
 30
0.0
 11
309.7517222194737
 21
97.08454314114135
 31
0.0
 11
309.5958183434332
 21
97.04249844176615
 31
0.0
 11
309.5316225987494
 21
96.99668236253149
 31
0.0
 11
309.5041102120765
 21
96.9691925357522
 31
0.0
 11
309.485768269401
 21
96.93253943337971
 31
0.0
 11
309.4490849113903
 21
96.88672335414516
 31
0.0
 11
309.4215725247173
 21
96.84090697617968
 31
0.0
 11
309.4124015533795
 21
96.78592762135203
 31
0.0
 11
309.430743496055
 21
96.69429486542084
 31
0.0
 11
309.5132806560741
 21
96.65254314114134
 31
0.0
  0
LINE
  5
C6C
330
18
100
AcDbEntity
  8
ROGO
 62
     4
100
AcDbLine
 10
310.5928705400526
 20
96.65254314114134
 30
0.0
 11
310.2796490420369
 21
96.02438186898917
 31
0.0
  0
LINE
  5
C6D
330
18
100
AcDbEntity
  8
ROGO
 62
     4
100
AcDbLine
 10
309.513280656074
 20
96.65254314114134
 30
0.0
 11
310.5928705400526
 21
96.65254314114134
 31
0.0
  0
LINE
  5
C6E
330
18
100
AcDbEntity
  8
ROGO
 62
     4
100
AcDbLine
 10
309.7517222194735
 20
97.08454314114135
 30
0.0
 11
310.8082796923537
 21
97.08454314114135
 31
0.0
  0
LINE
  5
C6F
102
{ACAD_REACTORS
330
C57
102
}
330
18
100
AcDbEntity
  8
ROGO
 62
     4
100
AcDbLine
 10
311.4751108162059
 20
95.76316292183765
 30
0.0
 11
311.1317617301357
 21
95.07458119911246
 31
0.0
  0
SPLINE
  5
C70
102
{ACAD_REACTORS
330
C56
102
}
330
18
100
AcDbEntity
  8
ROGO
 62
     4
100
AcDbSpline
210
0.0
220
0.0
230
1.0
 70
     8
 71
     3
 72
    11
 73
     7
 74
     0
 42
0.0000000001
 43
0.0000000001
 40
0.1647869275458134
 40
0.1647869275458134
 40
0.1647869275458134
 40
0.1647869275458134
 40
0.2895635144633836
 40
0.5387013147903714
 40
0.7953622617455423
 40
0.8850764140209602
 40
0.8850764140209602
 40
0.8850764140209602
 40
0.8850764140209602
 10
307.4113739108168
 20
96.06202301501447
 30
0.0
 10
307.3934014986443
 20
96.0570203872362
 30
0.0
 10
307.3376773410861
 20
96.04811348608542
 30
0.0
 10
307.2442074976228
 20
96.03588326474824
 30
0.0
 10
307.155369086356
 20
96.02312058256803
 30
0.0
 10
307.1033867644336
 20
96.02412239173384
 30
0.0
 10
307.0899228925937
 20
96.02438186898917
 30
0.0
  0
SPLINE
  5
C71
102
{ACAD_REACTORS
330
C56
102
}
330
18
100
AcDbEntity
  8
ROGO
 62
     4
100
AcDbSpline
210
0.0
220
0.0
230
1.0
 70
     8
 71
     3
 72
     9
 73
     5
 74
     3
 42
0.0000000001
 43
0.0000000001
 44
0.0000000001
 40
0.0
 40
0.0
 40
0.0
 40
0.0
 40
0.146030572742497
 40
0.3423777932799819
 40
0.3423777932799819
 40
0.3423777932799819
 40
0.3423777932799819
 10
307.4113739108168
 20
96.06202301501447
 30
0.0
 10
307.4582831557971
 20
96.07637459465861
 30
0.0
 10
307.5682648088109
 20
96.1100227689851
 30
0.0
 10
307.6591348481155
 20
96.18113860612371
 30
0.0
 10
307.7112471053872
 20
96.22192220024817
 30
0.0
 11
307.4113739108168
 21
96.06202301501447
 31
0.0
 11
307.5486248933914
 21
96.11189380764699
 31
0.0
 11
307.7112471053872
 21
96.22192220024817
 31
0.0
  0
LINE
  5
C72
102
{ACAD_REACTORS
330
C56
102
}
330
18
100
AcDbEntity
  8
ROGO
 62
     4
100
AcDbLine
 10
306.1250536913553
 20
96.02438186898917
 30
0.0
 11
307.0899228925937
 21
96.02438186898917
 31
0.0
  0
ELLIPSE
  5
C73
330
18
100
AcDbEntity
  8
ROGO
 62
     4
100
AcDbEllipse
 10
306.8408652921503
 20
96.84842978578878
 30
0.0
 11
0.2292231973722778
 21
0.2015731185223643
 31
0.0
210
0.0
220
0.0
230
1.0
 40
0.6788083417438792
 41
0.0
 42
6.283185307179586
  0
LINE
  5
C74
102
{ACAD_REACTORS
330
C57
102
}
330
18
100
AcDbEntity
  8
ROGO
 62
     4
100
AcDbLine
 10
311.4751108162059
 20
95.76316292183765
 30
0.0
 11
311.818459902276
 21
95.07458119911246
 31
0.0
  0
LINE
  5
C75
102
{ACAD_REACTORS
330
C57
102
}
330
18
100
AcDbEntity
  8
ROGO
 62
     4
100
AcDbLine
 10
312.1328179247739
 20
96.39364613226632
 30
0.0
 11
312.790546302276
 21
95.07458119911246
 31
0.0
  0
LINE
  5
C76
102
{ACAD_REACTORS
330
C57
102
}
330
18
100
AcDbEntity
  8
ROGO
 62
     4
100
AcDbLine
 10
311.4751108162059
 20
97.7127110654202
 30
0.0
 11
312.4472184851398
 21
97.7127110654202
 31
0.0
  0
LINE
  5
C77
102
{ACAD_REACTORS
330
C53
102
}
330
18
100
AcDbEntity
  8
ROGO
 62
     4
100
AcDbLine
 10
303.9907966477197
 20
97.7127110654203
 30
0.0
 11
305.6815576589987
 21
97.7127110654203
 31
0.0
  0
LINE
  5
C78
102
{ACAD_REACTORS
330
C5A
102
}
330
18
100
AcDbEntity
  8
ROGO
 62
     4
100
AcDbLine
 10
300.8226127210602
 20
97.7127110654202
 30
0.0
 11
302.1731314846235
 21
97.7127110654202
 31
0.0
  0
LINE
  5
C79
330
18
100
AcDbEntity
  8
ROGO
 62
     4
100
AcDbLine
 10
309.4307434960555
 20
97.7127110654202
 30
0.0
 11
311.1215045073345
 21
97.7127110654202
 31
0.0
  0
LINE
  5
C7A
102
{ACAD_REACTORS
330
C56
102
}
330
18
100
AcDbEntity
  8
ROGO
 62
     4
100
AcDbLine
 10
306.6191330704822
 20
97.71975320435604
 30
0.0
 11
307.5840022717206
 21
97.71975320435604
 31
0.0
  0
LINE
  5
C7B
330
18
100
AcDbEntity
  8
外形線
100
AcDbLine
 10
314.557994908871
 20
109.55255915811
 30
0.0
 11
314.557994908871
 21
108.4803771396369
 31
0.0
  0
LINE
  5
C7C
102
{ACAD_REACTORS
330
C57
102
}
330
18
100
AcDbEntity
  8
ROGO
 62
     4
100
AcDbLine
 10
312.7587570544856
 20
97.7127110654202
 30
0.0
 11
313.7308434544856
 21
97.7127110654202
 31
0.0
  0
LINE
  5
C7D
330
18
100
AcDbEntity
  8
外形線
100
AcDbLine
 10
287.557994908871
 20
67.06980566573122
 30
0.0
 11
287.557994908871
 21
56.92662483065749
 31
0.0
  0
LINE
  5
C7E
330
18
100
AcDbEntity
  8
外形線
100
AcDbLine
 10
319.557994908871
 20
67.06980566573122
 30
0.0
 11
319.557994908871
 21
56.92662483065749
 31
0.0
  0
LINE
  5
C7F
330
18
100
AcDbEntity
  8
外形線
100
AcDbLine
 10
288.557994908871
 20
68.06980566573122
 30
0.0
 11
318.557994908871
 21
68.06980566573122
 31
0.0
  0
ARC
  5
C80
330
18
100
AcDbEntity
  8
外形線
100
AcDbCircle
 10
303.557994908871
 20
80.56980566573122
 30
0.0
 40
29.0
100
AcDbArc
 50
56.51462337700688
 51
123.4853766229931
  0
ARC
  5
C81
330
18
100
AcDbEntity
  8
外形線
100
AcDbCircle
 10
303.557994908871
 20
80.56980566573122
 30
0.0
 40
29.0
100
AcDbArc
 50
237.6076345141539
 51
302.3923654858461
  0
ARC
  5
C82
330
18
100
AcDbEntity
  8
外形線
100
AcDbCircle
 10
288.557994908871
 20
67.06980566573122
 30
0.0
 40
1.0
100
AcDbArc
 50
90.0
 51
180.0
  0
ARC
  5
C83
330
18
100
AcDbEntity
  8
外形線
100
AcDbCircle
 10
318.557994908871
 20
67.06980566573122
 30
0.0
 40
1.0
100
AcDbArc
 50
0.0
 51
90.0
  0
ARC
  5
C84
330
18
100
AcDbEntity
  8
外形線
100
AcDbCircle
 10
318.557994908871
 20
56.92662483065749
 30
0.0
 40
1.0
100
AcDbArc
 50
302.3923654858406
 51
0.0
  0
ARC
  5
C85
330
18
100
AcDbEntity
  8
外形線
100
AcDbCircle
 10
288.557994908871
 20
56.92662483065749
 30
0.0
 40
1.0
100
AcDbArc
 50
180.0
 51
237.6076345141557
  0
ELLIPSE
  5
C86
330
18
100
AcDbEntity
  8
外形線
100
AcDbEllipse
 10
311.4067767964797
 20
60.66152219255195
 30
0.0
 11
-4.089143464216689
 21
0.0
 31
0.0
210
0.0
220
0.0
230
1.0
 40
0.6358299782710266
 41
0.0
 42
6.283185307179586
  0
ELLIPSE
  5
C87
330
18
100
AcDbEntity
  8
外形線
100
AcDbEllipse
 10
296.2305810994707
 20
60.66152219255195
 30
0.0
 11
-4.089143464216689
 21
0.0
 31
0.0
210
0.0
220
0.0
230
1.0
 40
0.6358299782710266
 41
0.0
 42
6.283185307179586
  0
TEXT
  5
C88
330
18
100
AcDbEntity
  8
寸法線
100
AcDbText
 10
309.712491217569
 20
54.52707450029277
 30
0.0
 40
1.199999999999999
  1
SET
  7
STYLE4
100
AcDbText
  0
ELLIPSE
  5
C89
330
18
100
AcDbEntity
  8
外形線
100
AcDbEllipse
 10
311.4067767964797
 20
60.66152219255195
 30
0.0
 11
-5.473687379191062
 21
0.0
 31
0.0
210
0.0
220
0.0
230
1.0
 40
0.7307688077339824
 41
0.0
 42
6.283185307179586
  0
ELLIPSE
  5
C8A
330
18
100
AcDbEntity
  8
外形線
100
AcDbEllipse
 10
296.2305810994707
 20
60.66152219255195
 30
0.0
 11
-5.473687379191062
 21
0.0
 31
0.0
210
0.0
220
0.0
230
1.0
 40
0.7307688077339824
 41
0.0
 42
6.283185307179586
  0
LINE
  5
C8B
330
18
100
AcDbEntity
  8
外形線
100
AcDbLine
 10
297.5579949088711
 20
47.4698056657312
 30
0.0
 11
309.557994908871
 21
47.46980566573131
 31
0.0
  0
LINE
  5
C8C
330
18
100
AcDbEntity
  8
外形線
100
AcDbLine
 10
297.5579949088711
 20
47.4698056657312
 30
0.0
 11
298.557994908871
 21
45.4698056657312
 31
0.0
  0
LINE
  5
C8D
330
18
100
AcDbEntity
  8
外形線
100
AcDbLine
 10
309.557994908871
 20
47.46980566573131
 30
0.0
 11
308.557994908871
 21
45.46980566573131
 31
0.0
  0
LINE
  5
C8E
330
18
100
AcDbEntity
  8
外形線
100
AcDbLine
 10
297.5579949088711
 20
47.9698056657312
 30
0.0
 11
309.557994908871
 21
47.96980566573131
 31
0.0
  0
LINE
  5
C8F
330
18
100
AcDbEntity
  8
中心線
 48
0.3
100
AcDbLine
 10
289.2609930019046
 20
60.66152219255195
 30
0.0
 11
303.2001691970368
 21
60.66152219255195
 31
0.0
  0
LINE
  5
C90
330
18
100
AcDbEntity
  8
中心線
 48
0.3
100
AcDbLine
 10
296.2305810994707
 20
65.97913217634243
 30
0.0
 11
296.2305810994707
 21
55.38028343610221
 31
0.0
  0
LINE
  5
C91
330
18
100
AcDbEntity
  8
中心線
 48
0.3
100
AcDbLine
 10
311.4067767964797
 20
65.97913217634243
 30
0.0
 11
311.4067767964797
 21
55.38028343610221
 31
0.0
  0
LINE
  5
C92
330
18
100
AcDbEntity
  8
中心線
 48
0.3
100
AcDbLine
 10
304.4371886989136
 20
60.66152219255195
 30
0.0
 11
318.3763648940458
 21
60.66152219255195
 31
0.0
  0
LINE
  5
C93
330
18
100
AcDbEntity
  8
外形線
100
AcDbLine
 10
308.5579949088711
 20
135.4698056657312
 30
0.0
 11
308.5579949088711
 21
128.1698056657312
 31
0.0
  0
LINE
  5
C94
330
18
100
AcDbEntity
  8
外形線
100
AcDbLine
 10
298.5579949088711
 20
135.4698056657313
 30
0.0
 11
298.557994908871
 21
128.1698056657312
 31
0.0
  0
LINE
  5
C95
330
18
100
AcDbEntity
  8
外形線
100
AcDbLine
 10
298.5579949088711
 20
128.1698056657312
 30
0.0
 11
308.5579949088711
 21
128.1698056657312
 31
0.0
  0
LINE
  5
C96
330
18
100
AcDbEntity
  8
外形線
100
AcDbLine
 10
298.5579949088711
 20
127.5698056657312
 30
0.0
 11
308.5579949088711
 21
127.5698056657312
 31
0.0
  0
LINE
  5
C97
330
18
100
AcDbEntity
  8
外形線
100
AcDbLine
 10
297.5579949088711
 20
126.5698056657312
 30
0.0
 11
309.5579949088711
 21
126.5698056657312
 31
0.0
  0
LINE
  5
C98
330
18
100
AcDbEntity
  8
外形線
100
AcDbLine
 10
297.5579949088711
 20
126.5698056657312
 30
0.0
 11
298.5579949088711
 21
127.5698056657312
 31
0.0
  0
LINE
  5
C99
330
18
100
AcDbEntity
  8
外形線
100
AcDbLine
 10
299.557994908871
 20
128.1698056657312
 30
0.0
 11
299.557994908871
 21
127.5698056657312
 31
0.0
  0
POINT
  5
C9A
330
18
100
AcDbEntity
  8
DEFPOINTS
  6
ByBlock
 62
     0
100
AcDbPoint
 10
298.5579949088711
 20
127.5698056657312
 30
0.0
  0
LINE
  5
C9B
330
18
100
AcDbEntity
  8
外形線
100
AcDbLine
 10
308.5579949088711
 20
127.5698056657312
 30
0.0
 11
309.5579949088711
 21
126.5698056657312
 31
0.0
  0
LINE
  5
C9C
330
18
100
AcDbEntity
  8
外形線
100
AcDbLine
 10
307.5579949088711
 20
128.1698056657313
 30
0.0
 11
307.5579949088711
 21
127.5698056657312
 31
0.0
  0
LINE
  5
C9D
330
18
100
AcDbEntity
  8
外形線
100
AcDbLine
 10
300.0579949088711
 20
144.5698056657312
 30
0.0
 11
307.0579949088711
 21
144.5698056657312
 31
0.0
  0
LINE
  5
C9E
330
18
100
AcDbEntity
  8
外形線
100
AcDbLine
 10
298.5579949088712
 20
135.4698056657313
 30
0.0
 11
308.5579949088711
 21
135.4698056657312
 31
0.0
  0
LINE
  5
C9F
330
18
100
AcDbEntity
  8
外形線
100
AcDbLine
 10
298.5579949088712
 20
136.9698056657313
 30
0.0
 11
308.5579949088711
 21
136.9698056657312
 31
0.0
  0
LINE
  5
CA0
330
18
100
AcDbEntity
  8
外形線
100
AcDbLine
 10
298.5579949088712
 20
138.2698056657314
 30
0.0
 11
308.5579949088711
 21
138.2698056657313
 31
0.0
  0
LINE
  5
CA1
330
18
100
AcDbEntity
  8
外形線
100
AcDbLine
 10
298.5579949088712
 20
139.2698056657314
 30
0.0
 11
308.5579949088711
 21
139.2698056657312
 31
0.0
  0
LINE
  5
CA2
330
18
100
AcDbEntity
  8
外形線
100
AcDbLine
 10
298.5579949088712
 20
140.5698056657313
 30
0.0
 11
308.5579949088711
 21
140.5698056657313
 31
0.0
  0
LINE
  5
CA3
330
18
100
AcDbEntity
  8
外形線
100
AcDbLine
 10
298.5579949088712
 20
141.5698056657313
 30
0.0
 11
308.5579949088711
 21
141.5698056657313
 31
0.0
  0
LINE
  5
CA4
330
18
100
AcDbEntity
  8
外形線
100
AcDbLine
 10
298.5579949088711
 20
143.0698056657312
 30
0.0
 11
298.5579949088711
 21
141.5698056657313
 31
0.0
  0
LINE
  5
CA5
330
18
100
AcDbEntity
  8
外形線
100
AcDbLine
 10
299.557994908871
 20
141.5698056657313
 30
0.0
 11
299.557994908871
 21
140.5698056657313
 31
0.0
  0
LINE
  5
CA6
330
18
100
AcDbEntity
  8
外形線
100
AcDbLine
 10
299.557994908871
 20
139.2698056657311
 30
0.0
 11
299.557994908871
 21
138.2698056657313
 31
0.0
  0
LINE
  5
CA7
330
18
100
AcDbEntity
  8
外形線
100
AcDbLine
 10
298.5579949088711
 20
140.5698056657313
 30
0.0
 11
298.5579949088711
 21
139.2698056657314
 31
0.0
  0
ARC
  5
CA8
330
18
100
AcDbEntity
  8
外形線
100
AcDbCircle
 10
300.0579949088711
 20
143.0698056657312
 30
0.0
 40
1.5
100
AcDbArc
 50
90.0
 51
180.0
  0
LINE
  5
CA9
330
18
100
AcDbEntity
  8
外形線
100
AcDbLine
 10
299.557994908871
 20
136.9698056657313
 30
0.0
 11
299.557994908871
 21
135.4698056657312
 31
0.0
  0
LINE
  5
CAA
330
18
100
AcDbEntity
  8
外形線
100
AcDbLine
 10
298.5579949088711
 20
138.2698056657314
 30
0.0
 11
298.5579949088711
 21
136.9698056657313
 31
0.0
  0
LINE
  5
CAB
330
18
100
AcDbEntity
  8
外形線
100
AcDbLine
 10
308.5579949088711
 20
143.0698056657312
 30
0.0
 11
308.5579949088711
 21
141.5698056657311
 31
0.0
  0
LINE
  5
CAC
330
18
100
AcDbEntity
  8
外形線
100
AcDbLine
 10
307.5579949088711
 20
141.5698056657312
 30
0.0
 11
307.5579949088711
 21
140.5698056657313
 31
0.0
  0
LINE
  5
CAD
330
18
100
AcDbEntity
  8
外形線
100
AcDbLine
 10
307.5579949088711
 20
139.2698056657312
 30
0.0
 11
307.5579949088711
 21
138.2698056657311
 31
0.0
  0
LINE
  5
CAE
330
18
100
AcDbEntity
  8
外形線
100
AcDbLine
 10
308.5579949088711
 20
140.5698056657312
 30
0.0
 11
308.5579949088711
 21
139.2698056657311
 31
0.0
  0
ARC
  5
CAF
330
18
100
AcDbEntity
  8
外形線
100
AcDbCircle
 10
307.0579949088711
 20
143.0698056657312
 30
0.0
 40
1.5
100
AcDbArc
 50
0.0
 51
90.0
  0
LINE
  5
CB0
330
18
100
AcDbEntity
  8
外形線
100
AcDbLine
 10
307.5579949088711
 20
136.9698056657312
 30
0.0
 11
307.5579949088711
 21
135.4698056657312
 31
0.0
  0
LINE
  5
CB1
330
18
100
AcDbEntity
  8
外形線
100
AcDbLine
 10
308.5579949088711
 20
138.2698056657313
 30
0.0
 11
308.5579949088711
 21
136.9698056657312
 31
0.0
  0
LINE
  5
CB2
330
18
100
AcDbEntity
  8
外形線
100
AcDbLine
 10
299.807994908871
 20
24.46980566573126
 30
0.0
 11
307.307994908871
 21
24.46980566573126
 31
0.0
  0
LINE
  5
CB3
330
18
100
AcDbEntity
  8
外形線
100
AcDbLine
 10
305.557994908871
 20
24.46980566573126
 30
0.0
 11
305.557994908871
 21
-1.930194334268776
 31
0.0
  0
LINE
  5
CB4
330
18
100
AcDbEntity
  8
外形線
100
AcDbLine
 10
301.557994908871
 20
24.46980566573126
 30
0.0
 11
301.557994908871
 21
-1.930194334268776
 31
0.0
  0
LINE
  5
CB5
330
18
100
AcDbEntity
  8
外形線
100
AcDbLine
 10
306.057994908871
 20
-2.130194334268765
 30
0.0
 11
306.0579949088709
 21
-5.230194334268787
 31
0.0
  0
LINE
  5
CB6
330
18
100
AcDbEntity
  8
寸法線
100
AcDbLine
 10
303.557994908871
 20
-3.595031155602271
 30
0.0
 11
302.0931580875376
 21
-2.130194334268821
 31
0.0
  0
LINE
  5
CB7
330
18
100
AcDbEntity
  8
寸法線
100
AcDbLine
 10
303.557994908871
 20
-4.942069573762637
 30
0.0
 11
301.057994908871
 21
-2.442069573762637
 31
0.0
  0
LINE
  5
CB8
330
18
100
AcDbEntity
  8
外形線
100
AcDbLine
 10
301.057994908871
 20
-2.130194334268765
 30
0.0
 11
301.057994908871
 21
-5.230194334268787
 31
0.0
  0
LINE
  5
CB9
330
18
100
AcDbEntity
  8
寸法線
100
AcDbLine
 10
301.057994908871
 20
-3.884361647908804
 30
0.0
 11
302.812162222511
 21
-2.130194334268821
 31
0.0
  0
LINE
  5
CBA
330
18
100
AcDbEntity
  8
寸法線
100
AcDbLine
 10
301.057994908871
 20
-2.537323229748409
 30
0.0
 11
301.4651238043507
 21
-2.130194334268765
 31
0.0
  0
LINE
  5
CBB
330
18
100
AcDbEntity
  8
外形線
100
AcDbLine
 10
301.307994908871
 20
-5.430194334268776
 30
0.0
 11
302.257994908871
 21
-9.930194334268776
 31
0.0
  0
LINE
  5
CBC
330
18
100
AcDbEntity
  8
外形線
100
AcDbLine
 10
305.807994908871
 20
-5.430194334268776
 30
0.0
 11
304.857994908871
 21
-9.930194334268776
 31
0.0
  0
LINE
  5
CBD
330
18
100
AcDbEntity
  8
外形線
100
AcDbLine
 10
302.257994908871
 20
-9.930194334268776
 30
0.0
 11
304.857994908871
 21
-9.930194334268776
 31
0.0
  0
ARC
  5
CBE
330
18
100
AcDbEntity
  8
外形線
100
AcDbCircle
 10
303.557994908871
 20
-9.78019433426877
 30
0.0
 40
1.150000000000005
100
AcDbArc
 50
187.4947174539263
 51
352.5052825460737
  0
POINT
  5
CBF
330
18
100
AcDbEntity
  8
DEFPOINTS
  6
ByBlock
 62
     0
100
AcDbPoint
 10
303.557994908871
 20
-10.93019433426877
 30
0.0
  0
LINE
  5
CC0
330
18
100
AcDbEntity
  8
寸法線
100
AcDbLine
 10
301.0592006406714
 20
-5.230194334268787
 30
0.0
 11
303.5579949088711
 21
-2.731400066069113
 31
0.0
  0
LINE
  5
CC1
330
18
100
AcDbEntity
  8
寸法線
100
AcDbLine
 10
302.4990812512169
 20
-5.230194334268816
 30
0.0
 11
301.057994908871
 21
-3.789107991922946
 31
0.0
  0
LINE
  5
CC2
330
18
100
AcDbEntity
  8
外形線
100
AcDbLine
 10
301.0579949088709
 20
-5.230194334268787
 30
0.0
 11
306.057994908871
 21
-5.230194334268787
 31
0.0
  0
LINE
  5
CC3
330
18
100
AcDbEntity
  8
外形線
100
AcDbLine
 10
301.307994908871
 20
-5.430194334268776
 30
0.0
 11
305.8079949088709
 21
-5.430194334268776
 31
0.0
  0
LINE
  5
CC4
330
18
100
AcDbEntity
  8
寸法線
100
AcDbLine
 10
301.1520428330565
 20
-5.230194334268787
 30
0.0
 11
301.057994908871
 21
-5.136146410083313
 31
0.0
  0
LINE
  5
CC5
330
18
100
AcDbEntity
  8
外形線
100
AcDbLine
 10
301.057994908871
 20
-5.230194334268787
 30
0.0
 11
301.307994908871
 21
-5.430194334268776
 31
0.0
  0
LINE
  5
CC6
330
18
100
AcDbEntity
  8
外形線
100
AcDbLine
 10
306.057994908871
 20
-5.230194334268787
 30
0.0
 11
305.807994908871
 21
-5.430194334268776
 31
0.0
  0
LINE
  5
CC7
330
18
100
AcDbEntity
  8
寸法線
100
AcDbLine
 10
302.4062390588318
 20
-5.230194334268787
 30
0.0
 11
303.557994908871
 21
-4.078438484229536
 31
0.0
  0
LINE
  5
CC8
330
18
100
AcDbEntity
  8
外形線
100
AcDbLine
 10
301.0579949088709
 20
-2.130194334268765
 30
0.0
 11
306.057994908871
 21
-2.130194334268765
 31
0.0
  0
LINE
  5
CC9
330
18
100
AcDbEntity
  8
外形線
100
AcDbLine
 10
301.307994908871
 20
-1.930194334268776
 30
0.0
 11
305.807994908871
 21
-1.930194334268776
 31
0.0
  0
LINE
  5
CCA
330
18
100
AcDbEntity
  8
外形線
100
AcDbLine
 10
301.307994908871
 20
-1.930194334268776
 30
0.0
 11
301.057994908871
 21
-2.130194334268765
 31
0.0
  0
LINE
  5
CCB
330
18
100
AcDbEntity
  8
外形線
100
AcDbLine
 10
305.807994908871
 20
-1.930194334268776
 30
0.0
 11
306.057994908871
 21
-2.130194334268765
 31
0.0
  0
LINE
  5
CCC
330
18
100
AcDbEntity
  8
寸法線
100
AcDbLine
 10
303.5579949088711
 20
-2.247992737441904
 30
0.0
 11
303.440196505698
 21
-2.130194334268793
 31
0.0
  0
DIMENSION
  5
CCD
330
18
100
AcDbEntity
  8
寸法線
100
AcDbDimension
  2
*D20
 10
256.0736276783675
 20
80.56980566573122
 30
0.0
 11
254.1986276783675
 21
112.5698056657312
 31
0.0
 70
    32
 71
     5
 42
64.0
  3
STYLE3
100
AcDbAlignedDimension
 13
303.557994908871
 23
144.5698056657312
 33
0.0
 14
267.6390329568169
 24
80.56980566573122
 34
0.0
 50
90.0
100
AcDbRotatedDimension
1001
ACAD
1000
DSTYLE
1002
{
1070
   271
1070
     2
1070
   341
1005
0
1002
}
  0
DIMENSION
  5
CCE
330
18
100
AcDbEntity
  8
寸法線
100
AcDbDimension
  2
*D21
 10
256.0736276783675
 20
45.46980566573121
 30
0.0
 11
254.1986276783675
 21
63.01980566573125
 31
0.0
 70
    32
 71
     5
 42
35.10000000000002
  3
STYLE3
100
AcDbAlignedDimension
 13
267.6390329568169
 23
80.56980566573122
 33
0.0
 14
298.557994908871
 24
45.4698056657312
 34
0.0
 50
90.0
100
AcDbRotatedDimension
1001
ACAD
1000
DSTYLE
1002
{
1070
   279
1070
     1
1070
   271
1070
     2
1070
   341
1005
0
1002
}
  0
DIMENSION
  5
CCF
330
18
100
AcDbEntity
  8
寸法線
100
AcDbDimension
  2
*D22
 10
256.2523939475047
 20
24.46980566573127
 30
0.0
 11
254.3773939475047
 21
34.96980566573129
 31
0.0
 70
    32
 71
     5
 42
20.99999999999994
  3
STYLE3
100
AcDbAlignedDimension
 13
298.557994908871
 23
45.4698056657312
 33
0.0
 14
299.807994908871
 24
24.46980566573126
 34
0.0
 50
90.0
100
AcDbRotatedDimension
1001
ACAD
1000
DSTYLE
1002
{
1070
   279
1070
     1
1070
   271
1070
     2
1070
   341
1005
0
1002
}
  0
DIMENSION
  5
CD0
330
18
100
AcDbEntity
  8
寸法線
100
AcDbDimension
  2
*D23
 10
256.2523939475047
 20
-1.930194334268763
 30
0.0
 11
254.3773939475047
 21
11.26980566573129
 31
0.0
 70
    32
 71
     5
 42
26.40000000000004
  3
STYLE3
100
AcDbAlignedDimension
 13
299.807994908871
 23
24.46980566573126
 33
0.0
 14
301.557994908871
 24
-1.930194334268776
 34
0.0
 50
90.0
100
AcDbRotatedDimension
1001
ACAD
1000
DSTYLE
1002
{
1070
   279
1070
     1
1070
   271
1070
     2
1070
   341
1005
0
1002
}
  0
DIMENSION
  5
CD1
330
18
100
AcDbEntity
  8
寸法線
100
AcDbDimension
  2
*D24
 10
256.2523939475047
 20
-10.93019433426876
 30
0.0
 11
254.3773939475047
 21
-6.430194334268722
 31
0.0
 70
    32
 71
     5
 42
9.0
  3
STYLE3
100
AcDbAlignedDimension
 13
301.557994908871
 23
-1.930194334268776
 33
0.0
 14
303.557994908871
 24
-10.93019433426877
 34
0.0
 50
90.0
100
AcDbRotatedDimension
1001
ACAD
1000
DSTYLE
1002
{
1070
   279
1070
     1
1070
   271
1070
     2
1070
   341
1005
0
1002
}
  0
DIMENSION
  5
CD2
330
18
100
AcDbEntity
  8
寸法線
100
AcDbDimension
  2
*D25
 10
247.4380846366422
 20
-10.93019433426876
 30
0.0
 11
245.5630846366422
 21
66.81980566573127
 31
0.0
 70
    32
 71
     5
 42
155.5
  3
STYLE3
100
AcDbAlignedDimension
 13
303.557994908871
 23
144.5698056657312
 33
0.0
 14
303.557994908871
 24
-10.93019433426877
 34
0.0
 50
90.0
100
AcDbRotatedDimension
1001
ACAD
1000
DSTYLE
1002
{
1070
   271
1070
     2
1070
   341
1005
0
1002
}
  0
LINE
  5
CD3
330
18
100
AcDbEntity
  8
外形線
100
AcDbLine
 10
385.9106291517279
 20
126.5698056657313
 30
0.0
 11
385.9106291517279
 21
109.9698056657311
 31
0.0
  0
LINE
  5
CD4
330
18
100
AcDbEntity
  8
外形線
100
AcDbLine
 10
373.9106291517279
 20
126.5698056657311
 30
0.0
 11
373.9106291517278
 21
109.9698056657312
 31
0.0
  0
LINE
  5
CD5
330
18
100
AcDbEntity
  8
外形線
100
AcDbLine
 10
384.910629151728
 20
135.4698056657312
 30
0.0
 11
384.910629151728
 21
128.1698056657312
 31
0.0
  0
LINE
  5
CD6
330
18
100
AcDbEntity
  8
外形線
100
AcDbLine
 10
374.9106291517279
 20
135.4698056657313
 30
0.0
 11
374.9106291517279
 21
128.1698056657312
 31
0.0
  0
LINE
  5
CD7
330
18
100
AcDbEntity
  8
外形線
100
AcDbLine
 10
374.9106291517279
 20
128.1698056657312
 30
0.0
 11
384.910629151728
 21
128.1698056657312
 31
0.0
  0
LINE
  5
CD8
330
18
100
AcDbEntity
  8
外形線
100
AcDbLine
 10
374.9106291517279
 20
127.5698056657312
 30
0.0
 11
384.910629151728
 21
127.5698056657312
 31
0.0
  0
LINE
  5
CD9
330
18
100
AcDbEntity
  8
外形線
100
AcDbLine
 10
373.9106291517279
 20
126.5698056657312
 30
0.0
 11
385.910629151728
 21
126.5698056657312
 31
0.0
  0
LINE
  5
CDA
330
18
100
AcDbEntity
  8
外形線
100
AcDbLine
 10
373.910629151728
 20
126.5698056657312
 30
0.0
 11
374.9106291517279
 21
127.5698056657312
 31
0.0
  0
LINE
  5
CDB
330
18
100
AcDbEntity
  8
外形線
100
AcDbLine
 10
375.9106291517279
 20
128.1698056657312
 30
0.0
 11
375.9106291517279
 21
127.5698056657312
 31
0.0
  0
POINT
  5
CDC
330
18
100
AcDbEntity
  8
DEFPOINTS
  6
ByBlock
 62
     0
100
AcDbPoint
 10
374.9106291517279
 20
127.5698056657312
 30
0.0
  0
LINE
  5
CDD
330
18
100
AcDbEntity
  8
外形線
100
AcDbLine
 10
384.910629151728
 20
127.5698056657312
 30
0.0
 11
385.910629151728
 21
126.5698056657312
 31
0.0
  0
LINE
  5
CDE
330
18
100
AcDbEntity
  8
外形線
100
AcDbLine
 10
383.910629151728
 20
128.1698056657313
 30
0.0
 11
383.910629151728
 21
127.5698056657312
 31
0.0
  0
LINE
  5
CDF
330
18
100
AcDbEntity
  8
外形線
100
AcDbLine
 10
376.410629151728
 20
144.5698056657312
 30
0.0
 11
383.410629151728
 21
144.5698056657312
 31
0.0
  0
LINE
  5
CE0
330
18
100
AcDbEntity
  8
外形線
100
AcDbLine
 10
374.910629151728
 20
135.4698056657313
 30
0.0
 11
384.910629151728
 21
135.4698056657312
 31
0.0
  0
LINE
  5
CE1
330
18
100
AcDbEntity
  8
外形線
100
AcDbLine
 10
374.910629151728
 20
136.9698056657313
 30
0.0
 11
384.910629151728
 21
136.9698056657312
 31
0.0
  0
LINE
  5
CE2
330
18
100
AcDbEntity
  8
外形線
100
AcDbLine
 10
374.910629151728
 20
138.2698056657314
 30
0.0
 11
384.910629151728
 21
138.2698056657313
 31
0.0
  0
LINE
  5
CE3
330
18
100
AcDbEntity
  8
外形線
100
AcDbLine
 10
374.910629151728
 20
139.2698056657314
 30
0.0
 11
384.910629151728
 21
139.2698056657312
 31
0.0
  0
LINE
  5
CE4
330
18
100
AcDbEntity
  8
外形線
100
AcDbLine
 10
374.910629151728
 20
140.5698056657313
 30
0.0
 11
384.910629151728
 21
140.5698056657313
 31
0.0
  0
LINE
  5
CE5
330
18
100
AcDbEntity
  8
外形線
100
AcDbLine
 10
374.910629151728
 20
141.5698056657313
 30
0.0
 11
384.910629151728
 21
141.5698056657313
 31
0.0
  0
LINE
  5
CE6
330
18
100
AcDbEntity
  8
外形線
100
AcDbLine
 10
374.9106291517279
 20
143.0698056657312
 30
0.0
 11
374.9106291517279
 21
141.5698056657313
 31
0.0
  0
LINE
  5
CE7
330
18
100
AcDbEntity
  8
外形線
100
AcDbLine
 10
375.9106291517278
 20
141.5698056657313
 30
0.0
 11
375.9106291517278
 21
140.5698056657313
 31
0.0
  0
LINE
  5
CE8
330
18
100
AcDbEntity
  8
外形線
100
AcDbLine
 10
375.9106291517278
 20
139.2698056657311
 30
0.0
 11
375.9106291517279
 21
138.2698056657313
 31
0.0
  0
LINE
  5
CE9
330
18
100
AcDbEntity
  8
外形線
100
AcDbLine
 10
374.9106291517279
 20
140.5698056657313
 30
0.0
 11
374.9106291517279
 21
139.2698056657314
 31
0.0
  0
ARC
  5
CEA
330
18
100
AcDbEntity
  8
外形線
100
AcDbCircle
 10
376.410629151728
 20
143.0698056657312
 30
0.0
 40
1.5
100
AcDbArc
 50
90.0
 51
180.0
  0
LINE
  5
CEB
330
18
100
AcDbEntity
  8
外形線
100
AcDbLine
 10
375.9106291517279
 20
136.9698056657313
 30
0.0
 11
375.9106291517279
 21
135.4698056657312
 31
0.0
  0
LINE
  5
CEC
330
18
100
AcDbEntity
  8
外形線
100
AcDbLine
 10
374.9106291517279
 20
138.2698056657314
 30
0.0
 11
374.9106291517279
 21
136.9698056657313
 31
0.0
  0
LINE
  5
CED
330
18
100
AcDbEntity
  8
外形線
100
AcDbLine
 10
384.910629151728
 20
143.0698056657312
 30
0.0
 11
384.910629151728
 21
141.5698056657311
 31
0.0
  0
LINE
  5
CEE
330
18
100
AcDbEntity
  8
外形線
100
AcDbLine
 10
383.910629151728
 20
141.5698056657312
 30
0.0
 11
383.910629151728
 21
140.5698056657313
 31
0.0
  0
LINE
  5
CEF
330
18
100
AcDbEntity
  8
外形線
100
AcDbLine
 10
383.910629151728
 20
139.2698056657312
 30
0.0
 11
383.910629151728
 21
138.2698056657311
 31
0.0
  0
LINE
  5
CF0
330
18
100
AcDbEntity
  8
外形線
100
AcDbLine
 10
384.910629151728
 20
140.5698056657312
 30
0.0
 11
384.910629151728
 21
139.2698056657311
 31
0.0
  0
ARC
  5
CF1
330
18
100
AcDbEntity
  8
外形線
100
AcDbCircle
 10
383.410629151728
 20
143.0698056657312
 30
0.0
 40
1.5
100
AcDbArc
 50
0.0
 51
90.0
  0
LINE
  5
CF2
330
18
100
AcDbEntity
  8
外形線
100
AcDbLine
 10
383.910629151728
 20
136.9698056657312
 30
0.0
 11
383.910629151728
 21
135.4698056657312
 31
0.0
  0
LINE
  5
CF3
330
18
100
AcDbEntity
  8
外形線
100
AcDbLine
 10
384.910629151728
 20
138.2698056657313
 30
0.0
 11
384.910629151728
 21
136.9698056657312
 31
0.0
  0
LINE
  5
CF4
330
18
100
AcDbEntity
  8
外形線
100
AcDbLine
 10
374.9106291517279
 20
45.4698056657312
 30
0.0
 11
384.9106291517279
 21
45.46980566573131
 31
0.0
  0
POINT
  5
CF5
330
18
100
AcDbEntity
  8
DEFPOINTS
  6
ByBlock
 62
     0
100
AcDbPoint
 10
373.9106291517279
 20
49.56980566573122
 30
0.0
  0
LINE
  5
CF6
330
18
100
AcDbEntity
  8
外形線
100
AcDbLine
 10
373.9106291517279
 20
51.1759287523331
 30
0.0
 11
373.9106291517279
 21
47.4698056657312
 31
0.0
  0
LINE
  5
CF7
330
18
100
AcDbEntity
  8
外形線
100
AcDbLine
 10
385.9106291517279
 20
51.1759287523331
 30
0.0
 11
385.9106291517279
 21
47.46980566573131
 31
0.0
  0
LINE
  5
CF8
330
18
100
AcDbEntity
  8
外形線
100
AcDbLine
 10
373.9106291517279
 20
47.4698056657312
 30
0.0
 11
385.9106291517279
 21
47.46980566573131
 31
0.0
  0
LINE
  5
CF9
330
18
100
AcDbEntity
  8
外形線
100
AcDbLine
 10
373.9106291517279
 20
47.4698056657312
 30
0.0
 11
374.9106291517279
 21
45.4698056657312
 31
0.0
  0
LINE
  5
CFA
330
18
100
AcDbEntity
  8
外形線
100
AcDbLine
 10
385.9106291517279
 20
47.46980566573131
 30
0.0
 11
384.9106291517279
 21
45.46980566573131
 31
0.0
  0
LINE
  5
CFB
330
18
100
AcDbEntity
  8
外形線
100
AcDbLine
 10
373.9106291517279
 20
47.9698056657312
 30
0.0
 11
385.9106291517279
 21
47.96980566573131
 31
0.0
  0
LINE
  5
CFC
330
18
100
AcDbEntity
  8
外形線
100
AcDbLine
 10
381.9106291517279
 20
24.46980566573126
 30
0.0
 11
381.9106291517279
 21
-1.930194334268776
 31
0.0
  0
LINE
  5
CFD
330
18
100
AcDbEntity
  8
外形線
100
AcDbLine
 10
377.9106291517279
 20
24.46980566573126
 30
0.0
 11
377.9106291517279
 21
-1.930194334268776
 31
0.0
  0
LINE
  5
CFE
330
18
100
AcDbEntity
  8
外形線
100
AcDbLine
 10
382.4106291517279
 20
-2.130194334268765
 30
0.0
 11
382.4106291517278
 21
-5.230194334268787
 31
0.0
  0
LINE
  5
CFF
330
18
100
AcDbEntity
  8
寸法線
100
AcDbLine
 10
379.9106291517279
 20
-3.595031155602271
 30
0.0
 11
378.4457923303945
 21
-2.130194334268821
 31
0.0
  0
LINE
  5
D00
330
18
100
AcDbEntity
  8
寸法線
100
AcDbLine
 10
379.9106291517279
 20
-4.942069573762637
 30
0.0
 11
377.4106291517279
 21
-2.442069573762637
 31
0.0
  0
LINE
  5
D01
330
18
100
AcDbEntity
  8
外形線
100
AcDbLine
 10
377.4106291517279
 20
-2.130194334268765
 30
0.0
 11
377.4106291517279
 21
-5.230194334268787
 31
0.0
  0
LINE
  5
D02
330
18
100
AcDbEntity
  8
寸法線
100
AcDbLine
 10
377.4106291517279
 20
-3.884361647908804
 30
0.0
 11
379.1647964653679
 21
-2.130194334268821
 31
0.0
  0
LINE
  5
D03
330
18
100
AcDbEntity
  8
寸法線
100
AcDbLine
 10
377.4106291517279
 20
-2.537323229748409
 30
0.0
 11
377.8177580472076
 21
-2.130194334268765
 31
0.0
  0
LINE
  5
D04
330
18
100
AcDbEntity
  8
外形線
100
AcDbLine
 10
377.6606291517279
 20
-5.430194334268776
 30
0.0
 11
378.6106291517278
 21
-9.930194334268776
 31
0.0
  0
LINE
  5
D05
330
18
100
AcDbEntity
  8
外形線
100
AcDbLine
 10
382.1606291517279
 20
-5.430194334268776
 30
0.0
 11
381.2106291517279
 21
-9.930194334268776
 31
0.0
  0
LINE
  5
D06
330
18
100
AcDbEntity
  8
外形線
100
AcDbLine
 10
378.6106291517278
 20
-9.930194334268776
 30
0.0
 11
381.2106291517279
 21
-9.930194334268776
 31
0.0
  0
ARC
  5
D07
330
18
100
AcDbEntity
  8
外形線
100
AcDbCircle
 10
379.9106291517279
 20
-9.78019433426877
 30
0.0
 40
1.150000000000005
100
AcDbArc
 50
187.4947174539263
 51
352.5052825460737
  0
POINT
  5
D08
330
18
100
AcDbEntity
  8
DEFPOINTS
  6
ByBlock
 62
     0
100
AcDbPoint
 10
379.9106291517279
 20
-10.93019433426877
 30
0.0
  0
LINE
  5
D09
330
18
100
AcDbEntity
  8
寸法線
100
AcDbLine
 10
377.4118348835283
 20
-5.230194334268787
 30
0.0
 11
379.910629151728
 21
-2.731400066069113
 31
0.0
  0
LINE
  5
D0A
330
18
100
AcDbEntity
  8
寸法線
100
AcDbLine
 10
378.8517154940738
 20
-5.230194334268816
 30
0.0
 11
377.4106291517279
 21
-3.789107991922946
 31
0.0
  0
LINE
  5
D0B
330
18
100
AcDbEntity
  8
外形線
100
AcDbLine
 10
377.4106291517278
 20
-5.230194334268787
 30
0.0
 11
382.4106291517279
 21
-5.230194334268787
 31
0.0
  0
LINE
  5
D0C
330
18
100
AcDbEntity
  8
外形線
100
AcDbLine
 10
377.6606291517279
 20
-5.430194334268776
 30
0.0
 11
382.1606291517278
 21
-5.430194334268776
 31
0.0
  0
LINE
  5
D0D
330
18
100
AcDbEntity
  8
寸法線
100
AcDbLine
 10
377.5046770759134
 20
-5.230194334268787
 30
0.0
 11
377.4106291517279
 21
-5.136146410083313
 31
0.0
  0
LINE
  5
D0E
330
18
100
AcDbEntity
  8
外形線
100
AcDbLine
 10
377.4106291517279
 20
-5.230194334268787
 30
0.0
 11
377.6606291517279
 21
-5.430194334268776
 31
0.0
  0
LINE
  5
D0F
330
18
100
AcDbEntity
  8
外形線
100
AcDbLine
 10
382.4106291517279
 20
-5.230194334268787
 30
0.0
 11
382.1606291517279
 21
-5.430194334268776
 31
0.0
  0
LINE
  5
D10
330
18
100
AcDbEntity
  8
寸法線
100
AcDbLine
 10
378.7588733016887
 20
-5.230194334268787
 30
0.0
 11
379.9106291517279
 21
-4.078438484229536
 31
0.0
  0
LINE
  5
D11
330
18
100
AcDbEntity
  8
外形線
100
AcDbLine
 10
377.4106291517278
 20
-2.130194334268765
 30
0.0
 11
382.4106291517279
 21
-2.130194334268765
 31
0.0
  0
LINE
  5
D12
330
18
100
AcDbEntity
  8
外形線
100
AcDbLine
 10
377.6606291517279
 20
-1.930194334268776
 30
0.0
 11
382.1606291517279
 21
-1.930194334268776
 31
0.0
  0
LINE
  5
D13
330
18
100
AcDbEntity
  8
外形線
100
AcDbLine
 10
377.6606291517279
 20
-1.930194334268776
 30
0.0
 11
377.4106291517279
 21
-2.130194334268765
 31
0.0
  0
LINE
  5
D14
330
18
100
AcDbEntity
  8
外形線
100
AcDbLine
 10
382.1606291517279
 20
-1.930194334268776
 30
0.0
 11
382.4106291517279
 21
-2.130194334268765
 31
0.0
  0
LINE
  5
D15
330
18
100
AcDbEntity
  8
寸法線
100
AcDbLine
 10
379.910629151728
 20
-2.247992737441904
 30
0.0
 11
379.7928307485548
 21
-2.130194334268793
 31
0.0
  0
LINE
  5
D16
330
18
100
AcDbEntity
  8
外形線
100
AcDbLine
 10
383.9106291517279
 20
45.46980566573125
 30
0.0
 11
383.9106291517279
 21
29.2698056657313
 31
0.0
  0
LINE
  5
D17
330
18
100
AcDbEntity
  8
外形線
100
AcDbLine
 10
375.9106291517279
 20
45.46980566573125
 30
0.0
 11
375.9106291517278
 21
29.2698056657313
 31
0.0
  0
LINE
  5
D18
330
18
100
AcDbEntity
  8
外形線
100
AcDbLine
 10
383.6606291517279
 20
26.46980566573134
 30
0.0
 11
383.6606291517279
 21
29.2698056657313
 31
0.0
  0
LINE
  5
D19
330
18
100
AcDbEntity
  8
外形線
100
AcDbLine
 10
376.1606291517279
 20
26.46980566573123
 30
0.0
 11
376.1606291517279
 21
29.2698056657313
 31
0.0
  0
LINE
  5
D1A
330
18
100
AcDbEntity
  8
外形線
100
AcDbLine
 10
376.1606291517279
 20
24.96980566573129
 30
0.0
 11
383.6606291517279
 21
24.96980566573129
 31
0.0
  0
LINE
  5
D1B
330
18
100
AcDbEntity
  8
外形線
100
AcDbLine
 10
376.1606291517279
 20
26.46980566573123
 30
0.0
 11
383.6606291517279
 21
26.46980566573134
 31
0.0
  0
LINE
  5
D1C
330
18
100
AcDbEntity
  8
外形線
100
AcDbLine
 10
376.1606291517279
 20
24.46980566573129
 30
0.0
 11
383.6606291517279
 21
24.46980566573129
 31
0.0
  0
LINE
  5
D1D
330
18
100
AcDbEntity
  8
外形線
100
AcDbLine
 10
376.1606291517279
 20
24.96980566573129
 30
0.0
 11
376.1606291517279
 21
24.46980566573129
 31
0.0
  0
LINE
  5
D1E
330
18
100
AcDbEntity
  8
外形線
100
AcDbLine
 10
376.9106291517279
 20
26.46980566573129
 30
0.0
 11
376.9106291517279
 21
24.96980566573129
 31
0.0
  0
LINE
  5
D1F
330
18
100
AcDbEntity
  8
外形線
100
AcDbLine
 10
383.6606291517279
 20
24.96980566573129
 30
0.0
 11
383.6606291517279
 21
24.46980566573129
 31
0.0
  0
LINE
  5
D20
330
18
100
AcDbEntity
  8
外形線
100
AcDbLine
 10
382.9106291517279
 20
26.46980566573129
 30
0.0
 11
382.9106291517279
 21
24.96980566573129
 31
0.0
  0
LINE
  5
D21
330
18
100
AcDbEntity
  8
外形線
100
AcDbLine
 10
375.9106291517278
 20
29.2698056657313
 30
0.0
 11
383.9106291517279
 21
29.2698056657313
 31
0.0
  0
LINE
  5
D22
330
18
100
AcDbEntity
  8
外形線
100
AcDbLine
 10
376.1606291517279
 20
24.46980566573126
 30
0.0
 11
383.6606291517279
 21
24.46980566573126
 31
0.0
  0
LINE
  5
EB9
330
18
100
AcDbEntity
  8
寸法線
100
AcDbLine
 10
389.4106291517279
 20
120.2323625659173
 30
0.0
 11
396.7517125733095
 21
120.2323625659173
 31
0.0
  0
DIMENSION
  5
EF0
330
18
100
AcDbEntity
  8
寸法線
100
AcDbDimension
  2
*D26
 10
266.3657062567637
 20
80.56980566573122
 30
0.0
 11
264.4907062567637
 21
104.0698056657312
 31
0.0
 70
    32
 71
     5
 42
47.00000000000001
  3
STYLE3
100
AcDbAlignedDimension
 13
298.5579949088711
 23
127.5698056657312
 33
0.0
 14
267.6390329568169
 24
80.56980566573122
 34
0.0
 50
90.0
100
AcDbRotatedDimension
1001
ACAD
1000
DSTYLE
1002
{
1070
   271
1070
     2
1070
   341
1005
0
1002
}
  0
DIMENSION
  5
EFD
330
18
100
AcDbEntity
  8
寸法線
100
AcDbDimension
  2
*D27
 10
309.557994908871
 20
117.9318432248893
 30
0.0
 11
303.878859258638
 21
117.9318432248893
 31
0.0
 70
   160
  1
%%C<>
 71
     5
 42
12.0
  3
STYLE3
100
AcDbAlignedDimension
 13
297.5579949088711
 23
117.8187759263313
 33
0.0
 14
309.557994908871
 24
117.8187759263313
 34
0.0
100
AcDbRotatedDimension
1001
ACAD
1000
DSTYLE
1002
{
1070
   147
1040
1.199999999999999
1070
   271
1070
     2
1070
   341
1005
0
1002
}
  0
LINE
  5
1A15
330
18
100
AcDbEntity
  8
外形線
100
AcDbLine
 10
325.557994908871
 20
80.56980566573122
 30
0.0
 11
332.557994908871
 21
80.56980566573122
 31
0.0
  0
LINE
  5
1AFE
330
18
100
AcDbEntity
  8
外形線
100
AcDbLine
 10
393.2791581872874
 20
141.3200826651556
 30
0.0
 11
487.2791581872872
 21
141.3200826651556
 31
0.0
  0
LINE
  5
1AFF
330
18
100
AcDbEntity
  8
外形線
100
AcDbLine
 10
393.2791581872874
 20
140.3200826651556
 30
0.0
 11
487.2791581872872
 21
140.3200826651556
 31
0.0
  0
TEXT
  5
1B00
330
18
100
AcDbEntity
  8
文字
100
AcDbText
 10
393.1620481872873
 20
143.4321886651556
 30
0.0
 40
4.0
  1
Model No.DG-257 Digital Gauge
  7
STYLE3
100
AcDbText
  0
TEXT
  5
1B01
330
18
100
AcDbEntity
  8
0
  6
Continuous
100
AcDbText
 10
350.9715171864083
 20
-21.03376409543888
 30
0.0
 40
3.5
  1
仕様及び外観は予告なく変更される場合がございますのでご了承下さい。
  7
STYLE3
100
AcDbText
  0
TEXT
  5
1B02
330
18
100
AcDbEntity
  8
0
  6
Continuous
100
AcDbText
 10
350.6800231864083
 20
-24.96291209543888
 30
0.0
 40
2.1
  1
Design and specifications are subject to change without notice for future improvement.
  7
STYLE3
100
AcDbText
  0
LINE
  5
1B03
330
18
100
AcDbEntity
  8
外形線
100
AcDbLine
 10
349.2225561864083
 20
-26.86090209543888
 30
0.0
 11
490.0139741864083
 21
-26.86090209543888
 31
0.0
  0
LINE
  5
1B04
330
18
100
AcDbEntity
  8
外形線
100
AcDbLine
 10
349.2225561864083
 20
-16.08069609543887
 30
0.0
 11
490.0139741864083
 21
-16.08069609543887
 31
0.0
  0
LINE
  5
1B05
330
18
100
AcDbEntity
  8
外形線
100
AcDbLine
 10
384.4932841864083
 20
-26.86090209543888
 30
0.0
 11
384.4932841864083
 21
-36.47568009543888
 31
0.0
  0
LINE
  5
1B06
330
18
100
AcDbEntity
  8
外形線
100
AcDbLine
 10
401.9829011864082
 20
-26.86090209543888
 30
0.0
 11
401.9829011864082
 21
-36.47568009543888
 31
0.0
  0
LINE
  5
1B07
330
18
100
AcDbEntity
  8
外形線
100
AcDbLine
 10
349.2225561864083
 20
-36.47568009543888
 30
0.0
 11
349.2225561864083
 21
-16.08069609543887
 31
0.0
  0
TEXT
  5
1B08
330
18
100
AcDbEntity
  8
0
  6
Continuous
100
AcDbText
 10
350.3885321864083
 20
-34.72754009543888
 30
0.0
 40
2.1
  1
3RD Angle Projection
  7
STYLE3
100
AcDbText
  0
TEXT
  5
1B09
330
18
100
AcDbEntity
  8
0
  6
Continuous
100
AcDbText
 10
353.0119751864083
 20
-31.23125709543888
 30
0.0
 40
3.0
  1
三　　角　　法
  7
STYLE3
100
AcDbText
  0
TEXT
  5
1B0A
330
18
100
AcDbEntity
  8
0
  6
Continuous
100
AcDbText
 10
393.9928011864083
 20
-32.97939609543888
 30
0.0
 40
2.399999999999999
  1
mm
  7
STYLE3
100
AcDbText
  0
TEXT
  5
1B0B
330
18
100
AcDbEntity
  8
0
  6
Continuous
100
AcDbText
 10
386.1224741864083
 20
-34.72753909543888
 30
0.0
 40
2.1
  1
Unit
  7
STYLE3
100
AcDbText
  0
TEXT
  5
1B0C
330
18
100
AcDbEntity
  8
0
  6
Continuous
100
AcDbText
 10
385.9507531864083
 20
-31.22530209543888
 30
0.0
 40
3.0
  1
単位
  7
STYLE3
100
AcDbText
  0
TEXT
  5
1B0D
330
18
100
AcDbEntity
  8
0
  6
Continuous
100
AcDbText
 10
403.7318641864082
 20
-34.43618209543888
 30
0.0
 40
2.1
  1
Scale
  7
STYLE3
100
AcDbText
  0
TEXT
  5
1B0E
330
18
100
AcDbEntity
  8
0
  6
Continuous
100
AcDbText
 10
403.2686491864082
 20
-31.51666009543888
 30
0.0
 40
3.0
  1
尺 度
  7
STYLE3
100
AcDbText
  0
LINE
  5
1B0F
330
18
100
AcDbEntity
  8
外形線
100
AcDbLine
 10
421.5129731864082
 20
-26.86090209543888
 30
0.0
 11
421.5129731864082
 21
-36.47568009543888
 31
0.0
  0
LINE
  5
1B10
330
18
100
AcDbEntity
  8
外形線
100
AcDbLine
 10
451.2453231864082
 20
-26.86090209543888
 30
0.0
 11
451.2453231864082
 21
-36.47568009543888
 31
0.0
  0
TEXT
  5
1B11
330
18
100
AcDbEntity
  8
0
  6
Continuous
100
AcDbText
 10
453.4687651864082
 20
-34.72753909543888
 30
0.0
 40
2.1
  1
OZAKI MFG. CO., LTD.
  7
STYLE3
100
AcDbText
  0
TEXT
  5
1B12
330
18
100
AcDbEntity
  8
0
  6
Continuous
100
AcDbText
 10
452.5942861864082
 20
-30.93990009543888
 30
0.0
 40
3.0
  1
株式会社　尾崎製作所
  7
STYLE3
100
AcDbText
  0
TEXT
  5
1B13
330
18
100
AcDbEntity
  8
0
  6
Continuous
100
AcDbText
 10
432.1897321864081
 20
-32.97939709543888
 30
0.0
 40
2.1
  1
2010.06.30
  7
STYLE3
100
AcDbText
  0
TEXT
  5
1B14
330
18
100
AcDbEntity
  8
0
  6
Continuous
100
AcDbText
 10
423.0615631864082
 20
-31.39445509543888
 30
0.0
 40
3.0
  1
日 付
  7
STYLE3
100
AcDbText
  0
TEXT
  5
1B15
330
18
100
AcDbEntity
  8
0
  6
Continuous
100
AcDbText
 10
423.4449241864083
 20
-34.72753809543888
 30
0.0
 40
2.1
  1
Date
  7
STYLE3
100
AcDbText
  0
TEXT
  5
1B16
330
18
100
AcDbEntity
  8
0
  6
Continuous
100
AcDbText
 10
413.3511531864082
 20
-32.68803909543888
 30
0.0
 40
2.399999999999999
  1
1/1
  7
STYLE3
100
AcDbText
  0
ENDSEC
  0
SECTION
  2
OBJECTS
  0
DICTIONARY
  5
C
330
0
100
AcDbDictionary
281
     1
  3
ACAD_COLOR
350
8C4
  3
ACAD_GROUP
350
D
  3
ACAD_LAYOUT
350
8C7
  3
ACAD_MATERIAL
350
8C3
  3
ACAD_MLINESTYLE
350
1B
  3
ACAD_PLOTSETTINGS
350
8C8
  3
ACAD_PLOTSTYLENAME
350
8C1
  3
ACAD_TABLESTYLE
350
8C5
  3
ACDBVARIABLEDICTIONARY
350
208
  0
DICTIONARY
  5
101B
330
2
100
AcDbDictionary
280
     1
281
     1
  3
ACAD_LAYERSTATES
360
101C
  0
DICTIONARY
  5
8C4
102
{ACAD_REACTORS
330
C
102
}
330
C
100
AcDbDictionary
281
     1
  0
DICTIONARY
  5
D
102
{ACAD_REACTORS
330
C
102
}
330
C
100
AcDbDictionary
281
     1
  0
DICTIONARY
  5
8C7
102
{ACAD_REACTORS
330
C
102
}
330
C
100
AcDbDictionary
281
     1
  3
Model
350
8C9
  3
レイアウト1
350
8CA
  0
DICTIONARY
  5
8C3
102
{ACAD_REACTORS
330
C
102
}
330
C
100
AcDbDictionary
281
     1
  0
DICTIONARY
  5
1B
102
{ACAD_REACTORS
330
C
102
}
330
C
100
AcDbDictionary
281
     1
  3
STANDARD
350
1C
  0
DICTIONARY
  5
8C8
102
{ACAD_REACTORS
330
C
102
}
330
C
100
AcDbDictionary
281
     1
  0
ACDBDICTIONARYWDFLT
  5
8C1
102
{ACAD_REACTORS
330
C
102
}
330
C
100
AcDbDictionary
281
     1
  3
Normal
350
8C2
100
AcDbDictionaryWithDefault
340
8C2
  0
DICTIONARY
  5
8C5
102
{ACAD_REACTORS
330
C
102
}
330
C
100
AcDbDictionary
281
     1
  3
Standard
350
8C6
  0
DICTIONARY
  5
208
102
{ACAD_REACTORS
330
C
102
}
330
C
100
AcDbDictionary
281
     1
  3
CTABLESTYLE
350
E4E
  3
SORTENTS
350
209
  0
DICTIONARY
  5
101C
102
{ACAD_REACTORS
330
101B
102
}
330
101B
100
AcDbDictionary
281
     1
  0
LAYOUT
  5
8C9
102
{ACAD_REACTORS
330
8C7
102
}
330
8C7
100
AcDbPlotSettings
  1

  2
A4 EPSON LP-6100.pc3
  4
A4
  6

 40
5.873749732971191
 41
5.873747825622558
 42
5.873748779296875
 43
5.873748779296875
 44
209.9733276367187
 45
297.0106506347656
 46
1.399999999999999
 47
25.0
 48
0.0
 49
0.0
140
0.0
141
0.0
142
1.0
143
1.0
 70
 28336
 72
     1
 73
     1
 74
     1
  7
AutoCAD LT 98.ctb
 75
    16
147
1.0
 76
     1
 77
     2
 78
   300
148
-234.9847955213259
149
37.60580716722734
100
AcDbLayout
  1
Model
 70
     1
 71
     0
 10
0.0
 20
0.0
 11
12.0
 21
9.0
 12
0.0
 22
0.0
 32
0.0
 14
0.0
 24
0.0
 34
0.0
 15
0.0
 25
0.0
 35
0.0
146
0.0
 13
0.0
 23
0.0
 33
0.0
 16
1.0
 26
0.0
 36
0.0
 17
0.0
 27
1.0
 37
0.0
 76
     0
330
18
1001
ACAD_PSEXT
1000
A4 EPSON LP-6100.pc3
1000
EPSON LP-6100
1000
USB002
1000

1070
     0
  0
LAYOUT
  5
8CA
102
{ACAD_REACTORS
330
8C7
102
}
330
8C7
100
AcDbPlotSettings
  1

  2
C:\Documents and Settings\佐藤\Application Data\Autodesk\AutoCAD LT 2005\R10\jpn\plotters\PEACOCK EPSON LP-6100.pc3
  4

  6

 40
0.0
 41
0.0
 42
0.0
 43
0.0
 44
0.0
 45
0.0
 46
0.0
 47
0.0
 48
0.0
 49
0.0
140
0.0
141
0.0
142
1.0
143
1.0
 70
   688
 72
     0
 73
     0
 74
     5
  7
AutoCAD LT 98.ctb
 75
    16
147
1.0
 76
     0
 77
     2
 78
   300
148
0.0
149
0.0
100
AcDbLayout
  1
レイアウト1
 70
     1
 71
     1
 10
0.0
 20
0.0
 11
420.0
 21
297.0
 12
0.0
 22
0.0
 32
0.0
 14
1.000000000000000E+20
 24
1.000000000000000E+20
 34
1.000000000000000E+20
 15
-1.000000000000000E+20
 25
-1.000000000000000E+20
 35
-1.000000000000000E+20
146
0.0
 13
0.0
 23
0.0
 33
0.0
 16
1.0
 26
0.0
 36
0.0
 17
0.0
 27
1.0
 37
0.0
 76
     0
330
15
  0
MLINESTYLE
  5
1C
102
{ACAD_REACTORS
330
1B
102
}
330
1B
100
AcDbMlineStyle
  2
STANDARD
 70
     0
  3

 62
   256
 51
90.0
 52
90.0
 71
     2
 49
0.5
 62
   256
  6
BYLAYER
 49
-0.5
 62
   256
  6
BYLAYER
  0
ACDBPLACEHOLDER
  5
8C2
102
{ACAD_REACTORS
330
8C1
102
}
330
8C1
  0
ACAD_PROXY_OBJECT
  5
8C6
102
{ACAD_REACTORS
330
8C5
102
}
330
8C5
100
AcDbProxyObject
 90
      499
 91
      504
 95
  2555929
 70
     0
 93
     1849
310
4214DD185B99185C992420000000000000F83F0000000000003E0FC00000000000004901028000000C1008070000C3001FDFF8000000C1003FBFF000000182007F7FE00000030400FEFFC00000060801FDFF8000000C1003FBFF000000182000000000000000C2020B0000001820100E000186003FBFF000000182007F7FE0
310
0000030400FEFFC00000060801FDFF8000000C1003FBFF000000182007F7FE0000003040000000000000012404160000003040201C00030C007F7FE00000030400FEFFC00000060801FDFF8000000C1003FBFF000000182007F7FE00000030400FEFFC000000608000
340
F
340
F
340
F
 94
        0
  0
DICTIONARYVAR
  5
E4E
102
{ACAD_REACTORS
330
208
102
}
330
208
100
DictionaryVariables
280
     0
  1
STANDARD
  0
DICTIONARYVAR
  5
209
102
{ACAD_REACTORS
330
208
102
}
330
208
100
DictionaryVariables
280
     0
  1
96
  0
ENDSEC
  0
EOF
