  0
SECTION
  2
HEADER
  9
$ACADVER
  1
AC1018
  9
$ACADMAINTVER
 70
     0
  9
$DWGCODEPAGE
  3
ANSI_932
  9
$INSBASE
 10
0.0
 20
0.0
 30
0.0
  9
$EXTMIN
 10
-0.2320538237274832
 20
-0.2226711004567505
 30
-0.0000762951084532
  9
$EXTMAX
 10
255.2234841961279
 20
195.2183102100925
 30
0.0000000046571813
  9
$LIMMIN
 10
0.0
 20
0.0
  9
$LIMMAX
 10
420.0
 20
297.0
  9
$ORTHOMODE
 70
     1
  9
$REGENMODE
 70
     1
  9
$FILLMODE
 70
     1
  9
$QTEXTMODE
 70
     0
  9
$MIRRTEXT
 70
     1
  9
$LTSCALE
 40
1.0
  9
$ATTMODE
 70
     1
  9
$TEXTSIZE
 40
3.0
  9
$TRACEWID
 40
1.0
  9
$TEXTSTYLE
  7
STYLE3
  9
$CLAYER
  8
寸法線
  9
$CELTYPE
  6
BYLAYER
  9
$CECOLOR
 62
   256
  9
$CELTSCALE
 40
1.0
  9
$DISPSILH
 70
     0
  9
$DIMSCALE
 40
1.0
  9
$DIMASZ
 40
2.5
  9
$DIMEXO
 40
0.0
  9
$DIMDLI
 40
3.75
  9
$DIMRND
 40
0.0
  9
$DIMDLE
 40
0.0
  9
$DIMEXE
 40
1.25
  9
$DIMTP
 40
0.0
  9
$DIMTM
 40
0.0
  9
$DIMTXT
 40
2.5
  9
$DIMCEN
 40
2.5
  9
$DIMTSZ
 40
0.0
  9
$DIMTOL
 70
     0
  9
$DIMLIM
 70
     0
  9
$DIMTIH
 70
     0
  9
$DIMTOH
 70
     0
  9
$DIMSE1
 70
     0
  9
$DIMSE2
 70
     0
  9
$DIMTAD
 70
     1
  9
$DIMZIN
 70
     8
  9
$DIMBLK
  1

  9
$DIMASO
 70
     1
  9
$DIMSHO
 70
     1
  9
$DIMPOST
  1

  9
$DIMAPOST
  1

  9
$DIMALT
 70
     0
  9
$DIMALTD
 70
     4
  9
$DIMALTF
 40
0.0394
  9
$DIMLFAC
 40
1.0
  9
$DIMTOFL
 70
     1
  9
$DIMTVP
 40
0.0
  9
$DIMTIX
 70
     0
  9
$DIMSOXD
 70
     0
  9
$DIMSAH
 70
     1
  9
$DIMBLK1
  1
OPEN
  9
$DIMBLK2
  1
OPEN
  9
$DIMSTYLE
  2
STYLE3
  9
$DIMCLRD
 70
     2
  9
$DIMCLRE
 70
     2
  9
$DIMCLRT
 70
     6
  9
$DIMTFAC
 40
1.0
  9
$DIMGAP
 40
0.625
  9
$DIMJUST
 70
     0
  9
$DIMSD1
 70
     0
  9
$DIMSD2
 70
     0
  9
$DIMTOLJ
 70
     1
  9
$DIMTZIN
 70
     0
  9
$DIMALTZ
 70
     0
  9
$DIMALTTZ
 70
     0
  9
$DIMUPT
 70
     0
  9
$DIMDEC
 70
     2
  9
$DIMTDEC
 70
     4
  9
$DIMALTU
 70
     8
  9
$DIMALTTD
 70
     4
  9
$DIMTXSTY
  7
STYLE3
  9
$DIMAUNIT
 70
     0
  9
$DIMADEC
 70
     0
  9
$DIMALTRND
 40
0.0
  9
$DIMAZIN
 70
     0
  9
$DIMDSEP
 70
    46
  9
$DIMATFIT
 70
     3
  9
$DIMFRAC
 70
     0
  9
$DIMLDRBLK
  1

  9
$DIMLUNIT
 70
     2
  9
$DIMLWD
 70
    -2
  9
$DIMLWE
 70
    -2
  9
$DIMTMOVE
 70
     0
  9
$LUNITS
 70
     2
  9
$LUPREC
 70
     4
  9
$SKETCHINC
 40
1.0
  9
$FILLETRAD
 40
0.4
  9
$AUNITS
 70
     0
  9
$AUPREC
 70
     0
  9
$MENU
  1
.
  9
$ELEVATION
 40
0.0
  9
$PELEVATION
 40
0.0
  9
$THICKNESS
 40
0.0
  9
$LIMCHECK
 70
     0
  9
$CHAMFERA
 40
0.5
  9
$CHAMFERB
 40
0.5
  9
$CHAMFERC
 40
20.0
  9
$CHAMFERD
 40
0.0
  9
$SKPOLY
 70
     0
  9
$TDCREATE
 40
2451576.389683565
  9
$TDUCREATE
 40
2451576.014683565
  9
$TDUPDATE
 40
2455378.679592731
  9
$TDUUPDATE
 40
2455378.304592731
  9
$TDINDWG
 40
0.8465691088
  9
$TDUSRTIMER
 40
0.8465691088
  9
$USRTIMER
 70
     1
  9
$ANGBASE
 50
0.0
  9
$ANGDIR
 70
     0
  9
$PDMODE
 70
     0
  9
$PDSIZE
 40
0.0
  9
$PLINEWID
 40
0.0
  9
$SPLFRAME
 70
     0
  9
$SPLINETYPE
 70
     6
  9
$SPLINESEGS
 70
     8
  9
$HANDSEED
  5
D52
  9
$SURFTAB1
 70
     6
  9
$SURFTAB2
 70
     6
  9
$SURFTYPE
 70
     6
  9
$SURFU
 70
     6
  9
$SURFV
 70
     6
  9
$UCSBASE
  2

  9
$UCSNAME
  2

  9
$UCSORG
 10
0.0
 20
0.0
 30
0.0
  9
$UCSXDIR
 10
1.0
 20
0.0
 30
0.0
  9
$UCSYDIR
 10
0.0
 20
1.0
 30
0.0
  9
$UCSORTHOREF
  2

  9
$UCSORTHOVIEW
 70
     0
  9
$UCSORGTOP
 10
0.0
 20
0.0
 30
0.0
  9
$UCSORGBOTTOM
 10
0.0
 20
0.0
 30
0.0
  9
$UCSORGLEFT
 10
0.0
 20
0.0
 30
0.0
  9
$UCSORGRIGHT
 10
0.0
 20
0.0
 30
0.0
  9
$UCSORGFRONT
 10
0.0
 20
0.0
 30
0.0
  9
$UCSORGBACK
 10
0.0
 20
0.0
 30
0.0
  9
$PUCSBASE
  2

  9
$PUCSNAME
  2

  9
$PUCSORG
 10
0.0
 20
0.0
 30
0.0
  9
$PUCSXDIR
 10
1.0
 20
0.0
 30
0.0
  9
$PUCSYDIR
 10
0.0
 20
1.0
 30
0.0
  9
$PUCSORTHOREF
  2

  9
$PUCSORTHOVIEW
 70
     0
  9
$PUCSORGTOP
 10
0.0
 20
0.0
 30
0.0
  9
$PUCSORGBOTTOM
 10
0.0
 20
0.0
 30
0.0
  9
$PUCSORGLEFT
 10
0.0
 20
0.0
 30
0.0
  9
$PUCSORGRIGHT
 10
0.0
 20
0.0
 30
0.0
  9
$PUCSORGFRONT
 10
0.0
 20
0.0
 30
0.0
  9
$PUCSORGBACK
 10
0.0
 20
0.0
 30
0.0
  9
$USERI1
 70
     0
  9
$USERI2
 70
     0
  9
$USERI3
 70
     0
  9
$USERI4
 70
     0
  9
$USERI5
 70
     0
  9
$USERR1
 40
0.0
  9
$USERR2
 40
0.0
  9
$USERR3
 40
0.0
  9
$USERR4
 40
0.0
  9
$USERR5
 40
0.0
  9
$WORLDVIEW
 70
     1
  9
$SHADEDGE
 70
     3
  9
$SHADEDIF
 70
    70
  9
$TILEMODE
 70
     1
  9
$MAXACTVP
 70
    48
  9
$PINSBASE
 10
0.0
 20
0.0
 30
0.0
  9
$PLIMCHECK
 70
     0
  9
$PEXTMIN
 10
-0.2
 20
-0.2
 30
0.0
  9
$PEXTMAX
 10
255.2
 20
195.2
 30
0.0
  9
$PLIMMIN
 10
0.0
 20
0.0
  9
$PLIMMAX
 10
420.0
 20
297.0
  9
$UNITMODE
 70
     0
  9
$VISRETAIN
 70
     1
  9
$PLINEGEN
 70
     0
  9
$PSLTSCALE
 70
     1
  9
$TREEDEPTH
 70
  3020
  9
$CMLSTYLE
  2
STANDARD
  9
$CMLJUST
 70
     0
  9
$CMLSCALE
 40
20.0
  9
$PROXYGRAPHICS
 70
     1
  9
$MEASUREMENT
 70
     1
  9
$CELWEIGHT
370
    -1
  9
$ENDCAPS
280
     0
  9
$JOINSTYLE
280
     0
  9
$LWDISPLAY
290
     0
  9
$INSUNITS
 70
     0
  9
$HYPERLINKBASE
  1

  9
$STYLESHEET
  1

  9
$XEDIT
290
     1
  9
$CEPSNTYPE
380
     0
  9
$PSTYLEMODE
290
     1
  9
$FINGERPRINTGUID
  2
{5396FC98-FE83-41B9-95FB-72EBC3B1D8B4}
  9
$VERSIONGUID
  2
{243B3AC0-4535-40C4-930B-992AD24109A1}
  9
$EXTNAMES
290
     1
  9
$PSVPSCALE
 40
0.0
  9
$OLESTARTUP
290
     0
  9
$SORTENTS
280
   127
  9
$INDEXCTL
280
     0
  9
$HIDETEXT
280
     0
  9
$XCLIPFRAME
290
     0
  9
$HALOGAP
280
     0
  9
$OBSCOLOR
 70
   257
  9
$OBSLTYPE
280
     0
  9
$INTERSECTIONDISPLAY
280
     0
  9
$INTERSECTIONCOLOR
 70
   257
  9
$DIMASSOC
280
     1
  9
$PROJECTNAME
  1

  0
ENDSEC
  0
SECTION
  2
CLASSES
  0
CLASS
  1
ACDBDICTIONARYWDFLT
  2
AcDbDictionaryWithDefault
  3
ObjectDBX Classes
 90
        0
 91
        1
280
     0
281
     0
  0
ENDSEC
  0
SECTION
  2
TABLES
  0
TABLE
  2
VPORT
  5
8
330
0
100
AcDbSymbolTable
 70
     2
  0
VPORT
  5
D51
330
8
100
AcDbSymbolTableRecord
100
AcDbViewportTableRecord
  2
*Active
 70
     0
 10
0.0
 20
0.0
 11
1.0
 21
1.0
 12
127.4957151862001
 22
97.49781955481791
 13
0.0
 23
0.0
 14
10.0
 24
10.0
 15
10.0
 25
10.0
 16
0.0
 26
0.0
 36
1.0
 17
0.0
 27
0.0
 37
0.0
 40
196.9272245144318
 41
1.530456852791878
 42
50.0
 43
0.0
 44
0.0
 50
0.0
 51
0.0
 71
     0
 72
   100
 73
     1
 74
     1
 75
     0
 76
     0
 77
     0
 78
     0
281
     0
 65
     1
110
0.0
120
0.0
130
0.0
111
1.0
121
0.0
131
0.0
112
0.0
122
1.0
132
0.0
 79
     0
146
0.0
  0
ENDTAB
  0
TABLE
  2
LTYPE
  5
5
330
0
100
AcDbSymbolTable
 70
    12
  0
LTYPE
  5
12
330
5
100
AcDbSymbolTableRecord
100
AcDbLinetypeTableRecord
  2
BYBLOCK
 70
     0
  3

 72
    65
 73
     0
 40
0.0
  0
LTYPE
  5
13
330
5
100
AcDbSymbolTableRecord
100
AcDbLinetypeTableRecord
  2
BYLAYER
 70
     0
  3

 72
    65
 73
     0
 40
0.0
  0
LTYPE
  5
14
330
5
100
AcDbSymbolTableRecord
100
AcDbLinetypeTableRecord
  2
CONTINUOUS
 70
     0
  3
Solid line
 72
    65
 73
     0
 40
0.0
  0
LTYPE
  5
22
330
5
100
AcDbSymbolTableRecord
100
AcDbLinetypeTableRecord
  2
CENTER2
 70
     0
  3
Center (.5x) ___ _ ___ _ ___ _ ___ _ ___ _ ___
 72
    65
 73
     4
 40
28.575
 49
19.05
 74
     0
 49
-3.174999999999999
 74
     0
 49
3.174999999999999
 74
     0
 49
-3.174999999999999
 74
     0
  0
LTYPE
  5
23
330
5
100
AcDbSymbolTableRecord
100
AcDbLinetypeTableRecord
  2
HIDDEN2
 70
     0
  3
Hidden (.5x) _ _ _ _ _ _ _ _ _ _ _ _ _ _ _ _ _
 72
    65
 73
     2
 40
4.762499999999999
 49
3.174999999999999
 74
     0
 49
-1.587499999999999
 74
     0
  0
LTYPE
  5
24
330
5
100
AcDbSymbolTableRecord
100
AcDbLinetypeTableRecord
  2
PHANTOM2
 70
     0
  3
Phantom (.5x) ___ _ _ ___ _ _ ___ _ _ ___ _ _
 72
    65
 73
     6
 40
31.75
 49
15.875
 74
     0
 49
-3.174999999999999
 74
     0
 49
3.174999999999999
 74
     0
 49
-3.174999999999999
 74
     0
 49
3.174999999999999
 74
     0
 49
-3.174999999999999
 74
     0
  0
ENDTAB
  0
TABLE
  2
LAYER
  5
2
330
0
100
AcDbSymbolTable
 70
    16
  0
LAYER
  5
E
330
2
100
AcDbSymbolTableRecord
100
AcDbLayerTableRecord
  2
0
 70
     0
 62
     7
  6
CONTINUOUS
370
    -3
390
CE4
  0
LAYER
  5
25
330
2
100
AcDbSymbolTableRecord
100
AcDbLayerTableRecord
  2
外形線
 70
     0
 62
     7
  6
CONTINUOUS
370
    -3
390
CE4
  0
LAYER
  5
26
330
2
100
AcDbSymbolTableRecord
100
AcDbLayerTableRecord
  2
寸法線
 70
     0
 62
     2
  6
CONTINUOUS
370
    -3
390
CE4
  0
LAYER
  5
27
330
2
100
AcDbSymbolTableRecord
100
AcDbLayerTableRecord
  2
中心線
 70
     0
 62
     4
  6
CENTER2
370
    -3
390
CE4
  0
LAYER
  5
29
330
2
100
AcDbSymbolTableRecord
100
AcDbLayerTableRecord
  2
想像線
 70
     0
 62
     1
  6
PHANTOM2
370
    -3
390
CE4
  0
LAYER
  5
2B
330
2
100
AcDbSymbolTableRecord
100
AcDbLayerTableRecord
  2
文字
 70
     0
 62
     6
  6
CONTINUOUS
370
    -3
390
CE4
  0
LAYER
  5
53
330
2
100
AcDbSymbolTableRecord
100
AcDbLayerTableRecord
  2
DEFPOINTS
 70
     0
 62
     7
  6
CONTINUOUS
290
     0
370
    -3
390
CE4
  0
LAYER
  5
A5
330
2
100
AcDbSymbolTableRecord
100
AcDbLayerTableRecord
  2
C
 70
     0
 62
     7
  6
CONTINUOUS
370
    -3
390
CE4
  0
LAYER
  5
16A
330
2
100
AcDbSymbolTableRecord
100
AcDbLayerTableRecord
  2
隠れ線2
 70
     0
 62
     1
  6
HIDDEN2
370
    -3
390
CE4
  0
LAYER
  5
85A
330
2
100
AcDbSymbolTableRecord
100
AcDbLayerTableRecord
  2
ROGO
 70
     0
 62
     6
  6
CONTINUOUS
370
    -3
390
CE4
  0
ENDTAB
  0
TABLE
  2
STYLE
  5
3
330
0
100
AcDbSymbolTable
 70
     7
  0
STYLE
  5
F
330
3
100
AcDbSymbolTableRecord
100
AcDbTextStyleTableRecord
  2
STANDARD
 70
     0
 40
0.0
 41
1.0
 50
0.0
 71
     0
 42
2.5
  3
txt
  4

  0
STYLE
  5
3F
330
3
100
AcDbSymbolTableRecord
100
AcDbTextStyleTableRecord
  2
STYLE3
 70
     0
 40
0.0
 41
1.0
 50
0.0
 71
     0
 42
3.0
  3
romans.shx
  4
bigfont.shx
  0
ENDTAB
  0
TABLE
  2
VIEW
  5
6
330
0
100
AcDbSymbolTable
 70
     0
  0
ENDTAB
  0
TABLE
  2
UCS
  5
7
330
0
100
AcDbSymbolTable
 70
     0
  0
ENDTAB
  0
TABLE
  2
APPID
  5
9
330
0
100
AcDbSymbolTable
 70
     1
  0
APPID
  5
10
330
9
100
AcDbSymbolTableRecord
100
AcDbRegAppTableRecord
  2
ACAD
 70
     0
  0
ENDTAB
  0
TABLE
  2
DIMSTYLE
  5
A
330
0
100
AcDbSymbolTable
 70
     4
100
AcDbDimStyleTable
 71
     0
  0
DIMSTYLE
105
1D
330
A
100
AcDbSymbolTableRecord
100
AcDbDimStyleTableRecord
  2
STANDARD
 70
     0
 41
2.5
 42
0.625
 43
3.75
 44
1.25
 73
     0
 74
     0
 77
     1
 78
     8
140
2.5
141
2.5
143
0.0394
147
0.625
171
     4
172
     1
273
     8
274
     4
277
     6
340
F
  0
DIMSTYLE
105
8F
102
{ACAD_REACTORS
330
B22
330
B2F
330
B3C
330
B55
330
B66
330
B73
330
B9C
330
BB2
330
BBF
330
BCC
330
C1D
330
C46
330
C57
330
C6F
330
C7C
330
CD9
102
}
330
A
100
AcDbSymbolTableRecord
100
AcDbDimStyleTableRecord
  2
STYLE3
 70
     0
 41
2.5
 42
0.0
 43
3.75
 44
1.25
 73
     0
 74
     0
 77
     1
 78
     8
140
2.5
141
2.5
143
0.0394
147
0.625
171
     4
172
     1
173
     1
176
     2
177
     2
178
     6
271
     1
273
     8
274
     4
340
3F
341
45
343
45
344
45
  0
ENDTAB
  0
TABLE
  2
BLOCK_RECORD
  5
1
330
0
100
AcDbSymbolTable
 70
    29
  0
BLOCK_RECORD
  5
18
330
1
100
AcDbSymbolTableRecord
100
AcDbBlockTableRecord
  2
*MODEL_SPACE
340
CE9
  0
BLOCK_RECORD
  5
15
330
1
100
AcDbSymbolTableRecord
100
AcDbBlockTableRecord
  2
*PAPER_SPACE
340
CEA
  0
BLOCK_RECORD
  5
45
330
1
100
AcDbSymbolTableRecord
100
AcDbBlockTableRecord
  2
_OPEN
340
0
102
{BLKREFS
331
B88
331
B89
331
C09
331
C0A
331
C30
331
C31
331
C81
331
C82
331
CA1
331
CA2
331
B1B
331
B1C
331
B28
331
B29
331
B35
331
B36
331
B43
331
B44
331
B4E
331
B4F
331
B60
331
B61
331
B6C
331
B6D
331
B93
331
B94
331
BAB
331
BAC
331
BB8
331
BB9
331
CB9
331
CBA
331
BDB
331
BDC
331
BFC
331
BFD
331
C14
331
C15
331
C23
331
C24
331
C3F
331
C40
331
C51
331
C52
331
C5C
331
C5D
331
C68
331
C69
331
C75
331
C76
331
C8E
331
C8F
331
CD2
331
CD3
331
BC5
331
BC6
102
}
  0
BLOCK_RECORD
  5
A0B
330
1
100
AcDbSymbolTableRecord
100
AcDbBlockTableRecord
  2
A$C46B047FA
340
0
102
{BLKREFS
331
ACB
331
A63
102
}
  0
BLOCK_RECORD
  5
B14
330
1
100
AcDbSymbolTableRecord
100
AcDbBlockTableRecord
  2
*D5
340
0
  0
BLOCK_RECORD
  5
B23
330
1
100
AcDbSymbolTableRecord
100
AcDbBlockTableRecord
  2
*D6
340
0
  0
BLOCK_RECORD
  5
B30
330
1
100
AcDbSymbolTableRecord
100
AcDbBlockTableRecord
  2
*D7
340
0
  0
BLOCK_RECORD
  5
B49
330
1
100
AcDbSymbolTableRecord
100
AcDbBlockTableRecord
  2
*D9
340
0
  0
BLOCK_RECORD
  5
B56
330
1
100
AcDbSymbolTableRecord
100
AcDbBlockTableRecord
  2
*D10
340
0
  0
BLOCK_RECORD
  5
B67
330
1
100
AcDbSymbolTableRecord
100
AcDbBlockTableRecord
  2
*D11
340
0
  0
BLOCK_RECORD
  5
B8E
330
1
100
AcDbSymbolTableRecord
100
AcDbBlockTableRecord
  2
*D12
340
0
  0
BLOCK_RECORD
  5
BA6
330
1
100
AcDbSymbolTableRecord
100
AcDbBlockTableRecord
  2
*D13
340
0
  0
BLOCK_RECORD
  5
BB3
330
1
100
AcDbSymbolTableRecord
100
AcDbBlockTableRecord
  2
*D14
340
0
  0
BLOCK_RECORD
  5
BC0
330
1
100
AcDbSymbolTableRecord
100
AcDbBlockTableRecord
  2
*D15
340
0
  0
BLOCK_RECORD
  5
C0F
330
1
100
AcDbSymbolTableRecord
100
AcDbBlockTableRecord
  2
*D18
340
0
  0
BLOCK_RECORD
  5
C3A
330
1
100
AcDbSymbolTableRecord
100
AcDbBlockTableRecord
  2
*D20
340
0
  0
BLOCK_RECORD
  5
C47
330
1
100
AcDbSymbolTableRecord
100
AcDbBlockTableRecord
  2
*D21
340
0
  0
BLOCK_RECORD
  5
C64
330
1
100
AcDbSymbolTableRecord
100
AcDbBlockTableRecord
  2
*D23
340
0
  0
BLOCK_RECORD
  5
C70
330
1
100
AcDbSymbolTableRecord
100
AcDbBlockTableRecord
  2
*D24
340
0
  0
BLOCK_RECORD
  5
CCD
330
1
100
AcDbSymbolTableRecord
100
AcDbBlockTableRecord
  2
*D26
340
0
  0
ENDTAB
  0
ENDSEC
  0
SECTION
  2
BLOCKS
  0
BLOCK
  5
19
330
18
100
AcDbEntity
  8
0
100
AcDbBlockBegin
  2
*MODEL_SPACE
 70
     0
 10
0.0
 20
0.0
 30
0.0
  3
*MODEL_SPACE
  1

  0
ENDBLK
  5
1A
330
18
100
AcDbEntity
  8
0
100
AcDbBlockEnd
  0
BLOCK
  5
16
330
15
100
AcDbEntity
 67
     1
  8
0
100
AcDbBlockBegin
  2
*PAPER_SPACE
 70
     0
 10
0.0
 20
0.0
 30
0.0
  3
*PAPER_SPACE
  1

  0
ENDBLK
  5
17
330
15
100
AcDbEntity
 67
     1
  8
0
100
AcDbBlockEnd
  0
BLOCK
  5
46
330
45
100
AcDbEntity
  8
0
100
AcDbBlockBegin
  2
_OPEN
 70
     0
 10
0.0
 20
0.0
 30
0.0
  3
_OPEN
  1

  0
LINE
  5
47
330
45
100
AcDbEntity
  8
0
  6
ByBlock
 62
     0
100
AcDbLine
 10
-1.0
 20
0.1666666666666666
 30
0.0
 11
0.0
 21
0.0
 31
0.0
  0
LINE
  5
48
330
45
100
AcDbEntity
  8
0
  6
ByBlock
 62
     0
100
AcDbLine
 10
0.0
 20
0.0
 30
0.0
 11
-1.0
 21
-0.1666666666666666
 31
0.0
  0
LINE
  5
49
330
45
100
AcDbEntity
  8
0
  6
ByBlock
 62
     0
100
AcDbLine
 10
0.0
 20
0.0
 30
0.0
 11
-1.0
 21
0.0
 31
0.0
  0
ENDBLK
  5
4A
330
45
100
AcDbEntity
  8
0
100
AcDbBlockEnd
  0
BLOCK
  5
A5E
330
A0B
100
AcDbEntity
  8
0
100
AcDbBlockBegin
  2
A$C46B047FA
 70
     0
 10
0.0
 20
0.0
 30
0.0
  3
A$C46B047FA
  1

  0
LINE
  5
A0C
102
{ACAD_REACTORS
330
A0F
102
}
330
A0B
100
AcDbEntity
  8
ROGO
 62
     4
100
AcDbLine
 10
5.483320721481106
 20
0.5346185261392407
 30
0.0
 11
4.957014942215948
 21
0.5346185261392407
 31
0.0
  0
LINE
  5
A0D
102
{ACAD_REACTORS
330
A0F
102
}
330
A0B
100
AcDbEntity
  8
ROGO
 62
     4
100
AcDbLine
 10
4.798028326966687
 20
1.484935992939711
 30
0.0
 11
5.483320721481106
 21
0.5346185261392407
 31
0.0
  0
LINE
  5
A0E
102
{ACAD_REACTORS
330
A10
102
}
330
A0B
100
AcDbEntity
  8
ROGO
 62
     4
100
AcDbLine
 10
0.7472799628276335
 20
0.1488426046267932
 30
0.0
 11
9.578582315110054
 21
0.1488426046267932
 31
0.0
  0
HATCH
  5
A0F
330
A0B
100
AcDbEntity
  8
ROGO
 62
     4
100
AcDbHatch
 10
0.0
 20
0.0
 30
0.0
210
0.0
220
0.0
230
1.0
  2
SOLID
 70
     1
 71
     1
 91
        2
 92
        7
 72
     0
 73
     1
 93
        8
 10
4.798028326966687
 20
1.484935992939597
 10
4.24878199962751
 20
1.484935992939597
 10
3.56348960511309
 20
0.534618526139127
 10
4.089795384378248
 20
0.534618526139127
 10
4.220270816254185
 20
0.7155530920158526
 10
4.826539510339955
 20
0.7155530920157958
 10
4.957014942215948
 20
0.534618526139127
 10
5.483320721481106
 20
0.534618526139127
 97
        8
330
A30
330
A2B
330
A26
330
A2A
330
A31
330
A17
330
A0C
330
A0D
 92
       22
 72
     0
 73
     1
 93
        3
 10
4.688923137875178
 20
0.906390234698108
 10
4.357887188719018
 20
0.906390234698108
 10
4.52340516329707
 20
1.135919445251261
 97
        3
330
A15
330
A16
330
A14
 75
     0
 76
     1
 47
0.0514683685270805
 98
        2
 10
4.861853918220901
 20
0.9980511167917711
 10
4.861853918220901
 20
0.9980511167917711
450
        0
451
        0
460
0.0
461
0.0
452
        0
462
0.0
453
        0
470

  0
HATCH
  5
A10
330
A0B
100
AcDbEntity
  8
ROGO
 62
     4
100
AcDbHatch
 10
0.0
 20
0.0
 30
0.0
210
0.0
220
0.0
230
1.0
  2
SOLID
 70
     1
 71
     1
 91
        1
 92
        7
 72
     0
 73
     1
 93
        4
 10
9.578582315110054
 20
0.1488426046266795
 10
0.757602359408736
 20
0.1488426046266795
 10
0.6902617161883314
 20
-0.0000000591880962
 10
9.504364555761469
 20
-0.0000000591880962
 97
        4
330
A0E
330
A28
330
A11
330
A33
 75
     0
 76
     1
 47
0.0514683685270805
 98
        1
 10
6.327335468702983
 20
0.1094761121222518
450
        0
451
        0
460
0.0
461
0.0
452
        0
462
0.0
453
        0
470

  0
LINE
  5
A11
102
{ACAD_REACTORS
330
A10
330
A34
330
A13
102
}
330
A0B
100
AcDbEntity
  8
ROGO
 62
     4
100
AcDbLine
 10
-0.0000000265826543
 20
-0.0000000591879825
 30
0.0
 11
10.05153918222152
 21
-0.0000000591879825
 31
0.0
  0
LINE
  5
A12
102
{ACAD_REACTORS
330
A13
102
}
330
A0B
100
AcDbEntity
  8
ROGO
 62
     4
100
AcDbLine
 10
0.7347325219557206
 20
1.484935992939711
 30
0.0
 11
-0.0000000265826543
 21
-0.0000000591879825
 31
0.0
  0
HATCH
  5
A13
330
A0B
100
AcDbEntity
  8
ROGO
 62
     4
100
AcDbHatch
 10
0.0
 20
0.0
 30
0.0
210
0.0
220
0.0
230
1.0
  2
SOLID
 70
     1
 71
     1
 91
        2
 92
        5
 93
        6
 72
     4
 94
        3
 73
     0
 74
     0
 95
       18
 96
       14
 40
0.108740278791501
 40
0.108740278791501
 40
0.108740278791501
 40
0.108740278791501
 40
0.6623149649549278
 40
1.384304701649787
 40
2.097394834876493
 40
2.774073369849618
 40
3.428974823686337
 40
4.005208313035923
 40
4.455173659284313
 40
4.720999734343524
 40
5.086034088486724
 40
5.569973738255373
 40
6.060470601257719
 40
6.060470601257719
 40
6.060470601257719
 40
6.060470601257719
 10
1.577391485369219
 20
0.534618526139127
 10
1.622803336473907
 20
0.5349566944440767
 10
1.727442770127709
 20
0.5357359126228403
 10
1.873832519012296
 20
0.613940533182074
 10
2.012651827277124
 20
0.713567521861819
 10
2.124461336400656
 20
0.8380410501108599
 10
2.194122029264406
 20
0.98035520437395
 10
2.204912250403367
 20
1.116750249304743
 10
2.198325085495298
 20
1.224637034167358
 10
2.151256483647159
 20
1.299836801611604
 10
2.102322928309888
 20
1.376156875384538
 10
2.012595334482341
 20
1.442268158006243
 10
1.939076563619892
 20
1.471234727313287
 10
1.901690773369352
 20
1.484935992939654
 72
     1
 10
1.901690773369466
 20
1.484935992939597
 11
0.7347325219557206
 21
1.484935992939597
 72
     1
 10
0.7347325219557206
 20
1.484935992939597
 11
-0.0000000265826543
 21
-0.000000059188096
 72
     1
 10
-0.0000000265826543
 20
-0.0000000591880962
 11
0.6902617161883314
 21
-0.0000000591880962
 72
     1
 10
0.6902617161883314
 20
-0.0000000591880962
 11
0.932138329323493
 21
0.5346185261391269
 72
     1
 10
0.932138329323493
 20
0.534618526139127
 11
1.577391485369219
 21
0.534618526139127
 97
        6
330
A2E
330
A25
330
A12
330
A11
330
A28
330
A29
 92
       20
 93
        4
 72
     1
 10
1.081483445011883
 20
0.8647152371851802
 11
1.195825786135401
 21
1.117445502679345
 72
     1
 10
1.195825786135401
 20
1.117445502679288
 11
1.489636870927654
 21
1.117445502679288
 72
     4
 94
        3
 73
     0
 74
     0
 95
       15
 96
       11
 40
0.0
 40
0.0
 40
0.0
 40
0.0
 40
0.458245544397197
 40
0.6671803073175111
 40
0.9043351724393449
 40
1.065896092998139
 40
1.321406364485703
 40
1.474450037341961
 40
1.737022829061231
 40
1.824547148828933
 40
1.824547148828933
 40
1.824547148828933
 40
1.824547148828933
 10
1.489636870927427
 20
1.117445502679288
 10
1.531486993944213
 20
1.117637198581689
 10
1.592418471133726
 20
1.117916297271506
 10
1.625737972995125
 20
1.042543883780695
 10
1.61080258358146
 20
0.9940158074456348
 10
1.592027581834656
 20
0.9441925981577696
 10
1.558847901491105
 20
0.9103369760057944
 10
1.514315910544837
 20
0.8777283046038064
 10
1.472231051009316
 20
0.873780878915852
 10
1.444859574066413
 20
0.8665283662256229
 10
1.438016701555113
 20
0.8647152371851234
 72
     1
 10
1.438016701555113
 20
0.8647152371851802
 11
1.081483445011883
 21
0.8647152371851802
 97
        4
330
A22
330
A24
330
A20
330
A23
 75
     0
 76
     1
 47
0.0514683685270805
 98
        2
 10
0.7409697327581739
 20
1.023081472030241
 10
0.7409697327581739
 20
1.023081472030241
450
        0
451
        0
460
0.0
461
0.0
452
        0
462
0.0
453
        0
470

  0
LINE
  5
A14
102
{ACAD_REACTORS
330
A0F
102
}
330
A0B
100
AcDbEntity
  8
ROGO
 62
     4
100
AcDbLine
 10
4.52340516329707
 20
1.135919445251374
 30
0.0
 11
4.688923137875121
 21
0.9063902346982217
 31
0.0
  0
LINE
  5
A15
102
{ACAD_REACTORS
330
A0F
102
}
330
A0B
100
AcDbEntity
  8
ROGO
 62
     4
100
AcDbLine
 10
4.357887188719018
 20
0.9063902346982786
 30
0.0
 11
4.688923137875121
 21
0.9063902346982786
 31
0.0
  0
LINE
  5
A16
102
{ACAD_REACTORS
330
A0F
102
}
330
A0B
100
AcDbEntity
  8
ROGO
 62
     4
100
AcDbLine
 10
4.52340516329707
 20
1.135919445251374
 30
0.0
 11
4.357887188719018
 21
0.9063902346982217
 31
0.0
  0
LINE
  5
A17
102
{ACAD_REACTORS
330
A0F
102
}
330
A0B
100
AcDbEntity
  8
ROGO
 62
     4
100
AcDbLine
 10
4.826539510339955
 20
0.7155530920159663
 30
0.0
 11
4.957014942215948
 21
0.5346185261392407
 31
0.0
  0
LINE
  5
A18
102
{ACAD_REACTORS
330
A2F
102
}
330
A0B
100
AcDbEntity
  8
ROGO
 62
     4
100
AcDbLine
 10
2.922617336811697
 20
0.9225102099042601
 30
0.0
 11
2.838397403018575
 21
0.7522969585028818
 31
0.0
  0
LINE
  5
A19
102
{ACAD_REACTORS
330
A2F
102
}
330
A0B
100
AcDbEntity
  8
ROGO
 62
     4
100
AcDbLine
 10
3.684517612092918
 20
1.09704056486214
 30
0.0
 11
3.598161615609569
 21
0.9225102099042601
 31
0.0
  0
LINE
  5
A1A
102
{ACAD_REACTORS
330
A2F
102
}
330
A0B
100
AcDbEntity
  8
ROGO
 62
     4
100
AcDbLine
 10
2.922617336811697
 20
0.9225102099042601
 30
0.0
 11
3.598161615609569
 21
0.9225102099043169
 31
0.0
  0
LINE
  5
A1B
102
{ACAD_REACTORS
330
A2F
102
}
330
A0B
100
AcDbEntity
  8
ROGO
 62
     4
100
AcDbLine
 10
2.838397403018632
 20
0.7522969585028818
 30
0.0
 11
3.513941681816504
 21
0.7522969585028818
 31
0.0
  0
LINE
  5
A1C
102
{ACAD_REACTORS
330
A2F
102
}
330
A0B
100
AcDbEntity
  8
ROGO
 62
     4
100
AcDbLine
 10
3.008973333294989
 20
1.09704056486214
 30
0.0
 11
3.684517612092918
 21
1.09704056486214
 31
0.0
  0
LINE
  5
A1D
102
{ACAD_REACTORS
330
A2F
102
}
330
A0B
100
AcDbEntity
  8
ROGO
 62
     4
100
AcDbLine
 10
3.093189701771905
 20
1.267246610557776
 30
0.0
 11
3.768733980569777
 21
1.267246610557776
 31
0.0
  0
LINE
  5
A1E
102
{ACAD_REACTORS
330
A2F
102
}
330
A0B
100
AcDbEntity
  8
ROGO
 62
     4
100
AcDbLine
 10
3.093189701771905
 20
1.267246610557776
 30
0.0
 11
3.008973333294989
 21
1.09704056486214
 31
0.0
  0
LINE
  5
A1F
102
{ACAD_REACTORS
330
A2F
102
}
330
A0B
100
AcDbEntity
  8
ROGO
 62
     4
100
AcDbLine
 10
3.876444662439212
 20
1.484935992939711
 30
0.0
 11
3.768733980569777
 21
1.267246610557776
 31
0.0
  0
SPLINE
  5
A20
102
{ACAD_REACTORS
330
A13
102
}
330
A0B
100
AcDbEntity
  8
ROGO
 62
     4
100
AcDbSpline
210
0.0
220
0.0
230
1.0
 70
     8
 71
     3
 72
    15
 73
    11
 74
     9
 42
0.0000000001
 43
0.0000000001
 44
0.0000000001
 40
0.0
 40
0.0
 40
0.0
 40
0.0
 40
0.1114278057886432
 40
0.1622327562563865
 40
0.2198997572250677
 40
0.259185199493265
 40
0.3213155338880433
 40
0.3585299069784071
 40
0.4223775764185194
 40
0.4436601464819452
 40
0.4436601464819452
 40
0.4436601464819452
 40
0.4436601464819452
 10
1.489636870927427
 20
1.117445502679402
 30
0.0
 10
1.53148699394423
 20
1.117637198581768
 30
0.0
 10
1.592418471133713
 20
1.117916297271578
 30
0.0
 10
1.625737972995128
 20
1.042543883780852
 30
0.0
 10
1.6108025835815
 20
0.9940158074457743
 30
0.0
 10
1.592027581834693
 20
0.9441925981578666
 30
0.0
 10
1.558847901491109
 20
0.9103369760058937
 30
0.0
 10
1.514315910544882
 20
0.8777283046039702
 30
0.0
 10
1.472231051009326
 20
0.873780878915954
 30
0.0
 10
1.444859574066393
 20
0.8665283662257074
 30
0.0
 10
1.438016701555113
 20
0.8647152371852371
 30
0.0
 11
1.489636870927427
 21
1.117445502679402
 31
0.0
 11
1.59803931565716
 21
1.091656631446085
 31
0.0
 11
1.618687442771317
 21
1.045236831374268
 31
0.0
 11
1.608363527627375
 21
0.9885014828089992
 31
0.0
 11
1.592877506498325
 21
0.9523970630823441
 31
0.0
 11
1.551581252269954
 21
0.9059772630104703
 31
0.0
 11
1.520609210011855
 21
0.8853461660238508
 31
0.0
 11
1.458664828669327
 21
0.8698730114319346
 31
0.0
 11
1.438016701555113
 21
0.8647152371852371
 31
0.0
  0
LINE
  5
A21
102
{ACAD_REACTORS
330
A2F
102
}
330
A0B
100
AcDbEntity
  8
ROGO
 62
     4
100
AcDbLine
 10
2.591100753158968
 20
1.484935992939711
 30
0.0
 11
3.876444662439212
 21
1.484935992939767
 31
0.0
  0
LINE
  5
A22
102
{ACAD_REACTORS
330
A13
102
}
330
A0B
100
AcDbEntity
  8
ROGO
 62
     4
100
AcDbLine
 10
1.195825786135401
 20
1.117445502679402
 30
0.0
 11
1.081483445011883
 21
0.8647152371852939
 31
0.0
  0
LINE
  5
A23
102
{ACAD_REACTORS
330
A13
102
}
330
A0B
100
AcDbEntity
  8
ROGO
 62
     4
100
AcDbLine
 10
1.438016701555113
 20
0.8647152371852371
 30
0.0
 11
1.081483445011883
 21
0.8647152371852939
 31
0.0
  0
LINE
  5
A24
102
{ACAD_REACTORS
330
A13
102
}
330
A0B
100
AcDbEntity
  8
ROGO
 62
     4
100
AcDbLine
 10
1.489636870927427
 20
1.117445502679402
 30
0.0
 11
1.195825786135401
 21
1.117445502679402
 31
0.0
  0
LINE
  5
A25
102
{ACAD_REACTORS
330
A13
102
}
330
A0B
100
AcDbEntity
  8
ROGO
 62
     4
100
AcDbLine
 10
0.7347325219557206
 20
1.484935992939711
 30
0.0
 11
1.901690773369352
 21
1.484935992939711
 31
0.0
  0
LINE
  5
A26
102
{ACAD_REACTORS
330
A0F
102
}
330
A0B
100
AcDbEntity
  8
ROGO
 62
     4
100
AcDbLine
 10
3.56348960511309
 20
0.5346185261392407
 30
0.0
 11
4.089795384378248
 21
0.5346185261392407
 31
0.0
  0
LINE
  5
A27
102
{ACAD_REACTORS
330
A2F
102
}
330
A0B
100
AcDbEntity
  8
ROGO
 62
     4
100
AcDbLine
 10
2.120892508634028
 20
0.5346185261392407
 30
0.0
 11
3.406236417914271
 21
0.5346185261392407
 31
0.0
  0
LINE
  5
A28
102
{ACAD_REACTORS
330
A10
330
A13
102
}
330
A0B
100
AcDbEntity
  8
ROGO
 62
     4
100
AcDbLine
 10
0.932138329323493
 20
0.5346185261392407
 30
0.0
 11
0.6902617161883314
 21
-0.0000000591879825
 31
0.0
  0
LINE
  5
A29
102
{ACAD_REACTORS
330
A13
102
}
330
A0B
100
AcDbEntity
  8
ROGO
 62
     4
100
AcDbLine
 10
1.577391485592897
 20
0.5346185261392407
 30
0.0
 11
0.9321383293234362
 21
0.5346185261392407
 31
0.0
  0
LINE
  5
A2A
102
{ACAD_REACTORS
330
A0F
102
}
330
A0B
100
AcDbEntity
  8
ROGO
 62
     4
100
AcDbLine
 10
4.220270816254185
 20
0.7155530920159663
 30
0.0
 11
4.089795384378248
 21
0.5346185261392407
 31
0.0
  0
LINE
  5
A2B
102
{ACAD_REACTORS
330
A0F
102
}
330
A0B
100
AcDbEntity
  8
ROGO
 62
     4
100
AcDbLine
 10
4.24878199962751
 20
1.484935992939711
 30
0.0
 11
3.56348960511309
 21
0.5346185261392407
 31
0.0
  0
LINE
  5
A2C
102
{ACAD_REACTORS
330
A2F
102
}
330
A0B
100
AcDbEntity
  8
ROGO
 62
     4
100
AcDbLine
 10
3.513941681816504
 20
0.7522969585028818
 30
0.0
 11
3.406236417914271
 21
0.5346185261392407
 31
0.0
  0
LINE
  5
A2D
102
{ACAD_REACTORS
330
A2F
102
}
330
A0B
100
AcDbEntity
  8
ROGO
 62
     4
100
AcDbLine
 10
2.591100753159025
 20
1.484935992939711
 30
0.0
 11
2.120892508634028
 21
0.5346185261392407
 31
0.0
  0
SPLINE
  5
A2E
102
{ACAD_REACTORS
330
A13
102
}
330
A0B
100
AcDbEntity
  8
ROGO
 62
     4
100
AcDbSpline
210
0.0
220
0.0
230
1.0
 70
     8
 71
     3
 72
    18
 73
    14
 74
     0
 42
0.0000000001
 43
0.0000000001
 40
0.1087402787915014
 40
0.1087402787915014
 40
0.1087402787915014
 40
0.1087402787915014
 40
0.5992371417938475
 40
1.083176791562496
 40
1.448211145705696
 40
1.714037220764907
 40
2.164002567013297
 40
2.740236056362883
 40
3.395137510199602
 40
4.071816045172726
 40
4.784906178399433
 40
5.506895915094292
 40
6.060470601257719
 40
6.060470601257719
 40
6.060470601257719
 40
6.060470601257719
 10
1.901690773369352
 20
1.484935992939767
 30
0.0
 10
1.939076563619892
 20
1.471234727313401
 30
0.0
 10
2.012595334482341
 20
1.442268158006356
 30
0.0
 10
2.102322928309888
 20
1.376156875384708
 30
0.0
 10
2.151256483647159
 20
1.299836801611718
 30
0.0
 10
2.198325085495298
 20
1.224637034167471
 30
0.0
 10
2.204912250403367
 20
1.116750249304857
 30
0.0
 10
2.194122029264406
 20
0.9803552043740637
 30
0.0
 10
2.124461336400656
 20
0.8380410501109736
 30
0.0
 10
2.012651827277124
 20
0.7135675218619327
 30
0.0
 10
1.873832519012296
 20
0.6139405331821877
 30
0.0
 10
1.727442770127709
 20
0.535735912622954
 30
0.0
 10
1.622803336473907
 20
0.5349566944441904
 30
0.0
 10
1.577391485369219
 20
0.5346185261392407
 30
0.0
  0
HATCH
  5
A2F
330
A0B
100
AcDbEntity
  8
ROGO
 62
     4
100
AcDbHatch
 10
0.0
 20
0.0
 30
0.0
210
0.0
220
0.0
230
1.0
  2
SOLID
 70
     1
 71
     1
 91
        1
 92
        1
 93
       12
 72
     1
 10
2.591100753158968
 20
1.484935992939597
 11
3.876444662439212
 21
1.484935992939597
 72
     1
 10
3.876444662439212
 20
1.484935992939597
 11
3.76873398056972
 21
1.267246610557663
 72
     1
 10
3.768733980569777
 20
1.267246610557663
 11
3.093189701771905
 21
1.267246610557663
 72
     1
 10
3.093189701771905
 20
1.267246610557663
 11
3.008973333295045
 21
1.097040564862027
 72
     1
 10
3.008973333295045
 20
1.097040564862027
 11
3.684517612092918
 21
1.097040564862027
 72
     1
 10
3.684517612092861
 20
1.097040564862027
 11
3.598161615609512
 21
0.9225102099041464
 72
     1
 10
3.598161615609569
 20
0.9225102099041464
 11
2.922617336811697
 21
0.9225102099041464
 72
     1
 10
2.922617336811697
 20
0.9225102099041464
 11
2.838397403018632
 21
0.7522969585027682
 72
     1
 10
2.838397403018632
 20
0.7522969585027682
 11
3.513941681816504
 21
0.7522969585027682
 72
     1
 10
3.513941681816504
 20
0.7522969585027682
 11
3.406236417914271
 21
0.534618526139127
 72
     1
 10
3.406236417914271
 20
0.534618526139127
 11
2.120892508634028
 21
0.534618526139127
 72
     1
 10
2.120892508634028
 20
0.534618526139127
 11
2.591100753159025
 21
1.484935992939597
 97
       12
330
A21
330
A1F
330
A1D
330
A1E
330
A1C
330
A19
330
A1A
330
A18
330
A1B
330
A2C
330
A27
330
A2D
 75
     0
 76
     1
 98
        1
 10
-49.98549222387413
 20
-64.22526447222606
450
        0
451
        0
460
0.0
461
0.0
452
        0
462
0.0
453
        0
470

  0
LINE
  5
A30
102
{ACAD_REACTORS
330
A0F
102
}
330
A0B
100
AcDbEntity
  8
ROGO
 62
     4
100
AcDbLine
 10
4.24878199962751
 20
1.484935992939711
 30
0.0
 11
4.798028326966687
 21
1.484935992939711
 31
0.0
  0
LINE
  5
A31
102
{ACAD_REACTORS
330
A0F
102
}
330
A0B
100
AcDbEntity
  8
ROGO
 62
     4
100
AcDbLine
 10
4.220270816254185
 20
0.7155530920159663
 30
0.0
 11
4.826539510339955
 21
0.7155530920159663
 31
0.0
  0
LINE
  5
A32
102
{ACAD_REACTORS
330
A34
102
}
330
A0B
100
AcDbEntity
  8
ROGO
 62
     4
100
AcDbLine
 10
10.24480163032234
 20
0.387585039623616
 30
0.0
 11
10.05153918222152
 21
-0.0000000591879825
 31
0.0
  0
LINE
  5
A33
102
{ACAD_REACTORS
330
A10
330
A34
102
}
330
A0B
100
AcDbEntity
  8
ROGO
 62
     4
100
AcDbLine
 10
10.24480163032234
 20
1.484935992939711
 30
0.0
 11
9.504364555761469
 21
-0.0000000591879825
 31
0.0
  0
HATCH
  5
A34
330
A0B
100
AcDbEntity
  8
ROGO
 62
     4
100
AcDbHatch
 10
0.0
 20
0.0
 30
0.0
210
0.0
220
0.0
230
1.0
  2
SOLID
 70
     1
 71
     1
 91
        1
 92
        7
 72
     0
 73
     1
 93
       11
 10
11.51449603063281
 20
1.484935992939597
 10
10.96733337591359
 20
1.484935992939597
 10
10.71113559568618
 20
1.322811193596237
 10
10.79197625678233
 20
1.484935992939597
 10
10.24480163032234
 20
1.484935992939597
 10
9.504364555761469
 20
-0.0000000591880962
 10
10.05153918222152
 20
-0.0000000591880962
 10
10.24480163032234
 20
0.3875850396235023
 10
10.43806407842322
 20
-0.0000000591880962
 10
10.98522673314244
 20
-0.0000000591880962
 10
10.61500819586206
 20
0.7424679668757222
 97
       11
330
A59
330
A56
330
A57
330
A58
330
A33
330
A11
330
A32
330
A5C
330
A5B
330
A5D
330
A5A
 75
     0
 76
     1
 47
0.0514683685270805
 98
        1
 10
10.19770984280899
 20
0.8478694898053618
450
        0
451
        0
460
0.0
461
0.0
452
        0
462
0.0
453
        0
470

  0
LINE
  5
A35
102
{ACAD_REACTORS
330
A55
102
}
330
A0B
100
AcDbEntity
  8
ROGO
 62
     4
100
AcDbLine
 10
9.274750120805435
 20
1.13135628124138
 30
0.0
 11
9.869459389163182
 21
1.13135628124138
 31
0.0
  0
LINE
  5
A36
102
{ACAD_REACTORS
330
A55
102
}
330
A0B
100
AcDbEntity
  8
ROGO
 62
     4
100
AcDbLine
 10
9.140537442976494
 20
0.8881944935250771
 30
0.0
 11
9.748211068413183
 21
0.8881944935250771
 31
0.0
  0
SPLINE
  5
A37
102
{ACAD_REACTORS
330
A55
102
}
330
A0B
100
AcDbEntity
  8
ROGO
 62
     4
100
AcDbSpline
210
0.0
220
0.0
230
1.0
 70
     8
 71
     3
 72
    16
 73
    12
 74
    10
 42
0.0000000001
 43
0.0000000001
 44
0.0000000001
 40
0.0
 40
0.0
 40
0.0
 40
0.0
 40
0.090889463558755
 40
0.1352824120538207
 40
0.1571739758861895
 40
0.1802441192684573
 40
0.2132804986121272
 40
0.2433617673669184
 40
0.2747358298622198
 40
0.3273367126566715
 40
0.3794005943324707
 40
0.3794005943324707
 40
0.3794005943324707
 40
0.3794005943324707
 10
9.274750120805492
 20
1.131356281241323
 30
0.0
 10
9.243970826466007
 20
1.126663770171344
 30
0.0
 10
9.198158066476853
 20
1.119679305842035
 30
0.0
 10
9.156729556811942
 20
1.086884953393294
 30
0.0
 10
9.133366753805926
 20
1.067374496594591
 30
0.0
 10
9.125418624138809
 20
1.041537113468487
 30
0.0
 10
9.104072443806678
 20
1.021697969439739
 30
0.0
 10
9.086477119434254
 20
0.9944325995127421
 30
0.0
 10
9.08227575482366
 20
0.9569831722858753
 30
0.0
 10
9.085359652638807
 20
0.9044286084941507
 30
0.0
 10
9.122207864957958
 20
0.8935873241379798
 30
0.0
 10
9.140537442976494
 20
0.8881944935250203
 30
0.0
 11
9.274750120805492
 21
1.131356281241323
 31
0.0
 11
9.186995803189972
 21
1.107690391741186
 31
0.0
 11
9.150861654946709
 21
1.081901688655932
 31
0.0
 11
9.135375633817659
 21
1.066428365915896
 31
0.0
 11
9.125051421847388
 21
1.045797268929277
 31
0.0
 11
9.104403294733231
 21
1.020008565844079
 31
0.0
 11
9.088917273604181
 21
0.9942196946107628
 31
0.0
 11
9.083755167619017
 21
0.9632732172788109
 31
0.0
 11
9.094079379589288
 21
0.9116954748122338
 31
0.0
 11
9.140537442976494
 21
0.8881944935250203
 31
0.0
  0
LINE
  5
A38
102
{ACAD_REACTORS
330
A52
102
}
330
A0B
100
AcDbEntity
  8
ROGO
 62
     4
100
AcDbLine
 10
7.465432464168998
 20
1.484935992939711
 30
0.0
 11
7.849706463946802
 21
1.484935992939711
 31
0.0
  0
LINE
  5
A39
330
A0B
100
AcDbEntity
  8
ROGO
 62
     4
100
AcDbLine
 10
7.465432464169111
 20
1.484935992939711
 30
0.0
 11
7.734745873315546
 21
1.484935992939711
 31
0.0
  0
ARC
  5
A3A
102
{ACAD_REACTORS
330
A52
102
}
330
A0B
100
AcDbEntity
  8
ROGO
 62
     4
100
AcDbCircle
 10
7.69637869428368
 20
0.9474790028461939
 30
0.0
 40
0.0888850530907803
100
AcDbArc
 50
256.5902863289752
 51
337.7287536965499
  0
ARC
  5
A3B
102
{ACAD_REACTORS
330
A52
102
}
330
A0B
100
AcDbEntity
  8
ROGO
 62
     4
100
AcDbCircle
 10
7.647054026183525
 20
0.9614983755789694
 30
0.0
 40
0.0958388019806556
100
AcDbArc
 50
188.5583509056651
 51
266.5736774635929
  0
ARC
  5
A3C
102
{ACAD_REACTORS
330
A52
102
}
330
A0B
100
AcDbEntity
  8
ROGO
 62
     4
100
AcDbCircle
 10
7.660765915210504
 20
0.9978905261285717
 30
0.0
 40
0.1037824301982561
100
AcDbArc
 50
82.57970078354313
 51
157.4341870372611
  0
ARC
  5
A3D
102
{ACAD_REACTORS
330
A52
102
}
330
A0B
100
AcDbEntity
  8
ROGO
 62
     4
100
AcDbCircle
 10
7.691623277836299
 20
0.9975628894870851
 30
0.0
 40
0.0998820093152177
100
AcDbArc
 50
3.851923331663601
 51
80.20940670206341
  0
LINE
  5
A3E
102
{ACAD_REACTORS
330
A52
102
}
330
A0B
100
AcDbEntity
  8
ROGO
 62
     4
100
AcDbLine
 10
7.641326222715235
 20
0.8658308877238596
 30
0.0
 11
7.675765110943416
 21
0.8610172607585582
 31
0.0
  0
LINE
  5
A3F
102
{ACAD_REACTORS
330
A52
102
}
330
A0B
100
AcDbEntity
  8
ROGO
 62
     4
100
AcDbLine
 10
7.552282406598749
 20
0.9472359744360119
 30
0.0
 11
7.564929135047407
 21
1.037716452179495
 31
0.0
  0
LINE
  5
A40
102
{ACAD_REACTORS
330
A52
102
}
330
A0B
100
AcDbEntity
  8
ROGO
 62
     4
100
AcDbLine
 10
7.791279653589811
 20
1.004272774473065
 30
0.0
 11
7.778632925141153
 21
0.9137922967295253
 31
0.0
  0
LINE
  5
A41
102
{ACAD_REACTORS
330
A52
102
}
330
A0B
100
AcDbEntity
  8
ROGO
 62
     4
100
AcDbLine
 10
7.674169097026947
 20
1.100803827188428
 30
0.0
 11
7.708607985255127
 21
1.095990200223184
 31
0.0
  0
LINE
  5
A42
102
{ACAD_REACTORS
330
A51
102
}
330
A0B
100
AcDbEntity
  8
ROGO
 62
     4
100
AcDbLine
 10
6.032071970508525
 20
1.484935992939767
 30
0.0
 11
6.983758243896545
 21
1.484935992939767
 31
0.0
  0
LINE
  5
A43
102
{ACAD_REACTORS
330
A51
102
}
330
A0B
100
AcDbEntity
  8
ROGO
 62
     4
100
AcDbLine
 10
6.07853003389539
 20
0.8881944935250771
 30
0.0
 11
6.686203659332079
 21
0.8881944935250771
 31
0.0
  0
LINE
  5
A44
102
{ACAD_REACTORS
330
A51
102
}
330
A0B
100
AcDbEntity
  8
ROGO
 62
     4
100
AcDbLine
 10
6.212742711724388
 20
1.13135628124138
 30
0.0
 11
6.807451980082134
 21
1.13135628124138
 31
0.0
  0
LINE
  5
A45
102
{ACAD_REACTORS
330
A51
102
}
330
A0B
100
AcDbEntity
  8
ROGO
 62
     4
100
AcDbLine
 10
6.983758243896545
 20
1.484935992939711
 30
0.0
 11
6.807451980082134
 21
1.13135628124138
 31
0.0
  0
SPLINE
  5
A46
102
{ACAD_REACTORS
330
A51
102
}
330
A0B
100
AcDbEntity
  8
ROGO
 62
     4
100
AcDbSpline
210
0.0
220
0.0
230
1.0
 70
     8
 71
     3
 72
    16
 73
    12
 74
    10
 42
0.0000000001
 43
0.0000000001
 44
0.0000000001
 40
0.0
 40
0.0
 40
0.0
 40
0.0
 40
0.0908894635587698
 40
0.1352824120537892
 40
0.1571739758861179
 40
0.1802441192684364
 40
0.2132804986121064
 40
0.2433617673669269
 40
0.2747358298621628
 40
0.3273367126566702
 40
0.3794005943324437
 40
0.3794005943324437
 40
0.3794005943324437
 40
0.3794005943324437
 10
6.212742711724388
 20
1.13135628124138
 30
0.0
 10
6.181963417384888
 20
1.126663770171392
 30
0.0
 10
6.136150657395735
 20
1.119679305842073
 30
0.0
 10
6.094722147730919
 20
1.086884953393267
 30
0.0
 10
6.071359344724846
 20
1.067374496594637
 30
0.0
 10
6.063411215057785
 20
1.041537113468491
 30
0.0
 10
6.042065034725641
 20
1.021697969439723
 30
0.0
 10
6.024469710353133
 20
0.9944325995127819
 30
0.0
 10
6.02026834574265
 20
0.9569831722858836
 30
0.0
 10
6.023352243557721
 20
0.9044286084941568
 30
0.0
 10
6.060200455876909
 20
0.8935873241380171
 30
0.0
 10
6.078530033895447
 20
0.8881944935250771
 30
0.0
 11
6.212742711724388
 21
1.13135628124138
 31
0.0
 11
6.124988394108868
 21
1.107690391741186
 31
0.0
 11
6.088854245865661
 21
1.081901688655932
 31
0.0
 11
6.073368224736611
 21
1.066428365915953
 31
0.0
 11
6.06304401276634
 21
1.045797268929277
 31
0.0
 11
6.042395885652183
 21
1.020008565844079
 31
0.0
 11
6.026909864523076
 21
0.9942196946107628
 31
0.0
 11
6.021747758537969
 21
0.9632732172788678
 31
0.0
 11
6.032071970508241
 21
0.9116954748122338
 31
0.0
 11
6.078530033895447
 21
0.8881944935250771
 31
0.0
  0
LINE
  5
A47
102
{ACAD_REACTORS
330
A55
102
}
330
A0B
100
AcDbEntity
  8
ROGO
 62
     4
100
AcDbLine
 10
8.753385727444708
 20
0.5346185261392407
 30
0.0
 11
9.571906671633882
 21
0.5346185261392407
 31
0.0
  0
LINE
  5
A48
102
{ACAD_REACTORS
330
A52
102
}
330
A0B
100
AcDbEntity
  8
ROGO
 62
     4
100
AcDbLine
 10
7.465432464168998
 20
0.5346185261392407
 30
0.0
 11
7.877322089673725
 21
0.5346185261392407
 31
0.0
  0
LINE
  5
A49
330
A0B
100
AcDbEntity
  8
ROGO
 62
     4
100
AcDbLine
 10
7.465432464169339
 20
0.5346185261392407
 30
0.0
 11
7.877322089673384
 21
0.5346185261392407
 31
0.0
  0
LINE
  5
A4A
102
{ACAD_REACTORS
330
A51
102
}
330
A0B
100
AcDbEntity
  8
ROGO
 62
     4
100
AcDbLine
 10
5.691378318363661
 20
0.5346185261392407
 30
0.0
 11
6.509899262552778
 21
0.5346185261392407
 31
0.0
  0
ARC
  5
A4B
102
{ACAD_REACTORS
330
A52
102
}
330
A0B
100
AcDbEntity
  8
ROGO
 62
     4
100
AcDbCircle
 10
7.849706463946802
 20
1.009376013213397
 30
0.0
 40
0.4755599797263065
100
AcDbArc
 50
273.3290215232082
 51
90.0000000000006
  0
ARC
  5
A4C
102
{ACAD_REACTORS
330
A52
102
}
330
A0B
100
AcDbEntity
  8
ROGO
 62
     4
100
AcDbCircle
 10
7.48496378237229
 20
1.009777259539475
 30
0.0
 40
0.4755599797263065
100
AcDbArc
 50
92.3538081120337
 51
270.0
  0
LINE
  5
A4D
102
{ACAD_REACTORS
330
A55
102
}
330
A0B
100
AcDbEntity
  8
ROGO
 62
     4
100
AcDbLine
 10
9.748211068413127
 20
0.8881944935250771
 30
0.0
 11
9.571906671633882
 21
0.5346185261391839
 31
0.0
  0
LINE
  5
A4E
102
{ACAD_REACTORS
330
A51
102
}
330
A0B
100
AcDbEntity
  8
ROGO
 62
     4
100
AcDbLine
 10
6.686203659332079
 20
0.8881944935250771
 30
0.0
 11
6.509899262552778
 21
0.5346185261392407
 31
0.0
  0
SPLINE
  5
A4F
102
{ACAD_REACTORS
330
A51
102
}
330
A0B
100
AcDbEntity
  8
ROGO
 62
     4
100
AcDbSpline
210
0.0
220
0.0
230
1.0
 70
     8
 71
     3
 72
    26
 73
    22
 74
    20
 42
0.0000000001
 43
0.0000000001
 44
0.0000000001
 40
0.0
 40
0.0
 40
0.0
 40
0.0
 40
0.172398475942452
 40
0.2878059064037132
 40
0.3710240621887256
 40
0.4331603664333846
 40
0.5137544142125073
 40
0.5725802121924657
 40
0.6788058922658211
 40
0.7652720686804854
 40
0.8240829233522674
 40
0.8817499774613789
 40
0.9849051260984648
 40
1.05784812826095
 40
1.097133570529095
 40
1.152937380796455
 40
1.193234564309741
 40
1.251611879021481
 40
1.284648389624348
 40
1.356539542406023
 40
1.389365667278791
 40
1.389365667278791
 40
1.389365667278791
 40
1.389365667278791
 10
6.032071970508241
 20
1.484935992939711
 30
0.0
 10
5.973557264069641
 20
1.481444905211402
 30
0.0
 10
5.875871492589096
 20
1.47561680457137
 30
0.0
 10
5.768613109753668
 20
1.410458488868562
 30
0.0
 10
5.690029339238584
 20
1.372578307494294
 30
0.0
 10
5.633983489410011
 20
1.321083428095256
 30
0.0
 10
5.592901654292559
 20
1.26789297930569
 30
0.0
 10
5.541110288827273
 20
1.204516949575323
 30
0.0
 10
5.49887591022997
 20
1.130718127534994
 30
0.0
 10
5.477368508803827
 20
1.049378960065351
 30
0.0
 10
5.458317456747558
 20
0.9845511716472696
 30
0.0
 10
5.444188877610419
 20
0.9123090616542125
 30
0.0
 10
5.447783588117866
 20
0.8342621694164586
 30
0.0
 10
5.452931378081073
 20
0.7617762114914332
 30
0.0
 10
5.475915008490222
 20
0.7100320901693001
 30
0.0
 10
5.502089292423582
 20
0.6731938414330762
 30
0.0
 10
5.534139344645077
 20
0.6326205945144422
 30
0.0
 10
5.569209110546427
 20
0.6057490644615085
 30
0.0
 10
5.598214669540071
 20
0.5570694820472437
 30
0.0
 10
5.648987922074967
 20
0.5508576162517939
 30
0.0
 10
5.681261421323124
 20
0.5384941493247972
 30
0.0
 10
5.691378318363717
 20
0.5346185261392407
 30
0.0
 11
6.032071970508241
 21
1.484935992939711
 31
0.0
 11
5.861725144435979
 21
1.458418199773859
 31
0.0
 11
5.75848450886508
 21
1.406840625455288
 31
0.0
 11
5.68621621237861
 21
1.365578599630055
 31
0.0
 11
5.639758148991347
 21
1.324316405656759
 31
0.0
 11
5.588137979619091
 21
1.262423282844906
 31
0.0
 11
5.552003831375827
 21
1.216003482773032
 31
0.0
 11
5.500383365177242
 21
1.123163714481165
 31
0.0
 11
5.47457342890425
 21
1.040639494682636
 31
0.0
 11
5.4590874077752
 21
0.9839041461174247
 31
0.0
 11
5.448763195804929
 21
0.9271687975522127
 31
0.0
 11
5.448763195804929
 21
0.8240136489151268
 31
0.0
 11
5.4590874077752
 21
0.7518049776098792
 31
0.0
 11
5.47457342890425
 21
0.7157005578832809
 31
0.0
 11
5.505545471162349
 21
0.6692807578113503
 31
0.0
 11
5.53135570426167
 21
0.6383341123313926
 31
0.0
 11
5.572651661663712
 21
0.5970720865061594
 31
0.0
 11
5.593299788777926
 21
0.5712832152728425
 31
0.0
 11
5.660406276105618
 21
0.5454945121876449
 31
0.0
 11
5.691378318363717
 21
0.5346185261392407
 31
0.0
  0
SPLINE
  5
A50
102
{ACAD_REACTORS
330
A55
102
}
330
A0B
100
AcDbEntity
  8
ROGO
 62
     4
100
AcDbSpline
210
0.0
220
0.0
230
1.0
 70
     8
 71
     3
 72
    26
 73
    22
 74
    20
 42
0.0000000001
 43
0.0000000001
 44
0.0000000001
 40
0.0
 40
0.0
 40
0.0
 40
0.0
 40
0.1723984759424608
 40
0.2878059064036966
 40
0.3710240621887089
 40
0.4331603664333254
 40
0.5137544142124919
 40
0.5725802121924054
 40
0.6788058922657609
 40
0.7652720686804421
 40
0.824082923352279
 40
0.8817499774613345
 40
0.9849051260984204
 40
1.057848128260906
 40
1.097133570529051
 40
1.152937380796411
 40
1.193234564309733
 40
1.251611879021433
 40
1.284648389624335
 40
1.356539542405977
 40
1.389365667278781
 40
1.389365667278781
 40
1.389365667278781
 40
1.389365667278781
 10
9.094079379589288
 20
1.484935992939711
 30
0.0
 10
9.035564673150693
 20
1.481444905211369
 30
0.0
 10
8.937878901670169
 20
1.475616804571283
 30
0.0
 10
8.830620518834708
 20
1.410458488868567
 30
0.0
 10
8.752036748319635
 20
1.372578307494311
 30
0.0
 10
8.695990898491096
 20
1.321083428095232
 30
0.0
 10
8.654909063373702
 20
1.267892979305642
 30
0.0
 10
8.603117697908345
 20
1.204516949575328
 30
0.0
 10
8.560883319311107
 20
1.130718127534976
 30
0.0
 10
8.539375917884848
 20
1.049378960065346
 30
0.0
 10
8.520324865828625
 20
0.9845511716472456
 30
0.0
 10
8.506196286691453
 20
0.9123090616541963
 30
0.0
 10
8.509790997198916
 20
0.8342621694164582
 30
0.0
 10
8.514938787162119
 20
0.7617762114914318
 30
0.0
 10
8.537922417571271
 20
0.7100320901693033
 30
0.0
 10
8.56409670150462
 20
0.6731938414330492
 30
0.0
 10
8.596146753726191
 20
0.6326205945144875
 30
0.0
 10
8.631216519627461
 20
0.6057490644614584
 30
0.0
 10
8.660222078621195
 20
0.5570694820473007
 30
0.0
 10
8.710995331156015
 20
0.5508576162516721
 30
0.0
 10
8.743268830404206
 20
0.5384941493247713
 30
0.0
 10
8.753385727444822
 20
0.5346185261392407
 30
0.0
 11
9.094079379589288
 21
1.484935992939711
 31
0.0
 11
8.923732553517027
 21
1.458418199773802
 31
0.0
 11
8.820491917946128
 21
1.406840625455288
 31
0.0
 11
8.748223621459658
 21
1.365578599630055
 31
0.0
 11
8.701765558072452
 21
1.324316405656759
 31
0.0
 11
8.650145388700195
 21
1.262423282844849
 31
0.0
 11
8.614011240456932
 21
1.216003482773032
 31
0.0
 11
8.562390774258346
 21
1.123163714481165
 31
0.0
 11
8.536580837985297
 21
1.040639494682636
 31
0.0
 11
8.521094816856248
 21
0.9839041461173678
 31
0.0
 11
8.510770604885976
 21
0.9271687975522127
 31
0.0
 11
8.510770604885976
 21
0.8240136489151268
 31
0.0
 11
8.521094816856248
 21
0.7518049776098792
 31
0.0
 11
8.536580837985297
 21
0.7157005578832809
 31
0.0
 11
8.567552880243397
 21
0.6692807578113503
 31
0.0
 11
8.593363113342775
 21
0.6383341123313926
 31
0.0
 11
8.63465907074476
 21
0.5970720865061594
 31
0.0
 11
8.655307197859031
 21
0.5712832152728425
 31
0.0
 11
8.722413685186666
 21
0.5454945121875881
 31
0.0
 11
8.753385727444822
 21
0.5346185261392407
 31
0.0
  0
HATCH
  5
A51
330
A0B
100
AcDbEntity
  8
ROGO
 62
     4
100
AcDbHatch
 10
0.0
 20
0.0
 30
0.0
210
0.0
220
0.0
230
1.0
  2
SOLID
 70
     1
 71
     1
 91
        1
 92
        5
 93
        8
 72
     1
 10
6.983758243896545
 20
1.484935992939597
 11
6.032071970508411
 21
1.484935992939597
 72
     4
 94
        3
 73
     0
 74
     0
 95
       26
 96
       22
 40
0.0
 40
0.0
 40
0.0
 40
0.0
 40
0.7089867102952115
 40
1.183598414482279
 40
1.525832104103439
 40
1.781366926528389
 40
2.112809002752968
 40
2.354729406992515
 40
2.791581270399936
 40
3.147172406765291
 40
3.389031356825354
 40
3.626186440486682
 40
4.050410779375985
 40
4.350388020238963
 40
4.511948940797758
 40
4.741441456013356
 40
4.907163150576407
 40
5.147239172635527
 40
5.28310143501293
 40
5.578752957634333
 40
5.713750011164293
 40
5.713750011164293
 40
5.713750011164293
 40
5.713750011164293
 10
6.032071970508241
 20
1.484935992939597
 10
5.973557264069597
 20
1.481444905211276
 10
5.875871492589055
 20
1.475616804571245
 10
5.768613109753687
 20
1.410458488868414
 10
5.690029339238549
 20
1.372578307494222
 10
5.633983489410013
 20
1.321083428095107
 10
5.592901654292575
 20
1.267892979305543
 10
5.541110288827269
 20
1.204516949575179
 10
5.498875910230026
 20
1.130718127534862
 10
5.477368508803749
 20
1.049378960065212
 10
5.458317456747579
 20
0.9845511716471264
 10
5.444188877610429
 20
0.9123090616540707
 10
5.447783588117886
 20
0.8342621694163199
 10
5.452931378081132
 20
0.7617762114913376
 10
5.475915008490176
 20
0.710032090169193
 10
5.50208929242359
 20
0.6731938414329762
 10
5.534139344645041
 20
0.6326205945143215
 10
5.56920911054641
 20
0.6057490644614063
 10
5.598214669540084
 20
0.5570694820471545
 10
5.648987922074923
 20
0.5508576162516193
 10
5.681261421323085
 20
0.5384941493246629
 10
5.691378318363717
 20
0.534618526139127
 72
     1
 10
5.691378318363661
 20
0.534618526139127
 11
6.509899262552835
 21
0.534618526139127
 72
     1
 10
6.509899262552778
 20
0.534618526139127
 11
6.686203659332079
 21
0.8881944935249634
 72
     1
 10
6.686203659332079
 20
0.8881944935249634
 11
6.078530033895333
 21
0.8881944935249634
 72
     4
 94
        3
 73
     0
 74
     0
 95
       16
 96
       12
 40
0.0
 40
0.0
 40
0.0
 40
0.0
 40
0.2141121027475241
 40
0.4304326162973471
 40
0.5594580803306056
 40
0.6831669452691567
 40
0.8190286678446897
 40
0.9139043619204622
 40
1.003933161420314
 40
1.186498641432482
 40
1.560280494298353
 40
1.560280494298353
 40
1.560280494298353
 40
1.560280494298353
 10
6.078530033895447
 20
0.8881944935249634
 10
6.060200455876895
 20
0.8935873241379113
 10
6.023352243557667
 20
0.9044286084940154
 10
6.020268345742636
 20
0.9569831722857884
 10
6.024469710353116
 20
0.9944325995126064
 10
6.042065034725681
 20
1.021697969439628
 10
6.063411215057783
 20
1.041537113468336
 10
6.071359344724839
 20
1.067374496594538
 10
6.094722147730863
 20
1.086884953393166
 10
6.136150657395774
 20
1.119679305841884
 10
6.181963417384906
 20
1.126663770171262
 10
6.212742711724388
 20
1.131356281241266
 72
     1
 10
6.212742711724388
 20
1.131356281241266
 11
6.807451980082078
 21
1.131356281241266
 72
     1
 10
6.807451980082134
 20
1.131356281241266
 11
6.983758243896602
 21
1.484935992939597
 97
        8
330
A42
330
A4F
330
A4A
330
A4E
330
A43
330
A46
330
A44
330
A45
 75
     0
 76
     1
 47
0.0514683685270805
 98
        1
 10
6.364911895882585
 20
1.273384183674238
450
        0
451
        0
460
0.0
461
0.0
452
        0
462
0.0
453
        0
470

  0
HATCH
  5
A52
330
A0B
100
AcDbEntity
  8
ROGO
 62
     4
100
AcDbHatch
 10
0.0
 20
0.0
 30
0.0
210
0.0
220
0.0
230
1.0
  2
SOLID
 70
     1
 71
     1
 91
        2
 92
        7
 72
     1
 73
     1
 93
        4
 10
7.849706463946802
 20
1.484935992939597
 42
0.0
 10
7.465432464168998
 20
1.484935992939597
 42
0.9597396185052668
 10
7.465432464168941
 20
0.534618526139127
 42
0.0
 10
7.877322089673668
 20
0.534618526139127
 42
0.9713627655772736
 97
        4
330
A38
330
A4C
330
A48
330
A4B
 92
       22
 72
     1
 73
     1
 93
        8
 10
7.791279653589811
 20
1.004272774472838
 42
0.0
 10
7.778632925141153
 20
0.9137922967292411
 42
-0.3696060376523694
 10
7.675765110943643
 20
0.8610172607583876
 42
0.0
 10
7.641326222715747
 20
0.8658308877236891
 42
-0.3541938351274232
 10
7.552282406598749
 20
0.9472359744358982
 42
0.0
 10
7.564929135047407
 20
1.037716452179495
 42
-0.3439742752229287
 10
7.676094128137322
 20
1.100534759801462
 42
0.0
 10
7.708607985255127
 20
1.09599020022307
 42
-0.3460733018205655
 97
        8
330
A40
330
A3A
330
A3E
330
A3B
330
A3F
330
A3C
330
A41
330
A3D
 75
     0
 76
     1
 47
0.0514683685270805
 98
        2
 10
7.943122727903357
 20
1.098172201449415
 10
7.943122727903357
 20
1.098172201449415
450
        0
451
        0
460
0.0
461
0.0
452
        0
462
0.0
453
        0
470

  0
LINE
  5
A53
102
{ACAD_REACTORS
330
A55
102
}
330
A0B
100
AcDbEntity
  8
ROGO
 62
     4
100
AcDbLine
 10
10.04576565297765
 20
1.484935992939711
 30
0.0
 11
9.869459389163182
 21
1.13135628124138
 31
0.0
  0
LINE
  5
A54
102
{ACAD_REACTORS
330
A55
102
}
330
A0B
100
AcDbEntity
  8
ROGO
 62
     4
100
AcDbLine
 10
9.094079379589572
 20
1.484935992939711
 30
0.0
 11
10.04576565297765
 21
1.484935992939711
 31
0.0
  0
HATCH
  5
A55
330
A0B
100
AcDbEntity
  8
ROGO
 62
     4
100
AcDbHatch
 10
0.0
 20
0.0
 30
0.0
210
0.0
220
0.0
230
1.0
  2
SOLID
 70
     1
 71
     1
 91
        1
 92
        5
 93
        8
 72
     1
 10
10.04576565297765
 20
1.484935992939597
 11
9.094079379589459
 21
1.484935992939597
 72
     4
 94
        3
 73
     0
 74
     0
 95
       26
 96
       22
 40
0.0
 40
0.0
 40
0.0
 40
0.0
 40
0.7089867102952115
 40
1.183598414482279
 40
1.525832104103439
 40
1.781366926528389
 40
2.112809002752968
 40
2.354729406992515
 40
2.791581270399936
 40
3.147172406765291
 40
3.389031356825354
 40
3.626186440486682
 40
4.050410779375985
 40
4.350388020238963
 40
4.511948940797758
 40
4.741441456013356
 40
4.907163150576407
 40
5.147239172635527
 40
5.28310143501293
 40
5.578752957634333
 40
5.713750011164293
 40
5.713750011164293
 40
5.713750011164293
 40
5.713750011164293
 10
9.094079379589288
 20
1.484935992939597
 10
9.035564673150702
 20
1.481444905211276
 10
8.93787890167016
 20
1.475616804571245
 10
8.830620518834734
 20
1.410458488868414
 10
8.752036748319653
 20
1.372578307494222
 10
8.695990898491118
 20
1.321083428095107
 10
8.654909063373622
 20
1.267892979305543
 10
8.603117697908373
 20
1.204516949575179
 10
8.560883319311074
 20
1.130718127534805
 10
8.539375917884854
 20
1.049378960065212
 10
8.520324865828627
 20
0.9845511716471264
 10
8.506196286691476
 20
0.9123090616540707
 10
8.509790997198933
 20
0.8342621694163199
 10
8.514938787162179
 20
0.7617762114913376
 10
8.537922417571223
 20
0.710032090169193
 10
8.564096701504638
 20
0.6731938414329762
 10
8.596146753726145
 20
0.6326205945143215
 10
8.631216519627514
 20
0.6057490644614063
 10
8.660222078621131
 20
0.5570694820471545
 10
8.710995331156027
 20
0.5508576162516193
 10
8.74326883040419
 20
0.5384941493246629
 10
8.753385727444822
 20
0.534618526139127
 72
     1
 10
8.753385727444708
 20
0.534618526139127
 11
9.571906671633882
 21
0.534618526139127
 72
     1
 10
9.571906671633882
 20
0.534618526139127
 11
9.748211068413127
 21
0.8881944935249634
 72
     1
 10
9.748211068413183
 20
0.8881944935249066
 11
9.140537442976494
 21
0.8881944935249066
 72
     4
 94
        3
 73
     0
 74
     0
 95
       16
 96
       12
 40
0.0
 40
0.0
 40
0.0
 40
0.0
 40
0.2141121027475241
 40
0.4304326162973471
 40
0.5594580803306056
 40
0.6831669452691567
 40
0.8190286678446897
 40
0.9139043619204622
 40
1.003933161420314
 40
1.186498641432482
 40
1.560280494298353
 40
1.560280494298353
 40
1.560280494298353
 40
1.560280494298353
 10
9.140537442976494
 20
0.8881944935249066
 10
9.122207864957999
 20
0.8935873241378544
 10
9.085359652638771
 20
0.9044286084939585
 10
9.082275754823683
 20
0.9569831722857315
 10
9.086477119434221
 20
0.9944325995126064
 10
9.104072443806728
 20
1.021697969439628
 10
9.125418624138831
 20
1.041537113468336
 10
9.133366753805887
 20
1.067374496594482
 10
9.156729556811967
 20
1.086884953393166
 10
9.198158066476821
 20
1.119679305841884
 10
9.243970826466011
 20
1.126663770171262
 10
9.274750120805492
 20
1.13135628124121
 72
     1
 10
9.274750120805435
 20
1.131356281241266
 11
9.869459389163182
 21
1.131356281241266
 72
     1
 10
9.869459389163182
 20
1.131356281241266
 11
10.04576565297765
 21
1.484935992939597
 97
        8
330
A54
330
A50
330
A47
330
A4D
330
A36
330
A37
330
A35
330
A53
 75
     0
 76
     1
 47
0.0514683685270805
 98
        1
 10
9.258298569667147
 20
1.310929632457884
450
        0
451
        0
460
0.0
461
0.0
452
        0
462
0.0
453
        0
470

  0
LINE
  5
A56
102
{ACAD_REACTORS
330
A34
102
}
330
A0B
100
AcDbEntity
  8
ROGO
 62
     4
100
AcDbLine
 10
10.71113559568613
 20
1.322811193596351
 30
0.0
 11
10.96733337591359
 21
1.484935992939711
 31
0.0
  0
LINE
  5
A57
102
{ACAD_REACTORS
330
A34
102
}
330
A0B
100
AcDbEntity
  8
ROGO
 62
     4
100
AcDbLine
 10
10.79197625678233
 20
1.484935992939711
 30
0.0
 11
10.71113559568613
 21
1.322811193596351
 31
0.0
  0
LINE
  5
A58
102
{ACAD_REACTORS
330
A34
102
}
330
A0B
100
AcDbEntity
  8
ROGO
 62
     4
100
AcDbLine
 10
10.24480163032234
 20
1.484935992939711
 30
0.0
 11
10.79197625678233
 21
1.484935992939711
 31
0.0
  0
LINE
  5
A59
102
{ACAD_REACTORS
330
A34
102
}
330
A0B
100
AcDbEntity
  8
ROGO
 62
     4
100
AcDbLine
 10
10.96733337591359
 20
1.484935992939711
 30
0.0
 11
11.51449603063281
 21
1.484935992939711
 31
0.0
  0
LINE
  5
A5A
102
{ACAD_REACTORS
330
A34
102
}
330
A0B
100
AcDbEntity
  8
ROGO
 62
     4
100
AcDbLine
 10
10.61500819586206
 20
0.7424679668758359
 30
0.0
 11
11.51449603063281
 21
1.484935992939711
 31
0.0
  0
LINE
  5
A5B
102
{ACAD_REACTORS
330
A34
102
}
330
A0B
100
AcDbEntity
  8
ROGO
 62
     4
100
AcDbLine
 10
10.43806407842322
 20
-0.0000000591879825
 30
0.0
 11
10.98522673314249
 21
-0.0000000591879825
 31
0.0
  0
LINE
  5
A5C
102
{ACAD_REACTORS
330
A34
102
}
330
A0B
100
AcDbEntity
  8
ROGO
 62
     4
100
AcDbLine
 10
10.24480163032234
 20
0.3875850396236728
 30
0.0
 11
10.43806407842322
 21
-0.0000000591879825
 31
0.0
  0
LINE
  5
A5D
102
{ACAD_REACTORS
330
A34
102
}
330
A0B
100
AcDbEntity
  8
ROGO
 62
     4
100
AcDbLine
 10
10.61500819586206
 20
0.7424679668758359
 30
0.0
 11
10.98522673314249
 21
-0.0000000591879825
 31
0.0
  0
ENDBLK
  5
A5F
330
A0B
100
AcDbEntity
  8
0
100
AcDbBlockEnd
  0
BLOCK
  5
B15
330
B14
100
AcDbEntity
  8
0
100
AcDbBlockBegin
  2
*D5
 70
     1
 10
0.0
 20
0.0
 30
0.0
  3
*D5
  1

  0
LINE
  5
B16
330
B14
100
AcDbEntity
  8
0
  6
ByBlock
 62
     2
100
AcDbLine
 10
202.8548250259119
 20
154.0271743898035
 30
0.0
 11
202.8548250259119
 21
166.0236309229721
 31
0.0
  0
LINE
  5
B17
330
B14
100
AcDbEntity
  8
0
  6
ByBlock
 62
     2
100
AcDbLine
 10
207.854825025912
 20
154.0271743898035
 30
0.0
 11
207.854825025912
 21
166.0236309229721
 31
0.0
  0
LINE
  5
B18
330
B14
100
AcDbEntity
  8
0
  6
ByBlock
 62
     2
100
AcDbLine
 10
200.3548250259119
 20
164.7736309229721
 30
0.0
 11
197.8548250259119
 21
164.7736309229721
 31
0.0
  0
LINE
  5
B19
330
B14
100
AcDbEntity
  8
0
  6
ByBlock
 62
     2
100
AcDbLine
 10
210.354825025912
 20
164.7736309229721
 30
0.0
 11
212.8548250259119
 21
164.7736309229721
 31
0.0
  0
LINE
  5
B1A
330
B14
100
AcDbEntity
  8
0
  6
ByBlock
 62
     2
100
AcDbLine
 10
202.8548250259119
 20
164.7736309229721
 30
0.0
 11
207.854825025912
 21
164.7736309229721
 31
0.0
  0
INSERT
  5
B1B
330
B14
100
AcDbEntity
  8
0
  6
ByBlock
 62
     2
100
AcDbBlockReference
  2
_OPEN
 10
202.8548250259119
 20
164.7736309229721
 30
0.0
 41
2.5
 42
2.5
 43
2.5
  0
INSERT
  5
B1C
330
B14
100
AcDbEntity
  8
0
  6
ByBlock
 62
     2
100
AcDbBlockReference
  2
_OPEN
 10
207.854825025912
 20
164.7736309229721
 30
0.0
 41
2.5
 42
2.5
 43
2.5
 50
180.0
  0
MTEXT
  5
B1D
330
B14
100
AcDbEntity
  8
0
  6
ByBlock
 62
     6
100
AcDbMText
 10
205.354825025912
 20
166.6486309229721
 30
0.0
 40
2.5
 41
0.0
 71
     5
 72
     1
  1
\A1;5
  7
STYLE3
 73
     1
 44
1.0
  0
POINT
  5
B1E
330
B14
100
AcDbEntity
  8
DEFPOINTS
  6
ByBlock
 62
     0
100
AcDbPoint
 10
202.8548250259119
 20
154.0271743898035
 30
0.0
  0
POINT
  5
B1F
330
B14
100
AcDbEntity
  8
DEFPOINTS
  6
ByBlock
 62
     0
100
AcDbPoint
 10
207.854825025912
 20
154.0271743898035
 30
0.0
  0
POINT
  5
B20
330
B14
100
AcDbEntity
  8
DEFPOINTS
  6
ByBlock
 62
     0
100
AcDbPoint
 10
207.854825025912
 20
164.7736309229721
 30
0.0
  0
ENDBLK
  5
B21
330
B14
100
AcDbEntity
  8
0
100
AcDbBlockEnd
  0
BLOCK
  5
B24
330
B23
100
AcDbEntity
  8
0
100
AcDbBlockBegin
  2
*D6
 70
     1
 10
0.0
 20
0.0
 30
0.0
  3
*D6
  1

  0
LINE
  5
B25
330
B23
100
AcDbEntity
  8
0
  6
ByBlock
 62
     2
100
AcDbLine
 10
117.462243222573
 20
147.0271743898035
 30
0.0
 11
108.1016138226368
 21
147.0271743898035
 31
0.0
  0
LINE
  5
B26
330
B23
100
AcDbEntity
  8
0
  6
ByBlock
 62
     2
100
AcDbLine
 10
109.3516138226368
 20
154.5271743898035
 30
0.0
 11
108.1016138226368
 21
154.5271743898035
 31
0.0
  0
LINE
  5
B27
330
B23
100
AcDbEntity
  8
0
  6
ByBlock
 62
     2
100
AcDbLine
 10
109.3516138226368
 20
149.5271743898035
 30
0.0
 11
109.3516138226368
 21
152.0271743898035
 31
0.0
  0
INSERT
  5
B28
330
B23
100
AcDbEntity
  8
0
  6
ByBlock
 62
     2
100
AcDbBlockReference
  2
_OPEN
 10
109.3516138226368
 20
147.0271743898035
 30
0.0
 41
2.5
 42
2.5
 43
2.5
 50
270.0
  0
INSERT
  5
B29
330
B23
100
AcDbEntity
  8
0
  6
ByBlock
 62
     2
100
AcDbBlockReference
  2
_OPEN
 10
109.3516138226368
 20
154.5271743898035
 30
0.0
 41
2.5
 42
2.5
 43
2.5
 50
90.0
  0
MTEXT
  5
B2A
330
B23
100
AcDbEntity
  8
0
  6
ByBlock
 62
     6
100
AcDbMText
 10
107.4766138226368
 20
150.7771743898035
 30
0.0
 40
2.5
 41
0.0
 71
     5
 72
     1
  1
\A1;7.5
  7
STYLE3
 11
0.0000000000000001
 21
1.0
 31
0.0
 73
     1
 44
1.0
  0
POINT
  5
B2B
330
B23
100
AcDbEntity
  8
DEFPOINTS
  6
ByBlock
 62
     0
100
AcDbPoint
 10
117.462243222573
 20
147.0271743898035
 30
0.0
  0
POINT
  5
B2C
330
B23
100
AcDbEntity
  8
DEFPOINTS
  6
ByBlock
 62
     0
100
AcDbPoint
 10
109.3516138226368
 20
154.5271743898035
 30
0.0
  0
POINT
  5
B2D
330
B23
100
AcDbEntity
  8
DEFPOINTS
  6
ByBlock
 62
     0
100
AcDbPoint
 10
109.3516138226368
 20
154.5271743898035
 30
0.0
  0
ENDBLK
  5
B2E
330
B23
100
AcDbEntity
  8
0
100
AcDbBlockEnd
  0
BLOCK
  5
B31
330
B30
100
AcDbEntity
  8
0
100
AcDbBlockBegin
  2
*D7
 70
     1
 10
0.0
 20
0.0
 30
0.0
  3
*D7
  1

  0
LINE
  5
B32
330
B30
100
AcDbEntity
  8
0
  6
ByBlock
 62
     2
100
AcDbLine
 10
119.1119723409423
 20
154.5271743898035
 30
0.0
 11
119.1119723409423
 21
165.8210257484517
 31
0.0
  0
LINE
  5
B33
330
B30
100
AcDbEntity
  8
0
  6
ByBlock
 62
     2
100
AcDbLine
 10
133.1119723409423
 20
155.7235744999863
 30
0.0
 11
133.1119723409423
 21
165.8210257484517
 31
0.0
  0
LINE
  5
B34
330
B30
100
AcDbEntity
  8
0
  6
ByBlock
 62
     2
100
AcDbLine
 10
121.6119723409423
 20
164.5710257484517
 30
0.0
 11
130.6119723409423
 21
164.5710257484517
 31
0.0
  0
INSERT
  5
B35
330
B30
100
AcDbEntity
  8
0
  6
ByBlock
 62
     2
100
AcDbBlockReference
  2
_OPEN
 10
119.1119723409423
 20
164.5710257484517
 30
0.0
 41
2.5
 42
2.5
 43
2.5
 50
180.0
  0
INSERT
  5
B36
330
B30
100
AcDbEntity
  8
0
  6
ByBlock
 62
     2
100
AcDbBlockReference
  2
_OPEN
 10
133.1119723409423
 20
164.5710257484517
 30
0.0
 41
2.5
 42
2.5
 43
2.5
  0
MTEXT
  5
B37
330
B30
100
AcDbEntity
  8
0
  6
ByBlock
 62
     6
100
AcDbMText
 10
126.1119723409423
 20
166.4460257484517
 30
0.0
 40
2.5
 41
0.0
 71
     5
 72
     1
  1
\A1;14
  7
STYLE3
 73
     1
 44
1.0
  0
POINT
  5
B38
330
B30
100
AcDbEntity
  8
DEFPOINTS
  6
ByBlock
 62
     0
100
AcDbPoint
 10
119.1119723409423
 20
154.5271743898035
 30
0.0
  0
POINT
  5
B39
330
B30
100
AcDbEntity
  8
DEFPOINTS
  6
ByBlock
 62
     0
100
AcDbPoint
 10
133.1119723409423
 20
155.7235744999863
 30
0.0
  0
POINT
  5
B3A
330
B30
100
AcDbEntity
  8
DEFPOINTS
  6
ByBlock
 62
     0
100
AcDbPoint
 10
133.1119723409423
 20
164.5710257484517
 30
0.0
  0
ENDBLK
  5
B3B
330
B30
100
AcDbEntity
  8
0
100
AcDbBlockEnd
  0
BLOCK
  5
B4A
330
B49
100
AcDbEntity
  8
0
100
AcDbBlockBegin
  2
*D9
 70
     1
 10
0.0
 20
0.0
 30
0.0
  3
*D9
  1

  0
LINE
  5
B4B
330
B49
100
AcDbEntity
  8
0
  6
ByBlock
 62
     2
100
AcDbLine
 10
215.854825025912
 20
154.5271743898035
 30
0.0
 11
225.8506271915576
 21
154.5271743898035
 31
0.0
  0
LINE
  5
B4C
330
B49
100
AcDbEntity
  8
0
  6
ByBlock
 62
     2
100
AcDbLine
 10
215.854825025912
 20
122.5271743898035
 30
0.0
 11
225.8506271915576
 21
122.5271743898035
 31
0.0
  0
LINE
  5
B4D
330
B49
100
AcDbEntity
  8
0
  6
ByBlock
 62
     2
100
AcDbLine
 10
224.6006271915576
 20
152.0271743898035
 30
0.0
 11
224.6006271915576
 21
125.0271743898035
 31
0.0
  0
INSERT
  5
B4E
330
B49
100
AcDbEntity
  8
0
  6
ByBlock
 62
     2
100
AcDbBlockReference
  2
_OPEN
 10
224.6006271915576
 20
154.5271743898035
 30
0.0
 41
2.5
 42
2.5
 43
2.5
 50
90.0
  0
INSERT
  5
B4F
330
B49
100
AcDbEntity
  8
0
  6
ByBlock
 62
     2
100
AcDbBlockReference
  2
_OPEN
 10
224.6006271915576
 20
122.5271743898035
 30
0.0
 41
2.5
 42
2.5
 43
2.5
 50
270.0
  0
MTEXT
  5
B50
330
B49
100
AcDbEntity
  8
0
  6
ByBlock
 62
     6
100
AcDbMText
 10
222.7256271915576
 20
138.5271743898035
 30
0.0
 40
2.5
 41
0.0
 71
     5
 72
     1
  1
\A1;32
  7
STYLE3
 11
0.0000000000000001
 21
1.0
 31
0.0
 73
     1
 44
1.0
  0
POINT
  5
B51
330
B49
100
AcDbEntity
  8
DEFPOINTS
  6
ByBlock
 62
     0
100
AcDbPoint
 10
215.854825025912
 20
154.5271743898035
 30
0.0
  0
POINT
  5
B52
330
B49
100
AcDbEntity
  8
DEFPOINTS
  6
ByBlock
 62
     0
100
AcDbPoint
 10
215.854825025912
 20
122.5271743898035
 30
0.0
  0
POINT
  5
B53
330
B49
100
AcDbEntity
  8
DEFPOINTS
  6
ByBlock
 62
     0
100
AcDbPoint
 10
224.6006271915576
 20
122.5271743898035
 30
0.0
  0
ENDBLK
  5
B54
330
B49
100
AcDbEntity
  8
0
100
AcDbBlockEnd
  0
BLOCK
  5
B57
330
B56
100
AcDbEntity
  8
0
100
AcDbBlockBegin
  2
*D10
 70
     1
 10
0.0
 20
0.0
 30
0.0
  3
*D10
  1

  0
LINE
  5
B58
330
B56
100
AcDbEntity
  8
0
  6
ByBlock
 62
     2
100
AcDbLine
 10
208.354825025912
 20
120.8771743898035
 30
0.0
 11
225.8506271915576
 21
120.8771743898035
 31
0.0
  0
LINE
  5
B59
330
B56
100
AcDbEntity
  8
0
  6
ByBlock
 62
     2
100
AcDbLine
 10
224.6006271915576
 20
125.0271743898035
 30
0.0
 11
224.6006271915576
 21
127.5271743898035
 31
0.0
  0
LINE
  5
B5A
330
B56
100
AcDbEntity
  8
0
  6
ByBlock
 62
     2
100
AcDbLine
 10
224.6006271915576
 20
118.3771743898035
 30
0.0
 11
224.6006271915576
 21
115.8771743898035
 31
0.0
  0
LINE
  5
B5B
330
B56
100
AcDbEntity
  8
0
  6
ByBlock
 62
     2
100
AcDbLine
 10
224.6006271915576
 20
121.7021743898035
 30
0.0
 11
228.0381271915576
 21
122.7334243898035
 31
0.0
  0
LINE
  5
B5C
330
B56
100
AcDbEntity
  8
0
  6
ByBlock
 62
     2
100
AcDbLine
 10
228.0381271915576
 20
122.7334243898035
 30
0.0
 11
228.0381271915576
 21
131.2453291517082
 31
0.0
  0
MTEXT
  5
B5D
330
B56
100
AcDbEntity
  8
0
  6
ByBlock
 62
     6
100
AcDbMText
 10
229.9131271915576
 20
123.3584243898035
 30
0.0
 40
2.5
 41
0.0
 71
     4
 72
     1
  1
\A1;1.65
  7
STYLE3
 11
0.0000000000000001
 21
1.0
 31
0.0
 73
     1
 44
1.0
  0
LINE
  5
B5E
330
B56
100
AcDbEntity
  8
0
  6
ByBlock
 62
     2
100
AcDbLine
 10
224.6006271915576
 20
122.5271743898035
 30
0.0
 11
224.6006271915576
 21
120.8771743898035
 31
0.0
  0
LINE
  5
B5F
330
B56
100
AcDbEntity
  8
0
  6
ByBlock
 62
     2
100
AcDbLine
 10
224.6006271915576
 20
122.5271743898035
 30
0.0
 11
224.6006271915576
 21
120.8771743898035
 31
0.0
  0
INSERT
  5
B60
330
B56
100
AcDbEntity
  8
0
  6
ByBlock
 62
     2
100
AcDbBlockReference
  2
_OPEN
 10
224.6006271915576
 20
122.5271743898035
 30
0.0
 41
2.5
 42
2.5
 43
2.5
 50
270.0
  0
INSERT
  5
B61
330
B56
100
AcDbEntity
  8
0
  6
ByBlock
 62
     2
100
AcDbBlockReference
  2
_OPEN
 10
224.6006271915576
 20
120.8771743898035
 30
0.0
 41
2.5
 42
2.5
 43
2.5
 50
90.0
  0
POINT
  5
B62
330
B56
100
AcDbEntity
  8
DEFPOINTS
  6
ByBlock
 62
     0
100
AcDbPoint
 10
215.854825025912
 20
122.5271743898035
 30
0.0
  0
POINT
  5
B63
330
B56
100
AcDbEntity
  8
DEFPOINTS
  6
ByBlock
 62
     0
100
AcDbPoint
 10
208.354825025912
 20
120.8771743898035
 30
0.0
  0
POINT
  5
B64
330
B56
100
AcDbEntity
  8
DEFPOINTS
  6
ByBlock
 62
     0
100
AcDbPoint
 10
224.6006271915576
 20
120.8771743898035
 30
0.0
  0
ENDBLK
  5
B65
330
B56
100
AcDbEntity
  8
0
100
AcDbBlockEnd
  0
BLOCK
  5
B68
330
B67
100
AcDbEntity
  8
0
100
AcDbBlockBegin
  2
*D11
 70
     1
 10
0.0
 20
0.0
 30
0.0
  3
*D11
  1

  0
LINE
  5
B69
330
B67
100
AcDbEntity
  8
0
  6
ByBlock
 62
     2
100
AcDbLine
 10
225.8506271915576
 20
154.5271743898035
 30
0.0
 11
236.9052400178883
 21
154.5271743898035
 31
0.0
  0
LINE
  5
B6A
330
B67
100
AcDbEntity
  8
0
  6
ByBlock
 62
     2
100
AcDbLine
 10
225.8506271915576
 20
120.8771743898035
 30
0.0
 11
236.9052400178883
 21
120.8771743898035
 31
0.0
  0
LINE
  5
B6B
330
B67
100
AcDbEntity
  8
0
  6
ByBlock
 62
     2
100
AcDbLine
 10
235.6552400178884
 20
152.0271743898035
 30
0.0
 11
235.6552400178884
 21
123.3771743898035
 31
0.0
  0
INSERT
  5
B6C
330
B67
100
AcDbEntity
  8
0
  6
ByBlock
 62
     2
100
AcDbBlockReference
  2
_OPEN
 10
235.6552400178884
 20
154.5271743898035
 30
0.0
 41
2.5
 42
2.5
 43
2.5
 50
90.0
  0
INSERT
  5
B6D
330
B67
100
AcDbEntity
  8
0
  6
ByBlock
 62
     2
100
AcDbBlockReference
  2
_OPEN
 10
235.6552400178884
 20
120.8771743898035
 30
0.0
 41
2.5
 42
2.5
 43
2.5
 50
270.0
  0
MTEXT
  5
B6E
330
B67
100
AcDbEntity
  8
0
  6
ByBlock
 62
     6
100
AcDbMText
 10
233.7802400178883
 20
137.7021743898034
 30
0.0
 40
2.5
 41
0.0
 71
     5
 72
     1
  1
\A1;33.65
  7
STYLE3
 11
0.0000000000000001
 21
1.0
 31
0.0
 73
     1
 44
1.0
  0
POINT
  5
B6F
330
B67
100
AcDbEntity
  8
DEFPOINTS
  6
ByBlock
 62
     0
100
AcDbPoint
 10
225.8506271915576
 20
154.5271743898035
 30
0.0
  0
POINT
  5
B70
330
B67
100
AcDbEntity
  8
DEFPOINTS
  6
ByBlock
 62
     0
100
AcDbPoint
 10
225.8506271915576
 20
120.8771743898035
 30
0.0
  0
POINT
  5
B71
330
B67
100
AcDbEntity
  8
DEFPOINTS
  6
ByBlock
 62
     0
100
AcDbPoint
 10
235.6552400178884
 20
120.8771743898035
 30
0.0
  0
ENDBLK
  5
B72
330
B67
100
AcDbEntity
  8
0
100
AcDbBlockEnd
  0
BLOCK
  5
B8F
330
B8E
100
AcDbEntity
  8
0
100
AcDbBlockBegin
  2
*D12
 70
     1
 10
0.0
 20
0.0
 30
0.0
  3
*D12
  1

  0
LINE
  5
B90
330
B8E
100
AcDbEntity
  8
0
  6
ByBlock
 62
     2
100
AcDbLine
 10
202.3548250259119
 20
120.8771743898035
 30
0.0
 11
193.6163716670814
 21
105.7417291927381
 31
0.0
  0
LINE
  5
B91
330
B8E
100
AcDbEntity
  8
0
  6
ByBlock
 62
     2
100
AcDbLine
 10
208.354825025912
 20
120.8771743898035
 30
0.0
 11
217.0932783847423
 21
105.741729192738
 31
0.0
  0
ARC
  5
B92
330
B8E
100
AcDbEntity
  8
0
  6
ByBlock
 62
     2
100
AcDbCircle
 10
205.354825025912
 20
126.0733268125101
 30
0.0
 40
22.22690671766109
100
AcDbArc
 50
246.447818531737
 51
293.5521814682624
  0
INSERT
  5
B93
330
B8E
100
AcDbEntity
  8
0
  6
ByBlock
 62
     2
100
AcDbBlockReference
  2
_OPEN
 10
194.2413716670814
 20
106.8242609474687
 30
0.0
 41
2.5
 42
2.5
 43
2.5
 50
153.2239092658685
  0
INSERT
  5
B94
330
B8E
100
AcDbEntity
  8
0
  6
ByBlock
 62
     2
100
AcDbBlockReference
  2
_OPEN
 10
216.4682783847424
 20
106.8242609474685
 30
0.0
 41
2.5
 42
2.5
 43
2.5
 50
26.77609073413104
  0
MTEXT
  5
B95
330
B8E
100
AcDbEntity
  8
0
  6
ByBlock
 62
     6
100
AcDbMText
 10
205.3548250259119
 20
105.721420094849
 30
0.0
 40
2.5
 41
0.0
 71
     5
 72
     1
  1
\A1;60°
  7
STYLE3
 73
     1
 44
1.0
  0
POINT
  5
B96
330
B8E
100
AcDbEntity
  8
DEFPOINTS
  6
ByBlock
 62
     0
100
AcDbPoint
 10
201.4951631792172
 20
104.1840967514784
 30
0.0
  0
POINT
  5
B97
330
B8E
100
AcDbEntity
  8
DEFPOINTS
  6
ByBlock
 62
     0
100
AcDbPoint
 10
207.4021970817491
 20
122.5271743898035
 30
0.0
  0
POINT
  5
B98
330
B8E
100
AcDbEntity
  8
DEFPOINTS
  6
ByBlock
 62
     0
100
AcDbPoint
 10
203.3074529700748
 20
122.5271743898034
 30
0.0
  0
POINT
  5
B99
330
B8E
100
AcDbEntity
  8
DEFPOINTS
  6
ByBlock
 62
     0
100
AcDbPoint
 10
202.3548250259119
 20
120.8771743898035
 30
0.0
  0
POINT
  5
B9A
330
B8E
100
AcDbEntity
  8
DEFPOINTS
  6
ByBlock
 62
     0
100
AcDbPoint
 10
208.354825025912
 20
120.8771743898035
 30
0.0
  0
ENDBLK
  5
B9B
330
B8E
100
AcDbEntity
  8
0
100
AcDbBlockEnd
  0
BLOCK
  5
BA7
330
BA6
100
AcDbEntity
  8
0
100
AcDbBlockBegin
  2
*D13
 70
     1
 10
0.0
 20
0.0
 30
0.0
  3
*D13
  1

  0
LINE
  5
BA8
330
BA6
100
AcDbEntity
  8
0
  6
ByBlock
 62
     2
100
AcDbLine
 10
194.8548250259119
 20
154.5271743898035
 30
0.0
 11
194.8548250259119
 21
171.8115541178032
 31
0.0
  0
LINE
  5
BA9
330
BA6
100
AcDbEntity
  8
0
  6
ByBlock
 62
     2
100
AcDbLine
 10
215.8548250259119
 20
154.5271743898035
 30
0.0
 11
215.8548250259119
 21
171.8115541178032
 31
0.0
  0
LINE
  5
BAA
330
BA6
100
AcDbEntity
  8
0
  6
ByBlock
 62
     2
100
AcDbLine
 10
197.3548250259119
 20
170.5615541178032
 30
0.0
 11
213.3548250259119
 21
170.5615541178032
 31
0.0
  0
INSERT
  5
BAB
330
BA6
100
AcDbEntity
  8
0
  6
ByBlock
 62
     2
100
AcDbBlockReference
  2
_OPEN
 10
194.8548250259119
 20
170.5615541178032
 30
0.0
 41
2.5
 42
2.5
 43
2.5
 50
180.0
  0
INSERT
  5
BAC
330
BA6
100
AcDbEntity
  8
0
  6
ByBlock
 62
     2
100
AcDbBlockReference
  2
_OPEN
 10
215.8548250259119
 20
170.5615541178032
 30
0.0
 41
2.5
 42
2.5
 43
2.5
  0
MTEXT
  5
BAD
330
BA6
100
AcDbEntity
  8
0
  6
ByBlock
 62
     6
100
AcDbMText
 10
205.3548250259119
 20
172.4365541178032
 30
0.0
 40
2.5
 41
0.0
 71
     5
 72
     1
  1
\A1;21
  7
STYLE3
 73
     1
 44
1.0
  0
POINT
  5
BAE
330
BA6
100
AcDbEntity
  8
DEFPOINTS
  6
ByBlock
 62
     0
100
AcDbPoint
 10
194.8548250259119
 20
154.5271743898035
 30
0.0
  0
POINT
  5
BAF
330
BA6
100
AcDbEntity
  8
DEFPOINTS
  6
ByBlock
 62
     0
100
AcDbPoint
 10
215.8548250259119
 20
154.5271743898035
 30
0.0
  0
POINT
  5
BB0
330
BA6
100
AcDbEntity
  8
DEFPOINTS
  6
ByBlock
 62
     0
100
AcDbPoint
 10
215.8548250259119
 20
170.5615541178032
 30
0.0
  0
ENDBLK
  5
BB1
330
BA6
100
AcDbEntity
  8
0
100
AcDbBlockEnd
  0
BLOCK
  5
BB4
330
BB3
100
AcDbEntity
  8
0
100
AcDbBlockBegin
  2
*D14
 70
     1
 10
0.0
 20
0.0
 30
0.0
  3
*D14
  1

  0
LINE
  5
BB5
330
BB3
100
AcDbEntity
  8
0
  6
ByBlock
 62
     2
100
AcDbLine
 10
69.61197234094232
 20
49.44355253029658
 30
0.0
 11
30.74268724095157
 21
49.44355253029659
 31
0.0
  0
LINE
  5
BB6
330
BB3
100
AcDbEntity
  8
0
  6
ByBlock
 62
     2
100
AcDbLine
 10
37.20548190792874
 20
59.94355253029659
 30
0.0
 11
30.74268724095157
 21
59.94355253029659
 31
0.0
  0
LINE
  5
BB7
330
BB3
100
AcDbEntity
  8
0
  6
ByBlock
 62
     2
100
AcDbLine
 10
31.99268724095157
 20
51.94355253029659
 30
0.0
 11
31.99268724095157
 21
57.44355253029659
 31
0.0
  0
INSERT
  5
BB8
330
BB3
100
AcDbEntity
  8
0
  6
ByBlock
 62
     2
100
AcDbBlockReference
  2
_OPEN
 10
31.99268724095157
 20
49.44355253029659
 30
0.0
 41
2.5
 42
2.5
 43
2.5
 50
270.0
  0
INSERT
  5
BB9
330
BB3
100
AcDbEntity
  8
0
  6
ByBlock
 62
     2
100
AcDbBlockReference
  2
_OPEN
 10
31.99268724095157
 20
59.94355253029659
 30
0.0
 41
2.5
 42
2.5
 43
2.5
 50
90.0
  0
MTEXT
  5
BBA
330
BB3
100
AcDbEntity
  8
0
  6
ByBlock
 62
     6
100
AcDbMText
 10
30.11768724095157
 20
54.69355253029658
 30
0.0
 40
2.5
 41
0.0
 71
     5
 72
     1
  1
\A1;10.5
  7
STYLE3
 11
0.0000000000000001
 21
1.0
 31
0.0
 73
     1
 44
1.0
  0
POINT
  5
BBB
330
BB3
100
AcDbEntity
  8
DEFPOINTS
  6
ByBlock
 62
     0
100
AcDbPoint
 10
69.61197234094232
 20
49.44355253029658
 30
0.0
  0
POINT
  5
BBC
330
BB3
100
AcDbEntity
  8
DEFPOINTS
  6
ByBlock
 62
     0
100
AcDbPoint
 10
37.20548190792874
 20
59.94355253029659
 30
0.0
  0
POINT
  5
BBD
330
BB3
100
AcDbEntity
  8
DEFPOINTS
  6
ByBlock
 62
     0
100
AcDbPoint
 10
31.99268724095157
 20
59.94355253029659
 30
0.0
  0
ENDBLK
  5
BBE
330
BB3
100
AcDbEntity
  8
0
100
AcDbBlockEnd
  0
BLOCK
  5
CB5
330
BC0
100
AcDbEntity
  8
0
100
AcDbBlockBegin
  2
*D15
 70
     1
 10
0.0
 20
0.0
 30
0.0
  3
*D15
  1

  0
LINE
  5
CB6
330
BC0
100
AcDbEntity
  8
0
  6
ByBlock
 62
     2
100
AcDbLine
 10
119.1119723409423
 20
49.44355253029657
 30
0.0
 11
119.1119723409423
 21
41.55231163027525
 31
0.0
  0
LINE
  5
CB7
330
BC0
100
AcDbEntity
  8
0
  6
ByBlock
 62
     2
100
AcDbLine
 10
79.31197234094234
 20
56.94355253029658
 30
0.0
 11
79.31197234094234
 21
41.55231163027525
 31
0.0
  0
LINE
  5
CB8
330
BC0
100
AcDbEntity
  8
0
  6
ByBlock
 62
     2
100
AcDbLine
 10
116.6119723409423
 20
42.80231163027525
 30
0.0
 11
81.81197234094234
 21
42.80231163027525
 31
0.0
  0
INSERT
  5
CB9
330
BC0
100
AcDbEntity
  8
0
  6
ByBlock
 62
     2
100
AcDbBlockReference
  2
_OPEN
 10
119.1119723409423
 20
42.80231163027525
 30
0.0
 41
2.5
 42
2.5
 43
2.5
  0
INSERT
  5
CBA
330
BC0
100
AcDbEntity
  8
0
  6
ByBlock
 62
     2
100
AcDbBlockReference
  2
_OPEN
 10
79.31197234094234
 20
42.80231163027525
 30
0.0
 41
2.5
 42
2.5
 43
2.5
 50
180.0
  0
MTEXT
  5
CBB
330
BC0
100
AcDbEntity
  8
0
  6
ByBlock
 62
     6
100
AcDbMText
 10
99.21197234094234
 20
44.67731163027525
 30
0.0
 40
2.5
 41
0.0
 71
     5
 72
     1
  1
\A1;39.8
  7
STYLE3
 73
     1
 44
1.0
  0
POINT
  5
CBC
330
BC0
100
AcDbEntity
  8
DEFPOINTS
  6
ByBlock
 62
     0
100
AcDbPoint
 10
119.1119723409423
 20
49.44355253029657
 30
0.0
  0
POINT
  5
CBD
330
BC0
100
AcDbEntity
  8
DEFPOINTS
  6
ByBlock
 62
     0
100
AcDbPoint
 10
79.31197234094234
 20
56.94355253029658
 30
0.0
  0
POINT
  5
CBE
330
BC0
100
AcDbEntity
  8
DEFPOINTS
  6
ByBlock
 62
     0
100
AcDbPoint
 10
79.31197234094234
 20
42.80231163027525
 30
0.0
  0
ENDBLK
  5
CBF
330
BC0
100
AcDbEntity
  8
0
100
AcDbBlockEnd
  0
BLOCK
  5
C10
330
C0F
100
AcDbEntity
  8
0
100
AcDbBlockBegin
  2
*D18
 70
     1
 10
0.0
 20
0.0
 30
0.0
  3
*D18
  1

  0
LINE
  5
C11
330
C0F
100
AcDbEntity
  8
0
  6
ByBlock
 62
     2
100
AcDbLine
 10
49.69840643711416
 20
161.3247682276508
 30
0.0
 11
42.5424599686235
 21
171.5445189129791
 31
0.0
  0
LINE
  5
C12
330
C0F
100
AcDbEntity
  8
0
  6
ByBlock
 62
     2
100
AcDbLine
 10
32.66048720347715
 20
136.0271743898035
 30
0.0
 11
24.05330068676373
 21
136.0271743898036
 31
0.0
  0
ARC
  5
C13
330
C0F
100
AcDbEntity
  8
0
  6
ByBlock
 62
     2
100
AcDbCircle
 10
67.41197234094228
 20
136.0271743898035
 30
0.0
 40
42.10867165417856
100
AcDbArc
 50
128.4021613297384
 51
176.5978386702614
  0
INSERT
  5
C14
330
C0F
100
AcDbEntity
  8
0
  6
ByBlock
 62
     2
100
AcDbBlockReference
  2
_OPEN
 10
43.25943051406232
 20
170.5205788576178
 30
0.0
 41
2.5
 42
2.5
 43
2.5
 50
36.70108066486913
  0
INSERT
  5
C15
330
C0F
100
AcDbEntity
  8
0
  6
ByBlock
 62
     2
100
AcDbBlockReference
  2
_OPEN
 10
25.30330068676372
 20
136.0271743898036
 30
0.0
 41
2.5
 42
2.5
 43
2.5
 50
268.2989193351306
  0
MTEXT
  5
C16
330
C0F
100
AcDbEntity
  8
0
  6
ByBlock
 62
     6
100
AcDbMText
 10
28.39797910073206
 20
156.3365737811056
 30
0.0
 40
2.5
 41
0.0
 71
     5
 72
     1
  1
\A1;55°
  7
STYLE3
 11
0.4617486132350337
 21
0.8870108331782217
 31
0.0
 73
     1
 44
1.0
  0
POINT
  5
C17
330
C0F
100
AcDbEntity
  8
DEFPOINTS
  6
ByBlock
 62
     0
100
AcDbPoint
 10
33.63563019101883
 20
161.1727294532878
 30
0.0
  0
POINT
  5
C18
330
C0F
100
AcDbEntity
  8
DEFPOINTS
  6
ByBlock
 62
     0
100
AcDbPoint
 10
67.41197234094231
 20
136.0271743898035
 30
0.0
  0
POINT
  5
C19
330
C0F
100
AcDbEntity
  8
DEFPOINTS
  6
ByBlock
 62
     0
100
AcDbPoint
 10
37.95726913072997
 20
136.0271743898035
 30
0.0
  0
POINT
  5
C1A
330
C0F
100
AcDbEntity
  8
DEFPOINTS
  6
ByBlock
 62
     0
100
AcDbPoint
 10
32.66048720347715
 20
136.0271743898035
 30
0.0
  0
POINT
  5
C1B
330
C0F
100
AcDbEntity
  8
DEFPOINTS
  6
ByBlock
 62
     0
100
AcDbPoint
 10
49.69840643711416
 20
161.3247682276508
 30
0.0
  0
ENDBLK
  5
C1C
330
C0F
100
AcDbEntity
  8
0
100
AcDbBlockEnd
  0
BLOCK
  5
C3B
330
C3A
100
AcDbEntity
  8
0
100
AcDbBlockBegin
  2
*D20
 70
     1
 10
0.0
 20
0.0
 30
0.0
  3
*D20
  1

  0
LINE
  5
C3C
330
C3A
100
AcDbEntity
  8
0
  6
ByBlock
 62
     2
100
AcDbLine
 10
40.61197234094231
 20
130.7073396462717
 30
0.0
 11
40.61197234094231
 21
105.5986007538587
 31
0.0
  0
LINE
  5
C3D
330
C3A
100
AcDbEntity
  8
0
  6
ByBlock
 62
     2
100
AcDbLine
 10
65.61197234094231
 20
129.9271743898035
 30
0.0
 11
65.61197234094231
 21
105.5986007538587
 31
0.0
  0
LINE
  5
C3E
330
C3A
100
AcDbEntity
  8
0
  6
ByBlock
 62
     2
100
AcDbLine
 10
43.11197234094231
 20
106.8486007538587
 30
0.0
 11
63.11197234094231
 21
106.8486007538587
 31
0.0
  0
INSERT
  5
C3F
330
C3A
100
AcDbEntity
  8
0
  6
ByBlock
 62
     2
100
AcDbBlockReference
  2
_OPEN
 10
40.61197234094231
 20
106.8486007538587
 30
0.0
 41
2.5
 42
2.5
 43
2.5
 50
180.0
  0
INSERT
  5
C40
330
C3A
100
AcDbEntity
  8
0
  6
ByBlock
 62
     2
100
AcDbBlockReference
  2
_OPEN
 10
65.61197234094231
 20
106.8486007538587
 30
0.0
 41
2.5
 42
2.5
 43
2.5
  0
MTEXT
  5
C41
330
C3A
100
AcDbEntity
  8
0
  6
ByBlock
 62
     6
100
AcDbMText
 10
53.11197234094231
 20
108.7236007538587
 30
0.0
 40
2.5
 41
0.0
 71
     5
 72
     1
  1
\A1;25
  7
STYLE3
 73
     1
 44
1.0
  0
POINT
  5
C42
330
C3A
100
AcDbEntity
  8
DEFPOINTS
  6
ByBlock
 62
     0
100
AcDbPoint
 10
40.61197234094231
 20
130.7073396462717
 30
0.0
  0
POINT
  5
C43
330
C3A
100
AcDbEntity
  8
DEFPOINTS
  6
ByBlock
 62
     0
100
AcDbPoint
 10
65.61197234094231
 20
129.9271743898035
 30
0.0
  0
POINT
  5
C44
330
C3A
100
AcDbEntity
  8
DEFPOINTS
  6
ByBlock
 62
     0
100
AcDbPoint
 10
65.61197234094231
 20
106.8486007538587
 30
0.0
  0
ENDBLK
  5
C45
330
C3A
100
AcDbEntity
  8
0
100
AcDbBlockEnd
  0
BLOCK
  5
C48
330
C47
100
AcDbEntity
  8
0
100
AcDbBlockBegin
  2
*D21
 70
     1
 10
0.0
 20
0.0
 30
0.0
  3
*D21
  1

  0
LINE
  5
C49
330
C47
100
AcDbEntity
  8
0
  6
ByBlock
 62
     2
100
AcDbLine
 10
71.11197234094231
 20
122.5271743898035
 30
0.0
 11
71.11197234094231
 21
105.5986007538587
 31
0.0
  0
LINE
  5
C4A
330
C47
100
AcDbEntity
  8
0
  6
ByBlock
 62
     2
100
AcDbLine
 10
63.11197234094231
 20
106.8486007538587
 30
0.0
 11
60.61197234094231
 21
106.8486007538587
 31
0.0
  0
LINE
  5
C4B
330
C47
100
AcDbEntity
  8
0
  6
ByBlock
 62
     2
100
AcDbLine
 10
73.61197234094231
 20
106.8486007538587
 30
0.0
 11
76.11197234094231
 21
106.8486007538587
 31
0.0
  0
LINE
  5
C4C
330
C47
100
AcDbEntity
  8
0
  6
ByBlock
 62
     2
100
AcDbLine
 10
68.36197234094232
 20
106.8486007538587
 30
0.0
 11
69.39322234094231
 21
103.4111007538587
 31
0.0
  0
LINE
  5
C4D
330
C47
100
AcDbEntity
  8
0
  6
ByBlock
 62
     2
100
AcDbLine
 10
69.39322234094231
 20
103.4111007538587
 30
0.0
 11
75.88131757903756
 21
103.4111007538587
 31
0.0
  0
MTEXT
  5
C4E
330
C47
100
AcDbEntity
  8
0
  6
ByBlock
 62
     6
100
AcDbMText
 10
70.01822234094231
 20
101.5361007538587
 30
0.0
 40
2.5
 41
0.0
 71
     4
 72
     1
  1
\A1;5.5
  7
STYLE3
 73
     1
 44
1.0
  0
LINE
  5
C4F
330
C47
100
AcDbEntity
  8
0
  6
ByBlock
 62
     2
100
AcDbLine
 10
65.61197234094231
 20
106.8486007538587
 30
0.0
 11
71.11197234094231
 21
106.8486007538587
 31
0.0
  0
LINE
  5
C50
330
C47
100
AcDbEntity
  8
0
  6
ByBlock
 62
     2
100
AcDbLine
 10
65.61197234094231
 20
106.8486007538587
 30
0.0
 11
71.11197234094231
 21
106.8486007538587
 31
0.0
  0
INSERT
  5
C51
330
C47
100
AcDbEntity
  8
0
  6
ByBlock
 62
     2
100
AcDbBlockReference
  2
_OPEN
 10
65.61197234094231
 20
106.8486007538587
 30
0.0
 41
2.5
 42
2.5
 43
2.5
  0
INSERT
  5
C52
330
C47
100
AcDbEntity
  8
0
  6
ByBlock
 62
     2
100
AcDbBlockReference
  2
_OPEN
 10
71.11197234094231
 20
106.8486007538587
 30
0.0
 41
2.5
 42
2.5
 43
2.5
 50
180.0
  0
POINT
  5
C53
330
C47
100
AcDbEntity
  8
DEFPOINTS
  6
ByBlock
 62
     0
100
AcDbPoint
 10
65.61197234094231
 20
129.9271743898035
 30
0.0
  0
POINT
  5
C54
330
C47
100
AcDbEntity
  8
DEFPOINTS
  6
ByBlock
 62
     0
100
AcDbPoint
 10
71.11197234094231
 20
122.5271743898035
 30
0.0
  0
POINT
  5
C55
330
C47
100
AcDbEntity
  8
DEFPOINTS
  6
ByBlock
 62
     0
100
AcDbPoint
 10
71.11197234094231
 20
106.8486007538587
 30
0.0
  0
ENDBLK
  5
C56
330
C47
100
AcDbEntity
  8
0
100
AcDbBlockEnd
  0
BLOCK
  5
C65
330
C64
100
AcDbEntity
  8
0
100
AcDbBlockBegin
  2
*D23
 70
     1
 10
0.0
 20
0.0
 30
0.0
  3
*D23
  1

  0
LINE
  5
C66
330
C64
100
AcDbEntity
  8
0
  6
ByBlock
 62
     2
100
AcDbLine
 10
140.1119723409423
 20
147.0271743898035
 30
0.0
 11
140.1119723409423
 21
105.5986007538587
 31
0.0
  0
LINE
  5
C67
330
C64
100
AcDbEntity
  8
0
  6
ByBlock
 62
     2
100
AcDbLine
 10
121.6119723409423
 20
106.8486007538587
 30
0.0
 11
137.6119723409423
 21
106.8486007538587
 31
0.0
  0
INSERT
  5
C68
330
C64
100
AcDbEntity
  8
0
  6
ByBlock
 62
     2
100
AcDbBlockReference
  2
_OPEN
 10
119.1119723409423
 20
106.8486007538587
 30
0.0
 41
2.5
 42
2.5
 43
2.5
 50
180.0
  0
INSERT
  5
C69
330
C64
100
AcDbEntity
  8
0
  6
ByBlock
 62
     2
100
AcDbBlockReference
  2
_OPEN
 10
140.1119723409423
 20
106.8486007538587
 30
0.0
 41
2.5
 42
2.5
 43
2.5
  0
MTEXT
  5
C6A
330
C64
100
AcDbEntity
  8
0
  6
ByBlock
 62
     6
100
AcDbMText
 10
129.6119723409423
 20
108.7236007538587
 30
0.0
 40
2.5
 41
0.0
 71
     5
 72
     1
  1
\A1;21
  7
STYLE3
 73
     1
 44
1.0
  0
POINT
  5
C6B
330
C64
100
AcDbEntity
  8
DEFPOINTS
  6
ByBlock
 62
     0
100
AcDbPoint
 10
119.1119723409423
 20
122.5271743898035
 30
0.0
  0
POINT
  5
C6C
330
C64
100
AcDbEntity
  8
DEFPOINTS
  6
ByBlock
 62
     0
100
AcDbPoint
 10
140.1119723409423
 20
147.0271743898035
 30
0.0
  0
POINT
  5
C6D
330
C64
100
AcDbEntity
  8
DEFPOINTS
  6
ByBlock
 62
     0
100
AcDbPoint
 10
140.1119723409423
 20
106.8486007538587
 30
0.0
  0
ENDBLK
  5
C6E
330
C64
100
AcDbEntity
  8
0
100
AcDbBlockEnd
  0
BLOCK
  5
C71
330
C70
100
AcDbEntity
  8
0
100
AcDbBlockBegin
  2
*D24
 70
     1
 10
0.0
 20
0.0
 30
0.0
  3
*D24
  1

  0
LINE
  5
C72
330
C70
100
AcDbEntity
  8
0
  6
ByBlock
 62
     2
100
AcDbLine
 10
40.61197234094231
 20
105.5986007538587
 30
0.0
 11
40.61197234094231
 21
96.38278243334605
 31
0.0
  0
LINE
  5
C73
330
C70
100
AcDbEntity
  8
0
  6
ByBlock
 62
     2
100
AcDbLine
 10
140.1119723409423
 20
105.5986007538587
 30
0.0
 11
140.1119723409423
 21
96.38278243334605
 31
0.0
  0
LINE
  5
C74
330
C70
100
AcDbEntity
  8
0
  6
ByBlock
 62
     2
100
AcDbLine
 10
43.11197234094231
 20
97.63278243334605
 30
0.0
 11
137.6119723409423
 21
97.63278243334605
 31
0.0
  0
INSERT
  5
C75
330
C70
100
AcDbEntity
  8
0
  6
ByBlock
 62
     2
100
AcDbBlockReference
  2
_OPEN
 10
40.61197234094231
 20
97.63278243334605
 30
0.0
 41
2.5
 42
2.5
 43
2.5
 50
180.0
  0
INSERT
  5
C76
330
C70
100
AcDbEntity
  8
0
  6
ByBlock
 62
     2
100
AcDbBlockReference
  2
_OPEN
 10
140.1119723409423
 20
97.63278243334605
 30
0.0
 41
2.5
 42
2.5
 43
2.5
  0
MTEXT
  5
C77
330
C70
100
AcDbEntity
  8
0
  6
ByBlock
 62
     6
100
AcDbMText
 10
90.36197234094231
 20
99.50778243334605
 30
0.0
 40
2.5
 41
0.0
 71
     5
 72
     1
  1
\A1;99.5
  7
STYLE3
 73
     1
 44
1.0
  0
POINT
  5
C78
330
C70
100
AcDbEntity
  8
DEFPOINTS
  6
ByBlock
 62
     0
100
AcDbPoint
 10
40.61197234094231
 20
105.5986007538587
 30
0.0
  0
POINT
  5
C79
330
C70
100
AcDbEntity
  8
DEFPOINTS
  6
ByBlock
 62
     0
100
AcDbPoint
 10
140.1119723409423
 20
105.5986007538587
 30
0.0
  0
POINT
  5
C7A
330
C70
100
AcDbEntity
  8
DEFPOINTS
  6
ByBlock
 62
     0
100
AcDbPoint
 10
140.1119723409423
 20
97.63278243334605
 30
0.0
  0
ENDBLK
  5
C7B
330
C70
100
AcDbEntity
  8
0
100
AcDbBlockEnd
  0
BLOCK
  5
CCE
330
CCD
100
AcDbEntity
  8
0
100
AcDbBlockBegin
  2
*D26
 70
     1
 10
0.0
 20
0.0
 30
0.0
  3
*D26
  1

  0
LINE
  5
CCF
330
CCD
100
AcDbEntity
  8
0
  6
ByBlock
 62
     2
100
AcDbLine
 10
71.11197234094231
 20
122.5271743898035
 30
0.0
 11
32.66048720347715
 21
122.5271743898035
 31
0.0
  0
LINE
  5
CD0
330
CCD
100
AcDbEntity
  8
0
  6
ByBlock
 62
     2
100
AcDbLine
 10
35.59673786245458
 20
136.0271743898035
 30
0.0
 11
32.66048720347715
 21
136.0271743898035
 31
0.0
  0
LINE
  5
CD1
330
CCD
100
AcDbEntity
  8
0
  6
ByBlock
 62
     2
100
AcDbLine
 10
33.91048720347715
 20
125.0271743898035
 30
0.0
 11
33.91048720347715
 21
133.5271743898035
 31
0.0
  0
INSERT
  5
CD2
330
CCD
100
AcDbEntity
  8
0
  6
ByBlock
 62
     2
100
AcDbBlockReference
  2
_OPEN
 10
33.91048720347715
 20
122.5271743898035
 30
0.0
 41
2.5
 42
2.5
 43
2.5
 50
270.0
  0
INSERT
  5
CD3
330
CCD
100
AcDbEntity
  8
0
  6
ByBlock
 62
     2
100
AcDbBlockReference
  2
_OPEN
 10
33.91048720347715
 20
136.0271743898035
 30
0.0
 41
2.5
 42
2.5
 43
2.5
 50
90.0
  0
MTEXT
  5
CD4
330
CCD
100
AcDbEntity
  8
0
  6
ByBlock
 62
     6
100
AcDbMText
 10
32.03548720347715
 20
129.2771743898035
 30
0.0
 40
2.5
 41
0.0
 71
     5
 72
     1
  1
\A1;13.5
  7
STYLE3
 11
0.0000000000000001
 21
1.0
 31
0.0
 73
     1
 44
1.0
  0
POINT
  5
CD5
330
CCD
100
AcDbEntity
  8
DEFPOINTS
  6
ByBlock
 62
     0
100
AcDbPoint
 10
71.11197234094231
 20
122.5271743898035
 30
0.0
  0
POINT
  5
CD6
330
CCD
100
AcDbEntity
  8
DEFPOINTS
  6
ByBlock
 62
     0
100
AcDbPoint
 10
35.59673786245458
 20
136.0271743898035
 30
0.0
  0
POINT
  5
CD7
330
CCD
100
AcDbEntity
  8
DEFPOINTS
  6
ByBlock
 62
     0
100
AcDbPoint
 10
33.91048720347715
 20
136.0271743898035
 30
0.0
  0
ENDBLK
  5
CD8
330
CCD
100
AcDbEntity
  8
0
100
AcDbBlockEnd
  0
ENDSEC
  0
SECTION
  2
ENTITIES
  0
LWPOLYLINE
  5
26C
330
18
100
AcDbEntity
  8
C
100
AcDbPolyline
 90
        5
 70
     0
 43
0.4
 10
0.0
 20
195.0
 10
255.0
 20
195.0
 10
255.0
 20
0.0
 10
0.0
 20
0.0
 10
0.0
 20
195.0
  0
LINE
  5
2CD
330
18
100
AcDbEntity
  8
中心線
100
AcDbLine
 10
37.95726913072997
 20
136.0271743898035
 30
0.0
 11
122.9029013225043
 21
136.0271743898035
 31
0.0
  0
LINE
  5
5BA
330
18
100
AcDbEntity
  8
中心線
 48
0.5
100
AcDbLine
 10
191.9156628407632
 20
136.0271743898035
 30
0.0
 11
219.3210313861341
 21
136.0271743898035
 31
0.0
  0
LINE
  5
65F
330
18
100
AcDbEntity
  8
外形線
100
AcDbLine
 10
144.2717482973053
 20
134.5271743898035
 30
0.0
 11
144.2717482973053
 21
129.5271743898035
 31
0.0
  0
LINE
  5
664
330
18
100
AcDbEntity
  8
外形線
100
AcDbLine
 10
119.1119723409423
 20
129.1078447905308
 30
0.0
 11
144.2717482973053
 21
129.5271743898035
 31
0.0
  0
LINE
  5
665
330
18
100
AcDbEntity
  8
外形線
100
AcDbLine
 10
119.1119723409423
 20
134.9465039890762
 30
0.0
 11
144.2717482973053
 21
134.5271743898035
 31
0.0
  0
LINE
  5
68F
330
18
100
AcDbEntity
  8
外形線
100
AcDbLine
 10
154.1889418047196
 20
130.0271743898036
 30
0.0
 11
144.2717482973053
 21
130.0271743898035
 31
0.0
  0
LINE
  5
690
330
18
100
AcDbEntity
  8
外形線
100
AcDbLine
 10
154.5812864359053
 20
134.0271743898036
 30
0.0
 11
144.2717482973053
 21
134.0271743898036
 31
0.0
  0
LINE
  5
6D0
330
18
100
AcDbEntity
  8
中心線
100
AcDbLine
 10
205.354825025912
 20
158.7132457797471
 30
0.0
 11
205.354825025912
 21
118.6197501244377
 31
0.0
  0
LINE
  5
931
330
18
100
AcDbEntity
  8
中心線
100
AcDbLine
 10
37.20548190792874
 20
63.62580635254068
 30
0.0
 11
159.7812920899267
 21
63.62580635254068
 31
0.0
  0
LINE
  5
933
330
18
100
AcDbEntity
  8
外形線
100
AcDbLine
 10
119.1119723409423
 20
154.5271743898035
 30
0.0
 11
119.1119723409423
 21
122.5271743898035
 31
0.0
  0
LINE
  5
934
330
18
100
AcDbEntity
  8
外形線
100
AcDbLine
 10
71.11197234094231
 20
154.5271743898035
 30
0.0
 11
71.11197234094231
 21
122.5271743898035
 31
0.0
  0
LINE
  5
935
330
18
100
AcDbEntity
  8
外形線
100
AcDbLine
 10
71.11197234094231
 20
122.5271743898035
 30
0.0
 11
119.1119723409423
 21
122.5271743898035
 31
0.0
  0
LINE
  5
936
330
18
100
AcDbEntity
  8
外形線
100
AcDbLine
 10
71.11197234094231
 20
154.5271743898035
 30
0.0
 11
119.1119723409423
 21
154.5271743898035
 31
0.0
  0
LINE
  5
937
330
18
100
AcDbEntity
  8
外形線
100
AcDbLine
 10
194.8548250259119
 20
154.5271743898035
 30
0.0
 11
215.854825025912
 21
154.5271743898035
 31
0.0
  0
LINE
  5
938
330
18
100
AcDbEntity
  8
外形線
100
AcDbLine
 10
194.8548250259119
 20
122.5271743898035
 30
0.0
 11
215.854825025912
 21
122.5271743898035
 31
0.0
  0
LINE
  5
939
330
18
100
AcDbEntity
  8
中心線
 48
0.1
100
AcDbLine
 10
73.11197234094231
 20
155.1913065944694
 30
0.0
 11
73.11197234094231
 21
149.8630421851376
 31
0.0
  0
LINE
  5
93A
330
18
100
AcDbEntity
  8
中心線
 48
0.1
100
AcDbLine
 10
70.44784013627642
 20
152.5271743898035
 30
0.0
 11
75.7761045456082
 21
152.5271743898035
 31
0.0
  0
LINE
  5
93B
330
18
100
AcDbEntity
  8
中心線
 48
0.1
100
AcDbLine
 10
70.44784013627642
 20
124.5271743898035
 30
0.0
 11
72.6119723409423
 21
124.5271743898035
 31
0.0
  0
LINE
  5
93C
330
18
100
AcDbEntity
  8
中心線
 48
0.1
100
AcDbLine
 10
117.1119723409423
 20
155.1913065944694
 30
0.0
 11
117.1119723409423
 21
149.8630421851376
 31
0.0
  0
LINE
  5
93D
330
18
100
AcDbEntity
  8
中心線
 48
0.1
100
AcDbLine
 10
117.6119723409423
 20
125.0271743898035
 30
0.0
 11
119.7761045456082
 21
125.0271743898035
 31
0.0
  0
CIRCLE
  5
93E
330
18
100
AcDbEntity
  8
外形線
100
AcDbCircle
 10
73.11197234094231
 20
152.5271743898035
 30
0.0
 40
1.25
  0
LINE
  5
941
330
18
100
AcDbEntity
  8
外形線
100
AcDbLine
 10
73.70784619615253
 20
153.1230482450137
 30
0.0
 11
72.51609848573207
 21
151.9313005345932
 31
0.0
  0
LINE
  5
942
330
18
100
AcDbEntity
  8
外形線
100
AcDbLine
 10
72.51609848573207
 20
153.1230482450137
 30
0.0
 11
73.70784619615256
 21
151.9313005345932
 31
0.0
  0
LINE
  5
944
330
18
100
AcDbEntity
  8
外形線
100
AcDbLine
 10
117.7078461961525
 20
153.1230482450137
 30
0.0
 11
116.5160984857321
 21
151.9313005345933
 31
0.0
  0
LINE
  5
945
330
18
100
AcDbEntity
  8
外形線
100
AcDbLine
 10
116.5160984857321
 20
153.1230482450137
 30
0.0
 11
117.7078461961525
 21
151.9313005345933
 31
0.0
  0
CIRCLE
  5
946
330
18
100
AcDbEntity
  8
外形線
100
AcDbCircle
 10
117.1119723409423
 20
152.5271743898035
 30
0.0
 40
1.25
  0
LINE
  5
948
330
18
100
AcDbEntity
  8
外形線
100
AcDbLine
 10
117.7078461961525
 20
125.6230482450137
 30
0.0
 11
117.6119723409423
 21
125.5271743898034
 31
0.0
  0
LINE
  5
949
330
18
100
AcDbEntity
  8
外形線
100
AcDbLine
 10
117.6119723409423
 20
124.5271743898035
 30
0.0
 11
117.7078461961525
 21
124.4313005345933
 31
0.0
  0
ARC
  5
94A
330
18
100
AcDbEntity
  8
外形線
100
AcDbCircle
 10
117.1119723409423
 20
125.0271743898035
 30
0.0
 40
1.25
100
AcDbArc
 50
293.5781784782004
 51
66.4218215217996
  0
LINE
  5
94C
330
18
100
AcDbEntity
  8
外形線
100
AcDbLine
 10
72.6119723409423
 20
124.0271743898035
 30
0.0
 11
72.51609848573207
 21
123.9313005345933
 31
0.0
  0
LINE
  5
94D
330
18
100
AcDbEntity
  8
外形線
100
AcDbLine
 10
72.51609848573207
 20
125.1230482450137
 30
0.0
 11
72.61197234094232
 21
125.0271743898035
 31
0.0
  0
ARC
  5
94E
330
18
100
AcDbEntity
  8
外形線
100
AcDbCircle
 10
73.11197234094231
 20
124.5271743898035
 30
0.0
 40
1.25
100
AcDbArc
 50
113.5781784782018
 51
306.869897645844
  0
LINE
  5
951
330
18
100
AcDbEntity
  8
中心線
 48
0.1
100
AcDbLine
 10
114.4478401362764
 20
152.5271743898035
 30
0.0
 11
119.7761045456082
 21
152.5271743898035
 31
0.0
  0
LINE
  5
952
330
18
100
AcDbEntity
  8
中心線
 48
0.1
100
AcDbLine
 10
73.11197234094231
 20
123.5271743898035
 30
0.0
 11
73.11197234094231
 21
121.8630421851376
 31
0.0
  0
LINE
  5
953
330
18
100
AcDbEntity
  8
外形線
100
AcDbLine
 10
71.11197234094231
 20
74.12580635254068
 30
0.0
 11
71.11197234094231
 21
53.12580635254068
 31
0.0
  0
LINE
  5
954
330
18
100
AcDbEntity
  8
外形線
100
AcDbLine
 10
119.1119723409422
 20
74.12580635254068
 30
0.0
 11
119.1119723409423
 21
53.12580635254066
 31
0.0
  0
LINE
  5
955
330
18
100
AcDbEntity
  8
外形線
100
AcDbLine
 10
69.61197234094232
 20
53.12580635254067
 30
0.0
 11
119.1119723409423
 21
53.12580635254067
 31
0.0
  0
LINE
  5
956
330
18
100
AcDbEntity
  8
外形線
100
AcDbLine
 10
71.11197234094231
 20
73.12580635254068
 30
0.0
 11
119.1119723409423
 21
73.12580635254068
 31
0.0
  0
LINE
  5
957
330
18
100
AcDbEntity
  8
外形線
100
AcDbLine
 10
69.61197234094232
 20
74.12580635254068
 30
0.0
 11
119.1119723409423
 21
74.12580635254068
 31
0.0
  0
LINE
  5
959
330
18
100
AcDbEntity
  8
外形線
100
AcDbLine
 10
215.8548250259119
 20
154.5271743898035
 30
0.0
 11
215.8548250259119
 21
122.5271743898035
 31
0.0
  0
LINE
  5
95A
330
18
100
AcDbEntity
  8
外形線
100
AcDbLine
 10
195.8548250259119
 20
154.5271743898035
 30
0.0
 11
195.8548250259119
 21
122.5271743898035
 31
0.0
  0
LINE
  5
95B
330
18
100
AcDbEntity
  8
外形線
100
AcDbLine
 10
194.8548250259119
 20
154.5271743898035
 30
0.0
 11
194.8548250259119
 21
122.5271743898035
 31
0.0
  0
LINE
  5
95F
330
18
100
AcDbEntity
  8
中心線
 48
0.1
100
AcDbLine
 10
82.84784013627643
 20
63.62580635254068
 30
0.0
 11
88.17610454560821
 21
63.62580635254068
 31
0.0
  0
LINE
  5
960
330
18
100
AcDbEntity
  8
中心線
 48
0.1
100
AcDbLine
 10
85.51197234094232
 20
66.28993855720657
 30
0.0
 11
85.51197234094232
 21
60.96167414787479
 31
0.0
  0
LINE
  5
961
330
18
100
AcDbEntity
  8
外形線
100
AcDbLine
 10
86.10784619615253
 20
64.22168020775089
 30
0.0
 11
84.9160984857321
 21
63.02993249733046
 31
0.0
  0
LINE
  5
962
330
18
100
AcDbEntity
  8
外形線
100
AcDbLine
 10
84.9160984857321
 20
64.22168020775089
 30
0.0
 11
86.10784619615257
 21
63.02993249733046
 31
0.0
  0
CIRCLE
  5
963
330
18
100
AcDbEntity
  8
外形線
100
AcDbCircle
 10
85.51197234094232
 20
63.62580635254068
 30
0.0
 40
1.25
  0
LINE
  5
966
330
18
100
AcDbEntity
  8
中心線
 48
0.1
100
AcDbLine
 10
98.34784013627643
 20
63.62580635254068
 30
0.0
 11
103.6761045456082
 21
63.62580635254068
 31
0.0
  0
LINE
  5
967
330
18
100
AcDbEntity
  8
中心線
 48
0.1
100
AcDbLine
 10
101.0119723409423
 20
66.28993855720657
 30
0.0
 11
101.0119723409423
 21
60.96167414787479
 31
0.0
  0
CIRCLE
  5
968
330
18
100
AcDbEntity
  8
外形線
100
AcDbCircle
 10
101.0119723409423
 20
63.62580635254068
 30
0.0
 40
1.25
  0
LINE
  5
969
330
18
100
AcDbEntity
  8
外形線
100
AcDbLine
 10
100.4160984857321
 20
64.22168020775089
 30
0.0
 11
101.6078461961525
 21
63.02993249733046
 31
0.0
  0
LINE
  5
96A
330
18
100
AcDbEntity
  8
外形線
100
AcDbLine
 10
101.6078461961525
 20
64.22168020775089
 30
0.0
 11
100.4160984857321
 21
63.02993249733046
 31
0.0
  0
LINE
  5
96B
330
18
100
AcDbEntity
  8
中心線
 48
0.1
100
AcDbLine
 10
113.8478401362764
 20
63.62580635254068
 30
0.0
 11
119.1761045456082
 21
63.62580635254068
 31
0.0
  0
LINE
  5
96D
330
18
100
AcDbEntity
  8
中心線
 48
0.1
100
AcDbLine
 10
116.5119723409423
 20
66.28993855720657
 30
0.0
 11
116.5119723409423
 21
60.96167414787479
 31
0.0
  0
LINE
  5
96E
330
18
100
AcDbEntity
  8
外形線
100
AcDbLine
 10
117.1078461961525
 20
64.22168020775089
 30
0.0
 11
115.9160984857321
 21
63.02993249733046
 31
0.0
  0
LINE
  5
96F
330
18
100
AcDbEntity
  8
外形線
100
AcDbLine
 10
115.9160984857321
 20
64.22168020775089
 30
0.0
 11
117.1078461961525
 21
63.02993249733046
 31
0.0
  0
CIRCLE
  5
970
330
18
100
AcDbEntity
  8
外形線
100
AcDbCircle
 10
116.5119723409423
 20
63.62580635254068
 30
0.0
 40
1.25
  0
LINE
  5
971
330
18
100
AcDbEntity
  8
外形線
100
AcDbLine
 10
79.31197234094233
 20
66.62580635254068
 30
0.0
 11
119.0119723409423
 21
66.62580635254068
 31
0.0
  0
LINE
  5
972
330
18
100
AcDbEntity
  8
外形線
100
AcDbLine
 10
79.31197234094234
 20
60.62580635254067
 30
0.0
 11
119.0119723409423
 21
60.62580635254066
 31
0.0
  0
LINE
  5
973
330
18
100
AcDbEntity
  8
外形線
100
AcDbLine
 10
79.31197234094232
 20
66.62580635254068
 30
0.0
 11
79.31197234094233
 21
60.62580635254068
 31
0.0
  0
LINE
  5
974
330
18
100
AcDbEntity
  8
外形線
100
AcDbLine
 10
119.0119723409423
 20
66.62580635254077
 30
0.0
 11
119.0119723409423
 21
60.62580635254077
 31
0.0
  0
LINE
  5
975
330
18
100
AcDbEntity
  8
外形線
100
AcDbLine
 10
79.31197234094233
 20
120.8771743898035
 30
0.0
 11
119.0119723409423
 21
120.8771743898035
 31
0.0
  0
LINE
  5
977
330
18
100
AcDbEntity
  8
外形線
100
AcDbLine
 10
79.31197234094233
 20
122.5271743898035
 30
0.0
 11
79.31197234094233
 21
120.8771743898035
 31
0.0
  0
LINE
  5
978
330
18
100
AcDbEntity
  8
外形線
100
AcDbLine
 10
119.0119723409423
 20
122.5271743898035
 30
0.0
 11
119.0119723409423
 21
120.8771743898035
 31
0.0
  0
LINE
  5
97A
330
18
100
AcDbEntity
  8
外形線
100
AcDbLine
 10
202.3548250259119
 20
120.8771743898035
 30
0.0
 11
208.354825025912
 21
120.8771743898035
 31
0.0
  0
LINE
  5
97D
330
18
100
AcDbEntity
  8
外形線
100
AcDbLine
 10
203.3074529700748
 20
122.5271743898034
 30
0.0
 11
202.3548250259119
 21
120.8771743898035
 31
0.0
  0
LINE
  5
97E
330
18
100
AcDbEntity
  8
外形線
100
AcDbLine
 10
207.4021970817491
 20
122.5271743898035
 30
0.0
 11
208.354825025912
 21
120.8771743898035
 31
0.0
  0
LINE
  5
989
330
18
100
AcDbEntity
  8
中心線
 48
0.2
100
AcDbLine
 10
199.3548250259119
 20
155.2187682766485
 30
0.0
 11
199.3548250259119
 21
148.8355805029584
 31
0.0
  0
LINE
  5
98A
330
18
100
AcDbEntity
  8
中心線
 48
0.2
100
AcDbLine
 10
211.354825025912
 20
155.2187682766485
 30
0.0
 11
211.354825025912
 21
148.8355805029584
 31
0.0
  0
LINE
  5
98B
330
18
100
AcDbEntity
  8
中心線
 48
0.2
100
AcDbLine
 10
196.1632311390669
 20
142.0271743898035
 30
0.0
 11
202.546418912757
 21
142.0271743898035
 31
0.0
  0
LINE
  5
98C
330
18
100
AcDbEntity
  8
中心線
 48
0.2
100
AcDbLine
 10
196.1632311390669
 20
152.0271743898035
 30
0.0
 11
202.546418912757
 21
152.0271743898035
 31
0.0
  0
CIRCLE
  5
98D
330
18
100
AcDbEntity
  8
外形線
100
AcDbCircle
 10
199.3548250259119
 20
152.0271743898035
 30
0.0
 40
1.75
  0
LINE
  5
990
330
18
100
AcDbEntity
  8
外形線
100
AcDbLine
 10
200.2289278626612
 20
152.9012772265527
 30
0.0
 11
198.4807221891627
 21
151.1530715530543
 31
0.0
  0
LINE
  5
991
330
18
100
AcDbEntity
  8
外形線
100
AcDbLine
 10
198.4807221891628
 20
152.9012772265527
 30
0.0
 11
200.2289278626612
 21
151.1530715530543
 31
0.0
  0
LINE
  5
992
330
18
100
AcDbEntity
  8
外形線
100
AcDbLine
 10
210.4807221891628
 20
152.9012772265527
 30
0.0
 11
212.2289278626611
 21
151.1530715530543
 31
0.0
  0
LINE
  5
993
330
18
100
AcDbEntity
  8
外形線
100
AcDbLine
 10
212.2289278626611
 20
152.9012772265527
 30
0.0
 11
210.4807221891627
 21
151.1530715530543
 31
0.0
  0
CIRCLE
  5
995
330
18
100
AcDbEntity
  8
外形線
100
AcDbCircle
 10
211.354825025912
 20
152.0271743898035
 30
0.0
 40
1.75
  0
LINE
  5
996
330
18
100
AcDbEntity
  8
外形線
100
AcDbLine
 10
198.4807221891628
 20
142.9012772265527
 30
0.0
 11
200.2289278626612
 21
141.1530715530543
 31
0.0
  0
LINE
  5
997
330
18
100
AcDbEntity
  8
外形線
100
AcDbLine
 10
200.2289278626612
 20
142.9012772265527
 30
0.0
 11
198.4807221891627
 21
141.1530715530543
 31
0.0
  0
CIRCLE
  5
999
330
18
100
AcDbEntity
  8
外形線
100
AcDbCircle
 10
199.3548250259119
 20
142.0271743898035
 30
0.0
 40
1.75
  0
LINE
  5
99A
330
18
100
AcDbEntity
  8
外形線
100
AcDbLine
 10
210.4807221891628
 20
142.9012772265527
 30
0.0
 11
212.2289278626611
 21
141.1530715530543
 31
0.0
  0
LINE
  5
99B
330
18
100
AcDbEntity
  8
外形線
100
AcDbLine
 10
212.2289278626611
 20
142.9012772265527
 30
0.0
 11
210.4807221891627
 21
141.1530715530543
 31
0.0
  0
CIRCLE
  5
99D
330
18
100
AcDbEntity
  8
外形線
100
AcDbCircle
 10
211.354825025912
 20
142.0271743898035
 30
0.0
 40
1.75
  0
LINE
  5
99E
330
18
100
AcDbEntity
  8
中心線
 48
0.2
100
AcDbLine
 10
208.1632311390669
 20
142.0271743898035
 30
0.0
 11
214.546418912757
 21
142.0271743898035
 31
0.0
  0
LINE
  5
99F
330
18
100
AcDbEntity
  8
中心線
 48
0.2
100
AcDbLine
 10
211.354825025912
 20
145.2187682766485
 30
0.0
 11
211.354825025912
 21
138.8355805029584
 31
0.0
  0
LINE
  5
9A0
330
18
100
AcDbEntity
  8
中心線
 48
0.2
100
AcDbLine
 10
199.3548250259119
 20
145.2187682766485
 30
0.0
 11
199.3548250259119
 21
138.8355805029584
 31
0.0
  0
LINE
  5
9A1
330
18
100
AcDbEntity
  8
中心線
 48
0.2
100
AcDbLine
 10
208.1632311390669
 20
152.0271743898035
 30
0.0
 11
214.546418912757
 21
152.0271743898035
 31
0.0
  0
LINE
  5
9A2
330
18
100
AcDbEntity
  8
中心線
 48
0.2
100
AcDbLine
 10
201.5676906815536
 20
147.0271743898035
 30
0.0
 11
209.0317700777793
 21
147.0271743898035
 31
0.0
  0
LINE
  5
9A3
330
18
100
AcDbEntity
  8
外形線
100
AcDbLine
 10
213.354825025912
 20
154.0271743898035
 30
0.0
 11
213.354825025912
 21
140.0271743898035
 31
0.0
  0
LINE
  5
9A4
330
18
100
AcDbEntity
  8
外形線
100
AcDbLine
 10
197.354825025912
 20
154.0271743898035
 30
0.0
 11
197.3548250259119
 21
140.0271743898035
 31
0.0
  0
LINE
  5
9A5
330
18
100
AcDbEntity
  8
外形線
100
AcDbLine
 10
197.3548250259119
 20
140.0271743898035
 30
0.0
 11
213.3548250259119
 21
140.0271743898035
 31
0.0
  0
LINE
  5
9A6
330
18
100
AcDbEntity
  8
外形線
100
AcDbLine
 10
197.3548250259119
 20
154.0271743898035
 30
0.0
 11
213.3548250259119
 21
154.0271743898035
 31
0.0
  0
LINE
  5
9A7
330
18
100
AcDbEntity
  8
外形線
100
AcDbLine
 10
202.8548250259119
 20
154.0271743898034
 30
0.0
 11
202.854825025912
 21
140.0271743898035
 31
0.0
  0
LINE
  5
9A8
330
18
100
AcDbEntity
  8
外形線
100
AcDbLine
 10
207.854825025912
 20
154.0271743898034
 30
0.0
 11
207.854825025912
 21
140.0271743898035
 31
0.0
  0
LINE
  5
9A9
330
18
100
AcDbEntity
  8
隠れ線2
 48
0.4
100
AcDbLine
 10
202.854825025912
 20
150.2771743898035
 30
0.0
 11
207.854825025912
 21
150.2771743898035
 31
0.0
  0
LINE
  5
9AA
330
18
100
AcDbEntity
  8
隠れ線2
 48
0.4
100
AcDbLine
 10
202.854825025912
 20
143.7771743898035
 30
0.0
 11
207.854825025912
 21
143.7771743898034
 31
0.0
  0
LINE
  5
9AD
330
18
100
AcDbEntity
  8
中心線
 48
0.2
100
AcDbLine
 10
201.8488316608718
 20
132.0271743898035
 30
0.0
 11
208.8608191058558
 21
132.0271743898035
 31
0.0
  0
CIRCLE
  5
9AE
330
18
100
AcDbEntity
  8
外形線
100
AcDbCircle
 10
205.354825025912
 20
132.0271743898035
 30
0.0
 40
2.7
  0
CIRCLE
  5
9AF
330
18
100
AcDbEntity
  8
外形線
100
AcDbCircle
 10
205.354825025912
 20
132.0271743898035
 30
0.0
 40
1.399999999999999
  0
LINE
  5
9B0
330
18
100
AcDbEntity
  8
中心線
 48
0.5
100
AcDbLine
 10
117.462243222573
 20
147.0271743898035
 30
0.0
 11
141.2406199235892
 21
147.0271743898035
 31
0.0
  0
LINE
  5
9B1
330
18
100
AcDbEntity
  8
外形線
100
AcDbLine
 10
119.1119723409423
 20
154.0271743898035
 30
0.0
 11
133.1119723409423
 21
154.0271743898034
 31
0.0
  0
LINE
  5
9B2
330
18
100
AcDbEntity
  8
外形線
100
AcDbLine
 10
119.1119723409423
 20
140.0271743898035
 30
0.0
 11
133.1119723409423
 21
140.0271743898035
 31
0.0
  0
LINE
  5
9B3
330
18
100
AcDbEntity
  8
中心線
 48
0.1
100
AcDbLine
 10
116.5353490234867
 20
142.0271743898035
 30
0.0
 11
123.1845310469465
 21
142.0271743898035
 31
0.0
  0
LINE
  5
9B4
330
18
100
AcDbEntity
  8
中心線
 48
0.1
100
AcDbLine
 10
118.1313130922977
 20
152.0271743898035
 30
0.0
 11
123.1401984336838
 21
152.0271743898035
 31
0.0
  0
LINE
  5
9B5
330
18
100
AcDbEntity
  8
外形線
100
AcDbLine
 10
121.1119723409423
 20
154.0271743898034
 30
0.0
 11
121.1119723409423
 21
140.0271743898035
 31
0.0
  0
LINE
  5
9B6
330
18
100
AcDbEntity
  8
中心線
 48
0.2
100
AcDbLine
 10
133.1119723409423
 20
155.7235744999863
 30
0.0
 11
133.1119723409423
 21
138.2902475750685
 31
0.0
  0
ARC
  5
9B7
330
18
100
AcDbEntity
  8
外形線
100
AcDbCircle
 10
133.1119723409423
 20
147.0271743898035
 30
0.0
 40
7.0
100
AcDbArc
 50
270.0
 51
90.0
  0
CIRCLE
  5
9B8
330
18
100
AcDbEntity
  8
外形線
100
AcDbCircle
 10
133.1119723409423
 20
147.0271743898035
 30
0.0
 40
3.25
  0
LINE
  5
9BA
330
18
100
AcDbEntity
  8
外形線
100
AcDbLine
 10
122.1119723409423
 20
153.3771743898035
 30
0.0
 11
122.1119723409422
 21
150.6771743898035
 31
0.0
  0
LINE
  5
9BB
330
18
100
AcDbEntity
  8
外形線
100
AcDbLine
 10
121.1119723409423
 20
153.7771743898035
 30
0.0
 11
121.7119723409423
 21
153.7771743898035
 31
0.0
  0
LINE
  5
9BC
330
18
100
AcDbEntity
  8
外形線
100
AcDbLine
 10
121.1119723409423
 20
150.2771743898035
 30
0.0
 11
121.7119723409423
 21
150.2771743898035
 31
0.0
  0
LINE
  5
9BD
330
18
100
AcDbEntity
  8
外形線
100
AcDbLine
 10
121.1119723409423
 20
140.2771743898035
 30
0.0
 11
121.7119723409423
 21
140.2771743898035
 31
0.0
  0
LINE
  5
9BE
330
18
100
AcDbEntity
  8
外形線
100
AcDbLine
 10
121.1119723409423
 20
143.7771743898035
 30
0.0
 11
121.7119723409423
 21
143.7771743898035
 31
0.0
  0
LINE
  5
9BF
330
18
100
AcDbEntity
  8
外形線
100
AcDbLine
 10
122.1119723409423
 20
143.3771743898035
 30
0.0
 11
122.1119723409423
 21
140.6771743898035
 31
0.0
  0
ARC
  5
9C0
330
18
100
AcDbEntity
  8
外形線
100
AcDbCircle
 10
121.7119723409423
 20
153.3771743898035
 30
0.0
 40
0.4
100
AcDbArc
 50
0.0
 51
90.0
  0
ARC
  5
9C1
330
18
100
AcDbEntity
  8
外形線
100
AcDbCircle
 10
121.7119723409423
 20
150.6771743898035
 30
0.0
 40
0.4
100
AcDbArc
 50
270.0
 51
0.0
  0
ARC
  5
9C2
330
18
100
AcDbEntity
  8
外形線
100
AcDbCircle
 10
121.7119723409423
 20
143.3771743898035
 30
0.0
 40
0.4
100
AcDbArc
 50
0.0000000000002036
 51
90.0
  0
ARC
  5
9C3
330
18
100
AcDbEntity
  8
外形線
100
AcDbCircle
 10
121.7119723409423
 20
140.6771743898035
 30
0.0
 40
0.4
100
AcDbArc
 50
270.0
 51
0.0000000000002544
  0
LINE
  5
9C4
330
18
100
AcDbEntity
  8
中心線
100
AcDbLine
 10
116.8508918876471
 20
132.0271743898035
 30
0.0
 11
155.9669476083379
 21
132.0271743898035
 31
0.0
  0
LINE
  5
9D5
330
18
100
AcDbEntity
  8
想像線
 48
0.2
100
AcDbLine
 10
154.8032857740842
 20
136.2904839450585
 30
0.0
 11
153.9671142946053
 21
127.7656166420241
 31
0.0
  0
LINE
  5
9D6
330
18
100
AcDbEntity
  8
外形線
100
AcDbLine
 10
119.1119723409422
 20
60.70647675326796
 30
0.0
 11
144.2717482973053
 21
61.12580635254071
 31
0.0
  0
LINE
  5
9D7
330
18
100
AcDbEntity
  8
外形線
100
AcDbLine
 10
119.1119723409423
 20
66.54513595181339
 30
0.0
 11
144.2717482973053
 21
66.12580635254068
 31
0.0
  0
LINE
  5
9D8
330
18
100
AcDbEntity
  8
外形線
100
AcDbLine
 10
154.5812864359053
 20
65.62580635254076
 30
0.0
 11
144.2717482973053
 21
65.62580635254073
 31
0.0
  0
LINE
  5
9D9
330
18
100
AcDbEntity
  8
外形線
100
AcDbLine
 10
154.1889418047196
 20
61.62580635254073
 30
0.0
 11
144.2717482973053
 21
61.62580635254068
 31
0.0
  0
LINE
  5
9DA
330
18
100
AcDbEntity
  8
外形線
100
AcDbLine
 10
144.2717482973053
 20
66.12580635254068
 30
0.0
 11
144.2717482973053
 21
61.12580635254071
 31
0.0
  0
LINE
  5
9DB
330
18
100
AcDbEntity
  8
想像線
 48
0.2
100
AcDbLine
 10
154.8032857740841
 20
67.88911590779571
 30
0.0
 11
153.9671142946052
 21
59.36424860476131
 31
0.0
  0
LINE
  5
9DE
330
18
100
AcDbEntity
  8
外形線
100
AcDbLine
 10
119.1119723409423
 20
71.62580635254068
 30
0.0
 11
121.1119723409423
 21
71.62580635254068
 31
0.0
  0
LINE
  5
9DF
330
18
100
AcDbEntity
  8
外形線
100
AcDbLine
 10
119.1119723409423
 20
55.62580635254068
 30
0.0
 11
121.1119723409423
 21
55.62580635254068
 31
0.0
  0
LINE
  5
9E0
330
18
100
AcDbEntity
  8
外形線
100
AcDbLine
 10
121.1119723409423
 20
71.62580635254068
 30
0.0
 11
121.1119723409423
 21
66.51180261848006
 31
0.0
  0
LINE
  5
9E1
330
18
100
AcDbEntity
  8
外形線
100
AcDbLine
 10
122.1119723409422
 20
70.9758063525407
 30
0.0
 11
122.1119723409423
 21
68.27580635254069
 31
0.0
  0
LINE
  5
9E2
330
18
100
AcDbEntity
  8
中心線
 48
0.2
100
AcDbLine
 10
116.5353490234867
 20
69.6258063525407
 30
0.0
 11
123.1845310469465
 21
69.62580635254068
 31
0.0
  0
ARC
  5
9E3
330
18
100
AcDbEntity
  8
外形線
100
AcDbCircle
 10
121.7119723409423
 20
68.27580635254069
 30
0.0
 40
0.4
100
AcDbArc
 50
270.0
 51
0.0000000000002544
  0
LINE
  5
9E4
330
18
100
AcDbEntity
  8
外形線
100
AcDbLine
 10
121.1119723409423
 20
67.87580635254068
 30
0.0
 11
121.7119723409423
 21
67.87580635254068
 31
0.0
  0
ARC
  5
9E5
330
18
100
AcDbEntity
  8
外形線
100
AcDbCircle
 10
121.7119723409423
 20
70.9758063525407
 30
0.0
 40
0.4
100
AcDbArc
 50
0.0000000000002036
 51
90.0
  0
LINE
  5
9E6
330
18
100
AcDbEntity
  8
外形線
100
AcDbLine
 10
121.1119723409423
 20
71.37580635254071
 30
0.0
 11
121.7119723409423
 21
71.37580635254071
 31
0.0
  0
LINE
  5
9E7
330
18
100
AcDbEntity
  8
外形線
100
AcDbLine
 10
122.1119723409423
 20
58.9758063525407
 30
0.0
 11
122.1119723409423
 21
56.27580635254068
 31
0.0
  0
LINE
  5
9E8
330
18
100
AcDbEntity
  8
中心線
 48
0.2
100
AcDbLine
 10
116.5353490234867
 20
57.62580635254071
 30
0.0
 11
123.1845310469465
 21
57.62580635254067
 31
0.0
  0
ARC
  5
9E9
330
18
100
AcDbEntity
  8
外形線
100
AcDbCircle
 10
121.7119723409423
 20
56.27580635254068
 30
0.0
 40
0.4
100
AcDbArc
 50
270.0
 51
0.0000000000002544
  0
LINE
  5
9EA
330
18
100
AcDbEntity
  8
外形線
100
AcDbLine
 10
121.1119723409423
 20
55.87580635254068
 30
0.0
 11
121.7119723409423
 21
55.87580635254068
 31
0.0
  0
ARC
  5
9EB
330
18
100
AcDbEntity
  8
外形線
100
AcDbCircle
 10
121.7119723409423
 20
58.9758063525407
 30
0.0
 40
0.4
100
AcDbArc
 50
0.0000000000002036
 51
90.0
  0
LINE
  5
9EC
330
18
100
AcDbEntity
  8
外形線
100
AcDbLine
 10
121.1119723409423
 20
59.37580635254071
 30
0.0
 11
121.7119723409423
 21
59.37580635254071
 31
0.0
  0
LINE
  5
9EF
330
18
100
AcDbEntity
  8
外形線
100
AcDbLine
 10
121.1119723409423
 20
60.7398100866013
 30
0.0
 11
121.1119723409423
 21
55.62580635254068
 31
0.0
  0
LINE
  5
9F0
330
18
100
AcDbEntity
  8
外形線
100
AcDbLine
 10
72.61197234094232
 20
123.5271743898035
 30
0.0
 11
117.6119723409423
 21
123.5271743898035
 31
0.0
  0
LINE
  5
9F1
330
18
100
AcDbEntity
  8
外形線
100
AcDbLine
 10
72.61197234094232
 20
128.5271743898035
 30
0.0
 11
117.6119723409423
 21
128.5271743898035
 31
0.0
  0
LINE
  5
9F2
330
18
100
AcDbEntity
  8
外形線
100
AcDbLine
 10
117.6119723409423
 20
128.5271743898035
 30
0.0
 11
117.6119723409423
 21
123.5271743898035
 31
0.0
  0
LINE
  5
9F3
330
18
100
AcDbEntity
  8
外形線
100
AcDbLine
 10
72.61197234094232
 20
128.5271743898035
 30
0.0
 11
72.61197234094232
 21
123.5271743898035
 31
0.0
  0
LINE
  5
9F6
330
18
100
AcDbEntity
  8
外形線
100
AcDbLine
 10
84.61197234094232
 20
128.5271743898035
 30
0.0
 11
84.61197234094232
 21
123.5271743898035
 31
0.0
  0
TEXT
  5
A68
330
18
100
AcDbEntity
  8
0
  6
ByBlock
 62
     6
100
AcDbText
 10
101.2420006367918
 20
124.5294994598383
 30
0.0
 40
1.6
  1
DL-2S
 41
1.5
  7
STYLE3
100
AcDbText
  0
TEXT
  5
A69
330
18
100
AcDbEntity
  8
0
  6
ByBlock
 62
     6
100
AcDbText
 10
85.80289263190161
 20
126.7342058037834
 30
0.0
 40
1.199999999999999
  1
DIGITAL    LINEAR    GAUGE
 41
1.28
  7
STYLE3
100
AcDbText
  0
TEXT
  5
A6B
330
18
100
AcDbEntity
  8
0
  6
ByBlock
 62
     6
100
AcDbText
 10
90.90745146235244
 20
124.518025306961
 30
0.0
 40
1.197476113811003
  1
MODEL
 41
1.5
  7
STYLE3
100
AcDbText
  0
INSERT
  5
ACB
330
18
100
AcDbEntity
  8
外形線
100
AcDbBlockReference
  2
A$C46B047FA
 10
73.53297936420386
 20
125.0855993815467
 30
0.0
 41
0.8953711610323091
 42
0.8953711610323091
 43
0.8953711610323091
  0
LINE
  5
AD2
330
18
100
AcDbEntity
  8
外形線
100
AcDbLine
 10
69.61197234094232
 20
74.12580635254068
 30
0.0
 11
69.61197234094232
 21
53.12580635254068
 31
0.0
  0
LINE
  5
AD3
330
18
100
AcDbEntity
  8
外形線
100
AcDbLine
 10
69.61197234094232
 20
148.0271743898035
 30
0.0
 11
69.61197234094232
 21
124.0271743898035
 31
0.0
  0
LINE
  5
AD5
330
18
100
AcDbEntity
  8
外形線
100
AcDbLine
 10
65.61197234094231
 20
71.12580635254068
 30
0.0
 11
65.61197234094231
 21
68.12580635254068
 31
0.0
  0
LINE
  5
AD6
330
18
100
AcDbEntity
  8
外形線
100
AcDbLine
 10
67.11197234094232
 20
68.12580635254068
 30
0.0
 11
67.11197234094232
 21
59.12580635254067
 31
0.0
  0
LINE
  5
AD7
330
18
100
AcDbEntity
  8
外形線
100
AcDbLine
 10
65.61197234094231
 20
68.12580635254066
 30
0.0
 11
67.11197234094232
 21
68.12580635254066
 31
0.0
  0
LINE
  5
AD8
330
18
100
AcDbEntity
  8
外形線
100
AcDbLine
 10
65.61197234094231
 20
59.12580635254069
 30
0.0
 11
67.11197234094233
 21
59.12580635254069
 31
0.0
  0
LINE
  5
AD9
330
18
100
AcDbEntity
  8
外形線
100
AcDbLine
 10
66.11197234094231
 20
71.62580635254068
 30
0.0
 11
69.61197234094232
 21
71.62580635254068
 31
0.0
  0
LINE
  5
ADA
330
18
100
AcDbEntity
  8
外形線
100
AcDbLine
 10
66.11197234094231
 20
55.62580635254068
 30
0.0
 11
69.61197234094232
 21
55.62580635254068
 31
0.0
  0
LINE
  5
ADB
330
18
100
AcDbEntity
  8
外形線
100
AcDbLine
 10
65.61197234094231
 20
59.12580635254068
 30
0.0
 11
65.61197234094231
 21
56.12580635254068
 31
0.0
  0
LINE
  5
ADC
330
18
100
AcDbEntity
  8
外形線
100
AcDbLine
 10
65.61197234094231
 20
71.12580635254068
 30
0.0
 11
66.11197234094231
 21
71.62580635254068
 31
0.0
  0
LINE
  5
ADD
330
18
100
AcDbEntity
  8
外形線
100
AcDbLine
 10
65.61197234094231
 20
56.12580635254068
 30
0.0
 11
66.11197234094231
 21
55.62580635254068
 31
0.0
  0
LINE
  5
ADE
330
18
100
AcDbEntity
  8
外形線
100
AcDbLine
 10
66.11197234094231
 20
71.62580635254068
 30
0.0
 11
66.11197234094231
 21
68.12580635254068
 31
0.0
  0
LINE
  5
ADF
330
18
100
AcDbEntity
  8
外形線
100
AcDbLine
 10
66.11197234094231
 20
59.12580635254068
 30
0.0
 11
66.11197234094231
 21
55.62580635254068
 31
0.0
  0
LINE
  5
AE0
330
18
100
AcDbEntity
  8
外形線
100
AcDbLine
 10
69.61197234094232
 20
148.0271743898035
 30
0.0
 11
71.11197234094231
 21
148.0271743898035
 31
0.0
  0
LINE
  5
AE1
330
18
100
AcDbEntity
  8
外形線
100
AcDbLine
 10
69.61197234094232
 20
124.0271743898035
 30
0.0
 11
71.11197234094231
 21
124.0271743898035
 31
0.0
  0
LINE
  5
AE2
330
18
100
AcDbEntity
  8
外形線
100
AcDbLine
 10
67.11197234094232
 20
128.0271743898035
 30
0.0
 11
69.61197234094232
 21
128.0271743898035
 31
0.0
  0
LINE
  5
AE3
330
18
100
AcDbEntity
  8
外形線
100
AcDbLine
 10
67.11197234094232
 20
144.0271743898035
 30
0.0
 11
69.61197234094232
 21
144.0271743898035
 31
0.0
  0
LINE
  5
AE4
330
18
100
AcDbEntity
  8
外形線
100
AcDbLine
 10
67.11197234094232
 20
144.0271743898035
 30
0.0
 11
67.11197234094232
 21
142.6271743898035
 31
0.0
  0
LINE
  5
AE5
330
18
100
AcDbEntity
  8
外形線
100
AcDbLine
 10
66.11197234094231
 20
131.5271743898035
 30
0.0
 11
66.11197234094231
 21
129.4271743898035
 31
0.0
  0
LINE
  5
AE6
330
18
100
AcDbEntity
  8
外形線
100
AcDbLine
 10
65.61197234094231
 20
129.9271743898035
 30
0.0
 11
66.11197234094231
 21
129.4271743898035
 31
0.0
  0
LINE
  5
AE9
330
18
100
AcDbEntity
  8
外形線
100
AcDbLine
 10
66.11197234094231
 20
142.6271743898035
 30
0.0
 11
66.11197234094231
 21
131.5271743898035
 31
0.0
  0
LINE
  5
AEA
330
18
100
AcDbEntity
  8
外形線
100
AcDbLine
 10
65.61197234094231
 20
142.1271743898035
 30
0.0
 11
65.61197234094231
 21
129.9271743898035
 31
0.0
  0
LINE
  5
AEC
330
18
100
AcDbEntity
  8
外形線
100
AcDbLine
 10
65.61197234094231
 20
142.1271743898035
 30
0.0
 11
66.11197234094231
 21
142.6271743898035
 31
0.0
  0
LINE
  5
AED
330
18
100
AcDbEntity
  8
外形線
100
AcDbLine
 10
66.11197234094231
 20
142.6271743898035
 30
0.0
 11
67.11197234094232
 21
142.6271743898035
 31
0.0
  0
LINE
  5
AEE
330
18
100
AcDbEntity
  8
外形線
100
AcDbLine
 10
66.11197234094231
 20
129.4271743898035
 30
0.0
 11
67.11197234094232
 21
129.4271743898035
 31
0.0
  0
LINE
  5
AEF
330
18
100
AcDbEntity
  8
外形線
100
AcDbLine
 10
67.11197234094232
 20
129.4271743898035
 30
0.0
 11
67.11197234094232
 21
128.0271743898035
 31
0.0
  0
LINE
  5
AF0
330
18
100
AcDbEntity
  8
中心線
 48
0.3
100
AcDbLine
 10
40.61197234094231
 20
141.3073396462717
 30
0.0
 11
40.61197234094231
 21
130.7073396462717
 31
0.0
  0
ARC
  5
AF1
330
18
100
AcDbEntity
  8
外形線
100
AcDbCircle
 10
40.61197234094231
 20
136.0271743898035
 30
0.0
 40
1.0
100
AcDbArc
 50
36.86989764584362
 51
323.1301023541561
  0
LINE
  5
AF5
330
18
100
AcDbEntity
  8
外形線
100
AcDbLine
 10
61.43290510033904
 20
138.0271743898035
 30
0.0
 11
65.61197234094231
 21
138.0271743898035
 31
0.0
  0
LINE
  5
AF6
330
18
100
AcDbEntity
  8
外形線
100
AcDbLine
 10
61.43290510033904
 20
134.0271743898035
 30
0.0
 11
65.61197234094231
 21
134.0271743898035
 31
0.0
  0
LINE
  5
AF7
330
18
100
AcDbEntity
  8
外形線
100
AcDbLine
 10
41.41197234094232
 20
135.4271743898035
 30
0.0
 11
61.43290510033887
 21
134.0271743898035
 31
0.0
  0
LINE
  5
AF8
330
18
100
AcDbEntity
  8
外形線
100
AcDbLine
 10
41.41197234094232
 20
136.6271743898035
 30
0.0
 11
61.43290510033903
 21
138.0271743898035
 31
0.0
  0
LINE
  5
AF9
330
18
100
AcDbEntity
  8
外形線
100
AcDbLine
 10
61.43290510033927
 20
134.0271743898035
 30
0.0
 11
61.43290510033903
 21
138.0271743898035
 31
0.0
  0
LINE
  5
AFA
330
18
100
AcDbEntity
  8
外形線
100
AcDbLine
 10
41.41197234094232
 20
136.6271743898035
 30
0.0
 11
41.41197234094232
 21
135.4271743898035
 31
0.0
  0
LINE
  5
AFC
330
18
100
AcDbEntity
  8
外形線
100
AcDbLine
 10
41.41197234094232
 20
64.22580635254067
 30
0.0
 11
61.43290510033903
 21
65.62580635254068
 31
0.0
  0
LINE
  5
AFD
330
18
100
AcDbEntity
  8
外形線
100
AcDbLine
 10
41.41197234094232
 20
63.02580635254068
 30
0.0
 11
61.43290510033887
 21
61.62580635254068
 31
0.0
  0
ARC
  5
AFE
330
18
100
AcDbEntity
  8
外形線
100
AcDbCircle
 10
40.61197234094231
 20
63.62580635254068
 30
0.0
 40
1.0
100
AcDbArc
 50
36.86989764584362
 51
323.1301023541561
  0
LINE
  5
AFF
330
18
100
AcDbEntity
  8
外形線
100
AcDbLine
 10
41.41197234094232
 20
64.22580635254067
 30
0.0
 11
41.41197234094232
 21
63.02580635254068
 31
0.0
  0
LINE
  5
B00
330
18
100
AcDbEntity
  8
外形線
100
AcDbLine
 10
61.43290510033927
 20
61.62580635254065
 30
0.0
 11
61.43290510033903
 21
65.62580635254068
 31
0.0
  0
LINE
  5
B01
330
18
100
AcDbEntity
  8
外形線
100
AcDbLine
 10
61.43290510033904
 20
61.62580635254065
 30
0.0
 11
65.61197234094231
 21
61.62580635254065
 31
0.0
  0
LINE
  5
B02
330
18
100
AcDbEntity
  8
外形線
100
AcDbLine
 10
61.43290510033904
 20
65.62580635254068
 30
0.0
 11
65.61197234094231
 21
65.62580635254068
 31
0.0
  0
LINE
  5
B03
330
18
100
AcDbEntity
  8
中心線
 48
0.2
100
AcDbLine
 10
40.61197234094231
 20
67.59097301491332
 30
0.0
 11
40.61197234094231
 21
59.88396992192349
 31
0.0
  0
LINE
  5
B04
330
18
100
AcDbEntity
  8
外形線
100
AcDbLine
 10
65.61197234094231
 20
65.82580635254068
 30
0.0
 11
65.61197234094231
 21
61.42580635254067
 31
0.0
  0
LINE
  5
B05
330
18
100
AcDbEntity
  8
外形線
100
AcDbLine
 10
65.61197234094231
 20
65.82580635254068
 30
0.0
 11
67.11197234094233
 21
65.82580635254069
 31
0.0
  0
LINE
  5
B06
330
18
100
AcDbEntity
  8
外形線
100
AcDbLine
 10
65.61197234094231
 20
61.42580635254068
 30
0.0
 11
67.11197234094233
 21
61.42580635254068
 31
0.0
  0
LINE
  5
B07
330
18
100
AcDbEntity
  8
外形線
100
AcDbLine
 10
65.61197234094231
 20
66.12580635254068
 30
0.0
 11
67.11197234094233
 21
66.12580635254068
 31
0.0
  0
LINE
  5
B08
330
18
100
AcDbEntity
  8
外形線
100
AcDbLine
 10
65.61197234094231
 20
61.12580635254069
 30
0.0
 11
67.11197234094233
 21
61.12580635254069
 31
0.0
  0
LINE
  5
B09
330
18
100
AcDbEntity
  8
外形線
100
AcDbLine
 10
65.61197234094231
 20
67.62580635254067
 30
0.0
 11
67.11197234094233
 21
67.62580635254067
 31
0.0
  0
LINE
  5
B0A
330
18
100
AcDbEntity
  8
外形線
100
AcDbLine
 10
65.61197234094231
 20
59.62580635254068
 30
0.0
 11
67.11197234094233
 21
59.62580635254068
 31
0.0
  0
LINE
  5
B0B
330
18
100
AcDbEntity
  8
外形線
100
AcDbLine
 10
65.61197234094231
 20
67.62580635254067
 30
0.0
 11
65.61197234094231
 21
66.12580635254068
 31
0.0
  0
LINE
  5
B0C
330
18
100
AcDbEntity
  8
外形線
100
AcDbLine
 10
65.61197234094231
 20
61.12580635254069
 30
0.0
 11
65.61197234094231
 21
59.62580635254068
 31
0.0
  0
LINE
  5
B10
330
18
100
AcDbEntity
  8
中心線
 48
0.3
100
AcDbLine
 10
67.41197234094231
 20
68.90597160900885
 30
0.0
 11
67.41197234094231
 21
58.30597160900885
 31
0.0
  0
LINE
  5
B11
330
18
100
AcDbEntity
  8
外形線
100
AcDbLine
 10
65.91197234094231
 20
66.12580635254068
 30
0.0
 11
65.91197234094231
 21
65.82580635254068
 31
0.0
  0
LINE
  5
B12
330
18
100
AcDbEntity
  8
外形線
100
AcDbLine
 10
65.91197234094231
 20
61.42580635254068
 30
0.0
 11
65.91197234094231
 21
61.12580635254068
 31
0.0
  0
LINE
  5
B13
330
18
100
AcDbEntity
  8
中心線
 48
0.3
100
AcDbLine
 10
67.41197234094231
 20
141.5405468295015
 30
0.0
 11
67.41197234094231
 21
130.9405468295015
 31
0.0
  0
DIMENSION
  5
B22
330
18
100
AcDbEntity
  8
寸法線
100
AcDbDimension
  2
*D5
 10
207.854825025912
 20
164.7736309229721
 30
0.0
 11
205.354825025912
 21
166.6486309229721
 31
0.0
 70
    32
 71
     5
 42
-1.0
  3
STYLE3
100
AcDbAlignedDimension
 13
202.8548250259119
 23
154.0271743898035
 33
0.0
 14
207.854825025912
 24
154.0271743898035
 34
0.0
100
AcDbRotatedDimension
1001
ACAD
1000
DSTYLE
1002
{
1070
   271
1070
     2
1002
}
  0
DIMENSION
  5
B2F
330
18
100
AcDbEntity
  8
寸法線
100
AcDbDimension
  2
*D6
 10
109.3516138226368
 20
154.5271743898035
 30
0.0
 11
107.4766138226368
 21
150.7771743898035
 31
0.0
 70
    32
 71
     5
 42
-1.0
  3
STYLE3
100
AcDbAlignedDimension
 13
117.462243222573
 23
147.0271743898035
 33
0.0
 14
109.3516138226368
 24
154.5271743898035
 34
0.0
 50
90.0
100
AcDbRotatedDimension
1001
ACAD
1000
DSTYLE
1002
{
1070
   271
1070
     2
1002
}
  0
DIMENSION
  5
B3C
330
18
100
AcDbEntity
  8
寸法線
100
AcDbDimension
  2
*D7
 10
133.1119723409423
 20
164.5710257484517
 30
0.0
 11
126.1119723409423
 21
166.4460257484517
 31
0.0
 70
    32
 71
     5
 42
-1.0
  3
STYLE3
100
AcDbAlignedDimension
 13
119.1119723409423
 23
154.5271743898035
 33
0.0
 14
133.1119723409423
 24
155.7235744999863
 34
0.0
100
AcDbRotatedDimension
1001
ACAD
1000
DSTYLE
1002
{
1070
   271
1070
     2
1002
}
  0
DIMENSION
  5
B55
330
18
100
AcDbEntity
  8
寸法線
100
AcDbDimension
  2
*D9
 10
224.6006271915576
 20
122.5271743898035
 30
0.0
 11
222.7256271915576
 21
138.5271743898035
 31
0.0
 70
    32
 71
     5
 42
-1.0
  3
STYLE3
100
AcDbAlignedDimension
 13
215.854825025912
 23
154.5271743898035
 33
0.0
 14
215.854825025912
 24
122.5271743898035
 34
0.0
 50
90.0
100
AcDbRotatedDimension
1001
ACAD
1000
DSTYLE
1002
{
1070
   271
1070
     2
1002
}
  0
DIMENSION
  5
B66
330
18
100
AcDbEntity
  8
寸法線
100
AcDbDimension
  2
*D10
 10
224.6006271915576
 20
120.8771743898035
 30
0.0
 11
229.9131271915576
 21
123.3584243898035
 31
0.0
 70
    32
 71
     5
 42
-1.0
  3
STYLE3
100
AcDbAlignedDimension
 13
215.854825025912
 23
122.5271743898035
 33
0.0
 14
208.354825025912
 24
120.8771743898035
 34
0.0
 50
90.0
100
AcDbRotatedDimension
1001
ACAD
1000
DSTYLE
1002
{
1070
    75
1070
     1
1070
   271
1070
     2
1070
   279
1070
     1
1002
}
  0
DIMENSION
  5
B73
330
18
100
AcDbEntity
  8
寸法線
100
AcDbDimension
  2
*D11
 10
235.6552400178884
 20
120.8771743898035
 30
0.0
 11
233.7802400178883
 21
137.7021743898034
 31
0.0
 70
    32
 71
     5
 42
-1.0
  3
STYLE3
100
AcDbAlignedDimension
 13
225.8506271915576
 23
154.5271743898035
 33
0.0
 14
225.8506271915576
 24
120.8771743898035
 34
0.0
 50
90.0
100
AcDbRotatedDimension
1001
ACAD
1000
DSTYLE
1002
{
1070
   271
1070
     2
1002
}
  0
LINE
  5
B83
330
18
100
AcDbEntity
  8
0
  6
ByBlock
 62
     2
100
AcDbLine
 10
202.3548250259119
 20
120.8771743898035
 30
0.0
 11
201.6736492470063
 21
110.13030987076
 31
0.0
  0
LINE
  5
B84
330
18
100
AcDbEntity
  8
0
  6
ByBlock
 62
     2
100
AcDbLine
 10
208.354825025912
 20
120.8771743898035
 30
0.0
 11
207.6736492470063
 21
110.13030987076
 31
0.0
  0
LINE
  5
B85
330
18
100
AcDbEntity
  8
0
  6
ByBlock
 62
     2
100
AcDbLine
 10
199.1736492470063
 20
111.38030987076
 30
0.0
 11
196.6736492470063
 21
111.38030987076
 31
0.0
  0
LINE
  5
B86
330
18
100
AcDbEntity
  8
0
  6
ByBlock
 62
     2
100
AcDbLine
 10
210.1736492470063
 20
111.38030987076
 30
0.0
 11
212.6736492470063
 21
111.38030987076
 31
0.0
  0
LINE
  5
B87
330
18
100
AcDbEntity
  8
0
  6
ByBlock
 62
     2
100
AcDbLine
 10
201.6736492470063
 20
111.38030987076
 30
0.0
 11
207.6736492470063
 21
111.38030987076
 31
0.0
  0
INSERT
  5
B88
330
18
100
AcDbEntity
  8
0
  6
ByBlock
 62
     2
100
AcDbBlockReference
  2
_OPEN
 10
201.6736492470063
 20
111.38030987076
 30
0.0
 41
2.5
 42
2.5
 43
2.5
  0
INSERT
  5
B89
330
18
100
AcDbEntity
  8
0
  6
ByBlock
 62
     2
100
AcDbBlockReference
  2
_OPEN
 10
207.6736492470063
 20
111.38030987076
 30
0.0
 41
2.5
 42
2.5
 43
2.5
 50
180.0
  0
MTEXT
  5
B8A
330
18
100
AcDbEntity
  8
0
  6
ByBlock
 62
     6
100
AcDbMText
 10
204.6736492470063
 20
113.25530987076
 30
0.0
 40
2.5
 41
0.0
 71
     5
 72
     1
  1
\A1;6
  7
STYLE3
 73
     1
 44
1.0
  0
POINT
  5
B8B
330
18
100
AcDbEntity
  8
DEFPOINTS
  6
ByBlock
 62
     0
100
AcDbPoint
 10
202.3548250259119
 20
120.8771743898035
 30
0.0
  0
POINT
  5
B8C
330
18
100
AcDbEntity
  8
DEFPOINTS
  6
ByBlock
 62
     0
100
AcDbPoint
 10
208.354825025912
 20
120.8771743898035
 30
0.0
  0
POINT
  5
B8D
330
18
100
AcDbEntity
  8
DEFPOINTS
  6
ByBlock
 62
     0
100
AcDbPoint
 10
207.6736492470063
 20
111.38030987076
 30
0.0
  0
DIMENSION
  5
B9C
330
18
100
AcDbEntity
  8
寸法線
100
AcDbDimension
  2
*D12
 10
208.354825025912
 20
120.8771743898035
 30
0.0
 11
205.3548250259119
 21
105.721420094849
 31
0.0
 70
    34
 71
     5
 42
-1.0
  3
STYLE3
100
AcDb2LineAngularDimension
 13
203.3074529700748
 23
122.5271743898034
 33
0.0
 14
202.3548250259119
 24
120.8771743898035
 34
0.0
 15
207.4021970817491
 25
122.5271743898035
 35
0.0
 16
201.4951631792172
 26
104.1840967514784
 36
0.0
1001
ACAD
1000
DSTYLE
1002
{
1070
    79
1070
     2
1070
   179
1070
     2
1070
   271
1070
     2
1002
}
  0
DIMENSION
  5
BB2
330
18
100
AcDbEntity
  8
寸法線
100
AcDbDimension
  2
*D13
 10
215.8548250259119
 20
170.5615541178032
 30
0.0
 11
205.3548250259119
 21
172.4365541178032
 31
0.0
 70
    32
 71
     5
 42
-1.0
  3
STYLE3
100
AcDbAlignedDimension
 13
194.8548250259119
 23
154.5271743898035
 33
0.0
 14
215.8548250259119
 24
154.5271743898035
 34
0.0
100
AcDbRotatedDimension
1001
ACAD
1000
DSTYLE
1002
{
1070
   271
1070
     2
1002
}
  0
DIMENSION
  5
BBF
330
18
100
AcDbEntity
  8
寸法線
100
AcDbDimension
  2
*D14
 10
31.99268724095157
 20
63.62580635254068
 30
0.0
 11
30.11768724095157
 21
58.37580635254068
 31
0.0
 12
0.0
 22
3.682253822244092
 32
0.0
 70
    32
 71
     5
 42
-1.0
  3
STYLE3
100
AcDbAlignedDimension
 13
69.61197234094232
 23
53.12580635254067
 33
0.0
 14
37.20548190792874
 24
63.62580635254068
 34
0.0
 50
90.0
100
AcDbRotatedDimension
1001
ACAD
1000
DSTYLE
1002
{
1070
   271
1070
     2
1002
}
  0
DIMENSION
  5
BCC
330
18
100
AcDbEntity
  8
寸法線
100
AcDbDimension
  2
*D15
 10
79.31197234094234
 20
46.48456545251934
 30
0.0
 11
99.21197234094234
 21
48.35956545251935
 31
0.0
 12
0.0
 22
3.682253822244092
 32
0.0
 70
    32
 71
     5
 42
-1.0
  3
STYLE3
100
AcDbAlignedDimension
 13
119.1119723409423
 23
53.12580635254066
 33
0.0
 14
79.31197234094234
 24
60.62580635254067
 34
0.0
100
AcDbRotatedDimension
1001
ACAD
1000
DSTYLE
1002
{
1070
   271
1070
     2
1002
}
  0
LINE
  5
BCD
330
18
100
AcDbEntity
  8
中心線
 48
0.3
100
AcDbLine
 10
37.20548119298133
 20
138.5271743898035
 30
0.0
 11
46.16388082342689
 21
138.5271743898035
 31
0.0
  0
ARC
  5
BCF
330
18
100
AcDbEntity
  8
想像線
100
AcDbCircle
 10
40.61197234094231
 20
138.5271743898035
 30
0.0
 40
1.0
100
AcDbArc
 50
36.86989764584362
 51
323.1301023541561
  0
LINE
  5
BD0
330
18
100
AcDbEntity
  8
想像線
100
AcDbLine
 10
41.41197234094232
 20
139.1271743898035
 30
0.0
 11
41.41197234094232
 21
137.9271743898035
 31
0.0
  0
LINE
  5
BD1
330
18
100
AcDbEntity
  8
想像線
100
AcDbLine
 10
41.41197234094232
 20
137.9271743898035
 30
0.0
 11
44.39680095986794
 21
137.7184548402843
 31
0.0
  0
LINE
  5
BD2
330
18
100
AcDbEntity
  8
想像線
 48
0.1
100
AcDbLine
 10
41.41197234094232
 20
139.1271743898035
 30
0.0
 11
44.79723463838687
 21
139.3638949898564
 31
0.0
  0
LINE
  5
BD4
330
18
100
AcDbEntity
  8
中心線
100
AcDbLine
 10
67.41197234094231
 20
136.0271743898035
 30
0.0
 11
49.69840643711415
 21
161.3247682276508
 31
0.0
  0
LINE
  5
BD5
330
18
100
AcDbEntity
  8
中心線
100
AcDbLine
 10
67.41197234094231
 20
136.0271743898035
 30
0.0
 11
49.69840643711414
 21
110.7295805519562
 31
0.0
  0
ARC
  5
BE3
330
18
100
AcDbEntity
  8
中心線
100
AcDbCircle
 10
67.41197234094231
 20
136.0271743898035
 30
0.0
 40
26.8
100
AcDbArc
 50
109.6910243681994
 51
250.6215083810943
  0
LINE
  5
BE6
330
18
100
AcDbEntity
  8
想像線
 48
0.5
100
AcDbLine
 10
52.00749376924172
 20
115.0733671001003
 30
0.0
 11
60.30404099457207
 21
128.8811404215698
 31
0.0
  0
LINE
  5
BE7
330
18
100
AcDbEntity
  8
想像線
 48
0.5
100
AcDbLine
 10
52.9904762223885
 20
114.3850753764791
 30
0.0
 11
63.1279526509422
 21
126.9038161925411
 31
0.0
  0
ARC
  5
BE8
330
18
100
AcDbEntity
  8
想像線
 48
0.5
100
AcDbCircle
 10
52.04012384673428
 20
114.0738996028585
 30
0.0
 40
1.0
100
AcDbArc
 50
91.86989764584364
 51
18.1301023541561
  0
LINE
  5
BE9
330
18
100
AcDbEntity
  8
想像線
 48
0.5
100
AcDbLine
 10
52.00749376924172
 20
115.0733671001003
 30
0.0
 11
52.9904762223885
 21
114.3850753764791
 31
0.0
  0
LINE
  5
BEF
330
18
100
AcDbEntity
  8
想像線
 48
0.5
100
AcDbLine
 10
52.00749376924172
 20
156.9809816795066
 30
0.0
 11
60.30404099457206
 21
143.1732083580372
 31
0.0
  0
LINE
  5
BF0
330
18
100
AcDbEntity
  8
想像線
 48
0.5
100
AcDbLine
 10
52.9904762223885
 20
157.6692734031279
 30
0.0
 11
63.12795265094219
 21
145.1505325870658
 31
0.0
  0
ARC
  5
BF1
330
18
100
AcDbEntity
  8
想像線
 48
0.5
100
AcDbCircle
 10
52.04012384673428
 20
157.9804491767485
 30
0.0
 40
1.0
100
AcDbArc
 50
341.8698976458439
 51
268.1301023541564
  0
LINE
  5
BF2
330
18
100
AcDbEntity
  8
想像線
 48
0.5
100
AcDbLine
 10
52.00749376924172
 20
156.9809816795066
 30
0.0
 11
52.9904762223885
 21
157.6692734031279
 31
0.0
  0
LINE
  5
C04
330
18
100
AcDbEntity
  8
0
  6
ByBlock
 62
     2
100
AcDbLine
 10
37.95726913072997
 20
136.0271743898035
 30
0.0
 11
32.66048720347715
 21
136.0271743898035
 31
0.0
  0
LINE
  5
C05
330
18
100
AcDbEntity
  8
0
  6
ByBlock
 62
     2
100
AcDbLine
 10
37.20548119298133
 20
138.5271743898035
 30
0.0
 11
32.66048720347715
 21
138.5271743898035
 31
0.0
  0
LINE
  5
C06
330
18
100
AcDbEntity
  8
0
  6
ByBlock
 62
     2
100
AcDbLine
 10
33.91048720347715
 20
133.5271743898035
 30
0.0
 11
33.91048720347715
 21
131.0271743898035
 31
0.0
  0
LINE
  5
C07
330
18
100
AcDbEntity
  8
0
  6
ByBlock
 62
     2
100
AcDbLine
 10
33.91048720347715
 20
141.0271743898035
 30
0.0
 11
33.91048720347715
 21
150.0152696278987
 31
0.0
  0
LINE
  5
C08
330
18
100
AcDbEntity
  8
0
  6
ByBlock
 62
     2
100
AcDbLine
 10
33.91048720347715
 20
136.0271743898035
 30
0.0
 11
33.91048720347715
 21
138.5271743898035
 31
0.0
  0
INSERT
  5
C09
330
18
100
AcDbEntity
  8
0
  6
ByBlock
 62
     2
100
AcDbBlockReference
  2
_OPEN
 10
33.91048720347715
 20
136.0271743898035
 30
0.0
 41
2.5
 42
2.5
 43
2.5
 50
90.0
  0
INSERT
  5
C0A
330
18
100
AcDbEntity
  8
0
  6
ByBlock
 62
     2
100
AcDbBlockReference
  2
_OPEN
 10
33.91048720347715
 20
138.5271743898035
 30
0.0
 41
2.5
 42
2.5
 43
2.5
 50
270.0
  0
MTEXT
  5
C0B
330
18
100
AcDbEntity
  8
0
  6
ByBlock
 62
     6
100
AcDbMText
 10
32.03548720347715
 20
146.7712220088511
 30
0.0
 40
2.5
 41
0.0
 71
     5
 72
     1
  1
\A1;2.5
  7
STYLE3
 11
0.0000000000000001
 21
1.0
 31
0.0
 73
     1
 44
1.0
  0
POINT
  5
C0C
330
18
100
AcDbEntity
  8
DEFPOINTS
  6
ByBlock
 62
     0
100
AcDbPoint
 10
37.95726913072997
 20
136.0271743898035
 30
0.0
  0
POINT
  5
C0D
330
18
100
AcDbEntity
  8
DEFPOINTS
  6
ByBlock
 62
     0
100
AcDbPoint
 10
37.20548119298133
 20
138.5271743898035
 30
0.0
  0
POINT
  5
C0E
330
18
100
AcDbEntity
  8
DEFPOINTS
  6
ByBlock
 62
     0
100
AcDbPoint
 10
33.91048720347715
 20
138.5271743898035
 30
0.0
  0
DIMENSION
  5
C1D
330
18
100
AcDbEntity
  8
寸法線
100
AcDbDimension
  2
*D18
 10
49.69840643711416
 20
161.3247682276508
 30
0.0
 11
28.39797910073204
 21
156.3365737811055
 31
0.0
 70
    34
 71
     5
 42
-1.0
  3
STYLE3
100
AcDb2LineAngularDimension
 13
37.95726913072997
 23
136.0271743898035
 33
0.0
 14
32.66048720347715
 24
136.0271743898035
 34
0.0
 15
67.41197234094231
 25
136.0271743898035
 35
0.0
 16
33.63563019101883
 26
161.1727294532878
 36
0.0
1001
ACAD
1000
DSTYLE
1002
{
1070
    79
1070
     2
1070
   179
1070
     2
1070
   271
1070
     2
1002
}
  0
LINE
  5
C2D
330
18
100
AcDbEntity
  8
0
  6
ByBlock
 62
     2
100
AcDbLine
 10
37.95726913072998
 20
136.0271743898035
 30
0.0
 11
24.08680873733871
 21
136.0271743898035
 31
0.0
  0
LINE
  5
C2E
330
18
100
AcDbEntity
  8
0
  6
ByBlock
 62
     2
100
AcDbLine
 10
49.69840643711414
 20
110.7295805519562
 30
0.0
 11
42.56167939686128
 21
100.5372780547566
 31
0.0
  0
ARC
  5
C2F
330
18
100
AcDbEntity
  8
0
  6
ByBlock
 62
     2
100
AcDbCircle
 10
67.41197234094229
 20
136.0271743898035
 30
0.0
 40
42.07516360360357
100
AcDbArc
 50
183.4048715590418
 51
231.595128440958
  0
INSERT
  5
C30
330
18
100
AcDbEntity
  8
0
  6
ByBlock
 62
     2
100
AcDbBlockReference
  2
_OPEN
 10
25.33680873733872
 20
136.0271743898035
 30
0.0
 41
2.5
 42
2.5
 43
2.5
 50
91.7024357795209
  0
INSERT
  5
C31
330
18
100
AcDbEntity
  8
0
  6
ByBlock
 62
     2
100
AcDbBlockReference
  2
_OPEN
 10
43.27864994230009
 20
101.5612181101178
 30
0.0
 41
2.5
 42
2.5
 43
2.5
 50
323.297564220479
  0
MTEXT
  5
C32
330
18
100
AcDbEntity
  8
0
  6
ByBlock
 62
     6
100
AcDbMText
 10
26.92135392845977
 20
118.3656468039428
 30
0.0
 40
2.5
 41
0.0
 71
     5
 72
     1
  1
\A1;55°
  7
STYLE3
 11
-0.4617486132350342
 21
0.8870108331782216
 31
0.0
 73
     1
 44
1.0
  0
POINT
  5
C33
330
18
100
AcDbEntity
  8
DEFPOINTS
  6
ByBlock
 62
     0
100
AcDbPoint
 10
27.47243281308973
 20
122.7926523140688
 30
0.0
  0
POINT
  5
C34
330
18
100
AcDbEntity
  8
DEFPOINTS
  6
ByBlock
 62
     0
100
AcDbPoint
 10
67.41197234094231
 20
136.0271743898035
 30
0.0
  0
POINT
  5
C35
330
18
100
AcDbEntity
  8
DEFPOINTS
  6
ByBlock
 62
     0
100
AcDbPoint
 10
37.95726913072998
 20
136.0271743898035
 30
0.0
  0
POINT
  5
C36
330
18
100
AcDbEntity
  8
DEFPOINTS
  6
ByBlock
 62
     0
100
AcDbPoint
 10
122.9029013225043
 20
136.0271743898035
 30
0.0
  0
POINT
  5
C37
330
18
100
AcDbEntity
  8
DEFPOINTS
  6
ByBlock
 62
     0
100
AcDbPoint
 10
49.69840643711414
 20
110.7295805519562
 30
0.0
  0
DIMENSION
  5
C46
330
18
100
AcDbEntity
  8
寸法線
100
AcDbDimension
  2
*D20
 10
65.61197234094231
 20
106.8486007538587
 30
0.0
 11
53.11197234094231
 21
108.7236007538587
 31
0.0
 70
    32
 71
     5
 42
-1.0
  3
STYLE3
100
AcDbAlignedDimension
 13
40.61197234094231
 23
130.7073396462717
 33
0.0
 14
65.61197234094231
 24
129.9271743898035
 34
0.0
100
AcDbRotatedDimension
1001
ACAD
1000
DSTYLE
1002
{
1070
   271
1070
     2
1002
}
  0
DIMENSION
  5
C57
330
18
100
AcDbEntity
  8
寸法線
100
AcDbDimension
  2
*D21
 10
71.11197234094231
 20
106.8486007538587
 30
0.0
 11
70.01822234094231
 21
101.5361007538587
 31
0.0
 70
    32
 71
     5
 42
-1.0
  3
STYLE3
100
AcDbAlignedDimension
 13
65.61197234094231
 23
129.9271743898035
 33
0.0
 14
71.11197234094231
 24
122.5271743898035
 34
0.0
100
AcDbRotatedDimension
1001
ACAD
1000
DSTYLE
1002
{
1070
    75
1070
     1
1070
   271
1070
     2
1070
   279
1070
     1
1002
}
  0
DIMENSION
  5
C6F
330
18
100
AcDbEntity
  8
寸法線
100
AcDbDimension
  2
*D23
 10
140.1119723409423
 20
106.8486007538587
 30
0.0
 11
129.6119723409423
 21
108.7236007538587
 31
0.0
 70
    32
 71
     5
 42
-1.0
  3
STYLE3
100
AcDbAlignedDimension
 13
119.1119723409423
 23
122.5271743898035
 33
0.0
 14
140.1119723409423
 24
147.0271743898035
 34
0.0
100
AcDbRotatedDimension
1001
ACAD
1000
DSTYLE
1002
{
1070
    75
1070
     1
1070
   271
1070
     2
1070
   279
1070
     1
1002
}
  0
DIMENSION
  5
C7C
330
18
100
AcDbEntity
  8
寸法線
100
AcDbDimension
  2
*D24
 10
140.1119723409423
 20
97.63278243334605
 30
0.0
 11
90.36197234094231
 21
99.50778243334605
 31
0.0
 70
    32
 71
     5
 42
-1.0
  3
STYLE3
100
AcDbAlignedDimension
 13
40.61197234094231
 23
105.5986007538587
 33
0.0
 14
140.1119723409423
 24
105.5986007538587
 34
0.0
100
AcDbRotatedDimension
1001
ACAD
1000
DSTYLE
1002
{
1070
   271
1070
     2
1002
}
  0
LINE
  5
C7F
330
18
100
AcDbEntity
  8
0
  6
ByBlock
 62
     2
100
AcDbLine
 10
119.1119723409423
 20
122.5271743898035
 30
0.0
 11
119.1119723409423
 21
105.5986007538587
 31
0.0
  0
LINE
  5
C80
330
18
100
AcDbEntity
  8
0
  6
ByBlock
 62
     2
100
AcDbLine
 10
73.61197234094231
 20
106.8486007538587
 30
0.0
 11
116.6119723409423
 21
106.8486007538587
 31
0.0
  0
INSERT
  5
C81
330
18
100
AcDbEntity
  8
0
  6
ByBlock
 62
     2
100
AcDbBlockReference
  2
_OPEN
 10
71.11197234094231
 20
106.8486007538587
 30
0.0
 41
2.5
 42
2.5
 43
2.5
 50
180.0
  0
INSERT
  5
C82
330
18
100
AcDbEntity
  8
0
  6
ByBlock
 62
     2
100
AcDbBlockReference
  2
_OPEN
 10
119.1119723409423
 20
106.8486007538587
 30
0.0
 41
2.5
 42
2.5
 43
2.5
  0
MTEXT
  5
C83
330
18
100
AcDbEntity
  8
0
  6
ByBlock
 62
     6
100
AcDbMText
 10
95.11197234094231
 20
108.7236007538587
 30
0.0
 40
2.5
 41
0.0
 71
     5
 72
     1
  1
\A1;48
  7
STYLE3
 73
     1
 44
1.0
  0
POINT
  5
C84
330
18
100
AcDbEntity
  8
DEFPOINTS
  6
ByBlock
 62
     0
100
AcDbPoint
 10
71.11197234094231
 20
122.5271743898035
 30
0.0
  0
POINT
  5
C85
330
18
100
AcDbEntity
  8
DEFPOINTS
  6
ByBlock
 62
     0
100
AcDbPoint
 10
119.1119723409423
 20
122.5271743898035
 30
0.0
  0
POINT
  5
C86
330
18
100
AcDbEntity
  8
DEFPOINTS
  6
ByBlock
 62
     0
100
AcDbPoint
 10
119.1119723409423
 20
106.8486007538587
 30
0.0
  0
POINT
  5
C9A
330
18
100
AcDbEntity
  8
DEFPOINTS
  6
ByBlock
 62
     0
100
AcDbPoint
 10
40.08634749334244
 20
64.47652282680552
 30
0.0
  0
POINT
  5
C9B
330
18
100
AcDbEntity
  8
DEFPOINTS
  6
ByBlock
 62
     0
100
AcDbPoint
 10
41.13759718854218
 20
62.77508987827584
 30
0.0
  0
LINE
  5
C9D
330
18
100
AcDbEntity
  8
0
  6
ByBlock
 62
     2
100
AcDbLine
 10
144.8267936067864
 20
164.4816902138057
 30
0.0
 11
136.3163441802724
 21
151.8015331022703
 31
0.0
  0
LINE
  5
C9E
330
18
100
AcDbEntity
  8
0
  6
ByBlock
 62
     2
100
AcDbLine
 10
129.9076005016122
 20
142.2528156773366
 30
0.0
 11
128.5143953540774
 21
140.1770075414815
 31
0.0
  0
LINE
  5
CA0
330
18
100
AcDbEntity
  8
0
  6
ByBlock
 62
     2
100
AcDbLine
 10
131.3008056491471
 20
144.3286238131918
 30
0.0
 11
134.9231390327376
 21
149.7257249664152
 31
0.0
  0
INSERT
  5
CA1
330
18
100
AcDbEntity
  8
0
  6
ByBlock
 62
     2
100
AcDbBlockReference
  2
_OPEN
 10
131.3008056491471
 20
144.3286238131918
 30
0.0
 41
2.5
 42
2.5
 43
2.5
 50
56.13195836916516
  0
INSERT
  5
CA2
330
18
100
AcDbEntity
  8
0
  6
ByBlock
 62
     2
100
AcDbBlockReference
  2
_OPEN
 10
134.9231390327376
 20
149.7257249664152
 30
0.0
 41
2.5
 42
2.5
 43
2.5
 50
236.1319583691652
  0
POINT
  5
CA3
330
18
100
AcDbEntity
  8
DEFPOINTS
  6
ByBlock
 62
     0
100
AcDbPoint
 10
134.9231390327376
 20
149.7257249664152
 30
0.0
  0
POINT
  5
CA4
330
18
100
AcDbEntity
  8
DEFPOINTS
  6
ByBlock
 62
     0
100
AcDbPoint
 10
131.3008056491471
 20
144.3286238131918
 30
0.0
  0
MTEXT
  5
CA5
330
18
100
AcDbEntity
  8
0
  6
ByBlock
 62
     6
100
AcDbMText
 10
148.786022080605
 20
166.0682938666781
 30
0.0
 40
2.499999999999999
 41
0.0
 71
     5
 72
     1
  1
φ6.5
  7
STYLE3
 73
     1
 44
1.0
  0
LINE
  5
CA6
330
18
100
AcDbEntity
  8
寸法線
100
AcDbLine
 10
144.8267936067864
 20
164.4816902138057
 30
0.0
 11
154.2112880004339
 21
164.4816902138057
 31
0.0
  0
DIMENSION
  5
CD9
330
18
100
AcDbEntity
  8
寸法線
100
AcDbDimension
  2
*D26
 10
33.91048720347715
 20
136.0271743898035
 30
0.0
 11
32.03548720347715
 21
129.2771743898035
 31
0.0
 70
    32
 71
     5
 42
-1.0
  3
STYLE3
100
AcDbAlignedDimension
 13
71.11197234094231
 23
122.5271743898035
 33
0.0
 14
35.59673786245458
 24
136.0271743898035
 34
0.0
 50
90.0
100
AcDbRotatedDimension
1001
ACAD
1000
DSTYLE
1002
{
1070
   271
1070
     2
1002
}
  0
TEXT
  5
D37
330
18
100
AcDbEntity
  8
文字
100
AcDbText
 10
85.04306580781722
 20
185.4151699933791
 30
0.0
 40
4.0
  1
Model No.DL-2S Linear Gauge
  7
STYLE3
100
AcDbText
  0
LINE
  5
D38
330
18
100
AcDbEntity
  8
外形線
100
AcDbLine
 10
84.79691280781723
 20
182.4420799933791
 30
0.0
 11
174.7969128078172
 21
182.4420799933791
 31
0.0
  0
LINE
  5
D39
330
18
100
AcDbEntity
  8
外形線
100
AcDbLine
 10
84.79691280781723
 20
183.4420799933791
 30
0.0
 11
174.7969128078172
 21
183.4420799933791
 31
0.0
  0
LINE
  5
D3B
330
18
100
AcDbEntity
  8
外形線
100
AcDbLine
 10
113.4374838078172
 20
21.05153199337912
 30
0.0
 11
254.2289018078172
 21
21.05153199337912
 31
0.0
  0
LINE
  5
D3C
330
18
100
AcDbEntity
  8
外形線
100
AcDbLine
 10
113.4374838078172
 20
10.27132599337912
 30
0.0
 11
254.2289018078172
 21
10.27132599337912
 31
0.0
  0
TEXT
  5
D3D
330
18
100
AcDbEntity
  8
0
  6
Continuous
100
AcDbText
 10
114.8949508078172
 20
12.16931599337912
 30
0.0
 40
2.1
  1
Design and specifications are subject to change without notice for future improvement.
  7
STYLE3
100
AcDbText
  0
TEXT
  5
D3E
330
18
100
AcDbEntity
  8
0
  6
Continuous
100
AcDbText
 10
115.1864448078172
 20
16.09846399337913
 30
0.0
 40
3.5
  1
仕様及び外観は予告なく変更される場合がございますのでご了承下さい。
  7
STYLE3
100
AcDbText
  0
TEXT
  5
D3F
330
18
100
AcDbEntity
  8
0
  6
Continuous
100
AcDbText
 10
114.6034598078172
 20
2.404687993379124
 30
0.0
 40
2.1
  1
3RD Angle Projection
  7
STYLE3
100
AcDbText
  0
TEXT
  5
D40
330
18
100
AcDbEntity
  8
0
  6
Continuous
100
AcDbText
 10
117.2269028078172
 20
5.900970993379124
 30
0.0
 40
3.0
  1
三　　角　　法
  7
STYLE3
100
AcDbText
  0
LINE
  5
D41
330
18
100
AcDbEntity
  8
外形線
100
AcDbLine
 10
113.4374838078172
 20
0.6565479933791247
 30
0.0
 11
113.4374838078172
 21
21.05153199337912
 31
0.0
  0
LINE
  5
D42
330
18
100
AcDbEntity
  8
外形線
100
AcDbLine
 10
215.4602508078172
 20
10.27132599337912
 30
0.0
 11
215.4602508078172
 21
0.6565479933791247
 31
0.0
  0
LINE
  5
D43
330
18
100
AcDbEntity
  8
外形線
100
AcDbLine
 10
185.7279008078172
 20
10.27132599337912
 30
0.0
 11
185.7279008078172
 21
0.6565479933791247
 31
0.0
  0
LINE
  5
D44
330
18
100
AcDbEntity
  8
外形線
100
AcDbLine
 10
166.1978288078172
 20
10.27132599337912
 30
0.0
 11
166.1978288078172
 21
0.6565479933791247
 31
0.0
  0
LINE
  5
D45
330
18
100
AcDbEntity
  8
外形線
100
AcDbLine
 10
148.7082118078172
 20
10.27132599337912
 30
0.0
 11
148.7082118078172
 21
0.6565479933791247
 31
0.0
  0
TEXT
  5
D46
330
18
100
AcDbEntity
  8
0
  6
Continuous
100
AcDbText
 10
150.1656808078172
 20
5.906925993379124
 30
0.0
 40
3.0
  1
単位
  7
STYLE3
100
AcDbText
  0
TEXT
  5
D47
330
18
100
AcDbEntity
  8
0
  6
Continuous
100
AcDbText
 10
150.3374018078172
 20
2.404688993379124
 30
0.0
 40
2.1
  1
Unit
  7
STYLE3
100
AcDbText
  0
TEXT
  5
D48
330
18
100
AcDbEntity
  8
0
  6
Continuous
100
AcDbText
 10
167.4835768078172
 20
5.615567993379124
 30
0.0
 40
3.0
  1
尺 度
  7
STYLE3
100
AcDbText
  0
TEXT
  5
D49
330
18
100
AcDbEntity
  8
0
  6
Continuous
100
AcDbText
 10
158.2077288078172
 20
4.152831993379124
 30
0.0
 40
2.399999999999999
  1
mm
  7
STYLE3
100
AcDbText
  0
TEXT
  5
D4A
330
18
100
AcDbEntity
  8
0
  6
Continuous
100
AcDbText
 10
167.9467918078172
 20
2.696045993379124
 30
0.0
 40
2.1
  1
Scale
  7
STYLE3
100
AcDbText
  0
TEXT
  5
D4B
330
18
100
AcDbEntity
  8
0
  6
Continuous
100
AcDbText
 10
177.5660808078172
 20
4.444188993379125
 30
0.0
 40
2.399999999999999
  1
1/1
  7
STYLE3
100
AcDbText
  0
TEXT
  5
D4C
330
18
100
AcDbEntity
  8
0
  6
Continuous
100
AcDbText
 10
187.6598518078172
 20
2.404689993379124
 30
0.0
 40
2.1
  1
Date
  7
STYLE3
100
AcDbText
  0
TEXT
  5
D4D
330
18
100
AcDbEntity
  8
0
  6
Continuous
100
AcDbText
 10
187.2764908078172
 20
5.737772993379124
 30
0.0
 40
3.0
  1
日 付
  7
STYLE3
100
AcDbText
  0
TEXT
  5
D4E
330
18
100
AcDbEntity
  8
0
  6
Continuous
100
AcDbText
 10
196.4046598078172
 20
4.152830993379124
 30
0.0
 40
2.1
  1
2010.06.30
  7
STYLE3
100
AcDbText
  0
TEXT
  5
D4F
330
18
100
AcDbEntity
  8
0
  6
Continuous
100
AcDbText
 10
216.8092138078172
 20
6.192327993379124
 30
0.0
 40
3.0
  1
株式会社　尾崎製作所
  7
STYLE3
100
AcDbText
  0
TEXT
  5
D50
330
18
100
AcDbEntity
  8
0
  6
Continuous
100
AcDbText
 10
217.6836928078172
 20
2.404688993379124
 30
0.0
 40
2.1
  1
OZAKI MFG. CO., LTD.
  7
STYLE3
100
AcDbText
  0
VIEWPORT
  5
177
330
15
100
AcDbEntity
 67
     1
  8
0
100
AcDbViewport
 10
127.5041203589828
 20
97.49391214526822
 30
0.0
 40
418.3086347473814
 41
243.0346063651093
 68
     1
 69
     1
 12
127.5041203589828
 22
97.49391214526822
 13
0.0
 23
0.0
 14
10.0
 24
10.0
 15
10.0
 25
10.0
 16
0.0
 26
0.0
 36
1.0
 17
0.0
 27
0.0
 37
0.0
 42
50.0
 43
0.0
 44
0.0
 45
243.0346063651093
 50
0.0
 51
0.0
 72
   100
 90
    32800
  1

281
     0
 71
     1
 74
     0
110
0.0
120
0.0
130
0.0
111
1.0
121
0.0
131
0.0
112
0.0
122
1.0
132
0.0
 79
     0
146
0.0
170
     0
  0
ENDSEC
  0
SECTION
  2
OBJECTS
  0
DICTIONARY
  5
C
330
0
100
AcDbDictionary
281
     1
  3
ACAD_COLOR
350
CE6
  3
ACAD_GROUP
350
D
  3
ACAD_LAYOUT
350
CE7
  3
ACAD_MATERIAL
350
CE5
  3
ACAD_MLINESTYLE
350
1B
  3
ACAD_PLOTSETTINGS
350
CE8
  3
ACAD_PLOTSTYLENAME
350
CE3
  0
DICTIONARY
  5
CE6
102
{ACAD_REACTORS
330
C
102
}
330
C
100
AcDbDictionary
281
     1
  0
DICTIONARY
  5
D
102
{ACAD_REACTORS
330
C
102
}
330
C
100
AcDbDictionary
281
     1
  0
DICTIONARY
  5
CE7
102
{ACAD_REACTORS
330
C
102
}
330
C
100
AcDbDictionary
281
     1
  3
Model
350
CE9
  3
レイアウト1
350
CEA
  0
DICTIONARY
  5
CE5
102
{ACAD_REACTORS
330
C
102
}
330
C
100
AcDbDictionary
281
     1
  0
DICTIONARY
  5
1B
102
{ACAD_REACTORS
330
C
102
}
330
C
100
AcDbDictionary
281
     1
  3
STANDARD
350
1C
  0
DICTIONARY
  5
CE8
102
{ACAD_REACTORS
330
C
102
}
330
C
100
AcDbDictionary
281
     1
  0
ACDBDICTIONARYWDFLT
  5
CE3
102
{ACAD_REACTORS
330
C
102
}
330
C
100
AcDbDictionary
281
     1
  3
Normal
350
CE4
100
AcDbDictionaryWithDefault
340
CE4
  0
LAYOUT
  5
CE9
102
{ACAD_REACTORS
330
CE7
102
}
330
CE7
100
AcDbPlotSettings
  1

  2
EPSON PX-101
  4

  6

 40
0.0
 41
0.0
 42
0.0
 43
0.0
 44
0.0
 45
0.0
 46
0.0
 47
0.0
 48
0.0
 49
0.0
140
0.0
141
0.0
142
1.0
143
1.0
 70
  1712
 72
     0
 73
     0
 74
     0
  7
AutoCad LT 98fukui.ctb
 75
     0
147
1.0
 76
     0
 77
     2
 78
   300
148
0.0
149
0.0
100
AcDbLayout
  1
Model
 70
     1
 71
     0
 10
0.0
 20
0.0
 11
12.0
 21
9.0
 12
0.0
 22
0.0
 32
0.0
 14
0.0
 24
0.0
 34
0.0
 15
0.0
 25
0.0
 35
0.0
146
0.0
 13
0.0
 23
0.0
 33
0.0
 16
1.0
 26
0.0
 36
0.0
 17
0.0
 27
1.0
 37
0.0
 76
     0
330
18
  0
LAYOUT
  5
CEA
102
{ACAD_REACTORS
330
CE7
102
}
330
CE7
100
AcDbPlotSettings
  1

  2
EPSON PX-101
  4

  6

 40
0.0
 41
0.0
 42
0.0
 43
0.0
 44
0.0
 45
0.0
 46
0.0
 47
0.0
 48
0.0
 49
0.0
140
0.0
141
0.0
142
1.0
143
1.0
 70
   688
 72
     0
 73
     0
 74
     5
  7
AutoCad LT 98fukui.ctb
 75
    16
147
1.0
 76
     0
 77
     2
 78
   300
148
0.0
149
0.0
100
AcDbLayout
  1
レイアウト1
 70
     1
 71
     1
 10
0.0
 20
0.0
 11
420.0
 21
297.0
 12
0.0
 22
0.0
 32
0.0
 14
-0.2
 24
-0.2
 34
0.0
 15
255.2
 25
195.2
 35
0.0
146
0.0
 13
0.0
 23
0.0
 33
0.0
 16
1.0
 26
0.0
 36
0.0
 17
0.0
 27
1.0
 37
0.0
 76
     0
330
15
331
177
  0
MLINESTYLE
  5
1C
102
{ACAD_REACTORS
330
1B
102
}
330
1B
100
AcDbMlineStyle
  2
STANDARD
 70
     0
  3

 62
   256
 51
90.0
 52
90.0
 71
     2
 49
0.5
 62
   256
  6
BYLAYER
 49
-0.5
 62
   256
  6
BYLAYER
  0
ACDBPLACEHOLDER
  5
CE4
102
{ACAD_REACTORS
330
CE3
102
}
330
CE3
  0
ENDSEC
  0
EOF
