  0
SECTION
  2
HEADER
  9
$ACADVER
  1
AC1018
  9
$ACADMAINTVER
 70
     0
  9
$DWGCODEPAGE
  3
ANSI_932
  9
$INSBASE
 10
0.0
 20
0.0
 30
0.0
  9
$EXTMIN
 10
-0.2239845806880112
 20
2.71005318489631
 30
-0.0000000000000078
  9
$EXTMAX
 10
255.2266482140582
 20
198.1465307277935
 30
0.0000000000000074
  9
$LIMMIN
 10
0.0
 20
0.0
  9
$LIMMAX
 10
420.0
 20
297.0
  9
$ORTHOMODE
 70
     0
  9
$REGENMODE
 70
     1
  9
$FILLMODE
 70
     1
  9
$QTEXTMODE
 70
     0
  9
$MIRRTEXT
 70
     1
  9
$LTSCALE
 40
1.0
  9
$ATTMODE
 70
     1
  9
$TEXTSIZE
 40
5.0
  9
$TRACEWID
 40
1.0
  9
$TEXTSTYLE
  7
STYLE3
  9
$CLAYER
  8
寸法線
  9
$CELTYPE
  6
BYLAYER
  9
$CECOLOR
 62
   256
  9
$CELTSCALE
 40
1.0
  9
$DISPSILH
 70
     0
  9
$DIMSCALE
 40
1.0
  9
$DIMASZ
 40
2.5
  9
$DIMEXO
 40
0.0
  9
$DIMDLI
 40
3.75
  9
$DIMRND
 40
0.0
  9
$DIMDLE
 40
0.0
  9
$DIMEXE
 40
1.25
  9
$DIMTP
 40
0.0
  9
$DIMTM
 40
0.0
  9
$DIMTXT
 40
2.5
  9
$DIMCEN
 40
2.5
  9
$DIMTSZ
 40
0.0
  9
$DIMTOL
 70
     0
  9
$DIMLIM
 70
     0
  9
$DIMTIH
 70
     0
  9
$DIMTOH
 70
     0
  9
$DIMSE1
 70
     0
  9
$DIMSE2
 70
     0
  9
$DIMTAD
 70
     1
  9
$DIMZIN
 70
     8
  9
$DIMBLK
  1

  9
$DIMASO
 70
     1
  9
$DIMSHO
 70
     1
  9
$DIMPOST
  1

  9
$DIMAPOST
  1

  9
$DIMALT
 70
     0
  9
$DIMALTD
 70
     4
  9
$DIMALTF
 40
0.0394
  9
$DIMLFAC
 40
1.0
  9
$DIMTOFL
 70
     1
  9
$DIMTVP
 40
0.0
  9
$DIMTIX
 70
     0
  9
$DIMSOXD
 70
     0
  9
$DIMSAH
 70
     1
  9
$DIMBLK1
  1
OPEN
  9
$DIMBLK2
  1
OPEN
  9
$DIMSTYLE
  2
STYLE3
  9
$DIMCLRD
 70
     2
  9
$DIMCLRE
 70
     2
  9
$DIMCLRT
 70
     6
  9
$DIMTFAC
 40
1.0
  9
$DIMGAP
 40
0.625
  9
$DIMJUST
 70
     0
  9
$DIMSD1
 70
     0
  9
$DIMSD2
 70
     0
  9
$DIMTOLJ
 70
     1
  9
$DIMTZIN
 70
     0
  9
$DIMALTZ
 70
     0
  9
$DIMALTTZ
 70
     0
  9
$DIMUPT
 70
     0
  9
$DIMDEC
 70
     2
  9
$DIMTDEC
 70
     4
  9
$DIMALTU
 70
     8
  9
$DIMALTTD
 70
     4
  9
$DIMTXSTY
  7
STYLE3
  9
$DIMAUNIT
 70
     0
  9
$DIMADEC
 70
     0
  9
$DIMALTRND
 40
0.0
  9
$DIMAZIN
 70
     0
  9
$DIMDSEP
 70
    46
  9
$DIMATFIT
 70
     3
  9
$DIMFRAC
 70
     0
  9
$DIMLDRBLK
  1

  9
$DIMLUNIT
 70
     2
  9
$DIMLWD
 70
    -2
  9
$DIMLWE
 70
    -2
  9
$DIMTMOVE
 70
     0
  9
$LUNITS
 70
     2
  9
$LUPREC
 70
     4
  9
$SKETCHINC
 40
1.0
  9
$FILLETRAD
 40
0.0
  9
$AUNITS
 70
     0
  9
$AUPREC
 70
     0
  9
$MENU
  1
.
  9
$ELEVATION
 40
0.0
  9
$PELEVATION
 40
0.0
  9
$THICKNESS
 40
0.0
  9
$LIMCHECK
 70
     0
  9
$CHAMFERA
 40
0.2
  9
$CHAMFERB
 40
0.2
  9
$CHAMFERC
 40
20.0
  9
$CHAMFERD
 40
0.0
  9
$SKPOLY
 70
     0
  9
$TDCREATE
 40
2451418.542758565
  9
$TDUCREATE
 40
2451418.167758565
  9
$TDUPDATE
 40
2455379.404120544
  9
$TDUUPDATE
 40
2455379.029120544
  9
$TDINDWG
 40
1.2569467593
  9
$TDUSRTIMER
 40
1.2569467593
  9
$USRTIMER
 70
     1
  9
$ANGBASE
 50
0.0
  9
$ANGDIR
 70
     0
  9
$PDMODE
 70
     0
  9
$PDSIZE
 40
0.0
  9
$PLINEWID
 40
0.0
  9
$SPLFRAME
 70
     0
  9
$SPLINETYPE
 70
     6
  9
$SPLINESEGS
 70
     8
  9
$HANDSEED
  5
2BBD
  9
$SURFTAB1
 70
     6
  9
$SURFTAB2
 70
     6
  9
$SURFTYPE
 70
     6
  9
$SURFU
 70
     6
  9
$SURFV
 70
     6
  9
$UCSBASE
  2

  9
$UCSNAME
  2

  9
$UCSORG
 10
0.0
 20
0.0
 30
0.0
  9
$UCSXDIR
 10
1.0
 20
0.0
 30
0.0
  9
$UCSYDIR
 10
0.0
 20
1.0
 30
0.0
  9
$UCSORTHOREF
  2

  9
$UCSORTHOVIEW
 70
     0
  9
$UCSORGTOP
 10
0.0
 20
0.0
 30
0.0
  9
$UCSORGBOTTOM
 10
0.0
 20
0.0
 30
0.0
  9
$UCSORGLEFT
 10
0.0
 20
0.0
 30
0.0
  9
$UCSORGRIGHT
 10
0.0
 20
0.0
 30
0.0
  9
$UCSORGFRONT
 10
0.0
 20
0.0
 30
0.0
  9
$UCSORGBACK
 10
0.0
 20
0.0
 30
0.0
  9
$PUCSBASE
  2

  9
$PUCSNAME
  2

  9
$PUCSORG
 10
0.0
 20
0.0
 30
0.0
  9
$PUCSXDIR
 10
1.0
 20
0.0
 30
0.0
  9
$PUCSYDIR
 10
0.0
 20
1.0
 30
0.0
  9
$PUCSORTHOREF
  2

  9
$PUCSORTHOVIEW
 70
     0
  9
$PUCSORGTOP
 10
0.0
 20
0.0
 30
0.0
  9
$PUCSORGBOTTOM
 10
0.0
 20
0.0
 30
0.0
  9
$PUCSORGLEFT
 10
0.0
 20
0.0
 30
0.0
  9
$PUCSORGRIGHT
 10
0.0
 20
0.0
 30
0.0
  9
$PUCSORGFRONT
 10
0.0
 20
0.0
 30
0.0
  9
$PUCSORGBACK
 10
0.0
 20
0.0
 30
0.0
  9
$USERI1
 70
     0
  9
$USERI2
 70
     0
  9
$USERI3
 70
     0
  9
$USERI4
 70
     0
  9
$USERI5
 70
     0
  9
$USERR1
 40
0.0
  9
$USERR2
 40
0.0
  9
$USERR3
 40
0.0
  9
$USERR4
 40
0.0
  9
$USERR5
 40
0.0
  9
$WORLDVIEW
 70
     1
  9
$SHADEDGE
 70
     3
  9
$SHADEDIF
 70
    70
  9
$TILEMODE
 70
     1
  9
$MAXACTVP
 70
    48
  9
$PINSBASE
 10
0.0
 20
0.0
 30
0.0
  9
$PLIMCHECK
 70
     0
  9
$PEXTMIN
 10
-0.2
 20
-0.2
 30
0.0
  9
$PEXTMAX
 10
255.2
 20
195.2
 30
0.0
  9
$PLIMMIN
 10
0.0
 20
0.0
  9
$PLIMMAX
 10
420.0
 20
297.0
  9
$UNITMODE
 70
     0
  9
$VISRETAIN
 70
     1
  9
$PLINEGEN
 70
     0
  9
$PSLTSCALE
 70
     1
  9
$TREEDEPTH
 70
  3020
  9
$CMLSTYLE
  2
STANDARD
  9
$CMLJUST
 70
     0
  9
$CMLSCALE
 40
20.0
  9
$PROXYGRAPHICS
 70
     1
  9
$MEASUREMENT
 70
     1
  9
$CELWEIGHT
370
    -1
  9
$ENDCAPS
280
     0
  9
$JOINSTYLE
280
     0
  9
$LWDISPLAY
290
     0
  9
$INSUNITS
 70
     0
  9
$HYPERLINKBASE
  1

  9
$STYLESHEET
  1
AutoCAD LT 98.ctb
  9
$XEDIT
290
     1
  9
$CEPSNTYPE
380
     0
  9
$PSTYLEMODE
290
     1
  9
$FINGERPRINTGUID
  2
{E2DF82FC-BF6C-4753-BA22-AB7D263A35B4}
  9
$VERSIONGUID
  2
{DA83EBDE-5735-4892-AF13-1C44F28D922D}
  9
$EXTNAMES
290
     1
  9
$PSVPSCALE
 40
0.0
  9
$OLESTARTUP
290
     0
  9
$SORTENTS
280
   127
  9
$INDEXCTL
280
     0
  9
$HIDETEXT
280
     0
  9
$XCLIPFRAME
290
     0
  9
$HALOGAP
280
     0
  9
$OBSCOLOR
 70
   257
  9
$OBSLTYPE
280
     0
  9
$INTERSECTIONDISPLAY
280
     0
  9
$INTERSECTIONCOLOR
 70
   257
  9
$DIMASSOC
280
     1
  9
$PROJECTNAME
  1

  0
ENDSEC
  0
SECTION
  2
CLASSES
  0
CLASS
  1
LWPOLYLINE
  2
AcDbPolyline
  3
ObjectDBX Classes
 90
        0
 91
        4
280
     0
281
     1
  0
CLASS
  1
HATCH
  2
AcDbHatch
  3
ObjectDBX Classes
 90
        0
 91
       30
280
     0
281
     1
  0
CLASS
  1
ACDBDICTIONARYWDFLT
  2
AcDbDictionaryWithDefault
  3
ObjectDBX Classes
 90
        0
 91
        1
280
     0
281
     0
  0
CLASS
  1
TABLESTYLE
  2
AcDbTableStyle
  3
ObjectDBX Classes
 90
     2047
 91
        1
280
     0
281
     0
  0
CLASS
  1
SORTENTSTABLE
  2
AcDbSortentsTable
  3
ObjectDBX Classes
 90
        0
 91
        1
280
     0
281
     0
  0
CLASS
  1
DICTIONARYVAR
  2
AcDbDictionaryVar
  3
ObjectDBX Classes
 90
        0
 91
        1
280
     0
281
     0
  0
ENDSEC
  0
SECTION
  2
TABLES
  0
TABLE
  2
VPORT
  5
8
330
0
100
AcDbSymbolTable
 70
     2
  0
VPORT
  5
2BBC
330
8
100
AcDbSymbolTableRecord
100
AcDbViewportTableRecord
  2
*Active
 70
     0
 10
0.0
 20
0.0
 11
1.0
 21
1.0
 12
127.5013318166851
 22
100.4282919563449
 13
0.0
 23
0.0
 14
10.0
 24
10.0
 15
10.0
 25
10.0
 16
0.0
 26
0.0
 36
1.0
 17
0.0
 27
0.0
 37
0.0
 40
196.9226864975961
 41
1.530456852791878
 42
50.0
 43
0.0
 44
0.0
 50
0.0
 51
0.0
 71
     0
 72
   100
 73
     1
 74
     1
 75
     0
 76
     0
 77
     0
 78
     0
281
     0
 65
     1
110
0.0
120
0.0
130
0.0
111
1.0
121
0.0
131
0.0
112
0.0
122
1.0
132
0.0
 79
     0
146
0.0
  0
ENDTAB
  0
TABLE
  2
LTYPE
  5
5
330
0
100
AcDbSymbolTable
 70
    12
  0
LTYPE
  5
12
330
5
100
AcDbSymbolTableRecord
100
AcDbLinetypeTableRecord
  2
BYBLOCK
 70
     0
  3

 72
    65
 73
     0
 40
0.0
  0
LTYPE
  5
13
330
5
100
AcDbSymbolTableRecord
100
AcDbLinetypeTableRecord
  2
BYLAYER
 70
     0
  3

 72
    65
 73
     0
 40
0.0
  0
LTYPE
  5
14
330
5
100
AcDbSymbolTableRecord
100
AcDbLinetypeTableRecord
  2
CONTINUOUS
 70
     0
  3
Solid line
 72
    65
 73
     0
 40
0.0
  0
LTYPE
  5
22
330
5
100
AcDbSymbolTableRecord
100
AcDbLinetypeTableRecord
  2
CENTER2
 70
     0
  3
Center (.5x) ___ _ ___ _ ___ _ ___ _ ___ _ ___
 72
    65
 73
     4
 40
28.575
 49
19.05
 74
     0
 49
-3.174999999999999
 74
     0
 49
3.174999999999999
 74
     0
 49
-3.174999999999999
 74
     0
  0
LTYPE
  5
23
330
5
100
AcDbSymbolTableRecord
100
AcDbLinetypeTableRecord
  2
HIDDEN2
 70
     0
  3
Hidden (.5x) _ _ _ _ _ _ _ _ _ _ _ _ _ _ _ _ _
 72
    65
 73
     2
 40
4.762499999999999
 49
3.174999999999999
 74
     0
 49
-1.587499999999999
 74
     0
  0
ENDTAB
  0
TABLE
  2
LAYER
  5
2
102
{ACAD_XDICTIONARY
360
27BC
102
}
330
0
100
AcDbSymbolTable
 70
    16
  0
LAYER
  5
E
330
2
100
AcDbSymbolTableRecord
100
AcDbLayerTableRecord
  2
0
 70
     0
 62
     7
  6
CONTINUOUS
370
    -3
390
11FF
  0
LAYER
  5
25
330
2
100
AcDbSymbolTableRecord
100
AcDbLayerTableRecord
  2
外形線
 70
     0
 62
     7
  6
CONTINUOUS
370
    -3
390
11FF
  0
LAYER
  5
26
330
2
100
AcDbSymbolTableRecord
100
AcDbLayerTableRecord
  2
寸法線
 70
     0
 62
     2
  6
CONTINUOUS
370
    -3
390
11FF
  0
LAYER
  5
27
330
2
100
AcDbSymbolTableRecord
100
AcDbLayerTableRecord
  2
中心線
 70
     0
 62
     4
  6
CENTER2
370
    -3
390
11FF
  0
LAYER
  5
2B
330
2
100
AcDbSymbolTableRecord
100
AcDbLayerTableRecord
  2
文字
 70
     0
 62
     6
  6
CONTINUOUS
370
    -3
390
11FF
  0
LAYER
  5
53
330
2
100
AcDbSymbolTableRecord
100
AcDbLayerTableRecord
  2
DEFPOINTS
 70
     0
 62
     7
  6
CONTINUOUS
290
     0
370
    -3
390
11FF
  0
LAYER
  5
A5
330
2
100
AcDbSymbolTableRecord
100
AcDbLayerTableRecord
  2
C
 70
     0
 62
     7
  6
CONTINUOUS
370
    -3
390
11FF
  0
LAYER
  5
16A
330
2
100
AcDbSymbolTableRecord
100
AcDbLayerTableRecord
  2
隠れ線2
 70
     0
 62
     1
  6
HIDDEN2
370
    -3
390
11FF
  0
LAYER
  5
9B5
330
2
100
AcDbSymbolTableRecord
100
AcDbLayerTableRecord
  2
ROGO
 70
     0
 62
     6
  6
CONTINUOUS
370
    -3
390
11FF
  0
ENDTAB
  0
TABLE
  2
STYLE
  5
3
330
0
100
AcDbSymbolTable
 70
     7
  0
STYLE
  5
F
330
3
100
AcDbSymbolTableRecord
100
AcDbTextStyleTableRecord
  2
STANDARD
 70
     0
 40
0.0
 41
1.0
 50
0.0
 71
     0
 42
2.5
  3
txt
  4

  0
STYLE
  5
3F
330
3
100
AcDbSymbolTableRecord
100
AcDbTextStyleTableRecord
  2
STYLE3
 70
     0
 40
0.0
 41
1.0
 50
0.0
 71
     0
 42
5.0
  3
romans.shx
  4
bigfont.shx
  0
STYLE
  5
9B6
330
3
100
AcDbSymbolTableRecord
100
AcDbTextStyleTableRecord
  2
STYLE4
 70
     0
 40
0.0
 41
1.0
 50
0.0
 71
     0
 42
5.0
  3
romans.shx
  4
bigfont.shx
  0
ENDTAB
  0
TABLE
  2
VIEW
  5
6
330
0
100
AcDbSymbolTable
 70
     1
  0
VIEW
  5
258E
330
6
100
AcDbSymbolTableRecord
100
AcDbViewTableRecord
  2
OLE1
 70
     0
 40
338.4733012540677
 10
258.965189094819
 20
100.3603140509923
 41
521.0007883177795
 11
0.0
 21
0.0
 31
1.0
 12
0.0
 22
0.0
 32
0.0
 42
50.0
 43
0.0
 44
0.0
 50
0.0
 71
     0
281
     0
 72
     0
  0
ENDTAB
  0
TABLE
  2
UCS
  5
7
330
0
100
AcDbSymbolTable
 70
     0
  0
ENDTAB
  0
TABLE
  2
APPID
  5
9
330
0
100
AcDbSymbolTable
 70
     2
  0
APPID
  5
10
330
9
100
AcDbSymbolTableRecord
100
AcDbRegAppTableRecord
  2
ACAD
 70
     0
  0
APPID
  5
1227
330
9
100
AcDbSymbolTableRecord
100
AcDbRegAppTableRecord
  2
ACAD_PSEXT
 70
     0
  0
ENDTAB
  0
TABLE
  2
DIMSTYLE
  5
A
330
0
100
AcDbSymbolTable
 70
     4
100
AcDbDimStyleTable
 71
     1
340
8F
  0
DIMSTYLE
105
1D
330
A
100
AcDbSymbolTableRecord
100
AcDbDimStyleTableRecord
  2
STANDARD
 70
     0
 41
2.5
 42
0.625
 43
3.75
 44
1.25
 73
     0
 74
     0
 77
     1
 78
     8
140
2.5
141
2.5
143
0.0394
147
0.625
171
     4
172
     1
273
     8
274
     4
277
     6
340
F
  0
DIMSTYLE
105
8F
102
{ACAD_REACTORS
330
ECD
330
FC7
330
388
330
389
330
390
330
391
330
392
330
3B6
330
3BC
330
3D7
330
3F2
330
A9F
330
ADF
330
E26
330
E2F
330
2057
330
2A84
102
}
330
A
100
AcDbSymbolTableRecord
100
AcDbDimStyleTableRecord
  2
STYLE3
 70
     0
 41
2.5
 42
0.0
 43
3.75
 44
1.25
 73
     0
 74
     0
 77
     1
 78
     8
140
2.5
141
2.5
143
0.0394
147
0.625
171
     4
172
     1
173
     1
176
     2
177
     2
178
     6
271
     1
273
     8
274
     4
340
3F
341
45
343
45
344
45
  0
ENDTAB
  0
TABLE
  2
BLOCK_RECORD
  5
1
330
0
100
AcDbSymbolTable
 70
    31
  0
BLOCK_RECORD
  5
18
102
{ACAD_XDICTIONARY
360
1869
102
}
330
1
100
AcDbSymbolTableRecord
100
AcDbBlockTableRecord
  2
*MODEL_SPACE
340
1206
  0
BLOCK_RECORD
  5
15
330
1
100
AcDbSymbolTableRecord
100
AcDbBlockTableRecord
  2
*PAPER_SPACE
340
1207
  0
BLOCK_RECORD
  5
45
330
1
100
AcDbSymbolTableRecord
100
AcDbBlockTableRecord
  2
_OPEN
340
0
102
{BLKREFS
331
320
331
321
331
32C
331
32D
331
338
331
339
331
343
331
344
331
34E
331
34F
331
359
331
35A
331
364
331
365
331
370
331
371
331
37E
331
37F
331
38E
331
39A
331
3CF
331
3DA
331
3DC
331
3E3
331
3E4
331
3E5
331
8CD
331
8EF
331
8F3
331
8FF
331
A81
331
A82
331
A8D
331
A8E
331
E11
331
E12
331
E1D
331
E1E
331
E2B
331
E2E
331
1866
331
1867
331
1A0B
331
1A0C
331
25BA
331
25BB
331
25E6
331
25E7
331
2770
331
2771
331
2783
331
2784
331
278C
331
278D
331
2794
331
2795
331
2B95
331
2B96
331
2B9E
331
2B9F
331
2BA9
331
2BAA
331
2BB2
331
2BB3
102
}
  0
BLOCK_RECORD
  5
EC1
330
1
100
AcDbSymbolTableRecord
100
AcDbBlockTableRecord
  2
*D22
340
0
  0
BLOCK_RECORD
  5
FB9
330
1
100
AcDbSymbolTableRecord
100
AcDbBlockTableRecord
  2
*D24
340
0
  0
BLOCK_RECORD
  5
2058
330
1
100
AcDbSymbolTableRecord
100
AcDbBlockTableRecord
  2
*D25
340
0
  0
BLOCK_RECORD
  5
2A85
330
1
100
AcDbSymbolTableRecord
100
AcDbBlockTableRecord
  2
*D28
340
0
  0
ENDTAB
  0
ENDSEC
  0
SECTION
  2
BLOCKS
  0
BLOCK
  5
19
330
18
100
AcDbEntity
  8
0
100
AcDbBlockBegin
  2
*MODEL_SPACE
 70
     0
 10
0.0
 20
0.0
 30
0.0
  3
*MODEL_SPACE
  1

  0
ENDBLK
  5
1A
330
18
100
AcDbEntity
  8
0
100
AcDbBlockEnd
  0
BLOCK
  5
16
330
15
100
AcDbEntity
 67
     1
  8
0
100
AcDbBlockBegin
  2
*PAPER_SPACE
 70
     0
 10
0.0
 20
0.0
 30
0.0
  3
*PAPER_SPACE
  1

  0
ENDBLK
  5
17
330
15
100
AcDbEntity
 67
     1
  8
0
100
AcDbBlockEnd
  0
BLOCK
  5
46
330
45
100
AcDbEntity
  8
0
100
AcDbBlockBegin
  2
_OPEN
 70
     0
 10
0.0
 20
0.0
 30
0.0
  3
_OPEN
  1

  0
LINE
  5
47
330
45
100
AcDbEntity
  8
0
  6
ByBlock
 62
     0
100
AcDbLine
 10
-1.0
 20
0.1666666666666666
 30
0.0
 11
0.0
 21
0.0
 31
0.0
  0
LINE
  5
48
330
45
100
AcDbEntity
  8
0
  6
ByBlock
 62
     0
100
AcDbLine
 10
0.0
 20
0.0
 30
0.0
 11
-1.0
 21
-0.1666666666666666
 31
0.0
  0
LINE
  5
49
330
45
100
AcDbEntity
  8
0
  6
ByBlock
 62
     0
100
AcDbLine
 10
0.0
 20
0.0
 30
0.0
 11
-1.0
 21
0.0
 31
0.0
  0
ENDBLK
  5
4A
330
45
100
AcDbEntity
  8
0
100
AcDbBlockEnd
  0
BLOCK
  5
EC2
330
EC1
100
AcDbEntity
  8
0
100
AcDbBlockBegin
  2
*D22
 70
     1
 10
0.0
 20
0.0
 30
0.0
  3
*D22
  1

  0
LINE
  5
2BAF
330
EC1
100
AcDbEntity
  8
外形線
 62
     2
370
    -2
100
AcDbLine
 10
91.13399436569444
 20
41.81940580271958
 30
0.0
 11
94.22202166226623
 21
41.81940580271958
 31
0.0
  0
LINE
  5
2BB0
330
EC1
100
AcDbEntity
  8
外形線
 62
     2
370
    -2
100
AcDbLine
 10
117.5261109452484
 20
76.81940580271957
 30
0.0
 11
91.72202166226623
 21
76.81940580271959
 31
0.0
  0
LINE
  5
2BB1
330
EC1
100
AcDbEntity
  8
外形線
 62
     2
370
    -2
100
AcDbLine
 10
92.97202166226623
 20
44.31940580271958
 30
0.0
 11
92.97202166226623
 21
74.31940580271959
 31
0.0
  0
INSERT
  5
2BB2
330
EC1
100
AcDbEntity
  8
外形線
 62
     2
370
    -2
100
AcDbBlockReference
  2
_OPEN
 10
92.97202166226623
 20
41.81940580271958
 30
0.0
 41
2.5
 42
2.5
 43
2.5
 50
270.0
  0
INSERT
  5
2BB3
330
EC1
100
AcDbEntity
  8
外形線
 62
     2
370
    -2
100
AcDbBlockReference
  2
_OPEN
 10
92.97202166226623
 20
76.81940580271959
 30
0.0
 41
2.5
 42
2.5
 43
2.5
 50
90.0
  0
MTEXT
  5
2BB4
330
EC1
100
AcDbEntity
  8
外形線
 62
     6
100
AcDbMText
 10
91.09702166226622
 20
59.31940580271959
 30
0.0
 40
2.5
 41
0.0
 71
     5
 72
     1
  1
\A1;35
  7
STYLE3
 11
0.0000000000000001
 21
1.0
 31
0.0
 73
     1
 44
1.0
  0
POINT
  5
2BB5
330
EC1
100
AcDbEntity
  8
DEFPOINTS
 62
     0
100
AcDbPoint
 10
91.13399436569444
 20
41.81940580271958
 30
0.0
  0
POINT
  5
2BB6
330
EC1
100
AcDbEntity
  8
DEFPOINTS
 62
     0
100
AcDbPoint
 10
117.5261109452484
 20
76.81940580271957
 30
0.0
  0
POINT
  5
2BB7
330
EC1
100
AcDbEntity
  8
DEFPOINTS
 62
     0
100
AcDbPoint
 10
92.97202166226623
 20
76.81940580271959
 30
0.0
  0
ENDBLK
  5
ECC
330
EC1
100
AcDbEntity
  8
0
100
AcDbBlockEnd
  0
BLOCK
  5
FC8
330
FB9
100
AcDbEntity
  8
0
100
AcDbBlockBegin
  2
*D24
 70
     1
 10
0.0
 20
0.0
 30
0.0
  3
*D24
  1

  0
LINE
  5
2BA4
330
FB9
100
AcDbEntity
  8
外形線
 62
     2
370
    -2
100
AcDbLine
 10
120.6261109452484
 20
48.81940580271958
 30
0.0
 11
120.6261109452484
 21
57.34013532589035
 31
0.0
  0
LINE
  5
2BA5
330
FB9
100
AcDbEntity
  8
外形線
 62
     2
370
    -2
100
AcDbLine
 10
126.6261109452484
 20
48.81940580271958
 30
0.0
 11
126.6261109452484
 21
57.34013532589035
 31
0.0
  0
LINE
  5
2BA6
330
FB9
100
AcDbEntity
  8
外形線
 62
     2
370
    -2
100
AcDbLine
 10
118.1261109452484
 20
56.09013532589035
 30
0.0
 11
115.6261109452484
 21
56.09013532589035
 31
0.0
  0
LINE
  5
2BA7
330
FB9
100
AcDbEntity
  8
外形線
 62
     2
370
    -2
100
AcDbLine
 10
129.1261109452484
 20
56.09013532589035
 30
0.0
 11
142.2808728500103
 21
56.09013532589035
 31
0.0
  0
LINE
  5
2BA8
330
FB9
100
AcDbEntity
  8
外形線
 62
     2
370
    -2
100
AcDbLine
 10
120.6261109452484
 20
56.09013532589035
 30
0.0
 11
126.6261109452484
 21
56.09013532589035
 31
0.0
  0
INSERT
  5
2BA9
330
FB9
100
AcDbEntity
  8
外形線
 62
     2
370
    -2
100
AcDbBlockReference
  2
_OPEN
 10
120.6261109452484
 20
56.09013532589035
 30
0.0
 41
2.5
 42
2.5
 43
2.5
  0
INSERT
  5
2BAA
330
FB9
100
AcDbEntity
  8
外形線
 62
     2
370
    -2
100
AcDbBlockReference
  2
_OPEN
 10
126.6261109452484
 20
56.09013532589035
 30
0.0
 41
2.5
 42
2.5
 43
2.5
 50
180.0
  0
MTEXT
  5
2BAB
330
FB9
100
AcDbEntity
  8
外形線
 62
     6
100
AcDbMText
 10
136.9534918976293
 20
57.96513532589035
 30
0.0
 40
2.5
 41
0.0
 71
     5
 72
     1
  1
\A1;2-%%C6
  7
STYLE3
 73
     1
 44
1.0
  0
POINT
  5
2BAC
330
FB9
100
AcDbEntity
  8
DEFPOINTS
 62
     0
100
AcDbPoint
 10
120.6261109452484
 20
48.81940580271958
 30
0.0
  0
POINT
  5
2BAD
330
FB9
100
AcDbEntity
  8
DEFPOINTS
 62
     0
100
AcDbPoint
 10
126.6261109452484
 20
48.81940580271958
 30
0.0
  0
POINT
  5
2BAE
330
FB9
100
AcDbEntity
  8
DEFPOINTS
 62
     0
100
AcDbPoint
 10
126.6261109452484
 20
56.09013532589035
 30
0.0
  0
ENDBLK
  5
FD4
330
FB9
100
AcDbEntity
  8
0
100
AcDbBlockEnd
  0
BLOCK
  5
2062
330
2058
100
AcDbEntity
  8
0
100
AcDbBlockBegin
  2
*D25
 70
     1
 10
0.0
 20
0.0
 30
0.0
  3
*D25
  1

  0
LINE
  5
2B9B
330
2058
100
AcDbEntity
  8
寸法線
 62
     2
370
    -2
100
AcDbLine
 10
88.47512851642671
 20
129.9194058027195
 30
0.0
 11
84.45860937313787
 21
129.9194058027195
 31
0.0
  0
LINE
  5
2B9C
330
2058
100
AcDbEntity
  8
寸法線
 62
     2
370
    -2
100
AcDbLine
 10
123.6261109452484
 20
41.81940580271955
 30
0.0
 11
84.45860937313785
 21
41.81940580271956
 31
0.0
  0
LINE
  5
2B9D
330
2058
100
AcDbEntity
  8
寸法線
 62
     2
370
    -2
100
AcDbLine
 10
85.70860937313787
 20
127.4194058027195
 30
0.0
 11
85.70860937313785
 21
44.31940580271956
 31
0.0
  0
INSERT
  5
2B9E
330
2058
100
AcDbEntity
  8
寸法線
 62
     2
370
    -2
100
AcDbBlockReference
  2
_OPEN
 10
85.70860937313787
 20
129.9194058027195
 30
0.0
 41
2.5
 42
2.5
 43
2.5
 50
90.0
  0
INSERT
  5
2B9F
330
2058
100
AcDbEntity
  8
寸法線
 62
     2
370
    -2
100
AcDbBlockReference
  2
_OPEN
 10
85.70860937313785
 20
41.81940580271956
 30
0.0
 41
2.5
 42
2.5
 43
2.5
 50
270.0
  0
MTEXT
  5
2BA0
330
2058
100
AcDbEntity
  8
寸法線
 62
     6
100
AcDbMText
 10
83.83360937313783
 20
85.86940580271958
 30
0.0
 40
2.5
 41
0.0
 71
     5
 72
     1
  1
\A1;88
  7
STYLE3
 11
0.0000000000000001
 21
1.0
 31
0.0
 73
     1
 44
1.0
  0
POINT
  5
2BA1
330
2058
100
AcDbEntity
  8
DEFPOINTS
 62
     0
100
AcDbPoint
 10
88.47512851642671
 20
129.9194058027195
 30
0.0
  0
POINT
  5
2BA2
330
2058
100
AcDbEntity
  8
DEFPOINTS
 62
     0
100
AcDbPoint
 10
123.6261109452484
 20
41.81940580271955
 30
0.0
  0
POINT
  5
2BA3
330
2058
100
AcDbEntity
  8
DEFPOINTS
 62
     0
100
AcDbPoint
 10
85.70860937313785
 20
41.81940580271956
 30
0.0
  0
ENDBLK
  5
2063
330
2058
100
AcDbEntity
  8
0
100
AcDbBlockEnd
  0
BLOCK
  5
2A91
330
2A85
100
AcDbEntity
  8
0
100
AcDbBlockBegin
  2
*D28
 70
     1
 10
0.0
 20
0.0
 30
0.0
  3
*D28
  1

  0
LINE
  5
2B90
330
2A85
100
AcDbEntity
  8
寸法線
 62
     2
370
    -2
100
AcDbLine
 10
121.6261109452484
 20
68.56922003217921
 30
0.0
 11
121.6261109452484
 21
69.81922003217921
 31
0.0
  0
LINE
  5
2B91
330
2A85
100
AcDbEntity
  8
寸法線
 62
     2
370
    -2
100
AcDbLine
 10
125.6261109452484
 20
68.56922003217921
 30
0.0
 11
125.6261109452484
 21
69.81922003217921
 31
0.0
  0
LINE
  5
2B92
330
2A85
100
AcDbEntity
  8
寸法線
 62
     2
370
    -2
100
AcDbLine
 10
119.1261109452484
 20
68.56922003217921
 30
0.0
 11
116.6261109452484
 21
68.56922003217921
 31
0.0
  0
LINE
  5
2B93
330
2A85
100
AcDbEntity
  8
寸法線
 62
     2
370
    -2
100
AcDbLine
 10
128.1261109452484
 20
68.56922003217921
 30
0.0
 11
135.9237299928675
 21
68.56922003217921
 31
0.0
  0
LINE
  5
2B94
330
2A85
100
AcDbEntity
  8
寸法線
 62
     2
370
    -2
100
AcDbLine
 10
121.6261109452484
 20
68.56922003217921
 30
0.0
 11
125.6261109452484
 21
68.56922003217921
 31
0.0
  0
INSERT
  5
2B95
330
2A85
100
AcDbEntity
  8
寸法線
 62
     2
370
    -2
100
AcDbBlockReference
  2
_OPEN
 10
121.6261109452484
 20
68.56922003217921
 30
0.0
 41
2.5
 42
2.5
 43
2.5
  0
INSERT
  5
2B96
330
2A85
100
AcDbEntity
  8
寸法線
 62
     2
370
    -2
100
AcDbBlockReference
  2
_OPEN
 10
125.6261109452484
 20
68.56922003217921
 30
0.0
 41
2.5
 42
2.5
 43
2.5
 50
180.0
  0
MTEXT
  5
2B97
330
2A85
100
AcDbEntity
  8
寸法線
 62
     6
100
AcDbMText
 10
133.274920469058
 20
70.44422003217921
 30
0.0
 40
2.5
 41
0.0
 71
     5
 72
     1
  1
\A1;%%C4
  7
STYLE3
 73
     1
 44
1.0
  0
POINT
  5
2B98
330
2A85
100
AcDbEntity
  8
DEFPOINTS
 62
     0
100
AcDbPoint
 10
121.6261109452484
 20
68.56922003217921
 30
0.0
  0
POINT
  5
2B99
330
2A85
100
AcDbEntity
  8
DEFPOINTS
 62
     0
100
AcDbPoint
 10
125.6261109452484
 20
68.56922003217921
 30
0.0
  0
POINT
  5
2B9A
330
2A85
100
AcDbEntity
  8
DEFPOINTS
 62
     0
100
AcDbPoint
 10
125.6261109452484
 20
68.56922003217921
 30
0.0
  0
ENDBLK
  5
2A92
330
2A85
100
AcDbEntity
  8
0
100
AcDbBlockEnd
  0
ENDSEC
  0
SECTION
  2
ENTITIES
  0
LWPOLYLINE
  5
26C
330
18
100
AcDbEntity
  8
C
100
AcDbPolyline
 90
        5
 70
     0
 43
0.4
 10
0.0
 20
197.9303411937654
 10
255.0
 20
197.9303411937654
 10
255.0
 20
2.930341193765457
 10
0.0
 20
2.930341193765457
 10
0.0
 20
197.9303411937654
  0
LINE
  5
2CD
330
18
100
AcDbEntity
  8
外形線
100
AcDbLine
 10
116.0261109452484
 20
91.31940580271958
 30
0.0
 11
116.0261109452484
 21
78.31940580271957
 31
0.0
  0
LINE
  5
2CE
330
18
100
AcDbEntity
  8
外形線
100
AcDbLine
 10
117.5261109452484
 20
92.81940580271959
 30
0.0
 11
134.0184157906617
 21
92.81940580271959
 31
0.0
  0
LINE
  5
2CF
330
18
100
AcDbEntity
  8
外形線
100
AcDbLine
 10
117.5261109452484
 20
76.81940580271957
 30
0.0
 11
151.6261109452484
 21
76.81940580271957
 31
0.0
  0
LINE
  5
2D0
330
18
100
AcDbEntity
  8
外形線
100
AcDbLine
 10
121.2261109452484
 20
41.81940580271958
 30
0.0
 11
151.6261109452484
 21
41.81940580271958
 31
0.0
  0
LINE
  5
2D1
330
18
100
AcDbEntity
  8
外形線
100
AcDbLine
 10
121.2261109452484
 20
30.31940580271957
 30
0.0
 11
135.1261109452484
 21
30.31940580271959
 31
0.0
  0
ARC
  5
2D3
330
18
100
AcDbEntity
  8
外形線
100
AcDbCircle
 10
117.5261109452484
 20
91.31940580271958
 30
0.0
 40
1.5
100
AcDbArc
 50
90.0
 51
180.0
  0
ARC
  5
2D6
330
18
100
AcDbEntity
  8
外形線
100
AcDbCircle
 10
117.5261109452484
 20
78.31940580271957
 30
0.0
 40
1.5
100
AcDbArc
 50
180.0
 51
270.0
  0
LINE
  5
2D7
330
18
100
AcDbEntity
  8
中心線
100
AcDbLine
 10
123.6261109452484
 20
168.6471679042015
 30
0.0
 11
123.6261109452484
 21
26.3314087939163
 31
0.0
  0
ARC
  5
2DC
330
18
100
AcDbEntity
  8
外形線
100
AcDbCircle
 10
123.6261109452484
 20
118.8194058027196
 30
0.0
 40
28.0
100
AcDbArc
 50
291.7867892982618
 51
340.9416675171072
  0
ARC
  5
2DE
330
18
100
AcDbEntity
  8
外形線
100
AcDbCircle
 10
123.6261109452484
 20
125.8194058027196
 30
0.0
 40
31.0
100
AcDbArc
 50
328.6182770478086
 51
351.3627832995585
  0
LINE
  5
2DF
330
18
100
AcDbEntity
  8
外形線
100
AcDbLine
 10
156.6261109452484
 20
71.81940580271957
 30
0.0
 11
156.6261109452484
 21
46.81940580271958
 31
0.0
  0
LINE
  5
2E0
330
18
100
AcDbEntity
  8
外形線
100
AcDbLine
 10
161.6261109452484
 20
71.81940580271957
 30
0.0
 11
161.6261109452484
 21
46.81940580271958
 31
0.0
  0
LINE
  5
2E1
330
18
100
AcDbEntity
  8
外形線
100
AcDbLine
 10
166.6261109452484
 20
71.81940580271957
 30
0.0
 11
166.6261109452484
 21
58.81940580271958
 31
0.0
  0
LINE
  5
2E2
330
18
100
AcDbEntity
  8
外形線
100
AcDbLine
 10
192.6261109452484
 20
94.81940580271958
 30
0.0
 11
192.6261109452484
 21
58.81940580271958
 31
0.0
  0
LINE
  5
2E3
330
18
100
AcDbEntity
  8
外形線
100
AcDbLine
 10
202.6261109452485
 20
94.81940580271958
 30
0.0
 11
202.6261109452485
 21
58.81940580271957
 31
0.0
  0
LINE
  5
2E5
330
18
100
AcDbEntity
  8
外形線
100
AcDbLine
 10
168.6261109452484
 20
124.8194058027196
 30
0.0
 11
172.6261109452484
 21
124.8194058027196
 31
0.0
  0
ARC
  5
2E7
330
18
100
AcDbEntity
  8
外形線
100
AcDbCircle
 10
172.6261109452484
 20
94.81940580271958
 30
0.0
 40
20.0
100
AcDbArc
 50
0.0
 51
90.0
  0
ARC
  5
2E9
330
18
100
AcDbEntity
  8
外形線
100
AcDbCircle
 10
168.6261109452484
 20
94.81940580271958
 30
0.0
 40
20.0
100
AcDbArc
 50
90.0
 51
118.1194879415168
  0
ARC
  5
2EA
330
18
100
AcDbEntity
  8
外形線
100
AcDbCircle
 10
123.6261109452484
 20
125.8194058027196
 30
0.0
 40
38.0
100
AcDbArc
 50
329.7509669494135
 51
357.2263837701044
  0
ARC
  5
2EB
330
18
100
AcDbEntity
  8
外形線
100
AcDbCircle
 10
123.6261109452484
 20
118.8194058027196
 30
0.0
 40
35.0
100
AcDbArc
 50
306.869897645844
 51
339.699809158093
  0
ARC
  5
2ED
330
18
100
AcDbEntity
  8
外形線
100
AcDbCircle
 10
151.6261109452484
 20
71.81940580271957
 30
0.0
 40
5.0
100
AcDbArc
 50
0.0
 51
90.0
  0
ARC
  5
2EE
330
18
100
AcDbEntity
  8
外形線
100
AcDbCircle
 10
151.6261109452484
 20
71.81940580271957
 30
0.0
 40
10.0
100
AcDbArc
 50
0.0
 51
90.0
  0
ARC
  5
2EF
330
18
100
AcDbEntity
  8
外形線
100
AcDbCircle
 10
151.6261109452484
 20
71.81940580271957
 30
0.0
 40
15.0
100
AcDbArc
 50
0.0
 51
85.80345080949147
  0
ARC
  5
2F0
330
18
100
AcDbEntity
  8
外形線
100
AcDbCircle
 10
153.0896735602681
 20
91.76578353081641
 30
0.0
 40
5.0
100
AcDbArc
 50
137.4416611471612
 51
265.8034508094916
  0
LINE
  5
2F3
330
18
100
AcDbEntity
  8
外形線
100
AcDbLine
 10
151.6261109452484
 20
81.81940580271957
 30
0.0
 11
147.6261109452484
 21
81.81940580271957
 31
0.0
  0
ARC
  5
2F4
330
18
100
AcDbEntity
  8
外形線
100
AcDbCircle
 10
147.6261109452484
 20
86.81940580271959
 30
0.0
 40
5.0
100
AcDbArc
 50
126.8698976458441
 51
270.0
  0
ARC
  5
2F5
330
18
100
AcDbEntity
  8
外形線
100
AcDbCircle
 10
168.6261109452483
 20
94.81940580272008
 30
0.0
 40
29.99999999999952
100
AcDbArc
 50
89.99999999999984
 51
118.5800197386435
  0
ARC
  5
2F6
330
18
100
AcDbEntity
  8
外形線
100
AcDbCircle
 10
172.6261109452484
 20
94.81940580271958
 30
0.0
 40
30.0
100
AcDbArc
 50
0.0
 51
90.0
  0
ARC
  5
2F9
330
18
100
AcDbEntity
  8
外形線
100
AcDbCircle
 10
151.6261109452484
 20
46.81940580271958
 30
0.0
 40
5.0
100
AcDbArc
 50
270.0
 51
0.0
  0
ARC
  5
2FA
330
18
100
AcDbEntity
  8
外形線
100
AcDbCircle
 10
151.6261109452484
 20
46.81940580271958
 30
0.0
 40
10.0
100
AcDbArc
 50
270.0
 51
0.0
  0
ARC
  5
2FC
330
18
100
AcDbEntity
  8
外形線
100
AcDbCircle
 10
179.6261109452484
 20
58.81940580271958
 30
0.0
 40
13.0
100
AcDbArc
 50
180.0
 51
0.0
  0
ARC
  5
2FD
330
18
100
AcDbEntity
  8
外形線
100
AcDbCircle
 10
179.6261109452484
 20
58.81940580271958
 30
0.0
 40
23.0
100
AcDbArc
 50
270.0
 51
0.0
  0
ARC
  5
304
330
18
100
AcDbEntity
  8
外形線
100
AcDbCircle
 10
179.6261109452484
 20
26.81940580271959
 30
0.0
 40
9.0
100
AcDbArc
 50
89.99999999999982
 51
140.8686380762545
  0
LINE
  5
306
330
18
100
AcDbEntity
  8
外形線
100
AcDbLine
 10
133.6261109452484
 20
36.81940580271959
 30
0.0
 11
151.6261109452484
 21
36.81940580271959
 31
0.0
  0
ARC
  5
307
330
18
100
AcDbEntity
  8
外形線
100
AcDbCircle
 10
163.6261109452484
 20
36.81940580271959
 30
0.0
 40
10.0
100
AcDbArc
 50
270.0
 51
334.4048408136369
  0
LINE
  5
308
330
18
100
AcDbEntity
  8
外形線
100
AcDbLine
 10
128.6261109452484
 20
31.81940580271959
 30
0.0
 11
128.6261109452484
 21
30.31940580271959
 31
0.0
  0
ARC
  5
309
330
18
100
AcDbEntity
  8
外形線
100
AcDbCircle
 10
133.6261109452484
 20
31.81940580271959
 30
0.0
 40
5.0
100
AcDbArc
 50
90.0
 51
180.0
  0
LINE
  5
310
330
18
100
AcDbEntity
  8
外形線
100
AcDbLine
 10
138.6261109452484
 20
28.89012001699096
 30
0.0
 11
163.6261109452484
 21
26.81940580271959
 31
0.0
  0
ARC
  5
311
330
18
100
AcDbEntity
  8
外形線
100
AcDbCircle
 10
135.1261109452484
 20
25.31940580271957
 30
0.0
 40
5.0
100
AcDbArc
 50
45.57299599919379
 51
89.99999999999934
  0
LINE
  5
312
330
18
100
AcDbEntity
  8
外形線
100
AcDbLine
 10
172.6261109452484
 20
114.8194058027196
 30
0.0
 11
168.6261109452484
 21
114.8194058027196
 31
0.0
  0
LINE
  5
864
330
18
100
AcDbEntity
  8
外形線
100
AcDbLine
 10
125.6261109452484
 20
71.8194058027196
 30
0.0
 11
125.6261109452484
 21
52.31940580271958
 31
0.0
  0
LINE
  5
865
330
18
100
AcDbEntity
  8
外形線
100
AcDbLine
 10
121.6261109452484
 20
71.8194058027196
 30
0.0
 11
121.6261109452484
 21
52.31940580271958
 31
0.0
  0
LINE
  5
906
330
18
100
AcDbEntity
  8
隠れ線2
 48
0.5
100
AcDbLine
 10
121.6511109452484
 20
41.81940580271958
 30
0.0
 11
121.6511109452484
 21
30.31940580271957
 31
0.0
  0
LINE
  5
907
330
18
100
AcDbEntity
  8
隠れ線2
 48
0.5
100
AcDbLine
 10
125.6011109452484
 20
41.81940580271957
 30
0.0
 11
125.6011109452483
 21
30.31940580271957
 31
0.0
  0
LINE
  5
995
330
18
100
AcDbEntity
  8
外形線
100
AcDbLine
 10
118.2555846591919
 20
87.81940580271959
 30
0.0
 11
135.6261109452484
 21
87.81940580271959
 31
0.0
  0
LINE
  5
996
330
18
100
AcDbEntity
  8
外形線
100
AcDbLine
 10
135.6261109452484
 20
87.81940580271959
 30
0.0
 11
135.6261109452484
 21
76.81940580271955
 31
0.0
  0
LINE
  5
9AC
330
18
100
AcDbEntity
  8
外形線
100
AcDbLine
 10
118.2555846591919
 20
87.81940580271959
 30
0.0
 11
118.2555846591919
 21
76.81940580271957
 31
0.0
  0
LINE
  5
A74
330
18
100
AcDbEntity
  8
中心線
100
AcDbLine
 10
39.82883022620285
 20
188.5043741663557
 30
0.0
 11
39.82883022620283
 21
22.50950924056747
 31
0.0
  0
LINE
  5
BC3
330
18
100
AcDbEntity
  8
中心線
 48
0.3
100
AcDbLine
 10
112.4577973700314
 20
89.31940580271959
 30
0.0
 11
122.2526883860118
 21
89.31940580271959
 31
0.0
  0
LINE
  5
BC4
330
18
100
AcDbEntity
  8
中心線
 48
0.3
100
AcDbLine
 10
112.4577973700314
 20
81.31940580271958
 30
0.0
 11
122.2526883860118
 21
81.31940580271958
 31
0.0
  0
DIMENSION
  5
ECD
330
18
100
AcDbEntity
  8
外形線
100
AcDbDimension
  2
*D22
 10
92.97202166226623
 20
76.81940580271959
 30
0.0
 11
91.09702166226622
 21
59.31940580271959
 31
0.0
 70
    32
 71
     5
 42
35.0
  3
STYLE3
100
AcDbAlignedDimension
 13
91.13399436569444
 23
41.81940580271958
 33
0.0
 14
117.5261109452484
 24
76.81940580271957
 34
0.0
 50
90.0
100
AcDbRotatedDimension
1001
ACAD
1000
DSTYLE
1002
{
1070
   271
1070
     2
1002
}
  0
LINE
  5
F3E
330
18
100
AcDbEntity
  8
外形線
100
AcDbLine
 10
120.7261109452484
 20
41.31940580271958
 30
0.0
 11
120.7261109452484
 21
30.81940580271957
 31
0.0
  0
ARC
  5
F40
330
18
100
AcDbEntity
  8
外形線
100
AcDbCircle
 10
121.2261109452484
 20
41.31940580271958
 30
0.0
 40
0.5
100
AcDbArc
 50
90.0
 51
180.0
  0
ARC
  5
F41
330
18
100
AcDbEntity
  8
外形線
100
AcDbCircle
 10
121.2261109452484
 20
30.81940580271957
 30
0.0
 40
0.5
100
AcDbArc
 50
180.0
 51
270.0000000000001
  0
LINE
  5
F43
330
18
100
AcDbEntity
  8
外形線
100
AcDbLine
 10
120.8261109452484
 20
46.31940580271958
 30
0.0
 11
126.4261109452484
 21
46.31940580271958
 31
0.0
  0
LINE
  5
F44
330
18
100
AcDbEntity
  8
外形線
100
AcDbLine
 10
120.6261109452484
 20
48.31940580271958
 30
0.0
 11
126.6261109452484
 21
48.31940580271958
 31
0.0
  0
LINE
  5
F45
330
18
100
AcDbEntity
  8
外形線
100
AcDbLine
 10
120.8761109452484
 20
50.31940580271959
 30
0.0
 11
126.3761109452484
 21
50.31940580271959
 31
0.0
  0
LINE
  5
F46
330
18
100
AcDbEntity
  8
外形線
100
AcDbLine
 10
121.3261109452484
 20
52.31940580271959
 30
0.0
 11
125.9261109452484
 21
52.31940580271959
 31
0.0
  0
LINE
  5
F54
330
18
100
AcDbEntity
  8
外形線
100
AcDbLine
 10
126.1261109452484
 20
52.11940580271958
 30
0.0
 11
126.1261109452484
 21
50.51940580271959
 31
0.0
  0
LINE
  5
F55
330
18
100
AcDbEntity
  8
外形線
100
AcDbLine
 10
121.1261109452484
 20
52.11940580271958
 30
0.0
 11
121.1261109452484
 21
50.51940580271959
 31
0.0
  0
LINE
  5
F56
330
18
100
AcDbEntity
  8
外形線
100
AcDbLine
 10
121.1261109452484
 20
52.11940580271958
 30
0.0
 11
121.3261109452484
 21
52.31940580271959
 31
0.0
  0
LINE
  5
F57
330
18
100
AcDbEntity
  8
外形線
100
AcDbLine
 10
125.9261109452484
 20
52.31940580271959
 30
0.0
 11
126.1261109452484
 21
52.11940580271958
 31
0.0
  0
LINE
  5
F58
330
18
100
AcDbEntity
  8
外形線
100
AcDbLine
 10
126.1261109452484
 20
50.51940580271959
 30
0.0
 11
125.9261109452484
 21
50.31940580271959
 31
0.0
  0
LINE
  5
F59
330
18
100
AcDbEntity
  8
外形線
100
AcDbLine
 10
121.3261109452484
 20
50.31940580271959
 30
0.0
 11
121.1261109452484
 21
50.51940580271959
 31
0.0
  0
LINE
  5
F5B
330
18
100
AcDbEntity
  8
外形線
100
AcDbLine
 10
121.6261109452484
 20
52.31940580271958
 30
0.0
 11
121.6261109452484
 21
50.31940580271959
 31
0.0
  0
LINE
  5
F5C
330
18
100
AcDbEntity
  8
外形線
100
AcDbLine
 10
122.1261109452484
 20
52.31940580271958
 30
0.0
 11
122.1261109452484
 21
50.31940580271959
 31
0.0
  0
LINE
  5
F5D
330
18
100
AcDbEntity
  8
外形線
100
AcDbLine
 10
122.6261109452484
 20
52.31940580271958
 30
0.0
 11
122.6261109452484
 21
50.31940580271959
 31
0.0
  0
LINE
  5
F5E
330
18
100
AcDbEntity
  8
外形線
100
AcDbLine
 10
123.1261109452484
 20
52.31940580271958
 30
0.0
 11
123.1261109452484
 21
50.31940580271959
 31
0.0
  0
LINE
  5
F5F
330
18
100
AcDbEntity
  8
外形線
100
AcDbLine
 10
123.6261109452484
 20
52.31940580271958
 30
0.0
 11
123.6261109452484
 21
50.31940580271959
 31
0.0
  0
LINE
  5
F60
330
18
100
AcDbEntity
  8
外形線
100
AcDbLine
 10
126.6261109452484
 20
48.81940580271958
 30
0.0
 11
126.6261109452484
 21
48.31940580271958
 31
0.0
  0
LINE
  5
F61
330
18
100
AcDbEntity
  8
外形線
100
AcDbLine
 10
120.6261109452484
 20
48.81940580271958
 30
0.0
 11
120.6261109452484
 21
48.31940580271958
 31
0.0
  0
LINE
  5
F62
330
18
100
AcDbEntity
  8
外形線
100
AcDbLine
 10
120.6261109452484
 20
48.81940580271958
 30
0.0
 11
126.6261109452484
 21
48.81940580271958
 31
0.0
  0
LINE
  5
F67
330
18
100
AcDbEntity
  8
外形線
100
AcDbLine
 10
126.3761109452484
 20
50.31940580271959
 30
0.0
 11
126.6261109452484
 21
48.81940580271958
 31
0.0
  0
LINE
  5
F68
330
18
100
AcDbEntity
  8
外形線
100
AcDbLine
 10
120.8761109452484
 20
50.31940580271959
 30
0.0
 11
120.6261109452484
 21
48.81940580271958
 31
0.0
  0
LINE
  5
F69
330
18
100
AcDbEntity
  8
外形線
100
AcDbLine
 10
126.6261109452484
 20
48.31940580271958
 30
0.0
 11
126.6261109452484
 21
46.51940580271959
 31
0.0
  0
LINE
  5
F6A
330
18
100
AcDbEntity
  8
外形線
100
AcDbLine
 10
120.6261109452484
 20
48.31940580271958
 30
0.0
 11
120.6261109452484
 21
46.51940580271959
 31
0.0
  0
LINE
  5
F6B
330
18
100
AcDbEntity
  8
外形線
100
AcDbLine
 10
120.6261109452484
 20
46.51940580271959
 30
0.0
 11
120.8261109452484
 21
46.31940580271958
 31
0.0
  0
LINE
  5
F6C
330
18
100
AcDbEntity
  8
外形線
100
AcDbLine
 10
126.4261109452484
 20
46.31940580271958
 30
0.0
 11
126.6261109452484
 21
46.51940580271959
 31
0.0
  0
LINE
  5
F6E
330
18
100
AcDbEntity
  8
外形線
100
AcDbLine
 10
120.6261109452484
 20
44.31940580271958
 30
0.0
 11
120.6261109452484
 21
46.11940580271958
 31
0.0
  0
LINE
  5
F6F
330
18
100
AcDbEntity
  8
外形線
100
AcDbLine
 10
120.6261109452484
 20
46.11940580271958
 30
0.0
 11
120.8261109452484
 21
46.31940580271958
 31
0.0
  0
LINE
  5
F70
330
18
100
AcDbEntity
  8
外形線
100
AcDbLine
 10
126.6261109452484
 20
44.31940580271958
 30
0.0
 11
126.6261109452484
 21
46.11940580271958
 31
0.0
  0
LINE
  5
F71
330
18
100
AcDbEntity
  8
外形線
100
AcDbLine
 10
126.4261109452484
 20
46.31940580271958
 30
0.0
 11
126.6261109452484
 21
46.11940580271958
 31
0.0
  0
LINE
  5
F72
330
18
100
AcDbEntity
  8
外形線
100
AcDbLine
 10
120.6261109452484
 20
44.31940580271958
 30
0.0
 11
126.6261109452484
 21
44.31940580271958
 31
0.0
  0
LINE
  5
F73
330
18
100
AcDbEntity
  8
外形線
100
AcDbLine
 10
120.6261109452484
 20
44.31940580271958
 30
0.0
 11
126.6261109452484
 21
44.31940580271957
 31
0.0
  0
LINE
  5
F74
330
18
100
AcDbEntity
  8
外形線
100
AcDbLine
 10
126.6261109452484
 20
44.31940580271957
 30
0.0
 11
126.6261109452484
 21
42.01940580271956
 31
0.0
  0
LINE
  5
F75
330
18
100
AcDbEntity
  8
外形線
100
AcDbLine
 10
126.4261109452484
 20
41.81940580271957
 30
0.0
 11
126.6261109452484
 21
42.01940580271958
 31
0.0
  0
LINE
  5
F76
330
18
100
AcDbEntity
  8
外形線
100
AcDbLine
 10
120.8261109452484
 20
41.81940580271957
 30
0.0
 11
126.4261109452484
 21
41.81940580271957
 31
0.0
  0
LINE
  5
F77
330
18
100
AcDbEntity
  8
外形線
100
AcDbLine
 10
120.6261109452484
 20
44.31940580271958
 30
0.0
 11
120.6261109452484
 21
42.01940580271958
 31
0.0
  0
LINE
  5
F78
330
18
100
AcDbEntity
  8
外形線
100
AcDbLine
 10
120.6261109452484
 20
42.01940580271958
 30
0.0
 11
120.8261109452484
 21
41.81940580271957
 31
0.0
  0
DIMENSION
  5
FC7
330
18
100
AcDbEntity
  8
外形線
100
AcDbDimension
  2
*D24
 10
126.6261109452484
 20
56.09013532589035
 30
0.0
 11
136.9534918976293
 21
57.96513532589035
 31
0.0
 70
    32
  1
2-%%C<>
 71
     5
 42
5.999999999999971
  3
STYLE3
100
AcDbAlignedDimension
 13
120.6261109452484
 23
48.81940580271958
 33
0.0
 14
126.6261109452484
 24
48.81940580271958
 34
0.0
100
AcDbRotatedDimension
1001
ACAD
1000
DSTYLE
1002
{
1070
   271
1070
     2
1002
}
  0
LINE
  5
176F
330
18
100
AcDbEntity
  8
外形線
100
AcDbLine
 10
118.6261109452484
 20
92.81940580271955
 30
0.0
 11
128.6261109452484
 21
92.81940580271955
 31
0.0
  0
LINE
  5
1770
330
18
100
AcDbEntity
  8
中心線
100
AcDbLine
 10
123.6261109452484
 20
188.5936700456409
 30
0.0
 11
123.6261109452484
 21
34.8599925126496
 31
0.0
  0
LINE
  5
1771
330
18
100
AcDbEntity
  8
外形線
100
AcDbLine
 10
127.6261109452484
 20
94.81940580271958
 30
0.0
 11
127.6261109452484
 21
92.81940580271955
 31
0.0
  0
LINE
  5
1772
330
18
100
AcDbEntity
  8
外形線
100
AcDbLine
 10
119.6261109452485
 20
94.81940580271954
 30
0.0
 11
119.6261109452484
 21
92.81940580271955
 31
0.0
  0
LINE
  5
178B
330
18
100
AcDbEntity
  8
外形線
100
AcDbLine
 10
145.6261109452484
 20
139.9194058027195
 30
0.0
 11
145.6261109452484
 21
119.9194058027195
 31
0.0
  0
LINE
  5
178C
330
18
100
AcDbEntity
  8
外形線
100
AcDbLine
 10
101.6261109452484
 20
139.9194058027195
 30
0.0
 11
101.6261109452483
 21
119.9194058027195
 31
0.0
  0
CIRCLE
  5
178D
330
18
100
AcDbEntity
  8
外形線
100
AcDbCircle
 10
123.6261109452484
 20
129.9194058027195
 30
0.0
 40
30.0
  0
ARC
  5
178E
330
18
100
AcDbEntity
  8
外形線
100
AcDbCircle
 10
144.1261109452484
 20
119.9194058027195
 30
0.0
 40
1.5
100
AcDbArc
 50
270.0
 51
0.0
  0
LINE
  5
178F
330
18
100
AcDbEntity
  8
外形線
100
AcDbLine
 10
121.6261109452484
 20
73.81940580271962
 30
0.0
 11
121.6261109452484
 21
50.51940580271952
 31
0.0
  0
LINE
  5
1790
330
18
100
AcDbEntity
  8
外形線
100
AcDbLine
 10
125.6261109452485
 20
73.81940580271962
 30
0.0
 11
125.6261109452484
 21
52.31940580271959
 31
0.0
  0
TEXT
  5
1791
330
18
100
AcDbEntity
  8
寸法線
100
AcDbText
 10
113.684778804916
 20
115.0298983998724
 30
0.0
 40
1.199999999999999
  1
MODE
  7
STYLE4
100
AcDbText
  0
LINE
  5
1792
330
18
100
AcDbEntity
  8
外形線
100
AcDbLine
 10
103.1261109452483
 20
118.4194058027195
 30
0.0
 11
144.1261109452484
 21
118.4194058027195
 31
0.0
  0
LINE
  5
1793
330
18
100
AcDbEntity
  8
外形線
100
AcDbLine
 10
118.6261109452484
 20
94.81940580271952
 30
0.0
 11
128.6261109452484
 21
94.81940580271958
 31
0.0
  0
POINT
  5
1794
330
18
100
AcDbEntity
  8
DEFPOINTS
  6
ByBlock
 62
     0
100
AcDbPoint
 10
117.6261109452484
 20
97.91940580271955
 30
0.0
  0
LINE
  5
1795
330
18
100
AcDbEntity
  8
外形線
100
AcDbLine
 10
117.6261109452484
 20
100.5255288893214
 30
0.0
 11
117.6261109452484
 21
96.81940580271954
 31
0.0
  0
LINE
  5
1796
330
18
100
AcDbEntity
  8
外形線
100
AcDbLine
 10
129.6261109452484
 20
100.5255288893214
 30
0.0
 11
129.6261109452484
 21
96.81940580271959
 31
0.0
  0
TEXT
  5
1797
330
18
100
AcDbEntity
  8
寸法線
100
AcDbText
 10
127.8904663651031
 20
115.0298983998724
 30
0.0
 40
1.199999999999999
  1
ON/OFF
  7
STYLE4
100
AcDbText
  0
LINE
  5
1798
330
18
100
AcDbEntity
  8
外形線
100
AcDbLine
 10
94.62611094524845
 20
129.9194058027195
 30
0.0
 11
101.6261109452484
 21
129.9194058027195
 31
0.0
  0
ARC
  5
1799
330
18
100
AcDbEntity
  8
外形線
100
AcDbCircle
 10
123.6261109452484
 20
129.9194058027195
 30
0.0
 40
29.0
100
AcDbArc
 50
0.0
 51
180.0
  0
LINE
  5
179A
330
18
100
AcDbEntity
  8
中心線
100
AcDbLine
 10
87.33670223079071
 20
129.9194058027195
 30
0.0
 11
159.9155196597062
 21
129.9194058027195
 31
0.0
  0
ARC
  5
179B
330
18
100
AcDbEntity
  8
外形線
100
AcDbCircle
 10
144.1261109452484
 20
139.9194058027195
 30
0.0
 40
1.5
100
AcDbArc
 50
0.0
 51
90.0
  0
LINE
  5
179C
102
{ACAD_REACTORS
330
17A0
102
}
330
18
100
AcDbEntity
  8
ROGO
 62
     4
100
AcDbLine
 10
118.8377093362444
 20
146.6755653486615
 30
0.0
 11
120.0378778790962
 21
146.6755653486615
 31
0.0
  0
LINE
  5
179D
102
{ACAD_REACTORS
330
17A0
102
}
330
18
100
AcDbEntity
  8
ROGO
 62
     4
100
AcDbLine
 10
118.6880909627175
 20
146.3731781502819
 30
0.0
 11
119.8882595055692
 21
146.3731781502819
 31
0.0
  0
LINE
  5
179E
102
{ACAD_REACTORS
330
17A0
102
}
330
18
100
AcDbEntity
  8
ROGO
 62
     4
100
AcDbLine
 10
118.5346713369155
 20
146.0631084059774
 30
0.0
 11
119.7348398797671
 21
146.0631084059776
 31
0.0
  0
LINE
  5
179F
102
{ACAD_REACTORS
330
17A0
102
}
330
18
100
AcDbEntity
  8
ROGO
 62
     4
100
AcDbLine
 10
117.9457006541327
 20
147.0623112024085
 30
0.0
 11
120.2292361307549
 21
147.0623112024086
 31
0.0
  0
HATCH
  5
17A0
330
18
100
AcDbEntity
  8
ROGO
 62
     4
100
AcDbHatch
 10
0.0
 20
0.0
 30
0.0
210
0.0
220
0.0
230
1.0
  2
SOLID
 70
     1
 71
     1
 91
        1
 92
        1
 93
       12
 72
     1
 10
117.9457006541327
 20
147.0623112024085
 11
120.2292361307549
 21
147.0623112024086
 72
     1
 10
120.2292361307549
 20
147.0623112024085
 11
120.0378778790962
 21
146.6755653486615
 72
     1
 10
120.0378778790962
 20
146.6755653486615
 11
118.8377093362444
 21
146.6755653486615
 72
     1
 10
118.8377093362444
 20
146.6755653486615
 11
118.6880909627175
 21
146.3731781502819
 72
     1
 10
118.6880909627175
 20
146.3731781502819
 11
119.8882595055692
 21
146.3731781502819
 72
     1
 10
119.8882595055692
 20
146.3731781502819
 11
119.7348398797671
 21
146.0631084059774
 72
     1
 10
119.7348398797671
 20
146.0631084059776
 11
118.5346713369155
 21
146.0631084059774
 72
     1
 10
118.5346713369155
 20
146.0631084059774
 11
118.3850466292658
 21
145.7607084059774
 72
     1
 10
118.3850466292658
 20
145.7607084059774
 11
119.5852151721175
 21
145.7607084059774
 72
     1
 10
119.5852151721175
 20
145.7607084059774
 11
119.3938665459918
 21
145.3739820059775
 72
     1
 10
119.3938665459918
 20
145.3739820059775
 11
117.1103310693697
 21
145.3739820059775
 72
     1
 10
117.1103310693697
 20
145.3739820059775
 11
117.9457006541327
 21
147.0623112024085
 97
       12
330
179F
330
17C8
330
179C
330
17AC
330
179D
330
17D1
330
179E
330
17AF
330
17AD
330
17AE
330
17B6
330
17AA
 75
     0
 76
     1
 98
        1
 10
24.53839196722118
 20
30.321901997694
450
        0
451
        0
460
0.0
461
0.0
452
        0
462
0.0
453
        0
470

  0
TEXT
  5
17A1
330
18
100
AcDbEntity
  8
文字
100
AcDbText
 10
116.4132359649411
 20
149.2626253735312
 30
0.0
 40
2.0
  1
G2-205M
 51
10.0
  7
STYLE3
100
AcDbText
  0
LINE
  5
17A2
330
18
100
AcDbEntity
  8
ROGO
 62
     4
100
AcDbLine
 10
113.3423641374826
 20
144.4241813361008
 30
0.0
 11
131.1998777665131
 21
144.4241813361008
 31
0.0
  0
LINE
  5
17A3
330
18
100
AcDbEntity
  8
ROGO
 62
     4
100
AcDbLine
 10
114.6699779803363
 20
144.6886144584753
 30
0.0
 11
130.3596249927899
 21
144.6886144584753
 31
0.0
  0
HATCH
  5
17A4
330
18
100
AcDbEntity
  8
ROGO
 62
     4
100
AcDbHatch
 10
0.0
 20
0.0
 30
0.0
210
0.0
220
0.0
230
1.0
  2
SOLID
 70
     1
 71
     0
 91
        1
 92
        7
 72
     0
 73
     1
 93
        4
 10
114.6883166978006
 20
144.6886144584753
 10
114.568679652258
 20
144.4241813361008
 10
130.2277700975791
 20
144.4241813361007
 10
130.3596249927899
 20
144.6886144584753
 97
        0
 75
     0
 76
     1
 47
0.0514683685270805
 98
        1
 10
124.5834763189427
 20
144.6186761473549
450
        0
451
        0
460
0.0
461
0.0
452
        0
462
0.0
453
        0
470

  0
ARC
  5
17A5
330
18
100
AcDbEntity
  8
外形線
100
AcDbCircle
 10
123.6261109452484
 20
129.9194058027195
 30
0.0
 40
31.0
100
AcDbArc
 50
69.21644040415333
 51
110.7835595958466
  0
LINE
  5
17A6
330
18
100
AcDbEntity
  8
外形線
100
AcDbLine
 10
103.1261109452484
 20
141.4194058027195
 30
0.0
 11
144.1261109452484
 21
141.4194058027195
 31
0.0
  0
LINE
  5
17A7
330
18
100
AcDbEntity
  8
ROGO
 62
     4
100
AcDbLine
 10
114.6476862604589
 20
147.0623112024085
 30
0.0
 11
113.3423641374826
 21
144.4241813361008
 31
0.0
  0
SPLINE
  5
17A8
330
18
100
AcDbEntity
  8
ROGO
 62
     4
100
AcDbSpline
210
0.0
220
0.0
230
1.0
 70
     8
 71
     3
 72
    18
 73
    14
 74
     0
 42
0.0000000001
 43
0.0000000001
 40
0.1087402787915014
 40
0.1087402787915014
 40
0.1087402787915014
 40
0.1087402787915014
 40
0.5992371417938475
 40
1.083176791562496
 40
1.448211145705696
 40
1.714037220764907
 40
2.164002567013297
 40
2.740236056362883
 40
3.395137510199602
 40
4.071816045172726
 40
4.784906178399433
 40
5.506895915094292
 40
6.060470601257719
 40
6.060470601257719
 40
6.060470601257719
 40
6.060470601257719
 10
116.720898377154
 20
147.0623112024086
 30
0.0
 10
116.7873177826861
 20
147.0379696033186
 30
0.0
 10
116.9179308584939
 20
146.9865077430562
 30
0.0
 10
117.0773404470545
 20
146.8690547733243
 30
0.0
 10
117.1642755535292
 20
146.7334649169594
 30
0.0
 10
117.2478973930846
 20
146.5998653911415
 30
0.0
 10
117.2596001168843
 20
146.4081942757974
 30
0.0
 10
117.240430264681
 20
146.1658755300624
 30
0.0
 10
117.1166714306973
 20
145.9130409246786
 30
0.0
 10
116.918031223307
 20
145.6919018850762
 30
0.0
 10
116.6714055436159
 20
145.5149050817798
 30
0.0
 10
116.4113302574781
 20
145.3759671491428
 30
0.0
 10
116.2254283698378
 20
145.3745827940746
 30
0.0
 10
116.1447499052589
 20
145.3739820059775
 30
0.0
  0
HATCH
  5
17A9
330
18
100
AcDbEntity
  8
ROGO
 62
     4
100
AcDbHatch
 10
0.0
 20
0.0
 30
0.0
210
0.0
220
0.0
230
1.0
  2
SOLID
 70
     1
 71
     0
 91
        2
 92
        5
 93
        6
 72
     1
 10
113.3423641374826
 20
144.4241813361008
 11
114.568679652258
 21
144.4241813361008
 72
     1
 10
114.568679652258
 20
144.4241813361008
 11
114.998396417609
 21
145.3739820059775
 72
     1
 10
114.998396417609
 20
145.3739820059775
 11
116.1447499052589
 21
145.3739820059775
 72
     4
 94
        3
 73
     0
 74
     0
 95
       18
 96
       14
 40
0.108740278791501
 40
0.108740278791501
 40
0.108740278791501
 40
0.108740278791501
 40
0.6623149649549278
 40
1.384304701649787
 40
2.097394834876493
 40
2.774073369849618
 40
3.428974823686337
 40
4.005208313035923
 40
4.455173659284313
 40
4.720999734343524
 40
5.086034088486724
 40
5.569973738255373
 40
6.060470601257719
 40
6.060470601257719
 40
6.060470601257719
 40
6.060470601257719
 10
116.1447499052589
 20
145.3739820059775
 10
116.2254283698378
 20
145.3745827940746
 10
116.4113302574781
 20
145.3759671491428
 10
116.6714055436159
 20
145.5149050817798
 10
116.918031223307
 20
145.6919018850762
 10
117.1166714306973
 20
145.9130409246786
 10
117.240430264681
 20
146.1658755300624
 10
117.2596001168843
 20
146.4081942757974
 10
117.2478973930846
 20
146.5998653911415
 10
117.1642755535292
 20
146.7334649169594
 10
117.0773404470545
 20
146.8690547733243
 10
116.9179308584939
 20
146.9865077430562
 10
116.7873177826861
 20
147.0379696033186
 10
116.720898377154
 20
147.0623112024086
 72
     1
 10
116.7208983771542
 20
147.0623112024085
 11
114.6476862604589
 21
147.0623112024085
 72
     1
 10
114.6476862604589
 20
147.0623112024085
 11
113.3423641374826
 21
144.4241813361008
 97
        0
 92
       20
 93
        4
 72
     1
 10
115.2637221934362
 20
145.9604301502815
 11
115.4668622173245
 21
146.4094294594199
 72
     1
 10
115.4668622173245
 20
146.4094294594199
 11
115.9888455018781
 21
146.4094294594199
 72
     4
 94
        3
 73
     0
 74
     0
 95
       15
 96
       11
 40
0.0
 40
0.0
 40
0.0
 40
0.0
 40
0.1979620751796092
 40
0.2882218927611821
 40
0.390672794493828
 40
0.4604671121752228
 40
0.570847549457819
 40
0.6369624161317818
 40
0.7503938621545029
 40
0.7882043682941406
 40
0.7882043682941406
 40
0.7882043682941406
 40
0.7882043682941406
 10
115.9888455018782
 20
146.4094294594199
 10
116.0631962183829
 20
146.4097700253887
 10
116.1714467720289
 20
146.4102658707069
 10
116.2306420302121
 20
146.2763596227976
 10
116.2041078930545
 20
146.1901448882638
 10
116.170752320081
 20
146.101629227088
 10
116.1118054680979
 20
146.0414815003132
 10
116.0326901586184
 20
145.9835490999226
 10
115.9579224104038
 20
145.9765361234463
 10
115.9092943831534
 20
145.9636513461481
 10
115.8971373705214
 20
145.9604301502816
 72
     1
 10
115.8971373705212
 20
145.9604301502814
 11
115.2637221934362
 21
145.9604301502815
 97
        0
 75
     0
 76
     1
 47
0.0514683685270805
 98
        2
 10
114.6587672575678
 20
146.2417828006941
 10
114.6587672575678
 20
146.2417828006941
450
        0
451
        0
460
0.0
461
0.0
452
        0
462
0.0
453
        0
470

  0
LINE
  5
17AA
102
{ACAD_REACTORS
330
17A0
102
}
330
18
100
AcDbEntity
  8
ROGO
 62
     4
100
AcDbLine
 10
117.9457006541327
 20
147.0623112024085
 30
0.0
 11
117.1103310693697
 21
145.3739820059775
 31
0.0
  0
ARC
  5
17AB
330
18
100
AcDbEntity
  8
外形線
100
AcDbCircle
 10
103.1261109452484
 20
139.9194058027195
 30
0.0
 40
1.5
100
AcDbArc
 50
90.0
 51
180.0
  0
LINE
  5
17AC
102
{ACAD_REACTORS
330
17A0
102
}
330
18
100
AcDbEntity
  8
ROGO
 62
     4
100
AcDbLine
 10
118.8377093362444
 20
146.6755653486615
 30
0.0
 11
118.6880909627175
 21
146.3731781502819
 31
0.0
  0
LINE
  5
17AD
102
{ACAD_REACTORS
330
17A0
102
}
330
18
100
AcDbEntity
  8
ROGO
 62
     4
100
AcDbLine
 10
118.3850466292658
 20
145.7607084059774
 30
0.0
 11
119.5852151721175
 21
145.7607084059774
 31
0.0
  0
LINE
  5
17AE
102
{ACAD_REACTORS
330
17A0
102
}
330
18
100
AcDbEntity
  8
ROGO
 62
     4
100
AcDbLine
 10
119.5852151721175
 20
145.7607084059774
 30
0.0
 11
119.3938665459918
 21
145.3739820059775
 31
0.0
  0
LINE
  5
17AF
102
{ACAD_REACTORS
330
17A0
102
}
330
18
100
AcDbEntity
  8
ROGO
 62
     4
100
AcDbLine
 10
118.5346713369155
 20
146.0631084059774
 30
0.0
 11
118.3850466292658
 21
145.7607084059774
 31
0.0
  0
LINE
  5
17B0
330
18
100
AcDbEntity
  8
ROGO
 62
     4
100
AcDbLine
 10
116.1447499056562
 20
145.3739820059775
 30
0.0
 11
114.998396417609
 21
145.3739820059775
 31
0.0
  0
LINE
  5
17B1
330
18
100
AcDbEntity
  8
ROGO
 62
     4
100
AcDbLine
 10
115.4668622173244
 20
146.4094294594199
 30
0.0
 11
115.2637221934362
 21
145.9604301502816
 31
0.0
  0
SPLINE
  5
17B2
330
18
100
AcDbEntity
  8
ROGO
 62
     4
100
AcDbSpline
210
0.0
220
0.0
230
1.0
 70
     8
 71
     3
 72
    15
 73
    11
 74
     9
 42
0.0000000001
 43
0.0000000001
 44
0.0000000001
 40
0.0
 40
0.0
 40
0.0
 40
0.0
 40
0.1979620751796092
 40
0.2882218927611821
 40
0.390672794493828
 40
0.4604671121752228
 40
0.570847549457819
 40
0.6369624161317818
 40
0.7503938621545029
 40
0.7882043682941406
 40
0.7882043682941406
 40
0.7882043682941406
 40
0.7882043682941406
 10
115.9888455018782
 20
146.4094294594199
 30
0.0
 10
116.0631962183829
 20
146.4097700253887
 30
0.0
 10
116.171446772029
 20
146.4102658707069
 30
0.0
 10
116.2306420302121
 20
146.2763596227976
 30
0.0
 10
116.2041078930546
 20
146.1901448882638
 30
0.0
 10
116.170752320081
 20
146.101629227088
 30
0.0
 10
116.1118054680979
 20
146.0414815003133
 30
0.0
 10
116.0326901586183
 20
145.9835490999226
 30
0.0
 10
115.9579224104039
 20
145.9765361234464
 30
0.0
 10
115.9092943831534
 20
145.963651346148
 30
0.0
 10
115.8971373705214
 20
145.9604301502816
 30
0.0
 11
115.9888455018782
 21
146.4094294594199
 31
0.0
 11
116.1814327359295
 21
146.3636130814543
 31
0.0
 11
116.2181160939402
 21
146.2811438998474
 31
0.0
 11
116.1997746786048
 21
146.1803481670541
 31
0.0
 11
116.1722622919319
 21
146.1162052379023
 31
0.0
 11
116.0988955759104
 21
146.0337360562954
 31
0.0
 11
116.0438708025643
 21
145.9970829539229
 31
0.0
 11
115.9338207285321
 21
145.9695934258746
 31
0.0
 11
115.8971373705214
 21
145.9604301502816
 31
0.0
  0
LINE
  5
17B3
330
18
100
AcDbEntity
  8
ROGO
 62
     4
100
AcDbLine
 10
115.9888455018782
 20
146.4094294594199
 30
0.0
 11
115.4668622173244
 21
146.4094294594199
 31
0.0
  0
LINE
  5
17B4
330
18
100
AcDbEntity
  8
ROGO
 62
     4
100
AcDbLine
 10
115.8971373705216
 20
145.9604301502814
 30
0.0
 11
115.2637221934362
 21
145.9604301502816
 31
0.0
  0
LINE
  5
17B5
330
18
100
AcDbEntity
  8
ROGO
 62
     4
100
AcDbLine
 10
114.998396417609
 20
145.3739820059775
 30
0.0
 11
114.568679652258
 21
144.4241813361008
 31
0.0
  0
LINE
  5
17B6
102
{ACAD_REACTORS
330
17A0
102
}
330
18
100
AcDbEntity
  8
ROGO
 62
     4
100
AcDbLine
 10
117.1103310693697
 20
145.3739820059775
 30
0.0
 11
119.3938665459918
 21
145.3739820059775
 31
0.0
  0
LINE
  5
17B7
330
18
100
AcDbEntity
  8
外形線
100
AcDbLine
 10
112.6261109452484
 20
158.9021592950984
 30
0.0
 11
112.6261109452484
 21
157.8299772766253
 31
0.0
  0
LINE
  5
17B8
330
18
100
AcDbEntity
  8
ROGO
 62
     4
100
AcDbLine
 10
114.6476862604589
 20
147.0623112024085
 30
0.0
 11
116.720898377154
 21
147.0623112024085
 31
0.0
  0
LINE
  5
17B9
330
18
100
AcDbEntity
  8
ROGO
 62
     4
100
AcDbLine
 10
132.5153345215172
 20
147.0623112024085
 30
0.0
 11
132.2781665738293
 21
146.5866742468444
 31
0.0
  0
LINE
  5
17BA
330
18
100
AcDbEntity
  8
ROGO
 62
     4
100
AcDbLine
 10
132.2009339611513
 20
145.7432462692546
 30
0.0
 11
133.798959490863
 21
147.0623112024085
 31
0.0
  0
LINE
  5
17BB
330
18
100
AcDbEntity
  8
ROGO
 62
     4
100
AcDbLine
 10
132.2781665738293
 20
146.5866742468444
 30
0.0
 11
132.826873090863
 21
147.0623112024085
 31
0.0
  0
SPLINE
  5
17BC
330
18
100
AcDbEntity
  8
ROGO
 62
     4
100
AcDbSpline
210
0.0
220
0.0
230
1.0
 70
     8
 71
     3
 72
    26
 73
    22
 74
    20
 42
0.0000000001
 43
0.0000000001
 44
0.0000000001
 40
0.0
 40
0.0
 40
0.0
 40
0.0
 40
0.306282258847545
 40
0.5113145150563467
 40
0.6591594689727181
 40
0.7695505122602936
 40
0.9127334891893321
 40
1.017243103820775
 40
1.205963108812882
 40
1.359578479722684
 40
1.464061546148625
 40
1.566512542290257
 40
1.74977745669044
 40
1.879367624743214
 40
1.949161942424609
 40
2.048302708997821
 40
2.119894481049017
 40
2.223607322578586
 40
2.282299819925649
 40
2.41002127769804
 40
2.468340004822995
 40
2.468340004822995
 40
2.468340004822995
 40
2.468340004822995
 10
129.4988595324324
 20
147.0623112024085
 30
0.0
 10
129.394902601457
 20
147.056108953639
 30
0.0
 10
129.2213545548008
 20
147.0457547795718
 30
0.0
 10
129.0307998553142
 20
146.9299948460397
 30
0.0
 10
128.8911883267868
 20
146.8626971077424
 30
0.0
 10
128.7916175539556
 20
146.7712115659172
 30
0.0
 10
128.7186317738403
 20
146.6767136841039
 30
0.0
 10
128.6266194963719
 20
146.5641201507999
 30
0.0
 10
128.5515861133502
 20
146.4330095374882
 30
0.0
 10
128.5133761729503
 20
146.2885027846925
 30
0.0
 10
128.4795301703956
 20
146.1733300642597
 30
0.0
 10
128.4544294082875
 20
146.0449850976837
 30
0.0
 10
128.4608157527612
 20
145.9063273843836
 30
0.0
 10
128.469961290327
 20
145.7775491988074
 30
0.0
 10
128.5107938916578
 20
145.6856208550445
 30
0.0
 10
128.5572949918736
 20
145.6201742089925
 30
0.0
 10
128.6142349522584
 20
145.548091984094
 30
0.0
 10
128.6765397206667
 20
145.5003521599552
 30
0.0
 10
128.7280708498088
 20
145.4138682604887
 30
0.0
 10
128.8182743530033
 20
145.4028322911907
 30
0.0
 10
128.8756112882437
 20
145.3808674184918
 30
0.0
 10
128.8935849162656
 20
145.3739820059775
 30
0.0
 11
129.4988595324324
 21
147.0623112024085
 31
0.0
 11
129.1962222243489
 21
147.0151998254308
 31
0.0
 11
129.0128054342954
 21
146.9235673682308
 31
0.0
 11
128.8844139449278
 21
146.8502614622169
 31
0.0
 11
128.8018767849087
 21
146.776955257472
 31
0.0
 11
128.710168653552
 21
146.6669962490856
 31
0.0
 11
128.6459729088682
 21
146.5845270674788
 31
0.0
 11
128.5542642501714
 21
146.4195884055336
 31
0.0
 11
128.5084104481629
 21
146.2729762947749
 31
0.0
 11
128.48089806149
 21
146.1721805619817
 31
0.0
 11
128.4625561188146
 21
146.0713848291885
 31
0.0
 11
128.4625561188146
 21
145.8881199147884
 31
0.0
 11
128.48089806149
 21
145.7598343552158
 31
0.0
 11
128.5084104481629
 21
145.695691426064
 31
0.0
 11
128.563435221509
 21
145.613222244457
 31
0.0
 11
128.6092895508575
 21
145.5582425908983
 31
0.0
 11
128.6826557395388
 21
145.4849366848844
 31
0.0
 11
128.7193390975496
 21
145.4391203069189
 31
0.0
 11
128.8385601429195
 21
145.3933042276843
 31
0.0
 11
128.8935849162656
 21
145.3739820059775
 31
0.0
  0
LINE
  5
17BD
330
18
100
AcDbEntity
  8
ROGO
 62
     4
100
AcDbLine
 10
131.1896205437119
 20
147.0623112024085
 30
0.0
 11
130.8763957287311
 21
146.4341432781297
 31
0.0
  0
LINE
  5
17BE
330
18
100
AcDbEntity
  8
ROGO
 62
     4
100
AcDbLine
 10
131.5432268525833
 20
147.0623112024085
 30
0.0
 11
130.2277700975792
 21
144.4241813361008
 31
0.0
  0
HATCH
  5
17BF
330
18
100
AcDbEntity
  8
ROGO
 62
     4
100
AcDbHatch
 10
0.0
 20
0.0
 30
0.0
210
0.0
220
0.0
230
1.0
  2
SOLID
 70
     1
 71
     0
 91
        1
 92
        5
 93
        8
 72
     4
 94
        3
 73
     0
 74
     0
 95
       26
 96
       22
 40
0.0
 40
0.0
 40
0.0
 40
0.0
 40
0.306282258847545
 40
0.5113145150563467
 40
0.6591594689727181
 40
0.7695505122602936
 40
0.9127334891893321
 40
1.017243103820775
 40
1.205963108812882
 40
1.359578479722684
 40
1.464061546148625
 40
1.566512542290257
 40
1.74977745669044
 40
1.879367624743214
 40
1.949161942424609
 40
2.048302708997821
 40
2.119894481049017
 40
2.223607322578586
 40
2.282299819925649
 40
2.41002127769804
 40
2.468340004822995
 40
2.468340004822995
 40
2.468340004822995
 40
2.468340004822995
 10
129.4988595324324
 20
147.0623112024085
 10
129.394902601457
 20
147.056108953639
 10
129.2213545548009
 20
147.0457547795718
 10
129.0307998553142
 20
146.9299948460397
 10
128.8911883267868
 20
146.8626971077424
 10
128.7916175539556
 20
146.7712115659172
 10
128.7186317738403
 20
146.6767136841039
 10
128.6266194963719
 20
146.5641201507999
 10
128.5515861133501
 20
146.4330095374882
 10
128.5133761729503
 20
146.2885027846926
 10
128.4795301703955
 20
146.1733300642597
 10
128.4544294082875
 20
146.0449850976837
 10
128.4608157527612
 20
145.9063273843836
 10
128.4699612903269
 20
145.7775491988073
 10
128.5107938916578
 20
145.6856208550445
 10
128.5572949918736
 20
145.6201742089925
 10
128.6142349522583
 20
145.548091984094
 10
128.6765397206666
 20
145.5003521599552
 10
128.7280708498087
 20
145.4138682604887
 10
128.8182743530034
 20
145.4028322911907
 10
128.8756112882437
 20
145.3808674184918
 10
128.8935849162656
 20
145.3739820059775
 72
     1
 10
128.8935849162656
 20
145.3739820059775
 11
130.3477650784143
 21
145.3739820059774
 72
     1
 10
130.3477650784143
 20
145.3739820059774
 11
130.66098657643
 21
146.0021432781296
 72
     1
 10
130.66098657643
 20
146.0021432781296
 11
129.5813966924514
 21
146.0021432781296
 72
     4
 94
        3
 73
     0
 74
     0
 95
       16
 96
       12
 40
0.0
 40
0.0
 40
0.0
 40
0.0
 40
0.0924964283868937
 40
0.185946890240525
 40
0.2416858907028844
 40
0.2951281203562444
 40
0.3538203845089212
 40
0.3948066843497379
 40
0.4336991257335823
 40
0.5125674130988856
 40
0.6740411735369252
 40
0.6740411735369252
 40
0.6740411735369252
 40
0.6740411735369252
 10
129.5813966924515
 20
146.0021432781296
 10
129.5488324570165
 20
146.0117241536721
 10
129.4833681097134
 20
146.0309847245284
 10
129.4778892724806
 20
146.1243528962763
 10
129.4853533955602
 20
146.1908853589381
 10
129.5166131596879
 20
146.2393248770016
 10
129.5545366755088
 20
146.2745709997617
 10
129.5686572824036
 20
146.3204735637104
 10
129.6101635198491
 20
146.3551357424029
 10
129.6837652002087
 20
146.4133980228004
 10
129.7651559174806
 20
146.4258065867388
 10
129.8198382558511
 20
146.4341432781297
 72
     1
 10
129.8198382558511
 20
146.4341432781297
 11
130.8763957287311
 21
146.4341432781296
 72
     1
 10
130.8763957287311
 20
146.4341432781296
 11
131.1896205437119
 21
147.0623112024085
 72
     1
 10
131.1896205437119
 20
147.0623112024085
 11
129.4988595324324
 21
147.0623112024085
 97
        0
 75
     0
 76
     1
 47
0.0514683685270805
 98
        1
 10
129.7906105134558
 20
146.7531723840354
450
        0
451
        0
460
0.0
461
0.0
452
        0
462
0.0
453
        0
470

  0
SPLINE
  5
17C0
102
{ACAD_REACTORS
330
17C6
102
}
330
18
100
AcDbEntity
  8
ROGO
 62
     4
100
AcDbSpline
210
0.0
220
0.0
230
1.0
 70
     8
 71
     3
 72
    25
 73
    21
 74
     0
 42
0.0000000001
 43
0.0000000001
 40
0.0
 40
0.0
 40
0.0
 40
0.0
 40
0.4087168505087288
 40
0.6887487002771746
 40
0.9415836120477687
 40
1.17452070575514
 40
1.41154617586699
 40
1.599156012919487
 40
1.80099909059943
 40
2.178735911501585
 40
2.521686161369157
 40
2.762704659361267
 40
3.06256558063785
 40
3.222432137207705
 40
3.399493810628493
 40
3.567459719866414
 40
3.743172740007509
 40
3.995988754699505
 40
4.17170091132118
 40
4.337226830236035
 40
4.337226830236035
 40
4.337226830236035
 40
4.337226830236035
 10
127.652118308098
 20
147.0693533413443
 30
0.0
 10
127.7154012300736
 20
147.0673201263293
 30
0.0
 10
127.822042368569
 20
147.0638938565359
 30
0.0
 10
127.936534786796
 20
146.9744046844816
 30
0.0
 10
128.0241410706295
 20
146.9002113043624
 30
0.0
 10
128.0863250983075
 20
146.8105149819328
 30
0.0
 10
128.1408311408477
 20
146.7280439914907
 30
0.0
 10
128.1767464904081
 20
146.6409736012058
 30
0.0
 10
128.2255984617043
 20
146.536497106944
 30
0.0
 10
128.2458207643935
 20
146.3967230795327
 30
0.0
 10
128.2321581943893
 20
146.252253725617
 30
0.0
 10
128.1965052658925
 20
146.124194932284
 30
0.0
 10
128.1591082104211
 20
146.0259512342416
 30
0.0
 10
128.1150313289558
 20
145.9404240002536
 30
0.0
 10
128.0624860538505
 20
145.885045109612
 30
0.0
 10
128.0260322538719
 20
145.8146313900223
 30
0.0
 10
127.9560091672355
 20
145.7570367477565
 30
0.0
 10
127.8992446760554
 20
145.6859730428871
 30
0.0
 10
127.8348288003759
 20
145.6249783093088
 30
0.0
 10
127.798510844128
 20
145.587345293738
 30
0.0
 10
127.7793631417646
 20
145.5715223372365
 30
0.0
  0
LINE
  5
17C1
330
18
100
AcDbEntity
  8
ROGO
 62
     4
100
AcDbLine
 10
125.7496736953761
 20
147.0623112024085
 30
0.0
 11
125.4364488803953
 21
146.4341432781297
 31
0.0
  0
SPLINE
  5
17C2
330
18
100
AcDbEntity
  8
ROGO
 62
     4
100
AcDbSpline
210
0.0
220
0.0
230
1.0
 70
     8
 71
     3
 72
    26
 73
    22
 74
    20
 42
0.0000000001
 43
0.0000000001
 44
0.0000000001
 40
0.0
 40
0.0
 40
0.0
 40
0.0
 40
0.306282258847545
 40
0.5113145150563467
 40
0.6591594689727181
 40
0.7695505122602936
 40
0.9127334891892449
 40
1.017243103820777
 40
1.205963108812785
 40
1.359578479722587
 40
1.464061546148638
 40
1.566512542290269
 40
1.749777456690453
 40
1.879367624743226
 40
1.949161942424621
 40
2.048302708997833
 40
2.119894481049029
 40
2.223607322578598
 40
2.282299819925661
 40
2.410021277698012
 40
2.468340004823004
 40
2.468340004823004
 40
2.468340004823004
 40
2.468340004823004
 10
124.0589126840966
 20
147.0623112024085
 30
0.0
 10
123.9549557531212
 20
147.056108953639
 30
0.0
 10
123.781407706465
 20
147.0457547795718
 30
0.0
 10
123.5908530069784
 20
146.9299948460397
 30
0.0
 10
123.451241478451
 20
146.8626971077424
 30
0.0
 10
123.3516707056198
 20
146.7712115659171
 30
0.0
 10
123.2786849255045
 20
146.676713684104
 30
0.0
 10
123.1866726480361
 20
146.5641201507999
 30
0.0
 10
123.1116392650143
 20
146.4330095374883
 30
0.0
 10
123.0734293246145
 20
146.2885027846926
 30
0.0
 10
123.0395833220598
 20
146.1733300642597
 30
0.0
 10
123.0144825599516
 20
146.0449850976837
 30
0.0
 10
123.0208689044254
 20
145.9063273843836
 30
0.0
 10
123.0300144419912
 20
145.7775491988074
 30
0.0
 10
123.070847043322
 20
145.6856208550445
 30
0.0
 10
123.1173481435378
 20
145.6201742089925
 30
0.0
 10
123.1742881039226
 20
145.548091984094
 30
0.0
 10
123.2365928723309
 20
145.5003521599553
 30
0.0
 10
123.288124001473
 20
145.4138682604887
 30
0.0
 10
123.3783275046676
 20
145.4028322911908
 30
0.0
 10
123.4356644399079
 20
145.3808674184918
 30
0.0
 10
123.4536380679297
 20
145.3739820059775
 30
0.0
 11
124.0589126840966
 21
147.0623112024085
 31
0.0
 11
123.7562753760131
 21
147.0151998254308
 31
0.0
 11
123.5728585859596
 21
146.9235673682308
 31
0.0
 11
123.444467096592
 21
146.8502614622169
 31
0.0
 11
123.3619299365729
 21
146.776955257472
 31
0.0
 11
123.2702218052162
 21
146.6669962490857
 31
0.0
 11
123.2060260605324
 21
146.5845270674788
 31
0.0
 11
123.1143174018356
 21
146.4195884055337
 31
0.0
 11
123.0684635998271
 21
146.272976294775
 31
0.0
 11
123.0409512131542
 21
146.1721805619817
 31
0.0
 11
123.0226092704788
 21
146.0713848291885
 31
0.0
 11
123.0226092704788
 21
145.8881199147884
 31
0.0
 11
123.0409512131542
 21
145.7598343552158
 31
0.0
 11
123.0684635998271
 21
145.695691426064
 31
0.0
 11
123.1234883731732
 21
145.613222244457
 31
0.0
 11
123.1693427025217
 21
145.5582425908983
 31
0.0
 11
123.242708891203
 21
145.4849366848844
 31
0.0
 11
123.2793922492138
 21
145.4391203069189
 31
0.0
 11
123.3986132945837
 21
145.3933042276844
 31
0.0
 11
123.4536380679297
 21
145.3739820059775
 31
0.0
  0
HATCH
  5
17C3
330
18
100
AcDbEntity
  8
ROGO
 62
     4
100
AcDbHatch
 10
0.0
 20
0.0
 30
0.0
210
0.0
220
0.0
230
1.0
  2
SOLID
 70
     1
 71
     0
 91
        1
 92
        5
 93
        8
 72
     1
 10
125.4364488803954
 20
146.4341432781298
 11
125.7496736953761
 21
147.0623112024086
 72
     1
 10
125.7496736953761
 20
147.0623112024086
 11
124.0589126840972
 21
147.0623112024086
 72
     4
 94
        3
 73
     0
 74
     0
 95
       26
 96
       22
 40
0.0
 40
0.0
 40
0.0
 40
0.0
 40
0.306282258847545
 40
0.5113145150563467
 40
0.6591594689727181
 40
0.7695505122602936
 40
0.9127334891892449
 40
1.017243103820777
 40
1.205963108812785
 40
1.359578479722587
 40
1.464061546148638
 40
1.566512542290269
 40
1.749777456690453
 40
1.879367624743226
 40
1.949161942424621
 40
2.048302708997833
 40
2.119894481049029
 40
2.223607322578598
 40
2.282299819925661
 40
2.410021277698012
 40
2.468340004823004
 40
2.468340004823004
 40
2.468340004823004
 40
2.468340004823004
 10
124.0589126840966
 20
147.0623112024085
 10
123.9549557531212
 20
147.056108953639
 10
123.7814077064649
 20
147.0457547795718
 10
123.5908530069784
 20
146.9299948460397
 10
123.451241478451
 20
146.8626971077424
 10
123.3516707056198
 20
146.7712115659171
 10
123.2786849255044
 20
146.676713684104
 10
123.1866726480362
 20
146.5641201507999
 10
123.1116392650143
 20
146.4330095374883
 10
123.0734293246144
 20
146.2885027846926
 10
123.0395833220597
 20
146.1733300642597
 10
123.0144825599516
 20
146.0449850976837
 10
123.0208689044254
 20
145.9063273843836
 10
123.0300144419911
 20
145.7775491988074
 10
123.070847043322
 20
145.6856208550445
 10
123.1173481435378
 20
145.6201742089925
 10
123.1742881039225
 20
145.548091984094
 10
123.2365928723308
 20
145.5003521599552
 10
123.288124001473
 20
145.4138682604887
 10
123.3783275046676
 20
145.4028322911909
 10
123.4356644399079
 20
145.3808674184918
 10
123.4536380679297
 20
145.3739820059775
 72
     1
 10
123.4536380679297
 20
145.3739820059775
 11
124.9078182300785
 21
145.3739820059775
 72
     1
 10
124.9078182300785
 20
145.3739820059775
 11
125.2210397280942
 21
146.0021432781296
 72
     1
 10
125.2210397280942
 20
146.0021432781296
 11
124.1414498441157
 21
146.0021432781296
 72
     4
 94
        3
 73
     0
 74
     0
 95
       16
 96
       12
 40
0.0
 40
0.0
 40
0.0
 40
0.0
 40
0.092496428386945
 40
0.1859468902404647
 40
0.2416858907028242
 40
0.2951281203562815
 40
0.3538203845089407
 40
0.3948066843496557
 40
0.4336991257336609
 40
0.512567413098898
 40
0.6740411735369377
 40
0.6740411735369377
 40
0.6740411735369377
 40
0.6740411735369377
 10
124.1414498441157
 20
146.0021432781296
 10
124.1088856086806
 20
146.0117241536721
 10
124.0434212613776
 20
146.0309847245285
 10
124.0379424241448
 20
146.1243528962763
 10
124.0454065472244
 20
146.1908853589382
 10
124.076666311352
 20
146.2393248770017
 10
124.1145898271732
 20
146.2745709997617
 10
124.1287104340677
 20
146.3204735637104
 10
124.1702166715132
 20
146.3551357424029
 10
124.243818351873
 20
146.4133980228004
 10
124.3252090691448
 20
146.4258065867388
 10
124.3798914075153
 20
146.4341432781297
 72
     1
 10
124.3798914075153
 20
146.4341432781297
 11
125.4364488803954
 21
146.4341432781298
 97
        0
 75
     0
 76
     1
 47
0.0514683685270805
 98
        1
 10
124.650234409077
 20
146.6864693299624
450
        0
451
        0
460
0.0
461
0.0
452
        0
462
0.0
453
        0
470

  0
LINE
  5
17C4
330
18
100
AcDbEntity
  8
ROGO
 62
     4
100
AcDbLine
 10
122.2412475210009
 20
147.0623112024085
 30
0.0
 11
122.9912702486366
 21
145.3739820059775
 31
0.0
  0
SPLINE
  5
17C5
102
{ACAD_REACTORS
330
17C6
102
}
330
18
100
AcDbEntity
  8
ROGO
 62
     4
100
AcDbSpline
210
0.0
220
0.0
230
1.0
 70
     8
 71
     3
 72
    38
 73
    34
 74
    32
 42
0.0000000001
 43
0.0000000001
 44
0.0000000001
 40
0.0
 40
0.0
 40
0.0
 40
0.0
 40
0.2324160190625641
 40
0.3054076598660179
 40
0.3991969555208118
 40
0.4773548548861183
 40
0.5433001127836845
 40
0.6308904647837286
 40
0.6756456824938584
 40
0.7260518053353911
 40
0.8003409450195571
 40
0.884494420029689
 40
0.9390839551137702
 40
0.9983865037096219
 40
1.064308042580248
 40
1.164347318186099
 40
1.259395062462607
 40
1.303582284428296
 40
1.353971899974848
 40
1.413666953858189
 40
1.456162161198055
 40
1.491785383230425
 40
1.542647296663551
 40
1.598535826931799
 40
1.654424046021893
 40
1.703326315520178
 40
1.815321205179844
 40
1.859508427145426
 40
1.947882923564461
 40
2.026002047025105
 40
2.175555252260891
 40
2.360088422381767
 40
2.626581173122162
 40
2.626581173122162
 40
2.626581173122162
 40
2.626581173122162
 10
126.6872491068596
 20
147.0693533413443
 30
0.0
 10
126.6097778813409
 20
147.0638805453575
 30
0.0
 10
126.5079763541138
 20
147.0566889850597
 30
0.0
 10
126.37871221803
 20
147.0212744656534
 30
0.0
 10
126.3082489623202
 20
146.9790843692075
 30
0.0
 10
126.2349178606266
 20
146.9480726260211
 30
0.0
 10
126.172396266703
 20
146.9021503841292
 30
0.0
 10
126.1091569943797
 20
146.8784870953093
 30
0.0
 10
126.0648749200395
 20
146.8358179559728
 30
0.0
 10
126.0136220310114
 20
146.8097538040337
 30
0.0
 10
125.9728084455088
 20
146.7514146545866
 30
0.0
 10
125.9271904328252
 20
146.6968696638828
 30
0.0
 10
125.8742677991589
 20
146.6570542532832
 30
0.0
 10
125.8308334834396
 20
146.6152364231888
 30
0.0
 10
125.7909885382512
 20
146.5506989465237
 30
0.0
 10
125.7674065163741
 20
146.4649477504994
 30
0.0
 10
125.7009327549906
 20
146.410807537847
 30
0.0
 10
125.690923887798
 20
146.3457148479778
 30
0.0
 10
125.6541552232608
 20
146.3073112563041
 30
0.0
 10
125.6381669219603
 20
146.257737736609
 30
0.0
 10
125.6320778072296
 20
146.2123196360539
 30
0.0
 10
125.6247694176036
 20
146.1699022742175
 30
0.0
 10
125.6056520544475
 20
146.1252810832688
 30
0.0
 10
125.6118920277408
 20
146.0701621532096
 30
0.0
 10
125.6101144466865
 20
146.0167886637468
 30
0.0
 10
125.6111605552237
 20
145.9447327909608
 30
0.0
 10
125.6073850046359
 20
145.8745775377785
 30
0.0
 10
125.6374935410124
 20
145.7982319827048
 30
0.0
 10
125.6553107736447
 20
145.7301804824193
 30
0.0
 10
125.704106163572
 20
145.635954928096
 30
0.0
 10
125.7882771886238
 20
145.5272390118989
 30
0.0
 10
125.9483354335033
 20
145.3952784876652
 30
0.0
 10
126.1022361156511
 20
145.381891706743
 30
0.0
 10
126.1931697277328
 20
145.3739820059775
 30
0.0
 11
126.6872491068596
 21
147.0693533413443
 31
0.0
 11
126.4565191450703
 21
147.0414089206211
 31
0.0
 11
126.3866009914769
 21
147.0204510718461
 31
0.0
 11
126.3026995367523
 21
146.9785347519394
 31
0.0
 11
126.232781383159
 21
146.9436046928026
 31
0.0
 11
126.1768470800093
 21
146.9086743224877
 31
0.0
 11
126.0999372758504
 21
146.8667583137593
 31
0.0
 11
126.0649779243974
 21
146.8388142042141
 31
0.0
 11
126.0230269223789
 21
146.8108697834909
 31
0.0
 11
125.9740842697948
 21
146.7549815644009
 31
0.0
 11
125.9181499666451
 21
146.692107395719
 31
0.0
 11
125.8761989646266
 21
146.6571770254041
 31
0.0
 11
125.8342485119205
 21
146.6152610166757
 31
0.0
 11
125.7992891604676
 21
146.5593727975856
 31
0.0
 11
125.7573387077617
 21
146.4685542081806
 31
0.0
 11
125.7014038552994
 21
146.3917078291373
 31
0.0
 11
125.6874205541683
 21
146.3497915092306
 31
0.0
 11
125.6594534025935
 21
146.3078755005021
 31
0.0
 11
125.6384779015842
 21
146.2519869702339
 31
0.0
 11
125.6314857017061
 21
146.2100709615055
 31
0.0
 11
125.6244940511404
 21
146.1751405911906
 31
0.0
 11
125.6105107500093
 21
146.1262386328703
 31
0.0
 11
125.6105107500093
 21
146.0703501026021
 31
0.0
 11
125.6105107500093
 21
146.014461883512
 31
0.0
 11
125.6105107500093
 21
145.9655596140137
 31
0.0
 11
125.6175024005749
 21
145.8537831758335
 31
0.0
 11
125.6314857017061
 21
145.8118668559269
 31
0.0
 11
125.6594534025935
 21
145.7280345272918
 31
0.0
 11
125.6944122047339
 21
145.6581740978402
 31
0.0
 11
125.7853058593365
 21
145.5394117100683
 31
0.0
 11
125.9321338170889
 21
145.4276349607099
 31
0.0
 11
126.1931697277328
 21
145.3739820059775
 31
0.0
  0
HATCH
  5
17C6
330
18
100
AcDbEntity
  8
ROGO
 62
     4
100
AcDbHatch
 10
0.0
 20
0.0
 30
0.0
210
0.0
220
0.0
230
1.0
  2
SOLID
 70
     1
 71
     1
 91
        1
 92
        5
 93
        6
 72
     4
 94
        3
 73
     0
 74
     0
 95
       38
 96
       34
 40
0.0
 40
0.0
 40
0.0
 40
0.0
 40
0.2324160190625641
 40
0.3054076598660179
 40
0.3991969555208118
 40
0.4773548548861183
 40
0.5433001127836845
 40
0.6308904647837286
 40
0.6756456824938584
 40
0.7260518053353911
 40
0.8003409450195571
 40
0.884494420029689
 40
0.9390839551137702
 40
0.9983865037096219
 40
1.064308042580248
 40
1.164347318186099
 40
1.259395062462607
 40
1.303582284428296
 40
1.353971899974848
 40
1.413666953858189
 40
1.456162161198055
 40
1.491785383230425
 40
1.542647296663551
 40
1.598535826931799
 40
1.654424046021893
 40
1.703326315520178
 40
1.815321205179844
 40
1.859508427145426
 40
1.947882923564461
 40
2.026002047025105
 40
2.175555252260891
 40
2.360088422381767
 40
2.626581173122162
 40
2.626581173122162
 40
2.626581173122162
 40
2.626581173122162
 10
126.6872491068596
 20
147.0693533413443
 10
126.6097778813409
 20
147.0638805453575
 10
126.5079763541138
 20
147.0566889850597
 10
126.37871221803
 20
147.0212744656534
 10
126.3082489623202
 20
146.9790843692075
 10
126.2349178606266
 20
146.9480726260211
 10
126.172396266703
 20
146.9021503841292
 10
126.1091569943797
 20
146.8784870953093
 10
126.0648749200395
 20
146.8358179559728
 10
126.0136220310114
 20
146.8097538040337
 10
125.9728084455088
 20
146.7514146545866
 10
125.9271904328252
 20
146.6968696638828
 10
125.8742677991589
 20
146.6570542532832
 10
125.8308334834396
 20
146.6152364231888
 10
125.7909885382512
 20
146.5506989465237
 10
125.7674065163741
 20
146.4649477504994
 10
125.7009327549906
 20
146.410807537847
 10
125.690923887798
 20
146.3457148479778
 10
125.6541552232608
 20
146.3073112563041
 10
125.6381669219603
 20
146.257737736609
 10
125.6320778072296
 20
146.2123196360539
 10
125.6247694176036
 20
146.1699022742175
 10
125.6056520544475
 20
146.1252810832688
 10
125.6118920277408
 20
146.0701621532096
 10
125.6101144466865
 20
146.0167886637468
 10
125.6111605552237
 20
145.9447327909608
 10
125.6073850046359
 20
145.8745775377785
 10
125.6374935410124
 20
145.7982319827048
 10
125.6553107736447
 20
145.7301804824193
 10
125.704106163572
 20
145.635954928096
 10
125.7882771886238
 20
145.5272390118989
 10
125.9483354335033
 20
145.3952784876652
 10
126.1022361156511
 20
145.381891706743
 10
126.1931697277328
 20
145.3739820059775
 72
     1
 10
126.1931697277327
 20
145.3739820059775
 11
127.1580389289712
 21
145.3739820059775
 72
     4
 94
        3
 73
     0
 74
     0
 95
       11
 96
        7
 40
0.1647869275458135
 40
0.1647869275458135
 40
0.1647869275458135
 40
0.1647869275458135
 40
0.2545010798212315
 40
0.5111620267764023
 40
0.7602998271033902
 40
0.8850764140209603
 40
0.8850764140209603
 40
0.8850764140209603
 40
0.8850764140209603
 10
127.1580389289711
 20
145.3739820059775
 10
127.171502800811
 20
145.3737225287222
 10
127.2234851227334
 20
145.3727207195563
 10
127.3123235340002
 20
145.3854834017365
 10
127.4057933774635
 20
145.3977136230737
 10
127.4615175350217
 20
145.4066205242245
 10
127.4794899471942
 20
145.4116231520028
 72
     4
 94
        3
 73
     0
 74
     0
 95
        9
 96
        5
 40
0.0
 40
0.0
 40
0.0
 40
0.0
 40
0.146030572742497
 40
0.3423777932799819
 40
0.3423777932799819
 40
0.3423777932799819
 40
0.3423777932799819
 10
127.4794899471942
 20
145.4116231520028
 10
127.5263991921745
 20
145.4259747316469
 10
127.6363808451884
 20
145.4596229059734
 10
127.7272508844928
 20
145.530738743112
 10
127.7793631417646
 20
145.5715223372365
 72
     4
 94
        3
 73
     0
 74
     0
 95
       25
 96
       21
 40
0.0
 40
0.0
 40
0.0
 40
0.0
 40
0.165525918914855
 40
0.3412380755365305
 40
0.5940540902285263
 40
0.7697671103696209
 40
0.9377330196075423
 40
1.11479469302833
 40
1.274661249598185
 40
1.574522170874768
 40
1.815540668866877
 40
2.15849091873445
 40
2.536227739636605
 40
2.738070817316548
 40
2.925680654369045
 40
3.162706124480894
 40
3.395643218188267
 40
3.648478129958861
 40
3.928509979727306
 40
4.337226830236035
 40
4.337226830236035
 40
4.337226830236035
 40
4.337226830236035
 10
127.7793631417646
 20
145.5715223372365
 10
127.798510844128
 20
145.587345293738
 10
127.8348288003759
 20
145.6249783093088
 10
127.8992446760554
 20
145.6859730428871
 10
127.9560091672355
 20
145.7570367477565
 10
128.0260322538719
 20
145.8146313900223
 10
128.0624860538505
 20
145.885045109612
 10
128.1150313289558
 20
145.9404240002536
 10
128.1591082104211
 20
146.0259512342416
 10
128.1965052658925
 20
146.124194932284
 10
128.2321581943893
 20
146.252253725617
 10
128.2458207643935
 20
146.3967230795327
 10
128.2255984617043
 20
146.536497106944
 10
128.1767464904081
 20
146.6409736012058
 10
128.1408311408477
 20
146.7280439914907
 10
128.0863250983075
 20
146.8105149819328
 10
128.0241410706295
 20
146.9002113043624
 10
127.936534786796
 20
146.9744046844816
 10
127.822042368569
 20
147.0638938565359
 10
127.7154012300736
 20
147.0673201263293
 10
127.652118308098
 20
147.0693533413443
 72
     1
 10
127.652118308098
 20
147.0693533413443
 11
126.6872491068596
 21
147.0693533413443
 97
        6
330
17C0
330
17EA
330
17C5
330
17E2
330
17E0
330
17E1
 75
     0
 76
     1
 47
0.088756267210375
 98
        1
 10
126.9763929688017
 20
146.6010849846222
450
        0
451
        0
460
0.0
461
0.0
452
        0
462
0.0
453
        0
470

  0
HATCH
  5
17C7
330
18
100
AcDbEntity
  8
ROGO
 62
     4
100
AcDbHatch
 10
0.0
 20
0.0
 30
0.0
210
0.0
220
0.0
230
1.0
  2
SOLID
 70
     1
 71
     0
 91
        1
 92
        7
 72
     0
 73
     1
 93
       11
 10
132.2781665738293
 20
146.586674246844
 10
132.5153345215172
 20
147.0623112024085
 10
131.5432268525833
 20
147.0623112024085
 10
130.2277700975792
 20
144.4241813361008
 10
131.1998777665131
 20
144.4241813361008
 10
131.5432268525833
 20
145.112763058826
 10
131.8865759386534
 20
144.4241813361008
 10
132.8586623386534
 20
144.4241813361008
 10
132.2009339611513
 20
145.7432462692546
 10
133.798959490863
 20
147.0623112024085
 10
132.826873090863
 20
147.0623112024085
 97
        0
 75
     0
 76
     1
 47
0.015942268611278
 98
        1
 10
132.067977734373
 20
146.2064511266147
450
        0
451
        0
460
0.0
461
0.0
452
        0
462
0.0
453
        0
470

  0
LINE
  5
17C8
102
{ACAD_REACTORS
330
17A0
102
}
330
18
100
AcDbEntity
  8
ROGO
 62
     4
100
AcDbLine
 10
120.2292361307549
 20
147.0623112024085
 30
0.0
 11
120.0378778790962
 21
146.6755653486615
 31
0.0
  0
LINE
  5
17C9
330
18
100
AcDbEntity
  8
ROGO
 62
     4
100
AcDbLine
 10
120.8907287574376
 20
147.0623112024085
 30
0.0
 11
119.6732417615958
 21
145.3739820059775
 31
0.0
  0
HATCH
  5
17CA
330
18
100
AcDbEntity
  8
ROGO
 62
     4
100
AcDbHatch
 10
0.0
 20
0.0
 30
0.0
210
0.0
220
0.0
230
1.0
  2
SOLID
 70
     1
 71
     0
 91
        2
 92
        7
 72
     0
 73
     1
 93
        8
 10
122.2412475210009
 20
147.0623112024085
 10
120.8907287574376
 20
147.0623112024085
 10
119.6732417615958
 20
145.3739820059775
 10
120.6082739423421
 20
145.3739820059775
 10
120.8400759335175
 20
145.6954294389513
 10
121.9070606333831
 20
145.6954294389513
 10
122.0498603201861
 20
145.3739820059775
 10
122.9912702486365
 20
145.3739820059776
 97
        0
 92
       22
 72
     0
 73
     1
 93
        3
 10
121.5003217159641
 20
146.6110139463277
 10
121.756445497611
 20
146.0344697397034
 10
121.0845644835612
 20
146.0344697397034
 97
        0
 75
     0
 76
     1
 47
0.0128389261915577
 98
        2
 10
122.1354912306492
 20
146.6572573093683
 10
122.1354912306492
 20
146.6572573093683
450
        0
451
        0
460
0.0
461
0.0
452
        0
462
0.0
453
        0
470

  0
LINE
  5
17CB
330
18
100
AcDbEntity
  8
ROGO
 62
     4
100
AcDbLine
 10
131.8865759386534
 20
144.4241813361008
 30
0.0
 11
132.8586623386534
 21
144.4241813361008
 31
0.0
  0
LINE
  5
17CC
330
18
100
AcDbEntity
  8
ROGO
 62
     4
100
AcDbLine
 10
123.4536380679296
 20
145.3739820059775
 30
0.0
 11
124.9078182300785
 21
145.3739820059775
 31
0.0
  0
LINE
  5
17CD
330
18
100
AcDbEntity
  8
ROGO
 62
     4
100
AcDbLine
 10
124.3798914075153
 20
146.4341432781297
 30
0.0
 11
125.4364488803953
 21
146.4341432781298
 31
0.0
  0
LINE
  5
17CE
330
18
100
AcDbEntity
  8
ROGO
 62
     4
100
AcDbLine
 10
124.1414498441156
 20
146.0021432781296
 30
0.0
 11
125.2210397280942
 21
146.0021432781296
 31
0.0
  0
SPLINE
  5
17CF
330
18
100
AcDbEntity
  8
ROGO
 62
     4
100
AcDbSpline
210
0.0
220
0.0
230
1.0
 70
     8
 71
     3
 72
    16
 73
    12
 74
    10
 42
0.0000000001
 43
0.0000000001
 44
0.0000000001
 40
0.0
 40
0.0
 40
0.0
 40
0.0
 40
0.1614737604380397
 40
0.2403420478032769
 40
0.279234489187282
 40
0.320220789027997
 40
0.3789130531806562
 40
0.4323552828341136
 40
0.488094283296473
 40
0.5815447451499928
 40
0.6740411735369377
 40
0.6740411735369377
 40
0.6740411735369377
 40
0.6740411735369377
 10
124.3798914075153
 20
146.4341432781297
 30
0.0
 10
124.3252090691448
 20
146.4258065867388
 30
0.0
 10
124.243818351873
 20
146.4133980228004
 30
0.0
 10
124.1702166715132
 20
146.3551357424029
 30
0.0
 10
124.1287104340677
 20
146.3204735637105
 30
0.0
 10
124.1145898271732
 20
146.2745709997617
 30
0.0
 10
124.0766663113521
 20
146.2393248770017
 30
0.0
 10
124.0454065472244
 20
146.1908853589382
 30
0.0
 10
124.0379424241447
 20
146.1243528962763
 30
0.0
 10
124.0434212613777
 20
146.0309847245285
 30
0.0
 10
124.1088856086807
 20
146.0117241536721
 30
0.0
 10
124.1414498441157
 20
146.0021432781296
 30
0.0
 11
124.3798914075153
 21
146.4341432781297
 31
0.0
 11
124.2239875314748
 21
146.3920985787544
 31
0.0
 11
124.159791786791
 21
146.3462824995199
 31
0.0
 11
124.132279400118
 21
146.3187926727405
 31
0.0
 11
124.1139374574427
 21
146.282139570368
 31
0.0
 11
124.0772540994319
 21
146.2363234911336
 31
0.0
 11
124.0497417127588
 21
146.190507113168
 31
0.0
 11
124.0405707414211
 21
146.1355277583403
 31
0.0
 11
124.0589126840966
 21
146.0438950024093
 31
0.0
 11
124.1414498441157
 21
146.0021432781296
 31
0.0
  0
LINE
  5
17D0
330
18
100
AcDbEntity
  8
ROGO
 62
     4
100
AcDbLine
 10
125.2210397280942
 20
146.0021432781296
 30
0.0
 11
124.9078182300785
 21
145.3739820059775
 31
0.0
  0
LINE
  5
17D1
102
{ACAD_REACTORS
330
17A0
102
}
330
18
100
AcDbEntity
  8
ROGO
 62
     4
100
AcDbLine
 10
119.8882595055692
 20
146.3731781502819
 30
0.0
 11
119.7348398797671
 21
146.0631084059774
 31
0.0
  0
LINE
  5
17D2
330
18
100
AcDbEntity
  8
ROGO
 62
     4
100
AcDbLine
 10
121.500321715964
 20
146.6110139463277
 30
0.0
 11
121.0845644835613
 21
146.0344697397034
 31
0.0
  0
LINE
  5
17D3
330
18
100
AcDbEntity
  8
ROGO
 62
     4
100
AcDbLine
 10
120.8400759335176
 20
145.6954294389513
 30
0.0
 11
121.9070606333831
 21
145.6954294389513
 31
0.0
  0
LINE
  5
17D4
330
18
100
AcDbEntity
  8
ROGO
 62
     4
100
AcDbLine
 10
121.0845644835614
 20
146.0344697397034
 30
0.0
 11
121.756445497611
 21
146.0344697397034
 31
0.0
  0
LINE
  5
17D5
330
18
100
AcDbEntity
  8
ROGO
 62
     4
100
AcDbLine
 10
120.8400759335176
 20
145.6954294389513
 30
0.0
 11
120.6082739423422
 21
145.3739820059776
 31
0.0
  0
LINE
  5
17D6
330
18
100
AcDbEntity
  8
ROGO
 62
     4
100
AcDbLine
 10
119.6732417615958
 20
145.3739820059775
 30
0.0
 11
120.6082739423422
 21
145.3739820059775
 31
0.0
  0
LINE
  5
17D7
330
18
100
AcDbEntity
  8
ROGO
 62
     4
100
AcDbLine
 10
121.5003217159641
 20
146.6110139463277
 30
0.0
 11
121.756445497611
 21
146.0344697397034
 31
0.0
  0
LINE
  5
17D8
330
18
100
AcDbEntity
  8
ROGO
 62
     4
100
AcDbLine
 10
121.9070606333831
 20
145.6954294389513
 30
0.0
 11
122.0498603201861
 21
145.3739820059775
 31
0.0
  0
LINE
  5
17D9
330
18
100
AcDbEntity
  8
ROGO
 62
     4
100
AcDbLine
 10
122.9912702486366
 20
145.3739820059776
 30
0.0
 11
122.0498603201861
 21
145.3739820059775
 31
0.0
  0
LINE
  5
17DA
330
18
100
AcDbEntity
  8
ROGO
 62
     4
100
AcDbLine
 10
128.8935849162655
 20
145.3739820059775
 30
0.0
 11
130.3477650784143
 21
145.3739820059775
 31
0.0
  0
SPLINE
  5
17DB
330
18
100
AcDbEntity
  8
ROGO
 62
     4
100
AcDbSpline
210
0.0
220
0.0
230
1.0
 70
     8
 71
     3
 72
    16
 73
    12
 74
    10
 42
0.0000000001
 43
0.0000000001
 44
0.0000000001
 40
0.0
 40
0.0
 40
0.0
 40
0.0
 40
0.1614737604380397
 40
0.2403420478033429
 40
0.2792344891871872
 40
0.320220789028004
 40
0.3789130531806808
 40
0.4323552828340408
 40
0.4880942832964002
 40
0.5815447451500316
 40
0.6740411735369252
 40
0.6740411735369252
 40
0.6740411735369252
 40
0.6740411735369252
 10
129.8198382558511
 20
146.4341432781297
 30
0.0
 10
129.7651559174806
 20
146.4258065867388
 30
0.0
 10
129.6837652002088
 20
146.4133980228004
 30
0.0
 10
129.6101635198491
 20
146.3551357424029
 30
0.0
 10
129.5686572824037
 20
146.3204735637104
 30
0.0
 10
129.5545366755088
 20
146.2745709997617
 30
0.0
 10
129.516613159688
 20
146.2393248770016
 30
0.0
 10
129.4853533955602
 20
146.1908853589381
 30
0.0
 10
129.4778892724806
 20
146.1243528962763
 30
0.0
 10
129.4833681097134
 20
146.0309847245284
 30
0.0
 10
129.5488324570165
 20
146.0117241536721
 30
0.0
 10
129.5813966924515
 20
146.0021432781296
 30
0.0
 11
129.8198382558511
 21
146.4341432781297
 31
0.0
 11
129.6639343798106
 21
146.3920985787544
 31
0.0
 11
129.5997386351269
 21
146.3462824995198
 31
0.0
 11
129.5722262484539
 21
146.3187926727405
 31
0.0
 11
129.5538843057784
 21
146.282139570368
 31
0.0
 11
129.5172009477677
 21
146.2363234911334
 31
0.0
 11
129.4896885610947
 21
146.190507113168
 31
0.0
 11
129.4805175897569
 21
146.1355277583403
 31
0.0
 11
129.4988595324324
 21
146.0438950024091
 31
0.0
 11
129.5813966924515
 21
146.0021432781296
 31
0.0
  0
LINE
  5
17DC
330
18
100
AcDbEntity
  8
ROGO
 62
     4
100
AcDbLine
 10
130.66098657643
 20
146.0021432781296
 30
0.0
 11
130.3477650784143
 21
145.3739820059775
 31
0.0
  0
LINE
  5
17DD
330
18
100
AcDbEntity
  8
ROGO
 62
     4
100
AcDbLine
 10
129.5813966924514
 20
146.0021432781296
 30
0.0
 11
130.66098657643
 21
146.0021432781296
 31
0.0
  0
LINE
  5
17DE
330
18
100
AcDbEntity
  8
ROGO
 62
     4
100
AcDbLine
 10
129.819838255851
 20
146.4341432781297
 30
0.0
 11
130.8763957287311
 21
146.4341432781297
 31
0.0
  0
LINE
  5
17DF
330
18
100
AcDbEntity
  8
ROGO
 62
     4
100
AcDbLine
 10
131.5432268525833
 20
145.112763058826
 30
0.0
 11
131.1998777665131
 21
144.4241813361008
 31
0.0
  0
SPLINE
  5
17E0
102
{ACAD_REACTORS
330
17C6
102
}
330
18
100
AcDbEntity
  8
ROGO
 62
     4
100
AcDbSpline
210
0.0
220
0.0
230
1.0
 70
     8
 71
     3
 72
    11
 73
     7
 74
     0
 42
0.0000000001
 43
0.0000000001
 40
0.1647869275458134
 40
0.1647869275458134
 40
0.1647869275458134
 40
0.1647869275458134
 40
0.2895635144633836
 40
0.5387013147903714
 40
0.7953622617455423
 40
0.8850764140209602
 40
0.8850764140209602
 40
0.8850764140209602
 40
0.8850764140209602
 10
127.4794899471942
 20
145.4116231520028
 30
0.0
 10
127.4615175350217
 20
145.4066205242245
 30
0.0
 10
127.4057933774635
 20
145.3977136230737
 30
0.0
 10
127.3123235340002
 20
145.3854834017365
 30
0.0
 10
127.2234851227334
 20
145.3727207195563
 30
0.0
 10
127.171502800811
 20
145.3737225287222
 30
0.0
 10
127.1580389289711
 20
145.3739820059775
 30
0.0
  0
SPLINE
  5
17E1
102
{ACAD_REACTORS
330
17C6
102
}
330
18
100
AcDbEntity
  8
ROGO
 62
     4
100
AcDbSpline
210
0.0
220
0.0
230
1.0
 70
     8
 71
     3
 72
     9
 73
     5
 74
     3
 42
0.0000000001
 43
0.0000000001
 44
0.0000000001
 40
0.0
 40
0.0
 40
0.0
 40
0.0
 40
0.146030572742497
 40
0.3423777932799819
 40
0.3423777932799819
 40
0.3423777932799819
 40
0.3423777932799819
 10
127.4794899471942
 20
145.4116231520028
 30
0.0
 10
127.5263991921745
 20
145.4259747316469
 30
0.0
 10
127.6363808451884
 20
145.4596229059734
 30
0.0
 10
127.7272508844928
 20
145.530738743112
 30
0.0
 10
127.7793631417646
 20
145.5715223372365
 30
0.0
 11
127.4794899471942
 21
145.4116231520028
 31
0.0
 11
127.6167409297688
 21
145.4614939446353
 31
0.0
 11
127.7793631417646
 21
145.5715223372365
 31
0.0
  0
LINE
  5
17E2
102
{ACAD_REACTORS
330
17C6
102
}
330
18
100
AcDbEntity
  8
ROGO
 62
     4
100
AcDbLine
 10
126.1931697277328
 20
145.3739820059775
 30
0.0
 11
127.1580389289711
 21
145.3739820059775
 31
0.0
  0
ELLIPSE
  5
17E3
330
18
100
AcDbEntity
  8
ROGO
 62
     4
100
AcDbEllipse
 10
126.9089813285277
 20
146.1980299227771
 30
0.0
 11
0.2292231973722778
 21
0.2015731185223643
 31
0.0
210
0.0
220
0.0
230
1.0
 40
0.6788083417438792
 41
0.0
 42
6.283185307179586
  0
LINE
  5
17E4
330
18
100
AcDbEntity
  8
ROGO
 62
     4
100
AcDbLine
 10
131.5432268525833
 20
145.112763058826
 30
0.0
 11
131.8865759386534
 21
144.4241813361008
 31
0.0
  0
LINE
  5
17E5
330
18
100
AcDbEntity
  8
ROGO
 62
     4
100
AcDbLine
 10
132.2009339611513
 20
145.7432462692546
 30
0.0
 11
132.8586623386534
 21
144.4241813361008
 31
0.0
  0
LINE
  5
17E6
330
18
100
AcDbEntity
  8
ROGO
 62
     4
100
AcDbLine
 10
131.5432268525833
 20
147.0623112024085
 30
0.0
 11
132.5153345215172
 21
147.0623112024085
 31
0.0
  0
LINE
  5
17E7
330
18
100
AcDbEntity
  8
ROGO
 62
     4
100
AcDbLine
 10
124.0589126840971
 20
147.0623112024086
 30
0.0
 11
125.7496736953761
 21
147.0623112024086
 31
0.0
  0
LINE
  5
17E8
330
18
100
AcDbEntity
  8
ROGO
 62
     4
100
AcDbLine
 10
120.8907287574376
 20
147.0623112024085
 30
0.0
 11
122.2412475210009
 21
147.0623112024085
 31
0.0
  0
LINE
  5
17E9
330
18
100
AcDbEntity
  8
ROGO
 62
     4
100
AcDbLine
 10
129.4988595324329
 20
147.0623112024085
 30
0.0
 11
131.1896205437119
 21
147.0623112024085
 31
0.0
  0
LINE
  5
17EA
102
{ACAD_REACTORS
330
17C6
102
}
330
18
100
AcDbEntity
  8
ROGO
 62
     4
100
AcDbLine
 10
126.6872491068596
 20
147.0693533413443
 30
0.0
 11
127.652118308098
 21
147.0693533413443
 31
0.0
  0
LINE
  5
17EB
330
18
100
AcDbEntity
  8
外形線
100
AcDbLine
 10
134.6261109452484
 20
158.9021592950984
 30
0.0
 11
134.6261109452484
 21
157.8299772766253
 31
0.0
  0
LINE
  5
17EC
330
18
100
AcDbEntity
  8
ROGO
 62
     4
100
AcDbLine
 10
132.826873090863
 20
147.0623112024085
 30
0.0
 11
133.798959490863
 21
147.0623112024085
 31
0.0
  0
LINE
  5
17ED
330
18
100
AcDbEntity
  8
外形線
100
AcDbLine
 10
145.6261109452484
 20
129.9194058027195
 30
0.0
 11
152.6261109452484
 21
129.9194058027195
 31
0.0
  0
LINE
  5
17EE
330
18
100
AcDbEntity
  8
外形線
100
AcDbLine
 10
107.6261109452484
 20
116.4194058027195
 30
0.0
 11
107.6261109452484
 21
106.2762249676457
 31
0.0
  0
LINE
  5
17EF
330
18
100
AcDbEntity
  8
外形線
100
AcDbLine
 10
139.6261109452484
 20
116.4194058027195
 30
0.0
 11
139.6261109452484
 21
106.2762249676457
 31
0.0
  0
LINE
  5
17F0
330
18
100
AcDbEntity
  8
外形線
100
AcDbLine
 10
108.6261109452484
 20
117.4194058027195
 30
0.0
 11
138.6261109452484
 21
117.4194058027195
 31
0.0
  0
ARC
  5
17F2
330
18
100
AcDbEntity
  8
外形線
100
AcDbCircle
 10
123.6261109452484
 20
129.9194058027195
 30
0.0
 40
29.0
100
AcDbArc
 50
237.6076345141574
 51
302.3923654858426
  0
ARC
  5
17F3
330
18
100
AcDbEntity
  8
外形線
100
AcDbCircle
 10
108.6261109452484
 20
116.4194058027195
 30
0.0
 40
1.0
100
AcDbArc
 50
90.0
 51
180.0
  0
ARC
  5
17F4
330
18
100
AcDbEntity
  8
外形線
100
AcDbCircle
 10
138.6261109452484
 20
116.4194058027195
 30
0.0
 40
1.0
100
AcDbArc
 50
0.0
 51
90.0
  0
ARC
  5
17F5
330
18
100
AcDbEntity
  8
外形線
100
AcDbCircle
 10
138.6261109452484
 20
106.2762249676457
 30
0.0
 40
1.0
100
AcDbArc
 50
302.3923654858425
 51
0.0
  0
ARC
  5
17F6
330
18
100
AcDbEntity
  8
外形線
100
AcDbCircle
 10
108.6261109452484
 20
106.2762249676457
 30
0.0
 40
1.0
100
AcDbArc
 50
180.0
 51
237.6076345141576
  0
ELLIPSE
  5
17F7
330
18
100
AcDbEntity
  8
外形線
100
AcDbEllipse
 10
131.4748928328571
 20
110.0111223295403
 30
0.0
 11
-4.089143464216689
 21
0.0
 31
0.0
210
0.0
220
0.0
230
1.0
 40
0.6358299782710266
 41
0.0
 42
6.283185307179586
  0
ELLIPSE
  5
17F8
330
18
100
AcDbEntity
  8
外形線
100
AcDbEllipse
 10
116.2986971358481
 20
110.0111223295403
 30
0.0
 11
-4.089143464216689
 21
0.0
 31
0.0
210
0.0
220
0.0
230
1.0
 40
0.6358299782710266
 41
0.0
 42
6.283185307179586
  0
TEXT
  5
17F9
330
18
100
AcDbEntity
  8
寸法線
100
AcDbText
 10
129.7806072539464
 20
103.8766746372811
 30
0.0
 40
1.199999999999999
  1
SET
  7
STYLE4
100
AcDbText
  0
ELLIPSE
  5
17FA
330
18
100
AcDbEntity
  8
外形線
100
AcDbEllipse
 10
131.4748928328571
 20
110.0111223295403
 30
0.0
 11
-5.473687379191062
 21
0.0
 31
0.0
210
0.0
220
0.0
230
1.0
 40
0.7307688077339824
 41
0.0
 42
6.283185307179586
  0
ELLIPSE
  5
17FB
330
18
100
AcDbEntity
  8
外形線
100
AcDbEllipse
 10
116.2986971358481
 20
110.0111223295403
 30
0.0
 11
-5.473687379191062
 21
0.0
 31
0.0
210
0.0
220
0.0
230
1.0
 40
0.7307688077339824
 41
0.0
 42
6.283185307179586
  0
LINE
  5
17FC
330
18
100
AcDbEntity
  8
外形線
100
AcDbLine
 10
117.6261109452484
 20
96.81940580271954
 30
0.0
 11
129.6261109452484
 21
96.81940580271959
 31
0.0
  0
LINE
  5
17FD
330
18
100
AcDbEntity
  8
外形線
100
AcDbLine
 10
117.6261109452484
 20
96.81940580271954
 30
0.0
 11
118.6261109452484
 21
94.81940580271952
 31
0.0
  0
LINE
  5
17FE
330
18
100
AcDbEntity
  8
外形線
100
AcDbLine
 10
129.6261109452484
 20
96.81940580271959
 30
0.0
 11
128.6261109452484
 21
94.81940580271958
 31
0.0
  0
LINE
  5
17FF
330
18
100
AcDbEntity
  8
外形線
100
AcDbLine
 10
117.6261109452484
 20
97.31940580271952
 30
0.0
 11
129.6261109452484
 21
97.3194058027196
 31
0.0
  0
LINE
  5
1800
330
18
100
AcDbEntity
  8
中心線
 48
0.3
100
AcDbLine
 10
109.329109038282
 20
110.0111223295403
 30
0.0
 11
123.2682852334142
 21
110.0111223295403
 31
0.0
  0
LINE
  5
1801
330
18
100
AcDbEntity
  8
中心線
 48
0.3
100
AcDbLine
 10
116.2986971358481
 20
115.3287323133307
 30
0.0
 11
116.2986971358481
 21
104.7298835730905
 31
0.0
  0
LINE
  5
1802
330
18
100
AcDbEntity
  8
中心線
 48
0.3
100
AcDbLine
 10
124.505304735291
 20
110.0111223295403
 30
0.0
 11
138.4444809304232
 21
110.0111223295403
 31
0.0
  0
CIRCLE
  5
180F
330
18
100
AcDbEntity
  8
外形線
100
AcDbCircle
 10
149.6261109452484
 20
174.4194058027195
 30
0.0
 40
1.149999999999999
  0
LINE
  5
1810
330
18
100
AcDbEntity
  8
中心線
 48
0.2
100
AcDbLine
 10
149.6261109452482
 20
177.3536030762069
 30
0.0
 11
149.6261109452484
 21
171.4852085292321
 31
0.0
  0
LINE
  5
1811
330
18
100
AcDbEntity
  8
外形線
100
AcDbLine
 10
129.6261109452484
 20
168.9194058027196
 30
0.0
 11
129.6261109452484
 21
160.3332184542106
 31
0.0
  0
LINE
  5
1812
330
18
100
AcDbEntity
  8
外形線
100
AcDbLine
 10
117.6261109452483
 20
176.9194058027196
 30
0.0
 11
117.6261109452484
 21
160.3332184542106
 31
0.0
  0
LINE
  5
1813
330
18
100
AcDbEntity
  8
外形線
100
AcDbLine
 10
115.6261109452484
 20
176.9194058027196
 30
0.0
 11
144.2435349397868
 21
176.9194058027196
 31
0.0
  0
LINE
  5
1814
330
18
100
AcDbEntity
  8
隠れ線2
 48
0.7
100
AcDbLine
 10
144.2435349397868
 20
176.9194058027196
 30
0.0
 11
153.6261109452483
 21
176.9194058027196
 31
0.0
  0
LINE
  5
1815
330
18
100
AcDbEntity
  8
外形線
100
AcDbLine
 10
115.6261109452484
 20
168.9194058027196
 30
0.0
 11
153.6261109452484
 21
168.9194058027196
 31
0.0
  0
LINE
  5
1816
330
18
100
AcDbEntity
  8
外形線
100
AcDbLine
 10
115.6261109452484
 20
176.9194058027196
 30
0.0
 11
115.6261109452483
 21
168.9194058027196
 31
0.0
  0
LINE
  5
1817
330
18
100
AcDbEntity
  8
隠れ線2
 48
0.7
100
AcDbLine
 10
153.6261109452483
 20
176.9194058027196
 30
0.0
 11
153.6261109452484
 21
172.3388410856118
 31
0.0
  0
LINE
  5
1818
330
18
100
AcDbEntity
  8
外形線
100
AcDbLine
 10
153.6261109452484
 20
172.3388410856118
 30
0.0
 11
153.6261109452484
 21
168.9194058027196
 31
0.0
  0
LINE
  5
1819
330
18
100
AcDbEntity
  8
外形線
100
AcDbLine
 10
140.6261109452484
 20
176.9194058027195
 30
0.0
 11
140.6261109452484
 21
168.9194058027194
 31
0.0
  0
LINE
  5
181A
330
18
100
AcDbEntity
  8
外形線
100
AcDbLine
 10
143.6261109452484
 20
176.9194058027195
 30
0.0
 11
143.6261109452484
 21
168.9194058027195
 31
0.0
  0
LINE
  5
181B
330
18
100
AcDbEntity
  8
中心線
 48
0.3
100
AcDbLine
 10
133.6261109452484
 20
178.1553643576448
 30
0.0
 11
133.6261109452483
 21
167.6834472477943
 31
0.0
  0
LINE
  5
181C
330
18
100
AcDbEntity
  8
中心線
 48
0.3
100
AcDbLine
 10
128.3901523903231
 20
172.9194058027196
 30
0.0
 11
138.8620695001737
 21
172.9194058027196
 31
0.0
  0
CIRCLE
  5
181D
330
18
100
AcDbEntity
  8
外形線
100
AcDbCircle
 10
133.6261109452484
 20
172.9194058027196
 30
0.0
 40
2.75
  0
LWPOLYLINE
  5
181E
330
18
100
AcDbEntity
  8
外形線
100
AcDbPolyline
 90
        6
 70
     1
 43
0.0
 10
135.1888154137342
 20
172.0169333131117
 10
135.1890272817082
 20
173.8215113262319
 10
133.6263228132223
 20
174.7239838158396
 10
132.0634064767626
 20
173.8218782923273
 10
132.0631946087885
 20
172.0173002792072
 10
133.6258990772744
 20
171.1148277895994
  0
CIRCLE
  5
181F
330
18
100
AcDbEntity
  8
外形線
100
AcDbCircle
 10
133.6261109452484
 20
172.9194058027196
 30
0.0
 40
3.0
  0
LINE
  5
1820
330
18
100
AcDbEntity
  8
中心線
 48
0.2
100
AcDbLine
 10
146.5325903664197
 20
174.4194058027195
 30
0.0
 11
152.7196315240771
 21
174.4194058027195
 31
0.0
  0
CIRCLE
  5
1821
330
18
100
AcDbEntity
  8
外形線
100
AcDbCircle
 10
149.6261109452484
 20
174.4194058027195
 30
0.0
 40
1.0
  0
LINE
  5
1842
330
18
100
AcDbEntity
  8
外形線
100
AcDbLine
 10
119.8761109452484
 20
74.31940580271962
 30
0.0
 11
127.3761109452484
 21
74.31940580271962
 31
0.0
  0
LINE
  5
1843
330
18
100
AcDbEntity
  8
外形線
100
AcDbLine
 10
119.8761109452484
 20
75.81940580271956
 30
0.0
 11
127.3761109452484
 21
75.81940580271967
 31
0.0
  0
LINE
  5
1844
330
18
100
AcDbEntity
  8
外形線
100
AcDbLine
 10
119.8761109452484
 20
73.81940580271962
 30
0.0
 11
127.3761109452484
 21
73.81940580271962
 31
0.0
  0
LINE
  5
1845
330
18
100
AcDbEntity
  8
外形線
100
AcDbLine
 10
119.8761109452484
 20
74.31940580271962
 30
0.0
 11
119.8761109452484
 21
73.81940580271962
 31
0.0
  0
LINE
  5
1846
330
18
100
AcDbEntity
  8
外形線
100
AcDbLine
 10
120.6261109452484
 20
75.81940580271961
 30
0.0
 11
120.6261109452484
 21
74.31940580271962
 31
0.0
  0
LINE
  5
1847
330
18
100
AcDbEntity
  8
外形線
100
AcDbLine
 10
127.3761109452484
 20
74.31940580271962
 30
0.0
 11
127.3761109452484
 21
73.81940580271962
 31
0.0
  0
LINE
  5
1848
330
18
100
AcDbEntity
  8
外形線
100
AcDbLine
 10
126.6261109452484
 20
75.81940580271961
 30
0.0
 11
126.6261109452484
 21
74.31940580271962
 31
0.0
  0
LINE
  5
1849
330
18
100
AcDbEntity
  8
外形線
100
AcDbLine
 10
119.8761109452484
 20
73.81940580271958
 30
0.0
 11
127.3761109452484
 21
73.81940580271958
 31
0.0
  0
LINE
  5
1865
330
18
100
AcDbEntity
  8
外形線
 62
     2
100
AcDbLine
 10
126.1261109452484
 20
63.69915556875108
 30
0.0
 11
154.1261109452484
 21
63.69915556875108
 31
0.0
  0
INSERT
  5
1866
330
18
100
AcDbEntity
  8
外形線
 62
     2
100
AcDbBlockReference
  2
_OPEN
 10
123.6261109452484
 20
63.69915556875108
 30
0.0
 41
2.5
 42
2.5
 43
2.5
 50
180.0
  0
INSERT
  5
1867
330
18
100
AcDbEntity
  8
外形線
 62
     2
100
AcDbBlockReference
  2
_OPEN
 10
156.6261109452484
 20
63.69915556875108
 30
0.0
 41
2.5
 42
2.5
 43
2.5
  0
MTEXT
  5
1868
330
18
100
AcDbEntity
  8
外形線
 62
     6
100
AcDbMText
 10
140.1261109452484
 20
65.57415556875108
 30
0.0
 40
2.5
 41
0.0
 71
     5
 72
     1
  1
\A1;33
  7
STYLE3
 73
     1
 44
1.0
  0
ARC
  5
1896
330
18
100
AcDbEntity
  8
外形線
100
AcDbCircle
 10
103.1261109452483
 20
119.9194058027195
 30
0.0
 40
1.5
100
AcDbArc
 50
180.0
 51
270.0
  0
LINE
  5
18A2
330
18
100
AcDbEntity
  8
外形線
100
AcDbLine
 10
46.32883022620285
 20
99.91940580271952
 30
0.0
 11
30.3288302262028
 21
99.91940580271958
 31
0.0
  0
LINE
  5
18A3
330
18
100
AcDbEntity
  8
外形線
100
AcDbLine
 10
46.32883022620279
 20
158.7194058027196
 30
0.0
 11
30.32883022620286
 21
158.7194058027194
 31
0.0
  0
LINE
  5
18A4
330
18
100
AcDbEntity
  8
外形線
100
AcDbLine
 10
46.32883022620279
 20
158.7194058027196
 30
0.0
 11
46.32883022620285
 21
99.91940580271952
 31
0.0
  0
LINE
  5
18A5
330
18
100
AcDbEntity
  8
外形線
100
AcDbLine
 10
48.32883022620274
 20
155.8194058027195
 30
0.0
 11
48.32883022620274
 21
99.3194058027195
 31
0.0
  0
LINE
  5
18A6
330
18
100
AcDbEntity
  8
外形線
100
AcDbLine
 10
61.32883022620285
 20
159.3194058027195
 30
0.0
 11
61.32883022620285
 21
99.31940580271955
 31
0.0
  0
LINE
  5
18A7
330
18
100
AcDbEntity
  8
外形線
100
AcDbLine
 10
54.8288302262028
 20
101.8194058027195
 30
0.0
 11
49.32883022620268
 21
101.8194058027195
 31
0.0
  0
LINE
  5
18A8
330
18
100
AcDbEntity
  8
外形線
100
AcDbLine
 10
61.3288302262028
 20
99.31940580271955
 30
0.0
 11
48.32883022620262
 21
99.31940580271955
 31
0.0
  0
ARC
  5
18A9
330
18
100
AcDbEntity
  8
外形線
100
AcDbCircle
 10
-117.2884240141236
 20
133.8302124605211
 30
0.0
 40
181.9206400838717
100
AcDbArc
 50
349.064574983587
 51
351.6497979287649
  0
LINE
  5
18AA
330
18
100
AcDbEntity
  8
外形線
100
AcDbLine
 10
54.8288302262028
 20
101.8194058027195
 30
0.0
 11
54.82883022620274
 21
99.3194058027195
 31
0.0
  0
LINE
  5
18AB
330
18
100
AcDbEntity
  8
外形線
100
AcDbLine
 10
49.32883022620268
 20
101.8194058027195
 30
0.0
 11
49.32883022620274
 21
99.3194058027195
 31
0.0
  0
LINE
  5
18AC
330
18
100
AcDbEntity
  8
外形線
100
AcDbLine
 10
48.32883022620262
 20
99.31940580271955
 30
0.0
 11
46.32883022620285
 21
99.91940580271952
 31
0.0
  0
LINE
  5
18AD
330
18
100
AcDbEntity
  8
外形線
100
AcDbLine
 10
62.32883022620285
 20
129.3194058027195
 30
0.0
 11
62.32883022620285
 21
117.8194058027195
 31
0.0
  0
ARC
  5
18AE
330
18
100
AcDbEntity
  8
外形線
100
AcDbCircle
 10
-117.2884240141236
 20
133.8302124605211
 30
0.0
 40
181.9206400838717
100
AcDbArc
 50
351.6497979287649
 51
354.9508749822964
  0
LINE
  5
18AF
330
18
100
AcDbEntity
  8
外形線
100
AcDbLine
 10
63.92883022620288
 20
117.8194058027195
 30
0.0
 11
62.32883022620285
 21
117.8194058027195
 31
0.0
  0
LINE
  5
18B0
330
18
100
AcDbEntity
  8
外形線
100
AcDbLine
 10
62.32883022620285
 20
129.3194058027195
 30
0.0
 11
61.32883022620285
 21
129.3194058027195
 31
0.0
  0
LINE
  5
18B1
330
18
100
AcDbEntity
  8
外形線
100
AcDbLine
 10
53.8288302262028
 20
155.8194058027196
 30
0.0
 11
48.32883022620274
 21
155.8194058027195
 31
0.0
  0
LINE
  5
18B2
330
18
100
AcDbEntity
  8
外形線
100
AcDbLine
 10
53.82883022620285
 20
156.8194058027195
 30
0.0
 11
48.32883022620279
 21
156.8194058027195
 31
0.0
  0
LINE
  5
18B3
330
18
100
AcDbEntity
  8
外形線
100
AcDbLine
 10
53.82883022620285
 20
160.3194058027195
 30
0.0
 11
48.32883022620279
 21
160.3194058027195
 31
0.0
  0
LINE
  5
18B4
330
18
100
AcDbEntity
  8
外形線
100
AcDbLine
 10
53.82883022620285
 20
160.3194058027195
 30
0.0
 11
53.8288302262028
 21
155.8194058027196
 31
0.0
  0
LINE
  5
18B5
330
18
100
AcDbEntity
  8
外形線
100
AcDbLine
 10
61.32883022620285
 20
159.3194058027195
 30
0.0
 11
53.82883022620285
 21
159.3194058027195
 31
0.0
  0
LINE
  5
18B6
330
18
100
AcDbEntity
  8
外形線
100
AcDbLine
 10
48.32883022620279
 20
160.3194058027195
 30
0.0
 11
48.32883022620274
 21
155.8194058027195
 31
0.0
  0
LINE
  5
18B7
330
18
100
AcDbEntity
  8
外形線
100
AcDbLine
 10
46.32883022620279
 20
158.7194058027196
 30
0.0
 11
48.32883022620279
 21
159.3194058027195
 31
0.0
  0
LINE
  5
18B8
330
18
100
AcDbEntity
  8
外形線
100
AcDbLine
 10
32.82883022620286
 20
158.7194058027194
 30
0.0
 11
32.8288302262028
 21
99.91940580271958
 31
0.0
  0
LINE
  5
18B9
330
18
100
AcDbEntity
  8
外形線
100
AcDbLine
 10
31.82883022620285
 20
158.7194058027194
 30
0.0
 11
31.8288302262028
 21
99.91940580271958
 31
0.0
  0
LINE
  5
18BA
330
18
100
AcDbEntity
  8
外形線
100
AcDbLine
 10
30.32883022620286
 20
158.7194058027194
 30
0.0
 11
30.3288302262028
 21
99.91940580271958
 31
0.0
  0
LINE
  5
18BB
330
18
100
AcDbEntity
  8
中心線
100
AcDbLine
 10
23.66875405078383
 20
129.3194058027195
 30
0.0
 11
68.17188592689888
 21
129.3194058027195
 31
0.0
  0
LINE
  5
18BC
330
18
100
AcDbEntity
  8
外形線
100
AcDbLine
 10
44.82883022620285
 20
94.81940580271956
 30
0.0
 11
34.82883022620285
 21
94.81940580271956
 31
0.0
  0
LINE
  5
18BD
330
18
100
AcDbEntity
  8
外形線
100
AcDbLine
 10
45.82883022620285
 20
76.81940580271953
 30
0.0
 11
33.82883022620286
 21
76.81940580271954
 31
0.0
  0
LINE
  5
18BE
330
18
100
AcDbEntity
  8
外形線
100
AcDbLine
 10
44.82883022620285
 20
41.81940580271955
 30
0.0
 11
34.82883022620285
 21
41.81940580271955
 31
0.0
  0
LINE
  5
18BF
330
18
100
AcDbEntity
  8
外形線
100
AcDbLine
 10
43.6288302262028
 20
30.31940580271956
 30
0.0
 11
36.02883022620285
 21
30.31940580271956
 31
0.0
  0
LINE
  5
18C0
330
18
100
AcDbEntity
  8
外形線
100
AcDbLine
 10
45.82883022620285
 20
97.91940580271953
 30
0.0
 11
45.82883022620285
 21
87.81940580271955
 31
0.0
  0
LINE
  5
18C1
330
18
100
AcDbEntity
  8
外形線
100
AcDbLine
 10
43.6288302262028
 20
41.81940580271955
 30
0.0
 11
43.6288302262028
 21
30.31940580271956
 31
0.0
  0
LINE
  5
18C2
330
18
100
AcDbEntity
  8
外形線
100
AcDbLine
 10
36.02883022620285
 20
41.81940580271955
 30
0.0
 11
36.02883022620285
 21
30.31940580271956
 31
0.0
  0
LINE
  5
18C3
330
18
100
AcDbEntity
  8
外形線
100
AcDbLine
 10
44.82883022620285
 20
93.81940580271958
 30
0.0
 11
44.82883022620285
 21
87.91940580271955
 31
0.0
  0
LINE
  5
18C4
330
18
100
AcDbEntity
  8
外形線
100
AcDbLine
 10
43.82883022620285
 20
36.81940580271956
 30
0.0
 11
43.6288302262028
 21
36.81940580271956
 31
0.0
  0
LINE
  5
18C5
330
18
100
AcDbEntity
  8
外形線
100
AcDbLine
 10
44.82883022620285
 20
35.81940580271956
 30
0.0
 11
43.6288302262028
 21
35.81940580271956
 31
0.0
  0
ARC
  5
18C6
330
18
100
AcDbEntity
  8
外形線
100
AcDbCircle
 10
34.82883022620285
 20
36.81940580271956
 30
0.0
 40
1.0
100
AcDbArc
 50
180.0
 51
270.0
  0
ARC
  5
18C7
330
18
100
AcDbEntity
  8
外形線
100
AcDbCircle
 10
44.82883022620285
 20
36.81940580271956
 30
0.0
 40
1.0
100
AcDbArc
 50
270.0
 51
0.0
  0
ARC
  5
18C8
330
18
100
AcDbEntity
  8
外形線
100
AcDbCircle
 10
35.82883022620285
 20
37.81940580271956
 30
0.0
 40
1.0
100
AcDbArc
 50
180.0
 51
270.0
  0
ARC
  5
18C9
330
18
100
AcDbEntity
  8
外形線
100
AcDbCircle
 10
43.82883022620285
 20
37.81940580271956
 30
0.0
 40
1.0
100
AcDbArc
 50
270.0
 51
0.0
  0
LINE
  5
18CA
330
18
100
AcDbEntity
  8
外形線
100
AcDbLine
 10
36.02883022620285
 20
36.81940580271956
 30
0.0
 11
35.82883022620285
 21
36.81940580271956
 31
0.0
  0
LINE
  5
18CB
330
18
100
AcDbEntity
  8
外形線
100
AcDbLine
 10
36.02883022620285
 20
35.81940580271956
 30
0.0
 11
34.82883022620285
 21
35.81940580271956
 31
0.0
  0
LINE
  5
18CC
330
18
100
AcDbEntity
  8
外形線
100
AcDbLine
 10
46.82883022620285
 20
86.81940580271955
 30
0.0
 11
46.82883022620285
 21
77.81940580271953
 31
0.0
  0
LINE
  5
18CD
330
18
100
AcDbEntity
  8
外形線
100
AcDbLine
 10
32.82883022620286
 20
91.81940580271955
 30
0.0
 11
32.82883022620286
 21
77.81940580271954
 31
0.0
  0
ARC
  5
18CE
330
18
100
AcDbEntity
  8
外形線
100
AcDbCircle
 10
33.82883022620286
 20
91.81940580271955
 30
0.0
 40
1.0
100
AcDbArc
 50
90.0
 51
180.0
  0
ARC
  5
18CF
330
18
100
AcDbEntity
  8
外形線
100
AcDbCircle
 10
45.82883022620285
 20
77.81940580271953
 30
0.0
 40
1.0
100
AcDbArc
 50
270.0
 51
0.0
  0
ARC
  5
18D0
330
18
100
AcDbEntity
  8
外形線
100
AcDbCircle
 10
33.82883022620286
 20
77.81940580271954
 30
0.0
 40
1.0
100
AcDbArc
 50
180.0
 51
270.0
  0
LINE
  5
18D1
330
18
100
AcDbEntity
  8
外形線
100
AcDbLine
 10
45.82883022620285
 20
87.81940580271955
 30
0.0
 11
45.12883022620281
 21
87.81940580271955
 31
0.0
  0
LINE
  5
18D2
330
18
100
AcDbEntity
  8
外形線
100
AcDbLine
 10
44.62883022620281
 20
91.81940580271955
 30
0.0
 11
44.62883022620281
 21
88.31940580271956
 31
0.0
  0
ARC
  5
18D3
330
18
100
AcDbEntity
  8
外形線
100
AcDbCircle
 10
45.12883022620281
 20
88.31940580271956
 30
0.0
 40
0.5
100
AcDbArc
 50
180.0
 51
270.0
  0
ARC
  5
18D4
330
18
100
AcDbEntity
  8
外形線
100
AcDbCircle
 10
43.6288302262028
 20
91.81940580271955
 30
0.0
 40
1.0
100
AcDbArc
 50
0.0
 51
90.0
  0
ARC
  5
18D5
330
18
100
AcDbEntity
  8
外形線
100
AcDbCircle
 10
45.82883022620285
 20
86.81940580271955
 30
0.0
 40
1.0
100
AcDbArc
 50
0.0
 51
90.0
  0
LINE
  5
18D6
330
18
100
AcDbEntity
  8
外形線
100
AcDbLine
 10
34.82883022620285
 20
76.81940580271954
 30
0.0
 11
34.82883022620285
 21
37.81940580271956
 31
0.0
  0
LINE
  5
18D7
330
18
100
AcDbEntity
  8
外形線
100
AcDbLine
 10
33.82883022620286
 20
97.91940580271958
 30
0.0
 11
33.82883022620286
 21
92.81940580271957
 31
0.0
  0
LINE
  5
18D8
330
18
100
AcDbEntity
  8
外形線
100
AcDbLine
 10
44.82883022620285
 20
76.81940580271953
 30
0.0
 11
44.82883022620285
 21
37.81940580271956
 31
0.0
  0
LINE
  5
18D9
330
18
100
AcDbEntity
  8
外形線
100
AcDbLine
 10
45.82883022620285
 20
76.81940580271953
 30
0.0
 11
45.82883022620285
 21
36.81940580271956
 31
0.0
  0
LINE
  5
18DA
330
18
100
AcDbEntity
  8
中心線
 48
0.3
100
AcDbLine
 10
34.86412664453246
 20
81.31940580271956
 30
0.0
 11
44.65901766051286
 21
81.31940580271956
 31
0.0
  0
LINE
  5
18DB
330
18
100
AcDbEntity
  8
中心線
 48
0.3
100
AcDbLine
 10
34.86412664453246
 20
89.31940580271955
 30
0.0
 11
44.65901766051286
 21
89.31940580271955
 31
0.0
  0
CIRCLE
  5
18DC
330
18
100
AcDbEntity
  8
外形線
100
AcDbCircle
 10
39.82883022620285
 20
89.31940580271957
 30
0.0
 40
1.5
  0
CIRCLE
  5
18DD
330
18
100
AcDbEntity
  8
外形線
100
AcDbCircle
 10
39.82883022620285
 20
81.31940580271956
 30
0.0
 40
1.5
  0
CIRCLE
  5
18DE
330
18
100
AcDbEntity
  8
中心線
100
AcDbCircle
 10
39.82883022620285
 20
89.31940580271957
 30
0.0
 40
1.0
  0
CIRCLE
  5
18DF
330
18
100
AcDbEntity
  8
中心線
100
AcDbCircle
 10
39.82883022620285
 20
81.31940580271956
 30
0.0
 40
1.0
  0
LINE
  5
18EB
330
18
100
AcDbEntity
  8
外形線
100
AcDbLine
 10
34.82883022620285
 20
45.3194058027195
 30
0.0
 11
34.82883022620285
 21
43.31940580271949
 31
0.0
  0
LINE
  5
18F1
330
18
100
AcDbEntity
  8
外形線
100
AcDbLine
 10
44.8288302262028
 20
45.3194058027195
 30
0.0
 11
44.8288302262028
 21
43.31940580271949
 31
0.0
  0
LINE
  5
18FA
330
18
100
AcDbEntity
  8
外形線
100
AcDbLine
 10
41.82883022620285
 20
73.81940580271964
 30
0.0
 11
41.82883022620285
 21
52.31940580271959
 31
0.0
  0
LINE
  5
18FB
330
18
100
AcDbEntity
  8
外形線
100
AcDbLine
 10
37.82883022620286
 20
73.81940580271963
 30
0.0
 11
37.82883022620286
 21
50.51940580271949
 31
0.0
  0
LINE
  5
18FC
330
18
100
AcDbEntity
  8
隠れ線2
 48
0.5
100
AcDbLine
 10
41.80383022620276
 20
41.8194058027195
 30
0.0
 11
41.80383022620276
 21
30.3194058027195
 31
0.0
  0
LINE
  5
18FD
330
18
100
AcDbEntity
  8
隠れ線2
 48
0.5
100
AcDbLine
 10
37.85383022620283
 20
41.81940580271953
 30
0.0
 11
37.85383022620278
 21
30.3194058027195
 31
0.0
  0
ARC
  5
18FE
330
18
100
AcDbEntity
  8
外形線
100
AcDbCircle
 10
39.82883022620285
 20
29.81940580271956
 30
0.0
 40
3.0
100
AcDbArc
 50
180.0
 51
0.0
  0
LINE
  5
18FF
330
18
100
AcDbEntity
  8
外形線
100
AcDbLine
 10
42.82883022620285
 20
30.31940580271956
 30
0.0
 11
42.82883022620285
 21
29.81940580271956
 31
0.0
  0
LINE
  5
1900
330
18
100
AcDbEntity
  8
外形線
100
AcDbLine
 10
36.82883022620285
 20
30.31940580271956
 30
0.0
 11
36.82883022620285
 21
29.81940580271956
 31
0.0
  0
LINE
  5
1901
330
18
100
AcDbEntity
  8
外形線
100
AcDbLine
 10
33.8288302262028
 20
97.31940580271952
 30
0.0
 11
45.82883022620285
 21
97.3194058027196
 31
0.0
  0
LINE
  5
1902
330
18
100
AcDbEntity
  8
外形線
100
AcDbLine
 10
33.8288302262028
 20
96.81940580271954
 30
0.0
 11
45.82883022620285
 21
96.81940580271959
 31
0.0
  0
LINE
  5
1903
330
18
100
AcDbEntity
  8
外形線
100
AcDbLine
 10
33.8288302262028
 20
96.81940580271954
 30
0.0
 11
34.82883022620285
 21
94.81940580271952
 31
0.0
  0
LINE
  5
1904
330
18
100
AcDbEntity
  8
外形線
100
AcDbLine
 10
33.82883022620286
 20
99.91940580271958
 30
0.0
 11
33.8288302262028
 21
96.81940580271954
 31
0.0
  0
LINE
  5
1905
330
18
100
AcDbEntity
  8
外形線
100
AcDbLine
 10
45.82883022620285
 20
96.81940580271959
 30
0.0
 11
44.82883022620285
 21
94.81940580271958
 31
0.0
  0
LINE
  5
1906
330
18
100
AcDbEntity
  8
外形線
100
AcDbLine
 10
45.82883022620285
 20
99.91940580271952
 30
0.0
 11
45.82883022620285
 21
96.81940580271959
 31
0.0
  0
LINE
  5
1907
330
18
100
AcDbEntity
  8
外形線
100
AcDbLine
 10
33.82883022620286
 20
76.81940580271954
 30
0.0
 11
33.82883022620286
 21
36.81940580271956
 31
0.0
  0
LINE
  5
1908
330
18
100
AcDbEntity
  8
外形線
100
AcDbLine
 10
32.82883022620286
 20
168.9194058027196
 30
0.0
 11
35.82883022620285
 21
168.9194058027196
 31
0.0
  0
LINE
  5
1909
330
18
100
AcDbEntity
  8
外形線
100
AcDbLine
 10
33.8288302262028
 20
168.9194058027196
 30
0.0
 11
33.82883022620286
 21
158.7194058027195
 31
0.0
  0
LINE
  5
190A
330
18
100
AcDbEntity
  8
外形線
100
AcDbLine
 10
32.82883022620286
 20
176.9194058027196
 30
0.0
 11
35.82883022620285
 21
176.9194058027195
 31
0.0
  0
LINE
  5
190B
330
18
100
AcDbEntity
  8
外形線
100
AcDbLine
 10
45.82883022620285
 20
168.9194058027196
 30
0.0
 11
45.82883022620279
 21
158.7194058027196
 31
0.0
  0
LINE
  5
190C
330
18
100
AcDbEntity
  8
外形線
100
AcDbLine
 10
43.82883022620285
 20
182.3194058027196
 30
0.0
 11
43.82883022620285
 21
179.9194058027195
 31
0.0
  0
LINE
  5
190E
330
18
100
AcDbEntity
  8
外形線
100
AcDbLine
 10
37.82883022620286
 20
179.9194058027196
 30
0.0
 11
41.82883022620285
 21
179.9194058027196
 31
0.0
  0
LINE
  5
190F
330
18
100
AcDbEntity
  8
外形線
100
AcDbLine
 10
37.82883022620286
 20
178.4194058027196
 30
0.0
 11
41.82883022620285
 21
178.4194058027195
 31
0.0
  0
LINE
  5
1910
330
18
100
AcDbEntity
  8
外形線
100
AcDbLine
 10
35.82883022620285
 20
178.4194058027196
 30
0.0
 11
35.82883022620285
 21
176.9194058027196
 31
0.0
  0
LINE
  5
1912
330
18
100
AcDbEntity
  8
外形線
100
AcDbLine
 10
43.82883022620285
 20
178.4194058027196
 30
0.0
 11
43.82883022620285
 21
176.9194058027196
 31
0.0
  0
LINE
  5
1914
330
18
100
AcDbEntity
  8
外形線
100
AcDbLine
 10
37.8288302262028
 20
182.8194058027196
 30
0.0
 11
41.82883022620285
 21
182.8194058027195
 31
0.0
  0
LINE
  5
1915
330
18
100
AcDbEntity
  8
外形線
100
AcDbLine
 10
37.8288302262028
 20
185.1518911592036
 30
0.0
 11
37.8288302262028
 21
182.8194058027196
 31
0.0
  0
LINE
  5
1916
330
18
100
AcDbEntity
  8
外形線
100
AcDbLine
 10
41.82883022620285
 20
185.1518911592036
 30
0.0
 11
41.82883022620285
 21
182.8194058027196
 31
0.0
  0
LINE
  5
1917
330
18
100
AcDbEntity
  8
外形線
100
AcDbLine
 10
32.82883022620286
 20
176.9194058027196
 30
0.0
 11
32.82883022620286
 21
168.9194058027196
 31
0.0
  0
LINE
  5
1918
330
18
100
AcDbEntity
  8
外形線
100
AcDbLine
 10
46.82883022620285
 20
176.9194058027196
 30
0.0
 11
46.82883022620285
 21
168.9194058027196
 31
0.0
  0
LINE
  5
1919
330
18
100
AcDbEntity
  8
外形線
100
AcDbLine
 10
34.82883022620285
 20
176.9194058027196
 30
0.0
 11
34.82883022620285
 21
168.9194058027196
 31
0.0
  0
LINE
  5
191A
330
18
100
AcDbEntity
  8
外形線
100
AcDbLine
 10
44.82883022620285
 20
176.9194058027196
 30
0.0
 11
44.82883022620285
 21
168.9194058027196
 31
0.0
  0
LINE
  5
191C
330
18
100
AcDbEntity
  8
外形線
100
AcDbLine
 10
43.82883022620285
 20
182.3194058027196
 30
0.0
 11
43.82883022620285
 21
179.9194058027195
 31
0.0
  0
LINE
  5
191D
330
18
100
AcDbEntity
  8
中心線
 48
0.6
100
AcDbLine
 10
49.19922328075495
 20
174.4194058027195
 30
0.0
 11
30.45843717165076
 21
174.4194058027195
 31
0.0
  0
LINE
  5
191E
330
18
100
AcDbEntity
  8
外形線
100
AcDbLine
 10
35.82883022620285
 20
178.4194058027195
 30
0.0
 11
35.82883022620285
 21
176.9194058027196
 31
0.0
  0
LINE
  5
191F
330
18
100
AcDbEntity
  8
外形線
100
AcDbLine
 10
43.82883022620285
 20
178.4194058027195
 30
0.0
 11
43.82883022620285
 21
176.9194058027196
 31
0.0
  0
ARC
  5
1920
330
18
100
AcDbEntity
  8
外形線
100
AcDbCircle
 10
44.82883022620285
 20
185.7886295679719
 30
0.0
 40
0.5
100
AcDbArc
 50
0.0
 51
90.0
  0
LINE
  5
1921
330
18
100
AcDbEntity
  8
外形線
100
AcDbLine
 10
37.82883022620286
 20
186.2886295679719
 30
0.0
 11
37.82883022620286
 21
166.7709625376563
 31
0.0
  0
LINE
  5
1922
330
18
100
AcDbEntity
  8
外形線
100
AcDbLine
 10
35.82883022620285
 20
186.2886295679719
 30
0.0
 11
35.82883022620285
 21
166.7709625376563
 31
0.0
  0
LINE
  5
1923
330
18
100
AcDbEntity
  8
外形線
100
AcDbLine
 10
41.82883022620285
 20
186.2886295679719
 30
0.0
 11
41.82883022620285
 21
166.7709625376563
 31
0.0
  0
LINE
  5
1924
330
18
100
AcDbEntity
  8
外形線
100
AcDbLine
 10
43.82883022620285
 20
186.2886295679719
 30
0.0
 11
43.82883022620285
 21
166.7709625376563
 31
0.0
  0
LINE
  5
1929
330
18
100
AcDbEntity
  8
外形線
100
AcDbLine
 10
35.82883022620285
 20
186.2886295679719
 30
0.0
 11
37.82883022620286
 21
186.2886295679719
 31
0.0
  0
ARC
  5
192A
330
18
100
AcDbEntity
  8
外形線
100
AcDbCircle
 10
34.82883022620285
 20
185.7886295679719
 30
0.0
 40
0.5
100
AcDbArc
 50
90.0
 51
180.0
  0
LINE
  5
192B
330
18
100
AcDbEntity
  8
外形線
100
AcDbLine
 10
43.82883022620285
 20
186.2886295679719
 30
0.0
 11
41.82883022620285
 21
186.2886295679719
 31
0.0
  0
LINE
  5
192C
330
18
100
AcDbEntity
  8
外形線
100
AcDbLine
 10
34.32883022620285
 20
185.7886295679719
 30
0.0
 11
34.32883022620285
 21
176.9194058027195
 31
0.0
  0
LINE
  5
192D
330
18
100
AcDbEntity
  8
外形線
100
AcDbLine
 10
45.32883022620285
 20
185.7886295679719
 30
0.0
 11
45.32883022620285
 21
176.9194058027195
 31
0.0
  0
LINE
  5
192E
330
18
100
AcDbEntity
  8
外形線
100
AcDbLine
 10
63.67295588681179
 20
112.6111223295403
 30
0.0
 11
63.39048870824933
 21
112.6111223295403
 31
0.0
  0
LINE
  5
192F
330
18
100
AcDbEntity
  8
外形線
100
AcDbLine
 10
63.67295588681179
 20
107.4111223295403
 30
0.0
 11
62.70366182627293
 21
107.4111223295403
 31
0.0
  0
LINE
  5
1930
330
18
100
AcDbEntity
  8
外形線
100
AcDbLine
 10
63.67295588681179
 20
112.6111223295403
 30
0.0
 11
63.67295588681179
 21
107.4111223295403
 31
0.0
  0
ARC
  5
1931
330
18
100
AcDbEntity
  8
外形線
100
AcDbCircle
 10
57.12963546296885
 20
110.0111223295403
 30
0.0
 40
7.040954634783575
100
AcDbArc
 50
338.3295132754059
 51
21.67048672459433
  0
LINE
  5
1932
330
18
100
AcDbEntity
  8
中心線
 48
0.2
100
AcDbLine
 10
59.64834768716719
 20
110.0111223295403
 30
0.0
 11
67.2356948226095
 21
110.0111223295403
 31
0.0
  0
LINE
  5
1933
330
18
100
AcDbEntity
  8
隠れ線2
 48
0.5
100
AcDbLine
 10
33.82883022620286
 20
176.9194058027195
 30
0.0
 11
33.82883022620286
 21
168.9194058027195
 31
0.0
  0
LINE
  5
1934
330
18
100
AcDbEntity
  8
隠れ線2
 48
0.5
100
AcDbLine
 10
45.82883022620285
 20
176.9194058027195
 30
0.0
 11
45.82883022620285
 21
168.9194058027196
 31
0.0
  0
LINE
  5
1937
330
18
100
AcDbEntity
  8
外形線
100
AcDbLine
 10
37.82883022620286
 20
182.3194058027196
 30
0.0
 11
41.82883022620285
 21
182.3194058027196
 31
0.0
  0
LINE
  5
1938
330
18
100
AcDbEntity
  8
外形線
100
AcDbLine
 10
34.82883022620285
 20
185.1518911592037
 30
0.0
 11
35.82883022620285
 21
185.1518911592037
 31
0.0
  0
LINE
  5
1939
330
18
100
AcDbEntity
  8
外形線
100
AcDbLine
 10
37.82883022620286
 20
185.1518911592036
 30
0.0
 11
41.82883022620285
 21
185.1518911592036
 31
0.0
  0
LINE
  5
193A
330
18
100
AcDbEntity
  8
外形線
100
AcDbLine
 10
43.82883022620285
 20
185.1518911592036
 30
0.0
 11
44.82883022620285
 21
185.1518911592036
 31
0.0
  0
LINE
  5
193B
330
18
100
AcDbEntity
  8
外形線
100
AcDbLine
 10
34.82883022620285
 20
187.1518911592037
 30
0.0
 11
44.82883022620285
 21
187.1518911592036
 31
0.0
  0
LINE
  5
193C
330
18
100
AcDbEntity
  8
外形線
100
AcDbLine
 10
34.8288302262028
 20
187.1518911592037
 30
0.0
 11
34.82883022620285
 21
185.1518911592037
 31
0.0
  0
LINE
  5
193D
330
18
100
AcDbEntity
  8
外形線
100
AcDbLine
 10
44.82883022620268
 20
187.1518911592036
 30
0.0
 11
44.82883022620273
 21
185.1518911592036
 31
0.0
  0
LINE
  5
193E
330
18
100
AcDbEntity
  8
寸法線
100
AcDbLine
 10
38.92860572931386
 20
187.1518911592036
 30
0.0
 11
38.92860572931386
 21
185.1518911592037
 31
0.0
  0
LINE
  5
193F
330
18
100
AcDbEntity
  8
寸法線
100
AcDbLine
 10
38.01958595950737
 20
187.1518911592036
 30
0.0
 11
38.01958595950737
 21
185.1518911592037
 31
0.0
  0
LINE
  5
1940
330
18
100
AcDbEntity
  8
寸法線
100
AcDbLine
 10
37.17549605868726
 20
187.1518911592036
 30
0.0
 11
37.17549605868726
 21
186.2886295679719
 31
0.0
  0
LINE
  5
1941
330
18
100
AcDbEntity
  8
寸法線
100
AcDbLine
 10
36.3314069598664
 20
187.1518911592036
 30
0.0
 11
36.3314069598664
 21
186.2886295679719
 31
0.0
  0
LINE
  5
1942
330
18
100
AcDbEntity
  8
寸法線
100
AcDbLine
 10
35.61717679701871
 20
187.1518911592036
 30
0.0
 11
35.61717679701871
 21
185.1518911592037
 31
0.0
  0
LINE
  5
1943
330
18
100
AcDbEntity
  8
寸法線
100
AcDbLine
 10
35.09773704312932
 20
187.1518911592036
 30
0.0
 11
35.09773704312932
 21
185.1518911592037
 31
0.0
  0
LINE
  5
195A
330
18
100
AcDbEntity
  8
外形線
100
AcDbLine
 10
37.02883022620284
 20
46.31940580271958
 30
0.0
 11
42.62883022620281
 21
46.31940580271958
 31
0.0
  0
LINE
  5
195B
330
18
100
AcDbEntity
  8
外形線
100
AcDbLine
 10
36.82883022620285
 20
48.3194058027196
 30
0.0
 11
42.82883022620285
 21
48.31940580271958
 31
0.0
  0
LINE
  5
195C
330
18
100
AcDbEntity
  8
外形線
100
AcDbLine
 10
37.07883022620285
 20
50.31940580271959
 30
0.0
 11
42.57883022620285
 21
50.31940580271959
 31
0.0
  0
LINE
  5
195D
330
18
100
AcDbEntity
  8
外形線
100
AcDbLine
 10
37.52883022620284
 20
52.31940580271959
 30
0.0
 11
42.12883022620281
 21
52.31940580271959
 31
0.0
  0
LINE
  5
195E
330
18
100
AcDbEntity
  8
外形線
100
AcDbLine
 10
42.3288302262028
 20
52.1194058027196
 30
0.0
 11
42.3288302262028
 21
50.5194058027196
 31
0.0
  0
LINE
  5
195F
330
18
100
AcDbEntity
  8
外形線
100
AcDbLine
 10
37.32883022620283
 20
52.1194058027196
 30
0.0
 11
37.32883022620283
 21
50.5194058027196
 31
0.0
  0
LINE
  5
1960
330
18
100
AcDbEntity
  8
外形線
100
AcDbLine
 10
37.32883022620283
 20
52.1194058027196
 30
0.0
 11
37.52883022620284
 21
52.31940580271959
 31
0.0
  0
LINE
  5
1961
330
18
100
AcDbEntity
  8
外形線
100
AcDbLine
 10
42.12883022620281
 20
52.31940580271959
 30
0.0
 11
42.3288302262028
 21
52.1194058027196
 31
0.0
  0
LINE
  5
1962
330
18
100
AcDbEntity
  8
外形線
100
AcDbLine
 10
42.3288302262028
 20
50.5194058027196
 30
0.0
 11
42.12883022620281
 21
50.31940580271959
 31
0.0
  0
LINE
  5
1963
330
18
100
AcDbEntity
  8
外形線
100
AcDbLine
 10
37.52883022620284
 20
50.31940580271959
 30
0.0
 11
37.32883022620283
 21
50.5194058027196
 31
0.0
  0
LINE
  5
1964
330
18
100
AcDbEntity
  8
外形線
100
AcDbLine
 10
37.8288302262028
 20
52.31940580271959
 30
0.0
 11
37.82883022620286
 21
50.3194058027196
 31
0.0
  0
LINE
  5
1965
330
18
100
AcDbEntity
  8
外形線
100
AcDbLine
 10
38.32883022620283
 20
52.31940580271959
 30
0.0
 11
38.32883022620285
 21
50.3194058027196
 31
0.0
  0
LINE
  5
1966
330
18
100
AcDbEntity
  8
外形線
100
AcDbLine
 10
38.82883022620283
 20
52.31940580271959
 30
0.0
 11
38.82883022620286
 21
50.3194058027196
 31
0.0
  0
LINE
  5
1967
330
18
100
AcDbEntity
  8
外形線
100
AcDbLine
 10
39.32883022620283
 20
52.31940580271959
 30
0.0
 11
39.32883022620283
 21
50.3194058027196
 31
0.0
  0
LINE
  5
1968
330
18
100
AcDbEntity
  8
外形線
100
AcDbLine
 10
39.8288302262028
 20
52.31940580271959
 30
0.0
 11
39.82883022620285
 21
50.3194058027196
 31
0.0
  0
LINE
  5
1969
330
18
100
AcDbEntity
  8
外形線
100
AcDbLine
 10
42.82883022620279
 20
48.81940580271958
 30
0.0
 11
42.82883022620282
 21
48.3194058027196
 31
0.0
  0
LINE
  5
196A
330
18
100
AcDbEntity
  8
外形線
100
AcDbLine
 10
36.82883022620283
 20
48.81940580271958
 30
0.0
 11
36.82883022620283
 21
48.3194058027196
 31
0.0
  0
LINE
  5
196B
330
18
100
AcDbEntity
  8
外形線
100
AcDbLine
 10
36.82883022620283
 20
48.81940580271958
 30
0.0
 11
42.82883022620279
 21
48.81940580271958
 31
0.0
  0
LINE
  5
196C
330
18
100
AcDbEntity
  8
外形線
100
AcDbLine
 10
42.57883022620285
 20
50.31940580271959
 30
0.0
 11
42.82883022620279
 21
48.81940580271958
 31
0.0
  0
LINE
  5
196D
330
18
100
AcDbEntity
  8
外形線
100
AcDbLine
 10
37.07883022620285
 20
50.31940580271959
 30
0.0
 11
36.82883022620283
 21
48.81940580271958
 31
0.0
  0
LINE
  5
196E
330
18
100
AcDbEntity
  8
外形線
100
AcDbLine
 10
42.82883022620285
 20
48.31940580271958
 30
0.0
 11
42.82883022620279
 21
46.5194058027196
 31
0.0
  0
LINE
  5
196F
330
18
100
AcDbEntity
  8
外形線
100
AcDbLine
 10
36.82883022620285
 20
48.3194058027196
 30
0.0
 11
36.82883022620285
 21
46.5194058027196
 31
0.0
  0
LINE
  5
1970
330
18
100
AcDbEntity
  8
外形線
100
AcDbLine
 10
36.82883022620285
 20
46.5194058027196
 30
0.0
 11
37.02883022620284
 21
46.31940580271958
 31
0.0
  0
LINE
  5
1971
330
18
100
AcDbEntity
  8
外形線
100
AcDbLine
 10
42.62883022620281
 20
46.31940580271958
 30
0.0
 11
42.82883022620279
 21
46.5194058027196
 31
0.0
  0
LINE
  5
1972
330
18
100
AcDbEntity
  8
外形線
100
AcDbLine
 10
36.82883022620285
 20
44.31940580271958
 30
0.0
 11
36.82883022620285
 21
46.11940580271959
 31
0.0
  0
LINE
  5
1973
330
18
100
AcDbEntity
  8
外形線
100
AcDbLine
 10
36.82883022620285
 20
46.11940580271959
 30
0.0
 11
37.02883022620284
 21
46.31940580271958
 31
0.0
  0
LINE
  5
1974
330
18
100
AcDbEntity
  8
外形線
100
AcDbLine
 10
42.82883022620285
 20
44.31940580271958
 30
0.0
 11
42.82883022620279
 21
46.11940580271959
 31
0.0
  0
LINE
  5
1975
330
18
100
AcDbEntity
  8
外形線
100
AcDbLine
 10
42.62883022620281
 20
46.31940580271958
 30
0.0
 11
42.82883022620279
 21
46.11940580271959
 31
0.0
  0
LINE
  5
1976
330
18
100
AcDbEntity
  8
外形線
100
AcDbLine
 10
36.82883022620285
 20
44.31940580271958
 30
0.0
 11
42.82883022620285
 21
44.31940580271958
 31
0.0
  0
LINE
  5
1977
330
18
100
AcDbEntity
  8
外形線
100
AcDbLine
 10
36.82883022620285
 20
44.31940580271958
 30
0.0
 11
42.82883022620285
 21
44.31940580271958
 31
0.0
  0
LINE
  5
1978
330
18
100
AcDbEntity
  8
外形線
100
AcDbLine
 10
42.82883022620285
 20
44.31940580271958
 30
0.0
 11
42.82883022620279
 21
42.01940580271958
 31
0.0
  0
LINE
  5
1979
330
18
100
AcDbEntity
  8
外形線
100
AcDbLine
 10
42.62883022620281
 20
41.81940580271958
 30
0.0
 11
42.82883022620279
 21
42.01940580271958
 31
0.0
  0
LINE
  5
197A
330
18
100
AcDbEntity
  8
外形線
100
AcDbLine
 10
37.02883022620284
 20
41.81940580271958
 30
0.0
 11
42.62883022620281
 21
41.81940580271958
 31
0.0
  0
LINE
  5
197B
330
18
100
AcDbEntity
  8
外形線
100
AcDbLine
 10
36.82883022620285
 20
44.31940580271958
 30
0.0
 11
36.82883022620283
 21
42.01940580271958
 31
0.0
  0
LINE
  5
197C
330
18
100
AcDbEntity
  8
外形線
100
AcDbLine
 10
36.82883022620285
 20
42.01940580271958
 30
0.0
 11
37.02883022620284
 21
41.81940580271958
 31
0.0
  0
LINE
  5
1A06
330
18
100
AcDbEntity
  8
外形線
 62
     2
100
AcDbLine
 10
113.9411854560982
 20
41.81940580271958
 30
0.0
 11
112.6911854560982
 21
41.81940580271958
 31
0.0
  0
LINE
  5
1A07
330
18
100
AcDbEntity
  8
外形線
 62
     2
100
AcDbLine
 10
120.8261109452484
 20
46.31940580271958
 30
0.0
 11
112.6911854560982
 21
46.31940580271958
 31
0.0
  0
LINE
  5
1A08
330
18
100
AcDbEntity
  8
外形線
 62
     2
100
AcDbLine
 10
113.9411854560982
 20
39.31940580271959
 30
0.0
 11
113.9411854560982
 21
36.81940580271959
 31
0.0
  0
LINE
  5
1A09
330
18
100
AcDbEntity
  8
外形線
 62
     2
100
AcDbLine
 10
113.9411854560982
 20
48.81940580271958
 30
0.0
 11
113.9411854560982
 21
54.53601282778764
 31
0.0
  0
LINE
  5
1A0A
330
18
100
AcDbEntity
  8
外形線
 62
     2
100
AcDbLine
 10
113.9411854560982
 20
41.81940580271958
 30
0.0
 11
113.9411854560982
 21
46.31940580271958
 31
0.0
  0
INSERT
  5
1A0B
330
18
100
AcDbEntity
  8
外形線
 62
     2
100
AcDbBlockReference
  2
_OPEN
 10
113.9411854560982
 20
41.81940580271958
 30
0.0
 41
2.5
 42
2.5
 43
2.5
 50
90.0
  0
INSERT
  5
1A0C
330
18
100
AcDbEntity
  8
外形線
 62
     2
100
AcDbBlockReference
  2
_OPEN
 10
113.9411854560982
 20
46.31940580271958
 30
0.0
 41
2.5
 42
2.5
 43
2.5
 50
270.0
  0
MTEXT
  5
1A0D
330
18
100
AcDbEntity
  8
外形線
 62
     6
100
AcDbMText
 10
112.0661854560982
 20
51.7766294963378
 30
0.0
 40
2.5
 41
0.0
 71
     5
 72
     1
  1
\A1;4.5
  7
STYLE3
 11
0.0000000000000001
 21
1.0
 31
0.0
 73
     1
 44
1.0
  0
LINE
  5
202D
330
18
100
AcDbEntity
  8
外形線
100
AcDbLine
 10
119.8761109452484
 20
74.31940580271962
 30
0.0
 11
127.3761109452484
 21
74.31940580271962
 31
0.0
  0
LINE
  5
202E
330
18
100
AcDbEntity
  8
外形線
100
AcDbLine
 10
119.8761109452484
 20
75.81940580271956
 30
0.0
 11
127.3761109452484
 21
75.81940580271967
 31
0.0
  0
LINE
  5
202F
330
18
100
AcDbEntity
  8
外形線
100
AcDbLine
 10
119.8761109452484
 20
73.81940580271962
 30
0.0
 11
127.3761109452484
 21
73.81940580271962
 31
0.0
  0
LINE
  5
2030
330
18
100
AcDbEntity
  8
外形線
100
AcDbLine
 10
119.8761109452484
 20
74.31940580271962
 30
0.0
 11
119.8761109452484
 21
73.81940580271962
 31
0.0
  0
LINE
  5
2031
330
18
100
AcDbEntity
  8
外形線
100
AcDbLine
 10
120.6261109452484
 20
75.81940580271961
 30
0.0
 11
120.6261109452484
 21
74.31940580271962
 31
0.0
  0
LINE
  5
2032
330
18
100
AcDbEntity
  8
外形線
100
AcDbLine
 10
127.3761109452484
 20
74.31940580271962
 30
0.0
 11
127.3761109452484
 21
73.81940580271962
 31
0.0
  0
LINE
  5
2033
330
18
100
AcDbEntity
  8
外形線
100
AcDbLine
 10
126.6261109452484
 20
75.81940580271961
 30
0.0
 11
126.6261109452484
 21
74.31940580271962
 31
0.0
  0
LINE
  5
2034
330
18
100
AcDbEntity
  8
隠れ線2
100
AcDbLine
 10
119.6261109452483
 20
78.61940580271962
 30
0.0
 11
127.6261109452484
 21
78.61940580271962
 31
0.0
  0
LINE
  5
2035
330
18
100
AcDbEntity
  8
外形線
100
AcDbLine
 10
119.8761109452484
 20
73.81940580271958
 30
0.0
 11
127.3761109452484
 21
73.81940580271958
 31
0.0
  0
LINE
  5
203A
330
18
100
AcDbEntity
  8
隠れ線2
100
AcDbLine
 10
119.6261109452483
 20
78.81940580271955
 30
0.0
 11
119.6261109452483
 21
78.61940580271962
 31
0.0
  0
LINE
  5
203B
330
18
100
AcDbEntity
  8
隠れ線2
100
AcDbLine
 10
127.6261109452484
 20
78.81940580271955
 30
0.0
 11
127.6261109452484
 21
78.61940580271962
 31
0.0
  0
LINE
  5
203F
330
18
100
AcDbEntity
  8
中心線
 48
0.3
100
AcDbLine
 10
131.4748928328571
 20
115.3287323133307
 30
0.0
 11
131.4748928328571
 21
104.7298835730905
 31
0.0
  0
LINE
  5
204A
330
18
100
AcDbEntity
  8
隠れ線2
100
AcDbLine
 10
119.6261109452484
 20
92.81940580271955
 30
0.0
 11
119.6261109452483
 21
76.81940580271957
 31
0.0
  0
LINE
  5
204B
330
18
100
AcDbEntity
  8
隠れ線2
100
AcDbLine
 10
127.6261109452484
 20
92.81940580271955
 30
0.0
 11
127.6261109452484
 21
76.81940580271957
 31
0.0
  0
LINE
  5
204E
330
18
100
AcDbEntity
  8
隠れ線2
100
AcDbLine
 10
119.8761109452484
 20
76.81940580271955
 30
0.0
 11
119.8761109452484
 21
78.61940580271962
 31
0.0
  0
LINE
  5
204F
330
18
100
AcDbEntity
  8
隠れ線2
100
AcDbLine
 10
127.3761109452484
 20
76.81940580271962
 30
0.0
 11
127.3761109452484
 21
78.61940580271962
 31
0.0
  0
LINE
  5
2050
330
18
100
AcDbEntity
  8
外形線
100
AcDbLine
 10
119.8761109452484
 20
76.81940580271955
 30
0.0
 11
119.8761109452484
 21
75.81940580271956
 31
0.0
  0
LINE
  5
2051
330
18
100
AcDbEntity
  8
外形線
100
AcDbLine
 10
127.3761109452484
 20
76.81940580271962
 30
0.0
 11
127.3761109452484
 21
75.81940580271967
 31
0.0
  0
DIMENSION
  5
2057
330
18
100
AcDbEntity
  8
寸法線
100
AcDbDimension
  2
*D25
 10
85.70860937313785
 20
41.81940580271956
 30
0.0
 11
83.83360937313783
 21
85.86940580271958
 31
0.0
 70
    32
 71
     5
 42
88.1
  3
STYLE3
100
AcDbAlignedDimension
 13
88.47512851642671
 23
129.9194058027195
 33
0.0
 14
123.6261109452484
 24
41.81940580271955
 34
0.0
 50
90.0
100
AcDbRotatedDimension
1001
ACAD
1000
DSTYLE
1002
{
1070
   271
1070
     0
1070
   341
1005
0
1002
}
  0
LINE
  5
206A
330
18
100
AcDbEntity
  8
外形線
100
AcDbLine
 10
33.82883022620286
 20
92.81940580271955
 30
0.0
 11
43.6288302262028
 21
92.81940580271955
 31
0.0
  0
LINE
  5
2071
330
18
100
AcDbEntity
  8
外形線
100
AcDbLine
 10
43.82883022620283
 20
94.81940580271958
 30
0.0
 11
43.82883022620283
 21
92.81940580271957
 31
0.0
  0
LINE
  5
2072
330
18
100
AcDbEntity
  8
隠れ線2
100
AcDbLine
 10
43.82883022620283
 20
92.81940580271957
 30
0.0
 11
43.82883022620283
 21
76.81940580271953
 31
0.0
  0
LINE
  5
2073
330
18
100
AcDbEntity
  8
外形線
100
AcDbLine
 10
35.82883022620285
 20
94.81940580271956
 30
0.0
 11
35.8288302262028
 21
92.81940580271955
 31
0.0
  0
LINE
  5
2074
330
18
100
AcDbEntity
  8
隠れ線2
100
AcDbLine
 10
35.82883022620283
 20
92.81940580271957
 30
0.0
 11
35.82883022620271
 21
77.81940580271957
 31
0.0
  0
LINE
  5
2075
330
18
100
AcDbEntity
  8
外形線
100
AcDbLine
 10
36.07883022620283
 20
74.31940580271962
 30
0.0
 11
43.57883022620282
 21
74.31940580271962
 31
0.0
  0
LINE
  5
2076
330
18
100
AcDbEntity
  8
外形線
100
AcDbLine
 10
36.07883022620283
 20
75.81940580271957
 30
0.0
 11
43.57883022620282
 21
75.81940580271968
 31
0.0
  0
LINE
  5
2077
330
18
100
AcDbEntity
  8
外形線
100
AcDbLine
 10
36.07883022620283
 20
73.81940580271963
 30
0.0
 11
43.57883022620282
 21
73.81940580271963
 31
0.0
  0
LINE
  5
2078
330
18
100
AcDbEntity
  8
外形線
100
AcDbLine
 10
36.07883022620283
 20
74.31940580271962
 30
0.0
 11
36.07883022620283
 21
73.81940580271963
 31
0.0
  0
LINE
  5
2079
330
18
100
AcDbEntity
  8
外形線
100
AcDbLine
 10
36.82883022620283
 20
75.81940580271963
 30
0.0
 11
36.82883022620283
 21
74.31940580271962
 31
0.0
  0
LINE
  5
207A
330
18
100
AcDbEntity
  8
外形線
100
AcDbLine
 10
43.57883022620282
 20
74.31940580271962
 30
0.0
 11
43.57883022620282
 21
73.81940580271963
 31
0.0
  0
LINE
  5
207B
330
18
100
AcDbEntity
  8
外形線
100
AcDbLine
 10
42.82883022620282
 20
75.81940580271963
 30
0.0
 11
42.82883022620282
 21
74.31940580271962
 31
0.0
  0
LINE
  5
207C
330
18
100
AcDbEntity
  8
外形線
100
AcDbLine
 10
36.07883022620283
 20
73.8194058027196
 30
0.0
 11
43.57883022620282
 21
73.8194058027196
 31
0.0
  0
LINE
  5
207D
330
18
100
AcDbEntity
  8
隠れ線2
100
AcDbLine
 10
43.82883022620283
 20
78.81940580271957
 30
0.0
 11
43.82883022620283
 21
78.61940580271964
 31
0.0
  0
LINE
  5
207E
330
18
100
AcDbEntity
  8
隠れ線2
100
AcDbLine
 10
35.82883022620271
 20
77.81940580271956
 30
0.0
 11
35.82883022620271
 21
76.81940580271953
 31
0.0
  0
LINE
  5
207F
330
18
100
AcDbEntity
  8
隠れ線2
100
AcDbLine
 10
36.07883022620283
 20
76.81940580271959
 30
0.0
 11
36.07883022620283
 21
78.61940580271964
 31
0.0
  0
LINE
  5
2080
330
18
100
AcDbEntity
  8
外形線
100
AcDbLine
 10
36.07883022620283
 20
74.31940580271962
 30
0.0
 11
43.57883022620282
 21
74.31940580271962
 31
0.0
  0
LINE
  5
2081
330
18
100
AcDbEntity
  8
外形線
100
AcDbLine
 10
36.07883022620283
 20
75.81940580271957
 30
0.0
 11
43.57883022620282
 21
75.81940580271968
 31
0.0
  0
LINE
  5
2082
330
18
100
AcDbEntity
  8
外形線
100
AcDbLine
 10
36.07883022620283
 20
73.81940580271963
 30
0.0
 11
43.57883022620282
 21
73.81940580271963
 31
0.0
  0
LINE
  5
2083
330
18
100
AcDbEntity
  8
外形線
100
AcDbLine
 10
36.07883022620283
 20
74.31940580271962
 30
0.0
 11
36.07883022620283
 21
73.81940580271963
 31
0.0
  0
LINE
  5
2084
330
18
100
AcDbEntity
  8
外形線
100
AcDbLine
 10
36.82883022620283
 20
75.81940580271963
 30
0.0
 11
36.82883022620283
 21
74.31940580271962
 31
0.0
  0
LINE
  5
2085
330
18
100
AcDbEntity
  8
外形線
100
AcDbLine
 10
43.57883022620282
 20
74.31940580271962
 30
0.0
 11
43.57883022620282
 21
73.81940580271963
 31
0.0
  0
LINE
  5
2086
330
18
100
AcDbEntity
  8
外形線
100
AcDbLine
 10
42.82883022620282
 20
75.81940580271963
 30
0.0
 11
42.82883022620282
 21
74.31940580271962
 31
0.0
  0
LINE
  5
2087
330
18
100
AcDbEntity
  8
隠れ線2
100
AcDbLine
 10
35.82883022620271
 20
78.61940580271964
 30
0.0
 11
43.82883022620283
 21
78.61940580271964
 31
0.0
  0
LINE
  5
2088
330
18
100
AcDbEntity
  8
外形線
100
AcDbLine
 10
36.07883022620283
 20
73.8194058027196
 30
0.0
 11
43.57883022620282
 21
73.8194058027196
 31
0.0
  0
LINE
  5
2089
330
18
100
AcDbEntity
  8
隠れ線2
100
AcDbLine
 10
43.57883022620282
 20
76.81940580271964
 30
0.0
 11
43.57883022620282
 21
78.61940580271964
 31
0.0
  0
LINE
  5
208A
330
18
100
AcDbEntity
  8
外形線
100
AcDbLine
 10
36.07883022620283
 20
76.81940580271959
 30
0.0
 11
36.07883022620283
 21
75.81940580271957
 31
0.0
  0
LINE
  5
208B
330
18
100
AcDbEntity
  8
外形線
100
AcDbLine
 10
43.57883022620282
 20
76.81940580271964
 30
0.0
 11
43.57883022620282
 21
75.81940580271968
 31
0.0
  0
LINE
  5
29B2
102
{ACAD_REACTORS
330
29E0
102
}
330
18
100
AcDbEntity
  8
外形線
100
AcDbLine
 10
120.1261109452485
 20
182.8194058027195
 30
0.0
 11
127.1261109452485
 21
182.8194058027195
 31
0.0
  0
LINE
  5
29B3
102
{ACAD_REACTORS
330
29E0
102
}
330
18
100
AcDbEntity
  8
外形線
100
AcDbLine
 10
119.6261109452485
 20
178.4194058027195
 30
0.0
 11
127.6261109452485
 21
178.4194058027195
 31
0.0
  0
LINE
  5
29B4
102
{ACAD_REACTORS
330
29E0
102
}
330
18
100
AcDbEntity
  8
外形線
100
AcDbLine
 10
119.6261109452485
 20
178.4194058027195
 30
0.0
 11
119.6261109452485
 21
176.9194058027196
 31
0.0
  0
LINE
  5
29B5
102
{ACAD_REACTORS
330
29E0
102
}
330
18
100
AcDbEntity
  8
外形線
100
AcDbLine
 10
127.6261109452485
 20
178.4194058027195
 30
0.0
 11
127.6261109452485
 21
176.9194058027196
 31
0.0
  0
LINE
  5
29B6
102
{ACAD_REACTORS
330
29E0
102
}
330
18
100
AcDbEntity
  8
外形線
100
AcDbLine
 10
120.6261109452485
 20
179.9194058027196
 30
0.0
 11
120.6261109452485
 21
178.4194058027195
 31
0.0
  0
LINE
  5
29B7
102
{ACAD_REACTORS
330
29E0
102
}
330
18
100
AcDbEntity
  8
外形線
100
AcDbLine
 10
126.6261109452485
 20
179.9194058027196
 30
0.0
 11
126.6261109452485
 21
178.4194058027195
 31
0.0
  0
LINE
  5
29B8
102
{ACAD_REACTORS
330
29E0
102
}
330
18
100
AcDbEntity
  8
外形線
100
AcDbLine
 10
119.6261109452485
 20
179.9194058027196
 30
0.0
 11
127.6261109452485
 21
179.9194058027195
 31
0.0
  0
LINE
  5
29B9
102
{ACAD_REACTORS
330
29E0
102
}
330
18
100
AcDbEntity
  8
外形線
100
AcDbLine
 10
119.6261109452485
 20
182.3194058027196
 30
0.0
 11
119.6261109452485
 21
179.9194058027196
 31
0.0
  0
LINE
  5
29BA
102
{ACAD_REACTORS
330
29E0
102
}
330
18
100
AcDbEntity
  8
外形線
100
AcDbLine
 10
127.6261109452485
 20
182.3194058027196
 30
0.0
 11
127.6261109452485
 21
179.9194058027195
 31
0.0
  0
LINE
  5
29BB
102
{ACAD_REACTORS
330
29E0
102
}
330
18
100
AcDbEntity
  8
外形線
100
AcDbLine
 10
121.6261109452485
 20
183.12495465683
 30
0.0
 11
121.6261109452485
 21
182.8194058027195
 31
0.0
  0
LINE
  5
29BC
102
{ACAD_REACTORS
330
29E0
102
}
330
18
100
AcDbEntity
  8
外形線
100
AcDbLine
 10
125.6261109452485
 20
183.2974063392658
 30
0.0
 11
125.6261109452485
 21
182.8194058027195
 31
0.0
  0
LINE
  5
29BD
102
{ACAD_REACTORS
330
29E0
102
}
330
18
100
AcDbEntity
  8
外形線
100
AcDbLine
 10
119.6261109452485
 20
182.3194058027196
 30
0.0
 11
120.1261109452485
 21
182.8194058027195
 31
0.0
  0
LINE
  5
29BE
102
{ACAD_REACTORS
330
29E0
102
}
330
18
100
AcDbEntity
  8
外形線
100
AcDbLine
 10
127.1261109452485
 20
182.8194058027195
 30
0.0
 11
127.6261109452485
 21
182.3194058027196
 31
0.0
  0
LINE
  5
29BF
102
{ACAD_REACTORS
330
29E0
102
}
330
18
100
AcDbEntity
  8
外形線
100
AcDbLine
 10
119.6261109452485
 20
182.3194058027196
 30
0.0
 11
127.6261109452485
 21
182.3194058027196
 31
0.0
  0
LINE
  5
29C0
102
{ACAD_REACTORS
330
29E0
102
}
330
18
100
AcDbEntity
  8
外形線
100
AcDbLine
 10
121.6261109452485
 20
185.1518911592037
 30
0.0
 11
121.6261109452485
 21
184.7037204209638
 31
0.0
  0
LINE
  5
29C1
102
{ACAD_REACTORS
330
29E0
102
}
330
18
100
AcDbEntity
  8
外形線
100
AcDbLine
 10
125.6261109452485
 20
185.1518911592037
 30
0.0
 11
125.6261109452485
 21
184.8689085133502
 31
0.0
  0
LINE
  5
29C2
102
{ACAD_REACTORS
330
29E0
102
}
330
18
100
AcDbEntity
  8
外形線
100
AcDbLine
 10
118.6261109452485
 20
185.1518911592037
 30
0.0
 11
128.6261109452485
 21
185.1518911592036
 31
0.0
  0
LINE
  5
29C3
102
{ACAD_REACTORS
330
29E0
102
}
330
18
100
AcDbEntity
  8
外形線
100
AcDbLine
 10
118.6261109452485
 20
187.1518911592037
 30
0.0
 11
128.6261109452485
 21
187.1518911592036
 31
0.0
  0
LINE
  5
29C4
102
{ACAD_REACTORS
330
29E0
102
}
330
18
100
AcDbEntity
  8
外形線
100
AcDbLine
 10
118.6261109452484
 20
187.1518911592037
 30
0.0
 11
118.6261109452485
 21
185.1518911592037
 31
0.0
  0
LINE
  5
29C5
102
{ACAD_REACTORS
330
29E0
102
}
330
18
100
AcDbEntity
  8
外形線
100
AcDbLine
 10
128.6261109452483
 20
187.1518911592036
 30
0.0
 11
128.6261109452484
 21
185.1518911592036
 31
0.0
  0
LINE
  5
29C6
102
{ACAD_REACTORS
330
29E0
102
}
330
18
100
AcDbEntity
  8
寸法線
100
AcDbLine
 10
122.7258864483595
 20
187.1518911592036
 30
0.0
 11
122.7258864483595
 21
185.1518911592037
 31
0.0
  0
LINE
  5
29C7
102
{ACAD_REACTORS
330
29E0
102
}
330
18
100
AcDbEntity
  8
寸法線
100
AcDbLine
 10
121.816866678553
 20
187.1518911592036
 30
0.0
 11
121.816866678553
 21
185.1518911592037
 31
0.0
  0
LINE
  5
29C8
102
{ACAD_REACTORS
330
29E0
102
}
330
18
100
AcDbEntity
  8
寸法線
100
AcDbLine
 10
120.9727767777329
 20
187.1518911592036
 30
0.0
 11
120.9727767777329
 21
185.1518911592037
 31
0.0
  0
LINE
  5
29C9
102
{ACAD_REACTORS
330
29E0
102
}
330
18
100
AcDbEntity
  8
寸法線
100
AcDbLine
 10
120.128687678912
 20
187.1518911592036
 30
0.0
 11
120.128687678912
 21
185.1518911592037
 31
0.0
  0
LINE
  5
29CA
102
{ACAD_REACTORS
330
29E0
102
}
330
18
100
AcDbEntity
  8
寸法線
100
AcDbLine
 10
119.4144575160644
 20
187.1518911592036
 30
0.0
 11
119.4144575160644
 21
185.1518911592037
 31
0.0
  0
LINE
  5
29CB
102
{ACAD_REACTORS
330
29E0
102
}
330
18
100
AcDbEntity
  8
寸法線
100
AcDbLine
 10
118.8950177621749
 20
187.1518911592036
 30
0.0
 11
118.8950177621749
 21
185.1518911592037
 31
0.0
  0
LINE
  5
29CC
102
{ACAD_REACTORS
330
29E0
102
}
330
18
100
AcDbEntity
  8
外形線
100
AcDbLine
 10
141.4740609400432
 20
182.9686578486564
 30
0.0
 11
146.1353086240969
 21
172.7872796909303
 31
0.0
  0
LINE
  5
29CD
102
{ACAD_REACTORS
330
29E0
102
}
330
18
100
AcDbEntity
  8
外形線
100
AcDbLine
 10
152.2305591726371
 20
171.260306053104
 30
0.0
 11
161.4842388354427
 21
178.4118986287526
 31
0.0
  0
ARC
  5
29CE
102
{ACAD_REACTORS
330
29E0
102
}
330
18
100
AcDbEntity
  8
外形線
100
AcDbCircle
 10
149.7845503269527
 20
174.4252769418855
 30
0.0
 40
4.0
100
AcDbArc
 50
204.1733862924492
 51
307.6982020679207
  0
LINE
  5
29CF
102
{ACAD_REACTORS
330
29E0
102
}
330
18
100
AcDbEntity
  8
外形線
100
AcDbLine
 10
140.9781867344035
 20
183.0475632002967
 30
0.0
 11
140.6689219235458
 21
181.5777931557531
 31
0.0
  0
LINE
  5
29D0
102
{ACAD_REACTORS
330
29E0
102
}
330
18
100
AcDbEntity
  8
外形線
100
AcDbLine
 10
141.4725825555023
 20
182.9688949780703
 30
0.0
 11
141.1633561664165
 21
181.4993075316325
 31
0.0
  0
LINE
  5
29D1
102
{ACAD_REACTORS
330
29E0
102
}
330
18
100
AcDbEntity
  8
外形線
100
AcDbLine
 10
161.9596061920019
 20
178.2427983037067
 30
0.0
 11
161.6496254771745
 21
176.7696259509365
 31
0.0
  0
LINE
  5
29D2
102
{ACAD_REACTORS
330
29E0
102
}
330
18
100
AcDbEntity
  8
外形線
100
AcDbLine
 10
161.4846139091423
 20
178.4136811532066
 30
0.0
 11
161.1736360320428
 21
176.9357698221093
 31
0.0
  0
LINE
  5
29D3
102
{ACAD_REACTORS
330
29E0
102
}
330
18
100
AcDbEntity
  8
外形線
100
AcDbLine
 10
140.9758615574518
 20
183.0365128793042
 30
0.0
 11
139.5507891840115
 21
181.7506095508473
 31
0.0
  0
ARC
  5
29D4
102
{ACAD_REACTORS
330
29E0
102
}
330
18
100
AcDbEntity
  8
隠れ線2
 48
0.7
100
AcDbCircle
 10
109.5610967076326
 20
-15.98815332879701
 30
0.0
 40
200.0
100
AcDbArc
 50
78.11733186598491
 51
80.60009829598874
  0
ARC
  5
29D5
102
{ACAD_REACTORS
330
29E0
102
}
330
18
100
AcDbEntity
  8
外形線
100
AcDbCircle
 10
130.1519145908041
 20
81.86897834233898
 30
0.0
 40
100.0
100
AcDbArc
 50
62.47549668420596
 51
72.60833947687075
  0
ARC
  5
29D6
102
{ACAD_REACTORS
330
29E0
102
}
330
18
100
AcDbEntity
  8
隠れ線2
 48
0.7
100
AcDbCircle
 10
130.1519145908041
 20
81.86897834233898
 30
0.0
 40
100.0
100
AcDbArc
 50
72.60833947687075
 51
78.11733186598491
  0
ARC
  5
29D7
102
{ACAD_REACTORS
330
29E0
102
}
330
18
100
AcDbEntity
  8
外形線
100
AcDbCircle
 10
130.1519145908041
 20
81.86897834233898
 30
0.0
 40
101.5
100
AcDbArc
 50
62.4970962852139
 51
78.11733186598491
  0
ARC
  5
29D8
102
{ACAD_REACTORS
330
29E0
102
}
330
18
100
AcDbEntity
  8
外形線
100
AcDbCircle
 10
182.6296826424881
 20
184.1793218561131
 30
0.0
 40
13.5
100
AcDbArc
 50
243.0815349963785
 51
291.253607191976
  0
ARC
  5
29D9
102
{ACAD_REACTORS
330
29E0
102
}
330
18
100
AcDbEntity
  8
外形線
100
AcDbCircle
 10
182.6296826424881
 20
184.1793218561131
 30
0.0
 40
15.0
100
AcDbArc
 50
245.312736006108
 51
291.1968540211995
  0
LINE
  5
29DA
102
{ACAD_REACTORS
330
29E0
102
}
330
18
100
AcDbEntity
  8
外形線
100
AcDbLine
 10
188.0543788367258
 20
170.1912656605593
 30
0.0
 11
187.5233882860234
 21
171.5975236907303
 31
0.0
  0
ARC
  5
29DB
102
{ACAD_REACTORS
330
29E0
102
}
330
18
100
AcDbEntity
  8
外形線
100
AcDbCircle
 10
114.2189622907605
 20
16.33255839334546
 30
0.0
 40
167.3539295215424
100
AcDbArc
 50
80.36611490834129
 51
85.98079412107628
  0
ARC
  5
29DC
102
{ACAD_REACTORS
330
29E0
102
}
330
18
100
AcDbEntity
  8
外形線
100
AcDbCircle
 10
109.5610967076326
 20
-15.98815332879701
 30
0.0
 40
201.5
100
AcDbArc
 50
78.11733186598491
 51
85.4114034518597
  0
ARC
  5
29DD
102
{ACAD_REACTORS
330
29E0
102
}
330
18
100
AcDbEntity
  8
外形線
100
AcDbCircle
 10
124.3966159512046
 20
163.3352335602414
 30
0.0
 40
19.99999999999998
100
AcDbArc
 50
85.54843338237336
 51
170.108296764825
  0
ARC
  5
29DE
102
{ACAD_REACTORS
330
29E0
102
}
330
18
100
AcDbEntity
  8
外形線
100
AcDbCircle
 10
124.5146672672267
 20
163.2700826579152
 30
0.0
 40
21.62740357469704
100
AcDbArc
 50
86.90808359977543
 51
170.1601663291239
  0
LINE
  5
29DF
102
{ACAD_REACTORS
330
29E0
102
}
330
18
100
AcDbEntity
  8
外形線
100
AcDbLine
 10
103.2054173799305
 20
166.9660878829607
 30
0.0
 11
104.6939317078394
 21
166.7709625376563
 31
0.0
  0
LINE
  5
29F0
330
18
100
AcDbEntity
  8
外形線
100
AcDbLine
 10
43.82883022620285
 20
166.7709625376563
 30
0.0
 11
41.82883022620285
 21
166.7709625376563
 31
0.0
  0
LINE
  5
29F1
330
18
100
AcDbEntity
  8
外形線
100
AcDbLine
 10
43.82883022620285
 20
166.9660878829603
 30
0.0
 11
41.82883022620285
 21
166.9660878829603
 31
0.0
  0
LINE
  5
29F2
330
18
100
AcDbEntity
  8
外形線
100
AcDbLine
 10
37.82883022620286
 20
166.9660878829603
 30
0.0
 11
35.82883022620285
 21
166.9660878829603
 31
0.0
  0
LINE
  5
29F3
330
18
100
AcDbEntity
  8
外形線
100
AcDbLine
 10
37.82883022620286
 20
166.7709625376563
 30
0.0
 11
35.82883022620285
 21
166.7709625376563
 31
0.0
  0
LINE
  5
29F4
330
18
100
AcDbEntity
  8
外形線
100
AcDbLine
 10
43.82883022620285
 20
176.9194058027196
 30
0.0
 11
46.82883022620285
 21
176.9194058027196
 31
0.0
  0
LINE
  5
29F5
330
18
100
AcDbEntity
  8
外形線
100
AcDbLine
 10
37.82883022620286
 20
176.9194058027196
 30
0.0
 11
41.82883022620285
 21
176.9194058027196
 31
0.0
  0
LINE
  5
29F6
330
18
100
AcDbEntity
  8
外形線
100
AcDbLine
 10
37.82883022620286
 20
168.9194058027196
 30
0.0
 11
41.82883022620285
 21
168.9194058027196
 31
0.0
  0
LINE
  5
29F7
330
18
100
AcDbEntity
  8
外形線
100
AcDbLine
 10
43.82883022620285
 20
168.9194058027196
 30
0.0
 11
46.82883022620285
 21
168.9194058027196
 31
0.0
  0
DIMENSION
  5
2A84
330
18
100
AcDbEntity
  8
寸法線
100
AcDbDimension
  2
*D28
 10
125.6261109452484
 20
68.56922003217921
 30
0.0
 11
133.274920469058
 21
68.56922003217921
 31
0.0
 70
   160
  1
%%C<>
 71
     5
 42
4.0
  3
STYLE3
100
AcDbAlignedDimension
 13
121.6261109452484
 23
68.56922003217921
 33
0.0
 14
125.6261109452484
 24
68.56922003217921
 34
0.0
100
AcDbRotatedDimension
1001
ACAD
1000
DSTYLE
1002
{
1070
   271
1070
     2
1070
   341
1005
0
1002
}
  0
LINE
  5
2B1E
330
18
100
AcDbEntity
  8
外形線
100
AcDbLine
 10
138.9872942677688
 20
188.2239680952932
 30
0.0
 11
253.0243122677688
 21
188.2239680952932
 31
0.0
  0
LINE
  5
2B1F
330
18
100
AcDbEntity
  8
外形線
100
AcDbLine
 10
138.9872942677688
 20
189.2239680952932
 30
0.0
 11
253.0243122677688
 21
189.2239680952932
 31
0.0
  0
TEXT
  5
2B20
330
18
100
AcDbEntity
  8
文字
100
AcDbText
 10
139.2314372677688
 20
191.5087600952932
 30
0.0
 40
3.5
  1
Model No.G2-205M Digital Thickness Gauge
  7
STYLE3
100
AcDbText
  0
LINE
  5
2B22
330
18
100
AcDbEntity
  8
外形線
100
AcDbLine
 10
113.606578299222
 20
23.98423634859679
 30
0.0
 11
254.397996299222
 21
23.98423634859679
 31
0.0
  0
LINE
  5
2B23
330
18
100
AcDbEntity
  8
外形線
100
AcDbLine
 10
113.606578299222
 20
13.20403034859679
 30
0.0
 11
254.397996299222
 21
13.20403034859679
 31
0.0
  0
TEXT
  5
2B24
330
18
100
AcDbEntity
  8
0
  6
Continuous
100
AcDbText
 10
115.064045299222
 20
15.10202034859679
 30
0.0
 40
2.1
  1
Design and specifications are subject to change without notice for future improvement.
  7
STYLE3
100
AcDbText
  0
TEXT
  5
2B25
330
18
100
AcDbEntity
  8
0
  6
Continuous
100
AcDbText
 10
115.3555392992219
 20
19.03116834859679
 30
0.0
 40
3.5
  1
仕様及び外観は予告なく変更される場合がございますのでご了承下さい。
  7
STYLE3
100
AcDbText
  0
TEXT
  5
2B26
330
18
100
AcDbEntity
  8
0
  6
Continuous
100
AcDbText
 10
114.7725542992219
 20
5.33739234859679
 30
0.0
 40
2.1
  1
3RD Angle Projection
  7
STYLE3
100
AcDbText
  0
TEXT
  5
2B27
330
18
100
AcDbEntity
  8
0
  6
Continuous
100
AcDbText
 10
117.395997299222
 20
8.83367534859679
 30
0.0
 40
3.0
  1
三　　角　　法
  7
STYLE3
100
AcDbText
  0
LINE
  5
2B28
330
18
100
AcDbEntity
  8
外形線
100
AcDbLine
 10
113.606578299222
 20
3.589252348596789
 30
0.0
 11
113.606578299222
 21
23.98423634859679
 31
0.0
  0
LINE
  5
2B29
330
18
100
AcDbEntity
  8
外形線
100
AcDbLine
 10
215.629345299222
 20
13.20403034859679
 30
0.0
 11
215.629345299222
 21
3.589252348596789
 31
0.0
  0
LINE
  5
2B2A
330
18
100
AcDbEntity
  8
外形線
100
AcDbLine
 10
185.896995299222
 20
13.20403034859679
 30
0.0
 11
185.896995299222
 21
3.589252348596789
 31
0.0
  0
LINE
  5
2B2B
330
18
100
AcDbEntity
  8
外形線
100
AcDbLine
 10
166.3669232992219
 20
13.20403034859679
 30
0.0
 11
166.3669232992219
 21
3.589252348596789
 31
0.0
  0
LINE
  5
2B2C
330
18
100
AcDbEntity
  8
外形線
100
AcDbLine
 10
148.877306299222
 20
13.20403034859679
 30
0.0
 11
148.877306299222
 21
3.589252348596789
 31
0.0
  0
TEXT
  5
2B2D
330
18
100
AcDbEntity
  8
0
  6
Continuous
100
AcDbText
 10
150.3347752992219
 20
8.839630348596788
 30
0.0
 40
3.0
  1
単位
  7
STYLE3
100
AcDbText
  0
TEXT
  5
2B2E
330
18
100
AcDbEntity
  8
0
  6
Continuous
100
AcDbText
 10
150.5064962992219
 20
5.337393348596789
 30
0.0
 40
2.1
  1
Unit
  7
STYLE3
100
AcDbText
  0
TEXT
  5
2B2F
330
18
100
AcDbEntity
  8
0
  6
Continuous
100
AcDbText
 10
167.652671299222
 20
8.548272348596789
 30
0.0
 40
3.0
  1
尺 度
  7
STYLE3
100
AcDbText
  0
TEXT
  5
2B30
330
18
100
AcDbEntity
  8
0
  6
Continuous
100
AcDbText
 10
158.376823299222
 20
7.085536348596789
 30
0.0
 40
2.399999999999999
  1
mm
  7
STYLE3
100
AcDbText
  0
TEXT
  5
2B31
330
18
100
AcDbEntity
  8
0
  6
Continuous
100
AcDbText
 10
168.115886299222
 20
5.628750348596788
 30
0.0
 40
2.1
  1
Scale
  7
STYLE3
100
AcDbText
  0
TEXT
  5
2B32
330
18
100
AcDbEntity
  8
0
  6
Continuous
100
AcDbText
 10
177.7351752992219
 20
7.376893348596789
 30
0.0
 40
2.399999999999999
  1
1/1
  7
STYLE3
100
AcDbText
  0
TEXT
  5
2B33
330
18
100
AcDbEntity
  8
0
  6
Continuous
100
AcDbText
 10
187.828946299222
 20
5.337394348596789
 30
0.0
 40
2.1
  1
Date
  7
STYLE3
100
AcDbText
  0
TEXT
  5
2B34
330
18
100
AcDbEntity
  8
0
  6
Continuous
100
AcDbText
 10
187.445585299222
 20
8.670477348596788
 30
0.0
 40
3.0
  1
日 付
  7
STYLE3
100
AcDbText
  0
TEXT
  5
2B35
330
18
100
AcDbEntity
  8
0
  6
Continuous
100
AcDbText
 10
196.5737542992219
 20
7.085535348596788
 30
0.0
 40
2.1
  1
2010.07.01
  7
STYLE3
100
AcDbText
  0
TEXT
  5
2B36
330
18
100
AcDbEntity
  8
0
  6
Continuous
100
AcDbText
 10
216.978308299222
 20
9.125032348596789
 30
0.0
 40
3.0
  1
株式会社　尾崎製作所
  7
STYLE3
100
AcDbText
  0
TEXT
  5
2B37
330
18
100
AcDbEntity
  8
0
  6
Continuous
100
AcDbText
 10
217.852787299222
 20
5.337393348596789
 30
0.0
 40
2.1
  1
OZAKI MFG. CO., LTD.
  7
STYLE3
100
AcDbText
  0
VIEWPORT
  5
177
330
15
100
AcDbEntity
 67
     1
  8
0
100
AcDbViewport
 10
127.5041203589828
 20
97.49391214526822
 30
0.0
 40
418.3086347473814
 41
243.0346063651093
 68
     1
 69
     1
 12
127.5041203589828
 22
97.49391214526822
 13
0.0
 23
0.0
 14
10.0
 24
10.0
 15
10.0
 25
10.0
 16
0.0
 26
0.0
 36
1.0
 17
0.0
 27
0.0
 37
0.0
 42
50.0
 43
0.0
 44
0.0
 45
243.0346063651093
 50
0.0
 51
0.0
 72
   100
 90
    32800
  1

281
     0
 71
     1
 74
     0
110
0.0
120
0.0
130
0.0
111
1.0
121
0.0
131
0.0
112
0.0
122
1.0
132
0.0
 79
     0
146
0.0
170
     0
  0
ENDSEC
  0
SECTION
  2
OBJECTS
  0
DICTIONARY
  5
C
330
0
100
AcDbDictionary
281
     1
  3
ACAD_COLOR
350
1201
  3
ACAD_GROUP
350
D
  3
ACAD_LAYOUT
350
1204
  3
ACAD_MATERIAL
350
1200
  3
ACAD_MLINESTYLE
350
1B
  3
ACAD_PLOTSETTINGS
350
1205
  3
ACAD_PLOTSTYLENAME
350
11FE
  3
ACAD_TABLESTYLE
350
1202
  3
AcDbVariableDictionary
350
19D9
  0
DICTIONARY
  5
27BC
330
2
100
AcDbDictionary
280
     1
281
     1
  3
ACAD_LAYERSTATES
360
27BD
  0
DICTIONARY
  5
1869
330
18
100
AcDbDictionary
280
     1
281
     1
  3
ACAD_SORTENTS
360
186A
  0
DICTIONARY
  5
1201
102
{ACAD_REACTORS
330
C
102
}
330
C
100
AcDbDictionary
281
     1
  0
DICTIONARY
  5
D
102
{ACAD_REACTORS
330
C
102
}
330
C
100
AcDbDictionary
281
     1
  3
*A1
350
29B1
  3
*A2
350
29E0
  0
DICTIONARY
  5
1204
102
{ACAD_REACTORS
330
C
102
}
330
C
100
AcDbDictionary
281
     1
  3
Model
350
1206
  3
レイアウト1
350
1207
  0
DICTIONARY
  5
1200
102
{ACAD_REACTORS
330
C
102
}
330
C
100
AcDbDictionary
281
     1
  0
DICTIONARY
  5
1B
102
{ACAD_REACTORS
330
C
102
}
330
C
100
AcDbDictionary
281
     1
  3
STANDARD
350
1C
  0
DICTIONARY
  5
1205
102
{ACAD_REACTORS
330
C
102
}
330
C
100
AcDbDictionary
281
     1
  0
ACDBDICTIONARYWDFLT
  5
11FE
102
{ACAD_REACTORS
330
C
102
}
330
C
100
AcDbDictionary
281
     1
  3
Normal
350
11FF
100
AcDbDictionaryWithDefault
340
11FF
  0
DICTIONARY
  5
1202
102
{ACAD_REACTORS
330
C
102
}
330
C
100
AcDbDictionary
281
     1
  3
Standard
350
1203
  0
DICTIONARY
  5
19D9
102
{ACAD_REACTORS
330
C
102
}
330
C
100
AcDbDictionary
281
     1
  3
CTABLESTYLE
350
19DA
  0
DICTIONARY
  5
27BD
102
{ACAD_REACTORS
330
27BC
102
}
330
27BC
100
AcDbDictionary
281
     1
  0
SORTENTSTABLE
  5
186A
102
{ACAD_REACTORS
330
1869
102
}
330
1869
100
AcDbSortentsTable
330
18
331
F71
  5
1486
331
179F
  5
17B2
331
17E4
  5
17F7
331
18AA
  5
18B6
331
1977
  5
1A0C
331
F32
  5
F5C
331
17A7
  5
17BA
331
202E
  5
203B
331
864
  5
865
331
29D4
  5
29D8
331
29DC
  5
29E2
331
29F4
  5
191A
331
1930
  5
1940
331
2A6
  5
2A6
331
2E5
  5
2E7
331
17AD
  5
17C0
331
17EC
  5
17FF
331
18B2
  5
18BE
331
18F1
  5
1905
331
E5C
  5
E6D
331
1938
  5
1948
331
2AE
  5
2AE
331
2ED
  5
2EE
331
17B5
  5
17C8
331
17F4
  5
1807
331
1843
  5
18A4
331
18BA
  5
18C6
331
E64
  5
EC0
331
1940
  5
1966
331
277
  5
277
331
2F5
  5
2F6
331
17BD
  5
17D0
331
17FC
  5
1810
331
18C2
  5
18CE
331
1901
  5
190D
331
E6C
  5
F14
331
1770
  5
1799
331
204E
  5
2035
331
1909
  5
1917
331
17C5
  5
17D8
331
18CA
  5
18D6
331
E74
  5
F1C
331
1A07
  5
E63
331
2077
  5
207B
331
207F
  5
2083
331
29B5
  5
29B9
331
2087
  5
208B
331
29BD
  5
29C1
331
29C5
  5
29C9
331
29CD
  5
29D1
331
27F
  5
27F
331
2FD
  5
304
331
1960
  5
1970
331
287
  5
287
331
2CE
  5
2CE
331
17CD
  5
17E0
331
18D2
  5
18DE
331
F1B
  5
F40
331
F62
  5
F78
331
1790
  5
17A3
331
1919
  5
1929
331
28F
  5
28F
331
2D6
  5
2D7
331
17D5
  5
17E8
331
1814
  5
1827
331
18DA
  5
18FC
331
1968
  5
1978
331
F6A
  5
FD7
331
FF9
  5
1795
331
1798
  5
17AB
331
1921
  5
1932
331
297
  5
297
331
17DD
  5
17F0
331
181C
  5
182F
331
18A3
  5
18AF
331
1970
  5
19A4
331
F2B
  5
F54
331
F72
  5
1487
331
17A0
  5
17B3
331
1929
  5
1939
331
17E5
  5
17F8
331
18AB
  5
18B7
331
F33
  5
F5D
331
202F
  5
203F
331
865
  5
906
331
29D5
  5
29D9
331
29DD
  5
29E3
331
29F5
  5
1919
331
29F
  5
29F
331
2DE
  5
2DF
331
1978
  5
1A0D
331
1931
  5
1941
331
2A7
  5
2A7
331
17AE
  5
17C1
331
17ED
  5
1800
331
18B3
  5
18BF
331
E5D
  5
E6E
331
1939
  5
1949
331
2AF
  5
2AF
331
2EE
  5
2EF
331
17B6
  5
17C9
331
17F5
  5
1808
331
1844
  5
18A5
331
18BB
  5
18C7
331
18FA
  5
1906
331
E65
  5
ECD
331
F43
  5
F62
331
203F
  5
2057
331
1941
  5
1967
331
2F6
  5
2F9
331
17BE
  5
17D1
331
17FD
  5
1811
331
18C3
  5
18CF
331
1902
  5
190E
331
E6D
  5
F15
331
F0C
  5
F1F
331
1771
  5
179A
331
204F
  5
206A
331
190A
  5
1918
331
17C6
  5
17D9
331
18CB
  5
18D7
331
F14
  5
F2F
331
F5B
  5
F71
331
2057
  5
2073
331
2078
  5
207C
331
2080
  5
2084
331
29B6
  5
29BA
331
2088
  5
29AF
331
29BE
  5
29C2
331
29C6
  5
29CA
331
29CE
  5
29D2
331
278
  5
278
331
280
  5
280
331
1961
  5
1971
331
18D3
  5
18DF
331
288
  5
288
331
2CF
  5
2CF
331
306
  5
307
331
17CE
  5
17E1
331
1912
  5
1922
331
1A08
  5
E64
331
F1C
  5
F41
331
1791
  5
17A4
331
191A
  5
192A
331
18DB
  5
18FD
331
290
  5
290
331
2D7
  5
2DC
331
17D6
  5
17E9
331
1815
  5
1828
331
1969
  5
1979
331
ECD
  5
F1D
331
F6B
  5
FD8
331
FFA
  5
1796
331
1799
  5
17AC
331
1922
  5
1934
331
18A4
  5
18B0
331
17DE
  5
17F1
331
181D
  5
1830
331
18EB
  5
1904
331
1971
  5
1A06
331
F2C
  5
F55
331
F73
  5
1776
331
17A1
  5
17B4
331
192A
  5
193A
331
18AC
  5
18B8
331
17E6
  5
17F9
331
F34
  5
F5E
331
29D6
  5
29DA
331
29DE
  5
29F0
331
29AF
  5
29B4
331
29F6
  5
1915
331
298
  5
298
331
2A0
  5
2A0
331
2DF
  5
2E0
331
2030
  5
204A
331
1979
  5
1C94
331
1932
  5
1942
331
17AF
  5
17C2
331
17EE
  5
1801
331
18B4
  5
18C0
331
2A8
  5
2A8
331
2E7
  5
2E9
331
193A
  5
194A
331
17B7
  5
17CA
331
17F6
  5
1809
331
1845
  5
18A6
331
18BC
  5
18C8
331
18FB
  5
1907
331
2B0
  5
2B0
331
2EF
  5
2F0
331
E5E
  5
E6F
331
1942
  5
1968
331
17BF
  5
17D2
331
17FE
  5
1812
331
18C4
  5
18D0
331
1903
  5
190F
331
E66
  5
F0C
331
F44
  5
F67
331
2050
  5
2071
331
195A
  5
196A
331
190B
  5
191B
331
17C7
  5
17DA
331
1865
  5
E5D
331
18CC
  5
18D8
331
E6E
  5
F16
331
F0D
  5
F20
331
F54
  5
F6A
331
1772
  5
179C
331
F15
  5
F30
331
F5C
  5
F72
331
2071
  5
2075
331
2079
  5
207D
331
2081
  5
2085
331
29B7
  5
29BB
331
2089
  5
29B0
331
29BF
  5
29C3
331
29C7
  5
29CB
331
29CF
  5
29D3
331
279
  5
279
331
281
  5
281
331
1962
  5
1972
331
17CF
  5
17E2
331
18D4
  5
18E0
331
1A09
  5
E65
331
307
  5
308
331
289
  5
289
331
2D0
  5
2D0
331
D40
  5
D41
331
196A
  5
197A
331
17D7
  5
17EA
331
1816
  5
1829
331
18DC
  5
18FE
331
291
  5
291
331
F1D
  5
F43
331
1792
  5
17A5
331
1923
  5
1935
331
17DF
  5
17F2
331
181E
  5
1831
331
18A5
  5
18B1
331
1972
  5
1A07
331
F6C
  5
FD9
331
FFB
  5
1797
331
179A
  5
17AD
331
192B
  5
193B
331
17E7
  5
17FA
331
18AD
  5
18B9
331
F2D
  5
F56
331
F74
  5
1777
331
17A2
  5
17B5
331
9AC
  5
A74
331
29D7
  5
29DB
331
29DF
  5
29F1
331
29F7
  5
1916
331
299
  5
299
331
17A8
  5
17BB
331
2A1
  5
2A1
331
2E0
  5
2E1
331
2031
  5
204B
331
197A
  5
1C95
331
1933
  5
1943
331
17B0
  5
17C3
331
17EF
  5
1802
331
18B5
  5
18C1
331
26A
  5
26A
331
2A9
  5
2A9
331
193B
  5
194B
331
17B8
  5
17CB
331
17F7
  5
180B
331
1846
  5
18A7
331
18BD
  5
18C9
331
18FC
  5
1908
331
2F0
  5
2F3
331
E5F
  5
E70
331
1943
  5
1969
331
17C0
  5
17D3
331
17FF
  5
1813
331
18C5
  5
18D1
331
1904
  5
1910
331
E67
  5
F0D
331
F45
  5
F68
331
2051
  5
2072
331
195B
  5
196B
331
190C
  5
191C
331
1866
  5
E5E
331
18CD
  5
18D9
331
E6F
  5
F17
331
F0E
  5
F21
331
F55
  5
F6B
331
F16
  5
F31
331
F5D
  5
F73
331
178B
  5
179E
331
2072
  5
2076
331
207A
  5
207E
331
29B0
  5
29B5
331
2082
  5
2086
331
29B8
  5
29BC
331
208A
  5
29B2
331
29C0
  5
29C4
331
29C8
  5
29CC
331
27A
  5
27A
331
17C8
  5
17DB
331
282
  5
282
331
1914
  5
1924
331
17D0
  5
17E3
331
180F
  5
1822
331
18D5
  5
18E1
331
1963
  5
1973
331
1A0A
  5
E66
331
2D1
  5
2D3
331
308
  5
309
331
D41
  5
D42
331
191C
  5
192C
331
17D8
  5
17EB
331
1817
  5
182A
331
1896
  5
18AD
331
18DD
  5
18FF
331
196B
  5
197B
331
292
  5
292
331
310
  5
311
331
1793
  5
17A6
331
1924
  5
1936
331
17E0
  5
17F3
331
181F
  5
1832
331
18A6
  5
18B2
331
1973
  5
1A08
331
179B
  5
17AE
331
192C
  5
193C
331
18AE
  5
18BA
331
F2E
  5
F57
331
F75
  5
1778
331
17A3
  5
17B6
331
995
  5
996
331
29D0
  5
29D4
331
29D8
  5
29DC
331
29F0
  5
29F4
331
29A
  5
29A
331
2A2
  5
2A2
331
2E1
  5
2E2
331
17A9
  5
17BC
331
17E8
  5
17FB
331
2032
  5
204E
331
197B
  5
202D
331
1934
  5
1944
331
2AA
  5
2AA
331
26B
  5
26B
331
2E9
  5
2EA
331
17B1
  5
17C4
331
17F0
  5
1803
331
18B6
  5
18C2
331
E60
  5
E71
331
F3E
  5
F5F
331
203A
  5
2034
331
193C
  5
194C
331
273
  5
273
331
17B9
  5
17CC
331
17F8
  5
180C
331
1847
  5
18A8
331
18BE
  5
18CA
331
18FD
  5
1909
331
E68
  5
F0E
331
F46
  5
F69
331
204A
  5
179D
331
17C1
  5
17D4
331
1800
  5
1814
331
18C6
  5
18D2
331
1905
  5
1911
331
E70
  5
F18
331
F0F
  5
F2B
331
F56
  5
F6C
331
195C
  5
196C
331
1867
  5
E5F
331
18CE
  5
18DA
331
F17
  5
F32
331
F5E
  5
F74
331
178C
  5
179F
331
906
  5
907
331
A74
  5
AE9
331
2073
  5
2077
331
207B
  5
207F
331
29B9
  5
29BD
331
2083
  5
2087
331
29C1
  5
29C5
331
208B
  5
29B3
331
29C9
  5
29CD
331
27B
  5
27B
331
2F9
  5
2FA
331
283
  5
283
331
17C9
  5
17DC
331
D42
  5
D43
331
1915
  5
1925
331
28B
  5
28B
331
309
  5
310
331
17D1
  5
17E4
331
1810
  5
1823
331
18D6
  5
18EB
331
1964
  5
1974
331
1A0B
  5
E67
331
F1F
  5
F44
331
1794
  5
17A7
331
191D
  5
192D
331
293
  5
293
331
311
  5
312
331
17D9
  5
17EC
331
1818
  5
182B
331
18DE
  5
1900
331
196C
  5
197C
331
F6E
  5
FDA
331
179C
  5
17AF
331
17E1
  5
17F4
331
18A7
  5
18B3
331
1974
  5
1A09
331
206A
  5
2074
331
F2F
  5
F58
331
F76
  5
1779
331
17A4
  5
17B7
331
996
  5
9AC
331
192D
  5
193D
331
18AF
  5
18BB
331
29D1
  5
29D5
331
29D9
  5
29DD
331
29F1
  5
29F6
331
29B
  5
29B
331
2A3
  5
2A3
331
2E2
  5
2E3
331
17AA
  5
17BD
331
17E9
  5
17FC
331
1820
  5
1833
331
E59
  5
E6A
331
2033
  5
204F
331
197C
  5
202E
331
26C
  5
26C
331
2AB
  5
2AB
331
2EA
  5
2EB
331
17B2
  5
17C5
331
18B7
  5
18C3
331
E61
  5
E72
331
203B
  5
2033
331
193D
  5
194D
331
274
  5
274
331
17BA
  5
17CD
331
17F9
  5
180D
331
1848
  5
18AB
331
18BF
  5
18CB
331
18FE
  5
190A
331
E69
  5
F0F
331
204B
  5
179B
331
17C2
  5
17D5
331
1801
  5
1815
331
18C7
  5
18D3
331
1906
  5
1912
331
BC3
  5
BC4
331
E71
  5
F19
331
F10
  5
F2C
331
F57
  5
F6E
331
195D
  5
196D
331
190E
  5
191E
331
18CF
  5
18DB
331
F5F
  5
F75
331
178D
  5
17A0
331
907
  5
995
331
2074
  5
2078
331
29B2
  5
29B6
331
207C
  5
2080
331
29BA
  5
29BE
331
2084
  5
2088
331
29C2
  5
29C6
331
29CA
  5
29CE
331
27C
  5
27C
331
2FA
  5
2FC
331
284
  5
284
331
17CA
  5
17DD
331
1868
  5
E60
331
D43
  5
D49
331
F18
  5
F33
331
1916
  5
1926
331
28C
  5
28C
331
2D3
  5
2D6
331
17D2
  5
17E5
331
1811
  5
1824
331
18D7
  5
18F1
331
1965
  5
1975
331
1A0C
  5
E68
331
F20
  5
F45
331
F67
  5
FC7
331
1795
  5
17A8
331
191E
  5
192E
331
294
  5
294
331
312
  5
864
331
17DA
  5
17ED
331
1819
  5
182C
331
18DF
  5
1901
331
196D
  5
1995
331
F6F
  5
FDB
331
179D
  5
17B0
331
17E2
  5
17F5
331
18A8
  5
18B4
331
1975
  5
1A0A
331
F30
  5
F59
331
F77
  5
1792
331
17A5
  5
17B8
331
192E
  5
193E
331
29D2
  5
29D6
331
29DA
  5
29DE
331
29E2
  5
29F2
331
29F2
  5
29F7
331
29C
  5
29C
331
2A4
  5
2A4
331
2E3
  5
2E5
331
17AB
  5
17BE
331
17EA
  5
17FD
331
1821
  5
1834
331
18B0
  5
18BC
331
E5A
  5
E6B
331
2034
  5
2050
331
2AC
  5
2AC
331
2EB
  5
2ED
331
17B3
  5
17C6
331
17F2
  5
1805
331
18B8
  5
18C4
331
E62
  5
E73
331
F40
  5
F60
331
1995
  5
2031
331
193E
  5
195A
331
18C0
  5
18CC
331
275
  5
275
331
2F3
  5
2F4
331
17BB
  5
17CE
331
17FA
  5
180E
331
1849
  5
18AC
331
18FF
  5
190B
331
E6A
  5
F10
331
17C3
  5
17D6
331
1802
  5
1816
331
18C8
  5
18D4
331
1907
  5
1913
331
BC4
  5
BC5
331
E72
  5
F1A
331
F11
  5
F2D
331
F58
  5
F6F
331
FC7
  5
1794
331
195E
  5
196E
331
190F
  5
191F
331
178E
  5
17A1
331
2075
  5
2079
331
207D
  5
2081
331
29B3
  5
29B7
331
2085
  5
2089
331
29BB
  5
29BF
331
29C3
  5
29C7
331
29CB
  5
29CF
331
27D
  5
27D
331
285
  5
285
331
17CB
  5
17DE
331
18D0
  5
18DC
331
F19
  5
F34
331
F60
  5
F76
331
1917
  5
1927
331
28D
  5
28D
331
17D3
  5
17E6
331
1812
  5
1825
331
18D8
  5
18FA
331
1966
  5
1976
331
1A0D
  5
E69
331
F21
  5
F46
331
F68
  5
FD5
331
1796
  5
17A9
331
295
  5
295
331
17DB
  5
17EE
331
181A
  5
182D
331
191F
  5
192F
331
196E
  5
1996
331
F70
  5
1485
331
179E
  5
17B1
331
17E3
  5
17F6
331
18A9
  5
18B5
331
1976
  5
1A0B
331
F31
  5
F5B
331
17A6
  5
17B9
331
202D
  5
203A
331
192F
  5
193F
331
29D3
  5
29D7
331
29DB
  5
29DF
331
29E3
  5
29F3
331
29F3
  5
29F5
331
2DC
  5
2DE
331
2A5
  5
2A5
331
17AC
  5
17BF
331
17EB
  5
17FE
331
18B1
  5
18BD
331
E5B
  5
E6C
331
F78
  5
1793
331
2035
  5
2051
331
1937
  5
1947
331
2AD
  5
2AD
331
17B4
  5
17C7
331
17F3
  5
1806
331
1842
  5
18A3
331
18B9
  5
18C5
331
E63
  5
E74
331
F41
  5
F61
331
1996
  5
2032
331
193F
  5
195B
331
276
  5
276
331
2F4
  5
2F5
331
17BC
  5
17CF
331
17FB
  5
180F
331
18C1
  5
18CD
331
1900
  5
190C
331
E6B
  5
F12
331
176F
  5
1798
331
1908
  5
1914
331
17C4
  5
17D7
331
18C9
  5
18D5
331
E73
  5
F1B
331
F12
  5
F2E
331
F59
  5
F70
331
195F
  5
196F
331
1A06
  5
E62
331
178F
  5
17A2
331
2076
  5
207A
331
207E
  5
2082
331
29B4
  5
29B8
331
2086
  5
208A
331
29BC
  5
29C0
331
29C4
  5
29C8
331
29CC
  5
29D0
331
27E
  5
27E
331
2FC
  5
2FD
331
1910
  5
1920
331
286
  5
286
331
2CD
  5
2CD
331
304
  5
306
331
17CC
  5
17DF
331
18D1
  5
18DD
331
F1A
  5
F3E
331
F61
  5
F77
331
1918
  5
1928
331
28E
  5
28E
331
17D4
  5
17E7
331
1813
  5
1826
331
18D9
  5
18FB
331
1967
  5
1977
331
F69
  5
FD6
331
1797
  5
17AA
331
1920
  5
1930
331
17DC
  5
17EF
331
181B
  5
182E
331
18A2
  5
18AE
331
196F
  5
19A3
  0
GROUP
  5
29B1
102
{ACAD_REACTORS
330
D
102
}
330
D
100
AcDbGroup
300

 70
     1
 71
     1
  0
GROUP
  5
29E0
102
{ACAD_REACTORS
330
D
102
}
330
D
100
AcDbGroup
300

 70
     1
 71
     1
340
29DF
340
29DE
340
29DD
340
29CB
340
29CA
340
29C9
340
29C8
340
29C7
340
29C6
340
29C5
340
29C1
340
29C0
340
29BF
340
29BE
340
29BD
340
29BC
340
29BB
340
29BA
340
29B9
340
29B8
340
29B7
340
29B6
340
29B5
340
29B4
340
29B3
340
29B2
340
29C4
340
29C3
340
29C2
340
29DC
340
29DB
340
29D3
340
29D0
340
29CF
340
29CC
340
29D7
340
29D6
340
29D5
340
29D2
340
29D1
340
29CD
340
29D4
340
29CE
340
29D9
340
29D8
340
29DA
  0
LAYOUT
  5
1206
102
{ACAD_REACTORS
330
1204
102
}
330
1204
100
AcDbPlotSettings
  1

  2
A4 EPSON LP-6100.pc3
  4
A4
  6

 40
5.873749732971191
 41
5.873747825622558
 42
5.873748779296875
 43
5.873748779296875
 44
209.9733276367187
 45
297.0106506347656
 46
0.8
 47
25.0
 48
0.0
 49
0.0
140
0.0
141
0.0
142
1.0
143
1.0
 70
 28336
 72
     1
 73
     1
 74
     1
  7
AutoCad LT 98.ctb
 75
    16
147
1.0
 76
     1
 77
     2
 78
   300
148
0.2111680915839997
149
-2.71005318489631
100
AcDbLayout
  1
Model
 70
     1
 71
     0
 10
0.0
 20
0.0
 11
12.0
 21
9.0
 12
0.0
 22
0.0
 32
0.0
 14
0.0
 24
0.0
 34
0.0
 15
0.0
 25
0.0
 35
0.0
146
0.0
 13
0.0
 23
0.0
 33
0.0
 16
1.0
 26
0.0
 36
0.0
 17
0.0
 27
1.0
 37
0.0
 76
     0
330
18
1001
ACAD_PSEXT
1000
A4 EPSON LP-6100.pc3
1000
EPSON LP-6100
1000
\\SATO-MATE2
1000

1070
     0
  0
LAYOUT
  5
1207
102
{ACAD_REACTORS
330
1204
102
}
330
1204
100
AcDbPlotSettings
  1

  2
Mytalk FAX
  4

  6

 40
0.0
 41
0.0
 42
0.0
 43
0.0
 44
0.0
 45
0.0
 46
0.0
 47
0.0
 48
0.0
 49
0.0
140
0.0
141
0.0
142
1.0
143
1.0
 70
   688
 72
     0
 73
     0
 74
     5
  7
AutoCAD LT 98.ctb
 75
    16
147
1.0
 76
     0
 77
     2
 78
   300
148
0.0
149
0.0
100
AcDbLayout
  1
レイアウト1
 70
     1
 71
     1
 10
0.0
 20
0.0
 11
420.0
 21
297.0
 12
0.0
 22
0.0
 32
0.0
 14
-0.2
 24
-0.2
 34
0.0
 15
255.2
 25
195.2
 35
0.0
146
0.0
 13
0.0
 23
0.0
 33
0.0
 16
1.0
 26
0.0
 36
0.0
 17
0.0
 27
1.0
 37
0.0
 76
     0
330
15
331
177
  0
MLINESTYLE
  5
1C
102
{ACAD_REACTORS
330
1B
102
}
330
1B
100
AcDbMlineStyle
  2
STANDARD
 70
     0
  3

 62
   256
 51
90.0
 52
90.0
 71
     2
 49
0.5
 62
   256
  6
BYLAYER
 49
-0.5
 62
   256
  6
BYLAYER
  0
ACDBPLACEHOLDER
  5
11FF
102
{ACAD_REACTORS
330
11FE
102
}
330
11FE
  0
ACAD_PROXY_OBJECT
  5
1203
102
{ACAD_REACTORS
330
1202
102
}
330
1202
100
AcDbProxyObject
 90
      499
 91
      503
 95
  2555929
 70
     0
 93
     1849
310
4214DD185B99185C992420000000000000F83F0000000000003E0FC00000000000004901028000000C1008070000C3001FDFF8000000C1003FBFF000000182007F7FE00000030400FEFFC00000060801FDFF8000000C1003FBFF000000182000000000000000C2020B0000001820100E000186003FBFF000000182007F7FE0
310
0000030400FEFFC00000060801FDFF8000000C1003FBFF000000182007F7FE0000003040000000000000012404160000003040201C00030C007F7FE00000030400FEFFC00000060801FDFF8000000C1003FBFF000000182007F7FE00000030400FEFFC000000608000
340
F
340
F
340
F
 94
        0
  0
DICTIONARYVAR
  5
19DA
102
{ACAD_REACTORS
330
19D9
102
}
330
19D9
100
DictionaryVariables
280
     0
  1
STANDARD
  0
ENDSEC
  0
EOF
