  0
SECTION
  2
HEADER
  9
$ACADVER
  1
AC1018
  9
$ACADMAINTVER
 70
     0
  9
$DWGCODEPAGE
  3
ANSI_932
  9
$INSBASE
 10
0.0
 20
0.0
 30
0.0
  9
$EXTMIN
 10
-0.2246211657004551
 20
-0.2078169326008492
 30
-0.0000000000000138
  9
$EXTMAX
 10
255.2263986037313
 20
195.2156316151461
 30
0.0000000000006256
  9
$LIMMIN
 10
0.0
 20
0.0
  9
$LIMMAX
 10
420.0
 20
297.0
  9
$ORTHOMODE
 70
     0
  9
$REGENMODE
 70
     1
  9
$FILLMODE
 70
     1
  9
$QTEXTMODE
 70
     0
  9
$MIRRTEXT
 70
     1
  9
$LTSCALE
 40
1.0
  9
$ATTMODE
 70
     1
  9
$TEXTSIZE
 40
3.0
  9
$TRACEWID
 40
1.0
  9
$TEXTSTYLE
  7
STYLE3
  9
$CLAYER
  8
寸法線
  9
$CELTYPE
  6
BYLAYER
  9
$CECOLOR
 62
   256
  9
$CELTSCALE
 40
1.0
  9
$DISPSILH
 70
     0
  9
$DIMSCALE
 40
1.0
  9
$DIMASZ
 40
2.5
  9
$DIMEXO
 40
0.0
  9
$DIMDLI
 40
3.75
  9
$DIMRND
 40
0.0
  9
$DIMDLE
 40
0.0
  9
$DIMEXE
 40
1.25
  9
$DIMTP
 40
0.0
  9
$DIMTM
 40
0.0
  9
$DIMTXT
 40
2.5
  9
$DIMCEN
 40
2.5
  9
$DIMTSZ
 40
0.0
  9
$DIMTOL
 70
     0
  9
$DIMLIM
 70
     0
  9
$DIMTIH
 70
     0
  9
$DIMTOH
 70
     0
  9
$DIMSE1
 70
     0
  9
$DIMSE2
 70
     0
  9
$DIMTAD
 70
     1
  9
$DIMZIN
 70
     8
  9
$DIMBLK
  1

  9
$DIMASO
 70
     1
  9
$DIMSHO
 70
     1
  9
$DIMPOST
  1

  9
$DIMAPOST
  1

  9
$DIMALT
 70
     0
  9
$DIMALTD
 70
     4
  9
$DIMALTF
 40
0.0394
  9
$DIMLFAC
 40
1.0
  9
$DIMTOFL
 70
     1
  9
$DIMTVP
 40
0.0
  9
$DIMTIX
 70
     0
  9
$DIMSOXD
 70
     0
  9
$DIMSAH
 70
     1
  9
$DIMBLK1
  1
OPEN
  9
$DIMBLK2
  1
OPEN
  9
$DIMSTYLE
  2
STYLE3
  9
$DIMCLRD
 70
     2
  9
$DIMCLRE
 70
     2
  9
$DIMCLRT
 70
     6
  9
$DIMTFAC
 40
1.0
  9
$DIMGAP
 40
0.625
  9
$DIMJUST
 70
     0
  9
$DIMSD1
 70
     0
  9
$DIMSD2
 70
     0
  9
$DIMTOLJ
 70
     1
  9
$DIMTZIN
 70
     0
  9
$DIMALTZ
 70
     0
  9
$DIMALTTZ
 70
     0
  9
$DIMUPT
 70
     0
  9
$DIMDEC
 70
     2
  9
$DIMTDEC
 70
     4
  9
$DIMALTU
 70
     8
  9
$DIMALTTD
 70
     4
  9
$DIMTXSTY
  7
STYLE3
  9
$DIMAUNIT
 70
     0
  9
$DIMADEC
 70
     0
  9
$DIMALTRND
 40
0.0
  9
$DIMAZIN
 70
     0
  9
$DIMDSEP
 70
    46
  9
$DIMATFIT
 70
     3
  9
$DIMFRAC
 70
     0
  9
$DIMLDRBLK
  1

  9
$DIMLUNIT
 70
     2
  9
$DIMLWD
 70
    -2
  9
$DIMLWE
 70
    -2
  9
$DIMTMOVE
 70
     0
  9
$LUNITS
 70
     2
  9
$LUPREC
 70
     4
  9
$SKETCHINC
 40
1.0
  9
$FILLETRAD
 40
1.0
  9
$AUNITS
 70
     0
  9
$AUPREC
 70
     0
  9
$MENU
  1
.
  9
$ELEVATION
 40
0.0
  9
$PELEVATION
 40
0.0
  9
$THICKNESS
 40
0.0
  9
$LIMCHECK
 70
     0
  9
$CHAMFERA
 40
10.0
  9
$CHAMFERB
 40
10.0
  9
$CHAMFERC
 40
20.0
  9
$CHAMFERD
 40
0.0
  9
$SKPOLY
 70
     0
  9
$TDCREATE
 40
2451418.542758565
  9
$TDUCREATE
 40
2451418.167758565
  9
$TDUPDATE
 40
2455358.391617836
  9
$TDUUPDATE
 40
2455358.016617835
  9
$TDINDWG
 40
1.6489051389
  9
$TDUSRTIMER
 40
1.6489051389
  9
$USRTIMER
 70
     1
  9
$ANGBASE
 50
0.0
  9
$ANGDIR
 70
     0
  9
$PDMODE
 70
     0
  9
$PDSIZE
 40
0.0
  9
$PLINEWID
 40
0.0
  9
$SPLFRAME
 70
     0
  9
$SPLINETYPE
 70
     6
  9
$SPLINESEGS
 70
     8
  9
$HANDSEED
  5
3893
  9
$SURFTAB1
 70
     6
  9
$SURFTAB2
 70
     6
  9
$SURFTYPE
 70
     6
  9
$SURFU
 70
     6
  9
$SURFV
 70
     6
  9
$UCSBASE
  2

  9
$UCSNAME
  2

  9
$UCSORG
 10
0.0
 20
0.0
 30
0.0
  9
$UCSXDIR
 10
1.0
 20
0.0
 30
0.0
  9
$UCSYDIR
 10
0.0
 20
1.0
 30
0.0
  9
$UCSORTHOREF
  2

  9
$UCSORTHOVIEW
 70
     0
  9
$UCSORGTOP
 10
0.0
 20
0.0
 30
0.0
  9
$UCSORGBOTTOM
 10
0.0
 20
0.0
 30
0.0
  9
$UCSORGLEFT
 10
0.0
 20
0.0
 30
0.0
  9
$UCSORGRIGHT
 10
0.0
 20
0.0
 30
0.0
  9
$UCSORGFRONT
 10
0.0
 20
0.0
 30
0.0
  9
$UCSORGBACK
 10
0.0
 20
0.0
 30
0.0
  9
$PUCSBASE
  2

  9
$PUCSNAME
  2

  9
$PUCSORG
 10
0.0
 20
0.0
 30
0.0
  9
$PUCSXDIR
 10
1.0
 20
0.0
 30
0.0
  9
$PUCSYDIR
 10
0.0
 20
1.0
 30
0.0
  9
$PUCSORTHOREF
  2

  9
$PUCSORTHOVIEW
 70
     0
  9
$PUCSORGTOP
 10
0.0
 20
0.0
 30
0.0
  9
$PUCSORGBOTTOM
 10
0.0
 20
0.0
 30
0.0
  9
$PUCSORGLEFT
 10
0.0
 20
0.0
 30
0.0
  9
$PUCSORGRIGHT
 10
0.0
 20
0.0
 30
0.0
  9
$PUCSORGFRONT
 10
0.0
 20
0.0
 30
0.0
  9
$PUCSORGBACK
 10
0.0
 20
0.0
 30
0.0
  9
$USERI1
 70
     0
  9
$USERI2
 70
     0
  9
$USERI3
 70
     0
  9
$USERI4
 70
     0
  9
$USERI5
 70
     0
  9
$USERR1
 40
0.0
  9
$USERR2
 40
0.0
  9
$USERR3
 40
0.0
  9
$USERR4
 40
0.0
  9
$USERR5
 40
0.0
  9
$WORLDVIEW
 70
     1
  9
$SHADEDGE
 70
     3
  9
$SHADEDIF
 70
    70
  9
$TILEMODE
 70
     1
  9
$MAXACTVP
 70
    48
  9
$PINSBASE
 10
0.0
 20
0.0
 30
0.0
  9
$PLIMCHECK
 70
     0
  9
$PEXTMIN
 10
-0.2
 20
-0.2
 30
0.0
  9
$PEXTMAX
 10
255.2
 20
195.2
 30
0.0
  9
$PLIMMIN
 10
0.0
 20
0.0
  9
$PLIMMAX
 10
420.0
 20
297.0
  9
$UNITMODE
 70
     0
  9
$VISRETAIN
 70
     1
  9
$PLINEGEN
 70
     0
  9
$PSLTSCALE
 70
     1
  9
$TREEDEPTH
 70
  3020
  9
$CMLSTYLE
  2
STANDARD
  9
$CMLJUST
 70
     0
  9
$CMLSCALE
 40
20.0
  9
$PROXYGRAPHICS
 70
     1
  9
$MEASUREMENT
 70
     1
  9
$CELWEIGHT
370
    -1
  9
$ENDCAPS
280
     0
  9
$JOINSTYLE
280
     0
  9
$LWDISPLAY
290
     0
  9
$INSUNITS
 70
     0
  9
$HYPERLINKBASE
  1

  9
$STYLESHEET
  1
AutoCad LT 98.ctb
  9
$XEDIT
290
     1
  9
$CEPSNTYPE
380
     0
  9
$PSTYLEMODE
290
     1
  9
$FINGERPRINTGUID
  2
{4D945C49-D965-4AF1-AF63-8D838E872670}
  9
$VERSIONGUID
  2
{75C117DD-156C-4596-8920-F8B7FF5900D6}
  9
$EXTNAMES
290
     1
  9
$PSVPSCALE
 40
0.0
  9
$OLESTARTUP
290
     0
  9
$SORTENTS
280
   127
  9
$INDEXCTL
280
     0
  9
$HIDETEXT
280
     0
  9
$XCLIPFRAME
290
     0
  9
$HALOGAP
280
     0
  9
$OBSCOLOR
 70
   257
  9
$OBSLTYPE
280
     0
  9
$INTERSECTIONDISPLAY
280
     0
  9
$INTERSECTIONCOLOR
 70
   257
  9
$DIMASSOC
280
     1
  9
$PROJECTNAME
  1

  0
ENDSEC
  0
SECTION
  2
CLASSES
  0
CLASS
  1
LWPOLYLINE
  2
AcDbPolyline
  3
ObjectDBX Classes
 90
        0
 91
        8
280
     0
281
     1
  0
CLASS
  1
HATCH
  2
AcDbHatch
  3
ObjectDBX Classes
 90
        0
 91
       24
280
     0
281
     1
  0
CLASS
  1
ACDBDICTIONARYWDFLT
  2
AcDbDictionaryWithDefault
  3
ObjectDBX Classes
 90
        0
 91
        1
280
     0
281
     0
  0
CLASS
  1
TABLESTYLE
  2
AcDbTableStyle
  3
ObjectDBX Classes
 90
     2047
 91
        1
280
     0
281
     0
  0
CLASS
  1
SORTENTSTABLE
  2
AcDbSortentsTable
  3
ObjectDBX Classes
 90
        0
 91
        1
280
     0
281
     0
  0
CLASS
  1
DICTIONARYVAR
  2
AcDbDictionaryVar
  3
ObjectDBX Classes
 90
        0
 91
        1
280
     0
281
     0
  0
ENDSEC
  0
SECTION
  2
TABLES
  0
TABLE
  2
VPORT
  5
8
330
0
100
AcDbSymbolTable
 70
     2
  0
VPORT
  5
3892
330
8
100
AcDbSymbolTableRecord
100
AcDbViewportTableRecord
  2
*Active
 70
     0
 10
0.0
 20
0.0
 11
1.0
 21
1.0
 12
127.5008887190154
 22
97.50390734127263
 13
0.0
 23
0.0
 14
10.0
 24
10.0
 15
10.0
 25
10.0
 16
0.0
 26
0.0
 36
1.0
 17
0.0
 27
0.0
 37
0.0
 40
196.9095584226347
 41
1.530456852791878
 42
50.0
 43
0.0
 44
0.0
 50
0.0
 51
0.0
 71
     0
 72
   100
 73
     1
 74
     1
 75
     0
 76
     0
 77
     0
 78
     0
281
     0
 65
     1
110
0.0
120
0.0
130
0.0
111
1.0
121
0.0
131
0.0
112
0.0
122
1.0
132
0.0
 79
     0
146
0.0
  0
ENDTAB
  0
TABLE
  2
LTYPE
  5
5
330
0
100
AcDbSymbolTable
 70
    12
  0
LTYPE
  5
12
330
5
100
AcDbSymbolTableRecord
100
AcDbLinetypeTableRecord
  2
BYBLOCK
 70
     0
  3

 72
    65
 73
     0
 40
0.0
  0
LTYPE
  5
13
330
5
100
AcDbSymbolTableRecord
100
AcDbLinetypeTableRecord
  2
BYLAYER
 70
     0
  3

 72
    65
 73
     0
 40
0.0
  0
LTYPE
  5
14
330
5
100
AcDbSymbolTableRecord
100
AcDbLinetypeTableRecord
  2
CONTINUOUS
 70
     0
  3
Solid line
 72
    65
 73
     0
 40
0.0
  0
LTYPE
  5
22
330
5
100
AcDbSymbolTableRecord
100
AcDbLinetypeTableRecord
  2
CENTER2
 70
     0
  3
Center (.5x) ___ _ ___ _ ___ _ ___ _ ___ _ ___
 72
    65
 73
     4
 40
28.575
 49
19.05
 74
     0
 49
-3.174999999999999
 74
     0
 49
3.174999999999999
 74
     0
 49
-3.174999999999999
 74
     0
  0
LTYPE
  5
23
330
5
100
AcDbSymbolTableRecord
100
AcDbLinetypeTableRecord
  2
HIDDEN2
 70
     0
  3
Hidden (.5x) _ _ _ _ _ _ _ _ _ _ _ _ _ _ _ _ _
 72
    65
 73
     2
 40
4.762499999999999
 49
3.174999999999999
 74
     0
 49
-1.587499999999999
 74
     0
  0
ENDTAB
  0
TABLE
  2
LAYER
  5
2
102
{ACAD_XDICTIONARY
360
1D39
102
}
330
0
100
AcDbSymbolTable
 70
    17
  0
LAYER
  5
E
330
2
100
AcDbSymbolTableRecord
100
AcDbLayerTableRecord
  2
0
 70
     0
 62
     7
  6
CONTINUOUS
370
    -3
390
F86
  0
LAYER
  5
25
330
2
100
AcDbSymbolTableRecord
100
AcDbLayerTableRecord
  2
外形線
 70
     0
 62
     7
  6
CONTINUOUS
370
    -3
390
F86
  0
LAYER
  5
26
330
2
100
AcDbSymbolTableRecord
100
AcDbLayerTableRecord
  2
寸法線
 70
     0
 62
     2
  6
CONTINUOUS
370
    -3
390
F86
  0
LAYER
  5
27
330
2
100
AcDbSymbolTableRecord
100
AcDbLayerTableRecord
  2
中心線
 70
     0
 62
     4
  6
CENTER2
370
    -3
390
F86
  0
LAYER
  5
2B
330
2
100
AcDbSymbolTableRecord
100
AcDbLayerTableRecord
  2
文字
 70
     0
 62
     6
  6
CONTINUOUS
370
    -3
390
F86
  0
LAYER
  5
2C
330
2
100
AcDbSymbolTableRecord
100
AcDbLayerTableRecord
  2
目盛
 70
     0
 62
    70
  6
CONTINUOUS
370
    -3
390
F86
  0
LAYER
  5
2D
330
2
100
AcDbSymbolTableRecord
100
AcDbLayerTableRecord
  2
針
 70
     0
 62
     5
  6
CONTINUOUS
370
    -3
390
F86
  0
LAYER
  5
53
330
2
100
AcDbSymbolTableRecord
100
AcDbLayerTableRecord
  2
DEFPOINTS
 70
     0
 62
     7
  6
CONTINUOUS
290
     0
370
    -3
390
F86
  0
LAYER
  5
A5
330
2
100
AcDbSymbolTableRecord
100
AcDbLayerTableRecord
  2
C
 70
     0
 62
     7
  6
CONTINUOUS
370
    -3
390
F86
  0
LAYER
  5
16A
330
2
100
AcDbSymbolTableRecord
100
AcDbLayerTableRecord
  2
隠れ線2
 70
     0
 62
     1
  6
HIDDEN2
370
    -3
390
F86
  0
LAYER
  5
9B6
330
2
100
AcDbSymbolTableRecord
100
AcDbLayerTableRecord
  2
ROGO
 70
     0
 62
     6
  6
CONTINUOUS
370
    -3
390
F86
  0
ENDTAB
  0
TABLE
  2
STYLE
  5
3
330
0
100
AcDbSymbolTable
 70
     7
  0
STYLE
  5
F
330
3
100
AcDbSymbolTableRecord
100
AcDbTextStyleTableRecord
  2
STANDARD
 70
     0
 40
0.0
 41
1.0
 50
0.0
 71
     0
 42
2.5
  3
txt
  4

  0
STYLE
  5
3F
330
3
100
AcDbSymbolTableRecord
100
AcDbTextStyleTableRecord
  2
STYLE3
 70
     0
 40
0.0
 41
1.0
 50
0.0
 71
     0
 42
3.0
  3
romans.shx
  4
bigfont.shx
  0
ENDTAB
  0
TABLE
  2
VIEW
  5
6
330
0
100
AcDbSymbolTable
 70
     0
  0
ENDTAB
  0
TABLE
  2
UCS
  5
7
330
0
100
AcDbSymbolTable
 70
     0
  0
ENDTAB
  0
TABLE
  2
APPID
  5
9
330
0
100
AcDbSymbolTable
 70
     2
  0
APPID
  5
10
330
9
100
AcDbSymbolTableRecord
100
AcDbRegAppTableRecord
  2
ACAD
 70
     0
  0
APPID
  5
1081
330
9
100
AcDbSymbolTableRecord
100
AcDbRegAppTableRecord
  2
ACAD_PSEXT
 70
     0
  0
ENDTAB
  0
TABLE
  2
DIMSTYLE
  5
A
330
0
100
AcDbSymbolTable
 70
    10
100
AcDbDimStyleTable
 71
     1
340
8F
  0
DIMSTYLE
105
1D
330
A
100
AcDbSymbolTableRecord
100
AcDbDimStyleTableRecord
  2
STANDARD
 70
     0
 41
2.5
 42
0.625
 43
3.75
 44
1.25
 73
     0
 74
     0
 77
     1
 78
     8
140
2.5
141
2.5
143
0.0394
147
0.625
171
     4
172
     1
273
     8
274
     4
277
     6
340
F
  0
DIMSTYLE
105
8F
102
{ACAD_REACTORS
330
C41
330
E18
330
388
330
389
330
390
330
391
330
392
330
3B6
330
3BC
330
3D7
330
3F2
330
13F5
330
1402
330
1439
330
3614
102
}
330
A
100
AcDbSymbolTableRecord
100
AcDbDimStyleTableRecord
  2
STYLE3
 70
     0
 41
2.5
 42
0.0
 43
3.75
 44
1.25
 73
     0
 74
     0
 77
     1
 78
     8
140
2.5
141
2.5
143
0.0394
147
0.625
171
     4
172
     1
173
     1
176
     2
177
     2
178
     6
271
     1
273
     8
274
     4
340
3F
341
45
343
45
344
45
  0
ENDTAB
  0
TABLE
  2
BLOCK_RECORD
  5
1
330
0
100
AcDbSymbolTable
 70
    43
  0
BLOCK_RECORD
  5
18
102
{ACAD_XDICTIONARY
360
FBA
102
}
330
1
100
AcDbSymbolTableRecord
100
AcDbBlockTableRecord
  2
*MODEL_SPACE
340
F8D
  0
BLOCK_RECORD
  5
15
330
1
100
AcDbSymbolTableRecord
100
AcDbBlockTableRecord
  2
*PAPER_SPACE
340
F8E
  0
BLOCK_RECORD
  5
45
330
1
100
AcDbSymbolTableRecord
100
AcDbBlockTableRecord
  2
_OPEN
340
0
102
{BLKREFS
331
320
331
321
331
32C
331
32D
331
338
331
339
331
343
331
344
331
34E
331
34F
331
359
331
35A
331
364
331
365
331
370
331
371
331
37E
331
37F
331
38E
331
39A
331
3CF
331
3DA
331
3DC
331
3E3
331
3E4
331
3E5
331
8CD
331
8EF
331
8F3
331
8FF
331
A84
331
AEE
331
D93
331
D95
331
3643
331
3644
331
3693
331
3694
331
369F
331
36A0
331
36AC
331
36AD
331
36B8
331
36C1
331
36C2
331
36CD
331
36CE
331
36D9
331
36DA
331
37BB
331
37BC
331
37C4
331
37C5
331
37CE
331
37CF
331
37D7
331
37DD
331
37DE
331
37E6
331
37E7
331
37EF
331
37F0
331
3851
331
3852
331
385B
331
385C
331
3866
331
3867
331
386F
331
3870
331
3878
331
3879
331
3881
331
3882
102
}
  0
BLOCK_RECORD
  5
C35
330
1
100
AcDbSymbolTableRecord
100
AcDbBlockTableRecord
  2
*D15
340
0
  0
BLOCK_RECORD
  5
E0C
330
1
100
AcDbSymbolTableRecord
100
AcDbBlockTableRecord
  2
*D18
340
0
  0
BLOCK_RECORD
  5
13F6
330
1
100
AcDbSymbolTableRecord
100
AcDbBlockTableRecord
  2
*D20
340
0
  0
BLOCK_RECORD
  5
1403
330
1
100
AcDbSymbolTableRecord
100
AcDbBlockTableRecord
  2
*D21
340
0
  0
BLOCK_RECORD
  5
143A
330
1
100
AcDbSymbolTableRecord
100
AcDbBlockTableRecord
  2
*D22
340
0
  0
BLOCK_RECORD
  5
3615
330
1
100
AcDbSymbolTableRecord
100
AcDbBlockTableRecord
  2
*D26
340
0
  0
ENDTAB
  0
ENDSEC
  0
SECTION
  2
BLOCKS
  0
BLOCK
  5
19
330
18
100
AcDbEntity
  8
0
100
AcDbBlockBegin
  2
*MODEL_SPACE
 70
     0
 10
0.0
 20
0.0
 30
0.0
  3
*MODEL_SPACE
  1

  0
ENDBLK
  5
1A
330
18
100
AcDbEntity
  8
0
100
AcDbBlockEnd
  0
BLOCK
  5
16
330
15
100
AcDbEntity
 67
     1
  8
0
100
AcDbBlockBegin
  2
*PAPER_SPACE
 70
     0
 10
0.0
 20
0.0
 30
0.0
  3
*PAPER_SPACE
  1

  0
ENDBLK
  5
17
330
15
100
AcDbEntity
 67
     1
  8
0
100
AcDbBlockEnd
  0
BLOCK
  5
46
330
45
100
AcDbEntity
  8
0
100
AcDbBlockBegin
  2
_OPEN
 70
     0
 10
0.0
 20
0.0
 30
0.0
  3
_OPEN
  1

  0
LINE
  5
47
330
45
100
AcDbEntity
  8
0
  6
ByBlock
 62
     0
100
AcDbLine
 10
-1.0
 20
0.1666666666666666
 30
0.0
 11
0.0
 21
0.0
 31
0.0
  0
LINE
  5
48
330
45
100
AcDbEntity
  8
0
  6
ByBlock
 62
     0
100
AcDbLine
 10
0.0
 20
0.0
 30
0.0
 11
-1.0
 21
-0.1666666666666666
 31
0.0
  0
LINE
  5
49
330
45
100
AcDbEntity
  8
0
  6
ByBlock
 62
     0
100
AcDbLine
 10
0.0
 20
0.0
 30
0.0
 11
-1.0
 21
0.0
 31
0.0
  0
ENDBLK
  5
4A
330
45
100
AcDbEntity
  8
0
100
AcDbBlockEnd
  0
BLOCK
  5
F5C
330
C35
100
AcDbEntity
  8
0
100
AcDbBlockBegin
  2
*D15
 70
     1
 10
0.0
 20
0.0
 30
0.0
  3
*D15
  1

  0
LINE
  5
387E
330
C35
100
AcDbEntity
  8
外形線
 62
     2
370
    -2
100
AcDbLine
 10
107.1742550102265
 20
123.539488136328
 30
0.0
 11
101.1254493702061
 21
123.539488136328
 31
0.0
  0
LINE
  5
387F
330
C35
100
AcDbEntity
  8
外形線
 62
     2
370
    -2
100
AcDbLine
 10
136.6462837438093
 20
47.63948813632794
 30
0.0
 11
101.125449370206
 21
47.63948813632794
 31
0.0
  0
LINE
  5
3880
330
C35
100
AcDbEntity
  8
外形線
 62
     2
370
    -2
100
AcDbLine
 10
102.3754493702061
 20
121.039488136328
 30
0.0
 11
102.375449370206
 21
50.13948813632794
 31
0.0
  0
INSERT
  5
3881
330
C35
100
AcDbEntity
  8
外形線
 62
     2
370
    -2
100
AcDbBlockReference
  2
_OPEN
 10
102.3754493702061
 20
123.539488136328
 30
0.0
 41
2.5
 42
2.5
 43
2.5
 50
90.0
  0
INSERT
  5
3882
330
C35
100
AcDbEntity
  8
外形線
 62
     2
370
    -2
100
AcDbBlockReference
  2
_OPEN
 10
102.375449370206
 20
47.63948813632794
 30
0.0
 41
2.5
 42
2.5
 43
2.5
 50
270.0
  0
MTEXT
  5
3883
330
C35
100
AcDbEntity
  8
外形線
 62
     6
100
AcDbMText
 10
100.500449370206
 20
85.58948813632802
 30
0.0
 40
2.5
 41
0.0
 71
     5
 72
     1
  1
\A1;75.9
  7
STYLE3
 11
0.0000000000000001
 21
1.0
 31
0.0
 73
     1
 44
1.0
  0
POINT
  5
3884
330
C35
100
AcDbEntity
  8
DEFPOINTS
 62
     0
100
AcDbPoint
 10
107.1742550102265
 20
123.539488136328
 30
0.0
  0
POINT
  5
3885
330
C35
100
AcDbEntity
  8
DEFPOINTS
 62
     0
100
AcDbPoint
 10
136.6462837438093
 20
47.63948813632794
 30
0.0
  0
POINT
  5
3886
330
C35
100
AcDbEntity
  8
DEFPOINTS
 62
     0
100
AcDbPoint
 10
102.375449370206
 20
47.63948813632794
 30
0.0
  0
ENDBLK
  5
F66
330
C35
100
AcDbEntity
  8
0
100
AcDbBlockEnd
  0
BLOCK
  5
E0D
330
E0C
100
AcDbEntity
  8
0
100
AcDbBlockBegin
  2
*D18
 70
     1
 10
0.0
 20
0.0
 30
0.0
  3
*D18
  1

  0
LINE
  5
3875
330
E0C
100
AcDbEntity
  8
外形線
 62
     2
370
    -2
100
AcDbLine
 10
140.1462837438093
 20
66.75287728568924
 30
0.0
 11
140.1462837438093
 21
70.5643066014079
 31
0.0
  0
LINE
  5
3876
330
E0C
100
AcDbEntity
  8
外形線
 62
     2
370
    -2
100
AcDbLine
 10
173.1462837438093
 20
64.19144796997063
 30
0.0
 11
173.1462837438093
 21
70.5643066014079
 31
0.0
  0
LINE
  5
3877
330
E0C
100
AcDbEntity
  8
外形線
 62
     2
370
    -2
100
AcDbLine
 10
142.6462837438093
 20
69.3143066014079
 30
0.0
 11
170.6462837438093
 21
69.3143066014079
 31
0.0
  0
INSERT
  5
3878
330
E0C
100
AcDbEntity
  8
外形線
 62
     2
370
    -2
100
AcDbBlockReference
  2
_OPEN
 10
140.1462837438093
 20
69.3143066014079
 30
0.0
 41
2.5
 42
2.5
 43
2.5
 50
180.0
  0
INSERT
  5
3879
330
E0C
100
AcDbEntity
  8
外形線
 62
     2
370
    -2
100
AcDbBlockReference
  2
_OPEN
 10
173.1462837438093
 20
69.3143066014079
 30
0.0
 41
2.5
 42
2.5
 43
2.5
  0
MTEXT
  5
387A
330
E0C
100
AcDbEntity
  8
外形線
 62
     6
100
AcDbMText
 10
156.6462837438093
 20
71.1893066014079
 30
0.0
 40
2.5
 41
0.0
 71
     5
 72
     1
  1
\A1;33
  7
STYLE3
 73
     1
 44
1.0
  0
POINT
  5
387B
330
E0C
100
AcDbEntity
  8
DEFPOINTS
 62
     0
100
AcDbPoint
 10
140.1462837438093
 20
66.75287728568924
 30
0.0
  0
POINT
  5
387C
330
E0C
100
AcDbEntity
  8
DEFPOINTS
 62
     0
100
AcDbPoint
 10
173.1462837438093
 20
64.19144796997063
 30
0.0
  0
POINT
  5
387D
330
E0C
100
AcDbEntity
  8
DEFPOINTS
 62
     0
100
AcDbPoint
 10
173.1462837438093
 20
69.3143066014079
 30
0.0
  0
ENDBLK
  5
E17
330
E0C
100
AcDbEntity
  8
0
100
AcDbBlockEnd
  0
BLOCK
  5
1400
330
13F6
100
AcDbEntity
  8
0
100
AcDbBlockBegin
  2
*D20
 70
     1
 10
0.0
 20
0.0
 30
0.0
  3
*D20
  1

  0
LINE
  5
386C
330
13F6
100
AcDbEntity
  8
寸法線
 62
     2
370
    -2
100
AcDbLine
 10
134.7757574577528
 20
82.63948813632792
 30
0.0
 11
112.0016216186418
 21
82.63948813632792
 31
0.0
  0
LINE
  5
386D
330
13F6
100
AcDbEntity
  8
寸法線
 62
     2
370
    -2
100
AcDbLine
 10
137.7185933119331
 20
47.63948813632794
 30
0.0
 11
112.0016216186418
 21
47.63948813632794
 31
0.0
  0
LINE
  5
386E
330
13F6
100
AcDbEntity
  8
寸法線
 62
     2
370
    -2
100
AcDbLine
 10
113.2516216186418
 20
80.13948813632792
 30
0.0
 11
113.2516216186418
 21
50.13948813632794
 31
0.0
  0
INSERT
  5
386F
330
13F6
100
AcDbEntity
  8
寸法線
 62
     2
370
    -2
100
AcDbBlockReference
  2
_OPEN
 10
113.2516216186418
 20
82.63948813632792
 30
0.0
 41
2.5
 42
2.5
 43
2.5
 50
90.0
  0
INSERT
  5
3870
330
13F6
100
AcDbEntity
  8
寸法線
 62
     2
370
    -2
100
AcDbBlockReference
  2
_OPEN
 10
113.2516216186418
 20
47.63948813632794
 30
0.0
 41
2.5
 42
2.5
 43
2.5
 50
270.0
  0
MTEXT
  5
3871
330
13F6
100
AcDbEntity
  8
寸法線
 62
     6
100
AcDbMText
 10
111.3766216186418
 20
65.13948813632797
 30
0.0
 40
2.5
 41
0.0
 71
     5
 72
     1
  1
\A1;35
  7
STYLE3
 11
0.0000000000000001
 21
1.0
 31
0.0
 73
     1
 44
1.0
  0
POINT
  5
3872
330
13F6
100
AcDbEntity
  8
DEFPOINTS
 62
     0
100
AcDbPoint
 10
134.7757574577528
 20
82.63948813632792
 30
0.0
  0
POINT
  5
3873
330
13F6
100
AcDbEntity
  8
DEFPOINTS
 62
     0
100
AcDbPoint
 10
137.7185933119331
 20
47.63948813632794
 30
0.0
  0
POINT
  5
3874
330
13F6
100
AcDbEntity
  8
DEFPOINTS
 62
     0
100
AcDbPoint
 10
113.2516216186418
 20
47.63948813632794
 30
0.0
  0
ENDBLK
  5
1401
330
13F6
100
AcDbEntity
  8
0
100
AcDbBlockEnd
  0
BLOCK
  5
140F
330
1403
100
AcDbEntity
  8
0
100
AcDbBlockBegin
  2
*D21
 70
     1
 10
0.0
 20
0.0
 30
0.0
  3
*D21
  1

  0
LINE
  5
3861
330
1403
100
AcDbEntity
  8
寸法線
 62
     2
370
    -2
100
AcDbLine
 10
133.8009213304877
 20
47.63948813632794
 30
0.0
 11
127.4807532647779
 21
47.63948813632794
 31
0.0
  0
LINE
  5
3862
330
1403
100
AcDbEntity
  8
寸法線
 62
     2
370
    -2
100
AcDbLine
 10
135.1462837438093
 20
52.13948813632794
 30
0.0
 11
127.4807532647779
 21
52.13948813632794
 31
0.0
  0
LINE
  5
3863
330
1403
100
AcDbEntity
  8
寸法線
 62
     2
370
    -2
100
AcDbLine
 10
128.7307532647779
 20
45.13948813632794
 30
0.0
 11
128.7307532647779
 21
42.63948813632794
 31
0.0
  0
LINE
  5
3864
330
1403
100
AcDbEntity
  8
寸法線
 62
     2
370
    -2
100
AcDbLine
 10
128.7307532647779
 20
54.63948813632794
 30
0.0
 11
128.7307532647779
 21
63.62758337442318
 31
0.0
  0
LINE
  5
3865
330
1403
100
AcDbEntity
  8
寸法線
 62
     2
370
    -2
100
AcDbLine
 10
128.7307532647779
 20
47.63948813632794
 30
0.0
 11
128.7307532647779
 21
52.13948813632794
 31
0.0
  0
INSERT
  5
3866
330
1403
100
AcDbEntity
  8
寸法線
 62
     2
370
    -2
100
AcDbBlockReference
  2
_OPEN
 10
128.7307532647779
 20
47.63948813632794
 30
0.0
 41
2.5
 42
2.5
 43
2.5
 50
90.0
  0
INSERT
  5
3867
330
1403
100
AcDbEntity
  8
寸法線
 62
     2
370
    -2
100
AcDbBlockReference
  2
_OPEN
 10
128.7307532647779
 20
52.13948813632794
 30
0.0
 41
2.5
 42
2.5
 43
2.5
 50
270.0
  0
MTEXT
  5
3868
330
1403
100
AcDbEntity
  8
寸法線
 62
     6
100
AcDbMText
 10
126.8557532647779
 20
60.38353575537558
 30
0.0
 40
2.5
 41
0.0
 71
     5
 72
     1
  1
\A1;4.5
  7
STYLE3
 11
0.0000000000000001
 21
1.0
 31
0.0
 73
     1
 44
1.0
  0
POINT
  5
3869
330
1403
100
AcDbEntity
  8
DEFPOINTS
 62
     0
100
AcDbPoint
 10
133.8009213304877
 20
47.63948813632794
 30
0.0
  0
POINT
  5
386A
330
1403
100
AcDbEntity
  8
DEFPOINTS
 62
     0
100
AcDbPoint
 10
135.1462837438093
 20
52.13948813632794
 30
0.0
  0
POINT
  5
386B
330
1403
100
AcDbEntity
  8
DEFPOINTS
 62
     0
100
AcDbPoint
 10
128.7307532647779
 20
52.13948813632794
 30
0.0
  0
ENDBLK
  5
1410
330
1403
100
AcDbEntity
  8
0
100
AcDbBlockEnd
  0
BLOCK
  5
1444
330
143A
100
AcDbEntity
  8
0
100
AcDbBlockBegin
  2
*D22
 70
     1
 10
0.0
 20
0.0
 30
0.0
  3
*D22
  1

  0
LINE
  5
3857
330
143A
100
AcDbEntity
  8
寸法線
 62
     2
370
    -2
100
AcDbLine
 10
135.1462837438093
 20
53.13948813632794
 30
0.0
 11
135.1462837438093
 21
63.15484161513342
 31
0.0
  0
LINE
  5
3858
330
143A
100
AcDbEntity
  8
寸法線
 62
     2
370
    -2
100
AcDbLine
 10
145.1462837438093
 20
53.13948813632794
 30
0.0
 11
145.1462837438093
 21
63.15484161513342
 31
0.0
  0
LINE
  5
3859
330
143A
100
AcDbEntity
  8
寸法線
 62
     2
370
    -2
100
AcDbLine
 10
137.6462837438093
 20
61.90484161513342
 30
0.0
 11
142.6462837438093
 21
61.90484161513342
 31
0.0
  0
LINE
  5
385A
330
143A
100
AcDbEntity
  8
寸法線
 62
     2
370
    -2
100
AcDbLine
 10
145.1462837438093
 20
61.90484161513342
 30
0.0
 11
155.2058075533331
 21
61.90484161513342
 31
0.0
  0
INSERT
  5
385B
330
143A
100
AcDbEntity
  8
寸法線
 62
     2
370
    -2
100
AcDbBlockReference
  2
_OPEN
 10
135.1462837438093
 20
61.90484161513342
 30
0.0
 41
2.5
 42
2.5
 43
2.5
 50
180.0
  0
INSERT
  5
385C
330
143A
100
AcDbEntity
  8
寸法線
 62
     2
370
    -2
100
AcDbBlockReference
  2
_OPEN
 10
145.1462837438093
 20
61.90484161513342
 30
0.0
 41
2.5
 42
2.5
 43
2.5
  0
MTEXT
  5
385D
330
143A
100
AcDbEntity
  8
寸法線
 62
     6
100
AcDbMText
 10
151.4260456485712
 20
63.77984161513342
 30
0.0
 40
2.5
 41
0.0
 71
     5
 72
     1
  1
\A1;%%C10
  7
STYLE3
 73
     1
 44
1.0
  0
POINT
  5
385E
330
143A
100
AcDbEntity
  8
DEFPOINTS
 62
     0
100
AcDbPoint
 10
135.1462837438093
 20
53.13948813632794
 30
0.0
  0
POINT
  5
385F
330
143A
100
AcDbEntity
  8
DEFPOINTS
 62
     0
100
AcDbPoint
 10
145.1462837438093
 20
53.13948813632794
 30
0.0
  0
POINT
  5
3860
330
143A
100
AcDbEntity
  8
DEFPOINTS
 62
     0
100
AcDbPoint
 10
145.1462837438093
 20
61.90484161513342
 30
0.0
  0
ENDBLK
  5
1445
330
143A
100
AcDbEntity
  8
0
100
AcDbBlockEnd
  0
BLOCK
  5
361F
330
3615
100
AcDbEntity
  8
0
100
AcDbBlockBegin
  2
*D26
 70
     1
 10
0.0
 20
0.0
 30
0.0
  3
*D26
  1

  0
LINE
  5
384E
330
3615
100
AcDbEntity
  8
寸法線
 62
     2
370
    -2
100
AcDbLine
 10
54.69689488501638
 20
146.539488136328
 30
0.0
 11
54.69689488501638
 21
175.974215925134
 31
0.0
  0
LINE
  5
384F
330
3615
100
AcDbEntity
  8
寸法線
 62
     2
370
    -2
100
AcDbLine
 10
62.29689488501622
 20
171.0823360114403
 30
0.0
 11
62.29689488501622
 21
175.974215925134
 31
0.0
  0
LINE
  5
3850
330
3615
100
AcDbEntity
  8
寸法線
 62
     2
370
    -2
100
AcDbLine
 10
57.19689488501638
 20
174.724215925134
 30
0.0
 11
59.79689488501622
 21
174.724215925134
 31
0.0
  0
INSERT
  5
3851
330
3615
100
AcDbEntity
  8
寸法線
 62
     2
370
    -2
100
AcDbBlockReference
  2
_OPEN
 10
54.69689488501638
 20
174.724215925134
 30
0.0
 41
2.5
 42
2.5
 43
2.5
 50
180.0
  0
INSERT
  5
3852
330
3615
100
AcDbEntity
  8
寸法線
 62
     2
370
    -2
100
AcDbBlockReference
  2
_OPEN
 10
62.29689488501622
 20
174.724215925134
 30
0.0
 41
2.5
 42
2.5
 43
2.5
  0
MTEXT
  5
3853
330
3615
100
AcDbEntity
  8
寸法線
 62
     6
100
AcDbMText
 10
58.4968948850163
 20
176.599215925134
 30
0.0
 40
2.5
 41
0.0
 71
     5
 72
     1
  1
\A1;7.6
  7
STYLE3
 73
     1
 44
1.0
  0
POINT
  5
3854
330
3615
100
AcDbEntity
  8
DEFPOINTS
 62
     0
100
AcDbPoint
 10
54.69689488501638
 20
146.539488136328
 30
0.0
  0
POINT
  5
3855
330
3615
100
AcDbEntity
  8
DEFPOINTS
 62
     0
100
AcDbPoint
 10
62.29689488501622
 20
171.0823360114403
 30
0.0
  0
POINT
  5
3856
330
3615
100
AcDbEntity
  8
DEFPOINTS
 62
     0
100
AcDbPoint
 10
62.29689488501622
 20
174.724215925134
 30
0.0
  0
ENDBLK
  5
3620
330
3615
100
AcDbEntity
  8
0
100
AcDbBlockEnd
  0
ENDSEC
  0
SECTION
  2
ENTITIES
  0
LWPOLYLINE
  5
26C
330
18
100
AcDbEntity
  8
C
100
AcDbPolyline
 90
        5
 70
     0
 43
0.4
 10
0.0
 20
195.0
 10
255.0
 20
195.0
 10
255.0
 20
0.0
 10
0.0
 20
0.0
 10
0.0
 20
195.0
  0
LINE
  5
2CD
330
18
100
AcDbEntity
  8
外形線
100
AcDbLine
 10
132.5462837438093
 20
96.63948813632792
 30
0.0
 11
132.5462837438093
 21
84.13948813632792
 31
0.0
  0
LINE
  5
2CF
330
18
100
AcDbEntity
  8
外形線
100
AcDbLine
 10
134.0462837438093
 20
82.63948813632792
 30
0.0
 11
168.1462837438093
 21
82.63948813632792
 31
0.0
  0
LINE
  5
2D0
330
18
100
AcDbEntity
  8
外形線
100
AcDbLine
 10
136.6462837438093
 20
47.63948813632794
 30
0.0
 11
168.1462837438093
 21
47.63948813632794
 31
0.0
  0
LINE
  5
2D1
330
18
100
AcDbEntity
  8
外形線
100
AcDbLine
 10
136.6462837438093
 20
36.13948813632791
 30
0.0
 11
151.6462837438093
 21
36.13948813632794
 31
0.0
  0
ARC
  5
2D3
330
18
100
AcDbEntity
  8
外形線
100
AcDbCircle
 10
134.0462837438094
 20
96.63948813632792
 30
0.0
 40
1.500000000000085
100
AcDbArc
 50
162.4957881985744
 51
179.9999999999989
  0
ARC
  5
2D6
330
18
100
AcDbEntity
  8
外形線
100
AcDbCircle
 10
134.0462837438093
 20
84.13948813632792
 30
0.0
 40
1.5
100
AcDbArc
 50
180.0
 51
270.0
  0
LINE
  5
2D7
330
18
100
AcDbEntity
  8
中心線
100
AcDbLine
 10
140.1462837438093
 20
171.585257418217
 30
0.0
 11
140.1462837438093
 21
34.06622813161334
 31
0.0
  0
ARC
  5
2DC
330
18
100
AcDbEntity
  8
外形線
100
AcDbCircle
 10
140.1462837438093
 20
124.1394881363279
 30
0.0
 40
28.0
100
AcDbArc
 50
303.2164423718194
 51
340.9416675171072
  0
ARC
  5
2DE
330
18
100
AcDbEntity
  8
外形線
100
AcDbCircle
 10
140.1462837438093
 20
131.1394881363279
 30
0.0
 40
31.0
100
AcDbArc
 50
328.6182770478086
 51
351.3627832995585
  0
LINE
  5
2DF
330
18
100
AcDbEntity
  8
外形線
100
AcDbLine
 10
173.1462837438093
 20
77.63948813632794
 30
0.0
 11
173.1462837438093
 21
52.63948813632794
 31
0.0
  0
LINE
  5
2E0
330
18
100
AcDbEntity
  8
外形線
100
AcDbLine
 10
178.1462837438093
 20
77.63948813632794
 30
0.0
 11
178.1462837438093
 21
52.63948813632794
 31
0.0
  0
LINE
  5
2E1
330
18
100
AcDbEntity
  8
外形線
100
AcDbLine
 10
183.1462837438093
 20
77.63948813632794
 30
0.0
 11
183.1462837438093
 21
64.63948813632794
 31
0.0
  0
LINE
  5
2E2
330
18
100
AcDbEntity
  8
外形線
100
AcDbLine
 10
209.1462837438093
 20
100.6394881363279
 30
0.0
 11
209.1462837438093
 21
64.63948813632794
 31
0.0
  0
LINE
  5
2E3
330
18
100
AcDbEntity
  8
外形線
100
AcDbLine
 10
219.1462837438094
 20
100.6394881363279
 30
0.0
 11
219.1462837438094
 21
64.63948813632794
 31
0.0
  0
LINE
  5
2E5
330
18
100
AcDbEntity
  8
外形線
100
AcDbLine
 10
185.1462837438093
 20
130.6394881363279
 30
0.0
 11
189.1462837438093
 21
130.6394881363279
 31
0.0
  0
ARC
  5
2E7
330
18
100
AcDbEntity
  8
外形線
100
AcDbCircle
 10
189.1462837438093
 20
100.6394881363279
 30
0.0
 40
20.0
100
AcDbArc
 50
0.0
 51
90.0
  0
ARC
  5
2E9
330
18
100
AcDbEntity
  8
外形線
100
AcDbCircle
 10
185.1462837438093
 20
100.6394881363279
 30
0.0
 40
20.0
100
AcDbArc
 50
90.0
 51
118.1194879415168
  0
ARC
  5
2EA
330
18
100
AcDbEntity
  8
外形線
100
AcDbCircle
 10
140.1462837438093
 20
131.6394881363279
 30
0.0
 40
38.0
100
AcDbArc
 50
329.7509669494135
 51
357.2263837701044
  0
ARC
  5
2EB
330
18
100
AcDbEntity
  8
外形線
100
AcDbCircle
 10
140.1462837438093
 20
124.6394881363279
 30
0.0
 40
35.0
100
AcDbArc
 50
306.869897645844
 51
339.699809158093
  0
ARC
  5
2ED
330
18
100
AcDbEntity
  8
外形線
100
AcDbCircle
 10
168.1462837438093
 20
77.63948813632794
 30
0.0
 40
5.0
100
AcDbArc
 50
0.0
 51
90.0
  0
ARC
  5
2EE
330
18
100
AcDbEntity
  8
外形線
100
AcDbCircle
 10
168.1462837438093
 20
77.63948813632794
 30
0.0
 40
10.0
100
AcDbArc
 50
0.0
 51
90.0
  0
ARC
  5
2EF
330
18
100
AcDbEntity
  8
外形線
100
AcDbCircle
 10
168.1462837438093
 20
77.63948813632794
 30
0.0
 40
15.0
100
AcDbArc
 50
0.0
 51
85.80345080949147
  0
ARC
  5
2F0
330
18
100
AcDbEntity
  8
外形線
100
AcDbCircle
 10
169.609846358829
 20
97.58586586442476
 30
0.0
 40
5.0
100
AcDbArc
 50
137.4416611471612
 51
265.8034508094916
  0
LINE
  5
2F3
330
18
100
AcDbEntity
  8
外形線
100
AcDbLine
 10
168.1462837438093
 20
87.63948813632792
 30
0.0
 11
164.1462837438093
 21
87.63948813632792
 31
0.0
  0
ARC
  5
2F4
330
18
100
AcDbEntity
  8
外形線
100
AcDbCircle
 10
164.1462837438093
 20
92.63948813632794
 30
0.0
 40
5.0
100
AcDbArc
 50
126.8698976458441
 51
270.0
  0
ARC
  5
2F5
330
18
100
AcDbEntity
  8
外形線
100
AcDbCircle
 10
184.4522256936093
 20
106.1762576504329
 30
0.0
 40
24.4730742323696
100
AcDbArc
 50
88.37486989843817
 51
123.9219311886222
  0
ARC
  5
2F6
330
18
100
AcDbEntity
  8
外形線
100
AcDbCircle
 10
189.1462837438093
 20
100.6394881363279
 30
0.0
 40
30.0
100
AcDbArc
 50
0.0
 51
90.0
  0
ARC
  5
2F9
330
18
100
AcDbEntity
  8
外形線
100
AcDbCircle
 10
168.1462837438093
 20
52.63948813632794
 30
0.0
 40
5.0
100
AcDbArc
 50
270.0
 51
0.0
  0
ARC
  5
2FA
330
18
100
AcDbEntity
  8
外形線
100
AcDbCircle
 10
168.1462837438093
 20
52.63948813632794
 30
0.0
 40
10.0
100
AcDbArc
 50
270.0
 51
0.0
  0
ARC
  5
2FC
330
18
100
AcDbEntity
  8
外形線
100
AcDbCircle
 10
196.1462837438093
 20
64.63948813632794
 30
0.0
 40
13.0
100
AcDbArc
 50
180.0
 51
0.0
  0
ARC
  5
2FD
330
18
100
AcDbEntity
  8
外形線
100
AcDbCircle
 10
196.1462837438093
 20
64.63948813632794
 30
0.0
 40
23.0
100
AcDbArc
 50
270.0
 51
0.0
  0
ARC
  5
304
330
18
100
AcDbEntity
  8
外形線
100
AcDbCircle
 10
196.1462837438093
 20
32.63948813632794
 30
0.0
 40
9.0
100
AcDbArc
 50
89.99999999999982
 51
140.8686380762545
  0
LINE
  5
306
330
18
100
AcDbEntity
  8
外形線
100
AcDbLine
 10
150.1462837438093
 20
42.63948813632794
 30
0.0
 11
168.1462837438093
 21
42.63948813632794
 31
0.0
  0
ARC
  5
307
330
18
100
AcDbEntity
  8
外形線
100
AcDbCircle
 10
180.1462837438093
 20
42.63948813632794
 30
0.0
 40
10.0
100
AcDbArc
 50
270.0
 51
334.4048408136369
  0
LINE
  5
308
330
18
100
AcDbEntity
  8
外形線
100
AcDbLine
 10
145.1462837438093
 20
37.63948813632794
 30
0.0
 11
145.1462837438093
 21
36.13948813632794
 31
0.0
  0
ARC
  5
309
330
18
100
AcDbEntity
  8
外形線
100
AcDbCircle
 10
150.1462837438093
 20
37.63948813632794
 30
0.0
 40
5.0
100
AcDbArc
 50
90.0
 51
180.0
  0
LINE
  5
310
330
18
100
AcDbEntity
  8
外形線
100
AcDbLine
 10
155.1462837438093
 20
34.71020235059933
 30
0.0
 11
180.1462837438093
 21
32.63948813632794
 31
0.0
  0
ARC
  5
311
330
18
100
AcDbEntity
  8
外形線
100
AcDbCircle
 10
151.6462837438093
 20
31.13948813632794
 30
0.0
 40
5.0
100
AcDbArc
 50
45.57299599919379
 51
89.99999999999934
  0
LINE
  5
312
330
18
100
AcDbEntity
  8
外形線
100
AcDbLine
 10
189.1462837438093
 20
120.6394881363279
 30
0.0
 11
185.1462837438093
 21
120.6394881363279
 31
0.0
  0
LINE
  5
672
330
18
100
AcDbEntity
  8
隠れ線2
 48
0.5
100
AcDbLine
 10
160.0968081914881
 20
159.7394881363278
 30
0.0
 11
170.6462837438095
 21
159.7394881363279
 31
0.0
  0
ARC
  5
677
330
18
100
AcDbEntity
  8
外形線
100
AcDbCircle
 10
158.7153008694507
 20
-35.34761389188215
 30
0.0
 40
200.0
100
AcDbArc
 50
87.77144946917355
 51
101.0915385361409
  0
ARC
  5
678
330
18
100
AcDbEntity
  8
隠れ線2
 48
0.7
100
AcDbCircle
 10
163.143636592323
 20
65.59062482676289
 30
0.0
 40
97.3909959105708
100
AcDbArc
 50
82.51613649930108
 51
93.12078812910668
  0
ARC
  5
679
330
18
100
AcDbEntity
  8
外形線
100
AcDbCircle
 10
166.6462837438093
 20
157.5394881363282
 30
0.0
 40
4.0
100
AcDbArc
 50
216.0560544264717
 51
319.5808702019359
  0
LINE
  5
67A
330
18
100
AcDbEntity
  8
外形線
 48
0.5
100
AcDbLine
 10
133.6462837438093
 20
151.7394881363279
 30
0.0
 11
170.6462837438095
 21
151.7394881363279
 31
0.0
  0
ARC
  5
68E
330
18
100
AcDbEntity
  8
外形線
100
AcDbCircle
 10
159.9860263161196
 20
-44.73685298642706
 30
0.0
 40
207.6226327665373
100
AcDbArc
 50
90.59159891422288
 51
100.7904173062207
  0
LINE
  5
692
330
18
100
AcDbEntity
  8
外形線
100
AcDbLine
 10
120.239891523433
 20
160.9166031107502
 30
0.0
 11
121.1155347164751
 21
159.2147160678717
 31
0.0
  0
LINE
  5
698
330
18
100
AcDbEntity
  8
外形線
 48
0.5
100
AcDbLine
 10
133.6462837438094
 20
159.7394881363276
 30
0.0
 11
160.0968081914881
 21
159.7394881363278
 31
0.0
  0
CIRCLE
  5
699
330
18
100
AcDbEntity
  8
外形線
100
AcDbCircle
 10
148.1462837438094
 20
155.7394881363277
 30
0.0
 40
2.5
  0
LINE
  5
69A
330
18
100
AcDbEntity
  8
中心線
 48
0.5
100
AcDbLine
 10
144.2363656063616
 20
155.7394881363277
 30
0.0
 11
152.3379240040489
 21
155.7394881363277
 31
0.0
  0
LINE
  5
69D
330
18
100
AcDbEntity
  8
外形線
100
AcDbLine
 10
135.1462837438093
 20
151.7394881363279
 30
0.0
 11
145.1462837438093
 21
151.7394881363279
 31
0.0
  0
LINE
  5
69F
330
18
100
AcDbEntity
  8
外形線
100
AcDbLine
 10
134.1462837438093
 20
151.7394881363279
 30
0.0
 11
146.1462837438093
 21
151.7394881363279
 31
0.0
  0
LINE
  5
6A0
330
18
100
AcDbEntity
  8
隠れ線2
 48
0.5
100
AcDbLine
 10
136.1462837438093
 20
159.7394881363276
 30
0.0
 11
136.1462837438093
 21
151.7394881363279
 31
0.0
  0
LINE
  5
6A1
330
18
100
AcDbEntity
  8
外形線
100
AcDbLine
 10
133.6462837438094
 20
159.7394881363276
 30
0.0
 11
133.6462837438093
 21
151.7394881363279
 31
0.0
  0
LINE
  5
6A3
330
18
100
AcDbEntity
  8
隠れ線2
 48
0.5
100
AcDbLine
 10
144.1462837438093
 20
159.7394881363277
 30
0.0
 11
144.1462837438093
 21
151.7394881363279
 31
0.0
  0
LINE
  5
6B7
330
18
100
AcDbEntity
  8
外形線
100
AcDbLine
 10
157.8415636654593
 20
162.8371882988519
 30
0.0
 11
163.412517516523
 21
155.1851822965396
 31
0.0
  0
LINE
  5
6B8
330
18
100
AcDbEntity
  8
外形線
100
AcDbLine
 10
148.1462837438093
 20
155.7394881363277
 30
0.0
 11
147.1271003797736
 21
154.4687448976532
 31
0.0
  0
LINE
  5
6B9
330
18
100
AcDbEntity
  8
外形線
100
AcDbLine
 10
148.1462837438093
 20
155.7394881363277
 30
0.0
 11
149.1654671078451
 21
154.4687448976532
 31
0.0
  0
LINE
  5
6BA
330
18
100
AcDbEntity
  8
中心線
 48
0.5
100
AcDbLine
 10
148.1462837438094
 20
159.7410930239863
 30
0.0
 11
148.1462837438093
 21
151.2113221737546
 31
0.0
  0
LINE
  5
6BB
330
18
100
AcDbEntity
  8
外形線
100
AcDbLine
 10
148.1462837438093
 20
155.7394881363277
 30
0.0
 11
149.0653894826077
 21
156.9912490425642
 31
0.0
  0
LINE
  5
6BC
330
18
100
AcDbEntity
  8
外形線
100
AcDbLine
 10
148.1462837438093
 20
155.7394881363277
 30
0.0
 11
147.227178005011
 21
156.9912490425642
 31
0.0
  0
LINE
  5
6BD
330
18
100
AcDbEntity
  8
外形線
100
AcDbLine
 10
156.6462837438094
 20
159.7394881363278
 30
0.0
 11
156.6462837438093
 21
151.7394881363279
 31
0.0
  0
ARC
  5
6BE
330
18
100
AcDbEntity
  8
外形線
100
AcDbCircle
 10
156.8422884312927
 20
162.8752541152907
 30
0.0
 40
1.0
100
AcDbArc
 50
357.8184623142039
 51
181.7661003890234
  0
ARC
  5
6C4
330
18
100
AcDbEntity
  8
外形線
100
AcDbCircle
 10
162.6038746472301
 20
64.57675247575996
 30
0.0
 40
98.50000000000001
100
AcDbArc
 50
72.20362177902498
 51
82.28310293218898
  0
ARC
  5
6C5
330
18
100
AcDbEntity
  8
外形線
100
AcDbCircle
 10
162.6038746472301
 20
64.57675247575996
 30
0.0
 40
100.0
100
AcDbArc
 50
72.27038986394686
 51
87.77144946917355
  0
ARC
  5
6CE
330
18
100
AcDbEntity
  8
外形線
100
AcDbCircle
 10
176.8277931146259
 20
162.1139377865134
 30
0.0
 40
1.0
100
AcDbArc
 50
347.4638444499427
 51
177.8184623142039
  0
LINE
  5
6CF
330
18
100
AcDbEntity
  8
外形線
100
AcDbLine
 10
169.6915712323828
 20
154.9459916331614
 30
0.0
 11
175.8285178804593
 21
162.1520036029522
 31
0.0
  0
LINE
  5
6D1
330
18
100
AcDbEntity
  8
外形線
100
AcDbLine
 10
170.6462837438095
 20
156.067016497734
 30
0.0
 11
170.6462837438095
 21
151.7394881363279
 31
0.0
  0
LINE
  5
6D2
330
18
100
AcDbEntity
  8
中心線
 48
0.5
100
AcDbLine
 10
166.6462837438093
 20
160.4860509188211
 30
0.0
 11
166.6462837438093
 21
154.8403886608689
 31
0.0
  0
POINT
  5
6D3
330
18
100
AcDbEntity
  8
DEFPOINTS
  6
ByBlock
 62
     0
100
AcDbPoint
 10
167.6462837438094
 20
151.7394881363279
 30
0.0
  0
POINT
  5
6D4
330
18
100
AcDbEntity
  8
DEFPOINTS
  6
ByBlock
 62
     0
100
AcDbPoint
 10
167.6462837438094
 20
151.7394881363279
 30
0.0
  0
CIRCLE
  5
6D5
330
18
100
AcDbEntity
  8
外形線
100
AcDbCircle
 10
166.6462837438093
 20
157.5394881363282
 30
0.0
 40
1.149999999999999
  0
LINE
  5
6D6
330
18
100
AcDbEntity
  8
中心線
 48
0.5
100
AcDbLine
 10
164.8166996320614
 20
157.5394881363282
 30
0.0
 11
168.5475408831299
 21
157.5394881363282
 31
0.0
  0
CIRCLE
  5
6D7
330
18
100
AcDbEntity
  8
外形線
100
AcDbCircle
 10
166.6462837438093
 20
157.5394881363282
 30
0.0
 40
1.024999999999999
  0
LINE
  5
6D8
330
18
100
AcDbEntity
  8
中心線
 48
0.5
100
AcDbLine
 10
166.6462837438092
 20
159.0633276673654
 30
0.0
 11
166.6462837438093
 21
155.5671816259171
 31
0.0
  0
LINE
  5
6D9
330
18
100
AcDbEntity
  8
隠れ線2
 48
0.5
100
AcDbLine
 10
170.6462837438095
 20
159.7394881363279
 30
0.0
 11
170.6462837438095
 21
156.067016497734
 31
0.0
  0
POINT
  5
6DB
330
18
100
AcDbEntity
  8
寸法線
  6
ByBlock
100
AcDbPoint
 10
166.4924484250094
 20
164.5011188434021
 30
0.0
  0
POINT
  5
6DC
330
18
100
AcDbEntity
  8
DEFPOINTS
  6
ByBlock
 62
     0
100
AcDbPoint
 10
166.4924484250094
 20
164.5011188434021
 30
0.0
  0
LINE
  5
864
330
18
100
AcDbEntity
  8
外形線
100
AcDbLine
 10
142.1462837438093
 20
78.53948813632806
 30
0.0
 11
142.1462837438093
 21
57.63948813632806
 31
0.0
  0
LINE
  5
865
330
18
100
AcDbEntity
  8
外形線
100
AcDbLine
 10
138.1462837438093
 20
78.53948813632806
 30
0.0
 11
138.1462837438093
 21
57.63948813632806
 31
0.0
  0
LINE
  5
906
330
18
100
AcDbEntity
  8
隠れ線2
 48
0.5
100
AcDbLine
 10
138.1712837438093
 20
47.63948813632794
 30
0.0
 11
138.1712837438093
 21
36.13948813632794
 31
0.0
  0
LINE
  5
907
330
18
100
AcDbEntity
  8
隠れ線2
 48
0.5
100
AcDbLine
 10
142.1212837438093
 20
47.63948813632794
 30
0.0
 11
142.1212837438092
 21
36.13948813632794
 31
0.0
  0
LINE
  5
917
330
18
100
AcDbEntity
  8
外形線
100
AcDbLine
 10
137.4462837438093
 20
57.63948813632805
 30
0.0
 11
142.8462837438093
 21
57.63948813632808
 31
0.0
  0
LINE
  5
995
330
18
100
AcDbEntity
  8
外形線
100
AcDbLine
 10
134.7757574577528
 20
93.63948813632793
 30
0.0
 11
152.1462837438093
 21
93.63948813632793
 31
0.0
  0
LINE
  5
996
330
18
100
AcDbEntity
  8
外形線
100
AcDbLine
 10
152.1462837438093
 20
93.63948813632793
 30
0.0
 11
152.1462837438093
 21
82.63948813632792
 31
0.0
  0
LINE
  5
9AC
330
18
100
AcDbEntity
  8
外形線
100
AcDbLine
 10
134.7757574577528
 20
93.63948813632793
 30
0.0
 11
134.7757574577528
 21
82.63948813632792
 31
0.0
  0
TEXT
  5
AF3
330
18
100
AcDbEntity
  8
文字
100
AcDbText
 10
130.0034367223159
 20
129.2879926043625
 30
0.0
 40
1.5
  1
17
  7
STYLE3
100
AcDbText
  0
CIRCLE
  5
AF4
330
18
100
AcDbEntity
  8
目盛
100
AcDbCircle
 10
140.1462837438093
 20
123.539488136328
 30
0.0
 40
14.25
  0
HATCH
  5
AF5
330
18
100
AcDbEntity
  8
針
100
AcDbHatch
 10
0.0
 20
0.0
 30
0.0
210
0.0
220
0.0
230
1.0
  2
SOLID
 70
     1
 71
     0
 91
        1
 92
        7
 72
     1
 73
     1
 93
       13
 10
137.9462243139254
 20
124.0109099272739
 42
0.0451637842092326
 10
138.4043984878081
 20
124.2983265611099
 42
-0.4382411104070623
 10
141.0441301970605
 20
125.2139646952514
 42
-1.000000154483609
 10
139.2484372905581
 20
121.8650115774045
 42
-0.0991965089619077
 10
138.6726317626403
 20
122.3401759007542
 42
0.0451637842092322
 10
138.1540435196701
 20
122.4937927268891
 42
1.513476680661748
 10
140.7710540635086
 20
125.7010065951025
 42
-0.3301774454167336
 10
140.4099394679711
 20
126.1744481346015
 42
0.0
 10
140.2462837438094
 20
138.0394881363281
 42
0.0
 10
140.1462837438093
 20
138.039488136328
 42
0.0
 10
140.0462837438091
 20
138.0394881363281
 42
0.0
 10
139.8826280196473
 20
126.1744481346014
 42
-0.3301774454167854
 10
139.5215134241097
 20
125.7010065951024
 42
0.2763107710147353
 97
        0
 75
     0
 76
     1
 47
0.0351216412536765
 98
        1
 10
139.2253828280827
 20
125.3731348189253
450
        0
451
        0
460
0.0
461
0.0
452
        0
462
0.0
453
        0
470

  0
LINE
  5
AF6
330
18
100
AcDbEntity
  8
針
100
AcDbLine
 10
139.8826280196475
 20
126.1744481346014
 30
0.0
 11
140.0462837438091
 21
138.0394881363281
 31
0.0
  0
LINE
  5
AF7
330
18
100
AcDbEntity
  8
針
100
AcDbLine
 10
140.4099394679711
 20
126.1744481346014
 30
0.0
 11
140.2462837438093
 21
138.0394881363281
 31
0.0
  0
TEXT
  5
AF8
330
18
100
AcDbEntity
  8
文字
100
AcDbText
 10
148.5173605976473
 20
129.0168238937241
 30
0.0
 40
1.5
  1
3
  7
STYLE3
100
AcDbText
  0
CIRCLE
  5
AF9
330
18
100
AcDbEntity
  8
外形線
100
AcDbCircle
 10
140.1462837438093
 20
123.539488136328
 30
0.0
 40
27.5
  0
HATCH
  5
AFA
330
18
100
AcDbEntity
  8
針
100
AcDbHatch
 10
0.0
 20
0.0
 30
0.0
210
0.0
220
0.0
230
1.0
  2
SOLID
 70
     1
 71
     0
 91
        2
 92
        7
 72
     1
 73
     1
 93
        5
 10
140.2362837438093
 20
145.5394881363281
 42
0.0
 10
140.1462837438093
 20
145.5394881363282
 42
0.0
 10
140.0562837438094
 20
145.5394881363281
 42
0.0
 10
139.8808368113143
 20
139.0372149995177
 42
-0.0085634322047721
 10
140.4117306763042
 20
139.0372149995177
 42
0.0
 97
        0
 92
        7
 72
     1
 73
     1
 93
        6
 10
140.4117306763042
 20
139.0372149995177
 42
0.0085634322047721
 10
139.8808368113143
 20
139.0372149995177
 42
0.0
 10
139.5462837438092
 20
126.6382782227967
 42
-0.1293106770632391
 10
139.1580652585568
 20
125.1622710008559
 42
-0.2805221108582334
 10
141.1345022290618
 20
125.1622710008559
 42
-0.1293106770632486
 10
140.7462837438094
 20
126.6382782227968
 42
0.0
 97
        0
 75
     0
 76
     1
 47
0.0423559757596284
 98
        2
 10
140.1057209813449
 20
139.6654690116771
 10
140.2328870987364
 20
135.2604475081978
450
        0
451
        0
460
0.0
461
0.0
452
        0
462
0.0
453
        0
470

  0
LINE
  5
AFB
330
18
100
AcDbEntity
  8
針
100
AcDbLine
 10
140.0562837438094
 20
145.5394881363281
 30
0.0
 11
139.5462837438092
 21
126.6382782227973
 31
0.0
  0
LINE
  5
AFC
330
18
100
AcDbEntity
  8
針
100
AcDbLine
 10
140.2362837438093
 20
145.5394881363281
 30
0.0
 11
140.7462837438094
 21
126.6382782227972
 31
0.0
  0
HATCH
  5
AFD
330
18
100
AcDbEntity
  8
ROGO
 62
     4
100
AcDbHatch
 10
0.0
 20
0.0
 30
0.0
210
0.0
220
0.0
230
1.0
  2
SOLID
 70
     1
 71
     1
 91
        2
 92
        5
 93
        6
 72
     4
 94
        3
 73
     0
 74
     0
 95
       38
 96
       34
 40
0.0
 40
0.0
 40
0.0
 40
0.0
 40
0.1807680148264315
 40
0.2375392910068956
 40
0.3104865209606157
 40
0.3712759982447458
 40
0.422566754387306
 40
0.490692583720658
 40
0.5255021974951946
 40
0.5647069597052371
 40
0.622487401681883
 40
0.6879401044674746
 40
0.7303986317551266
 40
0.7765228362185534
 40
0.8277951442290254
 40
0.9056034697002209
 40
0.9795294930264187
 40
1.013897332332996
 40
1.053089255536027
 40
1.099518741889647
 40
1.132570569820733
 40
1.160277520290299
 40
1.19983678629386
 40
1.243305643169139
 40
1.286774258016964
 40
1.324809356515675
 40
1.411916492917645
 40
1.446284332224223
 40
1.5150200516612
 40
1.575779369908399
 40
1.69209852953623
 40
1.835624328519098
 40
2.042896467983898
 40
2.042896467983898
 40
2.042896467983898
 40
2.042896467983898
 10
142.843012065057
 20
129.5968441404064
 10
142.7827566674313
 20
129.5925875213055
 10
142.7035777018102
 20
129.5869940855183
 10
142.6030389293006
 20
129.5594494593134
 10
142.5482341748597
 20
129.5266349398555
 10
142.4911988735425
 20
129.5025146951549
 10
142.4425709671574
 20
129.4667973959057
 10
142.3933848664615
 20
129.4483926157123
 10
142.3589432530857
 20
129.4152055073398
 10
142.3190798949528
 20
129.3949333891647
 10
142.2873359951175
 20
129.3495584951503
 10
142.2518553185858
 20
129.3071346134919
 10
142.2106932701786
 20
129.2761670719144
 10
142.1769110246193
 20
129.243642092952
 10
142.1459205116949
 20
129.1934462777682
 10
142.1275789391238
 20
129.1267509030825
 10
142.0758771247144
 20
129.0846418487974
 10
142.0680924502313
 20
129.0340142011212
 10
142.0394946000357
 20
129.0041447409306
 10
142.0270592545797
 20
128.9655875589456
 10
142.0223232764559
 20
128.9302623696249
 10
142.0166389734134
 20
128.8972710881965
 10
142.001769913181
 20
128.8625657174587
 10
142.0066232257424
 20
128.8196954385238
 10
142.0052406627002
 20
128.7781827244972
 10
142.0060543026735
 20
128.7221392678858
 10
142.0031177633275
 20
128.6675740709663
 10
142.0265355138425
 20
128.6081941947979
 10
142.0403933614453
 20
128.5552652501313
 10
142.0783453313889
 20
128.4819787078798
 10
142.1438116842068
 20
128.3974218841709
 10
142.2683014302243
 20
128.2947859208781
 10
142.3880019607837
 20
128.2843739801609
 10
142.4587281035139
 20
128.2782219906765
 72
     1
 10
142.4587281035139
 20
128.2782219906765
 11
143.2091819266991
 21
128.2782219906765
 72
     4
 94
        3
 73
     0
 74
     0
 95
       11
 96
        7
 40
0.1647869275458135
 40
0.1647869275458135
 40
0.1647869275458135
 40
0.1647869275458135
 40
0.2545010798212315
 40
0.5111620267764023
 40
0.7602998271033902
 40
0.8850764140209603
 40
0.8850764140209603
 40
0.8850764140209603
 40
0.8850764140209603
 10
143.2091819266992
 20
128.2782219906765
 10
143.2196538270192
 20
128.2780201750336
 10
143.2600845218478
 20
128.2772409901268
 10
143.3291810639441
 20
128.2871675207114
 10
143.4018798310822
 20
128.2966799150847
 10
143.4452208425164
 20
128.3036075048687
 10
143.4591993853173
 20
128.3074984375852
 72
     4
 94
        3
 73
     0
 74
     0
 95
        9
 96
        5
 40
0.0
 40
0.0
 40
0.0
 40
0.0
 40
0.1135793343552172
 40
0.2662938392177403
 40
0.2662938392177403
 40
0.2662938392177403
 40
0.2662938392177403
 10
143.4591993853173
 20
128.3074984375852
 10
143.4956843536353
 20
128.3186607773084
 10
143.5812256393127
 20
128.3448315795623
 10
143.6519023365495
 20
128.4001438973368
 10
143.6924340922053
 20
128.4318644705447
 72
     4
 94
        3
 73
     0
 74
     0
 95
       25
 96
       21
 40
0.0
 40
0.0
 40
0.0
 40
0.0
 40
0.165525918914855
 40
0.3412380755365305
 40
0.5940540902285263
 40
0.7697671103696209
 40
0.9377330196075423
 40
1.11479469302833
 40
1.274661249598185
 40
1.574522170874768
 40
1.815540668866877
 40
2.15849091873445
 40
2.536227739636605
 40
2.738070817316548
 40
2.925680654369045
 40
3.162706124480894
 40
3.395643218188267
 40
3.648478129958861
 40
3.928509979727306
 40
4.337226830236035
 40
4.337226830236035
 40
4.337226830236035
 40
4.337226830236035
 10
143.6924340922053
 20
128.4318644705447
 10
143.707326749599
 20
128.4441712144904
 10
143.735574048903
 20
128.4734413377121
 10
143.7856752855427
 20
128.5208816860507
 10
143.8298254453493
 20
128.5761534565047
 10
143.8842878460665
 20
128.6209492893781
 10
143.9126408016055
 20
128.6757155157256
 10
143.9535093489096
 20
128.7187879862247
 10
143.987791367827
 20
128.7853091682153
 10
144.016877966527
 20
128.8617209333594
 10
144.0446080220245
 20
128.9613222170629
 10
144.0552344653612
 20
129.0736872701084
 10
144.0395060077139
 20
129.1824004025395
 10
144.0015100300391
 20
129.2636598980763
 10
143.97357586927
 20
129.3313813127424
 10
143.9311822806276
 20
129.3955254164196
 10
143.882816925767
 20
129.4652892227537
 10
143.8146787050076
 20
129.5229951850687
 10
143.7256290463865
 20
129.5925978744442
 10
143.642685938668
 20
129.5952627509503
 10
143.5934658882424
 20
129.5968441404064
 72
     1
 10
143.5934658882424
 20
129.5968441404064
 11
142.843012065057
 21
129.5968441404064
 97
        6
330
AFE
330
C0C
330
AFF
330
BB4
330
BB3
330
BB2
 92
       20
 93
        1
 72
     3
 10
143.0154704596878
 20
128.9191481481874
 11
0.1782847090673272
 21
0.1567790921840611
 40
0.6788083417438794
 50
0.0
 51
360.0
 73
     1
 97
        1
330
BB1
 75
     0
 76
     1
 47
0.088756267210375
 98
        2
 10
143.0679017354564
 20
129.2326354185114
 10
143.0679017354564
 20
129.2326354185114
450
        0
451
        0
460
0.0
461
0.0
452
        0
462
0.0
453
        0
470

  0
SPLINE
  5
AFE
102
{ACAD_REACTORS
330
AFD
102
}
330
18
100
AcDbEntity
  8
ROGO
 62
     4
100
AcDbSpline
210
0.0
220
0.0
230
1.0
 70
     8
 71
     3
 72
    25
 73
    21
 74
     0
 42
0.0000000001
 43
0.0000000001
 40
0.0
 40
0.0
 40
0.0
 40
0.0
 40
0.4087168505087288
 40
0.6887487002771746
 40
0.9415836120477687
 40
1.17452070575514
 40
1.41154617586699
 40
1.599156012919487
 40
1.80099909059943
 40
2.178735911501585
 40
2.521686161369157
 40
2.762704659361267
 40
3.06256558063785
 40
3.222432137207705
 40
3.399493810628493
 40
3.567459719866414
 40
3.743172740007509
 40
3.995988754699505
 40
4.17170091132118
 40
4.337226830236035
 40
4.337226830236035
 40
4.337226830236035
 40
4.337226830236035
 10
143.5934658882424
 20
129.5968441404064
 30
0.0
 10
143.642685938668
 20
129.5952627509503
 30
0.0
 10
143.7256290463865
 20
129.5925978744442
 30
0.0
 10
143.8146787050076
 20
129.5229951850687
 30
0.0
 10
143.882816925767
 20
129.4652892227537
 30
0.0
 10
143.9311822806276
 20
129.3955254164196
 30
0.0
 10
143.97357586927
 20
129.3313813127424
 30
0.0
 10
144.0015100300391
 20
129.2636598980763
 30
0.0
 10
144.0395060077139
 20
129.1824004025395
 30
0.0
 10
144.0552344653612
 20
129.0736872701084
 30
0.0
 10
144.0446080220245
 20
128.9613222170629
 30
0.0
 10
144.016877966527
 20
128.8617209333594
 30
0.0
 10
143.987791367827
 20
128.7853091682153
 30
0.0
 10
143.9535093489096
 20
128.7187879862247
 30
0.0
 10
143.9126408016055
 20
128.6757155157256
 30
0.0
 10
143.8842878460665
 20
128.6209492893781
 30
0.0
 10
143.8298254453493
 20
128.5761534565047
 30
0.0
 10
143.7856752855427
 20
128.5208816860507
 30
0.0
 10
143.735574048903
 20
128.4734413377121
 30
0.0
 10
143.707326749599
 20
128.4441712144904
 30
0.0
 10
143.6924340922053
 20
128.4318644705447
 30
0.0
  0
SPLINE
  5
AFF
102
{ACAD_REACTORS
330
AFD
102
}
330
18
100
AcDbEntity
  8
ROGO
 62
     4
100
AcDbSpline
210
0.0
220
0.0
230
1.0
 70
     8
 71
     3
 72
    38
 73
    34
 74
    32
 42
0.0000000001
 43
0.0000000001
 44
0.0000000001
 40
0.0
 40
0.0
 40
0.0
 40
0.0
 40
0.1807680148264315
 40
0.2375392910068956
 40
0.3104865209606157
 40
0.3712759982447458
 40
0.422566754387306
 40
0.490692583720658
 40
0.5255021974951946
 40
0.5647069597052371
 40
0.622487401681883
 40
0.6879401044674746
 40
0.7303986317551266
 40
0.7765228362185534
 40
0.8277951442290254
 40
0.9056034697002209
 40
0.9795294930264187
 40
1.013897332332996
 40
1.053089255536027
 40
1.099518741889647
 40
1.132570569820733
 40
1.160277520290299
 40
1.19983678629386
 40
1.243305643169139
 40
1.286774258016964
 40
1.324809356515675
 40
1.411916492917645
 40
1.446284332224223
 40
1.5150200516612
 40
1.575779369908399
 40
1.69209852953623
 40
1.835624328519098
 40
2.042896467983898
 40
2.042896467983898
 40
2.042896467983898
 40
2.042896467983898
 10
142.843012065057
 20
129.5968441404064
 30
0.0
 10
142.7827566674313
 20
129.5925875213055
 30
0.0
 10
142.7035777018102
 20
129.5869940855183
 30
0.0
 10
142.6030389293006
 20
129.5594494593134
 30
0.0
 10
142.5482341748597
 20
129.5266349398555
 30
0.0
 10
142.4911988735425
 20
129.5025146951549
 30
0.0
 10
142.4425709671574
 20
129.4667973959057
 30
0.0
 10
142.3933848664615
 20
129.4483926157123
 30
0.0
 10
142.3589432530857
 20
129.4152055073398
 30
0.0
 10
142.3190798949528
 20
129.3949333891647
 30
0.0
 10
142.2873359951175
 20
129.3495584951503
 30
0.0
 10
142.2518553185858
 20
129.3071346134919
 30
0.0
 10
142.2106932701786
 20
129.2761670719144
 30
0.0
 10
142.1769110246193
 20
129.243642092952
 30
0.0
 10
142.1459205116949
 20
129.1934462777682
 30
0.0
 10
142.1275789391238
 20
129.1267509030825
 30
0.0
 10
142.0758771247144
 20
129.0846418487974
 30
0.0
 10
142.0680924502313
 20
129.0340142011212
 30
0.0
 10
142.0394946000357
 20
129.0041447409306
 30
0.0
 10
142.0270592545797
 20
128.9655875589456
 30
0.0
 10
142.0223232764559
 20
128.9302623696249
 30
0.0
 10
142.0166389734134
 20
128.8972710881965
 30
0.0
 10
142.001769913181
 20
128.8625657174587
 30
0.0
 10
142.0066232257424
 20
128.8196954385238
 30
0.0
 10
142.0052406627002
 20
128.7781827244972
 30
0.0
 10
142.0060543026735
 20
128.7221392678858
 30
0.0
 10
142.0031177633275
 20
128.6675740709663
 30
0.0
 10
142.0265355138425
 20
128.6081941947979
 30
0.0
 10
142.0403933614453
 20
128.5552652501313
 30
0.0
 10
142.0783453313889
 20
128.4819787078798
 30
0.0
 10
142.1438116842068
 20
128.3974218841709
 30
0.0
 10
142.2683014302243
 20
128.2947859208781
 30
0.0
 10
142.3880019607837
 20
128.2843739801609
 30
0.0
 10
142.4587281035139
 20
128.2782219906765
 30
0.0
 11
142.843012065057
 21
129.5968441404064
 31
0.0
 11
142.6635554281097
 21
129.5751095909549
 31
0.0
 11
142.6091746419816
 21
129.5588090419077
 31
0.0
 11
142.5439179549736
 21
129.526207459758
 31
0.0
 11
142.4895371688454
 21
129.499039635985
 31
0.0
 11
142.4460327108401
 21
129.4718715701845
 31
0.0
 11
142.3862139742721
 21
129.4392702300624
 31
0.0
 11
142.3590233675864
 21
129.4175359226384
 31
0.0
 11
142.3263948104609
 21
129.395801373187
 31
0.0
 11
142.2883283028955
 21
129.3523327583392
 31
0.0
 11
142.2448238448902
 21
129.3034306271423
 31
0.0
 11
142.2121952877646
 21
129.2762625613418
 31
0.0
 11
142.1795671578822
 21
129.2436612212196
 31
0.0
 11
142.1523765511966
 21
129.2001926063718
 31
0.0
 11
142.1197484213142
 21
129.1295559257235
 31
0.0
 11
142.0762435360657
 21
129.0697865198009
 31
0.0
 11
142.065367635186
 21
129.0371849376513
 31
0.0
 11
142.0436154061833
 21
129.004583597529
 31
0.0
 11
142.0273011276206
 21
128.9611147406538
 31
0.0
 11
142.0218627499376
 21
128.9285134005316
 31
0.0
 11
142.0164247994977
 21
128.9013453347312
 31
0.0
 11
142.0055488986179
 21
128.8633104782599
 31
0.0
 11
142.0055488986179
 21
128.8198416213846
 31
0.0
 11
142.0055488986179
 21
128.7763730065368
 31
0.0
 11
142.0055488986179
 21
128.7383379080381
 31
0.0
 11
142.0109868490579
 21
128.6514006783423
 31
0.0
 11
142.0218627499376
 21
128.6187990961928
 31
0.0
 11
142.0436154061833
 21
128.553596173921
 31
0.0
 11
142.0708055856259
 21
128.4992602843475
 31
0.0
 11
142.1415006503168
 21
128.4068895383027
 31
0.0
 11
142.2557001730131
 21
128.3199520665796
 31
0.0
 11
142.4587281035139
 21
128.2782219906765
 31
0.0
  0
HATCH
  5
B00
330
18
100
AcDbEntity
  8
ROGO
 62
     4
100
AcDbHatch
 10
0.0
 20
0.0
 30
0.0
210
0.0
220
0.0
230
1.0
  2
SOLID
 70
     1
 71
     1
 91
        2
 92
        7
 72
     0
 73
     1
 93
        8
 10
139.3850108316113
 20
129.5913669212341
 10
138.3346073488399
 20
129.591366921234
 10
137.3876730187407
 20
128.2782219906766
 10
138.1149202704323
 20
128.2782219906765
 10
138.2952107080132
 20
128.5282366607674
 10
139.1250876967976
 20
128.5282366607674
 10
139.2361541198665
 20
128.2782219906765
 10
139.9683618419946
 20
128.2782219906766
 97
        8
330
C04
330
B0D
330
B9C
330
B9D
330
B9F
330
B97
330
B9B
330
B01
 92
       22
 72
     0
 73
     1
 93
        3
 10
139.007942591197
 20
128.7919346724635
 10
138.4853684691584
 20
128.7919346724634
 10
138.8087352054716
 20
129.2403579442824
 97
        3
330
B9E
330
BA0
330
B98
 75
     0
 76
     1
 47
0.0128389261915577
 98
        2
 10
139.3027559391155
 20
129.276325004425
 10
139.3027559391155
 20
129.276325004425
450
        0
451
        0
460
0.0
461
0.0
452
        0
462
0.0
453
        0
470

  0
LINE
  5
B01
102
{ACAD_REACTORS
330
B00
102
}
330
18
100
AcDbEntity
  8
ROGO
 62
     4
100
AcDbLine
 10
139.3850108316113
 20
129.591366921234
 30
0.0
 11
139.9683618419946
 21
128.2782219906765
 31
0.0
  0
HATCH
  5
B02
330
18
100
AcDbEntity
  8
ROGO
 62
     4
100
AcDbHatch
 10
0.0
 20
0.0
 30
0.0
210
0.0
220
0.0
230
1.0
  2
SOLID
 70
     1
 71
     1
 91
        2
 92
        5
 93
        6
 72
     1
 10
132.4636570888749
 20
127.5394881363281
 11
133.4174580448113
 21
127.539488136328
 72
     1
 10
133.4174580448113
 20
127.539488136328
 11
133.7516821956398
 21
128.2782219906765
 72
     1
 10
133.7516821956398
 20
128.2782219906765
 11
134.643290463812
 21
128.2782219906765
 72
     4
 94
        3
 73
     0
 74
     0
 95
       18
 96
       14
 40
0.108740278791501
 40
0.108740278791501
 40
0.108740278791501
 40
0.108740278791501
 40
0.6623149649549278
 40
1.384304701649787
 40
2.097394834876493
 40
2.774073369849618
 40
3.428974823686337
 40
4.005208313035923
 40
4.455173659284313
 40
4.720999734343524
 40
5.086034088486724
 40
5.569973738255373
 40
6.060470601257719
 40
6.060470601257719
 40
6.060470601257719
 40
6.060470601257719
 10
134.643290463812
 20
128.2782219906765
 10
134.7060403807066
 20
128.2786892703077
 10
134.8506307377602
 20
128.2797659909163
 10
135.0529115158675
 20
128.3878288274117
 10
135.2447314889605
 20
128.5254930077534
 10
135.3992294280419
 20
128.6974900385552
 10
135.495486298918
 20
128.8941391760759
 10
135.5103961839651
 20
129.0826093116477
 10
135.5012940654542
 20
129.2316868458041
 10
135.4362548569111
 20
129.3355975881069
 10
135.3686386629864
 20
129.4410563652797
 10
135.2446534274392
 20
129.5324086750711
 10
135.1430654795887
 20
129.5724345663864
 10
135.0914059419527
 20
129.5913669212341
 72
     1
 10
135.0914059419528
 20
129.591366921234
 11
133.4789076289675
 21
129.591366921234
 72
     1
 10
133.4789076289675
 20
129.591366921234
 11
132.4636570888749
 21
127.5394881363281
 97
        6
330
B10
330
C02
330
B11
330
B66
330
B8C
330
B91
 92
       20
 93
        4
 72
     1
 10
133.95804668795
 20
128.7343483251353
 11
134.1160444843073
 21
129.0835700100207
 72
     1
 10
134.1160444843073
 20
129.0835700100207
 11
134.5220314834048
 21
129.0835700100207
 72
     4
 94
        3
 73
     0
 74
     0
 95
       15
 96
       11
 40
0.0
 40
0.0
 40
0.0
 40
0.0
 40
0.1539705029175028
 40
0.2241725832587281
 40
0.3038566179396687
 40
0.3581410872474193
 40
0.443992538467216
 40
0.4954152125469665
 40
0.5836396705646186
 40
0.6130478420065743
 40
0.6130478420065743
 40
0.6130478420065743
 40
0.6130478420065743
 10
134.5220314834048
 20
129.0835700100207
 10
134.579859818464
 20
129.0838348946631
 10
134.6640546935221
 20
129.0842205521328
 10
134.7100954498867
 20
128.9800712482033
 10
134.6894577876531
 20
128.9130153435659
 10
134.6635145642291
 20
128.8441698293181
 10
134.6176670126867
 20
128.7973882640488
 10
134.5561328830916
 20
128.7523297304118
 10
134.4979801900359
 20
128.7468751931523
 10
134.4601583910632
 20
128.7368536996981
 10
134.450702936794
 20
128.7343483251353
 72
     1
 10
134.450702936794
 20
128.7343483251353
 11
133.95804668795
 21
128.7343483251353
 97
        4
330
B90
330
B8E
330
B8F
330
B8D
 75
     0
 76
     1
 47
0.0514683685270805
 98
        2
 10
133.4875261822744
 20
128.9531781643451
 10
133.4875261822744
 20
128.9531781643451
450
        0
451
        0
460
0.0
461
0.0
452
        0
462
0.0
453
        0
470

  0
HATCH
  5
B03
330
18
100
AcDbEntity
  8
ROGO
 62
     4
100
AcDbHatch
 10
0.0
 20
0.0
 30
0.0
210
0.0
220
0.0
230
1.0
  2
SOLID
 70
     1
 71
     1
 91
        1
 92
        7
 72
     0
 73
     1
 93
       11
 10
145.5967506133944
 20
127.5394881363281
 10
146.3528343558987
 20
127.5394881363281
 10
146.6198836450643
 20
128.0750516984476
 10
146.88693293423
 20
127.5394881363281
 10
147.6430001342299
 20
127.5394881363281
 10
147.1314336183951
 20
128.5654275287811
 10
148.3743423637263
 20
129.5913669212341
 10
147.6182751637263
 20
129.5913669212341
 10
147.2642620806475
 20
129.3673435124124
 10
147.3759673875685
 20
129.591366921234
 10
146.6198836450643
 20
129.591366921234
 97
       11
330
C0F
330
C10
330
C11
330
C12
330
B08
330
B66
330
BB0
330
BBD
330
BBB
330
BBC
330
B07
 75
     0
 76
     1
 47
0.0514683685270805
 98
        1
 10
146.5548123986604
 20
128.7110709377925
450
        0
451
        0
460
0.0
461
0.0
452
        0
462
0.0
453
        0
470

  0
HATCH
  5
B04
330
18
100
AcDbEntity
  8
ROGO
 62
     4
100
AcDbHatch
 10
0.0
 20
0.0
 30
0.0
210
0.0
220
0.0
230
1.0
  2
SOLID
 70
     1
 71
     1
 91
        1
 92
        5
 93
        8
 72
     4
 94
        3
 73
     0
 74
     0
 95
       26
 96
       22
 40
0.0
 40
0.0
 40
0.0
 40
0.0
 40
0.2382195346591896
 40
0.397689067266058
 40
0.5126795869787176
 40
0.5985392873135238
 40
0.7099038249250041
 40
0.7911890807494602
 40
0.9379713068544059
 40
1.057449928673177
 40
1.138714535893296
 40
1.218398644003487
 40
1.36093802187034
 40
1.461730374800238
 40
1.51601484410804
 40
1.593124329220486
 40
1.648806818593696
 40
1.729472362005543
 40
1.775122082164332
 40
1.874460993765135
 40
1.919820003751196
 40
1.919820003751196
 40
1.919820003751196
 40
1.919820003751196
 10
145.0298201738358
 20
129.591366921234
 10
144.9489647830771
 20
129.5865429499689
 10
144.8139829690112
 20
129.5784897034722
 10
144.6657737582994
 20
129.4884541996139
 10
144.5571870138892
 20
129.4361115142714
 10
144.4797430794651
 20
129.3649560928518
 10
144.4229763615975
 20
129.2914577403305
 10
144.3514112568999
 20
129.2038849922051
 10
144.2930519589941
 20
129.1019100707405
 10
144.2633331164609
 20
128.9895159296772
 10
144.2370084478072
 20
128.8999371471183
 10
144.2174856328341
 20
128.8001132842259
 10
144.2224527896471
 20
128.6922683961036
 10
144.2295659855316
 20
128.5921075850998
 10
144.2613246754556
 20
128.5206077621731
 10
144.2974921978456
 20
128.4697048152438
 10
144.3417788337006
 20
128.413640862545
 10
144.390238098018
 20
128.3765098882148
 10
144.4303178651286
 20
128.3092446330742
 10
144.5004761453911
 20
128.3006611013981
 10
144.5450715394668
 20
128.283577311521
 10
144.5590510279283
 20
128.2782219906765
 72
     1
 10
144.5590510279283
 20
128.2782219906765
 11
145.6900800429328
 21
128.2782219906765
 72
     1
 10
145.6900800429328
 20
128.2782219906765
 11
145.9336967636118
 21
128.7667918690172
 72
     1
 10
145.9336967636118
 20
128.7667918690172
 11
145.0940157427396
 21
128.7667918690172
 72
     4
 94
        3
 73
     0
 74
     0
 95
       16
 96
       12
 40
0.0
 40
0.0
 40
0.0
 40
0.0
 40
0.0719416665231652
 40
0.1446253590759511
 40
0.1879779149910863
 40
0.229544093610429
 40
0.2751936323958108
 40
0.3070718656052417
 40
0.3373215422371831
 40
0.3986635435213285
 40
0.5242542460842448
 40
0.5242542460842448
 40
0.5242542460842448
 40
0.5242542460842448
 10
145.0940157427396
 20
128.7667918690171
 10
145.0686880040678
 20
128.7742436611057
 10
145.0177712894988
 20
128.789224105105
 10
145.0135099716512
 20
128.8618437942424
 10
145.019315400713
 20
128.9135912652015
 10
145.0436285505903
 20
128.9512664459176
 10
145.0731246184508
 20
128.9786800969533
 10
145.0841073127024
 20
129.0143820911354
 10
145.1163899418265
 20
129.0413415634519
 10
145.1736356932176
 20
129.0866566704277
 10
145.2369395844289
 20
129.0963077757132
 10
145.2794702920504
 20
129.1027918690172
 72
     1
 10
145.2794702920504
 20
129.1027918690172
 11
146.1012372154016
 21
129.1027918690172
 72
     1
 10
146.1012372154016
 20
129.1027918690172
 11
146.3448565159421
 21
129.5913669212341
 72
     1
 10
146.3448565159421
 20
129.5913669212341
 11
145.0298201738358
 21
129.591366921234
 97
        8
330
C0D
330
B0A
330
BB9
330
BB7
330
BB6
330
BB8
330
BB5
330
B09
 75
     0
 76
     1
 47
0.0514683685270805
 98
        1
 10
145.2567376035207
 20
129.350925618055
450
        0
451
        0
460
0.0
461
0.0
452
        0
462
0.0
453
        0
470

  0
HATCH
  5
B05
330
18
100
AcDbEntity
  8
ROGO
 62
     4
100
AcDbHatch
 10
0.0
 20
0.0
 30
0.0
210
0.0
220
0.0
230
1.0
  2
SOLID
 70
     1
 71
     1
 91
        1
 92
        5
 93
        8
 72
     1
 10
141.8701674444736
 20
129.1027918690172
 11
142.1137867450143
 21
129.5913669212341
 72
     1
 10
142.1137867450143
 20
129.5913669212341
 11
140.7987504029082
 21
129.5913669212341
 72
     4
 94
        3
 73
     0
 74
     0
 95
       26
 96
       22
 40
0.0
 40
0.0
 40
0.0
 40
0.0
 40
0.2382195346591896
 40
0.397689067266058
 40
0.5126795869787669
 40
0.5985392873135731
 40
0.7099038249249733
 40
0.7911890807494741
 40
0.9379713068543702
 40
1.057449928673087
 40
1.138714535893316
 40
1.218398644003506
 40
1.36093802187036
 40
1.461730374800257
 40
1.516014844108008
 40
1.593124329220501
 40
1.648806818593631
 40
1.729472362005518
 40
1.775122082164342
 40
1.874460993765092
 40
1.919820003751207
 40
1.919820003751207
 40
1.919820003751207
 40
1.919820003751207
 10
140.798750402908
 20
129.591366921234
 10
140.7178950121493
 20
129.5865429499689
 10
140.5829131980834
 20
129.5784897034722
 10
140.4347039873716
 20
129.4884541996139
 10
140.3261172429614
 20
129.4361115142715
 10
140.2486733085372
 20
129.3649560928518
 10
140.1919065906696
 20
129.2914577403305
 10
140.1203414859721
 20
129.2038849922051
 10
140.0619821880663
 20
129.1019100707406
 10
140.032263345533
 20
128.9895159296773
 10
140.0059386768793
 20
128.8999371471183
 10
139.9864158619063
 20
128.8001132842259
 10
139.9913830187193
 20
128.6922683961036
 10
139.9984962146038
 20
128.5921075850998
 10
140.0302549045278
 20
128.5206077621732
 10
140.0664224269178
 20
128.4697048152438
 10
140.1107090627727
 20
128.4136408625451
 10
140.1591683270901
 20
128.3765098882148
 10
140.1992480942008
 20
128.3092446330742
 10
140.2694063744632
 20
128.3006611013981
 10
140.314001768539
 20
128.283577311521
 10
140.3279812570005
 20
128.2782219906765
 72
     1
 10
140.3279812570005
 20
128.2782219906765
 11
141.459010272005
 21
128.2782219906765
 72
     1
 10
141.459010272005
 20
128.2782219906765
 11
141.7026269926839
 21
128.7667918690172
 72
     1
 10
141.7026269926839
 20
128.7667918690172
 11
140.8629459718118
 21
128.7667918690172
 72
     4
 94
        3
 73
     0
 74
     0
 95
       16
 96
       12
 40
0.0
 40
0.0
 40
0.0
 40
0.0
 40
0.0719416665231651
 40
0.1446253590759065
 40
0.1879779149910977
 40
0.2295440936104405
 40
0.2751936323958134
 40
0.3070718656052443
 40
0.3373215422372259
 40
0.3986635435212919
 40
0.5242542460842631
 40
0.5242542460842631
 40
0.5242542460842631
 40
0.5242542460842631
 10
140.8629459718117
 20
128.7667918690172
 10
140.83761823314
 20
128.7742436611057
 10
140.786701518571
 20
128.7892241051051
 10
140.7824402007233
 20
128.8618437942424
 10
140.7882456297851
 20
128.9135912652015
 10
140.8125587796623
 20
128.9512664459177
 10
140.8420548475229
 20
128.9786800969533
 10
140.8530375417746
 20
129.0143820911355
 10
140.8853201708986
 20
129.0413415634519
 10
140.9425659222897
 20
129.0866566704277
 10
141.0058698135011
 20
129.0963077757132
 10
141.0484005211225
 20
129.1027918690172
 72
     1
 10
141.0484005211226
 20
129.1027918690172
 11
141.8701674444736
 21
129.1027918690172
 97
        8
330
BFC
330
B0B
330
B9A
330
B63
330
B64
330
B99
330
B65
330
B0C
 75
     0
 76
     1
 47
0.0514683685270805
 98
        1
 10
141.2586673001149
 20
129.2990454648871
450
        0
451
        0
460
0.0
461
0.0
452
        0
462
0.0
453
        0
470

  0
HATCH
  5
B06
330
18
100
AcDbEntity
  8
ROGO
 62
     4
100
AcDbHatch
 10
0.0
 20
0.0
 30
0.0
210
0.0
220
0.0
230
1.0
  2
SOLID
 70
     1
 71
     1
 91
        1
 92
        1
 93
       12
 72
     1
 10
136.0440299351582
 20
129.591366921234
 11
137.8201130836422
 21
129.5913669212341
 72
     1
 10
137.8201130836422
 20
129.591366921234
 11
137.6712788879076
 21
129.290564590542
 72
     1
 10
137.6712788879076
 20
129.290564590542
 11
136.7378144656896
 21
129.290564590542
 72
     1
 10
136.7378144656896
 20
129.290564590542
 11
136.6214446196132
 21
129.0553745473578
 72
     1
 10
136.6214446196132
 20
129.0553745473578
 11
137.5549090418311
 21
129.0553745473578
 72
     1
 10
137.5549090418311
 20
129.0553745473578
 11
137.4355826662073
 21
128.8142091906766
 72
     1
 10
137.4355826662073
 20
128.8142091906766
 11
136.5021182439893
 21
128.8142091906766
 72
     1
 10
136.5021182439893
 20
128.8142091906766
 11
136.3857434713729
 21
128.5790091906766
 72
     1
 10
136.385743471373
 20
128.5790091906766
 11
137.3192078935909
 21
128.5790091906766
 72
     1
 10
137.3192078935909
 20
128.5790091906766
 11
137.1703811843821
 21
128.2782219906765
 72
     1
 10
137.1703811843821
 20
128.2782219906765
 11
135.3942980358982
 21
128.2782219906765
 72
     1
 10
135.3942980358982
 20
128.2782219906765
 11
136.0440299351582
 21
129.591366921234
 97
       12
330
C00
330
B0E
330
B88
330
B8B
330
B87
330
BA2
330
B85
330
B8A
330
B86
330
BA1
330
B89
330
B0F
 75
     0
 76
     1
 98
        1
 10
63.39390095644931
 20
38.79327087312276
450
        0
451
        0
460
0.0
461
0.0
452
        0
462
0.0
453
        0
470

  0
LINE
  5
B07
102
{ACAD_REACTORS
330
B03
102
}
330
18
100
AcDbEntity
  8
ROGO
 62
     4
100
AcDbLine
 10
147.1314336183951
 20
128.5654275287811
 30
0.0
 11
148.3743423637263
 21
129.591366921234
 31
0.0
  0
LINE
  5
B08
102
{ACAD_REACTORS
330
B03
102
}
330
18
100
AcDbEntity
  8
ROGO
 62
     4
100
AcDbLine
 10
146.6198836450643
 20
129.591366921234
 30
0.0
 11
145.5967506133944
 21
127.5394881363281
 31
0.0
  0
LINE
  5
B09
102
{ACAD_REACTORS
330
B04
102
}
330
18
100
AcDbEntity
  8
ROGO
 62
     4
100
AcDbLine
 10
146.3448565159421
 20
129.591366921234
 30
0.0
 11
146.1012372154016
 21
129.1027918690172
 31
0.0
  0
SPLINE
  5
B0A
102
{ACAD_REACTORS
330
B04
102
}
330
18
100
AcDbEntity
  8
ROGO
 62
     4
100
AcDbSpline
210
0.0
220
0.0
230
1.0
 70
     8
 71
     3
 72
    26
 73
    22
 74
    20
 42
0.0000000001
 43
0.0000000001
 44
0.0000000001
 40
0.0
 40
0.0
 40
0.0
 40
0.0
 40
0.2382195346591896
 40
0.397689067266058
 40
0.5126795869787176
 40
0.5985392873135238
 40
0.7099038249250041
 40
0.7911890807494602
 40
0.9379713068544059
 40
1.057449928673177
 40
1.138714535893296
 40
1.218398644003487
 40
1.36093802187034
 40
1.461730374800238
 40
1.51601484410804
 40
1.593124329220486
 40
1.648806818593696
 40
1.729472362005543
 40
1.775122082164332
 40
1.874460993765135
 40
1.919820003751196
 40
1.919820003751196
 40
1.919820003751196
 40
1.919820003751196
 10
145.0298201738358
 20
129.591366921234
 30
0.0
 10
144.9489647830771
 20
129.5865429499689
 30
0.0
 10
144.8139829690112
 20
129.5784897034722
 30
0.0
 10
144.6657737582994
 20
129.4884541996139
 30
0.0
 10
144.5571870138892
 20
129.4361115142714
 30
0.0
 10
144.4797430794651
 20
129.3649560928518
 30
0.0
 10
144.4229763615975
 20
129.2914577403305
 30
0.0
 10
144.3514112568999
 20
129.2038849922051
 30
0.0
 10
144.2930519589941
 20
129.1019100707405
 30
0.0
 10
144.2633331164609
 20
128.9895159296772
 30
0.0
 10
144.2370084478072
 20
128.8999371471183
 30
0.0
 10
144.2174856328341
 20
128.8001132842259
 30
0.0
 10
144.2224527896471
 20
128.6922683961036
 30
0.0
 10
144.2295659855316
 20
128.5921075850998
 30
0.0
 10
144.2613246754556
 20
128.5206077621731
 30
0.0
 10
144.2974921978456
 20
128.4697048152438
 30
0.0
 10
144.3417788337006
 20
128.413640862545
 30
0.0
 10
144.390238098018
 20
128.3765098882148
 30
0.0
 10
144.4303178651286
 20
128.3092446330742
 30
0.0
 10
144.5004761453911
 20
128.3006611013981
 30
0.0
 10
144.5450715394668
 20
128.283577311521
 30
0.0
 10
144.5590510279283
 20
128.2782219906765
 30
0.0
 11
145.0298201738358
 21
129.591366921234
 31
0.0
 11
144.794435600882
 21
129.5547247391403
 31
0.0
 11
144.651778097507
 21
129.4834550502069
 31
0.0
 11
144.5519180502212
 21
129.4264393455295
 31
0.0
 11
144.4877224813174
 21
129.3694234085057
 31
0.0
 11
144.4163939347066
 21
129.2838997353162
 31
0.0
 11
144.3664639110637
 21
129.2197570385109
 31
0.0
 11
144.2951349542995
 21
129.0914714125536
 31
0.0
 11
144.2594708860707
 21
128.9774397708523
 31
0.0
 11
144.2380723631029
 21
128.899043089791
 31
0.0
 11
144.2238064076886
 21
128.8206464087296
 31
0.0
 11
144.2238064076886
 21
128.6781070308628
 31
0.0
 11
144.2380723631029
 21
128.5783293734175
 31
0.0
 11
144.2594708860707
 21
128.5284404285216
 31
0.0
 11
144.3022679320065
 21
128.4642977317162
 31
0.0
 11
144.3379324103887
 21
128.4215357789483
 31
0.0
 11
144.3949950015853
 21
128.3645200742709
 31
0.0
 11
144.4235265022603
 21
128.328885113631
 31
0.0
 11
144.5162539819925
 21
128.2932503853375
 31
0.0
 11
144.5590510279283
 21
128.2782219906765
 31
0.0
  0
SPLINE
  5
B0B
102
{ACAD_REACTORS
330
B05
102
}
330
18
100
AcDbEntity
  8
ROGO
 62
     4
100
AcDbSpline
210
0.0
220
0.0
230
1.0
 70
     8
 71
     3
 72
    26
 73
    22
 74
    20
 42
0.0000000001
 43
0.0000000001
 44
0.0000000001
 40
0.0
 40
0.0
 40
0.0
 40
0.0
 40
0.2382195346591896
 40
0.397689067266058
 40
0.5126795869787669
 40
0.5985392873135731
 40
0.7099038249249733
 40
0.7911890807494741
 40
0.9379713068543702
 40
1.057449928673087
 40
1.138714535893316
 40
1.218398644003506
 40
1.36093802187036
 40
1.461730374800257
 40
1.516014844108008
 40
1.593124329220501
 40
1.648806818593631
 40
1.729472362005518
 40
1.775122082164342
 40
1.874460993765092
 40
1.919820003751207
 40
1.919820003751207
 40
1.919820003751207
 40
1.919820003751207
 10
140.798750402908
 20
129.591366921234
 30
0.0
 10
140.7178950121493
 20
129.5865429499689
 30
0.0
 10
140.5829131980834
 20
129.5784897034722
 30
0.0
 10
140.4347039873716
 20
129.4884541996139
 30
0.0
 10
140.3261172429614
 20
129.4361115142715
 30
0.0
 10
140.2486733085372
 20
129.3649560928518
 30
0.0
 10
140.1919065906696
 20
129.2914577403305
 30
0.0
 10
140.1203414859721
 20
129.2038849922051
 30
0.0
 10
140.0619821880663
 20
129.1019100707406
 30
0.0
 10
140.032263345533
 20
128.9895159296773
 30
0.0
 10
140.0059386768793
 20
128.8999371471183
 30
0.0
 10
139.9864158619063
 20
128.8001132842259
 30
0.0
 10
139.9913830187193
 20
128.6922683961036
 30
0.0
 10
139.9984962146038
 20
128.5921075850998
 30
0.0
 10
140.0302549045278
 20
128.5206077621732
 30
0.0
 10
140.0664224269178
 20
128.4697048152438
 30
0.0
 10
140.1107090627727
 20
128.4136408625451
 30
0.0
 10
140.1591683270901
 20
128.3765098882148
 30
0.0
 10
140.1992480942008
 20
128.3092446330742
 30
0.0
 10
140.2694063744632
 20
128.3006611013981
 30
0.0
 10
140.314001768539
 20
128.283577311521
 30
0.0
 10
140.3279812570005
 20
128.2782219906765
 30
0.0
 11
140.798750402908
 21
129.591366921234
 31
0.0
 11
140.5633658299542
 21
129.5547247391403
 31
0.0
 11
140.4207083265792
 21
129.4834550502069
 31
0.0
 11
140.3208482792933
 21
129.4264393455295
 31
0.0
 11
140.2566527103896
 21
129.3694234085057
 31
0.0
 11
140.1853241637788
 21
129.2838997353163
 31
0.0
 11
140.1353941401358
 21
129.2197570385109
 31
0.0
 11
140.0640651833716
 21
129.0914714125537
 31
0.0
 11
140.0284011151429
 21
128.9774397708524
 31
0.0
 11
140.007002592175
 21
128.899043089791
 31
0.0
 11
139.9927366367608
 21
128.8206464087296
 31
0.0
 11
139.9927366367608
 21
128.6781070308628
 31
0.0
 11
140.007002592175
 21
128.5783293734175
 31
0.0
 11
140.0284011151429
 21
128.5284404285217
 31
0.0
 11
140.0711981610787
 21
128.4642977317162
 31
0.0
 11
140.1068626394609
 21
128.4215357789484
 31
0.0
 11
140.1639252306574
 21
128.3645200742709
 31
0.0
 11
140.1924567313325
 21
128.328885113631
 31
0.0
 11
140.2851842110646
 21
128.2932503853375
 31
0.0
 11
140.3279812570005
 21
128.2782219906765
 31
0.0
  0
LINE
  5
B0C
102
{ACAD_REACTORS
330
B05
102
}
330
18
100
AcDbEntity
  8
ROGO
 62
     4
100
AcDbLine
 10
142.1137867450143
 20
129.591366921234
 30
0.0
 11
141.8701674444736
 21
129.1027918690172
 31
0.0
  0
LINE
  5
B0D
102
{ACAD_REACTORS
330
B00
102
}
330
18
100
AcDbEntity
  8
ROGO
 62
     4
100
AcDbLine
 10
138.3346073488399
 20
129.591366921234
 30
0.0
 11
137.3876730187407
 21
128.2782219906765
 31
0.0
  0
LINE
  5
B0E
102
{ACAD_REACTORS
330
B06
102
}
330
18
100
AcDbEntity
  8
ROGO
 62
     4
100
AcDbLine
 10
137.8201130836422
 20
129.591366921234
 30
0.0
 11
137.6712788879076
 21
129.290564590542
 31
0.0
  0
LINE
  5
B0F
102
{ACAD_REACTORS
330
B06
102
}
330
18
100
AcDbEntity
  8
ROGO
 62
     4
100
AcDbLine
 10
136.0440299351582
 20
129.591366921234
 30
0.0
 11
135.3942980358982
 21
128.2782219906765
 31
0.0
  0
SPLINE
  5
B10
102
{ACAD_REACTORS
330
B02
102
}
330
18
100
AcDbEntity
  8
ROGO
 62
     4
100
AcDbSpline
210
0.0
220
0.0
230
1.0
 70
     8
 71
     3
 72
    18
 73
    14
 74
     0
 42
0.0000000001
 43
0.0000000001
 40
0.1087402787915014
 40
0.1087402787915014
 40
0.1087402787915014
 40
0.1087402787915014
 40
0.5992371417938475
 40
1.083176791562496
 40
1.448211145705696
 40
1.714037220764907
 40
2.164002567013297
 40
2.740236056362883
 40
3.395137510199602
 40
4.071816045172726
 40
4.784906178399433
 40
5.506895915094292
 40
6.060470601257719
 40
6.060470601257719
 40
6.060470601257719
 40
6.060470601257719
 10
135.0914059419527
 20
129.5913669212341
 30
0.0
 10
135.1430654795887
 20
129.5724345663864
 30
0.0
 10
135.2446534274392
 20
129.5324086750711
 30
0.0
 10
135.3686386629864
 20
129.4410563652797
 30
0.0
 10
135.4362548569111
 20
129.3355975881069
 30
0.0
 10
135.5012940654542
 20
129.2316868458041
 30
0.0
 10
135.5103961839651
 20
129.0826093116477
 30
0.0
 10
135.495486298918
 20
128.8941391760759
 30
0.0
 10
135.3992294280419
 20
128.6974900385552
 30
0.0
 10
135.2447314889605
 20
128.5254930077534
 30
0.0
 10
135.0529115158675
 20
128.3878288274117
 30
0.0
 10
134.8506307377602
 20
128.2797659909163
 30
0.0
 10
134.7060403807066
 20
128.2786892703077
 30
0.0
 10
134.643290463812
 20
128.2782219906765
 30
0.0
  0
LINE
  5
B11
102
{ACAD_REACTORS
330
B02
102
}
330
18
100
AcDbEntity
  8
ROGO
 62
     4
100
AcDbLine
 10
133.4789076289675
 20
129.591366921234
 30
0.0
 11
132.4636570888748
 21
127.539488136328
 31
0.0
  0
TEXT
  5
B12
330
18
100
AcDbEntity
  8
文字
100
AcDbText
 10
120.9593104020282
 20
128.0488753752957
 30
0.0
 40
2.5
  1
80
  7
STYLE3
100
AcDbText
  0
CIRCLE
  5
B13
330
18
100
AcDbEntity
  8
外形線
100
AcDbCircle
 10
140.1462837438093
 20
123.939488136328
 30
0.0
 40
23.0
  0
CIRCLE
  5
B14
330
18
100
AcDbEntity
  8
外形線
100
AcDbCircle
 10
140.1462837438093
 20
123.539488136328
 30
0.0
 40
15.5
  0
LINE
  5
B16
330
18
100
AcDbEntity
  8
目盛
100
AcDbLine
 10
151.6747759136523
 20
115.1635482911602
 30
0.0
 11
150.0567419249024
 21
116.3391187957452
 31
0.0
  0
TEXT
  5
B17
330
18
100
AcDbEntity
  8
文字
100
AcDbText
 10
150.4029075038715
 20
122.7150356314514
 30
0.0
 40
1.5
  1
5
  7
STYLE3
100
AcDbText
  0
TEXT
  5
B18
330
18
100
AcDbEntity
  8
文字
  6
Continuous
 62
     4
100
AcDbText
 10
150.0443493459022
 20
110.5267282558484
 30
0.0
 40
1.0
  1
60
  7
STYLE3
100
AcDbText
  0
TEXT
  5
B19
330
18
100
AcDbEntity
  8
文字
100
AcDbText
 10
148.735590998654
 20
107.6670590298518
 30
0.0
 40
2.5
  1
40
  7
STYLE3
100
AcDbText
  0
LINE
  5
B1A
330
18
100
AcDbEntity
  8
目盛
100
AcDbLine
 10
140.1462837438093
 20
103.939488136328
 30
0.0
 11
140.1462837438093
 21
100.9394881363281
 31
0.0
  0
LINE
  5
B1B
330
18
100
AcDbEntity
  8
目盛
100
AcDbLine
 10
141.5904656929835
 20
100.9848733824778
 30
0.0
 11
141.4648846539248
 21
102.9809268393343
 31
0.0
  0
LINE
  5
B1C
330
18
100
AcDbEntity
  8
目盛
100
AcDbLine
 10
138.7021017946351
 20
100.9848733824778
 30
0.0
 11
138.8276828336937
 21
102.9809268393343
 31
0.0
  0
POINT
  5
B1D
330
18
100
AcDbEntity
  8
DEFPOINTS
  6
ByBlock
 62
     0
100
AcDbPoint
 10
140.1462837438093
 20
100.9394881363281
 30
0.0
  0
TEXT
  5
B1E
330
18
100
AcDbEntity
  8
文字
100
AcDbText
 10
129.7199557381484
 20
116.7537168183681
 30
0.0
 40
1.5
  1
13
  7
STYLE3
100
AcDbText
  0
LINE
  5
B1F
330
18
100
AcDbEntity
  8
目盛
100
AcDbLine
 10
131.7703438986414
 20
112.0109959664851
 30
0.0
 11
132.9459144032264
 21
113.629029955235
 31
0.0
  0
LINE
  5
B20
330
18
100
AcDbEntity
  8
目盛
100
AcDbLine
 10
131.6794190320618
 20
102.1546289608982
 30
0.0
 11
132.4156681374311
 21
104.0141819326747
 31
0.0
  0
LINE
  5
B21
330
18
100
AcDbEntity
  8
目盛
100
AcDbLine
 10
122.4244791599661
 20
108.8787363721082
 30
0.0
 11
123.9655056455177
 21
110.1535843516056
 31
0.0
  0
LINE
  5
B22
330
18
100
AcDbEntity
  8
目盛
100
AcDbLine
 10
121.5388928731855
 20
110.0204273336011
 30
0.0
 11
123.9659438563103
 21
111.7837830904786
 31
0.0
  0
LINE
  5
B23
330
18
100
AcDbEntity
  8
目盛
100
AcDbLine
 10
120.7267414572629
 20
111.2154718518111
 30
0.0
 11
122.415397308267
 21
112.2871254417691
 31
0.0
  0
LINE
  5
B24
330
18
100
AcDbEntity
  8
目盛
100
AcDbLine
 10
119.9912301028005
 20
112.4591536319886
 30
0.0
 11
121.7438434628882
 21
113.422660980192
 31
0.0
  0
LINE
  5
B25
330
18
100
AcDbEntity
  8
目盛
100
AcDbLine
 10
119.3352615370909
 20
113.7465644303314
 30
0.0
 11
121.1449156420228
 21
114.5981230134615
 31
0.0
  0
TEXT
  5
B26
330
18
100
AcDbEntity
  8
文字
100
AcDbText
 10
126.5879667345483
 20
107.7290936477174
 30
0.0
 40
2.5
  1
60
  7
STYLE3
100
AcDbText
  0
LINE
  5
B27
330
18
100
AcDbEntity
  8
目盛
100
AcDbLine
 10
124.4017003074494
 20
106.7732097056355
 30
0.0
 11
125.7707945193068
 21
108.2311469604784
 31
0.0
  0
LINE
  5
B28
330
18
100
AcDbEntity
  8
目盛
100
AcDbLine
 10
123.3800053131169
 20
107.7949046999682
 30
0.0
 11
124.8379425679597
 21
109.1639989118255
 31
0.0
  0
LINE
  5
B29
330
18
100
AcDbEntity
  8
目盛
100
AcDbLine
 10
126.6272229410824
 20
104.9320972657042
 30
0.0
 11
128.3905786979599
 21
107.359148248829
 31
0.0
  0
LINE
  5
B2A
330
18
100
AcDbEntity
  8
目盛
100
AcDbLine
 10
125.4855319795895
 20
105.8176835524849
 30
0.0
 11
126.7603799590867
 21
107.3587100380364
 31
0.0
  0
LINE
  5
B2B
330
18
100
AcDbEntity
  8
目盛
100
AcDbLine
 10
130.3533600378127
 20
102.7284659296096
 30
0.0
 11
131.2049186209428
 21
104.5381200345417
 31
0.0
  0
LINE
  5
B2C
330
18
100
AcDbEntity
  8
目盛
100
AcDbLine
 10
129.06594923947
 20
103.3844344953192
 30
0.0
 11
130.0294565876734
 21
105.1370478554069
 31
0.0
  0
LINE
  5
B2D
330
18
100
AcDbEntity
  8
目盛
100
AcDbLine
 10
127.8222674592923
 20
104.1199458497817
 30
0.0
 11
128.8939210492503
 21
105.8086017007857
 31
0.0
  0
TEXT
  5
B2E
330
18
100
AcDbEntity
  8
文字
  6
Continuous
 62
     4
100
AcDbText
 10
128.2575593053093
 20
110.5966515731576
 30
0.0
 40
1.0
  1
40
  7
STYLE3
100
AcDbText
  0
TEXT
  5
B2F
330
18
100
AcDbEntity
  8
文字
100
AcDbText
 10
120.8536296330894
 20
116.3143442504914
 30
0.0
 40
2.5
  1
70
  7
STYLE3
100
AcDbText
  0
LINE
  5
B30
330
18
100
AcDbEntity
  8
目盛
100
AcDbLine
 10
117.191668989959
 20
122.0953061871538
 30
0.0
 11
119.1877224468155
 21
122.2208872262125
 31
0.0
  0
LINE
  5
B31
330
18
100
AcDbEntity
  8
目盛
100
AcDbLine
 10
117.5536769770494
 20
119.2297179008564
 30
0.0
 11
119.5182514785067
 21
119.6044805300279
 31
0.0
  0
LINE
  5
B32
330
18
100
AcDbEntity
  8
目盛
100
AcDbLine
 10
117.3276456135763
 20
120.6568237643491
 30
0.0
 11
119.3118750162053
 21
120.9074902314777
 31
0.0
  0
LINE
  5
B33
330
18
100
AcDbEntity
  8
目盛
100
AcDbLine
 10
118.7614245683795
 20
115.0726234245804
 30
0.0
 11
120.6209775401559
 21
115.8088725299498
 31
0.0
  0
LINE
  5
B34
330
18
100
AcDbEntity
  8
目盛
100
AcDbLine
 10
118.2719838690209
 20
116.4320972657042
 30
0.0
 11
121.1251534179061
 21
117.3591482488291
 31
0.0
  0
LINE
  5
B35
330
18
100
AcDbEntity
  8
目盛
100
AcDbLine
 10
117.8688710378507
 20
117.8196207315364
 30
0.0
 11
119.8060373601081
 21
118.3170005058661
 31
0.0
  0
LINE
  5
B36
330
18
100
AcDbEntity
  8
目盛
100
AcDbLine
 10
117.1462837438093
 20
123.539488136328
 30
0.0
 11
120.1462837438093
 21
123.539488136328
 31
0.0
  0
LINE
  5
B37
330
18
100
AcDbEntity
  8
目盛
100
AcDbLine
 10
117.191668989959
 20
124.9836700855022
 30
0.0
 11
119.1877224468155
 21
124.8580890464436
 31
0.0
  0
LINE
  5
B38
330
18
100
AcDbEntity
  8
目盛
100
AcDbLine
 10
117.3276456135763
 20
126.4221525083071
 30
0.0
 11
119.3118750162052
 21
126.1714860411784
 31
0.0
  0
LINE
  5
B39
330
18
100
AcDbEntity
  8
目盛
100
AcDbLine
 10
117.5536769770494
 20
127.8492583717997
 30
0.0
 11
119.5182514785068
 21
127.4744957426283
 31
0.0
  0
LINE
  5
B3A
330
18
100
AcDbEntity
  8
目盛
100
AcDbLine
 10
117.8688710378507
 20
129.2593555411197
 30
0.0
 11
119.8060373601081
 21
128.76197576679
 31
0.0
  0
LINE
  5
B3B
330
18
100
AcDbEntity
  8
目盛
100
AcDbLine
 10
126.5937283866032
 20
119.1359959664851
 30
0.0
 11
128.4958414191936
 21
119.754029955235
 31
0.0
  0
TEXT
  5
B3C
330
18
100
AcDbEntity
  8
文字
  6
Continuous
 62
     4
100
AcDbText
 10
122.9642236065578
 20
119.3807449616317
 30
0.0
 40
1.0
  1
30
  7
STYLE3
100
AcDbText
  0
TEXT
  5
B3D
330
18
100
AcDbEntity
  8
文字
100
AcDbText
 10
128.3025476470652
 20
119.6571361548923
 30
0.0
 40
1.5
  1
14
  7
STYLE3
100
AcDbText
  0
LINE
  5
B3E
330
18
100
AcDbEntity
  8
目盛
100
AcDbLine
 10
128.6177915739663
 20
115.1635482911603
 30
0.0
 11
130.2358255627162
 21
116.3391187957453
 31
0.0
  0
LINE
  5
B3F
330
18
100
AcDbEntity
  8
目盛
100
AcDbLine
 10
125.8962837438093
 20
123.5394881363281
 30
0.0
 11
127.8962837438093
 21
123.5394881363281
 31
0.0
  0
LINE
  5
B40
330
18
100
AcDbEntity
  8
目盛
100
AcDbLine
 10
126.5937283866034
 20
127.9429803061711
 30
0.0
 11
128.4958414191937
 21
127.3249463174213
 31
0.0
  0
TEXT
  5
B41
330
18
100
AcDbEntity
  8
文字
  6
Continuous
 62
     4
100
AcDbText
 10
122.9318115456399
 20
126.4836221801064
 30
0.0
 40
1.0
  1
20
  7
STYLE3
100
AcDbText
  0
TEXT
  5
B42
330
18
100
AcDbEntity
  8
文字
100
AcDbText
 10
128.2316783917251
 20
126.2429423492962
 30
0.0
 40
1.5
  1
16
  7
STYLE3
100
AcDbText
  0
TEXT
  5
B43
330
18
100
AcDbEntity
  8
文字
100
AcDbText
 10
127.6647140457058
 20
122.7730020992869
 30
0.0
 40
1.5
  1
15
  7
STYLE3
100
AcDbText
  0
TEXT
  5
B44
330
18
100
AcDbEntity
  8
文字
100
AcDbText
 10
135.8237429934542
 20
116.7830306708381
 30
0.0
 40
1.0
  1
0.01×20mm
  7
STYLE3
100
AcDbText
  0
TEXT
  5
B45
330
18
100
AcDbEntity
  8
文字
100
AcDbText
 10
131.9169367338325
 20
114.2043722475723
 30
0.0
 40
1.5
  1
12
  7
STYLE3
100
AcDbText
  0
TEXT
  5
B46
330
18
100
AcDbEntity
  8
文字
100
AcDbText
 10
145.8497443226485
 20
113.9299320841478
 30
0.0
 40
1.5
  1
8
  7
STYLE3
100
AcDbText
  0
TEXT
  5
B47
330
18
100
AcDbEntity
  8
文字
100
AcDbText
 10
137.8330362766605
 20
103.8566008629696
 30
0.0
 40
2.5
  1
50
  7
STYLE3
100
AcDbText
  0
LINE
  5
B48
330
18
100
AcDbEntity
  8
目盛
100
AcDbLine
 10
135.8365135083377
 20
101.3468813695682
 30
0.0
 11
136.2112761375092
 21
103.3114558710256
 31
0.0
  0
LINE
  5
B49
330
18
100
AcDbEntity
  8
目盛
100
AcDbLine
 10
134.4264163390178
 20
101.2620754303696
 30
0.0
 11
134.9237961133474
 21
103.1992417526268
 31
0.0
  0
LINE
  5
B4A
330
18
100
AcDbEntity
  8
目盛
100
AcDbLine
 10
133.0388928731855
 20
101.6651882615395
 30
0.0
 11
133.9659438563104
 21
104.518357810425
 31
0.0
  0
TEXT
  5
B4B
330
18
100
AcDbEntity
  8
文字
  6
Continuous
 62
     4
100
AcDbText
 10
139.2123141363017
 20
106.678026741515
 30
0.0
 40
1.0
  1
50
  7
STYLE3
100
AcDbText
  0
LINE
  5
B4C
330
18
100
AcDbEntity
  8
目盛
100
AcDbLine
 10
137.2636193718304
 20
101.120850006095
 30
0.0
 11
137.514285838959
 21
103.105079408724
 31
0.0
  0
TEXT
  5
B4D
330
18
100
AcDbEntity
  8
文字
100
AcDbText
 10
134.9643630597036
 20
112.5048099672318
 30
0.0
 40
1.5
  1
11
  7
STYLE3
100
AcDbText
  0
LINE
  5
B4E
330
18
100
AcDbEntity
  8
目盛
100
AcDbLine
 10
135.7427915739662
 20
109.9869327791222
 30
0.0
 11
136.3608255627161
 21
111.8890458117125
 31
0.0
  0
LINE
  5
B4F
330
18
100
AcDbEntity
  8
目盛
100
AcDbLine
 10
140.1462837438092
 20
109.2894881363281
 30
0.0
 11
140.1462837438092
 21
111.2894881363281
 31
0.0
  0
TEXT
  5
B50
330
18
100
AcDbEntity
  8
文字
100
AcDbText
 10
138.7204922422742
 20
111.7966585953187
 30
0.0
 40
1.5
  1
10
  7
STYLE3
100
AcDbText
  0
LINE
  5
B51
330
18
100
AcDbEntity
  8
目盛
100
AcDbLine
 10
147.2536746144331
 20
101.6651882615396
 30
0.0
 11
146.3266236313084
 21
104.518357810425
 31
0.0
  0
LINE
  5
B52
330
18
100
AcDbEntity
  8
目盛
100
AcDbLine
 10
145.8661511486009
 20
101.2620754303696
 30
0.0
 11
145.3687713742713
 21
103.1992417526268
 31
0.0
  0
LINE
  5
B53
330
18
100
AcDbEntity
  8
目盛
100
AcDbLine
 10
144.456053979281
 20
101.3468813695683
 30
0.0
 11
144.0812913501096
 21
103.3114558710257
 31
0.0
  0
LINE
  5
B54
330
18
100
AcDbEntity
  8
目盛
100
AcDbLine
 10
143.0289481157883
 20
101.120850006095
 30
0.0
 11
142.7782816486597
 21
103.1050794087241
 31
0.0
  0
LINE
  5
B55
330
18
100
AcDbEntity
  8
目盛
100
AcDbLine
 10
151.2266182481487
 20
103.3844344953193
 30
0.0
 11
150.2631108999453
 21
105.137047855407
 31
0.0
  0
LINE
  5
B56
330
18
100
AcDbEntity
  8
目盛
100
AcDbLine
 10
149.9392074498059
 20
102.7284659296097
 30
0.0
 11
149.0876488666758
 21
104.5381200345417
 31
0.0
  0
LINE
  5
B57
330
18
100
AcDbEntity
  8
目盛
100
AcDbLine
 10
148.6131484555569
 20
102.1546289608983
 30
0.0
 11
147.8768993501876
 21
104.0141819326748
 31
0.0
  0
LINE
  5
B58
330
18
100
AcDbEntity
  8
目盛
100
AcDbLine
 10
144.5497759136522
 20
109.9869327791221
 30
0.0
 11
143.9317419249023
 21
111.8890458117123
 31
0.0
  0
TEXT
  5
B59
330
18
100
AcDbEntity
  8
文字
100
AcDbText
 10
142.8042309048203
 20
112.4265318974452
 30
0.0
 40
1.5
  1
9
  7
STYLE3
100
AcDbText
  0
LINE
  5
B5A
330
18
100
AcDbEntity
  8
目盛
100
AcDbLine
 10
148.522223588977
 20
112.010995966485
 30
0.0
 11
147.346653084392
 21
113.6290299552349
 31
0.0
  0
TEXT
  5
B5E
330
18
100
AcDbEntity
  8
文字
100
AcDbText
 10
138.1940424668195
 20
118.7559334731191
 30
0.0
 40
1.3
  1
G-2
  7
STYLE3
100
AcDbText
  0
ARC
  5
B5F
330
18
100
AcDbEntity
  8
針
100
AcDbCircle
 10
140.1462837438093
 20
123.539488136328
 30
0.0
 40
2.25
100
AcDbArc
 50
106.1215319403884
 51
73.87846805961146
  0
CIRCLE
  5
B60
330
18
100
AcDbEntity
  8
針
100
AcDbCircle
 10
140.1462837438093
 20
123.539488136328
 30
0.0
 40
1.9
  0
HATCH
  5
B61
330
18
100
AcDbEntity
  8
ROGO
 62
     4
100
AcDbHatch
 10
0.0
 20
0.0
 30
0.0
210
0.0
220
0.0
230
1.0
  2
SOLID
 70
     1
 71
     0
 91
        1
 92
        7
 72
     0
 73
     1
 93
        4
 10
133.5105090802333
 20
127.7451583426193
 10
133.4174580448113
 20
127.5394881363281
 10
145.5967506133944
 20
127.5394881363281
 10
145.6993044207805
 20
127.7451583426193
 97
        0
 75
     0
 76
     1
 47
0.0514683685270805
 98
        1
 10
141.2067443411216
 20
127.6907618784145
450
        0
451
        0
460
0.0
461
0.0
452
        0
462
0.0
453
        0
470

  0
LINE
  5
B62
330
18
100
AcDbEntity
  8
ROGO
 62
     4
100
AcDbLine
 10
133.4962456333167
 20
127.7451583426193
 30
0.0
 11
145.6993044207806
 21
127.7451583426193
 31
0.0
  0
LINE
  5
B63
102
{ACAD_REACTORS
330
B05
102
}
330
18
100
AcDbEntity
  8
ROGO
 62
     4
100
AcDbLine
 10
141.7026269926838
 20
128.7667918690172
 30
0.0
 11
141.459010272005
 21
128.2782219906765
 31
0.0
  0
LINE
  5
B64
102
{ACAD_REACTORS
330
B05
102
}
330
18
100
AcDbEntity
  8
ROGO
 62
     4
100
AcDbLine
 10
140.8629459718117
 20
128.7667918690172
 30
0.0
 11
141.7026269926838
 21
128.7667918690172
 31
0.0
  0
LINE
  5
B65
102
{ACAD_REACTORS
330
B05
102
}
330
18
100
AcDbEntity
  8
ROGO
 62
     4
100
AcDbLine
 10
141.0484005211225
 20
129.1027918690172
 30
0.0
 11
141.8701674444736
 21
129.1027918690172
 31
0.0
  0
LINE
  5
B66
102
{ACAD_REACTORS
330
B02
330
B03
102
}
330
18
100
AcDbEntity
  8
ROGO
 62
     4
100
AcDbLine
 10
132.4636570888748
 20
127.5394881363281
 30
0.0
 11
146.3528343558986
 21
127.5394881363281
 31
0.0
  0
HATCH
  5
B67
330
18
100
AcDbEntity
  8
針
100
AcDbHatch
 10
0.0
 20
0.0
 30
0.0
210
0.0
220
0.0
230
1.0
  2
SOLID
 70
     1
 71
     0
 91
        2
 92
        7
 72
     1
 73
     1
 93
        4
 10
138.2462837438093
 20
123.539488136328
 42
0.0
 10
137.8962837438092
 20
123.539488136328
 42
0.4142135623731076
 10
140.1462837438093
 20
121.289488136328
 42
0.0
 10
140.1462837438093
 20
121.6394881363281
 42
-0.414213562373088
 97
        0
 92
        7
 72
     1
 73
     1
 93
        4
 10
138.3929503596421
 20
124.2714868002374
 42
0.0451637842092378
 10
138.2832741279423
 20
124.8011121576543
 42
0.1499226670973518
 10
137.8962837438092
 20
123.539488136328
 42
0.0
 10
138.2462837438093
 20
123.539488136328
 42
-0.0991965089619077
 97
        0
 75
     0
 76
     1
 47
0.0389134658665618
 98
        2
 10
138.2482106989865
 20
122.9761828768292
 10
138.1703234980162
 20
123.8322788789685
450
        0
451
        0
460
0.0
461
0.0
452
        0
462
0.0
453
        0
470

  0
CIRCLE
  5
B68
330
18
100
AcDbEntity
  8
針
100
AcDbCircle
 10
140.1462837438093
 20
123.539488136328
 30
0.0
 40
1.5
  0
LINE
  5
B85
102
{ACAD_REACTORS
330
B06
102
}
330
18
100
AcDbEntity
  8
ROGO
 62
     4
100
AcDbLine
 10
136.5021182439893
 20
128.8142091906766
 30
0.0
 11
137.4355826662073
 21
128.8142091906766
 31
0.0
  0
LINE
  5
B86
102
{ACAD_REACTORS
330
B06
102
}
330
18
100
AcDbEntity
  8
ROGO
 62
     4
100
AcDbLine
 10
136.385743471373
 20
128.5790091906766
 30
0.0
 11
137.3192078935909
 21
128.5790091906766
 31
0.0
  0
LINE
  5
B87
102
{ACAD_REACTORS
330
B06
102
}
330
18
100
AcDbEntity
  8
ROGO
 62
     4
100
AcDbLine
 10
136.6214446196132
 20
129.0553745473578
 30
0.0
 11
137.5549090418311
 21
129.0553745473578
 31
0.0
  0
LINE
  5
B88
102
{ACAD_REACTORS
330
B06
102
}
330
18
100
AcDbEntity
  8
ROGO
 62
     4
100
AcDbLine
 10
136.7378144656896
 20
129.290564590542
 30
0.0
 11
137.6712788879076
 21
129.290564590542
 31
0.0
  0
LINE
  5
B89
102
{ACAD_REACTORS
330
B06
102
}
330
18
100
AcDbEntity
  8
ROGO
 62
     4
100
AcDbLine
 10
135.3942980358982
 20
128.2782219906765
 30
0.0
 11
137.1703811843821
 21
128.2782219906765
 31
0.0
  0
LINE
  5
B8A
102
{ACAD_REACTORS
330
B06
102
}
330
18
100
AcDbEntity
  8
ROGO
 62
     4
100
AcDbLine
 10
136.5021182439893
 20
128.8142091906766
 30
0.0
 11
136.3857434713729
 21
128.5790091906766
 31
0.0
  0
LINE
  5
B8B
102
{ACAD_REACTORS
330
B06
102
}
330
18
100
AcDbEntity
  8
ROGO
 62
     4
100
AcDbLine
 10
136.7378144656896
 20
129.290564590542
 30
0.0
 11
136.6214446196132
 21
129.0553745473578
 31
0.0
  0
LINE
  5
B8C
102
{ACAD_REACTORS
330
B02
102
}
330
18
100
AcDbEntity
  8
ROGO
 62
     4
100
AcDbLine
 10
133.7516821956398
 20
128.2782219906765
 30
0.0
 11
133.4174580448113
 21
127.5394881363281
 31
0.0
  0
LINE
  5
B8D
102
{ACAD_REACTORS
330
B02
102
}
330
18
100
AcDbEntity
  8
ROGO
 62
     4
100
AcDbLine
 10
134.4507029367941
 20
128.7343483251353
 30
0.0
 11
133.95804668795
 21
128.7343483251353
 31
0.0
  0
LINE
  5
B8E
102
{ACAD_REACTORS
330
B02
102
}
330
18
100
AcDbEntity
  8
ROGO
 62
     4
100
AcDbLine
 10
134.5220314834048
 20
129.0835700100207
 30
0.0
 11
134.1160444843074
 21
129.0835700100207
 31
0.0
  0
SPLINE
  5
B8F
102
{ACAD_REACTORS
330
B02
102
}
330
18
100
AcDbEntity
  8
ROGO
 62
     4
100
AcDbSpline
210
0.0
220
0.0
230
1.0
 70
     8
 71
     3
 72
    15
 73
    11
 74
     9
 42
0.0000000001
 43
0.0000000001
 44
0.0000000001
 40
0.0
 40
0.0
 40
0.0
 40
0.0
 40
0.1539705029175028
 40
0.2241725832587281
 40
0.3038566179396687
 40
0.3581410872474193
 40
0.443992538467216
 40
0.4954152125469665
 40
0.5836396705646186
 40
0.6130478420065743
 40
0.6130478420065743
 40
0.6130478420065743
 40
0.6130478420065743
 10
134.5220314834048
 20
129.0835700100207
 30
0.0
 10
134.579859818464
 20
129.0838348946631
 30
0.0
 10
134.6640546935221
 20
129.0842205521328
 30
0.0
 10
134.7100954498867
 20
128.9800712482033
 30
0.0
 10
134.6894577876531
 20
128.9130153435659
 30
0.0
 10
134.6635145642291
 20
128.8441698293181
 30
0.0
 10
134.6176670126867
 20
128.7973882640488
 30
0.0
 10
134.5561328830916
 20
128.7523297304118
 30
0.0
 10
134.4979801900359
 20
128.7468751931523
 30
0.0
 10
134.4601583910632
 20
128.7368536996981
 30
0.0
 10
134.450702936794
 20
128.7343483251353
 30
0.0
 11
134.5220314834048
 21
129.0835700100207
 31
0.0
 11
134.6718215543336
 21
129.0479350493808
 31
0.0
 11
134.7003530550086
 21
128.9837923525754
 31
0.0
 11
134.6860875097477
 21
128.905395671514
 31
0.0
 11
134.6646889867799
 21
128.8555067266181
 31
0.0
 11
134.6076259854299
 21
128.7913640298127
 31
0.0
 11
134.564828939494
 21
128.7628560613008
 31
0.0
 11
134.479234437469
 21
128.7414753172632
 31
0.0
 11
134.450702936794
 21
128.7343483251353
 31
0.0
  0
LINE
  5
B90
102
{ACAD_REACTORS
330
B02
102
}
330
18
100
AcDbEntity
  8
ROGO
 62
     4
100
AcDbLine
 10
134.1160444843074
 20
129.0835700100207
 30
0.0
 11
133.95804668795
 21
128.7343483251353
 31
0.0
  0
LINE
  5
B91
102
{ACAD_REACTORS
330
B02
102
}
330
18
100
AcDbEntity
  8
ROGO
 62
     4
100
AcDbLine
 10
134.6432904641211
 20
128.2782219906765
 30
0.0
 11
133.7516821956398
 21
128.2782219906765
 31
0.0
  0
ARC
  5
B92
330
18
100
AcDbEntity
  8
針
100
AcDbCircle
 10
139.3826755752878
 20
126.1813440303856
 30
0.0
 40
0.5
100
AcDbArc
 50
286.121531940391
 51
359.2097634975695
  0
ARC
  5
B93
330
18
100
AcDbEntity
  8
針
100
AcDbCircle
 10
140.9098919123307
 20
126.1813440303857
 30
0.0
 40
0.5
100
AcDbArc
 50
180.7902365024304
 51
253.8784680596089
  0
CIRCLE
  5
B94
330
18
100
AcDbEntity
  8
針
100
AcDbCircle
 10
140.1462837438093
 20
123.539488136328
 30
0.0
 40
0.475
  0
ARC
  5
B96
330
18
100
AcDbEntity
  8
針
100
AcDbCircle
 10
143.7462837438093
 20
126.6382782227972
 30
0.0
 40
3.0
100
AcDbArc
 50
180.0
 51
209.4722791770395
  0
LINE
  5
B97
102
{ACAD_REACTORS
330
B00
102
}
330
18
100
AcDbEntity
  8
ROGO
 62
     4
100
AcDbLine
 10
139.1250876967976
 20
128.5282366607674
 30
0.0
 11
139.2361541198665
 21
128.2782219906765
 31
0.0
  0
LINE
  5
B98
102
{ACAD_REACTORS
330
B00
102
}
330
18
100
AcDbEntity
  8
ROGO
 62
     4
100
AcDbLine
 10
138.8087352054716
 20
129.2403579442823
 30
0.0
 11
139.007942591197
 21
128.7919346724634
 31
0.0
  0
SPLINE
  5
B99
102
{ACAD_REACTORS
330
B05
102
}
330
18
100
AcDbEntity
  8
ROGO
 62
     4
100
AcDbSpline
210
0.0
220
0.0
230
1.0
 70
     8
 71
     3
 72
    16
 73
    12
 74
    10
 42
0.0000000001
 43
0.0000000001
 44
0.0000000001
 40
0.0
 40
0.0
 40
0.0
 40
0.0
 40
0.1255907025629711
 40
0.1869327038470372
 40
0.2171823804790188
 40
0.2490606136884497
 40
0.2947101524738226
 40
0.3362763310931653
 40
0.3796288870083566
 40
0.452312579561098
 40
0.5242542460842631
 40
0.5242542460842631
 40
0.5242542460842631
 40
0.5242542460842631
 10
141.0484005211225
 20
129.1027918690172
 30
0.0
 10
141.0058698135011
 20
129.0963077757132
 30
0.0
 10
140.9425659222897
 20
129.0866566704277
 30
0.0
 10
140.8853201708986
 20
129.0413415634519
 30
0.0
 10
140.8530375417746
 20
129.0143820911355
 30
0.0
 10
140.8420548475229
 20
128.9786800969533
 30
0.0
 10
140.8125587796623
 20
128.9512664459177
 30
0.0
 10
140.7882456297851
 20
128.9135912652015
 30
0.0
 10
140.7824402007233
 20
128.8618437942424
 30
0.0
 10
140.786701518571
 20
128.7892241051051
 30
0.0
 10
140.83761823314
 20
128.7742436611057
 30
0.0
 10
140.8629459718117
 20
128.7667918690172
 30
0.0
 11
141.0484005211225
 21
129.1027918690172
 31
0.0
 11
140.9271419508688
 21
129.0700904361697
 31
0.0
 11
140.8772119272259
 21
129.0344557078762
 31
0.0
 11
140.855813404258
 21
129.0130747314922
 31
0.0
 11
140.8415474488438
 21
128.9845667629803
 31
0.0
 11
140.8130159481688
 21
128.9489320346869
 31
0.0
 11
140.7916174252008
 21
128.913297074047
 31
0.0
 11
140.7844844474937
 21
128.8705353536255
 31
0.0
 11
140.798750402908
 21
128.7992654323457
 31
0.0
 11
140.8629459718117
 21
128.7667918690172
 31
0.0
  0
LINE
  5
B9A
102
{ACAD_REACTORS
330
B05
102
}
330
18
100
AcDbEntity
  8
ROGO
 62
     4
100
AcDbLine
 10
140.3279812570004
 20
128.2782219906765
 30
0.0
 11
141.459010272005
 21
128.2782219906765
 31
0.0
  0
LINE
  5
B9B
102
{ACAD_REACTORS
330
B00
102
}
330
18
100
AcDbEntity
  8
ROGO
 62
     4
100
AcDbLine
 10
139.9683618419946
 20
128.2782219906766
 30
0.0
 11
139.2361541198665
 21
128.2782219906765
 31
0.0
  0
LINE
  5
B9C
102
{ACAD_REACTORS
330
B00
102
}
330
18
100
AcDbEntity
  8
ROGO
 62
     4
100
AcDbLine
 10
137.3876730187407
 20
128.2782219906765
 30
0.0
 11
138.1149202704323
 21
128.2782219906765
 31
0.0
  0
LINE
  5
B9D
102
{ACAD_REACTORS
330
B00
102
}
330
18
100
AcDbEntity
  8
ROGO
 62
     4
100
AcDbLine
 10
138.2952107080132
 20
128.5282366607674
 30
0.0
 11
138.1149202704323
 21
128.2782219906766
 31
0.0
  0
LINE
  5
B9E
102
{ACAD_REACTORS
330
B00
102
}
330
18
100
AcDbEntity
  8
ROGO
 62
     4
100
AcDbLine
 10
138.4853684691583
 20
128.7919346724635
 30
0.0
 11
139.007942591197
 21
128.7919346724635
 31
0.0
  0
LINE
  5
B9F
102
{ACAD_REACTORS
330
B00
102
}
330
18
100
AcDbEntity
  8
ROGO
 62
     4
100
AcDbLine
 10
138.2952107080132
 20
128.5282366607674
 30
0.0
 11
139.1250876967976
 21
128.5282366607674
 31
0.0
  0
LINE
  5
BA0
102
{ACAD_REACTORS
330
B00
102
}
330
18
100
AcDbEntity
  8
ROGO
 62
     4
100
AcDbLine
 10
138.8087352054716
 20
129.2403579442823
 30
0.0
 11
138.4853684691583
 21
128.7919346724634
 31
0.0
  0
LINE
  5
BA1
102
{ACAD_REACTORS
330
B06
102
}
330
18
100
AcDbEntity
  8
ROGO
 62
     4
100
AcDbLine
 10
137.3192078935909
 20
128.5790091906766
 30
0.0
 11
137.1703811843821
 21
128.2782219906765
 31
0.0
  0
LINE
  5
BA2
102
{ACAD_REACTORS
330
B06
102
}
330
18
100
AcDbEntity
  8
ROGO
 62
     4
100
AcDbLine
 10
137.5549090418311
 20
129.0553745473578
 30
0.0
 11
137.4355826662073
 21
128.8142091906766
 31
0.0
  0
POINT
  5
BA3
330
18
100
AcDbEntity
  8
DEFPOINTS
  6
ByBlock
 62
     0
100
AcDbPoint
 10
140.1462837438093
 20
123.539488136328
 30
0.0
  0
POINT
  5
BA4
330
18
100
AcDbEntity
  8
DEFPOINTS
  6
ByBlock
 62
     0
100
AcDbPoint
 10
140.1462837438093
 20
123.539488136328
 30
0.0
  0
TEXT
  5
BAE
330
18
100
AcDbEntity
  8
文字
100
AcDbText
 10
148.514928689728
 20
116.440733095884
 30
0.0
 40
1.5
  1
7
  7
STYLE3
100
AcDbText
  0
TEXT
  5
BAF
330
18
100
AcDbEntity
  8
文字
100
AcDbText
 10
149.8812874850034
 20
119.512829259455
 30
0.0
 40
1.5
  1
6
  7
STYLE3
100
AcDbText
  0
LINE
  5
BB0
102
{ACAD_REACTORS
330
B03
102
}
330
18
100
AcDbEntity
  8
ROGO
 62
     4
100
AcDbLine
 10
146.6198836450643
 20
128.0750516984476
 30
0.0
 11
146.3528343558986
 21
127.5394881363281
 31
0.0
  0
ELLIPSE
  5
BB1
102
{ACAD_REACTORS
330
AFD
102
}
330
18
100
AcDbEntity
  8
ROGO
 62
     4
100
AcDbEllipse
 10
143.0154704596878
 20
128.9191481481874
 30
0.0
 11
0.1782847090673272
 21
0.1567790921840611
 31
0.0
210
0.0
220
0.0
230
1.0
 40
0.6788083417438792
 41
0.0
 42
6.283185307179586
  0
SPLINE
  5
BB2
102
{ACAD_REACTORS
330
AFD
102
}
330
18
100
AcDbEntity
  8
ROGO
 62
     4
100
AcDbSpline
210
0.0
220
0.0
230
1.0
 70
     8
 71
     3
 72
     9
 73
     5
 74
     3
 42
0.0000000001
 43
0.0000000001
 44
0.0000000001
 40
0.0
 40
0.0
 40
0.0
 40
0.0
 40
0.1135793343552172
 40
0.2662938392177403
 40
0.2662938392177403
 40
0.2662938392177403
 40
0.2662938392177403
 10
143.4591993853173
 20
128.3074984375852
 30
0.0
 10
143.4956843536353
 20
128.3186607773084
 30
0.0
 10
143.5812256393127
 20
128.3448315795623
 30
0.0
 10
143.6519023365495
 20
128.4001438973368
 30
0.0
 10
143.6924340922053
 20
128.4318644705447
 30
0.0
 11
143.4591993853173
 21
128.3074984375852
 31
0.0
 11
143.5659501495419
 21
128.3462868318549
 31
0.0
 11
143.6924340922053
 21
128.4318644705447
 31
0.0
  0
SPLINE
  5
BB3
102
{ACAD_REACTORS
330
AFD
102
}
330
18
100
AcDbEntity
  8
ROGO
 62
     4
100
AcDbSpline
210
0.0
220
0.0
230
1.0
 70
     8
 71
     3
 72
    11
 73
     7
 74
     0
 42
0.0000000001
 43
0.0000000001
 40
0.1647869275458134
 40
0.1647869275458134
 40
0.1647869275458134
 40
0.1647869275458134
 40
0.2895635144633836
 40
0.5387013147903714
 40
0.7953622617455423
 40
0.8850764140209602
 40
0.8850764140209602
 40
0.8850764140209602
 40
0.8850764140209602
 10
143.4591993853173
 20
128.3074984375852
 30
0.0
 10
143.4452208425164
 20
128.3036075048687
 30
0.0
 10
143.4018798310822
 20
128.2966799150847
 30
0.0
 10
143.3291810639441
 20
128.2871675207114
 30
0.0
 10
143.2600845218478
 20
128.2772409901268
 30
0.0
 10
143.2196538270192
 20
128.2780201750336
 30
0.0
 10
143.2091819266992
 20
128.2782219906765
 30
0.0
  0
LINE
  5
BB4
102
{ACAD_REACTORS
330
AFD
102
}
330
18
100
AcDbEntity
  8
ROGO
 62
     4
100
AcDbLine
 10
142.4587281035139
 20
128.2782219906765
 30
0.0
 11
143.2091819266992
 21
128.2782219906765
 31
0.0
  0
LINE
  5
BB5
102
{ACAD_REACTORS
330
B04
102
}
330
18
100
AcDbEntity
  8
ROGO
 62
     4
100
AcDbLine
 10
145.2794702920503
 20
129.1027918690172
 30
0.0
 11
146.1012372154016
 21
129.1027918690172
 31
0.0
  0
LINE
  5
BB6
102
{ACAD_REACTORS
330
B04
102
}
330
18
100
AcDbEntity
  8
ROGO
 62
     4
100
AcDbLine
 10
145.0940157427396
 20
128.7667918690172
 30
0.0
 11
145.9336967636117
 21
128.7667918690172
 31
0.0
  0
LINE
  5
BB7
102
{ACAD_REACTORS
330
B04
102
}
330
18
100
AcDbEntity
  8
ROGO
 62
     4
100
AcDbLine
 10
145.9336967636117
 20
128.7667918690172
 30
0.0
 11
145.6900800429329
 21
128.2782219906765
 31
0.0
  0
SPLINE
  5
BB8
102
{ACAD_REACTORS
330
B04
102
}
330
18
100
AcDbEntity
  8
ROGO
 62
     4
100
AcDbSpline
210
0.0
220
0.0
230
1.0
 70
     8
 71
     3
 72
    16
 73
    12
 74
    10
 42
0.0000000001
 43
0.0000000001
 44
0.0000000001
 40
0.0
 40
0.0
 40
0.0
 40
0.0
 40
0.1255907025629163
 40
0.1869327038470616
 40
0.217182380479003
 40
0.2490606136884339
 40
0.2947101524738157
 40
0.3362763310931585
 40
0.3796288870082937
 40
0.4523125795610796
 40
0.5242542460842448
 40
0.5242542460842448
 40
0.5242542460842448
 40
0.5242542460842448
 10
145.2794702920504
 20
129.1027918690172
 30
0.0
 10
145.2369395844289
 20
129.0963077757132
 30
0.0
 10
145.1736356932176
 20
129.0866566704277
 30
0.0
 10
145.1163899418265
 20
129.0413415634519
 30
0.0
 10
145.0841073127024
 20
129.0143820911354
 30
0.0
 10
145.0731246184508
 20
128.9786800969533
 30
0.0
 10
145.0436285505903
 20
128.9512664459176
 30
0.0
 10
145.019315400713
 20
128.9135912652015
 30
0.0
 10
145.0135099716512
 20
128.8618437942424
 30
0.0
 10
145.0177712894988
 20
128.789224105105
 30
0.0
 10
145.0686880040678
 20
128.7742436611057
 30
0.0
 10
145.0940157427396
 20
128.7667918690171
 30
0.0
 11
145.2794702920504
 21
129.1027918690172
 31
0.0
 11
145.1582117217967
 21
129.0700904361697
 31
0.0
 11
145.1082816981537
 21
129.0344557078762
 31
0.0
 11
145.0868831751859
 21
129.0130747314922
 31
0.0
 11
145.0726172197716
 21
128.9845667629803
 31
0.0
 11
145.0440857190967
 21
128.9489320346868
 31
0.0
 11
145.0226871961287
 21
128.9132970740469
 31
0.0
 11
145.0155542184216
 21
128.8705353536255
 31
0.0
 11
145.0298201738358
 21
128.7992654323457
 31
0.0
 11
145.0940157427396
 21
128.7667918690171
 31
0.0
  0
LINE
  5
BB9
102
{ACAD_REACTORS
330
B04
102
}
330
18
100
AcDbEntity
  8
ROGO
 62
     4
100
AcDbLine
 10
144.5590510279282
 20
128.2782219906765
 30
0.0
 11
145.6900800429329
 21
128.2782219906765
 31
0.0
  0
TEXT
  5
BBA
330
18
100
AcDbEntity
  8
文字
100
AcDbText
 10
149.9016860909616
 20
126.1091448598978
 30
0.0
 40
1.5
  1
4
  7
STYLE3
100
AcDbText
  0
LINE
  5
BBB
102
{ACAD_REACTORS
330
B03
102
}
330
18
100
AcDbEntity
  8
ROGO
 62
     4
100
AcDbLine
 10
146.88693293423
 20
127.5394881363281
 30
0.0
 11
147.64300013423
 21
127.5394881363281
 31
0.0
  0
LINE
  5
BBC
102
{ACAD_REACTORS
330
B03
102
}
330
18
100
AcDbEntity
  8
ROGO
 62
     4
100
AcDbLine
 10
147.1314336183951
 20
128.5654275287811
 30
0.0
 11
147.64300013423
 21
127.5394881363281
 31
0.0
  0
LINE
  5
BBD
102
{ACAD_REACTORS
330
B03
102
}
330
18
100
AcDbEntity
  8
ROGO
 62
     4
100
AcDbLine
 10
146.6198836450643
 20
128.0750516984476
 30
0.0
 11
146.88693293423
 21
127.5394881363281
 31
0.0
  0
LINE
  5
BC0
330
18
100
AcDbEntity
  8
目盛
100
AcDbLine
 10
160.9573059505278
 20
113.7465644303315
 30
0.0
 11
159.1476518455956
 21
114.5981230134616
 31
0.0
  0
LINE
  5
BC1
330
18
100
AcDbEntity
  8
目盛
100
AcDbLine
 10
156.9125621745017
 20
107.7949046999683
 30
0.0
 11
155.4546249196589
 21
109.1639989118256
 31
0.0
  0
LINE
  5
BC2
330
18
100
AcDbEntity
  8
目盛
100
AcDbLine
 10
155.8908671801691
 20
106.7732097056357
 30
0.0
 11
154.5217729683117
 21
108.2311469604785
 31
0.0
  0
LINE
  5
BC3
330
18
100
AcDbEntity
  8
目盛
100
AcDbLine
 10
154.8070355080292
 20
105.817683552485
 30
0.0
 11
153.5321875285319
 21
107.3587100380365
 31
0.0
  0
LINE
  5
BC4
330
18
100
AcDbEntity
  8
目盛
100
AcDbLine
 10
153.6653445465363
 20
104.9320972657043
 30
0.0
 11
151.9019887896587
 21
107.3591482488291
 31
0.0
  0
LINE
  5
BC5
330
18
100
AcDbEntity
  8
目盛
100
AcDbLine
 10
152.4703000283263
 20
104.1199458497818
 30
0.0
 11
151.3986464383683
 21
105.8086017007858
 31
0.0
  0
LINE
  5
BC6
330
18
100
AcDbEntity
  8
目盛
100
AcDbLine
 10
160.3013373848182
 20
112.4591536319887
 30
0.0
 11
158.5487240247305
 21
113.4226609801921
 31
0.0
  0
LINE
  5
BC7
330
18
100
AcDbEntity
  8
目盛
100
AcDbLine
 10
159.5658260303557
 20
111.2154718518112
 30
0.0
 11
157.8771701793516
 21
112.2871254417692
 31
0.0
  0
LINE
  5
BC8
330
18
100
AcDbEntity
  8
目盛
100
AcDbLine
 10
158.753674614433
 20
110.0204273336012
 30
0.0
 11
156.3266236313084
 21
111.7837830904787
 31
0.0
  0
LINE
  5
BC9
330
18
100
AcDbEntity
  8
目盛
100
AcDbLine
 10
157.8680883276524
 20
108.8787363721082
 30
0.0
 11
156.3270618421008
 21
110.1535843516056
 31
0.0
  0
LINE
  5
BCA
330
18
100
AcDbEntity
  8
目盛
100
AcDbLine
 10
160.1462837438093
 20
123.539488136328
 30
0.0
 11
163.1462837438093
 21
123.539488136328
 31
0.0
  0
LINE
  5
BCB
330
18
100
AcDbEntity
  8
目盛
100
AcDbLine
 10
162.4236964497679
 20
129.2593555411197
 30
0.0
 11
160.4865301275106
 21
128.76197576679
 31
0.0
  0
LINE
  5
BCC
330
18
100
AcDbEntity
  8
目盛
100
AcDbLine
 10
162.7388905105691
 20
127.8492583717997
 30
0.0
 11
160.7743160091118
 21
127.4744957426283
 31
0.0
  0
LINE
  5
BCD
330
18
100
AcDbEntity
  8
目盛
100
AcDbLine
 10
162.7388905105691
 20
119.2297179008564
 30
0.0
 11
160.7743160091118
 21
119.6044805300279
 31
0.0
  0
LINE
  5
BCE
330
18
100
AcDbEntity
  8
目盛
100
AcDbLine
 10
162.4236964497678
 20
117.8196207315364
 30
0.0
 11
160.4865301275106
 21
118.3170005058661
 31
0.0
  0
LINE
  5
BCF
330
18
100
AcDbEntity
  8
目盛
100
AcDbLine
 10
162.0205836185978
 20
116.4320972657043
 30
0.0
 11
159.1674140697123
 21
117.3591482488292
 31
0.0
  0
LINE
  5
BD0
330
18
100
AcDbEntity
  8
目盛
100
AcDbLine
 10
161.531142919239
 20
115.0726234245805
 30
0.0
 11
159.6715899474625
 21
115.8088725299499
 31
0.0
  0
TEXT
  5
BD1
330
18
100
AcDbEntity
  8
文字
  6
Continuous
 62
     4
100
AcDbText
 10
155.4806406914551
 20
119.6189763335208
 30
0.0
 40
1.0
  1
70
  7
STYLE3
100
AcDbText
  0
TEXT
  5
BD2
330
18
100
AcDbEntity
  8
文字
100
AcDbText
 10
154.5331561370295
 20
116.2906590652923
 30
0.0
 40
2.5
  1
30
  7
STYLE3
100
AcDbText
  0
LINE
  5
BD3
330
18
100
AcDbEntity
  8
目盛
100
AcDbLine
 10
153.6988391010152
 20
119.135995966485
 30
0.0
 11
151.7967260684249
 21
119.7540299552349
 31
0.0
  0
TEXT
  5
BD4
330
18
100
AcDbEntity
  8
文字
  6
Continuous
 62
     4
100
AcDbText
 10
155.8684227521131
 20
125.3390982254568
 30
0.0
 40
1.0
  1
80
  7
STYLE3
100
AcDbText
  0
TEXT
  5
BD5
330
18
100
AcDbEntity
  8
文字
100
AcDbText
 10
155.2629074547893
 20
126.7307041157028
 30
0.0
 40
2.5
  1
20
  7
STYLE3
100
AcDbText
  0
LINE
  5
BD6
330
18
100
AcDbEntity
  8
目盛
100
AcDbLine
 10
153.6988391010152
 20
127.942980306171
 30
0.0
 11
151.796726068425
 21
127.3249463174211
 31
0.0
  0
LINE
  5
BD7
330
18
100
AcDbEntity
  8
目盛
100
AcDbLine
 10
154.3962837438093
 20
123.539488136328
 30
0.0
 11
152.3962837438093
 21
123.539488136328
 31
0.0
  0
LINE
  5
BD8
330
18
100
AcDbEntity
  8
目盛
100
AcDbLine
 10
163.1008984976595
 20
122.0953061871538
 30
0.0
 11
161.1048450408029
 21
122.2208872262125
 31
0.0
  0
LINE
  5
BD9
330
18
100
AcDbEntity
  8
目盛
100
AcDbLine
 10
162.9649218740423
 20
120.6568237643491
 30
0.0
 11
160.9806924714133
 21
120.9074902314777
 31
0.0
  0
LINE
  5
BDA
330
18
100
AcDbEntity
  8
目盛
100
AcDbLine
 10
162.9649218740423
 20
126.4221525083071
 30
0.0
 11
160.9806924714132
 21
126.1714860411785
 31
0.0
  0
LINE
  5
BDB
330
18
100
AcDbEntity
  8
目盛
100
AcDbLine
 10
163.1008984976595
 20
124.9836700855022
 30
0.0
 11
161.1048450408029
 21
124.8580890464436
 31
0.0
  0
LINE
  5
BDE
330
18
100
AcDbEntity
  8
目盛
100
AcDbLine
 10
151.6747759136523
 20
131.9154279814958
 30
0.0
 11
150.0567419249024
 21
130.7398574769108
 31
0.0
  0
TEXT
  5
BDF
330
18
100
AcDbEntity
  8
文字
  6
Continuous
 62
     4
100
AcDbText
 10
150.2620576902618
 20
135.4404452613736
 30
0.0
 40
1.0
  1
90
  7
STYLE3
100
AcDbText
  0
TEXT
  5
BE0
330
18
100
AcDbEntity
  8
文字
100
AcDbText
 10
148.8779153011341
 20
136.92826830084
 30
0.0
 40
2.5
  1
10
  7
STYLE3
100
AcDbText
  0
LINE
  5
BE1
330
18
100
AcDbEntity
  8
目盛
100
AcDbLine
 10
131.7703438986415
 20
135.0679803061711
 30
0.0
 11
132.9459144032265
 21
133.4499463174213
 31
0.0
  0
LINE
  5
BE2
330
18
100
AcDbEntity
  8
目盛
100
AcDbLine
 10
131.6794190320618
 20
144.9243473117578
 30
0.0
 11
132.4156681374311
 21
143.0647943399813
 31
0.0
  0
LINE
  5
BE3
330
18
100
AcDbEntity
  8
目盛
100
AcDbLine
 10
129.0659492394697
 20
143.6945417773369
 30
0.0
 11
130.0294565876733
 21
141.9419284172492
 31
0.0
  0
LINE
  5
BE4
330
18
100
AcDbEntity
  8
目盛
100
AcDbLine
 10
130.3533600378125
 20
144.3505103430465
 30
0.0
 11
131.2049186209427
 21
142.5408562381145
 31
0.0
  0
LINE
  5
BE5
330
18
100
AcDbEntity
  8
目盛
100
AcDbLine
 10
121.5388928731854
 20
137.0585489390549
 30
0.0
 11
123.9659438563103
 21
135.2951931821775
 31
0.0
  0
LINE
  5
BE6
330
18
100
AcDbEntity
  8
目盛
100
AcDbLine
 10
122.4244791599662
 20
138.2002399005479
 30
0.0
 11
123.9655056455177
 21
136.9253919210505
 31
0.0
  0
LINE
  5
BE7
330
18
100
AcDbEntity
  8
目盛
100
AcDbLine
 10
118.2719838690206
 20
130.6468790069519
 30
0.0
 11
121.1251534179061
 21
129.719828023827
 31
0.0
  0
LINE
  5
BE8
330
18
100
AcDbEntity
  8
目盛
100
AcDbLine
 10
118.7614245683794
 20
132.0063528480756
 30
0.0
 11
120.6209775401559
 21
131.2701037427063
 31
0.0
  0
LINE
  5
BE9
330
18
100
AcDbEntity
  8
目盛
100
AcDbLine
 10
119.3352615370909
 20
133.3324118423247
 30
0.0
 11
121.1449156420228
 21
132.4808532591946
 31
0.0
  0
LINE
  5
BEA
330
18
100
AcDbEntity
  8
目盛
100
AcDbLine
 10
119.9912301028005
 20
134.6198226406675
 30
0.0
 11
121.7438434628882
 21
133.6563152924641
 31
0.0
  0
LINE
  5
BEB
330
18
100
AcDbEntity
  8
目盛
100
AcDbLine
 10
120.7267414572629
 20
135.863504420845
 30
0.0
 11
122.415397308267
 21
134.791850830887
 31
0.0
  0
LINE
  5
BEC
330
18
100
AcDbEntity
  8
目盛
100
AcDbLine
 10
128.6177915739664
 20
131.9154279814959
 30
0.0
 11
130.2358255627162
 21
130.7398574769109
 31
0.0
  0
TEXT
  5
BED
330
18
100
AcDbEntity
  8
文字
  6
Continuous
 62
     4
100
AcDbText
 10
128.140965828557
 20
135.3909474371096
 30
0.0
 40
1.0
  1
10
  7
STYLE3
100
AcDbText
  0
LINE
  5
BEE
330
18
100
AcDbEntity
  8
目盛
100
AcDbLine
 10
126.6272229410824
 20
142.1468790069519
 30
0.0
 11
128.3905786979599
 21
139.719828023827
 31
0.0
  0
LINE
  5
BEF
330
18
100
AcDbEntity
  8
針
100
AcDbLine
 10
140.1462837438092
 20
145.5394881363282
 30
0.0
 11
140.0562837438094
 21
145.5394881363281
 31
0.0
  0
LINE
  5
BF0
330
18
100
AcDbEntity
  8
針
100
AcDbLine
 10
140.1462837438093
 20
145.5394881363282
 30
0.0
 11
140.2362837438093
 21
145.5394881363281
 31
0.0
  0
LINE
  5
BF1
330
18
100
AcDbEntity
  8
目盛
100
AcDbLine
 10
123.3800053131168
 20
139.2840715726879
 30
0.0
 11
124.8379425679596
 21
137.9149773608305
 31
0.0
  0
LINE
  5
BF2
330
18
100
AcDbEntity
  8
目盛
100
AcDbLine
 10
124.4017003074495
 20
140.3057665670206
 30
0.0
 11
125.7707945193069
 21
138.8478293121778
 31
0.0
  0
LINE
  5
BF3
330
18
100
AcDbEntity
  8
目盛
100
AcDbLine
 10
125.4855319795895
 20
141.2612927201713
 30
0.0
 11
126.7603799590867
 21
139.7202662346197
 31
0.0
  0
TEXT
  5
BF4
330
18
100
AcDbEntity
  8
文字
100
AcDbText
 10
127.1537590800148
 20
136.9494631498849
 30
0.0
 40
2.5
  1
90
  7
STYLE3
100
AcDbText
  0
LINE
  5
BF5
330
18
100
AcDbEntity
  8
目盛
100
AcDbLine
 10
127.8222674592923
 20
142.9590304228744
 30
0.0
 11
128.8939210492503
 21
141.2703745718703
 31
0.0
  0
LINE
  5
BF6
330
18
100
AcDbEntity
  8
目盛
100
AcDbLine
 10
140.1462837438093
 20
146.5394881363281
 30
0.0
 11
140.1462837438093
 21
143.5394881363281
 31
0.0
  0
LINE
  5
BF7
330
18
100
AcDbEntity
  8
目盛
100
AcDbLine
 10
147.2536746144333
 20
145.4137880111165
 30
0.0
 11
146.3266236313084
 21
142.5606184622311
 31
0.0
  0
LINE
  5
BF8
330
18
100
AcDbEntity
  8
目盛
100
AcDbLine
 10
148.613148455557
 20
144.9243473117578
 30
0.0
 11
147.8768993501876
 21
143.0647943399813
 31
0.0
  0
LINE
  5
BF9
330
18
100
AcDbEntity
  8
目盛
100
AcDbLine
 10
149.9392074498062
 20
144.3505103430464
 30
0.0
 11
149.087648866676
 21
142.5408562381144
 31
0.0
  0
LINE
  5
BFA
330
18
100
AcDbEntity
  8
目盛
100
AcDbLine
 10
151.2266182481489
 20
143.6945417773368
 30
0.0
 11
150.2631108999454
 21
141.9419284172491
 31
0.0
  0
LINE
  5
BFB
330
18
100
AcDbEntity
  8
目盛
100
AcDbLine
 10
133.0388928731855
 20
145.4137880111166
 30
0.0
 11
133.9659438563103
 21
142.5606184622311
 31
0.0
  0
LINE
  5
BFC
102
{ACAD_REACTORS
330
B05
102
}
330
18
100
AcDbEntity
  8
ROGO
 62
     4
100
AcDbLine
 10
140.7987504029084
 20
129.5913669212341
 30
0.0
 11
142.1137867450143
 21
129.5913669212341
 31
0.0
  0
LINE
  5
BFD
330
18
100
AcDbEntity
  8
目盛
100
AcDbLine
 10
135.7427915739664
 20
137.092043493534
 30
0.0
 11
136.3608255627163
 21
135.1899304609437
 31
0.0
  0
LINE
  5
BFE
330
18
100
AcDbEntity
  8
目盛
100
AcDbLine
 10
140.1462837438093
 20
137.7894881363281
 30
0.0
 11
140.1462837438093
 21
135.7894881363281
 31
0.0
  0
TEXT
  5
BFF
330
18
100
AcDbEntity
  8
文字
100
AcDbText
 10
135.5313258206002
 20
133.3244542279706
 30
0.0
 40
1.5
  1
19
  7
STYLE3
100
AcDbText
  0
LINE
  5
C00
102
{ACAD_REACTORS
330
B06
102
}
330
18
100
AcDbEntity
  8
ROGO
 62
     4
100
AcDbLine
 10
136.0440299351582
 20
129.591366921234
 30
0.0
 11
137.8201130836422
 21
129.5913669212341
 31
0.0
  0
TEXT
  5
C01
330
18
100
AcDbEntity
  8
文字
100
AcDbText
 10
132.4130294468276
 20
131.7665214858302
 30
0.0
 40
1.5
  1
18
  7
STYLE3
100
AcDbText
  0
LINE
  5
C02
102
{ACAD_REACTORS
330
B02
102
}
330
18
100
AcDbEntity
  8
ROGO
 62
     4
100
AcDbLine
 10
133.4789076289675
 20
129.591366921234
 30
0.0
 11
135.0914059419527
 21
129.591366921234
 31
0.0
  0
TEXT
  5
C03
330
18
100
AcDbEntity
  8
文字
100
AcDbText
 10
139.4537540395238
 20
133.8812810935437
 30
0.0
 40
1.5
  1
0
  7
STYLE3
100
AcDbText
  0
LINE
  5
C04
102
{ACAD_REACTORS
330
B00
102
}
330
18
100
AcDbEntity
  8
ROGO
 62
     4
100
AcDbLine
 10
138.3346073488399
 20
129.591366921234
 30
0.0
 11
139.3850108316113
 21
129.5913669212341
 31
0.0
  0
LINE
  5
C05
330
18
100
AcDbEntity
  8
針
100
AcDbLine
 10
140.1462837438093
 20
138.039488136328
 30
0.0
 11
140.0462837438091
 21
138.0394881363281
 31
0.0
  0
LINE
  5
C06
330
18
100
AcDbEntity
  8
針
100
AcDbLine
 10
140.1462837438093
 20
138.039488136328
 30
0.0
 11
140.2462837438093
 21
138.0394881363281
 31
0.0
  0
TEXT
  5
C07
330
18
100
AcDbEntity
  8
文字
  6
Continuous
 62
     4
100
AcDbText
 10
139.6397082558308
 20
139.3168631925151
 30
0.0
 40
1.0
  1
0
  7
STYLE3
100
AcDbText
  0
TEXT
  5
C08
330
18
100
AcDbEntity
  8
文字
100
AcDbText
 10
138.9319732213604
 20
140.6600075308408
 30
0.0
 40
2.5
  1
0
  7
STYLE3
100
AcDbText
  0
LINE
  5
C09
330
18
100
AcDbEntity
  8
目盛
100
AcDbLine
 10
144.5497759136523
 20
137.0920434935339
 30
0.0
 11
143.9317419249024
 21
135.1899304609437
 31
0.0
  0
TEXT
  5
C0A
330
18
100
AcDbEntity
  8
文字
100
AcDbText
 10
145.8773356393736
 20
131.5967170601641
 30
0.0
 40
1.5
  1
2
  7
STYLE3
100
AcDbText
  0
TEXT
  5
C0B
330
18
100
AcDbEntity
  8
文字
100
AcDbText
 10
143.0214982162327
 20
133.1976313310262
 30
0.0
 40
1.5
  1
1
  7
STYLE3
100
AcDbText
  0
LINE
  5
C0C
102
{ACAD_REACTORS
330
AFD
102
}
330
18
100
AcDbEntity
  8
ROGO
 62
     4
100
AcDbLine
 10
142.843012065057
 20
129.5968441404064
 30
0.0
 11
143.5934658882424
 21
129.5968441404064
 31
0.0
  0
LINE
  5
C0D
102
{ACAD_REACTORS
330
B04
102
}
330
18
100
AcDbEntity
  8
ROGO
 62
     4
100
AcDbLine
 10
145.0298201738362
 20
129.591366921234
 30
0.0
 11
146.3448565159421
 21
129.591366921234
 31
0.0
  0
LINE
  5
C0E
330
18
100
AcDbEntity
  8
目盛
100
AcDbLine
 10
148.5222235889771
 20
135.067980306171
 30
0.0
 11
147.3466530843922
 21
133.4499463174211
 31
0.0
  0
LINE
  5
C0F
102
{ACAD_REACTORS
330
B03
102
}
330
18
100
AcDbEntity
  8
ROGO
 62
     4
100
AcDbLine
 10
147.6182751637263
 20
129.591366921234
 30
0.0
 11
148.3743423637263
 21
129.591366921234
 31
0.0
  0
LINE
  5
C10
102
{ACAD_REACTORS
330
B03
102
}
330
18
100
AcDbEntity
  8
ROGO
 62
     4
100
AcDbLine
 10
147.2642620806475
 20
129.3673435124124
 30
0.0
 11
147.6182751637263
 21
129.591366921234
 31
0.0
  0
LINE
  5
C11
102
{ACAD_REACTORS
330
B03
102
}
330
18
100
AcDbEntity
  8
ROGO
 62
     4
100
AcDbLine
 10
147.3759673875685
 20
129.591366921234
 30
0.0
 11
147.2642620806475
 21
129.3673435124124
 31
0.0
  0
LINE
  5
C12
102
{ACAD_REACTORS
330
B03
102
}
330
18
100
AcDbEntity
  8
ROGO
 62
     4
100
AcDbLine
 10
146.6198836450643
 20
129.591366921234
 30
0.0
 11
147.3759673875685
 21
129.591366921234
 31
0.0
  0
LINE
  5
C13
330
18
100
AcDbEntity
  8
目盛
100
AcDbLine
 10
134.4264163390177
 20
145.8169008422866
 30
0.0
 11
134.9237961133474
 21
143.8797345200293
 31
0.0
  0
LINE
  5
C14
330
18
100
AcDbEntity
  8
目盛
100
AcDbLine
 10
135.8365135083377
 20
146.1320949030879
 30
0.0
 11
136.2112761375091
 21
144.1675204016305
 31
0.0
  0
POINT
  5
C15
330
18
100
AcDbEntity
  8
DEFPOINTS
  6
ByBlock
 62
     0
100
AcDbPoint
 10
140.1462837438093
 20
146.5394881363281
 30
0.0
  0
LINE
  5
C16
330
18
100
AcDbEntity
  8
目盛
100
AcDbLine
 10
141.5904656929838
 20
146.4941028901783
 30
0.0
 11
141.4648846539251
 21
144.4980494333218
 31
0.0
  0
LINE
  5
C17
330
18
100
AcDbEntity
  8
目盛
100
AcDbLine
 10
137.2636193718304
 20
146.3581262665611
 30
0.0
 11
137.5142858389589
 21
144.3738968639321
 31
0.0
  0
LINE
  5
C18
330
18
100
AcDbEntity
  8
目盛
100
AcDbLine
 10
138.7021017946351
 20
146.4941028901783
 30
0.0
 11
138.8276828336937
 21
144.4980494333218
 31
0.0
  0
LINE
  5
C19
330
18
100
AcDbEntity
  8
目盛
100
AcDbLine
 10
143.0289481157886
 20
146.3581262665611
 30
0.0
 11
142.7782816486599
 21
144.3738968639321
 31
0.0
  0
LINE
  5
C1A
330
18
100
AcDbEntity
  8
目盛
100
AcDbLine
 10
144.4560539792811
 20
146.1320949030878
 30
0.0
 11
144.0812913501097
 21
144.1675204016305
 31
0.0
  0
LINE
  5
C1B
330
18
100
AcDbEntity
  8
目盛
100
AcDbLine
 10
145.8661511486011
 20
145.8169008422865
 30
0.0
 11
145.3687713742714
 21
143.8797345200292
 31
0.0
  0
LINE
  5
C1C
330
18
100
AcDbEntity
  8
目盛
100
AcDbLine
 10
160.9573059505278
 20
133.3324118423247
 30
0.0
 11
159.1476518455957
 21
132.4808532591946
 31
0.0
  0
LINE
  5
C1D
330
18
100
AcDbEntity
  8
目盛
100
AcDbLine
 10
161.531142919239
 20
132.0063528480756
 30
0.0
 11
159.6715899474625
 21
131.2701037427063
 31
0.0
  0
LINE
  5
C1E
330
18
100
AcDbEntity
  8
目盛
100
AcDbLine
 10
162.0205836185978
 20
130.6468790069518
 30
0.0
 11
159.1674140697123
 21
129.719828023827
 31
0.0
  0
LINE
  5
C1F
330
18
100
AcDbEntity
  8
目盛
100
AcDbLine
 10
158.753674614433
 20
137.0585489390549
 30
0.0
 11
156.3266236313083
 21
135.2951931821775
 31
0.0
  0
LINE
  5
C20
330
18
100
AcDbEntity
  8
目盛
100
AcDbLine
 10
159.5658260303557
 20
135.8635044208449
 30
0.0
 11
157.8771701793516
 21
134.791850830887
 31
0.0
  0
LINE
  5
C21
330
18
100
AcDbEntity
  8
目盛
100
AcDbLine
 10
160.3013373848182
 20
134.6198226406675
 30
0.0
 11
158.5487240247305
 21
133.656315292464
 31
0.0
  0
LINE
  5
C22
330
18
100
AcDbEntity
  8
目盛
100
AcDbLine
 10
156.9125621745017
 20
139.2840715726878
 30
0.0
 11
155.4546249196589
 21
137.9149773608305
 31
0.0
  0
LINE
  5
C23
330
18
100
AcDbEntity
  8
目盛
100
AcDbLine
 10
152.4703000283264
 20
142.9590304228744
 30
0.0
 11
151.3986464383683
 21
141.2703745718703
 31
0.0
  0
LINE
  5
C24
330
18
100
AcDbEntity
  8
目盛
100
AcDbLine
 10
153.6653445465363
 20
142.1468790069518
 30
0.0
 11
151.9019887896588
 21
139.719828023827
 31
0.0
  0
LINE
  5
C25
330
18
100
AcDbEntity
  8
目盛
100
AcDbLine
 10
154.8070355080292
 20
141.2612927201711
 30
0.0
 11
153.5321875285318
 21
139.7202662346196
 31
0.0
  0
LINE
  5
C26
330
18
100
AcDbEntity
  8
目盛
100
AcDbLine
 10
155.8908671801691
 20
140.3057665670205
 30
0.0
 11
154.5217729683117
 21
138.8478293121776
 31
0.0
  0
LINE
  5
C27
330
18
100
AcDbEntity
  8
目盛
100
AcDbLine
 10
157.8680883276524
 20
138.2002399005479
 30
0.0
 11
156.3270618421008
 21
136.9253919210505
 31
0.0
  0
LINE
  5
C29
330
18
100
AcDbEntity
  8
中心線
100
AcDbLine
 10
106.4030693529254
 20
123.539488136328
 30
0.0
 11
173.8894981346931
 21
123.539488136328
 31
0.0
  0
DIMENSION
  5
C41
330
18
100
AcDbEntity
  8
外形線
100
AcDbDimension
  2
*D15
 10
102.375449370206
 20
47.63948813632794
 30
0.0
 11
100.500449370206
 21
85.58948813632802
 31
0.0
 70
    32
 71
     5
 42
75.90000000000012
  3
STYLE3
100
AcDbAlignedDimension
 13
107.1742550102265
 23
123.539488136328
 33
0.0
 14
136.6462837438093
 24
47.63948813632794
 34
0.0
 50
90.0
100
AcDbRotatedDimension
1001
ACAD
1000
DSTYLE
1002
{
1070
   271
1070
     2
1002
}
  0
LINE
  5
D0E
330
18
100
AcDbEntity
  8
外形線
100
AcDbLine
 10
135.1462837438093
 20
46.13948813632794
 30
0.0
 11
135.1462837438093
 21
37.63948813632791
 31
0.0
  0
ARC
  5
D1A
330
18
100
AcDbEntity
  8
外形線
100
AcDbCircle
 10
136.6462837438093
 20
46.13948813632794
 30
0.0
 40
1.5
100
AcDbArc
 50
89.99999999999998
 51
180.0
  0
ARC
  5
D1B
330
18
100
AcDbEntity
  8
外形線
100
AcDbCircle
 10
136.6462837438093
 20
37.63948813632791
 30
0.0
 40
1.5
100
AcDbArc
 50
180.0
 51
270.0000000000001
  0
LINE
  5
D9F
330
18
100
AcDbEntity
  8
隠れ線2
 62
     1
100
AcDbLine
 10
136.1462837438093
 20
96.3319524155025
 30
0.0
 11
136.1462837438093
 21
83.03948813632807
 31
0.0
  0
LINE
  5
DA0
330
18
100
AcDbEntity
  8
隠れ線2
 62
     1
100
AcDbLine
 10
144.1462837438093
 20
96.3319524155025
 30
0.0
 11
144.1462837438093
 21
83.03948813632812
 31
0.0
  0
LINE
  5
DA2
330
18
100
AcDbEntity
  8
外形線
100
AcDbLine
 10
136.5462837438093
 20
80.53948813632807
 30
0.0
 11
143.7462837438093
 21
80.53948813632812
 31
0.0
  0
LINE
  5
DA3
330
18
100
AcDbEntity
  8
隠れ線2
 62
     1
100
AcDbLine
 10
136.1462837438093
 20
83.03948813632807
 30
0.0
 11
144.1462837438093
 21
83.03948813632812
 31
0.0
  0
LINE
  5
DA4
330
18
100
AcDbEntity
  8
外形線
100
AcDbLine
 10
136.7462837438093
 20
78.53948813632806
 30
0.0
 11
143.5462837438093
 21
78.53948813632806
 31
0.0
  0
LINE
  5
DA5
330
18
100
AcDbEntity
  8
外形線
100
AcDbLine
 10
136.5462837438093
 20
80.53948813632811
 30
0.0
 11
136.5462837438093
 21
79.93948813632804
 31
0.0
  0
LINE
  5
DA6
330
18
100
AcDbEntity
  8
外形線
100
AcDbLine
 10
136.5462837438093
 20
78.73948813632805
 30
0.0
 11
136.7462837438093
 21
78.53948813632806
 31
0.0
  0
ARC
  5
DA7
330
18
100
AcDbEntity
  8
外形線
100
AcDbCircle
 10
136.4212837438093
 20
81.03948813632809
 30
0.0
 40
0.5153882032022076
100
AcDbArc
 50
284.0362434679264
 51
104.0362434679264
  0
LINE
  5
DA8
330
18
100
AcDbEntity
  8
隠れ線2
 62
     1
100
AcDbLine
 10
136.2962837438093
 20
83.03948813632811
 30
0.0
 11
136.2962837438093
 21
81.5394881363281
 31
0.0
  0
LINE
  5
DA9
330
18
100
AcDbEntity
  8
外形線
100
AcDbLine
 10
143.7462837438093
 20
78.73948813632805
 30
0.0
 11
143.7462837438093
 21
80.53948813632811
 31
0.0
  0
LINE
  5
DAA
330
18
100
AcDbEntity
  8
外形線
100
AcDbLine
 10
143.7462837438093
 20
78.73948813632805
 30
0.0
 11
143.5462837438093
 21
78.53948813632806
 31
0.0
  0
ARC
  5
DAB
330
18
100
AcDbEntity
  8
外形線
100
AcDbCircle
 10
143.8712837438093
 20
81.03948813632809
 30
0.0
 40
0.5153882032022076
100
AcDbArc
 50
75.96375653207353
 51
255.9637565320735
  0
LINE
  5
DAC
330
18
100
AcDbEntity
  8
隠れ線2
 62
     1
100
AcDbLine
 10
143.9962837438093
 20
83.03948813632811
 30
0.0
 11
143.9962837438093
 21
81.5394881363281
 31
0.0
  0
POINT
  5
DB1
330
18
100
AcDbEntity
  8
隠れ線2
 62
     1
100
AcDbPoint
 10
136.1462837438093
 20
89.42195755463037
 30
0.0
  0
POINT
  5
DB5
330
18
100
AcDbEntity
  8
隠れ線2
 62
     1
100
AcDbPoint
 10
144.1462837438093
 20
89.98926043189909
 30
0.0
  0
POINT
  5
DB6
330
18
100
AcDbEntity
  8
隠れ線2
 62
     1
100
AcDbPoint
 10
144.1462837438093
 20
89.25987121328468
 30
0.0
  0
DIMENSION
  5
E18
330
18
100
AcDbEntity
  8
外形線
100
AcDbDimension
  2
*D18
 10
173.1462837438093
 20
69.3143066014079
 30
0.0
 11
156.6462837438093
 21
71.1893066014079
 31
0.0
 70
    32
 71
     5
 42
33.0
  3
STYLE3
100
AcDbAlignedDimension
 13
140.1462837438093
 23
66.75287728568924
 33
0.0
 14
173.1462837438093
 24
64.19144796997063
 34
0.0
100
AcDbRotatedDimension
1001
ACAD
1000
DSTYLE
1002
{
1070
   271
1070
     2
1002
}
  0
LINE
  5
11F9
330
18
100
AcDbEntity
  8
外形線
100
AcDbLine
 10
136.5462837438093
 20
78.73948813632805
 30
0.0
 11
136.5462837438093
 21
80.33948813632813
 31
0.0
  0
LINE
  5
13BE
330
18
100
AcDbEntity
  8
外形線
100
AcDbLine
 10
135.1462837438093
 20
52.13948813632794
 30
0.0
 11
145.1462837438093
 21
52.13948813632794
 31
0.0
  0
LINE
  5
13BF
330
18
100
AcDbEntity
  8
外形線
100
AcDbLine
 10
136.1462837438093
 20
49.13948813632794
 30
0.0
 11
144.1462837438093
 21
49.13948813632794
 31
0.0
  0
LINE
  5
13C0
330
18
100
AcDbEntity
  8
外形線
100
AcDbLine
 10
145.1462837438093
 20
52.13948813632794
 30
0.0
 11
145.1462837438093
 21
50.13948813632794
 31
0.0
  0
LINE
  5
13C1
330
18
100
AcDbEntity
  8
外形線
100
AcDbLine
 10
135.1462837438093
 20
52.13948813632794
 30
0.0
 11
135.1462837438093
 21
50.13948813632794
 31
0.0
  0
LINE
  5
13C2
330
18
100
AcDbEntity
  8
外形線
100
AcDbLine
 10
135.1462837438093
 20
50.13948813632794
 30
0.0
 11
136.1462837438093
 21
49.13948813632794
 31
0.0
  0
LINE
  5
13C3
330
18
100
AcDbEntity
  8
外形線
 48
0.5
100
AcDbLine
 10
144.1462837438093
 20
49.13948813632794
 30
0.0
 11
145.1462837438093
 21
50.13948813632794
 31
0.0
  0
LINE
  5
13C4
330
18
100
AcDbEntity
  8
外形線
100
AcDbLine
 10
135.1462837438093
 20
50.13948813632794
 30
0.0
 11
145.1462837438093
 21
50.13948813632794
 31
0.0
  0
LINE
  5
13C5
330
18
100
AcDbEntity
  8
外形線
100
AcDbLine
 10
135.1462837438093
 20
54.13948813632794
 30
0.0
 11
145.1462837438093
 21
54.13948813632794
 31
0.0
  0
LINE
  5
13C6
330
18
100
AcDbEntity
  8
外形線
 48
0.5
100
AcDbLine
 10
144.1462837438093
 20
55.13948813632794
 30
0.0
 11
145.1462837438093
 21
54.13948813632794
 31
0.0
  0
LINE
  5
13C7
330
18
100
AcDbEntity
  8
外形線
100
AcDbLine
 10
145.1462837438093
 20
52.13948813632794
 30
0.0
 11
145.1462837438093
 21
54.13948813632794
 31
0.0
  0
LINE
  5
13C8
330
18
100
AcDbEntity
  8
外形線
100
AcDbLine
 10
135.1462837438093
 20
52.13948813632794
 30
0.0
 11
135.1462837438093
 21
54.13948813632794
 31
0.0
  0
LINE
  5
13C9
330
18
100
AcDbEntity
  8
外形線
100
AcDbLine
 10
135.1462837438093
 20
54.13948813632794
 30
0.0
 11
136.1462837438093
 21
55.13948813632794
 31
0.0
  0
LINE
  5
13CA
330
18
100
AcDbEntity
  8
外形線
100
AcDbLine
 10
136.1462837438093
 20
55.13948813632794
 30
0.0
 11
144.1462837438093
 21
55.13948813632794
 31
0.0
  0
LINE
  5
13CB
330
18
100
AcDbEntity
  8
外形線
100
AcDbLine
 10
137.1462837438093
 20
55.13948813632794
 30
0.0
 11
143.1462837438093
 21
55.13948813632794
 31
0.0
  0
LINE
  5
13CC
330
18
100
AcDbEntity
  8
外形線
100
AcDbLine
 10
137.4462837438093
 20
57.63948813632805
 30
0.0
 11
142.8462837438093
 21
57.63948813632808
 31
0.0
  0
LINE
  5
13CD
330
18
100
AcDbEntity
  8
外形線
100
AcDbLine
 10
143.1462837438093
 20
57.3394881363281
 30
0.0
 11
143.1462837438093
 21
55.43948813632809
 31
0.0
  0
LINE
  5
13CE
330
18
100
AcDbEntity
  8
外形線
100
AcDbLine
 10
137.1462837438093
 20
57.33948813632807
 30
0.0
 11
137.1462837438093
 21
55.43948813632806
 31
0.0
  0
LINE
  5
13CF
330
18
100
AcDbEntity
  8
外形線
100
AcDbLine
 10
137.1462837438093
 20
57.33948813632807
 30
0.0
 11
137.4462837438093
 21
57.63948813632805
 31
0.0
  0
LINE
  5
13D0
330
18
100
AcDbEntity
  8
外形線
 48
0.5
100
AcDbLine
 10
142.8462837438093
 20
57.63948813632808
 30
0.0
 11
143.1462837438093
 21
57.3394881363281
 31
0.0
  0
POINT
  5
13D1
330
18
100
AcDbEntity
  8
DEFPOINTS
  6
ByBlock
 62
     0
100
AcDbPoint
 10
135.1462837438093
 20
52.13948813632794
 30
0.0
  0
POINT
  5
13D2
330
18
100
AcDbEntity
  8
DEFPOINTS
  6
ByBlock
 62
     0
100
AcDbPoint
 10
135.1462837438093
 20
52.13948813632794
 30
0.0
  0
POINT
  5
13D3
330
18
100
AcDbEntity
  8
DEFPOINTS
  6
ByBlock
 62
     0
100
AcDbPoint
 10
135.1462837438093
 20
54.13948813632794
 30
0.0
  0
POINT
  5
13D4
330
18
100
AcDbEntity
  8
DEFPOINTS
  6
ByBlock
 62
     0
100
AcDbPoint
 10
145.1462837438093
 20
54.13948813632794
 30
0.0
  0
LINE
  5
13DF
330
18
100
AcDbEntity
  8
外形線
100
AcDbLine
 10
137.1462837438093
 20
49.13948813632794
 30
0.0
 11
137.1462837438093
 21
48.63948813632794
 31
0.0
  0
LINE
  5
13E0
330
18
100
AcDbEntity
  8
外形線
100
AcDbLine
 10
143.1462837438093
 20
49.13948813632794
 30
0.0
 11
143.1462837438093
 21
48.63948813632794
 31
0.0
  0
DIMENSION
  5
13F5
330
18
100
AcDbEntity
  8
寸法線
100
AcDbDimension
  2
*D20
 10
113.2516216186418
 20
47.63948813632794
 30
0.0
 11
111.3766216186418
 21
65.13948813632797
 31
0.0
 70
    32
 71
     5
 42
34.99999999999999
  3
STYLE3
100
AcDbAlignedDimension
 13
134.7757574577528
 23
82.63948813632792
 33
0.0
 14
137.7185933119331
 24
47.63948813632794
 34
0.0
 50
90.0
100
AcDbRotatedDimension
1001
ACAD
1000
DSTYLE
1002
{
1070
   271
1070
     2
1070
   341
1005
0
1002
}
  0
DIMENSION
  5
1402
330
18
100
AcDbEntity
  8
寸法線
100
AcDbDimension
  2
*D21
 10
128.7307532647779
 20
52.13948813632794
 30
0.0
 11
126.8557532647779
 21
60.38353575537558
 31
0.0
 70
    32
 71
     5
 42
4.5
  3
STYLE3
100
AcDbAlignedDimension
 13
133.8009213304877
 23
47.63948813632794
 33
0.0
 14
135.1462837438093
 24
52.13948813632794
 34
0.0
 50
90.0
100
AcDbRotatedDimension
1001
ACAD
1000
DSTYLE
1002
{
1070
   271
1070
     2
1070
   341
1005
0
1002
}
  0
DIMENSION
  5
1439
330
18
100
AcDbEntity
  8
寸法線
100
AcDbDimension
  2
*D22
 10
145.1462837438093
 20
61.90484161513342
 30
0.0
 11
151.4260456485712
 21
61.90484161513342
 31
0.0
 70
   160
  1
%%C<>
 71
     5
 42
9.999999999999971
  3
STYLE3
100
AcDbAlignedDimension
 13
135.1462837438093
 23
53.13948813632794
 33
0.0
 14
145.1462837438093
 24
53.13948813632794
 34
0.0
100
AcDbRotatedDimension
1001
ACAD
1000
DSTYLE
1002
{
1070
   271
1070
     2
1070
   341
1005
0
1002
}
  0
LINE
  5
1D1B
330
18
100
AcDbEntity
  8
中心線
100
AcDbLine
 10
58.55884209521946
 20
86.63948813632794
 30
0.0
 11
66.03447887510265
 21
86.63948813632794
 31
0.0
  0
LINE
  5
1D1C
330
18
100
AcDbEntity
  8
中心線
100
AcDbLine
 10
58.67755453606759
 20
94.63948813632793
 30
0.0
 11
65.91623523396475
 21
94.63948813632795
 31
0.0
  0
LINE
  5
20DC
330
18
100
AcDbEntity
  8
外形線
100
AcDbLine
 10
68.29689488501616
 20
97.73948813632786
 30
0.0
 11
68.29689488501614
 21
44.13948813632795
 31
0.0
  0
LINE
  5
20DE
330
18
100
AcDbEntity
  8
外形線
100
AcDbLine
 10
56.29689488501616
 20
99.03948813632807
 30
0.0
 11
56.29689488501615
 21
44.13948813632795
 31
0.0
  0
LINE
  5
20E0
330
18
100
AcDbEntity
  8
外形線
100
AcDbLine
 10
67.19689488501621
 20
98.13948813632798
 30
0.0
 11
56.29689488501617
 21
98.13948813632798
 31
0.0
  0
LINE
  5
20E1
330
18
100
AcDbEntity
  8
外形線
100
AcDbLine
 10
68.29689488501617
 20
82.63948813632795
 30
0.0
 11
56.29689488501617
 21
82.63948813632795
 31
0.0
  0
LINE
  5
277C
330
18
100
AcDbEntity
  8
外形線
100
AcDbLine
 10
136.6462837438093
 20
48.63948813632794
 30
0.0
 11
143.6462837438093
 21
48.63948813632793
 31
0.0
  0
LINE
  5
277D
330
18
100
AcDbEntity
  8
外形線
100
AcDbLine
 10
136.6462837438093
 20
48.63948813632794
 30
0.0
 11
136.6462837438093
 21
47.63948813632794
 31
0.0
  0
LINE
  5
277E
330
18
100
AcDbEntity
  8
外形線
100
AcDbLine
 10
143.6462837438093
 20
48.63948813632794
 30
0.0
 11
143.6462837438093
 21
47.63948813632794
 31
0.0
  0
LINE
  5
278E
330
18
100
AcDbEntity
  8
外形線
100
AcDbLine
 10
137.1462837438093
 20
55.43948813632806
 30
0.0
 11
143.1462837438093
 21
55.43948813632809
 31
0.0
  0
LINE
  5
2790
330
18
100
AcDbEntity
  8
外形線
100
AcDbLine
 10
137.2962837438093
 20
55.43948813632807
 30
0.0
 11
137.2962837438093
 21
55.13948813632794
 31
0.0
  0
LINE
  5
2791
330
18
100
AcDbEntity
  8
外形線
100
AcDbLine
 10
142.9962837438093
 20
55.43948813632807
 30
0.0
 11
142.9962837438093
 21
55.13948813632794
 31
0.0
  0
LINE
  5
2792
330
18
100
AcDbEntity
  8
外形線
100
AcDbLine
 10
137.1462837438093
 20
57.33948813632807
 30
0.0
 11
143.1462837438093
 21
57.3394881363281
 31
0.0
  0
ARC
  5
2A28
330
18
100
AcDbEntity
  8
外形線
  6
Continuous
100
AcDbCircle
 10
-26.86977178165018
 20
123.5394881363282
 30
0.0
 40
105.6666666666664
100
AcDbArc
 50
346.3144531747373
 51
13.68554682526278
  0
LINE
  5
2A29
330
18
100
AcDbEntity
  8
外形線
  6
Continuous
100
AcDbLine
 10
55.79689488501623
 20
148.039488136328
 30
0.0
 11
55.79689488501623
 21
99.03948813632807
 31
0.0
  0
LINE
  5
2A2A
330
18
100
AcDbEntity
  8
中心線
 48
0.5
100
AcDbLine
 10
62.29689488501622
 20
171.0823360114403
 30
0.0
 11
62.29689488501606
 21
30.59426277604183
 31
0.0
  0
LINE
  5
2A2B
330
18
100
AcDbEntity
  8
外形線
100
AcDbLine
 10
67.19689488501614
 20
99.03948813632807
 30
0.0
 11
55.79689488501617
 21
99.03948813632807
 31
0.0
  0
LINE
  5
2A2C
330
18
100
AcDbEntity
  8
外形線
100
AcDbLine
 10
67.19689488501621
 20
148.039488136328
 30
0.0
 11
55.79689488501617
 21
148.039488136328
 31
0.0
  0
LINE
  5
2A2D
330
18
100
AcDbEntity
  8
外形線
100
AcDbLine
 10
60.29689488501623
 20
78.53948813632806
 30
0.0
 11
60.29689488501622
 21
57.63948813632805
 31
0.0
  0
LINE
  5
2A2E
330
18
100
AcDbEntity
  8
外形線
100
AcDbLine
 10
64.29689488501612
 20
78.53948813632806
 30
0.0
 11
64.29689488501612
 21
57.63948813632808
 31
0.0
  0
LINE
  5
2A3D
330
18
100
AcDbEntity
  8
外形線
100
AcDbLine
 10
58.29689488501617
 20
99.03948813632794
 30
0.0
 11
58.29689488501617
 21
98.13948813632798
 31
0.0
  0
LINE
  5
2A3E
330
18
100
AcDbEntity
  8
外形線
100
AcDbLine
 10
66.296894885016
 20
99.03948813632807
 30
0.0
 11
66.296894885016
 21
98.13948813632798
 31
0.0
  0
LINE
  5
2A3F
330
18
100
AcDbEntity
  8
外形線
100
AcDbLine
 10
65.89689488501614
 20
80.53948813632805
 30
0.0
 11
65.89689488501614
 21
78.73948813632799
 31
0.0
  0
LINE
  5
2A40
330
18
100
AcDbEntity
  8
外形線
100
AcDbLine
 10
58.69689488501609
 20
78.73948813632799
 30
0.0
 11
58.69689488501609
 21
80.53948813632805
 31
0.0
  0
LINE
  5
2A41
330
18
100
AcDbEntity
  8
外形線
100
AcDbLine
 10
65.69689488501615
 20
78.53948813632801
 30
0.0
 11
58.89689488501608
 21
78.53948813632801
 31
0.0
  0
LINE
  5
2A42
330
18
100
AcDbEntity
  8
外形線
100
AcDbLine
 10
65.89689488501614
 20
78.73948813632799
 30
0.0
 11
65.69689488501615
 21
78.53948813632801
 31
0.0
  0
LINE
  5
2A43
330
18
100
AcDbEntity
  8
外形線
100
AcDbLine
 10
58.69689488501609
 20
78.73948813632799
 30
0.0
 11
58.89689488501608
 21
78.53948813632801
 31
0.0
  0
LINE
  5
2A44
330
18
100
AcDbEntity
  8
外形線
100
AcDbLine
 10
66.14689488501614
 20
81.53948813632807
 30
0.0
 11
58.44689488501609
 21
81.53948813632807
 31
0.0
  0
LINE
  5
2A45
330
18
100
AcDbEntity
  8
外形線
100
AcDbLine
 10
65.89689488501608
 20
80.539488136328
 30
0.0
 11
58.69689488501609
 21
80.53948813632805
 31
0.0
  0
LINE
  5
2A46
330
18
100
AcDbEntity
  8
隠れ線2
100
AcDbLine
 10
66.29689488501611
 20
83.039488136328
 30
0.0
 11
58.29689488501611
 21
83.03948813632805
 31
0.0
  0
ARC
  5
2A47
330
18
100
AcDbEntity
  8
外形線
100
AcDbCircle
 10
66.02189488501614
 20
81.03948813632806
 30
0.0
 40
0.5153882032022076
100
AcDbArc
 50
75.96375653207315
 51
255.9637565320731
  0
LINE
  5
2A48
330
18
100
AcDbEntity
  8
隠れ線2
100
AcDbLine
 10
66.14689488501614
 20
83.03948813632805
 30
0.0
 11
66.14689488501614
 21
82.63948813632795
 31
0.0
  0
ARC
  5
2A49
330
18
100
AcDbEntity
  8
外形線
100
AcDbCircle
 10
58.57189488501609
 20
81.03948813632806
 30
0.0
 40
0.5153882032022076
100
AcDbArc
 50
284.0362434679268
 51
104.0362434679268
  0
LINE
  5
2A4A
330
18
100
AcDbEntity
  8
隠れ線2
100
AcDbLine
 10
58.44689488501609
 20
83.03948813632805
 30
0.0
 11
58.44689488501609
 21
82.63948813632795
 31
0.0
  0
LINE
  5
2A4B
330
18
100
AcDbEntity
  8
中心線
 48
0.5
100
AcDbLine
 10
80.27359463097013
 20
123.539488136328
 30
0.0
 11
50.1490217252998
 21
123.539488136328
 31
0.0
  0
POINT
  5
2A4D
330
18
100
AcDbEntity
  8
隠れ線2
  6
ByBlock
 62
     0
100
AcDbPoint
 10
66.29689488501611
 20
83.039488136328
 30
0.0
  0
POINT
  5
2A4E
330
18
100
AcDbEntity
  8
DEFPOINTS
  6
ByBlock
 62
     0
100
AcDbPoint
 10
65.69689488501615
 20
78.53948813632801
 30
0.0
  0
POINT
  5
2A4F
330
18
100
AcDbEntity
  8
DEFPOINTS
  6
ByBlock
 62
     0
100
AcDbPoint
 10
76.79689488501622
 20
123.539488136328
 30
0.0
  0
LINE
  5
2A51
330
18
100
AcDbEntity
  8
外形線
100
AcDbLine
 10
74.54689488501623
 20
151.0394881363281
 30
0.0
 11
71.24689488501616
 21
151.0394881363281
 31
0.0
  0
LINE
  5
2A52
330
18
100
AcDbEntity
  8
外形線
100
AcDbLine
 10
75.79689488501623
 20
149.0394881363281
 30
0.0
 11
75.79689488501623
 21
98.03948813632784
 31
0.0
  0
LINE
  5
2A53
330
18
100
AcDbEntity
  8
外形線
100
AcDbLine
 10
74.79689488501623
 20
150.7894881363282
 30
0.0
 11
74.79689488501628
 21
149.5894881363282
 31
0.0
  0
LINE
  5
2A54
330
18
100
AcDbEntity
  8
外形線
100
AcDbLine
 10
75.79689488501623
 20
149.0394881363281
 30
0.0
 11
74.79689488501634
 21
149.5894881363282
 31
0.0
  0
LINE
  5
2A55
330
18
100
AcDbEntity
  8
外形線
 48
0.5
100
AcDbLine
 10
74.79689488501623
 20
150.7894881363282
 30
0.0
 11
74.54689488501623
 21
151.0394881363281
 31
0.0
  0
LINE
  5
2A56
330
18
100
AcDbEntity
  8
外形線
100
AcDbLine
 10
70.99689488501621
 20
150.7894881363282
 30
0.0
 11
70.99689488501621
 21
149.3394881363281
 31
0.0
  0
LINE
  5
2A57
330
18
100
AcDbEntity
  8
外形線
 48
0.5
100
AcDbLine
 10
70.99689488501616
 20
150.7894881363282
 30
0.0
 11
71.24689488501616
 21
151.0394881363281
 31
0.0
  0
LINE
  5
2A58
330
18
100
AcDbEntity
  8
外形線
100
AcDbLine
 10
70.99689488501621
 20
149.3394881363281
 30
0.0
 11
67.4468948850162
 21
149.3394881363281
 31
0.0
  0
LINE
  5
2A59
330
18
100
AcDbEntity
  8
外形線
100
AcDbLine
 10
67.19689488501621
 20
149.0894881363281
 30
0.0
 11
67.19689488501621
 21
97.98948813632788
 31
0.0
  0
LINE
  5
2A5A
330
18
100
AcDbEntity
  8
外形線
100
AcDbLine
 10
67.4468948850162
 20
149.3394881363281
 30
0.0
 11
67.19689488501621
 21
149.0894881363281
 31
0.0
  0
LINE
  5
2A5B
330
18
100
AcDbEntity
  8
外形線
100
AcDbLine
 10
74.54689488501623
 20
96.03948813632783
 30
0.0
 11
71.24689488501616
 21
96.03948813632783
 31
0.0
  0
LINE
  5
2A5C
330
18
100
AcDbEntity
  8
外形線
 48
0.5
100
AcDbLine
 10
74.79689488501623
 20
96.28948813632783
 30
0.0
 11
74.54689488501623
 21
96.03948813632783
 31
0.0
  0
LINE
  5
2A5D
330
18
100
AcDbEntity
  8
外形線
100
AcDbLine
 10
75.79689488501623
 20
98.03948813632784
 30
0.0
 11
74.79689488501634
 21
97.48948813632777
 31
0.0
  0
LINE
  5
2A5E
330
18
100
AcDbEntity
  8
外形線
100
AcDbLine
 10
74.79689488501623
 20
96.28948813632783
 30
0.0
 11
74.79689488501623
 21
96.78948813632784
 31
0.0
  0
LINE
  5
2A5F
330
18
100
AcDbEntity
  8
外形線
 48
0.5
100
AcDbLine
 10
70.99689488501616
 20
96.28948813632783
 30
0.0
 11
71.24689488501616
 21
96.03948813632783
 31
0.0
  0
LINE
  5
2A60
330
18
100
AcDbEntity
  8
外形線
100
AcDbLine
 10
70.99689488501621
 20
96.28948813632783
 30
0.0
 11
70.99689488501621
 21
96.78948813632784
 31
0.0
  0
LINE
  5
2A61
330
18
100
AcDbEntity
  8
外形線
100
AcDbLine
 10
70.99689488501616
 20
97.73948813632788
 30
0.0
 11
67.4468948850162
 21
97.73948813632788
 31
0.0
  0
LINE
  5
2A62
330
18
100
AcDbEntity
  8
外形線
100
AcDbLine
 10
67.4468948850162
 20
97.73948813632788
 30
0.0
 11
67.19689488501621
 21
97.98948813632788
 31
0.0
  0
LINE
  5
2A63
330
18
100
AcDbEntity
  8
外形線
100
AcDbLine
 10
74.79689488501634
 20
149.5894881363282
 30
0.0
 11
74.79689488501634
 21
96.78948813632771
 31
0.0
  0
LINE
  5
2A64
330
18
100
AcDbEntity
  8
外形線
100
AcDbLine
 10
70.99689488501621
 20
149.3394881363281
 30
0.0
 11
70.99689488501616
 21
96.78948813632784
 31
0.0
  0
LINE
  5
2A65
330
18
100
AcDbEntity
  8
外形線
100
AcDbLine
 10
74.54689488501623
 20
151.0394881363281
 30
0.0
 11
74.54689488501634
 21
96.03948813632783
 31
0.0
  0
LINE
  5
2A66
330
18
100
AcDbEntity
  8
外形線
100
AcDbLine
 10
71.24689488501616
 20
151.0394881363281
 30
0.0
 11
71.24689488501622
 21
96.03948813632783
 31
0.0
  0
LINE
  5
2A67
330
18
100
AcDbEntity
  8
外形線
 62
     4
100
AcDbLine
 10
74.54689488501623
 20
150.1394881363282
 30
0.0
 11
71.24689488501616
 21
150.1394881363282
 31
0.0
  0
LINE
  5
2A68
330
18
100
AcDbEntity
  8
外形線
 62
     4
100
AcDbLine
 10
74.54689488501623
 20
149.2394881363282
 30
0.0
 11
71.24689488501616
 21
149.2394881363282
 31
0.0
  0
LINE
  5
2A69
330
18
100
AcDbEntity
  8
外形線
 62
     4
100
AcDbLine
 10
74.54689488501623
 20
148.2394881363282
 30
0.0
 11
71.24689488501616
 21
148.2394881363282
 31
0.0
  0
LINE
  5
2A6A
330
18
100
AcDbEntity
  8
外形線
 62
     4
100
AcDbLine
 10
74.54689488501623
 20
147.0394881363283
 30
0.0
 11
71.24689488501616
 21
147.0394881363283
 31
0.0
  0
LINE
  5
2A6B
330
18
100
AcDbEntity
  8
外形線
 62
     4
100
AcDbLine
 10
74.54689488501623
 20
145.7394881363282
 30
0.0
 11
71.24689488501616
 21
145.7394881363282
 31
0.0
  0
LINE
  5
2A6C
330
18
100
AcDbEntity
  8
外形線
 62
     4
100
AcDbLine
 10
74.54689488501623
 20
101.3394881363278
 30
0.0
 11
71.24689488501616
 21
101.3394881363278
 31
0.0
  0
LINE
  5
2A6D
330
18
100
AcDbEntity
  8
外形線
 62
     4
100
AcDbLine
 10
74.54689488501623
 20
100.0394881363278
 30
0.0
 11
71.24689488501616
 21
100.0394881363278
 31
0.0
  0
LINE
  5
2A6E
330
18
100
AcDbEntity
  8
外形線
 62
     4
100
AcDbLine
 10
74.54689488501623
 20
98.83948813632779
 30
0.0
 11
71.24689488501616
 21
98.83948813632779
 31
0.0
  0
LINE
  5
2A6F
330
18
100
AcDbEntity
  8
外形線
 62
     4
100
AcDbLine
 10
74.54689488501623
 20
97.83948813632779
 30
0.0
 11
71.24689488501616
 21
97.83948813632779
 31
0.0
  0
LINE
  5
2A70
330
18
100
AcDbEntity
  8
外形線
 62
     4
100
AcDbLine
 10
74.54689488501623
 20
96.93948813632781
 30
0.0
 11
71.24689488501616
 21
96.93948813632781
 31
0.0
  0
LINE
  5
2A71
330
18
100
AcDbEntity
  8
外形線
 62
     4
100
AcDbLine
 10
74.54689488501628
 20
123.539488136328
 30
0.0
 11
71.24689488501622
 21
123.539488136328
 31
0.0
  0
LINE
  5
2A72
330
18
100
AcDbEntity
  8
外形線
 62
     4
100
AcDbLine
 10
74.54689488501628
 20
124.839488136328
 30
0.0
 11
71.24689488501622
 21
124.839488136328
 31
0.0
  0
LINE
  5
2A73
330
18
100
AcDbEntity
  8
外形線
 62
     4
100
AcDbLine
 10
74.54689488501628
 20
122.239488136328
 30
0.0
 11
71.24689488501622
 21
122.239488136328
 31
0.0
  0
LINE
  5
2A74
330
18
100
AcDbEntity
  8
外形線
 62
     4
100
AcDbLine
 10
74.54689488501628
 20
125.939488136328
 30
0.0
 11
71.24689488501622
 21
125.939488136328
 31
0.0
  0
LINE
  5
2A75
330
18
100
AcDbEntity
  8
外形線
 62
     4
100
AcDbLine
 10
74.54689488501628
 20
121.1394881363279
 30
0.0
 11
71.24689488501622
 21
121.1394881363279
 31
0.0
  0
LINE
  5
2A76
330
18
100
AcDbEntity
  8
外形線
 62
     4
100
AcDbLine
 10
74.54689488501628
 20
126.939488136328
 30
0.0
 11
71.24689488501622
 21
126.939488136328
 31
0.0
  0
LINE
  5
2A77
330
18
100
AcDbEntity
  8
外形線
 62
     4
100
AcDbLine
 10
74.54689488501628
 20
120.1394881363279
 30
0.0
 11
71.24689488501622
 21
120.1394881363279
 31
0.0
  0
POINT
  5
2A7D
330
18
100
AcDbEntity
  8
DEFPOINTS
  6
ByBlock
 62
     0
100
AcDbPoint
 10
74.54689488501623
 20
151.0394881363281
 30
0.0
  0
POINT
  5
2A7E
330
18
100
AcDbEntity
  8
DEFPOINTS
  6
ByBlock
 62
     0
100
AcDbPoint
 10
74.54689488501623
 20
96.03948813632783
 30
0.0
  0
POINT
  5
2A85
330
18
100
AcDbEntity
  8
DEFPOINTS
  6
ByBlock
 62
     0
100
AcDbPoint
 10
78.79689488501623
 20
123.5394881363282
 30
0.0
  0
POINT
  5
2A88
330
18
100
AcDbEntity
  8
DEFPOINTS
  6
ByBlock
 62
     0
100
AcDbPoint
 10
65.69689488501615
 20
78.53948813632801
 30
0.0
  0
POINT
  5
2A9E
330
18
100
AcDbEntity
  8
隠れ線2
  6
ByBlock
 62
     0
100
AcDbPoint
 10
66.14689488501614
 20
83.03948813632805
 30
0.0
  0
POINT
  5
2AA0
330
18
100
AcDbEntity
  8
DEFPOINTS
  6
ByBlock
 62
     0
100
AcDbPoint
 10
74.54689488501623
 20
96.03948813632783
 30
0.0
  0
POINT
  5
2AA1
330
18
100
AcDbEntity
  8
DEFPOINTS
  6
ByBlock
 62
     0
100
AcDbPoint
 10
65.69689488501615
 20
78.53948813632801
 30
0.0
  0
POINT
  5
2AA2
330
18
100
AcDbEntity
  8
DEFPOINTS
  6
ByBlock
 62
     0
100
AcDbPoint
 10
54.69689488501638
 20
146.539488136328
 30
0.0
  0
POINT
  5
2AA3
330
18
100
AcDbEntity
  8
DEFPOINTS
  6
ByBlock
 62
     0
100
AcDbPoint
 10
54.69689488501638
 20
146.539488136328
 30
0.0
  0
LINE
  5
2AA4
330
18
100
AcDbEntity
  8
外形線
100
AcDbLine
 10
55.79689488501628
 20
146.539488136328
 30
0.0
 11
54.69689488501638
 21
146.539488136328
 31
0.0
  0
LINE
  5
2AA5
330
18
100
AcDbEntity
  8
外形線
100
AcDbLine
 10
54.69689488501638
 20
146.539488136328
 30
0.0
 11
54.69689488501638
 21
100.539488136328
 31
0.0
  0
LINE
  5
2AA6
330
18
100
AcDbEntity
  8
外形線
100
AcDbLine
 10
55.79689488501623
 20
100.539488136328
 30
0.0
 11
54.69689488501638
 21
100.539488136328
 31
0.0
  0
POINT
  5
2AAD
330
18
100
AcDbEntity
  8
DEFPOINTS
  6
ByBlock
 62
     0
100
AcDbPoint
 10
54.69689488501638
 20
146.539488136328
 30
0.0
  0
LINE
  5
2AAF
330
18
100
AcDbEntity
  8
隠れ線2
100
AcDbLine
 10
58.29689488501617
 20
98.13948813632798
 30
0.0
 11
58.29689488501611
 21
83.03948813632805
 31
0.0
  0
LINE
  5
2AB0
330
18
100
AcDbEntity
  8
隠れ線2
100
AcDbLine
 10
66.296894885016
 20
98.13948813632798
 30
0.0
 11
66.29689488501611
 21
83.039488136328
 31
0.0
  0
LINE
  5
2AB1
330
18
100
AcDbEntity
  8
外形線
100
AcDbLine
 10
58.44689488501609
 20
82.63948813632795
 30
0.0
 11
58.44689488501609
 21
81.53948813632807
 31
0.0
  0
LINE
  5
2AB2
330
18
100
AcDbEntity
  8
外形線
100
AcDbLine
 10
66.14689488501614
 20
82.63948813632795
 30
0.0
 11
66.14689488501614
 21
81.53948813632807
 31
0.0
  0
LINE
  5
2AC6
330
18
100
AcDbEntity
  8
外形線
100
AcDbLine
 10
57.29689488501616
 20
47.63948813632794
 30
0.0
 11
67.29689488501614
 21
47.63948813632794
 31
0.0
  0
LINE
  5
2AC7
330
18
100
AcDbEntity
  8
外形線
100
AcDbLine
 10
59.59689488501606
 20
57.63948813632805
 30
0.0
 11
64.99689488501608
 21
57.63948813632808
 31
0.0
  0
LINE
  5
2AC8
330
18
100
AcDbEntity
  8
外形線
100
AcDbLine
 10
57.29689488501607
 20
52.13948813632794
 30
0.0
 11
67.29689488501604
 21
52.13948813632794
 31
0.0
  0
LINE
  5
2AC9
330
18
100
AcDbEntity
  8
外形線
100
AcDbLine
 10
58.29689488501609
 20
49.13948813632794
 30
0.0
 11
66.29689488501604
 21
49.13948813632794
 31
0.0
  0
LINE
  5
2ACA
330
18
100
AcDbEntity
  8
外形線
100
AcDbLine
 10
67.29689488501604
 20
52.13948813632794
 30
0.0
 11
67.29689488501604
 21
50.13948813632794
 31
0.0
  0
LINE
  5
2ACB
330
18
100
AcDbEntity
  8
外形線
100
AcDbLine
 10
57.29689488501607
 20
52.13948813632794
 30
0.0
 11
57.29689488501609
 21
50.13948813632794
 31
0.0
  0
LINE
  5
2ACC
330
18
100
AcDbEntity
  8
外形線
100
AcDbLine
 10
57.29689488501609
 20
50.13948813632794
 30
0.0
 11
58.29689488501609
 21
49.13948813632794
 31
0.0
  0
LINE
  5
2ACD
330
18
100
AcDbEntity
  8
外形線
 48
0.5
100
AcDbLine
 10
66.29689488501604
 20
49.13948813632794
 30
0.0
 11
67.29689488501604
 21
50.13948813632794
 31
0.0
  0
LINE
  5
2ACE
330
18
100
AcDbEntity
  8
外形線
100
AcDbLine
 10
57.29689488501609
 20
50.13948813632794
 30
0.0
 11
67.29689488501604
 21
50.13948813632794
 31
0.0
  0
LINE
  5
2ACF
330
18
100
AcDbEntity
  8
外形線
100
AcDbLine
 10
57.29689488501609
 20
54.13948813632794
 30
0.0
 11
67.29689488501604
 21
54.13948813632794
 31
0.0
  0
LINE
  5
2AD0
330
18
100
AcDbEntity
  8
外形線
 48
0.5
100
AcDbLine
 10
66.29689488501604
 20
55.13948813632794
 30
0.0
 11
67.29689488501604
 21
54.13948813632794
 31
0.0
  0
LINE
  5
2AD1
330
18
100
AcDbEntity
  8
外形線
100
AcDbLine
 10
67.29689488501604
 20
52.13948813632794
 30
0.0
 11
67.29689488501604
 21
54.13948813632794
 31
0.0
  0
LINE
  5
2AD2
330
18
100
AcDbEntity
  8
外形線
100
AcDbLine
 10
57.29689488501607
 20
52.13948813632794
 30
0.0
 11
57.29689488501609
 21
54.13948813632794
 31
0.0
  0
LINE
  5
2AD3
330
18
100
AcDbEntity
  8
外形線
100
AcDbLine
 10
57.29689488501609
 20
54.13948813632794
 30
0.0
 11
58.29689488501609
 21
55.13948813632794
 31
0.0
  0
LINE
  5
2AD4
330
18
100
AcDbEntity
  8
外形線
100
AcDbLine
 10
58.29689488501609
 20
55.13948813632794
 30
0.0
 11
66.29689488501604
 21
55.13948813632794
 31
0.0
  0
LINE
  5
2AD5
330
18
100
AcDbEntity
  8
外形線
100
AcDbLine
 10
59.29689488501607
 20
55.13948813632794
 30
0.0
 11
65.29689488501607
 21
55.13948813632794
 31
0.0
  0
LINE
  5
2AD6
330
18
100
AcDbEntity
  8
外形線
100
AcDbLine
 10
59.59689488501604
 20
57.63948813632805
 30
0.0
 11
64.99689488501608
 21
57.63948813632808
 31
0.0
  0
LINE
  5
2AD7
330
18
100
AcDbEntity
  8
外形線
100
AcDbLine
 10
65.29689488501606
 20
57.3394881363281
 30
0.0
 11
65.29689488501606
 21
55.43948813632809
 31
0.0
  0
LINE
  5
2AD8
330
18
100
AcDbEntity
  8
外形線
100
AcDbLine
 10
59.29689488501606
 20
57.33948813632807
 30
0.0
 11
59.29689488501606
 21
55.43948813632806
 31
0.0
  0
LINE
  5
2AD9
330
18
100
AcDbEntity
  8
外形線
100
AcDbLine
 10
59.29689488501606
 20
57.33948813632807
 30
0.0
 11
59.59689488501604
 21
57.63948813632805
 31
0.0
  0
LINE
  5
2ADA
330
18
100
AcDbEntity
  8
外形線
 48
0.5
100
AcDbLine
 10
64.99689488501608
 20
57.63948813632808
 30
0.0
 11
65.29689488501606
 21
57.3394881363281
 31
0.0
  0
POINT
  5
2ADB
330
18
100
AcDbEntity
  8
DEFPOINTS
  6
ByBlock
 62
     0
100
AcDbPoint
 10
57.29689488501607
 20
52.13948813632794
 30
0.0
  0
POINT
  5
2ADC
330
18
100
AcDbEntity
  8
DEFPOINTS
  6
ByBlock
 62
     0
100
AcDbPoint
 10
57.29689488501607
 20
52.13948813632794
 30
0.0
  0
POINT
  5
2ADD
330
18
100
AcDbEntity
  8
DEFPOINTS
  6
ByBlock
 62
     0
100
AcDbPoint
 10
57.29689488501609
 20
54.13948813632794
 30
0.0
  0
POINT
  5
2ADE
330
18
100
AcDbEntity
  8
DEFPOINTS
  6
ByBlock
 62
     0
100
AcDbPoint
 10
67.29689488501604
 20
54.13948813632794
 30
0.0
  0
LINE
  5
2ADF
330
18
100
AcDbEntity
  8
外形線
100
AcDbLine
 10
59.29689488501606
 20
49.13948813632794
 30
0.0
 11
59.29689488501606
 21
48.63948813632794
 31
0.0
  0
LINE
  5
2AE0
330
18
100
AcDbEntity
  8
外形線
100
AcDbLine
 10
58.7968948850161
 20
48.63948813632794
 30
0.0
 11
58.79689488501608
 21
47.63948813632794
 31
0.0
  0
LINE
  5
2AE1
330
18
100
AcDbEntity
  8
外形線
100
AcDbLine
 10
65.29689488501607
 20
49.13948813632794
 30
0.0
 11
65.29689488501607
 21
48.63948813632794
 31
0.0
  0
LINE
  5
2AE2
330
18
100
AcDbEntity
  8
外形線
100
AcDbLine
 10
65.7968948850161
 20
48.63948813632794
 30
0.0
 11
65.79689488501609
 21
47.63948813632794
 31
0.0
  0
LINE
  5
2AE3
330
18
100
AcDbEntity
  8
外形線
100
AcDbLine
 10
58.79689488501608
 20
48.63948813632794
 30
0.0
 11
65.79689488501609
 21
48.63948813632793
 31
0.0
  0
LINE
  5
2AE4
330
18
100
AcDbEntity
  8
外形線
100
AcDbLine
 10
59.29689488501606
 20
55.43948813632806
 30
0.0
 11
65.29689488501606
 21
55.43948813632809
 31
0.0
  0
LINE
  5
2AE5
330
18
100
AcDbEntity
  8
外形線
100
AcDbLine
 10
59.44689488501603
 20
55.43948813632807
 30
0.0
 11
59.44689488501603
 21
55.13948813632794
 31
0.0
  0
LINE
  5
2AE6
330
18
100
AcDbEntity
  8
外形線
100
AcDbLine
 10
65.14689488501602
 20
55.43948813632807
 30
0.0
 11
65.14689488501602
 21
55.13948813632794
 31
0.0
  0
LINE
  5
2AE7
330
18
100
AcDbEntity
  8
外形線
100
AcDbLine
 10
59.29689488501606
 20
57.33948813632807
 30
0.0
 11
65.29689488501606
 21
57.3394881363281
 31
0.0
  0
LINE
  5
2AE8
330
18
100
AcDbEntity
  8
外形線
100
AcDbLine
 10
58.49689488501608
 20
36.13948813632792
 30
0.0
 11
66.09689488501607
 21
36.13948813632792
 31
0.0
  0
LINE
  5
2AEA
330
18
100
AcDbEntity
  8
外形線
100
AcDbLine
 10
58.49689488501608
 20
47.63948813632794
 30
0.0
 11
58.49689488501608
 21
36.13948813632792
 31
0.0
  0
LINE
  5
2AEB
330
18
100
AcDbEntity
  8
外形線
100
AcDbLine
 10
66.09689488501607
 20
47.63948813632794
 30
0.0
 11
66.09689488501607
 21
36.13948813632792
 31
0.0
  0
ARC
  5
2AEC
330
18
100
AcDbEntity
  8
外形線
100
AcDbCircle
 10
62.29689488501607
 20
35.63948813632794
 30
0.0
 40
3.0
100
AcDbArc
 50
180.0
 51
359.9999999999992
  0
LINE
  5
2AED
330
18
100
AcDbEntity
  8
外形線
100
AcDbLine
 10
59.29689488501607
 20
35.63948813632794
 30
0.0
 11
59.29689488501607
 21
36.13948813632792
 31
0.0
  0
LINE
  5
2AEE
330
18
100
AcDbEntity
  8
外形線
100
AcDbLine
 10
65.29689488501607
 20
35.63948813632794
 30
0.0
 11
65.29689488501609
 21
36.13948813632792
 31
0.0
  0
LINE
  5
2AEF
330
18
100
AcDbEntity
  8
外形線
100
AcDbLine
 10
66.79689488501614
 20
42.63948813632794
 30
0.0
 11
66.09689488501607
 21
42.63948813632794
 31
0.0
  0
LINE
  5
2AF2
330
18
100
AcDbEntity
  8
外形線
100
AcDbLine
 10
58.49689488501608
 20
42.63948813632795
 30
0.0
 11
57.79689488501615
 21
42.63948813632794
 31
0.0
  0
LINE
  5
2AF3
330
18
100
AcDbEntity
  8
外形線
100
AcDbLine
 10
57.29689488501616
 20
99.03948813632807
 30
0.0
 11
57.29689488501616
 21
98.13948813632798
 31
0.0
  0
LINE
  5
2AF4
330
18
100
AcDbEntity
  8
外形線
100
AcDbLine
 10
67.29689488501616
 20
82.63948813632797
 30
0.0
 11
67.29689488501614
 21
44.13948813632795
 31
0.0
  0
LINE
  5
2AF5
330
18
100
AcDbEntity
  8
外形線
100
AcDbLine
 10
58.49689488501608
 20
43.63948813632795
 30
0.0
 11
57.79689488501616
 21
43.63948813632795
 31
0.0
  0
LINE
  5
2AF6
330
18
100
AcDbEntity
  8
外形線
100
AcDbLine
 10
66.79689488501614
 20
43.63948813632794
 30
0.0
 11
66.09689488501607
 21
43.63948813632794
 31
0.0
  0
LINE
  5
2AF7
330
18
100
AcDbEntity
  8
外形線
100
AcDbLine
 10
57.29689488501616
 20
82.63948813632795
 30
0.0
 11
57.29689488501616
 21
44.13948813632795
 31
0.0
  0
ARC
  5
2AF8
330
18
100
AcDbEntity
  8
外形線
100
AcDbCircle
 10
57.79689488501615
 20
44.13948813632795
 30
0.0
 40
1.5
100
AcDbArc
 50
180.0
 51
270.0
  0
ARC
  5
2AF9
330
18
100
AcDbEntity
  8
外形線
100
AcDbCircle
 10
66.79689488501614
 20
44.13948813632795
 30
0.0
 40
1.5
100
AcDbArc
 50
270.0
 51
0.0
  0
ARC
  5
2AFB
330
18
100
AcDbEntity
  8
外形線
100
AcDbCircle
 10
66.79689488501614
 20
44.13948813632795
 30
0.0
 40
0.5
100
AcDbArc
 50
270.0
 51
0.0
  0
ARC
  5
2AFC
330
18
100
AcDbEntity
  8
外形線
100
AcDbCircle
 10
57.79689488501616
 20
44.13948813632795
 30
0.0
 40
0.5
100
AcDbArc
 50
180.0
 51
270.0
  0
LINE
  5
2AFD
330
18
100
AcDbEntity
  8
外形線
100
AcDbLine
 10
67.2968948850162
 20
159.7394881363276
 30
0.0
 11
66.29689488501622
 21
159.7394881363276
 31
0.0
  0
LINE
  5
2AFE
330
18
100
AcDbEntity
  8
外形線
100
AcDbLine
 10
67.2968948850162
 20
151.7394881363279
 30
0.0
 11
57.2968948850162
 21
151.7394881363279
 31
0.0
  0
LINE
  5
2DA3
330
18
100
AcDbEntity
  8
外形線
100
AcDbLine
 10
57.2968948850162
 20
151.7394881363279
 30
0.0
 11
57.2968948850162
 21
159.7394881363276
 31
0.0
  0
LINE
  5
2DA4
330
18
100
AcDbEntity
  8
外形線
100
AcDbLine
 10
67.2968948850162
 20
151.7394881363279
 30
0.0
 11
67.2968948850162
 21
159.7394881363276
 31
0.0
  0
LINE
  5
2DA5
330
18
100
AcDbEntity
  8
外形線
100
AcDbLine
 10
66.2968948850162
 20
159.2147160678717
 30
0.0
 11
64.0468948850162
 21
159.2147160678717
 31
0.0
  0
LINE
  5
2DA6
330
18
100
AcDbEntity
  8
外形線
100
AcDbLine
 10
66.2968948850162
 20
160.9166031107502
 30
0.0
 11
64.0468948850162
 21
160.9166031107502
 31
0.0
  0
LINE
  5
3316
330
18
100
AcDbEntity
  8
外形線
100
AcDbLine
 10
58.29689488501621
 20
164.5011188434021
 30
0.0
 11
58.29689488501621
 21
159.2147160678717
 31
0.0
  0
LINE
  5
3317
330
18
100
AcDbEntity
  8
外形線
100
AcDbLine
 10
60.54689488501619
 20
163.8477142947157
 30
0.0
 11
60.54689488501622
 21
159.2147160678717
 31
0.0
  0
LINE
  5
3318
330
18
100
AcDbEntity
  8
外形線
100
AcDbLine
 10
64.04689488501619
 20
163.8477142947157
 30
0.0
 11
64.04689488501621
 21
159.2147160678717
 31
0.0
  0
LINE
  5
3319
330
18
100
AcDbEntity
  8
外形線
100
AcDbLine
 10
66.2968948850162
 20
164.5011188434021
 30
0.0
 11
66.2968948850162
 21
159.2147160678717
 31
0.0
  0
LINE
  5
331A
330
18
100
AcDbEntity
  8
外形線
100
AcDbLine
 10
60.54689488501621
 20
160.9166031107502
 30
0.0
 11
58.2968948850162
 21
160.9166031107502
 31
0.0
  0
LINE
  5
331B
330
18
100
AcDbEntity
  8
外形線
100
AcDbLine
 10
60.54689488501622
 20
159.2147160678717
 30
0.0
 11
58.29689488501621
 21
159.2147160678717
 31
0.0
  0
LINE
  5
359B
330
18
100
AcDbEntity
  8
外形線
100
AcDbLine
 10
58.2468948850162
 20
168.5394881363281
 30
0.0
 11
66.34689488501622
 21
168.5394881363281
 31
0.0
  0
LINE
  5
359C
330
18
100
AcDbEntity
  8
外形線
100
AcDbLine
 10
66.54689488501621
 20
168.3394881363281
 30
0.0
 11
66.34689488501622
 21
168.5394881363281
 31
0.0
  0
LINE
  5
359D
330
18
100
AcDbEntity
  8
外形線
100
AcDbLine
 10
66.54689488501621
 20
168.3394881363281
 30
0.0
 11
66.54689488501621
 21
166.7394881363281
 31
0.0
  0
LINE
  5
359E
330
18
100
AcDbEntity
  8
外形線
100
AcDbLine
 10
66.34689488501622
 20
166.5394881363281
 30
0.0
 11
58.2468948850162
 21
166.5394881363281
 31
0.0
  0
LINE
  5
359F
330
18
100
AcDbEntity
  8
外形線
100
AcDbLine
 10
66.54689488501621
 20
166.7394881363281
 30
0.0
 11
66.34689488501622
 21
166.5394881363281
 31
0.0
  0
LINE
  5
35A0
330
18
100
AcDbEntity
  8
外形線
100
AcDbLine
 10
58.04689488501622
 20
166.7394881363281
 30
0.0
 11
58.04689488501622
 21
168.3394881363281
 31
0.0
  0
LINE
  5
35A1
330
18
100
AcDbEntity
  8
外形線
100
AcDbLine
 10
58.2468948850162
 20
166.5394881363281
 30
0.0
 11
58.04689488501622
 21
166.7394881363281
 31
0.0
  0
LINE
  5
35A2
330
18
100
AcDbEntity
  8
外形線
100
AcDbLine
 10
58.2468948850162
 20
168.5394881363281
 30
0.0
 11
58.04689488501622
 21
168.3394881363281
 31
0.0
  0
LINE
  5
35A3
330
18
100
AcDbEntity
  8
外形線
100
AcDbLine
 10
62.29689488501621
 20
168.3394881363281
 30
0.0
 11
62.29689488501621
 21
166.7394881363281
 31
0.0
  0
LINE
  5
35A4
330
18
100
AcDbEntity
  8
寸法線
100
AcDbLine
 10
58.04689488501622
 20
168.3394881363281
 30
0.0
 11
66.54689488501621
 21
168.3394881363281
 31
0.0
  0
LINE
  5
35A5
330
18
100
AcDbEntity
  8
寸法線
100
AcDbLine
 10
58.04689488501622
 20
166.7394881363281
 30
0.0
 11
66.54689488501621
 21
166.7394881363281
 31
0.0
  0
LINE
  5
35A6
330
18
100
AcDbEntity
  8
外形線
100
AcDbLine
 10
62.89689488501624
 20
168.3394881363281
 30
0.0
 11
62.89689488501624
 21
166.7394881363281
 31
0.0
  0
LINE
  5
35A7
330
18
100
AcDbEntity
  8
外形線
100
AcDbLine
 10
63.49689488501621
 20
168.3394881363281
 30
0.0
 11
63.49689488501621
 21
166.7394881363281
 31
0.0
  0
LINE
  5
35A8
330
18
100
AcDbEntity
  8
外形線
100
AcDbLine
 10
64.09689488501623
 20
168.3394881363281
 30
0.0
 11
64.09689488501623
 21
166.7394881363281
 31
0.0
  0
LINE
  5
35A9
330
18
100
AcDbEntity
  8
外形線
100
AcDbLine
 10
65.4968948850162
 20
168.3394881363281
 30
0.0
 11
65.4968948850162
 21
166.7394881363281
 31
0.0
  0
LINE
  5
35AA
330
18
100
AcDbEntity
  8
外形線
100
AcDbLine
 10
64.69689488501619
 20
168.3394881363281
 30
0.0
 11
64.69689488501619
 21
166.7394881363281
 31
0.0
  0
LINE
  5
35AB
330
18
100
AcDbEntity
  8
外形線
100
AcDbLine
 10
66.29689488501622
 20
168.3394881363281
 30
0.0
 11
66.29689488501622
 21
166.7394881363281
 31
0.0
  0
LINE
  5
35AD
330
18
100
AcDbEntity
  8
外形線
100
AcDbLine
 10
63.89689488501623
 20
159.7394881363276
 30
0.0
 11
63.89689488501623
 21
166.5394881363281
 31
0.0
  0
LINE
  5
35AE
330
18
100
AcDbEntity
  8
外形線
100
AcDbLine
 10
60.69689488501619
 20
159.7394881363276
 30
0.0
 11
60.69689488501619
 21
166.5394881363281
 31
0.0
  0
LINE
  5
35B7
330
18
100
AcDbEntity
  8
外形線
100
AcDbLine
 10
136.0962837438093
 20
168.5394881363281
 30
0.0
 11
144.1962837438093
 21
168.5394881363281
 31
0.0
  0
LINE
  5
35B8
330
18
100
AcDbEntity
  8
外形線
100
AcDbLine
 10
144.3962837438093
 20
168.3394881363281
 30
0.0
 11
144.1962837438093
 21
168.5394881363281
 31
0.0
  0
LINE
  5
35B9
330
18
100
AcDbEntity
  8
外形線
100
AcDbLine
 10
144.3962837438093
 20
168.3394881363281
 30
0.0
 11
144.3962837438093
 21
166.7394881363281
 31
0.0
  0
LINE
  5
35BA
330
18
100
AcDbEntity
  8
外形線
100
AcDbLine
 10
144.1962837438093
 20
166.5394881363281
 30
0.0
 11
136.0962837438093
 21
166.5394881363281
 31
0.0
  0
LINE
  5
35BB
330
18
100
AcDbEntity
  8
外形線
100
AcDbLine
 10
144.3962837438093
 20
166.7394881363281
 30
0.0
 11
144.1962837438093
 21
166.5394881363281
 31
0.0
  0
LINE
  5
35BC
330
18
100
AcDbEntity
  8
外形線
100
AcDbLine
 10
135.8962837438093
 20
166.7394881363281
 30
0.0
 11
135.8962837438093
 21
168.3394881363281
 31
0.0
  0
LINE
  5
35BD
330
18
100
AcDbEntity
  8
外形線
100
AcDbLine
 10
136.0962837438093
 20
166.5394881363281
 30
0.0
 11
135.8962837438093
 21
166.7394881363281
 31
0.0
  0
LINE
  5
35BE
330
18
100
AcDbEntity
  8
外形線
100
AcDbLine
 10
136.0962837438093
 20
168.5394881363281
 30
0.0
 11
135.8962837438093
 21
168.3394881363281
 31
0.0
  0
LINE
  5
35BF
330
18
100
AcDbEntity
  8
外形線
100
AcDbLine
 10
140.1462837438093
 20
168.3394881363281
 30
0.0
 11
140.1462837438093
 21
166.7394881363281
 31
0.0
  0
LINE
  5
35C0
330
18
100
AcDbEntity
  8
寸法線
100
AcDbLine
 10
135.8962837438093
 20
168.3394881363281
 30
0.0
 11
144.3962837438093
 21
168.3394881363281
 31
0.0
  0
LINE
  5
35C1
330
18
100
AcDbEntity
  8
寸法線
100
AcDbLine
 10
135.8962837438093
 20
166.7394881363281
 30
0.0
 11
144.3962837438093
 21
166.7394881363281
 31
0.0
  0
LINE
  5
35C2
330
18
100
AcDbEntity
  8
外形線
100
AcDbLine
 10
140.7462837438094
 20
168.3394881363281
 30
0.0
 11
140.7462837438094
 21
166.7394881363281
 31
0.0
  0
LINE
  5
35C3
330
18
100
AcDbEntity
  8
外形線
100
AcDbLine
 10
141.3462837438093
 20
168.3394881363281
 30
0.0
 11
141.3462837438093
 21
166.7394881363281
 31
0.0
  0
LINE
  5
35C4
330
18
100
AcDbEntity
  8
外形線
100
AcDbLine
 10
141.9462837438094
 20
168.3394881363281
 30
0.0
 11
141.9462837438094
 21
166.7394881363281
 31
0.0
  0
LINE
  5
35C5
330
18
100
AcDbEntity
  8
外形線
100
AcDbLine
 10
143.3462837438093
 20
168.3394881363281
 30
0.0
 11
143.3462837438093
 21
166.7394881363281
 31
0.0
  0
LINE
  5
35C6
330
18
100
AcDbEntity
  8
外形線
100
AcDbLine
 10
142.5462837438093
 20
168.3394881363281
 30
0.0
 11
142.5462837438093
 21
166.7394881363281
 31
0.0
  0
LINE
  5
35C7
330
18
100
AcDbEntity
  8
外形線
100
AcDbLine
 10
144.1462837438093
 20
168.3394881363281
 30
0.0
 11
144.1462837438093
 21
166.7394881363281
 31
0.0
  0
LINE
  5
35C9
330
18
100
AcDbEntity
  8
外形線
100
AcDbLine
 10
141.7462837438094
 20
159.7394881363277
 30
0.0
 11
141.7462837438094
 21
162.0830431256353
 31
0.0
  0
LINE
  5
35CA
330
18
100
AcDbEntity
  8
外形線
100
AcDbLine
 10
138.5462837438093
 20
159.7394881363277
 30
0.0
 11
138.5462837438093
 21
161.775846563362
 31
0.0
  0
LINE
  5
35D3
330
18
100
AcDbEntity
  8
外形線
100
AcDbLine
 10
64.04689488501619
 20
163.8477142947157
 30
0.0
 11
63.89689488501623
 21
163.8477142947157
 31
0.0
  0
LINE
  5
35D4
330
18
100
AcDbEntity
  8
外形線
100
AcDbLine
 10
58.29689488501621
 20
159.7394881363276
 30
0.0
 11
57.2968948850162
 21
159.7394881363276
 31
0.0
  0
LINE
  5
35D5
330
18
100
AcDbEntity
  8
外形線
100
AcDbLine
 10
64.04689488501621
 20
159.7394881363276
 30
0.0
 11
60.54689488501621
 21
159.7394881363276
 31
0.0
  0
CIRCLE
  5
35E1
330
18
100
AcDbEntity
  8
寸法線
100
AcDbCircle
 10
62.29666048516105
 20
86.63948813632794
 30
0.0
 40
1.5
  0
CIRCLE
  5
35E2
330
18
100
AcDbEntity
  8
外形線
100
AcDbCircle
 10
62.29666048516105
 20
86.63948813632794
 30
0.0
 40
1.072698451794451
  0
CIRCLE
  5
35E3
330
18
100
AcDbEntity
  8
寸法線
100
AcDbCircle
 10
62.29666048516104
 20
94.63948813632793
 30
0.0
 40
1.5
  0
CIRCLE
  5
35E4
330
18
100
AcDbEntity
  8
外形線
100
AcDbCircle
 10
62.29666048516104
 20
94.63948813632793
 30
0.0
 40
1.072698451794451
  0
LINE
  5
35E5
330
18
100
AcDbEntity
  8
中心線
 48
0.2
100
AcDbLine
 10
129.2772415476574
 20
86.63948813632794
 30
0.0
 11
137.8077258964981
 21
86.63948813632794
 31
0.0
  0
LINE
  5
35E6
330
18
100
AcDbEntity
  8
中心線
 48
0.2
100
AcDbLine
 10
129.3959539885056
 20
94.63948813632793
 30
0.0
 11
137.6894822553602
 21
94.63948813632795
 31
0.0
  0
LINE
  5
35E7
330
18
100
AcDbEntity
  8
外形線
100
AcDbLine
 10
136.1462837438093
 20
151.7394881363279
 30
0.0
 11
136.1462837438093
 21
150.7470238571536
 31
0.0
  0
LINE
  5
35E8
330
18
100
AcDbEntity
  8
外形線
100
AcDbLine
 10
144.1462837438093
 20
151.7394881363279
 30
0.0
 11
144.1462837438093
 21
150.7470238571536
 31
0.0
  0
LINE
  5
35E9
330
18
100
AcDbEntity
  8
外形線
100
AcDbLine
 10
58.2968948850162
 20
151.7394881363279
 30
0.0
 11
58.29689488501621
 21
148.039488136328
 31
0.0
  0
LINE
  5
35EA
330
18
100
AcDbEntity
  8
外形線
100
AcDbLine
 10
66.2968948850162
 20
151.7394881363279
 30
0.0
 11
66.2968948850162
 21
148.039488136328
 31
0.0
  0
LINE
  5
35ED
330
18
100
AcDbEntity
  8
外形線
100
AcDbLine
 10
66.2968948850162
 20
164.5011188434021
 30
0.0
 11
63.89689488501623
 21
164.5011188434021
 31
0.0
  0
LINE
  5
35EE
330
18
100
AcDbEntity
  8
外形線
100
AcDbLine
 10
56.8588700683113
 20
153.5423871996615
 30
0.0
 11
56.85887006831132
 21
162.8752541152907
 31
0.0
  0
LINE
  5
35F0
330
18
100
AcDbEntity
  8
中心線
 48
0.3
100
AcDbLine
 10
69.33975801585255
 20
157.5394881363282
 30
0.0
 11
55.25403175417988
 21
157.5394881363282
 31
0.0
  0
LINE
  5
35F2
330
18
100
AcDbEntity
  8
外形線
100
AcDbLine
 10
60.69689488501619
 20
163.8477142947157
 30
0.0
 11
60.54689488501619
 21
163.8477142947157
 31
0.0
  0
LINE
  5
35F3
330
18
100
AcDbEntity
  8
外形線
100
AcDbLine
 10
60.69689488501619
 20
164.5011188434021
 30
0.0
 11
58.29689488501621
 21
164.5011188434021
 31
0.0
  0
ARC
  5
35F4
330
18
100
AcDbEntity
  8
外形線
100
AcDbCircle
 10
57.85887006831131
 20
162.8752541152907
 30
0.0
 40
1.0
100
AcDbArc
 50
90.0
 51
179.9999999999999
  0
LINE
  5
360B
330
18
100
AcDbEntity
  8
外形線
100
AcDbLine
 10
58.29689488501621
 20
163.8752541152908
 30
0.0
 11
57.85887006831127
 21
163.8752541152907
 31
0.0
  0
LINE
  5
360D
330
18
100
AcDbEntity
  8
外形線
100
AcDbLine
 10
57.2968948850162
 20
153.5423871996616
 30
0.0
 11
56.8588700683113
 21
153.5423871996615
 31
0.0
  0
LINE
  5
360E
330
18
100
AcDbEntity
  8
外形線
100
AcDbLine
 10
67.73491970172111
 20
153.5423871996615
 30
0.0
 11
67.73491970172109
 21
162.8752541152907
 31
0.0
  0
ARC
  5
360F
330
18
100
AcDbEntity
  8
外形線
100
AcDbCircle
 10
66.7349197017211
 20
162.8752541152907
 30
0.0
 40
1.0
100
AcDbArc
 50
0.0000000000000579
 51
90.0
  0
LINE
  5
3610
330
18
100
AcDbEntity
  8
外形線
100
AcDbLine
 10
66.2968948850162
 20
163.8752541152908
 30
0.0
 11
66.73491970172114
 21
163.8752541152907
 31
0.0
  0
LINE
  5
3611
330
18
100
AcDbEntity
  8
外形線
100
AcDbLine
 10
67.29689488501621
 20
153.5423871996616
 30
0.0
 11
67.73491970172111
 21
153.5423871996615
 31
0.0
  0
LINE
  5
3612
330
18
100
AcDbEntity
  8
外形線
100
AcDbLine
 10
138.5462837438093
 20
163.6328141611944
 30
0.0
 11
138.5462837438093
 21
166.5394881363281
 31
0.0
  0
LINE
  5
3613
330
18
100
AcDbEntity
  8
外形線
100
AcDbLine
 10
141.7462837438094
 20
163.9312170405319
 30
0.0
 11
141.7462837438094
 21
166.5394881363281
 31
0.0
  0
DIMENSION
  5
3614
330
18
100
AcDbEntity
  8
寸法線
100
AcDbDimension
  2
*D26
 10
62.29689488501622
 20
174.724215925134
 30
0.0
 11
58.4968948850163
 21
176.599215925134
 31
0.0
 70
    32
 71
     5
 42
7.599999999999845
  3
STYLE3
100
AcDbAlignedDimension
 13
54.69689488501638
 23
146.539488136328
 33
0.0
 14
62.29689488501622
 24
171.0823360114403
 34
0.0
100
AcDbRotatedDimension
1001
ACAD
1000
DSTYLE
1002
{
1070
   271
1070
     2
1070
   341
1005
0
1002
}
  0
LINE
  5
3640
330
18
100
AcDbEntity
  8
寸法線
 62
     2
100
AcDbLine
 10
62.29689488501622
 20
171.0823360114403
 30
0.0
 11
62.29689488501622
 21
176.0054060448802
 31
0.0
  0
LINE
  5
3641
330
18
100
AcDbEntity
  8
寸法線
 62
     2
100
AcDbLine
 10
78.79689488501625
 20
123.5394881363282
 30
0.0
 11
78.79689488501625
 21
176.0054060448802
 31
0.0
  0
LINE
  5
3642
330
18
100
AcDbEntity
  8
寸法線
 62
     2
100
AcDbLine
 10
64.79689488501623
 20
174.7554060448802
 30
0.0
 11
76.29689488501625
 21
174.7554060448802
 31
0.0
  0
INSERT
  5
3643
330
18
100
AcDbEntity
  8
寸法線
 62
     2
100
AcDbBlockReference
  2
_OPEN
 10
62.29689488501622
 20
174.7554060448802
 30
0.0
 41
2.5
 42
2.5
 43
2.5
 50
180.0
  0
INSERT
  5
3644
330
18
100
AcDbEntity
  8
寸法線
 62
     2
100
AcDbBlockReference
  2
_OPEN
 10
78.79689488501625
 20
174.7554060448802
 30
0.0
 41
2.5
 42
2.5
 43
2.5
  0
MTEXT
  5
3645
330
18
100
AcDbEntity
  8
寸法線
 62
     6
100
AcDbMText
 10
70.54689488501624
 20
176.6304060448802
 30
0.0
 40
2.5
 41
0.0
 71
     5
 72
     1
  1
\A1;17
  7
STYLE3
 73
     1
 44
1.0
  0
ARC
  5
37F8
330
18
100
AcDbEntity
  8
外形線
100
AcDbCircle
 10
197.1579127304923
 20
172.7084912053891
 30
0.0
 40
15.01915546260727
100
AcDbArc
 50
251.7876460658443
 51
301.9501090899563
  0
ARC
  5
37F9
330
18
100
AcDbEntity
  8
外形線
100
AcDbCircle
 10
196.9818040581486
 20
173.4433413399619
 30
0.0
 40
14.1706982824103
100
AcDbArc
 50
251.0315175541545
 51
301.2167227614672
  0
LINE
  5
37FA
330
18
100
AcDbEntity
  8
外形線
100
AcDbLine
 10
205.1057586777864
 20
159.9645995074796
 30
0.0
 11
204.3261459520746
 21
161.3243755443079
 31
0.0
  0
LINE
  5
3834
330
18
100
AcDbEntity
  8
外形線
100
AcDbLine
 10
76.06718017737126
 20
183.6467706151148
 30
0.0
 11
184.0671801773712
 21
183.6467706151148
 31
0.0
  0
LINE
  5
3835
330
18
100
AcDbEntity
  8
外形線
100
AcDbLine
 10
76.06718017737126
 20
184.6467706151148
 30
0.0
 11
184.0671801773712
 21
184.6467706151148
 31
0.0
  0
TEXT
  5
3836
330
18
100
AcDbEntity
  8
文字
100
AcDbText
 10
76.98019617737127
 20
186.7522856151148
 30
0.0
 40
4.0
  1
Model No.G-2 Dial Thickness Gauge
  7
STYLE3
100
AcDbText
  0
LINE
  5
3838
330
18
100
AcDbEntity
  8
外形線
100
AcDbLine
 10
113.6677291773712
 20
20.81673861511482
 30
0.0
 11
254.4591471773713
 21
20.81673861511482
 31
0.0
  0
LINE
  5
3839
330
18
100
AcDbEntity
  8
外形線
100
AcDbLine
 10
113.6677291773712
 20
10.03653261511482
 30
0.0
 11
254.4591471773713
 21
10.03653261511482
 31
0.0
  0
TEXT
  5
383A
330
18
100
AcDbEntity
  8
0
  6
Continuous
100
AcDbText
 10
115.1251961773712
 20
11.93452261511482
 30
0.0
 40
2.1
  1
Design and specifications are subject to change without notice for future improvement.
  7
STYLE3
100
AcDbText
  0
TEXT
  5
383B
330
18
100
AcDbEntity
  8
0
  6
Continuous
100
AcDbText
 10
115.4166901773712
 20
15.86367061511482
 30
0.0
 40
3.5
  1
仕様及び外観は予告なく変更される場合がございますのでご了承下さい。
  7
STYLE3
100
AcDbText
  0
TEXT
  5
383C
330
18
100
AcDbEntity
  8
0
  6
Continuous
100
AcDbText
 10
114.8337051773713
 20
2.169894615114821
 30
0.0
 40
2.1
  1
3RD Angle Projection
  7
STYLE3
100
AcDbText
  0
TEXT
  5
383D
330
18
100
AcDbEntity
  8
0
  6
Continuous
100
AcDbText
 10
117.4571481773712
 20
5.666177615114821
 30
0.0
 40
3.0
  1
三　　角　　法
  7
STYLE3
100
AcDbText
  0
LINE
  5
383E
330
18
100
AcDbEntity
  8
外形線
100
AcDbLine
 10
113.6677291773712
 20
0.4217546151148211
 30
0.0
 11
113.6677291773712
 21
20.81673861511482
 31
0.0
  0
LINE
  5
383F
330
18
100
AcDbEntity
  8
外形線
100
AcDbLine
 10
215.6904961773713
 20
10.03653261511482
 30
0.0
 11
215.6904961773713
 21
0.4217546151148211
 31
0.0
  0
LINE
  5
3840
330
18
100
AcDbEntity
  8
外形線
100
AcDbLine
 10
185.9581461773712
 20
10.03653261511482
 30
0.0
 11
185.9581461773712
 21
0.4217546151148211
 31
0.0
  0
LINE
  5
3841
330
18
100
AcDbEntity
  8
外形線
100
AcDbLine
 10
166.4280741773712
 20
10.03653261511482
 30
0.0
 11
166.4280741773712
 21
0.4217546151148211
 31
0.0
  0
LINE
  5
3842
330
18
100
AcDbEntity
  8
外形線
100
AcDbLine
 10
148.9384571773713
 20
10.03653261511482
 30
0.0
 11
148.9384571773713
 21
0.4217546151148211
 31
0.0
  0
TEXT
  5
3843
330
18
100
AcDbEntity
  8
0
  6
Continuous
100
AcDbText
 10
150.3959261773712
 20
5.67213261511482
 30
0.0
 40
3.0
  1
単位
  7
STYLE3
100
AcDbText
  0
TEXT
  5
3844
330
18
100
AcDbEntity
  8
0
  6
Continuous
100
AcDbText
 10
150.5676471773712
 20
2.16989561511482
 30
0.0
 40
2.1
  1
Unit
  7
STYLE3
100
AcDbText
  0
TEXT
  5
3845
330
18
100
AcDbEntity
  8
0
  6
Continuous
100
AcDbText
 10
167.7138221773712
 20
5.380774615114821
 30
0.0
 40
3.0
  1
尺 度
  7
STYLE3
100
AcDbText
  0
TEXT
  5
3846
330
18
100
AcDbEntity
  8
0
  6
Continuous
100
AcDbText
 10
158.4379741773713
 20
3.91803861511482
 30
0.0
 40
2.399999999999999
  1
mm
  7
STYLE3
100
AcDbText
  0
TEXT
  5
3847
330
18
100
AcDbEntity
  8
0
  6
Continuous
100
AcDbText
 10
168.1770371773712
 20
2.461252615114821
 30
0.0
 40
2.1
  1
Scale
  7
STYLE3
100
AcDbText
  0
TEXT
  5
3848
330
18
100
AcDbEntity
  8
0
  6
Continuous
100
AcDbText
 10
177.7963261773712
 20
4.209395615114821
 30
0.0
 40
2.399999999999999
  1
1/1
  7
STYLE3
100
AcDbText
  0
TEXT
  5
3849
330
18
100
AcDbEntity
  8
0
  6
Continuous
100
AcDbText
 10
187.8900971773713
 20
2.16989661511482
 30
0.0
 40
2.1
  1
Date
  7
STYLE3
100
AcDbText
  0
TEXT
  5
384A
330
18
100
AcDbEntity
  8
0
  6
Continuous
100
AcDbText
 10
187.5067361773712
 20
5.502979615114821
 30
0.0
 40
3.0
  1
日 付
  7
STYLE3
100
AcDbText
  0
TEXT
  5
384B
330
18
100
AcDbEntity
  8
0
  6
Continuous
100
AcDbText
 10
196.6349051773712
 20
3.918037615114821
 30
0.0
 40
2.1
  1
2010.06.10
  7
STYLE3
100
AcDbText
  0
TEXT
  5
384C
330
18
100
AcDbEntity
  8
0
  6
Continuous
100
AcDbText
 10
217.0394591773713
 20
5.957534615114821
 30
0.0
 40
3.0
  1
株式会社　尾崎製作所
  7
STYLE3
100
AcDbText
  0
TEXT
  5
384D
330
18
100
AcDbEntity
  8
0
  6
Continuous
100
AcDbText
 10
217.9139381773713
 20
2.16989561511482
 30
0.0
 40
2.1
  1
OZAKI MFG. CO., LTD.
  7
STYLE3
100
AcDbText
  0
VIEWPORT
  5
177
330
15
100
AcDbEntity
 67
     1
  8
0
100
AcDbViewport
 10
127.5041203589828
 20
97.49391214526822
 30
0.0
 40
418.3086347473814
 41
243.0346063651093
 68
     1
 69
     1
 12
127.5041203589828
 22
97.49391214526822
 13
0.0
 23
0.0
 14
10.0
 24
10.0
 15
10.0
 25
10.0
 16
0.0
 26
0.0
 36
1.0
 17
0.0
 27
0.0
 37
0.0
 42
50.0
 43
0.0
 44
0.0
 45
243.0346063651093
 50
0.0
 51
0.0
 72
   100
 90
    32800
  1

281
     0
 71
     1
 74
     0
110
0.0
120
0.0
130
0.0
111
1.0
121
0.0
131
0.0
112
0.0
122
1.0
132
0.0
 79
     0
146
0.0
170
     0
  0
ENDSEC
  0
SECTION
  2
OBJECTS
  0
DICTIONARY
  5
C
330
0
100
AcDbDictionary
281
     1
  3
ACAD_COLOR
350
F88
  3
ACAD_GROUP
350
D
  3
ACAD_LAYOUT
350
F8B
  3
ACAD_MATERIAL
350
F87
  3
ACAD_MLINESTYLE
350
1B
  3
ACAD_PLOTSETTINGS
350
F8C
  3
ACAD_PLOTSTYLENAME
350
F85
  3
ACAD_TABLESTYLE
350
F89
  3
AcDbVariableDictionary
350
FEA
  0
DICTIONARY
  5
1D39
330
2
100
AcDbDictionary
280
     1
281
     1
  3
ACAD_LAYERSTATES
360
1D3A
  0
DICTIONARY
  5
FBA
330
18
100
AcDbDictionary
280
     1
281
     1
  3
ACAD_SORTENTS
360
FBB
  0
DICTIONARY
  5
F88
102
{ACAD_REACTORS
330
C
102
}
330
C
100
AcDbDictionary
281
     1
  0
DICTIONARY
  5
D
102
{ACAD_REACTORS
330
C
102
}
330
C
100
AcDbDictionary
281
     1
  3
*A1
350
11BF
  3
*A2
350
1220
  3
*A3
350
1749
  3
*A4
350
1AA3
  0
DICTIONARY
  5
F8B
102
{ACAD_REACTORS
330
C
102
}
330
C
100
AcDbDictionary
281
     1
  3
Model
350
F8D
  3
レイアウト1
350
F8E
  0
DICTIONARY
  5
F87
102
{ACAD_REACTORS
330
C
102
}
330
C
100
AcDbDictionary
281
     1
  0
DICTIONARY
  5
1B
102
{ACAD_REACTORS
330
C
102
}
330
C
100
AcDbDictionary
281
     1
  3
STANDARD
350
1C
  0
DICTIONARY
  5
F8C
102
{ACAD_REACTORS
330
C
102
}
330
C
100
AcDbDictionary
281
     1
  0
ACDBDICTIONARYWDFLT
  5
F85
102
{ACAD_REACTORS
330
C
102
}
330
C
100
AcDbDictionary
281
     1
  3
Normal
350
F86
100
AcDbDictionaryWithDefault
340
F86
  0
DICTIONARY
  5
F89
102
{ACAD_REACTORS
330
C
102
}
330
C
100
AcDbDictionary
281
     1
  3
Standard
350
F8A
  0
DICTIONARY
  5
FEA
102
{ACAD_REACTORS
330
C
102
}
330
C
100
AcDbDictionary
281
     1
  3
CTABLESTYLE
350
FEB
  0
DICTIONARY
  5
1D3A
102
{ACAD_REACTORS
330
1D39
102
}
330
1D39
100
AcDbDictionary
281
     1
  0
SORTENTSTABLE
  5
FBB
102
{ACAD_REACTORS
330
FBA
102
}
330
FBA
100
AcDbSortentsTable
330
18
331
C07
  5
C08
331
BC8
  5
BC9
331
D0E
  5
D1A
331
13C1
  5
13C1
331
BD0
  5
BD1
331
C0F
  5
C10
331
B01
  5
B02
331
13C9
  5
13C9
331
B38
  5
B39
331
BD8
  5
BD9
331
C17
  5
C18
331
B09
  5
B0A
331
B40
  5
B41
331
B8F
  5
B90
331
E4C
  5
E55
331
B11
  5
B12
331
B48
  5
B49
331
B97
  5
B98
331
35A1
  5
35A3
331
2A74
  5
2A85
331
B50
  5
B51
331
B9F
  5
BA0
331
2A3D
  5
2A45
331
2ACB
  5
2AD3
331
20DE
  5
23EC
331
2A45
  5
2A4F
331
35A9
  5
35AB
331
2AD3
  5
2ADB
331
2A4D
  5
2A59
331
35E4
  5
35E7
331
3643
  5
3643
331
27E
  5
27E
331
2FC
  5
2FC
331
35F4
  5
360B
331
6A3
  5
6A3
331
286
  5
286
331
2CD
  5
2CD
331
304
  5
304
331
28E
  5
28E
331
6BB
  5
6BB
331
BA1
  5
BA2
331
BE0
  5
BE1
331
E54
  5
E56
331
ECB
  5
ECD
331
BE8
  5
BE9
331
C1F
  5
C20
331
DA5
  5
DA6
331
BB1
  5
BB2
331
BF0
  5
BF1
331
C27
  5
C29
331
B58
  5
B59
331
BB9
  5
BBA
331
BF8
  5
BF9
331
B19
  5
B1A
331
DB5
  5
DBB
331
E84
  5
E86
331
B21
  5
B22
331
B60
  5
B61
331
13D1
  5
13D1
331
B29
  5
B2A
331
B68
  5
B85
331
2ADB
  5
2AE3
331
277E
  5
1402
331
2A55
  5
2A61
331
AFA
  5
AFB
331
B31
  5
B32
331
13D9
  5
13D9
331
2AA4
  5
2AB0
331
2AE3
  5
2AEC
331
278E
  5
28D6
331
2A5D
  5
2A69
331
2AEB
  5
2AF3
331
2A65
  5
2A71
331
331A
  5
3009
331
2AF3
  5
23ED
331
35BD
  5
35BF
331
2A6D
  5
2A79
331
2A2E
  5
2A44
331
35C5
  5
35C7
331
3614
  5
3614
331
35D5
  5
2AFE
331
2A6
  5
2A6
331
2E5
  5
2E5
331
2AE
  5
2AE
331
2ED
  5
2ED
331
277
  5
277
331
2F5
  5
2F5
331
6D3
  5
6D3
331
938
  5
939
331
6DB
  5
6DB
331
BC1
  5
BC2
331
C00
  5
C01
331
BC9
  5
BCA
331
C08
  5
C09
331
13C2
  5
13C2
331
C10
  5
C11
331
BD1
  5
BD2
331
EBC
  5
EBE
331
B02
  5
B03
331
13CA
  5
13CA
331
B39
  5
B3A
331
B88
  5
B89
331
BD9
  5
BDA
331
B0A
  5
B0B
331
B41
  5
B42
331
B90
  5
B91
331
B12
  5
B13
331
B49
  5
B4A
331
B98
  5
B99
331
2AFB
  5
23EB
331
35A2
  5
35A4
331
2A75
  5
2A86
331
B51
  5
B52
331
2A3E
  5
2A47
331
35AA
  5
35AC
331
2A7D
  5
2A89
331
2ACC
  5
2AD4
331
2A46
  5
2A51
331
2A85
  5
2AA5
331
2AD4
  5
2ADC
331
2A4E
  5
2A5A
331
2DA3
  5
2DA5
331
35E5
  5
35E8
331
3644
  5
3644
331
35ED
  5
35F0
331
27F
  5
27F
331
2FD
  5
2FD
331
287
  5
287
331
2D6
  5
2D6
331
28F
  5
28F
331
6BC
  5
6BC
331
297
  5
297
331
C18
  5
C19
331
BA2
  5
BA3
331
BE1
  5
BE2
331
E55
  5
E57
331
ECC
  5
ECE
331
BE9
  5
BEA
331
C20
  5
C21
331
DA6
  5
DA8
331
BB2
  5
BB3
331
BF1
  5
BF2
331
B59
  5
B5A
331
BBA
  5
BBB
331
BF9
  5
BFA
331
B1A
  5
B1B
331
B61
  5
B62
331
DB6
  5
E45
331
E85
  5
E8C
331
B22
  5
B23
331
13D2
  5
13D2
331
1439
  5
1D05
331
AF3
  5
AF4
331
B2A
  5
B2B
331
2ADC
  5
2AE4
331
13DA
  5
13DA
331
2A56
  5
2A62
331
AFB
  5
AFC
331
B32
  5
B33
331
2AA5
  5
2AB1
331
2AE4
  5
2AED
331
2A5E
  5
2A6A
331
2AEC
  5
2AF4
331
331B
  5
3007
331
2A66
  5
2A72
331
2AAD
  5
2AB9
331
35BE
  5
35C0
331
2AF4
  5
23EA
331
359B
  5
359D
331
360D
  5
360F
331
2A6E
  5
2A7A
331
35C6
  5
35C8
331
2DE
  5
2DE
331
29F
  5
29F
331
6C4
  5
6C4
331
2A7
  5
2A7
331
2AF
  5
2AF
331
2EE
  5
2EE
331
931
  5
932
331
2F6
  5
2F6
331
6D4
  5
6D4
331
939
  5
93A
331
69D
  5
69D
331
6DC
  5
6DC
331
BC2
  5
BC3
331
C01
  5
C02
331
BCA
  5
BCB
331
C09
  5
C0A
331
EBD
  5
EBF
331
C11
  5
C12
331
13C3
  5
13C3
331
BD2
  5
BD3
331
B03
  5
B04
331
BDA
  5
BDB
331
13CB
  5
13CB
331
B3A
  5
B3B
331
B89
  5
B8A
331
B0B
  5
B0C
331
B42
  5
B43
331
B91
  5
B92
331
B13
  5
B14
331
B4A
  5
B4B
331
B99
  5
B9A
331
1402
  5
1439
331
2AFC
  5
23EF
331
35A3
  5
35A5
331
2A76
  5
2A87
331
B52
  5
B53
331
2A3F
  5
2A49
331
35AB
  5
35AD
331
2A7E
  5
2A8E
331
2ACD
  5
2AD5
331
20E0
  5
23F0
331
2A47
  5
2A52
331
2AD5
  5
2ADD
331
2A4F
  5
2A5B
331
2DA4
  5
2DA6
331
35E6
  5
35E9
331
3645
  5
3645
331
278
  5
278
331
35EE
  5
35F5
331
280
  5
280
331
288
  5
288
331
2CF
  5
2CF
331
306
  5
306
331
864
  5
864
331
290
  5
290
331
2D7
  5
2D7
331
6BD
  5
6BD
331
C19
  5
C1A
331
BA3
  5
BA4
331
BE2
  5
BE3
331
C21
  5
C22
331
D9F
  5
DA0
331
E56
  5
E58
331
BEA
  5
BEB
331
ECD
  5
ECF
331
DA7
  5
DA9
331
BB3
  5
BB4
331
BF2
  5
BF3
331
C29
  5
C41
331
B1B
  5
B1C
331
B5A
  5
B5E
331
BBB
  5
BBC
331
BFA
  5
BFB
331
B62
  5
B63
331
E86
  5
E8E
331
B23
  5
B24
331
13D3
  5
13D3
331
AF4
  5
AF5
331
B2B
  5
B2C
331
2A9E
  5
2AAA
331
2ADD
  5
2AE5
331
13DB
  5
13DB
331
2A57
  5
2A63
331
AFC
  5
AFD
331
B33
  5
B34
331
2AA6
  5
2AB2
331
2AE5
  5
2AEE
331
2790
  5
28D7
331
2A5F
  5
2A6B
331
2AED
  5
2AF5
331
2A28
  5
2A3E
331
2A67
  5
2A73
331
35BF
  5
35C1
331
2AF5
  5
2AFC
331
359C
  5
359E
331
360E
  5
3610
331
2A6F
  5
2A7B
331
298
  5
298
331
35C7
  5
35C9
331
2A0
  5
2A0
331
2DF
  5
2DF
331
2E7
  5
2E7
331
6C5
  5
6C5
331
2A8
  5
2A8
331
912
  5
912
331
68E
  5
68E
331
2B0
  5
2B0
331
2EF
  5
2EF
331
932
  5
933
331
6D5
  5
6D5
331
93A
  5
93B
331
BC3
  5
BC4
331
C02
  5
C03
331
C41
  5
C7A
331
E8E
  5
EBD
331
BCB
  5
BCC
331
C0A
  5
C0B
331
EBE
  5
EC0
331
BD3
  5
BD4
331
C12
  5
C13
331
13C4
  5
13C4
331
B04
  5
B05
331
BDB
  5
BDE
331
13CC
  5
13CC
331
B3B
  5
B3C
331
B8A
  5
B8B
331
B0C
  5
B0D
331
B43
  5
B44
331
B92
  5
B93
331
B14
  5
B16
331
B4B
  5
B4C
331
B9A
  5
B9B
331
2AC6
  5
2ACE
331
2AFD
  5
2AFD
331
35A4
  5
35A6
331
2A40
  5
2A4A
331
B53
  5
B54
331
2A77
  5
2A88
331
2ACE
  5
2AD6
331
20E1
  5
23F1
331
2A48
  5
2A53
331
2AD6
  5
2ADE
331
2DA5
  5
3006
331
35E7
  5
35EA
331
279
  5
279
331
281
  5
281
331
289
  5
289
331
2D0
  5
2D0
331
307
  5
307
331
865
  5
865
331
291
  5
291
331
6BE
  5
6BE
331
677
  5
677
331
BE3
  5
BE4
331
C1A
  5
C1B
331
BA4
  5
BAE
331
C22
  5
C23
331
DA0
  5
DA2
331
E57
  5
E59
331
BEB
  5
BEC
331
ECE
  5
F24
331
DA8
  5
DAA
331
BB4
  5
BB5
331
BF3
  5
BF4
331
B1C
  5
B1D
331
BBC
  5
BBD
331
BFB
  5
BFC
331
B24
  5
B25
331
B63
  5
B64
331
13D4
  5
13D4
331
AF5
  5
AF6
331
B2C
  5
B2D
331
2ADE
  5
2AE6
331
B34
  5
B35
331
13DC
  5
13DC
331
AFD
  5
AFE
331
2A58
  5
2A64
331
2AE6
  5
2AEF
331
2791
  5
28D8
331
2A60
  5
2A6C
331
2AAF
  5
2A46
331
2A68
  5
2A74
331
2A29
  5
2A3F
331
2AEE
  5
2AF6
331
35B8
  5
35BA
331
35C0
  5
35C2
331
2AF6
  5
2AF8
331
359D
  5
359F
331
360F
  5
3611
331
299
  5
299
331
2A1
  5
2A1
331
2E0
  5
2E0
331
26A
  5
26A
331
2A9
  5
2A9
331
2F0
  5
2F0
331
6CE
  5
6CE
331
913
  5
913
331
6D6
  5
6D6
331
933
  5
934
331
93B
  5
93C
331
69F
  5
69F
331
BC4
  5
BC5
331
C03
  5
C04
331
BCC
  5
BCD
331
C0B
  5
C0C
331
E18
  5
E4A
331
EBF
  5
ECA
331
BD4
  5
BD5
331
C13
  5
C14
331
D1A
  5
D1B
331
13C5
  5
13C5
331
B8B
  5
B8C
331
B05
  5
B06
331
13CD
  5
13CD
331
B3C
  5
B3D
331
B0D
  5
B0E
331
B44
  5
B45
331
B93
  5
B94
331
2A70
  5
2A81
331
B4C
  5
B4D
331
B9B
  5
B9C
331
2AC7
  5
2ACF
331
2A41
  5
2A4B
331
2AFE
  5
2C16
331
35A5
  5
35A7
331
B54
  5
B55
331
35AD
  5
35AF
331
2A49
  5
2A55
331
2ACF
  5
2AD7
331
2DA6
  5
3008
331
2AD7
  5
2ADF
331
2A88
  5
2AA7
331
35E8
  5
35EB
331
35F0
  5
360D
331
27A
  5
27A
331
282
  5
282
331
943
  5
944
331
2D1
  5
2D1
331
308
  5
308
331
6B7
  5
6B7
331
292
  5
292
331
310
  5
310
331
BE4
  5
BE5
331
C1B
  5
C1C
331
ECF
  5
10B6
331
BEC
  5
BED
331
C23
  5
C24
331
E58
  5
E5A
331
DA9
  5
DAB
331
E60
  5
E62
331
BB5
  5
BB6
331
BF4
  5
BF5
331
B1D
  5
B1E
331
DB1
  5
DB6
331
BBD
  5
BC0
331
BFC
  5
BFD
331
B25
  5
B26
331
B64
  5
B65
331
2A51
  5
2A5D
331
B2D
  5
B2E
331
13D5
  5
13D5
331
AF6
  5
AF7
331
2AA0
  5
2AAC
331
2ADF
  5
2AE7
331
B35
  5
B36
331
13DD
  5
13DD
331
AFE
  5
AFF
331
2A59
  5
2A65
331
3316
  5
331A
331
2AE7
  5
2AF0
331
2792
  5
28D9
331
2A61
  5
2A6D
331
2A69
  5
2A75
331
2AB0
  5
2A48
331
2A2A
  5
2A40
331
2AEF
  5
2AF7
331
13F5
  5
1436
331
1D1B
  5
1EE6
331
35B9
  5
35BB
331
35C1
  5
35C3
331
2AF7
  5
23EE
331
359E
  5
35A0
331
3610
  5
3612
331
29A
  5
29A
331
35C9
  5
35CB
331
678
  5
678
331
2A2
  5
2A2
331
2E1
  5
2E1
331
2AA
  5
2AA
331
2E9
  5
2E9
331
26B
  5
26B
331
6CF
  5
6CF
331
273
  5
273
331
6D7
  5
6D7
331
934
  5
935
331
698
  5
698
331
93C
  5
93D
331
BC5
  5
BC6
331
C04
  5
C05
331
BCD
  5
BCE
331
C0C
  5
C0D
331
13BE
  5
13BE
331
EC0
  5
ECB
331
BD5
  5
BD6
331
C14
  5
C15
331
D1B
  5
D9F
331
13C6
  5
13C6
331
B8C
  5
B8D
331
B06
  5
B07
331
E49
  5
E4B
331
13CE
  5
13CE
331
B3D
  5
B3E
331
B94
  5
B96
331
B0E
  5
B0F
331
B45
  5
B46
331
2A71
  5
2A82
331
B16
  5
B17
331
B4D
  5
B4E
331
B9C
  5
B9D
331
2AC8
  5
2AD0
331
2A42
  5
2A4C
331
35A6
  5
35A8
331
B55
  5
B56
331
2AD0
  5
2AD8
331
2A4A
  5
2A56
331
35AE
  5
35B0
331
35E1
  5
35E4
331
3640
  5
3640
331
35E9
  5
35EE
331
2F9
  5
2F9
331
27B
  5
27B
331
6A0
  5
6A0
331
283
  5
283
331
944
  5
945
331
28B
  5
28B
331
309
  5
309
331
6B8
  5
6B8
331
293
  5
293
331
311
  5
311
331
9AC
  5
AF3
331
BE5
  5
BE6
331
C1C
  5
C1D
331
BED
  5
BEE
331
C24
  5
C25
331
DA2
  5
DA3
331
BAE
  5
BAF
331
E59
  5
E5B
331
DAA
  5
DAC
331
E61
  5
E81
331
BB6
  5
BB7
331
BF5
  5
BF6
331
B1E
  5
B1F
331
BFD
  5
BFE
331
E81
  5
E83
331
B26
  5
B27
331
B65
  5
B66
331
2AD8
  5
2AE0
331
2A52
  5
2A5E
331
B2E
  5
B2F
331
13D6
  5
13D6
331
AF7
  5
AF8
331
2AE0
  5
2AE8
331
2A5A
  5
2A66
331
AFF
  5
B00
331
B36
  5
B37
331
B85
  5
B86
331
2AA1
  5
2AAD
331
3317
  5
331B
331
2AE8
  5
2AF1
331
2A62
  5
2A6E
331
35BA
  5
35BC
331
2A6A
  5
2A76
331
2AB1
  5
2A57
331
2A2B
  5
2A41
331
1D1C
  5
1EE7
331
35C2
  5
35C4
331
359F
  5
35A1
331
3611
  5
3613
331
29B
  5
29B
331
35CA
  5
35D5
331
679
  5
679
331
2A3
  5
2A3
331
2E2
  5
2E2
331
2AB
  5
2AB
331
2EA
  5
2EA
331
26C
  5
26C
331
274
  5
274
331
699
  5
699
331
6D8
  5
6D8
331
93D
  5
93E
331
BC6
  5
BC7
331
C05
  5
C06
331
13BF
  5
13BF
331
BCE
  5
BCF
331
C0D
  5
C0E
331
BD6
  5
BD7
331
C15
  5
C16
331
13C7
  5
13C7
331
B3E
  5
B3F
331
B8D
  5
B8E
331
B07
  5
B08
331
E4A
  5
E4C
331
BDE
  5
BDF
331
13CF
  5
13CF
331
B0F
  5
B10
331
B46
  5
B47
331
B9D
  5
B9E
331
2A72
  5
2A83
331
2AF8
  5
2AFB
331
B17
  5
B18
331
B4E
  5
B4F
331
2AC9
  5
2AD1
331
20DC
  5
20DE
331
2A43
  5
2A4D
331
35A7
  5
35A9
331
B56
  5
B57
331
2AD1
  5
2AD9
331
2A4B
  5
2A58
331
35E2
  5
35E5
331
3641
  5
3641
331
1436
  5
1CE9
331
35B7
  5
35B9
331
35EA
  5
35EF
331
2FA
  5
2FA
331
35F2
  5
35E2
331
27C
  5
27C
331
6A1
  5
6A1
331
284
  5
284
331
945
  5
946
331
28C
  5
28C
331
2D3
  5
2D3
331
995
  5
996
331
6B9
  5
6B9
331
294
  5
294
331
312
  5
312
331
672
  5
672
331
BE6
  5
BE7
331
C1D
  5
C1E
331
E5A
  5
E60
331
BAF
  5
BB0
331
BEE
  5
BEF
331
C25
  5
C26
331
DA3
  5
DA4
331
BF6
  5
BF7
331
DAB
  5
DB1
331
BB7
  5
BB8
331
E62
  5
E82
331
E82
  5
E84
331
BFE
  5
BFF
331
B1F
  5
B20
331
B5E
  5
B5F
331
B27
  5
B28
331
B66
  5
B67
331
2AD9
  5
2AE1
331
2A53
  5
2A5F
331
B2F
  5
B30
331
AF8
  5
AF9
331
13D7
  5
13D7
331
277C
  5
28D5
331
2AE1
  5
2AE9
331
2A5B
  5
2A67
331
B37
  5
B38
331
B86
  5
B87
331
13DF
  5
13DF
331
2AA2
  5
2AAE
331
2A63
  5
2A6F
331
3318
  5
33A6
331
35BB
  5
35BD
331
2A6B
  5
2A77
331
2AB2
  5
2A54
331
2A2C
  5
2A42
331
3612
  5
35DB
331
35C3
  5
35C5
331
29C
  5
29C
331
67A
  5
67A
331
2A4
  5
2A4
331
2E3
  5
2E3
331
35D3
  5
35E1
331
906
  5
906
331
2AC
  5
2AC
331
2EB
  5
2EB
331
692
  5
692
331
2F3
  5
2F3
331
6D1
  5
6D1
331
275
  5
275
331
69A
  5
69A
331
6D9
  5
6D9
331
93E
  5
93F
331
C06
  5
C07
331
BC7
  5
BC8
331
13C0
  5
13C0
331
BCF
  5
BD0
331
C0E
  5
C0F
331
B00
  5
B01
331
13C8
  5
13C8
331
BD7
  5
BD8
331
C16
  5
C17
331
B3F
  5
B40
331
B8E
  5
B8F
331
E4B
  5
E54
331
BDF
  5
BE0
331
B08
  5
B09
331
B47
  5
B48
331
B96
  5
B97
331
B10
  5
B11
331
35A0
  5
35A2
331
B9E
  5
B9F
331
2A73
  5
2A84
331
2AF9
  5
20E2
331
B4F
  5
B50
331
2ACA
  5
2AD2
331
2A44
  5
2A4E
331
35A8
  5
35AA
331
B57
  5
B58
331
2AD2
  5
2ADA
331
35E3
  5
35E6
331
3642
  5
3642
331
27D
  5
27D
331
35F3
  5
35F2
331
285
  5
285
331
28D
  5
28D
331
996
  5
9AC
331
295
  5
295
331
6BA
  5
6BA
331
BA0
  5
BA1
331
ECA
  5
ECC
331
BE7
  5
BE8
331
C1E
  5
C1F
331
E5B
  5
E61
331
BB0
  5
BB1
331
BEF
  5
BF0
331
C26
  5
C27
331
DA4
  5
DA5
331
11F9
  5
DA7
331
B18
  5
B19
331
BF7
  5
BF8
331
BB8
  5
BB9
331
DAC
  5
DB5
331
E83
  5
E85
331
BFF
  5
C00
331
B20
  5
B21
331
B5F
  5
B60
331
B28
  5
B29
331
B67
  5
B68
331
13D0
  5
13D0
331
2ADA
  5
2AE2
331
277D
  5
13E0
331
2A54
  5
2A60
331
AF9
  5
AFA
331
B30
  5
B31
331
13D8
  5
13D8
331
2AE2
  5
2AEA
331
2A5C
  5
2A68
331
B87
  5
B88
331
13E0
  5
13F5
331
2AA3
  5
2AAF
331
2AEA
  5
2AF2
331
2A64
  5
2A70
331
3319
  5
33A7
331
2AF2
  5
2AF9
331
35BC
  5
35BE
331
360B
  5
360E
331
2A6C
  5
2A78
331
2A2D
  5
2A43
331
35C4
  5
35C6
331
3613
  5
35CC
331
2DC
  5
2DC
331
2A5
  5
2A5
331
35D4
  5
2C15
331
907
  5
907
331
2AD
  5
2AD
331
917
  5
917
331
276
  5
276
331
2F4
  5
2F4
331
6D2
  5
6D2
331
937
  5
938
331
93F
  5
940
331
BC0
  5
BC1
  0
GROUP
  5
11BF
102
{ACAD_REACTORS
330
D
102
}
330
D
100
AcDbGroup
300

 70
     1
 71
     1
  0
GROUP
  5
1220
102
{ACAD_REACTORS
330
D
102
}
330
D
100
AcDbGroup
300

 70
     1
 71
     1
  0
GROUP
  5
1749
102
{ACAD_REACTORS
330
D
102
}
330
D
100
AcDbGroup
300

 70
     1
 71
     1
  0
GROUP
  5
1AA3
102
{ACAD_REACTORS
330
D
102
}
330
D
100
AcDbGroup
300

 70
     1
 71
     1
  0
LAYOUT
  5
F8D
102
{ACAD_REACTORS
330
F8B
102
}
330
F8B
100
AcDbPlotSettings
  1

  2
A4 EPSON LP-6100.pc3
  4
A4
  6

 40
5.873749732971191
 41
5.873747825622558
 42
5.873748779296875
 43
5.873748779296875
 44
209.9733276367187
 45
297.0106506347656
 46
0.8
 47
25.0
 48
0.0
 49
0.0
140
0.0
141
0.0
142
1.0
143
1.0
 70
 28336
 72
     1
 73
     1
 74
     1
  7
AutoCad LT 98.ctb
 75
    16
147
1.0
 76
     1
 77
     2
 78
   300
148
0.2319554879279622
149
0.2090691322566727
100
AcDbLayout
  1
Model
 70
     1
 71
     0
 10
0.0
 20
0.0
 11
12.0
 21
9.0
 12
0.0
 22
0.0
 32
0.0
 14
0.0
 24
0.0
 34
0.0
 15
0.0
 25
0.0
 35
0.0
146
0.0
 13
0.0
 23
0.0
 33
0.0
 16
1.0
 26
0.0
 36
0.0
 17
0.0
 27
1.0
 37
0.0
 76
     0
330
18
1001
ACAD_PSEXT
1000
A4 EPSON LP-6100.pc3
1000
EPSON LP-6100
1000
\\SATO-MATE2
1000

1070
     0
  0
LAYOUT
  5
F8E
102
{ACAD_REACTORS
330
F8B
102
}
330
F8B
100
AcDbPlotSettings
  1

  2
Mytalk FAX
  4

  6

 40
0.0
 41
0.0
 42
0.0
 43
0.0
 44
0.0
 45
0.0
 46
0.0
 47
0.0
 48
0.0
 49
0.0
140
0.0
141
0.0
142
1.0
143
1.0
 70
   688
 72
     0
 73
     0
 74
     5
  7
AutoCad LT 98.ctb
 75
    16
147
1.0
 76
     0
 77
     2
 78
   300
148
0.0
149
0.0
100
AcDbLayout
  1
レイアウト1
 70
     1
 71
     1
 10
0.0
 20
0.0
 11
420.0
 21
297.0
 12
0.0
 22
0.0
 32
0.0
 14
-0.2
 24
-0.2
 34
0.0
 15
255.2
 25
195.2
 35
0.0
146
0.0
 13
0.0
 23
0.0
 33
0.0
 16
1.0
 26
0.0
 36
0.0
 17
0.0
 27
1.0
 37
0.0
 76
     0
330
15
331
177
  0
MLINESTYLE
  5
1C
102
{ACAD_REACTORS
330
1B
102
}
330
1B
100
AcDbMlineStyle
  2
STANDARD
 70
     0
  3

 62
   256
 51
90.0
 52
90.0
 71
     2
 49
0.5
 62
   256
  6
BYLAYER
 49
-0.5
 62
   256
  6
BYLAYER
  0
ACDBPLACEHOLDER
  5
F86
102
{ACAD_REACTORS
330
F85
102
}
330
F85
  0
ACAD_PROXY_OBJECT
  5
F8A
102
{ACAD_REACTORS
330
F89
102
}
330
F89
100
AcDbProxyObject
 90
      499
 91
      503
 95
  2555929
 70
     0
 93
     1849
310
4214DD185B99185C992420000000000000F83F0000000000003E0FC00000000000004901028000000C1008070000C3001FDFF8000000C1003FBFF000000182007F7FE00000030400FEFFC00000060801FDFF8000000C1003FBFF000000182000000000000000C2020B0000001820100E000186003FBFF000000182007F7FE0
310
0000030400FEFFC00000060801FDFF8000000C1003FBFF000000182007F7FE0000003040000000000000012404160000003040201C00030C007F7FE00000030400FEFFC00000060801FDFF8000000C1003FBFF000000182007F7FE00000030400FEFFC000000608000
340
F
340
F
340
F
 94
        0
  0
DICTIONARYVAR
  5
FEB
102
{ACAD_REACTORS
330
FEA
102
}
330
FEA
100
DictionaryVariables
280
     0
  1
STANDARD
  0
ENDSEC
  0
EOF
