  0
SECTION
  2
HEADER
  9
$ACADVER
  1
AC1018
  9
$ACADMAINTVER
 70
     0
  9
$DWGCODEPAGE
  3
ANSI_932
  9
$INSBASE
 10
0.0
 20
0.0
 30
0.0
  9
$EXTMIN
 10
-0.2256326878466552
 20
-0.2181295450453717
 30
-0.0000152417904182
  9
$EXTMAX
 10
255.2260019774067
 20
195.2198654319145
 30
0.0000610556461278
  9
$LIMMIN
 10
0.0
 20
0.0
  9
$LIMMAX
 10
420.0
 20
297.0
  9
$ORTHOMODE
 70
     0
  9
$REGENMODE
 70
     1
  9
$FILLMODE
 70
     1
  9
$QTEXTMODE
 70
     0
  9
$MIRRTEXT
 70
     1
  9
$LTSCALE
 40
1.0
  9
$ATTMODE
 70
     1
  9
$TEXTSIZE
 40
2.5
  9
$TRACEWID
 40
1.0
  9
$TEXTSTYLE
  7
STYLE3
  9
$CLAYER
  8
寸法線
  9
$CELTYPE
  6
BYLAYER
  9
$CECOLOR
 62
   256
  9
$CELTSCALE
 40
1.0
  9
$DISPSILH
 70
     0
  9
$DIMSCALE
 40
1.0
  9
$DIMASZ
 40
2.5
  9
$DIMEXO
 40
0.0
  9
$DIMDLI
 40
3.75
  9
$DIMRND
 40
0.0
  9
$DIMDLE
 40
0.0
  9
$DIMEXE
 40
1.25
  9
$DIMTP
 40
0.0
  9
$DIMTM
 40
0.0
  9
$DIMTXT
 40
2.5
  9
$DIMCEN
 40
2.5
  9
$DIMTSZ
 40
0.0
  9
$DIMTOL
 70
     0
  9
$DIMLIM
 70
     0
  9
$DIMTIH
 70
     0
  9
$DIMTOH
 70
     0
  9
$DIMSE1
 70
     0
  9
$DIMSE2
 70
     0
  9
$DIMTAD
 70
     1
  9
$DIMZIN
 70
     8
  9
$DIMBLK
  1

  9
$DIMASO
 70
     1
  9
$DIMSHO
 70
     1
  9
$DIMPOST
  1

  9
$DIMAPOST
  1

  9
$DIMALT
 70
     0
  9
$DIMALTD
 70
     4
  9
$DIMALTF
 40
0.0394
  9
$DIMLFAC
 40
1.0
  9
$DIMTOFL
 70
     1
  9
$DIMTVP
 40
0.0
  9
$DIMTIX
 70
     0
  9
$DIMSOXD
 70
     0
  9
$DIMSAH
 70
     1
  9
$DIMBLK1
  1
OPEN
  9
$DIMBLK2
  1
OPEN
  9
$DIMSTYLE
  2
STYLE3
  9
$DIMCLRD
 70
     2
  9
$DIMCLRE
 70
     2
  9
$DIMCLRT
 70
     6
  9
$DIMTFAC
 40
1.0
  9
$DIMGAP
 40
0.625
  9
$DIMJUST
 70
     0
  9
$DIMSD1
 70
     0
  9
$DIMSD2
 70
     0
  9
$DIMTOLJ
 70
     1
  9
$DIMTZIN
 70
     0
  9
$DIMALTZ
 70
     0
  9
$DIMALTTZ
 70
     0
  9
$DIMUPT
 70
     0
  9
$DIMDEC
 70
     2
  9
$DIMTDEC
 70
     4
  9
$DIMALTU
 70
     8
  9
$DIMALTTD
 70
     4
  9
$DIMTXSTY
  7
STYLE3
  9
$DIMAUNIT
 70
     0
  9
$DIMADEC
 70
     0
  9
$DIMALTRND
 40
0.0
  9
$DIMAZIN
 70
     0
  9
$DIMDSEP
 70
    46
  9
$DIMATFIT
 70
     3
  9
$DIMFRAC
 70
     0
  9
$DIMLDRBLK
  1

  9
$DIMLUNIT
 70
     2
  9
$DIMLWD
 70
    -2
  9
$DIMLWE
 70
    -2
  9
$DIMTMOVE
 70
     0
  9
$LUNITS
 70
     2
  9
$LUPREC
 70
     4
  9
$SKETCHINC
 40
1.0
  9
$FILLETRAD
 40
1.0
  9
$AUNITS
 70
     0
  9
$AUPREC
 70
     0
  9
$MENU
  1
.
  9
$ELEVATION
 40
0.0
  9
$PELEVATION
 40
0.0
  9
$THICKNESS
 40
0.0
  9
$LIMCHECK
 70
     0
  9
$CHAMFERA
 40
0.3
  9
$CHAMFERB
 40
0.3
  9
$CHAMFERC
 40
20.0
  9
$CHAMFERD
 40
0.0
  9
$SKPOLY
 70
     0
  9
$TDCREATE
 40
2451235.420719097
  9
$TDUCREATE
 40
2451235.045719098
  9
$TDUPDATE
 40
2455358.411828160
  9
$TDUUPDATE
 40
2455358.036828160
  9
$TDINDWG
 40
0.5602911690
  9
$TDUSRTIMER
 40
0.5602911690
  9
$USRTIMER
 70
     1
  9
$ANGBASE
 50
0.0
  9
$ANGDIR
 70
     0
  9
$PDMODE
 70
     0
  9
$PDSIZE
 40
0.0
  9
$PLINEWID
 40
0.0
  9
$SPLFRAME
 70
     0
  9
$SPLINETYPE
 70
     6
  9
$SPLINESEGS
 70
     8
  9
$HANDSEED
  5
21F8
  9
$SURFTAB1
 70
     6
  9
$SURFTAB2
 70
     6
  9
$SURFTYPE
 70
     6
  9
$SURFU
 70
     6
  9
$SURFV
 70
     6
  9
$UCSBASE
  2

  9
$UCSNAME
  2

  9
$UCSORG
 10
0.0
 20
0.0
 30
0.0
  9
$UCSXDIR
 10
1.0
 20
0.0
 30
0.0
  9
$UCSYDIR
 10
0.0
 20
1.0
 30
0.0
  9
$UCSORTHOREF
  2

  9
$UCSORTHOVIEW
 70
     0
  9
$UCSORGTOP
 10
0.0
 20
0.0
 30
0.0
  9
$UCSORGBOTTOM
 10
0.0
 20
0.0
 30
0.0
  9
$UCSORGLEFT
 10
0.0
 20
0.0
 30
0.0
  9
$UCSORGRIGHT
 10
0.0
 20
0.0
 30
0.0
  9
$UCSORGFRONT
 10
0.0
 20
0.0
 30
0.0
  9
$UCSORGBACK
 10
0.0
 20
0.0
 30
0.0
  9
$PUCSBASE
  2

  9
$PUCSNAME
  2

  9
$PUCSORG
 10
0.0
 20
0.0
 30
0.0
  9
$PUCSXDIR
 10
1.0
 20
0.0
 30
0.0
  9
$PUCSYDIR
 10
0.0
 20
1.0
 30
0.0
  9
$PUCSORTHOREF
  2

  9
$PUCSORTHOVIEW
 70
     0
  9
$PUCSORGTOP
 10
0.0
 20
0.0
 30
0.0
  9
$PUCSORGBOTTOM
 10
0.0
 20
0.0
 30
0.0
  9
$PUCSORGLEFT
 10
0.0
 20
0.0
 30
0.0
  9
$PUCSORGRIGHT
 10
0.0
 20
0.0
 30
0.0
  9
$PUCSORGFRONT
 10
0.0
 20
0.0
 30
0.0
  9
$PUCSORGBACK
 10
0.0
 20
0.0
 30
0.0
  9
$USERI1
 70
     0
  9
$USERI2
 70
     0
  9
$USERI3
 70
     0
  9
$USERI4
 70
     0
  9
$USERI5
 70
     0
  9
$USERR1
 40
0.0
  9
$USERR2
 40
0.0
  9
$USERR3
 40
0.0
  9
$USERR4
 40
0.0
  9
$USERR5
 40
0.0
  9
$WORLDVIEW
 70
     1
  9
$SHADEDGE
 70
     3
  9
$SHADEDIF
 70
    70
  9
$TILEMODE
 70
     1
  9
$MAXACTVP
 70
    48
  9
$PINSBASE
 10
0.0
 20
0.0
 30
0.0
  9
$PLIMCHECK
 70
     0
  9
$PEXTMIN
 10
-0.2
 20
-0.2
 30
0.0
  9
$PEXTMAX
 10
255.2
 20
195.2
 30
0.0
  9
$PLIMMIN
 10
0.0
 20
0.0
  9
$PLIMMAX
 10
420.0
 20
297.0
  9
$UNITMODE
 70
     0
  9
$VISRETAIN
 70
     1
  9
$PLINEGEN
 70
     0
  9
$PSLTSCALE
 70
     1
  9
$TREEDEPTH
 70
  3020
  9
$CMLSTYLE
  2
STANDARD
  9
$CMLJUST
 70
     0
  9
$CMLSCALE
 40
20.0
  9
$PROXYGRAPHICS
 70
     1
  9
$MEASUREMENT
 70
     1
  9
$CELWEIGHT
370
    -1
  9
$ENDCAPS
280
     0
  9
$JOINSTYLE
280
     0
  9
$LWDISPLAY
290
     0
  9
$INSUNITS
 70
     0
  9
$HYPERLINKBASE
  1

  9
$STYLESHEET
  1

  9
$XEDIT
290
     1
  9
$CEPSNTYPE
380
     0
  9
$PSTYLEMODE
290
     1
  9
$FINGERPRINTGUID
  2
{9DC2AA69-843C-41DD-80F0-F7C4EE24BB51}
  9
$VERSIONGUID
  2
{BDC6503C-C3D4-44D7-912D-026A01D12D01}
  9
$EXTNAMES
290
     1
  9
$PSVPSCALE
 40
0.0
  9
$OLESTARTUP
290
     0
  9
$SORTENTS
280
   127
  9
$INDEXCTL
280
     0
  9
$HIDETEXT
280
     0
  9
$XCLIPFRAME
290
     0
  9
$HALOGAP
280
     0
  9
$OBSCOLOR
 70
   257
  9
$OBSLTYPE
280
     0
  9
$INTERSECTIONDISPLAY
280
     0
  9
$INTERSECTIONCOLOR
 70
   257
  9
$DIMASSOC
280
     1
  9
$PROJECTNAME
  1

  0
ENDSEC
  0
SECTION
  2
CLASSES
  0
CLASS
  1
RASTERVARIABLES
  2
AcDbRasterVariables
  3
ISM
 90
        0
 91
        1
280
     0
281
     0
  0
CLASS
  1
IMAGEDEF
  2
AcDbRasterImageDef
  3
ISM
 90
        0
 91
        1
280
     0
281
     0
  0
CLASS
  1
IMAGEDEF_REACTOR
  2
AcDbRasterImageDefReactor
  3
ISM
 90
        1
 91
        0
280
     0
281
     0
  0
CLASS
  1
IMAGE
  2
AcDbRasterImage
  3
ISM
 90
      127
 91
        0
280
     0
281
     1
  0
CLASS
  1
ACDBDICTIONARYWDFLT
  2
AcDbDictionaryWithDefault
  3
ObjectDBX Classes
 90
        0
 91
        1
280
     0
281
     0
  0
ENDSEC
  0
SECTION
  2
TABLES
  0
TABLE
  2
VPORT
  5
8
330
0
100
AcDbSymbolTable
 70
     2
  0
VPORT
  5
21F7
330
8
100
AcDbSymbolTableRecord
100
AcDbViewportTableRecord
  2
*Active
 70
     0
 10
0.0
 20
0.0
 11
1.0
 21
1.0
 12
127.50018464478
 22
97.50086794343458
 13
0.0
 23
0.0
 14
10.0
 24
10.0
 15
10.0
 25
10.0
 16
0.0
 26
0.0
 36
1.0
 17
0.0
 27
0.0
 37
0.0
 40
196.9242154710812
 41
1.530456852791878
 42
50.0
 43
0.0
 44
0.0
 50
0.0
 51
0.0
 71
     0
 72
   100
 73
     1
 74
     1
 75
     0
 76
     0
 77
     0
 78
     0
281
     0
 65
     1
110
0.0
120
0.0
130
0.0
111
1.0
121
0.0
131
0.0
112
0.0
122
1.0
132
0.0
 79
     0
146
0.0
  0
ENDTAB
  0
TABLE
  2
LTYPE
  5
5
330
0
100
AcDbSymbolTable
 70
     4
  0
LTYPE
  5
12
330
5
100
AcDbSymbolTableRecord
100
AcDbLinetypeTableRecord
  2
BYBLOCK
 70
     0
  3

 72
    65
 73
     0
 40
0.0
  0
LTYPE
  5
13
330
5
100
AcDbSymbolTableRecord
100
AcDbLinetypeTableRecord
  2
BYLAYER
 70
     0
  3

 72
    65
 73
     0
 40
0.0
  0
LTYPE
  5
14
330
5
100
AcDbSymbolTableRecord
100
AcDbLinetypeTableRecord
  2
CONTINUOUS
 70
     0
  3
Solid line
 72
    65
 73
     0
 40
0.0
  0
LTYPE
  5
22
330
5
100
AcDbSymbolTableRecord
100
AcDbLinetypeTableRecord
  2
CENTER2
 70
     0
  3
Center (.5x) ___ _ ___ _ ___ _ ___ _ ___ _ ___
 72
    65
 73
     4
 40
28.575
 49
19.05
 74
     0
 49
-3.174999999999999
 74
     0
 49
3.174999999999999
 74
     0
 49
-3.174999999999999
 74
     0
  0
ENDTAB
  0
TABLE
  2
LAYER
  5
2
330
0
100
AcDbSymbolTable
 70
    12
  0
LAYER
  5
E
330
2
100
AcDbSymbolTableRecord
100
AcDbLayerTableRecord
  2
0
 70
     0
 62
     7
  6
CONTINUOUS
370
    -3
390
214E
  0
LAYER
  5
25
330
2
100
AcDbSymbolTableRecord
100
AcDbLayerTableRecord
  2
外形線
 70
     0
 62
     7
  6
CONTINUOUS
370
    -3
390
214E
  0
LAYER
  5
26
330
2
100
AcDbSymbolTableRecord
100
AcDbLayerTableRecord
  2
寸法線
 70
     0
 62
     2
  6
CONTINUOUS
370
    -3
390
214E
  0
LAYER
  5
27
330
2
100
AcDbSymbolTableRecord
100
AcDbLayerTableRecord
  2
中心線
 70
     0
 62
     4
  6
CENTER2
370
    -3
390
214E
  0
LAYER
  5
2A
330
2
100
AcDbSymbolTableRecord
100
AcDbLayerTableRecord
  2
ﾊｯﾁﾝｸ
 70
     0
 62
     4
  6
CONTINUOUS
370
    -3
390
214E
  0
LAYER
  5
2B
330
2
100
AcDbSymbolTableRecord
100
AcDbLayerTableRecord
  2
文字
 70
     0
 62
     6
  6
CONTINUOUS
370
    -3
390
214E
  0
LAYER
  5
2C
330
2
100
AcDbSymbolTableRecord
100
AcDbLayerTableRecord
  2
目盛
 70
     0
 62
    70
  6
CONTINUOUS
370
    -3
390
214E
  0
LAYER
  5
2D
330
2
100
AcDbSymbolTableRecord
100
AcDbLayerTableRecord
  2
針
 70
     0
 62
     5
  6
CONTINUOUS
370
    -3
390
214E
  0
LAYER
  5
53
330
2
100
AcDbSymbolTableRecord
100
AcDbLayerTableRecord
  2
DEFPOINTS
 70
     0
 62
     7
  6
CONTINUOUS
290
     0
370
    -3
390
214E
  0
LAYER
  5
A5
330
2
100
AcDbSymbolTableRecord
100
AcDbLayerTableRecord
  2
C
 70
     0
 62
     7
  6
CONTINUOUS
370
    -3
390
214E
  0
LAYER
  5
B7C
330
2
100
AcDbSymbolTableRecord
100
AcDbLayerTableRecord
  2
ROGO
 70
     0
 62
     6
  6
CONTINUOUS
370
    -3
390
214E
  0
ENDTAB
  0
TABLE
  2
STYLE
  5
3
330
0
100
AcDbSymbolTable
 70
     3
  0
STYLE
  5
F
330
3
100
AcDbSymbolTableRecord
100
AcDbTextStyleTableRecord
  2
STANDARD
 70
     0
 40
0.0
 41
1.0
 50
0.0
 71
     0
 42
2.5
  3
txt
  4

  0
STYLE
  5
3F
330
3
100
AcDbSymbolTableRecord
100
AcDbTextStyleTableRecord
  2
STYLE3
 70
     0
 40
0.0
 41
1.0
 50
0.0
 71
     0
 42
2.5
  3
romans.shx
  4
bigfont.shx
  0
ENDTAB
  0
TABLE
  2
VIEW
  5
6
330
0
100
AcDbSymbolTable
 70
     0
  0
ENDTAB
  0
TABLE
  2
UCS
  5
7
330
0
100
AcDbSymbolTable
 70
     0
  0
ENDTAB
  0
TABLE
  2
APPID
  5
9
330
0
100
AcDbSymbolTable
 70
     1
  0
APPID
  5
10
330
9
100
AcDbSymbolTableRecord
100
AcDbRegAppTableRecord
  2
ACAD
 70
     0
  0
ENDTAB
  0
TABLE
  2
DIMSTYLE
  5
A
330
0
100
AcDbSymbolTable
 70
     3
100
AcDbDimStyleTable
 71
     0
  0
DIMSTYLE
105
1D
330
A
100
AcDbSymbolTableRecord
100
AcDbDimStyleTableRecord
  2
STANDARD
 70
     0
 41
2.5
 42
0.625
 43
3.75
 44
1.25
 73
     0
 74
     0
 77
     1
 78
     8
140
2.5
141
2.5
143
0.0394
147
0.625
171
     4
172
     1
273
     8
274
     4
277
     6
340
F
  0
DIMSTYLE
105
8F
102
{ACAD_REACTORS
330
1F74
330
1F96
330
1FA2
330
1FB0
330
1FEC
330
1FF8
330
2006
330
202D
330
213D
330
214A
102
}
330
A
100
AcDbSymbolTableRecord
100
AcDbDimStyleTableRecord
  2
STYLE3
 70
     0
 41
2.5
 42
0.0
 43
3.75
 44
1.25
 73
     0
 74
     0
 77
     1
 78
     8
140
2.5
141
2.5
143
0.0394
147
0.625
171
     4
172
     1
173
     1
176
     2
177
     2
178
     6
271
     1
273
     8
274
     4
340
3F
341
45
343
45
344
45
  0
ENDTAB
  0
TABLE
  2
BLOCK_RECORD
  5
1
330
0
100
AcDbSymbolTable
 70
    22
  0
BLOCK_RECORD
  5
18
330
1
100
AcDbSymbolTableRecord
100
AcDbBlockTableRecord
  2
*MODEL_SPACE
340
2153
  0
BLOCK_RECORD
  5
15
330
1
100
AcDbSymbolTableRecord
100
AcDbBlockTableRecord
  2
*PAPER_SPACE
340
2154
  0
BLOCK_RECORD
  5
45
330
1
100
AcDbSymbolTableRecord
100
AcDbBlockTableRecord
  2
_OPEN
340
0
102
{BLKREFS
331
2042
331
2043
331
205C
331
205D
331
211E
331
211F
331
1F02
331
20EC
331
20ED
331
2115
331
2116
331
20E1
331
20E2
331
1FB8
331
1FB9
331
1FDA
331
1FDB
331
200E
331
200F
331
201A
331
201B
331
2035
331
2036
331
204F
331
2050
331
20F7
331
20F8
331
2101
331
2102
331
210B
331
210C
331
2197
331
2198
331
21A0
331
21A1
331
21A9
331
21AA
331
21B3
331
21B4
331
21BB
331
21BC
331
21C3
331
21C4
331
21CC
331
21CD
331
21D4
331
21D5
331
21DD
331
21DE
331
21E6
331
21E7
102
}
  0
BLOCK_RECORD
  5
1EE2
330
1
100
AcDbSymbolTableRecord
100
AcDbBlockTableRecord
  2
A$C7FF8083B
340
0
102
{BLKREFS
331
1EE6
102
}
  0
BLOCK_RECORD
  5
1F68
330
1
100
AcDbSymbolTableRecord
100
AcDbBlockTableRecord
  2
*D5
340
0
  0
BLOCK_RECORD
  5
1F8A
330
1
100
AcDbSymbolTableRecord
100
AcDbBlockTableRecord
  2
*D6
340
0
  0
BLOCK_RECORD
  5
1F97
330
1
100
AcDbSymbolTableRecord
100
AcDbBlockTableRecord
  2
*D7
340
0
  0
BLOCK_RECORD
  5
1FA4
330
1
100
AcDbSymbolTableRecord
100
AcDbBlockTableRecord
  2
*D8
340
0
  0
BLOCK_RECORD
  5
1FE1
330
1
100
AcDbSymbolTableRecord
100
AcDbBlockTableRecord
  2
*D11
340
0
  0
BLOCK_RECORD
  5
1FED
330
1
100
AcDbSymbolTableRecord
100
AcDbBlockTableRecord
  2
*D12
340
0
  0
BLOCK_RECORD
  5
1FF9
330
1
100
AcDbSymbolTableRecord
100
AcDbBlockTableRecord
  2
*D13
340
0
  0
BLOCK_RECORD
  5
2021
330
1
100
AcDbSymbolTableRecord
100
AcDbBlockTableRecord
  2
*D15
340
0
  0
BLOCK_RECORD
  5
2131
330
1
100
AcDbSymbolTableRecord
100
AcDbBlockTableRecord
  2
*D18
340
0
  0
BLOCK_RECORD
  5
213E
330
1
100
AcDbSymbolTableRecord
100
AcDbBlockTableRecord
  2
*D19
340
0
  0
ENDTAB
  0
ENDSEC
  0
SECTION
  2
BLOCKS
  0
BLOCK
  5
19
330
18
100
AcDbEntity
  8
0
100
AcDbBlockBegin
  2
*MODEL_SPACE
 70
     0
 10
0.0
 20
0.0
 30
0.0
  3
*MODEL_SPACE
  1

  0
ENDBLK
  5
1A
330
18
100
AcDbEntity
  8
0
100
AcDbBlockEnd
  0
BLOCK
  5
16
330
15
100
AcDbEntity
 67
     1
  8
0
100
AcDbBlockBegin
  2
*PAPER_SPACE
 70
     0
 10
0.0
 20
0.0
 30
0.0
  3
*PAPER_SPACE
  1

  0
ENDBLK
  5
17
330
15
100
AcDbEntity
 67
     1
  8
0
100
AcDbBlockEnd
  0
BLOCK
  5
46
330
45
100
AcDbEntity
  8
0
100
AcDbBlockBegin
  2
_OPEN
 70
     0
 10
0.0
 20
0.0
 30
0.0
  3
_OPEN
  1

  0
LINE
  5
47
330
45
100
AcDbEntity
  8
0
  6
ByBlock
 62
     0
100
AcDbLine
 10
-1.0
 20
0.1666666666666666
 30
0.0
 11
0.0
 21
0.0
 31
0.0
  0
LINE
  5
48
330
45
100
AcDbEntity
  8
0
  6
ByBlock
 62
     0
100
AcDbLine
 10
0.0
 20
0.0
 30
0.0
 11
-1.0
 21
-0.1666666666666666
 31
0.0
  0
LINE
  5
49
330
45
100
AcDbEntity
  8
0
  6
ByBlock
 62
     0
100
AcDbLine
 10
0.0
 20
0.0
 30
0.0
 11
-1.0
 21
0.0
 31
0.0
  0
ENDBLK
  5
4A
330
45
100
AcDbEntity
  8
0
100
AcDbBlockEnd
  0
BLOCK
  5
1EE4
330
1EE2
100
AcDbEntity
  8
0
100
AcDbBlockBegin
  2
A$C7FF8083B
 70
     0
 10
0.0
 20
0.0
 30
0.0
  3
A$C7FF8083B
  1

  0
TEXT
  5
1EE3
330
1EE2
100
AcDbEntity
  8
文字
100
AcDbText
 10
-0.2476192621602991
 20
-0.0000002271501103
 30
0.0
 40
1.3
  1
NO.5
  7
STYLE3
100
AcDbText
  0
ENDBLK
  5
1EE5
330
1EE2
100
AcDbEntity
  8
0
100
AcDbBlockEnd
  0
BLOCK
  5
1F75
330
1F68
100
AcDbEntity
  8
0
100
AcDbBlockBegin
  2
*D5
 70
     1
 10
0.0
 20
0.0
 30
0.0
  3
*D5
  1

  0
LINE
  5
21E3
330
1F68
100
AcDbEntity
  8
寸法線
 62
     2
370
    -2
100
AcDbLine
 10
60.0995215378021
 20
155.3738655584065
 30
0.0
 11
76.29675336724119
 21
155.3738655584065
 31
0.0
  0
LINE
  5
21E4
330
1F68
100
AcDbEntity
  8
寸法線
 62
     2
370
    -2
100
AcDbLine
 10
60.0995215378021
 20
102.5738655584065
 30
0.0
 11
76.29675336724119
 21
102.5738655584065
 31
0.0
  0
LINE
  5
21E5
330
1F68
100
AcDbEntity
  8
寸法線
 62
     2
370
    -2
100
AcDbLine
 10
75.04675336724119
 20
152.8738655584065
 30
0.0
 11
75.04675336724119
 21
105.0738655584065
 31
0.0
  0
INSERT
  5
21E6
330
1F68
100
AcDbEntity
  8
寸法線
 62
     2
370
    -2
100
AcDbBlockReference
  2
_OPEN
 10
75.04675336724119
 20
155.3738655584065
 30
0.0
 41
2.5
 42
2.5
 43
2.5
 50
90.0
  0
INSERT
  5
21E7
330
1F68
100
AcDbEntity
  8
寸法線
 62
     2
370
    -2
100
AcDbBlockReference
  2
_OPEN
 10
75.04675336724119
 20
102.5738655584065
 30
0.0
 41
2.5
 42
2.5
 43
2.5
 50
270.0
  0
MTEXT
  5
21E8
330
1F68
100
AcDbEntity
  8
寸法線
 62
     6
100
AcDbMText
 10
73.17175336724118
 20
128.9738655584065
 30
0.0
 40
2.5
 41
0.0
 71
     5
 72
     1
  1
\A1;φ53
  7
STYLE3
 11
0.0000000000000001
 21
1.0
 31
0.0
 73
     1
 44
1.0
  0
POINT
  5
21E9
330
1F68
100
AcDbEntity
  8
DEFPOINTS
 62
     0
100
AcDbPoint
 10
60.0995215378021
 20
155.3738655584065
 30
0.0
  0
POINT
  5
21EA
330
1F68
100
AcDbEntity
  8
DEFPOINTS
 62
     0
100
AcDbPoint
 10
60.0995215378021
 20
102.5738655584065
 30
0.0
  0
POINT
  5
21EB
330
1F68
100
AcDbEntity
  8
DEFPOINTS
 62
     0
100
AcDbPoint
 10
75.04675336724119
 20
102.5738655584065
 30
0.0
  0
ENDBLK
  5
1F7F
330
1F68
100
AcDbEntity
  8
0
100
AcDbBlockEnd
  0
BLOCK
  5
1F8B
330
1F8A
100
AcDbEntity
  8
0
100
AcDbBlockBegin
  2
*D6
 70
     1
 10
0.0
 20
0.0
 30
0.0
  3
*D6
  1

  0
LINE
  5
21DA
330
1F8A
100
AcDbEntity
  8
寸法線
 62
     2
370
    -2
100
AcDbLine
 10
64.2995215378021
 20
128.9738655584065
 30
0.0
 11
64.2995215378021
 21
178.7863032901165
 31
0.0
  0
LINE
  5
21DB
330
1F8A
100
AcDbEntity
  8
寸法線
 62
     2
370
    -2
100
AcDbLine
 10
49.79952153780209
 20
173.7798550843721
 30
0.0
 11
49.79952153780209
 21
178.7863032901165
 31
0.0
  0
LINE
  5
21DC
330
1F8A
100
AcDbEntity
  8
寸法線
 62
     2
370
    -2
100
AcDbLine
 10
61.7995215378021
 20
177.5363032901165
 30
0.0
 11
52.29952153780209
 21
177.5363032901165
 31
0.0
  0
INSERT
  5
21DD
330
1F8A
100
AcDbEntity
  8
寸法線
 62
     2
370
    -2
100
AcDbBlockReference
  2
_OPEN
 10
64.2995215378021
 20
177.5363032901165
 30
0.0
 41
2.5
 42
2.5
 43
2.5
  0
INSERT
  5
21DE
330
1F8A
100
AcDbEntity
  8
寸法線
 62
     2
370
    -2
100
AcDbBlockReference
  2
_OPEN
 10
49.79952153780209
 20
177.5363032901165
 30
0.0
 41
2.5
 42
2.5
 43
2.5
 50
180.0
  0
MTEXT
  5
21DF
330
1F8A
100
AcDbEntity
  8
寸法線
 62
     6
100
AcDbMText
 10
57.04952153780209
 20
179.4113032901165
 30
0.0
 40
2.5
 41
0.0
 71
     5
 72
     1
  1
\A1;14.5
  7
STYLE3
 73
     1
 44
1.0
  0
POINT
  5
21E0
330
1F8A
100
AcDbEntity
  8
DEFPOINTS
 62
     0
100
AcDbPoint
 10
64.2995215378021
 20
128.9738655584065
 30
0.0
  0
POINT
  5
21E1
330
1F8A
100
AcDbEntity
  8
DEFPOINTS
 62
     0
100
AcDbPoint
 10
49.79952153780209
 20
173.7798550843721
 30
0.0
  0
POINT
  5
21E2
330
1F8A
100
AcDbEntity
  8
DEFPOINTS
 62
     0
100
AcDbPoint
 10
49.79952153780209
 20
177.5363032901165
 30
0.0
  0
ENDBLK
  5
1F95
330
1F8A
100
AcDbEntity
  8
0
100
AcDbBlockEnd
  0
BLOCK
  5
1F98
330
1F97
100
AcDbEntity
  8
0
100
AcDbBlockBegin
  2
*D7
 70
     1
 10
0.0
 20
0.0
 30
0.0
  3
*D7
  1

  0
LINE
  5
21D2
330
1F97
100
AcDbEntity
  8
寸法線
 62
     2
370
    -2
100
AcDbLine
 10
42.1995215378021
 20
151.9738655584065
 30
0.0
 11
42.1995215378021
 21
178.7863032901165
 31
0.0
  0
LINE
  5
21D3
330
1F97
100
AcDbEntity
  8
寸法線
 62
     2
370
    -2
100
AcDbLine
 10
47.29952153780209
 20
177.5363032901165
 30
0.0
 11
44.6995215378021
 21
177.5363032901165
 31
0.0
  0
INSERT
  5
21D4
330
1F97
100
AcDbEntity
  8
寸法線
 62
     2
370
    -2
100
AcDbBlockReference
  2
_OPEN
 10
49.79952153780209
 20
177.5363032901165
 30
0.0
 41
2.5
 42
2.5
 43
2.5
  0
INSERT
  5
21D5
330
1F97
100
AcDbEntity
  8
寸法線
 62
     2
370
    -2
100
AcDbBlockReference
  2
_OPEN
 10
42.1995215378021
 20
177.5363032901165
 30
0.0
 41
2.5
 42
2.5
 43
2.5
 50
180.0
  0
MTEXT
  5
21D6
330
1F97
100
AcDbEntity
  8
寸法線
 62
     6
100
AcDbMText
 10
45.99952153780209
 20
179.4113032901165
 30
0.0
 40
2.5
 41
0.0
 71
     5
 72
     1
  1
\A1;7.6
  7
STYLE3
 73
     1
 44
1.0
  0
POINT
  5
21D7
330
1F97
100
AcDbEntity
  8
DEFPOINTS
 62
     0
100
AcDbPoint
 10
49.79952153780209
 20
173.7798550843721
 30
0.0
  0
POINT
  5
21D8
330
1F97
100
AcDbEntity
  8
DEFPOINTS
 62
     0
100
AcDbPoint
 10
42.1995215378021
 20
151.9738655584065
 30
0.0
  0
POINT
  5
21D9
330
1F97
100
AcDbEntity
  8
DEFPOINTS
 62
     0
100
AcDbPoint
 10
42.1995215378021
 20
177.5363032901165
 30
0.0
  0
ENDBLK
  5
1FA1
330
1F97
100
AcDbEntity
  8
0
100
AcDbBlockEnd
  0
BLOCK
  5
1FA5
330
1FA4
100
AcDbEntity
  8
0
100
AcDbBlockBegin
  2
*D8
 70
     1
 10
0.0
 20
0.0
 30
0.0
  3
*D8
  1

  0
LINE
  5
21C9
330
1FA4
100
AcDbEntity
  8
寸法線
 62
     2
370
    -2
100
AcDbLine
 10
44.29952153780209
 20
49.27386555840654
 30
0.0
 11
44.29952153780209
 21
37.28966239417395
 31
0.0
  0
LINE
  5
21CA
330
1FA4
100
AcDbEntity
  8
寸法線
 62
     2
370
    -2
100
AcDbLine
 10
55.29952153780209
 20
49.27386555840655
 30
0.0
 11
55.29952153780209
 21
37.28966239417395
 31
0.0
  0
LINE
  5
21CB
330
1FA4
100
AcDbEntity
  8
寸法線
 62
     2
370
    -2
100
AcDbLine
 10
46.79952153780209
 20
38.53966239417395
 30
0.0
 11
52.79952153780209
 21
38.53966239417395
 31
0.0
  0
INSERT
  5
21CC
330
1FA4
100
AcDbEntity
  8
寸法線
 62
     2
370
    -2
100
AcDbBlockReference
  2
_OPEN
 10
44.29952153780209
 20
38.53966239417395
 30
0.0
 41
2.5
 42
2.5
 43
2.5
 50
180.0
  0
INSERT
  5
21CD
330
1FA4
100
AcDbEntity
  8
寸法線
 62
     2
370
    -2
100
AcDbBlockReference
  2
_OPEN
 10
55.29952153780209
 20
38.53966239417395
 30
0.0
 41
2.5
 42
2.5
 43
2.5
  0
MTEXT
  5
21CE
330
1FA4
100
AcDbEntity
  8
寸法線
 62
     6
100
AcDbMText
 10
49.79952153780209
 20
40.41466239417395
 30
0.0
 40
2.5
 41
0.0
 71
     5
 72
     1
  1
\A1;11
  7
STYLE3
 73
     1
 44
1.0
  0
POINT
  5
21CF
330
1FA4
100
AcDbEntity
  8
DEFPOINTS
 62
     0
100
AcDbPoint
 10
44.29952153780209
 20
49.27386555840654
 30
0.0
  0
POINT
  5
21D0
330
1FA4
100
AcDbEntity
  8
DEFPOINTS
 62
     0
100
AcDbPoint
 10
55.29952153780209
 20
49.27386555840655
 30
0.0
  0
POINT
  5
21D1
330
1FA4
100
AcDbEntity
  8
DEFPOINTS
 62
     0
100
AcDbPoint
 10
55.29952153780209
 20
38.53966239417395
 30
0.0
  0
ENDBLK
  5
1FAF
330
1FA4
100
AcDbEntity
  8
0
100
AcDbBlockEnd
  0
BLOCK
  5
1FE2
330
1FE1
100
AcDbEntity
  8
0
100
AcDbBlockBegin
  2
*D11
 70
     1
 10
0.0
 20
0.0
 30
0.0
  3
*D11
  1

  0
LINE
  5
21C1
330
1FE1
100
AcDbEntity
  8
寸法線
 62
     2
370
    -2
100
AcDbLine
 10
149.7081456297682
 20
59.27386555840653
 30
0.0
 11
116.4767992490493
 21
59.27386555840654
 31
0.0
  0
LINE
  5
21C2
330
1FE1
100
AcDbEntity
  8
寸法線
 62
     2
370
    -2
100
AcDbLine
 10
117.7267992490493
 20
81.47386555840654
 30
0.0
 11
117.7267992490493
 21
61.77386555840654
 31
0.0
  0
INSERT
  5
21C3
330
1FE1
100
AcDbEntity
  8
寸法線
 62
     2
370
    -2
100
AcDbBlockReference
  2
_OPEN
 10
117.7267992490493
 20
83.97386555840654
 30
0.0
 41
2.5
 42
2.5
 43
2.5
 50
90.0
  0
INSERT
  5
21C4
330
1FE1
100
AcDbEntity
  8
寸法線
 62
     2
370
    -2
100
AcDbBlockReference
  2
_OPEN
 10
117.7267992490493
 20
59.27386555840654
 30
0.0
 41
2.5
 42
2.5
 43
2.5
 50
270.0
  0
MTEXT
  5
21C5
330
1FE1
100
AcDbEntity
  8
寸法線
 62
     6
100
AcDbMText
 10
115.8517992490493
 20
71.62386555840658
 30
0.0
 40
2.5
 41
0.0
 71
     5
 72
     1
  1
\A1;24.7
  7
STYLE3
 11
0.0000000000000001
 21
1.0
 31
0.0
 73
     1
 44
1.0
  0
POINT
  5
21C6
330
1FE1
100
AcDbEntity
  8
DEFPOINTS
 62
     0
100
AcDbPoint
 10
148.4581456297681
 20
83.97386555840654
 30
0.0
  0
POINT
  5
21C7
330
1FE1
100
AcDbEntity
  8
DEFPOINTS
 62
     0
100
AcDbPoint
 10
149.7081456297682
 20
59.27386555840653
 30
0.0
  0
POINT
  5
21C8
330
1FE1
100
AcDbEntity
  8
DEFPOINTS
 62
     0
100
AcDbPoint
 10
117.7267992490493
 20
59.27386555840654
 30
0.0
  0
ENDBLK
  5
1FEB
330
1FE1
100
AcDbEntity
  8
0
100
AcDbBlockEnd
  0
BLOCK
  5
1FEE
330
1FED
100
AcDbEntity
  8
0
100
AcDbBlockBegin
  2
*D12
 70
     1
 10
0.0
 20
0.0
 30
0.0
  3
*D12
  1

  0
LINE
  5
21B9
330
1FED
100
AcDbEntity
  8
寸法線
 62
     2
370
    -2
100
AcDbLine
 10
149.7081456297682
 20
49.27386555840654
 30
0.0
 11
116.4767992490493
 21
49.27386555840655
 31
0.0
  0
LINE
  5
21BA
330
1FED
100
AcDbEntity
  8
寸法線
 62
     2
370
    -2
100
AcDbLine
 10
117.7267992490493
 20
56.77386555840654
 30
0.0
 11
117.7267992490493
 21
51.77386555840655
 31
0.0
  0
INSERT
  5
21BB
330
1FED
100
AcDbEntity
  8
寸法線
 62
     2
370
    -2
100
AcDbBlockReference
  2
_OPEN
 10
117.7267992490493
 20
59.27386555840654
 30
0.0
 41
2.5
 42
2.5
 43
2.5
 50
90.0
  0
INSERT
  5
21BC
330
1FED
100
AcDbEntity
  8
寸法線
 62
     2
370
    -2
100
AcDbBlockReference
  2
_OPEN
 10
117.7267992490493
 20
49.27386555840655
 30
0.0
 41
2.5
 42
2.5
 43
2.5
 50
270.0
  0
MTEXT
  5
21BD
330
1FED
100
AcDbEntity
  8
寸法線
 62
     6
100
AcDbMText
 10
115.8517992490493
 20
54.27386555840656
 30
0.0
 40
2.5
 41
0.0
 71
     5
 72
     1
  1
\A1;10
  7
STYLE3
 11
0.0000000000000001
 21
1.0
 31
0.0
 73
     1
 44
1.0
  0
POINT
  5
21BE
330
1FED
100
AcDbEntity
  8
DEFPOINTS
 62
     0
100
AcDbPoint
 10
149.7081456297682
 20
59.27386555840653
 30
0.0
  0
POINT
  5
21BF
330
1FED
100
AcDbEntity
  8
DEFPOINTS
 62
     0
100
AcDbPoint
 10
149.7081456297682
 20
49.27386555840654
 30
0.0
  0
POINT
  5
21C0
330
1FED
100
AcDbEntity
  8
DEFPOINTS
 62
     0
100
AcDbPoint
 10
117.7267992490493
 20
49.27386555840655
 30
0.0
  0
ENDBLK
  5
1FF7
330
1FED
100
AcDbEntity
  8
0
100
AcDbBlockEnd
  0
BLOCK
  5
1FFA
330
1FF9
100
AcDbEntity
  8
0
100
AcDbBlockBegin
  2
*D13
 70
     1
 10
0.0
 20
0.0
 30
0.0
  3
*D13
  1

  0
LINE
  5
21AF
330
1FF9
100
AcDbEntity
  8
寸法線
 62
     2
370
    -2
100
AcDbLine
 10
171.1581456297681
 20
45.27386555840652
 30
0.0
 11
116.4767992490493
 21
45.27386555840653
 31
0.0
  0
LINE
  5
21B0
330
1FF9
100
AcDbEntity
  8
寸法線
 62
     2
370
    -2
100
AcDbLine
 10
117.7267992490493
 20
51.77386555840655
 30
0.0
 11
117.7267992490493
 21
54.27386555840655
 31
0.0
  0
LINE
  5
21B1
330
1FF9
100
AcDbEntity
  8
寸法線
 62
     2
370
    -2
100
AcDbLine
 10
117.7267992490493
 20
42.77386555840653
 30
0.0
 11
117.7267992490493
 21
40.27386555840653
 31
0.0
  0
LINE
  5
21B2
330
1FF9
100
AcDbEntity
  8
寸法線
 62
     2
370
    -2
100
AcDbLine
 10
117.7267992490493
 20
49.27386555840655
 30
0.0
 11
117.7267992490493
 21
45.27386555840653
 31
0.0
  0
INSERT
  5
21B3
330
1FF9
100
AcDbEntity
  8
寸法線
 62
     2
370
    -2
100
AcDbBlockReference
  2
_OPEN
 10
117.7267992490493
 20
49.27386555840655
 30
0.0
 41
2.5
 42
2.5
 43
2.5
 50
270.0
  0
INSERT
  5
21B4
330
1FF9
100
AcDbEntity
  8
寸法線
 62
     2
370
    -2
100
AcDbBlockReference
  2
_OPEN
 10
117.7267992490493
 20
45.27386555840653
 30
0.0
 41
2.5
 42
2.5
 43
2.5
 50
90.0
  0
MTEXT
  5
21B5
330
1FF9
100
AcDbEntity
  8
寸法線
 62
     6
100
AcDbMText
 10
115.8517992490493
 20
47.27386555840656
 30
0.0
 40
2.5
 41
0.0
 71
     5
 72
     1
  1
\A1;4
  7
STYLE3
 11
0.0000000000000001
 21
1.0
 31
0.0
 73
     1
 44
1.0
  0
POINT
  5
21B6
330
1FF9
100
AcDbEntity
  8
DEFPOINTS
 62
     0
100
AcDbPoint
 10
149.7081456297682
 20
49.27386555840654
 30
0.0
  0
POINT
  5
21B7
330
1FF9
100
AcDbEntity
  8
DEFPOINTS
 62
     0
100
AcDbPoint
 10
171.1581456297681
 20
45.27386555840652
 30
0.0
  0
POINT
  5
21B8
330
1FF9
100
AcDbEntity
  8
DEFPOINTS
 62
     0
100
AcDbPoint
 10
117.7267992490493
 20
45.27386555840653
 30
0.0
  0
ENDBLK
  5
2005
330
1FF9
100
AcDbEntity
  8
0
100
AcDbBlockEnd
  0
BLOCK
  5
2022
330
2021
100
AcDbEntity
  8
0
100
AcDbBlockBegin
  2
*D15
 70
     1
 10
0.0
 20
0.0
 30
0.0
  3
*D15
  1

  0
LINE
  5
21A6
330
2021
100
AcDbEntity
  8
寸法線
 62
     2
370
    -2
100
AcDbLine
 10
174.1581456297681
 20
61.27386555840654
 30
0.0
 11
174.1581456297681
 21
37.00975227595581
 31
0.0
  0
LINE
  5
21A7
330
2021
100
AcDbEntity
  8
寸法線
 62
     2
370
    -2
100
AcDbLine
 10
153.9581456297682
 20
43.17391069849884
 30
0.0
 11
153.9581456297682
 21
37.00975227595581
 31
0.0
  0
LINE
  5
21A8
330
2021
100
AcDbEntity
  8
寸法線
 62
     2
370
    -2
100
AcDbLine
 10
171.6581456297681
 20
38.25975227595581
 30
0.0
 11
156.4581456297682
 21
38.25975227595581
 31
0.0
  0
INSERT
  5
21A9
330
2021
100
AcDbEntity
  8
寸法線
 62
     2
370
    -2
100
AcDbBlockReference
  2
_OPEN
 10
174.1581456297681
 20
38.25975227595581
 30
0.0
 41
2.5
 42
2.5
 43
2.5
  0
INSERT
  5
21AA
330
2021
100
AcDbEntity
  8
寸法線
 62
     2
370
    -2
100
AcDbBlockReference
  2
_OPEN
 10
153.9581456297682
 20
38.25975227595581
 30
0.0
 41
2.5
 42
2.5
 43
2.5
 50
180.0
  0
MTEXT
  5
21AB
330
2021
100
AcDbEntity
  8
寸法線
 62
     6
100
AcDbMText
 10
164.0581456297681
 20
40.1347522759558
 30
0.0
 40
2.5
 41
0.0
 71
     5
 72
     1
  1
\A1;20.2
  7
STYLE3
 73
     1
 44
1.0
  0
POINT
  5
21AC
330
2021
100
AcDbEntity
  8
DEFPOINTS
 62
     0
100
AcDbPoint
 10
174.1581456297681
 20
61.27386555840654
 30
0.0
  0
POINT
  5
21AD
330
2021
100
AcDbEntity
  8
DEFPOINTS
 62
     0
100
AcDbPoint
 10
153.9581456297682
 20
43.17391069849884
 30
0.0
  0
POINT
  5
21AE
330
2021
100
AcDbEntity
  8
DEFPOINTS
 62
     0
100
AcDbPoint
 10
153.9581456297682
 20
38.25975227595581
 30
0.0
  0
ENDBLK
  5
202C
330
2021
100
AcDbEntity
  8
0
100
AcDbBlockEnd
  0
BLOCK
  5
2132
330
2131
100
AcDbEntity
  8
0
100
AcDbBlockBegin
  2
*D18
 70
     1
 10
0.0
 20
0.0
 30
0.0
  3
*D18
  1

  0
LINE
  5
219D
330
2131
100
AcDbEntity
  8
寸法線
 62
     2
370
    -2
100
AcDbLine
 10
153.9581456297682
 20
170.4738655584065
 30
0.0
 11
116.393465915716
 21
170.4738655584065
 31
0.0
  0
LINE
  5
219E
330
2131
100
AcDbEntity
  8
寸法線
 62
     2
370
    -2
100
AcDbLine
 10
120.5946412682325
 20
128.9738655584065
 30
0.0
 11
116.393465915716
 21
128.9738655584065
 31
0.0
  0
LINE
  5
219F
330
2131
100
AcDbEntity
  8
寸法線
 62
     2
370
    -2
100
AcDbLine
 10
117.643465915716
 20
167.9738655584065
 30
0.0
 11
117.643465915716
 21
131.4738655584065
 31
0.0
  0
INSERT
  5
21A0
330
2131
100
AcDbEntity
  8
寸法線
 62
     2
370
    -2
100
AcDbBlockReference
  2
_OPEN
 10
117.643465915716
 20
170.4738655584065
 30
0.0
 41
2.5
 42
2.5
 43
2.5
 50
90.0
  0
INSERT
  5
21A1
330
2131
100
AcDbEntity
  8
寸法線
 62
     2
370
    -2
100
AcDbBlockReference
  2
_OPEN
 10
117.643465915716
 20
128.9738655584065
 30
0.0
 41
2.5
 42
2.5
 43
2.5
 50
270.0
  0
MTEXT
  5
21A2
330
2131
100
AcDbEntity
  8
寸法線
 62
     6
100
AcDbMText
 10
115.768465915716
 20
149.7238655584065
 30
0.0
 40
2.5
 41
0.0
 71
     5
 72
     1
  1
\A1;41.5
  7
STYLE3
 11
0.0000000000000001
 21
1.0
 31
0.0
 73
     1
 44
1.0
  0
POINT
  5
21A3
330
2131
100
AcDbEntity
  8
DEFPOINTS
 62
     0
100
AcDbPoint
 10
153.9581456297682
 20
170.4738655584065
 30
0.0
  0
POINT
  5
21A4
330
2131
100
AcDbEntity
  8
DEFPOINTS
 62
     0
100
AcDbPoint
 10
120.5946412682325
 20
128.9738655584065
 30
0.0
  0
POINT
  5
21A5
330
2131
100
AcDbEntity
  8
DEFPOINTS
 62
     0
100
AcDbPoint
 10
117.643465915716
 20
128.9738655584065
 30
0.0
  0
ENDBLK
  5
213C
330
2131
100
AcDbEntity
  8
0
100
AcDbBlockEnd
  0
BLOCK
  5
213F
330
213E
100
AcDbEntity
  8
0
100
AcDbBlockBegin
  2
*D19
 70
     1
 10
0.0
 20
0.0
 30
0.0
  3
*D19
  1

  0
LINE
  5
2194
330
213E
100
AcDbEntity
  8
寸法線
 62
     2
370
    -2
100
AcDbLine
 10
116.4767992490493
 20
45.27386555840652
 30
0.0
 11
110.0599572319853
 21
45.27386555840653
 31
0.0
  0
LINE
  5
2195
330
213E
100
AcDbEntity
  8
寸法線
 62
     2
370
    -2
100
AcDbLine
 10
116.393465915716
 20
170.4738655584065
 30
0.0
 11
110.0599572319853
 21
170.4738655584065
 31
0.0
  0
LINE
  5
2196
330
213E
100
AcDbEntity
  8
寸法線
 62
     2
370
    -2
100
AcDbLine
 10
111.3099572319853
 20
47.77386555840653
 30
0.0
 11
111.3099572319853
 21
167.9738655584065
 31
0.0
  0
INSERT
  5
2197
330
213E
100
AcDbEntity
  8
寸法線
 62
     2
370
    -2
100
AcDbBlockReference
  2
_OPEN
 10
111.3099572319853
 20
45.27386555840653
 30
0.0
 41
2.5
 42
2.5
 43
2.5
 50
270.0
  0
INSERT
  5
2198
330
213E
100
AcDbEntity
  8
寸法線
 62
     2
370
    -2
100
AcDbBlockReference
  2
_OPEN
 10
111.3099572319853
 20
170.4738655584065
 30
0.0
 41
2.5
 42
2.5
 43
2.5
 50
90.0
  0
MTEXT
  5
2199
330
213E
100
AcDbEntity
  8
寸法線
 62
     6
100
AcDbMText
 10
109.4349572319853
 20
107.8738655584065
 30
0.0
 40
2.5
 41
0.0
 71
     5
 72
     1
  1
\A1;125.2
  7
STYLE3
 11
0.0000000000000001
 21
1.0
 31
0.0
 73
     1
 44
1.0
  0
POINT
  5
219A
330
213E
100
AcDbEntity
  8
DEFPOINTS
 62
     0
100
AcDbPoint
 10
116.4767992490493
 20
45.27386555840652
 30
0.0
  0
POINT
  5
219B
330
213E
100
AcDbEntity
  8
DEFPOINTS
 62
     0
100
AcDbPoint
 10
116.393465915716
 20
170.4738655584065
 30
0.0
  0
POINT
  5
219C
330
213E
100
AcDbEntity
  8
DEFPOINTS
 62
     0
100
AcDbPoint
 10
111.3099572319853
 20
170.4738655584065
 30
0.0
  0
ENDBLK
  5
2149
330
213E
100
AcDbEntity
  8
0
100
AcDbBlockEnd
  0
ENDSEC
  0
SECTION
  2
ENTITIES
  0
LWPOLYLINE
  5
26C
330
18
100
AcDbEntity
  8
C
100
AcDbPolyline
 90
        5
 70
     0
 43
0.4
 10
0.0
 20
195.0
 10
255.0
 20
195.0
 10
255.0
 20
0.0
 10
0.0
 20
0.0
 10
0.0
 20
195.0
  0
LINE
  5
2CE
330
18
100
AcDbEntity
  8
中心線
 48
0.5
100
AcDbLine
 10
123.5172974805316
 20
128.9738655584065
 30
0.0
 11
184.0702098568438
 21
128.9738655584065
 31
0.0
  0
LINE
  5
2CF
330
18
100
AcDbEntity
  8
中心線
 48
0.5
100
AcDbLine
 10
153.9581456297682
 20
173.6651119171873
 30
0.0
 11
153.9581456297682
 21
44.75721522168242
 31
0.0
  0
LINE
  5
313
330
18
100
AcDbEntity
  8
中心線
 48
0.5
100
AcDbLine
 10
49.79952153780209
 20
174.2798550843722
 30
0.0
 11
49.79952153780209
 21
43.94626119980199
 31
0.0
  0
LINE
  5
314
330
18
100
AcDbEntity
  8
中心線
 48
0.5
100
AcDbLine
 10
39.2908058329798
 20
128.9738655584065
 30
0.0
 11
67.72339779199012
 21
128.9738655584065
 31
0.0
  0
MTEXT
  5
E68
330
18
100
AcDbEntity
  8
DEFPOINTS
  6
Continuous
100
AcDbMText
 10
764.663097508542
 20
89.43881470936148
 30
0.0
 40
1.0
 41
0.0
 71
     4
 72
     1
  1
\A1;
 73
     1
 44
1.0
  0
MTEXT
  5
EC2
330
18
100
AcDbEntity
  8
文字
100
AcDbMText
 10
331.8023070665415
 20
115.5167969475956
 30
0.0
 40
1.0
 41
6.927999999999999
 71
     1
 72
     5
  1

  7
STYLE3
 73
     1
 44
1.0
  0
MTEXT
  5
F23
330
18
100
AcDbEntity
  8
DEFPOINTS
  6
Continuous
100
AcDbMText
 10
653.5381167216829
 20
38.76434823504644
 30
0.0
 40
0.35
 41
0.0
 71
     4
 72
     1
  1
\A1;
 73
     1
 44
1.0
  0
MTEXT
  5
1461
330
18
100
AcDbEntity
  8
DEFPOINTS
  6
Continuous
100
AcDbMText
 10
859.462339754299
 20
192.7492810579137
 30
0.0
 40
1.0
 41
0.0
 71
     4
 72
     1
  1
\A1;
 73
     1
 44
1.0
  0
MTEXT
  5
14BC
330
18
100
AcDbEntity
  8
文字
100
AcDbMText
 10
426.6015493122985
 20
218.8272632961478
 30
0.0
 40
1.0
 41
6.927999999999999
 71
     1
 72
     5
  1

  7
STYLE3
 73
     1
 44
1.0
  0
MTEXT
  5
151D
330
18
100
AcDbEntity
  8
DEFPOINTS
  6
Continuous
100
AcDbMText
 10
748.3373589674401
 20
142.0748145835986
 30
0.0
 40
0.35
 41
0.0
 71
     4
 72
     1
  1
\A1;
 73
     1
 44
1.0
  0
MTEXT
  5
1579
330
18
100
AcDbEntity
  8
DEFPOINTS
  6
Continuous
100
AcDbMText
 10
1359.9009871264
 20
367.9624695669154
 30
0.0
 40
1.0
 41
0.0
 71
     4
 72
     1
  1
\A1;
 73
     1
 44
1.0
  0
MTEXT
  5
157A
330
18
100
AcDbEntity
  8
文字
100
AcDbMText
 10
927.0401966843992
 20
394.0404518051495
 30
0.0
 40
1.0
 41
6.927999999999999
 71
     1
 72
     5
  1

  7
STYLE3
 73
     1
 44
1.0
  0
MTEXT
  5
157B
330
18
100
AcDbEntity
  8
DEFPOINTS
  6
Continuous
100
AcDbMText
 10
1248.776006339541
 20
317.2880030926003
 30
0.0
 40
0.35
 41
0.0
 71
     4
 72
     1
  1
\A1;
 73
     1
 44
1.0
  0
POINT
  5
17EC
330
18
100
AcDbEntity
  8
DEFPOINTS
  6
ByBlock
 62
     0
100
AcDbPoint
 10
49.79952153780209
 20
173.7798550843721
 30
0.0
  0
POINT
  5
1878
330
18
100
AcDbEntity
  8
DEFPOINTS
  6
ByBlock
 62
     0
100
AcDbPoint
 10
49.79952153780209
 20
173.7798550843721
 30
0.0
  0
ARC
  5
19B4
330
18
100
AcDbEntity
  8
外形線
100
AcDbCircle
 10
174.5674714425434
 20
155.2406059081406
 30
0.0
 40
2.0
100
AcDbArc
 50
109.8197641089327
 51
142.2522235389741
  0
LINE
  5
19B5
330
18
100
AcDbEntity
  8
外形線
100
AcDbLine
 10
172.177112221173
 20
154.910575090593
 30
0.0
 11
186.9202371909815
 21
160.2241722000804
 31
0.0
  0
LINE
  5
19B6
330
18
100
AcDbEntity
  8
外形線
  6
Continuous
100
AcDbLine
 10
150.2581456297682
 20
156.9738655584064
 30
0.0
 11
150.2581456297682
 21
155.1132993701783
 31
0.0
  0
LINE
  5
19B7
330
18
100
AcDbEntity
  8
外形線
  6
Continuous
100
AcDbLine
 10
157.6581456297682
 20
156.9738655584064
 30
0.0
 11
157.6581456297682
 21
155.1132993701783
 31
0.0
  0
CIRCLE
  5
19BA
330
18
100
AcDbEntity
  8
外形線
100
AcDbCircle
 10
153.9581456297682
 20
128.9738655584065
 30
0.0
 40
26.4
  0
LINE
  5
19C2
330
18
100
AcDbEntity
  8
外形線
100
AcDbLine
 10
148.9581456297682
 20
103.0516742930061
 30
0.0
 11
148.9581456297682
 21
102.4738655584065
 31
0.0
  0
LINE
  5
19CB
330
18
100
AcDbEntity
  8
外形線
100
AcDbLine
 10
158.9581456297682
 20
103.0516742930061
 30
0.0
 11
158.9581456297682
 21
102.4738655584065
 31
0.0
  0
ARC
  5
1AB8
330
18
100
AcDbEntity
  8
外形線
100
AcDbCircle
 10
176.0709992468794
 20
154.1880461676794
 30
0.0
 40
2.0
100
AcDbArc
 50
109.819764108933
 51
163.8903520418817
  0
LINE
  5
1AB9
330
18
100
AcDbEntity
  8
外形線
100
AcDbLine
 10
168.672231184504
 20
150.8931649607122
 30
0.0
 11
172.9860447782969
 21
156.4649790970051
 31
0.0
  0
LINE
  5
1ABA
330
18
100
AcDbEntity
  8
外形線
100
AcDbLine
 10
172.2146656682532
 20
148.0437233471891
 30
0.0
 11
174.4327277016535
 21
155.7235256639444
 31
0.0
  0
ARC
  5
1ABB
330
18
100
AcDbEntity
  8
外形線
100
AcDbCircle
 10
172.8552371326809
 20
153.029047359096
 30
0.0
 40
2.0
100
AcDbArc
 50
109.8197641089328
 51
142.2522235389748
  0
LINE
  5
1ABC
330
18
100
AcDbEntity
  8
ﾊｯﾁﾝｸ
  6
Continuous
100
AcDbLine
 10
153.9581456297683
 20
158.3287120636245
 30
0.0
 11
149.9581456297683
 21
162.3287120636245
 31
0.0
  0
LINE
  5
1ABD
330
18
100
AcDbEntity
  8
ﾊｯﾁﾝｸ
  6
Continuous
100
AcDbLine
 10
153.54522518202
 20
156.9738655584064
 30
0.0
 11
149.9581456297683
 21
160.5609451106581
 31
0.0
  0
LINE
  5
1ABE
330
18
100
AcDbEntity
  8
ﾊｯﾁﾝｸ
  6
Continuous
100
AcDbLine
 10
151.7774582290536
 20
156.9738655584064
 30
0.0
 11
149.9581456297683
 21
158.7931781576917
 31
0.0
  0
LINE
  5
1ABF
330
18
100
AcDbEntity
  8
ﾊｯﾁﾝｸ
  6
Continuous
100
AcDbLine
 10
149.9581456297683
 20
157.4370584958052
 30
0.0
 11
153.9581456297683
 21
161.4370584958052
 31
0.0
  0
LINE
  5
1AC0
330
18
100
AcDbEntity
  8
ﾊｯﾁﾝｸ
  6
Continuous
100
AcDbLine
 10
149.9581456297683
 20
159.2048254487715
 30
0.0
 11
153.7271857394032
 21
162.9738655584064
 31
0.0
  0
LINE
  5
1AC1
330
18
100
AcDbEntity
  8
ﾊｯﾁﾝｸ
  6
Continuous
100
AcDbLine
 10
149.9581456297683
 20
160.9725924017379
 30
0.0
 11
151.9594187864368
 21
162.9738655584064
 31
0.0
  0
ARC
  5
1AC2
330
18
100
AcDbEntity
  8
外形線
  6
Continuous
100
AcDbCircle
 10
153.9581456297682
 20
163.1288655584066
 30
0.0
 40
7.344999999999885
100
AcDbArc
 50
59.75198538337817
 51
120.2480146166212
  0
LINE
  5
1AC3
330
18
100
AcDbEntity
  8
外形線
  6
Continuous
100
AcDbLine
 10
149.9581456297682
 20
156.9738655584064
 30
0.0
 11
157.9581456297681
 21
156.9738655584064
 31
0.0
  0
LINE
  5
1AC4
330
18
100
AcDbEntity
  8
外形線
  6
Continuous
100
AcDbLine
 10
149.9581456297683
 20
162.9738655584064
 30
0.0
 11
157.9581456297681
 21
162.9738655584064
 31
0.0
  0
LINE
  5
1AC5
330
18
100
AcDbEntity
  8
外形線
  6
Continuous
100
AcDbLine
 10
150.2581456297682
 20
169.4738655584064
 30
0.0
 11
157.6581456297682
 21
169.4738655584064
 31
0.0
  0
LINE
  5
1AC6
330
18
100
AcDbEntity
  8
外形線
  6
Continuous
100
AcDbLine
 10
150.2581456297682
 20
169.4738655584064
 30
0.0
 11
150.2581456297682
 21
162.9738655584064
 31
0.0
  0
LINE
  5
1AC7
330
18
100
AcDbEntity
  8
外形線
  6
Continuous
100
AcDbLine
 10
149.9581456297683
 20
162.9738655584064
 30
0.0
 11
149.9581456297683
 21
156.9738655584064
 31
0.0
  0
LINE
  5
1AC8
330
18
100
AcDbEntity
  8
ﾊｯﾁﾝｸ
  6
Continuous
100
AcDbLine
 10
150.0096912760872
 20
156.9738655584064
 30
0.0
 11
149.9581456297682
 21
157.0254112047254
 31
0.0
  0
LINE
  5
1AC9
330
18
100
AcDbEntity
  8
ﾊｯﾁﾝｸ
  6
Continuous
100
AcDbLine
 10
149.9581456297683
 20
162.7403593547043
 30
0.0
 11
150.1916518334704
 21
162.9738655584064
 31
0.0
  0
LINE
  5
1ACA
330
18
100
AcDbEntity
  8
外形線
  6
Continuous
100
AcDbLine
 10
157.6581456297682
 20
169.4738655584064
 30
0.0
 11
157.6581456297682
 21
162.9738655584064
 31
0.0
  0
LINE
  5
1ACB
330
18
100
AcDbEntity
  8
ﾊｯﾁﾝｸ
  6
Continuous
100
AcDbLine
 10
153.9581456297683
 20
160.0964790165908
 30
0.0
 11
151.0807590879527
 21
162.9738655584064
 31
0.0
  0
LINE
  5
1ACC
330
18
100
AcDbEntity
  8
外形線
  6
Continuous
100
AcDbLine
 10
157.9581456297681
 20
162.9738655584064
 30
0.0
 11
157.9581456297681
 21
156.9738655584064
 31
0.0
  0
LINE
  5
1ACD
330
18
100
AcDbEntity
  8
ﾊｯﾁﾝｸ
  6
Continuous
100
AcDbLine
 10
153.0304865983022
 20
156.9738655584064
 30
0.0
 11
153.9581456297683
 21
157.9015245898724
 31
0.0
  0
LINE
  5
1ACE
330
18
100
AcDbEntity
  8
ﾊｯﾁﾝｸ
  6
Continuous
100
AcDbLine
 10
151.2627196453359
 20
156.9738655584064
 30
0.0
 11
153.9581456297683
 21
159.6692915428388
 31
0.0
  0
LINE
  5
1ACF
330
18
100
AcDbEntity
  8
ﾊｯﾁﾝｸ
  6
Continuous
100
AcDbLine
 10
153.9581456297683
 20
161.8642459695572
 30
0.0
 11
152.848526040919
 21
162.9738655584064
 31
0.0
  0
POINT
  5
1AD0
330
18
100
AcDbEntity
  8
DEFPOINTS
  6
ByBlock
 62
     0
100
AcDbPoint
 10
153.9581456297682
 20
170.9738655584065
 30
0.0
  0
POINT
  5
1AD1
330
18
100
AcDbEntity
  8
DEFPOINTS
  6
ByBlock
 62
     0
100
AcDbPoint
 10
153.9581456297682
 20
170.9738655584065
 30
0.0
  0
LINE
  5
1AD2
330
18
100
AcDbEntity
  8
外形線
100
AcDbLine
 10
173.8893465310354
 20
157.1221336396376
 30
0.0
 11
186.4116435073505
 21
161.6353179987031
 31
0.0
  0
LINE
  5
1AD3
330
18
100
AcDbEntity
  8
外形線
100
AcDbLine
 10
186.4116435073505
 20
161.6353179987031
 30
0.0
 11
186.9202371909815
 21
160.2241722000804
 31
0.0
  0
LINE
  5
1AE0
330
18
100
AcDbEntity
  8
外形線
100
AcDbLine
 10
148.4581456297681
 20
102.4738655584065
 30
0.0
 11
159.1782988842235
 21
102.4738655584065
 31
0.0
  0
LINE
  5
1AE1
330
18
100
AcDbEntity
  8
外形線
100
AcDbLine
 10
148.4581456297681
 20
83.97386555840654
 30
0.0
 11
172.1581456297681
 21
83.97386555840652
 31
0.0
  0
LINE
  5
1AE2
330
18
100
AcDbEntity
  8
外形線
100
AcDbLine
 10
149.7081456297682
 20
59.27386555840653
 30
0.0
 11
172.1581456297681
 21
59.27386555840654
 31
0.0
  0
LINE
  5
1AE3
330
18
100
AcDbEntity
  8
外形線
100
AcDbLine
 10
149.7081456297682
 20
49.27386555840654
 30
0.0
 11
159.4962418400776
 21
49.27386555840654
 31
0.0
  0
LINE
  5
1AE5
330
18
100
AcDbEntity
  8
外形線
100
AcDbLine
 10
148.4581456297681
 20
102.4738655584065
 30
0.0
 11
148.4581456297681
 21
83.97386555840656
 31
0.0
  0
LINE
  5
1AE6
330
18
100
AcDbEntity
  8
外形線
100
AcDbLine
 10
149.7081456297682
 20
59.27386555840653
 30
0.0
 11
149.7081456297682
 21
49.27386555840654
 31
0.0
  0
LINE
  5
1AE7
330
18
100
AcDbEntity
  8
外形線
100
AcDbLine
 10
174.1581456297681
 20
81.97386555840653
 30
0.0
 11
174.1581456297681
 21
61.27386555840654
 31
0.0
  0
LINE
  5
1AE8
330
18
100
AcDbEntity
  8
外形線
100
AcDbLine
 10
176.1581456297681
 20
81.97386555840655
 30
0.0
 11
176.1581456297681
 21
61.27386555840653
 31
0.0
  0
LINE
  5
1AE9
330
18
100
AcDbEntity
  8
外形線
100
AcDbLine
 10
158.037006530096
 20
85.97386555840655
 30
0.0
 11
161.662083944146
 21
85.97386555840655
 31
0.0
  0
LINE
  5
1AEA
330
18
100
AcDbEntity
  8
外形線
100
AcDbLine
 10
155.8701112256924
 20
57.27386555840653
 30
0.0
 11
160.2599761612536
 21
57.27386555840653
 31
0.0
  0
ARC
  5
1AEB
330
18
100
AcDbEntity
  8
外形線
100
AcDbCircle
 10
172.1581456297681
 20
61.27386555840654
 30
0.0
 40
2.0
100
AcDbArc
 50
270.0
 51
0.0
  0
ARC
  5
1AEC
330
18
100
AcDbEntity
  8
外形線
100
AcDbCircle
 10
172.1581456297681
 20
81.97386555840653
 30
0.0
 40
2.0
100
AcDbArc
 50
0.0
 51
90.0
  0
ARC
  5
1AED
330
18
100
AcDbEntity
  8
外形線
100
AcDbCircle
 10
172.1581456297681
 20
81.97386555840655
 30
0.0
 40
4.0
100
AcDbArc
 50
0.0
 51
90.0
  0
ARC
  5
1AEE
330
18
100
AcDbEntity
  8
外形線
100
AcDbCircle
 10
172.1581456297681
 20
61.27386555840653
 30
0.0
 40
4.0
100
AcDbArc
 50
270.0
 51
0.0
  0
ARC
  5
1AF1
330
18
100
AcDbEntity
  8
外形線
100
AcDbCircle
 10
171.1581456297681
 20
63.27386555840653
 30
0.0
 40
18.0
100
AcDbArc
 50
232.1363536382697
 51
312.3635143614753
  0
ARC
  5
1AF3
330
18
100
AcDbEntity
  8
外形線
100
AcDbCircle
 10
153.9581456297682
 20
129.4738655584065
 30
0.0
 40
27.5
100
AcDbArc
 50
280.9424989068668
 51
0.0
  0
ARC
  5
1AF4
330
18
100
AcDbEntity
  8
外形線
100
AcDbCircle
 10
153.9581456297682
 20
129.4738655584065
 30
0.0
 40
31.0
100
AcDbArc
 50
277.5606819603021
 51
0.0
  0
LINE
  5
1AF5
330
18
100
AcDbEntity
  8
外形線
100
AcDbLine
 10
184.4581456297681
 20
143.4738655584065
 30
0.0
 11
190.4581456297682
 21
143.4738655584065
 31
0.0
  0
LINE
  5
1AF8
330
18
100
AcDbEntity
  8
外形線
100
AcDbLine
 10
181.4581456297682
 20
129.4738655584065
 30
0.0
 11
181.4581456297681
 21
140.4738655584066
 31
0.0
  0
LINE
  5
1AF9
330
18
100
AcDbEntity
  8
外形線
100
AcDbLine
 10
184.9581456297682
 20
129.4738655584065
 30
0.0
 11
184.9581456297682
 21
135.2488428723624
 31
0.0
  0
ARC
  5
1AFA
330
18
100
AcDbEntity
  8
外形線
100
AcDbCircle
 10
190.4581456297682
 20
121.4738655584065
 30
0.0
 40
17.0
100
AcDbArc
 50
4.216992413215451
 51
100.2865606114749
  0
ARC
  5
1AFB
330
18
100
AcDbEntity
  8
外形線
100
AcDbCircle
 10
190.4581456297682
 20
121.4738655584065
 30
0.0
 40
22.0
100
AcDbArc
 50
4.216992413215397
 51
90.0
  0
ARC
  5
1AFC
330
18
100
AcDbEntity
  8
外形線
100
AcDbCircle
 10
184.4581456297681
 20
140.4738655584066
 30
0.0
 40
3.0
100
AcDbArc
 50
90.0
 51
180.0
  0
ARC
  5
1AFD
330
18
100
AcDbEntity
  8
外形線
100
AcDbCircle
 10
187.9581456297682
 20
135.2488428723624
 30
0.0
 40
3.0
100
AcDbArc
 50
100.2865606114748
 51
180.0
  0
ARC
  5
1B00
330
18
100
AcDbEntity
  8
外形線
100
AcDbCircle
 10
171.1581456297681
 20
81.47386555840652
 30
0.0
 40
16.5
100
AcDbArc
 50
0.0
 51
86.24786649496375
  0
LINE
  5
1B01
330
18
100
AcDbEntity
  8
外形線
100
AcDbLine
 10
187.6581456297681
 20
81.47386555840652
 30
0.0
 11
187.6581456297681
 21
70.67140777916039
 31
0.0
  0
ARC
  5
1B02
330
18
100
AcDbEntity
  8
外形線
100
AcDbCircle
 10
172.4342312096089
 20
100.9320670578494
 30
0.0
 40
3.0
100
AcDbArc
 50
122.9163676695961
 51
266.2478664949639
  0
LINE
  5
1B03
330
18
100
AcDbEntity
  8
外形線
100
AcDbLine
 10
159.9581456297682
 20
98.24887556641456
 30
0.0
 11
159.9581456297682
 21
86.97386555840656
 31
0.0
  0
ARC
  5
1B0F
330
18
100
AcDbEntity
  8
外形線
100
AcDbCircle
 10
122.6422411558182
 20
116.4735555300085
 30
0.0
 40
85.0
100
AcDbArc
 50
326.0435376107553
 51
4.216992413215431
  0
ARC
  5
1B10
330
18
100
AcDbEntity
  8
外形線
100
AcDbCircle
 10
190.6581456297681
 20
70.67140777916037
 30
0.0
 40
3.0
100
AcDbArc
 50
179.9999999999998
 51
326.0435376107553
  0
ARC
  5
1B11
330
18
100
AcDbEntity
  8
外形線
100
AcDbCircle
 10
122.6422411558182
 20
116.4735555300085
 30
0.0
 40
90.0
100
AcDbArc
 50
312.3635143614753
 51
4.216992413215418
  0
LINE
  5
1B12
330
18
100
AcDbEntity
  8
外形線
100
AcDbLine
 10
158.1207963369398
 20
56.27386555840653
 30
0.0
 11
158.1207963369398
 21
49.27386555840654
 31
0.0
  0
LINE
  5
1B13
330
18
100
AcDbEntity
  8
外形線
100
AcDbLine
 10
159.1207963369399
 20
57.27386555840653
 30
0.0
 11
172.1581456297681
 21
57.27386555840653
 31
0.0
  0
ARC
  5
1B14
330
18
100
AcDbEntity
  8
外形線
100
AcDbCircle
 10
159.1207963369399
 20
56.27386555840653
 30
0.0
 40
1.0
100
AcDbArc
 50
90.0
 51
180.0
  0
LINE
  5
1B15
330
18
100
AcDbEntity
  8
外形線
100
AcDbLine
 10
160.9581456297681
 20
85.97386555840655
 30
0.0
 11
172.1581456297681
 21
85.97386555840655
 31
0.0
  0
ARC
  5
1B16
330
18
100
AcDbEntity
  8
外形線
100
AcDbCircle
 10
160.9581456297681
 20
86.97386555840656
 30
0.0
 40
1.0
100
AcDbArc
 50
180.0
 51
270.0
  0
ARC
  5
1B18
330
18
100
AcDbEntity
  8
外形線
100
AcDbCircle
 10
155.8701112256924
 20
56.27386555840653
 30
0.0
 40
1.0
100
AcDbArc
 50
90.0
 51
180.0
  0
ARC
  5
1B19
330
18
100
AcDbEntity
  8
外形線
100
AcDbCircle
 10
159.4962418400776
 20
48.27386555840654
 30
0.0
 40
1.0
100
AcDbArc
 50
52.13635363826952
 51
90.0
  0
ARC
  5
1B1B
330
18
100
AcDbEntity
  8
外形線
100
AcDbCircle
 10
160.9581456297681
 20
98.24887556641456
 30
0.0
 40
1.0
100
AcDbArc
 50
102.6356250930211
 51
180.0
  0
ARC
  5
1B1D
330
18
100
AcDbEntity
  8
外形線
100
AcDbCircle
 10
158.255756530096
 20
97.76759660427401
 30
0.0
 40
1.0
100
AcDbArc
 50
102.6356250930211
 51
158.9925084153286
  0
ARC
  5
1B1E
330
18
100
AcDbEntity
  8
外形線
100
AcDbCircle
 10
158.037006530096
 20
86.97386555840655
 30
0.0
 40
1.0
100
AcDbArc
 50
202.9415662462338
 51
270.0
  0
LINE
  5
1B75
330
18
100
AcDbEntity
  8
外形線
  6
Continuous
100
AcDbLine
 10
56.29952153780209
 20
155.3738655584065
 30
0.0
 11
56.29952153780209
 21
102.5738655584065
 31
0.0
  0
LINE
  5
1B76
330
18
100
AcDbEntity
  8
外形線
  6
Continuous
100
AcDbLine
 10
60.0995215378021
 20
155.3738655584065
 30
0.0
 11
60.0995215378021
 21
102.5738655584065
 31
0.0
  0
LINE
  5
1B77
330
18
100
AcDbEntity
  8
外形線
  6
Continuous
100
AcDbLine
 10
60.0995215378021
 20
102.5738655584065
 30
0.0
 11
56.29952153780209
 21
102.5738655584065
 31
0.0
  0
LINE
  5
1B78
330
18
100
AcDbEntity
  8
外形線
  6
Continuous
100
AcDbLine
 10
46.0995215378021
 20
169.4738655584065
 30
0.0
 11
46.0995215378021
 21
162.9738655584065
 31
0.0
  0
LINE
  5
1B79
330
18
100
AcDbEntity
  8
外形線
  6
Continuous
100
AcDbLine
 10
53.49952153780205
 20
169.4738655584065
 30
0.0
 11
53.49952153780205
 21
162.9738655584065
 31
0.0
  0
LINE
  5
1B7A
330
18
100
AcDbEntity
  8
外形線
  6
CENTER2
100
AcDbLine
 10
54.79952153780209
 20
153.9738655584065
 30
0.0
 11
56.29952153780209
 21
153.9738655584065
 31
0.0
  0
LINE
  5
1B7B
330
18
100
AcDbEntity
  8
外形線
  6
CENTER2
100
AcDbLine
 10
54.79952153780209
 20
103.9738655584065
 30
0.0
 11
56.29952153780209
 21
103.9738655584065
 31
0.0
  0
LINE
  5
1B7C
330
18
100
AcDbEntity
  8
外形線
  6
Continuous
100
AcDbLine
 10
43.29952153780209
 20
153.7738655584065
 30
0.0
 11
43.29952153780209
 21
104.1738655584065
 31
0.0
  0
LINE
  5
1B7D
330
18
100
AcDbEntity
  8
外形線
  6
Continuous
100
AcDbLine
 10
54.79952153780209
 20
153.9738655584065
 30
0.0
 11
54.79952153780209
 21
103.9738655584065
 31
0.0
  0
LINE
  5
1B7E
330
18
100
AcDbEntity
  8
外形線
  6
Continuous
100
AcDbLine
 10
43.29952153780209
 20
104.1738655584065
 30
0.0
 11
54.79952153780209
 21
104.1738655584065
 31
0.0
  0
LINE
  5
1B80
330
18
100
AcDbEntity
  8
外形線
  6
Continuous
100
AcDbLine
 10
43.29952153780209
 20
153.7738655584065
 30
0.0
 11
54.79952153780209
 21
153.7738655584065
 31
0.0
  0
LINE
  5
1B83
330
18
100
AcDbEntity
  8
外形線
  6
Continuous
100
AcDbLine
 10
45.79952153780209
 20
162.9738655584065
 30
0.0
 11
45.79952153780209
 21
156.9738655584065
 31
0.0
  0
LINE
  5
1B84
330
18
100
AcDbEntity
  8
外形線
  6
Continuous
100
AcDbLine
 10
53.79952153780206
 20
162.9738655584065
 30
0.0
 11
53.79952153780206
 21
156.9738655584065
 31
0.0
  0
HATCH
  5
1B85
330
18
100
AcDbEntity
  8
ﾊｯﾁﾝｸ
  6
Continuous
100
AcDbHatch
 10
0.0
 20
0.0
 30
0.0
210
0.0
220
0.0
230
1.0
  2
ANSI37
 70
     0
 71
     0
 91
        1
 92
        7
 72
     0
 73
     1
 93
        4
 10
49.79952153780207
 20
162.9738655584065
 10
53.79952153780212
 20
162.9738655584065
 10
53.79952153780212
 20
156.9738655584065
 10
49.79952153780209
 20
156.9738655584065
 97
        0
 75
     0
 76
     1
 52
0.0
 41
10.0
 77
     0
 78
     2
 53
135.0
 43
242.2725256742602
 44
7.85492732460716
 45
0.8838834764831842
 46
0.8838834764831844
 79
     0
 53
45.0
 43
242.2725256742602
 44
7.85492732460716
 45
0.8838834764831844
 46
-0.8838834764831842
 79
     0
 47
0.1856754751158765
 98
        1
 10
51.54636932075812
 20
160.749911602593
  0
LINE
  5
1B86
330
18
100
AcDbEntity
  8
外形線
  6
Continuous
100
AcDbLine
 10
45.79952153780206
 20
156.9738655584065
 30
0.0
 11
53.79952153780206
 21
156.9738655584065
 31
0.0
  0
LINE
  5
1B87
330
18
100
AcDbEntity
  8
外形線
  6
Continuous
100
AcDbLine
 10
46.0995215378021
 20
156.9738655584065
 30
0.0
 11
46.0995215378021
 21
153.7738655584065
 31
0.0
  0
LINE
  5
1B88
330
18
100
AcDbEntity
  8
外形線
  6
Continuous
100
AcDbLine
 10
53.49952153780205
 20
156.9738655584065
 30
0.0
 11
53.49952153780202
 21
153.7738655584065
 31
0.0
  0
LINE
  5
1B89
330
18
100
AcDbEntity
  8
外形線
  6
Continuous
100
AcDbLine
 10
45.79952153780209
 20
162.9738655584065
 30
0.0
 11
53.79952153780206
 21
162.9738655584065
 31
0.0
  0
LINE
  5
1B8A
330
18
100
AcDbEntity
  8
外形線
  6
Continuous
100
AcDbLine
 10
61.29952153780209
 20
153.9738655584065
 30
0.0
 11
61.29952153780209
 21
103.9738655584065
 31
0.0
  0
ARC
  5
1B8B
330
18
100
AcDbEntity
  8
外形線
  6
Continuous
100
AcDbCircle
 10
-41.36714512886444
 20
128.9738655584065
 30
0.0
 40
105.6666666666665
100
AcDbArc
 50
346.314453174738
 51
13.68554682526191
  0
LINE
  5
1B8C
330
18
100
AcDbEntity
  8
外形線
  6
Continuous
100
AcDbLine
 10
60.0995215378021
 20
103.4738655584065
 30
0.0
 11
61.29952153780209
 21
103.9738655584065
 31
0.0
  0
LINE
  5
1B8D
330
18
100
AcDbEntity
  8
外形線
  6
Continuous
100
AcDbLine
 10
60.0995215378021
 20
103.5738655584065
 30
0.0
 11
56.29952153780209
 21
103.5738655584065
 31
0.0
  0
LINE
  5
1B8E
330
18
100
AcDbEntity
  8
外形線
  6
Continuous
100
AcDbLine
 10
60.0995215378021
 20
104.5738655584065
 30
0.0
 11
56.29952153780209
 21
104.5738655584065
 31
0.0
  0
LINE
  5
1B8F
330
18
100
AcDbEntity
  8
外形線
  6
Continuous
100
AcDbLine
 10
60.0995215378021
 20
105.5738655584065
 30
0.0
 11
56.29952153780209
 21
105.5738655584065
 31
0.0
  0
LINE
  5
1B90
330
18
100
AcDbEntity
  8
外形線
  6
Continuous
100
AcDbLine
 10
60.0995215378021
 20
107.5738655584065
 30
0.0
 11
56.29952153780209
 21
107.5738655584065
 31
0.0
  0
LINE
  5
1B91
330
18
100
AcDbEntity
  8
外形線
  6
Continuous
100
AcDbLine
 10
60.0995215378021
 20
106.5738655584065
 30
0.0
 11
56.29952153780209
 21
106.5738655584065
 31
0.0
  0
LINE
  5
1B92
330
18
100
AcDbEntity
  8
外形線
  6
Continuous
100
AcDbLine
 10
56.29952153780209
 20
128.9738655584065
 30
0.0
 11
60.0995215378021
 21
128.9738655584065
 31
0.0
  0
LINE
  5
1B93
330
18
100
AcDbEntity
  8
外形線
  6
Continuous
100
AcDbLine
 10
56.29952153780209
 20
127.9738655584065
 30
0.0
 11
60.0995215378021
 21
127.9738655584065
 31
0.0
  0
LINE
  5
1B94
330
18
100
AcDbEntity
  8
外形線
  6
Continuous
100
AcDbLine
 10
56.29952153780209
 20
126.9738655584065
 30
0.0
 11
60.0995215378021
 21
126.9738655584065
 31
0.0
  0
LINE
  5
1B95
330
18
100
AcDbEntity
  8
外形線
  6
Continuous
100
AcDbLine
 10
56.29952153780209
 20
130.9738655584065
 30
0.0
 11
60.0995215378021
 21
130.9738655584065
 31
0.0
  0
LINE
  5
1B96
330
18
100
AcDbEntity
  8
外形線
  6
Continuous
100
AcDbLine
 10
56.29952153780209
 20
131.9738655584065
 30
0.0
 11
60.0995215378021
 21
131.9738655584065
 31
0.0
  0
LINE
  5
1B97
330
18
100
AcDbEntity
  8
外形線
  6
Continuous
100
AcDbLine
 10
56.29952153780209
 20
129.9738655584065
 30
0.0
 11
60.0995215378021
 21
129.9738655584065
 31
0.0
  0
LINE
  5
1B9A
330
18
100
AcDbEntity
  8
外形線
  6
Continuous
100
AcDbLine
 10
60.0995215378021
 20
154.4738655584065
 30
0.0
 11
61.29952153780209
 21
153.9738655584065
 31
0.0
  0
LINE
  5
1B9B
330
18
100
AcDbEntity
  8
外形線
  6
Continuous
100
AcDbLine
 10
60.0995215378021
 20
153.3738655584065
 30
0.0
 11
56.29952153780209
 21
153.3738655584065
 31
0.0
  0
LINE
  5
1B9C
330
18
100
AcDbEntity
  8
外形線
  6
Continuous
100
AcDbLine
 10
60.0995215378021
 20
152.3738655584065
 30
0.0
 11
56.29952153780209
 21
152.3738655584065
 31
0.0
  0
LINE
  5
1B9D
330
18
100
AcDbEntity
  8
外形線
  6
Continuous
100
AcDbLine
 10
60.0995215378021
 20
151.3738655584065
 30
0.0
 11
56.29952153780209
 21
151.3738655584065
 31
0.0
  0
LINE
  5
1B9E
330
18
100
AcDbEntity
  8
外形線
  6
Continuous
100
AcDbLine
 10
60.0995215378021
 20
150.3738655584065
 30
0.0
 11
56.29952153780209
 21
150.3738655584065
 31
0.0
  0
LINE
  5
1B9F
330
18
100
AcDbEntity
  8
外形線
  6
Continuous
100
AcDbLine
 10
60.0995215378021
 20
155.3738655584065
 30
0.0
 11
56.29952153780209
 21
155.3738655584065
 31
0.0
  0
LINE
  5
1BA0
330
18
100
AcDbEntity
  8
外形線
  6
Continuous
100
AcDbLine
 10
60.0995215378021
 20
154.3738655584065
 30
0.0
 11
56.29952153780209
 21
154.3738655584065
 31
0.0
  0
LINE
  5
1BA1
330
18
100
AcDbEntity
  8
外形線
  6
Continuous
100
AcDbLine
 10
46.0995215378021
 20
169.4738655584065
 30
0.0
 11
53.49952153780205
 21
169.4738655584065
 31
0.0
  0
ARC
  5
1BA2
330
18
100
AcDbEntity
  8
外形線
  6
Continuous
100
AcDbCircle
 10
49.79952153780203
 20
163.1288655584066
 30
0.0
 40
7.344999999999885
100
AcDbArc
 50
59.75198538337818
 51
120.2480146166212
  0
POINT
  5
1BA3
330
18
100
AcDbEntity
  8
DEFPOINTS
  6
ByBlock
 62
     0
100
AcDbPoint
 10
49.79952153780209
 20
170.4738655584065
 30
0.0
  0
LINE
  5
1BA6
330
18
100
AcDbEntity
  8
外形線
100
AcDbLine
 10
45.79952153780209
 20
104.1738655584065
 30
0.0
 11
45.79952153780209
 21
102.4738655584065
 31
0.0
  0
LINE
  5
1BA7
330
18
100
AcDbEntity
  8
外形線
100
AcDbLine
 10
53.79952153780209
 20
104.1738655584065
 30
0.0
 11
53.79952153780208
 21
102.4738655584065
 31
0.0
  0
TEXT
  5
1D41
330
18
100
AcDbEntity
  8
文字
100
AcDbText
 10
166.5669056204704
 20
117.1150159876188
 30
0.0
 40
2.2
  1
70
 41
0.9
  7
STYLE3
100
AcDbText
  0
LINE
  5
1D42
330
18
100
AcDbEntity
  8
目盛
100
AcDbLine
 10
167.4772064324951
 20
147.5812564290303
 30
0.0
 11
166.154689614837
 21
145.7609681916867
 31
0.0
  0
LINE
  5
1D43
330
18
100
AcDbEntity
  8
目盛
100
AcDbLine
 10
167.4772064324951
 20
110.3664746877827
 30
0.0
 11
166.154689614837
 21
112.1867629251264
 31
0.0
  0
CIRCLE
  5
1D44
330
18
100
AcDbEntity
  8
外形線
100
AcDbCircle
 10
153.9581456297682
 20
128.9738655584065
 30
0.0
 40
23.0
  0
CIRCLE
  5
1D45
330
18
100
AcDbEntity
  8
外形線
100
AcDbCircle
 10
153.9581456297682
 20
128.9738655584065
 30
0.0
 40
15.5
  0
CIRCLE
  5
1D46
330
18
100
AcDbEntity
  8
針
100
AcDbCircle
 10
150.7581456297682
 20
118.8998941468926
 30
0.0
 40
0.75
  0
CIRCLE
  5
1D47
330
18
100
AcDbEntity
  8
針
100
AcDbCircle
 10
150.7581456297682
 20
118.8998941468926
 30
0.0
 40
1.1
  0
HATCH
  5
1D48
330
18
100
AcDbEntity
  8
針
100
AcDbHatch
 10
0.0
 20
0.0
 30
0.0
210
0.0
220
0.0
230
1.0
  2
SOLID
 70
     1
 71
     0
 91
        4
 92
        7
 72
     1
 73
     1
 93
        4
 10
150.9444300840021
 20
119.9840058118565
 42
0.0
 10
150.885157757655
 20
119.6390611911862
 42
-0.4142135623730951
 10
151.4973126740617
 20
118.7728820190059
 42
0.0
 10
151.8422572947321
 20
118.7136096926588
 42
0.4142135623730996
 97
        0
 92
        7
 72
     1
 73
     1
 93
        5
 10
150.885157757655
 20
119.6390611911862
 42
0.0
 10
150.9444300840021
 20
119.9840058118565
 42
0.3173569687788799
 10
149.7990687409146
 20
119.4385698575637
 42
0.0
 10
149.9897051681133
 20
119.0319363678528
 42
0.0
 10
150.0189785854745
 20
119.0269062747795
 42
-0.4142135623730839
 97
        0
 92
        7
 72
     1
 73
     1
 93
        4
 10
151.8422572947321
 20
118.7136096926588
 42
0.0
 10
151.4973126740617
 20
118.7728820190059
 42
-0.4142135623730951
 10
150.6311335018813
 20
118.160727102599
 42
0.0
 10
150.5718611755343
 20
117.8157824819288
 42
0.4142135623730996
 97
        0
 92
        7
 72
     1
 73
     1
 93
        4
 10
150.6311335018813
 20
118.160727102599
 42
-0.1036385141593389
 10
150.3450916513764
 20
118.2738858315048
 42
0.0
 10
150.5587647118429
 20
117.8181144791381
 42
0.003023315109616
 10
150.5718611755343
 20
117.8157824819288
 42
0.0
 97
        0
 75
     0
 76
     1
 47
0.0223982890607777
 98
        4
 10
151.6206940359728
 20
119.3852487548269
 10
150.4984648698217
 20
119.7371687897699
 10
151.6198187234885
 20
118.4536107948711
 10
150.55673757638
 20
118.0908440024754
450
        0
451
        0
460
0.0
461
0.0
452
        0
462
0.0
453
        0
470

  0
HATCH
  5
1D49
330
18
100
AcDbEntity
  8
針
100
AcDbHatch
 10
0.0
 20
0.0
 30
0.0
210
0.0
220
0.0
230
1.0
  2
SOLID
 70
     1
 71
     0
 91
        2
 92
        7
 72
     1
 73
     1
 93
        5
 10
149.7087687265995
 20
118.5700333958228
 42
0.31735696877887
 10
150.7174306905879
 20
117.8006479079963
 42
0.0
 10
150.9919576585709
 20
118.1560743929121
 42
0.0
 10
150.9830506873157
 20
118.1844098947322
 42
-0.4142135623731173
 10
150.0426613776077
 20
118.674989089345
 42
0.0
 97
        0
 92
        7
 72
     1
 73
     1
 93
        4
 10
149.7087687265995
 20
118.5700333958228
 42
0.0
 10
150.0426613776077
 20
118.674989089345
 42
-0.4142135623730728
 10
150.5332405722205
 20
119.615378399053
 42
0.0
 10
150.4282848786983
 20
119.9492710500611
 42
0.4142135623730844
 97
        0
 75
     0
 76
     1
 47
0.0161501285364394
 98
        2
 10
150.047549962993
 20
118.2536949199263
 10
149.8496988765873
 20
118.9369686902017
450
        0
451
        0
460
0.0
461
0.0
452
        0
462
0.0
453
        0
470

  0
LINE
  5
1D4A
330
18
100
AcDbEntity
  8
目盛
100
AcDbLine
 10
133.4649955734358
 20
118.5320840643969
 30
0.0
 11
135.4697602528596
 21
119.5535626888109
 31
0.0
  0
LINE
  5
1D4B
330
18
100
AcDbEntity
  8
目盛
100
AcDbLine
 10
133.1471234230498
 20
119.1809418524098
 30
0.0
 11
134.2781572386323
 21
119.7131659668662
 31
0.0
  0
ARC
  5
1D4C
330
18
100
AcDbEntity
  8
外形線
100
AcDbCircle
 10
150.7581456297682
 20
118.8998941468926
 30
0.0
 40
4.75
100
AcDbArc
 50
0.0
 51
180.0
  0
LINE
  5
1D4D
330
18
100
AcDbEntity
  8
中心線
 48
0.2
100
AcDbLine
 10
150.7581456297682
 20
124.9685392046124
 30
0.0
 11
150.7581456297682
 21
115.4317304202979
 31
0.0
  0
LINE
  5
1D4E
330
18
100
AcDbEntity
  8
目盛
100
AcDbLine
 10
134.1610790086775
 20
117.265912996148
 30
0.0
 11
135.2370065424325
 21
117.9022147658359
 31
0.0
  0
LINE
  5
1D4F
330
18
100
AcDbEntity
  8
目盛
100
AcDbLine
 10
133.8030919887594
 20
117.8935310540671
 30
0.0
 11
134.8984753388142
 21
118.4957231466942
 31
0.0
  0
CIRCLE
  5
1D50
330
18
100
AcDbEntity
  8
針
 62
     4
100
AcDbCircle
 10
150.7581456297682
 20
118.8998941468926
 30
0.0
 40
0.4
  0
LINE
  5
1D51
330
18
100
AcDbEntity
  8
目盛
100
AcDbLine
 10
150.3601529338429
 20
106.2570337247184
 30
0.0
 11
150.7121304801834
 21
108.4793324910574
 31
0.0
  0
LINE
  5
1D52
330
18
100
AcDbEntity
  8
中心線
 48
0.2
100
AcDbLine
 10
144.568569060092
 20
118.8998941468926
 30
0.0
 11
157.685442661268
 21
118.8998941468926
 31
0.0
  0
LINE
  5
1D53
330
18
100
AcDbEntity
  8
目盛
100
AcDbLine
 10
148.2382782249765
 20
106.696452852448
 30
0.0
 11
148.5491405839326
 21
107.9071818038588
 31
0.0
  0
LINE
  5
1D54
330
18
100
AcDbEntity
  8
目盛
100
AcDbLine
 10
147.5413501908659
 20
106.8871107878368
 30
0.0
 11
147.8900890734149
 21
108.087477894933
 31
0.0
  0
LINE
  5
1D55
330
18
100
AcDbEntity
  8
目盛
100
AcDbLine
 10
146.8507547591444
 20
107.099565683618
 30
0.0
 11
147.5460429964881
 21
109.2394428452821
 31
0.0
  0
LINE
  5
1D56
330
18
100
AcDbEntity
  8
目盛
100
AcDbLine
 10
146.1671734641265
 20
107.3336078724593
 30
0.0
 11
146.5905958644331
 21
108.5097088336521
 31
0.0
  0
LINE
  5
1D57
330
18
100
AcDbEntity
  8
目盛
100
AcDbLine
 10
145.4912809180206
 20
107.5890063829767
 30
0.0
 11
145.9514366088764
 21
108.7512269903371
 31
0.0
  0
LINE
  5
1D58
330
18
100
AcDbEntity
  8
目盛
100
AcDbLine
 10
149.6483753942965
 20
106.3812587916467
 30
0.0
 11
149.8826020375287
 21
107.6091178550576
 31
0.0
  0
LINE
  5
1D59
330
18
100
AcDbEntity
  8
目盛
100
AcDbLine
 10
148.9408510776477
 20
106.5277800338154
 30
0.0
 11
149.2135301293934
 21
107.7476759862388
 31
0.0
  0
TEXT
  5
1D5A
330
18
100
AcDbEntity
  8
文字
100
AcDbText
 10
140.8919583995233
 20
113.357759666229
 30
0.0
 40
2.2
  1
120
 41
0.8
  7
STYLE3
100
AcDbText
  0
LINE
  5
1D5B
330
18
100
AcDbEntity
  8
目盛
100
AcDbLine
 10
142.2501930675097
 20
109.1767989373158
 30
0.0
 11
142.8864948371977
 21
110.2527264710707
 31
0.0
  0
LINE
  5
1D5C
330
18
100
AcDbEntity
  8
目盛
100
AcDbLine
 10
137.6946896624777
 20
112.710409591116
 30
0.0
 11
139.2856799201473
 21
114.3013998487857
 31
0.0
  0
LINE
  5
1D5D
330
18
100
AcDbEntity
  8
目盛
100
AcDbLine
 10
137.1918671990758
 20
113.2292821220467
 30
0.0
 11
138.1030779833525
 21
114.0849660044575
 31
0.0
  0
LINE
  5
1D5E
330
18
100
AcDbEntity
  8
目盛
100
AcDbLine
 10
138.2135621934084
 20
112.2075871277141
 30
0.0
 11
139.0692460758193
 21
113.1187979119908
 31
0.0
  0
LINE
  5
1D5F
330
18
100
AcDbEntity
  8
目盛
100
AcDbLine
 10
141.6341293452513
 20
109.5543232718602
 30
0.0
 11
142.303912838975
 21
110.6097331787377
 31
0.0
  0
LINE
  5
1D60
330
18
100
AcDbEntity
  8
目盛
100
AcDbLine
 10
141.0302279391692
 20
109.9510123500916
 30
0.0
 11
141.7328321614844
 21
110.9848630679348
 31
0.0
  0
LINE
  5
1D61
330
18
100
AcDbEntity
  8
目盛
100
AcDbLine
 10
140.4390848270413
 20
110.3664746877827
 30
0.0
 11
141.7616016446994
 21
112.1867629251264
 31
0.0
  0
LINE
  5
1D62
330
18
100
AcDbEntity
  8
目盛
100
AcDbLine
 10
139.8612833957498
 20
110.8003002737657
 30
0.0
 11
140.627417212816
 21
111.7879940392353
 31
0.0
  0
LINE
  5
1D63
330
18
100
AcDbEntity
  8
目盛
100
AcDbLine
 10
139.2973938655484
 20
111.2520609745634
 30
0.0
 11
140.0941738527343
 21
112.2152025280331
 31
0.0
  0
LINE
  5
1D64
330
18
100
AcDbEntity
  8
目盛
100
AcDbLine
 10
138.7479727273243
 20
111.721310956906
 30
0.0
 11
139.5746125589788
 21
112.658949793944
 31
0.0
  0
TEXT
  5
1D65
330
18
100
AcDbEntity
  8
文字
100
AcDbText
 10
136.9983247363851
 20
117.1040748560203
 30
0.0
 40
2.2
  1
130
 41
0.8
  7
STYLE3
100
AcDbText
  0
LINE
  5
1D66
330
18
100
AcDbEntity
  8
目盛
100
AcDbLine
 10
136.2363410459251
 20
114.3131137941866
 30
0.0
 11
137.1994825993948
 21
115.1098937813725
 31
0.0
  0
LINE
  5
1D67
330
18
100
AcDbEntity
  8
目盛
100
AcDbLine
 10
135.7845803451274
 20
114.8770033243881
 30
0.0
 11
136.772274110597
 21
115.6431371414543
 31
0.0
  0
LINE
  5
1D68
330
18
100
AcDbEntity
  8
目盛
100
AcDbLine
 10
136.7055910282677
 20
113.7636926559626
 30
0.0
 11
137.6432298653058
 21
114.5903324876171
 31
0.0
  0
LINE
  5
1D69
330
18
100
AcDbEntity
  8
目盛
100
AcDbLine
 10
135.3507547591445
 20
115.4548047556796
 30
0.0
 11
137.1710429964881
 21
116.7773215733377
 31
0.0
  0
LINE
  5
1D6A
330
18
100
AcDbEntity
  8
目盛
100
AcDbLine
 10
134.9352924214533
 20
116.0459478678075
 30
0.0
 11
135.9691431392965
 21
116.7485520901227
 31
0.0
  0
LINE
  5
1D6B
330
18
100
AcDbEntity
  8
目盛
100
AcDbLine
 10
134.5386033432219
 20
116.6498492738896
 30
0.0
 11
135.5940132500994
 21
117.3196327676133
 31
0.0
  0
TEXT
  5
1D6C
330
18
100
AcDbEntity
  8
文字
100
AcDbText
 10
145.4625289648305
 20
110.9649734737191
 30
0.0
 40
2.2
  1
110
 41
0.8
  7
STYLE3
100
AcDbText
  0
LINE
  5
1D6D
330
18
100
AcDbEntity
  8
目盛
100
AcDbLine
 10
143.5163641357586
 20
108.4807155020741
 30
0.0
 11
144.5378427601725
 21
110.4854801814979
 31
0.0
  0
LINE
  5
1D6E
330
18
100
AcDbEntity
  8
目盛
100
AcDbLine
 10
144.8237441451682
 20
107.865509167675
 30
0.0
 11
145.3201790084617
 21
109.0127024497799
 31
0.0
  0
LINE
  5
1D6F
330
18
100
AcDbEntity
  8
目盛
100
AcDbLine
 10
144.1652219237715
 20
108.1628433516881
 30
0.0
 11
144.6974460382279
 21
109.2938771672706
 31
0.0
  0
LINE
  5
1D70
330
18
100
AcDbEntity
  8
目盛
100
AcDbLine
 10
142.8778111254287
 20
108.8188119173977
 30
0.0
 11
143.4800032180559
 21
109.9141952674525
 31
0.0
  0
LINE
  5
1D71
330
18
100
AcDbEntity
  8
外形線
100
AcDbLine
 10
146.5081456297682
 20
118.8998941468926
 30
0.0
 11
146.0081456297682
 21
118.8998941468926
 31
0.0
  0
TEXT
  5
1D72
330
18
100
AcDbEntity
  8
文字
100
AcDbText
 10
146.5244367206916
 20
118.4436684950977
 30
0.0
 40
1.0
  1
1.0
  7
STYLE3
100
AcDbText
  0
LINE
  5
1D73
330
18
100
AcDbEntity
  8
目盛
100
AcDbLine
 10
162.4250103415158
 20
107.5890063829767
 30
0.0
 11
161.96485465066
 21
108.7512269903371
 31
0.0
  0
LINE
  5
1D74
330
18
100
AcDbEntity
  8
目盛
100
AcDbLine
 10
161.7491177954099
 20
107.3336078724593
 30
0.0
 11
161.3256953951033
 21
108.5097088336521
 31
0.0
  0
LINE
  5
1D75
330
18
100
AcDbEntity
  8
目盛
100
AcDbLine
 10
161.065536500392
 20
107.099565683618
 30
0.0
 11
160.3702482630484
 21
109.2394428452821
 31
0.0
  0
LINE
  5
1D76
330
18
100
AcDbEntity
  8
目盛
100
AcDbLine
 10
157.5561383256935
 20
106.2570337247183
 30
0.0
 11
157.204160779353
 21
108.4793324910574
 31
0.0
  0
LINE
  5
1D77
330
18
100
AcDbEntity
  8
目盛
100
AcDbLine
 10
160.3749410686705
 20
106.8871107878369
 30
0.0
 11
160.0262021861214
 21
108.087477894933
 31
0.0
  0
LINE
  5
1D78
330
18
100
AcDbEntity
  8
目盛
100
AcDbLine
 10
159.6780130345599
 20
106.696452852448
 30
0.0
 11
159.3671506756038
 21
107.9071818038588
 31
0.0
  0
LINE
  5
1D79
330
18
100
AcDbEntity
  8
目盛
100
AcDbLine
 10
153.9581456297682
 20
105.9738655584065
 30
0.0
 11
153.9581456297682
 21
108.2238655584065
 31
0.0
  0
LINE
  5
1D7A
330
18
100
AcDbEntity
  8
目盛
100
AcDbLine
 10
158.9754401818887
 20
106.5277800338154
 30
0.0
 11
158.702761130143
 21
107.7476759862388
 31
0.0
  0
LINE
  5
1D7B
330
18
100
AcDbEntity
  8
目盛
100
AcDbLine
 10
154.6805930885652
 20
105.9852146699947
 30
0.0
 11
154.6413296397175
 21
107.2345978704519
 31
0.0
  0
LINE
  5
1D7C
330
18
100
AcDbEntity
  8
目盛
100
AcDbLine
 10
153.2356981709712
 20
105.9852146699947
 30
0.0
 11
153.2749616198189
 21
107.2345978704519
 31
0.0
  0
LINE
  5
1D7D
330
18
100
AcDbEntity
  8
目盛
100
AcDbLine
 10
152.513963680594
 20
106.0192508045563
 30
0.0
 11
152.5924518300056
 21
107.2667842150916
 31
0.0
  0
LINE
  5
1D7E
330
18
100
AcDbEntity
  8
目盛
100
AcDbLine
 10
151.7936544234423
 20
106.0759403725357
 30
0.0
 11
151.9112898150905
 21
107.3203928282896
 31
0.0
  0
LINE
  5
1D7F
330
18
100
AcDbEntity
  8
目盛
100
AcDbLine
 10
151.0754812577892
 20
106.1552274281736
 30
0.0
 11
151.2321477997446
 21
107.3953708048167
 31
0.0
  0
LINE
  5
1D80
330
18
100
AcDbEntity
  8
目盛
100
AcDbLine
 10
155.4023275789424
 20
106.0192508045563
 30
0.0
 11
155.3238394295308
 21
107.2667842150916
 31
0.0
  0
LINE
  5
1D81
330
18
100
AcDbEntity
  8
目盛
100
AcDbLine
 10
158.2679158652399
 20
106.3812587916467
 30
0.0
 11
158.0336892220077
 21
107.6091178550576
 31
0.0
  0
LINE
  5
1D82
330
18
100
AcDbEntity
  8
目盛
100
AcDbLine
 10
156.8408100017472
 20
106.1552274281735
 30
0.0
 11
156.6841434597918
 21
107.3953708048166
 31
0.0
  0
LINE
  5
1D83
330
18
100
AcDbEntity
  8
目盛
100
AcDbLine
 10
156.122636836094
 20
106.0759403725357
 30
0.0
 11
156.0050014444459
 21
107.3203928282896
 31
0.0
  0
TEXT
  5
1D84
330
18
100
AcDbEntity
  8
文字
100
AcDbText
 10
157.9153015193101
 20
110.6043164525704
 30
0.0
 40
2.2
  1
90
 41
0.9
  7
STYLE3
100
AcDbText
  0
TEXT
  5
1D85
330
18
100
AcDbEntity
  8
文字
100
AcDbText
 10
150.8975849848954
 20
109.6404978041245
 30
0.0
 40
2.2
  1
100
 41
0.8
  7
STYLE3
100
AcDbText
  0
LINE
  5
1D86
330
18
100
AcDbEntity
  8
針
100
AcDbLine
 10
152.2183293198214
 20
119.0129756755447
 30
0.0
 11
155.4592086455471
 21
118.8973403899382
 31
0.0
  0
LINE
  5
1D87
330
18
100
AcDbEntity
  8
針
100
AcDbLine
 10
152.2120070014966
 20
118.723227928798
 30
0.0
 11
155.4548456685403
 21
118.6973879845222
 31
0.0
  0
HATCH
  5
1D88
330
18
100
AcDbEntity
  8
針
100
AcDbHatch
 10
0.0
 20
0.0
 30
0.0
210
0.0
220
0.0
230
1.0
  2
SOLID
 70
     1
 71
     0
 91
        1
 92
        7
 72
     1
 73
     1
 93
        7
 10
155.4548456685404
 20
118.6973879845221
 42
0.0
 10
155.4570271570437
 20
118.7973641872302
 42
0.0
 10
155.4592086455472
 20
118.8973403899382
 42
0.0
 10
152.2183293198214
 20
119.0129756755447
 42
-0.2935495917910092
 10
151.7742791923688
 20
119.3211690962498
 42
-0.2104432563350663
 10
151.754936617222
 20
118.4346977073848
 42
-0.2935491884945053
 10
152.2120070014965
 20
118.723227928798
 42
0.0
 97
        0
 75
     0
 76
     1
 47
0.0140573597042523
 98
        1
 10
153.6507384584669
 20
118.7781618820028
450
        0
451
        0
460
0.0
461
0.0
452
        0
462
0.0
453
        0
470

  0
TEXT
  5
1D89
330
18
100
AcDbEntity
  8
文字
100
AcDbText
 10
153.9680686735515
 20
114.519346329194
 30
0.0
 40
1.0
  1
S
  7
STYLE3
100
AcDbText
  0
ARC
  5
1D8A
330
18
100
AcDbEntity
  8
針
100
AcDbCircle
 10
152.2361580844597
 20
119.5126577095938
 30
0.0
 40
0.5
100
AcDbArc
 50
202.5182212975196
 51
267.9565408792653
  0
ARC
  5
1D8B
330
18
100
AcDbEntity
  8
針
100
AcDbCircle
 10
152.2080229728987
 20
118.2232438015339
 30
0.0
 40
0.5
100
AcDbArc
 50
89.54345912073472
 51
154.9817787024804
  0
TEXT
  5
1D8C
330
18
100
AcDbEntity
  8
文字
100
AcDbText
 10
153.8011222308345
 20
118.2196681274529
 30
0.0
 40
1.0
  1
0
  7
STYLE3
100
AcDbText
  0
LINE
  5
1D8D
330
18
100
AcDbEntity
  8
文字
100
AcDbLine
 10
155.4548456685403
 20
118.6973879845222
 30
0.0
 11
155.4592086455471
 21
118.8973403899382
 31
0.0
  0
TEXT
  5
1D8E
330
18
100
AcDbEntity
  8
文字
100
AcDbText
 10
157.9418162266222
 20
115.0513718029064
 30
0.0
 40
1.0
  1
K
 50
16.11080334047189
  7
STYLE3
100
AcDbText
  0
LINE
  5
1D8F
330
18
100
AcDbEntity
  8
外形線
100
AcDbLine
 10
155.0081456297682
 20
118.8998941468926
 30
0.0
 11
155.5081456297682
 21
118.8998941468926
 31
0.0
  0
TEXT
  5
1D90
330
18
100
AcDbEntity
  8
文字
100
AcDbText
 10
156.8445603357152
 20
114.834866101558
 30
0.0
 40
1.0
  1
C
 50
5.687207778684769
  7
STYLE3
100
AcDbText
  0
TEXT
  5
1D91
330
18
100
AcDbEntity
  8
文字
100
AcDbText
 10
155.8222976624223
 20
114.6722595051587
 30
0.0
 40
1.0
  1
O
 50
1.760930144340787
  7
STYLE3
100
AcDbText
  0
TEXT
  5
1D92
330
18
100
AcDbEntity
  8
文字
100
AcDbText
 10
154.8608472849045
 20
114.5663749628424
 30
0.0
 40
1.0
  1
H
 50
3.041391095489256
  7
STYLE3
100
AcDbText
  0
TEXT
  5
1D93
330
18
100
AcDbEntity
  8
文字
100
AcDbText
 10
163.1023261850027
 20
113.5351219772934
 30
0.0
 40
2.2
  1
80
 41
0.9
  7
STYLE3
100
AcDbText
  0
LINE
  5
1D94
330
18
100
AcDbEntity
  8
目盛
100
AcDbLine
 10
163.0925471143681
 20
107.865509167675
 30
0.0
 11
162.5961122510747
 21
109.0127024497799
 31
0.0
  0
LINE
  5
1D95
330
18
100
AcDbEntity
  8
目盛
100
AcDbLine
 10
164.3999271237778
 20
108.480715502074
 30
0.0
 11
163.3784484993638
 21
110.4854801814979
 31
0.0
  0
LINE
  5
1D96
330
18
100
AcDbEntity
  8
目盛
100
AcDbLine
 10
166.8860633203672
 20
109.9510123500916
 30
0.0
 11
166.183459098052
 21
110.9848630679348
 31
0.0
  0
LINE
  5
1D97
330
18
100
AcDbEntity
  8
目盛
100
AcDbLine
 10
166.2821619142851
 20
109.5543232718602
 30
0.0
 11
165.6123784205614
 21
110.6097331787377
 31
0.0
  0
LINE
  5
1D98
330
18
100
AcDbEntity
  8
目盛
100
AcDbLine
 10
165.6660981920268
 20
109.1767989373158
 30
0.0
 11
165.0297964223388
 21
110.2527264710708
 31
0.0
  0
LINE
  5
1D99
330
18
100
AcDbEntity
  8
目盛
100
AcDbLine
 10
165.0384801341077
 20
108.8188119173977
 30
0.0
 11
164.4362880414805
 21
109.9141952674525
 31
0.0
  0
LINE
  5
1D9A
330
18
100
AcDbEntity
  8
目盛
100
AcDbLine
 10
163.7510693357649
 20
108.1628433516881
 30
0.0
 11
163.2188452213086
 21
109.2938771672706
 31
0.0
  0
TEXT
  5
1D9B
330
18
100
AcDbEntity
  8
文字
100
AcDbText
 10
163.2439492174031
 20
117.8651119980696
 30
0.0
 40
1.0
  1
F
 50
39.72416055040988
  7
STYLE3
100
AcDbText
  0
TEXT
  5
1D9C
330
18
100
AcDbEntity
  8
文字
100
AcDbText
 10
162.2095524517912
 20
117.1953174472305
 30
0.0
 40
1.0
  1
O
 50
27.6495577688412
  7
STYLE3
100
AcDbText
  0
TEXT
  5
1D9D
330
18
100
AcDbEntity
  8
文字
100
AcDbText
 10
161.2576935448621
 20
116.5486570083696
 30
0.0
 40
1.0
  1
O
 50
27.73777743938884
  7
STYLE3
100
AcDbText
  0
TEXT
  5
1D9E
330
18
100
AcDbEntity
  8
文字
100
AcDbText
 10
159.4765089659377
 20
115.55670665071
 30
0.0
 40
1.0
  1
P
 50
23.24053280085741
  7
STYLE3
100
AcDbText
  0
TEXT
  5
1D9F
330
18
100
AcDbEntity
  8
文字
100
AcDbText
 10
160.3333916451957
 20
115.9789478994431
 30
0.0
 40
1.0
  1
R
 50
26.06198672177309
  7
STYLE3
100
AcDbText
  0
TEXT
  5
1DA0
330
18
100
AcDbEntity
  8
文字
100
AcDbText
 10
133.2876843821145
 20
127.6801900451809
 30
0.0
 40
2.2
  1
150
 41
0.8
  7
STYLE3
100
AcDbText
  0
LINE
  5
1DA1
330
18
100
AcDbEntity
  8
目盛
100
AcDbLine
 10
132.0838457549797
 20
121.8664746877827
 30
0.0
 11
134.2237229166438
 21
122.5617629251264
 31
0.0
  0
LINE
  5
1DA2
330
18
100
AcDbEntity
  8
目盛
100
AcDbLine
 10
132.0838457549797
 20
136.0812564290303
 30
0.0
 11
134.2237229166438
 21
135.3859681916867
 31
0.0
  0
LINE
  5
1DA3
330
18
100
AcDbEntity
  8
目盛
100
AcDbLine
 10
133.4649955734358
 20
139.4156470524161
 30
0.0
 11
135.4697602528596
 21
138.3941684280022
 31
0.0
  0
LINE
  5
1DA4
330
18
100
AcDbEntity
  8
目盛
100
AcDbLine
 10
133.1471234230498
 20
138.7667892644032
 30
0.0
 11
134.2781572386323
 21
138.2345651499469
 31
0.0
  0
LINE
  5
1DA5
330
18
100
AcDbEntity
  8
目盛
100
AcDbLine
 10
133.8030919887593
 20
140.054200062746
 30
0.0
 11
134.8984753388142
 21
139.4520079701188
 31
0.0
  0
LINE
  5
1DA6
330
18
100
AcDbEntity
  8
目盛
100
AcDbLine
 10
134.1610790086775
 20
140.6818181206651
 30
0.0
 11
135.2370065424324
 21
140.0455163509771
 31
0.0
  0
LINE
  5
1DA7
330
18
100
AcDbEntity
  8
目盛
100
AcDbLine
 10
131.0602204438974
 20
131.1383567647323
 30
0.0
 11
132.3046728996512
 21
131.0207213730842
 31
0.0
  0
LINE
  5
1DA8
330
18
100
AcDbEntity
  8
目盛
100
AcDbLine
 10
132.5732864543385
 20
120.5070008466589
 30
0.0
 11
133.7355070616988
 21
120.9671565375148
 31
0.0
  0
LINE
  5
1DA9
330
18
100
AcDbEntity
  8
目盛
100
AcDbLine
 10
132.317887943821
 20
121.1828933927648
 30
0.0
 11
133.4939889050138
 21
121.6063157930715
 31
0.0
  0
LINE
  5
1DAA
330
18
100
AcDbEntity
  8
目盛
100
AcDbLine
 10
132.8497892390366
 20
119.8394640738066
 30
0.0
 11
133.9969825211416
 21
120.3358989371
 31
0.0
  0
LINE
  5
1DAB
330
18
100
AcDbEntity
  8
目盛
100
AcDbLine
 10
131.8713908591985
 20
122.5570701195042
 30
0.0
 11
133.0717579662947
 21
122.9058090020533
 31
0.0
  0
LINE
  5
1DAC
330
18
100
AcDbEntity
  8
目盛
100
AcDbLine
 10
131.6807329238097
 20
123.2539981536149
 30
0.0
 11
132.8914618752205
 21
123.5648605125709
 31
0.0
  0
LINE
  5
1DAD
330
18
100
AcDbEntity
  8
目盛
100
AcDbLine
 10
131.512060105177
 20
123.956571006286
 30
0.0
 11
132.7319560576005
 21
124.2292500580317
 31
0.0
  0
LINE
  5
1DAE
330
18
100
AcDbEntity
  8
目盛
100
AcDbLine
 10
131.3655388630084
 20
124.6640953229348
 30
0.0
 11
132.5933979264193
 21
124.898321966167
 31
0.0
  0
LINE
  5
1DAF
330
18
100
AcDbEntity
  8
目盛
100
AcDbLine
 10
131.003530875918
 20
127.5296836092323
 30
0.0
 11
132.2510642864533
 21
127.608171758644
 31
0.0
  0
LINE
  5
1DB0
330
18
100
AcDbEntity
  8
目盛
100
AcDbLine
 10
130.9694947413564
 20
128.2514180996096
 30
0.0
 11
132.2188779418136
 21
128.2906815484572
 31
0.0
  0
LINE
  5
1DB1
330
18
100
AcDbEntity
  8
目盛
100
AcDbLine
 10
131.2413137960801
 20
125.3758728624812
 30
0.0
 11
133.4636125624191
 21
125.7278504088217
 31
0.0
  0
LINE
  5
1DB2
330
18
100
AcDbEntity
  8
目盛
100
AcDbLine
 10
131.1395074995352
 20
126.0912011864275
 30
0.0
 11
132.3796508761783
 21
126.2478677283829
 31
0.0
  0
LINE
  5
1DB3
330
18
100
AcDbEntity
  8
目盛
100
AcDbLine
 10
131.0602204438974
 20
126.8093743520807
 30
0.0
 11
132.3046728996513
 21
126.9270097437288
 31
0.0
  0
LINE
  5
1DB4
330
18
100
AcDbEntity
  8
目盛
100
AcDbLine
 10
130.9581456297682
 20
128.9738655584065
 30
0.0
 11
133.2081456297682
 21
128.9738655584065
 31
0.0
  0
LINE
  5
1DB5
330
18
100
AcDbEntity
  8
目盛
100
AcDbLine
 10
130.9694947413564
 20
129.6963130172035
 30
0.0
 11
132.2188779418136
 21
129.6570495683558
 31
0.0
  0
LINE
  5
1DB6
330
18
100
AcDbEntity
  8
目盛
100
AcDbLine
 10
131.003530875918
 20
130.4180475075807
 30
0.0
 11
132.2510642864533
 21
130.3395593581691
 31
0.0
  0
LINE
  5
1DB7
330
18
100
AcDbEntity
  8
目盛
100
AcDbLine
 10
131.6807329238097
 20
134.6937329631982
 30
0.0
 11
132.8914618752205
 21
134.3828706042421
 31
0.0
  0
LINE
  5
1DB8
330
18
100
AcDbEntity
  8
目盛
100
AcDbLine
 10
131.8713908591985
 20
135.3906609973088
 30
0.0
 11
133.0717579662947
 21
135.0419221147598
 31
0.0
  0
LINE
  5
1DB9
330
18
100
AcDbEntity
  8
目盛
100
AcDbLine
 10
131.2413137960801
 20
132.5718582543318
 30
0.0
 11
133.4636125624191
 21
132.2198807079913
 31
0.0
  0
LINE
  5
1DBA
330
18
100
AcDbEntity
  8
目盛
100
AcDbLine
 10
131.1395074995352
 20
131.8565299303855
 30
0.0
 11
132.3796508761783
 21
131.6998633884301
 31
0.0
  0
LINE
  5
1DBB
330
18
100
AcDbEntity
  8
目盛
100
AcDbLine
 10
131.3655388630084
 20
133.2836357938782
 30
0.0
 11
132.5933979264192
 21
133.049409150646
 31
0.0
  0
LINE
  5
1DBC
330
18
100
AcDbEntity
  8
目盛
100
AcDbLine
 10
131.512060105177
 20
133.991160110527
 30
0.0
 11
132.7319560576005
 21
133.7184810587813
 31
0.0
  0
LINE
  5
1DBD
330
18
100
AcDbEntity
  8
目盛
100
AcDbLine
 10
132.317887943821
 20
136.7648377240482
 30
0.0
 11
133.4939889050138
 21
136.3414153237416
 31
0.0
  0
LINE
  5
1DBE
330
18
100
AcDbEntity
  8
目盛
100
AcDbLine
 10
132.5732864543385
 20
137.4407302701541
 30
0.0
 11
133.7355070616987
 21
136.9805745792983
 31
0.0
  0
LINE
  5
1DBF
330
18
100
AcDbEntity
  8
目盛
100
AcDbLine
 10
132.8497892390366
 20
138.1082670430065
 30
0.0
 11
133.9969825211416
 21
137.611832179713
 31
0.0
  0
TEXT
  5
1DC0
330
18
100
AcDbEntity
  8
文字
100
AcDbText
 10
140.9277013829884
 20
142.2004760263011
 30
0.0
 40
2.2
  1
180
 41
0.8
  7
STYLE3
100
AcDbText
  0
TEXT
  5
1DC1
330
18
100
AcDbEntity
  8
文字
100
AcDbText
 10
163.2007445711496
 20
142.2529434549783
 30
0.0
 40
2.2
  1
20
 41
0.9
  7
STYLE3
100
AcDbText
  0
LINE
  5
1DC2
330
18
100
AcDbEntity
  8
目盛
100
AcDbLine
 10
135.7845803451274
 20
143.070727792425
 30
0.0
 11
136.772274110597
 21
142.3045939753588
 31
0.0
  0
HATCH
  5
1DC3
330
18
100
AcDbEntity
  8
針
100
AcDbHatch
 10
0.0
 20
0.0
 30
0.0
210
0.0
220
0.0
230
1.0
  2
SOLID
 70
     1
 71
     0
 91
        2
 92
        7
 72
     1
 73
     1
 93
        5
 10
154.0481456297681
 20
150.9738655584066
 42
0.0
 10
153.9581456297682
 20
150.9738655584066
 42
0.0
 10
153.8681456297682
 20
150.9738655584066
 42
0.0
 10
153.6926986972732
 20
144.4715924215962
 42
-0.0085634322047721
 10
154.2235925622631
 20
144.4715924215961
 42
0.0
 97
        0
 92
        7
 72
     1
 73
     1
 93
        6
 10
154.2235925622631
 20
144.4715924215961
 42
0.0085634322047721
 10
153.6926986972732
 20
144.4715924215962
 42
0.0
 10
153.3581456297681
 20
132.0726556448752
 42
-0.1293106770632391
 10
152.9699271445157
 20
130.5966484229344
 42
-0.2805221108582334
 10
154.9463641150207
 20
130.5966484229344
 42
-0.1293106770632486
 10
154.5581456297682
 20
132.0726556448753
 42
0.0
 97
        0
 75
     0
 76
     1
 47
0.0423559757596284
 98
        2
 10
153.9175828673038
 20
145.0998464337555
 10
154.0447489846953
 20
140.6948249302763
450
        0
451
        0
460
0.0
461
0.0
452
        0
462
0.0
453
        0
470

  0
LINE
  5
1DC4
330
18
100
AcDbEntity
  8
針
100
AcDbLine
 10
153.8681456297682
 20
150.9738655584066
 30
0.0
 11
153.3581456297681
 21
132.0726556448757
 31
0.0
  0
LINE
  5
1DC5
330
18
100
AcDbEntity
  8
針
100
AcDbLine
 10
154.0481456297681
 20
150.9738655584066
 30
0.0
 11
154.5581456297682
 21
132.0726556448756
 31
0.0
  0
LINE
  5
1DC6
102
{ACAD_REACTORS
330
1DCC
102
}
330
18
100
AcDbEntity
  8
ROGO
 62
     4
100
AcDbLine
 10
149.8574349053545
 20
140.0616282909036
 30
0.0
 11
151.5436895660829
 21
140.0616282909037
 31
0.0
  0
LINE
  5
1DC7
102
{ACAD_REACTORS
330
1DCC
102
}
330
18
100
AcDbEntity
  8
ROGO
 62
     4
100
AcDbLine
 10
150.292354602921
 20
139.3237766613826
 30
0.0
 11
151.1786074418902
 21
139.3237766613826
 31
0.0
  0
LINE
  5
1DC8
102
{ACAD_REACTORS
330
1DCC
102
}
330
18
100
AcDbEntity
  8
ROGO
 62
     4
100
AcDbLine
 10
150.1818656864066
 20
139.1004723095893
 30
0.0
 11
151.0681185253758
 21
139.1004723095893
 31
0.0
  0
LINE
  5
1DC9
102
{ACAD_REACTORS
330
1DCC
102
}
330
18
100
AcDbEntity
  8
ROGO
 62
     4
100
AcDbLine
 10
150.4056458399981
 20
139.5527446615897
 30
0.0
 11
151.2918986789673
 21
139.5527446615897
 31
0.0
  0
LINE
  5
1DCA
102
{ACAD_REACTORS
330
1DCC
102
}
330
18
100
AcDbEntity
  8
ROGO
 62
     4
100
AcDbLine
 10
150.5161300791409
 20
139.7760395601505
 30
0.0
 11
151.4023829181102
 21
139.7760395601505
 31
0.0
  0
LINE
  5
1DCB
102
{ACAD_REACTORS
330
1DCC
102
}
330
18
100
AcDbEntity
  8
ROGO
 62
     4
100
AcDbLine
 10
149.2405643245562
 20
138.8148979442671
 30
0.0
 11
150.9268189852847
 21
138.8148979442671
 31
0.0
  0
HATCH
  5
1DCC
330
18
100
AcDbEntity
  8
ROGO
 62
     4
100
AcDbHatch
 10
0.0
 20
0.0
 30
0.0
210
0.0
220
0.0
230
1.0
  2
SOLID
 70
     1
 71
     1
 91
        1
 92
        1
 93
       12
 72
     1
 10
149.8574349053545
 20
140.0616282909036
 11
151.5436895660829
 21
140.0616282909037
 72
     1
 10
151.5436895660829
 20
140.0616282909036
 11
151.4023829181102
 21
139.7760395601505
 72
     1
 10
151.4023829181102
 20
139.7760395601505
 11
150.5161300791409
 21
139.7760395601505
 72
     1
 10
150.5161300791409
 20
139.7760395601505
 11
150.4056458399981
 21
139.5527446615897
 72
     1
 10
150.4056458399981
 20
139.5527446615897
 11
151.2918986789673
 21
139.5527446615897
 72
     1
 10
151.2918986789673
 20
139.5527446615897
 11
151.1786074418902
 21
139.3237766613826
 72
     1
 10
151.1786074418902
 20
139.3237766613826
 11
150.292354602921
 21
139.3237766613826
 72
     1
 10
150.292354602921
 20
139.3237766613826
 11
150.1818656864065
 21
139.1004723095893
 72
     1
 10
150.1818656864066
 20
139.1004723095893
 11
151.0681185253758
 21
139.1004723095893
 72
     1
 10
151.0681185253758
 20
139.1004723095893
 11
150.9268189852847
 21
138.8148979442671
 72
     1
 10
150.9268189852847
 20
138.8148979442671
 11
149.2405643245562
 21
138.8148979442671
 72
     1
 10
149.2405643245562
 20
138.8148979442671
 11
149.8574349053545
 21
140.0616282909036
 97
       12
330
1DC6
330
1E38
330
1DCA
330
1DE5
330
1DC9
330
1E37
330
1DC7
330
1DE4
330
1DC8
330
1E3A
330
1DCB
330
1DEA
 75
     0
 76
     1
 98
        1
 10
80.88171228930292
 20
53.85580353709556
450
        0
451
        0
460
0.0
461
0.0
452
        0
462
0.0
453
        0
470

  0
TEXT
  5
1DCE
330
18
100
AcDbEntity
  8
文字
100
AcDbText
 10
147.6799891283843
 20
135.7826406280629
 30
0.0
 40
1.0
  1
MADE  IN  JAPAN
  7
STYLE3
100
AcDbText
  0
HATCH
  5
1DCF
330
18
100
AcDbEntity
  8
ROGO
 62
     4
100
AcDbHatch
 10
0.0
 20
0.0
 30
0.0
210
0.0
220
0.0
230
1.0
  2
SOLID
 70
     1
 71
     0
 91
        1
 92
        7
 72
     0
 73
     1
 93
        4
 10
147.4520512647763
 20
138.3087949153809
 10
147.3637064469676
 20
138.1135268367284
 10
158.9270101558505
 20
138.1135268367284
 10
159.0243771264385
 20
138.308794915381
 97
        0
 75
     0
 76
     1
 47
0.0514683685270805
 98
        1
 10
154.7590360699716
 20
138.2571496467623
450
        0
451
        0
460
0.0
461
0.0
452
        0
462
0.0
453
        0
470

  0
LINE
  5
1DD0
330
18
100
AcDbEntity
  8
ROGO
 62
     4
100
AcDbLine
 10
147.4385092164427
 20
138.308794915381
 30
0.0
 11
159.0243771264385
 21
138.308794915381
 31
0.0
  0
LINE
  5
1DD1
102
{ACAD_REACTORS
330
1DDF
330
1E55
102
}
330
18
100
AcDbEntity
  8
ROGO
 62
     4
100
AcDbLine
 10
146.4581456297682
 20
138.1135268367284
 30
0.0
 11
159.6448536508395
 21
138.1135268367284
 31
0.0
  0
TEXT
  5
1DD2
330
18
100
AcDbEntity
  8
文字
100
AcDbText
 10
134.3298935550387
 20
121.9617894594097
 30
0.0
 40
2.2
  1
140
 41
0.8
  7
STYLE3
100
AcDbText
  0
LINE
  5
1DD3
330
18
100
AcDbEntity
  8
外形線
100
AcDbLine
 10
146.7161554355137
 20
120.2132163729861
 30
0.0
 11
146.2406271773662
 21
120.3677248701736
 31
0.0
  0
POINT
  5
1DD4
330
18
100
AcDbEntity
  8
DEFPOINTS
  6
ByBlock
 62
     0
100
AcDbPoint
 10
149.2903149064872
 20
123.4174125992946
 30
0.0
  0
LINE
  5
1DD5
330
18
100
AcDbEntity
  8
外形線
100
AcDbLine
 10
149.4448234036746
 20
122.941884341147
 30
0.0
 11
149.2903149064872
 21
123.4174125992946
 31
0.0
  0
LINE
  5
1DD6
330
18
100
AcDbEntity
  8
外形線
100
AcDbLine
 10
148.2600583075251
 20
122.3382163729861
 30
0.0
 11
147.966165681379
 21
122.7427248701736
 31
0.0
  0
TEXT
  5
1DD7
330
18
100
AcDbEntity
  8
文字
100
AcDbText
 10
149.1916294073792
 20
121.5985421877681
 30
0.0
 40
1.0
  1
.6
  7
STYLE3
100
AcDbText
  0
LINE
  5
1DD8
330
18
100
AcDbEntity
  8
外形線
100
AcDbLine
 10
147.3198234036746
 20
121.3979814691356
 30
0.0
 11
146.9153149064872
 21
121.6918740952819
 31
0.0
  0
TEXT
  5
1DD9
330
18
100
AcDbEntity
  8
文字
100
AcDbText
 10
147.5394131114062
 20
120.5465250661044
 30
0.0
 40
1.0
  1
.8
  7
STYLE3
100
AcDbText
  0
TEXT
  5
1DDA
330
18
100
AcDbEntity
  8
文字
100
AcDbText
 10
134.2205249816313
 20
133.7242986339423
 30
0.0
 40
2.2
  1
160
 41
0.8
  7
STYLE3
100
AcDbText
  0
TEXT
  5
1DDB
330
18
100
AcDbEntity
  8
文字
100
AcDbText
 10
136.8517870489984
 20
138.6370120676475
 30
0.0
 40
2.2
  1
170
 41
0.8
  7
STYLE3
100
AcDbText
  0
LINE
  5
1DDC
330
18
100
AcDbEntity
  8
目盛
100
AcDbLine
 10
134.5386033432219
 20
141.2978818429234
 30
0.0
 11
135.5940132500994
 21
140.6280983491997
 31
0.0
  0
LINE
  5
1DDD
330
18
100
AcDbEntity
  8
目盛
100
AcDbLine
 10
134.9352924214533
 20
141.9017832490055
 30
0.0
 11
135.9691431392965
 21
141.1991790266904
 31
0.0
  0
LINE
  5
1DDE
330
18
100
AcDbEntity
  8
目盛
100
AcDbLine
 10
135.3507547591444
 20
142.4929263611334
 30
0.0
 11
137.1710429964881
 21
141.1704095434753
 31
0.0
  0
HATCH
  5
1DDF
330
18
100
AcDbEntity
  8
ROGO
 62
     4
100
AcDbHatch
 10
0.0
 20
0.0
 30
0.0
210
0.0
220
0.0
230
1.0
  2
SOLID
 70
     1
 71
     1
 91
        2
 92
        5
 93
        6
 72
     1
 10
146.4581456297682
 20
138.1135268367285
 11
147.3637064469676
 21
138.1135268367285
 72
     1
 10
147.3637064469676
 20
138.1135268367285
 11
147.6810266312977
 21
138.8148979442671
 72
     1
 10
147.6810266312977
 20
138.8148979442671
 11
148.5275402638563
 21
138.8148979442671
 72
     4
 94
        3
 73
     0
 74
     0
 95
       18
 96
       14
 40
0.108740278791501
 40
0.108740278791501
 40
0.108740278791501
 40
0.108740278791501
 40
0.6623149649549278
 40
1.384304701649787
 40
2.097394834876493
 40
2.774073369849618
 40
3.428974823686337
 40
4.005208313035923
 40
4.455173659284313
 40
4.720999734343524
 40
5.086034088486724
 40
5.569973738255373
 40
6.060470601257719
 40
6.060470601257719
 40
6.060470601257719
 40
6.060470601257719
 10
148.5275402638563
 20
138.8148979442671
 10
148.587116494797
 20
138.8153415904199
 10
148.7243939435956
 20
138.816363854015
 10
148.9164440202771
 20
138.9189612250038
 10
149.0985623653135
 20
139.0496628004986
 10
149.2452463029835
 20
139.2129607829543
 10
149.3366348155543
 20
139.399664049046
 10
149.3507906072879
 20
139.5786019804077
 10
149.3421488442181
 20
139.7201396595393
 10
149.2803991065274
 20
139.8187949357056
 10
149.2162027189632
 20
139.9189199521915
 10
149.0984882518891
 20
140.0056519603666
 10
149.0020382908145
 20
140.0436534727608
 10
148.9529915239532
 20
140.0616282909037
 72
     1
 10
148.9529915239534
 20
140.0616282909036
 11
147.4220481117548
 21
140.0616282909036
 72
     1
 10
147.4220481117548
 20
140.0616282909036
 11
146.4581456297682
 21
138.1135268367285
 97
        6
330
1DEB
330
1DE7
330
1DE0
330
1DD1
330
1DE8
330
1DE9
 92
       20
 93
        4
 72
     1
 10
147.8769538812487
 20
139.2479548977203
 11
148.0269606648388
 21
139.5795140897932
 72
     1
 10
148.0269606648388
 20
139.5795140897932
 11
148.412414166837
 21
139.5795140897932
 72
     4
 94
        3
 73
     0
 74
     0
 95
       15
 96
       11
 40
0.0
 40
0.0
 40
0.0
 40
0.0
 40
0.1461831775054869
 40
0.2128346657926855
 40
0.2884885421222081
 40
0.3400274801801145
 40
0.4215368452530754
 40
0.4703587283434508
 40
0.5541210812769089
 40
0.5820418834082098
 40
0.5820418834082098
 40
0.5820418834082098
 40
0.5820418834082098
 10
148.412414166837
 20
139.5795140897932
 10
148.4673177334853
 20
139.5797655774351
 10
148.547254306611
 20
139.5801317296088
 10
148.5909664718155
 20
139.4812499574843
 10
148.5713725951675
 20
139.4175855216043
 10
148.5467414952945
 20
139.3522219887259
 10
148.5032127632431
 20
139.307806482313
 10
148.4447908290491
 20
139.2650268622169
 10
148.3895793093729
 20
139.2598481976461
 10
148.3536704135258
 20
139.2503335586164
 10
148.3446931852668
 20
139.2479548977203
 72
     1
 10
148.3446931852668
 20
139.2479548977203
 11
147.8769538812487
 21
139.2479548977203
 97
        4
330
1DE3
330
1DE2
330
1DE6
330
1DE1
 75
     0
 76
     1
 47
0.0514683685270805
 98
        2
 10
147.4302307667702
 20
139.4557170380171
 10
147.4302307667702
 20
139.4557170380171
450
        0
451
        0
460
0.0
461
0.0
452
        0
462
0.0
453
        0
470

  0
LINE
  5
1DE0
102
{ACAD_REACTORS
330
1DDF
102
}
330
18
100
AcDbEntity
  8
ROGO
 62
     4
100
AcDbLine
 10
147.4220481117548
 20
140.0616282909036
 30
0.0
 11
146.4581456297682
 21
138.1135268367284
 31
0.0
  0
LINE
  5
1DE1
102
{ACAD_REACTORS
330
1DDF
102
}
330
18
100
AcDbEntity
  8
ROGO
 62
     4
100
AcDbLine
 10
148.3446931852669
 20
139.2479548977203
 30
0.0
 11
147.8769538812487
 21
139.2479548977203
 31
0.0
  0
LINE
  5
1DE2
102
{ACAD_REACTORS
330
1DDF
102
}
330
18
100
AcDbEntity
  8
ROGO
 62
     4
100
AcDbLine
 10
148.4124141668371
 20
139.5795140897932
 30
0.0
 11
148.0269606648388
 21
139.5795140897932
 31
0.0
  0
LINE
  5
1DE3
102
{ACAD_REACTORS
330
1DDF
102
}
330
18
100
AcDbEntity
  8
ROGO
 62
     4
100
AcDbLine
 10
148.0269606648388
 20
139.5795140897932
 30
0.0
 11
147.8769538812487
 21
139.2479548977203
 31
0.0
  0
LINE
  5
1DE4
102
{ACAD_REACTORS
330
1DCC
102
}
330
18
100
AcDbEntity
  8
ROGO
 62
     4
100
AcDbLine
 10
150.292354602921
 20
139.3237766613826
 30
0.0
 11
150.1818656864065
 21
139.1004723095893
 31
0.0
  0
LINE
  5
1DE5
102
{ACAD_REACTORS
330
1DCC
102
}
330
18
100
AcDbEntity
  8
ROGO
 62
     4
100
AcDbLine
 10
150.5161300791409
 20
139.7760395601505
 30
0.0
 11
150.4056458399981
 21
139.5527446615897
 31
0.0
  0
SPLINE
  5
1DE6
102
{ACAD_REACTORS
330
1DDF
102
}
330
18
100
AcDbEntity
  8
ROGO
 62
     4
100
AcDbSpline
210
0.0
220
0.0
230
1.0
 70
     8
 71
     3
 72
    15
 73
    11
 74
     9
 42
0.0000000001
 43
0.0000000001
 44
0.0000000001
 40
0.0
 40
0.0
 40
0.0
 40
0.0
 40
0.1461831775054869
 40
0.2128346657926855
 40
0.2884885421222081
 40
0.3400274801801145
 40
0.4215368452530754
 40
0.4703587283434508
 40
0.5541210812769089
 40
0.5820418834082098
 40
0.5820418834082098
 40
0.5820418834082098
 40
0.5820418834082098
 10
148.412414166837
 20
139.5795140897932
 30
0.0
 10
148.4673177334853
 20
139.5797655774351
 30
0.0
 10
148.547254306611
 20
139.5801317296088
 30
0.0
 10
148.5909664718155
 20
139.4812499574843
 30
0.0
 10
148.5713725951675
 20
139.4175855216043
 30
0.0
 10
148.5467414952945
 20
139.3522219887259
 30
0.0
 10
148.5032127632431
 20
139.307806482313
 30
0.0
 10
148.4447908290491
 20
139.2650268622169
 30
0.0
 10
148.3895793093729
 20
139.2598481976461
 30
0.0
 10
148.3536704135258
 20
139.2503335586164
 30
0.0
 10
148.3446931852668
 20
139.2479548977203
 30
0.0
 11
148.412414166837
 21
139.5795140897932
 31
0.0
 11
148.554628344957
 21
139.5456814291347
 31
0.0
 11
148.5817168154669
 21
139.4847828605445
 31
0.0
 11
148.5681727749165
 21
139.4103512276909
 31
0.0
 11
148.5478565193864
 21
139.362985502769
 31
0.0
 11
148.4936795783666
 21
139.3020869341788
 31
0.0
 11
148.4530470673064
 21
139.2750208056521
 31
0.0
 11
148.3717816557768
 21
139.254721429852
 31
0.0
 11
148.3446931852668
 21
139.2479548977203
 31
0.0
  0
LINE
  5
1DE7
102
{ACAD_REACTORS
330
1DDF
102
}
330
18
100
AcDbEntity
  8
ROGO
 62
     4
100
AcDbLine
 10
147.4220481117548
 20
140.0616282909036
 30
0.0
 11
148.9529915239532
 21
140.0616282909036
 31
0.0
  0
LINE
  5
1DE8
102
{ACAD_REACTORS
330
1DDF
102
}
330
18
100
AcDbEntity
  8
ROGO
 62
     4
100
AcDbLine
 10
147.6810266312977
 20
138.8148979442671
 30
0.0
 11
147.3637064469676
 21
138.1135268367284
 31
0.0
  0
LINE
  5
1DE9
102
{ACAD_REACTORS
330
1DDF
102
}
330
18
100
AcDbEntity
  8
ROGO
 62
     4
100
AcDbLine
 10
148.5275402641498
 20
138.8148979442671
 30
0.0
 11
147.6810266312977
 21
138.8148979442671
 31
0.0
  0
LINE
  5
1DEA
102
{ACAD_REACTORS
330
1DCC
102
}
330
18
100
AcDbEntity
  8
ROGO
 62
     4
100
AcDbLine
 10
149.8574349053545
 20
140.0616282909036
 30
0.0
 11
149.2405643245562
 21
138.8148979442671
 31
0.0
  0
SPLINE
  5
1DEB
102
{ACAD_REACTORS
330
1DDF
102
}
330
18
100
AcDbEntity
  8
ROGO
 62
     4
100
AcDbSpline
210
0.0
220
0.0
230
1.0
 70
     8
 71
     3
 72
    18
 73
    14
 74
     0
 42
0.0000000001
 43
0.0000000001
 40
0.1087402787915014
 40
0.1087402787915014
 40
0.1087402787915014
 40
0.1087402787915014
 40
0.5992371417938475
 40
1.083176791562496
 40
1.448211145705696
 40
1.714037220764907
 40
2.164002567013297
 40
2.740236056362883
 40
3.395137510199602
 40
4.071816045172726
 40
4.784906178399433
 40
5.506895915094292
 40
6.060470601257719
 40
6.060470601257719
 40
6.060470601257719
 40
6.060470601257719
 10
148.9529915239532
 20
140.0616282909037
 30
0.0
 10
149.0020382908145
 20
140.0436534727608
 30
0.0
 10
149.0984882518891
 20
140.0056519603666
 30
0.0
 10
149.2162027189632
 20
139.9189199521915
 30
0.0
 10
149.2803991065274
 20
139.8187949357056
 30
0.0
 10
149.3421488442181
 20
139.7201396595393
 30
0.0
 10
149.3507906072879
 20
139.5786019804077
 30
0.0
 10
149.3366348155543
 20
139.399664049046
 30
0.0
 10
149.2452463029835
 20
139.2129607829543
 30
0.0
 10
149.0985623653135
 20
139.0496628004986
 30
0.0
 10
148.9164440202771
 20
138.9189612250038
 30
0.0
 10
148.7243939435956
 20
138.816363854015
 30
0.0
 10
148.587116494797
 20
138.8153415904199
 30
0.0
 10
148.5275402638563
 20
138.8148979442671
 30
0.0
  0
ARC
  5
1DF2
330
18
100
AcDbEntity
  8
針
100
AcDbCircle
 10
150.3581456297681
 20
132.0726556448757
 30
0.0
 40
3.0
100
AcDbArc
 50
330.5277208229603
 51
0.0
  0
ARC
  5
1DF3
330
18
100
AcDbEntity
  8
針
100
AcDbCircle
 10
157.5581456297682
 20
132.0726556448757
 30
0.0
 40
3.0
100
AcDbArc
 50
180.0
 51
209.4722791770395
  0
LINE
  5
1DF4
330
18
100
AcDbEntity
  8
外形線
100
AcDbLine
 10
154.1964678558617
 20
121.3979814691356
 30
0.0
 11
154.6009763530492
 21
121.6918740952819
 31
0.0
  0
LINE
  5
1DF5
330
18
100
AcDbEntity
  8
外形線
100
AcDbLine
 10
153.2562329520112
 20
122.3382163729861
 30
0.0
 11
153.5501255781574
 21
122.7427248701736
 31
0.0
  0
LINE
  5
1DF6
330
18
100
AcDbEntity
  8
外形線
100
AcDbLine
 10
152.0714678558617
 20
122.941884341147
 30
0.0
 11
152.2259763530492
 21
123.4174125992946
 31
0.0
  0
POINT
  5
1DF7
330
18
100
AcDbEntity
  8
DEFPOINTS
  6
ByBlock
 62
     0
100
AcDbPoint
 10
152.2259763530491
 20
123.4174125992946
 30
0.0
  0
TEXT
  5
1DF8
330
18
100
AcDbEntity
  8
文字
100
AcDbText
 10
152.6088115393671
 20
120.336344400697
 30
0.0
 40
1.0
  1
.2
  7
STYLE3
100
AcDbText
  0
LINE
  5
1DF9
330
18
100
AcDbEntity
  8
外形線
100
AcDbLine
 10
150.7581456297682
 20
123.1498941468926
 30
0.0
 11
150.7581456297682
 21
123.6498941468926
 31
0.0
  0
TEXT
  5
1DFA
330
18
100
AcDbEntity
  8
文字
100
AcDbText
 10
151.0595856440167
 20
121.5739766670376
 30
0.0
 40
1.0
  1
.4
  7
STYLE3
100
AcDbText
  0
LINE
  5
1DFB
330
18
100
AcDbEntity
  8
外形線
100
AcDbLine
 10
154.8001358240226
 20
120.2132163729861
 30
0.0
 11
155.2756640821702
 21
120.3677248701736
 31
0.0
  0
CIRCLE
  5
1DFC
330
18
100
AcDbEntity
  8
針
100
AcDbCircle
 10
153.9581456297682
 20
128.9738655584065
 30
0.0
 40
1.5
  0
CIRCLE
  5
1DFD
330
18
100
AcDbEntity
  8
針
100
AcDbCircle
 10
153.9581456297682
 20
128.9738655584065
 30
0.0
 40
1.9
  0
CIRCLE
  5
1DFE
330
18
100
AcDbEntity
  8
針
100
AcDbCircle
 10
153.9581456297682
 20
128.9738655584065
 30
0.0
 40
0.0000000000000568
  0
CIRCLE
  5
1DFF
330
18
100
AcDbEntity
  8
針
100
AcDbCircle
 10
153.9581456297682
 20
128.9738655584065
 30
0.0
 40
0.475
  0
POINT
  5
1E00
330
18
100
AcDbEntity
  8
DEFPOINTS
  6
ByBlock
 62
     0
100
AcDbPoint
 10
153.9581456297682
 20
128.9738655584065
 30
0.0
  0
POINT
  5
1E01
330
18
100
AcDbEntity
  8
DEFPOINTS
  6
ByBlock
 62
     0
100
AcDbPoint
 10
153.9581456297682
 20
128.9738655584065
 30
0.0
  0
LINE
  5
1E23
102
{ACAD_REACTORS
330
1E27
102
}
330
18
100
AcDbEntity
  8
ROGO
 62
     4
100
AcDbLine
 10
158.6257768374214
 20
139.59776376991
 30
0.0
 11
159.4059814723881
 21
139.59776376991
 31
0.0
  0
LINE
  5
1E24
102
{ACAD_REACTORS
330
1E27
102
}
330
18
100
AcDbEntity
  8
ROGO
 62
     4
100
AcDbLine
 10
158.4497019738118
 20
139.2787575530623
 30
0.0
 11
159.2469146697261
 21
139.2787575530623
 31
0.0
  0
LINE
  5
1E25
102
{ACAD_REACTORS
330
1E27
102
}
330
18
100
AcDbEntity
  8
ROGO
 62
     4
100
AcDbLine
 10
158.3887532072217
 20
140.0616282909036
 30
0.0
 11
159.6372793039848
 21
140.0616282909036
 31
0.0
  0
LINE
  5
1E26
102
{ACAD_REACTORS
330
1E27
102
}
330
18
100
AcDbEntity
  8
ROGO
 62
     4
100
AcDbLine
 10
157.941794027922
 20
138.8148979442671
 30
0.0
 11
159.0156192875101
 21
138.8148979442671
 31
0.0
  0
HATCH
  5
1E27
330
18
100
AcDbEntity
  8
ROGO
 62
     4
100
AcDbHatch
 10
0.0
 20
0.0
 30
0.0
210
0.0
220
0.0
230
1.0
  2
SOLID
 70
     1
 71
     1
 91
        1
 92
        5
 93
        8
 72
     4
 94
        3
 73
     0
 74
     0
 95
       26
 96
       22
 40
0.0
 40
0.0
 40
0.0
 40
0.0
 40
0.2261711682465229
 40
0.3775752524709292
 40
0.4867499270747143
 40
0.568267124049349
 40
0.6739992068899219
 40
0.7511733198246508
 40
0.8905317800930927
 40
1.003967563249621
 40
1.081122071918995
 40
1.156776017963945
 40
1.292106219407766
 40
1.38780082415581
 40
1.439339762213746
 40
1.512549301287572
 40
1.565415552119695
 40
1.642001295672594
 40
1.68534220200602
 40
1.779656875742671
 40
1.822721775074878
 40
1.822721775074878
 40
1.822721775074878
 40
1.822721775074878
 10
158.3887532072214
 20
140.0616282909036
 10
158.3119872181807
 20
140.0570483003575
 10
158.1838323436319
 20
140.0494023607794
 10
158.0431190709797
 20
139.9639205587918
 10
157.9400242896282
 20
139.9142251956051
 10
157.866497216597
 20
139.8466685831193
 10
157.8126015740085
 20
139.7768875373383
 10
157.7446559986872
 20
139.6937439329383
 10
157.6892483235598
 20
139.5969265701116
 10
157.6610325630669
 20
139.4902169578007
 10
157.6360393102188
 20
139.4051687776402
 10
157.6175038954963
 20
139.3103936798651
 10
157.6222198297325
 20
139.2080032341322
 10
157.6289732633898
 20
139.1129082299813
 10
157.6591257024512
 20
139.0450246346921
 10
157.6934639896251
 20
138.9966961926496
 10
157.7355107520091
 20
138.9434677716617
 10
157.7815191049291
 20
138.9082147608017
 10
157.8195717682566
 20
138.8443515626835
 10
157.8861816717301
 20
138.8362021580192
 10
157.9285215763519
 20
138.8199824104654
 10
157.941794027922
 20
138.8148979442671
 72
     1
 10
157.9417940279221
 20
138.8148979442671
 11
159.0156192875101
 21
138.8148979442671
 72
     1
 10
159.0156192875101
 20
138.8148979442671
 11
159.2469146697261
 21
139.2787575530623
 72
     1
 10
159.2469146697261
 20
139.2787575530623
 11
158.4497019738117
 21
139.2787575530623
 72
     4
 94
        3
 73
     0
 74
     0
 95
       16
 96
       12
 40
0.0
 40
0.0
 40
0.0
 40
0.0
 40
0.0683030918787657
 40
0.1373106805328135
 40
0.1784706056910715
 40
0.2179345026856072
 40
0.261275236818835
 40
0.2915411730567379
 40
0.3202609197925513
 40
0.3785004428982377
 40
0.4977391777072823
 40
0.4977391777072823
 40
0.4977391777072823
 40
0.4977391777072823
 10
158.4497019738117
 20
139.2787575530622
 10
158.4256552294814
 20
139.2858324578329
 10
158.3773137161214
 20
139.3000552398772
 10
158.3732679218198
 20
139.3690020621997
 10
158.378779731231
 20
139.4181323150037
 10
158.4018632013559
 20
139.453902008067
 10
158.429867454392
 20
139.4799291661232
 10
158.4402946798204
 20
139.5138254699861
 10
158.4709445589479
 20
139.5394214202001
 10
158.5252950071081
 20
139.582444636993
 10
158.5853971941529
 20
139.5916076208784
 10
158.6257768374214
 20
139.59776376991
 72
     1
 10
158.6257768374213
 20
139.5977637699099
 11
159.4059814723881
 21
139.59776376991
 72
     1
 10
159.4059814723881
 20
139.59776376991
 11
159.6372793039848
 21
140.0616282909035
 72
     1
 10
159.6372793039848
 20
140.0616282909035
 11
158.3887532072213
 21
140.0616282909036
 97
        8
330
1E25
330
1E48
330
1E26
330
1E57
330
1E24
330
1E41
330
1E23
330
1E50
 75
     0
 76
     1
 47
0.0514683685270805
 98
        1
 10
158.6041938940683
 20
139.8333477239361
450
        0
451
        0
460
0.0
461
0.0
452
        0
462
0.0
453
        0
470

  0
LINE
  5
1E28
102
{ACAD_REACTORS
330
1E2C
102
}
330
18
100
AcDbEntity
  8
ROGO
 62
     4
100
AcDbLine
 10
154.3716771332865
 20
140.0616282909037
 30
0.0
 11
155.6202032300496
 21
140.0616282909037
 31
0.0
  0
LINE
  5
1E29
102
{ACAD_REACTORS
330
1E2C
102
}
330
18
100
AcDbEntity
  8
ROGO
 62
     4
100
AcDbLine
 10
154.4326258998765
 20
139.2787575530623
 30
0.0
 11
155.2298385957908
 21
139.2787575530623
 31
0.0
  0
LINE
  5
1E2A
102
{ACAD_REACTORS
330
1E2C
102
}
330
18
100
AcDbEntity
  8
ROGO
 62
     4
100
AcDbLine
 10
154.6087007634861
 20
139.59776376991
 30
0.0
 11
155.3889053984527
 21
139.59776376991
 31
0.0
  0
LINE
  5
1E2B
102
{ACAD_REACTORS
330
1E2C
102
}
330
18
100
AcDbEntity
  8
ROGO
 62
     4
100
AcDbLine
 10
153.9247179539867
 20
138.8148979442671
 30
0.0
 11
154.9985432135748
 21
138.8148979442671
 31
0.0
  0
HATCH
  5
1E2C
330
18
100
AcDbEntity
  8
ROGO
 62
     4
100
AcDbHatch
 10
0.0
 20
0.0
 30
0.0
210
0.0
220
0.0
230
1.0
  2
SOLID
 70
     1
 71
     1
 91
        1
 92
        5
 93
        8
 72
     1
 10
155.3889053984528
 20
139.59776376991
 11
155.6202032300497
 21
140.0616282909037
 72
     1
 10
155.6202032300497
 20
140.0616282909037
 11
154.3716771332865
 21
140.0616282909037
 72
     4
 94
        3
 73
     0
 74
     0
 95
       26
 96
       22
 40
0.0
 40
0.0
 40
0.0
 40
0.0
 40
0.2261711682465229
 40
0.3775752524709292
 40
0.4867499270747143
 40
0.568267124049349
 40
0.6739992068898783
 40
0.7511733198246171
 40
0.8905317800930589
 40
1.003967563249478
 40
1.081122071918962
 40
1.156776017963922
 40
1.292106219407743
 40
1.387800824155796
 40
1.439339762213627
 40
1.512549301287547
 40
1.565415552119591
 40
1.642001295672489
 40
1.685342202005951
 40
1.779656875742602
 40
1.822721775074863
 40
1.822721775074863
 40
1.822721775074863
 40
1.822721775074863
 10
154.3716771332861
 20
140.0616282909036
 10
154.2949111442454
 20
140.0570483003575
 10
154.1667562696966
 20
140.0494023607794
 10
154.0260429970444
 20
139.9639205587918
 10
153.9229482156929
 20
139.9142251956051
 10
153.8494211426617
 20
139.8466685831192
 10
153.7955255000731
 20
139.7768875373383
 10
153.7275799247521
 20
139.6937439329382
 10
153.6721722496247
 20
139.5969265701116
 10
153.6439564891317
 20
139.4902169578008
 10
153.6189632362836
 20
139.4051687776402
 10
153.6004278215611
 20
139.3103936798651
 10
153.6051437557973
 20
139.2080032341322
 10
153.6118971894545
 20
139.1129082299813
 10
153.6420496285161
 20
139.0450246346923
 10
153.6763879156898
 20
138.9966961926496
 10
153.7184346780738
 20
138.9434677716617
 10
153.7644430309937
 20
138.9082147608016
 10
153.8024956943215
 20
138.8443515626835
 10
153.8691055977948
 20
138.8362021580191
 10
153.9114455024168
 20
138.8199824104654
 10
153.9247179539868
 20
138.8148979442671
 72
     1
 10
153.9247179539869
 20
138.8148979442671
 11
154.9985432135748
 21
138.8148979442671
 72
     1
 10
154.9985432135748
 20
138.8148979442671
 11
155.2298385957909
 21
139.2787575530623
 72
     1
 10
155.2298385957909
 20
139.2787575530623
 11
154.4326258998765
 21
139.2787575530623
 72
     4
 94
        3
 73
     0
 74
     0
 95
       16
 96
       12
 40
0.0
 40
0.0
 40
0.0
 40
0.0
 40
0.0683030918787651
 40
0.1373106805328241
 40
0.1784706056911381
 40
0.2179345026857031
 40
0.2612752368189221
 40
0.2915411730568249
 40
0.3202609197926786
 40
0.3785004428982989
 40
0.4977391777073984
 40
0.4977391777073984
 40
0.4977391777073984
 40
0.4977391777073984
 10
154.4326258998765
 20
139.2787575530623
 10
154.4085791555462
 20
139.2858324578329
 10
154.3602376421862
 20
139.3000552398772
 10
154.3561918478845
 20
139.3690020621997
 10
154.3617036572957
 20
139.4181323150037
 10
154.3847871274207
 20
139.4539020080671
 10
154.4127913804568
 20
139.4799291661232
 10
154.4232186058852
 20
139.5138254699862
 10
154.4538684850126
 20
139.5394214202002
 10
154.5082189331729
 20
139.582444636993
 10
154.5683211202178
 20
139.5916076208784
 10
154.6087007634862
 20
139.59776376991
 72
     1
 10
154.6087007634862
 20
139.59776376991
 11
155.3889053984528
 21
139.59776376991
 97
        8
330
1E28
330
1E34
330
1E2B
330
1E49
330
1E29
330
1E32
330
1E2A
330
1E42
 75
     0
 76
     1
 47
0.0514683685270805
 98
        1
 10
154.8083329351978
 20
139.7840914995565
450
        0
451
        0
460
0.0
461
0.0
452
        0
462
0.0
453
        0
470

  0
LINE
  5
1E2D
102
{ACAD_REACTORS
330
1E3B
102
}
330
18
100
AcDbEntity
  8
ROGO
 62
     4
100
AcDbLine
 10
152.4823104082756
 20
139.7283722021627
 30
0.0
 11
152.6714425347291
 21
139.3026287155871
 31
0.0
  0
LINE
  5
1E2E
102
{ACAD_REACTORS
330
1E3B
102
}
330
18
100
AcDbEntity
  8
ROGO
 62
     4
100
AcDbLine
 10
152.0321623908762
 20
140.0616282909036
 30
0.0
 11
153.0294398944552
 21
140.0616282909037
 31
0.0
  0
LINE
  5
1E2F
102
{ACAD_REACTORS
330
1E3B
102
}
330
18
100
AcDbEntity
  8
ROGO
 62
     4
100
AcDbLine
 10
152.1752985058777
 20
139.3026287155871
 30
0.0
 11
152.6714425347291
 21
139.3026287155871
 31
0.0
  0
LINE
  5
1E30
102
{ACAD_REACTORS
330
1E3B
102
}
330
18
100
AcDbEntity
  8
ROGO
 62
     4
100
AcDbLine
 10
151.9947583035351
 20
139.0522676884995
 30
0.0
 11
152.7826628233001
 21
139.0522676884995
 31
0.0
  0
LINE
  5
1E31
102
{ACAD_REACTORS
330
1E3B
102
}
330
18
100
AcDbEntity
  8
ROGO
 62
     4
100
AcDbLine
 10
152.4823104082755
 20
139.7283722021627
 30
0.0
 11
152.1752985058777
 21
139.3026287155871
 31
0.0
  0
SPLINE
  5
1E32
102
{ACAD_REACTORS
330
1E2C
102
}
330
18
100
AcDbEntity
  8
ROGO
 62
     4
100
AcDbSpline
210
0.0
220
0.0
230
1.0
 70
     8
 71
     3
 72
    16
 73
    12
 74
    10
 42
0.0000000001
 43
0.0000000001
 44
0.0000000001
 40
0.0
 40
0.0
 40
0.0
 40
0.0
 40
0.1192387348090995
 40
0.1774782579147198
 40
0.2061980046505734
 40
0.2364639408884763
 40
0.2798046750216953
 40
0.3192685720162602
 40
0.3604284971745742
 40
0.4294360858286333
 40
0.4977391777073984
 40
0.4977391777073984
 40
0.4977391777073984
 40
0.4977391777073984
 10
154.6087007634862
 20
139.59776376991
 30
0.0
 10
154.5683211202178
 20
139.5916076208784
 30
0.0
 10
154.5082189331729
 20
139.582444636993
 30
0.0
 10
154.4538684850126
 20
139.5394214202002
 30
0.0
 10
154.4232186058852
 20
139.5138254699862
 30
0.0
 10
154.4127913804568
 20
139.4799291661232
 30
0.0
 10
154.3847871274207
 20
139.4539020080671
 30
0.0
 10
154.3617036572957
 20
139.4181323150037
 30
0.0
 10
154.3561918478845
 20
139.3690020621997
 30
0.0
 10
154.3602376421862
 20
139.3000552398772
 30
0.0
 10
154.4085791555462
 20
139.2858324578329
 30
0.0
 10
154.4326258998765
 20
139.2787575530623
 30
0.0
 11
154.6087007634862
 21
139.59776376991
 31
0.0
 11
154.493575055876
 21
139.5667162687845
 31
0.0
 11
154.446170329836
 21
139.5328838287211
 31
0.0
 11
154.4258540743059
 21
139.5125842323259
 31
0.0
 11
154.4123096443464
 21
139.4855181037991
 31
0.0
 11
154.3852211738365
 21
139.4516856637358
 31
0.0
 11
154.3649049183063
 21
139.4178530030773
 31
0.0
 11
154.3581327033266
 21
139.3772540308821
 31
0.0
 11
154.3716771332861
 21
139.3095887095652
 31
0.0
 11
154.4326258998765
 21
139.2787575530623
 31
0.0
  0
LINE
  5
1E33
102
{ACAD_REACTORS
330
1E3B
102
}
330
18
100
AcDbEntity
  8
ROGO
 62
     4
100
AcDbLine
 10
153.5832869150404
 20
138.8148979442672
 30
0.0
 11
152.8881118692584
 21
138.8148979442671
 31
0.0
  0
SPLINE
  5
1E34
102
{ACAD_REACTORS
330
1E2C
102
}
330
18
100
AcDbEntity
  8
ROGO
 62
     4
100
AcDbSpline
210
0.0
220
0.0
230
1.0
 70
     8
 71
     3
 72
    26
 73
    22
 74
    20
 42
0.0000000001
 43
0.0000000001
 44
0.0000000001
 40
0.0
 40
0.0
 40
0.0
 40
0.0
 40
0.2261711682465229
 40
0.3775752524709292
 40
0.4867499270747143
 40
0.568267124049349
 40
0.6739992068898783
 40
0.7511733198246171
 40
0.8905317800930589
 40
1.003967563249478
 40
1.081122071918962
 40
1.156776017963922
 40
1.292106219407743
 40
1.387800824155796
 40
1.439339762213627
 40
1.512549301287547
 40
1.565415552119591
 40
1.642001295672489
 40
1.685342202005951
 40
1.779656875742602
 40
1.822721775074863
 40
1.822721775074863
 40
1.822721775074863
 40
1.822721775074863
 10
154.3716771332861
 20
140.0616282909036
 30
0.0
 10
154.2949111442454
 20
140.0570483003575
 30
0.0
 10
154.1667562696966
 20
140.0494023607794
 30
0.0
 10
154.0260429970444
 20
139.9639205587918
 30
0.0
 10
153.9229482156929
 20
139.9142251956051
 30
0.0
 10
153.8494211426617
 20
139.8466685831192
 30
0.0
 10
153.7955255000731
 20
139.7768875373383
 30
0.0
 10
153.7275799247521
 20
139.6937439329382
 30
0.0
 10
153.6721722496247
 20
139.5969265701116
 30
0.0
 10
153.6439564891317
 20
139.4902169578008
 30
0.0
 10
153.6189632362836
 20
139.4051687776402
 30
0.0
 10
153.6004278215611
 20
139.3103936798651
 30
0.0
 10
153.6051437557973
 20
139.2080032341322
 30
0.0
 10
153.6118971894545
 20
139.1129082299813
 30
0.0
 10
153.6420496285161
 20
139.0450246346923
 30
0.0
 10
153.6763879156898
 20
138.9966961926496
 30
0.0
 10
153.7184346780738
 20
138.9434677716617
 30
0.0
 10
153.7644430309937
 20
138.9082147608016
 30
0.0
 10
153.8024956943215
 20
138.8443515626835
 30
0.0
 10
153.8691055977948
 20
138.8362021580191
 30
0.0
 10
153.9114455024168
 20
138.8199824104654
 30
0.0
 10
153.9247179539868
 20
138.8148979442671
 30
0.0
 11
154.3716771332861
 21
140.0616282909036
 31
0.0
 11
154.1481975436364
 21
140.0268393507644
 31
0.0
 11
154.012755191087
 21
139.9591742500425
 31
0.0
 11
153.917945739007
 21
139.905042213584
 31
0.0
 11
153.8569969724166
 21
139.8509099565305
 31
0.0
 11
153.7892759908466
 21
139.7697117915452
 31
0.0
 11
153.7418712648065
 21
139.708813222955
 31
0.0
 11
153.6741498938273
 21
139.5870158651796
 31
0.0
 11
153.6402895977467
 21
139.4787515716676
 31
0.0
 11
153.6199733422167
 21
139.4043199388139
 31
0.0
 11
153.6064289122571
 21
139.3298883059603
 31
0.0
 11
153.6064289122571
 21
139.1945581045165
 31
0.0
 11
153.6199733422167
 21
139.0998268752679
 31
0.0
 11
153.6402895977467
 21
139.0524611503461
 31
0.0
 11
153.680922108807
 21
138.9915625817558
 31
0.0
 11
153.7147827942967
 21
138.9509633889657
 31
0.0
 11
153.7689593459071
 21
138.8968313525071
 31
0.0
 11
153.7960478164172
 21
138.8629986918486
 31
0.0
 11
153.8840854429265
 21
138.8291662517852
 31
0.0
 11
153.9247179539868
 21
138.8148979442671
 31
0.0
  0
LINE
  5
1E35
102
{ACAD_REACTORS
330
1E3B
102
}
330
18
100
AcDbEntity
  8
ROGO
 62
     4
100
AcDbLine
 10
152.7826628233001
 20
139.0522676884995
 30
0.0
 11
152.8881118692584
 21
138.8148979442671
 31
0.0
  0
LINE
  5
1E36
102
{ACAD_REACTORS
330
1E3B
102
}
330
18
100
AcDbEntity
  8
ROGO
 62
     4
100
AcDbLine
 10
153.0294398944552
 20
140.0616282909036
 30
0.0
 11
153.5832869150404
 21
138.8148979442671
 31
0.0
  0
LINE
  5
1E37
102
{ACAD_REACTORS
330
1DCC
102
}
330
18
100
AcDbEntity
  8
ROGO
 62
     4
100
AcDbLine
 10
151.2918986789673
 20
139.5527446615897
 30
0.0
 11
151.1786074418902
 21
139.3237766613826
 31
0.0
  0
LINE
  5
1E38
102
{ACAD_REACTORS
330
1DCC
102
}
330
18
100
AcDbEntity
  8
ROGO
 62
     4
100
AcDbLine
 10
151.5436895660829
 20
140.0616282909036
 30
0.0
 11
151.4023829181102
 21
139.7760395601505
 31
0.0
  0
LINE
  5
1E39
102
{ACAD_REACTORS
330
1E3B
102
}
330
18
100
AcDbEntity
  8
ROGO
 62
     4
100
AcDbLine
 10
151.1331209079949
 20
138.8148979442671
 30
0.0
 11
151.8235863677419
 21
138.8148979442671
 31
0.0
  0
LINE
  5
1E3A
102
{ACAD_REACTORS
330
1DCC
102
}
330
18
100
AcDbEntity
  8
ROGO
 62
     4
100
AcDbLine
 10
151.0681185253758
 20
139.1004723095893
 30
0.0
 11
150.9268189852847
 21
138.8148979442671
 31
0.0
  0
HATCH
  5
1E3B
330
18
100
AcDbEntity
  8
ROGO
 62
     4
100
AcDbHatch
 10
0.0
 20
0.0
 30
0.0
210
0.0
220
0.0
230
1.0
  2
SOLID
 70
     1
 71
     1
 91
        2
 92
        7
 72
     0
 73
     1
 93
        8
 10
153.0294398944552
 20
140.0616282909037
 10
152.0321623908762
 20
140.0616282909035
 10
151.1331209079949
 20
138.8148979442671
 10
151.823586367742
 20
138.8148979442671
 10
151.9947583035351
 20
139.0522676884995
 10
152.7826628233001
 20
139.0522676884995
 10
152.8881118692584
 20
138.8148979442671
 10
153.5832869150405
 20
138.8148979442672
 97
        8
330
1E2E
330
1E3D
330
1E39
330
1E3C
330
1E30
330
1E35
330
1E33
330
1E36
 92
       22
 72
     0
 73
     1
 93
        3
 10
152.6714425347291
 20
139.302628715587
 10
152.1752985058777
 20
139.3026287155871
 10
152.4823104082755
 20
139.7283722021628
 97
        3
330
1E2F
330
1E31
330
1E2D
 75
     0
 76
     1
 47
0.0128389261915577
 98
        2
 10
152.9513451859067
 20
139.7625201658152
 10
152.9513451859067
 20
139.7625201658152
450
        0
451
        0
460
0.0
461
0.0
452
        0
462
0.0
453
        0
470

  0
LINE
  5
1E3C
102
{ACAD_REACTORS
330
1E3B
102
}
330
18
100
AcDbEntity
  8
ROGO
 62
     4
100
AcDbLine
 10
151.9947583035351
 20
139.0522676884995
 30
0.0
 11
151.823586367742
 21
138.8148979442672
 31
0.0
  0
LINE
  5
1E3D
102
{ACAD_REACTORS
330
1E3B
102
}
330
18
100
AcDbEntity
  8
ROGO
 62
     4
100
AcDbLine
 10
152.0321623908762
 20
140.0616282909036
 30
0.0
 11
151.1331209079949
 21
138.8148979442671
 31
0.0
  0
ELLIPSE
  5
1E3E
102
{ACAD_REACTORS
330
1E45
102
}
330
18
100
AcDbEntity
  8
ROGO
 62
     4
100
AcDbEllipse
 10
156.4762827259161
 20
139.4234081489881
 30
0.0
 11
0.1692676504802256
 21
0.148849717495386
 31
0.0
210
0.0
220
0.0
230
1.0
 40
0.6788083417438791
 41
0.0
 42
6.283185307179586
  0
LINE
  5
1E3F
102
{ACAD_REACTORS
330
1E45
102
}
330
18
100
AcDbEntity
  8
ROGO
 62
     4
100
AcDbLine
 10
156.3125467139079
 20
140.0668284902102
 30
0.0
 11
157.0250450325187
 21
140.0668284902102
 31
0.0
  0
SPLINE
  5
1E40
102
{ACAD_REACTORS
330
1E45
102
}
330
18
100
AcDbEntity
  8
ROGO
 62
     4
100
AcDbSpline
210
0.0
220
0.0
230
1.0
 70
     8
 71
     3
 72
    25
 73
    21
 74
     0
 42
0.0000000001
 43
0.0000000001
 40
0.0
 40
0.0
 40
0.0
 40
0.0
 40
0.4087168505087288
 40
0.6887487002771746
 40
0.9415836120477687
 40
1.17452070575514
 40
1.41154617586699
 40
1.599156012919487
 40
1.80099909059943
 40
2.178735911501585
 40
2.521686161369157
 40
2.762704659361267
 40
3.06256558063785
 40
3.222432137207705
 40
3.399493810628493
 40
3.567459719866414
 40
3.743172740007509
 40
3.995988754699505
 40
4.17170091132118
 40
4.337226830236035
 40
4.337226830236035
 40
4.337226830236035
 40
4.337226830236035
 10
157.0250450325187
 20
140.0668284902102
 30
0.0
 10
157.071775693469
 20
140.0653270822704
 30
0.0
 10
157.1505238095608
 20
140.0627969865188
 30
0.0
 10
157.2350696271451
 20
139.9967145739589
 30
0.0
 10
157.2997616391307
 20
139.9419271908409
 30
0.0
 10
157.3456808322277
 20
139.8756918100923
 30
0.0
 10
157.3859302915474
 20
139.8147919057853
 30
0.0
 10
157.4124516336539
 20
139.7504956192013
 30
0.0
 10
157.448525898813
 20
139.673345963683
 30
0.0
 10
157.4634588624169
 20
139.5701311866042
 30
0.0
 10
157.4533698698949
 20
139.4634491911341
 30
0.0
 10
157.4270423100817
 20
139.3688854152191
 30
0.0
 10
157.3994268165929
 20
139.2963383077153
 30
0.0
 10
157.3668786702812
 20
139.2331815499562
 30
0.0
 10
157.3280771206873
 20
139.1922875444081
 30
0.0
 10
157.3011581650833
 20
139.1402912150088
 30
0.0
 10
157.2494502948058
 20
139.0977610091294
 30
0.0
 10
157.2075331059572
 20
139.0452847043943
 30
0.0
 10
157.1599658263149
 20
139.000243734009
 30
0.0
 10
157.1331471831984
 20
138.9724539980697
 30
0.0
 10
157.1190077477997
 20
138.9607696890583
 30
0.0
  0
SPLINE
  5
1E41
102
{ACAD_REACTORS
330
1E27
102
}
330
18
100
AcDbEntity
  8
ROGO
 62
     4
100
AcDbSpline
210
0.0
220
0.0
230
1.0
 70
     8
 71
     3
 72
    16
 73
    12
 74
    10
 42
0.0000000001
 43
0.0000000001
 44
0.0000000001
 40
0.0
 40
0.0
 40
0.0
 40
0.0
 40
0.1192387348090446
 40
0.177478257914731
 40
0.2061980046505444
 40
0.2364639408884473
 40
0.2798046750216751
 40
0.3192685720162108
 40
0.3604284971744688
 40
0.4294360858285167
 40
0.4977391777072823
 40
0.4977391777072823
 40
0.4977391777072823
 40
0.4977391777072823
 10
158.6257768374214
 20
139.59776376991
 30
0.0
 10
158.5853971941529
 20
139.5916076208784
 30
0.0
 10
158.5252950071081
 20
139.582444636993
 30
0.0
 10
158.4709445589479
 20
139.5394214202001
 30
0.0
 10
158.4402946798204
 20
139.5138254699861
 30
0.0
 10
158.429867454392
 20
139.4799291661232
 30
0.0
 10
158.4018632013559
 20
139.453902008067
 30
0.0
 10
158.378779731231
 20
139.4181323150037
 30
0.0
 10
158.3732679218198
 20
139.3690020621997
 30
0.0
 10
158.3773137161214
 20
139.3000552398772
 30
0.0
 10
158.4256552294814
 20
139.2858324578329
 30
0.0
 10
158.4497019738117
 20
139.2787575530622
 30
0.0
 11
158.6257768374214
 21
139.59776376991
 31
0.0
 11
158.5106511298112
 21
139.5667162687845
 31
0.0
 11
158.4632464037713
 21
139.532883828721
 31
0.0
 11
158.4429301482411
 21
139.5125842323259
 31
0.0
 11
158.4293857182816
 21
139.4855181037991
 31
0.0
 11
158.4022972477717
 21
139.4516856637357
 31
0.0
 11
158.3819809922416
 21
139.4178530030773
 31
0.0
 11
158.3752087772619
 21
139.3772540308821
 31
0.0
 11
158.3887532072214
 21
139.3095887095652
 31
0.0
 11
158.4497019738117
 21
139.2787575530622
 31
0.0
  0
LINE
  5
1E42
102
{ACAD_REACTORS
330
1E2C
102
}
330
18
100
AcDbEntity
  8
ROGO
 62
     4
100
AcDbLine
 10
155.6202032300496
 20
140.0616282909036
 30
0.0
 11
155.3889053984527
 21
139.59776376991
 31
0.0
  0
SPLINE
  5
1E43
102
{ACAD_REACTORS
330
1E45
102
}
330
18
100
AcDbEntity
  8
ROGO
 62
     4
100
AcDbSpline
210
0.0
220
0.0
230
1.0
 70
     8
 71
     3
 72
    11
 73
     7
 74
     0
 42
0.0000000001
 43
0.0000000001
 40
0.1647869275458134
 40
0.1647869275458134
 40
0.1647869275458134
 40
0.1647869275458134
 40
0.2895635144633836
 40
0.5387013147903714
 40
0.7953622617455423
 40
0.8850764140209602
 40
0.8850764140209602
 40
0.8850764140209602
 40
0.8850764140209602
 10
156.8975692910082
 20
138.842693684062
 30
0.0
 10
156.8842977372703
 20
138.8389995420206
 30
0.0
 10
156.8431487727109
 20
138.8324223271133
 30
0.0
 10
156.7741268718948
 20
138.8233910385949
 30
0.0
 10
156.7085250073369
 20
138.8139665595228
 30
0.0
 10
156.6701391650697
 20
138.8147063358006
 30
0.0
 10
156.6601968992832
 20
138.8148979442671
 30
0.0
  0
LINE
  5
1E44
102
{ACAD_REACTORS
330
1E45
102
}
330
18
100
AcDbEntity
  8
ROGO
 62
     4
100
AcDbLine
 10
155.9476985806725
 20
138.8148979442671
 30
0.0
 11
156.6601968992832
 21
138.8148979442671
 31
0.0
  0
HATCH
  5
1E45
330
18
100
AcDbEntity
  8
ROGO
 62
     4
100
AcDbHatch
 10
0.0
 20
0.0
 30
0.0
210
0.0
220
0.0
230
1.0
  2
SOLID
 70
     1
 71
     1
 91
        2
 92
        5
 93
        6
 72
     4
 94
        3
 73
     0
 74
     0
 95
       38
 96
       34
 40
0.0
 40
0.0
 40
0.0
 40
0.0
 40
0.1716253587406623
 40
0.2255253290976248
 40
0.2947831262912113
 40
0.352498070257192
 40
0.401194707389018
 40
0.4658749546664991
 40
0.4989240118098149
 40
0.5361459251283493
 40
0.5910040209698863
 40
0.6531463397142244
 40
0.6934574532944029
 40
0.7372488460652118
 40
0.7859279681112547
 40
0.8598010024797554
 40
0.9299880888722469
 40
0.962617715058074
 40
0.99982743872465
 40
1.043908673224191
 40
1.075288847593852
 40
1.101594470956001
 40
1.139152958423429
 40
1.180423302418936
 40
1.221693416627877
 40
1.257804824007385
 40
1.340506365805091
 40
1.373135991990864
 40
1.438395283121515
 40
1.496081593396144
 40
1.606517709645446
 40
1.74278444224538
 40
1.93957343352095
 40
1.93957343352095
 40
1.93957343352095
 40
1.93957343352095
 10
156.3125467139079
 20
140.0668284902102
 10
156.2553388375947
 20
140.0627871570079
 10
156.1801644855807
 20
140.0574766189435
 10
156.0847106359831
 20
140.0313251100147
 10
156.0326777271156
 20
140.0001702418303
 10
155.9785270851513
 20
139.977269920368
 10
155.9323586195291
 20
139.9433590855181
 10
155.885660191242
 20
139.9258851590258
 10
155.8529605222384
 20
139.8943765462579
 10
155.815113322629
 20
139.8751297256431
 10
155.7849749256216
 20
139.8320497456451
 10
155.7512887458847
 20
139.7917715254312
 10
155.7122085395155
 20
139.7623702210156
 10
155.6801348896568
 20
139.7314902493135
 10
155.6507117757099
 20
139.6838331746012
 10
155.6332978600047
 20
139.6205110342448
 10
155.5842109545914
 20
139.5805317184635
 10
155.576820003531
 20
139.5324646519365
 10
155.5496685392427
 20
139.5041058915355
 10
155.5378621329656
 20
139.4674988059482
 10
155.5333656851551
 20
139.4339602493869
 10
155.5279688756044
 20
139.4026375592755
 10
155.5138518438996
 20
139.3696874728964
 10
155.5184596917549
 20
139.3289854327231
 10
155.5171470542382
 20
139.2895722962568
 10
155.5179195429577
 20
139.2363633347309
 10
155.5151315241856
 20
139.1845578673474
 10
155.5373648813252
 20
139.1281812314743
 10
155.5505218442342
 20
139.0779292600463
 10
155.5865543274296
 20
139.0083493118634
 10
155.6487096058321
 20
138.928069096268
 10
155.7669030668838
 20
138.8306241249509
 10
155.8805495353612
 20
138.8207387862061
 10
155.9476985806725
 20
138.8148979442671
 72
     1
 10
155.9476985806724
 20
138.8148979442672
 11
156.6601968992832
 21
138.8148979442672
 72
     4
 94
        3
 73
     0
 74
     0
 95
       11
 96
        7
 40
0.1647869275458135
 40
0.1647869275458135
 40
0.1647869275458135
 40
0.1647869275458135
 40
0.2545010798212315
 40
0.5111620267764023
 40
0.7602998271033902
 40
0.8850764140209603
 40
0.8850764140209603
 40
0.8850764140209603
 40
0.8850764140209603
 10
156.6601968992832
 20
138.8148979442671
 10
156.6701391650697
 20
138.8147063358006
 10
156.7085250073369
 20
138.8139665595228
 10
156.7741268718948
 20
138.8233910385949
 10
156.8431487727109
 20
138.8324223271133
 10
156.8842977372703
 20
138.8389995420206
 10
156.8975692910082
 20
138.842693684062
 72
     4
 94
        3
 73
     0
 74
     0
 95
        9
 96
        5
 40
0.0
 40
0.0
 40
0.0
 40
0.0
 40
0.1078348623950619
 40
0.2528255661270943
 40
0.2528255661270943
 40
0.2528255661270943
 40
0.2528255661270943
 10
156.8975692910082
 20
138.842693684062
 10
156.9322089687312
 20
138.8532914690806
 10
157.0134238554224
 20
138.8781386375892
 10
157.080525956032
 20
138.9306534388937
 10
157.1190077477997
 20
138.9607696890583
 72
     4
 94
        3
 73
     0
 74
     0
 95
       25
 96
       21
 40
0.0
 40
0.0
 40
0.0
 40
0.0
 40
0.165525918914855
 40
0.3412380755365305
 40
0.5940540902285263
 40
0.7697671103696209
 40
0.9377330196075423
 40
1.11479469302833
 40
1.274661249598185
 40
1.574522170874768
 40
1.815540668866877
 40
2.15849091873445
 40
2.536227739636605
 40
2.738070817316548
 40
2.925680654369045
 40
3.162706124480894
 40
3.395643218188267
 40
3.648478129958861
 40
3.928509979727306
 40
4.337226830236035
 40
4.337226830236035
 40
4.337226830236035
 40
4.337226830236035
 10
157.1190077477997
 20
138.9607696890583
 10
157.1331471831984
 20
138.9724539980697
 10
157.1599658263149
 20
139.000243734009
 10
157.2075331059572
 20
139.0452847043943
 10
157.2494502948058
 20
139.0977610091294
 10
157.3011581650833
 20
139.1402912150088
 10
157.3280771206873
 20
139.1922875444081
 10
157.3668786702812
 20
139.2331815499562
 10
157.3994268165929
 20
139.2963383077153
 10
157.4270423100817
 20
139.3688854152191
 10
157.4533698698949
 20
139.4634491911341
 10
157.4634588624169
 20
139.5701311866042
 10
157.448525898813
 20
139.673345963683
 10
157.4124516336539
 20
139.7504956192013
 10
157.3859302915474
 20
139.8147919057853
 10
157.3456808322277
 20
139.8756918100923
 10
157.2997616391307
 20
139.9419271908409
 10
157.2350696271451
 20
139.9967145739589
 10
157.1505238095608
 20
140.0627969865188
 10
157.071775693469
 20
140.0653270822704
 10
157.0250450325187
 20
140.0668284902102
 72
     1
 10
157.0250450325187
 20
140.0668284902102
 11
156.3125467139078
 21
140.0668284902102
 97
        6
330
1E40
330
1E3F
330
1E47
330
1E44
330
1E43
330
1E46
 92
       20
 93
        1
 72
     3
 10
156.4762827259161
 20
139.4234081489881
 11
0.1692676504802256
 21
0.148849717495386
 40
0.6788083417438791
 50
0.0
 51
360.0
 73
     1
 97
        1
330
1E3E
 75
     0
 76
     1
 47
0.088756267210375
 98
        2
 10
156.5260621989145
 20
139.7210402565356
 10
156.5260621989145
 20
139.7210402565356
450
        0
451
        0
460
0.0
461
0.0
452
        0
462
0.0
453
        0
470

  0
SPLINE
  5
1E46
102
{ACAD_REACTORS
330
1E45
102
}
330
18
100
AcDbEntity
  8
ROGO
 62
     4
100
AcDbSpline
210
0.0
220
0.0
230
1.0
 70
     8
 71
     3
 72
     9
 73
     5
 74
     3
 42
0.0000000001
 43
0.0000000001
 44
0.0000000001
 40
0.0
 40
0.0
 40
0.0
 40
0.0
 40
0.1078348623950619
 40
0.2528255661270943
 40
0.2528255661270943
 40
0.2528255661270943
 40
0.2528255661270943
 10
156.8975692910082
 20
138.842693684062
 30
0.0
 10
156.9322089687312
 20
138.8532914690806
 30
0.0
 10
157.0134238554224
 20
138.8781386375892
 30
0.0
 10
157.080525956032
 20
138.9306534388937
 30
0.0
 10
157.1190077477997
 20
138.9607696890583
 30
0.0
 11
156.8975692910082
 21
138.842693684062
 31
0.0
 11
156.9989209500585
 21
138.8795202879714
 31
0.0
 11
157.1190077477997
 21
138.9607696890583
 31
0.0
  0
SPLINE
  5
1E47
102
{ACAD_REACTORS
330
1E45
102
}
330
18
100
AcDbEntity
  8
ROGO
 62
     4
100
AcDbSpline
210
0.0
220
0.0
230
1.0
 70
     8
 71
     3
 72
    38
 73
    34
 74
    32
 42
0.0000000001
 43
0.0000000001
 44
0.0000000001
 40
0.0
 40
0.0
 40
0.0
 40
0.0
 40
0.1716253587406623
 40
0.2255253290976248
 40
0.2947831262912113
 40
0.352498070257192
 40
0.401194707389018
 40
0.4658749546664991
 40
0.4989240118098149
 40
0.5361459251283493
 40
0.5910040209698863
 40
0.6531463397142244
 40
0.6934574532944029
 40
0.7372488460652118
 40
0.7859279681112547
 40
0.8598010024797554
 40
0.9299880888722469
 40
0.962617715058074
 40
0.99982743872465
 40
1.043908673224191
 40
1.075288847593852
 40
1.101594470956001
 40
1.139152958423429
 40
1.180423302418936
 40
1.221693416627877
 40
1.257804824007385
 40
1.340506365805091
 40
1.373135991990864
 40
1.438395283121515
 40
1.496081593396144
 40
1.606517709645446
 40
1.74278444224538
 40
1.93957343352095
 40
1.93957343352095
 40
1.93957343352095
 40
1.93957343352095
 10
156.3125467139079
 20
140.0668284902102
 30
0.0
 10
156.2553388375947
 20
140.0627871570079
 30
0.0
 10
156.1801644855807
 20
140.0574766189435
 30
0.0
 10
156.0847106359831
 20
140.0313251100147
 30
0.0
 10
156.0326777271156
 20
140.0001702418303
 30
0.0
 10
155.9785270851513
 20
139.977269920368
 30
0.0
 10
155.9323586195291
 20
139.9433590855181
 30
0.0
 10
155.885660191242
 20
139.9258851590258
 30
0.0
 10
155.8529605222384
 20
139.8943765462579
 30
0.0
 10
155.815113322629
 20
139.8751297256431
 30
0.0
 10
155.7849749256216
 20
139.8320497456451
 30
0.0
 10
155.7512887458847
 20
139.7917715254312
 30
0.0
 10
155.7122085395155
 20
139.7623702210156
 30
0.0
 10
155.6801348896568
 20
139.7314902493135
 30
0.0
 10
155.6507117757099
 20
139.6838331746012
 30
0.0
 10
155.6332978600047
 20
139.6205110342448
 30
0.0
 10
155.5842109545914
 20
139.5805317184635
 30
0.0
 10
155.576820003531
 20
139.5324646519365
 30
0.0
 10
155.5496685392427
 20
139.5041058915355
 30
0.0
 10
155.5378621329656
 20
139.4674988059482
 30
0.0
 10
155.5333656851551
 20
139.4339602493869
 30
0.0
 10
155.5279688756044
 20
139.4026375592755
 30
0.0
 10
155.5138518438996
 20
139.3696874728964
 30
0.0
 10
155.5184596917549
 20
139.3289854327231
 30
0.0
 10
155.5171470542382
 20
139.2895722962568
 30
0.0
 10
155.5179195429577
 20
139.2363633347309
 30
0.0
 10
155.5151315241856
 20
139.1845578673474
 30
0.0
 10
155.5373648813252
 20
139.1281812314743
 30
0.0
 10
155.5505218442342
 20
139.0779292600463
 30
0.0
 10
155.5865543274296
 20
139.0083493118634
 30
0.0
 10
155.6487096058321
 20
138.928069096268
 30
0.0
 10
155.7669030668838
 20
138.8306241249509
 30
0.0
 10
155.8805495353612
 20
138.8207387862061
 30
0.0
 10
155.9476985806725
 20
138.8148979442671
 30
0.0
 11
156.3125467139079
 21
140.0668284902102
 31
0.0
 11
156.1421664078341
 21
140.0461932033191
 31
0.0
 11
156.0905360243462
 21
140.0307170828307
 31
0.0
 11
156.0285798075414
 21
139.9997643822807
 31
0.0
 11
155.9769494240534
 21
139.9739706183467
 31
0.0
 11
155.9356452795169
 21
139.9481766246262
 31
0.0
 11
155.8788519793705
 21
139.9172241538628
 31
0.0
 11
155.8530365848092
 21
139.8965890967583
 31
0.0
 11
155.8220582735897
 21
139.8759538098672
 31
0.0
 11
155.7859170457115
 21
139.8346836956583
 31
0.0
 11
155.7446129011749
 21
139.7882548746198
 31
0.0
 11
155.7136345899552
 21
139.7624608808993
 31
0.0
 11
155.6826566843701
 21
139.7315084101358
 31
0.0
 11
155.6568412898088
 21
139.6902382959269
 31
0.0
 11
155.6258633842238
 21
139.6231741879974
 31
0.0
 11
155.5845588340526
 21
139.5664277235135
 31
0.0
 11
155.5742330007358
 21
139.5354750229635
 31
0.0
 11
155.5535809284675
 21
139.5045225521999
 31
0.0
 11
155.5380917728577
 21
139.4632522082045
 31
0.0
 11
155.5329284505647
 21
139.432299737441
 31
0.0
 11
155.5277655339062
 21
139.4065057437205
 31
0.0
 11
155.5174397005893
 21
139.3703945661275
 31
0.0
 11
155.5174397005893
 21
139.329124222132
 31
0.0
 11
155.5174397005893
 21
139.2878541079231
 31
0.0
 11
155.5174397005893
 21
139.2517427005436
 31
0.0
 11
155.5226026172478
 21
139.1692024721256
 31
0.0
 11
155.5329284505647
 21
139.1382497715756
 31
0.0
 11
155.5535809284675
 21
139.0763446002622
 31
0.0
 11
155.5793959173942
 21
139.0247568426077
 31
0.0
 11
155.6465154564919
 21
138.9370579073602
 31
0.0
 11
155.7549391401264
 21
138.8545174491558
 31
0.0
 11
155.9476985806725
 21
138.8148979442671
 31
0.0
  0
SPLINE
  5
1E48
102
{ACAD_REACTORS
330
1E27
102
}
330
18
100
AcDbEntity
  8
ROGO
 62
     4
100
AcDbSpline
210
0.0
220
0.0
230
1.0
 70
     8
 71
     3
 72
    26
 73
    22
 74
    20
 42
0.0000000001
 43
0.0000000001
 44
0.0000000001
 40
0.0
 40
0.0
 40
0.0
 40
0.0
 40
0.2261711682465229
 40
0.3775752524709292
 40
0.4867499270747143
 40
0.568267124049349
 40
0.6739992068899219
 40
0.7511733198246508
 40
0.8905317800930927
 40
1.003967563249621
 40
1.081122071918995
 40
1.156776017963945
 40
1.292106219407766
 40
1.38780082415581
 40
1.439339762213746
 40
1.512549301287572
 40
1.565415552119695
 40
1.642001295672594
 40
1.68534220200602
 40
1.779656875742671
 40
1.822721775074878
 40
1.822721775074878
 40
1.822721775074878
 40
1.822721775074878
 10
158.3887532072214
 20
140.0616282909036
 30
0.0
 10
158.3119872181807
 20
140.0570483003575
 30
0.0
 10
158.1838323436319
 20
140.0494023607794
 30
0.0
 10
158.0431190709797
 20
139.9639205587918
 30
0.0
 10
157.9400242896282
 20
139.9142251956051
 30
0.0
 10
157.866497216597
 20
139.8466685831193
 30
0.0
 10
157.8126015740085
 20
139.7768875373383
 30
0.0
 10
157.7446559986872
 20
139.6937439329383
 30
0.0
 10
157.6892483235598
 20
139.5969265701116
 30
0.0
 10
157.6610325630669
 20
139.4902169578007
 30
0.0
 10
157.6360393102188
 20
139.4051687776402
 30
0.0
 10
157.6175038954963
 20
139.3103936798651
 30
0.0
 10
157.6222198297325
 20
139.2080032341322
 30
0.0
 10
157.6289732633898
 20
139.1129082299813
 30
0.0
 10
157.6591257024512
 20
139.0450246346921
 30
0.0
 10
157.6934639896251
 20
138.9966961926496
 30
0.0
 10
157.7355107520091
 20
138.9434677716617
 30
0.0
 10
157.7815191049291
 20
138.9082147608017
 30
0.0
 10
157.8195717682566
 20
138.8443515626835
 30
0.0
 10
157.8861816717301
 20
138.8362021580192
 30
0.0
 10
157.9285215763519
 20
138.8199824104654
 30
0.0
 10
157.941794027922
 20
138.8148979442671
 30
0.0
 11
158.3887532072214
 21
140.0616282909036
 31
0.0
 11
158.1652736175717
 21
140.0268393507644
 31
0.0
 11
158.0298312650223
 21
139.9591742500425
 31
0.0
 11
157.9350218129423
 21
139.905042213584
 31
0.0
 11
157.8740730463519
 21
139.8509099565305
 31
0.0
 11
157.8063520647818
 21
139.7697117915451
 31
0.0
 11
157.7589473387417
 21
139.708813222955
 31
0.0
 11
157.6912259677625
 21
139.5870158651796
 31
0.0
 11
157.6573656716819
 21
139.4787515716675
 31
0.0
 11
157.6370494161519
 21
139.4043199388139
 31
0.0
 11
157.6235049861923
 21
139.3298883059603
 31
0.0
 11
157.6235049861923
 21
139.1945581045165
 31
0.0
 11
157.6370494161519
 21
139.0998268752679
 31
0.0
 11
157.6573656716819
 21
139.052461150346
 31
0.0
 11
157.6979981827422
 21
138.9915625817558
 31
0.0
 11
157.7318588682319
 21
138.9509633889656
 31
0.0
 11
157.7860354198424
 21
138.8968313525071
 31
0.0
 11
157.8131238903524
 21
138.8629986918486
 31
0.0
 11
157.9011615168618
 21
138.8291662517852
 31
0.0
 11
157.941794027922
 21
138.8148979442671
 31
0.0
  0
LINE
  5
1E49
102
{ACAD_REACTORS
330
1E2C
102
}
330
18
100
AcDbEntity
  8
ROGO
 62
     4
100
AcDbLine
 10
155.2298385957908
 20
139.2787575530623
 30
0.0
 11
154.9985432135748
 21
138.8148979442671
 31
0.0
  0
LINE
  5
1E4C
102
{ACAD_REACTORS
330
1E55
102
}
330
18
100
AcDbEntity
  8
ROGO
 62
     4
100
AcDbLine
 10
160.846292593547
 20
140.0616282909036
 30
0.0
 11
161.5641203826977
 21
140.0616282909036
 31
0.0
  0
LINE
  5
1E4D
102
{ACAD_REACTORS
330
1E55
102
}
330
18
100
AcDbEntity
  8
ROGO
 62
     4
100
AcDbLine
 10
160.3840739043197
 20
139.087577563816
 30
0.0
 11
161.5641203826977
 21
140.0616282909036
 31
0.0
  0
LINE
  5
1E4E
102
{ACAD_REACTORS
330
1E55
102
}
330
18
100
AcDbEntity
  8
ROGO
 62
     4
100
AcDbLine
 10
160.5101843365603
 20
139.848935254792
 30
0.0
 11
160.846292593547
 21
140.0616282909036
 31
0.0
  0
LINE
  5
1E4F
102
{ACAD_REACTORS
330
1E55
102
}
330
18
100
AcDbEntity
  8
ROGO
 62
     4
100
AcDbLine
 10
160.6162399537111
 20
140.0616282909036
 30
0.0
 11
160.5101843365603
 21
139.848935254792
 31
0.0
  0
LINE
  5
1E50
102
{ACAD_REACTORS
330
1E27
102
}
330
18
100
AcDbEntity
  8
ROGO
 62
     4
100
AcDbLine
 10
159.6372793039848
 20
140.0616282909036
 30
0.0
 11
159.4059814723881
 21
139.59776376991
 31
0.0
  0
LINE
  5
1E51
102
{ACAD_REACTORS
330
1E55
102
}
330
18
100
AcDbEntity
  8
ROGO
 62
     4
100
AcDbLine
 10
159.8983964587221
 20
140.0616282909036
 30
0.0
 11
160.6162399537111
 21
140.0616282909036
 31
0.0
  0
LINE
  5
1E52
102
{ACAD_REACTORS
330
1E55
102
}
330
18
100
AcDbEntity
  8
ROGO
 62
     4
100
AcDbLine
 10
159.8983964587221
 20
138.6220033421844
 30
0.0
 11
160.151939266605
 21
138.1135268367284
 31
0.0
  0
LINE
  5
1E53
102
{ACAD_REACTORS
330
1E55
102
}
330
18
100
AcDbEntity
  8
ROGO
 62
     4
100
AcDbLine
 10
159.8983964587221
 20
138.6220033421844
 30
0.0
 11
159.6448536508395
 21
138.1135268367284
 31
0.0
  0
LINE
  5
1E54
102
{ACAD_REACTORS
330
1E55
102
}
330
18
100
AcDbEntity
  8
ROGO
 62
     4
100
AcDbLine
 10
160.151939266605
 20
138.1135268367284
 30
0.0
 11
160.8697670557555
 21
138.1135268367284
 31
0.0
  0
HATCH
  5
1E55
330
18
100
AcDbEntity
  8
ROGO
 62
     4
100
AcDbHatch
 10
0.0
 20
0.0
 30
0.0
210
0.0
220
0.0
230
1.0
  2
SOLID
 70
     1
 71
     1
 91
        1
 92
        7
 72
     0
 73
     1
 93
       11
 10
158.9270101558504
 20
138.1135268367284
 10
159.6448536508395
 20
138.1135268367284
 10
159.8983964587221
 20
138.6220033421844
 10
160.151939266605
 20
138.1135268367284
 10
160.8697670557555
 20
138.1135268367284
 10
160.3840739043197
 20
139.0875775638161
 10
161.5641203826976
 20
140.0616282909035
 10
160.846292593547
 20
140.0616282909036
 10
160.5101843365603
 20
139.848935254792
 10
160.6162399537112
 20
140.0616282909036
 10
159.8983964587221
 20
140.0616282909036
 97
       11
330
1E4C
330
1E4E
330
1E4F
330
1E51
330
1E56
330
1DD1
330
1E53
330
1E52
330
1E54
330
1E58
330
1E4D
 75
     0
 76
     1
 47
0.0514683685270805
 98
        1
 10
159.836616303541
 20
139.2258548046421
450
        0
451
        0
460
0.0
461
0.0
452
        0
462
0.0
453
        0
470

  0
LINE
  5
1E56
102
{ACAD_REACTORS
330
1E55
102
}
330
18
100
AcDbEntity
  8
ROGO
 62
     4
100
AcDbLine
 10
159.8983964587221
 20
140.0616282909036
 30
0.0
 11
158.9270101558505
 21
138.1135268367284
 31
0.0
  0
LINE
  5
1E57
102
{ACAD_REACTORS
330
1E27
102
}
330
18
100
AcDbEntity
  8
ROGO
 62
     4
100
AcDbLine
 10
159.2469146697261
 20
139.2787575530623
 30
0.0
 11
159.01561928751
 21
138.8148979442671
 31
0.0
  0
LINE
  5
1E58
102
{ACAD_REACTORS
330
1E55
102
}
330
18
100
AcDbEntity
  8
ROGO
 62
     4
100
AcDbLine
 10
160.3840739043197
 20
139.087577563816
 30
0.0
 11
160.8697670557555
 21
138.1135268367284
 31
0.0
  0
TEXT
  5
1E59
330
18
100
AcDbEntity
  8
文字
100
AcDbText
 10
146.4111014330678
 20
145.2318153510906
 30
0.0
 40
2.2
  1
190
 41
0.8
  7
STYLE3
100
AcDbText
  0
LINE
  5
1E5A
330
18
100
AcDbEntity
  8
目盛
100
AcDbLine
 10
150.3601529338429
 20
151.6906973920947
 30
0.0
 11
150.7121304801835
 21
149.4683986257556
 31
0.0
  0
LINE
  5
1E5B
330
18
100
AcDbEntity
  8
目盛
100
AcDbLine
 10
142.2501930675097
 20
148.7709321794972
 30
0.0
 11
142.8864948371976
 21
147.6950046457423
 31
0.0
  0
LINE
  5
1E5C
330
18
100
AcDbEntity
  8
目盛
100
AcDbLine
 10
137.6946896624776
 20
145.2373215256971
 30
0.0
 11
139.2856799201474
 21
143.6463312680274
 31
0.0
  0
LINE
  5
1E5D
330
18
100
AcDbEntity
  8
目盛
100
AcDbLine
 10
138.2135621934084
 20
145.740143989099
 30
0.0
 11
139.0692460758192
 21
144.8289332048222
 31
0.0
  0
LINE
  5
1E5E
330
18
100
AcDbEntity
  8
目盛
100
AcDbLine
 10
136.2363410459251
 20
143.6346173226264
 30
0.0
 11
137.1994825993948
 21
142.8378373354405
 31
0.0
  0
LINE
  5
1E5F
330
18
100
AcDbEntity
  8
目盛
100
AcDbLine
 10
136.7055910282677
 20
144.1840384608505
 30
0.0
 11
137.6432298653057
 21
143.3573986291959
 31
0.0
  0
LINE
  5
1E60
330
18
100
AcDbEntity
  8
目盛
100
AcDbLine
 10
137.1918671990757
 20
144.7184489947663
 30
0.0
 11
138.1030779833525
 21
143.8627651123555
 31
0.0
  0
LINE
  5
1E61
330
18
100
AcDbEntity
  8
目盛
100
AcDbLine
 10
139.2973938655484
 20
146.6956701422496
 30
0.0
 11
140.0941738527342
 21
145.7325285887799
 31
0.0
  0
LINE
  5
1E62
330
18
100
AcDbEntity
  8
目盛
100
AcDbLine
 10
139.8612833957498
 20
147.1474308430474
 30
0.0
 11
140.627417212816
 21
146.1597370775778
 31
0.0
  0
LINE
  5
1E63
330
18
100
AcDbEntity
  8
目盛
100
AcDbLine
 10
138.7479727273243
 20
146.2264201599071
 30
0.0
 11
139.5746125589788
 21
145.288781322869
 31
0.0
  0
LINE
  5
1E64
330
18
100
AcDbEntity
  8
目盛
100
AcDbLine
 10
140.4390848270413
 20
147.5812564290303
 30
0.0
 11
141.7616016446994
 21
145.7609681916867
 31
0.0
  0
LINE
  5
1E65
330
18
100
AcDbEntity
  8
目盛
100
AcDbLine
 10
141.0302279391692
 20
147.9967187667214
 30
0.0
 11
141.7328321614844
 21
146.9628680488782
 31
0.0
  0
LINE
  5
1E66
330
18
100
AcDbEntity
  8
目盛
100
AcDbLine
 10
141.6341293452513
 20
148.3934078449529
 30
0.0
 11
142.303912838975
 21
147.3379979380754
 31
0.0
  0
LINE
  5
1E67
330
18
100
AcDbEntity
  8
目盛
100
AcDbLine
 10
143.5163641357586
 20
149.467015614739
 30
0.0
 11
144.5378427601726
 21
147.4622509353151
 31
0.0
  0
LINE
  5
1E68
330
18
100
AcDbEntity
  8
目盛
100
AcDbLine
 10
142.8778111254287
 20
149.1289191994154
 30
0.0
 11
143.4800032180559
 21
148.0335358493605
 31
0.0
  0
LINE
  5
1E69
330
18
100
AcDbEntity
  8
目盛
100
AcDbLine
 10
146.1671734641265
 20
150.6141232443537
 30
0.0
 11
146.5905958644331
 21
149.4380222831609
 31
0.0
  0
LINE
  5
1E6A
330
18
100
AcDbEntity
  8
目盛
100
AcDbLine
 10
145.4912809180206
 20
150.3587247338363
 30
0.0
 11
145.9514366088764
 21
149.196504126476
 31
0.0
  0
LINE
  5
1E6B
330
18
100
AcDbEntity
  8
目盛
100
AcDbLine
 10
144.1652219237715
 20
149.784887765125
 30
0.0
 11
144.6974460382279
 21
148.6538539495425
 31
0.0
  0
LINE
  5
1E6C
330
18
100
AcDbEntity
  8
目盛
100
AcDbLine
 10
144.8237441451683
 20
150.0822219491381
 30
0.0
 11
145.3201790084617
 21
148.9350286670331
 31
0.0
  0
LINE
  5
1E6D
330
18
100
AcDbEntity
  8
目盛
100
AcDbLine
 10
146.8507547591444
 20
150.8481654331951
 30
0.0
 11
147.5460429964881
 21
148.7082882715309
 31
0.0
  0
LINE
  5
1E6E
330
18
100
AcDbEntity
  8
目盛
100
AcDbLine
 10
147.5413501908659
 20
151.0606203289762
 30
0.0
 11
147.890089073415
 21
149.86025322188
 31
0.0
  0
LINE
  5
1E6F
330
18
100
AcDbEntity
  8
目盛
100
AcDbLine
 10
148.2382782249765
 20
151.251278264365
 30
0.0
 11
148.5491405839326
 21
150.0405493129542
 31
0.0
  0
LINE
  5
1E70
330
18
100
AcDbEntity
  8
目盛
100
AcDbLine
 10
148.9408510776478
 20
151.4199510829977
 30
0.0
 11
149.2135301293934
 21
150.2000551305743
 31
0.0
  0
LINE
  5
1E71
330
18
100
AcDbEntity
  8
目盛
100
AcDbLine
 10
149.6483753942966
 20
151.5664723251663
 30
0.0
 11
149.8826020375287
 21
150.3386132617555
 31
0.0
  0
TEXT
  5
1E72
330
18
100
AcDbEntity
  8
文字
100
AcDbText
 10
158.0334105894391
 20
145.1935709966423
 30
0.0
 40
2.2
  1
10
 41
0.9
  7
STYLE3
100
AcDbText
  0
LINE
  5
1E73
330
18
100
AcDbEntity
  8
目盛
100
AcDbLine
 10
158.9754401818887
 20
151.4199510829977
 30
0.0
 11
158.702761130143
 21
150.2000551305743
 31
0.0
  0
TEXT
  5
1E74
330
18
100
AcDbEntity
  8
文字
100
AcDbText
 10
152.9152708473664
 20
146.3639253307129
 30
0.0
 40
2.2
  1
0
  7
STYLE3
100
AcDbText
  0
LINE
  5
1E75
330
18
100
AcDbEntity
  8
目盛
100
AcDbLine
 10
152.513963680594
 20
151.9284803122567
 30
0.0
 11
152.5924518300056
 21
150.6809469017214
 31
0.0
  0
LINE
  5
1E76
330
18
100
AcDbEntity
  8
目盛
100
AcDbLine
 10
153.2356981709712
 20
151.9625164468183
 30
0.0
 11
153.2749616198189
 21
150.7131332463611
 31
0.0
  0
LINE
  5
1E77
330
18
100
AcDbEntity
  8
目盛
100
AcDbLine
 10
151.0754812577892
 20
151.7925036886395
 30
0.0
 11
151.2321477997446
 21
150.5523603119964
 31
0.0
  0
LINE
  5
1E78
330
18
100
AcDbEntity
  8
目盛
100
AcDbLine
 10
151.7936544234424
 20
151.8717907442774
 30
0.0
 11
151.9112898150905
 21
150.6273382885235
 31
0.0
  0
LINE
  5
1E79
330
18
100
AcDbEntity
  8
目盛
100
AcDbLine
 10
154.6805930885652
 20
151.9625164468183
 30
0.0
 11
154.6413296397175
 21
150.7131332463612
 31
0.0
  0
LINE
  5
1E7A
330
18
100
AcDbEntity
  8
針
100
AcDbLine
 10
153.9581456297681
 20
150.9738655584066
 30
0.0
 11
153.8681456297682
 21
150.9738655584066
 31
0.0
  0
LINE
  5
1E7B
330
18
100
AcDbEntity
  8
針
100
AcDbLine
 10
153.9581456297682
 20
150.9738655584066
 30
0.0
 11
154.0481456297681
 21
150.9738655584066
 31
0.0
  0
LINE
  5
1E7C
330
18
100
AcDbEntity
  8
目盛
100
AcDbLine
 10
153.9581456297682
 20
151.9738655584065
 30
0.0
 11
153.9581456297682
 21
149.7238655584065
 31
0.0
  0
LINE
  5
1E7D
330
18
100
AcDbEntity
  8
目盛
100
AcDbLine
 10
158.2679158652399
 20
151.5664723251664
 30
0.0
 11
158.0336892220077
 21
150.3386132617555
 31
0.0
  0
LINE
  5
1E7E
330
18
100
AcDbEntity
  8
目盛
100
AcDbLine
 10
157.5561383256935
 20
151.6906973920947
 30
0.0
 11
157.204160779353
 21
149.4683986257556
 31
0.0
  0
LINE
  5
1E7F
330
18
100
AcDbEntity
  8
目盛
100
AcDbLine
 10
156.8408100017472
 20
151.7925036886395
 30
0.0
 11
156.6841434597918
 21
150.5523603119964
 31
0.0
  0
LINE
  5
1E80
330
18
100
AcDbEntity
  8
目盛
100
AcDbLine
 10
156.1226368360941
 20
151.8717907442774
 30
0.0
 11
156.0050014444459
 21
150.6273382885235
 31
0.0
  0
LINE
  5
1E81
330
18
100
AcDbEntity
  8
目盛
100
AcDbLine
 10
155.4023275789424
 20
151.9284803122568
 30
0.0
 11
155.3238394295308
 21
150.6809469017214
 31
0.0
  0
LINE
  5
1E82
330
18
100
AcDbEntity
  8
目盛
100
AcDbLine
 10
164.3999271237778
 20
149.467015614739
 30
0.0
 11
163.3784484993639
 21
147.4622509353151
 31
0.0
  0
LINE
  5
1E83
330
18
100
AcDbEntity
  8
目盛
100
AcDbLine
 10
165.0384801341077
 20
149.1289191994154
 30
0.0
 11
164.4362880414805
 21
148.0335358493606
 31
0.0
  0
LINE
  5
1E84
330
18
100
AcDbEntity
  8
目盛
100
AcDbLine
 10
165.6660981920268
 20
148.7709321794972
 30
0.0
 11
165.0297964223388
 21
147.6950046457423
 31
0.0
  0
LINE
  5
1E85
330
18
100
AcDbEntity
  8
目盛
100
AcDbLine
 10
166.2821619142851
 20
148.3934078449529
 30
0.0
 11
165.6123784205614
 21
147.3379979380754
 31
0.0
  0
LINE
  5
1E86
330
18
100
AcDbEntity
  8
目盛
100
AcDbLine
 10
166.8860633203672
 20
147.9967187667214
 30
0.0
 11
166.1834590980521
 21
146.9628680488782
 31
0.0
  0
LINE
  5
1E87
330
18
100
AcDbEntity
  8
目盛
100
AcDbLine
 10
163.0925471143682
 20
150.0822219491381
 30
0.0
 11
162.5961122510747
 21
148.9350286670331
 31
0.0
  0
LINE
  5
1E88
330
18
100
AcDbEntity
  8
目盛
100
AcDbLine
 10
161.065536500392
 20
150.8481654331951
 30
0.0
 11
160.3702482630484
 21
148.7082882715309
 31
0.0
  0
LINE
  5
1E89
330
18
100
AcDbEntity
  8
目盛
100
AcDbLine
 10
161.7491177954099
 20
150.6141232443537
 30
0.0
 11
161.3256953951033
 21
149.4380222831609
 31
0.0
  0
LINE
  5
1E8A
330
18
100
AcDbEntity
  8
目盛
100
AcDbLine
 10
162.4250103415158
 20
150.3587247338363
 30
0.0
 11
161.96485465066
 21
149.196504126476
 31
0.0
  0
LINE
  5
1E8B
330
18
100
AcDbEntity
  8
目盛
100
AcDbLine
 10
160.3749410686705
 20
151.0606203289762
 30
0.0
 11
160.0262021861215
 21
149.86025322188
 31
0.0
  0
LINE
  5
1E8C
330
18
100
AcDbEntity
  8
目盛
100
AcDbLine
 10
159.6780130345599
 20
151.251278264365
 30
0.0
 11
159.3671506756038
 21
150.0405493129543
 31
0.0
  0
LINE
  5
1E8D
330
18
100
AcDbEntity
  8
目盛
100
AcDbLine
 10
163.7510693357649
 20
149.7848877651249
 30
0.0
 11
163.2188452213085
 21
148.6538539495425
 31
0.0
  0
LINE
  5
1E8E
330
18
100
AcDbEntity
  8
目盛
100
AcDbLine
 10
174.4512956861007
 20
118.5320840643969
 30
0.0
 11
172.4465310066769
 21
119.5535626888108
 31
0.0
  0
LINE
  5
1E8F
330
18
100
AcDbEntity
  8
目盛
100
AcDbLine
 10
174.7691678364867
 20
119.1809418524098
 30
0.0
 11
173.6381340209041
 21
119.7131659668662
 31
0.0
  0
LINE
  5
1E90
330
18
100
AcDbEntity
  8
目盛
100
AcDbLine
 10
170.2216015970588
 20
112.7104095911159
 30
0.0
 11
168.630611339389
 21
114.3013998487856
 31
0.0
  0
LINE
  5
1E91
330
18
100
AcDbEntity
  8
目盛
100
AcDbLine
 10
170.7244240604607
 20
113.2292821220467
 30
0.0
 11
169.8132132761839
 21
114.0849660044575
 31
0.0
  0
LINE
  5
1E92
330
18
100
AcDbEntity
  8
目盛
100
AcDbLine
 10
168.6188973939881
 20
111.2520609745634
 30
0.0
 11
167.8221174068022
 21
112.2152025280331
 31
0.0
  0
LINE
  5
1E93
330
18
100
AcDbEntity
  8
目盛
100
AcDbLine
 10
168.0550078637867
 20
110.8003002737656
 30
0.0
 11
167.2888740467204
 21
111.7879940392352
 31
0.0
  0
LINE
  5
1E94
330
18
100
AcDbEntity
  8
目盛
100
AcDbLine
 10
169.7027290661281
 20
112.207587127714
 30
0.0
 11
168.8470451837172
 21
113.1187979119908
 31
0.0
  0
LINE
  5
1E95
330
18
100
AcDbEntity
  8
目盛
100
AcDbLine
 10
169.1683185322122
 20
111.7213109569059
 30
0.0
 11
168.3416787005576
 21
112.658949793944
 31
0.0
  0
LINE
  5
1E96
330
18
100
AcDbEntity
  8
目盛
100
AcDbLine
 10
172.565536500392
 20
115.4548047556796
 30
0.0
 11
170.7452482630483
 21
116.7773215733377
 31
0.0
  0
LINE
  5
1E97
330
18
100
AcDbEntity
  8
目盛
100
AcDbLine
 10
172.1317109144091
 20
114.877003324388
 30
0.0
 11
171.1440171489395
 21
115.6431371414542
 31
0.0
  0
LINE
  5
1E98
330
18
100
AcDbEntity
  8
目盛
100
AcDbLine
 10
171.6799502136114
 20
114.3131137941866
 30
0.0
 11
170.7168086601416
 21
115.1098937813725
 31
0.0
  0
LINE
  5
1E99
330
18
100
AcDbEntity
  8
目盛
100
AcDbLine
 10
171.2107002312688
 20
113.7636926559625
 30
0.0
 11
170.2730613942307
 21
114.5903324876171
 31
0.0
  0
LINE
  5
1E9A
330
18
100
AcDbEntity
  8
目盛
100
AcDbLine
 10
173.3776879163146
 20
116.6498492738896
 30
0.0
 11
172.322278009437
 21
117.3196327676133
 31
0.0
  0
LINE
  5
1E9B
330
18
100
AcDbEntity
  8
目盛
100
AcDbLine
 10
172.9809988380831
 20
116.0459478678075
 30
0.0
 11
171.9471481202399
 21
116.7485520901226
 31
0.0
  0
LINE
  5
1E9C
330
18
100
AcDbEntity
  8
目盛
100
AcDbLine
 10
174.1131992707771
 20
117.8935310540671
 30
0.0
 11
173.0178159207223
 21
118.4957231466942
 31
0.0
  0
LINE
  5
1E9D
330
18
100
AcDbEntity
  8
目盛
100
AcDbLine
 10
173.7552122508589
 20
117.2659129961479
 30
0.0
 11
172.679284717104
 21
117.9022147658359
 31
0.0
  0
LINE
  5
1E9E
330
18
100
AcDbEntity
  8
目盛
100
AcDbLine
 10
172.1317109144091
 20
143.070727792425
 30
0.0
 11
171.1440171489395
 21
142.3045939753587
 31
0.0
  0
LINE
  5
1E9F
330
18
100
AcDbEntity
  8
目盛
100
AcDbLine
 10
176.856070815639
 20
131.1383567647323
 30
0.0
 11
175.6116183598852
 21
131.0207213730842
 31
0.0
  0
LINE
  5
1EA0
330
18
100
AcDbEntity
  8
目盛
100
AcDbLine
 10
176.2355583357267
 20
123.2539981536149
 30
0.0
 11
175.024829384316
 21
123.5648605125709
 31
0.0
  0
LINE
  5
1EA1
330
18
100
AcDbEntity
  8
目盛
100
AcDbLine
 10
176.0449004003379
 20
122.5570701195042
 30
0.0
 11
174.8445332932417
 21
122.9058090020533
 31
0.0
  0
LINE
  5
1EA2
330
18
100
AcDbEntity
  8
目盛
100
AcDbLine
 10
176.9581456297682
 20
128.9738655584065
 30
0.0
 11
174.7081456297682
 21
128.9738655584065
 31
0.0
  0
LINE
  5
1EA3
330
18
100
AcDbEntity
  8
目盛
100
AcDbLine
 10
176.6749774634564
 20
125.3758728624812
 30
0.0
 11
174.4526786971173
 21
125.7278504088217
 31
0.0
  0
LINE
  5
1EA4
330
18
100
AcDbEntity
  8
目盛
100
AcDbLine
 10
176.4042311543594
 20
123.956571006286
 30
0.0
 11
175.184335201936
 21
124.2292500580317
 31
0.0
  0
LINE
  5
1EA5
330
18
100
AcDbEntity
  8
目盛
100
AcDbLine
 10
175.8324455045567
 20
121.8664746877827
 30
0.0
 11
173.6925683428926
 21
122.5617629251263
 31
0.0
  0
LINE
  5
1EA6
330
18
100
AcDbEntity
  8
目盛
100
AcDbLine
 10
175.5984033157154
 20
121.1828933927648
 30
0.0
 11
174.4223023545226
 21
121.6063157930714
 31
0.0
  0
LINE
  5
1EA7
330
18
100
AcDbEntity
  8
目盛
100
AcDbLine
 10
175.343004805198
 20
120.5070008466589
 30
0.0
 11
174.1807841978377
 21
120.9671565375147
 31
0.0
  0
TEXT
  5
1EA8
330
18
100
AcDbEntity
  8
文字
100
AcDbText
 10
169.1062920706221
 20
121.9242584413432
 30
0.0
 40
2.2
  1
60
 41
0.9
  7
STYLE3
100
AcDbText
  0
LINE
  5
1EA9
330
18
100
AcDbEntity
  8
目盛
100
AcDbLine
 10
175.0665020204998
 20
119.8394640738065
 30
0.0
 11
173.9193087383948
 21
120.3358989371
 31
0.0
  0
TEXT
  5
1EAA
330
18
100
AcDbEntity
  8
文字
100
AcDbText
 10
170.0610048467527
 20
127.8251873222405
 30
0.0
 40
2.2
  1
50
 41
0.9
  7
STYLE3
100
AcDbText
  0
LINE
  5
1EAB
330
18
100
AcDbEntity
  8
目盛
100
AcDbLine
 10
176.5507523965281
 20
124.6640953229348
 30
0.0
 11
175.3228933331172
 21
124.898321966167
 31
0.0
  0
LINE
  5
1EAC
330
18
100
AcDbEntity
  8
目盛
100
AcDbLine
 10
176.9127603836184
 20
130.4180475075807
 30
0.0
 11
175.6652269730831
 21
130.3395593581691
 31
0.0
  0
LINE
  5
1EAD
330
18
100
AcDbEntity
  8
目盛
100
AcDbLine
 10
176.94679651818
 20
129.6963130172034
 30
0.0
 11
175.6974133177228
 21
129.6570495683558
 31
0.0
  0
LINE
  5
1EAE
330
18
100
AcDbEntity
  8
目盛
100
AcDbLine
 10
176.94679651818
 20
128.2514180996096
 30
0.0
 11
175.6974133177229
 21
128.2906815484572
 31
0.0
  0
LINE
  5
1EAF
330
18
100
AcDbEntity
  8
目盛
100
AcDbLine
 10
176.9127603836185
 20
127.5296836092323
 30
0.0
 11
175.6652269730831
 21
127.608171758644
 31
0.0
  0
LINE
  5
1EB0
330
18
100
AcDbEntity
  8
目盛
100
AcDbLine
 10
176.8560708156391
 20
126.8093743520807
 30
0.0
 11
175.6116183598852
 21
126.9270097437288
 31
0.0
  0
LINE
  5
1EB1
330
18
100
AcDbEntity
  8
目盛
100
AcDbLine
 10
176.7767837600012
 20
126.0912011864275
 30
0.0
 11
175.5366403833581
 21
126.2478677283829
 31
0.0
  0
LINE
  5
1EB2
330
18
100
AcDbEntity
  8
目盛
100
AcDbLine
 10
175.343004805198
 20
137.4407302701541
 30
0.0
 11
174.1807841978377
 21
136.9805745792982
 31
0.0
  0
LINE
  5
1EB3
330
18
100
AcDbEntity
  8
目盛
100
AcDbLine
 10
175.5984033157154
 20
136.7648377240482
 30
0.0
 11
174.4223023545226
 21
136.3414153237416
 31
0.0
  0
LINE
  5
1EB4
330
18
100
AcDbEntity
  8
目盛
100
AcDbLine
 10
175.8324455045567
 20
136.0812564290303
 30
0.0
 11
173.6925683428926
 21
135.3859681916867
 31
0.0
  0
LINE
  5
1EB5
330
18
100
AcDbEntity
  8
目盛
100
AcDbLine
 10
176.6749774634563
 20
132.5718582543318
 30
0.0
 11
174.4526786971173
 21
132.2198807079913
 31
0.0
  0
LINE
  5
1EB6
330
18
100
AcDbEntity
  8
目盛
100
AcDbLine
 10
176.0449004003379
 20
135.3906609973088
 30
0.0
 11
174.8445332932417
 21
135.0419221147597
 31
0.0
  0
LINE
  5
1EB7
330
18
100
AcDbEntity
  8
目盛
100
AcDbLine
 10
176.2355583357267
 20
134.6937329631982
 30
0.0
 11
175.0248293843159
 21
134.3828706042421
 31
0.0
  0
LINE
  5
1EB8
330
18
100
AcDbEntity
  8
目盛
100
AcDbLine
 10
176.4042311543594
 20
133.991160110527
 30
0.0
 11
175.1843352019359
 21
133.7184810587813
 31
0.0
  0
TEXT
  5
1EB9
330
18
100
AcDbEntity
  8
文字
100
AcDbText
 10
169.1062783989095
 20
133.431061326048
 30
0.0
 40
2.2
  1
40
 41
0.9
  7
STYLE3
100
AcDbText
  0
LINE
  5
1EBA
330
18
100
AcDbEntity
  8
目盛
100
AcDbLine
 10
172.565536500392
 20
142.4929263611334
 30
0.0
 11
170.7452482630483
 21
141.1704095434753
 31
0.0
  0
TEXT
  5
1EBB
330
18
100
AcDbEntity
  8
文字
100
AcDbText
 10
166.9310756094023
 20
137.9059434727678
 30
0.0
 40
2.2
  1
30
 41
0.9
  7
STYLE3
100
AcDbText
  0
LINE
  5
1EBC
330
18
100
AcDbEntity
  8
目盛
100
AcDbLine
 10
174.4512956861006
 20
139.4156470524161
 30
0.0
 11
172.4465310066769
 21
138.3941684280021
 31
0.0
  0
LINE
  5
1EBD
330
18
100
AcDbEntity
  8
目盛
100
AcDbLine
 10
172.9809988380831
 20
141.9017832490055
 30
0.0
 11
171.9471481202399
 21
141.1991790266903
 31
0.0
  0
LINE
  5
1EBE
330
18
100
AcDbEntity
  8
目盛
100
AcDbLine
 10
173.3776879163146
 20
141.2978818429234
 30
0.0
 11
172.322278009437
 21
140.6280983491997
 31
0.0
  0
LINE
  5
1EBF
330
18
100
AcDbEntity
  8
目盛
100
AcDbLine
 10
173.7552122508589
 20
140.681818120665
 30
0.0
 11
172.679284717104
 21
140.0455163509771
 31
0.0
  0
LINE
  5
1EC0
330
18
100
AcDbEntity
  8
目盛
100
AcDbLine
 10
174.1131992707771
 20
140.0542000627459
 30
0.0
 11
173.0178159207222
 21
139.4520079701188
 31
0.0
  0
LINE
  5
1EC1
330
18
100
AcDbEntity
  8
目盛
100
AcDbLine
 10
174.7691678364866
 20
138.7667892644032
 30
0.0
 11
173.6381340209041
 21
138.2345651499469
 31
0.0
  0
LINE
  5
1EC2
330
18
100
AcDbEntity
  8
目盛
100
AcDbLine
 10
175.0665020204998
 20
138.1082670430064
 30
0.0
 11
173.9193087383948
 21
137.611832179713
 31
0.0
  0
LINE
  5
1EC3
330
18
100
AcDbEntity
  8
目盛
100
AcDbLine
 10
176.550752396528
 20
133.2836357938782
 30
0.0
 11
175.3228933331172
 21
133.049409150646
 31
0.0
  0
LINE
  5
1EC4
330
18
100
AcDbEntity
  8
目盛
100
AcDbLine
 10
176.7767837600012
 20
131.8565299303855
 30
0.0
 11
175.5366403833581
 21
131.6998633884301
 31
0.0
  0
LINE
  5
1EC5
330
18
100
AcDbEntity
  8
目盛
100
AcDbLine
 10
171.6799502136113
 20
143.6346173226264
 30
0.0
 11
170.7168086601416
 21
142.8378373354405
 31
0.0
  0
LINE
  5
1EC6
330
18
100
AcDbEntity
  8
目盛
100
AcDbLine
 10
171.2107002312688
 20
144.1840384608505
 30
0.0
 11
170.2730613942307
 21
143.357398629196
 31
0.0
  0
LINE
  5
1EC7
330
18
100
AcDbEntity
  8
目盛
100
AcDbLine
 10
170.2216015970588
 20
145.2373215256971
 30
0.0
 11
168.6306113393891
 21
143.6463312680274
 31
0.0
  0
LINE
  5
1EC8
330
18
100
AcDbEntity
  8
目盛
100
AcDbLine
 10
168.0550078637866
 20
147.1474308430474
 30
0.0
 11
167.2888740467205
 21
146.1597370775778
 31
0.0
  0
LINE
  5
1EC9
330
18
100
AcDbEntity
  8
目盛
100
AcDbLine
 10
168.6188973939881
 20
146.6956701422497
 30
0.0
 11
167.8221174068022
 21
145.7325285887799
 31
0.0
  0
LINE
  5
1ECA
330
18
100
AcDbEntity
  8
目盛
100
AcDbLine
 10
169.1683185322122
 20
146.2264201599071
 30
0.0
 11
168.3416787005576
 21
145.288781322869
 31
0.0
  0
LINE
  5
1ECB
330
18
100
AcDbEntity
  8
目盛
100
AcDbLine
 10
169.702729066128
 20
145.740143989099
 30
0.0
 11
168.8470451837171
 21
144.8289332048222
 31
0.0
  0
LINE
  5
1ECC
330
18
100
AcDbEntity
  8
目盛
100
AcDbLine
 10
170.7244240604607
 20
144.7184489947664
 30
0.0
 11
169.8132132761839
 21
143.8627651123555
 31
0.0
  0
INSERT
  5
1EE6
330
18
100
AcDbEntity
  8
外形線
100
AcDbBlockReference
  2
A$C7FF8083B
 10
152.1701448995639
 20
133.4063332286634
 30
0.0
  0
LINE
  5
1F16
330
18
100
AcDbEntity
  8
外形線
100
AcDbLine
 10
52.29952153780209
 20
62.97386555840652
 30
0.0
 11
52.29952153780212
 21
65.77386555840654
 31
0.0
  0
LINE
  5
1F17
330
18
100
AcDbEntity
  8
外形線
100
AcDbLine
 10
47.29952153780209
 20
62.97386555840652
 30
0.0
 11
47.29952153780209
 21
65.77386555840654
 31
0.0
  0
ARC
  5
1F18
330
18
100
AcDbEntity
  8
外形線
100
AcDbCircle
 10
49.79952153780209
 20
50.73136555840655
 30
0.0
 40
3.4575
100
AcDbArc
 50
214.4829187978802
 51
325.5170812021199
  0
LINE
  5
1F19
330
18
100
AcDbEntity
  8
外形線
100
AcDbLine
 10
46.79952153780212
 20
48.77386555840654
 30
0.0
 11
52.79952153780209
 21
48.77386555840655
 31
0.0
  0
LINE
  5
1F1C
330
18
100
AcDbEntity
  8
外形線
100
AcDbLine
 10
46.79952153780212
 20
49.27386555840654
 30
0.0
 11
46.79952153780212
 21
48.77386555840654
 31
0.0
  0
LINE
  5
1F1D
330
18
100
AcDbEntity
  8
外形線
100
AcDbLine
 10
52.79952153780212
 20
49.27386555840655
 30
0.0
 11
52.79952153780209
 21
48.77386555840655
 31
0.0
  0
LINE
  5
1F1E
330
18
100
AcDbEntity
  8
外形線
100
AcDbLine
 10
47.49952153780208
 20
62.77386555840653
 30
0.0
 11
52.09952153780211
 21
62.77386555840653
 31
0.0
  0
LINE
  5
1F1F
330
18
100
AcDbEntity
  8
外形線
100
AcDbLine
 10
46.79952153780209
 20
59.77386555840652
 30
0.0
 11
52.79952153780209
 21
59.77386555840652
 31
0.0
  0
LINE
  5
1F22
330
18
100
AcDbEntity
  8
外形線
100
AcDbLine
 10
47.29952153780209
 20
62.97386555840652
 30
0.0
 11
47.49952153780208
 21
62.77386555840653
 31
0.0
  0
LINE
  5
1F23
330
18
100
AcDbEntity
  8
外形線
100
AcDbLine
 10
47.29952153780209
 20
62.57386555840652
 30
0.0
 11
47.49952153780208
 21
62.77386555840653
 31
0.0
  0
LINE
  5
1F24
330
18
100
AcDbEntity
  8
外形線
100
AcDbLine
 10
47.29952153780209
 20
62.57386555840652
 30
0.0
 11
47.29952153780209
 21
59.77386555840652
 31
0.0
  0
LINE
  5
1F25
330
18
100
AcDbEntity
  8
外形線
100
AcDbLine
 10
46.79952153780209
 20
59.77386555840652
 30
0.0
 11
46.79952153780209
 21
59.27386555840652
 31
0.0
  0
LINE
  5
1F26
330
18
100
AcDbEntity
  8
外形線
100
AcDbLine
 10
52.09952153780211
 20
62.77386555840653
 30
0.0
 11
52.29952153780209
 21
62.97386555840652
 31
0.0
  0
LINE
  5
1F27
330
18
100
AcDbEntity
  8
外形線
100
AcDbLine
 10
52.09952153780211
 20
62.77386555840653
 30
0.0
 11
52.29952153780209
 21
62.57386555840652
 31
0.0
  0
LINE
  5
1F28
330
18
100
AcDbEntity
  8
外形線
100
AcDbLine
 10
52.29952153780209
 20
62.57386555840652
 30
0.0
 11
52.29952153780209
 21
59.77386555840652
 31
0.0
  0
LINE
  5
1F29
330
18
100
AcDbEntity
  8
外形線
100
AcDbLine
 10
52.79952153780209
 20
59.77386555840652
 30
0.0
 11
52.79952153780209
 21
59.27386555840652
 31
0.0
  0
LINE
  5
1F2C
330
18
100
AcDbEntity
  8
外形線
100
AcDbLine
 10
47.5995215378021
 20
67.97386555840652
 30
0.0
 11
51.99952153780211
 21
67.97386555840652
 31
0.0
  0
LINE
  5
1F2D
330
18
100
AcDbEntity
  8
外形線
100
AcDbLine
 10
47.29952153780209
 20
65.77386555840653
 30
0.0
 11
52.29952153780209
 21
65.77386555840653
 31
0.0
  0
LINE
  5
1F30
330
18
100
AcDbEntity
  8
外形線
100
AcDbLine
 10
47.29952153780209
 20
67.67386555840653
 30
0.0
 11
47.5995215378021
 21
67.97386555840652
 31
0.0
  0
LINE
  5
1F31
330
18
100
AcDbEntity
  8
外形線
100
AcDbLine
 10
47.29952153780209
 20
65.77386555840653
 30
0.0
 11
47.29952153780209
 21
67.67386555840653
 31
0.0
  0
LINE
  5
1F35
330
18
100
AcDbEntity
  8
外形線
100
AcDbLine
 10
51.99952153780211
 20
67.97386555840652
 30
0.0
 11
52.29952153780212
 21
67.67386555840653
 31
0.0
  0
LINE
  5
1F36
330
18
100
AcDbEntity
  8
外形線
100
AcDbLine
 10
52.29952153780212
 20
65.77386555840653
 30
0.0
 11
52.29952153780212
 21
67.67386555840653
 31
0.0
  0
LINE
  5
1F39
330
18
100
AcDbEntity
  8
外形線
 48
0.5
100
AcDbLine
 10
47.79952153780209
 20
83.97386555840652
 30
0.0
 11
47.79952153780209
 21
67.97386555840652
 31
0.0
  0
LINE
  5
1F3A
330
18
100
AcDbEntity
  8
外形線
 48
0.5
100
AcDbLine
 10
51.79952153780212
 20
83.97386555840652
 30
0.0
 11
51.79952153780212
 21
67.97386555840652
 31
0.0
  0
LINE
  5
1F3B
330
18
100
AcDbEntity
  8
外形線
100
AcDbLine
 10
156.2581456297682
 20
62.77386555840653
 30
0.0
 11
156.4581456297682
 21
62.97386555840652
 31
0.0
  0
LINE
  5
1F3C
330
18
100
AcDbEntity
  8
外形線
100
AcDbLine
 10
151.4581456297682
 20
62.97386555840652
 30
0.0
 11
151.6581456297681
 21
62.77386555840653
 31
0.0
  0
LINE
  5
1F3D
330
18
100
AcDbEntity
  8
外形線
100
AcDbLine
 10
150.9581456297682
 20
59.77386555840652
 30
0.0
 11
156.9581456297681
 21
59.77386555840652
 31
0.0
  0
LINE
  5
1F3E
330
18
100
AcDbEntity
  8
外形線
100
AcDbLine
 10
151.6581456297681
 20
62.77386555840653
 30
0.0
 11
156.2581456297682
 21
62.77386555840653
 31
0.0
  0
LINE
  5
1F3F
330
18
100
AcDbEntity
  8
外形線
100
AcDbLine
 10
150.9581456297682
 20
59.77386555840652
 30
0.0
 11
150.9581456297682
 21
59.27386555840653
 31
0.0
  0
LINE
  5
1F40
330
18
100
AcDbEntity
  8
外形線
100
AcDbLine
 10
151.4581456297682
 20
62.57386555840652
 30
0.0
 11
151.4581456297682
 21
59.77386555840652
 31
0.0
  0
LINE
  5
1F41
330
18
100
AcDbEntity
  8
外形線
100
AcDbLine
 10
151.4581456297682
 20
62.57386555840652
 30
0.0
 11
151.6581456297681
 21
62.77386555840653
 31
0.0
  0
LINE
  5
1F42
330
18
100
AcDbEntity
  8
外形線
100
AcDbLine
 10
156.9581456297681
 20
59.77386555840652
 30
0.0
 11
156.9581456297681
 21
59.27386555840653
 31
0.0
  0
LINE
  5
1F43
330
18
100
AcDbEntity
  8
外形線
100
AcDbLine
 10
156.4581456297682
 20
62.57386555840652
 30
0.0
 11
156.4581456297682
 21
59.77386555840652
 31
0.0
  0
LINE
  5
1F44
330
18
100
AcDbEntity
  8
外形線
100
AcDbLine
 10
156.2581456297682
 20
62.77386555840653
 30
0.0
 11
156.4581456297682
 21
62.57386555840652
 31
0.0
  0
LINE
  5
1F45
330
18
100
AcDbEntity
  8
外形線
100
AcDbLine
 10
151.4581456297682
 20
65.77386555840653
 30
0.0
 11
156.4581456297682
 21
65.77386555840653
 31
0.0
  0
LINE
  5
1F46
330
18
100
AcDbEntity
  8
外形線
100
AcDbLine
 10
151.7581456297682
 20
67.97386555840652
 30
0.0
 11
156.1581456297682
 21
67.97386555840652
 31
0.0
  0
LINE
  5
1F47
330
18
100
AcDbEntity
  8
外形線
 48
0.5
100
AcDbLine
 10
151.9581456297682
 20
83.97386555840654
 30
0.0
 11
151.9581456297682
 21
67.97386555840652
 31
0.0
  0
LINE
  5
1F48
330
18
100
AcDbEntity
  8
外形線
100
AcDbLine
 10
151.4581456297682
 20
65.77386555840653
 30
0.0
 11
151.4581456297682
 21
67.67386555840653
 31
0.0
  0
LINE
  5
1F49
330
18
100
AcDbEntity
  8
外形線
100
AcDbLine
 10
151.4581456297682
 20
67.67386555840653
 30
0.0
 11
151.7581456297682
 21
67.97386555840652
 31
0.0
  0
LINE
  5
1F4A
330
18
100
AcDbEntity
  8
外形線
100
AcDbLine
 10
151.4581456297682
 20
62.97386555840652
 30
0.0
 11
151.4581456297682
 21
65.77386555840654
 31
0.0
  0
LINE
  5
1F4B
330
18
100
AcDbEntity
  8
外形線
 48
0.5
100
AcDbLine
 10
155.9581456297682
 20
83.97386555840654
 30
0.0
 11
155.9581456297682
 21
67.97386555840652
 31
0.0
  0
LINE
  5
1F4C
330
18
100
AcDbEntity
  8
外形線
100
AcDbLine
 10
156.4581456297682
 20
65.77386555840653
 30
0.0
 11
156.4581456297682
 21
67.67386555840653
 31
0.0
  0
LINE
  5
1F4D
330
18
100
AcDbEntity
  8
外形線
100
AcDbLine
 10
156.1581456297682
 20
67.97386555840652
 30
0.0
 11
156.4581456297682
 21
67.67386555840653
 31
0.0
  0
LINE
  5
1F4E
330
18
100
AcDbEntity
  8
外形線
100
AcDbLine
 10
156.4581456297682
 20
62.97386555840652
 30
0.0
 11
156.4581456297682
 21
65.77386555840654
 31
0.0
  0
LINE
  5
1F50
330
18
100
AcDbEntity
  8
外形線
100
AcDbLine
 10
150.9581456297682
 20
48.77386555840654
 30
0.0
 11
156.9581456297681
 21
48.77386555840654
 31
0.0
  0
ARC
  5
1F51
330
18
100
AcDbEntity
  8
外形線
100
AcDbCircle
 10
153.9581456297682
 20
50.73136555840655
 30
0.0
 40
3.4575
100
AcDbArc
 50
214.4829187978802
 51
325.5170812021199
  0
LINE
  5
1F52
330
18
100
AcDbEntity
  8
外形線
100
AcDbLine
 10
150.9581456297682
 20
49.27386555840654
 30
0.0
 11
150.9581456297682
 21
48.77386555840654
 31
0.0
  0
LINE
  5
1F53
330
18
100
AcDbEntity
  8
外形線
100
AcDbLine
 10
156.9581456297682
 20
49.27386555840655
 30
0.0
 11
156.9581456297681
 21
48.77386555840654
 31
0.0
  0
LINE
  5
1F5B
330
18
100
AcDbEntity
  8
外形線
100
AcDbLine
 10
44.29952153780209
 20
59.27386555840652
 30
0.0
 11
55.29952153780207
 21
59.27386555840654
 31
0.0
  0
LINE
  5
1F5C
330
18
100
AcDbEntity
  8
外形線
100
AcDbLine
 10
44.29952153780209
 20
49.27386555840654
 30
0.0
 11
55.29952153780209
 21
49.27386555840655
 31
0.0
  0
LINE
  5
1F5D
330
18
100
AcDbEntity
  8
外形線
100
AcDbLine
 10
44.29952153780208
 20
83.97386555840652
 30
0.0
 11
55.29952153780207
 21
83.97386555840652
 31
0.0
  0
LINE
  5
1F5E
330
18
100
AcDbEntity
  8
外形線
100
AcDbLine
 10
44.29952153780208
 20
102.4738655584065
 30
0.0
 11
55.29952153780209
 21
102.4738655584065
 31
0.0
  0
LINE
  5
1F5F
330
18
100
AcDbEntity
  8
外形線
100
AcDbLine
 10
44.29952153780208
 20
102.4738655584065
 30
0.0
 11
44.29952153780209
 21
49.27386555840655
 31
0.0
  0
LINE
  5
1F60
330
18
100
AcDbEntity
  8
外形線
100
AcDbLine
 10
55.29952153780209
 20
102.4738655584065
 30
0.0
 11
55.29952153780209
 21
49.27386555840655
 31
0.0
  0
LINE
  5
1F62
330
18
100
AcDbEntity
  8
外形線
100
AcDbLine
 10
45.54952153780209
 20
59.27386555840652
 30
0.0
 11
45.54952153780209
 21
49.27386555840654
 31
0.0
  0
LINE
  5
1F63
330
18
100
AcDbEntity
  8
外形線
100
AcDbLine
 10
54.04952153780207
 20
59.27386555840655
 30
0.0
 11
54.04952153780209
 21
49.27386555840655
 31
0.0
  0
ARC
  5
1F65
330
18
100
AcDbEntity
  8
外形線
100
AcDbCircle
 10
49.79952153780209
 20
47.02386555840653
 30
0.0
 40
1.75
100
AcDbArc
 50
180.0
 51
0.0
  0
LINE
  5
1F66
330
18
100
AcDbEntity
  8
外形線
100
AcDbLine
 10
48.0495215378021
 20
47.02386555840653
 30
0.0
 11
48.0495215378021
 21
47.74945237221214
 31
0.0
  0
LINE
  5
1F67
330
18
100
AcDbEntity
  8
外形線
100
AcDbLine
 10
51.54952153780209
 20
47.02386555840653
 30
0.0
 11
51.54952153780209
 21
47.74945237221214
 31
0.0
  0
DIMENSION
  5
1F74
330
18
100
AcDbEntity
  8
寸法線
100
AcDbDimension
  2
*D5
 10
75.04675336724119
 20
102.5738655584065
 30
0.0
 11
73.17175336724118
 21
128.9738655584065
 31
0.0
 70
    32
  1
φ53
 71
     5
 42
52.8
  3
STYLE3
100
AcDbAlignedDimension
 13
60.0995215378021
 23
155.3738655584065
 33
0.0
 14
60.0995215378021
 24
102.5738655584065
 34
0.0
 50
90.0
100
AcDbRotatedDimension
1001
ACAD
1000
DSTYLE
1002
{
1070
   271
1070
     2
1002
}
  0
LINE
  5
1F87
330
18
100
AcDbEntity
  8
外形線
  6
Continuous
100
AcDbLine
 10
42.1995215378021
 20
151.9738655584065
 30
0.0
 11
42.19952153780209
 21
105.9738655584065
 31
0.0
  0
LINE
  5
1F88
330
18
100
AcDbEntity
  8
外形線
  6
Continuous
100
AcDbLine
 10
42.1995215378021
 20
151.9738655584065
 30
0.0
 11
43.29952153780209
 21
151.9738655584065
 31
0.0
  0
LINE
  5
1F89
330
18
100
AcDbEntity
  8
外形線
  6
Continuous
100
AcDbLine
 10
42.1995215378021
 20
105.9738655584065
 30
0.0
 11
43.29952153780209
 21
105.9738655584065
 31
0.0
  0
DIMENSION
  5
1F96
330
18
100
AcDbEntity
  8
寸法線
100
AcDbDimension
  2
*D6
 10
49.79952153780209
 20
177.5363032901165
 30
0.0
 11
57.04952153780209
 21
179.4113032901165
 31
0.0
 70
    32
 71
     5
 42
14.5
  3
STYLE3
100
AcDbAlignedDimension
 13
64.2995215378021
 23
128.9738655584065
 33
0.0
 14
49.79952153780209
 24
173.7798550843721
 34
0.0
100
AcDbRotatedDimension
1001
ACAD
1000
DSTYLE
1002
{
1070
   271
1070
     2
1002
}
  0
DIMENSION
  5
1FA2
330
18
100
AcDbEntity
  8
寸法線
100
AcDbDimension
  2
*D7
 10
42.1995215378021
 20
177.5363032901165
 30
0.0
 11
45.99952153780209
 21
179.4113032901165
 31
0.0
 70
    32
 71
     5
 42
7.599999999999994
  3
STYLE3
100
AcDbAlignedDimension
 13
49.79952153780209
 23
173.7798550843721
 33
0.0
 14
42.1995215378021
 24
151.9738655584065
 34
0.0
100
AcDbRotatedDimension
1001
ACAD
1000
DSTYLE
1002
{
1070
    75
1070
     1
1070
   271
1070
     2
1070
   279
1070
     1
1002
}
  0
DIMENSION
  5
1FB0
330
18
100
AcDbEntity
  8
寸法線
100
AcDbDimension
  2
*D8
 10
55.29952153780209
 20
38.53966239417395
 30
0.0
 11
49.79952153780209
 21
40.41466239417395
 31
0.0
 70
    32
 71
     5
 42
11.0
  3
STYLE3
100
AcDbAlignedDimension
 13
44.29952153780209
 23
49.27386555840654
 33
0.0
 14
55.29952153780209
 24
49.27386555840655
 34
0.0
100
AcDbRotatedDimension
1001
ACAD
1000
DSTYLE
1002
{
1070
   271
1070
     2
1002
}
  0
DIMENSION
  5
1FEC
330
18
100
AcDbEntity
  8
寸法線
100
AcDbDimension
  2
*D11
 10
117.7267992490493
 20
59.27386555840654
 30
0.0
 11
115.8517992490493
 21
71.62386555840658
 31
0.0
 70
    32
 71
     5
 42
24.70000000000001
  3
STYLE3
100
AcDbAlignedDimension
 13
148.4581456297681
 23
83.97386555840654
 33
0.0
 14
149.7081456297682
 24
59.27386555840653
 34
0.0
 50
90.0
100
AcDbRotatedDimension
1001
ACAD
1000
DSTYLE
1002
{
1070
    75
1070
     1
1070
   271
1070
     2
1070
   279
1070
     1
1002
}
  0
DIMENSION
  5
1FF8
330
18
100
AcDbEntity
  8
寸法線
100
AcDbDimension
  2
*D12
 10
117.7267992490493
 20
49.27386555840655
 30
0.0
 11
115.8517992490493
 21
54.27386555840656
 31
0.0
 70
    32
 71
     5
 42
9.999999999999992
  3
STYLE3
100
AcDbAlignedDimension
 13
149.7081456297682
 23
59.27386555840653
 33
0.0
 14
149.7081456297682
 24
49.27386555840654
 34
0.0
 50
90.0
100
AcDbRotatedDimension
1001
ACAD
1000
DSTYLE
1002
{
1070
    75
1070
     1
1070
   271
1070
     2
1070
   279
1070
     1
1002
}
  0
DIMENSION
  5
2006
330
18
100
AcDbEntity
  8
寸法線
100
AcDbDimension
  2
*D13
 10
117.7267992490493
 20
45.27386555840653
 30
0.0
 11
115.8517992490493
 21
47.27386555840656
 31
0.0
 70
    32
 71
     5
 42
4.000000000000014
  3
STYLE3
100
AcDbAlignedDimension
 13
149.7081456297682
 23
49.27386555840654
 33
0.0
 14
171.1581456297681
 24
45.27386555840652
 34
0.0
 50
90.0
100
AcDbRotatedDimension
1001
ACAD
1000
DSTYLE
1002
{
1070
    75
1070
     1
1070
   271
1070
     2
1070
   279
1070
     1
1002
}
  0
DIMENSION
  5
202D
330
18
100
AcDbEntity
  8
寸法線
100
AcDbDimension
  2
*D15
 10
153.9581456297682
 20
38.25975227595581
 30
0.0
 11
164.0581456297681
 21
40.1347522759558
 31
0.0
 70
    32
 71
     5
 42
20.19999999999999
  3
STYLE3
100
AcDbAlignedDimension
 13
174.1581456297681
 23
61.27386555840654
 33
0.0
 14
153.9581456297682
 24
43.17391069849884
 34
0.0
100
AcDbRotatedDimension
1001
ACAD
1000
DSTYLE
1002
{
1070
   271
1070
     2
1002
}
  0
LINE
  5
203D
330
18
100
AcDbEntity
  8
0
  6
ByBlock
 62
     2
100
AcDbLine
 10
151.6581456297681
 20
62.77386555840653
 30
0.0
 11
136.9306719146546
 21
62.77386555840653
 31
0.0
  0
LINE
  5
203E
330
18
100
AcDbEntity
  8
0
  6
ByBlock
 62
     2
100
AcDbLine
 10
139.9522607808882
 20
59.27386555840652
 30
0.0
 11
136.9306719146546
 21
59.27386555840652
 31
0.0
  0
LINE
  5
203F
330
18
100
AcDbEntity
  8
0
  6
ByBlock
 62
     2
100
AcDbLine
 10
138.1806719146545
 20
65.27386555840653
 30
0.0
 11
138.1806719146545
 21
67.77386555840653
 31
0.0
  0
LINE
  5
2040
330
18
100
AcDbEntity
  8
0
  6
ByBlock
 62
     2
100
AcDbLine
 10
138.1806719146545
 20
56.77386555840652
 30
0.0
 11
138.1806719146545
 21
53.61899806831824
 31
0.0
  0
LINE
  5
2041
330
18
100
AcDbEntity
  8
0
  6
ByBlock
 62
     2
100
AcDbLine
 10
138.1806719146545
 20
62.77386555840653
 30
0.0
 11
138.1806719146545
 21
59.27386555840652
 31
0.0
  0
INSERT
  5
2042
330
18
100
AcDbEntity
  8
0
  6
ByBlock
 62
     2
100
AcDbBlockReference
  2
_OPEN
 10
138.1806719146545
 20
62.77386555840653
 30
0.0
 41
2.5
 42
2.5
 43
2.5
 50
270.0
  0
INSERT
  5
2043
330
18
100
AcDbEntity
  8
0
  6
ByBlock
 62
     2
100
AcDbBlockReference
  2
_OPEN
 10
138.1806719146545
 20
59.27386555840652
 30
0.0
 41
2.5
 42
2.5
 43
2.5
 50
90.0
  0
MTEXT
  5
2044
330
18
100
AcDbEntity
  8
0
  6
ByBlock
 62
     6
100
AcDbMText
 10
134.7210408766223
 20
62.61294132758195
 30
0.0
 40
2.5
 41
0.0
 71
     5
 72
     1
  1
\A1;3.5
  7
STYLE3
 11
0.0000000000000001
 21
1.0
 31
0.0
 73
     1
 44
1.0
  0
POINT
  5
2045
330
18
100
AcDbEntity
  8
DEFPOINTS
  6
ByBlock
 62
     0
100
AcDbPoint
 10
151.6581456297681
 20
62.77386555840653
 30
0.0
  0
POINT
  5
2046
330
18
100
AcDbEntity
  8
DEFPOINTS
  6
ByBlock
 62
     0
100
AcDbPoint
 10
139.9522607808882
 20
59.27386555840652
 30
0.0
  0
POINT
  5
2047
330
18
100
AcDbEntity
  8
DEFPOINTS
  6
ByBlock
 62
     0
100
AcDbPoint
 10
138.1806719146545
 20
59.27386555840652
 30
0.0
  0
LINE
  5
2057
330
18
100
AcDbEntity
  8
0
  6
ByBlock
 62
     2
100
AcDbLine
 10
156.4581456297682
 20
64.4543411089935
 30
0.0
 11
156.4581456297682
 21
63.1210090012027
 31
0.0
  0
LINE
  5
2058
330
18
100
AcDbEntity
  8
0
  6
ByBlock
 62
     2
100
AcDbLine
 10
151.4581456297682
 20
64.4543411089935
 30
0.0
 11
151.4581456297682
 21
63.1210090012027
 31
0.0
  0
LINE
  5
2059
330
18
100
AcDbEntity
  8
0
  6
ByBlock
 62
     2
100
AcDbLine
 10
158.9581456297682
 20
64.3710090012027
 30
0.0
 11
161.4581456297682
 21
64.3710090012027
 31
0.0
  0
LINE
  5
205A
330
18
100
AcDbEntity
  8
0
  6
ByBlock
 62
     2
100
AcDbLine
 10
148.9581456297682
 20
64.3710090012027
 30
0.0
 11
146.4581456297682
 21
64.3710090012027
 31
0.0
  0
LINE
  5
205B
330
18
100
AcDbEntity
  8
0
  6
ByBlock
 62
     2
100
AcDbLine
 10
156.4581456297682
 20
64.3710090012027
 30
0.0
 11
151.4581456297682
 21
64.3710090012027
 31
0.0
  0
INSERT
  5
205C
330
18
100
AcDbEntity
  8
0
  6
ByBlock
 62
     2
100
AcDbBlockReference
  2
_OPEN
 10
156.4581456297682
 20
64.3710090012027
 30
0.0
 41
2.5
 42
2.5
 43
2.5
 50
180.0
  0
INSERT
  5
205D
330
18
100
AcDbEntity
  8
0
  6
ByBlock
 62
     2
100
AcDbBlockReference
  2
_OPEN
 10
151.4581456297682
 20
64.3710090012027
 30
0.0
 41
2.5
 42
2.5
 43
2.5
  0
MTEXT
  5
205E
330
18
100
AcDbEntity
  8
0
  6
ByBlock
 62
     6
100
AcDbMText
 10
139.3628616106053
 20
76.32915951362952
 30
0.0
 40
2.5
 41
0.0
 71
     5
 72
     1
  1
2-φ5
  7
STYLE3
 73
     1
 44
1.0
  0
POINT
  5
205F
330
18
100
AcDbEntity
  8
DEFPOINTS
  6
ByBlock
 62
     0
100
AcDbPoint
 10
156.4581456297682
 20
64.4543411089935
 30
0.0
  0
POINT
  5
2060
330
18
100
AcDbEntity
  8
DEFPOINTS
  6
ByBlock
 62
     0
100
AcDbPoint
 10
151.4581456297682
 20
64.4543411089935
 30
0.0
  0
POINT
  5
2061
330
18
100
AcDbEntity
  8
DEFPOINTS
  6
ByBlock
 62
     0
100
AcDbPoint
 10
151.4581456297682
 20
64.3710090012027
 30
0.0
  0
LINE
  5
2062
330
18
100
AcDbEntity
  8
寸法線
100
AcDbLine
 10
153.9581456297682
 20
64.3710090012027
 30
0.0
 11
144.8859828285612
 21
74.37082786624216
 31
0.0
  0
LINE
  5
2063
330
18
100
AcDbEntity
  8
寸法線
100
AcDbLine
 10
144.8859828285612
 20
74.37082786624216
 30
0.0
 11
133.6267632238991
 21
74.37082786624216
 31
0.0
  0
TEXT
  5
20B2
330
18
100
AcDbEntity
  8
文字
100
AcDbText
 10
159.3772362944184
 20
127.937575323994
 30
0.0
 40
1.0
  1
0.001mm
  7
STYLE3
100
AcDbText
  0
LINE
  5
20B3
102
{ACAD_REACTORS
330
20B5
102
}
330
18
100
AcDbEntity
  8
外形線
100
AcDbLine
 10
165.7969345672358
 20
130.5134488917398
 30
0.0
 11
164.7969345672358
 21
130.5134488917398
 31
0.0
  0
LINE
  5
20B4
102
{ACAD_REACTORS
330
20B5
102
}
330
18
100
AcDbEntity
  8
外形線
100
AcDbLine
 10
165.7969345672358
 20
130.3342822250732
 30
0.0
 11
164.7969345672358
 21
130.3342822250732
 31
0.0
  0
HATCH
  5
20B5
330
18
100
AcDbEntity
  8
外形線
100
AcDbHatch
 10
0.0
 20
0.0
 30
0.0
210
0.0
220
0.0
230
1.0
  2
SOLID
 70
     1
 71
     1
 91
        2
 92
        1
 93
        7
 72
     1
 10
163.6302679005691
 20
130.4238655584065
 11
164.7969345672358
 21
129.9992336184293
 72
     1
 10
164.7969345672358
 20
129.9992336184293
 11
164.7969345672358
 21
130.3342822250732
 72
     1
 10
164.7969345672358
 20
130.3342822250732
 11
165.7969345672358
 21
130.3342822250732
 72
     1
 10
165.7969345672358
 20
130.3342822250732
 11
165.7969345672358
 21
130.5134488917398
 72
     1
 10
165.7969345672358
 20
130.5134488917398
 11
164.7969345672358
 21
130.5134488917398
 72
     1
 10
164.7969345672358
 20
130.5134488917398
 11
164.7969345672358
 21
130.8484974983838
 72
     1
 10
164.7969345672358
 20
130.8484974983838
 11
163.6302679005691
 21
130.4238655584065
 97
        7
330
20BF
330
20C6
330
20B4
330
20DA
330
20B3
330
20BD
330
20C9
 92
        1
 93
        4
 72
     1
 10
163.6302679005691
 20
131.1738655584065
 11
163.6302679005691
 21
129.6738655584065
 72
     1
 10
163.6302679005691
 20
129.6738655584065
 11
163.4636012339024
 21
129.6738655584065
 72
     1
 10
163.4636012339024
 20
129.6738655584065
 11
163.4636012339024
 21
131.1738655584065
 72
     1
 10
163.4636012339024
 20
131.1738655584065
 11
163.6302679005691
 21
131.1738655584065
 97
        4
330
20C8
330
20BE
330
20C7
330
20BA
 75
     0
 76
     1
 98
        1
 10
71.30071119408876
 20
61.7617147512255
450
        0
451
        0
460
0.0
461
0.0
452
        0
462
0.0
453
        0
470

  0
LINE
  5
20B6
102
{ACAD_REACTORS
330
20B8
102
}
330
18
100
AcDbEntity
  8
外形線
100
AcDbLine
 10
160.2969345672358
 20
130.5134488917398
 30
0.0
 11
161.2969345672358
 21
130.5134488917398
 31
0.0
  0
LINE
  5
20B7
102
{ACAD_REACTORS
330
20B8
102
}
330
18
100
AcDbEntity
  8
外形線
100
AcDbLine
 10
160.2969345672358
 20
130.3342822250732
 30
0.0
 11
161.2969345672359
 21
130.3342822250732
 31
0.0
  0
HATCH
  5
20B8
330
18
100
AcDbEntity
  8
外形線
100
AcDbHatch
 10
0.0
 20
0.0
 30
0.0
210
0.0
220
0.0
230
1.0
  2
SOLID
 70
     1
 71
     1
 91
        2
 92
        1
 93
        7
 72
     1
 10
162.4636012339025
 20
130.4238655584065
 11
161.2969345672358
 21
129.9992336184293
 72
     1
 10
161.2969345672358
 20
129.9992336184293
 11
161.2969345672359
 21
130.3342822250732
 72
     1
 10
161.2969345672359
 20
130.3342822250732
 11
160.2969345672358
 21
130.3342822250732
 72
     1
 10
160.2969345672358
 20
130.3342822250732
 11
160.2969345672358
 21
130.5134488917398
 72
     1
 10
160.2969345672358
 20
130.5134488917398
 11
161.2969345672358
 21
130.5134488917398
 72
     1
 10
161.2969345672358
 20
130.5134488917398
 11
161.2969345672358
 21
130.8484974983838
 72
     1
 10
161.2969345672358
 20
130.8484974983838
 11
162.4636012339025
 21
130.4238655584065
 97
        7
330
20D6
330
20D3
330
20B7
330
20B9
330
20B6
330
20CB
330
20D7
 92
        1
 93
        4
 72
     1
 10
162.4636012339025
 20
131.1738655584065
 11
162.4636012339025
 21
129.6738655584065
 72
     1
 10
162.4636012339025
 20
129.6738655584065
 11
162.6302679005691
 21
129.6738655584065
 72
     1
 10
162.6302679005691
 20
129.6738655584065
 11
162.6302679005691
 21
131.1738655584065
 72
     1
 10
162.6302679005691
 20
131.1738655584065
 11
162.4636012339025
 21
131.1738655584065
 97
        4
330
20D8
330
20D2
330
20D9
330
20CA
 75
     0
 76
     1
 98
        1
 10
254.7931579403828
 20
61.7617147512255
450
        0
451
        0
460
0.0
461
0.0
452
        0
462
0.0
453
        0
470

  0
LINE
  5
20B9
102
{ACAD_REACTORS
330
20B8
102
}
330
18
100
AcDbEntity
  8
外形線
100
AcDbLine
 10
160.2969345672358
 20
130.5134488917398
 30
0.0
 11
160.2969345672358
 21
130.3342822250732
 31
0.0
  0
LINE
  5
20BA
102
{ACAD_REACTORS
330
20B5
102
}
330
18
100
AcDbEntity
  8
外形線
100
AcDbLine
 10
163.4636012339024
 20
131.1738655584065
 30
0.0
 11
163.6302679005691
 21
131.1738655584065
 31
0.0
  0
POINT
  5
20BB
330
18
100
AcDbEntity
  8
DEFPOINTS
  6
ByBlock
 62
     0
100
AcDbPoint
 10
164.7969345672358
 20
130.8484974983838
 30
0.0
  0
POINT
  5
20BC
330
18
100
AcDbEntity
  8
DEFPOINTS
  6
ByBlock
 62
     0
100
AcDbPoint
 10
164.7969345672358
 20
130.8484974983838
 30
0.0
  0
LINE
  5
20BD
102
{ACAD_REACTORS
330
20B5
102
}
330
18
100
AcDbEntity
  8
外形線
100
AcDbLine
 10
164.7969345672358
 20
130.8484974983838
 30
0.0
 11
164.7969345672358
 21
130.5134488917398
 31
0.0
  0
LINE
  5
20BE
102
{ACAD_REACTORS
330
20B5
102
}
330
18
100
AcDbEntity
  8
外形線
100
AcDbLine
 10
163.4636012339024
 20
129.6738655584065
 30
0.0
 11
163.6302679005691
 21
129.6738655584065
 31
0.0
  0
LINE
  5
20BF
102
{ACAD_REACTORS
330
20B5
102
}
330
18
100
AcDbEntity
  8
外形線
100
AcDbLine
 10
163.6302679005691
 20
130.4238655584065
 30
0.0
 11
164.7969345672358
 21
129.9992336184293
 31
0.0
  0
POINT
  5
20C0
330
18
100
AcDbEntity
  8
DEFPOINTS
  6
ByBlock
 62
     0
100
AcDbPoint
 10
164.7969345672358
 20
129.9992336184293
 30
0.0
  0
POINT
  5
20C1
330
18
100
AcDbEntity
  8
DEFPOINTS
  6
ByBlock
 62
     0
100
AcDbPoint
 10
163.6302679005691
 20
129.6738655584065
 30
0.0
  0
POINT
  5
20C2
330
18
100
AcDbEntity
  8
DEFPOINTS
  6
ByBlock
 62
     0
100
AcDbPoint
 10
164.7969345672358
 20
129.9992336184293
 30
0.0
  0
POINT
  5
20C3
330
18
100
AcDbEntity
  8
DEFPOINTS
  6
ByBlock
 62
     0
100
AcDbPoint
 10
163.4636012339024
 20
129.6738655584065
 30
0.0
  0
POINT
  5
20C4
330
18
100
AcDbEntity
  8
DEFPOINTS
  6
ByBlock
 62
     0
100
AcDbPoint
 10
163.6302679005691
 20
129.6738655584065
 30
0.0
  0
POINT
  5
20C5
330
18
100
AcDbEntity
  8
DEFPOINTS
  6
ByBlock
 62
     0
100
AcDbPoint
 10
163.4636012339024
 20
129.6738655584065
 30
0.0
  0
LINE
  5
20C6
102
{ACAD_REACTORS
330
20B5
102
}
330
18
100
AcDbEntity
  8
外形線
100
AcDbLine
 10
164.7969345672358
 20
130.3342822250732
 30
0.0
 11
164.7969345672358
 21
129.9992336184293
 31
0.0
  0
LINE
  5
20C7
102
{ACAD_REACTORS
330
20B5
102
}
330
18
100
AcDbEntity
  8
外形線
100
AcDbLine
 10
163.4636012339024
 20
131.1738655584065
 30
0.0
 11
163.4636012339024
 21
129.6738655584065
 31
0.0
  0
LINE
  5
20C8
102
{ACAD_REACTORS
330
20B5
102
}
330
18
100
AcDbEntity
  8
外形線
100
AcDbLine
 10
163.6302679005691
 20
131.1738655584065
 30
0.0
 11
163.6302679005691
 21
129.6738655584065
 31
0.0
  0
LINE
  5
20C9
102
{ACAD_REACTORS
330
20B5
102
}
330
18
100
AcDbEntity
  8
外形線
100
AcDbLine
 10
163.6302679005691
 20
130.4238655584065
 30
0.0
 11
164.7969345672358
 21
130.8484974983838
 31
0.0
  0
LINE
  5
20CA
102
{ACAD_REACTORS
330
20B8
102
}
330
18
100
AcDbEntity
  8
外形線
100
AcDbLine
 10
162.6302679005691
 20
131.1738655584065
 30
0.0
 11
162.4636012339025
 21
131.1738655584065
 31
0.0
  0
LINE
  5
20CB
102
{ACAD_REACTORS
330
20B8
102
}
330
18
100
AcDbEntity
  8
外形線
100
AcDbLine
 10
161.2969345672358
 20
130.8484974983838
 30
0.0
 11
161.2969345672358
 21
130.5134488917398
 31
0.0
  0
POINT
  5
20CC
330
18
100
AcDbEntity
  8
DEFPOINTS
  6
ByBlock
 62
     0
100
AcDbPoint
 10
161.2969345672358
 20
130.8484974983838
 30
0.0
  0
POINT
  5
20CD
330
18
100
AcDbEntity
  8
DEFPOINTS
  6
ByBlock
 62
     0
100
AcDbPoint
 10
161.2969345672358
 20
130.8484974983838
 30
0.0
  0
POINT
  5
20CE
330
18
100
AcDbEntity
  8
DEFPOINTS
  6
ByBlock
 62
     0
100
AcDbPoint
 10
162.6302679005691
 20
129.6738655584065
 30
0.0
  0
POINT
  5
20CF
330
18
100
AcDbEntity
  8
DEFPOINTS
  6
ByBlock
 62
     0
100
AcDbPoint
 10
162.4636012339025
 20
129.6738655584065
 30
0.0
  0
POINT
  5
20D0
330
18
100
AcDbEntity
  8
DEFPOINTS
  6
ByBlock
 62
     0
100
AcDbPoint
 10
162.6302679005691
 20
129.6738655584065
 30
0.0
  0
POINT
  5
20D1
330
18
100
AcDbEntity
  8
DEFPOINTS
  6
ByBlock
 62
     0
100
AcDbPoint
 10
162.4636012339025
 20
129.6738655584065
 30
0.0
  0
LINE
  5
20D2
102
{ACAD_REACTORS
330
20B8
102
}
330
18
100
AcDbEntity
  8
外形線
100
AcDbLine
 10
162.6302679005691
 20
129.6738655584065
 30
0.0
 11
162.4636012339025
 21
129.6738655584065
 31
0.0
  0
LINE
  5
20D3
102
{ACAD_REACTORS
330
20B8
102
}
330
18
100
AcDbEntity
  8
外形線
100
AcDbLine
 10
161.2969345672359
 20
130.3342822250732
 30
0.0
 11
161.2969345672358
 21
129.9992336184293
 31
0.0
  0
POINT
  5
20D4
330
18
100
AcDbEntity
  8
DEFPOINTS
  6
ByBlock
 62
     0
100
AcDbPoint
 10
161.2969345672358
 20
129.9992336184293
 30
0.0
  0
POINT
  5
20D5
330
18
100
AcDbEntity
  8
DEFPOINTS
  6
ByBlock
 62
     0
100
AcDbPoint
 10
161.2969345672358
 20
129.9992336184293
 30
0.0
  0
LINE
  5
20D6
102
{ACAD_REACTORS
330
20B8
102
}
330
18
100
AcDbEntity
  8
外形線
100
AcDbLine
 10
162.4636012339025
 20
130.4238655584065
 30
0.0
 11
161.2969345672358
 21
129.9992336184293
 31
0.0
  0
LINE
  5
20D7
102
{ACAD_REACTORS
330
20B8
102
}
330
18
100
AcDbEntity
  8
外形線
100
AcDbLine
 10
162.4636012339025
 20
130.4238655584065
 30
0.0
 11
161.2969345672358
 21
130.8484974983838
 31
0.0
  0
LINE
  5
20D8
102
{ACAD_REACTORS
330
20B8
102
}
330
18
100
AcDbEntity
  8
外形線
100
AcDbLine
 10
162.4636012339025
 20
131.1738655584065
 30
0.0
 11
162.4636012339025
 21
129.6738655584065
 31
0.0
  0
LINE
  5
20D9
102
{ACAD_REACTORS
330
20B8
102
}
330
18
100
AcDbEntity
  8
外形線
100
AcDbLine
 10
162.6302679005691
 20
131.1738655584065
 30
0.0
 11
162.6302679005691
 21
129.6738655584065
 31
0.0
  0
LINE
  5
20DA
102
{ACAD_REACTORS
330
20B5
102
}
330
18
100
AcDbEntity
  8
外形線
100
AcDbLine
 10
165.7969345672358
 20
130.5134488917398
 30
0.0
 11
165.7969345672358
 21
130.3342822250732
 31
0.0
  0
LINE
  5
20F3
330
18
100
AcDbEntity
  8
寸法線
100
AcDbLine
 10
123.5172974805316
 20
128.9738655584065
 30
0.0
 11
115.6820254607651
 21
128.9738655584065
 31
0.0
  0
LINE
  5
211C
330
18
100
AcDbEntity
  8
0
  6
ByBlock
 62
     2
100
AcDbLine
 10
148.4581456297681
 20
83.97386555840654
 30
0.0
 11
116.393465915716
 21
83.97386555840656
 31
0.0
  0
LINE
  5
211D
330
18
100
AcDbEntity
  8
0
  6
ByBlock
 62
     2
100
AcDbLine
 10
117.643465915716
 20
126.9738655584065
 30
0.0
 11
117.643465915716
 21
86.47386555840656
 31
0.0
  0
INSERT
  5
211E
330
18
100
AcDbEntity
  8
0
  6
ByBlock
 62
     2
100
AcDbBlockReference
  2
_OPEN
 10
117.643465915716
 20
128.9738655584065
 30
0.0
 41
2.5
 42
2.5
 43
2.5
 50
90.0
  0
INSERT
  5
211F
330
18
100
AcDbEntity
  8
0
  6
ByBlock
 62
     2
100
AcDbBlockReference
  2
_OPEN
 10
117.643465915716
 20
83.97386555840656
 30
0.0
 41
2.5
 42
2.5
 43
2.5
 50
270.0
  0
MTEXT
  5
2120
330
18
100
AcDbEntity
  8
0
  6
ByBlock
 62
     6
100
AcDbMText
 10
115.768465915716
 20
106.7238655584065
 30
0.0
 40
2.5
 41
0.0
 71
     5
 72
     1
  1
\A1;45
  7
STYLE3
 11
0.0000000000000001
 21
1.0
 31
0.0
 73
     1
 44
1.0
  0
POINT
  5
2122
330
18
100
AcDbEntity
  8
DEFPOINTS
  6
ByBlock
 62
     0
100
AcDbPoint
 10
148.4581456297681
 20
83.97386555840654
 30
0.0
  0
POINT
  5
2123
330
18
100
AcDbEntity
  8
DEFPOINTS
  6
ByBlock
 62
     0
100
AcDbPoint
 10
117.643465915716
 20
83.97386555840656
 30
0.0
  0
DIMENSION
  5
213D
330
18
100
AcDbEntity
  8
寸法線
100
AcDbDimension
  2
*D18
 10
117.643465915716
 20
128.9738655584065
 30
0.0
 11
115.768465915716
 21
149.7238655584065
 31
0.0
 70
    32
 71
     5
 42
41.5
  3
STYLE3
100
AcDbAlignedDimension
 13
153.9581456297682
 23
170.4738655584065
 33
0.0
 14
120.5946412682325
 24
128.9738655584065
 34
0.0
 50
90.0
100
AcDbRotatedDimension
1001
ACAD
1000
DSTYLE
1002
{
1070
   271
1070
     2
1002
}
  0
DIMENSION
  5
214A
330
18
100
AcDbEntity
  8
寸法線
100
AcDbDimension
  2
*D19
 10
111.3099572319853
 20
170.4738655584065
 30
0.0
 11
109.4349572319853
 21
107.8738655584065
 31
0.0
 70
    32
 71
     5
 42
125.2
  3
STYLE3
100
AcDbAlignedDimension
 13
116.4767992490493
 23
45.27386555840652
 33
0.0
 14
116.393465915716
 24
170.4738655584065
 34
0.0
 50
90.0
100
AcDbRotatedDimension
1001
ACAD
1000
DSTYLE
1002
{
1070
   271
1070
     2
1002
}
  0
TEXT
  5
217A
330
18
100
AcDbEntity
  8
文字
100
AcDbText
 10
62.88960403844602
 20
188.3405512849338
 30
0.0
 40
4.0
  1
Model No.G-6 Dial Thickness Gauge
  7
STYLE3
100
AcDbText
  0
LINE
  5
217B
330
18
100
AcDbEntity
  8
外形線
100
AcDbLine
 10
62.20388103844602
 20
185.2933252849338
 30
0.0
 11
170.203881038446
 21
185.2933252849338
 31
0.0
  0
LINE
  5
217C
330
18
100
AcDbEntity
  8
外形線
100
AcDbLine
 10
62.20388103844602
 20
186.2933252849338
 30
0.0
 11
170.203881038446
 21
186.2933252849338
 31
0.0
  0
LINE
  5
217E
330
18
100
AcDbEntity
  8
外形線
100
AcDbLine
 10
113.830003038446
 20
21.08042028493381
 30
0.0
 11
254.621421038446
 21
21.08042028493381
 31
0.0
  0
LINE
  5
217F
330
18
100
AcDbEntity
  8
外形線
100
AcDbLine
 10
113.830003038446
 20
10.30021428493381
 30
0.0
 11
254.621421038446
 21
10.30021428493381
 31
0.0
  0
TEXT
  5
2180
330
18
100
AcDbEntity
  8
0
  6
Continuous
100
AcDbText
 10
115.287470038446
 20
12.19820428493381
 30
0.0
 40
2.1
  1
Design and specifications are subject to change without notice for future improvement.
  7
STYLE3
100
AcDbText
  0
TEXT
  5
2181
330
18
100
AcDbEntity
  8
0
  6
Continuous
100
AcDbText
 10
115.578964038446
 20
16.12735228493381
 30
0.0
 40
3.5
  1
仕様及び外観は予告なく変更される場合がございますのでご了承下さい。
  7
STYLE3
100
AcDbText
  0
TEXT
  5
2182
330
18
100
AcDbEntity
  8
0
  6
Continuous
100
AcDbText
 10
114.995979038446
 20
2.43357628493381
 30
0.0
 40
2.1
  1
3RD Angle Projection
  7
STYLE3
100
AcDbText
  0
TEXT
  5
2183
330
18
100
AcDbEntity
  8
0
  6
Continuous
100
AcDbText
 10
117.619422038446
 20
5.92985928493381
 30
0.0
 40
3.0
  1
三　　角　　法
  7
STYLE3
100
AcDbText
  0
LINE
  5
2184
330
18
100
AcDbEntity
  8
外形線
100
AcDbLine
 10
113.830003038446
 20
0.6854362849338103
 30
0.0
 11
113.830003038446
 21
21.08042028493381
 31
0.0
  0
LINE
  5
2185
330
18
100
AcDbEntity
  8
外形線
100
AcDbLine
 10
215.852770038446
 20
10.30021428493381
 30
0.0
 11
215.852770038446
 21
0.6854362849338103
 31
0.0
  0
LINE
  5
2186
330
18
100
AcDbEntity
  8
外形線
100
AcDbLine
 10
186.120420038446
 20
10.30021428493381
 30
0.0
 11
186.120420038446
 21
0.6854362849338103
 31
0.0
  0
LINE
  5
2187
330
18
100
AcDbEntity
  8
外形線
100
AcDbLine
 10
166.590348038446
 20
10.30021428493381
 30
0.0
 11
166.590348038446
 21
0.6854362849338103
 31
0.0
  0
LINE
  5
2188
330
18
100
AcDbEntity
  8
外形線
100
AcDbLine
 10
149.100731038446
 20
10.30021428493381
 30
0.0
 11
149.100731038446
 21
0.6854362849338103
 31
0.0
  0
TEXT
  5
2189
330
18
100
AcDbEntity
  8
0
  6
Continuous
100
AcDbText
 10
150.558200038446
 20
5.935814284933809
 30
0.0
 40
3.0
  1
単位
  7
STYLE3
100
AcDbText
  0
TEXT
  5
218A
330
18
100
AcDbEntity
  8
0
  6
Continuous
100
AcDbText
 10
150.729921038446
 20
2.43357728493381
 30
0.0
 40
2.1
  1
Unit
  7
STYLE3
100
AcDbText
  0
TEXT
  5
218B
330
18
100
AcDbEntity
  8
0
  6
Continuous
100
AcDbText
 10
167.876096038446
 20
5.644456284933809
 30
0.0
 40
3.0
  1
尺 度
  7
STYLE3
100
AcDbText
  0
TEXT
  5
218C
330
18
100
AcDbEntity
  8
0
  6
Continuous
100
AcDbText
 10
158.600248038446
 20
4.18172028493381
 30
0.0
 40
2.399999999999999
  1
mm
  7
STYLE3
100
AcDbText
  0
TEXT
  5
218D
330
18
100
AcDbEntity
  8
0
  6
Continuous
100
AcDbText
 10
168.339311038446
 20
2.72493428493381
 30
0.0
 40
2.1
  1
Scale
  7
STYLE3
100
AcDbText
  0
TEXT
  5
218E
330
18
100
AcDbEntity
  8
0
  6
Continuous
100
AcDbText
 10
177.958600038446
 20
4.47307728493381
 30
0.0
 40
2.399999999999999
  1
1/1
  7
STYLE3
100
AcDbText
  0
TEXT
  5
218F
330
18
100
AcDbEntity
  8
0
  6
Continuous
100
AcDbText
 10
188.052371038446
 20
2.43357828493381
 30
0.0
 40
2.1
  1
Date
  7
STYLE3
100
AcDbText
  0
TEXT
  5
2190
330
18
100
AcDbEntity
  8
0
  6
Continuous
100
AcDbText
 10
187.669010038446
 20
5.766661284933809
 30
0.0
 40
3.0
  1
日 付
  7
STYLE3
100
AcDbText
  0
TEXT
  5
2191
330
18
100
AcDbEntity
  8
0
  6
Continuous
100
AcDbText
 10
196.797179038446
 20
4.18171928493381
 30
0.0
 40
2.1
  1
2010.06.10
  7
STYLE3
100
AcDbText
  0
TEXT
  5
2192
330
18
100
AcDbEntity
  8
0
  6
Continuous
100
AcDbText
 10
217.201733038446
 20
6.221216284933809
 30
0.0
 40
3.0
  1
株式会社　尾崎製作所
  7
STYLE3
100
AcDbText
  0
TEXT
  5
2193
330
18
100
AcDbEntity
  8
0
  6
Continuous
100
AcDbText
 10
218.0762120384461
 20
2.43357728493381
 30
0.0
 40
2.1
  1
OZAKI MFG. CO., LTD.
  7
STYLE3
100
AcDbText
  0
VIEWPORT
  5
177
330
15
100
AcDbEntity
 67
     1
  8
0
100
AcDbViewport
 10
127.5041203589828
 20
97.49391214526822
 30
0.0
 40
418.3086347473814
 41
243.0346063651093
 68
     1
 69
     1
 12
127.5041203589828
 22
97.49391214526822
 13
0.0
 23
0.0
 14
10.0
 24
10.0
 15
10.0
 25
10.0
 16
0.0
 26
0.0
 36
1.0
 17
0.0
 27
0.0
 37
0.0
 42
50.0
 43
0.0
 44
0.0
 45
243.0346063651093
 50
0.0
 51
0.0
 72
   100
 90
    32800
  1

281
     0
 71
     1
 74
     0
110
0.0
120
0.0
130
0.0
111
1.0
121
0.0
131
0.0
112
0.0
122
1.0
132
0.0
 79
     0
146
0.0
170
     0
  0
ENDSEC
  0
SECTION
  2
OBJECTS
  0
DICTIONARY
  5
C
330
0
100
AcDbDictionary
281
     1
  3
ACAD_COLOR
350
2150
  3
ACAD_GROUP
350
D
  3
ACAD_IMAGE_DICT
350
1971
  3
ACAD_IMAGE_VARS
350
1970
  3
ACAD_LAYOUT
350
2151
  3
ACAD_MATERIAL
350
214F
  3
ACAD_MLINESTYLE
350
1B
  3
ACAD_PLOTSETTINGS
350
2152
  3
ACAD_PLOTSTYLENAME
350
214D
  0
DICTIONARY
  5
2150
102
{ACAD_REACTORS
330
C
102
}
330
C
100
AcDbDictionary
281
     1
  0
DICTIONARY
  5
D
102
{ACAD_REACTORS
330
C
102
}
330
C
100
AcDbDictionary
281
     1
  0
DICTIONARY
  5
1971
102
{ACAD_REACTORS
330
C
102
}
330
C
100
AcDbDictionary
281
     1
  3
1
350
1972
  0
RASTERVARIABLES
  5
1970
102
{ACAD_REACTORS
330
C
102
}
330
C
100
AcDbRasterVariables
 90
        0
 70
     1
 71
     1
 72
     0
  0
DICTIONARY
  5
2151
102
{ACAD_REACTORS
330
C
102
}
330
C
100
AcDbDictionary
281
     1
  3
Model
350
2153
  3
レイアウト1
350
2154
  0
DICTIONARY
  5
214F
102
{ACAD_REACTORS
330
C
102
}
330
C
100
AcDbDictionary
281
     1
  0
DICTIONARY
  5
1B
102
{ACAD_REACTORS
330
C
102
}
330
C
100
AcDbDictionary
281
     1
  3
STANDARD
350
1C
  0
DICTIONARY
  5
2152
102
{ACAD_REACTORS
330
C
102
}
330
C
100
AcDbDictionary
281
     1
  0
ACDBDICTIONARYWDFLT
  5
214D
102
{ACAD_REACTORS
330
C
102
}
330
C
100
AcDbDictionary
281
     1
  3
Normal
350
214E
100
AcDbDictionaryWithDefault
340
214E
  0
IMAGEDEF
  5
1972
102
{ACAD_REACTORS
330
1971
102
}
330
1971
100
AcDbRasterImageDef
 90
        0
  1
\\Nx\nxdata\末本\1.tif
 10
1248.0
 20
1760.0
 11
0.127
 21
0.127
280
     1
281
     5
  0
LAYOUT
  5
2153
102
{ACAD_REACTORS
330
2151
102
}
330
2151
100
AcDbPlotSettings
  1

  2
EPSON PX-101
  4

  6

 40
0.0
 41
0.0
 42
0.0
 43
0.0
 44
0.0
 45
0.0
 46
0.0
 47
0.0
 48
0.0
 49
0.0
140
0.0
141
0.0
142
1.0
143
1.0
 70
  1712
 72
     0
 73
     0
 74
     0
  7
AutoCad LT 98fukui.ctb
 75
     0
147
1.0
 76
     0
 77
     2
 78
   300
148
0.0
149
0.0
100
AcDbLayout
  1
Model
 70
     1
 71
     0
 10
0.0
 20
0.0
 11
12.0
 21
9.0
 12
0.0
 22
0.0
 32
0.0
 14
0.0
 24
0.0
 34
0.0
 15
0.0
 25
0.0
 35
0.0
146
0.0
 13
0.0
 23
0.0
 33
0.0
 16
1.0
 26
0.0
 36
0.0
 17
0.0
 27
1.0
 37
0.0
 76
     0
330
18
  0
LAYOUT
  5
2154
102
{ACAD_REACTORS
330
2151
102
}
330
2151
100
AcDbPlotSettings
  1

  2
EPSON PX-101
  4

  6

 40
0.0
 41
0.0
 42
0.0
 43
0.0
 44
0.0
 45
0.0
 46
0.0
 47
0.0
 48
0.0
 49
0.0
140
0.0
141
0.0
142
1.0
143
1.0
 70
   688
 72
     0
 73
     0
 74
     5
  7
AutoCad LT 98fukui.ctb
 75
    16
147
1.0
 76
     0
 77
     2
 78
   300
148
0.0
149
0.0
100
AcDbLayout
  1
レイアウト1
 70
     1
 71
     1
 10
0.0
 20
0.0
 11
420.0
 21
297.0
 12
0.0
 22
0.0
 32
0.0
 14
-0.2
 24
-0.2
 34
0.0
 15
255.2
 25
195.2
 35
0.0
146
0.0
 13
0.0
 23
0.0
 33
0.0
 16
1.0
 26
0.0
 36
0.0
 17
0.0
 27
1.0
 37
0.0
 76
     0
330
15
331
177
  0
MLINESTYLE
  5
1C
102
{ACAD_REACTORS
330
1B
102
}
330
1B
100
AcDbMlineStyle
  2
STANDARD
 70
     0
  3

 62
   256
 51
90.0
 52
90.0
 71
     2
 49
0.5
 62
   256
  6
BYLAYER
 49
-0.5
 62
   256
  6
BYLAYER
  0
ACDBPLACEHOLDER
  5
214E
102
{ACAD_REACTORS
330
214D
102
}
330
214D
  0
ENDSEC
  0
EOF
