  0
SECTION
  2
HEADER
  9
$ACADVER
  1
AC1018
  9
$ACADMAINTVER
 70
     0
  9
$DWGCODEPAGE
  3
ANSI_932
  9
$INSBASE
 10
0.0
 20
0.0
 30
0.0
  9
$EXTMIN
 10
4.791000979476393
 20
2.297974101148952
 30
-0.0000000000000007
  9
$EXTMAX
 10
260.2114569055981
 20
197.7020268301736
 30
0.0000000000000146
  9
$LIMMIN
 10
0.0
 20
0.0
  9
$LIMMAX
 10
261.0
 20
200.0
  9
$ORTHOMODE
 70
     0
  9
$REGENMODE
 70
     1
  9
$FILLMODE
 70
     1
  9
$QTEXTMODE
 70
     0
  9
$MIRRTEXT
 70
     1
  9
$LTSCALE
 40
5.0
  9
$ATTMODE
 70
     1
  9
$TEXTSIZE
 40
2.5
  9
$TRACEWID
 40
0.05
  9
$TEXTSTYLE
  7
STYLE3
  9
$CLAYER
  8
外形線
  9
$CELTYPE
  6
CONTINUOUS
  9
$CECOLOR
 62
   256
  9
$CELTSCALE
 40
1.0
  9
$DISPSILH
 70
     0
  9
$DIMSCALE
 40
1.0
  9
$DIMASZ
 40
2.5
  9
$DIMEXO
 40
0.0
  9
$DIMDLI
 40
3.75
  9
$DIMRND
 40
0.0
  9
$DIMDLE
 40
0.0
  9
$DIMEXE
 40
1.25
  9
$DIMTP
 40
0.0
  9
$DIMTM
 40
0.0
  9
$DIMTXT
 40
2.5
  9
$DIMCEN
 40
2.5
  9
$DIMTSZ
 40
0.0
  9
$DIMTOL
 70
     0
  9
$DIMLIM
 70
     0
  9
$DIMTIH
 70
     0
  9
$DIMTOH
 70
     0
  9
$DIMSE1
 70
     0
  9
$DIMSE2
 70
     0
  9
$DIMTAD
 70
     1
  9
$DIMZIN
 70
     8
  9
$DIMBLK
  1

  9
$DIMASO
 70
     1
  9
$DIMSHO
 70
     1
  9
$DIMPOST
  1

  9
$DIMAPOST
  1

  9
$DIMALT
 70
     0
  9
$DIMALTD
 70
     4
  9
$DIMALTF
 40
0.0394
  9
$DIMLFAC
 40
1.0
  9
$DIMTOFL
 70
     1
  9
$DIMTVP
 40
0.0
  9
$DIMTIX
 70
     0
  9
$DIMSOXD
 70
     0
  9
$DIMSAH
 70
     1
  9
$DIMBLK1
  1
OPEN
  9
$DIMBLK2
  1
OPEN
  9
$DIMSTYLE
  2
STYLE3
  9
$DIMCLRD
 70
     2
  9
$DIMCLRE
 70
     2
  9
$DIMCLRT
 70
     6
  9
$DIMTFAC
 40
1.0
  9
$DIMGAP
 40
0.625
  9
$DIMJUST
 70
     0
  9
$DIMSD1
 70
     0
  9
$DIMSD2
 70
     0
  9
$DIMTOLJ
 70
     1
  9
$DIMTZIN
 70
     0
  9
$DIMALTZ
 70
     0
  9
$DIMALTTZ
 70
     0
  9
$DIMUPT
 70
     0
  9
$DIMDEC
 70
     1
  9
$DIMTDEC
 70
     4
  9
$DIMALTU
 70
     8
  9
$DIMALTTD
 70
     4
  9
$DIMTXSTY
  7
STYLE3
  9
$DIMAUNIT
 70
     0
  9
$DIMADEC
 70
     0
  9
$DIMALTRND
 40
0.0
  9
$DIMAZIN
 70
     0
  9
$DIMDSEP
 70
    46
  9
$DIMATFIT
 70
     3
  9
$DIMFRAC
 70
     0
  9
$DIMLDRBLK
  1

  9
$DIMLUNIT
 70
     2
  9
$DIMLWD
 70
    -2
  9
$DIMLWE
 70
    -2
  9
$DIMTMOVE
 70
     0
  9
$LUNITS
 70
     2
  9
$LUPREC
 70
     4
  9
$SKETCHINC
 40
0.1
  9
$FILLETRAD
 40
3.0
  9
$AUNITS
 70
     0
  9
$AUPREC
 70
     0
  9
$MENU
  1
.
  9
$ELEVATION
 40
0.0
  9
$PELEVATION
 40
0.0
  9
$THICKNESS
 40
0.0
  9
$LIMCHECK
 70
     0
  9
$CHAMFERA
 40
0.5
  9
$CHAMFERB
 40
0.5
  9
$CHAMFERC
 40
0.0
  9
$CHAMFERD
 40
0.0
  9
$SKPOLY
 70
     0
  9
$TDCREATE
 40
2450684.649746875
  9
$TDUCREATE
 40
2450684.274746875
  9
$TDUPDATE
 40
2455379.448908600
  9
$TDUUPDATE
 40
2455379.073908600
  9
$TDINDWG
 40
1.5461817245
  9
$TDUSRTIMER
 40
1.5461817245
  9
$USRTIMER
 70
     1
  9
$ANGBASE
 50
0.0
  9
$ANGDIR
 70
     0
  9
$PDMODE
 70
     0
  9
$PDSIZE
 40
0.0
  9
$PLINEWID
 40
0.0
  9
$SPLFRAME
 70
     0
  9
$SPLINETYPE
 70
     6
  9
$SPLINESEGS
 70
     8
  9
$HANDSEED
  5
30B4
  9
$SURFTAB1
 70
     6
  9
$SURFTAB2
 70
     6
  9
$SURFTYPE
 70
     6
  9
$SURFU
 70
     6
  9
$SURFV
 70
     6
  9
$UCSBASE
  2

  9
$UCSNAME
  2

  9
$UCSORG
 10
0.0
 20
0.0
 30
0.0
  9
$UCSXDIR
 10
1.0
 20
0.0
 30
0.0
  9
$UCSYDIR
 10
0.0
 20
1.0
 30
0.0
  9
$UCSORTHOREF
  2

  9
$UCSORTHOVIEW
 70
     0
  9
$UCSORGTOP
 10
0.0
 20
0.0
 30
0.0
  9
$UCSORGBOTTOM
 10
0.0
 20
0.0
 30
0.0
  9
$UCSORGLEFT
 10
0.0
 20
0.0
 30
0.0
  9
$UCSORGRIGHT
 10
0.0
 20
0.0
 30
0.0
  9
$UCSORGFRONT
 10
0.0
 20
0.0
 30
0.0
  9
$UCSORGBACK
 10
0.0
 20
0.0
 30
0.0
  9
$PUCSBASE
  2

  9
$PUCSNAME
  2

  9
$PUCSORG
 10
0.0
 20
0.0
 30
0.0
  9
$PUCSXDIR
 10
1.0
 20
0.0
 30
0.0
  9
$PUCSYDIR
 10
0.0
 20
1.0
 30
0.0
  9
$PUCSORTHOREF
  2

  9
$PUCSORTHOVIEW
 70
     0
  9
$PUCSORGTOP
 10
0.0
 20
0.0
 30
0.0
  9
$PUCSORGBOTTOM
 10
0.0
 20
0.0
 30
0.0
  9
$PUCSORGLEFT
 10
0.0
 20
0.0
 30
0.0
  9
$PUCSORGRIGHT
 10
0.0
 20
0.0
 30
0.0
  9
$PUCSORGFRONT
 10
0.0
 20
0.0
 30
0.0
  9
$PUCSORGBACK
 10
0.0
 20
0.0
 30
0.0
  9
$USERI1
 70
     0
  9
$USERI2
 70
     0
  9
$USERI3
 70
     0
  9
$USERI4
 70
     0
  9
$USERI5
 70
     0
  9
$USERR1
 40
0.0
  9
$USERR2
 40
0.0
  9
$USERR3
 40
0.0
  9
$USERR4
 40
0.0
  9
$USERR5
 40
0.0
  9
$WORLDVIEW
 70
     1
  9
$SHADEDGE
 70
     3
  9
$SHADEDIF
 70
    70
  9
$TILEMODE
 70
     1
  9
$MAXACTVP
 70
    48
  9
$PINSBASE
 10
0.0
 20
0.0
 30
0.0
  9
$PLIMCHECK
 70
     0
  9
$PEXTMIN
 10
-0.0004730716108642
 20
-0.0002746372486859
 30
-0.0015258207003612
  9
$PEXTMAX
 10
15.50326643989076
 20
9.000274679158204
 30
0.0000000349246008
  9
$PLIMMIN
 10
0.0
 20
0.0
  9
$PLIMMAX
 10
12.0
 20
9.0
  9
$UNITMODE
 70
     0
  9
$VISRETAIN
 70
     1
  9
$PLINEGEN
 70
     0
  9
$PSLTSCALE
 70
     1
  9
$TREEDEPTH
 70
  3020
  9
$CMLSTYLE
  2
STANDARD
  9
$CMLJUST
 70
     0
  9
$CMLSCALE
 40
1.0
  9
$PROXYGRAPHICS
 70
     1
  9
$MEASUREMENT
 70
     0
  9
$CELWEIGHT
370
    -1
  9
$ENDCAPS
280
     0
  9
$JOINSTYLE
280
     0
  9
$LWDISPLAY
290
     0
  9
$INSUNITS
 70
     0
  9
$HYPERLINKBASE
  1

  9
$STYLESHEET
  1
AutoCAD LT 98.ctb
  9
$XEDIT
290
     1
  9
$CEPSNTYPE
380
     0
  9
$PSTYLEMODE
290
     1
  9
$FINGERPRINTGUID
  2
{16470DDC-E663-45EB-96F3-75046798FD1A}
  9
$VERSIONGUID
  2
{AF55F09D-E20A-486A-B4A7-5FA6930BE01B}
  9
$EXTNAMES
290
     1
  9
$PSVPSCALE
 40
0.0
  9
$OLESTARTUP
290
     0
  9
$SORTENTS
280
   127
  9
$INDEXCTL
280
     0
  9
$HIDETEXT
280
     0
  9
$XCLIPFRAME
290
     0
  9
$HALOGAP
280
     0
  9
$OBSCOLOR
 70
   257
  9
$OBSLTYPE
280
     0
  9
$INTERSECTIONDISPLAY
280
     0
  9
$INTERSECTIONCOLOR
 70
   257
  9
$DIMASSOC
280
     1
  9
$PROJECTNAME
  1

  0
ENDSEC
  0
SECTION
  2
CLASSES
  0
CLASS
  1
DICTIONARYVAR
  2
AcDbDictionaryVar
  3
ObjectDBX Classes
 90
        0
 91
        2
280
     0
281
     0
  0
CLASS
  1
HATCH
  2
AcDbHatch
  3
ObjectDBX Classes
 90
        0
 91
       12
280
     0
281
     1
  0
CLASS
  1
LWPOLYLINE
  2
AcDbPolyline
  3
ObjectDBX Classes
 90
        0
 91
        1
280
     0
281
     1
  0
CLASS
  1
IMAGEDEF
  2
AcDbRasterImageDef
  3
ISM
 90
        0
 91
        1
280
     0
281
     0
  0
CLASS
  1
ACDBDICTIONARYWDFLT
  2
AcDbDictionaryWithDefault
  3
ObjectDBX Classes
 90
        0
 91
        1
280
     0
281
     0
  0
CLASS
  1
TABLESTYLE
  2
AcDbTableStyle
  3
ObjectDBX Classes
 90
     2047
 91
        1
280
     0
281
     0
  0
CLASS
  1
SORTENTSTABLE
  2
AcDbSortentsTable
  3
ObjectDBX Classes
 90
        0
 91
        1
280
     0
281
     0
  0
ENDSEC
  0
SECTION
  2
TABLES
  0
TABLE
  2
VPORT
  5
8
330
0
100
AcDbSymbolTable
 70
     2
  0
VPORT
  5
30B3
330
8
100
AcDbSymbolTableRecord
100
AcDbViewportTableRecord
  2
*Active
 70
     0
 10
0.0
 20
0.0
 11
1.0
 21
1.0
 12
132.5012289425372
 22
100.0000004656612
 13
0.0
 23
0.0
 14
1.0
 24
1.0
 15
0.0
 25
0.0
 16
0.0
 26
0.0
 36
1.0
 17
0.0
 27
0.0
 37
0.0
 40
196.8900151071921
 41
1.530456852791878
 42
50.0
 43
0.0
 44
0.0
 50
0.0
 51
0.0
 71
     0
 72
   100
 73
     1
 74
     1
 75
     0
 76
     0
 77
     0
 78
     0
281
     0
 65
     1
110
0.0
120
0.0
130
0.0
111
1.0
121
0.0
131
0.0
112
0.0
122
1.0
132
0.0
 79
     0
146
0.0
  0
ENDTAB
  0
TABLE
  2
LTYPE
  5
5
330
0
100
AcDbSymbolTable
 70
    14
  0
LTYPE
  5
12
330
5
100
AcDbSymbolTableRecord
100
AcDbLinetypeTableRecord
  2
BYBLOCK
 70
     0
  3

 72
    65
 73
     0
 40
0.0
  0
LTYPE
  5
13
330
5
100
AcDbSymbolTableRecord
100
AcDbLinetypeTableRecord
  2
BYLAYER
 70
     0
  3

 72
    65
 73
     0
 40
0.0
  0
LTYPE
  5
14
330
5
100
AcDbSymbolTableRecord
100
AcDbLinetypeTableRecord
  2
CONTINUOUS
 70
     0
  3
実線
 72
    65
 73
     0
 40
0.0
  0
LTYPE
  5
22
330
5
100
AcDbSymbolTableRecord
100
AcDbLinetypeTableRecord
  2
CENTER
 70
     0
  3
____ _ ____ _ ____ _ ____ _ ____ _ ____ _ ____
 72
    65
 73
     4
 40
2.0
 49
1.25
 74
     0
 49
-0.25
 74
     0
 49
0.25
 74
     0
 49
-0.25
 74
     0
  0
LTYPE
  5
1E5
330
5
100
AcDbSymbolTableRecord
100
AcDbLinetypeTableRecord
  2
CENTER2
 70
     0
  3
Center (.5x) ___ _ ___ _ ___ _ ___ _ ___ _ ___
 72
    65
 73
     4
 40
1.125
 49
0.75
 74
     0
 49
-0.125
 74
     0
 49
0.125
 74
     0
 49
-0.125
 74
     0
  0
LTYPE
  5
F97
330
5
100
AcDbSymbolTableRecord
100
AcDbLinetypeTableRecord
  2
PHANTOM2
 70
     0
  3
Phantom (.5x) ___ _ _ ___ _ _ ___ _ _ ___ _ _
 72
    65
 73
     6
 40
31.75
 49
15.875
 74
     0
 49
-3.174999999999999
 74
     0
 49
3.174999999999999
 74
     0
 49
-3.174999999999999
 74
     0
 49
3.174999999999999
 74
     0
 49
-3.174999999999999
 74
     0
  0
ENDTAB
  0
TABLE
  2
LAYER
  5
2
102
{ACAD_XDICTIONARY
360
2780
102
}
330
0
100
AcDbSymbolTable
 70
    21
  0
LAYER
  5
E
330
2
100
AcDbSymbolTableRecord
100
AcDbLayerTableRecord
  2
0
 70
     0
 62
     7
  6
CONTINUOUS
370
    -3
390
2730
  0
LAYER
  5
29
330
2
100
AcDbSymbolTableRecord
100
AcDbLayerTableRecord
  2
C
 70
     0
 62
     7
  6
CONTINUOUS
370
    -3
390
2730
  0
LAYER
  5
98
330
2
100
AcDbSymbolTableRecord
100
AcDbLayerTableRecord
  2
文字
 70
     0
 62
     6
  6
CONTINUOUS
370
    -3
390
2730
  0
LAYER
  5
30B
330
2
100
AcDbSymbolTableRecord
100
AcDbLayerTableRecord
  2
DEFPOINTS
 70
     0
 62
     7
  6
CONTINUOUS
290
     0
370
    -3
390
2730
  0
LAYER
  5
F9A
330
2
100
AcDbSymbolTableRecord
100
AcDbLayerTableRecord
  2
外形線
 70
     0
 62
     7
  6
CONTINUOUS
370
    -3
390
2730
  0
LAYER
  5
F9B
330
2
100
AcDbSymbolTableRecord
100
AcDbLayerTableRecord
  2
寸法線
 70
     0
 62
     2
  6
CONTINUOUS
370
    -3
390
2730
  0
LAYER
  5
F9C
330
2
100
AcDbSymbolTableRecord
100
AcDbLayerTableRecord
  2
中心線
 70
     0
 62
     4
  6
CENTER2
370
    -3
390
2730
  0
LAYER
  5
F9E
330
2
100
AcDbSymbolTableRecord
100
AcDbLayerTableRecord
  2
想像線
 70
     0
 62
     1
  6
PHANTOM2
370
    -3
390
2730
  0
LAYER
  5
F9F
330
2
100
AcDbSymbolTableRecord
100
AcDbLayerTableRecord
  2
ﾊｯﾁﾝｸ
 70
     0
 62
     6
  6
CONTINUOUS
370
    -3
390
2730
  0
LAYER
  5
FA1
330
2
100
AcDbSymbolTableRecord
100
AcDbLayerTableRecord
  2
ROGO
 70
     0
 62
     6
  6
CONTINUOUS
370
    -3
390
2730
  0
ENDTAB
  0
TABLE
  2
STYLE
  5
3
330
0
100
AcDbSymbolTable
 70
     7
  0
STYLE
  5
F
330
3
100
AcDbSymbolTableRecord
100
AcDbTextStyleTableRecord
  2
STANDARD
 70
     0
 40
0.0
 41
0.5
 50
0.0
 71
     0
 42
0.3
  3
txt
  4

  0
STYLE
  5
FA6
330
3
100
AcDbSymbolTableRecord
100
AcDbTextStyleTableRecord
  2
STYLE3
 70
     0
 40
0.0
 41
1.0
 50
0.0
 71
     0
 42
2.5
  3
romans.shx
  4
bigfont.shx
  0
STYLE
  5
1F3C
330
3
100
AcDbSymbolTableRecord
100
AcDbTextStyleTableRecord
  2
STYLE4
 70
     0
 40
0.0
 41
1.0
 50
0.0
 71
     0
 42
5.0
  3
romans.shx
  4
bigfont.shx
  0
ENDTAB
  0
TABLE
  2
VIEW
  5
6
330
0
100
AcDbSymbolTable
 70
     0
  0
ENDTAB
  0
TABLE
  2
UCS
  5
7
330
0
100
AcDbSymbolTable
 70
     0
  0
ENDTAB
  0
TABLE
  2
APPID
  5
9
330
0
100
AcDbSymbolTable
 70
     2
  0
APPID
  5
10
330
9
100
AcDbSymbolTableRecord
100
AcDbRegAppTableRecord
  2
ACAD
 70
     0
  0
APPID
  5
2CB0
330
9
100
AcDbSymbolTableRecord
100
AcDbRegAppTableRecord
  2
ACAD_PSEXT
 70
     0
  0
ENDTAB
  0
TABLE
  2
DIMSTYLE
  5
A
330
0
100
AcDbSymbolTable
 70
    15
100
AcDbDimStyleTable
 71
     1
340
FA9
  0
DIMSTYLE
105
4F
330
A
100
AcDbSymbolTableRecord
100
AcDbDimStyleTableRecord
  2
STANDARD
 70
     0
 40
0.0
 41
1.0
 73
     0
 74
     0
 77
     1
140
1.0
173
     1
271
     0
340
F
341
31F
343
31F
344
31F
  0
DIMSTYLE
105
FA9
102
{ACAD_REACTORS
330
25CB
330
2605
330
264B
330
2623
330
2CB6
102
}
330
A
100
AcDbSymbolTableRecord
100
AcDbDimStyleTableRecord
  2
STYLE3
 70
     0
 41
2.5
 42
0.0
 43
3.75
 44
1.25
 73
     0
 74
     0
 77
     1
 78
     8
140
2.5
141
2.5
143
0.0394
147
0.625
171
     4
172
     1
173
     1
176
     2
177
     2
178
     6
271
     1
273
     8
274
     4
340
FA6
341
31F
343
31F
344
31F
  0
ENDTAB
  0
TABLE
  2
BLOCK_RECORD
  5
1
330
0
100
AcDbSymbolTable
 70
    15
  0
BLOCK_RECORD
  5
18
102
{ACAD_XDICTIONARY
360
2CCD
102
}
330
1
100
AcDbSymbolTableRecord
100
AcDbBlockTableRecord
  2
*MODEL_SPACE
340
2737
  0
BLOCK_RECORD
  5
15
330
1
100
AcDbSymbolTableRecord
100
AcDbBlockTableRecord
  2
*PAPER_SPACE
340
2738
  0
BLOCK_RECORD
  5
31F
330
1
100
AcDbSymbolTableRecord
100
AcDbBlockTableRecord
  2
_OPEN
340
0
102
{BLKREFS
331
18E9
331
18EA
331
18F5
331
18FD
331
18FE
331
1906
331
1907
331
2659
331
3006
331
3007
331
300F
331
3010
331
3017
331
3018
331
301F
331
3020
331
3028
331
3029
331
3080
331
3081
331
3089
331
308A
331
3091
331
3092
331
3099
331
309A
331
30A2
331
30A3
102
}
  0
BLOCK_RECORD
  5
25BF
330
1
100
AcDbSymbolTableRecord
100
AcDbBlockTableRecord
  2
*D2
340
0
  0
BLOCK_RECORD
  5
25FA
330
1
100
AcDbSymbolTableRecord
100
AcDbBlockTableRecord
  2
*D3
340
0
  0
BLOCK_RECORD
  5
2624
330
1
100
AcDbSymbolTableRecord
100
AcDbBlockTableRecord
  2
*D4
340
0
  0
BLOCK_RECORD
  5
263F
330
1
100
AcDbSymbolTableRecord
100
AcDbBlockTableRecord
  2
*D5
340
0
  0
BLOCK_RECORD
  5
2CB7
330
1
100
AcDbSymbolTableRecord
100
AcDbBlockTableRecord
  2
*D7
340
0
  0
ENDTAB
  0
ENDSEC
  0
SECTION
  2
BLOCKS
  0
BLOCK
  5
19
330
18
100
AcDbEntity
  8
0
100
AcDbBlockBegin
  2
*MODEL_SPACE
 70
     0
 10
0.0
 20
0.0
 30
0.0
  3
*MODEL_SPACE
  1

  0
ENDBLK
  5
1A
330
18
100
AcDbEntity
  8
0
100
AcDbBlockEnd
  0
BLOCK
  5
16
330
15
100
AcDbEntity
 67
     1
  8
0
100
AcDbBlockBegin
  2
*PAPER_SPACE
 70
     0
 10
0.0
 20
0.0
 30
0.0
  3
*PAPER_SPACE
  1

  0
ENDBLK
  5
17
330
15
100
AcDbEntity
 67
     1
  8
0
100
AcDbBlockEnd
  0
BLOCK
  5
320
330
31F
100
AcDbEntity
  8
0
100
AcDbBlockBegin
  2
_OPEN
 70
     0
 10
0.0
 20
0.0
 30
0.0
  3
_OPEN
  1

  0
LINE
  5
321
330
31F
100
AcDbEntity
  8
0
  6
ByBlock
 62
     0
100
AcDbLine
 10
-1.0
 20
0.1666666666666666
 30
0.0
 11
0.0
 21
0.0
 31
0.0
  0
LINE
  5
322
330
31F
100
AcDbEntity
  8
0
  6
ByBlock
 62
     0
100
AcDbLine
 10
0.0
 20
0.0
 30
0.0
 11
-1.0
 21
-0.1666666666666666
 31
0.0
  0
LINE
  5
323
330
31F
100
AcDbEntity
  8
0
  6
ByBlock
 62
     0
100
AcDbLine
 10
0.0
 20
0.0
 30
0.0
 11
-1.0
 21
0.0
 31
0.0
  0
ENDBLK
  5
324
330
31F
100
AcDbEntity
  8
0
100
AcDbBlockEnd
  0
BLOCK
  5
25C0
330
25BF
100
AcDbEntity
  8
0
100
AcDbBlockBegin
  2
*D2
 70
     1
 10
0.0
 20
0.0
 30
0.0
  3
*D2
  1

  0
LINE
  5
309F
330
25BF
100
AcDbEntity
  8
寸法線
  6
Continuous
 62
     2
370
    -2
100
AcDbLine
 10
56.50998138182797
 20
70.66246329314459
 30
0.0
 11
40.07584950694547
 21
70.66246329314459
 31
0.0
  0
LINE
  5
30A0
330
25BF
100
AcDbEntity
  8
寸法線
  6
Continuous
 62
     2
370
    -2
100
AcDbLine
 10
56.50998138182797
 20
60.66246460908769
 30
0.0
 11
40.07584950694547
 21
60.6624646090877
 31
0.0
  0
LINE
  5
30A1
330
25BF
100
AcDbEntity
  8
寸法線
  6
Continuous
 62
     2
370
    -2
100
AcDbLine
 10
41.32584950694547
 20
68.16246329314459
 30
0.0
 11
41.32584950694547
 21
63.1624646090877
 31
0.0
  0
INSERT
  5
30A2
330
25BF
100
AcDbEntity
  8
寸法線
  6
Continuous
 62
     2
370
    -2
100
AcDbBlockReference
  2
_OPEN
 10
41.32584950694547
 20
70.66246329314459
 30
0.0
 41
2.5
 42
2.5
 43
2.5
 50
90.0
  0
INSERT
  5
30A3
330
25BF
100
AcDbEntity
  8
寸法線
  6
Continuous
 62
     2
370
    -2
100
AcDbBlockReference
  2
_OPEN
 10
41.32584950694547
 20
60.6624646090877
 30
0.0
 41
2.5
 42
2.5
 43
2.5
 50
270.0
  0
MTEXT
  5
30A4
330
25BF
100
AcDbEntity
  8
寸法線
  6
Continuous
 62
     6
100
AcDbMText
 10
39.45084950694547
 20
65.66246395111616
 30
0.0
 40
2.5
 41
0.0
 71
     5
 72
     1
  1
\A1;10
  7
STYLE3
 11
0.0000000000000001
 21
1.0
 31
0.0
 73
     1
 44
1.0
  0
POINT
  5
30A5
330
25BF
100
AcDbEntity
  8
DEFPOINTS
  6
Continuous
 62
     0
100
AcDbPoint
 10
56.50998138182797
 20
70.66246329314459
 30
0.0
  0
POINT
  5
30A6
330
25BF
100
AcDbEntity
  8
DEFPOINTS
  6
Continuous
 62
     0
100
AcDbPoint
 10
56.50998138182797
 20
60.66246460908769
 30
0.0
  0
POINT
  5
30A7
330
25BF
100
AcDbEntity
  8
DEFPOINTS
  6
Continuous
 62
     0
100
AcDbPoint
 10
41.32584950694547
 20
60.6624646090877
 30
0.0
  0
ENDBLK
  5
25CA
330
25BF
100
AcDbEntity
  8
0
100
AcDbBlockEnd
  0
BLOCK
  5
25FB
330
25FA
100
AcDbEntity
  8
0
100
AcDbBlockBegin
  2
*D3
 70
     1
 10
0.0
 20
0.0
 30
0.0
  3
*D3
  1

  0
LINE
  5
3097
330
25FA
100
AcDbEntity
  8
寸法線
  6
Continuous
 62
     2
370
    -2
100
AcDbLine
 10
56.50998138182798
 20
50.6624646090877
 30
0.0
 11
40.07584950694547
 21
50.66246460908771
 31
0.0
  0
LINE
  5
3098
330
25FA
100
AcDbEntity
  8
寸法線
  6
Continuous
 62
     2
370
    -2
100
AcDbLine
 10
41.32584950694547
 20
58.1624646090877
 30
0.0
 11
41.32584950694547
 21
53.16246460908771
 31
0.0
  0
INSERT
  5
3099
330
25FA
100
AcDbEntity
  8
寸法線
  6
Continuous
 62
     2
370
    -2
100
AcDbBlockReference
  2
_OPEN
 10
41.32584950694547
 20
60.6624646090877
 30
0.0
 41
2.5
 42
2.5
 43
2.5
 50
90.0
  0
INSERT
  5
309A
330
25FA
100
AcDbEntity
  8
寸法線
  6
Continuous
 62
     2
370
    -2
100
AcDbBlockReference
  2
_OPEN
 10
41.32584950694547
 20
50.66246460908771
 30
0.0
 41
2.5
 42
2.5
 43
2.5
 50
270.0
  0
MTEXT
  5
309B
330
25FA
100
AcDbEntity
  8
寸法線
  6
Continuous
 62
     6
100
AcDbMText
 10
39.45084950694546
 20
55.66246460908771
 30
0.0
 40
2.5
 41
0.0
 71
     5
 72
     1
  1
\A1;10
  7
STYLE3
 11
0.0000000000000001
 21
1.0
 31
0.0
 73
     1
 44
1.0
  0
POINT
  5
309C
330
25FA
100
AcDbEntity
  8
DEFPOINTS
  6
Continuous
 62
     0
100
AcDbPoint
 10
56.50998138182797
 20
60.66246460908769
 30
0.0
  0
POINT
  5
309D
330
25FA
100
AcDbEntity
  8
DEFPOINTS
  6
Continuous
 62
     0
100
AcDbPoint
 10
56.50998138182798
 20
50.6624646090877
 30
0.0
  0
POINT
  5
309E
330
25FA
100
AcDbEntity
  8
DEFPOINTS
  6
Continuous
 62
     0
100
AcDbPoint
 10
41.32584950694547
 20
50.66246460908771
 30
0.0
  0
ENDBLK
  5
2604
330
25FA
100
AcDbEntity
  8
0
100
AcDbBlockEnd
  0
BLOCK
  5
26A8
330
2624
100
AcDbEntity
  8
0
100
AcDbBlockBegin
  2
*D4
 70
     1
 10
0.0
 20
0.0
 30
0.0
  3
*D4
  1

  0
LINE
  5
308F
330
2624
100
AcDbEntity
  8
寸法線
  6
Continuous
 62
     2
370
    -2
100
AcDbLine
 10
56.50998138182798
 20
85.66246329314457
 30
0.0
 11
40.07584950694547
 21
85.66246329314457
 31
0.0
  0
LINE
  5
3090
330
2624
100
AcDbEntity
  8
寸法線
  6
Continuous
 62
     2
370
    -2
100
AcDbLine
 10
41.32584950694546
 20
73.16246329314458
 30
0.0
 11
41.32584950694547
 21
83.16246329314457
 31
0.0
  0
INSERT
  5
3091
330
2624
100
AcDbEntity
  8
寸法線
  6
Continuous
 62
     2
370
    -2
100
AcDbBlockReference
  2
_OPEN
 10
41.32584950694546
 20
70.66246329314458
 30
0.0
 41
2.5
 42
2.5
 43
2.5
 50
270.0
  0
INSERT
  5
3092
330
2624
100
AcDbEntity
  8
寸法線
  6
Continuous
 62
     2
370
    -2
100
AcDbBlockReference
  2
_OPEN
 10
41.32584950694547
 20
85.66246329314457
 30
0.0
 41
2.5
 42
2.5
 43
2.5
 50
90.0
  0
MTEXT
  5
3093
330
2624
100
AcDbEntity
  8
寸法線
  6
Continuous
 62
     6
100
AcDbMText
 10
39.45084950694546
 20
78.16246329314459
 30
0.0
 40
2.5
 41
0.0
 71
     5
 72
     1
  1
\A1;15
  7
STYLE3
 11
0.0000000000000001
 21
1.0
 31
0.0
 73
     1
 44
1.0
  0
POINT
  5
3094
330
2624
100
AcDbEntity
  8
DEFPOINTS
  6
Continuous
 62
     0
100
AcDbPoint
 10
56.50998138182797
 20
70.66246329314458
 30
0.0
  0
POINT
  5
3095
330
2624
100
AcDbEntity
  8
DEFPOINTS
  6
Continuous
 62
     0
100
AcDbPoint
 10
56.50998138182798
 20
85.66246329314457
 30
0.0
  0
POINT
  5
3096
330
2624
100
AcDbEntity
  8
DEFPOINTS
  6
Continuous
 62
     0
100
AcDbPoint
 10
41.32584950694547
 20
85.66246329314457
 30
0.0
  0
ENDBLK
  5
26B1
330
2624
100
AcDbEntity
  8
0
100
AcDbBlockEnd
  0
BLOCK
  5
269D
330
263F
100
AcDbEntity
  8
0
100
AcDbBlockBegin
  2
*D5
 70
     1
 10
0.0
 20
0.0
 30
0.0
  3
*D5
  1

  0
LINE
  5
3086
330
263F
100
AcDbEntity
  8
寸法線
  6
Continuous
 62
     2
370
    -2
100
AcDbLine
 10
40.07584950694547
 20
85.66246329314457
 30
0.0
 11
33.40789920923442
 21
85.66246329314457
 31
0.0
  0
LINE
  5
3087
330
263F
100
AcDbEntity
  8
寸法線
  6
Continuous
 62
     2
370
    -2
100
AcDbLine
 10
40.07584950694547
 20
50.6624646090877
 30
0.0
 11
33.40789920923441
 21
50.6624646090877
 31
0.0
  0
LINE
  5
3088
330
263F
100
AcDbEntity
  8
寸法線
  6
Continuous
 62
     2
370
    -2
100
AcDbLine
 10
34.65789920923442
 20
83.16246329314457
 30
0.0
 11
34.65789920923441
 21
53.1624646090877
 31
0.0
  0
INSERT
  5
3089
330
263F
100
AcDbEntity
  8
寸法線
  6
Continuous
 62
     2
370
    -2
100
AcDbBlockReference
  2
_OPEN
 10
34.65789920923442
 20
85.66246329314457
 30
0.0
 41
2.5
 42
2.5
 43
2.5
 50
90.0
  0
INSERT
  5
308A
330
263F
100
AcDbEntity
  8
寸法線
  6
Continuous
 62
     2
370
    -2
100
AcDbBlockReference
  2
_OPEN
 10
34.65789920923441
 20
50.6624646090877
 30
0.0
 41
2.5
 42
2.5
 43
2.5
 50
270.0
  0
MTEXT
  5
308B
330
263F
100
AcDbEntity
  8
寸法線
  6
Continuous
 62
     6
100
AcDbMText
 10
32.78289920923441
 20
68.16246395111615
 30
0.0
 40
2.5
 41
0.0
 71
     5
 72
     1
  1
\A1;35
  7
STYLE3
 11
0.0000000000000001
 21
1.0
 31
0.0
 73
     1
 44
1.0
  0
POINT
  5
308C
330
263F
100
AcDbEntity
  8
DEFPOINTS
  6
Continuous
 62
     0
100
AcDbPoint
 10
40.07584950694547
 20
85.66246329314457
 30
0.0
  0
POINT
  5
308D
330
263F
100
AcDbEntity
  8
DEFPOINTS
  6
Continuous
 62
     0
100
AcDbPoint
 10
40.07584950694547
 20
50.6624646090877
 30
0.0
  0
POINT
  5
308E
330
263F
100
AcDbEntity
  8
DEFPOINTS
  6
Continuous
 62
     0
100
AcDbPoint
 10
34.65789920923441
 20
50.6624646090877
 30
0.0
  0
ENDBLK
  5
26A7
330
263F
100
AcDbEntity
  8
0
100
AcDbBlockEnd
  0
BLOCK
  5
2CC1
330
2CB7
100
AcDbEntity
  8
0
100
AcDbBlockBegin
  2
*D7
 70
     1
 10
0.0
 20
0.0
 30
0.0
  3
*D7
  1

  0
LINE
  5
307D
330
2CB7
100
AcDbEntity
  8
外形線
  6
Continuous
 62
     2
370
    -2
100
AcDbLine
 10
118.0099813818279
 20
147.8929796165348
 30
0.0
 11
133.6529468677573
 21
147.8929796165348
 31
0.0
  0
LINE
  5
307E
330
2CB7
100
AcDbEntity
  8
外形線
  6
Continuous
 62
     2
370
    -2
100
AcDbLine
 10
118.0099813818279
 20
87.89297961653506
 30
0.0
 11
133.6529468677573
 21
87.89297961653506
 31
0.0
  0
LINE
  5
307F
330
2CB7
100
AcDbEntity
  8
外形線
  6
Continuous
 62
     2
370
    -2
100
AcDbLine
 10
132.4029468677573
 20
145.3929796165348
 30
0.0
 11
132.4029468677573
 21
90.39297961653506
 31
0.0
  0
INSERT
  5
3080
330
2CB7
100
AcDbEntity
  8
外形線
  6
Continuous
 62
     2
370
    -2
100
AcDbBlockReference
  2
_OPEN
 10
132.4029468677573
 20
147.8929796165348
 30
0.0
 41
2.5
 42
2.5
 43
2.5
 50
90.0
  0
INSERT
  5
3081
330
2CB7
100
AcDbEntity
  8
外形線
  6
Continuous
 62
     2
370
    -2
100
AcDbBlockReference
  2
_OPEN
 10
132.4029468677573
 20
87.89297961653506
 30
0.0
 41
2.5
 42
2.5
 43
2.5
 50
270.0
  0
MTEXT
  5
3082
330
2CB7
100
AcDbEntity
  8
外形線
  6
Continuous
 62
     6
100
AcDbMText
 10
130.5279468677573
 20
117.8929796165349
 30
0.0
 40
2.5
 41
0.0
 71
     5
 72
     1
  1
\A1;%%C60
  7
STYLE3
 11
0.0000000000000001
 21
1.0
 31
0.0
 73
     1
 44
1.0
  0
POINT
  5
3083
330
2CB7
100
AcDbEntity
  8
DEFPOINTS
  6
Continuous
 62
     0
100
AcDbPoint
 10
118.0099813818279
 20
147.8929796165348
 30
0.0
  0
POINT
  5
3084
330
2CB7
100
AcDbEntity
  8
DEFPOINTS
  6
Continuous
 62
     0
100
AcDbPoint
 10
118.0099813818279
 20
87.89297961653506
 30
0.0
  0
POINT
  5
3085
330
2CB7
100
AcDbEntity
  8
DEFPOINTS
  6
Continuous
 62
     0
100
AcDbPoint
 10
132.4029468677573
 20
87.89297961653506
 30
0.0
  0
ENDBLK
  5
2CC2
330
2CB7
100
AcDbEntity
  8
0
100
AcDbBlockEnd
  0
ENDSEC
  0
SECTION
  2
ENTITIES
  0
LWPOLYLINE
  5
2B
330
18
100
AcDbEntity
  8
C
100
AcDbPolyline
 90
        5
 70
     0
 43
0.4
 10
5.0
 20
197.5
 10
260.0
 20
197.5
 10
260.0
 20
2.5
 10
5.0
 20
2.5
 10
5.0
 20
197.5
  0
LINE
  5
9C
330
18
100
AcDbEntity
  8
中心線
  6
CENTER
 48
1.5
100
AcDbLine
 10
189.4214504933596
 20
172.7352641051275
 30
0.0
 11
189.4214504933596
 21
44.75079351389479
 31
0.0
  0
MTEXT
  5
67B
330
18
100
AcDbEntity
  8
DEFPOINTS
  6
Continuous
100
AcDbMText
 10
231.8407190049324
 20
60.35204603792013
 30
0.0
 40
1.0
 41
0.0
 71
     4
 72
     1
  1
\A1;
 73
     1
 44
1.0
  0
LINE
  5
11E7
330
18
100
AcDbEntity
  8
外形線
  6
Continuous
100
AcDbLine
 10
87.00998138182788
 20
142.6929796165349
 30
0.0
 11
87.00998138182788
 21
93.0929796165349
 31
0.0
  0
LINE
  5
11E9
330
18
100
AcDbEntity
  8
中心線
  6
CENTER
 48
1.5
100
AcDbLine
 10
96.50998138182798
 20
173.5316896337622
 30
0.0
 11
96.50998138182798
 21
39.69627007662518
 31
0.0
  0
LINE
  5
1203
330
18
100
AcDbEntity
  8
中心線
  6
CENTER
 48
1.5
100
AcDbLine
 10
76.32314860828128
 20
117.8929796165349
 30
0.0
 11
124.1965154871259
 21
117.8929796165349
 31
0.0
  0
LINE
  5
1569
330
18
100
AcDbEntity
  8
外形線
100
AcDbLine
 10
98.50998138182788
 20
65.89297961653492
 30
0.0
 11
98.50998138182788
 21
55.16246329314458
 31
0.0
  0
LINE
  5
156A
330
18
100
AcDbEntity
  8
外形線
100
AcDbLine
 10
94.50998138182802
 20
65.89297961653492
 30
0.0
 11
94.50998138182823
 21
55.16246329314458
 31
0.0
  0
MTEXT
  5
15B9
330
18
100
AcDbEntity
  8
DEFPOINTS
  6
Continuous
100
AcDbMText
 10
862.5352306253843
 20
30.19856026379282
 30
0.0
 40
1.0
 41
0.0
 71
     4
 72
     1
  1
\A1;
 73
     1
 44
1.0
  0
LINE
  5
15C8
330
18
100
AcDbEntity
  8
外形線
100
AcDbLine
 10
191.4214504933595
 20
65.89297961653489
 30
0.0
 11
191.4214504933595
 21
55.16246329314459
 31
0.0
  0
LINE
  5
15C9
330
18
100
AcDbEntity
  8
外形線
100
AcDbLine
 10
187.4214504933596
 20
65.89297961653489
 30
0.0
 11
187.4214504933596
 21
55.16246329314459
 31
0.0
  0
MTEXT
  5
1616
330
18
100
AcDbEntity
  8
文字
100
AcDbMText
 10
429.6744401833837
 20
56.27654250202692
 30
0.0
 40
1.0
 41
6.927999999999999
 71
     1
 72
     5
  1

  7
STYLE3
 73
     1
 44
1.0
  0
MTEXT
  5
1693
330
18
100
AcDbEntity
  8
DEFPOINTS
  6
Continuous
100
AcDbMText
 10
751.4102498385252
 20
-20.47590621052223
 30
0.0
 40
0.35
 41
0.0
 71
     4
 72
     1
  1
\A1;
 73
     1
 44
1.0
  0
LINE
  5
17AD
330
18
100
AcDbEntity
  8
想像線
 62
     1
 48
0.1
100
AcDbLine
 10
55.25998138182789
 20
65.16246329314462
 30
0.0
 11
99.50998138182786
 21
65.16246329314459
 31
0.0
  0
LINE
  5
17AE
330
18
100
AcDbEntity
  8
外形線
100
AcDbLine
 10
186.4214504933597
 20
55.16246329314459
 30
0.0
 11
192.4214504933596
 21
55.16246329314459
 31
0.0
  0
LINE
  5
17AF
330
18
100
AcDbEntity
  8
外形線
100
AcDbLine
 10
186.4214504933597
 20
50.16246329314459
 30
0.0
 11
192.4214504933596
 21
50.16246329314459
 31
0.0
  0
LINE
  5
17B0
330
18
100
AcDbEntity
  8
想像線
 62
     1
 48
0.1
100
AcDbLine
 10
86.70998138182786
 20
60.16246329314459
 30
0.0
 11
99.50998138182786
 21
60.16246329314459
 31
0.0
  0
LINE
  5
17B1
330
18
100
AcDbEntity
  8
想像線
 62
     1
 48
0.1
100
AcDbLine
 10
99.50998138182789
 20
65.16246329314459
 30
0.0
 11
99.50998138182786
 21
60.16246329314459
 31
0.0
  0
LINE
  5
17B2
330
18
100
AcDbEntity
  8
外形線
100
AcDbLine
 10
192.4214504933596
 20
55.16246329314459
 30
0.0
 11
192.4214504933596
 21
50.16246329314459
 31
0.0
  0
LINE
  5
17B3
330
18
100
AcDbEntity
  8
外形線
100
AcDbLine
 10
186.4214504933596
 20
55.16246329314459
 30
0.0
 11
186.4214504933597
 21
50.16246329314459
 31
0.0
  0
LINE
  5
17BF
330
18
100
AcDbEntity
  8
外形線
  6
Continuous
100
AcDbLine
 10
86.70998138182786
 20
141.6929796165349
 30
0.0
 11
86.70998138182786
 21
139.9929796165348
 31
0.0
  0
LINE
  5
17C1
330
18
100
AcDbEntity
  8
外形線
  6
Continuous
100
AcDbLine
 10
181.9214504933596
 20
67.49297961653486
 30
0.0
 11
186.4214504933596
 21
67.49297961653484
 31
0.0
  0
LINE
  5
17C2
330
18
100
AcDbEntity
  8
外形線
100
AcDbLine
 10
197.4214504933597
 20
88.97931502693298
 30
0.0
 11
197.4214504933597
 21
67.99297961653485
 31
0.0
  0
LINE
  5
17C3
330
18
100
AcDbEntity
  8
外形線
100
AcDbLine
 10
181.4214504933596
 20
88.97931502693296
 30
0.0
 11
181.4214504933596
 21
67.99297961653485
 31
0.0
  0
LINE
  5
17C4
330
18
100
AcDbEntity
  8
外形線
  6
Continuous
100
AcDbLine
 10
192.4214504933597
 20
67.49297961653486
 30
0.0
 11
196.9214504933597
 21
67.49297961653486
 31
0.0
  0
LINE
  5
17C5
330
18
100
AcDbEntity
  8
外形線
  6
Continuous
100
AcDbLine
 10
181.4214504933596
 20
67.99297961653485
 30
0.0
 11
181.9214504933596
 21
67.49297961653486
 31
0.0
  0
LINE
  5
17C6
330
18
100
AcDbEntity
  8
外形線
  6
Continuous
100
AcDbLine
 10
196.9214504933597
 20
67.49297961653486
 30
0.0
 11
197.4214504933597
 21
67.99297961653485
 31
0.0
  0
LINE
  5
17C7
330
18
100
AcDbEntity
  8
外形線
100
AcDbLine
 10
185.9214504933596
 20
46.66246329314458
 30
0.0
 11
192.9214504933596
 21
46.66246329314458
 31
0.0
  0
LINE
  5
17CA
330
18
100
AcDbEntity
  8
外形線
100
AcDbLine
 10
185.9214504933596
 20
48.46246329314459
 30
0.0
 11
192.9214504933596
 21
48.46246329314458
 31
0.0
  0
LINE
  5
17CB
330
18
100
AcDbEntity
  8
外形線
  6
CENTER
100
AcDbLine
 10
192.9214504933596
 20
48.46246329314458
 30
0.0
 11
192.9214504933596
 21
46.66246329314458
 31
0.0
  0
LINE
  5
17CC
330
18
100
AcDbEntity
  8
外形線
  6
CENTER
100
AcDbLine
 10
185.9214504933596
 20
48.46246329314459
 30
0.0
 11
185.9214504933596
 21
46.66246329314458
 31
0.0
  0
ARC
  5
17CF
330
18
100
AcDbEntity
  8
外形線
  6
Continuous
100
AcDbCircle
 10
194.3875622820956
 20
49.82280009810479
 30
0.0
 40
2.0
100
AcDbArc
 50
170.2219720715346
 51
222.8568040091095
  0
ARC
  5
17D0
330
18
100
AcDbEntity
  8
外形線
  6
Continuous
100
AcDbCircle
 10
184.4553387046236
 20
49.82280009810479
 30
0.0
 40
2.0
100
AcDbArc
 50
317.1431959908905
 51
9.77802792846538
  0
HATCH
  5
17D8
330
18
100
AcDbEntity
  8
ﾊｯﾁﾝｸ
  6
Continuous
100
AcDbHatch
 10
0.0
 20
0.0
 30
0.0
210
0.0
220
0.0
230
1.0
  2
ANSI37
 70
     0
 71
     0
 91
        1
 92
        7
 72
     0
 73
     1
 93
        4
 10
189.4214504933597
 20
46.66246329314458
 10
189.4214504933596
 20
48.46246329314458
 10
185.9214504933596
 20
48.46246329314458
 10
185.9214504933596
 20
46.66246329314458
 97
        0
 75
     0
 76
     1
 52
0.0
 41
10.0
 77
     0
 78
     2
 53
45.0
 43
55.47975482052493
 44
-10.15647494065482
 45
-0.8838834764831842
 46
0.8838834764831844
 79
     0
 53
135.0
 43
55.47975482052493
 44
-10.15647494065482
 45
-0.8838834764831844
 46
-0.8838834764831842
 79
     0
 47
0.0290194081541337
 98
        1
 10
188.3845616095329
 20
47.26664522170866
  0
HATCH
  5
17D9
330
18
100
AcDbEntity
  8
想像線
 62
     1
 48
0.1
100
AcDbHatch
 10
0.0
 20
0.0
 30
0.0
210
0.0
220
0.0
230
1.0
  2
ANSI37
 70
     0
 71
     0
 91
        1
 92
        7
 72
     0
 73
     1
 93
        4
 10
96.50998138182798
 20
56.66246329314458
 10
96.50998138182799
 20
58.46246329314458
 10
93.00998138182794
 20
58.46246329314457
 10
93.00998138182796
 20
56.66246329314458
 97
        0
 75
     0
 76
     1
 52
0.0
 41
10.0
 77
     0
 78
     2
 53
45.0
 43
-37.43171429100676
 44
-0.1564749406548174
 45
-0.8838834764831842
 46
0.8838834764831844
 79
     0
 53
135.0
 43
-37.43171429100676
 44
-0.1564749406548174
 45
-0.8838834764831844
 46
-0.8838834764831842
 79
     0
 47
0.0290194081541337
 98
        1
 10
95.47309249800127
 20
57.26664522170867
  0
LINE
  5
17DA
330
18
100
AcDbEntity
  8
想像線
 62
     1
 48
0.1
100
AcDbLine
 10
93.00998138182796
 20
58.46246329314459
 30
0.0
 11
100.0099813818279
 21
58.46246329314458
 31
0.0
  0
LINE
  5
17DB
330
18
100
AcDbEntity
  8
想像線
 62
     1
 48
0.1
100
AcDbLine
 10
93.00998138182796
 20
56.66246329314458
 30
0.0
 11
100.0099813818279
 21
56.66246329314458
 31
0.0
  0
ARC
  5
17DC
330
18
100
AcDbEntity
  8
想像線
 62
     1
 48
0.1
100
AcDbCircle
 10
91.54386959309197
 20
59.82280009810479
 30
0.0
 40
2.0
100
AcDbArc
 50
317.1431959908905
 51
9.77802792846538
  0
LINE
  5
17DD
330
18
100
AcDbEntity
  8
想像線
 62
     1
 48
0.1
100
AcDbLine
 10
93.00998138182796
 20
58.46246329314459
 30
0.0
 11
93.00998138182796
 21
56.66246329314458
 31
0.0
  0
LINE
  5
17DE
330
18
100
AcDbEntity
  8
想像線
 62
     1
 48
0.1
100
AcDbLine
 10
100.0099813818279
 20
58.46246329314458
 30
0.0
 11
100.0099813818279
 21
56.66246329314458
 31
0.0
  0
ARC
  5
17DF
330
18
100
AcDbEntity
  8
想像線
 62
     1
 48
0.1
100
AcDbCircle
 10
101.4760931705639
 20
59.82280009810479
 30
0.0
 40
2.0
100
AcDbArc
 50
170.2219720715346
 51
222.8568040091095
  0
LINE
  5
17E5
330
18
100
AcDbEntity
  8
中心線
  6
CENTER
 48
1.5
100
AcDbLine
 10
56.50998138182797
 20
89.33480507023283
 30
0.0
 11
56.50998138182797
 21
39.69627007662518
 31
0.0
  0
LINE
  5
17E6
330
18
100
AcDbEntity
  8
想像線
 62
     1
 48
0.1
100
AcDbLine
 10
55.25998138182789
 20
65.16246329314483
 30
0.0
 11
55.25998138182785
 21
62.66246329314462
 31
0.0
  0
LINE
  5
17E7
330
18
100
AcDbEntity
  8
想像線
 62
     1
 48
0.1
100
AcDbLine
 10
86.7099813818279
 20
65.16246329314466
 30
0.0
 11
86.70998138182785
 21
60.16246329314466
 31
0.0
  0
LINE
  5
17EA
330
18
100
AcDbEntity
  8
想像線
 62
     1
 48
0.1
100
AcDbLine
 10
60.25998138182785
 20
62.66246329314459
 30
0.0
 11
60.25998138182785
 21
62.46246329314459
 31
0.0
  0
LINE
  5
17EB
330
18
100
AcDbEntity
  8
想像線
 62
     1
 48
0.1
100
AcDbLine
 10
55.25998138182785
 20
62.66246329314462
 30
0.0
 11
60.25998138182785
 21
62.66246329314459
 31
0.0
  0
LINE
  5
17ED
330
18
100
AcDbEntity
  8
想像線
 62
     1
 48
0.1
100
AcDbLine
 10
60.25998138182785
 20
62.46246329314459
 30
0.0
 11
86.70998138182786
 21
60.16246329314459
 31
0.0
  0
LINE
  5
17F1
330
18
100
AcDbEntity
  8
外形線
  6
Continuous
100
AcDbLine
 10
86.7099813818279
 20
66.16246329314461
 30
0.0
 11
55.25998138182797
 21
66.1624632931446
 31
0.0
  0
LINE
  5
17F2
330
18
100
AcDbEntity
  8
外形線
  6
Continuous
100
AcDbLine
 10
83.70998138182789
 20
140.4929796165349
 30
0.0
 11
83.70998138182788
 21
66.16246329314461
 31
0.0
  0
LINE
  5
17F3
330
18
100
AcDbEntity
  8
外形線
  6
Continuous
100
AcDbLine
 10
55.25998138182797
 20
68.66246329314461
 30
0.0
 11
55.25998138182797
 21
66.1624632931446
 31
0.0
  0
LINE
  5
17F6
330
18
100
AcDbEntity
  8
外形線
  6
Continuous
100
AcDbLine
 10
60.25998138182797
 20
68.6624632931446
 30
0.0
 11
55.25998138182797
 21
68.6624632931446
 31
0.0
  0
LINE
  5
17F7
330
18
100
AcDbEntity
  8
外形線
  6
Continuous
100
AcDbLine
 10
60.25998138182797
 20
68.66246329314461
 30
0.0
 11
83.70998138182788
 21
70.87890941790829
 31
0.0
  0
LINE
  5
17F9
330
18
100
AcDbEntity
  8
外形線
  6
Continuous
100
AcDbLine
 10
86.70998138182786
 20
139.9929796165348
 30
0.0
 11
83.70998138182789
 21
139.9929796165348
 31
0.0
  0
LINE
  5
17FA
330
18
100
AcDbEntity
  8
外形線
  6
Continuous
100
AcDbLine
 10
86.70998138182786
 20
141.6929796165349
 30
0.0
 11
87.00998138182788
 21
141.6929796165348
 31
0.0
  0
LINE
  5
17FC
330
18
100
AcDbEntity
  8
外形線
  6
Continuous
100
AcDbLine
 10
86.7099813818279
 20
140.4929796165348
 30
0.0
 11
83.70998138182789
 21
140.4929796165349
 31
0.0
  0
LINE
  5
17FE
330
18
100
AcDbEntity
  8
外形線
  6
Continuous
100
AcDbLine
 10
83.70998138182788
 20
96.76246329314464
 30
0.0
 11
87.00998138182786
 21
96.76246329314466
 31
0.0
  0
LINE
  5
17FF
330
18
100
AcDbEntity
  8
外形線
  6
Continuous
100
AcDbLine
 10
87.00998138182788
 20
130.8929796165349
 30
0.0
 11
83.70998138182784
 21
130.892979616535
 31
0.0
  0
LINE
  5
1802
330
18
100
AcDbEntity
  8
外形線
  6
Continuous
100
AcDbLine
 10
83.70998138182789
 20
93.76246329314463
 30
0.0
 11
86.7099813818279
 21
93.76246329314465
 31
0.0
  0
LINE
  5
1804
330
18
100
AcDbEntity
  8
外形線
  6
Continuous
100
AcDbLine
 10
86.70998138182786
 20
93.76246329314467
 30
0.0
 11
86.7099813818279
 21
66.16246329314461
 31
0.0
  0
ARC
  5
180F
330
18
100
AcDbEntity
  8
外形線
  6
Continuous
100
AcDbCircle
 10
56.50998138182797
 20
69.6624632931446
 30
0.0
 40
1.0
100
AcDbArc
 50
0.0
 51
180.0
  0
LINE
  5
1810
330
18
100
AcDbEntity
  8
外形線
  6
Continuous
100
AcDbLine
 10
57.50998138182797
 20
69.6624632931446
 30
0.0
 11
57.50998138182797
 21
68.66246329314458
 31
0.0
  0
LINE
  5
1811
330
18
100
AcDbEntity
  8
外形線
  6
Continuous
100
AcDbLine
 10
55.50998138182797
 20
69.6624632931446
 30
0.0
 11
55.50998138182797
 21
68.6624632931446
 31
0.0
  0
LINE
  5
1814
330
18
100
AcDbEntity
  8
想像線
 62
     1
 48
0.1
100
AcDbLine
 10
55.50835907345708
 20
61.6624632931446
 30
0.0
 11
55.50835907345708
 21
62.66246329314459
 31
0.0
  0
LINE
  5
1815
330
18
100
AcDbEntity
  8
想像線
 62
     1
 48
0.1
100
AcDbLine
 10
57.50835907345709
 20
61.6624632931446
 30
0.0
 11
57.50835907345709
 21
62.66246329314461
 31
0.0
  0
ARC
  5
1816
330
18
100
AcDbEntity
  8
想像線
 62
     1
 48
0.1
100
AcDbCircle
 10
56.50835907345708
 20
61.6624632931446
 30
0.0
 40
1.0
100
AcDbArc
 50
180.0
 51
0.0
  0
LINE
  5
1817
330
18
100
AcDbEntity
  8
中心線
  6
CENTER
 48
1.5
100
AcDbLine
 10
81.50998138182798
 20
89.33480507023284
 30
0.0
 11
81.50998138182798
 21
55.6695957983899
 31
0.0
  0
LINE
  5
1818
330
18
100
AcDbEntity
  8
外形線
  6
CENTER
100
AcDbLine
 10
78.7099813818279
 20
123.8929796165349
 30
0.0
 11
81.7099813818279
 21
123.8929796165349
 31
0.0
  0
LINE
  5
1819
330
18
100
AcDbEntity
  8
外形線
  6
CENTER
100
AcDbLine
 10
78.70998138182788
 20
111.8929796165349
 30
0.0
 11
81.7099813818279
 21
111.8929796165349
 31
0.0
  0
LINE
  5
181A
330
18
100
AcDbEntity
  8
外形線
  6
Continuous
100
AcDbLine
 10
78.7099813818279
 20
123.8929796165349
 30
0.0
 11
78.70998138182788
 21
111.8929796165349
 31
0.0
  0
LINE
  5
181B
330
18
100
AcDbEntity
  8
外形線
  6
Continuous
100
AcDbLine
 10
81.7099813818279
 20
123.8929796165349
 30
0.0
 11
81.7099813818279
 21
111.8929796165349
 31
0.0
  0
ARC
  5
1821
330
18
100
AcDbEntity
  8
外形線
  6
Continuous
100
AcDbCircle
 10
83.77025349961916
 20
124.0590555299994
 30
0.0
 40
2.066954863653596
100
AcDbArc
 50
184.6085752918041
 51
268.3290261369671
  0
ARC
  5
1822
330
18
100
AcDbEntity
  8
外形線
  6
Continuous
100
AcDbCircle
 10
83.77025349961916
 20
111.7269037030704
 30
0.0
 40
2.066954863653596
100
AcDbArc
 50
91.67097386303295
 51
175.3914247081958
  0
HATCH
  5
1827
330
18
100
AcDbEntity
  8
ﾊｯﾁﾝｸ
  6
Continuous
100
AcDbHatch
 10
0.0
 20
0.0
 30
0.0
210
0.0
220
0.0
230
1.0
  2
ANSI37
 70
     0
 71
     0
 91
        1
 92
        7
 72
     0
 73
     1
 93
        4
 10
81.70998138182788
 20
123.8929796165349
 10
78.70998138182788
 20
123.8929796165349
 10
78.70998138182788
 20
117.8929796165349
 10
81.70998138182788
 20
117.8929796165349
 97
        0
 75
     0
 76
     1
 52
0.0
 41
10.0
 77
     0
 78
     2
 53
45.0
 43
23.5248509635359
 44
-3.225958617264495
 45
-0.8838834764831842
 46
0.8838834764831844
 79
     0
 53
135.0
 43
23.5248509635359
 44
-3.225958617264495
 45
-0.8838834764831844
 46
-0.8838834764831842
 79
     0
 47
0.0700025794194052
 98
        1
 10
80.83769459807573
 20
120.1120446741003
  0
POINT
  5
18E2
330
18
100
AcDbEntity
  8
想像線
 62
     1
 48
0.1
100
AcDbPoint
 10
56.50835907345708
 20
60.66246329314459
 30
0.0
  0
LINE
  5
18E4
330
18
100
AcDbEntity
  8
0
  6
ByBlock
 62
     2
100
AcDbLine
 10
55.25998138182797
 20
66.1624632931446
 30
0.0
 11
45.43716969649835
 21
66.1624632931446
 31
0.0
  0
LINE
  5
18E6
330
18
100
AcDbEntity
  8
0
  6
ByBlock
 62
     2
100
AcDbLine
 10
46.68716969649835
 20
63.6624632931446
 30
0.0
 11
46.68716969649835
 21
62.79109488785521
 31
0.0
  0
LINE
  5
18E7
330
18
100
AcDbEntity
  8
0
  6
ByBlock
 62
     2
100
AcDbLine
 10
46.68716969649835
 20
73.16246329314459
 30
0.0
 11
46.68716969649835
 21
78.53310069316903
 31
0.0
  0
LINE
  5
18E8
330
18
100
AcDbEntity
  8
0
  6
ByBlock
 62
     2
100
AcDbLine
 10
46.68716969649835
 20
66.1624632931446
 30
0.0
 11
46.68716969649835
 21
70.66246329314459
 31
0.0
  0
INSERT
  5
18E9
330
18
100
AcDbEntity
  8
0
  6
ByBlock
 62
     2
100
AcDbBlockReference
  2
_OPEN
 10
46.68716969649835
 20
66.1624632931446
 30
0.0
 41
2.5
 42
2.5
 43
2.5
 50
90.0
  0
INSERT
  5
18EA
330
18
100
AcDbEntity
  8
0
  6
ByBlock
 62
     2
100
AcDbBlockReference
  2
_OPEN
 10
46.68716969649835
 20
70.66246329314459
 30
0.0
 41
2.5
 42
2.5
 43
2.5
 50
270.0
  0
MTEXT
  5
18EB
330
18
100
AcDbEntity
  8
0
  6
ByBlock
 62
     6
100
AcDbMText
 10
44.81216969649835
 20
75.10849560101995
 30
0.0
 40
2.5
 41
0.0
 71
     5
 72
     1
  1
\A1;4.5
  7
STYLE3
 11
0.0000000000000001
 21
1.0
 31
0.0
 73
     1
 44
1.0
  0
POINT
  5
18EC
330
18
100
AcDbEntity
  8
DEFPOINTS
  6
ByBlock
 62
     0
100
AcDbPoint
 10
55.25998138182797
 20
66.1624632931446
 30
0.0
  0
LINE
  5
18EF
330
18
100
AcDbEntity
  8
0
  6
ByBlock
 62
     2
100
AcDbLine
 10
55.50998138182797
 20
68.6624632931446
 30
0.0
 11
50.19125838449247
 21
68.6624632931446
 31
0.0
  0
LINE
  5
18F1
330
18
100
AcDbEntity
  8
0
  6
ByBlock
 62
     2
100
AcDbLine
 10
51.44125838449247
 20
66.1624632931446
 30
0.0
 11
51.44125838449247
 21
65.01965606126124
 31
0.0
  0
LINE
  5
18F2
330
18
100
AcDbEntity
  8
0
  6
ByBlock
 62
     2
100
AcDbLine
 10
51.44125838449247
 20
73.16246329314459
 30
0.0
 11
51.44125838449247
 21
76.67905999345771
 31
0.0
  0
LINE
  5
18F3
330
18
100
AcDbEntity
  8
0
  6
ByBlock
 62
     2
100
AcDbLine
 10
51.44125838449247
 20
68.6624632931446
 30
0.0
 11
51.44125838449247
 21
70.66246329314459
 31
0.0
  0
INSERT
  5
18F5
330
18
100
AcDbEntity
  8
0
  6
ByBlock
 62
     2
100
AcDbBlockReference
  2
_OPEN
 10
51.44125838449247
 20
70.66246329314459
 30
0.0
 41
2.5
 42
2.5
 43
2.5
 50
270.0
  0
MTEXT
  5
18F6
330
18
100
AcDbEntity
  8
0
  6
ByBlock
 62
     6
100
AcDbMText
 10
49.56625838449247
 20
74.9492878335304
 30
0.0
 40
2.5
 41
0.0
 71
     5
 72
     1
  1
\A1;2
  7
STYLE3
 11
0.0000000000000001
 21
1.0
 31
0.0
 73
     1
 44
1.0
  0
POINT
  5
18F7
330
18
100
AcDbEntity
  8
DEFPOINTS
  6
ByBlock
 62
     0
100
AcDbPoint
 10
55.50998138182797
 20
68.6624632931446
 30
0.0
  0
POINT
  5
18F8
330
18
100
AcDbEntity
  8
DEFPOINTS
  6
ByBlock
 62
     0
100
AcDbPoint
 10
56.50998138182797
 20
70.66246329314459
 30
0.0
  0
POINT
  5
18F9
330
18
100
AcDbEntity
  8
DEFPOINTS
  6
ByBlock
 62
     0
100
AcDbPoint
 10
51.44125838449247
 20
70.66246329314459
 30
0.0
  0
LINE
  5
18FC
330
18
100
AcDbEntity
  8
0
  6
ByBlock
 62
     2
100
AcDbLine
 10
59.00998138182797
 20
88.18880317081351
 30
0.0
 11
79.00998138182797
 21
88.18880317081351
 31
0.0
  0
INSERT
  5
18FD
330
18
100
AcDbEntity
  8
0
  6
ByBlock
 62
     2
100
AcDbBlockReference
  2
_OPEN
 10
56.50998138182797
 20
88.18880317081351
 30
0.0
 41
2.5
 42
2.5
 43
2.5
 50
180.0
  0
INSERT
  5
18FE
330
18
100
AcDbEntity
  8
0
  6
ByBlock
 62
     2
100
AcDbBlockReference
  2
_OPEN
 10
81.50998138182798
 20
88.18880317081351
 30
0.0
 41
2.5
 42
2.5
 43
2.5
  0
MTEXT
  5
18FF
330
18
100
AcDbEntity
  8
0
  6
ByBlock
 62
     6
100
AcDbMText
 10
69.00998138182797
 20
90.06380317081351
 30
0.0
 40
2.5
 41
0.0
 71
     5
 72
     1
  1
\A1;25
  7
STYLE3
 73
     1
 44
1.0
  0
LINE
  5
1905
330
18
100
AcDbEntity
  8
0
  6
ByBlock
 62
     2
100
AcDbLine
 10
59.00998138182797
 20
40.94627007662518
 30
0.0
 11
94.00998138182798
 21
40.94627007662518
 31
0.0
  0
INSERT
  5
1906
330
18
100
AcDbEntity
  8
0
  6
ByBlock
 62
     2
100
AcDbBlockReference
  2
_OPEN
 10
56.50998138182797
 20
40.94627007662518
 30
0.0
 41
2.5
 42
2.5
 43
2.5
 50
180.0
  0
INSERT
  5
1907
330
18
100
AcDbEntity
  8
0
  6
ByBlock
 62
     2
100
AcDbBlockReference
  2
_OPEN
 10
96.50998138182798
 20
40.94627007662518
 30
0.0
 41
2.5
 42
2.5
 43
2.5
  0
MTEXT
  5
1908
330
18
100
AcDbEntity
  8
0
  6
ByBlock
 62
     6
100
AcDbMText
 10
76.50998138182797
 20
42.82127007662518
 30
0.0
 40
2.5
 41
0.0
 71
     5
 72
     1
  1
\A1;40
  7
STYLE3
 73
     1
 44
1.0
  0
POINT
  5
190A
330
18
100
AcDbEntity
  8
外形線
  6
Continuous
100
AcDbPoint
 10
96.50998138182798
 20
48.27511157039646
 30
0.0
  0
POINT
  5
190B
330
18
100
AcDbEntity
  8
DEFPOINTS
  6
ByBlock
 62
     0
100
AcDbPoint
 10
96.50998138182798
 20
40.94627007662518
 30
0.0
  0
LINE
  5
190F
330
18
100
AcDbEntity
  8
寸法線
  6
ByBlock
100
AcDbLine
 10
51.0717026800026
 20
66.44512906620533
 30
0.0
 11
51.44125838449247
 21
68.6624632931446
 31
0.0
  0
LINE
  5
1910
330
18
100
AcDbEntity
  8
寸法線
  6
ByBlock
100
AcDbLine
 10
51.44125838449247
 20
68.6624632931446
 30
0.0
 11
51.81081408898234
 21
66.44512906620533
 31
0.0
  0
LINE
  5
1911
330
18
100
AcDbEntity
  8
寸法線
  6
ByBlock
100
AcDbLine
 10
51.44125838449247
 20
68.6624632931446
 30
0.0
 11
51.44125838449247
 21
66.1624632931446
 31
0.0
  0
POINT
  5
194A
330
18
100
AcDbEntity
  8
想像線
 62
     1
 48
0.1
100
AcDbPoint
 10
100.0099813818279
 20
56.66246329314458
 30
0.0
  0
MTEXT
  5
19BA
330
18
100
AcDbEntity
  8
DEFPOINTS
  6
Continuous
100
AcDbMText
 10
1028.391765277621
 20
23.70733162845332
 30
0.0
 40
1.0
 41
0.0
 71
     4
 72
     1
  1
\A1;
 73
     1
 44
1.0
  0
LINE
  5
2319
330
18
100
AcDbEntity
  8
外形線
100
AcDbLine
 10
102.5099813818279
 20
86.89297961653492
 30
0.0
 11
90.50998138182785
 21
86.89297961653492
 31
0.0
  0
LINE
  5
231A
330
18
100
AcDbEntity
  8
外形線
100
AcDbLine
 10
91.5099813818279
 20
154.6929796165349
 30
0.0
 11
90.50998138182791
 21
153.6929796165349
 31
0.0
  0
LINE
  5
231B
330
18
100
AcDbEntity
  8
外形線
100
AcDbLine
 10
102.5099813818279
 20
153.692979616535
 30
0.0
 11
90.50998138182791
 21
153.6929796165349
 31
0.0
  0
LINE
  5
231C
330
18
100
AcDbEntity
  8
外形線
100
AcDbLine
 10
103.0099813818279
 20
88.49297961653489
 30
0.0
 11
87.00998138182786
 21
88.49297961653494
 31
0.0
  0
LINE
  5
231D
330
18
100
AcDbEntity
  8
外形線
100
AcDbLine
 10
103.0099813818278
 20
147.2929796165349
 30
0.0
 11
87.00998138182791
 21
147.2929796165348
 31
0.0
  0
LINE
  5
2321
330
18
100
AcDbEntity
  8
外形線
100
AcDbLine
 10
103.0099813818278
 20
147.2929796165349
 30
0.0
 11
103.0099813818279
 21
88.49297961653489
 31
0.0
  0
LINE
  5
2322
330
18
100
AcDbEntity
  8
外形線
100
AcDbLine
 10
105.0099813818278
 20
144.3929796165349
 30
0.0
 11
105.0099813818278
 21
87.89297961653486
 31
0.0
  0
LINE
  5
2323
330
18
100
AcDbEntity
  8
外形線
100
AcDbLine
 10
118.0099813818279
 20
147.8929796165349
 30
0.0
 11
118.0099813818279
 21
87.89297961653492
 31
0.0
  0
LINE
  5
2325
330
18
100
AcDbEntity
  8
外形線
100
AcDbLine
 10
167.4214504933596
 20
127.8929796165349
 30
0.0
 11
167.4214504933596
 21
107.8929796165349
 31
0.0
  0
LINE
  5
2326
330
18
100
AcDbEntity
  8
外形線
100
AcDbLine
 10
211.4214504933597
 20
127.8929796165349
 30
0.0
 11
211.4214504933597
 21
107.8929796165349
 31
0.0
  0
ARC
  5
2327
330
18
100
AcDbEntity
  8
外形線
100
AcDbCircle
 10
189.4214504933596
 20
117.8929796165349
 30
0.0
 40
29.0
100
AcDbArc
 50
0.0
 51
180.0
  0
CIRCLE
  5
2328
330
18
100
AcDbEntity
  8
外形線
100
AcDbCircle
 10
189.4214504933596
 20
117.8929796165349
 30
0.0
 40
30.0
  0
LINE
  5
232C
330
18
100
AcDbEntity
  8
外形線
100
AcDbLine
 10
168.9214504933596
 20
106.3929796165349
 30
0.0
 11
209.9214504933597
 21
106.3929796165349
 31
0.0
  0
LINE
  5
232F
330
18
100
AcDbEntity
  8
外形線
100
AcDbLine
 10
186.4214504933596
 20
68.89297961653489
 30
0.0
 11
186.4214504933596
 21
66.89297961653486
 31
0.0
  0
LINE
  5
2330
330
18
100
AcDbEntity
  8
外形線
100
AcDbLine
 10
192.4214504933597
 20
68.89297961653489
 30
0.0
 11
192.4214504933596
 21
66.89297961653489
 31
0.0
  0
LINE
  5
234A
330
18
100
AcDbEntity
  8
外形線
100
AcDbLine
 10
185.6714504933596
 20
66.89297961653489
 30
0.0
 11
193.1714504933596
 21
66.89297961653491
 31
0.0
  0
LINE
  5
234B
330
18
100
AcDbEntity
  8
外形線
100
AcDbLine
 10
185.6714504933596
 20
65.89297961653489
 30
0.0
 11
193.1714504933596
 21
65.89297961653489
 31
0.0
  0
LINE
  5
234C
330
18
100
AcDbEntity
  8
外形線
100
AcDbLine
 10
185.6714504933596
 20
66.89297961653489
 30
0.0
 11
185.6714504933596
 21
65.89297961653485
 31
0.0
  0
LINE
  5
234D
330
18
100
AcDbEntity
  8
外形線
100
AcDbLine
 10
193.1714504933596
 20
66.89297961653491
 30
0.0
 11
193.1714504933596
 21
65.89297961653485
 31
0.0
  0
LINE
  5
2350
330
18
100
AcDbEntity
  8
外形線
100
AcDbLine
 10
160.4214504933596
 20
117.8929796165349
 30
0.0
 11
167.4214504933596
 21
117.8929796165349
 31
0.0
  0
LINE
  5
2365
330
18
100
AcDbEntity
  8
外形線
100
AcDbLine
 10
185.4214504933596
 20
86.89297961653489
 30
0.0
 11
185.4214504933595
 21
71.89297961653489
 31
0.0
  0
LINE
  5
2366
330
18
100
AcDbEntity
  8
外形線
100
AcDbLine
 10
193.4214504933596
 20
86.89297961653489
 30
0.0
 11
193.4214504933596
 21
71.89297961653489
 31
0.0
  0
LINE
  5
2368
330
18
100
AcDbEntity
  8
外形線
100
AcDbLine
 10
185.6714504933596
 20
68.89297961653483
 30
0.0
 11
193.1714504933596
 21
68.89297961653494
 31
0.0
  0
LINE
  5
2369
330
18
100
AcDbEntity
  8
外形線
100
AcDbLine
 10
185.4214504933595
 20
71.89297961653489
 30
0.0
 11
193.4214504933596
 21
71.89297961653489
 31
0.0
  0
LINE
  5
236A
330
18
100
AcDbEntity
  8
外形線
100
AcDbLine
 10
185.6714504933596
 20
68.89297961653483
 30
0.0
 11
185.6714504933596
 21
71.89297961653489
 31
0.0
  0
LINE
  5
236B
330
18
100
AcDbEntity
  8
外形線
100
AcDbLine
 10
193.1714504933596
 20
68.89297961653494
 30
0.0
 11
193.1714504933597
 21
71.89297961653489
 31
0.0
  0
LINE
  5
236C
330
18
100
AcDbEntity
  8
外形線
100
AcDbLine
 10
183.4214504933596
 20
86.89297961653489
 30
0.0
 11
195.4214504933597
 21
86.89297961653489
 31
0.0
  0
POINT
  5
236D
330
18
100
AcDbEntity
  8
DEFPOINTS
  6
ByBlock
 62
     0
100
AcDbPoint
 10
183.4214504933596
 20
86.89297961653489
 30
0.0
  0
LINE
  5
236E
330
18
100
AcDbEntity
  8
外形線
100
AcDbLine
 10
183.4214504933596
 20
88.49910270313676
 30
0.0
 11
183.4214504933596
 21
86.89297961653489
 31
0.0
  0
LINE
  5
236F
330
18
100
AcDbEntity
  8
外形線
100
AcDbLine
 10
195.4214504933596
 20
88.49910270313676
 30
0.0
 11
195.4214504933596
 21
86.89297961653489
 31
0.0
  0
ARC
  5
2374
330
18
100
AcDbEntity
  8
外形線
100
AcDbCircle
 10
168.9214504933596
 20
107.8929796165349
 30
0.0
 40
1.5
100
AcDbArc
 50
180.0
 51
270.0
  0
LINE
  5
2378
330
18
100
AcDbEntity
  8
外形線
100
AcDbLine
 10
93.50998138182786
 20
68.89297961653491
 30
0.0
 11
93.50998138182792
 21
66.89297961653491
 31
0.0
  0
LINE
  5
2379
330
18
100
AcDbEntity
  8
外形線
100
AcDbLine
 10
99.50998138182791
 20
68.89297961653491
 30
0.0
 11
99.50998138182791
 21
66.89297961653489
 31
0.0
  0
LINE
  5
2392
330
18
100
AcDbEntity
  8
外形線
100
AcDbLine
 10
100.2599813818279
 20
65.89297961653492
 30
0.0
 11
92.7599813818279
 21
65.89297961653492
 31
0.0
  0
LINE
  5
2393
330
18
100
AcDbEntity
  8
外形線
100
AcDbLine
 10
100.2599813818279
 20
66.89297961653491
 30
0.0
 11
92.7599813818279
 21
66.89297961653494
 31
0.0
  0
LINE
  5
2394
330
18
100
AcDbEntity
  8
外形線
100
AcDbLine
 10
100.2599813818279
 20
66.89297961653491
 30
0.0
 11
100.2599813818279
 21
65.89297961653489
 31
0.0
  0
LINE
  5
2395
330
18
100
AcDbEntity
  8
外形線
100
AcDbLine
 10
92.7599813818279
 20
66.89297961653494
 30
0.0
 11
92.7599813818279
 21
65.89297961653489
 31
0.0
  0
ARC
  5
2398
330
18
100
AcDbEntity
  8
外形線
100
AcDbCircle
 10
209.9214504933597
 20
107.8929796165349
 30
0.0
 40
1.5
100
AcDbArc
 50
270.0
 51
0.0
  0
LINE
  5
2399
330
18
100
AcDbEntity
  8
外形線
100
AcDbLine
 10
211.4214504933597
 20
117.8929796165349
 30
0.0
 11
218.4214504933597
 21
117.8929796165349
 31
0.0
  0
LINE
  5
239A
330
18
100
AcDbEntity
  8
外形線
100
AcDbLine
 10
119.6074433173465
 20
99.89297961653491
 30
0.0
 11
118.6074433173465
 21
95.89297961653491
 31
0.0
  0
LINE
  5
239B
330
18
100
AcDbEntity
  8
外形線
100
AcDbLine
 10
120.6074433173465
 20
99.89297961653491
 30
0.0
 11
120.6074433173465
 21
95.89297961653491
 31
0.0
  0
LINE
  5
239C
330
18
100
AcDbEntity
  8
外形線
100
AcDbLine
 10
111.5099813818278
 20
90.39297961653486
 30
0.0
 11
106.0099813818277
 21
90.39297961653492
 31
0.0
  0
LINE
  5
239D
330
18
100
AcDbEntity
  8
外形線
100
AcDbLine
 10
118.0099813818278
 20
87.89297961653492
 30
0.0
 11
105.0099813818277
 21
87.89297961653492
 31
0.0
  0
LINE
  5
239E
330
18
100
AcDbEntity
  8
外形線
100
AcDbLine
 10
120.6074433173465
 20
95.89297961653491
 30
0.0
 11
118.6074433173465
 21
95.89297961653491
 31
0.0
  0
ARC
  5
239F
330
18
100
AcDbEntity
  8
外形線
100
AcDbCircle
 10
-60.6072728584985
 20
122.4037862743365
 30
0.0
 40
181.9206400838717
100
AcDbArc
 50
349.0645749835868
 51
351.6206012747426
  0
LINE
  5
23A0
330
18
100
AcDbEntity
  8
外形線
100
AcDbLine
 10
111.5099813818278
 20
90.39297961653486
 30
0.0
 11
111.5099813818278
 21
87.89297961653486
 31
0.0
  0
LINE
  5
23A1
330
18
100
AcDbEntity
  8
外形線
100
AcDbLine
 10
92.50998138182792
 20
86.89297961653492
 30
0.0
 11
92.50998138182792
 21
71.89297961653491
 31
0.0
  0
LINE
  5
23A2
330
18
100
AcDbEntity
  8
外形線
100
AcDbLine
 10
100.5099813818279
 20
86.89297961653492
 30
0.0
 11
100.509981381828
 21
71.89297961653491
 31
0.0
  0
LINE
  5
23A3
330
18
100
AcDbEntity
  8
外形線
100
AcDbLine
 10
100.509981381828
 20
71.89297961653491
 30
0.0
 11
92.50998138182792
 21
71.89297961653491
 31
0.0
  0
LINE
  5
23A4
330
18
100
AcDbEntity
  8
外形線
100
AcDbLine
 10
100.2599813818279
 20
68.89297961653486
 30
0.0
 11
92.7599813818279
 21
68.89297961653497
 31
0.0
  0
LINE
  5
23A5
330
18
100
AcDbEntity
  8
外形線
100
AcDbLine
 10
100.2599813818279
 20
68.89297961653486
 30
0.0
 11
100.2599813818279
 21
71.89297961653491
 31
0.0
  0
LINE
  5
23A6
330
18
100
AcDbEntity
  8
外形線
100
AcDbLine
 10
92.7599813818279
 20
68.89297961653497
 30
0.0
 11
92.75998138182785
 21
71.89297961653491
 31
0.0
  0
LINE
  5
23A7
330
18
100
AcDbEntity
  8
外形線
100
AcDbLine
 10
106.0099813818277
 20
90.39297961653492
 30
0.0
 11
106.0099813818278
 21
87.89297961653486
 31
0.0
  0
LINE
  5
23A8
330
18
100
AcDbEntity
  8
外形線
100
AcDbLine
 10
102.5099813818279
 20
88.49297961653482
 30
0.0
 11
102.5099813818279
 21
86.89297961653492
 31
0.0
  0
LINE
  5
23A9
330
18
100
AcDbEntity
  8
外形線
100
AcDbLine
 10
105.0099813818277
 20
87.89297961653492
 30
0.0
 11
103.0099813818279
 21
88.49297961653489
 31
0.0
  0
LINE
  5
23AA
330
18
100
AcDbEntity
  8
外形線
100
AcDbLine
 10
119.0099813818279
 20
117.8929796165349
 30
0.0
 11
119.0099813818279
 21
106.3929796165349
 31
0.0
  0
LINE
  5
23AB
330
18
100
AcDbEntity
  8
外形線
100
AcDbLine
 10
120.6074433173464
 20
99.89297961653491
 30
0.0
 11
119.6074433173465
 21
99.89297961653491
 31
0.0
  0
ARC
  5
23AC
330
18
100
AcDbEntity
  8
外形線
100
AcDbCircle
 10
-60.6072728584985
 20
122.4037862743365
 30
0.0
 40
181.9206400838717
100
AcDbArc
 50
352.8920187336262
 51
354.9508749822964
  0
LINE
  5
23AD
330
18
100
AcDbEntity
  8
外形線
100
AcDbLine
 10
120.6099813818279
 20
106.3929796165349
 30
0.0
 11
119.0099813818279
 21
106.3929796165349
 31
0.0
  0
LINE
  5
23AE
330
18
100
AcDbEntity
  8
外形線
100
AcDbLine
 10
119.0099813818279
 20
117.8929796165349
 30
0.0
 11
118.0099813818279
 21
117.8929796165349
 31
0.0
  0
LINE
  5
23B1
330
18
100
AcDbEntity
  8
外形線
100
AcDbLine
 10
168.9214504933596
 20
129.3929796165349
 30
0.0
 11
209.9214504933597
 21
129.3929796165349
 31
0.0
  0
LINE
  5
23B6
330
18
100
AcDbEntity
  8
外形線
100
AcDbLine
 10
183.4214504933596
 20
153.6929796165349
 30
0.0
 11
183.4214504933596
 21
148.3067922680259
 31
0.0
  0
LINE
  5
23B7
330
18
100
AcDbEntity
  8
外形線
100
AcDbLine
 10
195.4214504933596
 20
153.6929796165349
 30
0.0
 11
195.4214504933596
 21
148.306792268026
 31
0.0
  0
LINE
  5
23B8
102
{ACAD_REACTORS
330
23BC
330
23F0
102
}
330
18
100
AcDbEntity
  8
ROGO
 62
     4
100
AcDbLine
 10
179.1377036855938
 20
132.3977551499161
 30
0.0
 11
196.9952173146243
 21
132.3977551499161
 31
0.0
  0
SPLINE
  5
23B9
102
{ACAD_REACTORS
330
23BC
102
}
330
18
100
AcDbEntity
  8
ROGO
 62
     4
100
AcDbSpline
210
0.0
220
0.0
230
1.0
 70
     8
 71
     3
 72
    18
 73
    14
 74
     0
 42
0.0000000001
 43
0.0000000001
 40
0.1087402787915014
 40
0.1087402787915014
 40
0.1087402787915014
 40
0.1087402787915014
 40
0.5992371417938475
 40
1.083176791562496
 40
1.448211145705696
 40
1.714037220764907
 40
2.164002567013297
 40
2.740236056362883
 40
3.395137510199602
 40
4.071816045172726
 40
4.784906178399433
 40
5.506895915094292
 40
6.060470601257719
 40
6.060470601257719
 40
6.060470601257719
 40
6.060470601257719
 10
182.5162379252653
 20
135.0358850162239
 30
0.0
 10
182.5826573307973
 20
135.0115434171339
 30
0.0
 10
182.7132704066051
 20
134.9600815568715
 30
0.0
 10
182.8726799951657
 20
134.8426285871397
 30
0.0
 10
182.9596151016404
 20
134.7070387307747
 30
0.0
 10
183.0432369411958
 20
134.5734392049568
 30
0.0
 10
183.0549396649955
 20
134.3817680896127
 30
0.0
 10
183.0357698127922
 20
134.1394493438777
 30
0.0
 10
182.9120109788085
 20
133.8866147384939
 30
0.0
 10
182.7133707714182
 20
133.6654756988916
 30
0.0
 10
182.4667450917271
 20
133.4884788955951
 30
0.0
 10
182.2066698055893
 20
133.3495409629582
 30
0.0
 10
182.020767917949
 20
133.3481566078899
 30
0.0
 10
181.9400894533701
 20
133.3475558197928
 30
0.0
  0
LINE
  5
23BA
330
18
100
AcDbEntity
  8
ROGO
 62
     4
100
AcDbLine
 10
180.4653175284475
 20
132.6621882722906
 30
0.0
 11
196.1549645409011
 21
132.6621882722906
 31
0.0
  0
HATCH
  5
23BB
330
18
100
AcDbEntity
  8
ROGO
 62
     4
100
AcDbHatch
 10
0.0
 20
0.0
 30
0.0
210
0.0
220
0.0
230
1.0
  2
SOLID
 70
     1
 71
     0
 91
        1
 92
        7
 72
     0
 73
     1
 93
        4
 10
180.4836562459118
 20
132.6621882722906
 10
180.3640192003692
 20
132.3977551499161
 10
196.0231096456904
 20
132.3977551499161
 10
196.1549645409012
 20
132.6621882722906
 97
        0
 75
     0
 76
     1
 47
0.0514683685270805
 98
        1
 10
190.3788158670539
 20
132.5922499611702
450
        0
451
        0
460
0.0
461
0.0
452
        0
462
0.0
453
        0
470

  0
HATCH
  5
23BC
330
18
100
AcDbEntity
  8
ROGO
 62
     4
100
AcDbHatch
 10
0.0
 20
0.0
 30
0.0
210
0.0
220
0.0
230
1.0
  2
SOLID
 70
     1
 71
     1
 91
        2
 92
        5
 93
        6
 72
     1
 10
179.1377036855938
 20
132.3977551499161
 11
180.3640192003693
 21
132.3977551499162
 72
     1
 10
180.3640192003693
 20
132.3977551499162
 11
180.7937359657201
 21
133.3475558197928
 72
     1
 10
180.7937359657201
 20
133.3475558197928
 11
181.9400894533701
 21
133.3475558197928
 72
     4
 94
        3
 73
     0
 74
     0
 95
       18
 96
       14
 40
0.108740278791501
 40
0.108740278791501
 40
0.108740278791501
 40
0.108740278791501
 40
0.6623149649549278
 40
1.384304701649787
 40
2.097394834876493
 40
2.774073369849618
 40
3.428974823686337
 40
4.005208313035923
 40
4.455173659284313
 40
4.720999734343524
 40
5.086034088486724
 40
5.569973738255373
 40
6.060470601257719
 40
6.060470601257719
 40
6.060470601257719
 40
6.060470601257719
 10
181.9400894533701
 20
133.3475558197928
 10
182.020767917949
 20
133.3481566078899
 10
182.2066698055893
 20
133.3495409629582
 10
182.4667450917271
 20
133.4884788955951
 10
182.7133707714182
 20
133.6654756988916
 10
182.9120109788085
 20
133.8866147384939
 10
183.0357698127922
 20
134.1394493438777
 10
183.0549396649955
 20
134.3817680896127
 10
183.0432369411958
 20
134.5734392049568
 10
182.9596151016404
 20
134.7070387307747
 10
182.8726799951657
 20
134.8426285871397
 10
182.7132704066051
 20
134.9600815568715
 10
182.5826573307973
 20
135.0115434171339
 10
182.5162379252653
 20
135.0358850162239
 72
     1
 10
182.5162379252654
 20
135.0358850162238
 11
180.4430258085701
 21
135.0358850162238
 72
     1
 10
180.4430258085701
 20
135.0358850162238
 11
179.1377036855938
 21
132.3977551499161
 97
        6
330
23B9
330
23C6
330
23BF
330
23B8
330
23C5
330
23C0
 92
       20
 93
        4
 72
     1
 10
181.0590617415474
 20
133.9340039640969
 11
181.2622017654356
 21
134.3830032732352
 72
     1
 10
181.2622017654356
 20
134.3830032732352
 11
181.7841850499894
 21
134.3830032732352
 72
     4
 94
        3
 73
     0
 74
     0
 95
       15
 96
       11
 40
0.0
 40
0.0
 40
0.0
 40
0.0
 40
0.1979620751796092
 40
0.2882218927611821
 40
0.390672794493828
 40
0.4604671121752228
 40
0.570847549457819
 40
0.6369624161317818
 40
0.7503938621545029
 40
0.7882043682941406
 40
0.7882043682941406
 40
0.7882043682941406
 40
0.7882043682941406
 10
181.7841850499894
 20
134.3830032732352
 10
181.8585357664941
 20
134.3833438392041
 10
181.9667863201401
 20
134.3838396845222
 10
182.0259815783233
 20
134.249933436613
 10
181.9994474411658
 20
134.1637187020791
 10
181.9660918681922
 20
134.0752030409033
 10
181.907145016209
 20
134.0150553141286
 10
181.8280297067295
 20
133.9571229137379
 10
181.7532619585151
 20
133.9501099372617
 10
181.7046339312646
 20
133.9372251599634
 10
181.6924769186327
 20
133.9340039640969
 72
     1
 10
181.6924769186325
 20
133.9340039640968
 11
181.0590617415474
 21
133.9340039640969
 97
        4
330
23C1
330
23C3
330
23C2
330
23C4
 75
     0
 76
     1
 47
0.0514683685270805
 98
        2
 10
180.4541068056789
 20
134.2153566145095
 10
180.4541068056789
 20
134.2153566145095
450
        0
451
        0
460
0.0
461
0.0
452
        0
462
0.0
453
        0
470

  0
ARC
  5
23BD
330
18
100
AcDbEntity
  8
外形線
100
AcDbCircle
 10
189.4214504933596
 20
117.8929796165349
 30
0.0
 40
31.0
100
AcDbArc
 50
69.21644040415431
 51
110.7835595958456
  0
ARC
  5
23BE
330
18
100
AcDbEntity
  8
外形線
100
AcDbCircle
 10
168.9214504933596
 20
127.8929796165349
 30
0.0
 40
1.5
100
AcDbArc
 50
90.0
 51
180.0
  0
LINE
  5
23BF
102
{ACAD_REACTORS
330
23BC
102
}
330
18
100
AcDbEntity
  8
ROGO
 62
     4
100
AcDbLine
 10
180.4430258085701
 20
135.0358850162238
 30
0.0
 11
179.1377036855938
 21
132.3977551499161
 31
0.0
  0
LINE
  5
23C0
102
{ACAD_REACTORS
330
23BC
102
}
330
18
100
AcDbEntity
  8
ROGO
 62
     4
100
AcDbLine
 10
181.9400894537674
 20
133.3475558197928
 30
0.0
 11
180.7937359657202
 21
133.3475558197928
 31
0.0
  0
LINE
  5
23C1
102
{ACAD_REACTORS
330
23BC
102
}
330
18
100
AcDbEntity
  8
ROGO
 62
     4
100
AcDbLine
 10
181.2622017654356
 20
134.3830032732352
 30
0.0
 11
181.0590617415474
 21
133.9340039640969
 31
0.0
  0
SPLINE
  5
23C2
102
{ACAD_REACTORS
330
23BC
102
}
330
18
100
AcDbEntity
  8
ROGO
 62
     4
100
AcDbSpline
210
0.0
220
0.0
230
1.0
 70
     8
 71
     3
 72
    15
 73
    11
 74
     9
 42
0.0000000001
 43
0.0000000001
 44
0.0000000001
 40
0.0
 40
0.0
 40
0.0
 40
0.0
 40
0.1979620751796092
 40
0.2882218927611821
 40
0.390672794493828
 40
0.4604671121752228
 40
0.570847549457819
 40
0.6369624161317818
 40
0.7503938621545029
 40
0.7882043682941406
 40
0.7882043682941406
 40
0.7882043682941406
 40
0.7882043682941406
 10
181.7841850499894
 20
134.3830032732352
 30
0.0
 10
181.8585357664941
 20
134.3833438392041
 30
0.0
 10
181.9667863201401
 20
134.3838396845222
 30
0.0
 10
182.0259815783233
 20
134.249933436613
 30
0.0
 10
181.9994474411658
 20
134.1637187020791
 30
0.0
 10
181.9660918681922
 20
134.0752030409033
 30
0.0
 10
181.907145016209
 20
134.0150553141286
 30
0.0
 10
181.8280297067295
 20
133.9571229137379
 30
0.0
 10
181.7532619585151
 20
133.9501099372617
 30
0.0
 10
181.7046339312646
 20
133.9372251599634
 30
0.0
 10
181.6924769186327
 20
133.9340039640969
 30
0.0
 11
181.7841850499894
 21
134.3830032732352
 31
0.0
 11
181.9767722840407
 21
134.3371868952697
 31
0.0
 11
182.0134556420514
 21
134.2547177136627
 31
0.0
 11
181.995114226716
 21
134.1539219808695
 31
0.0
 11
181.9676018400431
 21
134.0897790517177
 31
0.0
 11
181.8942351240216
 21
134.0073098701107
 31
0.0
 11
181.8392103506755
 21
133.9706567677382
 31
0.0
 11
181.7291602766433
 21
133.94316723969
 31
0.0
 11
181.6924769186327
 21
133.9340039640969
 31
0.0
  0
LINE
  5
23C3
102
{ACAD_REACTORS
330
23BC
102
}
330
18
100
AcDbEntity
  8
ROGO
 62
     4
100
AcDbLine
 10
181.7841850499894
 20
134.3830032732352
 30
0.0
 11
181.2622017654356
 21
134.3830032732352
 31
0.0
  0
LINE
  5
23C4
102
{ACAD_REACTORS
330
23BC
102
}
330
18
100
AcDbEntity
  8
ROGO
 62
     4
100
AcDbLine
 10
181.6924769186328
 20
133.9340039640968
 30
0.0
 11
181.0590617415474
 21
133.9340039640969
 31
0.0
  0
LINE
  5
23C5
102
{ACAD_REACTORS
330
23BC
102
}
330
18
100
AcDbEntity
  8
ROGO
 62
     4
100
AcDbLine
 10
180.7937359657202
 20
133.3475558197928
 30
0.0
 11
180.3640192003692
 21
132.3977551499161
 31
0.0
  0
LINE
  5
23C6
102
{ACAD_REACTORS
330
23BC
102
}
330
18
100
AcDbEntity
  8
ROGO
 62
     4
100
AcDbLine
 10
180.4430258085701
 20
135.0358850162238
 30
0.0
 11
182.5162379252653
 21
135.0358850162238
 31
0.0
  0
LINE
  5
23C7
330
18
100
AcDbEntity
  8
外形線
100
AcDbLine
 10
178.4214504933596
 20
146.8757331089137
 30
0.0
 11
178.4214504933596
 21
145.8035510904406
 31
0.0
  0
SPLINE
  5
23C8
102
{ACAD_REACTORS
330
23CA
102
}
330
18
100
AcDbEntity
  8
ROGO
 62
     4
100
AcDbSpline
210
0.0
220
0.0
230
1.0
 70
     8
 71
     3
 72
    38
 73
    34
 74
    32
 42
0.0000000001
 43
0.0000000001
 44
0.0000000001
 40
0.0
 40
0.0
 40
0.0
 40
0.0
 40
0.2324160190625641
 40
0.3054076598660179
 40
0.3991969555208118
 40
0.4773548548861183
 40
0.5433001127836845
 40
0.6308904647837286
 40
0.6756456824938584
 40
0.7260518053353911
 40
0.8003409450195571
 40
0.884494420029689
 40
0.9390839551137702
 40
0.9983865037096219
 40
1.064308042580248
 40
1.164347318186099
 40
1.259395062462607
 40
1.303582284428296
 40
1.353971899974848
 40
1.413666953858189
 40
1.456162161198055
 40
1.491785383230425
 40
1.542647296663551
 40
1.598535826931799
 40
1.654424046021893
 40
1.703326315520178
 40
1.815321205179844
 40
1.859508427145426
 40
1.947882923564461
 40
2.026002047025105
 40
2.175555252260891
 40
2.360088422381767
 40
2.626581173122162
 40
2.626581173122162
 40
2.626581173122162
 40
2.626581173122162
 10
192.4825886549708
 20
135.0429271551597
 30
0.0
 10
192.4051174294521
 20
135.0374543591729
 30
0.0
 10
192.303315902225
 20
135.030262798875
 30
0.0
 10
192.1740517661412
 20
134.9948482794688
 30
0.0
 10
192.1035885104314
 20
134.9526581830229
 30
0.0
 10
192.0302574087378
 20
134.9216464398365
 30
0.0
 10
191.9677358148142
 20
134.8757241979446
 30
0.0
 10
191.9044965424908
 20
134.8520609091246
 30
0.0
 10
191.8602144681506
 20
134.8093917697881
 30
0.0
 10
191.8089615791226
 20
134.7833276178491
 30
0.0
 10
191.76814799362
 20
134.7249884684019
 30
0.0
 10
191.7225299809364
 20
134.6704434776982
 30
0.0
 10
191.6696073472701
 20
134.6306280670986
 30
0.0
 10
191.6261730315508
 20
134.5888102370042
 30
0.0
 10
191.5863280863624
 20
134.524272760339
 30
0.0
 10
191.5627460644853
 20
134.4385215643148
 30
0.0
 10
191.4962723031017
 20
134.3843813516624
 30
0.0
 10
191.4862634359092
 20
134.3192886617931
 30
0.0
 10
191.449494771372
 20
134.2808850701194
 30
0.0
 10
191.4335064700715
 20
134.2313115504244
 30
0.0
 10
191.4274173553408
 20
134.1858934498692
 30
0.0
 10
191.4201089657148
 20
134.1434760880328
 30
0.0
 10
191.4009916025588
 20
134.0988548970841
 30
0.0
 10
191.407231575852
 20
134.0437359670249
 30
0.0
 10
191.4054539947978
 20
133.9903624775622
 30
0.0
 10
191.4065001033348
 20
133.9183066047761
 30
0.0
 10
191.4027245527471
 20
133.8481513515939
 30
0.0
 10
191.4328330891235
 20
133.7718057965202
 30
0.0
 10
191.4506503217558
 20
133.7037542962347
 30
0.0
 10
191.4994457116833
 20
133.6095287419113
 30
0.0
 10
191.583616736735
 20
133.5008128257142
 30
0.0
 10
191.7436749816145
 20
133.3688523014805
 30
0.0
 10
191.8975756637623
 20
133.3554655205584
 30
0.0
 10
191.9885092758439
 20
133.3475558197928
 30
0.0
 11
192.4825886549708
 21
135.0429271551597
 31
0.0
 11
192.2518586931815
 21
135.0149827344365
 31
0.0
 11
192.1819405395881
 21
134.9940248856614
 31
0.0
 11
192.0980390848635
 21
134.9521085657547
 31
0.0
 11
192.0281209312702
 21
134.9171785066179
 31
0.0
 11
191.9721866281205
 21
134.882248136303
 31
0.0
 11
191.8952768239616
 21
134.8403321275746
 31
0.0
 11
191.8603174725086
 21
134.8123880180295
 31
0.0
 11
191.8183664704901
 21
134.7844435973063
 31
0.0
 11
191.769423817906
 21
134.7285553782163
 31
0.0
 11
191.7134895147563
 21
134.6656812095344
 31
0.0
 11
191.6715385127378
 21
134.6307508392195
 31
0.0
 11
191.6295880600318
 21
134.588834830491
 31
0.0
 11
191.5946287085788
 21
134.532946611401
 31
0.0
 11
191.5526782558729
 21
134.4421280219959
 31
0.0
 11
191.4967434034106
 21
134.3652816429526
 31
0.0
 11
191.4827601022795
 21
134.3233653230459
 31
0.0
 11
191.4547929507047
 21
134.2814493143175
 31
0.0
 11
191.4338174496954
 21
134.2255607840492
 31
0.0
 11
191.4268252498173
 21
134.1836447753208
 31
0.0
 11
191.4198335992516
 21
134.1487144050059
 31
0.0
 11
191.4058502981205
 21
134.0998124466857
 31
0.0
 11
191.4058502981205
 21
134.0439239164174
 31
0.0
 11
191.4058502981205
 21
133.9880356973273
 31
0.0
 11
191.4058502981205
 21
133.939133427829
 31
0.0
 11
191.4128419486861
 21
133.8273569896488
 31
0.0
 11
191.4268252498173
 21
133.7854406697423
 31
0.0
 11
191.4547929507047
 21
133.7016083411071
 31
0.0
 11
191.4897517528451
 21
133.6317479116555
 31
0.0
 11
191.5806454074477
 21
133.5129855238836
 31
0.0
 11
191.7274733652001
 21
133.4012087745253
 31
0.0
 11
191.9885092758439
 21
133.3475558197928
 31
0.0
  0
LINE
  5
23C9
102
{ACAD_REACTORS
330
23CA
102
}
330
18
100
AcDbEntity
  8
ROGO
 62
     4
100
AcDbLine
 10
191.9885092758439
 20
133.3475558197928
 30
0.0
 11
192.9533784770823
 21
133.3475558197928
 31
0.0
  0
HATCH
  5
23CA
330
18
100
AcDbEntity
  8
ROGO
 62
     4
100
AcDbHatch
 10
0.0
 20
0.0
 30
0.0
210
0.0
220
0.0
230
1.0
  2
SOLID
 70
     1
 71
     1
 91
        2
 92
        5
 93
        6
 72
     4
 94
        3
 73
     0
 74
     0
 95
       38
 96
       34
 40
0.0
 40
0.0
 40
0.0
 40
0.0
 40
0.2324160190625641
 40
0.3054076598660179
 40
0.3991969555208118
 40
0.4773548548861183
 40
0.5433001127836845
 40
0.6308904647837286
 40
0.6756456824938584
 40
0.7260518053353911
 40
0.8003409450195571
 40
0.884494420029689
 40
0.9390839551137702
 40
0.9983865037096219
 40
1.064308042580248
 40
1.164347318186099
 40
1.259395062462607
 40
1.303582284428296
 40
1.353971899974848
 40
1.413666953858189
 40
1.456162161198055
 40
1.491785383230425
 40
1.542647296663551
 40
1.598535826931799
 40
1.654424046021893
 40
1.703326315520178
 40
1.815321205179844
 40
1.859508427145426
 40
1.947882923564461
 40
2.026002047025105
 40
2.175555252260891
 40
2.360088422381767
 40
2.626581173122162
 40
2.626581173122162
 40
2.626581173122162
 40
2.626581173122162
 10
192.4825886549708
 20
135.0429271551597
 10
192.4051174294521
 20
135.0374543591729
 10
192.303315902225
 20
135.030262798875
 10
192.1740517661412
 20
134.9948482794688
 10
192.1035885104314
 20
134.9526581830229
 10
192.0302574087378
 20
134.9216464398365
 10
191.9677358148142
 20
134.8757241979446
 10
191.9044965424908
 20
134.8520609091246
 10
191.8602144681506
 20
134.8093917697881
 10
191.8089615791226
 20
134.7833276178491
 10
191.76814799362
 20
134.7249884684019
 10
191.7225299809364
 20
134.6704434776982
 10
191.6696073472701
 20
134.6306280670986
 10
191.6261730315508
 20
134.5888102370042
 10
191.5863280863624
 20
134.524272760339
 10
191.5627460644853
 20
134.4385215643148
 10
191.4962723031017
 20
134.3843813516624
 10
191.4862634359092
 20
134.3192886617931
 10
191.449494771372
 20
134.2808850701194
 10
191.4335064700715
 20
134.2313115504244
 10
191.4274173553408
 20
134.1858934498692
 10
191.4201089657148
 20
134.1434760880328
 10
191.4009916025588
 20
134.0988548970841
 10
191.407231575852
 20
134.0437359670249
 10
191.4054539947978
 20
133.9903624775622
 10
191.4065001033348
 20
133.9183066047761
 10
191.4027245527471
 20
133.8481513515939
 10
191.4328330891235
 20
133.7718057965202
 10
191.4506503217558
 20
133.7037542962347
 10
191.4994457116833
 20
133.6095287419113
 10
191.583616736735
 20
133.5008128257142
 10
191.7436749816145
 20
133.3688523014805
 10
191.8975756637623
 20
133.3554655205584
 10
191.9885092758439
 20
133.3475558197928
 72
     1
 10
191.988509275844
 20
133.3475558197928
 11
192.9533784770824
 21
133.3475558197928
 72
     4
 94
        3
 73
     0
 74
     0
 95
       11
 96
        7
 40
0.1647869275458135
 40
0.1647869275458135
 40
0.1647869275458135
 40
0.1647869275458135
 40
0.2545010798212315
 40
0.5111620267764023
 40
0.7602998271033902
 40
0.8850764140209603
 40
0.8850764140209603
 40
0.8850764140209603
 40
0.8850764140209603
 10
192.9533784770823
 20
133.3475558197928
 10
192.9668423489222
 20
133.3472963425375
 10
193.0188246708446
 20
133.3462945333717
 10
193.1076630821115
 20
133.3590572155519
 10
193.2011329255747
 20
133.3712874368891
 10
193.2568570831329
 20
133.3801943380398
 10
193.2748294953054
 20
133.3851969658181
 72
     4
 94
        3
 73
     0
 74
     0
 95
        9
 96
        5
 40
0.0
 40
0.0
 40
0.0
 40
0.0
 40
0.146030572742497
 40
0.3423777932799819
 40
0.3423777932799819
 40
0.3423777932799819
 40
0.3423777932799819
 10
193.2748294953054
 20
133.3851969658181
 10
193.3217387402857
 20
133.3995485454622
 10
193.4317203932996
 20
133.4331967197888
 10
193.522590432604
 20
133.5043125569274
 10
193.5747026898758
 20
133.5450961510518
 72
     4
 94
        3
 73
     0
 74
     0
 95
       25
 96
       21
 40
0.0
 40
0.0
 40
0.0
 40
0.0
 40
0.165525918914855
 40
0.3412380755365305
 40
0.5940540902285263
 40
0.7697671103696209
 40
0.9377330196075423
 40
1.11479469302833
 40
1.274661249598185
 40
1.574522170874768
 40
1.815540668866877
 40
2.15849091873445
 40
2.536227739636605
 40
2.738070817316548
 40
2.925680654369045
 40
3.162706124480894
 40
3.395643218188267
 40
3.648478129958861
 40
3.928509979727306
 40
4.337226830236035
 40
4.337226830236035
 40
4.337226830236035
 40
4.337226830236035
 10
193.5747026898758
 20
133.5450961510518
 10
193.5938503922392
 20
133.5609191075534
 10
193.6301683484871
 20
133.5985521231242
 10
193.6945842241666
 20
133.6595468567024
 10
193.7513487153467
 20
133.7306105615718
 10
193.8213718019831
 20
133.7882052038376
 10
193.8578256019617
 20
133.8586189234274
 10
193.910370877067
 20
133.913997814069
 10
193.9544477585323
 20
133.9995250480569
 10
193.9918448140037
 20
134.0977687460993
 10
194.0274977425005
 20
134.2258275394323
 10
194.0411603125047
 20
134.3702968933481
 10
194.0209380098155
 20
134.5100709207593
 10
193.9720860385193
 20
134.6145474150211
 10
193.9361706889589
 20
134.701617805306
 10
193.8816646464187
 20
134.7840887957481
 10
193.8194806187407
 20
134.8737851181777
 10
193.7318743349073
 20
134.947978498297
 10
193.6173819166802
 20
135.0374676703513
 10
193.5107407781848
 20
135.0408939401447
 10
193.4474578562092
 20
135.0429271551597
 72
     1
 10
193.4474578562092
 20
135.0429271551597
 11
192.4825886549708
 21
135.0429271551597
 97
        6
330
23FA
330
23FD
330
23C8
330
23C9
330
23FB
330
23FE
 92
       20
 93
        1
 72
     3
 10
192.7043208766389
 20
134.1716037365924
 11
0.2292231973722778
 21
0.2015731185223643
 40
0.6788083417438792
 50
0.0
 51
360.0
 73
     1
 97
        1
330
23FC
 75
     0
 76
     1
 47
0.088756267210375
 98
        2
 10
192.7717325169129
 20
134.5746587984376
 10
192.7717325169129
 20
134.5746587984376
450
        0
451
        0
460
0.0
461
0.0
452
        0
462
0.0
453
        0
470

  0
TEXT
  5
23CB
330
18
100
AcDbEntity
  8
文字
100
AcDbText
 10
184.5344445555942
 20
137.2361991873466
 30
0.0
 40
2.0
  1
GH-127
 51
10.0
  7
STYLE3
100
AcDbText
  0
LINE
  5
23CC
102
{ACAD_REACTORS
330
23D0
102
}
330
18
100
AcDbEntity
  8
ROGO
 62
     4
100
AcDbLine
 10
186.6354154816288
 20
133.6690032527667
 30
0.0
 11
187.7024001814943
 21
133.6690032527667
 31
0.0
  0
LINE
  5
23CD
102
{ACAD_REACTORS
330
23D0
102
}
330
18
100
AcDbEntity
  8
ROGO
 62
     4
100
AcDbLine
 10
186.8799040316726
 20
134.0080435535188
 30
0.0
 11
187.5517850457222
 21
134.0080435535188
 31
0.0
  0
LINE
  5
23CE
102
{ACAD_REACTORS
330
23D0
102
}
330
18
100
AcDbEntity
  8
ROGO
 62
     4
100
AcDbLine
 10
186.6860683055488
 20
135.0358850162238
 30
0.0
 11
188.0365870691121
 21
135.0358850162238
 31
0.0
  0
LINE
  5
23CF
102
{ACAD_REACTORS
330
23D0
102
}
330
18
100
AcDbEntity
  8
ROGO
 62
     4
100
AcDbLine
 10
187.2956612640753
 20
134.584587760143
 30
0.0
 11
187.5517850457222
 21
134.0080435535188
 31
0.0
  0
HATCH
  5
23D0
330
18
100
AcDbEntity
  8
ROGO
 62
     4
100
AcDbHatch
 10
0.0
 20
0.0
 30
0.0
210
0.0
220
0.0
230
1.0
  2
SOLID
 70
     1
 71
     1
 91
        2
 92
        7
 72
     0
 73
     1
 93
        8
 10
188.0365870691121
 20
135.0358850162238
 10
186.6860683055488
 20
135.0358850162238
 10
185.468581309707
 20
133.3475558197928
 10
186.4036134904533
 20
133.3475558197928
 10
186.6354154816287
 20
133.6690032527667
 10
187.7024001814943
 20
133.6690032527667
 10
187.8451998682973
 20
133.3475558197928
 10
188.7866097967478
 20
133.3475558197929
 97
        8
330
23CE
330
23DC
330
23DF
330
23DE
330
23CC
330
23ED
330
23E2
330
23EC
 92
       22
 72
     0
 73
     1
 93
        3
 10
187.5517850457222
 20
134.0080435535188
 10
186.8799040316724
 20
134.0080435535188
 10
187.2956612640752
 20
134.5845877601432
 97
        3
330
23CD
330
23DD
330
23CF
 75
     0
 76
     1
 47
0.0128389261915577
 98
        2
 10
187.9308307787604
 20
134.6308311231837
 10
187.9308307787604
 20
134.6308311231837
450
        0
451
        0
460
0.0
461
0.0
452
        0
462
0.0
453
        0
470

  0
LINE
  5
23D1
102
{ACAD_REACTORS
330
23E1
102
}
330
18
100
AcDbEntity
  8
ROGO
 62
     4
100
AcDbLine
 10
183.7410402022439
 20
135.0358850162238
 30
0.0
 11
182.9056706174809
 21
133.3475558197928
 31
0.0
  0
LINE
  5
23D2
102
{ACAD_REACTORS
330
23E1
102
}
330
18
100
AcDbEntity
  8
ROGO
 62
     4
100
AcDbLine
 10
186.0245756788661
 20
135.0358850162238
 30
0.0
 11
185.8332174272074
 21
134.6491391624768
 31
0.0
  0
LINE
  5
23D3
102
{ACAD_REACTORS
330
23E1
102
}
330
18
100
AcDbEntity
  8
ROGO
 62
     4
100
AcDbLine
 10
182.9056706174809
 20
133.3475558197928
 30
0.0
 11
185.189206094103
 21
133.3475558197928
 31
0.0
  0
LINE
  5
23D4
102
{ACAD_REACTORS
330
23E1
102
}
330
18
100
AcDbEntity
  8
ROGO
 62
     4
100
AcDbLine
 10
184.6330488843556
 20
134.6491391624768
 30
0.0
 11
184.4834305108287
 21
134.3467519640972
 31
0.0
  0
LINE
  5
23D5
102
{ACAD_REACTORS
330
23E1
102
}
330
18
100
AcDbEntity
  8
ROGO
 62
     4
100
AcDbLine
 10
184.6330488843556
 20
134.6491391624768
 30
0.0
 11
185.8332174272074
 21
134.6491391624768
 31
0.0
  0
LINE
  5
23D6
102
{ACAD_REACTORS
330
23E1
102
}
330
18
100
AcDbEntity
  8
ROGO
 62
     4
100
AcDbLine
 10
184.4834305108287
 20
134.3467519640972
 30
0.0
 11
185.6835990536804
 21
134.3467519640972
 31
0.0
  0
LINE
  5
23D7
102
{ACAD_REACTORS
330
23E1
102
}
330
18
100
AcDbEntity
  8
ROGO
 62
     4
100
AcDbLine
 10
184.180386177377
 20
133.7342822197927
 30
0.0
 11
185.3805547202287
 21
133.7342822197927
 31
0.0
  0
LINE
  5
23D8
102
{ACAD_REACTORS
330
23E1
102
}
330
18
100
AcDbEntity
  8
ROGO
 62
     4
100
AcDbLine
 10
184.3300108850267
 20
134.0366822197928
 30
0.0
 11
185.5301794278783
 21
134.0366822197929
 31
0.0
  0
LINE
  5
23D9
102
{ACAD_REACTORS
330
23E1
102
}
330
18
100
AcDbEntity
  8
ROGO
 62
     4
100
AcDbLine
 10
185.6835990536804
 20
134.3467519640972
 30
0.0
 11
185.5301794278783
 21
134.0366822197928
 31
0.0
  0
LINE
  5
23DA
102
{ACAD_REACTORS
330
23E1
102
}
330
18
100
AcDbEntity
  8
ROGO
 62
     4
100
AcDbLine
 10
185.3805547202287
 20
133.7342822197927
 30
0.0
 11
185.189206094103
 21
133.3475558197928
 31
0.0
  0
LINE
  5
23DB
102
{ACAD_REACTORS
330
23E1
102
}
330
18
100
AcDbEntity
  8
ROGO
 62
     4
100
AcDbLine
 10
184.3300108850267
 20
134.0366822197928
 30
0.0
 11
184.180386177377
 21
133.7342822197927
 31
0.0
  0
LINE
  5
23DC
102
{ACAD_REACTORS
330
23D0
102
}
330
18
100
AcDbEntity
  8
ROGO
 62
     4
100
AcDbLine
 10
186.6860683055488
 20
135.0358850162238
 30
0.0
 11
185.468581309707
 21
133.3475558197928
 31
0.0
  0
LINE
  5
23DD
102
{ACAD_REACTORS
330
23D0
102
}
330
18
100
AcDbEntity
  8
ROGO
 62
     4
100
AcDbLine
 10
187.2956612640752
 20
134.584587760143
 30
0.0
 11
186.8799040316725
 21
134.0080435535188
 31
0.0
  0
LINE
  5
23DE
102
{ACAD_REACTORS
330
23D0
102
}
330
18
100
AcDbEntity
  8
ROGO
 62
     4
100
AcDbLine
 10
186.6354154816288
 20
133.6690032527667
 30
0.0
 11
186.4036134904534
 21
133.3475558197929
 31
0.0
  0
LINE
  5
23DF
102
{ACAD_REACTORS
330
23D0
102
}
330
18
100
AcDbEntity
  8
ROGO
 62
     4
100
AcDbLine
 10
185.468581309707
 20
133.3475558197928
 30
0.0
 11
186.4036134904534
 21
133.3475558197928
 31
0.0
  0
LINE
  5
23E0
102
{ACAD_REACTORS
330
23E1
102
}
330
18
100
AcDbEntity
  8
ROGO
 62
     4
100
AcDbLine
 10
183.7410402022439
 20
135.0358850162238
 30
0.0
 11
186.0245756788661
 21
135.0358850162239
 31
0.0
  0
HATCH
  5
23E1
330
18
100
AcDbEntity
  8
ROGO
 62
     4
100
AcDbHatch
 10
0.0
 20
0.0
 30
0.0
210
0.0
220
0.0
230
1.0
  2
SOLID
 70
     1
 71
     1
 91
        1
 92
        1
 93
       12
 72
     1
 10
183.7410402022439
 20
135.0358850162238
 11
186.0245756788661
 21
135.0358850162239
 72
     1
 10
186.0245756788661
 20
135.0358850162238
 11
185.8332174272074
 21
134.6491391624768
 72
     1
 10
185.8332174272074
 20
134.6491391624768
 11
184.6330488843556
 21
134.6491391624768
 72
     1
 10
184.6330488843556
 20
134.6491391624768
 11
184.4834305108287
 21
134.3467519640972
 72
     1
 10
184.4834305108287
 20
134.3467519640972
 11
185.6835990536804
 21
134.3467519640972
 72
     1
 10
185.6835990536804
 20
134.3467519640972
 11
185.5301794278783
 21
134.0366822197928
 72
     1
 10
185.5301794278783
 20
134.0366822197929
 11
184.3300108850267
 21
134.0366822197928
 72
     1
 10
184.3300108850267
 20
134.0366822197928
 11
184.180386177377
 21
133.7342822197927
 72
     1
 10
184.180386177377
 20
133.7342822197927
 11
185.3805547202287
 21
133.7342822197927
 72
     1
 10
185.3805547202287
 20
133.7342822197927
 11
185.189206094103
 21
133.3475558197928
 72
     1
 10
185.189206094103
 20
133.3475558197928
 11
182.9056706174809
 21
133.3475558197928
 72
     1
 10
182.9056706174809
 20
133.3475558197928
 11
183.7410402022439
 21
135.0358850162238
 97
       12
330
23E0
330
23D2
330
23D5
330
23D4
330
23D6
330
23D9
330
23D8
330
23DB
330
23D7
330
23DA
330
23D3
330
23D1
 75
     0
 76
     1
 98
        1
 10
90.33373151533238
 20
18.2954758115093
450
        0
451
        0
460
0.0
461
0.0
452
        0
462
0.0
453
        0
470

  0
LINE
  5
23E2
102
{ACAD_REACTORS
330
23D0
102
}
330
18
100
AcDbEntity
  8
ROGO
 62
     4
100
AcDbLine
 10
188.7866097967478
 20
133.3475558197929
 30
0.0
 11
187.8451998682973
 21
133.3475558197928
 31
0.0
  0
LINE
  5
23E3
102
{ACAD_REACTORS
330
23EB
102
}
330
18
100
AcDbEntity
  8
ROGO
 62
     4
100
AcDbLine
 10
189.2489776160408
 20
133.3475558197928
 30
0.0
 11
190.7031577781897
 21
133.3475558197928
 31
0.0
  0
LINE
  5
23E4
102
{ACAD_REACTORS
330
23EB
102
}
330
18
100
AcDbEntity
  8
ROGO
 62
     4
100
AcDbLine
 10
191.5450132434873
 20
135.0358850162238
 30
0.0
 11
191.2317884285065
 21
134.407717091945
 31
0.0
  0
LINE
  5
23E5
102
{ACAD_REACTORS
330
23EB
102
}
330
18
100
AcDbEntity
  8
ROGO
 62
     4
100
AcDbLine
 10
190.1752309556265
 20
134.407717091945
 30
0.0
 11
191.2317884285065
 21
134.4077170919451
 31
0.0
  0
LINE
  5
23E6
102
{ACAD_REACTORS
330
23EB
102
}
330
18
100
AcDbEntity
  8
ROGO
 62
     4
100
AcDbLine
 10
189.9367893922268
 20
133.975717091945
 30
0.0
 11
191.0163792762054
 21
133.975717091945
 31
0.0
  0
SPLINE
  5
23E7
102
{ACAD_REACTORS
330
23EB
102
}
330
18
100
AcDbEntity
  8
ROGO
 62
     4
100
AcDbSpline
210
0.0
220
0.0
230
1.0
 70
     8
 71
     3
 72
    26
 73
    22
 74
    20
 42
0.0000000001
 43
0.0000000001
 44
0.0000000001
 40
0.0
 40
0.0
 40
0.0
 40
0.0
 40
0.306282258847545
 40
0.5113145150563467
 40
0.6591594689727181
 40
0.7695505122602936
 40
0.9127334891892449
 40
1.017243103820777
 40
1.205963108812785
 40
1.359578479722587
 40
1.464061546148638
 40
1.566512542290269
 40
1.749777456690453
 40
1.879367624743226
 40
1.949161942424621
 40
2.048302708997833
 40
2.119894481049029
 40
2.223607322578598
 40
2.282299819925661
 40
2.410021277698012
 40
2.468340004823004
 40
2.468340004823004
 40
2.468340004823004
 40
2.468340004823004
 10
189.8542522322078
 20
135.0358850162238
 30
0.0
 10
189.7502953012324
 20
135.0296827674544
 30
0.0
 10
189.5767472545762
 20
135.0193285933872
 30
0.0
 10
189.3861925550896
 20
134.903568659855
 30
0.0
 10
189.2465810265623
 20
134.8362709215577
 30
0.0
 10
189.1470102537309
 20
134.7447853797324
 30
0.0
 10
189.0740244736157
 20
134.6502874979193
 30
0.0
 10
188.9820121961473
 20
134.5376939646152
 30
0.0
 10
188.9069788131255
 20
134.4065833513036
 30
0.0
 10
188.8687688727257
 20
134.262076598508
 30
0.0
 10
188.834922870171
 20
134.146903878075
 30
0.0
 10
188.8098221080629
 20
134.018558911499
 30
0.0
 10
188.8162084525366
 20
133.879901198199
 30
0.0
 10
188.8253539901024
 20
133.7511230126227
 30
0.0
 10
188.8661865914332
 20
133.6591946688598
 30
0.0
 10
188.912687691649
 20
133.5937480228078
 30
0.0
 10
188.9696276520338
 20
133.5216657979094
 30
0.0
 10
189.0319324204421
 20
133.4739259737706
 30
0.0
 10
189.0834635495842
 20
133.387442074304
 30
0.0
 10
189.1736670527788
 20
133.3764061050062
 30
0.0
 10
189.2310039880191
 20
133.3544412323072
 30
0.0
 10
189.248977616041
 20
133.3475558197928
 30
0.0
 11
189.8542522322078
 21
135.0358850162238
 31
0.0
 11
189.5516149241243
 21
134.9887736392461
 31
0.0
 11
189.3681981340708
 21
134.8971411820461
 31
0.0
 11
189.2398066447032
 21
134.8238352760323
 31
0.0
 11
189.1572694846841
 21
134.7505290712874
 31
0.0
 11
189.0655613533274
 21
134.6405700629011
 31
0.0
 11
189.0013656086436
 21
134.5581008812941
 31
0.0
 11
188.9096569499468
 21
134.3931622193491
 31
0.0
 11
188.8638031479383
 21
134.2465501085904
 31
0.0
 11
188.8362907612654
 21
134.145754375797
 31
0.0
 11
188.81794881859
 21
134.0449586430039
 31
0.0
 11
188.81794881859
 21
133.8616937286037
 31
0.0
 11
188.8362907612654
 21
133.7334081690312
 31
0.0
 11
188.8638031479383
 21
133.6692652398794
 31
0.0
 11
188.9188279212844
 21
133.5867960582723
 31
0.0
 11
188.9646822506329
 21
133.5318164047136
 31
0.0
 11
189.0380484393142
 21
133.4585104986998
 31
0.0
 11
189.074731797325
 21
133.4126941207342
 31
0.0
 11
189.1939528426949
 21
133.3668780414998
 31
0.0
 11
189.248977616041
 21
133.3475558197928
 31
0.0
  0
SPLINE
  5
23E8
102
{ACAD_REACTORS
330
23EB
102
}
330
18
100
AcDbEntity
  8
ROGO
 62
     4
100
AcDbSpline
210
0.0
220
0.0
230
1.0
 70
     8
 71
     3
 72
    16
 73
    12
 74
    10
 42
0.0000000001
 43
0.0000000001
 44
0.0000000001
 40
0.0
 40
0.0
 40
0.0
 40
0.0
 40
0.1614737604380397
 40
0.2403420478032769
 40
0.279234489187282
 40
0.320220789027997
 40
0.3789130531806562
 40
0.4323552828341136
 40
0.488094283296473
 40
0.5815447451499928
 40
0.6740411735369377
 40
0.6740411735369377
 40
0.6740411735369377
 40
0.6740411735369377
 10
190.1752309556265
 20
134.407717091945
 30
0.0
 10
190.120548617256
 20
134.3993804005542
 30
0.0
 10
190.0391578999842
 20
134.3869718366157
 30
0.0
 10
189.9655562196245
 20
134.3287095562183
 30
0.0
 10
189.9240499821789
 20
134.2940473775257
 30
0.0
 10
189.9099293752844
 20
134.2481448135771
 30
0.0
 10
189.8720058594633
 20
134.2128986908171
 30
0.0
 10
189.8407460953356
 20
134.1644591727535
 30
0.0
 10
189.8332819722559
 20
134.0979267100916
 30
0.0
 10
189.8387608094889
 20
134.0045585383438
 30
0.0
 10
189.9042251567919
 20
133.9852979674875
 30
0.0
 10
189.9367893922269
 20
133.975717091945
 30
0.0
 11
190.1752309556265
 21
134.407717091945
 31
0.0
 11
190.019327079586
 21
134.3656723925698
 31
0.0
 11
189.9551313349022
 21
134.3198563133352
 31
0.0
 11
189.9276189482292
 21
134.2923664865558
 31
0.0
 11
189.9092770055539
 21
134.2557133841833
 31
0.0
 11
189.8725936475431
 21
134.2098973049489
 31
0.0
 11
189.84508126087
 21
134.1640809269833
 31
0.0
 11
189.8359102895323
 21
134.1091015721556
 31
0.0
 11
189.8542522322078
 21
134.0174688162246
 31
0.0
 11
189.9367893922269
 21
133.975717091945
 31
0.0
  0
LINE
  5
23E9
102
{ACAD_REACTORS
330
23EB
102
}
330
18
100
AcDbEntity
  8
ROGO
 62
     4
100
AcDbLine
 10
191.0163792762054
 20
133.975717091945
 30
0.0
 11
190.7031577781897
 21
133.3475558197928
 31
0.0
  0
LINE
  5
23EA
102
{ACAD_REACTORS
330
23EB
102
}
330
18
100
AcDbEntity
  8
ROGO
 62
     4
100
AcDbLine
 10
189.8542522322083
 20
135.0358850162239
 30
0.0
 11
191.5450132434873
 21
135.0358850162239
 31
0.0
  0
HATCH
  5
23EB
330
18
100
AcDbEntity
  8
ROGO
 62
     4
100
AcDbHatch
 10
0.0
 20
0.0
 30
0.0
210
0.0
220
0.0
230
1.0
  2
SOLID
 70
     1
 71
     1
 91
        1
 92
        5
 93
        8
 72
     1
 10
191.2317884285066
 20
134.4077170919451
 11
191.5450132434874
 21
135.035885016224
 72
     1
 10
191.5450132434874
 20
135.035885016224
 11
189.8542522322082
 21
135.0358850162239
 72
     4
 94
        3
 73
     0
 74
     0
 95
       26
 96
       22
 40
0.0
 40
0.0
 40
0.0
 40
0.0
 40
0.306282258847545
 40
0.5113145150563467
 40
0.6591594689727181
 40
0.7695505122602936
 40
0.9127334891892449
 40
1.017243103820777
 40
1.205963108812785
 40
1.359578479722587
 40
1.464061546148638
 40
1.566512542290269
 40
1.749777456690453
 40
1.879367624743226
 40
1.949161942424621
 40
2.048302708997833
 40
2.119894481049029
 40
2.223607322578598
 40
2.282299819925661
 40
2.410021277698012
 40
2.468340004823004
 40
2.468340004823004
 40
2.468340004823004
 40
2.468340004823004
 10
189.8542522322078
 20
135.0358850162238
 10
189.7502953012324
 20
135.0296827674544
 10
189.5767472545762
 20
135.0193285933872
 10
189.3861925550896
 20
134.903568659855
 10
189.2465810265623
 20
134.8362709215577
 10
189.1470102537309
 20
134.7447853797324
 10
189.0740244736157
 20
134.6502874979193
 10
188.9820121961473
 20
134.5376939646152
 10
188.9069788131255
 20
134.4065833513036
 10
188.8687688727257
 20
134.262076598508
 10
188.834922870171
 20
134.146903878075
 10
188.8098221080629
 20
134.018558911499
 10
188.8162084525366
 20
133.879901198199
 10
188.8253539901024
 20
133.7511230126227
 10
188.8661865914332
 20
133.6591946688598
 10
188.912687691649
 20
133.5937480228078
 10
188.9696276520338
 20
133.5216657979094
 10
189.0319324204421
 20
133.4739259737706
 10
189.0834635495842
 20
133.387442074304
 10
189.1736670527788
 20
133.3764061050062
 10
189.2310039880191
 20
133.3544412323072
 10
189.248977616041
 20
133.3475558197928
 72
     1
 10
189.248977616041
 20
133.3475558197928
 11
190.7031577781897
 21
133.3475558197928
 72
     1
 10
190.7031577781897
 20
133.3475558197928
 11
191.0163792762053
 21
133.975717091945
 72
     1
 10
191.0163792762053
 20
133.975717091945
 11
189.9367893922269
 21
133.975717091945
 72
     4
 94
        3
 73
     0
 74
     0
 95
       16
 96
       12
 40
0.0
 40
0.0
 40
0.0
 40
0.0
 40
0.092496428386945
 40
0.1859468902404647
 40
0.2416858907028242
 40
0.2951281203562815
 40
0.3538203845089407
 40
0.3948066843496557
 40
0.4336991257336609
 40
0.512567413098898
 40
0.6740411735369377
 40
0.6740411735369377
 40
0.6740411735369377
 40
0.6740411735369377
 10
189.9367893922269
 20
133.975717091945
 10
189.9042251567919
 20
133.9852979674875
 10
189.8387608094889
 20
134.0045585383438
 10
189.8332819722559
 20
134.0979267100916
 10
189.8407460953356
 20
134.1644591727535
 10
189.8720058594633
 20
134.2128986908171
 10
189.9099293752844
 20
134.2481448135771
 10
189.9240499821789
 20
134.2940473775257
 10
189.9655562196245
 20
134.3287095562183
 10
190.0391578999842
 20
134.3869718366157
 10
190.120548617256
 20
134.3993804005542
 10
190.1752309556265
 20
134.407717091945
 72
     1
 10
190.1752309556265
 20
134.407717091945
 11
191.2317884285066
 21
134.4077170919451
 97
        8
330
23EA
330
23E7
330
23E3
330
23E9
330
23E6
330
23E8
330
23E5
330
23E4
 75
     0
 76
     1
 47
0.0514683685270805
 98
        1
 10
190.4455739571882
 20
134.6600431437777
450
        0
451
        0
460
0.0
461
0.0
452
        0
462
0.0
453
        0
470

  0
LINE
  5
23EC
102
{ACAD_REACTORS
330
23D0
102
}
330
18
100
AcDbEntity
  8
ROGO
 62
     4
100
AcDbLine
 10
188.0365870691121
 20
135.0358850162238
 30
0.0
 11
188.7866097967478
 21
133.3475558197928
 31
0.0
  0
LINE
  5
23ED
102
{ACAD_REACTORS
330
23D0
102
}
330
18
100
AcDbEntity
  8
ROGO
 62
     4
100
AcDbLine
 10
187.7024001814943
 20
133.6690032527667
 30
0.0
 11
187.8451998682973
 21
133.3475558197928
 31
0.0
  0
LINE
  5
23EE
102
{ACAD_REACTORS
330
23F0
102
}
330
18
100
AcDbEntity
  8
ROGO
 62
     4
100
AcDbLine
 10
197.3385664006945
 20
135.0358850162238
 30
0.0
 11
196.0231096456904
 21
132.3977551499161
 31
0.0
  0
LINE
  5
23EF
102
{ACAD_REACTORS
330
23F0
102
}
330
18
100
AcDbEntity
  8
ROGO
 62
     4
100
AcDbLine
 10
197.3385664006945
 20
133.0863368726413
 30
0.0
 11
196.9952173146243
 21
132.3977551499161
 31
0.0
  0
HATCH
  5
23F0
330
18
100
AcDbEntity
  8
ROGO
 62
     4
100
AcDbHatch
 10
0.0
 20
0.0
 30
0.0
210
0.0
220
0.0
230
1.0
  2
SOLID
 70
     1
 71
     1
 91
        1
 92
        7
 72
     0
 73
     1
 93
       11
 10
198.0735061219404
 20
134.5602480606591
 10
198.3106740696285
 20
135.0358850162239
 10
197.3385664006944
 20
135.0358850162238
 10
196.0231096456903
 20
132.3977551499161
 10
196.9952173146243
 20
132.3977551499161
 10
197.3385664006945
 20
133.0863368726412
 10
197.6819154867646
 20
132.3977551499161
 10
198.6540018867646
 20
132.3977551499161
 10
197.9962735092625
 20
133.7168200830699
 10
199.5942990389742
 20
135.0358850162238
 10
198.6222126389743
 20
135.0358850162239
 97
       11
330
2404
330
2406
330
2400
330
23FF
330
23EE
330
23B8
330
23EF
330
2401
330
2405
330
2402
330
2403
 75
     0
 76
     1
 47
0.015942268611278
 98
        1
 10
197.8633172824842
 20
134.1800249404301
450
        0
451
        0
460
0.0
461
0.0
452
        0
462
0.0
453
        0
470

  0
LINE
  5
23F1
102
{ACAD_REACTORS
330
23F9
102
}
330
18
100
AcDbEntity
  8
ROGO
 62
     4
100
AcDbLine
 10
194.6889244643766
 20
133.3475558197928
 30
0.0
 11
196.1431046265255
 21
133.3475558197928
 31
0.0
  0
LINE
  5
23F2
102
{ACAD_REACTORS
330
23F9
102
}
330
18
100
AcDbEntity
  8
ROGO
 62
     4
100
AcDbLine
 10
195.2941990805441
 20
135.0358850162238
 30
0.0
 11
196.9849600918231
 21
135.0358850162238
 31
0.0
  0
SPLINE
  5
23F3
102
{ACAD_REACTORS
330
23F9
102
}
330
18
100
AcDbEntity
  8
ROGO
 62
     4
100
AcDbSpline
210
0.0
220
0.0
230
1.0
 70
     8
 71
     3
 72
    16
 73
    12
 74
    10
 42
0.0000000001
 43
0.0000000001
 44
0.0000000001
 40
0.0
 40
0.0
 40
0.0
 40
0.0
 40
0.1614737604380397
 40
0.2403420478033429
 40
0.2792344891871872
 40
0.320220789028004
 40
0.3789130531806808
 40
0.4323552828340408
 40
0.4880942832964002
 40
0.5815447451500316
 40
0.6740411735369252
 40
0.6740411735369252
 40
0.6740411735369252
 40
0.6740411735369252
 10
195.6151778039623
 20
134.407717091945
 30
0.0
 10
195.5604954655918
 20
134.3993804005542
 30
0.0
 10
195.47910474832
 20
134.3869718366158
 30
0.0
 10
195.4055030679603
 20
134.3287095562182
 30
0.0
 10
195.3639968305149
 20
134.2940473775257
 30
0.0
 10
195.3498762236199
 20
134.2481448135771
 30
0.0
 10
195.3119527077992
 20
134.212898690817
 30
0.0
 10
195.2806929436714
 20
134.1644591727534
 30
0.0
 10
195.2732288205918
 20
134.0979267100916
 30
0.0
 10
195.2787076578247
 20
134.0045585383437
 30
0.0
 10
195.3441720051277
 20
133.9852979674875
 30
0.0
 10
195.3767362405628
 20
133.975717091945
 30
0.0
 11
195.6151778039623
 21
134.407717091945
 31
0.0
 11
195.4592739279218
 21
134.3656723925698
 31
0.0
 11
195.395078183238
 21
134.3198563133351
 31
0.0
 11
195.3675657965651
 21
134.2923664865558
 31
0.0
 11
195.3492238538896
 21
134.2557133841833
 31
0.0
 11
195.3125404958789
 21
134.2098973049488
 31
0.0
 11
195.2850281092059
 21
134.1640809269833
 31
0.0
 11
195.2758571378681
 21
134.1091015721556
 31
0.0
 11
195.2941990805436
 21
134.0174688162245
 31
0.0
 11
195.3767362405628
 21
133.975717091945
 31
0.0
  0
SPLINE
  5
23F4
102
{ACAD_REACTORS
330
23F9
102
}
330
18
100
AcDbEntity
  8
ROGO
 62
     4
100
AcDbSpline
210
0.0
220
0.0
230
1.0
 70
     8
 71
     3
 72
    26
 73
    22
 74
    20
 42
0.0000000001
 43
0.0000000001
 44
0.0000000001
 40
0.0
 40
0.0
 40
0.0
 40
0.0
 40
0.306282258847545
 40
0.5113145150563467
 40
0.6591594689727181
 40
0.7695505122602936
 40
0.9127334891893321
 40
1.017243103820775
 40
1.205963108812882
 40
1.359578479722684
 40
1.464061546148625
 40
1.566512542290257
 40
1.74977745669044
 40
1.879367624743214
 40
1.949161942424609
 40
2.048302708997821
 40
2.119894481049017
 40
2.223607322578586
 40
2.282299819925649
 40
2.41002127769804
 40
2.468340004822995
 40
2.468340004822995
 40
2.468340004822995
 40
2.468340004822995
 10
195.2941990805436
 20
135.0358850162238
 30
0.0
 10
195.1902421495682
 20
135.0296827674544
 30
0.0
 10
195.0166941029121
 20
135.0193285933872
 30
0.0
 10
194.8261394034254
 20
134.903568659855
 30
0.0
 10
194.686527874898
 20
134.8362709215577
 30
0.0
 10
194.5869571020668
 20
134.7447853797325
 30
0.0
 10
194.5139713219516
 20
134.6502874979192
 30
0.0
 10
194.4219590444831
 20
134.5376939646153
 30
0.0
 10
194.3469256614614
 20
134.4065833513035
 30
0.0
 10
194.3087157210615
 20
134.2620765985079
 30
0.0
 10
194.2748697185068
 20
134.146903878075
 30
0.0
 10
194.2497689563987
 20
134.018558911499
 30
0.0
 10
194.2561553008724
 20
133.879901198199
 30
0.0
 10
194.2653008384382
 20
133.7511230126227
 30
0.0
 10
194.306133439769
 20
133.6591946688598
 30
0.0
 10
194.3526345399848
 20
133.5937480228078
 30
0.0
 10
194.4095745003697
 20
133.5216657979094
 30
0.0
 10
194.4718792687779
 20
133.4739259737706
 30
0.0
 10
194.5234103979201
 20
133.387442074304
 30
0.0
 10
194.6136139011146
 20
133.376406105006
 30
0.0
 10
194.6709508363549
 20
133.3544412323071
 30
0.0
 10
194.6889244643768
 20
133.3475558197928
 30
0.0
 11
195.2941990805436
 21
135.0358850162238
 31
0.0
 11
194.9915617724601
 21
134.9887736392461
 31
0.0
 11
194.8081449824066
 21
134.8971411820461
 31
0.0
 11
194.679753493039
 21
134.8238352760323
 31
0.0
 11
194.5972163330199
 21
134.7505290712874
 31
0.0
 11
194.5055082016632
 21
134.6405700629009
 31
0.0
 11
194.4413124569794
 21
134.5581008812941
 31
0.0
 11
194.3496037982826
 21
134.393162219349
 31
0.0
 11
194.3037499962741
 21
134.2465501085903
 31
0.0
 11
194.2762376096012
 21
134.145754375797
 31
0.0
 11
194.2578956669258
 21
134.0449586430039
 31
0.0
 11
194.2578956669258
 21
133.8616937286037
 31
0.0
 11
194.2762376096012
 21
133.7334081690312
 31
0.0
 11
194.3037499962741
 21
133.6692652398794
 31
0.0
 11
194.3587747696202
 21
133.5867960582723
 31
0.0
 11
194.4046290989687
 21
133.5318164047136
 31
0.0
 11
194.47799528765
 21
133.4585104986998
 31
0.0
 11
194.5146786456609
 21
133.4126941207342
 31
0.0
 11
194.6338996910307
 21
133.3668780414996
 31
0.0
 11
194.6889244643768
 21
133.3475558197928
 31
0.0
  0
LINE
  5
23F5
102
{ACAD_REACTORS
330
23F9
102
}
330
18
100
AcDbEntity
  8
ROGO
 62
     4
100
AcDbLine
 10
196.4563261245412
 20
133.975717091945
 30
0.0
 11
196.1431046265255
 21
133.3475558197928
 31
0.0
  0
LINE
  5
23F6
102
{ACAD_REACTORS
330
23F9
102
}
330
18
100
AcDbEntity
  8
ROGO
 62
     4
100
AcDbLine
 10
195.3767362405626
 20
133.975717091945
 30
0.0
 11
196.4563261245412
 21
133.975717091945
 31
0.0
  0
LINE
  5
23F7
102
{ACAD_REACTORS
330
23F9
102
}
330
18
100
AcDbEntity
  8
ROGO
 62
     4
100
AcDbLine
 10
195.6151778039622
 20
134.407717091945
 30
0.0
 11
196.6717352768423
 21
134.407717091945
 31
0.0
  0
LINE
  5
23F8
102
{ACAD_REACTORS
330
23F9
102
}
330
18
100
AcDbEntity
  8
ROGO
 62
     4
100
AcDbLine
 10
196.9849600918231
 20
135.0358850162238
 30
0.0
 11
196.6717352768423
 21
134.407717091945
 31
0.0
  0
HATCH
  5
23F9
330
18
100
AcDbEntity
  8
ROGO
 62
     4
100
AcDbHatch
 10
0.0
 20
0.0
 30
0.0
210
0.0
220
0.0
230
1.0
  2
SOLID
 70
     1
 71
     1
 91
        1
 92
        5
 93
        8
 72
     4
 94
        3
 73
     0
 74
     0
 95
       26
 96
       22
 40
0.0
 40
0.0
 40
0.0
 40
0.0
 40
0.306282258847545
 40
0.5113145150563467
 40
0.6591594689727181
 40
0.7695505122602936
 40
0.9127334891893321
 40
1.017243103820775
 40
1.205963108812882
 40
1.359578479722684
 40
1.464061546148625
 40
1.566512542290257
 40
1.74977745669044
 40
1.879367624743214
 40
1.949161942424609
 40
2.048302708997821
 40
2.119894481049017
 40
2.223607322578586
 40
2.282299819925649
 40
2.41002127769804
 40
2.468340004822995
 40
2.468340004822995
 40
2.468340004822995
 40
2.468340004822995
 10
195.2941990805436
 20
135.0358850162238
 10
195.1902421495682
 20
135.0296827674544
 10
195.0166941029121
 20
135.0193285933872
 10
194.8261394034254
 20
134.903568659855
 10
194.686527874898
 20
134.8362709215577
 10
194.5869571020668
 20
134.7447853797325
 10
194.5139713219516
 20
134.6502874979192
 10
194.4219590444831
 20
134.5376939646153
 10
194.3469256614614
 20
134.4065833513035
 10
194.3087157210615
 20
134.2620765985079
 10
194.2748697185068
 20
134.146903878075
 10
194.2497689563987
 20
134.018558911499
 10
194.2561553008724
 20
133.879901198199
 10
194.2653008384382
 20
133.7511230126227
 10
194.306133439769
 20
133.6591946688598
 10
194.3526345399848
 20
133.5937480228078
 10
194.4095745003697
 20
133.5216657979094
 10
194.4718792687779
 20
133.4739259737706
 10
194.5234103979201
 20
133.387442074304
 10
194.6136139011146
 20
133.376406105006
 10
194.6709508363549
 20
133.3544412323071
 10
194.6889244643768
 20
133.3475558197928
 72
     1
 10
194.6889244643768
 20
133.3475558197928
 11
196.1431046265255
 21
133.3475558197928
 72
     1
 10
196.1431046265255
 20
133.3475558197928
 11
196.4563261245412
 21
133.975717091945
 72
     1
 10
196.4563261245412
 20
133.975717091945
 11
195.3767362405628
 21
133.975717091945
 72
     4
 94
        3
 73
     0
 74
     0
 95
       16
 96
       12
 40
0.0
 40
0.0
 40
0.0
 40
0.0
 40
0.0924964283868937
 40
0.185946890240525
 40
0.2416858907028844
 40
0.2951281203562444
 40
0.3538203845089212
 40
0.3948066843497379
 40
0.4336991257335823
 40
0.5125674130988856
 40
0.6740411735369252
 40
0.6740411735369252
 40
0.6740411735369252
 40
0.6740411735369252
 10
195.3767362405628
 20
133.975717091945
 10
195.3441720051277
 20
133.9852979674875
 10
195.2787076578247
 20
134.0045585383437
 10
195.2732288205918
 20
134.0979267100916
 10
195.2806929436714
 20
134.1644591727534
 10
195.3119527077992
 20
134.212898690817
 10
195.3498762236199
 20
134.2481448135771
 10
195.3639968305149
 20
134.2940473775257
 10
195.4055030679603
 20
134.3287095562182
 10
195.47910474832
 20
134.3869718366158
 10
195.5604954655918
 20
134.3993804005542
 10
195.6151778039623
 20
134.407717091945
 72
     1
 10
195.6151778039622
 20
134.407717091945
 11
196.6717352768423
 21
134.407717091945
 72
     1
 10
196.6717352768423
 20
134.407717091945
 11
196.9849600918231
 21
135.0358850162238
 72
     1
 10
196.9849600918231
 20
135.0358850162238
 11
195.2941990805437
 21
135.0358850162238
 97
        8
330
23F2
330
23F4
330
23F1
330
23F5
330
23F6
330
23F3
330
23F7
330
23F8
 75
     0
 76
     1
 47
0.0514683685270805
 98
        1
 10
195.585950061567
 20
134.7267461978508
450
        0
451
        0
460
0.0
461
0.0
452
        0
462
0.0
453
        0
470

  0
SPLINE
  5
23FA
102
{ACAD_REACTORS
330
23CA
102
}
330
18
100
AcDbEntity
  8
ROGO
 62
     4
100
AcDbSpline
210
0.0
220
0.0
230
1.0
 70
     8
 71
     3
 72
    25
 73
    21
 74
     0
 42
0.0000000001
 43
0.0000000001
 40
0.0
 40
0.0
 40
0.0
 40
0.0
 40
0.4087168505087288
 40
0.6887487002771746
 40
0.9415836120477687
 40
1.17452070575514
 40
1.41154617586699
 40
1.599156012919487
 40
1.80099909059943
 40
2.178735911501585
 40
2.521686161369157
 40
2.762704659361267
 40
3.06256558063785
 40
3.222432137207705
 40
3.399493810628493
 40
3.567459719866414
 40
3.743172740007509
 40
3.995988754699505
 40
4.17170091132118
 40
4.337226830236035
 40
4.337226830236035
 40
4.337226830236035
 40
4.337226830236035
 10
193.4474578562092
 20
135.0429271551597
 30
0.0
 10
193.5107407781848
 20
135.0408939401447
 30
0.0
 10
193.6173819166802
 20
135.0374676703513
 30
0.0
 10
193.7318743349073
 20
134.947978498297
 30
0.0
 10
193.8194806187407
 20
134.8737851181777
 30
0.0
 10
193.8816646464187
 20
134.7840887957481
 30
0.0
 10
193.9361706889589
 20
134.701617805306
 30
0.0
 10
193.9720860385193
 20
134.6145474150211
 30
0.0
 10
194.0209380098155
 20
134.5100709207593
 30
0.0
 10
194.0411603125047
 20
134.3702968933481
 30
0.0
 10
194.0274977425005
 20
134.2258275394323
 30
0.0
 10
193.9918448140037
 20
134.0977687460993
 30
0.0
 10
193.9544477585323
 20
133.9995250480569
 30
0.0
 10
193.910370877067
 20
133.913997814069
 30
0.0
 10
193.8578256019617
 20
133.8586189234274
 30
0.0
 10
193.8213718019831
 20
133.7882052038376
 30
0.0
 10
193.7513487153467
 20
133.7306105615718
 30
0.0
 10
193.6945842241666
 20
133.6595468567024
 30
0.0
 10
193.6301683484871
 20
133.5985521231242
 30
0.0
 10
193.5938503922392
 20
133.5609191075534
 30
0.0
 10
193.5747026898758
 20
133.5450961510518
 30
0.0
  0
SPLINE
  5
23FB
102
{ACAD_REACTORS
330
23CA
102
}
330
18
100
AcDbEntity
  8
ROGO
 62
     4
100
AcDbSpline
210
0.0
220
0.0
230
1.0
 70
     8
 71
     3
 72
    11
 73
     7
 74
     0
 42
0.0000000001
 43
0.0000000001
 40
0.1647869275458134
 40
0.1647869275458134
 40
0.1647869275458134
 40
0.1647869275458134
 40
0.2895635144633836
 40
0.5387013147903714
 40
0.7953622617455423
 40
0.8850764140209602
 40
0.8850764140209602
 40
0.8850764140209602
 40
0.8850764140209602
 10
193.2748294953054
 20
133.3851969658181
 30
0.0
 10
193.2568570831329
 20
133.3801943380398
 30
0.0
 10
193.2011329255747
 20
133.3712874368891
 30
0.0
 10
193.1076630821115
 20
133.3590572155519
 30
0.0
 10
193.0188246708446
 20
133.3462945333717
 30
0.0
 10
192.9668423489222
 20
133.3472963425375
 30
0.0
 10
192.9533784770823
 20
133.3475558197928
 30
0.0
  0
ELLIPSE
  5
23FC
102
{ACAD_REACTORS
330
23CA
102
}
330
18
100
AcDbEntity
  8
ROGO
 62
     4
100
AcDbEllipse
 10
192.7043208766389
 20
134.1716037365924
 30
0.0
 11
0.2292231973722778
 21
0.2015731185223643
 31
0.0
210
0.0
220
0.0
230
1.0
 40
0.6788083417438792
 41
0.0
 42
6.283185307179586
  0
LINE
  5
23FD
102
{ACAD_REACTORS
330
23CA
102
}
330
18
100
AcDbEntity
  8
ROGO
 62
     4
100
AcDbLine
 10
192.4825886549708
 20
135.0429271551597
 30
0.0
 11
193.4474578562092
 21
135.0429271551597
 31
0.0
  0
SPLINE
  5
23FE
102
{ACAD_REACTORS
330
23CA
102
}
330
18
100
AcDbEntity
  8
ROGO
 62
     4
100
AcDbSpline
210
0.0
220
0.0
230
1.0
 70
     8
 71
     3
 72
     9
 73
     5
 74
     3
 42
0.0000000001
 43
0.0000000001
 44
0.0000000001
 40
0.0
 40
0.0
 40
0.0
 40
0.0
 40
0.146030572742497
 40
0.3423777932799819
 40
0.3423777932799819
 40
0.3423777932799819
 40
0.3423777932799819
 10
193.2748294953054
 20
133.3851969658181
 30
0.0
 10
193.3217387402857
 20
133.3995485454622
 30
0.0
 10
193.4317203932996
 20
133.4331967197888
 30
0.0
 10
193.522590432604
 20
133.5043125569274
 30
0.0
 10
193.5747026898758
 20
133.5450961510518
 30
0.0
 11
193.2748294953054
 21
133.3851969658181
 31
0.0
 11
193.41208047788
 21
133.4350677584506
 31
0.0
 11
193.5747026898758
 21
133.5450961510518
 31
0.0
  0
LINE
  5
23FF
102
{ACAD_REACTORS
330
23F0
102
}
330
18
100
AcDbEntity
  8
ROGO
 62
     4
100
AcDbLine
 10
197.3385664006945
 20
135.0358850162238
 30
0.0
 11
198.3106740696285
 21
135.0358850162238
 31
0.0
  0
LINE
  5
2400
102
{ACAD_REACTORS
330
23F0
102
}
330
18
100
AcDbEntity
  8
ROGO
 62
     4
100
AcDbLine
 10
198.3106740696285
 20
135.0358850162238
 30
0.0
 11
198.0735061219405
 21
134.5602480606597
 31
0.0
  0
LINE
  5
2401
102
{ACAD_REACTORS
330
23F0
102
}
330
18
100
AcDbEntity
  8
ROGO
 62
     4
100
AcDbLine
 10
197.3385664006945
 20
133.0863368726413
 30
0.0
 11
197.6819154867646
 21
132.3977551499161
 31
0.0
  0
LINE
  5
2402
102
{ACAD_REACTORS
330
23F0
102
}
330
18
100
AcDbEntity
  8
ROGO
 62
     4
100
AcDbLine
 10
197.9962735092625
 20
133.71682008307
 30
0.0
 11
198.6540018867646
 21
132.3977551499161
 31
0.0
  0
LINE
  5
2403
102
{ACAD_REACTORS
330
23F0
102
}
330
18
100
AcDbEntity
  8
ROGO
 62
     4
100
AcDbLine
 10
197.9962735092625
 20
133.71682008307
 30
0.0
 11
199.5942990389742
 21
135.0358850162238
 31
0.0
  0
LINE
  5
2404
102
{ACAD_REACTORS
330
23F0
102
}
330
18
100
AcDbEntity
  8
ROGO
 62
     4
100
AcDbLine
 10
198.6222126389742
 20
135.0358850162238
 30
0.0
 11
199.5942990389742
 21
135.0358850162238
 31
0.0
  0
LINE
  5
2405
102
{ACAD_REACTORS
330
23F0
102
}
330
18
100
AcDbEntity
  8
ROGO
 62
     4
100
AcDbLine
 10
197.6819154867646
 20
132.3977551499161
 30
0.0
 11
198.6540018867646
 21
132.3977551499161
 31
0.0
  0
LINE
  5
2406
102
{ACAD_REACTORS
330
23F0
102
}
330
18
100
AcDbEntity
  8
ROGO
 62
     4
100
AcDbLine
 10
198.0735061219405
 20
134.5602480606597
 30
0.0
 11
198.6222126389742
 21
135.0358850162238
 31
0.0
  0
LINE
  5
240B
330
18
100
AcDbEntity
  8
外形線
100
AcDbLine
 10
200.4214504933596
 20
146.8757331089137
 30
0.0
 11
200.4214504933596
 21
145.8035510904406
 31
0.0
  0
LINE
  5
2410
330
18
100
AcDbEntity
  8
外形線
100
AcDbLine
 10
185.4214504933595
 20
168.2929796165349
 30
0.0
 11
185.4214504933595
 21
167.2929796165349
 31
0.0
  0
LINE
  5
2411
330
18
100
AcDbEntity
  8
外形線
100
AcDbLine
 10
193.4214504933596
 20
168.2929796165348
 30
0.0
 11
193.4214504933596
 21
167.2929796165349
 31
0.0
  0
LINE
  5
2412
330
18
100
AcDbEntity
  8
外形線
100
AcDbLine
 10
184.4214504933597
 20
167.2929796165349
 30
0.0
 11
194.4214504933597
 21
167.2929796165349
 31
0.0
  0
LINE
  5
2413
330
18
100
AcDbEntity
  8
外形線
100
AcDbLine
 10
184.4214504933597
 20
165.9929796165349
 30
0.0
 11
194.4214504933597
 21
165.9929796165349
 31
0.0
  0
LINE
  5
2414
330
18
100
AcDbEntity
  8
外形線
100
AcDbLine
 10
184.4214504933597
 20
164.9929796165349
 30
0.0
 11
194.4214504933597
 21
164.9929796165349
 31
0.0
  0
LINE
  5
2415
330
18
100
AcDbEntity
  8
外形線
100
AcDbLine
 10
184.4214504933597
 20
163.6929796165349
 30
0.0
 11
194.4214504933597
 21
163.6929796165349
 31
0.0
  0
LINE
  5
2416
330
18
100
AcDbEntity
  8
外形線
100
AcDbLine
 10
184.4214504933597
 20
162.1929796165349
 30
0.0
 11
194.4214504933597
 21
162.1929796165349
 31
0.0
  0
LINE
  5
2417
330
18
100
AcDbEntity
  8
外形線
100
AcDbLine
 10
184.4214504933596
 20
155.1929796165349
 30
0.0
 11
194.4214504933596
 21
155.1929796165349
 31
0.0
  0
LINE
  5
2418
330
18
100
AcDbEntity
  8
外形線
100
AcDbLine
 10
183.4214504933596
 20
153.692979616535
 30
0.0
 11
195.4214504933596
 21
153.6929796165349
 31
0.0
  0
LINE
  5
2419
330
18
100
AcDbEntity
  8
外形線
100
AcDbLine
 10
184.4214504933596
 20
154.6929796165349
 30
0.0
 11
194.4214504933596
 21
154.6929796165349
 31
0.0
  0
LINE
  5
241A
330
18
100
AcDbEntity
  8
外形線
100
AcDbLine
 10
184.4214504933596
 20
162.1929796165349
 30
0.0
 11
184.4214504933596
 21
155.1929796165349
 31
0.0
  0
POINT
  5
241B
330
18
100
AcDbEntity
  8
DEFPOINTS
  6
ByBlock
 62
     0
100
AcDbPoint
 10
184.4214504933596
 20
154.6929796165349
 30
0.0
  0
LINE
  5
241C
330
18
100
AcDbEntity
  8
外形線
100
AcDbLine
 10
185.4214504933596
 20
155.1929796165349
 30
0.0
 11
185.4214504933596
 21
154.6929796165349
 31
0.0
  0
LINE
  5
241D
330
18
100
AcDbEntity
  8
外形線
100
AcDbLine
 10
183.4214504933596
 20
153.6929796165349
 30
0.0
 11
184.4214504933596
 21
154.6929796165349
 31
0.0
  0
LINE
  5
241E
330
18
100
AcDbEntity
  8
外形線
100
AcDbLine
 10
184.4214504933596
 20
167.2929796165349
 30
0.0
 11
184.4214504933596
 21
165.9929796165349
 31
0.0
  0
LINE
  5
241F
330
18
100
AcDbEntity
  8
外形線
100
AcDbLine
 10
185.4214504933595
 20
165.9929796165348
 30
0.0
 11
185.4214504933596
 21
164.9929796165349
 31
0.0
  0
LINE
  5
2420
330
18
100
AcDbEntity
  8
外形線
100
AcDbLine
 10
184.4214504933596
 20
164.9929796165349
 30
0.0
 11
184.4214504933596
 21
163.6929796165349
 31
0.0
  0
LINE
  5
2421
330
18
100
AcDbEntity
  8
外形線
100
AcDbLine
 10
185.4214504933596
 20
163.6929796165349
 30
0.0
 11
185.4214504933596
 21
162.1929796165349
 31
0.0
  0
LINE
  5
2422
330
18
100
AcDbEntity
  8
外形線
100
AcDbLine
 10
194.4214504933596
 20
162.1929796165349
 30
0.0
 11
194.4214504933596
 21
155.1929796165348
 31
0.0
  0
LINE
  5
2423
330
18
100
AcDbEntity
  8
外形線
100
AcDbLine
 10
193.4214504933596
 20
155.1929796165348
 30
0.0
 11
193.4214504933596
 21
154.6929796165349
 31
0.0
  0
LINE
  5
2424
330
18
100
AcDbEntity
  8
外形線
100
AcDbLine
 10
194.4214504933596
 20
154.6929796165349
 30
0.0
 11
195.4214504933596
 21
153.6929796165349
 31
0.0
  0
LINE
  5
2425
330
18
100
AcDbEntity
  8
外形線
100
AcDbLine
 10
194.4214504933596
 20
167.2929796165348
 30
0.0
 11
194.4214504933596
 21
165.9929796165348
 31
0.0
  0
LINE
  5
2426
330
18
100
AcDbEntity
  8
外形線
100
AcDbLine
 10
193.4214504933596
 20
165.9929796165349
 30
0.0
 11
193.4214504933596
 21
164.9929796165348
 31
0.0
  0
LINE
  5
2427
330
18
100
AcDbEntity
  8
外形線
100
AcDbLine
 10
194.4214504933596
 20
164.9929796165349
 30
0.0
 11
194.4214504933596
 21
163.6929796165349
 31
0.0
  0
LINE
  5
2428
330
18
100
AcDbEntity
  8
外形線
100
AcDbLine
 10
193.4214504933596
 20
163.6929796165349
 30
0.0
 11
193.4214504933596
 21
162.1929796165348
 31
0.0
  0
LINE
  5
2429
330
18
100
AcDbEntity
  8
外形線
100
AcDbLine
 10
184.4214504933597
 20
168.292979616535
 30
0.0
 11
194.4214504933597
 21
168.2929796165349
 31
0.0
  0
LINE
  5
242A
330
18
100
AcDbEntity
  8
外形線
100
AcDbLine
 10
185.9214504933596
 20
171.2929796165348
 30
0.0
 11
192.9214504933596
 21
171.2929796165348
 31
0.0
  0
ARC
  5
242B
330
18
100
AcDbEntity
  8
外形線
100
AcDbCircle
 10
185.9214504933596
 20
169.7929796165349
 30
0.0
 40
1.5
100
AcDbArc
 50
90.0
 51
180.0
  0
LINE
  5
242C
330
18
100
AcDbEntity
  8
外形線
100
AcDbLine
 10
184.4214504933596
 20
169.7929796165349
 30
0.0
 11
184.4214504933596
 21
168.2929796165349
 31
0.0
  0
ARC
  5
242D
330
18
100
AcDbEntity
  8
外形線
100
AcDbCircle
 10
192.9214504933596
 20
169.7929796165349
 30
0.0
 40
1.5
100
AcDbArc
 50
0.0
 51
90.0
  0
LINE
  5
242E
330
18
100
AcDbEntity
  8
外形線
100
AcDbLine
 10
194.4214504933596
 20
169.7929796165349
 30
0.0
 11
194.4214504933596
 21
168.2929796165348
 31
0.0
  0
ARC
  5
242F
330
18
100
AcDbEntity
  8
外形線
100
AcDbCircle
 10
209.9214504933597
 20
127.8929796165349
 30
0.0
 40
1.5
100
AcDbArc
 50
0.0
 51
90.0
  0
LINE
  5
2430
330
18
100
AcDbEntity
  8
外形線
100
AcDbLine
 10
102.5099813818279
 20
153.692979616535
 30
0.0
 11
102.5099813818279
 21
147.2929796165349
 31
0.0
  0
LINE
  5
2431
330
18
100
AcDbEntity
  8
外形線
100
AcDbLine
 10
110.5099813818278
 20
144.3929796165349
 30
0.0
 11
105.0099813818278
 21
144.3929796165349
 31
0.0
  0
LINE
  5
2432
330
18
100
AcDbEntity
  8
外形線
100
AcDbLine
 10
110.5099813818279
 20
145.3929796165349
 30
0.0
 11
105.0099813818278
 21
145.3929796165349
 31
0.0
  0
LINE
  5
2433
330
18
100
AcDbEntity
  8
外形線
100
AcDbLine
 10
110.5099813818279
 20
148.8929796165349
 30
0.0
 11
105.0099813818278
 21
148.8929796165349
 31
0.0
  0
LINE
  5
2434
330
18
100
AcDbEntity
  8
外形線
100
AcDbLine
 10
110.5099813818279
 20
148.8929796165349
 30
0.0
 11
110.5099813818278
 21
144.3929796165349
 31
0.0
  0
LINE
  5
2435
330
18
100
AcDbEntity
  8
外形線
100
AcDbLine
 10
118.0099813818279
 20
147.8929796165348
 30
0.0
 11
110.5099813818279
 21
147.8929796165349
 31
0.0
  0
LINE
  5
2436
330
18
100
AcDbEntity
  8
外形線
100
AcDbLine
 10
105.0099813818278
 20
148.8929796165349
 30
0.0
 11
105.0099813818278
 21
144.3929796165349
 31
0.0
  0
LINE
  5
2437
330
18
100
AcDbEntity
  8
外形線
100
AcDbLine
 10
103.0099813818278
 20
147.2929796165349
 30
0.0
 11
105.0099813818278
 21
147.8929796165349
 31
0.0
  0
LINE
  5
2439
330
18
100
AcDbEntity
  8
外形線
100
AcDbLine
 10
92.50998138182792
 20
168.2929796165349
 30
0.0
 11
92.50998138182792
 21
167.2929796165349
 31
0.0
  0
LINE
  5
243A
330
18
100
AcDbEntity
  8
外形線
100
AcDbLine
 10
100.509981381828
 20
168.2929796165349
 30
0.0
 11
100.509981381828
 21
167.2929796165349
 31
0.0
  0
LINE
  5
243B
330
18
100
AcDbEntity
  8
外形線
100
AcDbLine
 10
101.5099813818279
 20
154.692979616535
 30
0.0
 11
91.5099813818279
 21
154.6929796165349
 31
0.0
  0
LINE
  5
243C
330
18
100
AcDbEntity
  8
外形線
100
AcDbLine
 10
101.5099813818279
 20
155.192979616535
 30
0.0
 11
91.5099813818279
 21
155.1929796165349
 31
0.0
  0
LINE
  5
243D
330
18
100
AcDbEntity
  8
外形線
100
AcDbLine
 10
101.5099813818278
 20
162.192979616535
 30
0.0
 11
91.50998138182785
 21
162.1929796165349
 31
0.0
  0
LINE
  5
243E
330
18
100
AcDbEntity
  8
外形線
100
AcDbLine
 10
101.5099813818278
 20
163.692979616535
 30
0.0
 11
91.50998138182785
 21
163.6929796165349
 31
0.0
  0
LINE
  5
243F
330
18
100
AcDbEntity
  8
外形線
100
AcDbLine
 10
101.5099813818278
 20
164.992979616535
 30
0.0
 11
91.50998138182785
 21
164.9929796165349
 31
0.0
  0
LINE
  5
2440
330
18
100
AcDbEntity
  8
外形線
100
AcDbLine
 10
101.5099813818278
 20
165.992979616535
 30
0.0
 11
91.50998138182785
 21
165.9929796165349
 31
0.0
  0
LINE
  5
2441
330
18
100
AcDbEntity
  8
外形線
100
AcDbLine
 10
101.5099813818278
 20
167.292979616535
 30
0.0
 11
91.50998138182785
 21
167.2929796165349
 31
0.0
  0
LINE
  5
2442
330
18
100
AcDbEntity
  8
外形線
100
AcDbLine
 10
101.5099813818279
 20
162.192979616535
 30
0.0
 11
101.5099813818279
 21
155.1929796165349
 31
0.0
  0
LINE
  5
2443
330
18
100
AcDbEntity
  8
外形線
100
AcDbLine
 10
102.5099813818279
 20
153.692979616535
 30
0.0
 11
101.5099813818279
 21
154.692979616535
 31
0.0
  0
LINE
  5
2444
330
18
100
AcDbEntity
  8
外形線
100
AcDbLine
 10
101.5099813818279
 20
164.992979616535
 30
0.0
 11
101.5099813818279
 21
163.692979616535
 31
0.0
  0
LINE
  5
2445
330
18
100
AcDbEntity
  8
外形線
100
AcDbLine
 10
101.5099813818279
 20
167.2929796165349
 30
0.0
 11
101.5099813818279
 21
165.992979616535
 31
0.0
  0
LINE
  5
2446
330
18
100
AcDbEntity
  8
外形線
100
AcDbLine
 10
91.5099813818279
 20
162.1929796165349
 30
0.0
 11
91.5099813818279
 21
155.1929796165348
 31
0.0
  0
LINE
  5
2447
330
18
100
AcDbEntity
  8
外形線
100
AcDbLine
 10
100.5099813818279
 20
155.1929796165349
 30
0.0
 11
100.5099813818279
 21
154.692979616535
 31
0.0
  0
LINE
  5
2448
330
18
100
AcDbEntity
  8
外形線
100
AcDbLine
 10
92.50998138182792
 20
155.1929796165348
 30
0.0
 11
92.50998138182792
 21
154.6929796165349
 31
0.0
  0
LINE
  5
2449
330
18
100
AcDbEntity
  8
外形線
100
AcDbLine
 10
100.509981381828
 20
165.9929796165348
 30
0.0
 11
100.5099813818279
 21
164.9929796165349
 31
0.0
  0
LINE
  5
244A
330
18
100
AcDbEntity
  8
外形線
100
AcDbLine
 10
100.5099813818279
 20
163.692979616535
 30
0.0
 11
100.5099813818279
 21
162.1929796165349
 31
0.0
  0
LINE
  5
244B
330
18
100
AcDbEntity
  8
外形線
100
AcDbLine
 10
91.5099813818279
 20
164.9929796165349
 30
0.0
 11
91.5099813818279
 21
163.6929796165349
 31
0.0
  0
LINE
  5
244C
330
18
100
AcDbEntity
  8
外形線
100
AcDbLine
 10
92.50998138182792
 20
165.9929796165349
 30
0.0
 11
92.50998138182792
 21
164.9929796165349
 31
0.0
  0
LINE
  5
244D
330
18
100
AcDbEntity
  8
外形線
100
AcDbLine
 10
91.5099813818279
 20
167.2929796165349
 30
0.0
 11
91.5099813818279
 21
165.9929796165348
 31
0.0
  0
LINE
  5
244E
330
18
100
AcDbEntity
  8
外形線
100
AcDbLine
 10
92.50998138182792
 20
163.6929796165349
 30
0.0
 11
92.50998138182792
 21
162.1929796165348
 31
0.0
  0
ARC
  5
244F
330
18
100
AcDbEntity
  8
外形線
100
AcDbCircle
 10
100.0099813818279
 20
169.7929796165349
 30
0.0
 40
1.5
100
AcDbArc
 50
0.000000000000007
 51
90.0
  0
LINE
  5
2450
330
18
100
AcDbEntity
  8
外形線
100
AcDbLine
 10
101.5099813818278
 20
168.292979616535
 30
0.0
 11
91.50998138182785
 21
168.2929796165349
 31
0.0
  0
LINE
  5
2451
330
18
100
AcDbEntity
  8
外形線
100
AcDbLine
 10
101.5099813818279
 20
169.7929796165349
 30
0.0
 11
101.5099813818279
 21
168.2929796165349
 31
0.0
  0
LINE
  5
2452
330
18
100
AcDbEntity
  8
外形線
100
AcDbLine
 10
100.0099813818279
 20
171.2929796165349
 30
0.0
 11
93.00998138182791
 21
171.2929796165349
 31
0.0
  0
ARC
  5
2453
330
18
100
AcDbEntity
  8
外形線
100
AcDbCircle
 10
93.00998138182791
 20
169.7929796165349
 30
0.0
 40
1.5
100
AcDbArc
 50
90.0
 51
180.0
  0
LINE
  5
2454
330
18
100
AcDbEntity
  8
外形線
100
AcDbLine
 10
91.5099813818279
 20
169.7929796165349
 30
0.0
 11
91.5099813818279
 21
168.2929796165348
 31
0.0
  0
LINE
  5
2456
330
18
100
AcDbEntity
  8
外形線
100
AcDbLine
 10
89.50998138182791
 20
147.2929796165348
 30
0.0
 11
89.50998138182786
 21
88.49297961653494
 31
0.0
  0
LINE
  5
2457
330
18
100
AcDbEntity
  8
外形線
100
AcDbLine
 10
88.50998138182792
 20
147.2929796165348
 30
0.0
 11
88.50998138182786
 21
88.49297961653494
 31
0.0
  0
LINE
  5
2458
330
18
100
AcDbEntity
  8
外形線
100
AcDbLine
 10
87.00998138182791
 20
147.2929796165348
 30
0.0
 11
87.00998138182786
 21
88.49297961653494
 31
0.0
  0
LINE
  5
2459
330
18
100
AcDbEntity
  8
外形線
100
AcDbLine
 10
90.50998138182791
 20
88.49297961653489
 30
0.0
 11
90.50998138182791
 21
86.89297961653492
 31
0.0
  0
LINE
  5
245A
330
18
100
AcDbEntity
  8
外形線
100
AcDbLine
 10
90.50998138182791
 20
153.6929796165349
 30
0.0
 11
90.50998138182796
 21
147.2929796165348
 31
0.0
  0
DIMENSION
  5
25CB
330
18
100
AcDbEntity
  8
寸法線
  6
Continuous
100
AcDbDimension
  2
*D2
 10
41.32584950694547
 20
60.6624646090877
 30
0.0
 11
39.45084950694547
 21
65.66246395111616
 31
0.0
 70
    32
 71
     5
 42
9.999998684056905
  3
STYLE3
100
AcDbAlignedDimension
 13
56.50998138182797
 23
70.66246329314459
 33
0.0
 14
56.50998138182797
 24
60.66246460908769
 34
0.0
 50
90.0
100
AcDbRotatedDimension
  0
LINE
  5
25E4
330
18
100
AcDbEntity
  8
中心線
  6
CENTER
 48
1.5
100
AcDbLine
 10
151.3016613527109
 20
117.8929796165349
 30
0.0
 11
225.0445142042687
 21
117.8929796165349
 31
0.0
  0
ARC
  5
25E7
330
18
100
AcDbEntity
  8
外形線
  6
Continuous
100
AcDbCircle
 10
56.51160369020565
 20
51.6624632931446
 30
0.0
 40
1.0
100
AcDbArc
 50
180.0
 51
0.0
  0
LINE
  5
25E8
330
18
100
AcDbEntity
  8
外形線
  6
Continuous
100
AcDbLine
 10
55.26322599857644
 20
55.16246329314483
 30
0.0
 11
55.26322599857642
 21
52.66246329314462
 31
0.0
  0
LINE
  5
25E9
330
18
100
AcDbEntity
  8
外形線
  6
Continuous
100
AcDbLine
 10
55.51160369020564
 20
51.6624632931446
 30
0.0
 11
55.51160369020564
 21
52.66246329314459
 31
0.0
  0
LINE
  5
25EA
330
18
100
AcDbEntity
  8
外形線
  6
Continuous
100
AcDbLine
 10
57.51160369020564
 20
51.6624632931446
 30
0.0
 11
57.51160369020564
 21
52.66246329314461
 31
0.0
  0
POINT
  5
25EB
330
18
100
AcDbEntity
  8
外形線
  6
Continuous
100
AcDbPoint
 10
56.51160369020565
 20
50.66246329314459
 30
0.0
  0
LINE
  5
25EC
330
18
100
AcDbEntity
  8
外形線
  6
Continuous
100
AcDbLine
 10
55.26322599857642
 20
52.66246329314462
 30
0.0
 11
60.26322599857642
 21
52.66246329314459
 31
0.0
  0
LINE
  5
25ED
330
18
100
AcDbEntity
  8
外形線
  6
Continuous
100
AcDbLine
 10
55.26322599857644
 20
55.16246329314462
 30
0.0
 11
99.51322599857642
 21
55.16246329314459
 31
0.0
  0
LINE
  5
25EE
330
18
100
AcDbEntity
  8
外形線
  6
Continuous
100
AcDbLine
 10
60.26322599857642
 20
52.46246329314459
 30
0.0
 11
86.71322599857644
 21
50.16246329314459
 31
0.0
  0
LINE
  5
25EF
330
18
100
AcDbEntity
  8
外形線
  6
Continuous
100
AcDbLine
 10
86.71322599857644
 20
55.16246329314466
 30
0.0
 11
86.7132259985764
 21
50.16246329314466
 31
0.0
  0
LINE
  5
25F0
330
18
100
AcDbEntity
  8
外形線
  6
Continuous
100
AcDbLine
 10
86.71322599857644
 20
50.16246329314459
 30
0.0
 11
99.51322599857642
 21
50.16246329314459
 31
0.0
  0
LINE
  5
25F1
330
18
100
AcDbEntity
  8
外形線
  6
Continuous
100
AcDbLine
 10
99.51322599857645
 20
55.16246329314459
 30
0.0
 11
99.51322599857642
 21
50.16246329314459
 31
0.0
  0
LINE
  5
25F2
330
18
100
AcDbEntity
  8
外形線
  6
Continuous
100
AcDbLine
 10
93.01322599857654
 20
48.46246329314459
 30
0.0
 11
100.0132259985765
 21
48.46246329314458
 31
0.0
  0
LINE
  5
25F3
330
18
100
AcDbEntity
  8
外形線
  6
Continuous
100
AcDbLine
 10
93.01322599857654
 20
46.66246329314458
 30
0.0
 11
100.0132259985765
 21
46.66246329314458
 31
0.0
  0
HATCH
  5
25F4
330
18
100
AcDbEntity
  8
外形線
  6
Continuous
100
AcDbHatch
 10
0.0
 20
0.0
 30
0.0
210
0.0
220
0.0
230
1.0
  2
ANSI37
 70
     0
 71
     0
 91
        1
 92
        7
 72
     0
 73
     1
 93
        4
 10
96.51322599857653
 20
46.66246329314458
 10
96.51322599857657
 20
48.46246329314458
 10
93.0132259985765
 20
48.46246329314457
 10
93.01322599857654
 20
46.66246329314458
 97
        0
 75
     0
 76
     1
 52
0.0
 41
10.0
 77
     0
 78
     2
 53
45.0
 43
-37.4284696742582
 44
-10.15647494065482
 45
-0.8838834764831842
 46
0.8838834764831844
 79
     0
 53
135.0
 43
-37.4284696742582
 44
-10.15647494065482
 45
-0.8838834764831844
 46
-0.8838834764831842
 79
     0
 47
0.0290194081541337
 98
        1
 10
95.47633711474984
 20
47.26664522170866
  0
LINE
  5
25F5
330
18
100
AcDbEntity
  8
外形線
  6
Continuous
100
AcDbLine
 10
93.01322599857654
 20
48.46246329314459
 30
0.0
 11
93.01322599857654
 21
46.66246329314458
 31
0.0
  0
ARC
  5
25F6
330
18
100
AcDbEntity
  8
外形線
  6
Continuous
100
AcDbCircle
 10
91.54711420984055
 20
49.82280009810479
 30
0.0
 40
2.0
100
AcDbArc
 50
317.1431959908905
 51
9.77802792846538
  0
ARC
  5
25F7
330
18
100
AcDbEntity
  8
外形線
  6
Continuous
100
AcDbCircle
 10
101.4793377873125
 20
49.82280009810479
 30
0.0
 40
2.0
100
AcDbArc
 50
170.2219720715346
 51
222.8568040091095
  0
LINE
  5
25F8
330
18
100
AcDbEntity
  8
外形線
  6
Continuous
100
AcDbLine
 10
100.0132259985765
 20
48.46246329314458
 30
0.0
 11
100.0132259985765
 21
46.66246329314458
 31
0.0
  0
POINT
  5
25F9
330
18
100
AcDbEntity
  8
外形線
  6
Continuous
100
AcDbPoint
 10
100.0132259985765
 20
46.66246329314458
 30
0.0
  0
DIMENSION
  5
2605
330
18
100
AcDbEntity
  8
寸法線
  6
Continuous
100
AcDbDimension
  2
*D3
 10
41.32584950694547
 20
50.66246460908771
 30
0.0
 11
39.45084950694546
 21
55.66246460908771
 31
0.0
 70
    32
 71
     5
 42
9.999999999999992
  3
STYLE3
100
AcDbAlignedDimension
 13
56.50998138182797
 23
60.66246460908769
 33
0.0
 14
56.50998138182798
 24
50.6624646090877
 34
0.0
 50
90.0
100
AcDbRotatedDimension
1001
ACAD
1000
DSTYLE
1002
{
1070
    75
1070
     1
1070
   279
1070
     1
1002
}
  0
DIMENSION
  5
2623
330
18
100
AcDbEntity
  8
寸法線
  6
Continuous
100
AcDbDimension
  2
*D4
 10
41.32584950694547
 20
85.66246329314457
 30
0.0
 11
39.45084950694546
 21
78.16246329314459
 31
0.0
 70
    32
 71
     5
 42
15.0
  3
STYLE3
100
AcDbAlignedDimension
 13
56.50998138182797
 23
70.66246329314458
 33
0.0
 14
56.50998138182798
 24
85.66246329314457
 34
0.0
 50
90.0
100
AcDbRotatedDimension
1001
ACAD
1000
DSTYLE
1002
{
1070
    75
1070
     1
1070
   279
1070
     1
1002
}
  0
ARC
  5
263A
330
18
100
AcDbEntity
  8
想像線
 62
     1
100
AcDbCircle
 10
56.50998138182797
 20
84.66246329314458
 30
0.0
 40
1.0
100
AcDbArc
 50
0.0
 51
180.0
  0
LINE
  5
263B
330
18
100
AcDbEntity
  8
想像線
 62
     1
100
AcDbLine
 10
55.50998138182797
 20
84.66246329314458
 30
0.0
 11
55.50998138182797
 21
83.66246329314458
 31
0.0
  0
POINT
  5
263C
330
18
100
AcDbEntity
  8
想像線
 62
     1
100
AcDbPoint
 10
55.50998138182797
 20
83.66246329314458
 30
0.0
  0
LINE
  5
263D
330
18
100
AcDbEntity
  8
想像線
 62
     1
100
AcDbLine
 10
57.50998138182797
 20
84.66246329314458
 30
0.0
 11
57.50998138182797
 21
83.66246329314456
 31
0.0
  0
POINT
  5
263E
330
18
100
AcDbEntity
  8
想像線
 62
     1
100
AcDbPoint
 10
56.50998138182797
 20
85.66246329314457
 30
0.0
  0
DIMENSION
  5
264B
330
18
100
AcDbEntity
  8
寸法線
  6
Continuous
100
AcDbDimension
  2
*D5
 10
34.65789920923441
 20
50.6624646090877
 30
0.0
 11
32.78289920923441
 21
68.16246395111615
 31
0.0
 70
    32
 71
     5
 42
34.99999868405689
  3
STYLE3
100
AcDbAlignedDimension
 13
40.07584950694547
 23
85.66246329314457
 33
0.0
 14
40.07584950694547
 24
50.6624646090877
 34
0.0
 50
90.0
100
AcDbRotatedDimension
  0
LINE
  5
2656
330
18
100
AcDbEntity
  8
0
  6
ByBlock
 62
     2
100
AcDbLine
 10
62.2612934400421
 20
78.54668267660681
 30
0.0
 11
57.05341244244664
 21
70.50191709315678
 31
0.0
  0
LINE
  5
2658
330
18
100
AcDbEntity
  8
0
  6
ByBlock
 62
     2
100
AcDbLine
 10
56.50998138182797
 20
69.6624632931446
 30
0.0
 11
57.05341244244664
 21
70.50191709315678
 31
0.0
  0
INSERT
  5
2659
330
18
100
AcDbEntity
  8
0
  6
ByBlock
 62
     2
100
AcDbBlockReference
  2
_OPEN
 10
57.05341244244664
 20
70.50191709315678
 30
0.0
 41
2.5
 42
2.5
 43
2.5
 50
237.0824871195951
  0
POINT
  5
265A
330
18
100
AcDbEntity
  8
DEFPOINTS
  6
ByBlock
 62
     0
100
AcDbPoint
 10
57.05341244244664
 20
70.50191709315678
 30
0.0
  0
POINT
  5
265B
330
18
100
AcDbEntity
  8
DEFPOINTS
  6
ByBlock
 62
     0
100
AcDbPoint
 10
56.50998138182797
 20
69.6624632931446
 30
0.0
  0
LINE
  5
265C
330
18
100
AcDbEntity
  8
寸法線
  6
Continuous
100
AcDbLine
 10
62.2612934400421
 20
78.54668267660681
 30
0.0
 11
80.75871539038951
 21
78.54668267660681
 31
0.0
  0
TEXT
  5
265D
330
18
100
AcDbEntity
  8
文字
  6
Continuous
100
AcDbText
 10
62.1520622135281
 20
79.14560860886382
 30
0.0
 40
2.5
  1
2-SR1.25
  7
STYLE3
100
AcDbText
  0
LINE
  5
2718
330
18
100
AcDbEntity
  8
外形線
  6
Continuous
100
AcDbLine
 10
60.26322599857642
 20
52.66246329314459
 30
0.0
 11
60.26322599857642
 21
52.46246329314459
 31
0.0
  0
TEXT
  5
2C99
330
18
100
AcDbEntity
  8
寸法線
100
AcDbText
 10
179.4801183530272
 20
103.0034722136877
 30
0.0
 40
1.199999999999999
  1
MODE
  7
STYLE4
100
AcDbText
  0
TEXT
  5
2C9A
330
18
100
AcDbEntity
  8
寸法線
100
AcDbText
 10
193.6858059132145
 20
103.0034722136877
 30
0.0
 40
1.199999999999999
  1
ON/OFF
  7
STYLE4
100
AcDbText
  0
LINE
  5
2C9B
330
18
100
AcDbEntity
  8
外形線
100
AcDbLine
 10
173.4214504933596
 20
104.3929796165349
 30
0.0
 11
173.4214504933596
 21
94.24979878146116
 31
0.0
  0
LINE
  5
2C9C
330
18
100
AcDbEntity
  8
外形線
100
AcDbLine
 10
205.4214504933597
 20
104.3929796165349
 30
0.0
 11
205.4214504933597
 21
94.24979878146116
 31
0.0
  0
LINE
  5
2C9D
330
18
100
AcDbEntity
  8
外形線
100
AcDbLine
 10
174.4214504933596
 20
105.3929796165349
 30
0.0
 11
204.4214504933596
 21
105.3929796165349
 31
0.0
  0
ARC
  5
2C9E
330
18
100
AcDbEntity
  8
外形線
100
AcDbCircle
 10
189.4214504933596
 20
117.8929796165349
 30
0.0
 40
29.0
100
AcDbArc
 50
237.6076345141537
 51
302.3923654858463
  0
ARC
  5
2C9F
330
18
100
AcDbEntity
  8
外形線
100
AcDbCircle
 10
174.4214504933596
 20
104.3929796165349
 30
0.0
 40
1.0
100
AcDbArc
 50
90.0
 51
180.0
  0
ARC
  5
2CA0
330
18
100
AcDbEntity
  8
外形線
100
AcDbCircle
 10
204.4214504933596
 20
104.3929796165349
 30
0.0
 40
1.0
100
AcDbArc
 50
0.0
 51
90.0
  0
ARC
  5
2CA1
330
18
100
AcDbEntity
  8
外形線
100
AcDbCircle
 10
204.4214504933596
 20
94.24979878146116
 30
0.0
 40
1.0
100
AcDbArc
 50
302.3923654858425
 51
0.0
  0
ELLIPSE
  5
2CA2
330
18
100
AcDbEntity
  8
外形線
100
AcDbEllipse
 10
197.2702323809684
 20
97.98469614335562
 30
0.0
 11
-4.089143464216689
 21
0.0
 31
0.0
210
0.0
220
0.0
230
1.0
 40
0.6358299782710266
 41
0.0
 42
6.283185307179586
  0
ELLIPSE
  5
2CA3
330
18
100
AcDbEntity
  8
外形線
100
AcDbEllipse
 10
182.0940366839594
 20
97.98469614335562
 30
0.0
 11
-4.089143464216689
 21
0.0
 31
0.0
210
0.0
220
0.0
230
1.0
 40
0.6358299782710266
 41
0.0
 42
6.283185307179586
  0
TEXT
  5
2CA4
330
18
100
AcDbEntity
  8
寸法線
100
AcDbText
 10
195.5759468020577
 20
91.85024845109643
 30
0.0
 40
1.199999999999999
  1
SET
  7
STYLE4
100
AcDbText
  0
ELLIPSE
  5
2CA5
330
18
100
AcDbEntity
  8
外形線
100
AcDbEllipse
 10
197.2702323809684
 20
97.98469614335562
 30
0.0
 11
-5.473687379191062
 21
0.0
 31
0.0
210
0.0
220
0.0
230
1.0
 40
0.7307688077339824
 41
0.0
 42
6.283185307179586
  0
ELLIPSE
  5
2CA6
330
18
100
AcDbEntity
  8
外形線
100
AcDbEllipse
 10
182.0940366839594
 20
97.98469614335562
 30
0.0
 11
-5.473687379191062
 21
0.0
 31
0.0
210
0.0
220
0.0
230
1.0
 40
0.7307688077339824
 41
0.0
 42
6.283185307179586
  0
LINE
  5
2CA7
330
18
100
AcDbEntity
  8
中心線
 48
1.5
100
AcDbLine
 10
175.1244485863932
 20
97.98469614335562
 30
0.0
 11
189.0636247815254
 21
97.98469614335562
 31
0.0
  0
LINE
  5
2CA8
330
18
100
AcDbEntity
  8
中心線
 48
1.5
100
AcDbLine
 10
182.0940366839594
 20
103.3023061271461
 30
0.0
 11
182.0940366839594
 21
92.70345738690588
 31
0.0
  0
LINE
  5
2CA9
330
18
100
AcDbEntity
  8
中心線
 48
1.5
100
AcDbLine
 10
197.2702323809684
 20
103.3023061271461
 30
0.0
 11
197.2702323809684
 21
92.70345738690588
 31
0.0
  0
LINE
  5
2CAA
330
18
100
AcDbEntity
  8
中心線
 48
1.5
100
AcDbLine
 10
190.3006442834022
 20
97.98469614335562
 30
0.0
 11
204.2398204785344
 21
97.98469614335562
 31
0.0
  0
ARC
  5
2CAB
330
18
100
AcDbEntity
  8
外形線
100
AcDbCircle
 10
174.4214504933597
 20
94.24979878146116
 30
0.0
 40
1.0
100
AcDbArc
 50
180.0
 51
237.6076345141576
  0
DIMENSION
  5
2CB6
330
18
100
AcDbEntity
  8
外形線
  6
Continuous
100
AcDbDimension
  2
*D7
 10
132.4029468677573
 20
87.89297961653506
 30
0.0
 11
130.5279468677573
 21
117.8929796165349
 31
0.0
 70
    32
  1
%%C<>
 71
     5
 42
59.9999999999998
  3
STYLE3
100
AcDbAlignedDimension
 13
118.0099813818279
 23
147.8929796165348
 33
0.0
 14
118.0099813818279
 24
87.89297961653506
 34
0.0
 50
90.0
100
AcDbRotatedDimension
1001
ACAD
1000
DSTYLE
1002
{
1070
   341
1005
0
1002
}
  0
LINE
  5
3063
330
18
100
AcDbEntity
  8
外形線
100
AcDbLine
 10
92.11297913326539
 20
185.9049551572119
 30
0.0
 11
188.1129791332654
 21
185.9049551572119
 31
0.0
  0
LINE
  5
3064
330
18
100
AcDbEntity
  8
外形線
100
AcDbLine
 10
92.11297913326539
 20
184.904955157212
 30
0.0
 11
188.1129791332654
 21
184.904955157212
 31
0.0
  0
TEXT
  5
3065
330
18
100
AcDbEntity
  8
文字
100
AcDbText
 10
92.52500813326539
 20
188.189747157212
 30
0.0
 40
3.5
  1
Model No.GH-127 Digital Hole Gauge
  7
STYLE3
100
AcDbText
  0
LINE
  5
3067
330
18
100
AcDbEntity
  8
外形線
100
AcDbLine
 10
118.5364718991828
 20
23.55300615003403
 30
0.0
 11
259.3278898991828
 21
23.55300615003403
 31
0.0
  0
LINE
  5
3068
330
18
100
AcDbEntity
  8
外形線
100
AcDbLine
 10
118.5364718991828
 20
12.77280015003403
 30
0.0
 11
259.3278898991828
 21
12.77280015003403
 31
0.0
  0
TEXT
  5
3069
330
18
100
AcDbEntity
  8
0
  6
Continuous
100
AcDbText
 10
119.9939388991828
 20
14.67079015003403
 30
0.0
 40
2.1
  1
Design and specifications are subject to change without notice for future improvement.
  7
STYLE3
100
AcDbText
  0
TEXT
  5
306A
330
18
100
AcDbEntity
  8
0
  6
Continuous
100
AcDbText
 10
120.2854328991828
 20
18.59993815003403
 30
0.0
 40
3.5
  1
仕様及び外観は予告なく変更される場合がございますのでご了承下さい。
  7
STYLE3
100
AcDbText
  0
TEXT
  5
306B
330
18
100
AcDbEntity
  8
0
  6
Continuous
100
AcDbText
 10
119.7024478991828
 20
4.906162150034029
 30
0.0
 40
2.1
  1
3RD Angle Projection
  7
STYLE3
100
AcDbText
  0
TEXT
  5
306C
330
18
100
AcDbEntity
  8
0
  6
Continuous
100
AcDbText
 10
122.3258908991828
 20
8.402445150034029
 30
0.0
 40
3.0
  1
三　　角　　法
  7
STYLE3
100
AcDbText
  0
LINE
  5
306D
330
18
100
AcDbEntity
  8
外形線
100
AcDbLine
 10
118.5364718991828
 20
3.158022150034029
 30
0.0
 11
118.5364718991828
 21
23.55300615003403
 31
0.0
  0
LINE
  5
306E
330
18
100
AcDbEntity
  8
外形線
100
AcDbLine
 10
220.5592388991828
 20
12.77280015003403
 30
0.0
 11
220.5592388991828
 21
3.158022150034029
 31
0.0
  0
LINE
  5
306F
330
18
100
AcDbEntity
  8
外形線
100
AcDbLine
 10
190.8268888991828
 20
12.77280015003403
 30
0.0
 11
190.8268888991828
 21
3.158022150034029
 31
0.0
  0
LINE
  5
3070
330
18
100
AcDbEntity
  8
外形線
100
AcDbLine
 10
171.2968168991828
 20
12.77280015003403
 30
0.0
 11
171.2968168991828
 21
3.158022150034029
 31
0.0
  0
LINE
  5
3071
330
18
100
AcDbEntity
  8
外形線
100
AcDbLine
 10
153.8071998991828
 20
12.77280015003403
 30
0.0
 11
153.8071998991828
 21
3.158022150034029
 31
0.0
  0
TEXT
  5
3072
330
18
100
AcDbEntity
  8
0
  6
Continuous
100
AcDbText
 10
155.2646688991828
 20
8.408400150034029
 30
0.0
 40
3.0
  1
単位
  7
STYLE3
100
AcDbText
  0
TEXT
  5
3073
330
18
100
AcDbEntity
  8
0
  6
Continuous
100
AcDbText
 10
155.4363898991828
 20
4.906163150034029
 30
0.0
 40
2.1
  1
Unit
  7
STYLE3
100
AcDbText
  0
TEXT
  5
3074
330
18
100
AcDbEntity
  8
0
  6
Continuous
100
AcDbText
 10
172.5825648991828
 20
8.117042150034029
 30
0.0
 40
3.0
  1
尺 度
  7
STYLE3
100
AcDbText
  0
TEXT
  5
3075
330
18
100
AcDbEntity
  8
0
  6
Continuous
100
AcDbText
 10
163.3067168991828
 20
6.654306150034029
 30
0.0
 40
2.399999999999999
  1
mm
  7
STYLE3
100
AcDbText
  0
TEXT
  5
3076
330
18
100
AcDbEntity
  8
0
  6
Continuous
100
AcDbText
 10
173.0457798991828
 20
5.19752015003403
 30
0.0
 40
2.1
  1
Scale
  7
STYLE3
100
AcDbText
  0
TEXT
  5
3077
330
18
100
AcDbEntity
  8
0
  6
Continuous
100
AcDbText
 10
182.6650688991828
 20
6.94566315003403
 30
0.0
 40
2.399999999999999
  1
1/1
  7
STYLE3
100
AcDbText
  0
TEXT
  5
3078
330
18
100
AcDbEntity
  8
0
  6
Continuous
100
AcDbText
 10
192.7588398991828
 20
4.90616415003403
 30
0.0
 40
2.1
  1
Date
  7
STYLE3
100
AcDbText
  0
TEXT
  5
3079
330
18
100
AcDbEntity
  8
0
  6
Continuous
100
AcDbText
 10
192.3754788991828
 20
8.23924715003403
 30
0.0
 40
3.0
  1
日 付
  7
STYLE3
100
AcDbText
  0
TEXT
  5
307A
330
18
100
AcDbEntity
  8
0
  6
Continuous
100
AcDbText
 10
201.5036478991829
 20
6.65430515003403
 30
0.0
 40
2.1
  1
2010.07.01
  7
STYLE3
100
AcDbText
  0
TEXT
  5
307B
330
18
100
AcDbEntity
  8
0
  6
Continuous
100
AcDbText
 10
221.9082018991828
 20
8.693802150034029
 30
0.0
 40
3.0
  1
株式会社　尾崎製作所
  7
STYLE3
100
AcDbText
  0
TEXT
  5
307C
330
18
100
AcDbEntity
  8
0
  6
Continuous
100
AcDbText
 10
222.7826808991828
 20
4.906163150034029
 30
0.0
 40
2.1
  1
OZAKI MFG. CO., LTD.
  7
STYLE3
100
AcDbText
  0
VIEWPORT
  5
1EF
330
15
100
AcDbEntity
 67
     1
  8
0
  6
Continuous
100
AcDbViewport
 10
7.751396648044692
 20
4.5
 30
0.0
 40
15.50279329608938
 41
9.0
 68
     1
 69
     1
 12
7.751396648044692
 22
4.5
 13
0.0
 23
0.0
 14
1.0
 24
1.0
 15
0.0
 25
0.0
 16
0.0
 26
0.0
 36
1.0
 17
0.0
 27
0.0
 37
0.0
 42
50.0
 43
0.0
 44
0.0
 45
9.0
 50
0.0
 51
0.0
 72
   100
 90
    32800
  1

281
     0
 71
     1
 74
     0
110
0.0
120
0.0
130
0.0
111
1.0
121
0.0
131
0.0
112
0.0
122
1.0
132
0.0
 79
     0
146
0.0
170
     0
  0
ENDSEC
  0
SECTION
  2
OBJECTS
  0
DICTIONARY
  5
C
330
0
100
AcDbDictionary
281
     1
  3
ACAD_COLOR
350
2732
  3
ACAD_GROUP
350
D
  3
ACAD_IMAGE_DICT
350
11D8
  3
ACAD_LAYOUT
350
2735
  3
ACAD_MATERIAL
350
2731
  3
ACAD_MLINESTYLE
350
1B
  3
ACAD_PLOTSETTINGS
350
2736
  3
ACAD_PLOTSTYLENAME
350
272F
  3
ACAD_TABLESTYLE
350
2733
  3
ACDBVARIABLEDICTIONARY
350
C1
  0
DICTIONARY
  5
2780
330
2
100
AcDbDictionary
280
     1
281
     1
  3
ACAD_LAYERSTATES
360
2781
  0
DICTIONARY
  5
2CCD
330
18
100
AcDbDictionary
280
     1
281
     1
  3
ACAD_SORTENTS
360
2CCE
  0
DICTIONARY
  5
2732
102
{ACAD_REACTORS
330
C
102
}
330
C
100
AcDbDictionary
281
     1
  0
DICTIONARY
  5
D
102
{ACAD_REACTORS
330
C
102
}
330
C
100
AcDbDictionary
281
     1
  0
DICTIONARY
  5
11D8
102
{ACAD_REACTORS
330
C
102
}
330
C
100
AcDbDictionary
281
     1
  3
ROGO01
350
11D9
  0
DICTIONARY
  5
2735
102
{ACAD_REACTORS
330
C
102
}
330
C
100
AcDbDictionary
281
     1
  3
Model
350
2737
  3
レイアウト1
350
2738
  0
DICTIONARY
  5
2731
102
{ACAD_REACTORS
330
C
102
}
330
C
100
AcDbDictionary
281
     1
  0
DICTIONARY
  5
1B
102
{ACAD_REACTORS
330
C
102
}
330
C
100
AcDbDictionary
281
     1
  3
STANDARD
350
1C
  0
DICTIONARY
  5
2736
102
{ACAD_REACTORS
330
C
102
}
330
C
100
AcDbDictionary
281
     1
  0
ACDBDICTIONARYWDFLT
  5
272F
102
{ACAD_REACTORS
330
C
102
}
330
C
100
AcDbDictionary
281
     1
  3
Normal
350
2730
100
AcDbDictionaryWithDefault
340
2730
  0
DICTIONARY
  5
2733
102
{ACAD_REACTORS
330
C
102
}
330
C
100
AcDbDictionary
281
     1
  3
Standard
350
2734
  0
DICTIONARY
  5
C1
102
{ACAD_REACTORS
330
C
102
}
330
C
100
AcDbDictionary
281
     1
  3
CTABLESTYLE
350
2741
  3
SORTENTS
350
C2
  0
DICTIONARY
  5
2781
102
{ACAD_REACTORS
330
2780
102
}
330
2780
100
AcDbDictionary
281
     1
  0
SORTENTSTABLE
  5
2CCE
102
{ACAD_REACTORS
330
2CCD
102
}
330
2CCD
100
AcDbSortentsTable
330
18
331
2C9B
  5
2C99
331
2400
  5
23FE
331
17B1
  5
17B1
331
85
  5
85
331
2CA3
  5
2CA1
331
2323
  5
2323
331
23C1
  5
23BF
331
18E7
  5
18E7
331
23C9
  5
23C7
331
156A
  5
156A
331
8D
  5
8D
331
2392
  5
2379
331
243F
  5
243D
331
18EF
  5
18EF
331
2447
  5
2445
331
17C1
  5
17C1
331
23D1
  5
23CF
331
239A
  5
2398
331
2410
  5
2406
331
25EE
  5
25EC
331
265D
  5
265B
331
18F7
  5
18F7
331
244F
  5
244D
331
23D9
  5
23D7
331
234B
  5
234B
331
23A2
  5
23A0
331
2418
  5
2416
331
25F6
  5
25F4
331
42
  5
42
331
1C6E
  5
1C6E
331
18FF
  5
18FF
331
2457
  5
2454
331
4A
  5
4A
331
62
  5
62
331
2CAB
  5
2CA9
331
2CB3
  5
2CB1
331
1810
  5
1810
331
2420
  5
241E
331
23AA
  5
23A8
331
23E1
  5
23DF
331
1907
  5
1907
331
1818
  5
1818
331
2428
  5
2426
331
17D9
  5
17D9
331
23E9
  5
23E7
331
268D
  5
268B
331
190F
  5
190F
331
2695
  5
2693
331
23F1
  5
23EF
331
236B
  5
236A
331
23BA
  5
23B8
331
2430
  5
242E
331
1203
  5
1203
331
23F9
  5
23F7
331
263E
  5
263C
331
72
  5
72
331
2B
  5
2B
331
33
  5
33
331
3B
  5
3B
331
2C9C
  5
2C9A
331
17F1
  5
17F1
331
86
  5
86
331
17B2
  5
17B2
331
2CA4
  5
2CA2
331
23C2
  5
23C0
331
2401
  5
23FF
331
17F9
  5
17F9
331
18E8
  5
18E8
331
23CA
  5
23C8
331
2393
  5
2392
331
8E
  5
8E
331
232C
  5
232C
331
2440
  5
243E
331
25E7
  5
25CB
331
2448
  5
2446
331
2411
  5
240B
331
17C2
  5
17C2
331
239B
  5
2399
331
23D2
  5
23D0
331
25EF
  5
25ED
331
2656
  5
263E
331
25F7
  5
25F5
331
18F8
  5
18F8
331
2419
  5
2417
331
17CA
  5
17CA
331
23DA
  5
23D8
331
234C
  5
234C
331
23A3
  5
23A1
331
2450
  5
244E
331
43
  5
43
331
1C6F
  5
1C6F
331
2686
  5
2680
331
4B
  5
4B
331
2CAC
  5
2CAA
331
2CB4
  5
2CB2
331
2458
  5
2456
331
2421
  5
241F
331
23E2
  5
23E0
331
23AB
  5
23A9
331
1811
  5
1811
331
268E
  5
268C
331
2429
  5
2427
331
23EA
  5
23E8
331
1819
  5
1819
331
17DA
  5
17DA
331
1693
  5
1693
331
1908
  5
1908
331
2431
  5
242F
331
23F2
  5
23F0
331
236C
  5
236B
331
23BB
  5
23B9
331
1821
  5
1821
331
1910
  5
1910
331
23FA
  5
23F8
331
2374
  5
236F
331
17EA
  5
17EA
331
34
  5
34
331
3C
  5
3C
331
2C9D
  5
2C9B
331
2439
  5
2436
331
2402
  5
2400
331
23C3
  5
23C1
331
2325
  5
2325
331
17B3
  5
17B3
331
2FE
  5
2FE
331
2CA5
  5
2CA3
331
87
  5
87
331
17F2
  5
17F2
331
2441
  5
243F
331
25E8
  5
25E4
331
18E9
  5
18E9
331
23CB
  5
23C9
331
2394
  5
2393
331
8F
  5
8F
331
17FA
  5
17FA
331
2449
  5
2447
331
25F0
  5
25EE
331
2412
  5
2410
331
18F1
  5
18F1
331
23D3
  5
23D1
331
1802
  5
1802
331
239C
  5
239A
331
17C3
  5
17C3
331
2451
  5
244F
331
25F8
  5
25F6
331
44
  5
44
331
23DB
  5
23D9
331
241A
  5
2418
331
23A4
  5
23A2
331
234D
  5
234D
331
17CB
  5
17CB
331
18F9
  5
18F9
331
2687
  5
2681
331
4C
  5
4C
331
2CAD
  5
2CAB
331
2459
  5
2457
331
2422
  5
2420
331
23AC
  5
23AA
331
23E3
  5
23E1
331
1C70
  5
1C70
331
242A
  5
2428
331
268F
  5
268D
331
23EB
  5
23E9
331
2365
  5
2350
331
17DB
  5
17DB
331
181A
  5
181A
331
2432
  5
2430
331
1911
  5
1911
331
23F3
  5
23F1
331
236D
  5
236C
331
23BC
  5
23BA
331
1822
  5
1822
331
23FB
  5
23F9
331
17EB
  5
17EB
331
35
  5
35
331
7C
  5
7C
331
3D
  5
3D
331
2EBD
  5
2EBD
331
2C9E
  5
2C9C
331
80
  5
80
331
243A
  5
2437
331
2403
  5
2401
331
18E2
  5
18E2
331
2326
  5
2326
331
23C4
  5
23C2
331
17F3
  5
17F3
331
2CA6
  5
2CA4
331
88
  5
88
331
2FF
  5
2FF
331
2442
  5
2440
331
25E9
  5
25E7
331
240B
  5
2405
331
2395
  5
2394
331
23CC
  5
23CA
331
18EA
  5
18EA
331
244A
  5
2448
331
25F1
  5
25EF
331
2658
  5
264B
331
2413
  5
2411
331
23D4
  5
23D2
331
239D
  5
239B
331
17C4
  5
17C4
331
18F2
  5
18F2
331
2680
  5
265C
331
241B
  5
2419
331
23DC
  5
23DA
331
2452
  5
2450
331
25F9
  5
25F7
331
45
  5
45
331
23A5
  5
23A3
331
17CC
  5
17CC
331
4D
  5
4D
331
5D
  5
5D
331
2CB6
  5
2CB3
331
1C71
  5
1C71
331
2688
  5
2686
331
245A
  5
2458
331
23E4
  5
23E2
331
23AD
  5
23AB
331
2423
  5
2421
331
190A
  5
190A
331
2690
  5
268E
331
181B
  5
181B
331
17DC
  5
17DC
331
23EC
  5
23EA
331
2366
  5
2365
331
242B
  5
2429
331
2319
  5
2319
331
2433
  5
2431
331
23F4
  5
23F2
331
17AD
  5
17AD
331
236E
  5
236D
331
23BD
  5
23BB
331
2698
  5
2694
331
194A
  5
194A
331
23FC
  5
23FA
331
75
  5
75
331
7D
  5
7D
331
36
  5
36
331
3E
  5
3E
331
81
  5
81
331
2C9F
  5
2C9D
331
19BA
  5
19BA
331
2404
  5
2402
331
89
  5
89
331
2CA7
  5
2CA5
331
2327
  5
2327
331
23C5
  5
23C3
331
243B
  5
2439
331
18EB
  5
18EB
331
17FC
  5
17FC
331
232F
  5
232F
331
23CD
  5
23CB
331
2443
  5
2441
331
25EA
  5
25E8
331
2659
  5
2656
331
18F3
  5
18F3
331
244B
  5
2449
331
1804
  5
1804
331
17C5
  5
17C5
331
23D5
  5
23D3
331
239E
  5
239C
331
2414
  5
2412
331
25F2
  5
25F0
331
2718
  5
269B
331
46
  5
46
331
2681
  5
265D
331
2453
  5
2451
331
241C
  5
241A
331
23A6
  5
23A4
331
23DD
  5
23DB
331
4E
  5
4E
331
5E
  5
5E
331
1814
  5
1814
331
2424
  5
2422
331
1616
  5
1616
331
23AE
  5
23AC
331
23E5
  5
23E3
331
2689
  5
2687
331
190B
  5
190B
331
242C
  5
242A
331
17DD
  5
17DD
331
23ED
  5
23EB
331
11E7
  5
11E7
331
23B6
  5
23AE
331
2691
  5
268F
331
2699
  5
2695
331
231A
  5
231A
331
263A
  5
2605
331
17E5
  5
17E5
331
23F5
  5
23F3
331
17AE
  5
17AE
331
23BE
  5
23BC
331
236F
  5
236E
331
2434
  5
2432
331
6E
  5
6E
331
17ED
  5
17ED
331
23FD
  5
23FB
331
25CB
  5
2459
331
76
  5
76
331
37
  5
37
331
7E
  5
7E
331
3F
  5
3F
331
2CA0
  5
2C9E
331
2ED7
  5
2ED7
331
18E4
  5
18E4
331
243C
  5
243A
331
301
  5
301
331
2328
  5
2328
331
23C6
  5
23C4
331
2405
  5
2403
331
18EC
  5
18EC
331
2444
  5
2442
331
92
  5
92
331
2330
  5
2330
331
23CE
  5
23CC
331
25EB
  5
25E9
331
25F3
  5
25F1
331
2415
  5
2413
331
17C6
  5
17C6
331
239F
  5
239D
331
23D6
  5
23D4
331
244C
  5
244A
331
265A
  5
2658
331
47
  5
47
331
18FC
  5
18FC
331
241D
  5
241B
331
23DE
  5
23DC
331
23A7
  5
23A5
331
2454
  5
2452
331
5F
  5
5F
331
2CA8
  5
2CA6
331
2350
  5
2CB4
331
1C73
  5
1C73
331
268A
  5
2688
331
1815
  5
1815
331
23E6
  5
23E4
331
2425
  5
2423
331
2692
  5
2690
331
2623
  5
25F9
331
242D
  5
242B
331
17DE
  5
17DE
331
23B7
  5
23B1
331
2368
  5
2366
331
23EE
  5
23EC
331
269A
  5
2698
331
231B
  5
231B
331
2435
  5
2433
331
17E6
  5
17E6
331
23F6
  5
23F4
331
17AF
  5
17AF
331
23BF
  5
23BD
331
263B
  5
2623
331
23FE
  5
23FC
331
77
  5
77
331
7F
  5
7F
331
38
  5
38
331
2C99
  5
269C
331
2378
  5
2374
331
2CA1
  5
2C9F
331
2ED8
  5
2ED8
331
2321
  5
2321
331
25E4
  5
245A
331
17F6
  5
17F6
331
2406
  5
2404
331
23C7
  5
23C5
331
243D
  5
243B
331
264B
  5
263D
331
17FE
  5
17FE
331
17BF
  5
17BF
331
23CF
  5
23CD
331
2398
  5
2395
331
2445
  5
2443
331
25EC
  5
25EA
331
265B
  5
2659
331
18F5
  5
18F5
331
244D
  5
244B
331
17C7
  5
17C7
331
23D7
  5
23D5
331
15C8
  5
15C8
331
23A0
  5
239E
331
2416
  5
2414
331
25F4
  5
25F2
331
40
  5
40
331
18FD
  5
18FD
331
241E
  5
241C
331
17CF
  5
17CF
331
23DF
  5
23DD
331
48
  5
48
331
60
  5
60
331
2CA9
  5
2CA7
331
2CB1
  5
2CAC
331
23A8
  5
23A6
331
1905
  5
1905
331
1816
  5
1816
331
2426
  5
2424
331
23E7
  5
23E5
331
268B
  5
2689
331
242E
  5
242C
331
17DF
  5
17DF
331
23EF
  5
23ED
331
11E9
  5
11E9
331
2369
  5
2368
331
23B8
  5
23B6
331
2693
  5
2691
331
269B
  5
2699
331
231C
  5
231C
331
263C
  5
263A
331
17E7
  5
17E7
331
23F7
  5
23F5
331
2436
  5
2434
331
23FF
  5
23FD
331
78
  5
78
331
39
  5
39
331
2CD1
  5
2CD1
331
2C9A
  5
2718
331
17B0
  5
17B0
331
23C0
  5
23BE
331
2CA2
  5
2CA0
331
2ED9
  5
2ED9
331
2322
  5
2322
331
2379
  5
2378
331
17F7
  5
17F7
331
18E6
  5
18E6
331
1569
  5
1569
331
23C8
  5
23C6
331
243E
  5
243C
331
17FF
  5
17FF
331
2446
  5
2444
331
15B9
  5
15B9
331
2399
  5
2CB6
331
23D0
  5
23CE
331
25ED
  5
25EB
331
25F5
  5
25F3
331
18F6
  5
18F6
331
2417
  5
2415
331
23D8
  5
23D6
331
15C9
  5
15C9
331
9C
  5
9C
331
234A
  5
234A
331
23A1
  5
239F
331
244E
  5
244C
331
265C
  5
265A
331
41
  5
41
331
18FE
  5
18FE
331
180F
  5
180F
331
241F
  5
241D
331
2456
  5
2453
331
49
  5
49
331
61
  5
61
331
2CAA
  5
2CA8
331
2CB2
  5
2CAD
331
17D0
  5
17D0
331
23E0
  5
23DE
331
23A9
  5
23A7
331
268C
  5
268A
331
1906
  5
1906
331
2605
  5
25F8
331
1817
  5
1817
331
17D8
  5
17D8
331
23E8
  5
23E6
331
67B
  5
67B
331
23B1
  5
23AD
331
2427
  5
2425
331
2694
  5
2692
331
242F
  5
242D
331
23B9
  5
23B7
331
236A
  5
2369
331
23F0
  5
23EE
331
269C
  5
269A
331
231D
  5
231D
331
1827
  5
1827
331
2437
  5
2435
331
23F8
  5
23F6
331
263D
  5
263B
331
71
  5
71
331
79
  5
79
331
32
  5
32
331
3A
  5
3A
  0
IMAGEDEF
  5
11D9
102
{ACAD_REACTORS
330
11D8
102
}
330
11D8
100
AcDbRasterImageDef
 90
        0
  1
D:\ﾃｽﾄ\rogo01.TIF
 10
3388.0
 20
4668.0
 11
0.0635
 21
0.0635
280
     1
281
     5
  0
LAYOUT
  5
2737
102
{ACAD_REACTORS
330
2735
102
}
330
2735
100
AcDbPlotSettings
  1

  2
A4 EPSON LP-6100.pc3
  4
A4
  6

 40
5.873749732971191
 41
5.873747825622558
 42
5.873748779296875
 43
5.873748779296875
 44
209.9733276367187
 45
297.0106506347656
 46
3.609999999999999
 47
0.0
 48
0.0
 49
0.0
140
0.0
141
0.0
142
1.0
143
1.0
 70
 28336
 72
     1
 73
     0
 74
     1
  7
AutoCad LT 98.ctb
 75
    16
147
1.0
 76
     1
 77
     2
 78
   300
148
-4.791000979476393
149
-2.297974101148952
100
AcDbLayout
  1
Model
 70
     1
 71
     0
 10
0.0
 20
0.0
 11
12.0
 21
9.0
 12
0.0
 22
0.0
 32
0.0
 14
0.0
 24
0.0
 34
0.0
 15
0.0
 25
0.0
 35
0.0
146
0.0
 13
0.0
 23
0.0
 33
0.0
 16
1.0
 26
0.0
 36
0.0
 17
0.0
 27
1.0
 37
0.0
 76
     0
330
18
1001
ACAD_PSEXT
1000
A4 EPSON LP-6100.pc3
1000
EPSON LP-6100
1000
\\SATO-MATE2
1000

1070
     0
  0
LAYOUT
  5
2738
102
{ACAD_REACTORS
330
2735
102
}
330
2735
100
AcDbPlotSettings
  1

  2
Mytalk FAX
  4

  6

 40
0.0
 41
0.0
 42
0.0
 43
0.0
 44
0.0
 45
0.0
 46
0.0
 47
0.0
 48
0.0
 49
0.0
140
0.0
141
0.0
142
1.0
143
1.0
 70
   688
 72
     0
 73
     0
 74
     5
  7
AutoCAD LT 98.ctb
 75
    16
147
1.0
 76
     0
 77
     2
 78
   300
148
0.0
149
0.0
100
AcDbLayout
  1
レイアウト1
 70
     1
 71
     1
 10
0.0
 20
0.0
 11
12.0
 21
9.0
 12
0.0
 22
0.0
 32
0.0
 14
-0.0004730716108642
 24
-0.0002746372486859
 34
-0.0015258207003612
 15
15.50326643989076
 25
9.000274679158204
 35
0.0000000349246008
146
0.0
 13
0.0
 23
0.0
 33
0.0
 16
1.0
 26
0.0
 36
0.0
 17
0.0
 27
1.0
 37
0.0
 76
     0
330
15
331
1EF
  0
MLINESTYLE
  5
1C
102
{ACAD_REACTORS
330
1B
102
}
330
1B
100
AcDbMlineStyle
  2
STANDARD
 70
     0
  3

 62
   256
 51
90.0
 52
90.0
 71
     2
 49
0.5
 62
   256
  6
BYLAYER
 49
-0.5
 62
   256
  6
BYLAYER
  0
ACDBPLACEHOLDER
  5
2730
102
{ACAD_REACTORS
330
272F
102
}
330
272F
  0
ACAD_PROXY_OBJECT
  5
2734
102
{ACAD_REACTORS
330
2733
102
}
330
2733
100
AcDbProxyObject
 90
      499
 91
      505
 95
  2555929
 70
     0
 93
     1841
310
4214DD185B99185C9928B81E85EB51B8AE3F2E07A17AD46E2B8FC02B5E8DC0F42B1CFD028000000C1008070000C3001FDFF8000000C1003FBFF000000182007F7FE00000030400FEFFC00000060801FDFF8000000C1003FBFF00000018200000000000000681FA0B0000001820100E000186003FBFF000000182007F7FE000
310
00030400FEFFC00000060801FDFF8000000C1003FBFF000000182007F7FE000000304000AD7A3703D0AC73F4160000003040201C00030C007F7FE00000030400FEFFC00000060801FDFF8000000C1003FBFF000000182007F7FE00000030400FEFFC000000608028
340
F
340
F
340
F
 94
        0
  0
DICTIONARYVAR
  5
2741
102
{ACAD_REACTORS
330
C1
102
}
330
C1
100
DictionaryVariables
280
     0
  1
STANDARD
  0
DICTIONARYVAR
  5
C2
102
{ACAD_REACTORS
330
C1
102
}
330
C1
100
DictionaryVariables
280
     0
  1
96
  0
ENDSEC
  0
EOF
