  0
SECTION
  2
HEADER
  9
$ACADVER
  1
AC1018
  9
$ACADMAINTVER
 70
     0
  9
$DWGCODEPAGE
  3
ANSI_932
  9
$INSBASE
 10
0.0
 20
0.0
 30
0.0
  9
$EXTMIN
 10
-130.1765847479184
 20
-0.1681354896885523
 30
-1.000061032362211
  9
$EXTMAX
 10
255.1854368133197
 20
275.9246322250362
 30
0.0000610416757212
  9
$LIMMIN
 10
0.0
 20
0.0
  9
$LIMMAX
 10
420.0
 20
297.0
  9
$ORTHOMODE
 70
     0
  9
$REGENMODE
 70
     1
  9
$FILLMODE
 70
     1
  9
$QTEXTMODE
 70
     0
  9
$MIRRTEXT
 70
     1
  9
$LTSCALE
 40
1.0
  9
$ATTMODE
 70
     1
  9
$TEXTSIZE
 40
3.0
  9
$TRACEWID
 40
1.0
  9
$TEXTSTYLE
  7
STYLE3
  9
$CLAYER
  8
寸法線
  9
$CELTYPE
  6
BYLAYER
  9
$CECOLOR
 62
   256
  9
$CELTSCALE
 40
1.0
  9
$DISPSILH
 70
     0
  9
$DIMSCALE
 40
1.0
  9
$DIMASZ
 40
2.5
  9
$DIMEXO
 40
0.0
  9
$DIMDLI
 40
3.75
  9
$DIMRND
 40
0.0
  9
$DIMDLE
 40
0.0
  9
$DIMEXE
 40
1.25
  9
$DIMTP
 40
0.0
  9
$DIMTM
 40
0.0
  9
$DIMTXT
 40
2.5
  9
$DIMCEN
 40
2.5
  9
$DIMTSZ
 40
0.0
  9
$DIMTOL
 70
     0
  9
$DIMLIM
 70
     0
  9
$DIMTIH
 70
     0
  9
$DIMTOH
 70
     0
  9
$DIMSE1
 70
     0
  9
$DIMSE2
 70
     0
  9
$DIMTAD
 70
     1
  9
$DIMZIN
 70
     8
  9
$DIMBLK
  1

  9
$DIMASO
 70
     1
  9
$DIMSHO
 70
     1
  9
$DIMPOST
  1

  9
$DIMAPOST
  1

  9
$DIMALT
 70
     0
  9
$DIMALTD
 70
     4
  9
$DIMALTF
 40
0.0394
  9
$DIMLFAC
 40
1.0
  9
$DIMTOFL
 70
     1
  9
$DIMTVP
 40
0.0
  9
$DIMTIX
 70
     0
  9
$DIMSOXD
 70
     0
  9
$DIMSAH
 70
     1
  9
$DIMBLK1
  1
OPEN
  9
$DIMBLK2
  1
OPEN
  9
$DIMSTYLE
  2
STYLE3
  9
$DIMCLRD
 70
     2
  9
$DIMCLRE
 70
     2
  9
$DIMCLRT
 70
     6
  9
$DIMTFAC
 40
1.0
  9
$DIMGAP
 40
0.625
  9
$DIMJUST
 70
     0
  9
$DIMSD1
 70
     0
  9
$DIMSD2
 70
     0
  9
$DIMTOLJ
 70
     1
  9
$DIMTZIN
 70
     0
  9
$DIMALTZ
 70
     0
  9
$DIMALTTZ
 70
     0
  9
$DIMUPT
 70
     0
  9
$DIMDEC
 70
     2
  9
$DIMTDEC
 70
     4
  9
$DIMALTU
 70
     8
  9
$DIMALTTD
 70
     4
  9
$DIMTXSTY
  7
STYLE3
  9
$DIMAUNIT
 70
     0
  9
$DIMADEC
 70
     0
  9
$DIMALTRND
 40
0.0
  9
$DIMAZIN
 70
     0
  9
$DIMDSEP
 70
    46
  9
$DIMATFIT
 70
     3
  9
$DIMFRAC
 70
     0
  9
$DIMLDRBLK
  1

  9
$DIMLUNIT
 70
     2
  9
$DIMLWD
 70
    -2
  9
$DIMLWE
 70
    -2
  9
$DIMTMOVE
 70
     0
  9
$LUNITS
 70
     2
  9
$LUPREC
 70
     4
  9
$SKETCHINC
 40
1.0
  9
$FILLETRAD
 40
2.0
  9
$AUNITS
 70
     0
  9
$AUPREC
 70
     0
  9
$MENU
  1
.
  9
$ELEVATION
 40
0.0
  9
$PELEVATION
 40
0.0
  9
$THICKNESS
 40
0.0
  9
$LIMCHECK
 70
     0
  9
$CHAMFERA
 40
10.0
  9
$CHAMFERB
 40
10.0
  9
$CHAMFERC
 40
20.0
  9
$CHAMFERD
 40
0.0
  9
$SKPOLY
 70
     0
  9
$TDCREATE
 40
2451859.479272570
  9
$TDUCREATE
 40
2451859.104272570
  9
$TDUPDATE
 40
2455358.489413693
  9
$TDUUPDATE
 40
2455358.114413692
  9
$TDINDWG
 40
0.4056036921
  9
$TDUSRTIMER
 40
0.4056036921
  9
$USRTIMER
 70
     1
  9
$ANGBASE
 50
0.0
  9
$ANGDIR
 70
     0
  9
$PDMODE
 70
     0
  9
$PDSIZE
 40
0.0
  9
$PLINEWID
 40
0.0
  9
$SPLFRAME
 70
     0
  9
$SPLINETYPE
 70
     6
  9
$SPLINESEGS
 70
     8
  9
$HANDSEED
  5
DE5
  9
$SURFTAB1
 70
     6
  9
$SURFTAB2
 70
     6
  9
$SURFTYPE
 70
     6
  9
$SURFU
 70
     6
  9
$SURFV
 70
     6
  9
$UCSBASE
  2

  9
$UCSNAME
  2

  9
$UCSORG
 10
0.0
 20
0.0
 30
0.0
  9
$UCSXDIR
 10
1.0
 20
0.0
 30
0.0
  9
$UCSYDIR
 10
0.0
 20
1.0
 30
0.0
  9
$UCSORTHOREF
  2

  9
$UCSORTHOVIEW
 70
     0
  9
$UCSORGTOP
 10
0.0
 20
0.0
 30
0.0
  9
$UCSORGBOTTOM
 10
0.0
 20
0.0
 30
0.0
  9
$UCSORGLEFT
 10
0.0
 20
0.0
 30
0.0
  9
$UCSORGRIGHT
 10
0.0
 20
0.0
 30
0.0
  9
$UCSORGFRONT
 10
0.0
 20
0.0
 30
0.0
  9
$UCSORGBACK
 10
0.0
 20
0.0
 30
0.0
  9
$PUCSBASE
  2

  9
$PUCSNAME
  2

  9
$PUCSORG
 10
0.0
 20
0.0
 30
0.0
  9
$PUCSXDIR
 10
1.0
 20
0.0
 30
0.0
  9
$PUCSYDIR
 10
0.0
 20
1.0
 30
0.0
  9
$PUCSORTHOREF
  2

  9
$PUCSORTHOVIEW
 70
     0
  9
$PUCSORGTOP
 10
0.0
 20
0.0
 30
0.0
  9
$PUCSORGBOTTOM
 10
0.0
 20
0.0
 30
0.0
  9
$PUCSORGLEFT
 10
0.0
 20
0.0
 30
0.0
  9
$PUCSORGRIGHT
 10
0.0
 20
0.0
 30
0.0
  9
$PUCSORGFRONT
 10
0.0
 20
0.0
 30
0.0
  9
$PUCSORGBACK
 10
0.0
 20
0.0
 30
0.0
  9
$USERI1
 70
     0
  9
$USERI2
 70
     0
  9
$USERI3
 70
     0
  9
$USERI4
 70
     0
  9
$USERI5
 70
     0
  9
$USERR1
 40
0.0
  9
$USERR2
 40
0.0
  9
$USERR3
 40
0.0
  9
$USERR4
 40
0.0
  9
$USERR5
 40
0.0
  9
$WORLDVIEW
 70
     1
  9
$SHADEDGE
 70
     3
  9
$SHADEDIF
 70
    70
  9
$TILEMODE
 70
     1
  9
$MAXACTVP
 70
    48
  9
$PINSBASE
 10
0.0
 20
0.0
 30
0.0
  9
$PLIMCHECK
 70
     0
  9
$PEXTMIN
 10
-0.2
 20
-0.2
 30
0.0
  9
$PEXTMAX
 10
255.2
 20
195.2
 30
0.0
  9
$PLIMMIN
 10
0.0
 20
0.0
  9
$PLIMMAX
 10
420.0
 20
297.0
  9
$UNITMODE
 70
     0
  9
$VISRETAIN
 70
     1
  9
$PLINEGEN
 70
     0
  9
$PSLTSCALE
 70
     1
  9
$TREEDEPTH
 70
  3020
  9
$CMLSTYLE
  2
STANDARD
  9
$CMLJUST
 70
     0
  9
$CMLSCALE
 40
20.0
  9
$PROXYGRAPHICS
 70
     1
  9
$MEASUREMENT
 70
     0
  9
$CELWEIGHT
370
    -1
  9
$ENDCAPS
280
     0
  9
$JOINSTYLE
280
     0
  9
$LWDISPLAY
290
     0
  9
$INSUNITS
 70
     0
  9
$HYPERLINKBASE
  1

  9
$STYLESHEET
  1

  9
$XEDIT
290
     1
  9
$CEPSNTYPE
380
     0
  9
$PSTYLEMODE
290
     1
  9
$FINGERPRINTGUID
  2
{219A1F7A-5B5A-47C1-BFCD-684B501BB2C1}
  9
$VERSIONGUID
  2
{E617DFC9-7DC7-4241-ADD5-C69E53CD0FE4}
  9
$EXTNAMES
290
     1
  9
$PSVPSCALE
 40
0.0
  9
$OLESTARTUP
290
     0
  9
$SORTENTS
280
   127
  9
$INDEXCTL
280
     0
  9
$HIDETEXT
280
     0
  9
$XCLIPFRAME
290
     0
  9
$HALOGAP
280
     0
  9
$OBSCOLOR
 70
   257
  9
$OBSLTYPE
280
     0
  9
$INTERSECTIONDISPLAY
280
     0
  9
$INTERSECTIONCOLOR
 70
   257
  9
$DIMASSOC
280
     1
  9
$PROJECTNAME
  1

  0
ENDSEC
  0
SECTION
  2
CLASSES
  0
CLASS
  1
HATCH
  2
AcDbHatch
  3
ObjectDBX Classes
 90
        0
 91
       20
280
     0
281
     1
  0
CLASS
  1
ACDBDICTIONARYWDFLT
  2
AcDbDictionaryWithDefault
  3
ObjectDBX Classes
 90
        0
 91
        1
280
     0
281
     0
  0
CLASS
  1
TABLESTYLE
  2
AcDbTableStyle
  3
ObjectDBX Classes
 90
     2047
 91
        1
280
     0
281
     0
  0
CLASS
  1
DICTIONARYVAR
  2
AcDbDictionaryVar
  3
ObjectDBX Classes
 90
        0
 91
        1
280
     0
281
     0
  0
ENDSEC
  0
SECTION
  2
TABLES
  0
TABLE
  2
VPORT
  5
8
330
0
100
AcDbSymbolTable
 70
     2
  0
VPORT
  5
DE4
330
8
100
AcDbSymbolTableRecord
100
AcDbViewportTableRecord
  2
*Active
 70
     0
 10
0.0
 20
0.0
 11
1.0
 21
1.0
 12
62.50442603270062
 22
137.8782483676738
 13
0.0
 23
0.0
 14
10.0
 24
10.0
 15
10.0
 25
10.0
 16
0.0
 26
0.0
 36
1.0
 17
0.0
 27
0.0
 37
0.0
 40
278.1923324882207
 41
1.530456852791878
 42
50.0
 43
0.0
 44
0.0
 50
0.0
 51
0.0
 71
     0
 72
   100
 73
     1
 74
     1
 75
     0
 76
     0
 77
     0
 78
     0
281
     0
 65
     1
110
0.0
120
0.0
130
0.0
111
1.0
121
0.0
131
0.0
112
0.0
122
1.0
132
0.0
 79
     0
146
0.0
  0
ENDTAB
  0
TABLE
  2
LTYPE
  5
5
330
0
100
AcDbSymbolTable
 70
    12
  0
LTYPE
  5
12
330
5
100
AcDbSymbolTableRecord
100
AcDbLinetypeTableRecord
  2
BYBLOCK
 70
     0
  3

 72
    65
 73
     0
 40
0.0
  0
LTYPE
  5
13
330
5
100
AcDbSymbolTableRecord
100
AcDbLinetypeTableRecord
  2
BYLAYER
 70
     0
  3

 72
    65
 73
     0
 40
0.0
  0
LTYPE
  5
14
330
5
100
AcDbSymbolTableRecord
100
AcDbLinetypeTableRecord
  2
CONTINUOUS
 70
     0
  3
Solid line
 72
    65
 73
     0
 40
0.0
  0
LTYPE
  5
22
330
5
100
AcDbSymbolTableRecord
100
AcDbLinetypeTableRecord
  2
CENTER2
 70
     0
  3
Center (.5x) ___ _ ___ _ ___ _ ___ _ ___ _ ___
 72
    65
 73
     4
 40
28.575
 49
19.05
 74
     0
 49
-3.174999999999999
 74
     0
 49
3.174999999999999
 74
     0
 49
-3.174999999999999
 74
     0
  0
LTYPE
  5
23
330
5
100
AcDbSymbolTableRecord
100
AcDbLinetypeTableRecord
  2
HIDDEN2
 70
     0
  3
Hidden (.5x) _ _ _ _ _ _ _ _ _ _ _ _ _ _ _ _ _
 72
    65
 73
     2
 40
4.762499999999999
 49
3.174999999999999
 74
     0
 49
-1.587499999999999
 74
     0
  0
LTYPE
  5
24
330
5
100
AcDbSymbolTableRecord
100
AcDbLinetypeTableRecord
  2
PHANTOM2
 70
     0
  3
Phantom (.5x) ___ _ _ ___ _ _ ___ _ _ ___ _ _
 72
    65
 73
     6
 40
31.75
 49
15.875
 74
     0
 49
-3.174999999999999
 74
     0
 49
3.174999999999999
 74
     0
 49
-3.174999999999999
 74
     0
 49
3.174999999999999
 74
     0
 49
-3.174999999999999
 74
     0
  0
ENDTAB
  0
TABLE
  2
LAYER
  5
2
330
0
100
AcDbSymbolTable
 70
    16
  0
LAYER
  5
E
330
2
100
AcDbSymbolTableRecord
100
AcDbLayerTableRecord
  2
0
 70
     0
 62
     7
  6
CONTINUOUS
370
    -3
390
CF8
  0
LAYER
  5
25
330
2
100
AcDbSymbolTableRecord
100
AcDbLayerTableRecord
  2
外形線
 70
     0
 62
     7
  6
CONTINUOUS
370
    -3
390
CF8
  0
LAYER
  5
26
330
2
100
AcDbSymbolTableRecord
100
AcDbLayerTableRecord
  2
寸法線
 70
     0
 62
     2
  6
CONTINUOUS
370
    -3
390
CF8
  0
LAYER
  5
27
330
2
100
AcDbSymbolTableRecord
100
AcDbLayerTableRecord
  2
中心線
 70
     0
 62
     4
  6
CENTER2
370
    -3
390
CF8
  0
LAYER
  5
29
330
2
100
AcDbSymbolTableRecord
100
AcDbLayerTableRecord
  2
想像線
 70
     0
 62
     1
  6
PHANTOM2
370
    -3
390
CF8
  0
LAYER
  5
2A
330
2
100
AcDbSymbolTableRecord
100
AcDbLayerTableRecord
  2
ﾊｯﾁﾝｸ
 70
     0
 62
     6
  6
CONTINUOUS
370
    -3
390
CF8
  0
LAYER
  5
2B
330
2
100
AcDbSymbolTableRecord
100
AcDbLayerTableRecord
  2
文字
 70
     0
 62
     6
  6
CONTINUOUS
370
    -3
390
CF8
  0
LAYER
  5
2C
330
2
100
AcDbSymbolTableRecord
100
AcDbLayerTableRecord
  2
目盛
 70
     0
 62
    70
  6
CONTINUOUS
370
    -3
390
CF8
  0
LAYER
  5
2D
330
2
100
AcDbSymbolTableRecord
100
AcDbLayerTableRecord
  2
針
 70
     0
 62
     5
  6
CONTINUOUS
370
    -3
390
CF8
  0
LAYER
  5
53
330
2
100
AcDbSymbolTableRecord
100
AcDbLayerTableRecord
  2
DEFPOINTS
 70
     0
 62
     7
  6
CONTINUOUS
290
     0
370
    -3
390
CF8
  0
LAYER
  5
A5
330
2
100
AcDbSymbolTableRecord
100
AcDbLayerTableRecord
  2
C
 70
     0
 62
     7
  6
CONTINUOUS
370
    -3
390
CF8
  0
LAYER
  5
16A
330
2
100
AcDbSymbolTableRecord
100
AcDbLayerTableRecord
  2
隠れ線2
 70
     0
 62
     1
  6
HIDDEN2
370
    -3
390
CF8
  0
LAYER
  5
348
330
2
100
AcDbSymbolTableRecord
100
AcDbLayerTableRecord
  2
ROGO
 70
     0
 62
     6
  6
CONTINUOUS
370
    -3
390
CF8
  0
ENDTAB
  0
TABLE
  2
STYLE
  5
3
330
0
100
AcDbSymbolTable
 70
     6
  0
STYLE
  5
F
330
3
100
AcDbSymbolTableRecord
100
AcDbTextStyleTableRecord
  2
STANDARD
 70
     0
 40
0.0
 41
1.0
 50
0.0
 71
     0
 42
2.5
  3
txt
  4

  0
STYLE
  5
3F
330
3
100
AcDbSymbolTableRecord
100
AcDbTextStyleTableRecord
  2
STYLE3
 70
     0
 40
0.0
 41
1.0
 50
0.0
 71
     0
 42
3.0
  3
romans.shx
  4
bigfont.shx
  0
ENDTAB
  0
TABLE
  2
VIEW
  5
6
330
0
100
AcDbSymbolTable
 70
     0
  0
ENDTAB
  0
TABLE
  2
UCS
  5
7
330
0
100
AcDbSymbolTable
 70
     0
  0
ENDTAB
  0
TABLE
  2
APPID
  5
9
330
0
100
AcDbSymbolTable
 70
     2
  0
APPID
  5
10
330
9
100
AcDbSymbolTableRecord
100
AcDbRegAppTableRecord
  2
ACAD
 70
     0
  0
APPID
  5
D5B
330
9
100
AcDbSymbolTableRecord
100
AcDbRegAppTableRecord
  2
ACAD_PSEXT
 70
     0
  0
ENDTAB
  0
TABLE
  2
DIMSTYLE
  5
A
330
0
100
AcDbSymbolTable
 70
     4
100
AcDbDimStyleTable
 71
     1
340
8F
  0
DIMSTYLE
105
1D
330
A
100
AcDbSymbolTableRecord
100
AcDbDimStyleTableRecord
  2
STANDARD
 70
     0
 41
2.5
 42
0.625
 43
3.75
 44
1.25
 73
     0
 74
     0
 77
     1
 78
     8
140
2.5
141
2.5
143
0.0394
147
0.625
171
     4
172
     1
273
     8
274
     4
277
     6
340
F
  0
DIMSTYLE
105
8F
102
{ACAD_REACTORS
330
B09
330
B4A
330
B62
330
B6F
330
B7B
330
B87
330
BBB
102
}
330
A
100
AcDbSymbolTableRecord
100
AcDbDimStyleTableRecord
  2
STYLE3
 70
     0
 41
2.5
 42
0.0
 43
3.75
 44
1.25
 73
     0
 74
     0
 77
     1
 78
     8
140
2.5
141
2.5
143
0.0394
147
0.625
171
     4
172
     1
173
     1
176
     2
177
     2
178
     6
271
     1
273
     8
274
     4
340
3F
341
45
343
45
344
45
  0
ENDTAB
  0
TABLE
  2
BLOCK_RECORD
  5
1
330
0
100
AcDbSymbolTable
 70
    17
  0
BLOCK_RECORD
  5
18
330
1
100
AcDbSymbolTableRecord
100
AcDbBlockTableRecord
  2
*MODEL_SPACE
340
CFF
  0
BLOCK_RECORD
  5
15
330
1
100
AcDbSymbolTableRecord
100
AcDbBlockTableRecord
  2
*PAPER_SPACE
340
D00
  0
BLOCK_RECORD
  5
45
330
1
100
AcDbSymbolTableRecord
100
AcDbBlockTableRecord
  2
_OPEN
340
0
102
{BLKREFS
331
62D
331
644
331
7EF
331
7F0
331
7FD
331
B9C
331
B9D
331
BA3
331
BDC
331
BDD
331
A3E
331
A4E
331
AD8
331
ADB
331
ADE
331
B02
331
B03
331
B4F
331
B50
331
C28
331
C29
331
B68
331
B69
331
B74
331
B75
331
B80
331
B81
331
BCB
331
BCC
331
D0B
331
D0C
102
}
  0
BLOCK_RECORD
  5
AFD
330
1
100
AcDbSymbolTableRecord
100
AcDbBlockTableRecord
  2
*D4
340
0
  0
BLOCK_RECORD
  5
B3E
330
1
100
AcDbSymbolTableRecord
100
AcDbBlockTableRecord
  2
*D5
340
0
  0
BLOCK_RECORD
  5
B56
330
1
100
AcDbSymbolTableRecord
100
AcDbBlockTableRecord
  2
*D6
340
0
  0
BLOCK_RECORD
  5
B64
330
1
100
AcDbSymbolTableRecord
100
AcDbBlockTableRecord
  2
*D7
340
0
  0
BLOCK_RECORD
  5
B70
330
1
100
AcDbSymbolTableRecord
100
AcDbBlockTableRecord
  2
*D8
340
0
  0
BLOCK_RECORD
  5
B7C
330
1
100
AcDbSymbolTableRecord
100
AcDbBlockTableRecord
  2
*D9
340
0
  0
BLOCK_RECORD
  5
BAF
330
1
100
AcDbSymbolTableRecord
100
AcDbBlockTableRecord
  2
*D10
340
0
  0
ENDTAB
  0
ENDSEC
  0
SECTION
  2
BLOCKS
  0
BLOCK
  5
19
330
18
100
AcDbEntity
  8
0
100
AcDbBlockBegin
  2
*MODEL_SPACE
 70
     0
 10
0.0
 20
0.0
 30
0.0
  3
*MODEL_SPACE
  1

  0
ENDBLK
  5
1A
330
18
100
AcDbEntity
  8
0
100
AcDbBlockEnd
  0
BLOCK
  5
16
330
15
100
AcDbEntity
 67
     1
  8
0
100
AcDbBlockBegin
  2
*PAPER_SPACE
 70
     0
 10
0.0
 20
0.0
 30
0.0
  3
*PAPER_SPACE
  1

  0
ENDBLK
  5
17
330
15
100
AcDbEntity
 67
     1
  8
0
100
AcDbBlockEnd
  0
BLOCK
  5
46
330
45
100
AcDbEntity
  8
0
100
AcDbBlockBegin
  2
_OPEN
 70
     0
 10
0.0
 20
0.0
 30
0.0
  3
_OPEN
  1

  0
LINE
  5
47
330
45
100
AcDbEntity
  8
0
  6
ByBlock
 62
     0
100
AcDbLine
 10
-1.0
 20
0.1666666666666666
 30
0.0
 11
0.0
 21
0.0
 31
0.0
  0
LINE
  5
48
330
45
100
AcDbEntity
  8
0
  6
ByBlock
 62
     0
100
AcDbLine
 10
0.0
 20
0.0
 30
0.0
 11
-1.0
 21
-0.1666666666666666
 31
0.0
  0
LINE
  5
49
330
45
100
AcDbEntity
  8
0
  6
ByBlock
 62
     0
100
AcDbLine
 10
0.0
 20
0.0
 30
0.0
 11
-1.0
 21
0.0
 31
0.0
  0
ENDBLK
  5
4A
330
45
100
AcDbEntity
  8
0
100
AcDbBlockEnd
  0
BLOCK
  5
AFE
330
AFD
100
AcDbEntity
  8
0
100
AcDbBlockBegin
  2
*D4
 70
     1
 10
0.0
 20
0.0
 30
0.0
  3
*D4
  1

  0
LINE
  5
AFF
330
AFD
100
AcDbEntity
  8
0
  6
ByBlock
 62
     2
100
AcDbLine
 10
-88.64633876757265
 20
205.8388548154308
 30
0.0
 11
-88.64633876757265
 21
233.1208697897407
 31
0.0
  0
LINE
  5
B00
330
AFD
100
AcDbEntity
  8
0
  6
ByBlock
 62
     2
100
AcDbLine
 10
-81.0463387675727
 20
229.119702607174
 30
0.0
 11
-81.0463387675727
 21
233.1208697897407
 31
0.0
  0
LINE
  5
B01
330
AFD
100
AcDbEntity
  8
0
  6
ByBlock
 62
     2
100
AcDbLine
 10
-86.14633876757265
 20
231.8708697897407
 30
0.0
 11
-83.5463387675727
 21
231.8708697897407
 31
0.0
  0
INSERT
  5
B02
330
AFD
100
AcDbEntity
  8
0
  6
ByBlock
 62
     2
100
AcDbBlockReference
  2
_OPEN
 10
-88.64633876757265
 20
231.8708697897407
 30
0.0
 41
2.5
 42
2.5
 43
2.5
 50
180.0
  0
INSERT
  5
B03
330
AFD
100
AcDbEntity
  8
0
  6
ByBlock
 62
     2
100
AcDbBlockReference
  2
_OPEN
 10
-81.0463387675727
 20
231.8708697897407
 30
0.0
 41
2.5
 42
2.5
 43
2.5
  0
MTEXT
  5
B04
330
AFD
100
AcDbEntity
  8
0
  6
ByBlock
 62
     6
100
AcDbMText
 10
-84.84633876757268
 20
233.7458697897407
 30
0.0
 40
2.5
 41
0.0
 71
     5
 72
     1
  1
\A1;7.6
  7
STYLE3
 73
     1
 44
1.0
  0
POINT
  5
B05
330
AFD
100
AcDbEntity
  8
DEFPOINTS
  6
ByBlock
 62
     0
100
AcDbPoint
 10
-88.64633876757265
 20
205.8388548154308
 30
0.0
  0
POINT
  5
B06
330
AFD
100
AcDbEntity
  8
DEFPOINTS
  6
ByBlock
 62
     0
100
AcDbPoint
 10
-81.0463387675727
 20
229.119702607174
 30
0.0
  0
POINT
  5
B07
330
AFD
100
AcDbEntity
  8
DEFPOINTS
  6
ByBlock
 62
     0
100
AcDbPoint
 10
-81.0463387675727
 20
231.8708697897407
 30
0.0
  0
ENDBLK
  5
B08
330
AFD
100
AcDbEntity
  8
0
100
AcDbBlockEnd
  0
BLOCK
  5
B4B
330
B3E
100
AcDbEntity
  8
0
100
AcDbBlockBegin
  2
*D5
 70
     1
 10
0.0
 20
0.0
 30
0.0
  3
*D5
  1

  0
LINE
  5
B4C
330
B3E
100
AcDbEntity
  8
0
  6
ByBlock
 62
     2
100
AcDbLine
 10
242.2610519761857
 20
99.47256398698037
 30
0.0
 11
242.2610519761857
 21
47.85727461871499
 31
0.0
  0
LINE
  5
B4D
330
B3E
100
AcDbEntity
  8
0
  6
ByBlock
 62
     2
100
AcDbLine
 10
1.989189978675992
 20
57.5963887717927
 30
0.0
 11
1.989189978675991
 21
47.85727461871499
 31
0.0
  0
LINE
  5
B4E
330
B3E
100
AcDbEntity
  8
0
  6
ByBlock
 62
     2
100
AcDbLine
 10
239.7610519761857
 20
49.10727461871499
 30
0.0
 11
4.489189978675991
 21
49.10727461871499
 31
0.0
  0
INSERT
  5
B4F
330
B3E
100
AcDbEntity
  8
0
  6
ByBlock
 62
     2
100
AcDbBlockReference
  2
_OPEN
 10
242.2610519761857
 20
49.10727461871499
 30
0.0
 41
2.5
 42
2.5
 43
2.5
  0
INSERT
  5
B50
330
B3E
100
AcDbEntity
  8
0
  6
ByBlock
 62
     2
100
AcDbBlockReference
  2
_OPEN
 10
1.989189978675991
 20
49.10727461871499
 30
0.0
 41
2.5
 42
2.5
 43
2.5
 50
180.0
  0
MTEXT
  5
B51
330
B3E
100
AcDbEntity
  8
0
  6
ByBlock
 62
     6
100
AcDbMText
 10
122.1251209774308
 20
50.98227461871499
 30
0.0
 40
2.5
 41
0.0
 71
     5
 72
     1
  1
\A1;240
  7
STYLE3
 73
     1
 44
1.0
  0
POINT
  5
B52
330
B3E
100
AcDbEntity
  8
DEFPOINTS
  6
ByBlock
 62
     0
100
AcDbPoint
 10
242.2610519761857
 20
99.47256398698037
 30
0.0
  0
POINT
  5
B53
330
B3E
100
AcDbEntity
  8
DEFPOINTS
  6
ByBlock
 62
     0
100
AcDbPoint
 10
1.989189978675992
 20
57.5963887717927
 30
0.0
  0
POINT
  5
B54
330
B3E
100
AcDbEntity
  8
DEFPOINTS
  6
ByBlock
 62
     0
100
AcDbPoint
 10
1.989189978675991
 20
49.10727461871499
 30
0.0
  0
ENDBLK
  5
B55
330
B3E
100
AcDbEntity
  8
0
100
AcDbBlockEnd
  0
BLOCK
  5
C24
330
B56
100
AcDbEntity
  8
0
100
AcDbBlockBegin
  2
*D6
 70
     1
 10
0.0
 20
0.0
 30
0.0
  3
*D6
  1

  0
LINE
  5
C25
330
B56
100
AcDbEntity
  8
0
  6
ByBlock
 62
     2
100
AcDbLine
 10
1.989189978675995
 20
224.3388548154308
 30
0.0
 11
-32.76494291452457
 21
224.3388548154308
 31
0.0
  0
LINE
  5
C26
330
B56
100
AcDbEntity
  8
0
  6
ByBlock
 62
     2
100
AcDbLine
 10
-27.71240868165194
 20
182.8388548154308
 30
0.0
 11
-32.76494291452457
 21
182.8388548154308
 31
0.0
  0
LINE
  5
C27
330
B56
100
AcDbEntity
  8
0
  6
ByBlock
 62
     2
100
AcDbLine
 10
-31.51494291452456
 20
221.8388548154308
 30
0.0
 11
-31.51494291452457
 21
185.3388548154308
 31
0.0
  0
INSERT
  5
C28
330
B56
100
AcDbEntity
  8
0
  6
ByBlock
 62
     2
100
AcDbBlockReference
  2
_OPEN
 10
-31.51494291452456
 20
224.3388548154308
 30
0.0
 41
2.5
 42
2.5
 43
2.5
 50
90.0
  0
INSERT
  5
C29
330
B56
100
AcDbEntity
  8
0
  6
ByBlock
 62
     2
100
AcDbBlockReference
  2
_OPEN
 10
-31.51494291452457
 20
182.8388548154308
 30
0.0
 41
2.5
 42
2.5
 43
2.5
 50
270.0
  0
MTEXT
  5
C2A
330
B56
100
AcDbEntity
  8
0
  6
ByBlock
 62
     6
100
AcDbMText
 10
-33.38994291452457
 20
203.5888548154308
 30
0.0
 40
2.5
 41
0.0
 71
     5
 72
     1
  1
\A1;41.5
  7
STYLE3
 11
0.0000000000000001
 21
1.0
 31
0.0
 73
     1
 44
1.0
  0
POINT
  5
C2B
330
B56
100
AcDbEntity
  8
DEFPOINTS
  6
ByBlock
 62
     0
100
AcDbPoint
 10
1.989189978675995
 20
224.3388548154308
 30
0.0
  0
POINT
  5
C2C
330
B56
100
AcDbEntity
  8
DEFPOINTS
  6
ByBlock
 62
     0
100
AcDbPoint
 10
-27.71240868165194
 20
182.8388548154308
 30
0.0
  0
POINT
  5
C2D
330
B56
100
AcDbEntity
  8
DEFPOINTS
  6
ByBlock
 62
     0
100
AcDbPoint
 10
-31.51494291452457
 20
182.8388548154308
 30
0.0
  0
ENDBLK
  5
C2E
330
B56
100
AcDbEntity
  8
0
100
AcDbBlockEnd
  0
BLOCK
  5
B65
330
B64
100
AcDbEntity
  8
0
100
AcDbBlockBegin
  2
*D7
 70
     1
 10
0.0
 20
0.0
 30
0.0
  3
*D7
  1

  0
LINE
  5
B66
330
B64
100
AcDbEntity
  8
0
  6
ByBlock
 62
     2
100
AcDbLine
 10
-3.510810021324004
 20
139.3388548154308
 30
0.0
 11
-32.76494291452458
 21
139.3388548154308
 31
0.0
  0
LINE
  5
B67
330
B64
100
AcDbEntity
  8
0
  6
ByBlock
 62
     2
100
AcDbLine
 10
-31.51494291452457
 20
180.3388548154308
 30
0.0
 11
-31.51494291452457
 21
141.8388548154307
 31
0.0
  0
INSERT
  5
B68
330
B64
100
AcDbEntity
  8
0
  6
ByBlock
 62
     2
100
AcDbBlockReference
  2
_OPEN
 10
-31.51494291452457
 20
182.8388548154308
 30
0.0
 41
2.5
 42
2.5
 43
2.5
 50
90.0
  0
INSERT
  5
B69
330
B64
100
AcDbEntity
  8
0
  6
ByBlock
 62
     2
100
AcDbBlockReference
  2
_OPEN
 10
-31.51494291452457
 20
139.3388548154308
 30
0.0
 41
2.5
 42
2.5
 43
2.5
 50
270.0
  0
MTEXT
  5
B6A
330
B64
100
AcDbEntity
  8
0
  6
ByBlock
 62
     6
100
AcDbMText
 10
-33.38994291452458
 20
161.0888548154308
 30
0.0
 40
2.5
 41
0.0
 71
     5
 72
     1
  1
\A1;43.5
  7
STYLE3
 11
0.0000000000000001
 21
1.0
 31
0.0
 73
     1
 44
1.0
  0
POINT
  5
B6B
330
B64
100
AcDbEntity
  8
DEFPOINTS
  6
ByBlock
 62
     0
100
AcDbPoint
 10
-27.71240868165194
 20
182.8388548154308
 30
0.0
  0
POINT
  5
B6C
330
B64
100
AcDbEntity
  8
DEFPOINTS
  6
ByBlock
 62
     0
100
AcDbPoint
 10
-3.510810021324004
 20
139.3388548154308
 30
0.0
  0
POINT
  5
B6D
330
B64
100
AcDbEntity
  8
DEFPOINTS
  6
ByBlock
 62
     0
100
AcDbPoint
 10
-31.51494291452457
 20
139.3388548154308
 30
0.0
  0
ENDBLK
  5
B6E
330
B64
100
AcDbEntity
  8
0
100
AcDbBlockEnd
  0
BLOCK
  5
B71
330
B70
100
AcDbEntity
  8
0
100
AcDbBlockBegin
  2
*D8
 70
     1
 10
0.0
 20
0.0
 30
0.0
  3
*D8
  1

  0
LINE
  5
B72
330
B70
100
AcDbEntity
  8
0
  6
ByBlock
 62
     2
100
AcDbLine
 10
-3.510810021324004
 20
115.8388548154308
 30
0.0
 11
-32.76494291452458
 21
115.8388548154308
 31
0.0
  0
LINE
  5
B73
330
B70
100
AcDbEntity
  8
0
  6
ByBlock
 62
     2
100
AcDbLine
 10
-31.51494291452457
 20
136.8388548154308
 30
0.0
 11
-31.51494291452457
 21
118.3388548154308
 31
0.0
  0
INSERT
  5
B74
330
B70
100
AcDbEntity
  8
0
  6
ByBlock
 62
     2
100
AcDbBlockReference
  2
_OPEN
 10
-31.51494291452457
 20
139.3388548154308
 30
0.0
 41
2.5
 42
2.5
 43
2.5
 50
90.0
  0
INSERT
  5
B75
330
B70
100
AcDbEntity
  8
0
  6
ByBlock
 62
     2
100
AcDbBlockReference
  2
_OPEN
 10
-31.51494291452457
 20
115.8388548154308
 30
0.0
 41
2.5
 42
2.5
 43
2.5
 50
270.0
  0
MTEXT
  5
B76
330
B70
100
AcDbEntity
  8
0
  6
ByBlock
 62
     6
100
AcDbMText
 10
-33.38994291452458
 20
127.5888548154308
 30
0.0
 40
2.5
 41
0.0
 71
     5
 72
     1
  1
\A1;23.5
  7
STYLE3
 11
0.0000000000000001
 21
1.0
 31
0.0
 73
     1
 44
1.0
  0
POINT
  5
B77
330
B70
100
AcDbEntity
  8
DEFPOINTS
  6
ByBlock
 62
     0
100
AcDbPoint
 10
-3.510810021324004
 20
139.3388548154308
 30
0.0
  0
POINT
  5
B78
330
B70
100
AcDbEntity
  8
DEFPOINTS
  6
ByBlock
 62
     0
100
AcDbPoint
 10
-3.510810021324004
 20
115.8388548154308
 30
0.0
  0
POINT
  5
B79
330
B70
100
AcDbEntity
  8
DEFPOINTS
  6
ByBlock
 62
     0
100
AcDbPoint
 10
-31.51494291452457
 20
115.8388548154308
 30
0.0
  0
ENDBLK
  5
B7A
330
B70
100
AcDbEntity
  8
0
100
AcDbBlockEnd
  0
BLOCK
  5
B7D
330
B7C
100
AcDbEntity
  8
0
100
AcDbBlockBegin
  2
*D9
 70
     1
 10
0.0
 20
0.0
 30
0.0
  3
*D9
  1

  0
LINE
  5
B7E
330
B7C
100
AcDbEntity
  8
0
  6
ByBlock
 62
     2
100
AcDbLine
 10
-3.510810021324004
 20
100.8388548154308
 30
0.0
 11
-32.76494291452457
 21
100.8388548154308
 31
0.0
  0
LINE
  5
B7F
330
B7C
100
AcDbEntity
  8
0
  6
ByBlock
 62
     2
100
AcDbLine
 10
-31.51494291452457
 20
113.3388548154308
 30
0.0
 11
-31.51494291452457
 21
103.3388548154308
 31
0.0
  0
INSERT
  5
B80
330
B7C
100
AcDbEntity
  8
0
  6
ByBlock
 62
     2
100
AcDbBlockReference
  2
_OPEN
 10
-31.51494291452457
 20
115.8388548154308
 30
0.0
 41
2.5
 42
2.5
 43
2.5
 50
90.0
  0
INSERT
  5
B81
330
B7C
100
AcDbEntity
  8
0
  6
ByBlock
 62
     2
100
AcDbBlockReference
  2
_OPEN
 10
-31.51494291452457
 20
100.8388548154308
 30
0.0
 41
2.5
 42
2.5
 43
2.5
 50
270.0
  0
MTEXT
  5
B82
330
B7C
100
AcDbEntity
  8
0
  6
ByBlock
 62
     6
100
AcDbMText
 10
-33.38994291452458
 20
108.3388548154308
 30
0.0
 40
2.5
 41
0.0
 71
     5
 72
     1
  1
\A1;15
  7
STYLE3
 11
0.0000000000000001
 21
1.0
 31
0.0
 73
     1
 44
1.0
  0
POINT
  5
B83
330
B7C
100
AcDbEntity
  8
DEFPOINTS
  6
ByBlock
 62
     0
100
AcDbPoint
 10
-3.510810021324004
 20
115.8388548154308
 30
0.0
  0
POINT
  5
B84
330
B7C
100
AcDbEntity
  8
DEFPOINTS
  6
ByBlock
 62
     0
100
AcDbPoint
 10
-3.510810021324004
 20
100.8388548154308
 30
0.0
  0
POINT
  5
B85
330
B7C
100
AcDbEntity
  8
DEFPOINTS
  6
ByBlock
 62
     0
100
AcDbPoint
 10
-31.51494291452457
 20
100.8388548154308
 30
0.0
  0
ENDBLK
  5
B86
330
B7C
100
AcDbEntity
  8
0
100
AcDbBlockEnd
  0
BLOCK
  5
BC7
330
BAF
100
AcDbEntity
  8
0
100
AcDbBlockBegin
  2
*D10
 70
     1
 10
0.0
 20
0.0
 30
0.0
  3
*D10
  1

  0
LINE
  5
BC8
330
BAF
100
AcDbEntity
  8
0
  6
ByBlock
 62
     2
100
AcDbLine
 10
-90.91182649457039
 20
100.8388548154308
 30
0.0
 11
-80.51916469371803
 21
100.8388548154308
 31
0.0
  0
LINE
  5
BC9
330
BAF
100
AcDbEntity
  8
0
  6
ByBlock
 62
     2
100
AcDbLine
 10
-96.41182649457039
 20
59.47256398698036
 30
0.0
 11
-80.51916469371803
 21
59.47256398698036
 31
0.0
  0
LINE
  5
BCA
330
BAF
100
AcDbEntity
  8
0
  6
ByBlock
 62
     2
100
AcDbLine
 10
-81.76916469371803
 20
98.33885481543084
 30
0.0
 11
-81.76916469371803
 21
61.97256398698036
 31
0.0
  0
INSERT
  5
BCB
330
BAF
100
AcDbEntity
  8
0
  6
ByBlock
 62
     2
100
AcDbBlockReference
  2
_OPEN
 10
-81.76916469371803
 20
100.8388548154308
 30
0.0
 41
2.5
 42
2.5
 43
2.5
 50
90.0
  0
INSERT
  5
BCC
330
BAF
100
AcDbEntity
  8
0
  6
ByBlock
 62
     2
100
AcDbBlockReference
  2
_OPEN
 10
-81.76916469371803
 20
59.47256398698036
 30
0.0
 41
2.5
 42
2.5
 43
2.5
 50
270.0
  0
MTEXT
  5
BCD
330
BAF
100
AcDbEntity
  8
0
  6
ByBlock
 62
     6
100
AcDbMText
 10
-83.64416469371803
 20
80.15570940120559
 30
0.0
 40
2.5
 41
0.0
 71
     5
 72
     1
  1
\A1;41
  7
STYLE3
 11
0.0000000000000001
 21
1.0
 31
0.0
 73
     1
 44
1.0
  0
POINT
  5
BCE
330
BAF
100
AcDbEntity
  8
DEFPOINTS
  6
ByBlock
 62
     0
100
AcDbPoint
 10
-90.91182649457039
 20
100.8388548154308
 30
0.0
  0
POINT
  5
BCF
330
BAF
100
AcDbEntity
  8
DEFPOINTS
  6
ByBlock
 62
     0
100
AcDbPoint
 10
-96.41182649457039
 20
59.47256398698036
 30
0.0
  0
POINT
  5
BD0
330
BAF
100
AcDbEntity
  8
DEFPOINTS
  6
ByBlock
 62
     0
100
AcDbPoint
 10
-81.76916469371803
 20
59.47256398698036
 30
0.0
  0
ENDBLK
  5
BD1
330
BAF
100
AcDbEntity
  8
0
100
AcDbBlockEnd
  0
ENDSEC
  0
SECTION
  2
ENTITIES
  0
LINE
  5
307
330
18
100
AcDbEntity
  8
中心線
100
AcDbLine
 10
1.989189978675995
 20
226.941264334685
 30
0.0
 11
1.989189978675994
 21
95.92994043614543
 31
0.0
  0
LINE
  5
31A
330
18
100
AcDbEntity
  8
中心線
100
AcDbLine
 10
-27.71240868165194
 20
182.8388548154308
 30
0.0
 11
30.85147084388086
 21
182.8388548154308
 31
0.0
  0
LINE
  5
333
330
18
100
AcDbEntity
  8
中心線
100
AcDbLine
 10
-96.41182649457039
 20
226.4365320101587
 30
0.0
 11
-96.41182649457039
 21
56.48797464596771
 31
0.0
  0
LINE
  5
338
330
18
100
AcDbEntity
  8
中心線
100
AcDbLine
 10
-106.5697129803748
 20
182.8388548154308
 30
0.0
 11
-78.16022307353932
 21
182.8388548154308
 31
0.0
  0
ARC
  5
5CB
330
18
100
AcDbEntity
  8
外形線
100
AcDbCircle
 10
22.59851579145124
 20
209.1055951651648
 30
0.0
 40
2.0
100
AcDbArc
 50
109.8197641089327
 51
142.2522235389741
  0
LINE
  5
5CC
330
18
100
AcDbEntity
  8
外形線
100
AcDbLine
 10
20.20815657008086
 20
208.7755643476173
 30
0.0
 11
34.95128153988935
 21
214.0891614571047
 31
0.0
  0
LINE
  5
5CF
330
18
100
AcDbEntity
  8
0
  6
ByBlock
 62
     2
100
AcDbLine
 10
-81.91182649457028
 20
182.8388548154308
 30
0.0
 11
-81.91182649457028
 21
233.1208697897407
 31
0.0
  0
LINE
  5
5D1
330
18
100
AcDbEntity
  8
外形線
  6
Continuous
100
AcDbLine
 10
-92.71182649457035
 20
210.8388548154308
 30
0.0
 11
-92.71182649457035
 21
207.3388548154308
 31
0.0
  0
LINE
  5
5D2
330
18
100
AcDbEntity
  8
外形線
  6
Continuous
100
AcDbLine
 10
-100.1118264945704
 20
210.8388548154308
 30
0.0
 11
-100.1118264945704
 21
207.3388548154309
 31
0.0
  0
LINE
  5
5D3
330
18
100
AcDbEntity
  8
外形線
  6
Continuous
100
AcDbLine
 10
-1.710810021323936
 20
210.8388548154307
 30
0.0
 11
-1.710810021323936
 21
208.9782886272026
 31
0.0
  0
LINE
  5
5D4
330
18
100
AcDbEntity
  8
外形線
  6
Continuous
100
AcDbLine
 10
5.68918997867604
 20
210.8388548154307
 30
0.0
 11
5.68918997867604
 21
208.9782886272026
 31
0.0
  0
LINE
  5
5E6
330
18
100
AcDbEntity
  8
0
  6
ByBlock
 62
     2
100
AcDbLine
 10
-69.37192448798009
 20
206.7388548154308
 30
0.0
 11
-69.37192448798009
 21
158.9388548154309
 31
0.0
  0
LINE
  5
5E8
330
18
100
AcDbEntity
  8
外形線
  6
Continuous
100
AcDbLine
 10
-91.41182649457027
 20
207.8388548154308
 30
0.0
 11
-91.41182649457027
 21
157.8388548154308
 31
0.0
  0
LINE
  5
5E9
330
18
100
AcDbEntity
  8
外形線
  6
Continuous
100
AcDbLine
 10
-89.91182649457028
 20
209.2388548154308
 30
0.0
 11
-89.91182649457028
 21
156.4388548154309
 31
0.0
  0
LINE
  5
5EA
330
18
100
AcDbEntity
  8
外形線
  6
Continuous
100
AcDbLine
 10
-86.11182649457033
 20
209.2388548154308
 30
0.0
 11
-86.11182649457033
 21
156.4388548154309
 31
0.0
  0
LINE
  5
5EB
330
18
100
AcDbEntity
  8
外形線
  6
Continuous
100
AcDbLine
 10
-84.91182649457028
 20
207.8388548154308
 30
0.0
 11
-84.91182649457028
 21
157.8388548154308
 31
0.0
  0
ARC
  5
5EC
330
18
100
AcDbEntity
  8
外形線
  6
Continuous
100
AcDbCircle
 10
-187.5784931612367
 20
182.8388548154308
 30
0.0
 40
105.6666666666664
100
AcDbArc
 50
346.3144531747381
 51
13.68554682526192
  0
LINE
  5
5F0
330
18
100
AcDbEntity
  8
外形線
  6
Continuous
 62
     4
100
AcDbLine
 10
-86.11182649457033
 20
161.4388548154309
 30
0.0
 11
-89.91182649457028
 21
161.4388548154309
 31
0.0
  0
LINE
  5
5F1
330
18
100
AcDbEntity
  8
外形線
  6
Continuous
 62
     4
100
AcDbLine
 10
-86.11182649457033
 20
157.4388548154309
 30
0.0
 11
-89.91182649457028
 21
157.4388548154309
 31
0.0
  0
LINE
  5
5F2
330
18
100
AcDbEntity
  8
外形線
  6
Continuous
 62
     4
100
AcDbLine
 10
-86.11182649457033
 20
158.4388548154309
 30
0.0
 11
-89.91182649457028
 21
158.4388548154309
 31
0.0
  0
LINE
  5
5F3
330
18
100
AcDbEntity
  8
外形線
  6
Continuous
 62
     4
100
AcDbLine
 10
-86.11182649457033
 20
159.4388548154309
 30
0.0
 11
-89.91182649457028
 21
159.4388548154309
 31
0.0
  0
LINE
  5
5F4
330
18
100
AcDbEntity
  8
外形線
  6
Continuous
 62
     4
100
AcDbLine
 10
-86.11182649457033
 20
160.4388548154309
 30
0.0
 11
-89.91182649457028
 21
160.4388548154309
 31
0.0
  0
LINE
  5
5F5
330
18
100
AcDbEntity
  8
外形線
  6
Continuous
100
AcDbLine
 10
-86.11182649457033
 20
156.4388548154309
 30
0.0
 11
-89.91182649457028
 21
156.4388548154309
 31
0.0
  0
LINE
  5
613
330
18
100
AcDbEntity
  8
外形線
  6
CENTER2
100
AcDbLine
 10
-91.41182649457027
 20
157.8388548154308
 30
0.0
 11
-89.91182649457028
 21
157.8388548154308
 31
0.0
  0
LINE
  5
62A
330
18
100
AcDbEntity
  8
0
  6
ByBlock
 62
     2
100
AcDbLine
 10
-86.11182649457033
 20
156.4388548154309
 30
0.0
 11
-68.12192448798009
 21
156.4388548154309
 31
0.0
  0
POINT
  5
62B
330
18
100
AcDbEntity
  8
DEFPOINTS
  6
ByBlock
 62
     0
100
AcDbPoint
 10
-86.11182649457033
 20
156.4388548154309
 30
0.0
  0
LINE
  5
62C
330
18
100
AcDbEntity
  8
外形線
  6
Continuous
100
AcDbLine
 10
-86.11182649457033
 20
157.3388548154308
 30
0.0
 11
-84.91182649457028
 21
157.8388548154308
 31
0.0
  0
INSERT
  5
62D
330
18
100
AcDbEntity
  8
0
  6
ByBlock
 62
     2
100
AcDbBlockReference
  2
_OPEN
 10
-69.37192448798009
 20
156.4388548154309
 30
0.0
 41
2.5
 42
2.5
 43
2.5
 50
270.0
  0
POINT
  5
62E
330
18
100
AcDbEntity
  8
DEFPOINTS
  6
ByBlock
 62
     0
100
AcDbPoint
 10
-69.37192448798009
 20
156.4388548154309
 30
0.0
  0
LINE
  5
62F
330
18
100
AcDbEntity
  8
外形線
  6
Continuous
100
AcDbLine
 10
-86.11182649457033
 20
209.2388548154308
 30
0.0
 11
-89.91182649457028
 21
209.2388548154308
 31
0.0
  0
LINE
  5
630
330
18
100
AcDbEntity
  8
外形線
  6
Continuous
 62
     4
100
AcDbLine
 10
-86.11182649457033
 20
208.2388548154308
 30
0.0
 11
-89.91182649457028
 21
208.2388548154308
 31
0.0
  0
LINE
  5
631
330
18
100
AcDbEntity
  8
外形線
  6
Continuous
 62
     4
100
AcDbLine
 10
-86.11182649457033
 20
207.2388548154308
 30
0.0
 11
-89.91182649457028
 21
207.2388548154308
 31
0.0
  0
LINE
  5
632
330
18
100
AcDbEntity
  8
外形線
  6
Continuous
 62
     4
100
AcDbLine
 10
-86.11182649457033
 20
206.2388548154308
 30
0.0
 11
-89.91182649457028
 21
206.2388548154308
 31
0.0
  0
LINE
  5
633
330
18
100
AcDbEntity
  8
外形線
  6
Continuous
 62
     4
100
AcDbLine
 10
-86.11182649457033
 20
205.2388548154308
 30
0.0
 11
-89.91182649457028
 21
205.2388548154308
 31
0.0
  0
LINE
  5
634
330
18
100
AcDbEntity
  8
外形線
  6
Continuous
 62
     4
100
AcDbLine
 10
-86.11182649457033
 20
204.2388548154308
 30
0.0
 11
-89.91182649457028
 21
204.2388548154308
 31
0.0
  0
LINE
  5
635
330
18
100
AcDbEntity
  8
外形線
  6
Continuous
 62
     4
100
AcDbLine
 10
-89.91182649457028
 20
184.8388548154309
 30
0.0
 11
-86.11182649457033
 21
184.8388548154309
 31
0.0
  0
LINE
  5
636
330
18
100
AcDbEntity
  8
外形線
  6
Continuous
 62
     4
100
AcDbLine
 10
-89.91182649457028
 20
185.8388548154309
 30
0.0
 11
-86.11182649457033
 21
185.8388548154309
 31
0.0
  0
LINE
  5
637
330
18
100
AcDbEntity
  8
外形線
  6
Continuous
 62
     4
100
AcDbLine
 10
-89.91182649457028
 20
183.8388548154308
 30
0.0
 11
-86.11182649457033
 21
183.8388548154308
 31
0.0
  0
LINE
  5
638
330
18
100
AcDbEntity
  8
外形線
  6
Continuous
 62
     4
100
AcDbLine
 10
-89.91182649457028
 20
182.8388548154308
 30
0.0
 11
-86.11182649457033
 21
182.8388548154308
 31
0.0
  0
LINE
  5
639
330
18
100
AcDbEntity
  8
外形線
  6
Continuous
 62
     4
100
AcDbLine
 10
-89.91182649457028
 20
181.8388548154308
 30
0.0
 11
-86.11182649457033
 21
181.8388548154308
 31
0.0
  0
LINE
  5
63A
330
18
100
AcDbEntity
  8
外形線
  6
Continuous
 62
     4
100
AcDbLine
 10
-89.91182649457028
 20
180.8388548154308
 30
0.0
 11
-86.11182649457033
 21
180.8388548154308
 31
0.0
  0
LINE
  5
63D
330
18
100
AcDbEntity
  8
外形線
  6
CENTER2
100
AcDbLine
 10
-91.41182649457027
 20
207.8388548154308
 30
0.0
 11
-89.91182649457028
 21
207.8388548154308
 31
0.0
  0
MTEXT
  5
63E
330
18
100
AcDbEntity
  8
0
  6
ByBlock
 62
     6
100
AcDbMText
 10
-71.24692448798009
 20
182.8388548154308
 30
0.0
 40
2.5
 41
0.0
 71
     5
 72
     1
  1
\A1;φ53
  7
STYLE3
 11
0.0000000000000001
 21
1.0
 31
0.0
 73
     1
 44
1.0
  0
POINT
  5
63F
330
18
100
AcDbEntity
  8
DEFPOINTS
  6
ByBlock
 62
     0
100
AcDbPoint
 10
-81.91182649457028
 20
182.8388548154308
 30
0.0
  0
POINT
  5
640
330
18
100
AcDbEntity
  8
DEFPOINTS
  6
ByBlock
 62
     0
100
AcDbPoint
 10
-81.91182649457028
 20
182.8388548154308
 30
0.0
  0
LINE
  5
641
330
18
100
AcDbEntity
  8
0
  6
ByBlock
 62
     2
100
AcDbLine
 10
-86.11182649457033
 20
209.2388548154308
 30
0.0
 11
-68.12192448798009
 21
209.2388548154308
 31
0.0
  0
POINT
  5
642
330
18
100
AcDbEntity
  8
DEFPOINTS
  6
ByBlock
 62
     0
100
AcDbPoint
 10
-86.11182649457033
 20
209.2388548154308
 30
0.0
  0
LINE
  5
643
330
18
100
AcDbEntity
  8
外形線
  6
Continuous
100
AcDbLine
 10
-86.11182649457033
 20
208.3388548154309
 30
0.0
 11
-84.91182649457028
 21
207.8388548154308
 31
0.0
  0
INSERT
  5
644
330
18
100
AcDbEntity
  8
0
  6
ByBlock
 62
     2
100
AcDbBlockReference
  2
_OPEN
 10
-69.37192448798009
 20
209.2388548154308
 30
0.0
 41
2.5
 42
2.5
 43
2.5
 50
90.0
  0
LINE
  5
66F
330
18
100
AcDbEntity
  8
目盛
100
AcDbLine
 10
15.50825078140292
 20
201.4462456860546
 30
0.0
 11
13.92123060021322
 21
199.2618998012422
 31
0.0
  0
LINE
  5
670
330
18
100
AcDbEntity
  8
目盛
100
AcDbLine
 10
15.50825078140286
 20
164.231463944807
 30
0.0
 11
13.92123060021316
 21
166.4158098296193
 31
0.0
  0
CIRCLE
  5
671
330
18
100
AcDbEntity
  8
外形線
100
AcDbCircle
 10
1.989189978675995
 20
182.8388548154308
 30
0.0
 40
26.4
  0
CIRCLE
  5
672
330
18
100
AcDbEntity
  8
外形線
100
AcDbCircle
 10
1.989189978675995
 20
182.8388548154308
 30
0.0
 40
23.0
  0
CIRCLE
  5
673
330
18
100
AcDbEntity
  8
外形線
100
AcDbCircle
 10
1.989189978675995
 20
182.8388548154308
 30
0.0
 40
15.5
  0
LINE
  5
67B
330
18
100
AcDbEntity
  8
目盛
100
AcDbLine
 10
14.31320626319274
 20
163.4193125288843
 30
0.0
 11
13.40230071172851
 21
164.8546700022377
 31
0.0
  0
LINE
  5
67C
330
18
100
AcDbEntity
  8
目盛
100
AcDbLine
 10
-10.33482630584103
 20
163.4193125288845
 30
0.0
 11
-9.423920754376752
 21
164.854670002238
 31
0.0
  0
LINE
  5
67D
330
18
100
AcDbEntity
  8
目盛
100
AcDbLine
 10
-11.52987082405093
 20
164.231463944807
 30
0.0
 11
-9.942850642861287
 21
166.4158098296194
 31
0.0
  0
TEXT
  5
67E
330
18
100
AcDbEntity
  8
文字
100
AcDbText
 10
-0.3240574884728176
 20
163.1559675420723
 30
0.0
 40
2.5
  1
50
  7
STYLE3
100
AcDbText
  0
LINE
  5
6C4
330
18
100
AcDbEntity
  8
目盛
100
AcDbLine
 10
-7.803733727320889
 20
162.0278326087124
 30
0.0
 11
-7.079908931660213
 21
163.5660385979046
 31
0.0
  0
LINE
  5
6C5
330
18
100
AcDbEntity
  8
目盛
100
AcDbLine
 10
-9.091144525663537
 20
162.683801174422
 30
0.0
 11
-8.272163279690687
 21
164.1735225304965
 31
0.0
  0
LINE
  5
6C6
330
18
100
AcDbEntity
  8
目盛
100
AcDbLine
 10
-6.477674733071864
 20
161.4539956400011
 30
0.0
 11
-5.851862993507836
 21
163.0346156660111
 31
0.0
  0
LINE
  5
6C7
330
18
100
AcDbEntity
  8
目盛
100
AcDbLine
 10
-2.320580256795722
 20
160.2462480486711
 30
0.0
 11
-2.002032022000037
 21
161.9161363749098
 31
0.0
  0
LINE
  5
6C8
330
18
100
AcDbEntity
  8
目盛
100
AcDbLine
 10
-3.730677426115732
 20
160.5614421094724
 30
0.0
 11
-3.307904617935491
 21
162.208033483391
 31
0.0
  0
LINE
  5
6C9
330
18
100
AcDbEntity
  8
目盛
100
AcDbLine
 10
-5.118200891947822
 20
160.9645549406423
 30
0.0
 11
-4.283855007135457
 21
163.5324075346392
 31
0.0
  0
LINE
  5
6CC
330
18
100
AcDbEntity
  8
目盛
100
AcDbLine
 10
-0.8934743933031654
 20
160.0202166851978
 30
0.0
 11
-0.6804078962438212
 21
161.7068116774325
 31
0.0
  0
LINE
  5
6CD
330
18
100
AcDbEntity
  8
目盛
100
AcDbLine
 10
1.989189978676051
 20
159.8388548154308
 30
0.0
 11
1.989189978676051
 21
162.5388548154308
 31
0.0
  0
LINE
  5
6CE
330
18
100
AcDbEntity
  8
目盛
100
AcDbLine
 10
0.5450080295016165
 20
159.8842400615806
 30
0.0
 11
0.6517519127015135
 21
161.5808854999086
 31
0.0
  0
LINE
  5
6CF
330
18
100
AcDbEntity
  8
目盛
100
AcDbLine
 10
6.298960214147541
 20
160.2462480486709
 30
0.0
 11
5.980411979351799
 21
161.9161363749097
 31
0.0
  0
LINE
  5
6D0
330
18
100
AcDbEntity
  8
目盛
100
AcDbLine
 10
4.871854350654928
 20
160.0202166851979
 30
0.0
 11
4.658787853595583
 21
161.7068116774324
 31
0.0
  0
LINE
  5
6D1
330
18
100
AcDbEntity
  8
目盛
100
AcDbLine
 10
3.433371927850146
 20
159.8842400615806
 30
0.0
 11
3.326628044650306
 21
161.5808854999086
 31
0.0
  0
LINE
  5
6D2
330
18
100
AcDbEntity
  8
目盛
100
AcDbLine
 10
10.45605469042345
 20
161.453995640001
 30
0.0
 11
9.830242950859542
 21
163.0346156660109
 31
0.0
  0
LINE
  5
6D3
330
18
100
AcDbEntity
  8
目盛
100
AcDbLine
 10
9.096580849299868
 20
160.9645549406423
 30
0.0
 11
8.262234964487504
 21
163.5324075346392
 31
0.0
  0
LINE
  5
6D4
330
18
100
AcDbEntity
  8
目盛
100
AcDbLine
 10
7.709057383467495
 20
160.5614421094722
 30
0.0
 11
7.286284575287311
 21
162.2080334833909
 31
0.0
  0
LINE
  5
6D5
330
18
100
AcDbEntity
  8
目盛
100
AcDbLine
 10
13.0695244830153
 20
162.6838011744217
 30
0.0
 11
12.25054323704233
 21
164.1735225304963
 31
0.0
  0
LINE
  5
6D6
330
18
100
AcDbEntity
  8
目盛
100
AcDbLine
 10
11.78211368467254
 20
162.0278326087123
 30
0.0
 11
11.05828888901192
 21
163.5660385979044
 31
0.0
  0
LINE
  5
6D7
330
18
100
AcDbEntity
  8
目盛
100
AcDbLine
 10
-18.16586366233298
 20
171.7585203110915
 30
0.0
 11
-16.67614230625838
 21
172.5775015570644
 31
0.0
  0
LINE
  5
6D8
330
18
100
AcDbEntity
  8
目盛
100
AcDbLine
 10
-18.82183222804241
 20
173.0459311094342
 30
0.0
 11
-17.28362623885027
 21
173.7697559050949
 31
0.0
  0
LINE
  5
6D9
330
18
100
AcDbEntity
  8
目盛
100
AcDbLine
 10
-19.88510989611256
 20
175.731463944807
 30
0.0
 11
-17.31725730211565
 21
176.5658098296193
 31
0.0
  0
LINE
  5
6DA
330
18
100
AcDbEntity
  8
目盛
100
AcDbLine
 10
-18.82183222804241
 20
192.6317785214277
 30
0.0
 11
-17.28362623885016
 21
191.907953725767
 31
0.0
  0
LINE
  5
6DB
330
18
100
AcDbEntity
  8
目盛
100
AcDbLine
 10
-18.16586366233281
 20
193.9191893197703
 30
0.0
 11
-16.67614230625827
 21
193.1002080737975
 31
0.0
  0
LINE
  5
6DC
330
18
100
AcDbEntity
  8
目盛
100
AcDbLine
 10
-19.88510989611251
 20
189.9462456860545
 30
0.0
 11
-17.31725730211559
 21
189.1118998012422
 31
0.0
  0
LINE
  5
6DD
330
18
100
AcDbEntity
  8
目盛
100
AcDbLine
 10
-19.39566919675377
 20
174.3719901036833
 30
0.0
 11
-17.81504917074375
 21
174.9978018432473
 31
0.0
  0
LINE
  5
6E2
330
18
100
AcDbEntity
  8
目盛
100
AcDbLine
 10
-20.60341678808396
 20
178.5290845799593
 30
0.0
 11
-18.93352846184513
 21
178.847632814755
 31
0.0
  0
LINE
  5
6E3
330
18
100
AcDbEntity
  8
目盛
100
AcDbLine
 10
-20.82944815155696
 20
179.9561904434519
 30
0.0
 11
-19.14285315932244
 21
180.1692569405112
 31
0.0
  0
LINE
  5
6E4
330
18
100
AcDbEntity
  8
目盛
100
AcDbLine
 10
-20.96542477517425
 20
181.3946728662567
 30
0.0
 11
-19.26877933684625
 21
181.5014167494565
 31
0.0
  0
LINE
  5
6E5
330
18
100
AcDbEntity
  8
目盛
100
AcDbLine
 10
-20.28822272728263
 20
177.1189874106393
 30
0.0
 11
-18.64163135336395
 21
177.5417602188195
 31
0.0
  0
POINT
  5
6E6
330
18
100
AcDbEntity
  8
DEFPOINTS
  6
ByBlock
 62
     0
100
AcDbPoint
 10
-24.41081002132398
 20
182.8388548154308
 30
0.0
  0
POINT
  5
6E7
330
18
100
AcDbEntity
  8
DEFPOINTS
  6
ByBlock
 62
     0
100
AcDbPoint
 10
-24.41081002132398
 20
182.8388548154308
 30
0.0
  0
LINE
  5
6E8
330
18
100
AcDbEntity
  8
目盛
100
AcDbLine
 10
-20.82944815155696
 20
185.72151918741
 30
0.0
 11
-19.14285315932233
 21
185.5084526903507
 31
0.0
  0
LINE
  5
6E9
330
18
100
AcDbEntity
  8
目盛
100
AcDbLine
 10
-20.60341678808374
 20
187.1486250509026
 30
0.0
 11
-18.93352846184501
 21
186.8300768161069
 31
0.0
  0
LINE
  5
6EA
330
18
100
AcDbEntity
  8
目盛
100
AcDbLine
 10
-21.01081002132395
 20
182.8388548154308
 30
0.0
 11
-18.31081002132396
 21
182.8388548154308
 31
0.0
  0
LINE
  5
6EB
330
18
100
AcDbEntity
  8
目盛
100
AcDbLine
 10
-20.9654247751742
 20
184.2830367646052
 30
0.0
 11
-19.26877933684614
 21
184.1762928814053
 31
0.0
  0
LINE
  5
6ED
330
18
100
AcDbEntity
  8
目盛
100
AcDbLine
 10
-20.2882227272824
 20
188.5587222202225
 30
0.0
 11
-18.64163135336378
 21
188.1359494120423
 31
0.0
  0
LINE
  5
6EE
330
18
100
AcDbEntity
  8
目盛
100
AcDbLine
 10
-19.39566919675371
 20
191.3057195271786
 30
0.0
 11
-17.81504917074375
 21
190.6799077876146
 31
0.0
  0
HATCH
  5
6EF
330
18
100
AcDbEntity
  8
針
100
AcDbHatch
 10
0.0
 20
0.0
 30
0.0
210
0.0
220
0.0
230
1.0
  2
SOLID
 70
     1
 71
     0
 91
        2
 92
        7
 72
     1
 73
     1
 93
        5
 10
2.079189978675913
 20
204.8388548154309
 42
0.0
 10
1.989189978675995
 20
204.8388548154309
 42
0.0
 10
1.899189978675963
 20
204.8388548154309
 42
0.0
 10
1.72374304618097
 20
198.3365816786204
 42
-0.0085634322047721
 10
2.254636911170905
 20
198.3365816786204
 42
0.0
 97
        0
 92
        7
 72
     1
 73
     1
 93
        6
 10
2.254636911170905
 20
198.3365816786204
 42
0.0085634322047721
 10
1.72374304618097
 20
198.3365816786204
 42
0.0
 10
1.389189978675858
 20
185.9376449018994
 42
-0.1293106770632391
 10
1.000971493423435
 20
184.4616376799586
 42
-0.2805221108582334
 10
2.977408463928497
 20
184.4616376799586
 42
-0.1293106770632486
 10
2.589189978676017
 20
185.9376449018995
 42
0.0
 97
        0
 75
     0
 76
     1
 47
0.0423559757596284
 98
        2
 10
1.948627216211605
 20
198.9648356907797
 10
2.075793333603087
 20
194.5598141873005
450
        0
451
        0
460
0.0
461
0.0
452
        0
462
0.0
453
        0
470

  0
LINE
  5
6F0
330
18
100
AcDbEntity
  8
針
100
AcDbLine
 10
1.899189978675963
 20
204.8388548154309
 30
0.0
 11
1.389189978675858
 21
185.9376449018999
 31
0.0
  0
LINE
  5
6F1
330
18
100
AcDbEntity
  8
針
100
AcDbLine
 10
2.079189978675913
 20
204.8388548154309
 30
0.0
 11
2.589189978676017
 21
185.9376449018999
 31
0.0
  0
TEXT
  5
6F3
330
18
100
AcDbEntity
  8
文字
100
AcDbText
 10
-17.19778336310514
 20
187.3482420543984
 30
0.0
 40
2.5
  1
80
  7
STYLE3
100
AcDbText
  0
ARC
  5
6F4
330
18
100
AcDbEntity
  8
針
100
AcDbCircle
 10
-1.855670434669661
 20
174.229176764995
 30
0.0
 40
0.5
100
AcDbArc
 50
293.7682212975196
 51
359.2065408792653
  0
CIRCLE
  5
6F5
330
18
100
AcDbEntity
  8
針
 62
     4
100
AcDbCircle
 10
-1.21081002132405
 20
172.7648834039169
 30
0.0
 40
0.4
  0
LINE
  5
6F6
330
18
100
AcDbEntity
  8
針
100
AcDbLine
 10
-1.355718378962421
 20
174.2222527492465
 30
0.0
 11
-1.31081002132413
 21
177.4648834039168
 31
0.0
  0
HATCH
  5
6F7
330
18
100
AcDbEntity
  8
針
100
AcDbHatch
 10
0.0
 20
0.0
 30
0.0
210
0.0
220
0.0
230
1.0
  2
SOLID
 70
     1
 71
     0
 91
        1
 92
        7
 72
     1
 73
     1
 93
        7
 10
-1.11081002132397
 20
177.464883403917
 42
0.0
 10
-1.210810021324107
 20
177.4648834039169
 42
0.0
 10
-1.31081002132413
 20
177.4648834039169
 42
0.0
 10
-1.355718378962421
 20
174.2222527492464
 42
-0.2935495917910092
 10
-1.654151555499254
 20
173.7715850896583
 42
-0.2104432563350663
 10
-0.7674691667662046
 20
173.7715853889551
 42
-0.2935491884945053
 10
-1.065901663685679
 20
174.2222527492464
 42
0.0
 97
        0
 75
     0
 76
     1
 47
0.0140573597042523
 98
        1
 10
-1.152208305426654
 20
175.6594434492171
450
        0
451
        0
460
0.0
461
0.0
452
        0
462
0.0
453
        0
470

  0
CIRCLE
  5
6F8
330
18
100
AcDbEntity
  8
針
100
AcDbCircle
 10
-1.21081002132405
 20
172.7648834039169
 30
0.0
 40
0.75
  0
CIRCLE
  5
6F9
330
18
100
AcDbEntity
  8
針
100
AcDbCircle
 10
-1.21081002132405
 20
172.7648834039169
 30
0.0
 40
1.1
  0
HATCH
  5
6FA
330
18
100
AcDbEntity
  8
針
100
AcDbHatch
 10
0.0
 20
0.0
 30
0.0
210
0.0
220
0.0
230
1.0
  2
SOLID
 70
     1
 71
     0
 91
        4
 92
        7
 72
     1
 73
     1
 93
        4
 10
-2.298727471022232
 20
172.9274737561595
 42
0.0
 10
-1.952571918845535
 20
172.8757404622641
 42
-0.4142135623730951
 10
-1.099952962976942
 20
173.5066453014383
 42
0.0
 10
-1.048219669081561
 20
173.852800853615
 42
0.4142135623730996
 97
        0
 92
        7
 72
     1
 73
     1
 93
        5
 10
-1.952571918845535
 20
172.8757404622641
 42
0.0
 10
-2.298727471022232
 20
172.9274737561595
 42
0.3173569687788799
 10
-1.728435389693686
 20
171.7942836006919
 42
0.0
 10
-1.326057379484495
 20
171.9937453244126
 42
0.0
 10
-1.321667079671385
 20
172.0231215063954
 42
-0.4142135623730839
 97
        0
 92
        7
 72
     1
 73
     1
 93
        4
 10
-1.048219669081561
 20
173.852800853615
 42
0.0
 10
-1.099952962976942
 20
173.5066453014383
 42
-0.4142135623730951
 10
-0.4690481238026223
 20
172.6540263455696
 42
0.0
 10
-0.1228925716259823
 20
172.6022930516743
 42
0.4142135623730996
 97
        0
 92
        7
 72
     1
 73
     1
 93
        4
 10
-0.4690481238026223
 20
172.6540263455696
 42
-0.1036385141593389
 10
-0.5759399539114157
 20
172.3655840206174
 42
0.0
 10
-0.1249383160333082
 20
172.5891488323356
 42
0.003023315109616
 10
-0.1228925716259823
 20
172.6022930516743
 42
0.0
 97
        0
 75
     0
 76
     1
 47
0.0223982890607777
 98
        4
 10
-1.714865522323123
 20
173.6166385919855
 10
-2.042220509585717
 20
172.4869993908825
 10
-0.7834301721319435
 20
173.6360870627921
 10
-0.3975587154025675
 20
172.581172616079
450
        0
451
        0
460
0.0
461
0.0
452
        0
462
0.0
453
        0
470

  0
HATCH
  5
6FB
330
18
100
AcDbEntity
  8
針
100
AcDbHatch
 10
0.0
 20
0.0
 30
0.0
210
0.0
220
0.0
230
1.0
  2
SOLID
 70
     1
 71
     0
 91
        2
 92
        7
 72
     1
 73
     1
 93
        5
 10
-0.8581357316798516
 20
171.7229520983962
 42
0.31735696877887
 10
-0.1109371815477402
 20
172.7481580841157
 42
0.0
 10
-0.4722678588304348
 20
173.0148661342079
 42
0.0
 10
-0.500402313014547
 20
173.0053431468561
 42
-0.4142135623731173
 10
-0.9703502783848421
 20
172.0544756956073
 42
0.0
 97
        0
 92
        7
 72
     1
 73
     1
 93
        4
 10
-0.8581357316798516
 20
171.7229520983962
 42
0.0
 10
-0.9703502783848421
 20
172.0544756956073
 42
-0.4142135623730728
 10
-1.921217729633553
 20
172.5244236609776
 42
0.0
 10
-2.25274132684467
 20
172.4122091142726
 42
0.4142135623730844
 97
        0
 75
     0
 76
     1
 47
0.0161501285364394
 98
        2
 10
-0.5492630094979632
 20
172.0685536015132
 10
-1.228058080415166
 20
171.8558440595626
450
        0
451
        0
460
0.0
461
0.0
452
        0
462
0.0
453
        0
470

  0
TEXT
  5
6FC
330
18
100
AcDbEntity
  8
文字
100
AcDbText
 10
-1.728761644176074
 20
168.8419906935479
 30
0.0
 40
1.0
  1
5
  7
STYLE3
100
AcDbText
  0
TEXT
  5
6FD
330
18
100
AcDbEntity
  8
文字
100
AcDbText
 10
-1.697186460454418
 20
175.7926573323917
 30
0.0
 40
1.0
  1
0
  7
STYLE3
100
AcDbText
  0
LINE
  5
6FE
330
18
100
AcDbEntity
  8
中心線
 48
0.2
100
AcDbLine
 10
-8.170085208253794
 20
172.7648834039169
 30
0.0
 11
6.357902239726399
 21
172.7648834039169
 31
0.0
  0
CIRCLE
  5
6FF
330
18
100
AcDbEntity
  8
外形線
100
AcDbCircle
 10
-1.21081002132405
 20
172.7648834039169
 30
0.0
 40
4.75
  0
TEXT
  5
700
330
18
100
AcDbEntity
  8
文字
100
AcDbText
 10
-17.30346413204393
 20
175.6137109295941
 30
0.0
 40
2.5
  1
70
  7
STYLE3
100
AcDbText
  0
TEXT
  5
701
330
18
100
AcDbEntity
  8
文字
100
AcDbText
 10
-11.56912703058504
 20
167.0284603268201
 30
0.0
 40
2.5
  1
60
  7
STYLE3
100
AcDbText
  0
LINE
  5
702
330
18
100
AcDbEntity
  8
目盛
100
AcDbLine
 10
-16.61820089194776
 20
169.3197940127039
 30
0.0
 11
-14.43385500713538
 21
170.9068141938935
 31
0.0
  0
LINE
  5
703
330
18
100
AcDbEntity
  8
目盛
100
AcDbLine
 10
-13.75539345768408
 20
166.0725763847384
 30
0.0
 11
-12.59166337760524
 21
167.3118230513549
 31
0.0
  0
LINE
  5
704
330
18
100
AcDbEntity
  8
目盛
100
AcDbLine
 10
-14.77708845201658
 20
167.094271379071
 30
0.0
 11
-13.53784178540019
 21
168.2580014591498
 31
0.0
  0
LINE
  5
705
330
18
100
AcDbEntity
  8
目盛
100
AcDbLine
 10
-15.73261460516727
 20
168.178103051211
 30
0.0
 11
-14.42274209244846
 21
169.2617238337838
 31
0.0
  0
LINE
  5
706
330
18
100
AcDbEntity
  8
目盛
100
AcDbLine
 10
-12.67156178554404
 20
165.1170502315878
 30
0.0
 11
-11.58794100297126
 21
166.4269227443066
 31
0.0
  0
LINE
  5
707
330
18
100
AcDbEntity
  8
目盛
100
AcDbLine
 10
-17.43035230787046
 20
170.5148385309141
 30
0.0
 11
-15.99499483451694
 21
171.4257440823783
 31
0.0
  0
TEXT
  5
708
330
18
100
AcDbEntity
  8
文字
100
AcDbText
 10
-3.832253213548369
 20
169.3167286790793
 30
0.0
 40
1.0
  1
4
  7
STYLE3
100
AcDbText
  0
LINE
  5
709
330
18
100
AcDbEntity
  8
目盛
100
AcDbLine
 10
-4.002789969713376
 20
168.9220526806359
 30
0.0
 11
-3.708897343567173
 21
169.3265611778233
 31
0.0
  0
LINE
  5
70A
330
18
100
AcDbEntity
  8
目盛
100
AcDbLine
 10
-5.728328473726151
 20
171.2970526806359
 30
0.0
 11
-5.252800215578531
 21
171.4515611778233
 31
0.0
  0
LINE
  5
70B
330
18
100
AcDbEntity
  8
目盛
100
AcDbLine
 10
-5.728328473726151
 20
174.2327141271978
 30
0.0
 11
-5.252800215578417
 21
174.0782056300104
 31
0.0
  0
TEXT
  5
70C
330
18
100
AcDbEntity
  8
文字
100
AcDbText
 10
-3.637300235151428
 20
175.1169332637072
 30
0.0
 40
1.0
  1
1
  7
STYLE3
100
AcDbText
  0
TEXT
  5
70D
330
18
100
AcDbEntity
  8
文字
100
AcDbText
 10
-4.997582582096811
 20
173.3147652575458
 30
0.0
 40
1.0
  1
2
  7
STYLE3
100
AcDbText
  0
TEXT
  5
70E
330
18
100
AcDbEntity
  8
文字
100
AcDbText
 10
-5.026825586130371
 20
171.0519235079065
 30
0.0
 40
1.0
  1
3
  7
STYLE3
100
AcDbText
  0
LINE
  5
70F
330
18
100
AcDbEntity
  8
目盛
100
AcDbLine
 10
-4.002789969713376
 20
176.6077141271979
 30
0.0
 11
-3.708897343567059
 21
176.2032056300104
 31
0.0
  0
LINE
  5
710
330
18
100
AcDbEntity
  8
針
100
AcDbLine
 10
-1.065901663685679
 20
174.2222527492464
 30
0.0
 11
-1.110810021324084
 21
177.4648834039169
 31
0.0
  0
LINE
  5
711
330
18
100
AcDbEntity
  8
中心線
 48
0.2
100
AcDbLine
 10
-1.21081002132405
 20
180.6280908226386
 30
0.0
 11
-1.21081002132405
 21
164.9384968006031
 31
0.0
  0
TEXT
  5
712
330
18
100
AcDbEntity
  8
文字
100
AcDbText
 10
0.3836273415089408
 20
169.4392724501708
 30
0.0
 40
1.0
  1
6
  7
STYLE3
100
AcDbText
  0
TEXT
  5
713
330
18
100
AcDbEntity
  8
文字
100
AcDbText
 10
2.018515662078698
 20
167.8699194745935
 30
0.0
 40
1.0
  1
S
  7
STYLE3
100
AcDbText
  0
LINE
  5
714
330
18
100
AcDbEntity
  8
目盛
100
AcDbLine
 10
1.581169927065275
 20
168.9220526806359
 30
0.0
 11
1.287277300918958
 21
169.3265611778234
 31
0.0
  0
LINE
  5
715
330
18
100
AcDbEntity
  8
目盛
100
AcDbLine
 10
-1.21081002132405
 20
168.0148834039169
 30
0.0
 11
-1.21081002132405
 21
168.5148834039169
 31
0.0
  0
TEXT
  5
716
330
18
100
AcDbEntity
  8
文字
100
AcDbText
 10
5.902396986091844
 20
168.4066550971422
 30
0.0
 40
1.0
  1
K
 50
11.14538657471254
  7
STYLE3
100
AcDbText
  0
TEXT
  5
717
330
18
100
AcDbEntity
  8
文字
100
AcDbText
 10
4.875604684622999
 20
168.2339035929811
 30
0.0
 40
1.0
  1
C
 50
5.687207778684769
  7
STYLE3
100
AcDbText
  0
TEXT
  5
718
330
18
100
AcDbEntity
  8
文字
100
AcDbText
 10
3.853342011330028
 20
168.0519115311431
 30
0.0
 40
1.0
  1
O
 50
1.760930144340787
  7
STYLE3
100
AcDbText
  0
TEXT
  5
719
330
18
100
AcDbEntity
  8
文字
100
AcDbText
 10
2.901483549266686
 20
167.9387565985065
 30
0.0
 40
1.0
  1
H
 50
1.589821613340259
  7
STYLE3
100
AcDbText
  0
ARC
  5
71A
330
18
100
AcDbEntity
  8
針
100
AcDbCircle
 10
-0.5659496079785527
 20
174.2291767649949
 30
0.0
 40
0.5
100
AcDbArc
 50
180.7934591207347
 51
246.2317787024804
  0
TEXT
  5
71B
330
18
100
AcDbEntity
  8
文字
100
AcDbText
 10
1.823523863208606
 20
171.04339218946
 30
0.0
 40
1.0
  1
7
  7
STYLE3
100
AcDbText
  0
TEXT
  5
71C
330
18
100
AcDbEntity
  8
文字
100
AcDbText
 10
1.88371079515457
 20
173.3470195745346
 30
0.0
 40
1.0
  1
8
  7
STYLE3
100
AcDbText
  0
TEXT
  5
71D
330
18
100
AcDbEntity
  8
文字
100
AcDbText
 10
0.3863132773074085
 20
175.0663273519334
 30
0.0
 40
1.0
  1
9
  7
STYLE3
100
AcDbText
  0
LINE
  5
71E
330
18
100
AcDbEntity
  8
目盛
100
AcDbLine
 10
3.306708431077822
 20
174.2327141271978
 30
0.0
 11
2.831180172930316
 21
174.0782056300103
 31
0.0
  0
LINE
  5
71F
330
18
100
AcDbEntity
  8
目盛
100
AcDbLine
 10
3.306708431077822
 20
171.2970526806359
 30
0.0
 11
2.831180172930316
 21
171.4515611778233
 31
0.0
  0
TEXT
  5
720
330
18
100
AcDbEntity
  8
文字
100
AcDbText
 10
9.288737893769848
 20
169.8946529329222
 30
0.0
 40
1.0
  1
O
 50
27.73777743938884
  7
STYLE3
100
AcDbText
  0
TEXT
  5
721
330
18
100
AcDbEntity
  8
文字
100
AcDbText
 10
8.364435994103473
 20
169.4144952316428
 30
0.0
 40
1.0
  1
R
 50
26.06198672177309
  7
STYLE3
100
AcDbText
  0
TEXT
  5
722
330
18
100
AcDbEntity
  8
文字
100
AcDbText
 10
10.57849723352069
 20
166.9664257089545
 30
0.0
 40
2.5
  1
40
  7
STYLE3
100
AcDbText
  0
TEXT
  5
723
330
18
100
AcDbEntity
  8
文字
100
AcDbText
 10
7.478449355416273
 20
168.9526311524893
 30
0.0
 40
1.0
  1
P
 50
23.24053280085741
  7
STYLE3
100
AcDbText
  0
TEXT
  5
724
330
18
100
AcDbEntity
  8
文字
100
AcDbText
 10
11.22605324775168
 20
171.0201745850241
 30
0.0
 40
1.0
  1
F
 50
35.29154926473689
  7
STYLE3
100
AcDbText
  0
TEXT
  5
725
330
18
100
AcDbEntity
  8
文字
100
AcDbText
 10
10.24059680069899
 20
170.4696723193479
 30
0.0
 40
1.0
  1
O
 50
27.6495577688412
  7
STYLE3
100
AcDbText
  0
CIRCLE
  5
727
330
18
100
AcDbEntity
  8
針
100
AcDbCircle
 10
1.989189978675938
 20
182.8388548154308
 30
0.0
 40
1.5
  0
CIRCLE
  5
728
330
18
100
AcDbEntity
  8
針
100
AcDbCircle
 10
1.989189978675938
 20
182.8388548154308
 30
0.0
 40
1.9
  0
LINE
  5
729
330
18
100
AcDbEntity
  8
文字
100
AcDbLine
 10
-1.110810021324084
 20
177.4648834039169
 30
0.0
 11
-1.31081002132413
 21
177.4648834039168
 31
0.0
  0
LINE
  5
72A
330
18
100
AcDbEntity
  8
目盛
100
AcDbLine
 10
1.581169927065161
 20
176.6077141271979
 30
0.0
 11
1.287277300918958
 21
176.2032056300104
 31
0.0
  0
LINE
  5
72B
330
18
100
AcDbEntity
  8
目盛
100
AcDbLine
 10
-1.21081002132405
 20
177.5148834039169
 30
0.0
 11
-1.21081002132405
 21
177.0148834039169
 31
0.0
  0
ARC
  5
72C
330
18
100
AcDbEntity
  8
針
100
AcDbCircle
 10
5.589189978676017
 20
185.9376449018999
 30
0.0
 40
3.0
100
AcDbArc
 50
180.0
 51
209.4722791770395
  0
CIRCLE
  5
72D
330
18
100
AcDbEntity
  8
針
100
AcDbCircle
 10
1.989189978675995
 20
182.8388548154308
 30
0.0
 40
0.0000000000000568
  0
CIRCLE
  5
72E
330
18
100
AcDbEntity
  8
針
100
AcDbCircle
 10
1.989189978675938
 20
182.8388548154308
 30
0.0
 40
0.475
  0
ARC
  5
72F
330
18
100
AcDbEntity
  8
針
100
AcDbCircle
 10
-1.610810021324141
 20
185.9376449018999
 30
0.0
 40
3.0
100
AcDbArc
 50
330.5277208229603
 51
0.0
  0
POINT
  5
730
330
18
100
AcDbEntity
  8
DEFPOINTS
  6
ByBlock
 62
     0
100
AcDbPoint
 10
1.989189978675938
 20
182.8388548154308
 30
0.0
  0
POINT
  5
731
330
18
100
AcDbEntity
  8
DEFPOINTS
  6
ByBlock
 62
     0
100
AcDbPoint
 10
1.989189978675938
 20
182.8388548154308
 30
0.0
  0
HATCH
  5
734
330
18
100
AcDbEntity
  8
ROGO
 62
     4
100
AcDbHatch
 10
0.0
 20
0.0
 30
0.0
210
0.0
220
0.0
230
1.0
  2
SOLID
 70
     1
 71
     1
 91
        1
 92
        7
 72
     0
 73
     1
 93
        4
 10
-4.64658468489998
 20
191.0424020095114
 10
-4.739635720321968
 20
190.8367318032201
 10
7.439656848261056
 20
190.8367318032201
 10
7.542210655647174
 20
191.0424020095114
 97
        4
330
736
330
74C
330
73D
330
77F
 75
     0
 76
     1
 47
0.0514683685270805
 98
        1
 10
3.049650575988266
 20
190.9880055453066
450
        0
451
        0
460
0.0
461
0.0
452
        0
462
0.0
453
        0
470

  0
HATCH
  5
735
330
18
100
AcDbEntity
  8
ROGO
 62
     4
100
AcDbHatch
 10
0.0
 20
0.0
 30
0.0
210
0.0
220
0.0
230
1.0
  2
SOLID
 70
     1
 71
     1
 91
        1
 92
        1
 93
       12
 72
     1
 10
-2.113063829975089
 20
192.8886105881261
 11
-0.336980681491184
 21
192.8886105881261
 72
     1
 10
-0.336980681491184
 20
192.8886105881261
 11
-0.485814877225721
 21
192.587808257434
 72
     1
 10
-0.485814877225721
 20
192.587808257434
 11
-1.419279299443701
 21
192.587808257434
 72
     1
 10
-1.419279299443701
 20
192.587808257434
 11
-1.535649145520153
 21
192.3526182142498
 72
     1
 10
-1.535649145520153
 20
192.3526182142498
 11
-0.60218472330223
 21
192.3526182142498
 72
     1
 10
-0.60218472330223
 20
192.3526182142498
 11
-0.7215110989261007
 21
192.1114528575686
 72
     1
 10
-0.7215110989261007
 20
192.1114528575686
 11
-1.654975521144024
 21
192.1114528575686
 72
     1
 10
-1.654975521144024
 20
192.1114528575686
 11
-1.771350293760406
 21
191.8762528575687
 72
     1
 10
-1.771350293760349
 20
191.8762528575687
 11
-0.8378858715424257
 21
191.8762528575687
 72
     1
 10
-0.8378858715424257
 20
191.8762528575687
 11
-0.9867125807512593
 21
191.5754656575686
 72
     1
 10
-0.9867125807512593
 20
191.5754656575686
 11
-2.762795729235165
 21
191.5754656575686
 72
     1
 10
-2.762795729235165
 20
191.5754656575686
 11
-2.113063829975089
 21
192.8886105881261
 97
       12
330
737
330
77B
330
73B
330
747
330
73A
330
772
330
738
330
74B
330
739
330
771
330
73C
330
748
 75
     0
 76
     1
 98
        1
 10
-74.76319280868404
 20
102.0905145400148
450
        0
451
        0
460
0.0
461
0.0
452
        0
462
0.0
453
        0
470

  0
LINE
  5
736
102
{ACAD_REACTORS
330
734
102
}
330
18
100
AcDbEntity
  8
ROGO
 62
     4
100
AcDbLine
 10
-4.660848131816692
 20
191.0424020095114
 30
0.0
 11
7.542210655647238
 21
191.0424020095114
 31
0.0
  0
LINE
  5
737
102
{ACAD_REACTORS
330
735
102
}
330
18
100
AcDbEntity
  8
ROGO
 62
     4
100
AcDbLine
 10
-2.113063829975089
 20
192.8886105881261
 30
0.0
 11
-0.336980681491184
 21
192.8886105881261
 31
0.0
  0
LINE
  5
738
102
{ACAD_REACTORS
330
735
102
}
330
18
100
AcDbEntity
  8
ROGO
 62
     4
100
AcDbLine
 10
-1.654975521144024
 20
192.1114528575686
 30
0.0
 11
-0.7215110989261007
 21
192.1114528575686
 31
0.0
  0
LINE
  5
739
102
{ACAD_REACTORS
330
735
102
}
330
18
100
AcDbEntity
  8
ROGO
 62
     4
100
AcDbLine
 10
-1.771350293760349
 20
191.8762528575687
 30
0.0
 11
-0.8378858715424257
 21
191.8762528575687
 31
0.0
  0
LINE
  5
73A
102
{ACAD_REACTORS
330
735
102
}
330
18
100
AcDbEntity
  8
ROGO
 62
     4
100
AcDbLine
 10
-1.535649145520153
 20
192.3526182142498
 30
0.0
 11
-0.60218472330223
 21
192.3526182142498
 31
0.0
  0
LINE
  5
73B
102
{ACAD_REACTORS
330
735
102
}
330
18
100
AcDbEntity
  8
ROGO
 62
     4
100
AcDbLine
 10
-1.419279299443701
 20
192.587808257434
 30
0.0
 11
-0.485814877225721
 21
192.587808257434
 31
0.0
  0
LINE
  5
73C
102
{ACAD_REACTORS
330
735
102
}
330
18
100
AcDbEntity
  8
ROGO
 62
     4
100
AcDbLine
 10
-2.762795729235165
 20
191.5754656575686
 30
0.0
 11
-0.9867125807512593
 21
191.5754656575686
 31
0.0
  0
LINE
  5
73D
102
{ACAD_REACTORS
330
734
330
77D
330
746
102
}
330
18
100
AcDbEntity
  8
ROGO
 62
     4
100
AcDbLine
 10
-5.6934366762585
 20
190.8367318032201
 30
0.0
 11
8.195740590765296
 21
190.8367318032201
 31
0.0
  0
LINE
  5
73E
330
18
100
AcDbEntity
  8
目盛
100
AcDbLine
 10
-13.75539345768373
 20
199.6051332461233
 30
0.0
 11
-12.59166337760502
 21
198.3658865795069
 31
0.0
  0
LINE
  5
73F
330
18
100
AcDbEntity
  8
目盛
100
AcDbLine
 10
-12.67156178554376
 20
200.560659399274
 30
0.0
 11
-11.58794100297103
 21
199.2507868865552
 31
0.0
  0
LINE
  5
740
330
18
100
AcDbEntity
  8
目盛
100
AcDbLine
 10
-11.52987082405087
 20
201.4462456860546
 30
0.0
 11
-9.94285064286123
 21
199.2618998012423
 31
0.0
  0
TEXT
  5
741
330
18
100
AcDbEntity
  8
文字
100
AcDbText
 10
-11.00333468511849
 20
196.2488298289876
 30
0.0
 40
2.5
  1
90
  7
STYLE3
100
AcDbText
  0
LINE
  5
742
330
18
100
AcDbEntity
  8
目盛
100
AcDbLine
 10
-14.77708845201636
 20
198.5834382517908
 30
0.0
 11
-13.53784178539996
 21
197.419708171712
 31
0.0
  0
LINE
  5
743
330
18
100
AcDbEntity
  8
目盛
100
AcDbLine
 10
-17.43035230787024
 20
195.1628710999478
 30
0.0
 11
-15.99499483451683
 21
194.2519655484835
 31
0.0
  0
LINE
  5
744
330
18
100
AcDbEntity
  8
目盛
100
AcDbLine
 10
-16.61820089194776
 20
196.3579156181577
 30
0.0
 11
-14.43385500713549
 21
194.770895436968
 31
0.0
  0
LINE
  5
745
330
18
100
AcDbEntity
  8
目盛
100
AcDbLine
 10
-15.73261460516704
 20
197.4996065796508
 30
0.0
 11
-14.42274209244823
 21
196.415985797078
 31
0.0
  0
HATCH
  5
746
330
18
100
AcDbEntity
  8
ROGO
 62
     4
100
AcDbHatch
 10
0.0
 20
0.0
 30
0.0
210
0.0
220
0.0
230
1.0
  2
SOLID
 70
     1
 71
     1
 91
        2
 92
        5
 93
        6
 72
     1
 10
-5.693436676258479
 20
190.8367318032201
 11
-4.739635720321978
 21
190.8367318032201
 72
     1
 10
-4.739635720321978
 20
190.8367318032201
 11
-4.405411569493526
 21
191.5754656575686
 72
     1
 10
-4.405411569493526
 20
191.5754656575686
 11
-3.513803301320966
 21
191.5754656575686
 72
     4
 94
        3
 73
     0
 74
     0
 95
       18
 96
       14
 40
0.108740278791501
 40
0.108740278791501
 40
0.108740278791501
 40
0.108740278791501
 40
0.6623149649549278
 40
1.384304701649787
 40
2.097394834876493
 40
2.774073369849618
 40
3.428974823686337
 40
4.005208313035923
 40
4.455173659284313
 40
4.720999734343524
 40
5.086034088486724
 40
5.569973738255373
 40
6.060470601257719
 40
6.060470601257719
 40
6.060470601257719
 40
6.060470601257719
 10
-3.513803301321388
 20
191.5754656575686
 10
-3.4510533844267
 20
191.5759329371998
 10
-3.306463027373126
 20
191.5770096578084
 10
-3.104182249265875
 20
191.6850724943037
 10
-2.912362276172871
 20
191.8227366746455
 10
-2.757864337091461
 20
191.9947337054473
 10
-2.661607466215343
 20
192.191382842968
 10
-2.646697581168268
 20
192.3798529785397
 10
-2.655799699679164
 20
192.5289305126961
 10
-2.720838908222219
 20
192.632841254999
 10
-2.78845510214694
 20
192.7383000321718
 10
-2.912440337694135
 20
192.8296523419631
 10
-3.014028285544611
 20
192.8696782332784
 10
-3.065687823180667
 20
192.8886105881261
 72
     1
 10
-3.065687823180614
 20
192.8886105881261
 11
-4.678186136165825
 21
192.8886105881261
 72
     1
 10
-4.678186136165825
 20
192.8886105881261
 11
-5.693436676258479
 21
190.8367318032201
 97
        6
330
749
330
752
330
74A
330
73D
330
74C
330
751
 92
       20
 93
        4
 72
     1
 10
-4.199047077183371
 20
192.0315919920274
 11
-4.041049280825967
 21
192.3808136769127
 72
     1
 10
-4.041049280825967
 20
192.3808136769127
 11
-3.635062281728575
 21
192.3808136769127
 72
     4
 94
        3
 73
     0
 74
     0
 95
       15
 96
       11
 40
0.0
 40
0.0
 40
0.0
 40
0.0
 40
0.1539705029175028
 40
0.2241725832587281
 40
0.3038566179396687
 40
0.3581410872474193
 40
0.443992538467216
 40
0.4954152125469665
 40
0.5836396705646186
 40
0.6130478420065743
 40
0.6130478420065743
 40
0.6130478420065743
 40
0.6130478420065743
 10
-3.635062281728551
 20
192.3808136769127
 10
-3.577233946669367
 20
192.3810785615552
 10
-3.493039071611289
 20
192.3814642190249
 10
-3.446998315246598
 20
192.2773149150954
 10
-3.467635977480187
 20
192.210259010458
 10
-3.493579200904183
 20
192.1414134962101
 10
-3.539426752446578
 20
192.0946319309409
 10
-3.600960882041764
 20
192.0495733973038
 10
-3.659113575097481
 20
192.0441188600444
 10
-3.69693537407008
 20
192.0340973665902
 10
-3.706390828339351
 20
192.0315919920274
 72
     1
 10
-3.706390828339395
 20
192.0315919920274
 11
-4.199047077183371
 21
192.0315919920274
 97
        4
330
750
330
74E
330
74F
330
74D
 75
     0
 76
     1
 47
0.0514683685270805
 98
        2
 10
-4.669567582858917
 20
192.2504218312371
 10
-4.669567582858917
 20
192.2504218312371
450
        0
451
        0
460
0.0
461
0.0
452
        0
462
0.0
453
        0
470

  0
LINE
  5
747
102
{ACAD_REACTORS
330
735
102
}
330
18
100
AcDbEntity
  8
ROGO
 62
     4
100
AcDbLine
 10
-1.419279299443701
 20
192.587808257434
 30
0.0
 11
-1.535649145520153
 21
192.3526182142498
 31
0.0
  0
LINE
  5
748
102
{ACAD_REACTORS
330
735
102
}
330
18
100
AcDbEntity
  8
ROGO
 62
     4
100
AcDbLine
 10
-2.113063829975089
 20
192.8886105881261
 30
0.0
 11
-2.762795729235165
 21
191.5754656575686
 31
0.0
  0
SPLINE
  5
749
102
{ACAD_REACTORS
330
746
102
}
330
18
100
AcDbEntity
  8
ROGO
 62
     4
100
AcDbSpline
210
0.0
220
0.0
230
1.0
 70
     8
 71
     3
 72
    18
 73
    14
 74
     0
 42
0.0000000001
 43
0.0000000001
 40
0.1087402787915014
 40
0.1087402787915014
 40
0.1087402787915014
 40
0.1087402787915014
 40
0.5992371417938475
 40
1.083176791562496
 40
1.448211145705696
 40
1.714037220764907
 40
2.164002567013297
 40
2.740236056362883
 40
3.395137510199602
 40
4.071816045172726
 40
4.784906178399433
 40
5.506895915094292
 40
6.060470601257719
 40
6.060470601257719
 40
6.060470601257719
 40
6.060470601257719
 10
-3.065687823180667
 20
192.8886105881261
 30
0.0
 10
-3.014028285544611
 20
192.8696782332784
 30
0.0
 10
-2.912440337694135
 20
192.8296523419631
 30
0.0
 10
-2.78845510214694
 20
192.7383000321718
 30
0.0
 10
-2.720838908222219
 20
192.632841254999
 30
0.0
 10
-2.655799699679164
 20
192.5289305126961
 30
0.0
 10
-2.646697581168268
 20
192.3798529785397
 30
0.0
 10
-2.661607466215343
 20
192.191382842968
 30
0.0
 10
-2.757864337091461
 20
191.9947337054473
 30
0.0
 10
-2.912362276172871
 20
191.8227366746455
 30
0.0
 10
-3.104182249265875
 20
191.6850724943037
 30
0.0
 10
-3.306463027373126
 20
191.5770096578084
 30
0.0
 10
-3.4510533844267
 20
191.5759329371998
 30
0.0
 10
-3.513803301321388
 20
191.5754656575686
 30
0.0
  0
LINE
  5
74A
102
{ACAD_REACTORS
330
746
102
}
330
18
100
AcDbEntity
  8
ROGO
 62
     4
100
AcDbLine
 10
-4.678186136165834
 20
192.8886105881261
 30
0.0
 11
-5.6934366762585
 21
190.8367318032201
 31
0.0
  0
LINE
  5
74B
102
{ACAD_REACTORS
330
735
102
}
330
18
100
AcDbEntity
  8
ROGO
 62
     4
100
AcDbLine
 10
-1.654975521144024
 20
192.1114528575686
 30
0.0
 11
-1.771350293760406
 21
191.8762528575687
 31
0.0
  0
LINE
  5
74C
102
{ACAD_REACTORS
330
734
330
746
102
}
330
18
100
AcDbEntity
  8
ROGO
 62
     4
100
AcDbLine
 10
-4.405411569493537
 20
191.5754656575686
 30
0.0
 11
-4.739635720321984
 21
190.8367318032201
 31
0.0
  0
LINE
  5
74D
102
{ACAD_REACTORS
330
746
102
}
330
18
100
AcDbEntity
  8
ROGO
 62
     4
100
AcDbLine
 10
-3.706390828339294
 20
192.0315919920274
 30
0.0
 11
-4.199047077183365
 21
192.0315919920274
 31
0.0
  0
LINE
  5
74E
102
{ACAD_REACTORS
330
746
102
}
330
18
100
AcDbEntity
  8
ROGO
 62
     4
100
AcDbLine
 10
-3.635062281728494
 20
192.3808136769127
 30
0.0
 11
-4.041049280825973
 21
192.3808136769127
 31
0.0
  0
SPLINE
  5
74F
102
{ACAD_REACTORS
330
746
102
}
330
18
100
AcDbEntity
  8
ROGO
 62
     4
100
AcDbSpline
210
0.0
220
0.0
230
1.0
 70
     8
 71
     3
 72
    15
 73
    11
 74
     9
 42
0.0000000001
 43
0.0000000001
 44
0.0000000001
 40
0.0
 40
0.0
 40
0.0
 40
0.0
 40
0.1539705029175028
 40
0.2241725832587281
 40
0.3038566179396687
 40
0.3581410872474193
 40
0.443992538467216
 40
0.4954152125469665
 40
0.5836396705646186
 40
0.6130478420065743
 40
0.6130478420065743
 40
0.6130478420065743
 40
0.6130478420065743
 10
-3.635062281728551
 20
192.3808136769127
 30
0.0
 10
-3.577233946669367
 20
192.3810785615552
 30
0.0
 10
-3.493039071611289
 20
192.3814642190249
 30
0.0
 10
-3.446998315246598
 20
192.2773149150953
 30
0.0
 10
-3.467635977480187
 20
192.210259010458
 30
0.0
 10
-3.493579200904183
 20
192.1414134962101
 30
0.0
 10
-3.539426752446578
 20
192.0946319309408
 30
0.0
 10
-3.600960882041764
 20
192.0495733973039
 30
0.0
 10
-3.659113575097481
 20
192.0441188600443
 30
0.0
 10
-3.69693537407008
 20
192.0340973665902
 30
0.0
 10
-3.706390828339351
 20
192.0315919920274
 30
0.0
 11
-3.635062281728551
 21
192.3808136769127
 31
0.0
 11
-3.485272210799735
 21
192.3451787162728
 31
0.0
 11
-3.456740710124734
 21
192.2810360194674
 31
0.0
 11
-3.471006255385589
 21
192.202639338406
 31
0.0
 11
-3.492404778353431
 21
192.1527503935102
 31
0.0
 11
-3.549467779703491
 21
192.0886076967048
 31
0.0
 11
-3.592264825639347
 21
192.0600997281929
 31
0.0
 11
-3.67785932766435
 21
192.0387189841553
 31
0.0
 11
-3.706390828339351
 21
192.0315919920274
 31
0.0
  0
LINE
  5
750
102
{ACAD_REACTORS
330
746
102
}
330
18
100
AcDbEntity
  8
ROGO
 62
     4
100
AcDbLine
 10
-4.041049280825973
 20
192.3808136769127
 30
0.0
 11
-4.199047077183365
 21
192.0315919920274
 31
0.0
  0
LINE
  5
751
102
{ACAD_REACTORS
330
746
102
}
330
18
100
AcDbEntity
  8
ROGO
 62
     4
100
AcDbLine
 10
-3.513803301012274
 20
191.5754656575686
 30
0.0
 11
-4.405411569493537
 21
191.5754656575686
 31
0.0
  0
LINE
  5
752
102
{ACAD_REACTORS
330
746
102
}
330
18
100
AcDbEntity
  8
ROGO
 62
     4
100
AcDbLine
 10
-4.678186136165834
 20
192.8886105881261
 30
0.0
 11
-3.065687823180667
 21
192.8886105881261
 31
0.0
  0
LINE
  5
753
330
18
100
AcDbEntity
  8
目盛
100
AcDbLine
 10
-10.33482630584075
 20
202.2583971019773
 30
0.0
 11
-9.423920754376524
 21
200.8230396286238
 31
0.0
  0
LINE
  5
754
330
18
100
AcDbEntity
  8
目盛
100
AcDbLine
 10
-2.320580256795494
 20
205.4314615821907
 30
0.0
 11
-2.002032021999809
 21
203.7615732559519
 31
0.0
  0
LINE
  5
755
330
18
100
AcDbEntity
  8
目盛
100
AcDbLine
 10
-9.09114452566331
 20
202.9939084564398
 30
0.0
 11
-8.272163279690403
 21
201.5041871003652
 31
0.0
  0
LINE
  5
756
330
18
100
AcDbEntity
  8
目盛
100
AcDbLine
 10
-7.803733727320548
 20
203.6498770221493
 30
0.0
 11
-7.079908931659929
 21
202.1116710329571
 31
0.0
  0
LINE
  5
757
330
18
100
AcDbEntity
  8
目盛
100
AcDbLine
 10
-6.477674733071467
 20
204.2237139908607
 30
0.0
 11
-5.851862993507495
 21
202.6430939648506
 31
0.0
  0
LINE
  5
758
330
18
100
AcDbEntity
  8
目盛
100
AcDbLine
 10
-5.118200891947765
 20
204.7131546902193
 30
0.0
 11
-4.2838550071354
 21
202.1453020962224
 31
0.0
  0
LINE
  5
759
330
18
100
AcDbEntity
  8
目盛
100
AcDbLine
 10
-3.730677426115448
 20
205.1162675213894
 30
0.0
 11
-3.307904617935264
 21
203.4696761474707
 31
0.0
  0
HATCH
  5
75A
330
18
100
AcDbEntity
  8
ROGO
 62
     4
100
AcDbHatch
 10
0.0
 20
0.0
 30
0.0
210
0.0
220
0.0
230
1.0
  2
SOLID
 70
     1
 71
     1
 91
        1
 92
        5
 93
        8
 72
     4
 94
        3
 73
     0
 74
     0
 95
       26
 96
       22
 40
0.0
 40
0.0
 40
0.0
 40
0.0
 40
0.2382195346591896
 40
0.397689067266058
 40
0.5126795869787176
 40
0.5985392873135238
 40
0.7099038249250041
 40
0.7911890807494602
 40
0.9379713068544059
 40
1.057449928673177
 40
1.138714535893296
 40
1.218398644003487
 40
1.36093802187034
 40
1.461730374800238
 40
1.51601484410804
 40
1.593124329220486
 40
1.648806818593696
 40
1.729472362005543
 40
1.775122082164332
 40
1.874460993765135
 40
1.919820003751196
 40
1.919820003751196
 40
1.919820003751196
 40
1.919820003751196
 10
6.872726408702476
 20
192.8886105881261
 10
6.791871017943828
 20
192.883786616861
 10
6.656889203877895
 20
192.8757333703643
 10
6.508679993166117
 20
192.785697866506
 10
6.40009324875594
 20
192.7333551811635
 10
6.322649314331711
 20
192.6621997597439
 10
6.265882596464176
 20
192.5887014072226
 10
6.194317491766601
 20
192.5011286590971
 10
6.135958193860709
 20
192.3991537376325
 10
6.106239351327567
 20
192.2867595965693
 10
6.079914682673822
 20
192.1971808140104
 10
6.060391867700833
 20
192.0973569511179
 10
6.065359024513746
 20
191.9895120629957
 10
6.072472220398315
 20
191.8893512519918
 10
6.104230910322231
 20
191.8178514290652
 10
6.140398432712293
 20
191.7669484821358
 10
6.184685068567221
 20
191.7108845294371
 10
6.233144332884675
 20
191.6737535551069
 10
6.273224099995285
 20
191.6064882999662
 10
6.343382380257716
 20
191.5979047682901
 10
6.38797777433352
 20
191.5808209784131
 10
6.401957262794951
 20
191.5754656575686
 72
     1
 10
6.401957262794945
 20
191.5754656575686
 11
7.53298627779952
 21
191.5754656575686
 72
     1
 10
7.53298627779952
 20
191.5754656575686
 11
7.776602998478383
 21
192.0640355359092
 72
     1
 10
7.776602998478383
 20
192.0640355359092
 11
6.936921977606163
 21
192.0640355359092
 72
     4
 94
        3
 73
     0
 74
     0
 95
       16
 96
       12
 40
0.0
 40
0.0
 40
0.0
 40
0.0
 40
0.0719416665231652
 40
0.1446253590759511
 40
0.1879779149910863
 40
0.229544093610429
 40
0.2751936323958108
 40
0.3070718656052417
 40
0.3373215422371831
 40
0.3986635435213285
 40
0.5242542460842448
 40
0.5242542460842448
 40
0.5242542460842448
 40
0.5242542460842448
 10
6.936921977606232
 20
192.0640355359092
 10
6.911594238934496
 20
192.0714873279978
 10
6.860677524365446
 20
192.0864677719971
 10
6.856416206517863
 20
192.1590874611344
 10
6.862221635579649
 20
192.2108349320936
 10
6.886534785456901
 20
192.2485101128096
 10
6.916030853317451
 20
192.2759237638454
 10
6.927013547569037
 20
192.3116257580275
 10
6.959296176693193
 20
192.338585230344
 10
7.016541928084236
 20
192.3839003373197
 10
7.079845819295607
 20
192.3935514426052
 10
7.122376526917037
 20
192.4000355359092
 72
     1
 10
7.122376526917114
 20
192.4000355359093
 11
7.944143450268209
 21
192.4000355359092
 72
     1
 10
7.944143450268209
 20
192.4000355359092
 11
8.187762750808754
 21
192.8886105881261
 72
     1
 10
8.187762750808754
 20
192.8886105881261
 11
6.872726408702291
 21
192.888610588126
 97
        8
330
78E
330
75B
330
75C
330
787
330
786
330
788
330
785
330
780
 75
     0
 76
     1
 47
0.0514683685270805
 98
        1
 10
7.099643838387351
 20
192.648169284947
450
        0
451
        0
460
0.0
461
0.0
452
        0
462
0.0
453
        0
470

  0
SPLINE
  5
75B
102
{ACAD_REACTORS
330
75A
102
}
330
18
100
AcDbEntity
  8
ROGO
 62
     4
100
AcDbSpline
210
0.0
220
0.0
230
1.0
 70
     8
 71
     3
 72
    26
 73
    22
 74
    20
 42
0.0000000001
 43
0.0000000001
 44
0.0000000001
 40
0.0
 40
0.0
 40
0.0
 40
0.0
 40
0.2382195346591896
 40
0.397689067266058
 40
0.5126795869787176
 40
0.5985392873135238
 40
0.7099038249250041
 40
0.7911890807494602
 40
0.9379713068544059
 40
1.057449928673177
 40
1.138714535893296
 40
1.218398644003487
 40
1.36093802187034
 40
1.461730374800238
 40
1.51601484410804
 40
1.593124329220486
 40
1.648806818593696
 40
1.729472362005543
 40
1.775122082164332
 40
1.874460993765135
 40
1.919820003751196
 40
1.919820003751196
 40
1.919820003751196
 40
1.919820003751196
 10
6.872726408702476
 20
192.8886105881261
 30
0.0
 10
6.791871017943828
 20
192.883786616861
 30
0.0
 10
6.656889203877896
 20
192.8757333703643
 30
0.0
 10
6.508679993166117
 20
192.785697866506
 30
0.0
 10
6.400093248755941
 20
192.7333551811634
 30
0.0
 10
6.322649314331711
 20
192.6621997597439
 30
0.0
 10
6.265882596464176
 20
192.5887014072225
 30
0.0
 10
6.194317491766601
 20
192.5011286590971
 30
0.0
 10
6.135958193860709
 20
192.3991537376326
 30
0.0
 10
6.106239351327568
 20
192.2867595965692
 30
0.0
 10
6.079914682673822
 20
192.1971808140104
 30
0.0
 10
6.060391867700833
 20
192.0973569511179
 30
0.0
 10
6.065359024513745
 20
191.9895120629957
 30
0.0
 10
6.072472220398315
 20
191.8893512519918
 30
0.0
 10
6.104230910322231
 20
191.8178514290652
 30
0.0
 10
6.140398432712293
 20
191.7669484821358
 30
0.0
 10
6.184685068567221
 20
191.7108845294371
 30
0.0
 10
6.233144332884675
 20
191.6737535551068
 30
0.0
 10
6.273224099995286
 20
191.6064882999663
 30
0.0
 10
6.343382380257716
 20
191.5979047682901
 30
0.0
 10
6.387977774333519
 20
191.5808209784131
 30
0.0
 10
6.401957262794951
 20
191.5754656575686
 30
0.0
 11
6.872726408702476
 21
192.8886105881261
 31
0.0
 11
6.637341835748657
 21
192.8519684060324
 31
0.0
 11
6.494684332373651
 21
192.780698717099
 31
0.0
 11
6.39482428508785
 21
192.7236830124215
 31
0.0
 11
6.330628716184094
 21
192.6666670753977
 31
0.0
 11
6.259300169573293
 21
192.5811434022083
 31
0.0
 11
6.209370145930336
 21
192.517000705403
 31
0.0
 11
6.138041189166131
 21
192.3887150794456
 31
0.0
 11
6.102377120937376
 21
192.2746834377444
 31
0.0
 11
6.080978597969533
 21
192.1962867566831
 31
0.0
 11
6.066712642555273
 21
192.1178900756217
 31
0.0
 11
6.066712642555273
 21
191.9753506977548
 31
0.0
 11
6.080978597969533
 21
191.8755730403096
 31
0.0
 11
6.102377120937376
 21
191.8256840954137
 31
0.0
 11
6.145174166873175
 21
191.7615413986083
 31
0.0
 11
6.180838645255391
 21
191.7187794458404
 31
0.0
 11
6.237901236451932
 21
191.6617637411629
 31
0.0
 11
6.26643273712699
 21
191.6261287805231
 31
0.0
 11
6.359160216859152
 21
191.5904940522295
 31
0.0
 11
6.401957262794951
 21
191.5754656575686
 31
0.0
  0
LINE
  5
75C
102
{ACAD_REACTORS
330
75A
102
}
330
18
100
AcDbEntity
  8
ROGO
 62
     4
100
AcDbLine
 10
6.401957262794894
 20
191.5754656575686
 30
0.0
 11
7.532986277799579
 21
191.5754656575686
 31
0.0
  0
HATCH
  5
75D
330
18
100
AcDbEntity
  8
ROGO
 62
     4
100
AcDbHatch
 10
0.0
 20
0.0
 30
0.0
210
0.0
220
0.0
230
1.0
  2
SOLID
 70
     1
 71
     1
 91
        2
 92
        5
 93
        6
 72
     4
 94
        3
 73
     0
 74
     0
 95
       38
 96
       34
 40
0.0
 40
0.0
 40
0.0
 40
0.0
 40
0.1807680148264315
 40
0.2375392910068956
 40
0.3104865209606157
 40
0.3712759982447458
 40
0.422566754387306
 40
0.490692583720658
 40
0.5255021974951946
 40
0.5647069597052371
 40
0.622487401681883
 40
0.6879401044674746
 40
0.7303986317551266
 40
0.7765228362185534
 40
0.8277951442290254
 40
0.9056034697002209
 40
0.9795294930264187
 40
1.013897332332996
 40
1.053089255536027
 40
1.099518741889647
 40
1.132570569820733
 40
1.160277520290299
 40
1.19983678629386
 40
1.243305643169139
 40
1.286774258016964
 40
1.324809356515675
 40
1.411916492917645
 40
1.446284332224223
 40
1.5150200516612
 40
1.575779369908399
 40
1.69209852953623
 40
1.835624328519098
 40
2.042896467983898
 40
2.042896467983898
 40
2.042896467983898
 40
2.042896467983898
 10
4.685918299923685
 20
192.8940878072984
 10
4.625662902298019
 20
192.8898311881976
 10
4.546483936676904
 20
192.8842377524103
 10
4.44594516416728
 20
192.8566931262055
 10
4.39114040972635
 20
192.8238786067475
 10
4.334105108409135
 20
192.799758362047
 10
4.2854772020241
 20
192.7640410627977
 10
4.23629110132825
 20
192.7456362826044
 10
4.201849487952362
 20
192.7124491742318
 10
4.161986129819501
 20
192.6921770560568
 10
4.130242229984192
 20
192.6468021620424
 10
4.094761553452411
 20
192.6043782803839
 10
4.053599505045321
 20
192.5734107388065
 10
4.0198172594859
 20
192.5408857598441
 10
3.988826746561581
 20
192.4906899446602
 10
3.970485173990451
 20
192.4239945699746
 10
3.918783359581113
 20
192.3818855156894
 10
3.910998685097987
 20
192.3312578680133
 10
3.882400834902341
 20
192.3013884078226
 10
3.869965489446385
 20
192.2628312258376
 10
3.865229511322592
 20
192.2275060365169
 10
3.859545208280141
 20
192.1945147550886
 10
3.84467614804761
 20
192.1598093843508
 10
3.849529460609034
 20
192.1169391054157
 10
3.848146897566869
 20
192.0754263913893
 10
3.848960537540112
 20
192.0193829347778
 10
3.84602399819413
 20
191.9648177378583
 10
3.869441748709146
 20
191.9054378616899
 10
3.883299596311987
 20
191.8525089170234
 10
3.921251566255595
 20
191.7792223747719
 10
3.986717919073523
 20
191.694665551063
 10
4.111207665091028
 20
191.5920295877702
 10
4.230908195650364
 20
191.581617647053
 10
4.301634338380551
 20
191.5754656575686
 72
     1
 10
4.301634338380561
 20
191.5754656575686
 11
5.052088161565918
 21
191.5754656575686
 72
     4
 94
        3
 73
     0
 74
     0
 95
       11
 96
        7
 40
0.1647869275458135
 40
0.1647869275458135
 40
0.1647869275458135
 40
0.1647869275458135
 40
0.2545010798212315
 40
0.5111620267764023
 40
0.7602998271033902
 40
0.8850764140209603
 40
0.8850764140209603
 40
0.8850764140209603
 40
0.8850764140209603
 10
5.052088161565905
 20
191.5754656575686
 10
5.062560061885847
 20
191.5752638419256
 10
5.102990756714405
 20
191.5744846570188
 10
5.172087298810765
 20
191.5844111876035
 10
5.244786065948858
 20
191.5939235819768
 10
5.28812707738308
 20
191.6008511717607
 10
5.302105620183908
 20
191.6047421044772
 72
     4
 94
        3
 73
     0
 74
     0
 95
        9
 96
        5
 40
0.0
 40
0.0
 40
0.0
 40
0.0
 40
0.1135793343552172
 40
0.2662938392177403
 40
0.2662938392177403
 40
0.2662938392177403
 40
0.2662938392177403
 10
5.302105620183908
 20
191.6047421044772
 10
5.338590588501899
 20
191.6159044442004
 10
5.424131874179357
 20
191.6420752464544
 10
5.494808571416135
 20
191.6973875642288
 10
5.535340327071992
 20
191.7291081374368
 72
     4
 94
        3
 73
     0
 74
     0
 95
       25
 96
       21
 40
0.0
 40
0.0
 40
0.0
 40
0.0
 40
0.165525918914855
 40
0.3412380755365305
 40
0.5940540902285263
 40
0.7697671103696209
 40
0.9377330196075423
 40
1.11479469302833
 40
1.274661249598185
 40
1.574522170874768
 40
1.815540668866877
 40
2.15849091873445
 40
2.536227739636605
 40
2.738070817316548
 40
2.925680654369045
 40
3.162706124480894
 40
3.395643218188267
 40
3.648478129958861
 40
3.928509979727306
 40
4.337226830236035
 40
4.337226830236035
 40
4.337226830236035
 40
4.337226830236035
 10
5.535340327071992
 20
191.7291081374368
 10
5.550232984465708
 20
191.7414148813824
 10
5.578480283769636
 20
191.7706850046041
 10
5.628581520409341
 20
191.8181253529427
 10
5.672731680215974
 20
191.8733971233967
 10
5.727194080933202
 20
191.9181929562702
 10
5.755547036472194
 20
191.9729591826177
 10
5.796415583776308
 20
192.0160316531167
 10
5.830697602693646
 20
192.0825528351073
 10
5.859784201393665
 20
192.1589646002515
 10
5.887514256891165
 20
192.2585658839549
 10
5.898140700227827
 20
192.3709309370005
 10
5.882412242580585
 20
192.4796440694315
 10
5.844416264905817
 20
192.5609035649684
 10
5.816482104136639
 20
192.6286249796345
 10
5.774088515494213
 20
192.6927690833116
 10
5.725723160633606
 20
192.7625328896458
 10
5.657584939874254
 20
192.8202388519608
 10
5.568535281253105
 20
192.8898415413363
 10
5.485592173534598
 20
192.8925064178423
 10
5.436372123109038
 20
192.8940878072984
 72
     1
 10
5.436372123109034
 20
192.8940878072985
 11
4.685918299923641
 21
192.8940878072984
 97
        6
330
75E
330
77C
330
75F
330
776
330
775
330
774
 92
       20
 93
        1
 72
     3
 10
4.858376694554408
 20
192.2163918150794
 11
0.1782847090673272
 21
0.1567790921840611
 40
0.6788083417438791
 50
0.0
 51
360.0
 73
     1
 97
        1
330
773
 75
     0
 76
     1
 47
0.088756267210375
 98
        2
 10
4.910807970323048
 20
192.5298790854034
 10
4.910807970323048
 20
192.5298790854034
450
        0
451
        0
460
0.0
461
0.0
452
        0
462
0.0
453
        0
470

  0
SPLINE
  5
75E
102
{ACAD_REACTORS
330
75D
102
}
330
18
100
AcDbEntity
  8
ROGO
 62
     4
100
AcDbSpline
210
0.0
220
0.0
230
1.0
 70
     8
 71
     3
 72
    25
 73
    21
 74
     0
 42
0.0000000001
 43
0.0000000001
 40
0.0
 40
0.0
 40
0.0
 40
0.0
 40
0.4087168505087288
 40
0.6887487002771746
 40
0.9415836120477687
 40
1.17452070575514
 40
1.41154617586699
 40
1.599156012919487
 40
1.80099909059943
 40
2.178735911501585
 40
2.521686161369157
 40
2.762704659361267
 40
3.06256558063785
 40
3.222432137207705
 40
3.399493810628493
 40
3.567459719866414
 40
3.743172740007509
 40
3.995988754699505
 40
4.17170091132118
 40
4.337226830236035
 40
4.337226830236035
 40
4.337226830236035
 40
4.337226830236035
 10
5.436372123109038
 20
192.8940878072984
 30
0.0
 10
5.485592173534598
 20
192.8925064178423
 30
0.0
 10
5.568535281253105
 20
192.8898415413363
 30
0.0
 10
5.657584939874254
 20
192.8202388519608
 30
0.0
 10
5.725723160633606
 20
192.7625328896458
 30
0.0
 10
5.774088515494213
 20
192.6927690833116
 30
0.0
 10
5.816482104136639
 20
192.6286249796345
 30
0.0
 10
5.844416264905817
 20
192.5609035649684
 30
0.0
 10
5.882412242580585
 20
192.4796440694315
 30
0.0
 10
5.898140700227827
 20
192.3709309370005
 30
0.0
 10
5.887514256891165
 20
192.2585658839549
 30
0.0
 10
5.859784201393665
 20
192.1589646002515
 30
0.0
 10
5.830697602693646
 20
192.0825528351073
 30
0.0
 10
5.796415583776308
 20
192.0160316531167
 30
0.0
 10
5.755547036472194
 20
191.9729591826177
 30
0.0
 10
5.727194080933202
 20
191.9181929562702
 30
0.0
 10
5.672731680215974
 20
191.8733971233967
 30
0.0
 10
5.628581520409341
 20
191.8181253529427
 30
0.0
 10
5.578480283769636
 20
191.7706850046041
 30
0.0
 10
5.550232984465708
 20
191.7414148813824
 30
0.0
 10
5.535340327071992
 20
191.7291081374368
 30
0.0
  0
SPLINE
  5
75F
102
{ACAD_REACTORS
330
75D
102
}
330
18
100
AcDbEntity
  8
ROGO
 62
     4
100
AcDbSpline
210
0.0
220
0.0
230
1.0
 70
     8
 71
     3
 72
    38
 73
    34
 74
    32
 42
0.0000000001
 43
0.0000000001
 44
0.0000000001
 40
0.0
 40
0.0
 40
0.0
 40
0.0
 40
0.1807680148264315
 40
0.2375392910068956
 40
0.3104865209606157
 40
0.3712759982447458
 40
0.422566754387306
 40
0.490692583720658
 40
0.5255021974951946
 40
0.5647069597052371
 40
0.622487401681883
 40
0.6879401044674746
 40
0.7303986317551266
 40
0.7765228362185534
 40
0.8277951442290254
 40
0.9056034697002209
 40
0.9795294930264187
 40
1.013897332332996
 40
1.053089255536027
 40
1.099518741889647
 40
1.132570569820733
 40
1.160277520290299
 40
1.19983678629386
 40
1.243305643169139
 40
1.286774258016964
 40
1.324809356515675
 40
1.411916492917645
 40
1.446284332224223
 40
1.5150200516612
 40
1.575779369908399
 40
1.69209852953623
 40
1.835624328519098
 40
2.042896467983898
 40
2.042896467983898
 40
2.042896467983898
 40
2.042896467983898
 10
4.685918299923685
 20
192.8940878072984
 30
0.0
 10
4.625662902298019
 20
192.8898311881975
 30
0.0
 10
4.546483936676904
 20
192.8842377524103
 30
0.0
 10
4.44594516416728
 20
192.8566931262055
 30
0.0
 10
4.39114040972635
 20
192.8238786067475
 30
0.0
 10
4.334105108409135
 20
192.799758362047
 30
0.0
 10
4.285477202024101
 20
192.7640410627978
 30
0.0
 10
4.23629110132825
 20
192.7456362826044
 30
0.0
 10
4.201849487952362
 20
192.7124491742318
 30
0.0
 10
4.161986129819501
 20
192.6921770560568
 30
0.0
 10
4.130242229984191
 20
192.6468021620424
 30
0.0
 10
4.094761553452412
 20
192.604378280384
 30
0.0
 10
4.053599505045321
 20
192.5734107388065
 30
0.0
 10
4.0198172594859
 20
192.5408857598441
 30
0.0
 10
3.988826746561581
 20
192.4906899446602
 30
0.0
 10
3.970485173990451
 20
192.4239945699746
 30
0.0
 10
3.918783359581113
 20
192.3818855156895
 30
0.0
 10
3.910998685097987
 20
192.3312578680133
 30
0.0
 10
3.882400834902341
 20
192.3013884078226
 30
0.0
 10
3.869965489446385
 20
192.2628312258376
 30
0.0
 10
3.865229511322591
 20
192.2275060365169
 30
0.0
 10
3.859545208280141
 20
192.1945147550886
 30
0.0
 10
3.844676148047611
 20
192.1598093843508
 30
0.0
 10
3.849529460609034
 20
192.1169391054158
 30
0.0
 10
3.848146897566869
 20
192.0754263913893
 30
0.0
 10
3.848960537540112
 20
192.0193829347778
 30
0.0
 10
3.846023998194131
 20
191.9648177378584
 30
0.0
 10
3.869441748709146
 20
191.9054378616899
 30
0.0
 10
3.883299596311988
 20
191.8525089170234
 30
0.0
 10
3.921251566255593
 20
191.7792223747719
 30
0.0
 10
3.986717919073524
 20
191.694665551063
 30
0.0
 10
4.111207665091027
 20
191.5920295877702
 30
0.0
 10
4.230908195650364
 20
191.5816176470529
 30
0.0
 10
4.301634338380551
 20
191.5754656575686
 30
0.0
 11
4.685918299923685
 21
192.8940878072984
 31
0.0
 11
4.506461662976391
 21
192.872353257847
 31
0.0
 11
4.452080876848242
 21
192.8560527087997
 31
0.0
 11
4.38682418984024
 21
192.8234511266501
 31
0.0
 11
4.33244340371209
 21
192.7962833028771
 31
0.0
 11
4.288938945706775
 21
192.7691152370766
 31
0.0
 11
4.229120209138727
 21
192.7365138969544
 31
0.0
 11
4.201929602453049
 21
192.7147795895305
 31
0.0
 11
4.169301045327586
 21
192.6930450400791
 31
0.0
 11
4.131234537762168
 21
192.6495764252313
 31
0.0
 11
4.087730079756852
 21
192.6006742940343
 31
0.0
 11
4.055101522631275
 21
192.5735062282338
 31
0.0
 11
4.02247339274885
 21
192.5409048881117
 31
0.0
 11
3.995282786063228
 21
192.4974362732639
 31
0.0
 11
3.962654656180859
 21
192.4267995926156
 31
0.0
 11
3.919149770932392
 21
192.3670301866929
 31
0.0
 11
3.908273870052653
 21
192.3344286045433
 31
0.0
 11
3.886521641049967
 21
192.3018272644211
 31
0.0
 11
3.870207362487235
 21
192.2583584075459
 31
0.0
 11
3.864768984804243
 21
192.2257570674237
 31
0.0
 11
3.859331034364345
 21
192.1985890016232
 31
0.0
 11
3.848455133484549
 21
192.1605541451519
 31
0.0
 11
3.848455133484549
 21
192.1170852882767
 31
0.0
 11
3.848455133484549
 21
192.0736166734288
 31
0.0
 11
3.848455133484549
 21
192.0355815749301
 31
0.0
 11
3.853893083924504
 21
191.9486443452344
 31
0.0
 11
3.864768984804243
 21
191.9160427630848
 31
0.0
 11
3.886521641049967
 21
191.8508398408131
 31
0.0
 11
3.913711820492551
 21
191.7965039512396
 31
0.0
 11
3.984406885183432
 21
191.7041332051948
 31
0.0
 11
4.098606407879742
 21
191.6171957334716
 31
0.0
 11
4.301634338380551
 21
191.5754656575686
 31
0.0
  0
HATCH
  5
760
330
18
100
AcDbEntity
  8
ROGO
 62
     4
100
AcDbHatch
 10
0.0
 20
0.0
 30
0.0
210
0.0
220
0.0
230
1.0
  2
SOLID
 70
     1
 71
     1
 91
        2
 92
        7
 72
     0
 73
     1
 93
        8
 10
1.227917066477938
 20
192.8886105881262
 10
0.177513583706513
 20
192.8886105881261
 10
-0.7694207463926358
 20
191.5754656575686
 10
-0.042173494701042
 20
191.5754656575686
 10
0.1381169428799005
 20
191.8254803276594
 10
0.9679939316642455
 20
191.8254803276594
 10
1.079060354733153
 20
191.5754656575686
 10
1.811268076861235
 20
191.5754656575686
 97
        8
330
77A
330
765
330
76C
330
76D
330
76F
330
769
330
76B
330
761
 92
       22
 72
     0
 73
     1
 93
        3
 10
0.8508488260636502
 20
192.0891783393555
 10
0.3282747040250116
 20
192.0891783393555
 10
0.6516414403382608
 20
192.5376016111744
 97
        3
330
76E
330
770
330
76A
 75
     0
 76
     1
 47
0.0128389261915577
 98
        2
 10
1.145662173982202
 20
192.5735686713171
 10
1.145662173982202
 20
192.5735686713171
450
        0
451
        0
460
0.0
461
0.0
452
        0
462
0.0
453
        0
470

  0
LINE
  5
761
102
{ACAD_REACTORS
330
760
102
}
330
18
100
AcDbEntity
  8
ROGO
 62
     4
100
AcDbLine
 10
1.227917066477971
 20
192.8886105881261
 30
0.0
 11
1.811268076861267
 21
191.5754656575686
 31
0.0
  0
HATCH
  5
762
330
18
100
AcDbEntity
  8
ROGO
 62
     4
100
AcDbHatch
 10
0.0
 20
0.0
 30
0.0
210
0.0
220
0.0
230
1.0
  2
SOLID
 70
     1
 71
     1
 91
        1
 92
        5
 93
        8
 72
     1
 10
3.713073679340301
 20
192.4000355359092
 11
3.956692979880958
 21
192.8886105881261
 72
     1
 10
3.956692979880958
 20
192.8886105881261
 11
2.641656637774973
 21
192.8886105881261
 72
     4
 94
        3
 73
     0
 74
     0
 95
       26
 96
       22
 40
0.0
 40
0.0
 40
0.0
 40
0.0
 40
0.2382195346591896
 40
0.397689067266058
 40
0.5126795869787669
 40
0.5985392873135731
 40
0.7099038249249733
 40
0.7911890807494741
 40
0.9379713068543702
 40
1.057449928673087
 40
1.138714535893316
 40
1.218398644003506
 40
1.36093802187036
 40
1.461730374800257
 40
1.516014844108008
 40
1.593124329220501
 40
1.648806818593631
 40
1.729472362005518
 40
1.775122082164342
 40
1.874460993765092
 40
1.919820003751207
 40
1.919820003751207
 40
1.919820003751207
 40
1.919820003751207
 10
2.641656637774644
 20
192.8886105881261
 10
2.560801247015995
 20
192.883786616861
 10
2.425819432950061
 20
192.8757333703643
 10
2.277610222238277
 20
192.7856978665059
 10
2.169023477828063
 20
192.7333551811635
 10
2.091579543403843
 20
192.6621997597439
 10
2.034812825536305
 20
192.5887014072226
 10
1.963247720838809
 20
192.5011286590972
 10
1.904888422932882
 20
192.3991537376327
 10
1.875169580399704
 20
192.2867595965693
 10
1.848844911746008
 20
192.1971808140104
 10
1.829322096772995
 20
192.0973569511179
 10
1.834289253585924
 20
191.9895120629957
 10
1.841402449470461
 20
191.8893512519919
 10
1.873161139394433
 20
191.8178514290653
 10
1.909328661784423
 20
191.7669484821358
 10
1.953615297639375
 20
191.7108845294372
 10
2.002074561956761
 20
191.6737535551068
 10
2.042154329067464
 20
191.6064882999663
 10
2.112312609329855
 20
191.5979047682901
 10
2.156908003405668
 20
191.5808209784131
 10
2.170887491867119
 20
191.5754656575686
 72
     1
 10
2.17088749186709
 20
191.5754656575686
 11
3.301916506871683
 21
191.5754656575686
 72
     1
 10
3.301916506871683
 20
191.5754656575686
 11
3.545533227550507
 21
192.0640355359092
 72
     1
 10
3.545533227550507
 20
192.0640355359092
 11
2.705852206678332
 21
192.0640355359093
 72
     4
 94
        3
 73
     0
 74
     0
 95
       16
 96
       12
 40
0.0
 40
0.0
 40
0.0
 40
0.0
 40
0.0719416665231651
 40
0.1446253590759065
 40
0.1879779149910977
 40
0.2295440936104405
 40
0.2751936323958134
 40
0.3070718656052443
 40
0.3373215422372259
 40
0.3986635435212919
 40
0.5242542460842631
 40
0.5242542460842631
 40
0.5242542460842631
 40
0.5242542460842631
 10
2.7058522066784
 20
192.0640355359092
 10
2.68052446800667
 20
192.0714873279978
 10
2.629607753437649
 20
192.0864677719972
 10
2.625346435589966
 20
192.1590874611345
 10
2.631151864651758
 20
192.2108349320936
 10
2.65546501452899
 20
192.2485101128098
 10
2.68496108238963
 20
192.2759237638453
 10
2.695943776641219
 20
192.3116257580275
 10
2.72822640576531
 20
192.338585230344
 10
2.785472157156406
 20
192.3839003373197
 10
2.848776048367763
 20
192.3935514426053
 10
2.891306755989205
 20
192.4000355359092
 72
     1
 10
2.891306755989282
 20
192.4000355359092
 11
3.713073679340301
 21
192.4000355359092
 97
        8
330
779
330
763
330
768
330
777
330
767
330
766
330
778
330
764
 75
     0
 76
     1
 47
0.0514683685270805
 98
        1
 10
3.101573534981582
 20
192.5962891317792
450
        0
451
        0
460
0.0
461
0.0
452
        0
462
0.0
453
        0
470

  0
SPLINE
  5
763
102
{ACAD_REACTORS
330
762
102
}
330
18
100
AcDbEntity
  8
ROGO
 62
     4
100
AcDbSpline
210
0.0
220
0.0
230
1.0
 70
     8
 71
     3
 72
    26
 73
    22
 74
    20
 42
0.0000000001
 43
0.0000000001
 44
0.0000000001
 40
0.0
 40
0.0
 40
0.0
 40
0.0
 40
0.2382195346591896
 40
0.397689067266058
 40
0.5126795869787669
 40
0.5985392873135731
 40
0.7099038249249733
 40
0.7911890807494741
 40
0.9379713068543702
 40
1.057449928673087
 40
1.138714535893316
 40
1.218398644003506
 40
1.36093802187036
 40
1.461730374800257
 40
1.516014844108008
 40
1.593124329220501
 40
1.648806818593631
 40
1.729472362005518
 40
1.775122082164342
 40
1.874460993765092
 40
1.919820003751207
 40
1.919820003751207
 40
1.919820003751207
 40
1.919820003751207
 10
2.641656637774644
 20
192.8886105881261
 30
0.0
 10
2.560801247015995
 20
192.883786616861
 30
0.0
 10
2.425819432950061
 20
192.8757333703643
 30
0.0
 10
2.277610222238277
 20
192.7856978665059
 30
0.0
 10
2.169023477828063
 20
192.7333551811635
 30
0.0
 10
2.091579543403843
 20
192.6621997597439
 30
0.0
 10
2.034812825536305
 20
192.5887014072226
 30
0.0
 10
1.963247720838809
 20
192.5011286590972
 30
0.0
 10
1.904888422932882
 20
192.3991537376327
 30
0.0
 10
1.875169580399704
 20
192.2867595965693
 30
0.0
 10
1.848844911746008
 20
192.1971808140104
 30
0.0
 10
1.829322096772995
 20
192.0973569511179
 30
0.0
 10
1.834289253585924
 20
191.9895120629957
 30
0.0
 10
1.841402449470461
 20
191.8893512519918
 30
0.0
 10
1.873161139394433
 20
191.8178514290653
 30
0.0
 10
1.909328661784423
 20
191.7669484821358
 30
0.0
 10
1.953615297639375
 20
191.7108845294372
 30
0.0
 10
2.002074561956761
 20
191.6737535551069
 30
0.0
 10
2.042154329067464
 20
191.6064882999663
 30
0.0
 10
2.112312609329855
 20
191.5979047682901
 30
0.0
 10
2.156908003405668
 20
191.5808209784131
 30
0.0
 10
2.170887491867119
 20
191.5754656575686
 30
0.0
 11
2.641656637774644
 21
192.8886105881261
 31
0.0
 11
2.406272064820825
 21
192.8519684060324
 31
0.0
 11
2.26361456144582
 21
192.780698717099
 31
0.0
 11
2.163754514159961
 21
192.7236830124215
 31
0.0
 11
2.099558945256205
 21
192.6666670753977
 31
0.0
 11
2.028230398645462
 21
192.5811434022083
 31
0.0
 11
1.978300375002504
 21
192.517000705403
 31
0.0
 11
1.906971418238299
 21
192.3887150794457
 31
0.0
 11
1.871307350009544
 21
192.2746834377445
 31
0.0
 11
1.849908827041701
 21
192.1962867566831
 31
0.0
 11
1.835642871627442
 21
192.1178900756217
 31
0.0
 11
1.835642871627442
 21
191.9753506977548
 31
0.0
 11
1.849908827041701
 21
191.8755730403096
 31
0.0
 11
1.871307350009544
 21
191.8256840954138
 31
0.0
 11
1.914104395945344
 21
191.7615413986083
 31
0.0
 11
1.949768874327503
 21
191.7187794458404
 31
0.0
 11
2.006831465524044
 21
191.6617637411629
 31
0.0
 11
2.035362966199159
 21
191.6261287805231
 31
0.0
 11
2.128090445931263
 21
191.5904940522295
 31
0.0
 11
2.170887491867119
 21
191.5754656575686
 31
0.0
  0
LINE
  5
764
102
{ACAD_REACTORS
330
762
102
}
330
18
100
AcDbEntity
  8
ROGO
 62
     4
100
AcDbLine
 10
3.956692979880926
 20
192.8886105881261
 30
0.0
 11
3.713073679340311
 21
192.4000355359092
 31
0.0
  0
LINE
  5
765
102
{ACAD_REACTORS
330
760
102
}
330
18
100
AcDbEntity
  8
ROGO
 62
     4
100
AcDbLine
 10
0.1775135837065136
 20
192.8886105881261
 30
0.0
 11
-0.7694207463925978
 21
191.5754656575686
 31
0.0
  0
SPLINE
  5
766
102
{ACAD_REACTORS
330
762
102
}
330
18
100
AcDbEntity
  8
ROGO
 62
     4
100
AcDbSpline
210
0.0
220
0.0
230
1.0
 70
     8
 71
     3
 72
    16
 73
    12
 74
    10
 42
0.0000000001
 43
0.0000000001
 44
0.0000000001
 40
0.0
 40
0.0
 40
0.0
 40
0.0
 40
0.1255907025629711
 40
0.1869327038470372
 40
0.2171823804790188
 40
0.2490606136884497
 40
0.2947101524738226
 40
0.3362763310931653
 40
0.3796288870083566
 40
0.452312579561098
 40
0.5242542460842631
 40
0.5242542460842631
 40
0.5242542460842631
 40
0.5242542460842631
 10
2.891306755989205
 20
192.4000355359092
 30
0.0
 10
2.848776048367763
 20
192.3935514426053
 30
0.0
 10
2.785472157156406
 20
192.3839003373198
 30
0.0
 10
2.72822640576531
 20
192.338585230344
 30
0.0
 10
2.695943776641219
 20
192.3116257580275
 30
0.0
 10
2.68496108238963
 20
192.2759237638453
 30
0.0
 10
2.65546501452899
 20
192.2485101128097
 30
0.0
 10
2.631151864651758
 20
192.2108349320936
 30
0.0
 10
2.625346435589966
 20
192.1590874611345
 30
0.0
 10
2.629607753437649
 20
192.0864677719971
 30
0.0
 10
2.68052446800667
 20
192.0714873279978
 30
0.0
 10
2.7058522066784
 20
192.0640355359092
 30
0.0
 11
2.891306755989205
 21
192.4000355359092
 31
0.0
 11
2.770048185735447
 21
192.3673341030618
 31
0.0
 11
2.720118162092546
 21
192.3316993747683
 31
0.0
 11
2.698719639124703
 21
192.3103183983842
 31
0.0
 11
2.684453683710444
 21
192.2818104298724
 31
0.0
 11
2.655922183035443
 21
192.2461757015789
 31
0.0
 11
2.634523660067486
 21
192.2105407409391
 31
0.0
 11
2.627390682360385
 21
192.1677790205175
 31
0.0
 11
2.641656637774644
 21
192.0965090992378
 31
0.0
 11
2.7058522066784
 21
192.0640355359092
 31
0.0
  0
LINE
  5
767
102
{ACAD_REACTORS
330
762
102
}
330
18
100
AcDbEntity
  8
ROGO
 62
     4
100
AcDbLine
 10
2.705852206678343
 20
192.0640355359092
 30
0.0
 11
3.545533227550492
 21
192.0640355359092
 31
0.0
  0
LINE
  5
768
102
{ACAD_REACTORS
330
762
102
}
330
18
100
AcDbEntity
  8
ROGO
 62
     4
100
AcDbLine
 10
2.170887491867063
 20
191.5754656575686
 30
0.0
 11
3.301916506871691
 21
191.5754656575686
 31
0.0
  0
LINE
  5
769
102
{ACAD_REACTORS
330
760
102
}
330
18
100
AcDbEntity
  8
ROGO
 62
     4
100
AcDbLine
 10
0.9679939316642389
 20
191.8254803276594
 30
0.0
 11
1.079060354733144
 21
191.5754656575686
 31
0.0
  0
LINE
  5
76A
102
{ACAD_REACTORS
330
760
102
}
330
18
100
AcDbEntity
  8
ROGO
 62
     4
100
AcDbLine
 10
0.6516414403382669
 20
192.5376016111744
 30
0.0
 11
0.8508488260636681
 21
192.0891783393555
 31
0.0
  0
LINE
  5
76B
102
{ACAD_REACTORS
330
760
102
}
330
18
100
AcDbEntity
  8
ROGO
 62
     4
100
AcDbLine
 10
1.811268076861267
 20
191.5754656575687
 30
0.0
 11
1.079060354733144
 21
191.5754656575686
 31
0.0
  0
LINE
  5
76C
102
{ACAD_REACTORS
330
760
102
}
330
18
100
AcDbEntity
  8
ROGO
 62
     4
100
AcDbLine
 10
-0.7694207463925978
 20
191.5754656575686
 30
0.0
 11
-0.0421734947010464
 21
191.5754656575686
 31
0.0
  0
LINE
  5
76D
102
{ACAD_REACTORS
330
760
102
}
330
18
100
AcDbEntity
  8
ROGO
 62
     4
100
AcDbLine
 10
0.1381169428798898
 20
191.8254803276594
 30
0.0
 11
-0.0421734947009895
 21
191.5754656575687
 31
0.0
  0
LINE
  5
76E
102
{ACAD_REACTORS
330
760
102
}
330
18
100
AcDbEntity
  8
ROGO
 62
     4
100
AcDbLine
 10
0.3282747040249774
 20
192.0891783393555
 30
0.0
 11
0.8508488260636681
 21
192.0891783393555
 31
0.0
  0
LINE
  5
76F
102
{ACAD_REACTORS
330
760
102
}
330
18
100
AcDbEntity
  8
ROGO
 62
     4
100
AcDbLine
 10
0.1381169428798898
 20
191.8254803276594
 30
0.0
 11
0.9679939316642389
 21
191.8254803276594
 31
0.0
  0
LINE
  5
770
102
{ACAD_REACTORS
330
760
102
}
330
18
100
AcDbEntity
  8
ROGO
 62
     4
100
AcDbLine
 10
0.6516414403382101
 20
192.5376016111744
 30
0.0
 11
0.3282747040249774
 21
192.0891783393555
 31
0.0
  0
LINE
  5
771
102
{ACAD_REACTORS
330
735
102
}
330
18
100
AcDbEntity
  8
ROGO
 62
     4
100
AcDbLine
 10
-0.8378858715424257
 20
191.8762528575687
 30
0.0
 11
-0.9867125807512593
 21
191.5754656575686
 31
0.0
  0
LINE
  5
772
102
{ACAD_REACTORS
330
735
102
}
330
18
100
AcDbEntity
  8
ROGO
 62
     4
100
AcDbLine
 10
-0.60218472330223
 20
192.3526182142498
 30
0.0
 11
-0.7215110989261007
 21
192.1114528575686
 31
0.0
  0
ELLIPSE
  5
773
102
{ACAD_REACTORS
330
75D
102
}
330
18
100
AcDbEntity
  8
ROGO
 62
     4
100
AcDbEllipse
 10
4.858376694554408
 20
192.2163918150794
 30
0.0
 11
0.1782847090673272
 21
0.1567790921840611
 31
0.0
210
0.0
220
0.0
230
0.9999999999999998
 40
0.6788083417438792
 41
0.0
 42
6.283185307179586
  0
SPLINE
  5
774
102
{ACAD_REACTORS
330
75D
102
}
330
18
100
AcDbEntity
  8
ROGO
 62
     4
100
AcDbSpline
210
0.0
220
0.0
230
1.0
 70
     8
 71
     3
 72
     9
 73
     5
 74
     3
 42
0.0000000001
 43
0.0000000001
 44
0.0000000001
 40
0.0
 40
0.0
 40
0.0
 40
0.0
 40
0.1135793343552172
 40
0.2662938392177403
 40
0.2662938392177403
 40
0.2662938392177403
 40
0.2662938392177403
 10
5.302105620183908
 20
191.6047421044772
 30
0.0
 10
5.338590588501899
 20
191.6159044442005
 30
0.0
 10
5.424131874179357
 20
191.6420752464544
 30
0.0
 10
5.494808571416135
 20
191.6973875642288
 30
0.0
 10
5.535340327071992
 20
191.7291081374368
 30
0.0
 11
5.302105620183908
 21
191.6047421044772
 31
0.0
 11
5.408856384408579
 21
191.643530498747
 31
0.0
 11
5.535340327071992
 21
191.7291081374368
 31
0.0
  0
SPLINE
  5
775
102
{ACAD_REACTORS
330
75D
102
}
330
18
100
AcDbEntity
  8
ROGO
 62
     4
100
AcDbSpline
210
0.0
220
0.0
230
1.0
 70
     8
 71
     3
 72
    11
 73
     7
 74
     0
 42
0.0000000001
 43
0.0000000001
 40
0.1647869275458134
 40
0.1647869275458134
 40
0.1647869275458134
 40
0.1647869275458134
 40
0.2895635144633836
 40
0.5387013147903714
 40
0.7953622617455423
 40
0.8850764140209602
 40
0.8850764140209602
 40
0.8850764140209602
 40
0.8850764140209602
 10
5.302105620183908
 20
191.6047421044772
 30
0.0
 10
5.28812707738308
 20
191.6008511717607
 30
0.0
 10
5.244786065948858
 20
191.5939235819768
 30
0.0
 10
5.172087298810765
 20
191.5844111876035
 30
0.0
 10
5.102990756714405
 20
191.5744846570188
 30
0.0
 10
5.062560061885847
 20
191.5752638419256
 30
0.0
 10
5.052088161565905
 20
191.5754656575686
 30
0.0
  0
LINE
  5
776
102
{ACAD_REACTORS
330
75D
102
}
330
18
100
AcDbEntity
  8
ROGO
 62
     4
100
AcDbLine
 10
4.301634338380551
 20
191.5754656575686
 30
0.0
 11
5.052088161565905
 21
191.5754656575686
 31
0.0
  0
LINE
  5
777
102
{ACAD_REACTORS
330
762
102
}
330
18
100
AcDbEntity
  8
ROGO
 62
     4
100
AcDbLine
 10
3.545533227550492
 20
192.0640355359092
 30
0.0
 11
3.301916506871691
 21
191.5754656575686
 31
0.0
  0
LINE
  5
778
102
{ACAD_REACTORS
330
762
102
}
330
18
100
AcDbEntity
  8
ROGO
 62
     4
100
AcDbLine
 10
2.891306755989148
 20
192.4000355359092
 30
0.0
 11
3.713073679340311
 21
192.4000355359092
 31
0.0
  0
LINE
  5
779
102
{ACAD_REACTORS
330
762
102
}
330
18
100
AcDbEntity
  8
ROGO
 62
     4
100
AcDbLine
 10
2.641656637775042
 20
192.8886105881261
 30
0.0
 11
3.956692979880926
 21
192.8886105881261
 31
0.0
  0
LINE
  5
77A
102
{ACAD_REACTORS
330
760
102
}
330
18
100
AcDbEntity
  8
ROGO
 62
     4
100
AcDbLine
 10
0.1775135837065136
 20
192.8886105881261
 30
0.0
 11
1.227917066477971
 21
192.8886105881261
 31
0.0
  0
LINE
  5
77B
102
{ACAD_REACTORS
330
735
102
}
330
18
100
AcDbEntity
  8
ROGO
 62
     4
100
AcDbLine
 10
-0.336980681491184
 20
192.8886105881261
 30
0.0
 11
-0.485814877225721
 21
192.587808257434
 31
0.0
  0
LINE
  5
77C
102
{ACAD_REACTORS
330
75D
102
}
330
18
100
AcDbEntity
  8
ROGO
 62
     4
100
AcDbLine
 10
4.685918299923685
 20
192.8940878072984
 30
0.0
 11
5.436372123109038
 21
192.8940878072984
 31
0.0
  0
HATCH
  5
77D
330
18
100
AcDbEntity
  8
ROGO
 62
     4
100
AcDbHatch
 10
0.0
 20
0.0
 30
0.0
210
0.0
220
0.0
230
1.0
  2
SOLID
 70
     1
 71
     1
 91
        1
 92
        7
 72
     0
 73
     1
 93
       11
 10
7.439656848261036
 20
190.8367318032201
 10
8.195740590765275
 20
190.8367318032201
 10
8.462789879930937
 20
191.3722953653397
 10
8.729839169096639
 20
190.8367318032201
 10
9.4859063690966
 20
190.8367318032201
 10
8.974339853261707
 20
191.8626711956731
 10
10.21724859859295
 20
192.8886105881261
 10
9.461181398592938
 20
192.8886105881261
 10
9.107168315514138
 20
192.6645871793045
 10
9.218873622435127
 20
192.8886105881261
 10
8.462789879930943
 20
192.8886105881261
 97
       11
330
78A
330
78B
330
78C
330
78D
330
77F
330
73D
330
782
330
784
330
781
330
783
330
77E
 75
     0
 76
     1
 47
0.0514683685270805
 98
        1
 10
8.397718633527063
 20
192.0083146046846
450
        0
451
        0
460
0.0
461
0.0
452
        0
462
0.0
453
        0
470

  0
LINE
  5
77E
102
{ACAD_REACTORS
330
77D
102
}
330
18
100
AcDbEntity
  8
ROGO
 62
     4
100
AcDbLine
 10
8.97433985326171
 20
191.8626711956731
 30
0.0
 11
10.21724859859296
 21
192.8886105881261
 31
0.0
  0
LINE
  5
77F
102
{ACAD_REACTORS
330
734
330
77D
102
}
330
18
100
AcDbEntity
  8
ROGO
 62
     4
100
AcDbLine
 10
8.462789879930937
 20
192.8886105881261
 30
0.0
 11
7.439656848261051
 21
190.8367318032201
 31
0.0
  0
LINE
  5
780
102
{ACAD_REACTORS
330
75A
102
}
330
18
100
AcDbEntity
  8
ROGO
 62
     4
100
AcDbLine
 10
8.187762750808758
 20
192.8886105881261
 30
0.0
 11
7.9441434502682
 21
192.4000355359092
 31
0.0
  0
LINE
  5
781
102
{ACAD_REACTORS
330
77D
102
}
330
18
100
AcDbEntity
  8
ROGO
 62
     4
100
AcDbLine
 10
8.729839169096635
 20
190.8367318032201
 30
0.0
 11
9.485906369096596
 21
190.8367318032201
 31
0.0
  0
LINE
  5
782
102
{ACAD_REACTORS
330
77D
102
}
330
18
100
AcDbEntity
  8
ROGO
 62
     4
100
AcDbLine
 10
8.462789879930937
 20
191.3722953653397
 30
0.0
 11
8.195740590765296
 21
190.8367318032201
 31
0.0
  0
LINE
  5
783
102
{ACAD_REACTORS
330
77D
102
}
330
18
100
AcDbEntity
  8
ROGO
 62
     4
100
AcDbLine
 10
8.97433985326171
 20
191.8626711956731
 30
0.0
 11
9.485906369096596
 21
190.8367318032201
 31
0.0
  0
LINE
  5
784
102
{ACAD_REACTORS
330
77D
102
}
330
18
100
AcDbEntity
  8
ROGO
 62
     4
100
AcDbLine
 10
8.462789879930937
 20
191.3722953653397
 30
0.0
 11
8.729839169096635
 21
190.8367318032201
 31
0.0
  0
LINE
  5
785
102
{ACAD_REACTORS
330
75A
102
}
330
18
100
AcDbEntity
  8
ROGO
 62
     4
100
AcDbLine
 10
7.12237652691698
 20
192.4000355359092
 30
0.0
 11
7.9441434502682
 21
192.4000355359092
 31
0.0
  0
LINE
  5
786
102
{ACAD_REACTORS
330
75A
102
}
330
18
100
AcDbEntity
  8
ROGO
 62
     4
100
AcDbLine
 10
6.936921977606232
 20
192.0640355359092
 30
0.0
 11
7.776602998478381
 21
192.0640355359092
 31
0.0
  0
LINE
  5
787
102
{ACAD_REACTORS
330
75A
102
}
330
18
100
AcDbEntity
  8
ROGO
 62
     4
100
AcDbLine
 10
7.776602998478381
 20
192.0640355359092
 30
0.0
 11
7.532986277799523
 21
191.5754656575686
 31
0.0
  0
SPLINE
  5
788
102
{ACAD_REACTORS
330
75A
102
}
330
18
100
AcDbEntity
  8
ROGO
 62
     4
100
AcDbSpline
210
0.0
220
0.0
230
1.0
 70
     8
 71
     3
 72
    16
 73
    12
 74
    10
 42
0.0000000001
 43
0.0000000001
 44
0.0000000001
 40
0.0
 40
0.0
 40
0.0
 40
0.0
 40
0.1255907025629163
 40
0.1869327038470616
 40
0.217182380479003
 40
0.2490606136884339
 40
0.2947101524738157
 40
0.3362763310931585
 40
0.3796288870082937
 40
0.4523125795610796
 40
0.5242542460842448
 40
0.5242542460842448
 40
0.5242542460842448
 40
0.5242542460842448
 10
7.122376526917037
 20
192.4000355359092
 30
0.0
 10
7.079845819295607
 20
192.3935514426052
 30
0.0
 10
7.016541928084235
 20
192.3839003373197
 30
0.0
 10
6.959296176693192
 20
192.338585230344
 30
0.0
 10
6.927013547569038
 20
192.3116257580275
 30
0.0
 10
6.916030853317449
 20
192.2759237638454
 30
0.0
 10
6.886534785456903
 20
192.2485101128097
 30
0.0
 10
6.862221635579649
 20
192.2108349320936
 30
0.0
 10
6.856416206517863
 20
192.1590874611344
 30
0.0
 10
6.860677524365446
 20
192.086467771997
 30
0.0
 10
6.911594238934496
 20
192.0714873279978
 30
0.0
 10
6.936921977606232
 20
192.0640355359092
 30
0.0
 11
7.122376526917037
 21
192.4000355359092
 31
0.0
 11
7.001117956663335
 21
192.3673341030618
 31
0.0
 11
6.951187933020378
 21
192.3316993747682
 31
0.0
 11
6.929789410052535
 21
192.3103183983842
 31
0.0
 11
6.915523454638275
 21
192.2818104298724
 31
0.0
 11
6.886991953963331
 21
192.2461757015789
 31
0.0
 11
6.865593430995375
 21
192.210540740939
 31
0.0
 11
6.858460453288273
 21
192.1677790205175
 31
0.0
 11
6.872726408702476
 21
192.0965090992377
 31
0.0
 11
6.936921977606232
 21
192.0640355359092
 31
0.0
  0
TEXT
  5
789
330
18
100
AcDbEntity
  8
文字
100
AcDbText
 10
10.1890906039614
 20
195.658367911165
 30
0.0
 40
2.5
  1
10
  7
STYLE3
100
AcDbText
  0
LINE
  5
78A
102
{ACAD_REACTORS
330
77D
102
}
330
18
100
AcDbEntity
  8
ROGO
 62
     4
100
AcDbLine
 10
9.461181398592941
 20
192.8886105881261
 30
0.0
 11
10.21724859859296
 21
192.8886105881261
 31
0.0
  0
LINE
  5
78B
102
{ACAD_REACTORS
330
77D
102
}
330
18
100
AcDbEntity
  8
ROGO
 62
     4
100
AcDbLine
 10
9.107168315514115
 20
192.6645871793045
 30
0.0
 11
9.461181398592941
 21
192.8886105881261
 31
0.0
  0
LINE
  5
78C
102
{ACAD_REACTORS
330
77D
102
}
330
18
100
AcDbEntity
  8
ROGO
 62
     4
100
AcDbLine
 10
9.218873622435125
 20
192.8886105881261
 30
0.0
 11
9.107168315514115
 21
192.6645871793045
 31
0.0
  0
LINE
  5
78D
102
{ACAD_REACTORS
330
77D
102
}
330
18
100
AcDbEntity
  8
ROGO
 62
     4
100
AcDbLine
 10
8.462789879930937
 20
192.8886105881261
 30
0.0
 11
9.218873622435125
 21
192.8886105881261
 31
0.0
  0
LINE
  5
78E
102
{ACAD_REACTORS
330
75A
102
}
330
18
100
AcDbEntity
  8
ROGO
 62
     4
100
AcDbLine
 10
6.872726408702817
 20
192.8886105881261
 30
0.0
 11
8.187762750808758
 21
192.8886105881261
 31
0.0
  0
LINE
  5
78F
330
18
100
AcDbEntity
  8
目盛
100
AcDbLine
 10
-0.8934743933028812
 20
205.6574929456638
 30
0.0
 11
-0.680407896243537
 21
203.9708979534292
 31
0.0
  0
LINE
  5
790
330
18
100
AcDbEntity
  8
目盛
100
AcDbLine
 10
0.5450080295019575
 20
205.793469569281
 30
0.0
 11
0.6517519127017409
 21
204.096824130953
 31
0.0
  0
LINE
  5
791
330
18
100
AcDbEntity
  8
目盛
100
AcDbLine
 10
1.989189978675995
 20
205.8388548154308
 30
0.0
 11
1.989189978675995
 21
203.1388548154308
 31
0.0
  0
LINE
  5
792
330
18
100
AcDbEntity
  8
目盛
100
AcDbLine
 10
3.43337192785043
 20
205.793469569281
 30
0.0
 11
3.326628044650533
 21
204.096824130953
 31
0.0
  0
LINE
  5
793
330
18
100
AcDbEntity
  8
目盛
100
AcDbLine
 10
4.871854350655212
 20
205.6574929456638
 30
0.0
 11
4.658787853595868
 21
203.9708979534292
 31
0.0
  0
LINE
  5
794
330
18
100
AcDbEntity
  8
目盛
100
AcDbLine
 10
6.298960214147768
 20
205.4314615821906
 30
0.0
 11
5.980411979352084
 21
203.7615732559518
 31
0.0
  0
TEXT
  5
795
330
18
100
AcDbEntity
  8
文字
100
AcDbText
 10
0.7748794562270405
 20
199.5798626791008
 30
0.0
 40
2.5
  1
0
  7
STYLE3
100
AcDbText
  0
LINE
  5
796
330
18
100
AcDbEntity
  8
針
100
AcDbLine
 10
1.989189978675881
 20
204.8388548154309
 30
0.0
 11
1.899189978675963
 21
204.8388548154309
 31
0.0
  0
LINE
  5
797
330
18
100
AcDbEntity
  8
針
100
AcDbLine
 10
1.989189978675995
 20
204.8388548154309
 30
0.0
 11
2.079189978675913
 21
204.8388548154309
 31
0.0
  0
LINE
  5
798
330
18
100
AcDbEntity
  8
目盛
100
AcDbLine
 10
9.096580849299812
 20
204.7131546902193
 30
0.0
 11
8.262234964487447
 21
202.1453020962224
 31
0.0
  0
LINE
  5
799
330
18
100
AcDbEntity
  8
目盛
100
AcDbLine
 10
10.4560546904238
 20
204.2237139908605
 30
0.0
 11
9.830242950859769
 21
202.6430939648505
 31
0.0
  0
LINE
  5
79A
330
18
100
AcDbEntity
  8
目盛
100
AcDbLine
 10
7.709057383467779
 20
205.1162675213892
 30
0.0
 11
7.286284575287538
 21
203.4696761474706
 31
0.0
  0
LINE
  5
79B
330
18
100
AcDbEntity
  8
目盛
100
AcDbLine
 10
11.78211368467288
 20
203.6498770221491
 30
0.0
 11
11.0582888890122
 21
202.1116710329569
 31
0.0
  0
LINE
  5
79C
330
18
100
AcDbEntity
  8
目盛
100
AcDbLine
 10
13.06952448301547
 20
202.9939084564396
 30
0.0
 11
12.25054323704262
 21
201.5041871003651
 31
0.0
  0
LINE
  5
79D
330
18
100
AcDbEntity
  8
目盛
100
AcDbLine
 10
14.31320626319302
 20
202.258397101977
 30
0.0
 11
13.40230071172874
 21
200.8230396286236
 31
0.0
  0
TEXT
  5
7AF
330
18
100
AcDbEntity
  8
文字
100
AcDbText
 10
17.14379441453695
 20
186.0680219023924
 30
0.0
 40
2.5
  1
20
  7
STYLE3
100
AcDbText
  0
LINE
  5
7B1
330
18
100
AcDbEntity
  8
目盛
100
AcDbLine
 10
23.8634898534645
 20
175.731463944807
 30
0.0
 11
21.29563725946758
 21
176.5658098296194
 31
0.0
  0
TEXT
  5
7B2
330
18
100
AcDbEntity
  8
文字
100
AcDbText
 10
16.37606237189618
 20
175.590025744395
 30
0.0
 40
2.5
  1
30
  7
STYLE3
100
AcDbText
  0
LINE
  5
7B3
330
18
100
AcDbEntity
  8
目盛
100
AcDbLine
 10
23.37404915410565
 20
174.371990103683
 30
0.0
 11
21.79342912809568
 21
174.997801843247
 31
0.0
  0
LINE
  5
7B4
330
18
100
AcDbEntity
  8
目盛
100
AcDbLine
 10
20.59658084929976
 20
169.3197940127039
 30
0.0
 11
18.41223496448742
 21
170.9068141938935
 31
0.0
  0
LINE
  5
7B5
330
18
100
AcDbEntity
  8
目盛
100
AcDbLine
 10
19.71099456251903
 20
168.1781030512108
 30
0.0
 11
18.40112204980022
 21
169.2617238337836
 31
0.0
  0
LINE
  5
7B6
330
18
100
AcDbEntity
  8
目盛
100
AcDbLine
 10
18.75546840936834
 20
167.0942713790708
 30
0.0
 11
17.51622174275195
 21
168.2580014591496
 31
0.0
  0
LINE
  5
7B7
330
18
100
AcDbEntity
  8
目盛
100
AcDbLine
 10
17.73377341503573
 20
166.0725763847383
 30
0.0
 11
16.570043334957
 21
167.3118230513547
 31
0.0
  0
LINE
  5
7B8
330
18
100
AcDbEntity
  8
目盛
100
AcDbLine
 10
16.64994174289569
 20
165.1170502315876
 30
0.0
 11
15.56632096032302
 21
166.4269227443064
 31
0.0
  0
LINE
  5
7B9
330
18
100
AcDbEntity
  8
目盛
100
AcDbLine
 10
22.80021218539435
 20
173.045931109434
 30
0.0
 11
21.2620061962021
 21
173.7697559050946
 31
0.0
  0
LINE
  5
7BA
330
18
100
AcDbEntity
  8
目盛
100
AcDbLine
 10
22.14424361968474
 20
171.7585203110913
 30
0.0
 11
20.65452226361021
 21
172.5775015570642
 31
0.0
  0
LINE
  5
7BB
330
18
100
AcDbEntity
  8
目盛
100
AcDbLine
 10
21.40873226522223
 20
170.5148385309137
 30
0.0
 11
19.97337479186882
 21
171.4257440823781
 31
0.0
  0
LINE
  5
7BC
330
18
100
AcDbEntity
  8
目盛
100
AcDbLine
 10
24.58179674543595
 20
187.1486250509022
 30
0.0
 11
22.91190841919718
 21
186.8300768161065
 31
0.0
  0
LINE
  5
7BD
330
18
100
AcDbEntity
  8
目盛
100
AcDbLine
 10
24.80782810890901
 20
185.7215191874097
 30
0.0
 11
23.12123311667449
 21
185.5084526903502
 31
0.0
  0
LINE
  5
7BE
330
18
100
AcDbEntity
  8
目盛
100
AcDbLine
 10
24.94380473252625
 20
184.2830367646049
 30
0.0
 11
23.24715929419824
 21
184.176292881405
 31
0.0
  0
LINE
  5
7BF
330
18
100
AcDbEntity
  8
目盛
100
AcDbLine
 10
24.80782810890901
 20
179.9561904434516
 30
0.0
 11
23.12123311667438
 21
180.1692569405109
 31
0.0
  0
LINE
  5
7C0
330
18
100
AcDbEntity
  8
目盛
100
AcDbLine
 10
24.58179674543578
 20
178.529084579959
 30
0.0
 11
22.91190841919706
 21
178.8476328147547
 31
0.0
  0
LINE
  5
7C1
330
18
100
AcDbEntity
  8
目盛
100
AcDbLine
 10
24.26660268463445
 20
177.118987410639
 30
0.0
 11
22.62001131071583
 21
177.5417602188192
 31
0.0
  0
LINE
  5
7C2
330
18
100
AcDbEntity
  8
目盛
100
AcDbLine
 10
24.989189978676
 20
182.8388548154308
 30
0.0
 11
22.28918997867601
 21
182.8388548154308
 31
0.0
  0
LINE
  5
7C3
330
18
100
AcDbEntity
  8
目盛
100
AcDbLine
 10
24.94380473252625
 20
181.3946728662563
 30
0.0
 11
23.24715929419818
 21
181.5014167494562
 31
0.0
  0
LINE
  5
7C5
330
18
100
AcDbEntity
  8
目盛
100
AcDbLine
 10
17.73377341503601
 20
199.6051332461231
 30
0.0
 11
16.57004333495723
 21
198.3658865795067
 31
0.0
  0
LINE
  5
7C6
330
18
100
AcDbEntity
  8
目盛
100
AcDbLine
 10
16.64994174289609
 20
200.5606593992738
 30
0.0
 11
15.56632096032325
 21
199.2507868865549
 31
0.0
  0
LINE
  5
7C7
330
18
100
AcDbEntity
  8
目盛
100
AcDbLine
 10
23.37404915410582
 20
191.3057195271782
 30
0.0
 11
21.7934291280958
 21
190.6799077876143
 31
0.0
  0
LINE
  5
7C8
330
18
100
AcDbEntity
  8
目盛
100
AcDbLine
 10
23.86348985346456
 20
189.9462456860545
 30
0.0
 11
21.29563725946764
 21
189.1118998012422
 31
0.0
  0
LINE
  5
7C9
330
18
100
AcDbEntity
  8
目盛
100
AcDbLine
 10
24.26660268463468
 20
188.5587222202222
 30
0.0
 11
22.62001131071594
 21
188.135949412042
 31
0.0
  0
LINE
  5
7CA
330
18
100
AcDbEntity
  8
目盛
100
AcDbLine
 10
22.14424361968503
 20
193.91918931977
 30
0.0
 11
20.65452226361043
 21
193.1002080737971
 31
0.0
  0
LINE
  5
7CB
330
18
100
AcDbEntity
  8
目盛
100
AcDbLine
 10
22.80021218539446
 20
192.6317785214273
 30
0.0
 11
21.26200619620226
 21
191.9079537257667
 31
0.0
  0
LINE
  5
7CC
330
18
100
AcDbEntity
  8
目盛
100
AcDbLine
 10
19.71099456251926
 20
197.4996065796505
 30
0.0
 11
18.40112204980039
 21
196.4159857970777
 31
0.0
  0
LINE
  5
7CD
330
18
100
AcDbEntity
  8
目盛
100
AcDbLine
 10
20.59658084929981
 20
196.3579156181576
 30
0.0
 11
18.41223496448742
 21
194.7708954369679
 31
0.0
  0
LINE
  5
7CE
330
18
100
AcDbEntity
  8
目盛
100
AcDbLine
 10
18.75546840936852
 20
198.5834382517905
 30
0.0
 11
17.51622174275223
 21
197.4197081717117
 31
0.0
  0
LINE
  5
7CF
330
18
100
AcDbEntity
  8
目盛
100
AcDbLine
 10
21.40873226522251
 20
195.1628710999475
 30
0.0
 11
19.97337479186905
 21
194.2519655484833
 31
0.0
  0
ARC
  5
7D1
330
18
100
AcDbEntity
  8
外形線
100
AcDbCircle
 10
24.10204359578723
 20
208.0530354247037
 30
0.0
 40
2.0
100
AcDbArc
 50
109.819764108933
 51
163.8903520418817
  0
LINE
  5
7D2
330
18
100
AcDbEntity
  8
外形線
100
AcDbLine
 10
16.70327553341178
 20
204.7581542177365
 30
0.0
 11
21.01708912720472
 21
210.3299683540294
 31
0.0
  0
LINE
  5
7D3
330
18
100
AcDbEntity
  8
外形線
100
AcDbLine
 10
20.24571001716106
 20
201.9087126042134
 30
0.0
 11
22.46377205056132
 21
209.5885149209686
 31
0.0
  0
ARC
  5
7D4
330
18
100
AcDbEntity
  8
外形線
100
AcDbCircle
 10
20.88628148158875
 20
206.8940366161203
 30
0.0
 40
2.0
100
AcDbArc
 50
109.8197641089328
 51
142.2522235389748
  0
MTEXT
  5
7D6
330
18
100
AcDbEntity
  8
0
  6
ByBlock
 62
     6
100
AcDbMText
 10
-89.16182649457033
 20
233.7458697897407
 30
0.0
 40
2.5
 41
0.0
 71
     5
 72
     1
  1
\A1;14.5
  7
STYLE3
 73
     1
 44
1.0
  0
LINE
  5
7D7
330
18
100
AcDbEntity
  8
0
  6
ByBlock
 62
     2
100
AcDbLine
 10
-93.91182649457039
 20
231.8708697897407
 30
0.0
 11
-84.41182649457028
 21
231.8708697897407
 31
0.0
  0
LINE
  5
7D8
330
18
100
AcDbEntity
  8
0
  6
ByBlock
 62
     2
100
AcDbLine
 10
-93.91182649457039
 20
231.8708697897407
 30
0.0
 11
-85.0427788755228
 21
231.8708697897407
 31
0.0
  0
LINE
  5
7DD
330
18
100
AcDbEntity
  8
外形線
  6
Continuous
100
AcDbLine
 10
-92.71182649457035
 20
223.3388548154308
 30
0.0
 11
-92.71182649457035
 21
216.8388548154308
 31
0.0
  0
LINE
  5
7DE
330
18
100
AcDbEntity
  8
外形線
  6
Continuous
100
AcDbLine
 10
-100.1118264945704
 20
223.3388548154308
 30
0.0
 11
-100.1118264945704
 21
216.8388548154308
 31
0.0
  0
LINE
  5
7DF
330
18
100
AcDbEntity
  8
外形線
  6
Continuous
100
AcDbLine
 10
-100.4118264945704
 20
210.8388548154308
 30
0.0
 11
-92.41182649457039
 21
210.8388548154308
 31
0.0
  0
LINE
  5
7E0
330
18
100
AcDbEntity
  8
外形線
  6
Continuous
100
AcDbLine
 10
-100.4118264945704
 20
216.8388548154308
 30
0.0
 11
-92.41182649457039
 21
216.8388548154308
 31
0.0
  0
LINE
  5
7E1
330
18
100
AcDbEntity
  8
ﾊｯﾁﾝｸ
  6
Continuous
100
AcDbLine
 10
-96.41182649457062
 20
213.9614682736152
 30
0.0
 11
-99.28921303638617
 21
216.8388548154308
 31
0.0
  0
LINE
  5
7E2
330
18
100
AcDbEntity
  8
ﾊｯﾁﾝｸ
  6
Continuous
100
AcDbLine
 10
-96.41182649457062
 20
212.1937013206489
 30
0.0
 11
-100.4118264945706
 21
216.1937013206489
 31
0.0
  0
LINE
  5
7E3
330
18
100
AcDbEntity
  8
ﾊｯﾁﾝｸ
  6
Continuous
100
AcDbLine
 10
-100.4118264945706
 20
211.3020477528295
 30
0.0
 11
-96.41182649457062
 21
215.3020477528295
 31
0.0
  0
LINE
  5
7E4
330
18
100
AcDbEntity
  8
ﾊｯﾁﾝｸ
  6
Continuous
100
AcDbLine
 10
-100.4118264945706
 20
213.0698147057958
 30
0.0
 11
-96.64278638493568
 21
216.8388548154308
 31
0.0
  0
LINE
  5
7E5
330
18
100
AcDbEntity
  8
ﾊｯﾁﾝｸ
  6
Continuous
100
AcDbLine
 10
-100.4118264945706
 20
214.8375816587622
 30
0.0
 11
-98.41055333790212
 21
216.8388548154308
 31
0.0
  0
LINE
  5
7E6
330
18
100
AcDbEntity
  8
外形線
  6
Continuous
100
AcDbLine
 10
-100.4118264945704
 20
216.8388548154308
 30
0.0
 11
-100.4118264945704
 21
210.8388548154308
 31
0.0
  0
LINE
  5
7E7
330
18
100
AcDbEntity
  8
ﾊｯﾁﾝｸ
  6
Continuous
100
AcDbLine
 10
-96.82474694231894
 20
210.8388548154308
 30
0.0
 11
-100.4118264945706
 21
214.4259343676825
 31
0.0
  0
LINE
  5
7E8
330
18
100
AcDbEntity
  8
ﾊｯﾁﾝｸ
  6
Continuous
100
AcDbLine
 10
-98.59251389528527
 20
210.8388548154307
 30
0.0
 11
-100.4118264945706
 21
212.6581674147161
 31
0.0
  0
LINE
  5
7E9
330
18
100
AcDbEntity
  8
ﾊｯﾁﾝｸ
  6
Continuous
100
AcDbLine
 10
-100.3602808482516
 20
210.8388548154308
 30
0.0
 11
-100.4118264945706
 21
210.8904004617498
 31
0.0
  0
LINE
  5
7EA
330
18
100
AcDbEntity
  8
ﾊｯﾁﾝｸ
  6
Continuous
100
AcDbLine
 10
-97.33948552603658
 20
210.8388548154308
 30
0.0
 11
-96.41182649457062
 21
211.7665138468967
 31
0.0
  0
LINE
  5
7EB
330
18
100
AcDbEntity
  8
ﾊｯﾁﾝｸ
  6
Continuous
100
AcDbLine
 10
-99.10725247900302
 20
210.8388548154308
 30
0.0
 11
-96.41182649457062
 21
213.5342807998631
 31
0.0
  0
LINE
  5
7EC
330
18
100
AcDbEntity
  8
ﾊｯﾁﾝｸ
  6
Continuous
100
AcDbLine
 10
-100.4118264945706
 20
216.6053486117286
 30
0.0
 11
-100.1783202908684
 21
216.8388548154308
 31
0.0
  0
LINE
  5
7ED
330
18
100
AcDbEntity
  8
ﾊｯﾁﾝｸ
  6
Continuous
100
AcDbLine
 10
-96.41182649457062
 20
215.7292352265816
 30
0.0
 11
-97.52144608341978
 21
216.8388548154307
 31
0.0
  0
LINE
  5
7EE
330
18
100
AcDbEntity
  8
外形線
  6
Continuous
100
AcDbLine
 10
-92.41182649457039
 20
216.8388548154308
 30
0.0
 11
-92.41182649457039
 21
210.8388548154308
 31
0.0
  0
INSERT
  5
7EF
330
18
100
AcDbEntity
  8
0
  6
ByBlock
 62
     2
100
AcDbBlockReference
  2
_OPEN
 10
-96.41182649457039
 20
231.8708697897407
 30
0.0
 41
2.5
 42
2.5
 43
2.5
 50
180.0
  0
INSERT
  5
7F0
330
18
100
AcDbEntity
  8
0
  6
ByBlock
 62
     2
100
AcDbBlockReference
  2
_OPEN
 10
-96.41182649457039
 20
231.8708697897407
 30
0.0
 41
2.5
 42
2.5
 43
2.5
 50
180.0
  0
LINE
  5
7F1
330
18
100
AcDbEntity
  8
外形線
  6
Continuous
100
AcDbLine
 10
-100.1118264945704
 20
223.3388548154308
 30
0.0
 11
-92.71182649457035
 21
223.3388548154308
 31
0.0
  0
ARC
  5
7F2
330
18
100
AcDbEntity
  8
外形線
  6
Continuous
100
AcDbCircle
 10
-96.41182649457039
 20
216.993854815431
 30
0.0
 40
7.344999999999885
100
AcDbArc
 50
59.75198538337818
 51
120.2480146166212
  0
LINE
  5
7F3
330
18
100
AcDbEntity
  8
0
  6
ByBlock
 62
     2
100
AcDbLine
 10
-96.41182649457039
 20
226.1448443413965
 30
0.0
 11
-96.41182649457039
 21
233.1208697897407
 31
0.0
  0
POINT
  5
7F4
330
18
100
AcDbEntity
  8
DEFPOINTS
  6
ByBlock
 62
     0
100
AcDbPoint
 10
-96.41182649457039
 20
226.1448443413965
 30
0.0
  0
POINT
  5
7F5
330
18
100
AcDbEntity
  8
DEFPOINTS
  6
ByBlock
 62
     0
100
AcDbPoint
 10
-96.41182649457039
 20
226.1448443413965
 30
0.0
  0
POINT
  5
7F6
330
18
100
AcDbEntity
  8
DEFPOINTS
  6
ByBlock
 62
     0
100
AcDbPoint
 10
-96.41182649457039
 20
224.3388548154308
 30
0.0
  0
POINT
  5
7F9
330
18
100
AcDbEntity
  8
DEFPOINTS
  6
ByBlock
 62
     0
100
AcDbPoint
 10
-96.41182649457039
 20
231.8708697897407
 30
0.0
  0
LINE
  5
7FC
330
18
100
AcDbEntity
  8
0
  6
ByBlock
 62
     2
100
AcDbLine
 10
-81.91182649457028
 20
233.1208697897407
 30
0.0
 11
-81.91182649457028
 21
233.7243363420502
 31
0.0
  0
INSERT
  5
7FD
330
18
100
AcDbEntity
  8
0
  6
ByBlock
 62
     2
100
AcDbBlockReference
  2
_OPEN
 10
-81.91182649457028
 20
231.8708697897407
 30
0.0
 41
2.5
 42
2.5
 43
2.5
  0
POINT
  5
7FE
330
18
100
AcDbEntity
  8
DEFPOINTS
  6
ByBlock
 62
     0
100
AcDbPoint
 10
-81.91182649457028
 20
233.1208697897407
 30
0.0
  0
POINT
  5
7FF
330
18
100
AcDbEntity
  8
DEFPOINTS
  6
ByBlock
 62
     0
100
AcDbPoint
 10
-81.91182649457028
 20
231.8708697897407
 30
0.0
  0
POINT
  5
801
330
18
100
AcDbEntity
  8
DEFPOINTS
  6
ByBlock
 62
     0
100
AcDbPoint
 10
-81.91182649457028
 20
232.4743363420503
 30
0.0
  0
LINE
  5
80A
330
18
100
AcDbEntity
  8
ﾊｯﾁﾝｸ
  6
Continuous
100
AcDbLine
 10
1.989189978676108
 20
212.1937013206487
 30
0.0
 11
-2.010810021323891
 21
216.1937013206488
 31
0.0
  0
LINE
  5
80B
330
18
100
AcDbEntity
  8
ﾊｯﾁﾝｸ
  6
Continuous
100
AcDbLine
 10
1.576269530927788
 20
210.8388548154307
 30
0.0
 11
-2.010810021323891
 21
214.4259343676824
 31
0.0
  0
LINE
  5
80C
330
18
100
AcDbEntity
  8
ﾊｯﾁﾝｸ
  6
Continuous
100
AcDbLine
 10
-0.1914974220385943
 20
210.8388548154307
 30
0.0
 11
-2.010810021323891
 21
212.658167414716
 31
0.0
  0
LINE
  5
80D
330
18
100
AcDbEntity
  8
ﾊｯﾁﾝｸ
  6
Continuous
100
AcDbLine
 10
-2.010810021323891
 20
211.3020477528295
 30
0.0
 11
1.989189978676165
 21
215.3020477528295
 31
0.0
  0
LINE
  5
80E
330
18
100
AcDbEntity
  8
ﾊｯﾁﾝｸ
  6
Continuous
100
AcDbLine
 10
-2.010810021323891
 20
213.0698147057958
 30
0.0
 11
1.758230088310995
 21
216.8388548154307
 31
0.0
  0
LINE
  5
80F
330
18
100
AcDbEntity
  8
ﾊｯﾁﾝｸ
  6
Continuous
100
AcDbLine
 10
-2.010810021323891
 20
214.8375816587622
 30
0.0
 11
-0.0095368646553879
 21
216.8388548154307
 31
0.0
  0
ARC
  5
810
330
18
100
AcDbEntity
  8
外形線
  6
Continuous
100
AcDbCircle
 10
1.989189978675995
 20
216.9938548154309
 30
0.0
 40
7.344999999999885
100
AcDbArc
 50
59.75198538337817
 51
120.2480146166212
  0
LINE
  5
811
330
18
100
AcDbEntity
  8
外形線
  6
Continuous
100
AcDbLine
 10
-2.010810021324004
 20
210.8388548154307
 30
0.0
 11
5.989189978675995
 21
210.8388548154307
 31
0.0
  0
LINE
  5
812
330
18
100
AcDbEntity
  8
外形線
  6
Continuous
100
AcDbLine
 10
-2.010810021323891
 20
216.8388548154307
 30
0.0
 11
5.989189978675995
 21
216.8388548154307
 31
0.0
  0
LINE
  5
813
330
18
100
AcDbEntity
  8
外形線
  6
Continuous
100
AcDbLine
 10
-1.710810021323936
 20
223.3388548154307
 30
0.0
 11
5.68918997867604
 21
223.3388548154307
 31
0.0
  0
LINE
  5
814
330
18
100
AcDbEntity
  8
外形線
  6
Continuous
100
AcDbLine
 10
-1.710810021323936
 20
223.3388548154307
 30
0.0
 11
-1.710810021323936
 21
216.8388548154307
 31
0.0
  0
LINE
  5
815
330
18
100
AcDbEntity
  8
外形線
  6
Continuous
100
AcDbLine
 10
-2.010810021323891
 20
216.8388548154307
 30
0.0
 11
-2.010810021323891
 21
210.8388548154307
 31
0.0
  0
LINE
  5
816
330
18
100
AcDbEntity
  8
ﾊｯﾁﾝｸ
  6
Continuous
100
AcDbLine
 10
-1.959264375004977
 20
210.8388548154307
 30
0.0
 11
-2.010810021323948
 21
210.8904004617496
 31
0.0
  0
LINE
  5
817
330
18
100
AcDbEntity
  8
ﾊｯﾁﾝｸ
  6
Continuous
100
AcDbLine
 10
-2.010810021323891
 20
216.6053486117286
 30
0.0
 11
-1.777303817621771
 21
216.8388548154307
 31
0.0
  0
LINE
  5
818
330
18
100
AcDbEntity
  8
外形線
  6
Continuous
100
AcDbLine
 10
5.68918997867604
 20
223.3388548154307
 30
0.0
 11
5.68918997867604
 21
216.8388548154307
 31
0.0
  0
LINE
  5
819
330
18
100
AcDbEntity
  8
ﾊｯﾁﾝｸ
  6
Continuous
100
AcDbLine
 10
1.989189978676108
 20
213.9614682736151
 30
0.0
 11
-0.8881965631395019
 21
216.8388548154307
 31
0.0
  0
LINE
  5
81A
330
18
100
AcDbEntity
  8
外形線
  6
Continuous
100
AcDbLine
 10
5.989189978675995
 20
216.8388548154307
 30
0.0
 11
5.989189978675995
 21
210.8388548154307
 31
0.0
  0
LINE
  5
81B
330
18
100
AcDbEntity
  8
ﾊｯﾁﾝｸ
  6
Continuous
100
AcDbLine
 10
1.061530947210087
 20
210.8388548154307
 30
0.0
 11
1.989189978676108
 21
211.7665138468967
 31
0.0
  0
LINE
  5
81C
330
18
100
AcDbEntity
  8
ﾊｯﾁﾝｸ
  6
Continuous
100
AcDbLine
 10
-0.7062360057562956
 20
210.8388548154307
 30
0.0
 11
1.989189978676108
 21
213.5342807998631
 31
0.0
  0
LINE
  5
81D
330
18
100
AcDbEntity
  8
ﾊｯﾁﾝｸ
  6
Continuous
100
AcDbLine
 10
1.989189978676108
 20
215.7292352265815
 30
0.0
 11
0.8795703898268811
 21
216.8388548154307
 31
0.0
  0
POINT
  5
81E
330
18
100
AcDbEntity
  8
DEFPOINTS
  6
ByBlock
 62
     0
100
AcDbPoint
 10
1.989189978675995
 20
224.3388548154308
 30
0.0
  0
POINT
  5
81F
330
18
100
AcDbEntity
  8
DEFPOINTS
  6
ByBlock
 62
     0
100
AcDbPoint
 10
1.989189978675995
 20
224.3388548154308
 30
0.0
  0
LINE
  5
820
330
18
100
AcDbEntity
  8
外形線
100
AcDbLine
 10
21.92039087994329
 20
210.9871228966619
 30
0.0
 11
34.44268785625832
 21
215.5003072557274
 31
0.0
  0
LINE
  5
821
330
18
100
AcDbEntity
  8
外形線
100
AcDbLine
 10
34.44268785625832
 20
215.5003072557274
 30
0.0
 11
34.95128153988935
 21
214.0891614571047
 31
0.0
  0
LINE
  5
98E
330
18
100
AcDbEntity
  8
C
100
AcDbLine
 10
-130.1430087329021
 20
275.9101006014788
 30
0.0
 11
255.0
 21
275.9101006014788
 31
0.0
  0
LINE
  5
98F
330
18
100
AcDbEntity
  8
C
100
AcDbLine
 10
255.0
 20
275.9101006014788
 30
0.0
 11
255.0
 21
0.0
 31
0.0
  0
LINE
  5
990
330
18
100
AcDbEntity
  8
C
100
AcDbLine
 10
255.0
 20
0.0
 30
0.0
 11
-130.1430087329021
 21
0.0
 31
0.0
  0
LINE
  5
991
330
18
100
AcDbEntity
  8
C
100
AcDbLine
 10
-130.1430087329021
 20
0.0
 30
0.0
 11
-130.1430087329021
 21
275.9101006014788
 31
0.0
  0
LINE
  5
99F
330
18
100
AcDbEntity
  8
外形線
100
AcDbLine
 10
-3.510810021324004
 20
139.3388548154308
 30
0.0
 11
11.49038840486839
 21
139.3388548154308
 31
0.0
  0
LINE
  5
9A0
330
18
100
AcDbEntity
  8
外形線
100
AcDbLine
 10
-3.510810021324004
 20
115.8388548154308
 30
0.0
 11
5.54923697067575
 21
115.8388548154307
 31
0.0
  0
LINE
  5
9A1
330
18
100
AcDbEntity
  8
外形線
100
AcDbLine
 10
-3.510810021324004
 20
100.8388548154308
 30
0.0
 11
7.989189978675995
 21
100.8388548154308
 31
0.0
  0
LINE
  5
9A4
330
18
100
AcDbEntity
  8
外形線
100
AcDbLine
 10
-3.510810021324004
 20
157.0181267079587
 30
0.0
 11
-3.510810021324004
 21
139.3388548154308
 31
0.0
  0
LINE
  5
9A5
330
18
100
AcDbEntity
  8
外形線
100
AcDbLine
 10
7.989189978675995
 20
157.1297124726765
 30
0.0
 11
7.989189978675995
 21
146.1596144440501
 31
0.0
  0
LINE
  5
9A6
330
18
100
AcDbEntity
  8
外形線
100
AcDbLine
 10
-3.510810021324004
 20
115.8388548154308
 30
0.0
 11
-3.510810021324004
 21
100.8388548154308
 31
0.0
  0
LINE
  5
9A7
330
18
100
AcDbEntity
  8
外形線
100
AcDbLine
 10
7.989189978675995
 20
109.6668338046612
 30
0.0
 11
7.989189978675995
 21
100.8388548154308
 31
0.0
  0
ARC
  5
9AA
330
18
100
AcDbEntity
  8
外形線
100
AcDbCircle
 10
1.989189978675995
 20
184.3388548154308
 30
0.0
 40
28.0
100
AcDbArc
 50
283.6500841589144
 51
341.2399754484776
  0
ARC
  5
9AD
330
18
100
AcDbEntity
  8
外形線
100
AcDbCircle
 10
51.989189978676
 20
166.8388548154308
 30
0.0
 40
19.0
100
AcDbArc
 50
100.1465016536609
 51
175.3776238728588
  0
ARC
  5
9AE
330
18
100
AcDbEntity
  8
外形線
100
AcDbCircle
 10
51.989189978676
 20
166.8388548154308
 30
0.0
 40
25.0
100
AcDbArc
 50
97.83005111481333
 51
160.1070893074222
  0
ARC
  5
9B3
330
18
100
AcDbEntity
  8
外形線
100
AcDbCircle
 10
176.4834855804666
 20
102.8662449847017
 30
0.0
 40
17.0
100
AcDbArc
 50
259.9429215385797
 51
83.18560079451543
  0
ARC
  5
9B4
330
18
100
AcDbEntity
  8
外形線
100
AcDbCircle
 10
182.4321547487095
 20
102.0830878313814
 30
0.0
 40
26.0
100
AcDbArc
 50
258.9471999132516
 51
84.41907587657651
  0
ARC
  5
9B5
330
18
100
AcDbEntity
  8
外形線
100
AcDbCircle
 10
202.2610519761857
 20
99.47256398698037
 30
0.0
 40
40.0
100
AcDbArc
 50
257.5175946427628
 51
85.365441621847
  0
LINE
  5
9B7
330
18
100
AcDbEntity
  8
外形線
100
AcDbLine
 10
8.354031918201457
 20
101.4298537962595
 30
0.0
 11
193.6154600394571
 21
60.41806693397029
 31
0.0
  0
LINE
  5
9B9
330
18
100
AcDbEntity
  8
外形線
100
AcDbLine
 10
7.989189978675995
 20
109.6668338046612
 30
0.0
 11
177.4476032706371
 21
76.56536366635354
 31
0.0
  0
LINE
  5
9BB
330
18
100
AcDbEntity
  8
外形線
100
AcDbLine
 10
6.422382789663977
 20
115.7620261895333
 30
0.0
 11
173.5147897959066
 21
86.12746231275282
 31
0.0
  0
LINE
  5
9BF
330
18
100
AcDbEntity
  8
外形線
100
AcDbLine
 10
11.8247860317501
 20
139.6635239523207
 30
0.0
 11
178.5005952546664
 21
119.7461522285893
 31
0.0
  0
LINE
  5
9C0
330
18
100
AcDbEntity
  8
外形線
100
AcDbLine
 10
8.891938432198635
 20
145.1643546102842
 30
0.0
 11
184.9606949571208
 21
127.9598435092952
 31
0.0
  0
LINE
  5
9C1
330
18
100
AcDbEntity
  8
外形線
100
AcDbLine
 10
46.80581893754266
 20
152.2057866692185
 30
0.0
 11
122.266590150172
 21
146.0885455792465
 31
0.0
  0
ARC
  5
9D9
330
18
100
AcDbEntity
  8
外形線
100
AcDbCircle
 10
11.78918997867599
 20
139.3656432362521
 30
0.0
 40
0.3
100
AcDbArc
 50
83.18560079451549
 51
185.1230350829986
  0
LINE
  5
9DA
330
18
100
AcDbEntity
  8
外形線
100
AcDbLine
 10
9.489189978675995
 20
157.1297124726765
 30
0.0
 11
9.489189978675995
 21
146.0130423482346
 31
0.0
  0
ARC
  5
9DB
330
18
100
AcDbEntity
  8
外形線
100
AcDbCircle
 10
8.989189978675995
 20
146.1596144440501
 30
0.0
 40
1.0
100
AcDbArc
 50
180.0
 51
264.4190758765765
  0
ARC
  5
9DC
330
18
100
AcDbEntity
  8
外形線
100
AcDbCircle
 10
10.48918997867599
 20
146.0130423482346
 30
0.0
 40
1.0
100
AcDbArc
 50
180.0
 51
264.4190758765765
  0
ARC
  5
9DF
330
18
100
AcDbEntity
  8
外形線
100
AcDbCircle
 10
62.98918997867599
 20
99.83885481543081
 30
0.0
 40
86.90000000000001
100
AcDbArc
 50
41.89293196236223
 51
99.50430751718544
  0
ARC
  5
9E0
330
18
100
AcDbEntity
  8
外形線
100
AcDbCircle
 10
62.98918997867601
 20
99.83885481543076
 30
0.0
 40
92.90000000000004
100
AcDbArc
 50
35.96185236001058
 51
99.9321131008107
  0
ARC
  5
9E2
330
18
100
AcDbEntity
  8
外形線
100
AcDbCircle
 10
159.168026170747
 20
167.982187869886
 30
0.0
 40
25.0
100
AcDbArc
 50
212.9239530565781
 51
272.5502433878228
  0
ARC
  5
9E8
330
18
100
AcDbEntity
  8
外形線
100
AcDbCircle
 10
122.5443730369447
 20
153.0889898681852
 30
0.0
 40
7.0
100
AcDbArc
 50
267.7178858927617
 51
42.9503889550139
  0
ARC
  5
9F5
330
18
100
AcDbEntity
  8
外形線
100
AcDbCircle
 10
48.01782080269695
 20
167.156741537683
 30
0.0
 40
15.0
100
AcDbArc
 50
175.3654416218468
 51
265.365441621847
  0
LINE
  5
9FA
330
18
100
AcDbEntity
  8
外形線
100
AcDbLine
 10
154.2412003911027
 20
143.4965180070591
 30
0.0
 11
205.4930569499305
 21
139.3417769695523
 31
0.0
  0
LINE
  5
9FD
330
18
100
AcDbEntity
  8
外形線
100
AcDbLine
 10
7.989189978675995
 20
101.1369450683619
 30
0.0
 11
7.989189978675995
 21
100.8388548154308
 31
0.0
  0
ARC
  5
9FE
330
18
100
AcDbEntity
  8
外形線
100
AcDbCircle
 10
8.289189978675992
 20
101.1369450683619
 30
0.0
 40
0.3
100
AcDbArc
 50
77.51759464276279
 51
180.0
  0
ARC
  5
A00
330
18
100
AcDbEntity
  8
外形線
100
AcDbCircle
 10
8.003165730820704
 20
108.6452041841115
 30
0.0
 40
1.0
100
AcDbArc
 50
90.80077768305812
 51
168.9471999132505
  0
ARC
  5
A03
330
18
100
AcDbEntity
  8
外形線
100
AcDbCircle
 10
5.549236970675742
 20
110.8388548154307
 30
0.0
 40
5.0
100
AcDbArc
 50
79.94292153857975
 51
89.99999999999992
  0
LINE
  5
A19
330
18
100
AcDbEntity
  8
中心線
100
AcDbLine
 10
18.28991674048274
 20
120.5954616277753
 30
0.0
 11
223.5029775963334
 21
93.57864962854831
 31
0.0
  0
LINE
  5
A1D
330
18
100
AcDbEntity
  8
隠れ線2
100
AcDbLine
 10
-0.010810021324005
 20
115.8388548154308
 30
0.0
 11
-0.010810021324005
 21
100.8388548154308
 31
0.0
  0
LINE
  5
A1E
330
18
100
AcDbEntity
  8
隠れ線2
100
AcDbLine
 10
3.989189978675995
 20
115.8388548154307
 30
0.0
 11
3.989189978675995
 21
100.8388548154308
 31
0.0
  0
ARC
  5
A21
330
18
100
AcDbEntity
  8
外形線
100
AcDbCircle
 10
1.989189978675995
 20
118.3388548154308
 30
0.0
 40
1.0
100
AcDbArc
 50
20.45904798955668
 51
159.5409520104434
  0
LINE
  5
A22
330
18
100
AcDbEntity
  8
外形線
100
AcDbLine
 10
-0.010810021324005
 20
115.8388548154308
 30
0.0
 11
1.05226771888353
 21
118.6883926232647
 31
0.0
  0
LINE
  5
A23
330
18
100
AcDbEntity
  8
外形線
100
AcDbLine
 10
3.989189978675995
 20
115.8388548154308
 30
0.0
 11
2.926112238468461
 21
118.6883926232647
 31
0.0
  0
LINE
  5
A24
330
18
100
AcDbEntity
  8
外形線
100
AcDbLine
 10
-1.910810021324004
 20
137.8388548154308
 30
0.0
 11
5.889189978675995
 21
137.8388548154308
 31
0.0
  0
LINE
  5
A25
330
18
100
AcDbEntity
  8
外形線
100
AcDbLine
 10
-1.910810021324004
 20
139.3388548154308
 30
0.0
 11
-1.910810021324004
 21
137.8388548154308
 31
0.0
  0
LINE
  5
A26
330
18
100
AcDbEntity
  8
外形線
100
AcDbLine
 10
5.889189978675994
 20
139.3388548154308
 30
0.0
 11
5.889189978675995
 21
137.8388548154308
 31
0.0
  0
LINE
  5
A27
330
18
100
AcDbEntity
  8
外形線
100
AcDbLine
 10
-0.010810021324005
 20
126.8388548154308
 30
0.0
 11
3.989189978675994
 21
126.8388548154307
 31
0.0
  0
LINE
  5
A28
330
18
100
AcDbEntity
  8
外形線
100
AcDbLine
 10
-0.010810021324005
 20
137.8388548154308
 30
0.0
 11
-0.010810021324005
 21
126.8388548154308
 31
0.0
  0
LINE
  5
A29
330
18
100
AcDbEntity
  8
外形線
100
AcDbLine
 10
3.989189978675994
 20
137.8388548154308
 30
0.0
 11
3.989189978675994
 21
126.8388548154307
 31
0.0
  0
LINE
  5
A5C
330
18
100
AcDbEntity
  8
外形線
100
AcDbLine
 10
4.489189978675995
 20
126.3388548154308
 30
0.0
 11
4.489189978675995
 21
123.8388548154307
 31
0.0
  0
LINE
  5
A5D
330
18
100
AcDbEntity
  8
外形線
 62
     4
100
AcDbLine
 10
0.5668347703337986
 20
123.8388548154308
 30
0.0
 11
2.010210443307869
 21
126.3388548154308
 31
0.0
  0
LINE
  5
A5E
330
18
100
AcDbEntity
  8
外形線
 62
     4
100
AcDbLine
 10
1.989189978675995
 20
124.1399197744834
 30
0.0
 11
0.719634240854532
 21
126.3388548154308
 31
0.0
  0
LINE
  5
A5F
330
18
100
AcDbEntity
  8
外形線
100
AcDbLine
 10
-0.510810021324005
 20
126.3388548154308
 30
0.0
 11
-0.510810021324005
 21
123.8388548154307
 31
0.0
  0
LINE
  5
A60
330
18
100
AcDbEntity
  8
外形線
 62
     4
100
AcDbLine
 10
-0.510810021324005
 20
123.9723192837675
 30
0.0
 11
0.8555099049286241
 21
126.3388548154308
 31
0.0
  0
LINE
  5
A61
330
18
100
AcDbEntity
  8
外形線
 62
     4
100
AcDbLine
 10
1.008309375449357
 20
123.8388548154308
 30
0.0
 11
-0.4350662975247133
 21
126.3388548154308
 31
0.0
  0
LINE
  5
A68
330
18
100
AcDbEntity
  8
外形線
100
AcDbLine
 10
1.989189978675995
 20
123.8388548154307
 30
0.0
 11
4.489189978675995
 21
123.8388548154307
 31
0.0
  0
LINE
  5
A69
330
18
100
AcDbEntity
  8
外形線
100
AcDbLine
 10
1.989189978675995
 20
123.8388548154307
 30
0.0
 11
-0.510810021324005
 21
123.8388548154307
 31
0.0
  0
LINE
  5
A6A
330
18
100
AcDbEntity
  8
外形線
100
AcDbLine
 10
-0.2486321948329078
 20
123.8388548154307
 30
0.0
 11
0.6891899786759837
 21
120.3388548154308
 31
0.0
  0
LINE
  5
A6B
330
18
100
AcDbEntity
  8
外形線
 62
     4
100
AcDbLine
 10
-0.1463911629298877
 20
123.8388548154307
 30
0.0
 11
-0.510810021324005
 21
124.4700467934056
 31
0.0
  0
LINE
  5
A6C
330
18
100
AcDbEntity
  8
外形線
100
AcDbLine
 10
4.227012152184897
 20
123.8388548154307
 30
0.0
 11
3.289189978676006
 21
120.3388548154308
 31
0.0
  0
ARC
  5
A6D
330
18
100
AcDbEntity
  8
外形線
100
AcDbCircle
 10
1.989189978675995
 20
120.4888548154308
 30
0.0
 40
1.149999999999999
100
AcDbArc
 50
187.494717453927
 51
352.505282546073
  0
LINE
  5
A6E
330
18
100
AcDbEntity
  8
外形線
100
AcDbLine
 10
1.989189978675995
 20
120.3388548154308
 30
0.0
 11
3.289189978676006
 21
120.3388548154308
 31
0.0
  0
LINE
  5
A6F
330
18
100
AcDbEntity
  8
外形線
100
AcDbLine
 10
1.989189978675995
 20
120.3388548154308
 30
0.0
 11
0.6891899786759837
 21
120.3388548154308
 31
0.0
  0
POINT
  5
A70
330
18
100
AcDbEntity
  8
DEFPOINTS
  6
ByBlock
 62
     0
100
AcDbPoint
 10
1.989189978675995
 20
119.3388548154308
 30
0.0
  0
POINT
  5
A71
330
18
100
AcDbEntity
  8
DEFPOINTS
  6
ByBlock
 62
     0
100
AcDbPoint
 10
1.989189978675995
 20
119.3388548154308
 30
0.0
  0
POINT
  5
A72
330
18
100
AcDbEntity
  8
中心線
  6
ByBlock
100
AcDbPoint
 10
1.277160063927567
 20
120.3932757114787
 30
0.0
  0
POINT
  5
A73
330
18
100
AcDbEntity
  8
中心線
  6
ByBlock
100
AcDbPoint
 10
1.277160063927567
 20
120.3932757114787
 30
0.0
  0
LINE
  5
A74
330
18
100
AcDbEntity
  8
外形線
 62
     4
100
AcDbLine
 10
1.721535308713043
 20
123.8388548154308
 30
0.0
 11
1.989189978675995
 21
124.3024463026897
 31
0.0
  0
LINE
  5
A77
330
18
100
AcDbEntity
  8
外形線
100
AcDbLine
 10
1.989189978675995
 20
126.3388548154308
 30
0.0
 11
4.489189978675995
 21
126.3388548154308
 31
0.0
  0
LINE
  5
A78
330
18
100
AcDbEntity
  8
外形線
100
AcDbLine
 10
1.989189978675995
 20
126.8388548154308
 30
0.0
 11
-0.260810021324005
 21
126.8388548154308
 31
0.0
  0
LINE
  5
A79
330
18
100
AcDbEntity
  8
外形線
100
AcDbLine
 10
1.989189978675995
 20
126.3388548154308
 30
0.0
 11
-0.510810021324005
 21
126.3388548154308
 31
0.0
  0
LINE
  5
A7A
330
18
100
AcDbEntity
  8
外形線
 62
     4
100
AcDbLine
 10
-0.510810021324005
 20
125.9723192837674
 30
0.0
 11
-0.2991906334506211
 21
126.3388548154308
 31
0.0
  0
LINE
  5
A7B
330
18
100
AcDbEntity
  8
外形線
100
AcDbLine
 10
-0.260810021324005
 20
126.8388548154308
 30
0.0
 11
-0.260810021324005
 21
126.3388548154308
 31
0.0
  0
POINT
  5
A7C
330
18
100
AcDbEntity
  8
DEFPOINTS
  6
ByBlock
 62
     0
100
AcDbPoint
 10
-0.260810021324005
 20
126.8388548154308
 30
0.0
  0
LINE
  5
A7D
330
18
100
AcDbEntity
  8
外形線
100
AcDbLine
 10
1.989189978675995
 20
126.8388548154308
 30
0.0
 11
4.239189978675995
 21
126.8388548154308
 31
0.0
  0
LINE
  5
A7E
330
18
100
AcDbEntity
  8
外形線
 62
     4
100
AcDbLine
 10
1.989189978675995
 20
126.1399197744834
 30
0.0
 11
1.874334779233834
 21
126.3388548154308
 31
0.0
  0
LINE
  5
A7F
330
18
100
AcDbEntity
  8
外形線
100
AcDbLine
 10
4.239189978675995
 20
126.8388548154308
 30
0.0
 11
4.239189978675995
 21
126.3388548154308
 31
0.0
  0
LINE
  5
A84
330
18
100
AcDbEntity
  8
隠れ線2
100
AcDbLine
 10
-94.41182649457038
 20
115.8388548154308
 30
0.0
 11
-94.41182649457038
 21
100.8388548154308
 31
0.0
  0
LINE
  5
A85
330
18
100
AcDbEntity
  8
隠れ線2
100
AcDbLine
 10
-98.41182649457039
 20
115.8388548154308
 30
0.0
 11
-98.41182649457039
 21
100.8388548154308
 31
0.0
  0
LINE
  5
A86
330
18
100
AcDbEntity
  8
外形線
100
AcDbLine
 10
-101.9118264945704
 20
157.3388548154308
 30
0.0
 11
-101.9118264945704
 21
77.08308783138139
 31
0.0
  0
LINE
  5
A87
330
18
100
AcDbEntity
  8
外形線
100
AcDbLine
 10
-101.9118264945704
 20
100.8388548154308
 30
0.0
 11
-90.91182649457039
 21
100.8388548154308
 31
0.0
  0
LINE
  5
A8A
330
18
100
AcDbEntity
  8
外形線
100
AcDbLine
 10
-93.91182649457039
 20
126.3388548154308
 30
0.0
 11
-93.91182649457039
 21
123.8388548154308
 31
0.0
  0
LINE
  5
A8B
330
18
100
AcDbEntity
  8
外形線
 62
     4
100
AcDbLine
 10
-97.39270709779702
 20
123.8388548154308
 30
0.0
 11
-98.8360827707711
 21
126.3388548154308
 31
0.0
  0
LINE
  5
A8C
330
18
100
AcDbEntity
  8
外形線
 62
     4
100
AcDbLine
 10
-98.91182649457039
 20
123.9723192837675
 30
0.0
 11
-97.54550656831776
 21
126.3388548154308
 31
0.0
  0
LINE
  5
A8D
330
18
100
AcDbEntity
  8
外形線
100
AcDbLine
 10
-98.91182649457039
 20
126.3388548154308
 30
0.0
 11
-98.91182649457039
 21
123.8388548154308
 31
0.0
  0
LINE
  5
A8E
330
18
100
AcDbEntity
  8
外形線
 62
     4
100
AcDbLine
 10
-96.41182649457039
 20
124.1399197744834
 30
0.0
 11
-97.68138223239185
 21
126.3388548154308
 31
0.0
  0
LINE
  5
A8F
330
18
100
AcDbEntity
  8
外形線
 62
     4
100
AcDbLine
 10
-97.83418170291259
 20
123.8388548154308
 30
0.0
 11
-96.39080602993852
 21
126.3388548154308
 31
0.0
  0
LINE
  5
A91
330
18
100
AcDbEntity
  8
外形線
100
AcDbLine
 10
-101.9118264945704
 20
115.8388548154308
 30
0.0
 11
-90.9118264945704
 21
115.8388548154308
 31
0.0
  0
ARC
  5
A92
330
18
100
AcDbEntity
  8
外形線
100
AcDbCircle
 10
-96.41182649457039
 20
120.4888548154308
 30
0.0
 40
1.149999999999999
100
AcDbArc
 50
187.494717453927
 51
352.505282546073
  0
POINT
  5
A93
330
18
100
AcDbEntity
  8
DEFPOINTS
  6
ByBlock
 62
     0
100
AcDbPoint
 10
-96.41182649457039
 20
119.3388548154308
 30
0.0
  0
POINT
  5
A94
330
18
100
AcDbEntity
  8
DEFPOINTS
  6
ByBlock
 62
     0
100
AcDbPoint
 10
-96.41182649457039
 20
119.3388548154308
 30
0.0
  0
LINE
  5
A95
330
18
100
AcDbEntity
  8
外形線
100
AcDbLine
 10
-94.41182649457038
 20
115.8388548154308
 30
0.0
 11
-95.47490423477793
 21
118.6883926232648
 31
0.0
  0
LINE
  5
A96
330
18
100
AcDbEntity
  8
外形線
100
AcDbLine
 10
-98.41182649457039
 20
115.8388548154308
 30
0.0
 11
-97.34874875436286
 21
118.6883926232648
 31
0.0
  0
ARC
  5
A97
330
18
100
AcDbEntity
  8
外形線
100
AcDbCircle
 10
-96.41182649457039
 20
118.3388548154308
 30
0.0
 40
1.0
100
AcDbArc
 50
20.45904798955668
 51
159.5409520104434
  0
LINE
  5
A98
330
18
100
AcDbEntity
  8
外形線
100
AcDbLine
 10
-96.41182649457039
 20
123.8388548154308
 30
0.0
 11
-98.91182649457039
 21
123.8388548154308
 31
0.0
  0
LINE
  5
A99
330
18
100
AcDbEntity
  8
外形線
100
AcDbLine
 10
-98.6496486680793
 20
123.8388548154308
 30
0.0
 11
-97.7118264945704
 21
120.3388548154308
 31
0.0
  0
LINE
  5
A9A
330
18
100
AcDbEntity
  8
外形線
 62
     4
100
AcDbLine
 10
-98.54740763617627
 20
123.8388548154308
 30
0.0
 11
-98.91182649457039
 21
124.4700467934056
 31
0.0
  0
LINE
  5
A9B
330
18
100
AcDbEntity
  8
外形線
 62
     4
100
AcDbLine
 10
-96.67948116453334
 20
123.8388548154308
 30
0.0
 11
-96.41182649457039
 21
124.3024463026897
 31
0.0
  0
LINE
  5
A9C
330
18
100
AcDbEntity
  8
外形線
100
AcDbLine
 10
-96.41182649457039
 20
123.8388548154308
 30
0.0
 11
-93.91182649457039
 21
123.8388548154308
 31
0.0
  0
LINE
  5
A9D
330
18
100
AcDbEntity
  8
外形線
100
AcDbLine
 10
-96.41182649457039
 20
120.3388548154308
 30
0.0
 11
-95.11182649457039
 21
120.3388548154308
 31
0.0
  0
POINT
  5
A9E
330
18
100
AcDbEntity
  8
中心線
  6
ByBlock
100
AcDbPoint
 10
-97.12385640931882
 20
120.3932757114787
 30
0.0
  0
POINT
  5
A9F
330
18
100
AcDbEntity
  8
中心線
  6
ByBlock
100
AcDbPoint
 10
-97.12385640931882
 20
120.3932757114787
 30
0.0
  0
LINE
  5
AA0
330
18
100
AcDbEntity
  8
外形線
100
AcDbLine
 10
-96.41182649457039
 20
120.3388548154308
 30
0.0
 11
-97.7118264945704
 21
120.3388548154308
 31
0.0
  0
LINE
  5
AA1
330
18
100
AcDbEntity
  8
外形線
100
AcDbLine
 10
-94.17400432106148
 20
123.8388548154308
 30
0.0
 11
-95.11182649457039
 21
120.3388548154308
 31
0.0
  0
LINE
  5
AA3
330
18
100
AcDbEntity
  8
外形線
100
AcDbLine
 10
-94.41182649457038
 20
137.8388548154308
 30
0.0
 11
-94.41182649457038
 21
126.8388548154308
 31
0.0
  0
LINE
  5
AA4
330
18
100
AcDbEntity
  8
外形線
100
AcDbLine
 10
-98.41182649457039
 20
137.8388548154308
 30
0.0
 11
-98.41182649457039
 21
126.8388548154308
 31
0.0
  0
LINE
  5
AA5
330
18
100
AcDbEntity
  8
外形線
100
AcDbLine
 10
-96.41182649457039
 20
126.3388548154308
 30
0.0
 11
-98.91182649457039
 21
126.3388548154308
 31
0.0
  0
LINE
  5
AA6
330
18
100
AcDbEntity
  8
外形線
100
AcDbLine
 10
-96.41182649457039
 20
126.8388548154308
 30
0.0
 11
-98.66182649457039
 21
126.8388548154308
 31
0.0
  0
POINT
  5
AA7
330
18
100
AcDbEntity
  8
DEFPOINTS
  6
ByBlock
 62
     0
100
AcDbPoint
 10
-98.66182649457039
 20
126.8388548154308
 30
0.0
  0
LINE
  5
AA8
330
18
100
AcDbEntity
  8
外形線
100
AcDbLine
 10
-98.66182649457039
 20
126.8388548154308
 30
0.0
 11
-98.66182649457039
 21
126.3388548154308
 31
0.0
  0
LINE
  5
AA9
330
18
100
AcDbEntity
  8
外形線
 62
     4
100
AcDbLine
 10
-98.91182649457039
 20
125.9723192837675
 30
0.0
 11
-98.70020710669701
 21
126.3388548154308
 31
0.0
  0
LINE
  5
AAA
330
18
100
AcDbEntity
  8
外形線
100
AcDbLine
 10
-94.1618264945704
 20
126.8388548154308
 30
0.0
 11
-94.1618264945704
 21
126.3388548154308
 31
0.0
  0
LINE
  5
AAB
330
18
100
AcDbEntity
  8
外形線
 62
     4
100
AcDbLine
 10
-96.41182649457039
 20
126.1399197744834
 30
0.0
 11
-96.52668169401255
 21
126.3388548154308
 31
0.0
  0
LINE
  5
AAC
330
18
100
AcDbEntity
  8
外形線
100
AcDbLine
 10
-96.41182649457039
 20
126.8388548154308
 30
0.0
 11
-94.1618264945704
 21
126.8388548154308
 31
0.0
  0
LINE
  5
AAD
330
18
100
AcDbEntity
  8
外形線
100
AcDbLine
 10
-96.41182649457039
 20
126.3388548154308
 30
0.0
 11
-93.91182649457039
 21
126.3388548154308
 31
0.0
  0
LINE
  5
AAE
330
18
100
AcDbEntity
  8
外形線
100
AcDbLine
 10
-98.41182649457039
 20
126.8388548154308
 30
0.0
 11
-94.41182649457038
 21
126.8388548154308
 31
0.0
  0
LINE
  5
AAF
330
18
100
AcDbEntity
  8
外形線
100
AcDbLine
 10
-100.3118264945704
 20
137.8388548154308
 30
0.0
 11
-92.51182649457039
 21
137.8388548154308
 31
0.0
  0
LINE
  5
AB0
330
18
100
AcDbEntity
  8
外形線
100
AcDbLine
 10
-101.9118264945704
 20
139.3388548154308
 30
0.0
 11
-90.91182649457039
 21
139.3388548154308
 31
0.0
  0
LINE
  5
AB1
330
18
100
AcDbEntity
  8
外形線
100
AcDbLine
 10
-100.3118264945704
 20
139.3388548154308
 30
0.0
 11
-100.3118264945704
 21
137.8388548154308
 31
0.0
  0
LINE
  5
AB2
330
18
100
AcDbEntity
  8
外形線
100
AcDbLine
 10
-92.51182649457039
 20
139.3388548154308
 30
0.0
 11
-92.51182649457039
 21
137.8388548154308
 31
0.0
  0
ARC
  5
AB7
330
18
100
AcDbEntity
  8
外形線
100
AcDbCircle
 10
-96.41182649457039
 20
61.72256398698036
 30
0.0
 40
2.25
100
AcDbArc
 50
180.0
 51
0.0
  0
LINE
  5
AB8
330
18
100
AcDbEntity
  8
外形線
100
AcDbLine
 10
-98.66182649457039
 20
100.8388548154308
 30
0.0
 11
-98.66182649457039
 21
74.0830878313814
 31
0.0
  0
LINE
  5
AB9
330
18
100
AcDbEntity
  8
外形線
100
AcDbLine
 10
-94.1618264945704
 20
100.8388548154308
 30
0.0
 11
-94.1618264945704
 21
74.08308783138136
 31
0.0
  0
LINE
  5
ABB
330
18
100
AcDbEntity
  8
外形線
100
AcDbLine
 10
-90.91182649457039
 20
157.3388548154308
 30
0.0
 11
-90.91182649457039
 21
77.08308783138138
 31
0.0
  0
LINE
  5
ABC
330
18
100
AcDbEntity
  8
外形線
100
AcDbLine
 10
-101.9118264945704
 20
157.3388548154308
 30
0.0
 11
-90.9118264945704
 21
157.3388548154308
 31
0.0
  0
LINE
  5
AE4
330
18
100
AcDbEntity
  8
外形線
100
AcDbLine
 10
-102.9118264945704
 20
207.3388548154309
 30
0.0
 11
-102.9118264945703
 21
158.3388548154308
 31
0.0
  0
LINE
  5
AE5
330
18
100
AcDbEntity
  8
外形線
100
AcDbLine
 10
-104.0118264945703
 20
205.8388548154308
 30
0.0
 11
-104.0118264945703
 21
159.8388548154308
 31
0.0
  0
LINE
  5
AE7
330
18
100
AcDbEntity
  8
外形線
100
AcDbLine
 10
-91.41182649457025
 20
158.3388548154308
 30
0.0
 11
-102.9118264945703
 21
158.3388548154308
 31
0.0
  0
LINE
  5
AE8
330
18
100
AcDbEntity
  8
外形線
100
AcDbLine
 10
-100.4118264945702
 20
158.3388548154307
 30
0.0
 11
-100.4118264945702
 21
157.3388548154308
 31
0.0
  0
LINE
  5
AEA
330
18
100
AcDbEntity
  8
外形線
100
AcDbLine
 10
-102.9118264945704
 20
159.8388548154308
 30
0.0
 11
-104.0118264945703
 21
159.8388548154308
 31
0.0
  0
LINE
  5
AED
330
18
100
AcDbEntity
  8
外形線
100
AcDbLine
 10
-91.4118264945703
 20
207.3388548154308
 30
0.0
 11
-102.9118264945704
 21
207.3388548154309
 31
0.0
  0
POINT
  5
AEF
330
18
100
AcDbEntity
  8
DEFPOINTS
  6
ByBlock
 62
     0
100
AcDbPoint
 10
-104.0118264945703
 20
205.8388548154308
 30
0.0
  0
POINT
  5
AF0
330
18
100
AcDbEntity
  8
DEFPOINTS
  6
ByBlock
 62
     0
100
AcDbPoint
 10
-104.0118264945703
 20
205.8388548154308
 30
0.0
  0
LINE
  5
AF1
330
18
100
AcDbEntity
  8
外形線
100
AcDbLine
 10
-102.9118264945704
 20
205.8388548154308
 30
0.0
 11
-104.0118264945703
 21
205.8388548154308
 31
0.0
  0
LINE
  5
AF2
330
18
100
AcDbEntity
  8
外形線
100
AcDbLine
 10
-92.41182649457043
 20
158.3388548154308
 30
0.0
 11
-92.41182649457043
 21
157.3388548154308
 31
0.0
  0
DIMENSION
  5
B09
330
18
100
AcDbEntity
  8
寸法線
100
AcDbDimension
  2
*D4
 10
-96.41182649457039
 20
231.8708697897407
 30
0.0
 11
-100.2118264945703
 21
233.7458697897407
 31
0.0
 12
-15.36548772699768
 22
0.0
 32
0.0
 70
    32
 71
     5
 42
-1.0
  3
STYLE3
100
AcDbAlignedDimension
 13
-104.0118264945703
 23
205.8388548154308
 33
0.0
 14
-96.41182649457039
 24
229.119702607174
 34
0.0
100
AcDbRotatedDimension
1001
ACAD
1000
DSTYLE
1002
{
1070
   271
1070
     2
1002
}
  0
LINE
  5
B0A
330
18
100
AcDbEntity
  8
隠れ線2
100
AcDbLine
 10
-100.4118264945702
 20
157.3388548154308
 30
0.0
 11
-100.4118264945702
 21
139.3388548154308
 31
0.0
  0
LINE
  5
B0B
330
18
100
AcDbEntity
  8
隠れ線2
100
AcDbLine
 10
-92.41182649457043
 20
157.3388548154308
 30
0.0
 11
-92.41182649457041
 21
139.3388548154308
 31
0.0
  0
LINE
  5
B0E
330
18
100
AcDbEntity
  8
中心線
100
AcDbLine
 10
5.933545111875673
 20
149.3388548154308
 30
0.0
 11
11.49038737614007
 21
149.3388548154308
 31
0.0
  0
LINE
  5
B0F
330
18
100
AcDbEntity
  8
中心線
100
AcDbLine
 10
5.933545111875673
 20
154.3388548154308
 30
0.0
 11
11.49038737614007
 21
154.3388548154308
 31
0.0
  0
LINE
  5
B1F
330
18
100
AcDbEntity
  8
中心線
100
AcDbLine
 10
8.739189978675995
 20
156.1529364178272
 30
0.0
 11
8.739189978675995
 21
147.2211609358338
 31
0.0
  0
ELLIPSE
  5
B24
330
18
100
AcDbEntity
  8
外形線
100
AcDbEllipse
 10
8.739189978675995
 20
154.3388548154308
 30
0.0
 11
0.0
 21
1.5
 31
0.0
210
0.0
220
0.0
230
1.0
 40
0.4666666666666662
 41
0.0
 42
6.283185307179586
  0
ELLIPSE
  5
B29
330
18
100
AcDbEntity
  8
寸法線
100
AcDbEllipse
 10
8.739189978675995
 20
154.3388548154308
 30
0.0
 11
0.0
 21
0.9000000000000056
 31
0.0
210
0.0
220
0.0
230
1.0
 40
0.555555555555552
 41
0.0
 42
6.283185307179586
  0
ELLIPSE
  5
B2A
330
18
100
AcDbEntity
  8
寸法線
100
AcDbEllipse
 10
8.739189978675995
 20
149.3388548154308
 30
0.0
 11
0.0
 21
0.9000000000000056
 31
0.0
210
0.0
220
0.0
230
1.0
 40
0.555555555555552
 41
0.0
 42
6.283185307179586
  0
ELLIPSE
  5
B2B
330
18
100
AcDbEntity
  8
外形線
100
AcDbEllipse
 10
8.739189978675995
 20
149.3388548154308
 30
0.0
 11
0.0
 21
1.5
 31
0.0
210
0.0
220
0.0
230
1.0
 40
0.4666666666666662
 41
0.0
 42
6.283185307179586
  0
LINE
  5
B2E
330
18
100
AcDbEntity
  8
外形線
100
AcDbLine
 10
9.489189978675995
 20
157.1297124726765
 30
0.0
 11
7.989189978676023
 21
157.1297124726765
 31
0.0
  0
LINE
  5
B2F
330
18
100
AcDbEntity
  8
想像線
100
AcDbLine
 10
171.989189978676
 20
152.401255410045
 30
0.0
 11
171.989189978676
 21
53.60225038167403
 31
0.0
  0
DIMENSION
  5
B4A
330
18
100
AcDbEntity
  8
寸法線
100
AcDbDimension
  2
*D5
 10
1.989189978675991
 20
49.10727461871499
 30
0.0
 11
122.1251209774308
 21
50.98227461871499
 31
0.0
 70
    32
  1
240
 71
     5
 42
-1.0
  3
STYLE3
100
AcDbAlignedDimension
 13
242.2610519761857
 23
99.47256398698037
 33
0.0
 14
1.989189978675992
 24
57.5963887717927
 34
0.0
100
AcDbRotatedDimension
1001
ACAD
1000
DSTYLE
1002
{
1070
   271
1070
     2
1002
}
  0
DIMENSION
  5
B62
330
18
100
AcDbEntity
  8
寸法線
100
AcDbDimension
  2
*D6
 10
-31.51494291452457
 20
182.8388548154308
 30
0.0
 11
-33.38994291452457
 21
203.5888548154308
 31
0.0
 70
    32
 71
     5
 42
-1.0
  3
STYLE3
100
AcDbAlignedDimension
 13
1.989189978675995
 23
224.3388548154308
 33
0.0
 14
-27.71240868165194
 24
182.8388548154308
 34
0.0
 50
90.0
100
AcDbRotatedDimension
1001
ACAD
1000
DSTYLE
1002
{
1070
   271
1070
     2
1002
}
  0
DIMENSION
  5
B6F
330
18
100
AcDbEntity
  8
寸法線
100
AcDbDimension
  2
*D7
 10
-31.51494291452457
 20
139.3388548154308
 30
0.0
 11
-33.38994291452458
 21
161.0888548154308
 31
0.0
 70
    32
 71
     5
 42
-1.0
  3
STYLE3
100
AcDbAlignedDimension
 13
-27.71240868165194
 23
182.8388548154308
 33
0.0
 14
-3.510810021324004
 24
139.3388548154308
 34
0.0
 50
90.0
100
AcDbRotatedDimension
1001
ACAD
1000
DSTYLE
1002
{
1070
    75
1070
     1
1070
   271
1070
     2
1070
   279
1070
     1
1002
}
  0
DIMENSION
  5
B7B
330
18
100
AcDbEntity
  8
寸法線
100
AcDbDimension
  2
*D8
 10
-31.51494291452457
 20
115.8388548154308
 30
0.0
 11
-33.38994291452458
 21
127.5888548154308
 31
0.0
 70
    32
 71
     5
 42
-1.0
  3
STYLE3
100
AcDbAlignedDimension
 13
-3.510810021324004
 23
139.3388548154308
 33
0.0
 14
-3.510810021324004
 24
115.8388548154308
 34
0.0
 50
90.0
100
AcDbRotatedDimension
1001
ACAD
1000
DSTYLE
1002
{
1070
    75
1070
     1
1070
   271
1070
     2
1070
   279
1070
     1
1002
}
  0
DIMENSION
  5
B87
330
18
100
AcDbEntity
  8
寸法線
100
AcDbDimension
  2
*D9
 10
-31.51494291452457
 20
100.8388548154308
 30
0.0
 11
-33.38994291452458
 21
108.3388548154308
 31
0.0
 70
    32
 71
     5
 42
-1.0
  3
STYLE3
100
AcDbAlignedDimension
 13
-3.510810021324004
 23
115.8388548154308
 33
0.0
 14
-3.510810021324004
 24
100.8388548154308
 34
0.0
 50
90.0
100
AcDbRotatedDimension
1001
ACAD
1000
DSTYLE
1002
{
1070
    75
1070
     1
1070
   271
1070
     2
1070
   279
1070
     1
1002
}
  0
LINE
  5
B97
330
18
100
AcDbEntity
  8
0
  6
ByBlock
 62
     2
100
AcDbLine
 10
-11.17035479205606
 20
115.8388548154308
 30
0.0
 11
-13.12242377583061
 21
115.8388548154308
 31
0.0
  0
LINE
  5
B98
330
18
100
AcDbEntity
  8
0
  6
ByBlock
 62
     2
100
AcDbLine
 10
1.989189978675995
 20
119.3388548154308
 30
0.0
 11
-13.12242377583061
 21
119.3388548154308
 31
0.0
  0
LINE
  5
B99
330
18
100
AcDbEntity
  8
0
  6
ByBlock
 62
     2
100
AcDbLine
 10
-11.87242377583061
 20
113.3388548154308
 30
0.0
 11
-11.87242377583061
 21
110.8388548154308
 31
0.0
  0
LINE
  5
B9A
330
18
100
AcDbEntity
  8
0
  6
ByBlock
 62
     2
100
AcDbLine
 10
-11.87242377583061
 20
121.8388548154307
 30
0.0
 11
-11.87242377583061
 21
126.8388548154308
 31
0.0
  0
LINE
  5
B9B
330
18
100
AcDbEntity
  8
0
  6
ByBlock
 62
     2
100
AcDbLine
 10
-11.87242377583061
 20
115.8388548154308
 30
0.0
 11
-11.87242377583061
 21
119.3388548154308
 31
0.0
  0
INSERT
  5
B9C
330
18
100
AcDbEntity
  8
0
  6
ByBlock
 62
     2
100
AcDbBlockReference
  2
_OPEN
 10
-11.87242377583061
 20
115.8388548154308
 30
0.0
 41
2.5
 42
2.5
 43
2.5
 50
90.0
  0
INSERT
  5
B9D
330
18
100
AcDbEntity
  8
0
  6
ByBlock
 62
     2
100
AcDbBlockReference
  2
_OPEN
 10
-11.87242377583061
 20
119.3388548154308
 30
0.0
 41
2.5
 42
2.5
 43
2.5
 50
270.0
  0
MTEXT
  5
B9E
330
18
100
AcDbEntity
  8
0
  6
ByBlock
 62
     6
100
AcDbMText
 10
-9.662662707195522
 20
112.7192281322809
 30
0.0
 40
2.5
 41
0.0
 71
     5
 72
     1
  1
\A1;3.5
  7
STYLE3
 11
0.0000000000000001
 21
1.0
 31
0.0
 73
     1
 44
1.0
  0
POINT
  5
B9F
330
18
100
AcDbEntity
  8
DEFPOINTS
  6
ByBlock
 62
     0
100
AcDbPoint
 10
-11.17035479205606
 20
115.8388548154308
 30
0.0
  0
POINT
  5
BA0
330
18
100
AcDbEntity
  8
DEFPOINTS
  6
ByBlock
 62
     0
100
AcDbPoint
 10
1.989189978675995
 20
119.3388548154308
 30
0.0
  0
POINT
  5
BA1
330
18
100
AcDbEntity
  8
DEFPOINTS
  6
ByBlock
 62
     0
100
AcDbPoint
 10
-11.87242377583061
 20
119.3388548154308
 30
0.0
  0
LINE
  5
BA2
330
18
100
AcDbEntity
  8
寸法線
100
AcDbLine
 10
-0.260810021324005
 20
126.8388548154308
 30
0.0
 11
-12.95743788817503
 21
126.8388548154308
 31
0.0
  0
INSERT
  5
BA3
330
18
100
AcDbEntity
  8
0
  6
ByBlock
 62
     2
100
AcDbBlockReference
  2
_OPEN
 10
-11.87242377583061
 20
126.8388548154308
 30
0.0
 41
2.5
 42
2.5
 43
2.5
 50
90.0
  0
MTEXT
  5
BA4
330
18
100
AcDbEntity
  8
0
  6
ByBlock
 62
     6
100
AcDbMText
 10
-13.81124813538031
 20
123.3087991991319
 30
0.0
 40
2.5
 41
0.0
 71
     5
 72
     1
  1
7.5
  7
STYLE3
 11
0.0000000000000001
 21
1.0
 31
0.0
 73
     1
 44
1.0
  0
DIMENSION
  5
BBB
330
18
100
AcDbEntity
  8
寸法線
100
AcDbDimension
  2
*D10
 10
-81.76916469371803
 20
59.47256398698036
 30
0.0
 11
-83.64416469371803
 21
80.15570940120559
 31
0.0
 70
    32
  1
41
 71
     5
 42
-1.0
  3
STYLE3
100
AcDbAlignedDimension
 13
-90.91182649457039
 23
100.8388548154308
 33
0.0
 14
-96.41182649457039
 24
59.47256398698036
 34
0.0
 50
90.0
100
AcDbRotatedDimension
1001
ACAD
1000
DSTYLE
1002
{
1070
   271
1070
     2
1002
}
  0
POINT
  5
BD6
330
18
100
AcDbEntity
  8
DEFPOINTS
  6
ByBlock
 62
     0
100
AcDbPoint
 10
2.759977018697369
 20
118.9759476963635
 30
0.0
  0
POINT
  5
BD7
330
18
100
AcDbEntity
  8
DEFPOINTS
  6
ByBlock
 62
     0
100
AcDbPoint
 10
1.989189978675995
 20
118.3388548154308
 30
0.0
  0
LINE
  5
BD9
330
18
100
AcDbEntity
  8
0
  6
ByBlock
 62
     2
100
AcDbLine
 10
1.989189978675994
 20
95.92994043614543
 30
0.0
 11
1.989189978675992
 21
57.5963887717927
 31
0.0
  0
LINE
  5
BDA
330
18
100
AcDbEntity
  8
0
  6
ByBlock
 62
     2
100
AcDbLine
 10
171.989189978676
 20
59.59555139895257
 30
0.0
 11
171.989189978676
 21
57.5963887717927
 31
0.0
  0
LINE
  5
BDB
330
18
100
AcDbEntity
  8
0
  6
ByBlock
 62
     2
100
AcDbLine
 10
4.489189978675992
 20
58.8463887717927
 30
0.0
 11
169.489189978676
 21
58.8463887717927
 31
0.0
  0
INSERT
  5
BDC
330
18
100
AcDbEntity
  8
0
  6
ByBlock
 62
     2
100
AcDbBlockReference
  2
_OPEN
 10
1.989189978675992
 20
58.8463887717927
 30
0.0
 41
2.5
 42
2.5
 43
2.5
 50
180.0
  0
INSERT
  5
BDD
330
18
100
AcDbEntity
  8
0
  6
ByBlock
 62
     2
100
AcDbBlockReference
  2
_OPEN
 10
171.989189978676
 20
58.8463887717927
 30
0.0
 41
2.5
 42
2.5
 43
2.5
  0
MTEXT
  5
BDE
330
18
100
AcDbEntity
  8
0
  6
ByBlock
 62
     6
100
AcDbMText
 10
86.98918997867599
 20
60.7213887717927
 30
0.0
 40
2.5
 41
0.0
 71
     5
 72
     1
  1
\A1;170
  7
STYLE3
 73
     1
 44
1.0
  0
POINT
  5
BDF
330
18
100
AcDbEntity
  8
DEFPOINTS
  6
ByBlock
 62
     0
100
AcDbPoint
 10
1.989189978675994
 20
95.92994043614543
 30
0.0
  0
POINT
  5
BE0
330
18
100
AcDbEntity
  8
DEFPOINTS
  6
ByBlock
 62
     0
100
AcDbPoint
 10
171.989189978676
 20
59.59555139895257
 30
0.0
  0
POINT
  5
BE1
330
18
100
AcDbEntity
  8
DEFPOINTS
  6
ByBlock
 62
     0
100
AcDbPoint
 10
171.989189978676
 20
58.8463887717927
 30
0.0
  0
LINE
  5
C2F
330
18
100
AcDbEntity
  8
外形線
100
AcDbLine
 10
-91.91182649457038
 20
76.08308783138138
 30
0.0
 11
-92.16182649457037
 21
76.08308783138136
 31
0.0
  0
ARC
  5
C30
330
18
100
AcDbEntity
  8
外形線
100
AcDbCircle
 10
-100.9118264945704
 20
77.08308783138139
 30
0.0
 40
1.0
100
AcDbArc
 50
180.0
 51
270.0
  0
ARC
  5
C31
330
18
100
AcDbEntity
  8
外形線
100
AcDbCircle
 10
-91.91182649457038
 20
77.08308783138138
 30
0.0
 40
1.0
100
AcDbArc
 50
270.0
 51
0.0
  0
LINE
  5
C33
330
18
100
AcDbEntity
  8
外形線
100
AcDbLine
 10
-98.66182649457041
 20
74.0830878313814
 30
0.0
 11
-98.66182649457039
 21
61.72256398698035
 31
0.0
  0
LINE
  5
C34
330
18
100
AcDbEntity
  8
外形線
100
AcDbLine
 10
-94.16182649457038
 20
74.08308783138136
 30
0.0
 11
-94.1618264945704
 21
61.72256398698035
 31
0.0
  0
LINE
  5
C36
330
18
100
AcDbEntity
  8
外形線
100
AcDbLine
 10
-100.6618264945704
 20
76.08308783138141
 30
0.0
 11
-100.9118264945704
 21
76.08308783138139
 31
0.0
  0
ARC
  5
C37
330
18
100
AcDbEntity
  8
外形線
100
AcDbCircle
 10
-100.6618264945704
 20
74.0830878313814
 30
0.0
 40
2.0
100
AcDbArc
 50
0.0
 51
90.0
  0
ARC
  5
C38
330
18
100
AcDbEntity
  8
外形線
100
AcDbCircle
 10
-92.16182649457037
 20
74.08308783138136
 30
0.0
 40
2.0
100
AcDbArc
 50
89.99999999999976
 51
180.0
  0
TEXT
  5
CB2
330
18
100
AcDbEntity
  8
文字
100
AcDbText
 10
5.918351715967389
 20
182.3327706813347
 30
0.0
 40
1.0
  1
0.01mm
  7
STYLE3
100
AcDbText
  0
LINE
  5
DCA
330
18
100
AcDbEntity
  8
外形線
100
AcDbLine
 10
3.596267011032844
 20
259.738290747658
 30
0.0
 11
111.5962670110328
 21
259.738290747658
 31
0.0
  0
LINE
  5
DCB
330
18
100
AcDbEntity
  8
外形線
100
AcDbLine
 10
3.596267011032844
 20
258.738290747658
 30
0.0
 11
111.5962670110328
 21
258.738290747658
 31
0.0
  0
TEXT
  5
DCC
330
18
100
AcDbEntity
  8
文字
100
AcDbText
 10
3.822870011032843
 20
262.004567747658
 30
0.0
 40
4.0
  1
Model No.H-2 Dial Thickness Gauge
  7
STYLE3
100
AcDbText
  0
LINE
  5
DCE
330
18
100
AcDbEntity
  8
外形線
100
AcDbLine
 10
113.4421820110328
 20
20.76371374765806
 30
0.0
 11
254.2336000110328
 21
20.76371374765806
 31
0.0
  0
LINE
  5
DCF
330
18
100
AcDbEntity
  8
外形線
100
AcDbLine
 10
113.4421820110328
 20
9.983507747658061
 30
0.0
 11
254.2336000110328
 21
9.983507747658061
 31
0.0
  0
TEXT
  5
DD0
330
18
100
AcDbEntity
  8
0
  6
Continuous
100
AcDbText
 10
114.8996490110328
 20
11.88149774765806
 30
0.0
 40
2.1
  1
Design and specifications are subject to change without notice for future improvement.
  7
STYLE3
100
AcDbText
  0
TEXT
  5
DD1
330
18
100
AcDbEntity
  8
0
  6
Continuous
100
AcDbText
 10
115.1911430110328
 20
15.81064574765806
 30
0.0
 40
3.5
  1
仕様及び外観は予告なく変更される場合がございますのでご了承下さい。
  7
STYLE3
100
AcDbText
  0
TEXT
  5
DD2
330
18
100
AcDbEntity
  8
0
  6
Continuous
100
AcDbText
 10
114.6081580110328
 20
2.116869747658061
 30
0.0
 40
2.1
  1
3RD Angle Projection
  7
STYLE3
100
AcDbText
  0
TEXT
  5
DD3
330
18
100
AcDbEntity
  8
0
  6
Continuous
100
AcDbText
 10
117.2316010110328
 20
5.613152747658062
 30
0.0
 40
3.0
  1
三　　角　　法
  7
STYLE3
100
AcDbText
  0
LINE
  5
DD4
330
18
100
AcDbEntity
  8
外形線
100
AcDbLine
 10
113.4421820110328
 20
0.3687297476580615
 30
0.0
 11
113.4421820110328
 21
20.76371374765806
 31
0.0
  0
LINE
  5
DD5
330
18
100
AcDbEntity
  8
外形線
100
AcDbLine
 10
215.4649490110328
 20
9.983507747658061
 30
0.0
 11
215.4649490110328
 21
0.3687297476580615
 31
0.0
  0
LINE
  5
DD6
330
18
100
AcDbEntity
  8
外形線
100
AcDbLine
 10
185.7325990110328
 20
9.983507747658061
 30
0.0
 11
185.7325990110328
 21
0.3687297476580615
 31
0.0
  0
LINE
  5
DD7
330
18
100
AcDbEntity
  8
外形線
100
AcDbLine
 10
166.2025270110328
 20
9.983507747658061
 30
0.0
 11
166.2025270110328
 21
0.3687297476580615
 31
0.0
  0
LINE
  5
DD8
330
18
100
AcDbEntity
  8
外形線
100
AcDbLine
 10
148.7129100110328
 20
9.983507747658061
 30
0.0
 11
148.7129100110328
 21
0.3687297476580615
 31
0.0
  0
TEXT
  5
DD9
330
18
100
AcDbEntity
  8
0
  6
Continuous
100
AcDbText
 10
150.1703790110328
 20
5.619107747658061
 30
0.0
 40
3.0
  1
単位
  7
STYLE3
100
AcDbText
  0
TEXT
  5
DDA
330
18
100
AcDbEntity
  8
0
  6
Continuous
100
AcDbText
 10
150.3421000110328
 20
2.116870747658061
 30
0.0
 40
2.1
  1
Unit
  7
STYLE3
100
AcDbText
  0
TEXT
  5
DDB
330
18
100
AcDbEntity
  8
0
  6
Continuous
100
AcDbText
 10
167.4882750110328
 20
5.327749747658061
 30
0.0
 40
3.0
  1
尺 度
  7
STYLE3
100
AcDbText
  0
TEXT
  5
DDC
330
18
100
AcDbEntity
  8
0
  6
Continuous
100
AcDbText
 10
158.2124270110328
 20
3.865013747658061
 30
0.0
 40
2.399999999999999
  1
mm
  7
STYLE3
100
AcDbText
  0
TEXT
  5
DDD
330
18
100
AcDbEntity
  8
0
  6
Continuous
100
AcDbText
 10
167.9514900110328
 20
2.408227747658061
 30
0.0
 40
2.1
  1
Scale
  7
STYLE3
100
AcDbText
  0
TEXT
  5
DDE
330
18
100
AcDbEntity
  8
0
  6
Continuous
100
AcDbText
 10
177.5707790110328
 20
4.156370747658061
 30
0.0
 40
2.399999999999999
  1
1/1
  7
STYLE3
100
AcDbText
  0
TEXT
  5
DDF
330
18
100
AcDbEntity
  8
0
  6
Continuous
100
AcDbText
 10
187.6645500110328
 20
2.116871747658061
 30
0.0
 40
2.1
  1
Date
  7
STYLE3
100
AcDbText
  0
TEXT
  5
DE0
330
18
100
AcDbEntity
  8
0
  6
Continuous
100
AcDbText
 10
187.2811890110328
 20
5.449954747658061
 30
0.0
 40
3.0
  1
日 付
  7
STYLE3
100
AcDbText
  0
TEXT
  5
DE1
330
18
100
AcDbEntity
  8
0
  6
Continuous
100
AcDbText
 10
196.4093580110328
 20
3.865012747658061
 30
0.0
 40
2.1
  1
2010.06.10
  7
STYLE3
100
AcDbText
  0
TEXT
  5
DE2
330
18
100
AcDbEntity
  8
0
  6
Continuous
100
AcDbText
 10
216.8139120110328
 20
5.904509747658061
 30
0.0
 40
3.0
  1
株式会社　尾崎製作所
  7
STYLE3
100
AcDbText
  0
TEXT
  5
DE3
330
18
100
AcDbEntity
  8
0
  6
Continuous
100
AcDbText
 10
217.6883910110328
 20
2.116870747658061
 30
0.0
 40
2.1
  1
OZAKI MFG. CO., LTD.
  7
STYLE3
100
AcDbText
  0
VIEWPORT
  5
177
330
15
100
AcDbEntity
 67
     1
  8
0
100
AcDbViewport
 10
127.5041203589828
 20
97.49391214526822
 30
0.0
 40
418.3086347473814
 41
243.0346063651093
 68
     1
 69
     1
 12
127.5041203589828
 22
97.49391214526822
 13
0.0
 23
0.0
 14
10.0
 24
10.0
 15
10.0
 25
10.0
 16
0.0
 26
0.0
 36
1.0
 17
0.0
 27
0.0
 37
0.0
 42
50.0
 43
0.0
 44
0.0
 45
243.0346063651093
 50
0.0
 51
0.0
 72
   100
 90
    32800
  1

281
     0
 71
     1
 74
     0
110
0.0
120
0.0
130
0.0
111
1.0
121
0.0
131
0.0
112
0.0
122
1.0
132
0.0
 79
     0
146
0.0
170
     0
  0
ENDSEC
  0
SECTION
  2
OBJECTS
  0
DICTIONARY
  5
C
330
0
100
AcDbDictionary
281
     1
  3
ACAD_COLOR
350
CFA
  3
ACAD_GROUP
350
D
  3
ACAD_LAYOUT
350
CFD
  3
ACAD_MATERIAL
350
CF9
  3
ACAD_MLINESTYLE
350
1B
  3
ACAD_PLOTSETTINGS
350
CFE
  3
ACAD_PLOTSTYLENAME
350
CF7
  3
ACAD_TABLESTYLE
350
CFB
  3
AcDbVariableDictionary
350
D14
  0
DICTIONARY
  5
CFA
102
{ACAD_REACTORS
330
C
102
}
330
C
100
AcDbDictionary
281
     1
  0
DICTIONARY
  5
D
102
{ACAD_REACTORS
330
C
102
}
330
C
100
AcDbDictionary
281
     1
  0
DICTIONARY
  5
CFD
102
{ACAD_REACTORS
330
C
102
}
330
C
100
AcDbDictionary
281
     1
  3
Model
350
CFF
  3
レイアウト1
350
D00
  0
DICTIONARY
  5
CF9
102
{ACAD_REACTORS
330
C
102
}
330
C
100
AcDbDictionary
281
     1
  0
DICTIONARY
  5
1B
102
{ACAD_REACTORS
330
C
102
}
330
C
100
AcDbDictionary
281
     1
  3
STANDARD
350
1C
  0
DICTIONARY
  5
CFE
102
{ACAD_REACTORS
330
C
102
}
330
C
100
AcDbDictionary
281
     1
  0
ACDBDICTIONARYWDFLT
  5
CF7
102
{ACAD_REACTORS
330
C
102
}
330
C
100
AcDbDictionary
281
     1
  3
Normal
350
CF8
100
AcDbDictionaryWithDefault
340
CF8
  0
DICTIONARY
  5
CFB
102
{ACAD_REACTORS
330
C
102
}
330
C
100
AcDbDictionary
281
     1
  3
Standard
350
CFC
  0
DICTIONARY
  5
D14
102
{ACAD_REACTORS
330
C
102
}
330
C
100
AcDbDictionary
281
     1
  3
CTABLESTYLE
350
D15
  0
LAYOUT
  5
CFF
102
{ACAD_REACTORS
330
CFD
102
}
330
CFD
100
AcDbPlotSettings
  1

  2
WIDR Printer
  4

  6

 40
0.0
 41
0.0
 42
0.0
 43
0.0
 44
0.0
 45
0.0
 46
0.0
 47
0.0
 48
0.0
 49
0.0
140
0.0
141
0.0
142
1.0
143
1.0
 70
  1712
 72
     0
 73
     0
 74
     0
  7
AutoCad LT 98.ctb
 75
     0
147
1.0
 76
     0
 77
     2
 78
   300
148
0.0
149
0.0
100
AcDbLayout
  1
Model
 70
     1
 71
     0
 10
0.0
 20
0.0
 11
12.0
 21
9.0
 12
0.0
 22
0.0
 32
0.0
 14
0.0
 24
0.0
 34
0.0
 15
0.0
 25
0.0
 35
0.0
146
0.0
 13
0.0
 23
0.0
 33
0.0
 16
1.0
 26
0.0
 36
0.0
 17
0.0
 27
1.0
 37
0.0
 76
     0
330
18
  0
LAYOUT
  5
D00
102
{ACAD_REACTORS
330
CFD
102
}
330
CFD
100
AcDbPlotSettings
  1

  2
WIDR Printer
  4

  6

 40
0.0
 41
0.0
 42
0.0
 43
0.0
 44
0.0
 45
0.0
 46
0.0
 47
0.0
 48
0.0
 49
0.0
140
0.0
141
0.0
142
1.0
143
1.0
 70
   688
 72
     0
 73
     0
 74
     5
  7
AutoCad LT 98.ctb
 75
    16
147
1.0
 76
     0
 77
     2
 78
   300
148
0.0
149
0.0
100
AcDbLayout
  1
レイアウト1
 70
     1
 71
     1
 10
0.0
 20
0.0
 11
420.0
 21
297.0
 12
0.0
 22
0.0
 32
0.0
 14
-0.2
 24
-0.2
 34
0.0
 15
255.2
 25
195.2
 35
0.0
146
0.0
 13
0.0
 23
0.0
 33
0.0
 16
1.0
 26
0.0
 36
0.0
 17
0.0
 27
1.0
 37
0.0
 76
     0
330
15
331
177
  0
MLINESTYLE
  5
1C
102
{ACAD_REACTORS
330
1B
102
}
330
1B
100
AcDbMlineStyle
  2
STANDARD
 70
     0
  3

 62
   256
 51
90.0
 52
90.0
 71
     2
 49
0.5
 62
   256
  6
BYLAYER
 49
-0.5
 62
   256
  6
BYLAYER
  0
ACDBPLACEHOLDER
  5
CF8
102
{ACAD_REACTORS
330
CF7
102
}
330
CF7
  0
ACAD_PROXY_OBJECT
  5
CFC
102
{ACAD_REACTORS
330
CFB
102
}
330
CFB
100
AcDbProxyObject
 90
      499
 91
      502
 95
  2555929
 70
     0
 93
     1841
310
4214DD185B99185C9928B81E85EB51B8AE3F2E07A17AD46E2B8FC02B5E8DC0F42B1CFD028000000C1008070000C3001FDFF8000000C1003FBFF000000182007F7FE00000030400FEFFC00000060801FDFF8000000C1003FBFF00000018200000000000000681FA0B0000001820100E000186003FBFF000000182007F7FE000
310
00030400FEFFC00000060801FDFF8000000C1003FBFF000000182007F7FE000000304000AD7A3703D0AC73F4160000003040201C00030C007F7FE00000030400FEFFC00000060801FDFF8000000C1003FBFF000000182007F7FE00000030400FEFFC000000608000
340
F
340
F
340
F
 94
        0
  0
DICTIONARYVAR
  5
D15
102
{ACAD_REACTORS
330
D14
102
}
330
D14
100
DictionaryVariables
280
     0
  1
STANDARD
  0
ENDSEC
  0
EOF
