  0
SECTION
  2
HEADER
  9
$ACADVER
  1
AC1018
  9
$ACADMAINTVER
 70
     0
  9
$DWGCODEPAGE
  3
ANSI_932
  9
$INSBASE
 10
0.0
 20
0.0
 30
0.0
  9
$EXTMIN
 10
-8.78766162322222
 20
-0.4276755521227642
 30
-0.0000762823025902
  9
$EXTMAX
 10
562.1870282985078
 20
362.4043636849333
 30
1.000000004657181
  9
$LIMMIN
 10
0.0
 20
0.0
  9
$LIMMAX
 10
420.0
 20
297.0
  9
$ORTHOMODE
 70
     0
  9
$REGENMODE
 70
     1
  9
$FILLMODE
 70
     1
  9
$QTEXTMODE
 70
     0
  9
$MIRRTEXT
 70
     1
  9
$LTSCALE
 40
1.0
  9
$ATTMODE
 70
     1
  9
$TEXTSIZE
 40
3.0
  9
$TRACEWID
 40
1.0
  9
$TEXTSTYLE
  7
STYLE3
  9
$CLAYER
  8
寸法線
  9
$CELTYPE
  6
BYLAYER
  9
$CECOLOR
 62
   256
  9
$CELTSCALE
 40
1.0
  9
$DISPSILH
 70
     0
  9
$DIMSCALE
 40
1.0
  9
$DIMASZ
 40
2.5
  9
$DIMEXO
 40
0.0
  9
$DIMDLI
 40
3.75
  9
$DIMRND
 40
0.0
  9
$DIMDLE
 40
0.0
  9
$DIMEXE
 40
1.25
  9
$DIMTP
 40
0.0
  9
$DIMTM
 40
0.0
  9
$DIMTXT
 40
2.5
  9
$DIMCEN
 40
2.5
  9
$DIMTSZ
 40
0.0
  9
$DIMTOL
 70
     0
  9
$DIMLIM
 70
     0
  9
$DIMTIH
 70
     0
  9
$DIMTOH
 70
     0
  9
$DIMSE1
 70
     0
  9
$DIMSE2
 70
     0
  9
$DIMTAD
 70
     1
  9
$DIMZIN
 70
     8
  9
$DIMBLK
  1

  9
$DIMASO
 70
     1
  9
$DIMSHO
 70
     1
  9
$DIMPOST
  1

  9
$DIMAPOST
  1

  9
$DIMALT
 70
     0
  9
$DIMALTD
 70
     4
  9
$DIMALTF
 40
0.0394
  9
$DIMLFAC
 40
1.0
  9
$DIMTOFL
 70
     1
  9
$DIMTVP
 40
0.0
  9
$DIMTIX
 70
     0
  9
$DIMSOXD
 70
     0
  9
$DIMSAH
 70
     1
  9
$DIMBLK1
  1
OPEN
  9
$DIMBLK2
  1
OPEN
  9
$DIMSTYLE
  2
STYLE3
  9
$DIMCLRD
 70
     2
  9
$DIMCLRE
 70
     2
  9
$DIMCLRT
 70
     6
  9
$DIMTFAC
 40
1.0
  9
$DIMGAP
 40
0.625
  9
$DIMJUST
 70
     0
  9
$DIMSD1
 70
     0
  9
$DIMSD2
 70
     0
  9
$DIMTOLJ
 70
     1
  9
$DIMTZIN
 70
     0
  9
$DIMALTZ
 70
     0
  9
$DIMALTTZ
 70
     0
  9
$DIMUPT
 70
     0
  9
$DIMDEC
 70
     2
  9
$DIMTDEC
 70
     4
  9
$DIMALTU
 70
     8
  9
$DIMALTTD
 70
     4
  9
$DIMTXSTY
  7
STYLE3
  9
$DIMAUNIT
 70
     0
  9
$DIMADEC
 70
     0
  9
$DIMALTRND
 40
0.0
  9
$DIMAZIN
 70
     0
  9
$DIMDSEP
 70
    46
  9
$DIMATFIT
 70
     3
  9
$DIMFRAC
 70
     0
  9
$DIMLDRBLK
  1

  9
$DIMLUNIT
 70
     2
  9
$DIMLWD
 70
    -2
  9
$DIMLWE
 70
    -2
  9
$DIMTMOVE
 70
     0
  9
$LUNITS
 70
     2
  9
$LUPREC
 70
     4
  9
$SKETCHINC
 40
1.0
  9
$FILLETRAD
 40
1.0
  9
$AUNITS
 70
     0
  9
$AUPREC
 70
     0
  9
$MENU
  1
.
  9
$ELEVATION
 40
0.0
  9
$PELEVATION
 40
0.0
  9
$THICKNESS
 40
0.0
  9
$LIMCHECK
 70
     0
  9
$CHAMFERA
 40
0.5
  9
$CHAMFERB
 40
0.5
  9
$CHAMFERC
 40
20.0
  9
$CHAMFERD
 40
0.0
  9
$SKPOLY
 70
     0
  9
$TDCREATE
 40
2451674.575721412
  9
$TDUCREATE
 40
2451674.200721412
  9
$TDUPDATE
 40
2455364.434867974
  9
$TDUUPDATE
 40
2455364.059867974
  9
$TDINDWG
 40
0.3955991435
  9
$TDUSRTIMER
 40
0.3955991435
  9
$USRTIMER
 70
     1
  9
$ANGBASE
 50
0.0
  9
$ANGDIR
 70
     0
  9
$PDMODE
 70
     0
  9
$PDSIZE
 40
0.0
  9
$PLINEWID
 40
0.0
  9
$SPLFRAME
 70
     0
  9
$SPLINETYPE
 70
     6
  9
$SPLINESEGS
 70
     8
  9
$HANDSEED
  5
158F
  9
$SURFTAB1
 70
     6
  9
$SURFTAB2
 70
     6
  9
$SURFTYPE
 70
     6
  9
$SURFU
 70
     6
  9
$SURFV
 70
     6
  9
$UCSBASE
  2

  9
$UCSNAME
  2

  9
$UCSORG
 10
0.0
 20
0.0
 30
0.0
  9
$UCSXDIR
 10
1.0
 20
0.0
 30
0.0
  9
$UCSYDIR
 10
0.0
 20
1.0
 30
0.0
  9
$UCSORTHOREF
  2

  9
$UCSORTHOVIEW
 70
     0
  9
$UCSORGTOP
 10
0.0
 20
0.0
 30
0.0
  9
$UCSORGBOTTOM
 10
0.0
 20
0.0
 30
0.0
  9
$UCSORGLEFT
 10
0.0
 20
0.0
 30
0.0
  9
$UCSORGRIGHT
 10
0.0
 20
0.0
 30
0.0
  9
$UCSORGFRONT
 10
0.0
 20
0.0
 30
0.0
  9
$UCSORGBACK
 10
0.0
 20
0.0
 30
0.0
  9
$PUCSBASE
  2

  9
$PUCSNAME
  2

  9
$PUCSORG
 10
0.0
 20
0.0
 30
0.0
  9
$PUCSXDIR
 10
1.0
 20
0.0
 30
0.0
  9
$PUCSYDIR
 10
0.0
 20
1.0
 30
0.0
  9
$PUCSORTHOREF
  2

  9
$PUCSORTHOVIEW
 70
     0
  9
$PUCSORGTOP
 10
0.0
 20
0.0
 30
0.0
  9
$PUCSORGBOTTOM
 10
0.0
 20
0.0
 30
0.0
  9
$PUCSORGLEFT
 10
0.0
 20
0.0
 30
0.0
  9
$PUCSORGRIGHT
 10
0.0
 20
0.0
 30
0.0
  9
$PUCSORGFRONT
 10
0.0
 20
0.0
 30
0.0
  9
$PUCSORGBACK
 10
0.0
 20
0.0
 30
0.0
  9
$USERI1
 70
     0
  9
$USERI2
 70
     0
  9
$USERI3
 70
     0
  9
$USERI4
 70
     0
  9
$USERI5
 70
     0
  9
$USERR1
 40
0.0
  9
$USERR2
 40
0.0
  9
$USERR3
 40
0.0
  9
$USERR4
 40
0.0
  9
$USERR5
 40
0.0
  9
$WORLDVIEW
 70
     1
  9
$SHADEDGE
 70
     3
  9
$SHADEDIF
 70
    70
  9
$TILEMODE
 70
     1
  9
$MAXACTVP
 70
    48
  9
$PINSBASE
 10
0.0
 20
0.0
 30
0.0
  9
$PLIMCHECK
 70
     0
  9
$PEXTMIN
 10
1.000000000000000E+20
 20
1.000000000000000E+20
 30
1.000000000000000E+20
  9
$PEXTMAX
 10
-1.000000000000000E+20
 20
-1.000000000000000E+20
 30
-1.000000000000000E+20
  9
$PLIMMIN
 10
0.0
 20
0.0
  9
$PLIMMAX
 10
420.0
 20
297.0
  9
$UNITMODE
 70
     0
  9
$VISRETAIN
 70
     1
  9
$PLINEGEN
 70
     0
  9
$PSLTSCALE
 70
     1
  9
$TREEDEPTH
 70
  3020
  9
$CMLSTYLE
  2
STANDARD
  9
$CMLJUST
 70
     0
  9
$CMLSCALE
 40
20.0
  9
$PROXYGRAPHICS
 70
     1
  9
$MEASUREMENT
 70
     1
  9
$CELWEIGHT
370
    -1
  9
$ENDCAPS
280
     0
  9
$JOINSTYLE
280
     0
  9
$LWDISPLAY
290
     0
  9
$INSUNITS
 70
     0
  9
$HYPERLINKBASE
  1

  9
$STYLESHEET
  1
AutoCAD LT 98.ctb
  9
$XEDIT
290
     1
  9
$CEPSNTYPE
380
     0
  9
$PSTYLEMODE
290
     1
  9
$FINGERPRINTGUID
  2
{6BC50D86-CE27-4FEB-BDEB-5DDFF4BA71C1}
  9
$VERSIONGUID
  2
{27C1BF6D-CFA9-427C-B48C-30CE62AD8A82}
  9
$EXTNAMES
290
     1
  9
$PSVPSCALE
 40
0.0
  9
$OLESTARTUP
290
     0
  9
$SORTENTS
280
   127
  9
$INDEXCTL
280
     0
  9
$HIDETEXT
280
     0
  9
$XCLIPFRAME
290
     0
  9
$HALOGAP
280
     0
  9
$OBSCOLOR
 70
   257
  9
$OBSLTYPE
280
     0
  9
$INTERSECTIONDISPLAY
280
     0
  9
$INTERSECTIONCOLOR
 70
   257
  9
$DIMASSOC
280
     1
  9
$PROJECTNAME
  1

  0
ENDSEC
  0
SECTION
  2
CLASSES
  0
CLASS
  1
HATCH
  2
AcDbHatch
  3
ObjectDBX Classes
 90
        0
 91
       12
280
     0
281
     1
  0
CLASS
  1
LWPOLYLINE
  2
AcDbPolyline
  3
ObjectDBX Classes
 90
        0
 91
        4
280
     0
281
     1
  0
CLASS
  1
ACDBDICTIONARYWDFLT
  2
AcDbDictionaryWithDefault
  3
ObjectDBX Classes
 90
        0
 91
        1
280
     0
281
     0
  0
CLASS
  1
TABLESTYLE
  2
AcDbTableStyle
  3
ObjectDBX Classes
 90
     2047
 91
        1
280
     0
281
     0
  0
CLASS
  1
DICTIONARYVAR
  2
AcDbDictionaryVar
  3
ObjectDBX Classes
 90
        0
 91
        1
280
     0
281
     0
  0
ENDSEC
  0
SECTION
  2
TABLES
  0
TABLE
  2
VPORT
  5
8
330
0
100
AcDbSymbolTable
 70
     2
  0
VPORT
  5
158E
330
8
100
AcDbSymbolTableRecord
100
AcDbViewportTableRecord
  2
*Active
 70
     0
 10
0.0
 20
0.0
 11
1.0
 21
1.0
 12
276.6996833376428
 22
180.9883440664052
 13
0.0
 23
0.0
 14
10.0
 24
10.0
 15
10.0
 25
10.0
 16
0.0
 26
0.0
 36
1.0
 17
0.0
 27
0.0
 37
0.0
 40
374.9284134549482
 41
1.530456852791878
 42
50.0
 43
0.0
 44
0.0
 50
0.0
 51
0.0
 71
     0
 72
   100
 73
     1
 74
     1
 75
     0
 76
     0
 77
     0
 78
     0
281
     0
 65
     1
110
0.0
120
0.0
130
0.0
111
1.0
121
0.0
131
0.0
112
0.0
122
1.0
132
0.0
 79
     0
146
0.0
  0
ENDTAB
  0
TABLE
  2
LTYPE
  5
5
330
0
100
AcDbSymbolTable
 70
    12
  0
LTYPE
  5
12
330
5
100
AcDbSymbolTableRecord
100
AcDbLinetypeTableRecord
  2
BYBLOCK
 70
     0
  3

 72
    65
 73
     0
 40
0.0
  0
LTYPE
  5
13
330
5
100
AcDbSymbolTableRecord
100
AcDbLinetypeTableRecord
  2
BYLAYER
 70
     0
  3

 72
    65
 73
     0
 40
0.0
  0
LTYPE
  5
14
330
5
100
AcDbSymbolTableRecord
100
AcDbLinetypeTableRecord
  2
CONTINUOUS
 70
     0
  3
Solid line
 72
    65
 73
     0
 40
0.0
  0
LTYPE
  5
22
330
5
100
AcDbSymbolTableRecord
100
AcDbLinetypeTableRecord
  2
CENTER2
 70
     0
  3
Center (.5x) ___ _ ___ _ ___ _ ___ _ ___ _ ___
 72
    65
 73
     4
 40
28.575
 49
19.05
 74
     0
 49
-3.174999999999999
 74
     0
 49
3.174999999999999
 74
     0
 49
-3.174999999999999
 74
     0
  0
LTYPE
  5
23
330
5
100
AcDbSymbolTableRecord
100
AcDbLinetypeTableRecord
  2
HIDDEN2
 70
     0
  3
Hidden (.5x) _ _ _ _ _ _ _ _ _ _ _ _ _ _ _ _ _
 72
    65
 73
     2
 40
4.762499999999999
 49
3.174999999999999
 74
     0
 49
-1.587499999999999
 74
     0
  0
LTYPE
  5
24
330
5
100
AcDbSymbolTableRecord
100
AcDbLinetypeTableRecord
  2
PHANTOM2
 70
     0
  3
Phantom (.5x) ___ _ _ ___ _ _ ___ _ _ ___ _ _
 72
    65
 73
     6
 40
31.75
 49
15.875
 74
     0
 49
-3.174999999999999
 74
     0
 49
3.174999999999999
 74
     0
 49
-3.174999999999999
 74
     0
 49
3.174999999999999
 74
     0
 49
-3.174999999999999
 74
     0
  0
ENDTAB
  0
TABLE
  2
LAYER
  5
2
330
0
100
AcDbSymbolTable
 70
    16
  0
LAYER
  5
E
330
2
100
AcDbSymbolTableRecord
100
AcDbLayerTableRecord
  2
0
 70
     0
 62
     7
  6
CONTINUOUS
370
    -3
390
110D
  0
LAYER
  5
25
330
2
100
AcDbSymbolTableRecord
100
AcDbLayerTableRecord
  2
外形線
 70
     0
 62
     7
  6
CONTINUOUS
370
    -3
390
110D
  0
LAYER
  5
26
330
2
100
AcDbSymbolTableRecord
100
AcDbLayerTableRecord
  2
寸法線
 70
     0
 62
     2
  6
CONTINUOUS
370
    -3
390
110D
  0
LAYER
  5
27
330
2
100
AcDbSymbolTableRecord
100
AcDbLayerTableRecord
  2
中心線
 70
     0
 62
     4
  6
CENTER2
370
    -3
390
110D
  0
LAYER
  5
29
330
2
100
AcDbSymbolTableRecord
100
AcDbLayerTableRecord
  2
想像線
 70
     0
 62
     1
  6
PHANTOM2
370
    -3
390
110D
  0
LAYER
  5
2B
330
2
100
AcDbSymbolTableRecord
100
AcDbLayerTableRecord
  2
文字
 70
     0
 62
     6
  6
CONTINUOUS
370
    -3
390
110D
  0
LAYER
  5
2C
330
2
100
AcDbSymbolTableRecord
100
AcDbLayerTableRecord
  2
目盛
 70
     0
 62
    72
  6
CONTINUOUS
370
    -3
390
110D
  0
LAYER
  5
2D
330
2
100
AcDbSymbolTableRecord
100
AcDbLayerTableRecord
  2
針
 70
     0
 62
     5
  6
CONTINUOUS
370
    -3
390
110D
  0
LAYER
  5
53
330
2
100
AcDbSymbolTableRecord
100
AcDbLayerTableRecord
  2
DEFPOINTS
 70
     0
 62
     7
  6
CONTINUOUS
290
     0
370
    -3
390
110D
  0
LAYER
  5
A5
330
2
100
AcDbSymbolTableRecord
100
AcDbLayerTableRecord
  2
C
 70
     0
 62
     7
  6
CONTINUOUS
370
    -3
390
110D
  0
LAYER
  5
212
330
2
100
AcDbSymbolTableRecord
100
AcDbLayerTableRecord
  2
隠れ線2
 70
     0
 62
     1
  6
HIDDEN2
370
    -3
390
110D
  0
LAYER
  5
213
330
2
100
AcDbSymbolTableRecord
100
AcDbLayerTableRecord
  2
ROGO
 70
     0
 62
     6
  6
CONTINUOUS
370
    -3
390
110D
  0
ENDTAB
  0
TABLE
  2
STYLE
  5
3
330
0
100
AcDbSymbolTable
 70
     6
  0
STYLE
  5
F
330
3
100
AcDbSymbolTableRecord
100
AcDbTextStyleTableRecord
  2
STANDARD
 70
     0
 40
0.0
 41
1.0
 50
0.0
 71
     0
 42
2.5
  3
txt
  4

  0
STYLE
  5
3F
330
3
100
AcDbSymbolTableRecord
100
AcDbTextStyleTableRecord
  2
STYLE3
 70
     0
 40
0.0
 41
1.0
 50
0.0
 71
     0
 42
3.0
  3
romans.shx
  4
bigfont.shx
  0
ENDTAB
  0
TABLE
  2
VIEW
  5
6
330
0
100
AcDbSymbolTable
 70
     0
  0
ENDTAB
  0
TABLE
  2
UCS
  5
7
330
0
100
AcDbSymbolTable
 70
     0
  0
ENDTAB
  0
TABLE
  2
APPID
  5
9
330
0
100
AcDbSymbolTable
 70
     2
  0
APPID
  5
10
330
9
100
AcDbSymbolTableRecord
100
AcDbRegAppTableRecord
  2
ACAD
 70
     0
  0
APPID
  5
153F
330
9
100
AcDbSymbolTableRecord
100
AcDbRegAppTableRecord
  2
ACAD_PSEXT
 70
     0
  0
ENDTAB
  0
TABLE
  2
DIMSTYLE
  5
A
330
0
100
AcDbSymbolTable
 70
     4
100
AcDbDimStyleTable
 71
     1
340
8F
  0
DIMSTYLE
105
1D
330
A
100
AcDbSymbolTableRecord
100
AcDbDimStyleTableRecord
  2
STANDARD
 70
     0
 41
2.5
 42
0.625
 43
3.75
 44
1.25
 73
     0
 74
     0
 77
     1
 78
     8
140
2.5
141
2.5
143
0.0394
147
0.625
171
     4
172
     1
273
     8
274
     4
277
     6
340
F
  0
DIMSTYLE
105
8F
102
{ACAD_REACTORS
330
9A9
330
A3B
330
AB1
330
E11
330
FCC
330
1018
330
1024
330
1030
330
103C
330
1048
330
1088
330
1095
330
10A4
330
10DB
330
CEA
102
}
330
A
100
AcDbSymbolTableRecord
100
AcDbDimStyleTableRecord
  2
STYLE3
 70
     0
 41
2.5
 42
0.0
 43
3.75
 44
1.25
 73
     0
 74
     0
 77
     1
 78
     8
140
2.5
141
2.5
143
0.0394
147
0.625
171
     4
172
     1
173
     1
176
     2
177
     2
178
     6
271
     1
273
     8
274
     4
340
3F
341
45
343
45
344
45
  0
ENDTAB
  0
TABLE
  2
BLOCK_RECORD
  5
1
330
0
100
AcDbSymbolTable
 70
    37
  0
BLOCK_RECORD
  5
18
330
1
100
AcDbSymbolTableRecord
100
AcDbBlockTableRecord
  2
*MODEL_SPACE
340
1114
  0
BLOCK_RECORD
  5
15
330
1
100
AcDbSymbolTableRecord
100
AcDbBlockTableRecord
  2
*PAPER_SPACE
340
1115
  0
BLOCK_RECORD
  5
45
330
1
100
AcDbSymbolTableRecord
100
AcDbBlockTableRecord
  2
_OPEN
340
0
102
{BLKREFS
331
E0A
331
E0C
331
E8E
331
E9A
331
10C4
331
10C5
331
EE6
331
EE7
331
F39
331
F3A
331
EDB
331
EDC
331
BBF
331
BC0
331
CE3
331
CE5
331
10AB
331
10AC
331
E57
331
E65
331
FC5
331
FC6
331
1057
331
1058
331
1061
331
1062
331
104C
331
104D
331
1075
331
1076
331
106B
331
106C
331
1081
331
1082
331
10B6
331
10B7
331
109D
331
109E
331
10D4
331
10D5
331
14A9
331
14AA
331
14B4
331
14B5
331
14BD
331
14BE
331
14C5
331
14C6
331
14CD
331
14CE
331
14D5
331
14D6
331
14DD
331
14DE
331
14E6
331
14E7
331
14EF
331
14F0
331
14FA
331
14FB
331
1503
331
1504
331
150C
331
150D
331
1515
331
1516
331
151E
331
151F
102
}
  0
BLOCK_RECORD
  5
99D
330
1
100
AcDbSymbolTableRecord
100
AcDbBlockTableRecord
  2
*D3
340
0
  0
BLOCK_RECORD
  5
A2F
330
1
100
AcDbSymbolTableRecord
100
AcDbBlockTableRecord
  2
*D4
340
0
  0
BLOCK_RECORD
  5
AA5
330
1
100
AcDbSymbolTableRecord
100
AcDbBlockTableRecord
  2
*D6
340
0
  0
BLOCK_RECORD
  5
B64
330
1
100
AcDbSymbolTableRecord
100
AcDbBlockTableRecord
  2
ROGO
340
0
102
{BLKREFS
331
D54
331
C2D
102
}
  0
BLOCK_RECORD
  5
E12
330
1
100
AcDbSymbolTableRecord
100
AcDbBlockTableRecord
  2
*D10
340
0
  0
BLOCK_RECORD
  5
FBE
330
1
100
AcDbSymbolTableRecord
100
AcDbBlockTableRecord
  2
*D12
340
0
  0
BLOCK_RECORD
  5
100C
330
1
100
AcDbSymbolTableRecord
100
AcDbBlockTableRecord
  2
*D13
340
0
  0
BLOCK_RECORD
  5
1019
330
1
100
AcDbSymbolTableRecord
100
AcDbBlockTableRecord
  2
*D14
340
0
  0
BLOCK_RECORD
  5
1025
330
1
100
AcDbSymbolTableRecord
100
AcDbBlockTableRecord
  2
*D15
340
0
  0
BLOCK_RECORD
  5
1031
330
1
100
AcDbSymbolTableRecord
100
AcDbBlockTableRecord
  2
*D16
340
0
  0
BLOCK_RECORD
  5
103D
330
1
100
AcDbSymbolTableRecord
100
AcDbBlockTableRecord
  2
*D17
340
0
  0
BLOCK_RECORD
  5
107C
330
1
100
AcDbSymbolTableRecord
100
AcDbBlockTableRecord
  2
*D18
340
0
  0
BLOCK_RECORD
  5
1089
330
1
100
AcDbSymbolTableRecord
100
AcDbBlockTableRecord
  2
*D19
340
0
  0
BLOCK_RECORD
  5
1096
330
1
100
AcDbSymbolTableRecord
100
AcDbBlockTableRecord
  2
*D20
340
0
  0
BLOCK_RECORD
  5
10CF
330
1
100
AcDbSymbolTableRecord
100
AcDbBlockTableRecord
  2
*D21
340
0
  0
ENDTAB
  0
ENDSEC
  0
SECTION
  2
BLOCKS
  0
BLOCK
  5
19
330
18
100
AcDbEntity
  8
0
100
AcDbBlockBegin
  2
*MODEL_SPACE
 70
     0
 10
0.0
 20
0.0
 30
0.0
  3
*MODEL_SPACE
  1

  0
ENDBLK
  5
1A
330
18
100
AcDbEntity
  8
0
100
AcDbBlockEnd
  0
BLOCK
  5
16
330
15
100
AcDbEntity
 67
     1
  8
0
100
AcDbBlockBegin
  2
*PAPER_SPACE
 70
     0
 10
0.0
 20
0.0
 30
0.0
  3
*PAPER_SPACE
  1

  0
ENDBLK
  5
17
330
15
100
AcDbEntity
 67
     1
  8
0
100
AcDbBlockEnd
  0
BLOCK
  5
46
330
45
100
AcDbEntity
  8
0
100
AcDbBlockBegin
  2
_OPEN
 70
     0
 10
0.0
 20
0.0
 30
0.0
  3
_OPEN
  1

  0
LINE
  5
47
330
45
100
AcDbEntity
  8
0
  6
ByBlock
 62
     0
100
AcDbLine
 10
-1.0
 20
0.1666666666666666
 30
0.0
 11
0.0
 21
0.0
 31
0.0
  0
LINE
  5
48
330
45
100
AcDbEntity
  8
0
  6
ByBlock
 62
     0
100
AcDbLine
 10
0.0
 20
0.0
 30
0.0
 11
-1.0
 21
-0.1666666666666666
 31
0.0
  0
LINE
  5
49
330
45
100
AcDbEntity
  8
0
  6
ByBlock
 62
     0
100
AcDbLine
 10
0.0
 20
0.0
 30
0.0
 11
-1.0
 21
0.0
 31
0.0
  0
ENDBLK
  5
4A
330
45
100
AcDbEntity
  8
0
100
AcDbBlockEnd
  0
BLOCK
  5
EE2
330
99D
100
AcDbEntity
  8
0
100
AcDbBlockBegin
  2
*D3
 70
     1
 10
0.0
 20
0.0
 30
0.0
  3
*D3
  1

  0
LINE
  5
EE3
330
99D
100
AcDbEntity
  8
0
  6
ByBlock
 62
     2
100
AcDbLine
 10
10.55400658467411
 20
63.62855537038996
 30
0.0
 11
10.55400658467411
 21
42.03244328099493
 31
0.0
  0
LINE
  5
EE4
330
99D
100
AcDbEntity
  8
0
  6
ByBlock
 62
     2
100
AcDbLine
 10
97.55400658467412
 20
63.62855537038996
 30
0.0
 11
97.55400658467412
 21
42.03244328099493
 31
0.0
  0
LINE
  5
EE5
330
99D
100
AcDbEntity
  8
0
  6
ByBlock
 62
     2
100
AcDbLine
 10
13.05400658467411
 20
43.28244328099493
 30
0.0
 11
95.05400658467412
 21
43.28244328099493
 31
0.0
  0
INSERT
  5
EE6
330
99D
100
AcDbEntity
  8
0
  6
ByBlock
 62
     2
100
AcDbBlockReference
  2
_OPEN
 10
10.55400658467411
 20
43.28244328099493
 30
0.0
 41
2.5
 42
2.5
 43
2.5
 50
180.0
  0
INSERT
  5
EE7
330
99D
100
AcDbEntity
  8
0
  6
ByBlock
 62
     2
100
AcDbBlockReference
  2
_OPEN
 10
97.55400658467412
 20
43.28244328099493
 30
0.0
 41
2.5
 42
2.5
 43
2.5
  0
MTEXT
  5
EE8
330
99D
100
AcDbEntity
  8
0
  6
ByBlock
 62
     6
100
AcDbMText
 10
54.05400658467411
 20
45.15744328099493
 30
0.0
 40
2.5
 41
0.0
 71
     5
 72
     1
  1
\A1;87
  7
STYLE3
 73
     1
 44
1.0
  0
POINT
  5
EE9
330
99D
100
AcDbEntity
  8
DEFPOINTS
  6
ByBlock
 62
     0
100
AcDbPoint
 10
10.55400658467411
 20
63.62855537038996
 30
0.0
  0
POINT
  5
EEA
330
99D
100
AcDbEntity
  8
DEFPOINTS
  6
ByBlock
 62
     0
100
AcDbPoint
 10
97.55400658467412
 20
63.62855537038996
 30
0.0
  0
POINT
  5
EEB
330
99D
100
AcDbEntity
  8
DEFPOINTS
  6
ByBlock
 62
     0
100
AcDbPoint
 10
97.55400658467412
 20
43.28244328099493
 30
0.0
  0
ENDBLK
  5
EEC
330
99D
100
AcDbEntity
  8
0
100
AcDbBlockEnd
  0
BLOCK
  5
F35
330
A2F
100
AcDbEntity
  8
0
100
AcDbBlockBegin
  2
*D4
 70
     1
 10
0.0
 20
0.0
 30
0.0
  3
*D4
  1

  0
LINE
  5
F36
330
A2F
100
AcDbEntity
  8
0
  6
ByBlock
 62
     2
100
AcDbLine
 10
146.628609466449
 20
167.6770466707655
 30
0.0
 11
146.628609466449
 21
161.4688833508637
 31
0.0
  0
LINE
  5
F37
330
A2F
100
AcDbEntity
  8
0
  6
ByBlock
 62
     2
100
AcDbLine
 10
446.6286094664489
 20
163.2188833508637
 30
0.0
 11
446.6286094664489
 21
161.4688833508637
 31
0.0
  0
LINE
  5
F38
330
A2F
100
AcDbEntity
  8
0
  6
ByBlock
 62
     2
100
AcDbLine
 10
149.128609466449
 20
162.7188833508637
 30
0.0
 11
444.128609466449
 21
162.7188833508637
 31
0.0
  0
INSERT
  5
F39
330
A2F
100
AcDbEntity
  8
0
  6
ByBlock
 62
     2
100
AcDbBlockReference
  2
_OPEN
 10
146.628609466449
 20
162.7188833508637
 30
0.0
 41
2.5
 42
2.5
 43
2.5
 50
180.0
  0
INSERT
  5
F3A
330
A2F
100
AcDbEntity
  8
0
  6
ByBlock
 62
     2
100
AcDbBlockReference
  2
_OPEN
 10
446.6286094664489
 20
162.7188833508637
 30
0.0
 41
2.5
 42
2.5
 43
2.5
  0
MTEXT
  5
F3B
330
A2F
100
AcDbEntity
  8
0
  6
ByBlock
 62
     6
100
AcDbMText
 10
296.628609466449
 20
164.5938833508637
 30
0.0
 40
2.5
 41
0.0
 71
     5
 72
     1
  1
\A1;300
  7
STYLE3
 73
     1
 44
1.0
  0
POINT
  5
F3C
330
A2F
100
AcDbEntity
  8
DEFPOINTS
  6
ByBlock
 62
     0
100
AcDbPoint
 10
146.628609466449
 20
167.6770466707655
 30
0.0
  0
POINT
  5
F3D
330
A2F
100
AcDbEntity
  8
DEFPOINTS
  6
ByBlock
 62
     0
100
AcDbPoint
 10
446.6286094664489
 20
163.2188833508637
 30
0.0
  0
POINT
  5
F3E
330
A2F
100
AcDbEntity
  8
DEFPOINTS
  6
ByBlock
 62
     0
100
AcDbPoint
 10
446.6286094664489
 20
162.7188833508637
 30
0.0
  0
ENDBLK
  5
F3F
330
A2F
100
AcDbEntity
  8
0
100
AcDbBlockEnd
  0
BLOCK
  5
ED7
330
AA5
100
AcDbEntity
  8
0
100
AcDbBlockBegin
  2
*D6
 70
     1
 10
0.0
 20
0.0
 30
0.0
  3
*D6
  1

  0
LINE
  5
ED8
330
AA5
100
AcDbEntity
  8
0
  6
ByBlock
 62
     2
100
AcDbLine
 10
45.05400658467411
 20
61.31031435866638
 30
0.0
 11
45.05400658467411
 21
49.39903737652219
 31
0.0
  0
LINE
  5
ED9
330
AA5
100
AcDbEntity
  8
0
  6
ByBlock
 62
     2
100
AcDbLine
 10
63.05400658467411
 20
61.31031435866638
 30
0.0
 11
63.05400658467411
 21
49.39903737652219
 31
0.0
  0
LINE
  5
EDA
330
AA5
100
AcDbEntity
  8
0
  6
ByBlock
 62
     2
100
AcDbLine
 10
47.55400658467411
 20
50.64903737652219
 30
0.0
 11
60.55400658467411
 21
50.64903737652219
 31
0.0
  0
INSERT
  5
EDB
330
AA5
100
AcDbEntity
  8
0
  6
ByBlock
 62
     2
100
AcDbBlockReference
  2
_OPEN
 10
45.05400658467411
 20
50.64903737652219
 30
0.0
 41
2.5
 42
2.5
 43
2.5
 50
180.0
  0
INSERT
  5
EDC
330
AA5
100
AcDbEntity
  8
0
  6
ByBlock
 62
     2
100
AcDbBlockReference
  2
_OPEN
 10
63.05400658467411
 20
50.64903737652219
 30
0.0
 41
2.5
 42
2.5
 43
2.5
  0
MTEXT
  5
EDD
330
AA5
100
AcDbEntity
  8
0
  6
ByBlock
 62
     6
100
AcDbMText
 10
54.05400658467411
 20
52.52403737652219
 30
0.0
 40
2.5
 41
0.0
 71
     5
 72
     1
  1
\A1;18
  7
STYLE3
 73
     1
 44
1.0
  0
POINT
  5
EDE
330
AA5
100
AcDbEntity
  8
DEFPOINTS
  6
ByBlock
 62
     0
100
AcDbPoint
 10
45.05400658467411
 20
61.31031435866638
 30
0.0
  0
POINT
  5
EDF
330
AA5
100
AcDbEntity
  8
DEFPOINTS
  6
ByBlock
 62
     0
100
AcDbPoint
 10
63.05400658467411
 20
61.31031435866638
 30
0.0
  0
POINT
  5
EE0
330
AA5
100
AcDbEntity
  8
DEFPOINTS
  6
ByBlock
 62
     0
100
AcDbPoint
 10
63.05400658467411
 20
50.64903737652219
 30
0.0
  0
ENDBLK
  5
EE1
330
AA5
100
AcDbEntity
  8
0
100
AcDbBlockEnd
  0
BLOCK
  5
BB7
330
B64
100
AcDbEntity
  8
0
100
AcDbBlockBegin
  2
ROGO
 70
     0
 10
0.0
 20
0.0
 30
0.0
  3
ROGO
  1

  0
HATCH
  5
B65
330
B64
100
AcDbEntity
  8
ROGO
 62
     4
100
AcDbHatch
 10
0.0
 20
0.0
 30
0.0
210
0.0
220
0.0
230
1.0
  2
SOLID
 70
     1
 71
     1
 91
        1
 92
        7
 72
     0
 73
     1
 93
       11
 10
38.38165352405156
 20
4.949786840425588
 10
36.55777800832078
 20
4.949786840425588
 10
35.70378540756275
 20
4.409370842614521
 10
35.97325427788326
 20
4.949786840425588
 10
34.14933885635003
 20
4.949786840425645
 10
31.68121527448045
 20
0.0
 10
33.50513069601385
 20
0.0
 10
34.14933885635003
 20
1.291950329371957
 10
34.79354701668632
 20
0.0
 10
36.61742253241704
 20
0.0
 10
35.38336074148237
 20
2.474893420212765
 97
       11
330
BB3
330
BB6
330
BB5
330
BB4
330
B6A
330
B67
330
BB0
330
BAF
330
BB1
330
BAE
330
BB2
 75
     0
 76
     1
 47
0.0514683685270805
 98
        1
 10
33.99236623130548
 20
2.826231829978155
450
        0
451
        0
460
0.0
461
0.0
452
        0
462
0.0
453
        0
470

  0
HATCH
  5
B66
330
B64
100
AcDbEntity
  8
ROGO
 62
     4
100
AcDbHatch
 10
0.0
 20
0.0
 30
0.0
210
0.0
220
0.0
230
1.0
  2
SOLID
 70
     1
 71
     1
 91
        1
 92
        5
 93
        8
 72
     1
 10
33.48588559853425
 20
4.949786840425645
 11
30.31359802057352
 21
4.949786840425645
 72
     4
 94
        3
 73
     0
 74
     0
 95
       26
 96
       22
 40
0.0
 40
0.0
 40
0.0
 40
0.0
 40
0.7089867102952115
 40
1.183598414482279
 40
1.525832104103439
 40
1.781366926528389
 40
2.112809002752968
 40
2.354729406992515
 40
2.791581270399936
 40
3.147172406765291
 40
3.389031356825354
 40
3.626186440486682
 40
4.050410779375985
 40
4.350388020238963
 40
4.511948940797758
 40
4.741441456013356
 40
4.907163150576407
 40
5.147239172635527
 40
5.28310143501293
 40
5.578752957634333
 40
5.713750011164293
 40
5.713750011164293
 40
5.713750011164293
 40
5.713750011164293
 10
30.31359802057318
 20
4.949786840425645
 10
30.11854899911117
 20
4.938149881331241
 10
29.7929297608427
 20
4.91872287919773
 10
29.43540181805798
 20
4.70152849352172
 10
29.17345591634097
 20
4.575261222274434
 10
28.98663641691252
 20
4.403611624277345
 10
28.84969696652098
 20
4.226310128312206
 10
28.67705908163674
 20
4.015056695877603
 10
28.53627781964582
 20
3.769060622409767
 10
28.46458648155834
 20
3.497930064177694
 10
28.40108297470425
 20
3.28183743611737
 10
28.35398771091377
 20
3.041030402807223
 10
28.36597007927202
 20
2.780874095348053
 10
28.38312937914947
 20
2.539254235598093
 10
28.45974148051295
 20
2.366773831190926
 10
28.5469890936244
 20
2.243979668736869
 10
28.65382260102928
 20
2.108735512341411
 10
28.77072182070049
 20
2.019163745498303
 10
28.86740701734601
 20
1.85689847078413
 10
29.03665119246222
 20
1.836192251465718
 10
29.14422952328943
 20
1.794980695042454
 10
29.17795251342483
 20
1.782061951090668
 72
     1
 10
29.1779525134246
 20
1.782061951090668
 11
31.90635566072177
 21
1.782061951090724
 72
     1
 10
31.90635566072177
 20
1.782061951090668
 11
32.49403698331935
 21
2.960648509043437
 72
     1
 10
32.49403698331941
 20
2.960648509043437
 11
30.46845823186379
 21
2.960648509043437
 72
     4
 94
        3
 73
     0
 74
     0
 95
       16
 96
       12
 40
0.0
 40
0.0
 40
0.0
 40
0.0
 40
0.2141121027475241
 40
0.4304326162973471
 40
0.5594580803306056
 40
0.6831669452691567
 40
0.8190286678446897
 40
0.9139043619204622
 40
1.003933161420314
 40
1.186498641432482
 40
1.560280494298353
 40
1.560280494298353
 40
1.560280494298353
 40
1.560280494298353
 10
30.46845823186391
 20
2.960648509043437
 10
30.40735963846879
 20
2.978624611086559
 10
30.2845322640714
 20
3.014762225606943
 10
30.27425260468789
 20
3.189944104912854
 10
30.28825715338957
 20
3.314775529002304
 10
30.34690823463126
 20
3.405660095425673
 10
30.41806216907168
 20
3.471790575521367
 10
30.44455593462857
 20
3.557915185941965
 10
30.52243194464864
 20
3.622950041937542
 10
30.66052697686496
 20
3.732264550099898
 10
30.81323617682881
 20
3.755546097864453
 10
30.9158338246271
 20
3.771187801431096
 72
     1
 10
30.91583382462705
 20
3.77118780143121
 11
32.89819805248612
 21
3.77118780143121
 72
     1
 10
32.89819805248612
 20
3.77118780143121
 11
33.48588559853425
 21
4.949786840425701
 97
        8
330
B68
330
B8C
330
B98
330
B91
330
BAC
330
BAB
330
BAD
330
B69
 75
     0
 76
     1
 47
0.0514683685270805
 98
        1
 10
30.86099532083267
 20
4.369765638819899
450
        0
451
        0
460
0.0
461
0.0
452
        0
462
0.0
453
        0
470

  0
LINE
  5
B67
102
{ACAD_REACTORS
330
B6B
330
B65
330
B70
102
}
330
B64
100
AcDbEntity
  8
ROGO
 62
     4
100
AcDbLine
 10
0.0000000000000568
 20
0.0
 30
0.0
 11
33.50513069601385
 21
0.0
 31
0.0
  0
LINE
  5
B68
102
{ACAD_REACTORS
330
B66
102
}
330
B64
100
AcDbEntity
  8
ROGO
 62
     4
100
AcDbLine
 10
30.31359802057415
 20
4.949786840425645
 30
0.0
 11
33.48588559853425
 21
4.949786840425645
 31
0.0
  0
LINE
  5
B69
102
{ACAD_REACTORS
330
B66
102
}
330
B64
100
AcDbEntity
  8
ROGO
 62
     4
100
AcDbLine
 10
33.48588559853425
 20
4.949786840425645
 30
0.0
 11
32.89819805248607
 21
3.77118780143121
 31
0.0
  0
LINE
  5
B6A
102
{ACAD_REACTORS
330
B6B
330
B65
102
}
330
B64
100
AcDbEntity
  8
ROGO
 62
     4
100
AcDbLine
 10
34.14933885635003
 20
4.949786840425645
 30
0.0
 11
31.6812152744804
 21
0.0
 31
0.0
  0
HATCH
  5
B6B
330
B64
100
AcDbEntity
  8
ROGO
 62
     4
100
AcDbHatch
 10
0.0
 20
0.0
 30
0.0
210
0.0
220
0.0
230
1.0
  2
SOLID
 70
     1
 71
     1
 91
        1
 92
        7
 72
     0
 73
     1
 93
        4
 10
31.9286078056424
 20
0.4961422127159381
 10
2.525341286638024
 20
0.4961422127159381
 10
2.30087247590319
 20
-0.0000000000000568
 10
31.68121527448045
 20
-0.0000000000000568
 97
        4
330
B6F
330
B79
330
B67
330
B6A
 75
     0
 76
     1
 47
0.0514683685270805
 98
        1
 10
21.09111831761885
 20
0.3649205710345882
450
        0
451
        0
460
0.0
461
0.0
452
        0
462
0.0
453
        0
470

  0
HATCH
  5
B6C
330
B64
100
AcDbEntity
  8
ROGO
 62
     4
100
AcDbHatch
 10
0.0
 20
0.0
 30
0.0
210
0.0
220
0.0
230
1.0
  2
SOLID
 70
     1
 71
     1
 91
        2
 92
        7
 72
     0
 73
     1
 93
        8
 10
15.99342784516449
 20
4.949786840425645
 10
14.16260675403379
 20
4.949786840425645
 10
11.87829877231911
 20
1.782061951090668
 10
13.63265136986962
 20
1.782061951090668
 10
14.06756947612285
 20
2.38517717067981
 10
16.08846512307536
 20
2.385177170679696
 10
16.52338322932866
 20
1.782061951090668
 10
18.27773582687916
 20
1.782061951090668
 97
        8
330
B6E
330
B76
330
B7B
330
B77
330
B6D
330
B8F
330
B95
330
B8E
 92
       22
 72
     0
 73
     1
 93
        3
 10
15.62974388152605
 20
3.021300979620718
 10
14.52629071767222
 20
3.021300979620718
 10
15.07801729959914
 20
3.786398348131172
 97
        3
330
B9A
330
B99
330
B9B
 75
     0
 76
     1
 47
0.0514683685270805
 98
        2
 10
16.20617981601185
 20
3.326837253266262
 10
16.20617981601185
 20
3.326837253266262
450
        0
451
        0
460
0.0
461
0.0
452
        0
462
0.0
453
        0
470

  0
LINE
  5
B6D
102
{ACAD_REACTORS
330
B6C
102
}
330
B64
100
AcDbEntity
  8
ROGO
 62
     4
100
AcDbLine
 10
14.06756947612285
 20
2.385177170679753
 30
0.0
 11
16.08846512307542
 21
2.385177170679753
 31
0.0
  0
LINE
  5
B6E
102
{ACAD_REACTORS
330
B6C
102
}
330
B64
100
AcDbEntity
  8
ROGO
 62
     4
100
AcDbLine
 10
14.16260675403379
 20
4.949786840425645
 30
0.0
 11
15.99342784516443
 21
4.949786840425645
 31
0.0
  0
LINE
  5
B6F
102
{ACAD_REACTORS
330
B6B
102
}
330
B64
100
AcDbEntity
  8
ROGO
 62
     4
100
AcDbLine
 10
2.490933298034235
 20
0.4961422127159381
 30
0.0
 11
31.92860780564246
 21
0.4961422127159381
 31
0.0
  0
HATCH
  5
B70
330
B64
100
AcDbEntity
  8
ROGO
 62
     4
100
AcDbHatch
 10
0.0
 20
0.0
 30
0.0
210
0.0
220
0.0
230
1.0
  2
SOLID
 70
     1
 71
     1
 91
        2
 92
        5
 93
        6
 72
     4
 94
        3
 73
     0
 74
     0
 95
       18
 96
       14
 40
0.108740278791501
 40
0.108740278791501
 40
0.108740278791501
 40
0.108740278791501
 40
0.6623149649549278
 40
1.384304701649787
 40
2.097394834876493
 40
2.774073369849618
 40
3.428974823686337
 40
4.005208313035923
 40
4.455173659284313
 40
4.720999734343524
 40
5.086034088486724
 40
5.569973738255373
 40
6.060470601257719
 40
6.060470601257719
 40
6.060470601257719
 40
6.060470601257719
 10
5.257971706506339
 20
1.782061951090668
 10
5.409344543521854
 20
1.783189178773909
 10
5.758142655701249
 20
1.785786572703102
 10
6.246108485316483
 20
2.046468641233957
 10
6.708839512865949
 20
2.378558603499755
 10
7.081537876611037
 20
2.793470364329778
 10
7.313740186156906
 20
3.267850878540173
 10
7.349707589953482
 20
3.722501028309523
 10
7.327750373593119
 20
4.082123644518105
 10
7.170855034099304
 20
4.33278953599904
 10
7.007743182975218
 20
4.587189781908875
 10
6.708651203549891
 20
4.807560723981168
 10
6.463588634008544
 20
4.904115955004613
 10
6.338969333173452
 20
4.949786840425758
 72
     1
 10
6.338969333173679
 20
4.949786840425645
 11
2.449108495127859
 21
4.949786840425645
 72
     1
 10
2.449108495127859
 20
4.949786840425645
 11
0.0
 21
-0.0000000000000568
 72
     1
 10
-0.0000000000000568
 20
0.0
 11
2.300872475903247
 21
0.0
 72
     1
 10
2.300872475903304
 20
0.0
 11
3.107127853020472
 21
1.782061951090724
 72
     1
 10
3.107127853020472
 20
1.782061951090668
 11
5.257971706506168
 21
1.782061951090668
 97
        6
330
B72
330
B7C
330
B73
330
B67
330
B79
330
B78
 92
       20
 93
        4
 72
     1
 10
3.604944905315051
 20
2.882384321244217
 11
3.98608604239348
 21
3.724818539558043
 72
     1
 10
3.98608604239348
 20
3.724818539557986
 11
4.965456325034381
 21
3.724818539557986
 72
     4
 94
        3
 73
     0
 74
     0
 95
       15
 96
       11
 40
0.0
 40
0.0
 40
0.0
 40
0.0
 40
0.458245544397197
 40
0.6671803073175111
 40
0.9043351724393449
 40
1.065896092998139
 40
1.321406364485703
 40
1.474450037341961
 40
1.737022829061231
 40
1.824547148828933
 40
1.824547148828933
 40
1.824547148828933
 40
1.824547148828933
 10
4.965456325033528
 20
3.724818539557986
 10
5.104956735089615
 20
3.72545752589923
 10
5.308061659054601
 20
3.726387854865265
 10
5.419126665259284
 20
3.475146476562713
 10
5.369342033880457
 20
3.313386222112512
 10
5.306758694724408
 20
3.147308857819552
 10
5.196159760245848
 20
3.034456783979635
 10
5.047719790425048
 20
2.925761212639713
 10
4.907436925306626
 20
2.912603127013085
 10
4.816198668830168
 20
2.888428084712359
 10
4.793389093792598
 20
2.88238432124416
 72
     1
 10
4.793389093792541
 20
2.882384321244217
 11
3.604944905315051
 21
2.882384321244217
 97
        4
330
B7F
330
B7D
330
B81
330
B7E
 75
     0
 76
     1
 47
0.0514683685270805
 98
        2
 10
2.469899197802817
 20
3.410271770727717
 10
2.469899197802817
 20
3.410271770727717
450
        0
451
        0
460
0.0
461
0.0
452
        0
462
0.0
453
        0
470

  0
HATCH
  5
B71
330
B64
100
AcDbEntity
  8
ROGO
 62
     4
100
AcDbHatch
 10
0.0
 20
0.0
 30
0.0
210
0.0
220
0.0
230
1.0
  2
SOLID
 70
     1
 71
     1
 91
        1
 92
        1
 93
       12
 72
     1
 10
8.637002599138838
 20
4.949786840425645
 11
12.92148229673961
 21
4.949786840425701
 72
     1
 10
12.92148229673961
 20
4.949786840425645
 11
12.56244669050807
 21
4.224155565819216
 72
     1
 10
12.56244669050812
 20
4.224155565819273
 11
10.31063242784853
 21
4.224155565819273
 72
     1
 10
10.31063242784847
 20
4.224155565819273
 11
10.02991119959222
 21
3.656802080167153
 72
     1
 10
10.02991119959228
 20
3.656802080167153
 11
12.28172546225187
 21
3.656802080167153
 72
     1
 10
12.28172546225181
 20
3.656802080167153
 11
11.99387214064069
 21
3.075034230307551
 72
     1
 10
11.99387214064069
 20
3.075034230307551
 11
9.742057877981153
 21
3.075034230307494
 72
     1
 10
9.742057877981153
 20
3.075034230307551
 11
9.461324765337508
 21
2.507656725636252
 72
     1
 10
9.461324765337565
 20
2.507656725636138
 11
11.71313902799716
 21
2.507656725636138
 72
     1
 10
11.71313902799716
 20
2.507656725636138
 11
11.3541214816563
 21
1.782061951090668
 72
     1
 10
11.35412148165636
 20
1.782061951090668
 11
7.06964178405559
 21
1.782061951090668
 72
     1
 10
7.06964178405559
 20
1.782061951090668
 11
8.637002599138838
 21
4.949786840425645
 97
       12
330
B80
330
B82
330
B84
330
B83
330
B85
330
B88
330
B87
330
B89
330
B86
330
B75
330
B7A
330
B74
 75
     0
 76
     1
 98
        1
 10
-166.6183073243049
 20
-214.0842147101267
450
        0
451
        0
460
0.0
461
0.0
452
        0
462
0.0
453
        0
470

  0
SPLINE
  5
B72
102
{ACAD_REACTORS
330
B70
102
}
330
B64
100
AcDbEntity
  8
ROGO
 62
     4
100
AcDbSpline
210
0.0
220
0.0
230
1.0
 70
     8
 71
     3
 72
    18
 73
    14
 74
     0
 42
0.0000000001
 43
0.0000000001
 40
0.1087402787915014
 40
0.1087402787915014
 40
0.1087402787915014
 40
0.1087402787915014
 40
0.5992371417938475
 40
1.083176791562496
 40
1.448211145705696
 40
1.714037220764907
 40
2.164002567013297
 40
2.740236056362883
 40
3.395137510199602
 40
4.071816045172726
 40
4.784906178399433
 40
5.506895915094292
 40
6.060470601257719
 40
6.060470601257719
 40
6.060470601257719
 40
6.060470601257719
 10
6.338969333173452
 20
4.949786840425758
 30
0.0
 10
6.463588634008544
 20
4.904115955004613
 30
0.0
 10
6.708651203549891
 20
4.807560723981168
 30
0.0
 10
7.007743182975218
 20
4.587189781908875
 30
0.0
 10
7.170855034099304
 20
4.33278953599904
 30
0.0
 10
7.327750373593119
 20
4.082123644518105
 30
0.0
 10
7.349707589953482
 20
3.722501028309523
 30
0.0
 10
7.313740186156906
 20
3.267850878540173
 30
0.0
 10
7.081537876611037
 20
2.793470364329778
 30
0.0
 10
6.708839512865949
 20
2.378558603499755
 30
0.0
 10
6.246108485316483
 20
2.046468641233957
 30
0.0
 10
5.758142655701249
 20
1.785786572703102
 30
0.0
 10
5.409344543521854
 20
1.783189178773909
 30
0.0
 10
5.257971706506339
 20
1.782061951090668
 30
0.0
  0
LINE
  5
B73
102
{ACAD_REACTORS
330
B70
102
}
330
B64
100
AcDbEntity
  8
ROGO
 62
     4
100
AcDbLine
 10
2.449108495127859
 20
4.949786840425645
 30
0.0
 11
0.0
 21
0.0
 31
0.0
  0
LINE
  5
B74
102
{ACAD_REACTORS
330
B71
102
}
330
B64
100
AcDbEntity
  8
ROGO
 62
     4
100
AcDbLine
 10
8.637002599138952
 20
4.949786840425645
 30
0.0
 11
7.06964178405559
 21
1.782061951090668
 31
0.0
  0
LINE
  5
B75
102
{ACAD_REACTORS
330
B71
102
}
330
B64
100
AcDbEntity
  8
ROGO
 62
     4
100
AcDbLine
 10
11.71313902799716
 20
2.507656725636195
 30
0.0
 11
11.35412148165636
 21
1.782061951090668
 31
0.0
  0
LINE
  5
B76
102
{ACAD_REACTORS
330
B6C
102
}
330
B64
100
AcDbEntity
  8
ROGO
 62
     4
100
AcDbLine
 10
14.16260675403384
 20
4.949786840425645
 30
0.0
 11
11.87829877231911
 21
1.782061951090668
 31
0.0
  0
LINE
  5
B77
102
{ACAD_REACTORS
330
B6C
102
}
330
B64
100
AcDbEntity
  8
ROGO
 62
     4
100
AcDbLine
 10
14.06756947612285
 20
2.385177170679753
 30
0.0
 11
13.63265136986962
 21
1.782061951090781
 31
0.0
  0
LINE
  5
B78
102
{ACAD_REACTORS
330
B70
102
}
330
B64
100
AcDbEntity
  8
ROGO
 62
     4
100
AcDbLine
 10
5.257971707251897
 20
1.782061951090668
 30
0.0
 11
3.107127853020358
 21
1.782061951090668
 31
0.0
  0
LINE
  5
B79
102
{ACAD_REACTORS
330
B6B
330
B70
102
}
330
B64
100
AcDbEntity
  8
ROGO
 62
     4
100
AcDbLine
 10
3.107127853020472
 20
1.782061951090668
 30
0.0
 11
2.300872475903304
 21
0.0
 31
0.0
  0
LINE
  5
B7A
102
{ACAD_REACTORS
330
B71
102
}
330
B64
100
AcDbEntity
  8
ROGO
 62
     4
100
AcDbLine
 10
7.06964178405559
 20
1.782061951090668
 30
0.0
 11
11.35412148165636
 21
1.782061951090668
 31
0.0
  0
LINE
  5
B7B
102
{ACAD_REACTORS
330
B6C
102
}
330
B64
100
AcDbEntity
  8
ROGO
 62
     4
100
AcDbLine
 10
11.87829877231917
 20
1.782061951090668
 30
0.0
 11
13.63265136986962
 21
1.782061951090668
 31
0.0
  0
LINE
  5
B7C
102
{ACAD_REACTORS
330
B70
102
}
330
B64
100
AcDbEntity
  8
ROGO
 62
     4
100
AcDbLine
 10
2.449108495127859
 20
4.949786840425645
 30
0.0
 11
6.338969333173452
 21
4.949786840425645
 31
0.0
  0
LINE
  5
B7D
102
{ACAD_REACTORS
330
B70
102
}
330
B64
100
AcDbEntity
  8
ROGO
 62
     4
100
AcDbLine
 10
4.965456325033528
 20
3.724818539557986
 30
0.0
 11
3.986086042393537
 21
3.724818539557986
 31
0.0
  0
LINE
  5
B7E
102
{ACAD_REACTORS
330
B70
102
}
330
B64
100
AcDbEntity
  8
ROGO
 62
     4
100
AcDbLine
 10
4.793389093792598
 20
2.88238432124416
 30
0.0
 11
3.604944905315107
 21
2.882384321244217
 31
0.0
  0
LINE
  5
B7F
102
{ACAD_REACTORS
330
B70
102
}
330
B64
100
AcDbEntity
  8
ROGO
 62
     4
100
AcDbLine
 10
3.986086042393537
 20
3.724818539557986
 30
0.0
 11
3.604944905315051
 21
2.882384321244217
 31
0.0
  0
LINE
  5
B80
102
{ACAD_REACTORS
330
B71
102
}
330
B64
100
AcDbEntity
  8
ROGO
 62
     4
100
AcDbLine
 10
8.637002599138838
 20
4.949786840425645
 30
0.0
 11
12.92148229673961
 21
4.949786840425758
 31
0.0
  0
SPLINE
  5
B81
102
{ACAD_REACTORS
330
B70
102
}
330
B64
100
AcDbEntity
  8
ROGO
 62
     4
100
AcDbSpline
210
0.0
220
0.0
230
1.0
 70
     8
 71
     3
 72
    15
 73
    11
 74
     9
 42
0.0000000001
 43
0.0000000001
 44
0.0000000001
 40
0.0
 40
0.0
 40
0.0
 40
0.0
 40
0.3714260192954959
 40
0.5407758541881006
 40
0.7329991907503102
 40
0.8639506649775173
 40
1.071051779626874
 40
1.195099689928134
 40
1.407925254728536
 40
1.478867154939799
 40
1.478867154939799
 40
1.478867154939799
 40
1.478867154939799
 10
4.965456325033528
 20
3.724818539557986
 30
0.0
 10
5.104956735089532
 20
3.725457525899206
 30
0.0
 10
5.308061659054509
 20
3.726387854865235
 30
0.0
 10
5.419126665259303
 20
3.475146476562761
 30
0.0
 10
5.369342033880415
 20
3.31338622211255
 30
0.0
 10
5.306758694724477
 20
3.147308857819524
 30
0.0
 10
5.19615976024584
 20
3.034456783979611
 30
0.0
 10
5.047719790425087
 20
2.925761212639771
 30
0.0
 10
4.907436925306584
 20
2.912603127013052
 30
0.0
 10
4.816198668830153
 20
2.888428084712352
 30
0.0
 10
4.793389093792598
 20
2.88238432124416
 30
0.0
 11
4.965456325033528
 21
3.724818539557986
 31
0.0
 11
5.326797807465993
 21
3.63885563544693
 31
0.0
 11
5.395624897846573
 21
3.484122968540759
 31
0.0
 11
5.361211847366689
 21
3.295005139989939
 31
0.0
 11
5.309591776936599
 21
3.174657074234517
 31
0.0
 11
5.171937596175325
 21
3.019924407328176
 31
0.0
 11
5.068697455314975
 21
2.951154084039387
 31
0.0
 11
4.862216184173178
 21
2.899576902066371
 31
0.0
 11
4.793389093792598
 21
2.88238432124416
 31
0.0
  0
LINE
  5
B82
102
{ACAD_REACTORS
330
B71
102
}
330
B64
100
AcDbEntity
  8
ROGO
 62
     4
100
AcDbLine
 10
12.92148229673961
 20
4.949786840425645
 30
0.0
 11
12.56244669050807
 21
4.224155565819273
 31
0.0
  0
LINE
  5
B83
102
{ACAD_REACTORS
330
B71
102
}
330
B64
100
AcDbEntity
  8
ROGO
 62
     4
100
AcDbLine
 10
10.31063242784847
 20
4.224155565819273
 30
0.0
 11
10.02991119959222
 21
3.656802080167153
 31
0.0
  0
LINE
  5
B84
102
{ACAD_REACTORS
330
B71
102
}
330
B64
100
AcDbEntity
  8
ROGO
 62
     4
100
AcDbLine
 10
10.31063242784847
 20
4.224155565819273
 30
0.0
 11
12.56244669050807
 21
4.224155565819273
 31
0.0
  0
LINE
  5
B85
102
{ACAD_REACTORS
330
B71
102
}
330
B64
100
AcDbEntity
  8
ROGO
 62
     4
100
AcDbLine
 10
10.02991119959222
 20
3.656802080167153
 30
0.0
 11
12.28172546225187
 21
3.656802080167153
 31
0.0
  0
LINE
  5
B86
102
{ACAD_REACTORS
330
B71
102
}
330
B64
100
AcDbEntity
  8
ROGO
 62
     4
100
AcDbLine
 10
9.461324765337565
 20
2.507656725636195
 30
0.0
 11
11.71313902799716
 21
2.507656725636195
 31
0.0
  0
LINE
  5
B87
102
{ACAD_REACTORS
330
B71
102
}
330
B64
100
AcDbEntity
  8
ROGO
 62
     4
100
AcDbLine
 10
9.742057877981153
 20
3.075034230307551
 30
0.0
 11
11.99387214064069
 21
3.075034230307608
 31
0.0
  0
LINE
  5
B88
102
{ACAD_REACTORS
330
B71
102
}
330
B64
100
AcDbEntity
  8
ROGO
 62
     4
100
AcDbLine
 10
12.28172546225187
 20
3.656802080167153
 30
0.0
 11
11.99387214064069
 21
3.075034230307551
 31
0.0
  0
LINE
  5
B89
102
{ACAD_REACTORS
330
B71
102
}
330
B64
100
AcDbEntity
  8
ROGO
 62
     4
100
AcDbLine
 10
9.742057877981153
 20
3.075034230307551
 30
0.0
 11
9.461324765337508
 21
2.507656725636195
 31
0.0
  0
HATCH
  5
B8A
330
B64
100
AcDbEntity
  8
ROGO
 62
     4
100
AcDbHatch
 10
0.0
 20
0.0
 30
0.0
210
0.0
220
0.0
230
1.0
  2
SOLID
 70
     1
 71
     1
 91
        2
 92
        7
 72
     1
 73
     1
 93
        4
 10
26.16568830176476
 20
4.949786840425645
 42
0.0
 10
24.88477496917216
 20
4.949786840425645
 42
0.9597396185052668
 10
24.88477496917204
 20
1.782061951090668
 42
0.0
 10
26.25774038752116
 20
1.782061951090668
 42
0.9713627655772736
 97
        4
330
BAA
330
B92
330
B97
330
B93
 92
       22
 72
     1
 73
     1
 93
        8
 10
25.9709322672415
 20
3.347576112203057
 42
0.0
 10
25.92877650574593
 20
3.045974519724552
 42
-0.3696060376523694
 10
25.58588379175427
 20
2.870057733155022
 42
0.0
 10
25.47108749766136
 20
2.886103156372541
 42
-0.3541938351274232
 10
25.17427477727125
 20
3.157453445413239
 42
0.0
 10
25.21643053876682
 20
3.459055037891914
 42
-0.3439742752229287
 10
25.58698051573322
 20
3.668449396631842
 42
0.0
 10
25.69536003945933
 20
3.653300864703851
 42
-0.3460733018205655
 97
        8
330
BA2
330
BA8
330
BA4
330
BA7
330
BA3
330
BA6
330
BA1
330
BA5
 75
     0
 76
     1
 47
0.0514683685270805
 98
        2
 10
26.4770758482868
 20
3.660574202124962
 10
26.4770758482868
 20
3.660574202124962
450
        0
451
        0
460
0.0
461
0.0
452
        0
462
0.0
453
        0
470

  0
HATCH
  5
B8B
330
B64
100
AcDbEntity
  8
ROGO
 62
     4
100
AcDbHatch
 10
0.0
 20
0.0
 30
0.0
210
0.0
220
0.0
230
1.0
  2
SOLID
 70
     1
 71
     1
 91
        1
 92
        5
 93
        8
 72
     1
 10
23.27919423493069
 20
4.949786840425645
 11
20.10690665697018
 21
4.949786840425701
 72
     4
 94
        3
 73
     0
 74
     0
 95
       26
 96
       22
 40
0.0
 40
0.0
 40
0.0
 40
0.0
 40
0.7089867102952115
 40
1.183598414482279
 40
1.525832104103439
 40
1.781366926528389
 40
2.112809002752968
 40
2.354729406992515
 40
2.791581270399936
 40
3.147172406765291
 40
3.389031356825354
 40
3.626186440486682
 40
4.050410779375985
 40
4.350388020238963
 40
4.511948940797758
 40
4.741441456013356
 40
4.907163150576407
 40
5.147239172635527
 40
5.28310143501293
 40
5.578752957634333
 40
5.713750011164293
 40
5.713750011164293
 40
5.713750011164293
 40
5.713750011164293
 10
20.10690665696961
 20
4.949786840425645
 10
19.9118576355076
 20
4.938149881331241
 10
19.58623839723913
 20
4.91872287919773
 10
19.22871045445441
 20
4.701528493521777
 10
18.9667645527374
 20
4.575261222274434
 10
18.77994505330895
 20
4.403611624277402
 10
18.64300560291741
 20
4.226310128312206
 10
18.47036771803317
 20
4.01505669587766
 10
18.32958645604225
 20
3.769060622409824
 10
18.25789511795477
 20
3.497930064177751
 10
18.19439161110068
 20
3.281837436117484
 10
18.14729634731026
 20
3.041030402807223
 10
18.15927871566845
 20
2.780874095348053
 10
18.1764380155459
 20
2.53925423559815
 10
18.25305011690938
 20
2.366773831190926
 10
18.34029773002083
 20
2.243979668736869
 10
18.44713123742571
 20
2.108735512341468
 10
18.56403045709697
 20
2.019163745498303
 10
18.66071565374244
 20
1.85689847078413
 10
18.82995982885865
 20
1.836192251465718
 10
18.93753815968586
 20
1.794980695042511
 10
18.97126114982126
 20
1.782061951090668
 72
     1
 10
18.97126114982103
 20
1.782061951090668
 11
21.6996642971182
 21
1.782061951090724
 72
     1
 10
21.6996642971182
 20
1.782061951090781
 11
22.28734561971584
 21
2.960648509043551
 72
     1
 10
22.28734561971584
 20
2.960648509043494
 11
20.26176686826005
 21
2.960648509043494
 72
     4
 94
        3
 73
     0
 74
     0
 95
       16
 96
       12
 40
0.0
 40
0.0
 40
0.0
 40
0.0
 40
0.2141121027475241
 40
0.4304326162973471
 40
0.5594580803306056
 40
0.6831669452691567
 40
0.8190286678446897
 40
0.9139043619204622
 40
1.003933161420314
 40
1.186498641432482
 40
1.560280494298353
 40
1.560280494298353
 40
1.560280494298353
 40
1.560280494298353
 10
20.26176686826034
 20
2.960648509043494
 10
20.20066827486522
 20
2.978624611086615
 10
20.07784090046783
 20
3.014762225607
 10
20.06756124108432
 20
3.18994410491291
 10
20.081565789786
 20
3.314775529002361
 10
20.14021687102769
 20
3.40566009542573
 10
20.21137080546811
 20
3.471790575521481
 10
20.237864571025
 20
3.557915185942079
 10
20.31574058104508
 20
3.622950041937542
 10
20.45383561326139
 20
3.732264550099955
 10
20.60654481322524
 20
3.755546097864453
 10
20.70914246102353
 20
3.77118780143121
 72
     1
 10
20.70914246102353
 20
3.77118780143121
 11
22.69150668888256
 21
3.771187801431267
 72
     1
 10
22.69150668888256
 20
3.77118780143121
 11
23.27919423493069
 21
4.949786840425645
 97
        8
330
BA0
330
B8D
330
B94
330
B90
330
B9F
330
B9C
330
B9E
330
B9D
 75
     0
 76
     1
 47
0.0514683685270805
 98
        1
 10
21.21637307488407
 20
4.244614142874524
450
        0
451
        0
460
0.0
461
0.0
452
        0
462
0.0
453
        0
470

  0
SPLINE
  5
B8C
102
{ACAD_REACTORS
330
B66
102
}
330
B64
100
AcDbEntity
  8
ROGO
 62
     4
100
AcDbSpline
210
0.0
220
0.0
230
1.0
 70
     8
 71
     3
 72
    26
 73
    22
 74
    20
 42
0.0000000001
 43
0.0000000001
 44
0.0000000001
 40
0.0
 40
0.0
 40
0.0
 40
0.0
 40
0.5746615864749196
 40
0.9593530213456462
 40
1.236746873962384
 40
1.443867888111121
 40
1.712514714041724
 40
1.90860070730817
 40
2.262686307552686
 40
2.55090689560158
 40
2.746943077840944
 40
2.939166591537864
 40
3.283017086994854
 40
3.526160427536374
 40
3.657111901763582
 40
3.843124602654698
 40
3.97744854769916
 40
4.172039596738211
 40
4.282161298747791
 40
4.521798474686698
 40
4.631218890929293
 40
4.631218890929293
 40
4.631218890929293
 40
4.631218890929293
 10
30.31359802057318
 20
4.949786840425645
 30
0.0
 10
30.11854899911117
 20
4.938149881331216
 30
0.0
 10
29.79292976084273
 20
4.918722879197668
 30
0.0
 10
29.43540181805795
 20
4.701528493521752
 30
0.0
 10
29.17345591634098
 20
4.575261222274342
 30
0.0
 10
28.98663641691248
 20
4.403611624277403
 30
0.0
 10
28.84969696652104
 20
4.226310128312151
 30
0.0
 10
28.67705908163667
 20
4.015056695877607
 30
0.0
 10
28.53627781964588
 20
3.769060622409776
 30
0.0
 10
28.46458648155826
 20
3.49793006417775
 30
0.0
 10
28.40108297470428
 20
3.28183743611741
 30
0.0
 10
28.35398771091379
 20
3.041030402807234
 30
0.0
 10
28.36597007927193
 20
2.780874095348088
 30
0.0
 10
28.38312937914937
 20
2.539254235598058
 30
0.0
 10
28.45974148051292
 20
2.366773831190866
 30
0.0
 10
28.54698909362438
 20
2.243979668736892
 30
0.0
 10
28.65382260102934
 20
2.108735512341419
 30
0.0
 10
28.77072182070049
 20
2.019163745498228
 30
0.0
 10
28.86740701734603
 20
1.85689847078413
 30
0.0
 10
29.03665119246222
 20
1.836192251465618
 30
0.0
 10
29.14422952328949
 20
1.794980695042471
 30
0.0
 10
29.17795251342483
 20
1.782061951090668
 30
0.0
 11
30.31359802057318
 21
4.949786840425645
 31
0.0
 11
29.74577526699892
 21
4.861394196539322
 31
0.0
 11
29.40163981509602
 21
4.689468948810883
 31
0.0
 11
29.1607454934744
 21
4.551928862726811
 31
0.0
 11
29.00588528218367
 21
4.414388216149177
 31
0.0
 11
28.83381805094274
 21
4.208077806776145
 31
0.0
 11
28.7133708901319
 21
4.053345139869975
 31
0.0
 11
28.54130266946999
 21
3.743879245563732
 31
0.0
 11
28.45526954855979
 21
3.468798512902026
 31
0.0
 11
28.4036494781297
 21
3.279680684351205
 31
0.0
 11
28.36923543822883
 21
3.090562855800612
 31
0.0
 11
28.36923543822883
 21
2.746712360343622
 31
0.0
 11
28.4036494781297
 21
2.506016789326224
 31
0.0
 11
28.45526954855979
 21
2.385668723570802
 31
0.0
 11
28.55850968942019
 21
2.230936056664518
 31
0.0
 11
28.64454379975138
 21
2.127780571731193
 31
0.0
 11
28.78219699109144
 21
1.99024048564712
 31
0.0
 11
28.85102408147219
 21
1.904277581536064
 31
0.0
 11
29.07471237256442
 21
1.818315237918568
 31
0.0
 11
29.17795251342483
 21
1.782061951090668
 31
0.0
  0
SPLINE
  5
B8D
102
{ACAD_REACTORS
330
B8B
102
}
330
B64
100
AcDbEntity
  8
ROGO
 62
     4
100
AcDbSpline
210
0.0
220
0.0
230
1.0
 70
     8
 71
     3
 72
    26
 73
    22
 74
    20
 42
0.0000000001
 43
0.0000000001
 44
0.0000000001
 40
0.0
 40
0.0
 40
0.0
 40
0.0
 40
0.5746615864749109
 40
0.9593530213456375
 40
1.236746873962375
 40
1.44386788811115
 40
1.71251471404171
 40
1.9086007073082
 40
2.262686307552666
 40
2.550906895601598
 40
2.746943077840867
 40
2.939166591537899
 40
3.28301708699489
 40
3.526160427536353
 40
3.657111901763635
 40
3.843124602654719
 40
3.977448547699138
 40
4.172039596738189
 40
4.282161298747769
 40
4.521798474686655
 40
4.631218890929288
 40
4.631218890929288
 40
4.631218890929288
 40
4.631218890929288
 10
20.10690665696961
 20
4.949786840425645
 30
0.0
 10
19.91185763550759
 20
4.938149881331241
 30
0.0
 10
19.58623839723914
 20
4.918722879197736
 30
0.0
 10
19.22871045445439
 20
4.701528493521801
 30
0.0
 10
18.96676455273739
 20
4.575261222274411
 30
0.0
 10
18.77994505330897
 20
4.4036116242774
 30
0.0
 10
18.64300560291743
 20
4.226310128312206
 30
0.0
 10
18.47036771803315
 20
4.015056695877609
 30
0.0
 10
18.32958645604223
 20
3.769060622409829
 30
0.0
 10
18.25789511795483
 20
3.497930064177774
 30
0.0
 10
18.19439161110065
 20
3.281837436117467
 30
0.0
 10
18.14729634731024
 20
3.041030402807263
 30
0.0
 10
18.15927871566836
 20
2.780874095348114
 30
0.0
 10
18.17643801554578
 20
2.539254235598062
 30
0.0
 10
18.25305011690943
 20
2.366773831190911
 30
0.0
 10
18.3402977300208
 20
2.243979668736876
 30
0.0
 10
18.44713123742579
 20
2.10873551234148
 30
0.0
 10
18.56403045709692
 20
2.019163745498289
 30
0.0
 10
18.66071565374245
 20
1.856898470784175
 30
0.0
 10
18.82995982885869
 20
1.836192251465799
 30
0.0
 10
18.93753815968592
 20
1.794980695042517
 30
0.0
 10
18.97126114982126
 20
1.782061951090668
 30
0.0
 11
20.10690665696961
 21
4.949786840425645
 31
0.0
 11
19.53908390339535
 21
4.861394196539379
 31
0.0
 11
19.19494845149245
 21
4.68946894881094
 31
0.0
 11
18.95405412987082
 21
4.551928862726867
 31
0.0
 11
18.7991939185801
 21
4.414388216149177
 31
0.0
 11
18.62712668733917
 21
4.208077806776202
 31
0.0
 11
18.50667952652833
 21
4.053345139869975
 31
0.0
 11
18.33461130586641
 21
3.743879245563789
 31
0.0
 11
18.24857818495627
 21
3.468798512902026
 31
0.0
 11
18.19695811452612
 21
3.279680684351319
 31
0.0
 11
18.16254407462526
 21
3.090562855800612
 31
0.0
 11
18.16254407462526
 21
2.746712360343622
 31
0.0
 11
18.19695811452612
 21
2.506016789326281
 31
0.0
 11
18.24857818495627
 21
2.385668723570802
 31
0.0
 11
18.35181832581662
 21
2.230936056664518
 31
0.0
 11
18.43785243614781
 21
2.12778057173125
 31
0.0
 11
18.57550562748787
 21
1.990240485647177
 31
0.0
 11
18.64433271786862
 21
1.904277581536121
 31
0.0
 11
18.86802100896085
 21
1.818315237918682
 31
0.0
 11
18.97126114982126
 21
1.782061951090668
 31
0.0
  0
LINE
  5
B8E
102
{ACAD_REACTORS
330
B6C
102
}
330
B64
100
AcDbEntity
  8
ROGO
 62
     4
100
AcDbLine
 10
15.99342784516443
 20
4.949786840425645
 30
0.0
 11
18.27773582687916
 21
1.782061951090668
 31
0.0
  0
LINE
  5
B8F
102
{ACAD_REACTORS
330
B6C
102
}
330
B64
100
AcDbEntity
  8
ROGO
 62
     4
100
AcDbLine
 10
16.08846512307542
 20
2.385177170679753
 30
0.0
 11
16.52338322932866
 21
1.782061951090781
 31
0.0
  0
LINE
  5
B90
102
{ACAD_REACTORS
330
B8B
102
}
330
B64
100
AcDbEntity
  8
ROGO
 62
     4
100
AcDbLine
 10
22.28734561971584
 20
2.960648509043494
 30
0.0
 11
21.69966429711815
 21
1.782061951090668
 31
0.0
  0
LINE
  5
B91
102
{ACAD_REACTORS
330
B66
102
}
330
B64
100
AcDbEntity
  8
ROGO
 62
     4
100
AcDbLine
 10
32.49403698331935
 20
2.960648509043494
 30
0.0
 11
31.90635566072177
 21
1.782061951090611
 31
0.0
  0
ARC
  5
B92
102
{ACAD_REACTORS
330
B8A
102
}
330
B64
100
AcDbEntity
  8
ROGO
 62
     4
100
AcDbCircle
 10
24.94987936318324
 20
3.365924395758156
 30
0.0
 40
1.585199932421021
100
AcDbArc
 50
92.3538081120337
 51
270.0
  0
ARC
  5
B93
102
{ACAD_REACTORS
330
B8A
102
}
330
B64
100
AcDbEntity
  8
ROGO
 62
     4
100
AcDbCircle
 10
26.16568830176476
 20
3.364586908004639
 30
0.0
 40
1.585199932421021
100
AcDbArc
 50
273.3290215232082
 51
90.0000000000006
  0
LINE
  5
B94
102
{ACAD_REACTORS
330
B8B
102
}
330
B64
100
AcDbEntity
  8
ROGO
 62
     4
100
AcDbLine
 10
18.97126114982109
 20
1.782061951090668
 30
0.0
 11
21.6996642971182
 21
1.782061951090668
 31
0.0
  0
LINE
  5
B95
102
{ACAD_REACTORS
330
B6C
102
}
330
B64
100
AcDbEntity
  8
ROGO
 62
     4
100
AcDbLine
 10
18.27773582687911
 20
1.782061951090668
 30
0.0
 11
16.52338322932866
 21
1.782061951090668
 31
0.0
  0
LINE
  5
B96
330
B64
100
AcDbEntity
  8
ROGO
 62
     4
100
AcDbLine
 10
24.8847749691733
 20
1.782061951090668
 30
0.0
 11
26.25774038752019
 21
1.782061951090668
 31
0.0
  0
LINE
  5
B97
102
{ACAD_REACTORS
330
B8A
102
}
330
B64
100
AcDbEntity
  8
ROGO
 62
     4
100
AcDbLine
 10
24.8847749691721
 20
1.782061951090668
 30
0.0
 11
26.25774038752121
 21
1.782061951090668
 31
0.0
  0
LINE
  5
B98
102
{ACAD_REACTORS
330
B66
102
}
330
B64
100
AcDbEntity
  8
ROGO
 62
     4
100
AcDbLine
 10
29.1779525134246
 20
1.782061951090668
 30
0.0
 11
31.90635566072177
 21
1.782061951090668
 31
0.0
  0
LINE
  5
B99
102
{ACAD_REACTORS
330
B6C
102
}
330
B64
100
AcDbEntity
  8
ROGO
 62
     4
100
AcDbLine
 10
15.07801729959914
 20
3.786398348131228
 30
0.0
 11
14.52629071767222
 21
3.021300979620718
 31
0.0
  0
LINE
  5
B9A
102
{ACAD_REACTORS
330
B6C
102
}
330
B64
100
AcDbEntity
  8
ROGO
 62
     4
100
AcDbLine
 10
14.52629071767222
 20
3.021300979620775
 30
0.0
 11
15.62974388152599
 21
3.021300979620775
 31
0.0
  0
LINE
  5
B9B
102
{ACAD_REACTORS
330
B6C
102
}
330
B64
100
AcDbEntity
  8
ROGO
 62
     4
100
AcDbLine
 10
15.07801729959914
 20
3.786398348131228
 30
0.0
 11
15.62974388152599
 21
3.021300979620718
 31
0.0
  0
SPLINE
  5
B9C
102
{ACAD_REACTORS
330
B8B
102
}
330
B64
100
AcDbEntity
  8
ROGO
 62
     4
100
AcDbSpline
210
0.0
220
0.0
230
1.0
 70
     8
 71
     3
 72
    16
 73
    12
 74
    10
 42
0.0000000001
 43
0.0000000001
 44
0.0000000001
 40
0.0
 40
0.0
 40
0.0
 40
0.0
 40
0.3029648785292891
 40
0.4509413735127203
 40
0.5239132529538693
 40
0.6008137308948465
 40
0.7109349953737907
 40
0.8112058912231434
 40
0.9157860995406091
 40
1.091122375522293
 40
1.264668647774888
 40
1.264668647774888
 40
1.264668647774888
 40
1.264668647774888
 10
20.70914246102353
 20
3.77118780143121
 30
0.0
 10
20.60654481322523
 20
3.75554609786451
 30
0.0
 10
20.45383561326141
 20
3.732264550100005
 30
0.0
 10
20.31574058104511
 20
3.622950041937553
 30
0.0
 10
20.237864571025
 20
3.557915185941986
 30
0.0
 10
20.21137080546809
 20
3.471790575521536
 30
0.0
 10
20.14021687102763
 20
3.405660095425645
 30
0.0
 10
20.08156578978607
 20
3.314775529002434
 30
0.0
 10
20.06756124108431
 20
3.189944104912836
 30
0.0
 10
20.07784090046788
 20
3.014762225607029
 30
0.0
 10
20.2006682748652
 20
2.978624611086606
 30
0.0
 10
20.26176686826034
 20
2.960648509043494
 30
0.0
 11
20.70914246102353
 21
3.77118780143121
 31
0.0
 11
20.41662806897176
 21
3.692301503097155
 31
0.0
 11
20.29618090816098
 21
3.606339159479716
 31
0.0
 11
20.24456083773083
 21
3.554761417013025
 31
0.0
 11
20.21014679782997
 21
3.48599109372418
 31
0.0
 11
20.14131970744944
 21
3.400028750106798
 31
0.0
 11
20.08969963701918
 21
3.314065845995742
 31
0.0
 11
20.07249261706875
 21
3.210910921556092
 31
0.0
 11
20.10690665696961
 21
3.038985113333978
 31
0.0
 11
20.26176686826034
 21
2.960648509043494
 31
0.0
  0
LINE
  5
B9D
102
{ACAD_REACTORS
330
B8B
102
}
330
B64
100
AcDbEntity
  8
ROGO
 62
     4
100
AcDbLine
 10
23.27919423493069
 20
4.949786840425645
 30
0.0
 11
22.69150668888256
 21
3.77118780143121
 31
0.0
  0
LINE
  5
B9E
102
{ACAD_REACTORS
330
B8B
102
}
330
B64
100
AcDbEntity
  8
ROGO
 62
     4
100
AcDbLine
 10
20.70914246102342
 20
3.77118780143121
 30
0.0
 11
22.69150668888256
 21
3.771187801431267
 31
0.0
  0
LINE
  5
B9F
102
{ACAD_REACTORS
330
B8B
102
}
330
B64
100
AcDbEntity
  8
ROGO
 62
     4
100
AcDbLine
 10
20.26176686826017
 20
2.960648509043494
 30
0.0
 11
22.28734561971584
 21
2.960648509043494
 31
0.0
  0
LINE
  5
BA0
102
{ACAD_REACTORS
330
B8B
102
}
330
B64
100
AcDbEntity
  8
ROGO
 62
     4
100
AcDbLine
 10
20.10690665697052
 20
4.949786840425758
 30
0.0
 11
23.27919423493069
 21
4.949786840425758
 31
0.0
  0
LINE
  5
BA1
102
{ACAD_REACTORS
330
B8A
102
}
330
B64
100
AcDbEntity
  8
ROGO
 62
     4
100
AcDbLine
 10
25.58056374536529
 20
3.669346287921371
 30
0.0
 11
25.69536003945927
 21
3.653300864703908
 31
0.0
  0
LINE
  5
BA2
102
{ACAD_REACTORS
330
B8A
102
}
330
B64
100
AcDbEntity
  8
ROGO
 62
     4
100
AcDbLine
 10
25.97093226724161
 20
3.347576112203455
 30
0.0
 11
25.92877650574604
 21
3.04597451972495
 31
0.0
  0
LINE
  5
BA3
102
{ACAD_REACTORS
330
B8A
102
}
330
B64
100
AcDbEntity
  8
ROGO
 62
     4
100
AcDbLine
 10
25.17427477727125
 20
3.157453445413295
 30
0.0
 11
25.21643053876682
 21
3.45905503789163
 31
0.0
  0
LINE
  5
BA4
102
{ACAD_REACTORS
330
B8A
102
}
330
B64
100
AcDbEntity
  8
ROGO
 62
     4
100
AcDbLine
 10
25.4710874976596
 20
2.886103156372769
 30
0.0
 11
25.58588379175365
 21
2.870057733155078
 31
0.0
  0
ARC
  5
BA5
102
{ACAD_REACTORS
330
B8A
102
}
330
B64
100
AcDbEntity
  8
ROGO
 62
     4
100
AcDbCircle
 10
25.6387443480632
 20
3.325209828916854
 30
0.0
 40
0.3329400310507254
100
AcDbArc
 50
3.851923331663601
 51
80.20940670206341
  0
ARC
  5
BA6
102
{ACAD_REACTORS
330
B8A
102
}
330
B64
100
AcDbEntity
  8
ROGO
 62
     4
100
AcDbCircle
 10
25.53588647264388
 20
3.326301951055086
 30
0.0
 40
0.3459414339941871
100
AcDbArc
 50
82.57970078354313
 51
157.4341870372611
  0
ARC
  5
BA7
102
{ACAD_REACTORS
330
B8A
102
}
330
B64
100
AcDbEntity
  8
ROGO
 62
     4
100
AcDbCircle
 10
25.49018017588719
 20
3.204994782556525
 30
0.0
 40
0.3194626732688521
100
AcDbArc
 50
188.5583509056651
 51
266.5736774635929
  0
ARC
  5
BA8
102
{ACAD_REACTORS
330
B8A
102
}
330
B64
100
AcDbEntity
  8
ROGO
 62
     4
100
AcDbCircle
 10
25.6545957362211
 20
3.158263540113921
 30
0.0
 40
0.2962835103026008
100
AcDbArc
 50
256.5902863289752
 51
337.7287536965499
  0
LINE
  5
BA9
330
B64
100
AcDbEntity
  8
ROGO
 62
     4
100
AcDbLine
 10
24.88477496917261
 20
4.949786840425645
 30
0.0
 11
25.78248633299404
 21
4.949786840425645
 31
0.0
  0
LINE
  5
BAA
102
{ACAD_REACTORS
330
B8A
102
}
330
B64
100
AcDbEntity
  8
ROGO
 62
     4
100
AcDbLine
 10
24.88477496917216
 20
4.949786840425645
 30
0.0
 11
26.16568830176476
 21
4.949786840425645
 31
0.0
  0
SPLINE
  5
BAB
102
{ACAD_REACTORS
330
B66
102
}
330
B64
100
AcDbEntity
  8
ROGO
 62
     4
100
AcDbSpline
210
0.0
220
0.0
230
1.0
 70
     8
 71
     3
 72
    16
 73
    12
 74
    10
 42
0.0000000001
 43
0.0000000001
 44
0.0000000001
 40
0.0
 40
0.0
 40
0.0
 40
0.0
 40
0.3029648785292594
 40
0.4509413735127369
 40
0.5239132529538859
 40
0.6008137308948632
 40
0.710934995373763
 40
0.811205891223145
 40
0.9157860995407135
 40
1.091122375522274
 40
1.264668647774946
 40
1.264668647774946
 40
1.264668647774946
 40
1.264668647774946
 10
30.9158338246271
 20
3.771187801431096
 30
0.0
 10
30.81323617682881
 20
3.755546097864422
 30
0.0
 10
30.660526976865
 20
3.732264550099954
 30
0.0
 10
30.5224319446486
 20
3.62295004193761
 30
0.0
 10
30.44455593462858
 20
3.557915185941908
 30
0.0
 10
30.41806216907167
 20
3.4717905755215
 30
0.0
 10
30.34690823463119
 20
3.405660095425618
 30
0.0
 10
30.28825715338954
 20
3.314775529002425
 30
0.0
 10
30.27425260468793
 20
3.189944104912787
 30
0.0
 10
30.28453226407141
 20
3.014762225606994
 30
0.0
 10
30.40735963846873
 20
2.978624611086564
 30
0.0
 10
30.46845823186391
 20
2.960648509043437
 30
0.0
 11
30.9158338246271
 21
3.771187801431096
 31
0.0
 11
30.62331943257533
 21
3.692301503097155
 31
0.0
 11
30.50287227176449
 21
3.606339159479716
 31
0.0
 11
30.4512522013344
 21
3.554761417012969
 31
0.0
 11
30.41683816143353
 21
3.485991093724123
 31
0.0
 11
30.34801107105301
 21
3.400028750106798
 31
0.0
 11
30.29639100062269
 21
3.314065845995742
 31
0.0
 11
30.27918398067232
 21
3.210910921555978
 31
0.0
 11
30.31359802057313
 21
3.038985113333978
 31
0.0
 11
30.46845823186391
 21
2.960648509043437
 31
0.0
  0
LINE
  5
BAC
102
{ACAD_REACTORS
330
B66
102
}
330
B64
100
AcDbEntity
  8
ROGO
 62
     4
100
AcDbLine
 10
30.46845823186379
 20
2.960648509043494
 30
0.0
 11
32.49403698331941
 21
2.960648509043494
 31
0.0
  0
LINE
  5
BAD
102
{ACAD_REACTORS
330
B66
102
}
330
B64
100
AcDbEntity
  8
ROGO
 62
     4
100
AcDbLine
 10
30.91583382462699
 20
3.77118780143121
 30
0.0
 11
32.89819805248607
 21
3.77118780143121
 31
0.0
  0
LINE
  5
BAE
102
{ACAD_REACTORS
330
B65
102
}
330
B64
100
AcDbEntity
  8
ROGO
 62
     4
100
AcDbLine
 10
35.38336074148231
 20
2.474893420212765
 30
0.0
 11
36.6174225324171
 21
0.0
 31
0.0
  0
LINE
  5
BAF
102
{ACAD_REACTORS
330
B65
102
}
330
B64
100
AcDbEntity
  8
ROGO
 62
     4
100
AcDbLine
 10
34.14933885635003
 20
1.291950329372127
 30
0.0
 11
34.79354701668626
 21
0.0
 31
0.0
  0
LINE
  5
BB0
102
{ACAD_REACTORS
330
B65
102
}
330
B64
100
AcDbEntity
  8
ROGO
 62
     4
100
AcDbLine
 10
34.14933885635008
 20
1.29195032937207
 30
0.0
 11
33.50513069601385
 21
0.0
 31
0.0
  0
LINE
  5
BB1
102
{ACAD_REACTORS
330
B65
102
}
330
B64
100
AcDbEntity
  8
ROGO
 62
     4
100
AcDbLine
 10
34.79354701668626
 20
0.0
 30
0.0
 11
36.6174225324171
 21
0.0
 31
0.0
  0
LINE
  5
BB2
102
{ACAD_REACTORS
330
B65
102
}
330
B64
100
AcDbEntity
  8
ROGO
 62
     4
100
AcDbLine
 10
35.38336074148231
 20
2.474893420212765
 30
0.0
 11
38.38165352405161
 21
4.949786840425645
 31
0.0
  0
LINE
  5
BB3
102
{ACAD_REACTORS
330
B65
102
}
330
B64
100
AcDbEntity
  8
ROGO
 62
     4
100
AcDbLine
 10
36.55777800832078
 20
4.949786840425645
 30
0.0
 11
38.38165352405156
 21
4.949786840425645
 31
0.0
  0
LINE
  5
BB4
102
{ACAD_REACTORS
330
B65
102
}
330
B64
100
AcDbEntity
  8
ROGO
 62
     4
100
AcDbLine
 10
34.14933885635003
 20
4.949786840425645
 30
0.0
 11
35.97325427788326
 21
4.949786840425588
 31
0.0
  0
LINE
  5
BB5
102
{ACAD_REACTORS
330
B65
102
}
330
B64
100
AcDbEntity
  8
ROGO
 62
     4
100
AcDbLine
 10
35.97325427788326
 20
4.949786840425588
 30
0.0
 11
35.70378540756269
 21
4.409370842614521
 31
0.0
  0
LINE
  5
BB6
102
{ACAD_REACTORS
330
B65
102
}
330
B64
100
AcDbEntity
  8
ROGO
 62
     4
100
AcDbLine
 10
35.70378540756269
 20
4.409370842614521
 30
0.0
 11
36.55777800832078
 21
4.949786840425645
 31
0.0
  0
ENDBLK
  5
BB8
330
B64
100
AcDbEntity
  8
0
100
AcDbBlockEnd
  0
BLOCK
  5
10A5
330
E12
100
AcDbEntity
  8
0
100
AcDbBlockBegin
  2
*D10
 70
     1
 10
0.0
 20
0.0
 30
0.0
  3
*D10
  1

  0
LINE
  5
10A6
330
E12
100
AcDbEntity
  8
0
  6
ByBlock
 62
     2
100
AcDbLine
 10
40.44979591785502
 20
272.4103143586664
 30
0.0
 11
40.44979591785502
 21
281.0448294470248
 31
0.0
  0
LINE
  5
10A7
330
E12
100
AcDbEntity
  8
0
  6
ByBlock
 62
     2
100
AcDbLine
 10
44.44979591785503
 20
272.4103143586665
 30
0.0
 11
44.44979591785503
 21
281.0448294470248
 31
0.0
  0
LINE
  5
10A8
330
E12
100
AcDbEntity
  8
0
  6
ByBlock
 62
     2
100
AcDbLine
 10
37.94979591785503
 20
279.7948294470248
 30
0.0
 11
35.44979591785503
 21
279.7948294470248
 31
0.0
  0
LINE
  5
10A9
330
E12
100
AcDbEntity
  8
0
  6
ByBlock
 62
     2
100
AcDbLine
 10
46.94979591785503
 20
279.7948294470248
 30
0.0
 11
49.44979591785503
 21
279.7948294470248
 31
0.0
  0
LINE
  5
10AA
330
E12
100
AcDbEntity
  8
0
  6
ByBlock
 62
     2
100
AcDbLine
 10
40.44979591785502
 20
279.7948294470248
 30
0.0
 11
44.44979591785503
 21
279.7948294470248
 31
0.0
  0
INSERT
  5
10AB
330
E12
100
AcDbEntity
  8
0
  6
ByBlock
 62
     2
100
AcDbBlockReference
  2
_OPEN
 10
40.44979591785502
 20
279.7948294470248
 30
0.0
 41
2.5
 42
2.5
 43
2.5
  0
INSERT
  5
10AC
330
E12
100
AcDbEntity
  8
0
  6
ByBlock
 62
     2
100
AcDbBlockReference
  2
_OPEN
 10
44.44979591785503
 20
279.7948294470248
 30
0.0
 41
2.5
 42
2.5
 43
2.5
 50
180.0
  0
MTEXT
  5
10AD
330
E12
100
AcDbEntity
  8
0
  6
ByBlock
 62
     6
100
AcDbMText
 10
42.44979591785503
 20
281.6698294470248
 30
0.0
 40
2.5
 41
0.0
 71
     5
 72
     1
  1
\A1;4
  7
STYLE3
 73
     1
 44
1.0
  0
POINT
  5
10AE
330
E12
100
AcDbEntity
  8
DEFPOINTS
  6
ByBlock
 62
     0
100
AcDbPoint
 10
40.44979591785502
 20
272.4103143586664
 30
0.0
  0
POINT
  5
10AF
330
E12
100
AcDbEntity
  8
DEFPOINTS
  6
ByBlock
 62
     0
100
AcDbPoint
 10
44.44979591785503
 20
272.4103143586665
 30
0.0
  0
POINT
  5
10B0
330
E12
100
AcDbEntity
  8
DEFPOINTS
  6
ByBlock
 62
     0
100
AcDbPoint
 10
44.44979591785503
 20
279.7948294470248
 30
0.0
  0
ENDBLK
  5
10B1
330
E12
100
AcDbEntity
  8
0
100
AcDbBlockEnd
  0
BLOCK
  5
FBF
330
FBE
100
AcDbEntity
  8
0
100
AcDbBlockBegin
  2
*D12
 70
     1
 10
0.0
 20
0.0
 30
0.0
  3
*D12
  1

  0
LINE
  5
FC0
330
FBE
100
AcDbEntity
  8
0
  6
ByBlock
 62
     2
100
AcDbLine
 10
155.378609466449
 20
143.3103143586663
 30
0.0
 11
165.7769745638347
 21
143.3103143586663
 31
0.0
  0
LINE
  5
FC1
330
FBE
100
AcDbEntity
  8
0
  6
ByBlock
 62
     2
100
AcDbLine
 10
163.9640704157614
 20
140.3103143586663
 30
0.0
 11
165.7769745638347
 21
140.3103143586663
 31
0.0
  0
LINE
  5
FC2
330
FBE
100
AcDbEntity
  8
0
  6
ByBlock
 62
     2
100
AcDbLine
 10
164.5269745638347
 20
145.8103143586663
 30
0.0
 11
164.5269745638347
 21
148.3103143586663
 31
0.0
  0
LINE
  5
FC3
330
FBE
100
AcDbEntity
  8
0
  6
ByBlock
 62
     2
100
AcDbLine
 10
164.5269745638347
 20
137.8103143586663
 30
0.0
 11
164.5269745638347
 21
135.3103143586663
 31
0.0
  0
LINE
  5
FC4
330
FBE
100
AcDbEntity
  8
0
  6
ByBlock
 62
     2
100
AcDbLine
 10
164.5269745638347
 20
143.3103143586663
 30
0.0
 11
164.5269745638347
 21
140.3103143586663
 31
0.0
  0
INSERT
  5
FC5
330
FBE
100
AcDbEntity
  8
0
  6
ByBlock
 62
     2
100
AcDbBlockReference
  2
_OPEN
 10
164.5269745638347
 20
143.3103143586663
 30
0.0
 41
2.5
 42
2.5
 43
2.5
 50
270.0
  0
INSERT
  5
FC6
330
FBE
100
AcDbEntity
  8
0
  6
ByBlock
 62
     2
100
AcDbBlockReference
  2
_OPEN
 10
164.5269745638347
 20
140.3103143586663
 30
0.0
 41
2.5
 42
2.5
 43
2.5
 50
90.0
  0
MTEXT
  5
FC7
330
FBE
100
AcDbEntity
  8
0
  6
ByBlock
 62
     6
100
AcDbMText
 10
162.6519745638347
 20
141.8103143586663
 30
0.0
 40
2.5
 41
0.0
 71
     5
 72
     1
  1
\A1;3
  7
STYLE3
 11
0.0000000000000001
 21
1.0
 31
0.0
 73
     1
 44
1.0
  0
POINT
  5
FC8
330
FBE
100
AcDbEntity
  8
DEFPOINTS
  6
ByBlock
 62
     0
100
AcDbPoint
 10
155.378609466449
 20
143.3103143586663
 30
0.0
  0
POINT
  5
FC9
330
FBE
100
AcDbEntity
  8
DEFPOINTS
  6
ByBlock
 62
     0
100
AcDbPoint
 10
163.9640704157614
 20
140.3103143586663
 30
0.0
  0
POINT
  5
FCA
330
FBE
100
AcDbEntity
  8
DEFPOINTS
  6
ByBlock
 62
     0
100
AcDbPoint
 10
164.5269745638347
 20
140.3103143586663
 30
0.0
  0
ENDBLK
  5
FCB
330
FBE
100
AcDbEntity
  8
0
100
AcDbBlockEnd
  0
BLOCK
  5
1053
330
100C
100
AcDbEntity
  8
0
100
AcDbBlockBegin
  2
*D13
 70
     1
 10
0.0
 20
0.0
 30
0.0
  3
*D13
  1

  0
LINE
  5
1054
330
100C
100
AcDbEntity
  8
0
  6
ByBlock
 62
     2
100
AcDbLine
 10
191.628609466449
 20
62.31031435866634
 30
0.0
 11
110.8222688739138
 21
62.31031435866636
 31
0.0
  0
LINE
  5
1055
330
100C
100
AcDbEntity
  8
0
  6
ByBlock
 62
     2
100
AcDbLine
 10
137.628609466449
 20
99.31031435866634
 30
0.0
 11
110.8222688739138
 21
99.31031435866636
 31
0.0
  0
LINE
  5
1056
330
100C
100
AcDbEntity
  8
0
  6
ByBlock
 62
     2
100
AcDbLine
 10
112.0722688739138
 20
64.81031435866637
 30
0.0
 11
112.0722688739138
 21
96.81031435866636
 31
0.0
  0
INSERT
  5
1057
330
100C
100
AcDbEntity
  8
0
  6
ByBlock
 62
     2
100
AcDbBlockReference
  2
_OPEN
 10
112.0722688739138
 20
62.31031435866636
 30
0.0
 41
2.5
 42
2.5
 43
2.5
 50
270.0
  0
INSERT
  5
1058
330
100C
100
AcDbEntity
  8
0
  6
ByBlock
 62
     2
100
AcDbBlockReference
  2
_OPEN
 10
112.0722688739138
 20
99.31031435866636
 30
0.0
 41
2.5
 42
2.5
 43
2.5
 50
90.0
  0
MTEXT
  5
1059
330
100C
100
AcDbEntity
  8
0
  6
ByBlock
 62
     6
100
AcDbMText
 10
110.1972688739138
 20
80.81031435866636
 30
0.0
 40
2.5
 41
0.0
 71
     5
 72
     1
  1
\A1;37
  7
STYLE3
 11
0.0000000000000001
 21
1.0
 31
0.0
 73
     1
 44
1.0
  0
POINT
  5
105A
330
100C
100
AcDbEntity
  8
DEFPOINTS
  6
ByBlock
 62
     0
100
AcDbPoint
 10
191.628609466449
 20
62.31031435866634
 30
0.0
  0
POINT
  5
105B
330
100C
100
AcDbEntity
  8
DEFPOINTS
  6
ByBlock
 62
     0
100
AcDbPoint
 10
137.628609466449
 20
99.31031435866634
 30
0.0
  0
POINT
  5
105C
330
100C
100
AcDbEntity
  8
DEFPOINTS
  6
ByBlock
 62
     0
100
AcDbPoint
 10
112.0722688739138
 20
99.31031435866636
 30
0.0
  0
ENDBLK
  5
105D
330
100C
100
AcDbEntity
  8
0
100
AcDbBlockEnd
  0
BLOCK
  5
105E
330
1019
100
AcDbEntity
  8
0
100
AcDbBlockBegin
  2
*D14
 70
     1
 10
0.0
 20
0.0
 30
0.0
  3
*D14
  1

  0
LINE
  5
105F
330
1019
100
AcDbEntity
  8
0
  6
ByBlock
 62
     2
100
AcDbLine
 10
109.8619769028037
 20
140.3103143586663
 30
0.0
 11
113.3222688739138
 21
140.3103143586663
 31
0.0
  0
LINE
  5
1060
330
1019
100
AcDbEntity
  8
0
  6
ByBlock
 62
     2
100
AcDbLine
 10
112.0722688739138
 20
101.8103143586663
 30
0.0
 11
112.0722688739138
 21
137.8103143586663
 31
0.0
  0
INSERT
  5
1061
330
1019
100
AcDbEntity
  8
0
  6
ByBlock
 62
     2
100
AcDbBlockReference
  2
_OPEN
 10
112.0722688739138
 20
99.31031435866636
 30
0.0
 41
2.5
 42
2.5
 43
2.5
 50
270.0
  0
INSERT
  5
1062
330
1019
100
AcDbEntity
  8
0
  6
ByBlock
 62
     2
100
AcDbBlockReference
  2
_OPEN
 10
112.0722688739138
 20
140.3103143586663
 30
0.0
 41
2.5
 42
2.5
 43
2.5
 50
90.0
  0
MTEXT
  5
1063
330
1019
100
AcDbEntity
  8
0
  6
ByBlock
 62
     6
100
AcDbMText
 10
110.1972688739138
 20
119.8103143586663
 30
0.0
 40
2.5
 41
0.0
 71
     5
 72
     1
  1
\A1;41
  7
STYLE3
 11
0.0000000000000001
 21
1.0
 31
0.0
 73
     1
 44
1.0
  0
POINT
  5
1064
330
1019
100
AcDbEntity
  8
DEFPOINTS
  6
ByBlock
 62
     0
100
AcDbPoint
 10
137.628609466449
 20
99.31031435866634
 30
0.0
  0
POINT
  5
1065
330
1019
100
AcDbEntity
  8
DEFPOINTS
  6
ByBlock
 62
     0
100
AcDbPoint
 10
109.8619769028037
 20
140.3103143586663
 30
0.0
  0
POINT
  5
1066
330
1019
100
AcDbEntity
  8
DEFPOINTS
  6
ByBlock
 62
     0
100
AcDbPoint
 10
112.0722688739138
 20
140.3103143586663
 30
0.0
  0
ENDBLK
  5
1067
330
1019
100
AcDbEntity
  8
0
100
AcDbBlockEnd
  0
BLOCK
  5
1049
330
1025
100
AcDbEntity
  8
0
100
AcDbBlockBegin
  2
*D15
 70
     1
 10
0.0
 20
0.0
 30
0.0
  3
*D15
  1

  0
LINE
  5
104A
330
1025
100
AcDbEntity
  8
0
  6
ByBlock
 62
     2
100
AcDbLine
 10
138.028609466449
 20
192.3103143586663
 30
0.0
 11
110.8222688739138
 21
192.3103143586663
 31
0.0
  0
LINE
  5
104B
330
1025
100
AcDbEntity
  8
0
  6
ByBlock
 62
     2
100
AcDbLine
 10
112.0722688739138
 20
142.8103143586663
 30
0.0
 11
112.0722688739138
 21
189.8103143586663
 31
0.0
  0
INSERT
  5
104C
330
1025
100
AcDbEntity
  8
0
  6
ByBlock
 62
     2
100
AcDbBlockReference
  2
_OPEN
 10
112.0722688739138
 20
140.3103143586663
 30
0.0
 41
2.5
 42
2.5
 43
2.5
 50
270.0
  0
INSERT
  5
104D
330
1025
100
AcDbEntity
  8
0
  6
ByBlock
 62
     2
100
AcDbBlockReference
  2
_OPEN
 10
112.0722688739138
 20
192.3103143586663
 30
0.0
 41
2.5
 42
2.5
 43
2.5
 50
90.0
  0
MTEXT
  5
104E
330
1025
100
AcDbEntity
  8
0
  6
ByBlock
 62
     6
100
AcDbMText
 10
110.1972688739138
 20
166.3103143586663
 30
0.0
 40
2.5
 41
0.0
 71
     5
 72
     1
  1
\A1;52
  7
STYLE3
 11
0.0000000000000001
 21
1.0
 31
0.0
 73
     1
 44
1.0
  0
POINT
  5
104F
330
1025
100
AcDbEntity
  8
DEFPOINTS
  6
ByBlock
 62
     0
100
AcDbPoint
 10
109.8619769028037
 20
140.3103143586663
 30
0.0
  0
POINT
  5
1050
330
1025
100
AcDbEntity
  8
DEFPOINTS
  6
ByBlock
 62
     0
100
AcDbPoint
 10
138.028609466449
 20
192.3103143586663
 30
0.0
  0
POINT
  5
1051
330
1025
100
AcDbEntity
  8
DEFPOINTS
  6
ByBlock
 62
     0
100
AcDbPoint
 10
112.0722688739138
 20
192.3103143586663
 30
0.0
  0
ENDBLK
  5
1052
330
1025
100
AcDbEntity
  8
0
100
AcDbBlockEnd
  0
BLOCK
  5
1072
330
1031
100
AcDbEntity
  8
0
100
AcDbBlockBegin
  2
*D16
 70
     1
 10
0.0
 20
0.0
 30
0.0
  3
*D16
  1

  0
LINE
  5
1073
330
1031
100
AcDbEntity
  8
0
  6
ByBlock
 62
     2
100
AcDbLine
 10
108.9562575844456
 20
229.4103143586664
 30
0.0
 11
113.3222688739138
 21
229.4103143586664
 31
0.0
  0
LINE
  5
1074
330
1031
100
AcDbEntity
  8
0
  6
ByBlock
 62
     2
100
AcDbLine
 10
112.0722688739138
 20
194.8103143586663
 30
0.0
 11
112.0722688739138
 21
226.9103143586663
 31
0.0
  0
INSERT
  5
1075
330
1031
100
AcDbEntity
  8
0
  6
ByBlock
 62
     2
100
AcDbBlockReference
  2
_OPEN
 10
112.0722688739138
 20
192.3103143586663
 30
0.0
 41
2.5
 42
2.5
 43
2.5
 50
270.0
  0
INSERT
  5
1076
330
1031
100
AcDbEntity
  8
0
  6
ByBlock
 62
     2
100
AcDbBlockReference
  2
_OPEN
 10
112.0722688739138
 20
229.4103143586664
 30
0.0
 41
2.5
 42
2.5
 43
2.5
 50
90.0
  0
MTEXT
  5
1077
330
1031
100
AcDbEntity
  8
0
  6
ByBlock
 62
     6
100
AcDbMText
 10
110.1972688739138
 20
210.8603143586663
 30
0.0
 40
2.5
 41
0.0
 71
     5
 72
     1
  1
\A1;37.1
  7
STYLE3
 11
0.0000000000000001
 21
1.0
 31
0.0
 73
     1
 44
1.0
  0
POINT
  5
1078
330
1031
100
AcDbEntity
  8
DEFPOINTS
  6
ByBlock
 62
     0
100
AcDbPoint
 10
138.028609466449
 20
192.3103143586663
 30
0.0
  0
POINT
  5
1079
330
1031
100
AcDbEntity
  8
DEFPOINTS
  6
ByBlock
 62
     0
100
AcDbPoint
 10
108.9562575844456
 20
229.4103143586664
 30
0.0
  0
POINT
  5
107A
330
1031
100
AcDbEntity
  8
DEFPOINTS
  6
ByBlock
 62
     0
100
AcDbPoint
 10
112.0722688739138
 20
229.4103143586664
 30
0.0
  0
ENDBLK
  5
107B
330
1031
100
AcDbEntity
  8
0
100
AcDbBlockEnd
  0
BLOCK
  5
1068
330
103D
100
AcDbEntity
  8
0
100
AcDbBlockBegin
  2
*D17
 70
     1
 10
0.0
 20
0.0
 30
0.0
  3
*D17
  1

  0
LINE
  5
1069
330
103D
100
AcDbEntity
  8
0
  6
ByBlock
 62
     2
100
AcDbLine
 10
142.628609466449
 20
268.8100796145587
 30
0.0
 11
110.8222688739138
 21
268.8100796145587
 31
0.0
  0
LINE
  5
106A
330
103D
100
AcDbEntity
  8
0
  6
ByBlock
 62
     2
100
AcDbLine
 10
112.0722688739138
 20
231.9103143586664
 30
0.0
 11
112.0722688739138
 21
266.3100796145587
 31
0.0
  0
INSERT
  5
106B
330
103D
100
AcDbEntity
  8
0
  6
ByBlock
 62
     2
100
AcDbBlockReference
  2
_OPEN
 10
112.0722688739138
 20
229.4103143586664
 30
0.0
 41
2.5
 42
2.5
 43
2.5
 50
270.0
  0
INSERT
  5
106C
330
103D
100
AcDbEntity
  8
0
  6
ByBlock
 62
     2
100
AcDbBlockReference
  2
_OPEN
 10
112.0722688739138
 20
268.8100796145587
 30
0.0
 41
2.5
 42
2.5
 43
2.5
 50
90.0
  0
MTEXT
  5
106D
330
103D
100
AcDbEntity
  8
0
  6
ByBlock
 62
     6
100
AcDbMText
 10
110.1972688739138
 20
249.1101969866125
 30
0.0
 40
2.5
 41
0.0
 71
     5
 72
     1
  1
\A1;39.4
  7
STYLE3
 11
0.0000000000000001
 21
1.0
 31
0.0
 73
     1
 44
1.0
  0
POINT
  5
106E
330
103D
100
AcDbEntity
  8
DEFPOINTS
  6
ByBlock
 62
     0
100
AcDbPoint
 10
108.9562575844456
 20
229.4103143586664
 30
0.0
  0
POINT
  5
106F
330
103D
100
AcDbEntity
  8
DEFPOINTS
  6
ByBlock
 62
     0
100
AcDbPoint
 10
142.628609466449
 20
268.8100796145587
 30
0.0
  0
POINT
  5
1070
330
103D
100
AcDbEntity
  8
DEFPOINTS
  6
ByBlock
 62
     0
100
AcDbPoint
 10
112.0722688739138
 20
268.8100796145587
 30
0.0
  0
ENDBLK
  5
1071
330
103D
100
AcDbEntity
  8
0
100
AcDbBlockEnd
  0
BLOCK
  5
107D
330
107C
100
AcDbEntity
  8
0
100
AcDbBlockBegin
  2
*D18
 70
     1
 10
0.0
 20
0.0
 30
0.0
  3
*D18
  1

  0
LINE
  5
107E
330
107C
100
AcDbEntity
  8
0
  6
ByBlock
 62
     2
100
AcDbLine
 10
110.8222688739138
 20
268.8100796145587
 30
0.0
 11
104.9415902082112
 21
268.8100796145587
 31
0.0
  0
LINE
  5
107F
330
107C
100
AcDbEntity
  8
0
  6
ByBlock
 62
     2
100
AcDbLine
 10
110.8222688739138
 20
62.31031435866636
 30
0.0
 11
104.9415902082112
 21
62.31031435866636
 31
0.0
  0
LINE
  5
1080
330
107C
100
AcDbEntity
  8
0
  6
ByBlock
 62
     2
100
AcDbLine
 10
106.1915902082112
 20
266.3100796145587
 30
0.0
 11
106.1915902082112
 21
64.81031435866637
 31
0.0
  0
INSERT
  5
1081
330
107C
100
AcDbEntity
  8
0
  6
ByBlock
 62
     2
100
AcDbBlockReference
  2
_OPEN
 10
106.1915902082112
 20
268.8100796145587
 30
0.0
 41
2.5
 42
2.5
 43
2.5
 50
90.0
  0
INSERT
  5
1082
330
107C
100
AcDbEntity
  8
0
  6
ByBlock
 62
     2
100
AcDbBlockReference
  2
_OPEN
 10
106.1915902082112
 20
62.31031435866636
 30
0.0
 41
2.5
 42
2.5
 43
2.5
 50
270.0
  0
MTEXT
  5
1083
330
107C
100
AcDbEntity
  8
0
  6
ByBlock
 62
     6
100
AcDbMText
 10
104.3165902082112
 20
165.5601969866125
 30
0.0
 40
2.5
 41
0.0
 71
     5
 72
     1
  1
\A1;206.5
  7
STYLE3
 11
0.0000000000000001
 21
1.0
 31
0.0
 73
     1
 44
1.0
  0
POINT
  5
1084
330
107C
100
AcDbEntity
  8
DEFPOINTS
  6
ByBlock
 62
     0
100
AcDbPoint
 10
110.8222688739138
 20
268.8100796145587
 30
0.0
  0
POINT
  5
1085
330
107C
100
AcDbEntity
  8
DEFPOINTS
  6
ByBlock
 62
     0
100
AcDbPoint
 10
110.8222688739138
 20
62.31031435866636
 30
0.0
  0
POINT
  5
1086
330
107C
100
AcDbEntity
  8
DEFPOINTS
  6
ByBlock
 62
     0
100
AcDbPoint
 10
106.1915902082112
 20
62.31031435866636
 30
0.0
  0
ENDBLK
  5
1087
330
107C
100
AcDbEntity
  8
0
100
AcDbBlockEnd
  0
BLOCK
  5
10B2
330
1089
100
AcDbEntity
  8
0
100
AcDbBlockBegin
  2
*D19
 70
     1
 10
0.0
 20
0.0
 30
0.0
  3
*D19
  1

  0
LINE
  5
10B3
330
1089
100
AcDbEntity
  8
0
  6
ByBlock
 62
     2
100
AcDbLine
 10
142.628609466449
 20
268.8100796145587
 30
0.0
 11
142.628609466449
 21
285.904424532946
 31
0.0
  0
LINE
  5
10B4
330
1089
100
AcDbEntity
  8
0
  6
ByBlock
 62
     2
100
AcDbLine
 10
150.628609466449
 20
268.8100796145588
 30
0.0
 11
150.628609466449
 21
285.904424532946
 31
0.0
  0
LINE
  5
10B5
330
1089
100
AcDbEntity
  8
0
  6
ByBlock
 62
     2
100
AcDbLine
 10
145.128609466449
 20
284.654424532946
 30
0.0
 11
148.128609466449
 21
284.654424532946
 31
0.0
  0
INSERT
  5
10B6
330
1089
100
AcDbEntity
  8
0
  6
ByBlock
 62
     2
100
AcDbBlockReference
  2
_OPEN
 10
142.628609466449
 20
284.654424532946
 30
0.0
 41
2.5
 42
2.5
 43
2.5
 50
180.0
  0
INSERT
  5
10B7
330
1089
100
AcDbEntity
  8
0
  6
ByBlock
 62
     2
100
AcDbBlockReference
  2
_OPEN
 10
150.628609466449
 20
284.654424532946
 30
0.0
 41
2.5
 42
2.5
 43
2.5
  0
MTEXT
  5
10B8
330
1089
100
AcDbEntity
  8
0
  6
ByBlock
 62
     6
100
AcDbMText
 10
146.628609466449
 20
286.529424532946
 30
0.0
 40
2.5
 41
0.0
 71
     5
 72
     1
  1
\A1;8
  7
STYLE3
 73
     1
 44
1.0
  0
POINT
  5
10B9
330
1089
100
AcDbEntity
  8
DEFPOINTS
  6
ByBlock
 62
     0
100
AcDbPoint
 10
142.628609466449
 20
268.8100796145587
 30
0.0
  0
POINT
  5
10BA
330
1089
100
AcDbEntity
  8
DEFPOINTS
  6
ByBlock
 62
     0
100
AcDbPoint
 10
150.628609466449
 20
268.8100796145588
 30
0.0
  0
POINT
  5
10BB
330
1089
100
AcDbEntity
  8
DEFPOINTS
  6
ByBlock
 62
     0
100
AcDbPoint
 10
150.628609466449
 20
284.654424532946
 30
0.0
  0
ENDBLK
  5
10BC
330
1089
100
AcDbEntity
  8
0
100
AcDbBlockEnd
  0
BLOCK
  5
1097
330
1096
100
AcDbEntity
  8
0
100
AcDbBlockBegin
  2
*D20
 70
     1
 10
0.0
 20
0.0
 30
0.0
  3
*D20
  1

  0
LINE
  5
1098
330
1096
100
AcDbEntity
  8
0
  6
ByBlock
 62
     2
100
AcDbLine
 10
146.628609466449
 20
270.1958246544839
 30
0.0
 11
146.628609466449
 21
280.320551262239
 31
0.0
  0
LINE
  5
1099
330
1096
100
AcDbEntity
  8
0
  6
ByBlock
 62
     2
100
AcDbLine
 10
152.028609466449
 20
269.6693911568848
 30
0.0
 11
152.028609466449
 21
280.320551262239
 31
0.0
  0
LINE
  5
109A
330
1096
100
AcDbEntity
  8
0
  6
ByBlock
 62
     2
100
AcDbLine
 10
144.128609466449
 20
279.0705512622389
 30
0.0
 11
141.628609466449
 21
279.0705512622389
 31
0.0
  0
LINE
  5
109B
330
1096
100
AcDbEntity
  8
0
  6
ByBlock
 62
     2
100
AcDbLine
 10
154.528609466449
 20
279.0705512622389
 30
0.0
 11
163.6357523235919
 21
279.0705512622389
 31
0.0
  0
LINE
  5
109C
330
1096
100
AcDbEntity
  8
0
  6
ByBlock
 62
     2
100
AcDbLine
 10
146.628609466449
 20
279.0705512622389
 30
0.0
 11
152.028609466449
 21
279.0705512622389
 31
0.0
  0
INSERT
  5
109D
330
1096
100
AcDbEntity
  8
0
  6
ByBlock
 62
     2
100
AcDbBlockReference
  2
_OPEN
 10
146.628609466449
 20
279.0705512622389
 30
0.0
 41
2.5
 42
2.5
 43
2.5
  0
INSERT
  5
109E
330
1096
100
AcDbEntity
  8
0
  6
ByBlock
 62
     2
100
AcDbBlockReference
  2
_OPEN
 10
152.028609466449
 20
279.0705512622389
 30
0.0
 41
2.5
 42
2.5
 43
2.5
 50
180.0
  0
MTEXT
  5
109F
330
1096
100
AcDbEntity
  8
0
  6
ByBlock
 62
     6
100
AcDbMText
 10
160.3321808950204
 20
280.945551262239
 30
0.0
 40
2.5
 41
0.0
 71
     5
 72
     1
  1
\A1;5.4
  7
STYLE3
 73
     1
 44
1.0
  0
POINT
  5
10A0
330
1096
100
AcDbEntity
  8
DEFPOINTS
  6
ByBlock
 62
     0
100
AcDbPoint
 10
146.628609466449
 20
270.1958246544839
 30
0.0
  0
POINT
  5
10A1
330
1096
100
AcDbEntity
  8
DEFPOINTS
  6
ByBlock
 62
     0
100
AcDbPoint
 10
152.028609466449
 20
269.6693911568848
 30
0.0
  0
POINT
  5
10A2
330
1096
100
AcDbEntity
  8
DEFPOINTS
  6
ByBlock
 62
     0
100
AcDbPoint
 10
152.028609466449
 20
279.0705512622389
 30
0.0
  0
ENDBLK
  5
10A3
330
1096
100
AcDbEntity
  8
0
100
AcDbBlockEnd
  0
BLOCK
  5
10D0
330
10CF
100
AcDbEntity
  8
0
100
AcDbBlockBegin
  2
*D21
 70
     1
 10
0.0
 20
0.0
 30
0.0
  3
*D21
  1

  0
LINE
  5
10D1
330
10CF
100
AcDbEntity
  8
0
  6
ByBlock
 62
     2
100
AcDbLine
 10
550.6286094664489
 20
166.3103143586663
 30
0.0
 11
550.6286094664489
 21
49.34283117410564
 31
0.0
  0
LINE
  5
10D2
330
10CF
100
AcDbEntity
  8
0
  6
ByBlock
 62
     2
100
AcDbLine
 10
146.628609466449
 20
73.67023471580239
 30
0.0
 11
146.628609466449
 21
49.34283117410564
 31
0.0
  0
LINE
  5
10D3
330
10CF
100
AcDbEntity
  8
0
  6
ByBlock
 62
     2
100
AcDbLine
 10
548.128609466449
 20
50.59283117410564
 30
0.0
 11
149.128609466449
 21
50.59283117410564
 31
0.0
  0
INSERT
  5
10D4
330
10CF
100
AcDbEntity
  8
0
  6
ByBlock
 62
     2
100
AcDbBlockReference
  2
_OPEN
 10
550.6286094664489
 20
50.59283117410564
 30
0.0
 41
2.5
 42
2.5
 43
2.5
  0
INSERT
  5
10D5
330
10CF
100
AcDbEntity
  8
0
  6
ByBlock
 62
     2
100
AcDbBlockReference
  2
_OPEN
 10
146.628609466449
 20
50.59283117410564
 30
0.0
 41
2.5
 42
2.5
 43
2.5
 50
180.0
  0
MTEXT
  5
10D6
330
10CF
100
AcDbEntity
  8
0
  6
ByBlock
 62
     6
100
AcDbMText
 10
348.628609466449
 20
52.46783117410564
 30
0.0
 40
2.5
 41
0.0
 71
     5
 72
     1
  1
\A1;404
  7
STYLE3
 73
     1
 44
1.0
  0
POINT
  5
10D7
330
10CF
100
AcDbEntity
  8
DEFPOINTS
  6
ByBlock
 62
     0
100
AcDbPoint
 10
550.6286094664489
 20
166.3103143586663
 30
0.0
  0
POINT
  5
10D8
330
10CF
100
AcDbEntity
  8
DEFPOINTS
  6
ByBlock
 62
     0
100
AcDbPoint
 10
146.628609466449
 20
73.67023471580239
 30
0.0
  0
POINT
  5
10D9
330
10CF
100
AcDbEntity
  8
DEFPOINTS
  6
ByBlock
 62
     0
100
AcDbPoint
 10
146.628609466449
 20
50.59283117410564
 30
0.0
  0
ENDBLK
  5
10DA
330
10CF
100
AcDbEntity
  8
0
100
AcDbBlockEnd
  0
ENDSEC
  0
SECTION
  2
ENTITIES
  0
LWPOLYLINE
  5
1A0
330
18
100
AcDbEntity
  8
C
100
AcDbPolyline
 90
        5
 70
     0
 43
0.8
 38
1.0
 10
-8.34410968159932
 20
362.0043619952881
 10
556.6558903184007
 20
362.0043619952881
 10
556.6558903184007
 20
0.0
 10
-8.34410968159932
 20
0.0
 10
-8.34410968159932
 20
362.0043619952881
  0
ARC
  5
5AC
330
18
100
AcDbEntity
  8
外形線
100
AcDbCircle
 10
278.628609466449
 20
220.3103143586663
 30
0.0
 40
15.0
100
AcDbArc
 50
270.0
 51
90.0
  0
ARC
  5
5AD
330
18
100
AcDbEntity
  8
外形線
100
AcDbCircle
 10
310.628609466449
 20
218.3103143586663
 30
0.0
 40
45.0
100
AcDbArc
 50
89.99999999999998
 51
131.173697316247
  0
ARC
  5
5AE
330
18
100
AcDbEntity
  8
外形線
100
AcDbCircle
 10
310.628609466449
 20
218.3103143586663
 30
0.0
 40
50.0
100
AcDbArc
 50
89.99999999999998
 51
131.173697316247
  0
LINE
  5
5AF
330
18
100
AcDbEntity
  8
外形線
100
AcDbLine
 10
262.628609466449
 20
124.2103143586663
 30
0.0
 11
302.628609466449
 21
124.2103143586663
 31
0.0
  0
LINE
  5
5B0
330
18
100
AcDbEntity
  8
外形線
100
AcDbLine
 10
261.4316019851523
 20
100.2701647327312
 30
0.0
 11
301.2321007382694
 21
96.28013979507535
 31
0.0
  0
LINE
  5
5B1
330
18
100
AcDbEntity
  8
外形線
100
AcDbLine
 10
229.6044335178156
 20
226.8420696970974
 30
0.0
 11
295.6174970794997
 21
312.4123650056976
 31
0.0
  0
LINE
  5
5B2
330
18
100
AcDbEntity
  8
外形線
100
AcDbLine
 10
242.6258638569602
 20
217.5446317745939
 30
0.0
 11
302.128212249072
 21
307.7636460444459
 31
0.0
  0
LINE
  5
5B3
330
18
100
AcDbEntity
  8
中心線
100
AcDbLine
 10
188.7934740103631
 20
115.9020711314707
 30
0.0
 11
428.7598949004929
 21
103.9037500869641
 31
0.0
  0
LINE
  5
5B4
330
18
100
AcDbEntity
  8
外形線
100
AcDbLine
 10
189.2384349356905
 20
96.49041456104823
 30
0.0
 11
428.2384349356905
 21
73.06578010791112
 31
0.0
  0
LINE
  5
5B5
330
18
100
AcDbEntity
  8
外形線
100
AcDbLine
 10
189.628609466449
 20
135.3103143586663
 30
0.0
 11
428.628609466449
 21
135.3103143586663
 31
0.0
  0
LINE
  5
5B6
330
18
100
AcDbEntity
  8
外形線
100
AcDbLine
 10
210.628609466449
 20
89.36998367417213
 30
0.0
 11
429.0187839972075
 21
67.96533929534439
 31
0.0
  0
LINE
  5
5B7
330
18
100
AcDbEntity
  8
中心線
100
AcDbLine
 10
239.8883915809558
 20
220.3103143586663
 30
0.0
 11
297.3599395528615
 21
220.3103143586663
 31
0.0
  0
LINE
  5
5B8
330
18
100
AcDbEntity
  8
外形線
100
AcDbLine
 10
189.628609466449
 20
197.3103143586663
 30
0.0
 11
206.3725346553284
 21
197.3103143586663
 31
0.0
  0
LINE
  5
5BA
330
18
100
AcDbEntity
  8
外形線
100
AcDbLine
 10
137.628609466449
 20
140.3103143586663
 30
0.0
 11
434.628609466449
 21
140.3103143586663
 31
0.0
  0
LINE
  5
5BB
330
18
100
AcDbEntity
  8
外形線
100
AcDbLine
 10
138.028609466449
 20
192.3103143586663
 30
0.0
 11
142.628609466449
 21
192.3103143586663
 31
0.0
  0
LINE
  5
5BC
330
18
100
AcDbEntity
  8
中心線
100
AcDbLine
 10
146.628609466449
 20
270.1958246544839
 30
0.0
 11
146.628609466449
 21
73.67023471580239
 31
0.0
  0
LINE
  5
5BD
330
18
100
AcDbEntity
  8
外形線
100
AcDbLine
 10
35.94979591785492
 20
161.3459647831454
 30
0.0
 11
35.94979591785492
 21
147.8103143586663
 31
0.0
  0
LINE
  5
5BE
330
18
100
AcDbEntity
  8
外形線
100
AcDbLine
 10
52.44979591785491
 20
197.4103143586664
 30
0.0
 11
52.4497959178549
 21
156.2068761682677
 31
0.0
  0
LINE
  5
5BF
330
18
100
AcDbEntity
  8
外形線
100
AcDbLine
 10
54.44979591785491
 20
314.0880055250718
 30
0.0
 11
54.44979591785491
 21
156.2068761682678
 31
0.0
  0
LINE
  5
5C0
330
18
100
AcDbEntity
  8
外形線
100
AcDbLine
 10
179.2693870994854
 20
164.453967640482
 30
0.0
 11
185.9346886488534
 21
158.4063437057459
 31
0.0
  0
LINE
  5
5C1
330
18
100
AcDbEntity
  8
隠れ線2
100
AcDbLine
 10
184.4514756126292
 20
159.752106473078
 30
0.0
 11
191.5593965799742
 21
166.805645864125
 31
0.0
  0
LINE
  5
5C2
330
18
100
AcDbEntity
  8
外形線
100
AcDbLine
 10
181.0929163625195
 20
153.6016150514695
 30
0.0
 11
235.704122271568
 21
207.7949992831921
 31
0.0
  0
LINE
  5
5C5
330
18
100
AcDbEntity
  8
外形線
100
AcDbLine
 10
33.44979591785493
 20
267.3103143586664
 30
0.0
 11
33.44979591785492
 21
145.7850592300578
 31
0.0
  0
LINE
  5
5C6
330
18
100
AcDbEntity
  8
中心線
100
AcDbLine
 10
42.44979591785491
 20
276.5307121413438
 30
0.0
 11
42.44979591785491
 21
58.77019372982909
 31
0.0
  0
LINE
  5
5C9
330
18
100
AcDbEntity
  8
外形線
100
AcDbLine
 10
40.3528980019301
 20
69.84452865379632
 30
0.0
 11
39.94979591785494
 21
90.31031435866635
 31
0.0
  0
LINE
  5
5CA
330
18
100
AcDbEntity
  8
外形線
100
AcDbLine
 10
44.54669383377972
 20
69.84452865379632
 30
0.0
 11
44.94979591785491
 21
90.31031435866635
 31
0.0
  0
LINE
  5
5CB
330
18
100
AcDbEntity
  8
外形線
100
AcDbLine
 10
51.44979591785491
 20
90.31031435866635
 30
0.0
 11
51.44979591785491
 21
61.31031435866638
 31
0.0
  0
LINE
  5
5CC
330
18
100
AcDbEntity
  8
外形線
100
AcDbLine
 10
33.44979591785492
 20
90.31031435866635
 30
0.0
 11
33.44979591785492
 21
61.31031435866638
 31
0.0
  0
LINE
  5
5CD
330
18
100
AcDbEntity
  8
外形線
100
AcDbLine
 10
31.28954856823412
 20
89.67942610976022
 30
0.0
 11
0.2779937975515452
 21
62.13326596951486
 31
0.0
  0
LINE
  5
5CE
330
18
100
AcDbEntity
  8
外形線
100
AcDbLine
 10
29.9613506885375
 20
91.17471551063529
 30
0.0
 11
-1.050204082145086
 21
63.62855537038996
 31
0.0
  0
LINE
  5
5CF
330
18
100
AcDbEntity
  8
外形線
100
AcDbLine
 10
54.93824114717233
 20
91.17471551063529
 30
0.0
 11
85.94979591785492
 21
63.62855537038996
 31
0.0
  0
LINE
  5
5D0
330
18
100
AcDbEntity
  8
外形線
100
AcDbLine
 10
53.6100432674757
 20
89.67942610976022
 30
0.0
 11
84.62159803815827
 21
62.13326596951486
 31
0.0
  0
LINE
  5
5D1
330
18
100
AcDbEntity
  8
外形線
100
AcDbLine
 10
-1.050204082145086
 20
63.62855537038996
 30
0.0
 11
0.2779937975515452
 21
62.13326596951486
 31
0.0
  0
LINE
  5
5D2
330
18
100
AcDbEntity
  8
外形線
100
AcDbLine
 10
51.44979591785491
 20
67.96533929534439
 30
0.0
 11
33.44979591785492
 21
67.96533929534439
 31
0.0
  0
LINE
  5
5D3
330
18
100
AcDbEntity
  8
外形線
100
AcDbLine
 10
51.44979591785491
 20
61.31031435866638
 30
0.0
 11
33.44979591785492
 21
61.31031435866638
 31
0.0
  0
ARC
  5
5D4
330
18
100
AcDbEntity
  8
外形線
100
AcDbCircle
 10
42.44979591785491
 20
70.07484823840804
 30
0.0
 40
2.109508943063662
100
AcDbArc
 50
270.0
 51
353.7318588147518
  0
ARC
  5
5D5
330
18
100
AcDbEntity
  8
外形線
100
AcDbCircle
 10
42.44979591785491
 20
70.07484823840804
 30
0.0
 40
2.109508943063662
100
AcDbArc
 50
186.2681411852482
 51
270.0
  0
LINE
  5
5D6
330
18
100
AcDbEntity
  8
外形線
100
AcDbLine
 10
85.94979591785492
 20
63.62855537038996
 30
0.0
 11
84.62159803815827
 21
62.13326596951486
 31
0.0
  0
LINE
  5
5D7
330
18
100
AcDbEntity
  8
外形線
100
AcDbLine
 10
33.44979591785492
 20
140.8355694872747
 30
0.0
 11
33.44979591785492
 21
99.31031435866636
 31
0.0
  0
LINE
  5
5D8
330
18
100
AcDbEntity
  8
外形線
100
AcDbLine
 10
51.44979591785491
 20
140.8355694872747
 30
0.0
 11
51.44979591785491
 21
99.31031435866634
 31
0.0
  0
LINE
  5
5E3
330
18
100
AcDbEntity
  8
外形線
100
AcDbLine
 10
32.94979591785491
 20
90.31031435866635
 30
0.0
 11
40.44979591785491
 21
90.31031435866635
 31
0.0
  0
LINE
  5
5E4
330
18
100
AcDbEntity
  8
外形線
100
AcDbLine
 10
32.94979591785491
 20
92.31031435866638
 30
0.0
 11
40.44979591785491
 21
92.31031435866634
 31
0.0
  0
ARC
  5
5F2
330
18
100
AcDbEntity
  8
外形線
100
AcDbCircle
 10
32.94979591785491
 20
87.81031435866635
 30
0.0
 40
2.5
100
AcDbArc
 50
90.0
 51
131.6132355973203
  0
ARC
  5
5F3
330
18
100
AcDbEntity
  8
外形線
100
AcDbCircle
 10
32.94979591785491
 20
87.81031435866635
 30
0.0
 40
4.5
100
AcDbArc
 50
90.0
 51
131.6132355973203
  0
LINE
  5
5FB
330
18
100
AcDbEntity
  8
外形線
100
AcDbLine
 10
51.94979591785491
 20
90.31031435866635
 30
0.0
 11
40.50754520802766
 21
90.31031435866635
 31
0.0
  0
LINE
  5
5FC
330
18
100
AcDbEntity
  8
外形線
100
AcDbLine
 10
51.94979591785491
 20
92.31031435866638
 30
0.0
 11
40.50754520802766
 21
92.31031435866634
 31
0.0
  0
ARC
  5
605
330
18
100
AcDbEntity
  8
外形線
100
AcDbCircle
 10
51.94979591785491
 20
87.81031435866635
 30
0.0
 40
4.5
100
AcDbArc
 50
48.38676440267968
 51
90.0
  0
ARC
  5
607
330
18
100
AcDbEntity
  8
外形線
100
AcDbCircle
 10
51.94979591785491
 20
87.81031435866635
 30
0.0
 40
2.5
100
AcDbArc
 50
48.38676440267968
 51
90.0
  0
LINE
  5
60A
330
18
100
AcDbEntity
  8
外形線
100
AcDbLine
 10
51.44979591785491
 20
99.31031435866636
 30
0.0
 11
33.44979591785492
 21
99.31031435866636
 31
0.0
  0
LINE
  5
613
330
18
100
AcDbEntity
  8
外形線
100
AcDbLine
 10
51.44979591785491
 20
140.3103143586663
 30
0.0
 11
33.44979591785492
 21
140.3103143586663
 31
0.0
  0
LINE
  5
61E
330
18
100
AcDbEntity
  8
外形線
100
AcDbLine
 10
35.94979591785492
 20
150.5266316096642
 30
0.0
 11
39.44979591785492
 21
150.5266316096642
 31
0.0
  0
LINE
  5
61F
330
18
100
AcDbEntity
  8
外形線
100
AcDbLine
 10
35.94979591785492
 20
148.5368142454359
 30
0.0
 11
39.44979591785492
 21
148.5368142454359
 31
0.0
  0
LINE
  5
62C
330
18
100
AcDbEntity
  8
外形線
100
AcDbLine
 10
51.44979591785491
 20
156.2068761682677
 30
0.0
 11
51.44979591785491
 21
145.7850592300578
 31
0.0
  0
LINE
  5
62E
330
18
100
AcDbEntity
  8
外形線
100
AcDbLine
 10
48.94979591785491
 20
156.2068761682676
 30
0.0
 11
48.94979591785491
 21
147.8103143586663
 31
0.0
  0
LINE
  5
633
330
18
100
AcDbEntity
  8
外形線
100
AcDbLine
 10
48.94979591785491
 20
148.5368142454359
 30
0.0
 11
45.44979591785486
 21
148.5368142454359
 31
0.0
  0
LINE
  5
643
330
18
100
AcDbEntity
  8
外形線
100
AcDbLine
 10
48.94979591785491
 20
150.5266316096642
 30
0.0
 11
45.44979591785489
 21
150.5266316096642
 31
0.0
  0
LINE
  5
649
330
18
100
AcDbEntity
  8
外形線
100
AcDbLine
 10
54.44979591785491
 20
156.2068761682677
 30
0.0
 11
48.94979591785491
 21
156.2068761682676
 31
0.0
  0
LINE
  5
64B
330
18
100
AcDbEntity
  8
外形線
100
AcDbLine
 10
180.628609466449
 20
92.31031435866638
 30
0.0
 11
180.628609466449
 21
63.85254531260752
 31
0.0
  0
LINE
  5
64C
330
18
100
AcDbEntity
  8
外形線
100
AcDbLine
 10
202.628609466449
 20
92.31031435866638
 30
0.0
 11
202.628609466449
 21
63.85254531260752
 31
0.0
  0
LINE
  5
64D
330
18
100
AcDbEntity
  8
中心線
100
AcDbLine
 10
191.628609466449
 20
103.2472437314544
 30
0.0
 11
191.628609466449
 21
56.24724373145444
 31
0.0
  0
ARC
  5
64E
330
18
100
AcDbEntity
  8
外形線
100
AcDbCircle
 10
191.628609466449
 20
102.3103143586663
 30
0.0
 40
40.0
100
AcDbArc
 50
269.9999999999999
 51
285.9620141628472
  0
ARC
  5
64F
330
18
100
AcDbEntity
  8
外形線
100
AcDbCircle
 10
191.628609466449
 20
102.3103143586663
 30
0.0
 40
40.0
100
AcDbArc
 50
254.0379858371528
 51
270.0000000000001
  0
LINE
  5
650
330
18
100
AcDbEntity
  8
隠れ線2
100
AcDbLine
 10
196.878609466449
 20
90.31031435866635
 30
0.0
 11
202.628609466449
 21
87.10101203308495
 31
0.0
  0
LINE
  5
651
330
18
100
AcDbEntity
  8
隠れ線2
100
AcDbLine
 10
194.9290912890515
 20
84.31031435866636
 30
0.0
 11
201.1300990861811
 21
75.59873695760065
 31
0.0
  0
LINE
  5
652
330
18
100
AcDbEntity
  8
隠れ線2
100
AcDbLine
 10
180.628609466449
 20
90.31031435866635
 30
0.0
 11
202.628609466449
 21
90.31031435866635
 31
0.0
  0
LINE
  5
653
330
18
100
AcDbEntity
  8
外形線
100
AcDbLine
 10
180.628609466449
 20
92.31031435866636
 30
0.0
 11
210.628609466449
 21
92.31031435866636
 31
0.0
  0
ARC
  5
654
330
18
100
AcDbEntity
  8
外形線
100
AcDbCircle
 10
202.628609466449
 20
115.2103143586663
 30
0.0
 40
9.0
100
AcDbArc
 50
88.85412260463308
 51
265.4210669431324
  0
LINE
  5
655
330
18
100
AcDbEntity
  8
外形線
100
AcDbLine
 10
185.628609466449
 20
131.3103143586663
 30
0.0
 11
185.628609466449
 21
100.4713395585265
 31
0.0
  0
LINE
  5
656
330
18
100
AcDbEntity
  8
外形線
100
AcDbLine
 10
180.628609466449
 20
140.3103143586663
 30
0.0
 11
180.628609466449
 21
92.31031435866636
 31
0.0
  0
LINE
  5
657
330
18
100
AcDbEntity
  8
外形線
100
AcDbLine
 10
137.628609466449
 20
140.3103143586663
 30
0.0
 11
137.628609466449
 21
99.31031435866634
 31
0.0
  0
LINE
  5
65C
330
18
100
AcDbEntity
  8
外形線
100
AcDbLine
 10
137.628609466449
 20
99.31031435866634
 30
0.0
 11
180.628609466449
 21
99.31031435866636
 31
0.0
  0
LINE
  5
682
330
18
100
AcDbEntity
  8
外形線
100
AcDbLine
 10
180.628609466449
 20
87.10101203308495
 30
0.0
 11
176.5018071684639
 21
84.79768051793049
 31
0.0
  0
LINE
  5
683
330
18
100
AcDbEntity
  8
外形線
100
AcDbLine
 10
176.1159756257131
 20
83.43711665665145
 30
0.0
 11
180.4392366944573
 21
75.69127390848476
 31
0.0
  0
ARC
  5
685
330
18
100
AcDbEntity
  8
外形線
100
AcDbCircle
 10
176.989173327728
 20
83.92448281591558
 30
0.0
 40
1.0
100
AcDbArc
 50
119.1676133795778
 51
209.1676133795778
  0
LINE
  5
686
330
18
100
AcDbEntity
  8
隠れ線2
100
AcDbLine
 10
188.3281276438465
 20
84.31031435866636
 30
0.0
 11
182.1271198467169
 21
75.59873695760065
 31
0.0
  0
ARC
  5
687
330
18
100
AcDbEntity
  8
隠れ線2
100
AcDbCircle
 10
181.3124343964722
 20
76.1786400677489
 30
0.0
 40
1.0
100
AcDbArc
 50
226.8567355129944
 51
324.5562717879028
  0
ARC
  5
688
330
18
100
AcDbEntity
  8
外形線
100
AcDbCircle
 10
181.3124343964722
 20
76.1786400677489
 30
0.0
 40
1.0
100
AcDbArc
 50
209.1676133795778
 51
226.8567355129944
  0
LINE
  5
689
330
18
100
AcDbEntity
  8
隠れ線2
100
AcDbLine
 10
186.378609466449
 20
90.31031435866635
 30
0.0
 11
188.3281276438464
 21
84.31031435866634
 31
0.0
  0
LINE
  5
68A
330
18
100
AcDbEntity
  8
隠れ線2
100
AcDbLine
 10
186.378609466449
 20
90.31031435866635
 30
0.0
 11
180.628609466449
 21
87.10101203308495
 31
0.0
  0
LINE
  5
68B
330
18
100
AcDbEntity
  8
隠れ線2
100
AcDbLine
 10
196.878609466449
 20
90.31031435866635
 30
0.0
 11
194.9290912890516
 21
84.31031435866634
 31
0.0
  0
LINE
  5
68C
330
18
100
AcDbEntity
  8
隠れ線2
100
AcDbLine
 10
191.628609466449
 20
84.31031435866636
 30
0.0
 11
194.9290912890516
 21
84.31031435866634
 31
0.0
  0
LINE
  5
68D
330
18
100
AcDbEntity
  8
隠れ線2
100
AcDbLine
 10
191.628609466449
 20
84.31031435866636
 30
0.0
 11
188.3281276438464
 21
84.31031435866634
 31
0.0
  0
ARC
  5
68F
330
18
100
AcDbEntity
  8
外形線
100
AcDbCircle
 10
189.628609466449
 20
100.4713395585265
 30
0.0
 40
4.0
100
AcDbArc
 50
180.0
 51
264.4022606220509
  0
LINE
  5
693
330
18
100
AcDbEntity
  8
外形線
100
AcDbLine
 10
164.4735832284353
 20
149.2491311117784
 30
0.0
 11
139.6362964213593
 21
150.6457442178908
 31
0.0
  0
LINE
  5
694
330
18
100
AcDbEntity
  8
外形線
100
AcDbLine
 10
164.3612995973738
 20
147.252285502775
 30
0.0
 11
139.5240127902977
 21
148.6488986088874
 31
0.0
  0
LINE
  5
699
330
18
100
AcDbEntity
  8
中心線
 48
0.3
100
AcDbLine
 10
141.9734284303906
 20
132.3103143586663
 30
0.0
 11
151.2837905025073
 21
132.3103143586663
 31
0.0
  0
LINE
  5
69A
330
18
100
AcDbEntity
  8
外形線
100
AcDbLine
 10
139.6362964213593
 20
150.6457442178908
 30
0.0
 11
139.5240127902977
 21
148.6488986088874
 31
0.0
  0
LINE
  5
69B
330
18
100
AcDbEntity
  8
外形線
100
AcDbLine
 10
137.628609466449
 20
146.8103143586664
 30
0.0
 11
155.628609466449
 21
146.8103143586664
 31
0.0
  0
LINE
  5
69C
330
18
100
AcDbEntity
  8
外形線
100
AcDbLine
 10
138.628609466449
 20
147.8103143586664
 30
0.0
 11
154.628609466449
 21
147.8103143586664
 31
0.0
  0
LINE
  5
69D
330
18
100
AcDbEntity
  8
外形線
100
AcDbLine
 10
146.628609466449
 20
146.1103143586664
 30
0.0
 11
137.628609466449
 21
146.1103143586664
 31
0.0
  0
LINE
  5
6A8
330
18
100
AcDbEntity
  8
外形線
100
AcDbLine
 10
143.628609466449
 20
148.4180950771753
 30
0.0
 11
143.628609466449
 21
147.8103143586664
 31
0.0
  0
LINE
  5
6A9
330
18
100
AcDbEntity
  8
外形線
100
AcDbLine
 10
138.628609466449
 20
147.8103143586664
 30
0.0
 11
137.628609466449
 21
146.8103143586664
 31
0.0
  0
LINE
  5
6AA
330
18
100
AcDbEntity
  8
外形線
100
AcDbLine
 10
137.628609466449
 20
146.8103143586664
 30
0.0
 11
137.628609466449
 21
146.1103143586664
 31
0.0
  0
LINE
  5
6AB
330
18
100
AcDbEntity
  8
外形線
100
AcDbLine
 10
137.628609466449
 20
146.1103143586664
 30
0.0
 11
137.928609466449
 21
145.8103143586663
 31
0.0
  0
LINE
  5
6B0
330
18
100
AcDbEntity
  8
外形線
100
AcDbLine
 10
146.628609466449
 20
146.1103143586664
 30
0.0
 11
155.628609466449
 21
146.1103143586664
 31
0.0
  0
LINE
  5
6B2
330
18
100
AcDbEntity
  8
外形線
100
AcDbLine
 10
149.628609466449
 20
148.0601586385402
 30
0.0
 11
149.628609466449
 21
147.8103143586664
 31
0.0
  0
LINE
  5
6B3
330
18
100
AcDbEntity
  8
外形線
100
AcDbLine
 10
155.628609466449
 20
146.8103143586664
 30
0.0
 11
154.628609466449
 21
147.8103143586664
 31
0.0
  0
LINE
  5
6B4
330
18
100
AcDbEntity
  8
外形線
100
AcDbLine
 10
155.628609466449
 20
146.1103143586664
 30
0.0
 11
155.328609466449
 21
145.8103143586663
 31
0.0
  0
LINE
  5
6B5
330
18
100
AcDbEntity
  8
外形線
100
AcDbLine
 10
155.628609466449
 20
146.8103143586664
 30
0.0
 11
155.628609466449
 21
146.1103143586664
 31
0.0
  0
LINE
  5
6B7
330
18
100
AcDbEntity
  8
外形線
100
AcDbLine
 10
141.628609466449
 20
153.3100796145587
 30
0.0
 11
151.628609466449
 21
153.3100796145587
 31
0.0
  0
LINE
  5
6B8
330
18
100
AcDbEntity
  8
外形線
100
AcDbLine
 10
141.628609466449
 20
153.8100796145587
 30
0.0
 11
151.628609466449
 21
153.8100796145587
 31
0.0
  0
LINE
  5
6B9
330
18
100
AcDbEntity
  8
外形線
100
AcDbLine
 10
142.128609466449
 20
154.3100796145587
 30
0.0
 11
151.128609466449
 21
154.3100796145587
 31
0.0
  0
LINE
  5
6BA
330
18
100
AcDbEntity
  8
外形線
100
AcDbLine
 10
142.128609466449
 20
152.8100796145587
 30
0.0
 11
151.128609466449
 21
152.8100796145587
 31
0.0
  0
LINE
  5
6BB
330
18
100
AcDbEntity
  8
外形線
100
AcDbLine
 10
141.628609466449
 20
153.3100796145587
 30
0.0
 11
142.128609466449
 21
152.8100796145587
 31
0.0
  0
LINE
  5
6BC
330
18
100
AcDbEntity
  8
外形線
100
AcDbLine
 10
142.128609466449
 20
154.3100796145587
 30
0.0
 11
141.628609466449
 21
153.8100796145587
 31
0.0
  0
LINE
  5
6BD
330
18
100
AcDbEntity
  8
外形線
100
AcDbLine
 10
141.628609466449
 20
153.8100796145587
 30
0.0
 11
141.628609466449
 21
153.3100796145587
 31
0.0
  0
LINE
  5
6BE
330
18
100
AcDbEntity
  8
外形線
100
AcDbLine
 10
143.628609466449
 20
152.8100796145588
 30
0.0
 11
143.628609466449
 21
150.4212544511226
 31
0.0
  0
LINE
  5
6BF
330
18
100
AcDbEntity
  8
外形線
100
AcDbLine
 10
151.628609466449
 20
153.8100796145587
 30
0.0
 11
151.128609466449
 21
154.3100796145587
 31
0.0
  0
LINE
  5
6C0
330
18
100
AcDbEntity
  8
外形線
100
AcDbLine
 10
151.128609466449
 20
152.8100796145587
 30
0.0
 11
151.628609466449
 21
153.3100796145587
 31
0.0
  0
LINE
  5
6C1
330
18
100
AcDbEntity
  8
外形線
100
AcDbLine
 10
151.628609466449
 20
153.8100796145587
 30
0.0
 11
151.628609466449
 21
153.3100796145587
 31
0.0
  0
LINE
  5
6C2
330
18
100
AcDbEntity
  8
外形線
100
AcDbLine
 10
149.628609466449
 20
152.8100796145588
 30
0.0
 11
149.628609466449
 21
150.0838714389698
 31
0.0
  0
ARC
  5
6C3
330
18
100
AcDbEntity
  8
外形線
100
AcDbCircle
 10
189.628609466449
 20
131.3103143586663
 30
0.0
 40
4.0
100
AcDbArc
 50
90.0
 51
180.0
  0
ARC
  5
6C4
330
18
100
AcDbEntity
  8
外形線
100
AcDbCircle
 10
165.5964195390513
 20
169.217587201811
 30
0.0
 40
22.0
100
AcDbArc
 50
266.7816187324255
 51
314.7799789421007
  0
ARC
  5
6C5
330
18
100
AcDbEntity
  8
外形線
100
AcDbCircle
 10
165.5964195390513
 20
169.217587201811
 30
0.0
 40
20.0
100
AcDbArc
 50
266.7816187324255
 51
314.7799789421007
  0
LINE
  5
6C8
330
18
100
AcDbEntity
  8
外形線
100
AcDbLine
 10
179.6841439240223
 20
155.0212488833187
 30
0.0
 11
184.4514756126292
 21
159.752106473078
 31
0.0
  0
LINE
  5
6C9
330
18
100
AcDbEntity
  8
外形線
100
AcDbLine
 10
179.474334343003
 20
154.8160775346177
 30
0.0
 11
180.958545057979
 21
153.4694095440402
 31
0.0
  0
LINE
  5
6CA
330
18
100
AcDbEntity
  8
中心線
100
AcDbLine
 10
262.628609466449
 20
128.4392746788793
 30
0.0
 11
262.628609466449
 21
95.50590453278049
 31
0.0
  0
ARC
  5
6CB
330
18
100
AcDbEntity
  8
外形線
100
AcDbCircle
 10
227.628609466449
 20
113.9603143586663
 30
0.0
 40
10.0
100
AcDbArc
 50
264.2751895477866
 51
90.0
  0
LINE
  5
6CC
330
18
100
AcDbEntity
  8
中心線
 48
0.9
100
AcDbLine
 10
227.628609466449
 20
127.2538234348217
 30
0.0
 11
227.628609466449
 21
100.2854498292674
 31
0.0
  0
LINE
  5
6CD
330
18
100
AcDbEntity
  8
中心線
 48
0.85
100
AcDbLine
 10
202.628609466449
 20
127.2538234348217
 30
0.0
 11
202.628609466449
 21
102.8696402795956
 31
0.0
  0
ARC
  5
6CE
330
18
100
AcDbEntity
  8
外形線
100
AcDbCircle
 10
262.628609466449
 20
112.2103143586663
 30
0.0
 40
12.0
100
AcDbArc
 50
90.0
 51
264.2751895477765
  0
LINE
  5
6CF
330
18
100
AcDbEntity
  8
外形線
100
AcDbLine
 10
207.1412433071849
 20
83.43711665665145
 30
0.0
 11
202.8179822384406
 21
75.69127390848476
 31
0.0
  0
ARC
  5
6D0
330
18
100
AcDbEntity
  8
外形線
100
AcDbCircle
 10
201.9447845364258
 20
76.1786400677489
 30
0.0
 40
1.0
100
AcDbArc
 50
313.1432644870079
 51
330.8323866204221
  0
ARC
  5
6D1
330
18
100
AcDbEntity
  8
隠れ線2
100
AcDbCircle
 10
201.9447845364258
 20
76.1786400677489
 30
0.0
 40
1.0
100
AcDbArc
 50
215.4437282120972
 51
313.1432644870079
  0
LINE
  5
6D2
330
18
100
AcDbEntity
  8
外形線
100
AcDbLine
 10
202.628609466449
 20
87.10101203308495
 30
0.0
 11
206.7554117644341
 21
84.79768051793049
 31
0.0
  0
ARC
  5
6D3
330
18
100
AcDbEntity
  8
外形線
100
AcDbCircle
 10
206.26804560517
 20
83.92448281591558
 30
0.0
 40
1.0
100
AcDbArc
 50
330.8323866204222
 51
60.83238662042216
  0
LINE
  5
6D4
330
18
100
AcDbEntity
  8
外形線
100
AcDbLine
 10
210.628609466449
 20
92.31031435866636
 30
0.0
 11
210.628609466449
 21
89.36998367417213
 31
0.0
  0
LINE
  5
6D5
330
18
100
AcDbEntity
  8
外形線
100
AcDbLine
 10
201.7308538554764
 20
106.2552021392149
 30
0.0
 11
226.631103232035
 21
104.010189670387
 31
0.0
  0
LINE
  5
6D6
330
18
100
AcDbEntity
  8
外形線
100
AcDbLine
 10
202.628609466449
 20
124.2103143586663
 30
0.0
 11
227.628609466449
 21
123.9603143586663
 31
0.0
  0
LINE
  5
6E1
330
18
100
AcDbEntity
  8
外形線
100
AcDbLine
 10
51.44979591785491
 20
226.5603143586663
 30
0.0
 11
51.44979591785491
 21
164.3459647831454
 31
0.0
  0
ARC
  5
6E6
330
18
100
AcDbEntity
  8
外形線
100
AcDbCircle
 10
38.94979591785491
 20
161.3459647831454
 30
0.0
 40
3.0
100
AcDbArc
 50
90.0
 51
180.0
  0
LINE
  5
6E7
330
18
100
AcDbEntity
  8
外形線
100
AcDbLine
 10
52.44979591785491
 20
164.3459647831454
 30
0.0
 11
44.94979591785486
 21
164.3459647831454
 31
0.0
  0
LINE
  5
6E8
330
18
100
AcDbEntity
  8
隠れ線2
 48
0.5
100
AcDbLine
 10
44.94979591785486
 20
164.3459647831454
 30
0.0
 11
39.94979591785492
 21
164.3459647831454
 31
0.0
  0
LINE
  5
6E9
330
18
100
AcDbEntity
  8
外形線
100
AcDbLine
 10
39.94979591785492
 20
164.3459647831454
 30
0.0
 11
38.94979591785491
 21
164.3459647831454
 31
0.0
  0
LINE
  5
6EF
330
18
100
AcDbEntity
  8
外形線
100
AcDbLine
 10
51.44979591785491
 20
192.3103143586663
 30
0.0
 11
33.44979591785492
 21
192.3103143586663
 31
0.0
  0
LINE
  5
703
330
18
100
AcDbEntity
  8
中心線
 48
0.3
100
AcDbLine
 10
60.47913747926486
 20
217.3103143586664
 30
0.0
 11
47.86646099057884
 21
217.3103143586664
 31
0.0
  0
LINE
  5
71B
330
18
100
AcDbEntity
  8
外形線
100
AcDbLine
 10
56.24979591785489
 20
217.8103143586664
 30
0.0
 11
56.24979591785489
 21
217.3103143586664
 31
0.0
  0
LINE
  5
71C
330
18
100
AcDbEntity
  8
外形線
100
AcDbLine
 10
56.94979591785491
 20
212.3103143586664
 30
0.0
 11
57.44979591785491
 21
212.8103143586664
 31
0.0
  0
LINE
  5
71D
330
18
100
AcDbEntity
  8
外形線
100
AcDbLine
 10
56.94979591785491
 20
212.3103143586664
 30
0.0
 11
54.44979591785491
 21
212.3103143586664
 31
0.0
  0
LINE
  5
71E
330
18
100
AcDbEntity
  8
外形線
100
AcDbLine
 10
57.44979591785491
 20
216.8103143586664
 30
0.0
 11
56.24979591785489
 21
216.8103143586663
 31
0.0
  0
LINE
  5
71F
330
18
100
AcDbEntity
  8
外形線
100
AcDbLine
 10
56.24979591785489
 20
216.8103143586663
 30
0.0
 11
56.24979591785489
 21
217.3103143586664
 31
0.0
  0
LINE
  5
720
330
18
100
AcDbEntity
  8
外形線
100
AcDbLine
 10
57.44979591785491
 20
212.8103143586664
 30
0.0
 11
57.44979591785491
 21
216.8103143586664
 31
0.0
  0
LINE
  5
721
330
18
100
AcDbEntity
  8
外形線
100
AcDbLine
 10
56.94979591785491
 20
212.3103143586664
 30
0.0
 11
56.94979591785491
 21
216.8103143586664
 31
0.0
  0
LINE
  5
722
330
18
100
AcDbEntity
  8
外形線
100
AcDbLine
 10
57.44979591785491
 20
217.8103143586663
 30
0.0
 11
56.24979591785489
 21
217.8103143586664
 31
0.0
  0
LINE
  5
723
330
18
100
AcDbEntity
  8
外形線
100
AcDbLine
 10
56.94979591785491
 20
222.3103143586663
 30
0.0
 11
56.94979591785491
 21
217.8103143586663
 31
0.0
  0
LINE
  5
724
330
18
100
AcDbEntity
  8
外形線
100
AcDbLine
 10
56.94979591785491
 20
222.3103143586663
 30
0.0
 11
57.44979591785491
 21
221.8103143586663
 31
0.0
  0
LINE
  5
725
330
18
100
AcDbEntity
  8
外形線
100
AcDbLine
 10
56.94979591785491
 20
222.3103143586663
 30
0.0
 11
54.44979591785491
 21
222.3103143586663
 31
0.0
  0
LINE
  5
726
330
18
100
AcDbEntity
  8
外形線
100
AcDbLine
 10
57.44979591785491
 20
221.8103143586663
 30
0.0
 11
57.44979591785491
 21
217.8103143586663
 31
0.0
  0
LINE
  5
739
330
18
100
AcDbEntity
  8
外形線
100
AcDbLine
 10
73.07327130083468
 20
314.0880055250718
 30
0.0
 11
73.07327130083468
 21
306.0880055250716
 31
0.0
  0
ARC
  5
73A
330
18
100
AcDbEntity
  8
外形線
100
AcDbCircle
 10
67.94979591785491
 20
310.0880055250717
 30
0.0
 40
6.5
100
AcDbArc
 50
322.0201275551474
 51
37.97987244485262
  0
LINE
  5
73B
330
18
100
AcDbEntity
  8
外形線
100
AcDbLine
 10
52.44979591785491
 20
314.0880055250717
 30
0.0
 11
52.44979591785491
 21
261.4103143586663
 31
0.0
  0
LINE
  5
73D
330
18
100
AcDbEntity
  8
外形線
100
AcDbLine
 10
73.07327130083468
 20
306.0880055250716
 30
0.0
 11
54.44979591785491
 21
306.0880055250716
 31
0.0
  0
LINE
  5
76E
330
18
100
AcDbEntity
  8
外形線
100
AcDbLine
 10
73.07327130083468
 20
314.0880055250718
 30
0.0
 11
52.44979591785491
 21
314.0880055250717
 31
0.0
  0
LINE
  5
76F
330
18
100
AcDbEntity
  8
中心線
 48
0.9
100
AcDbLine
 10
76.83689049505005
 20
310.0880055250717
 30
0.0
 11
49.42823317745515
 21
310.0880055250717
 31
0.0
  0
LINE
  5
776
330
18
100
AcDbEntity
  8
外形線
100
AcDbLine
 10
240.3739512591447
 20
240.8021976435246
 30
0.0
 11
189.261062662474
 21
236.0856494257977
 31
0.0
  0
LINE
  5
777
330
18
100
AcDbEntity
  8
外形線
100
AcDbLine
 10
244.5444670680631
 20
246.2082831984672
 30
0.0
 11
186.6928870958989
 21
240.8699082033947
 31
0.0
  0
LINE
  5
778
330
18
100
AcDbEntity
  8
中心線
100
AcDbLine
 10
193.1309009712174
 20
228.7714615755161
 30
0.0
 11
236.2138916674857
 21
231.8542457122273
 31
0.0
  0
LINE
  5
779
330
18
100
AcDbEntity
  8
中心線
100
AcDbLine
 10
192.9763552131552
 20
230.7655166399221
 30
0.0
 11
236.0593459094234
 21
233.8483007766333
 31
0.0
  0
LINE
  5
77A
330
18
100
AcDbEntity
  8
外形線
100
AcDbLine
 10
194.7098964054082
 20
228.3831675085786
 30
0.0
 11
232.901512629157
 21
231.1159515318597
 31
0.0
  0
LINE
  5
77B
330
18
100
AcDbEntity
  8
外形線
100
AcDbLine
 10
194.4780777683149
 20
231.3742501051875
 30
0.0
 11
234.3767664064454
 21
234.2291829318416
 31
0.0
  0
LINE
  5
77C
330
18
100
AcDbEntity
  8
中心線
100
AcDbLine
 10
186.650475106014
 20
229.3103143586663
 30
0.0
 11
242.1525229587794
 21
233.2817385776055
 31
0.0
  0
LINE
  5
77E
330
18
100
AcDbEntity
  8
外形線
100
AcDbLine
 10
179.2693870994854
 20
164.453967640482
 30
0.0
 11
222.6327634085604
 21
217.0221102868852
 31
0.0
  0
ARC
  5
77F
330
18
100
AcDbEntity
  8
外形線
100
AcDbCircle
 10
203.628609466449
 20
214.3103143586663
 30
0.0
 40
12.5
100
AcDbArc
 50
0.0
 51
359.9999999999998
  0
LINE
  5
796
330
18
100
AcDbEntity
  8
隠れ線2
100
AcDbLine
 10
191.5593965799742
 20
166.805645864125
 30
0.0
 11
193.0426096161983
 21
165.4598830967927
 31
0.0
  0
ARC
  5
797
330
18
100
AcDbEntity
  8
外形線
100
AcDbCircle
 10
189.628609466449
 20
201.3103143586663
 30
0.0
 40
4.0
100
AcDbArc
 50
229.4583981264956
 51
270.0
  0
ARC
  5
7EA
330
18
100
AcDbEntity
  8
外形線
100
AcDbCircle
 10
189.628609466449
 20
232.1025715522321
 30
0.0
 40
4.0
100
AcDbArc
 50
95.27215693479773
 51
130.5416018735044
  0
LINE
  5
7EE
330
18
100
AcDbEntity
  8
中心線
 48
0.2
100
AcDbLine
 10
190.3665129162707
 20
232.9732056712263
 30
0.0
 11
190.9152705377542
 21
225.304125238592
 31
0.0
  0
LINE
  5
7EF
330
18
100
AcDbEntity
  8
外形線
100
AcDbLine
 10
194.4780777683149
 20
231.3742501051875
 30
0.0
 11
194.7098964054082
 21
228.3831675085786
 31
0.0
  0
CIRCLE
  5
7F0
330
18
100
AcDbEntity
  8
外形線
100
AcDbCircle
 10
190.628609466449
 20
229.3103143586663
 30
0.0
 40
1.25
  0
CIRCLE
  5
7F1
330
18
100
AcDbEntity
  8
外形線
100
AcDbCircle
 10
190.628609466449
 20
229.3103143586663
 30
0.0
 40
2.0
  0
POINT
  5
7F2
330
18
100
AcDbEntity
  8
DEFPOINTS
  6
ByBlock
 62
     0
100
AcDbPoint
 10
190.628609466449
 20
229.3103143586663
 30
0.0
  0
LINE
  5
80D
330
18
100
AcDbEntity
  8
中心線
100
AcDbLine
 10
278.628609466449
 20
238.8140388314112
 30
0.0
 11
278.628609466449
 21
201.1087905254251
 31
0.0
  0
ARC
  5
80E
330
18
100
AcDbEntity
  8
外形線
100
AcDbCircle
 10
258.628609466449
 20
220.3103143586663
 30
0.0
 40
15.0
100
AcDbArc
 50
184.4941694208219
 51
270.0
  0
ARC
  5
80F
330
18
100
AcDbEntity
  8
外形線
100
AcDbCircle
 10
232.6286094664491
 20
217.3103143586665
 30
0.0
 40
10.0
100
AcDbArc
 50
287.9117210865814
 51
1.342662783077779
  0
LINE
  5
810
330
18
100
AcDbEntity
  8
中心線
 48
0.5
100
AcDbLine
 10
232.628609466449
 20
225.2665830795364
 30
0.0
 11
232.628609466449
 21
209.3540456377963
 31
0.0
  0
LINE
  5
811
330
18
100
AcDbEntity
  8
中心線
100
AcDbLine
 10
258.628609466449
 20
238.8140388314112
 30
0.0
 11
258.628609466449
 21
201.1087905254251
 31
0.0
  0
LINE
  5
812
330
18
100
AcDbEntity
  8
中心線
100
AcDbLine
 10
203.628609466449
 20
229.9639707782244
 30
0.0
 11
203.628609466449
 21
198.5389140483595
 31
0.0
  0
LINE
  5
814
330
18
100
AcDbEntity
  8
外形線
100
AcDbLine
 10
258.628609466449
 20
205.3103143586663
 30
0.0
 11
278.628609466449
 21
205.3103143586663
 31
0.0
  0
ARC
  5
815
330
18
100
AcDbEntity
  8
隠れ線2
100
AcDbCircle
 10
258.628609466449
 20
220.3103143586663
 30
0.0
 40
15.0
100
AcDbArc
 50
108.6935536469685
 51
184.4941694208219
  0
LINE
  5
816
330
18
100
AcDbEntity
  8
中心線
 48
0.2
100
AcDbLine
 10
238.2178967053452
 20
236.6818436692502
 30
0.0
 11
238.7666543268288
 21
229.0127632366159
 31
0.0
  0
ARC
  5
817
330
18
100
AcDbEntity
  8
外形線
100
AcDbCircle
 10
232.6286094664491
 20
217.3103143586665
 30
0.0
 40
10.0
100
AcDbArc
 50
107.6028674913897
 51
181.6515163782688
  0
LINE
  5
818
330
18
100
AcDbEntity
  8
外形線
100
AcDbLine
 10
229.0930755605163
 20
213.7747804527336
 30
0.0
 11
236.1641433723817
 21
220.8458482645991
 31
0.0
  0
CIRCLE
  5
819
330
18
100
AcDbEntity
  8
外形線
100
AcDbCircle
 10
232.628609466449
 20
217.3103143586664
 30
0.0
 40
4.5
  0
CIRCLE
  5
81A
330
18
100
AcDbEntity
  8
外形線
100
AcDbCircle
 10
232.628609466449
 20
217.3103143586664
 30
0.0
 40
5.0
  0
LINE
  5
81B
330
18
100
AcDbEntity
  8
中心線
 48
0.5
100
AcDbLine
 10
224.6723407455789
 20
217.3103143586664
 30
0.0
 11
240.5848781873191
 21
217.3103143586663
 31
0.0
  0
LINE
  5
81C
330
18
100
AcDbEntity
  8
隠れ線2
 48
0.5
100
AcDbLine
 10
232.901512629157
 20
231.1159515318598
 30
0.0
 11
234.6085850435387
 21
231.2381003352327
 31
0.0
  0
LINE
  5
81D
330
18
100
AcDbEntity
  8
隠れ線2
 48
0.5
100
AcDbLine
 10
234.4613441176431
 20
233.137903459249
 30
0.0
 11
234.6085850435387
 21
231.2381003352327
 31
0.0
  0
LINE
  5
81E
330
18
100
AcDbEntity
  8
外形線
100
AcDbLine
 10
234.3767664064454
 20
234.2291829318416
 30
0.0
 11
234.4613441176431
 21
233.1379034592489
 31
0.0
  0
POINT
  5
81F
330
18
100
AcDbEntity
  8
DEFPOINTS
  6
ByBlock
 62
     0
100
AcDbPoint
 10
238.4799932555235
 20
233.0189523566902
 30
0.0
  0
CIRCLE
  5
820
330
18
100
AcDbEntity
  8
隠れ線2
 48
0.5
100
AcDbCircle
 10
238.4799932555235
 20
233.0189523566903
 30
0.0
 40
2.0
  0
CIRCLE
  5
821
330
18
100
AcDbEntity
  8
隠れ線2
 48
0.5
100
AcDbCircle
 10
238.4799932555235
 20
233.0189523566903
 30
0.0
 40
1.25
  0
ARC
  5
822
330
18
100
AcDbEntity
  8
外形線
100
AcDbCircle
 10
258.628609466449
 20
220.3103143586663
 30
0.0
 40
15.0
100
AcDbArc
 50
90.0
 51
108.6935536469685
  0
ARC
  5
823
330
18
100
AcDbEntity
  8
外形線
100
AcDbCircle
 10
254.669371099316
 20
282.2912774755996
 30
0.0
 40
40.0
100
AcDbArc
 50
276.3740987039209
 51
311.173697316247
  0
ARC
  5
824
330
18
100
AcDbEntity
  8
隠れ線2
100
AcDbCircle
 10
254.669371099316
 20
282.2912774755996
 30
0.0
 40
35.0
100
AcDbArc
 50
275.2721569347977
 51
283.5852374718227
  0
LINE
  5
825
330
18
100
AcDbEntity
  8
外形線
100
AcDbLine
 10
258.628609466449
 20
235.3103143586663
 30
0.0
 11
278.628609466449
 21
235.3103143586663
 31
0.0
  0
LINE
  5
826
330
18
100
AcDbEntity
  8
隠れ線2
100
AcDbLine
 10
257.8854056340967
 20
247.4393460819007
 30
0.0
 11
244.5444670680631
 21
246.2082831984672
 31
0.0
  0
LINE
  5
827
330
18
100
AcDbEntity
  8
隠れ線2
100
AcDbLine
 10
258.3448391390653
 20
242.4604987399437
 30
0.0
 11
240.3739512591447
 21
240.8021976435246
 31
0.0
  0
ARC
  5
828
330
18
100
AcDbEntity
  8
隠れ線2
100
AcDbCircle
 10
254.669371099316
 20
282.2912774755996
 30
0.0
 40
40.0
100
AcDbArc
 50
275.2721569347977
 51
276.3740987039209
  0
ARC
  5
829
330
18
100
AcDbEntity
  8
外形線
100
AcDbCircle
 10
254.669371099316
 20
282.2912774755996
 30
0.0
 40
35.0
100
AcDbArc
 50
283.5852374718227
 51
311.173697316247
  0
ARC
  5
905
330
18
100
AcDbEntity
  8
外形線
100
AcDbCircle
 10
450.6286094664489
 20
166.3103143586663
 30
0.0
 40
100.0
100
AcDbArc
 50
267.7957724960279
 51
103.1673125617121
  0
ARC
  5
906
330
18
100
AcDbEntity
  8
外形線
100
AcDbCircle
 10
434.628609466449
 20
166.3103143586663
 30
0.0
 40
26.0
100
AcDbArc
 50
270.0
 51
90.0
  0
ARC
  5
907
330
18
100
AcDbEntity
  8
外形線
100
AcDbCircle
 10
434.628609466449
 20
166.3103143586663
 30
0.0
 40
31.0
100
AcDbArc
 50
290.0510425665059
 51
345.09940331217
  0
ARC
  5
908
330
18
100
AcDbEntity
  8
外形線
100
AcDbCircle
 10
450.6286094664489
 20
166.3103143586663
 30
0.0
 40
95.0
100
AcDbArc
 50
267.4806924794616
 51
354.3241056119477
  0
ARC
  5
909
330
18
100
AcDbEntity
  8
外形線
100
AcDbCircle
 10
446.6286094664489
 20
75.39826895213065
 30
0.0
 40
4.0
100
AcDbArc
 50
180.0
 51
267.4806924794623
  0
LINE
  5
90A
330
18
100
AcDbEntity
  8
外形線
100
AcDbLine
 10
432.628609466449
 20
61.31031435866637
 30
0.0
 11
442.6286094664489
 21
61.31031435866637
 31
0.0
  0
ARC
  5
90B
330
18
100
AcDbEntity
  8
外形線
100
AcDbCircle
 10
428.628609466449
 20
63.98441429786612
 30
0.0
 40
4.0
100
AcDbArc
 50
0.0
 51
84.40226062205097
  0
LINE
  5
90C
330
18
100
AcDbEntity
  8
外形線
100
AcDbLine
 10
432.628609466449
 20
61.31031435866637
 30
0.0
 11
432.628609466449
 21
63.98441429786612
 31
0.0
  0
ARC
  5
90D
330
18
100
AcDbEntity
  8
外形線
100
AcDbCircle
 10
446.6286094664489
 20
62.38726590453367
 30
0.0
 40
4.0
100
AcDbArc
 50
87.79577249602828
 51
180.0
  0
LINE
  5
90E
330
18
100
AcDbEntity
  8
外形線
100
AcDbLine
 10
442.6286094664489
 20
61.31031435866637
 30
0.0
 11
442.6286094664489
 21
62.38726590453367
 31
0.0
  0
LINE
  5
90F
330
18
100
AcDbEntity
  8
外形線
100
AcDbLine
 10
351.0325994913867
 20
91.79011485741947
 30
0.0
 11
400.7333476210624
 21
86.30507745093566
 31
0.0
  0
LINE
  5
910
330
18
100
AcDbEntity
  8
外形線
100
AcDbLine
 10
352.628609466449
 20
123.7103143586663
 30
0.0
 11
402.628609466449
 21
124.2103143586663
 31
0.0
  0
ARC
  5
911
330
18
100
AcDbEntity
  8
外形線
100
AcDbCircle
 10
352.628609466449
 20
107.7103143586663
 30
0.0
 40
16.0
100
AcDbArc
 50
90.0
 51
264.2751895477741
  0
ARC
  5
912
330
18
100
AcDbEntity
  8
外形線
100
AcDbCircle
 10
302.628609466449
 20
110.2103143586663
 30
0.0
 40
14.0
100
AcDbArc
 50
264.2751895477765
 51
90.0
  0
LINE
  5
913
330
18
100
AcDbEntity
  8
中心線
100
AcDbLine
 10
352.628609466449
 20
127.9555375086974
 30
0.0
 11
352.628609466449
 21
85.9555375086974
 31
0.0
  0
LINE
  5
914
330
18
100
AcDbEntity
  8
中心線
100
AcDbLine
 10
302.628609466449
 20
128.3263683937958
 30
0.0
 11
302.628609466449
 21
91.19181052428848
 31
0.0
  0
ARC
  5
915
330
18
100
AcDbEntity
  8
外形線
100
AcDbCircle
 10
402.628609466449
 20
105.2103143586663
 30
0.0
 40
19.0
100
AcDbArc
 50
263.1293121524119
 51
91.14587739536696
  0
LINE
  5
916
330
18
100
AcDbEntity
  8
中心線
100
AcDbLine
 10
402.628609466449
 20
128.1973957814692
 30
0.0
 11
402.628609466449
 21
82.6292515578639
 31
0.0
  0
LINE
  5
917
330
18
100
AcDbEntity
  8
外形線
100
AcDbLine
 10
432.628609466449
 20
77.04670510538939
 30
0.0
 11
432.628609466449
 21
131.3103143586663
 31
0.0
  0
LINE
  5
918
330
18
100
AcDbEntity
  8
外形線
100
AcDbLine
 10
442.6286094664489
 20
75.39826895213065
 30
0.0
 11
442.6286094664489
 21
133.4317499131191
 31
0.0
  0
ARC
  5
919
330
18
100
AcDbEntity
  8
外形線
100
AcDbCircle
 10
428.628609466449
 20
77.04670510538939
 30
0.0
 40
4.0
100
AcDbArc
 50
264.4022606220509
 51
0.0
  0
ARC
  5
91A
330
18
100
AcDbEntity
  8
外形線
100
AcDbCircle
 10
428.628609466449
 20
131.3103143586663
 30
0.0
 40
4.0
100
AcDbArc
 50
0.0
 51
90.0
  0
ARC
  5
91B
330
18
100
AcDbEntity
  8
外形線
100
AcDbCircle
 10
446.6286094664489
 20
133.4317499131191
 30
0.0
 40
4.0
100
AcDbArc
 50
110.0510425665058
 51
180.0
  0
ARC
  5
91C
330
18
100
AcDbEntity
  8
外形線
100
AcDbCircle
 10
541.1824608478232
 20
157.3103143586663
 30
0.0
 40
4.0
100
AcDbArc
 50
354.3241056119479
 51
90.00000000000003
  0
LINE
  5
91D
330
18
100
AcDbEntity
  8
中心線
100
AcDbLine
 10
485.628609466449
 20
146.7368024417172
 30
0.0
 11
485.628609466449
 21
95.88382627561543
 31
0.0
  0
CIRCLE
  5
91E
330
18
100
AcDbEntity
  8
外形線
100
AcDbCircle
 10
485.628609466449
 20
121.3103143586663
 30
0.0
 40
17.5
  0
LINE
  5
91F
330
18
100
AcDbEntity
  8
外形線
100
AcDbLine
 10
468.4516785170244
 20
161.3103143586663
 30
0.0
 11
541.1824608478232
 21
161.3103143586663
 31
0.0
  0
LINE
  5
920
330
18
100
AcDbEntity
  8
中心線
100
AcDbLine
 10
460.2021213833981
 20
121.3103143586663
 30
0.0
 11
511.0550975494999
 21
121.3103143586663
 31
0.0
  0
ARC
  5
921
330
18
100
AcDbEntity
  8
外形線
100
AcDbCircle
 10
468.4516785170244
 20
157.3103143586663
 30
0.0
 40
4.0
100
AcDbArc
 50
90.00000000000003
 51
165.0994033121699
  0
ARC
  5
922
330
18
100
AcDbEntity
  8
外形線
100
AcDbCircle
 10
434.628609466449
 20
166.3103143586663
 30
0.0
 40
31.0
100
AcDbArc
 50
14.90059668782996
 51
69.94895743349407
  0
ARC
  5
923
330
18
100
AcDbEntity
  8
外形線
100
AcDbCircle
 10
450.6286094664489
 20
166.3103143586663
 30
0.0
 40
95.0
100
AcDbArc
 50
5.675894388052327
 51
92.51930752053842
  0
ARC
  5
924
330
18
100
AcDbEntity
  8
外形線
100
AcDbCircle
 10
428.628609466449
 20
254.5993006291366
 30
0.0
 40
4.0
100
AcDbArc
 50
359.9999999999996
 51
103.4080195316845
  0
ARC
  5
925
330
18
100
AcDbEntity
  8
外形線
100
AcDbCircle
 10
412.6286094664489
 20
321.7185974073359
 30
0.0
 40
65.0
100
AcDbArc
 50
248.530652115058
 51
283.4080195316837
  0
ARC
  5
926
330
18
100
AcDbEntity
  8
外形線
100
AcDbCircle
 10
446.6286094664489
 20
257.222359765202
 30
0.0
 40
4.0
100
AcDbArc
 50
92.51930752053764
 51
180.0
  0
LINE
  5
927
330
18
100
AcDbEntity
  8
外形線
100
AcDbLine
 10
318.628609466449
 20
248.3103143586663
 30
0.0
 11
393.628609466449
 21
248.3103143586663
 31
0.0
  0
LINE
  5
928
330
18
100
AcDbEntity
  8
外形線
100
AcDbLine
 10
318.628609466449
 20
218.3103143586663
 30
0.0
 11
393.628609466449
 21
218.3103143586662
 31
0.0
  0
LINE
  5
929
330
18
100
AcDbEntity
  8
中心線
100
AcDbLine
 10
299.8883915809559
 20
233.3103143586663
 30
0.0
 11
412.3599395528615
 21
233.3103143586662
 31
0.0
  0
LINE
  5
92A
330
18
100
AcDbEntity
  8
中心線
100
AcDbLine
 10
318.628609466449
 20
251.8140388314112
 30
0.0
 11
318.628609466449
 21
214.1087905254251
 31
0.0
  0
ARC
  5
92B
330
18
100
AcDbEntity
  8
外形線
100
AcDbCircle
 10
318.628609466449
 20
233.3103143586663
 30
0.0
 40
15.0
100
AcDbArc
 50
90.0
 51
270.0
  0
LINE
  5
92C
330
18
100
AcDbEntity
  8
外形線
100
AcDbLine
 10
432.628609466449
 20
254.5993006291365
 30
0.0
 11
432.6286094664489
 21
201.3103143586663
 31
0.0
  0
LINE
  5
92D
330
18
100
AcDbEntity
  8
外形線
100
AcDbLine
 10
442.6286094664489
 20
257.222359765202
 30
0.0
 11
442.6286094664489
 21
199.1888788042135
 31
0.0
  0
ARC
  5
92E
330
18
100
AcDbEntity
  8
外形線
100
AcDbCircle
 10
428.6286094664489
 20
201.3103143586663
 30
0.0
 40
4.0
100
AcDbArc
 50
270.0
 51
0.0
  0
ARC
  5
92F
330
18
100
AcDbEntity
  8
外形線
100
AcDbCircle
 10
446.6286094664489
 20
199.1888788042135
 30
0.0
 40
4.0
100
AcDbArc
 50
180.0
 51
249.9489574334942
  0
LINE
  5
930
330
18
100
AcDbEntity
  8
中心線
100
AcDbLine
 10
393.628609466449
 20
251.8140388314111
 30
0.0
 11
393.628609466449
 21
214.1087905254251
 31
0.0
  0
ARC
  5
931
330
18
100
AcDbEntity
  8
外形線
100
AcDbCircle
 10
393.628609466449
 20
233.3103143586662
 30
0.0
 40
15.0
100
AcDbArc
 50
270.0
 51
90.0
  0
LINE
  5
932
330
18
100
AcDbEntity
  8
外形線
100
AcDbLine
 10
310.628609466449
 20
263.3103143586664
 30
0.0
 11
377.8582846421634
 21
263.3103143586664
 31
0.0
  0
LINE
  5
933
330
18
100
AcDbEntity
  8
外形線
100
AcDbLine
 10
310.628609466449
 20
268.3103143586663
 30
0.0
 11
377.8582846421634
 21
268.3103143586663
 31
0.0
  0
LINE
  5
934
330
18
100
AcDbEntity
  8
中心線
 48
0.5
100
AcDbLine
 10
293.6291815163766
 20
302.7440334344941
 30
0.0
 11
304.1165278121951
 21
317.4319776156493
 31
0.0
  0
CIRCLE
  5
935
330
18
100
AcDbEntity
  8
外形線
100
AcDbCircle
 10
298.8728546642859
 20
310.0880055250717
 30
0.0
 40
4.0
  0
LINE
  5
936
330
18
100
AcDbEntity
  8
中心線
 48
0.5
100
AcDbLine
 10
291.5288825737082
 20
315.3316786729809
 30
0.0
 11
306.2168267548634
 21
304.8443323771625
 31
0.0
  0
ARC
  5
937
330
18
100
AcDbEntity
  8
外形線
100
AcDbCircle
 10
412.6286094664489
 20
321.7185974073359
 30
0.0
 40
60.0
100
AcDbArc
 50
248.530652115058
 51
284.695047087138
  0
ARC
  5
938
330
18
100
AcDbEntity
  8
外形線
100
AcDbCircle
 10
377.8582846421634
 20
233.3103143586663
 30
0.0
 40
30.0
100
AcDbArc
 50
68.53065211505792
 51
90.0
  0
ARC
  5
939
330
18
100
AcDbEntity
  8
外形線
100
AcDbCircle
 10
377.8582846421634
 20
233.3103143586663
 30
0.0
 40
35.0
100
AcDbArc
 50
68.53065211505792
 51
90.0
  0
ARC
  5
93A
330
18
100
AcDbEntity
  8
外形線
100
AcDbCircle
 10
541.1824608478232
 20
175.3103143586663
 30
0.0
 40
4.0
100
AcDbArc
 50
270.0
 51
5.675894388052107
  0
CIRCLE
  5
93B
330
18
100
AcDbEntity
  8
外形線
100
AcDbCircle
 10
485.628609466449
 20
211.3103143586663
 30
0.0
 40
17.5
  0
LINE
  5
93C
330
18
100
AcDbEntity
  8
中心線
100
AcDbLine
 10
485.628609466449
 20
185.8838262756154
 30
0.0
 11
485.628609466449
 21
236.7368024417172
 31
0.0
  0
LINE
  5
93D
330
18
100
AcDbEntity
  8
中心線
100
AcDbLine
 10
460.2021213833981
 20
211.3103143586663
 30
0.0
 11
511.0550975494999
 21
211.3103143586663
 31
0.0
  0
LINE
  5
93E
330
18
100
AcDbEntity
  8
外形線
100
AcDbLine
 10
468.4516785170244
 20
171.3103143586663
 30
0.0
 11
541.1824608478232
 21
171.3103143586663
 31
0.0
  0
ARC
  5
93F
330
18
100
AcDbEntity
  8
外形線
100
AcDbCircle
 10
468.4516785170244
 20
175.3103143586663
 30
0.0
 40
4.0
100
AcDbArc
 50
194.9005966878301
 51
270.0
  0
DIMENSION
  5
9A9
330
18
100
AcDbEntity
  8
文字
100
AcDbDimension
  2
*D3
 10
85.94979591785492
 20
43.28244328099493
 30
0.0
 11
42.44979591785491
 21
45.15744328099493
 31
0.0
 12
-11.6042106668192
 22
0.0
 32
0.0
 70
    32
 71
     5
 42
-1.0
  3
STYLE3
100
AcDbAlignedDimension
 13
-1.050204082145086
 23
63.62855537038996
 33
0.0
 14
85.94979591785492
 24
63.62855537038996
 34
0.0
100
AcDbRotatedDimension
1001
ACAD
1000
DSTYLE
1002
{
1070
   271
1070
     2
1002
}
  0
LINE
  5
9FC
330
18
100
AcDbEntity
  8
外形線
100
AcDbLine
 10
51.44979591785491
 20
99.31031435866636
 30
0.0
 11
51.44979591785491
 21
92.31031435866634
 31
0.0
  0
LINE
  5
9FD
330
18
100
AcDbEntity
  8
外形線
100
AcDbLine
 10
33.44979591785492
 20
99.31031435866636
 30
0.0
 11
33.44979591785492
 21
92.31031435866631
 31
0.0
  0
LINE
  5
A2E
330
18
100
AcDbEntity
  8
想像線
100
AcDbLine
 10
446.6286094664489
 20
195.3449783957653
 30
0.0
 11
446.6286094664489
 21
137.2876793012264
 31
0.0
  0
DIMENSION
  5
A3B
330
18
100
AcDbEntity
  8
文字
100
AcDbDimension
  2
*D4
 10
446.6286094664489
 20
162.7188833508637
 30
0.0
 11
296.628609466449
 21
164.5938833508637
 31
0.0
 70
    32
 71
     5
 42
-1.0
  3
STYLE3
100
AcDbAlignedDimension
 13
146.628609466449
 23
167.6770466707655
 33
0.0
 14
446.6286094664489
 24
163.2188833508637
 34
0.0
100
AcDbRotatedDimension
1001
ACAD
1000
DSTYLE
1002
{
1070
   271
1070
     2
1002
}
  0
LINE
  5
AA1
330
18
100
AcDbEntity
  8
隠れ線2
100
AcDbLine
 10
206.3725346553284
 20
197.3103143586663
 30
0.0
 11
225.138602228448
 21
197.3103143586663
 31
0.0
  0
LINE
  5
AA2
330
18
100
AcDbEntity
  8
隠れ線2
100
AcDbLine
 10
202.2480426982169
 20
192.3103143586663
 30
0.0
 11
220.1000530878795
 21
192.3103143586663
 31
0.0
  0
LINE
  5
AA3
330
18
100
AcDbEntity
  8
外形線
100
AcDbLine
 10
225.138602228448
 20
197.3103143586663
 30
0.0
 11
428.6286094664489
 21
197.3103143586663
 31
0.0
  0
LINE
  5
AA4
330
18
100
AcDbEntity
  8
外形線
100
AcDbLine
 10
220.1000530878795
 20
192.3103143586663
 30
0.0
 11
434.628609466449
 21
192.3103143586663
 31
0.0
  0
DIMENSION
  5
AB1
330
18
100
AcDbEntity
  8
文字
100
AcDbDimension
  2
*D6
 10
51.44979591785491
 20
50.64903737652219
 30
0.0
 11
42.44979591785491
 21
52.52403737652219
 31
0.0
 12
-11.6042106668192
 22
0.0
 32
0.0
 70
    32
 71
     5
 42
-1.0
  3
STYLE3
100
AcDbAlignedDimension
 13
33.44979591785492
 23
61.31031435866638
 33
0.0
 14
51.44979591785491
 24
61.31031435866638
 34
0.0
100
AcDbRotatedDimension
1001
ACAD
1000
DSTYLE
1002
{
1070
   271
1070
     2
1002
}
  0
LINE
  5
ABD
330
18
100
AcDbEntity
  8
中心線
 48
0.2
100
AcDbLine
 10
44.82845712615232
 20
132.3103143586663
 30
0.0
 11
52.88101237099033
 21
132.3103143586663
 31
0.0
  0
LINE
  5
AC8
330
18
100
AcDbEntity
  8
隠れ線2
 48
0.5
100
AcDbLine
 10
46.44979591785491
 20
133.6103143586663
 30
0.0
 11
51.44979591785491
 21
133.6103143586663
 31
0.0
  0
LINE
  5
AC9
330
18
100
AcDbEntity
  8
隠れ線2
 48
0.5
100
AcDbLine
 10
46.44979591785491
 20
131.0103143586663
 30
0.0
 11
51.44979591785491
 21
131.0103143586663
 31
0.0
  0
LINE
  5
ACA
330
18
100
AcDbEntity
  8
隠れ線2
 48
0.5
100
AcDbLine
 10
46.44979591785491
 20
133.1103143586663
 30
0.0
 11
51.44979591785491
 21
133.1103143586663
 31
0.0
  0
LINE
  5
ACB
330
18
100
AcDbEntity
  8
隠れ線2
 48
0.5
100
AcDbLine
 10
46.44979591785491
 20
131.5103143586663
 30
0.0
 11
51.44979591785491
 21
131.5103143586663
 31
0.0
  0
LINE
  5
B07
330
18
100
AcDbEntity
  8
外形線
100
AcDbLine
 10
54.44979591785491
 20
162.5468136594306
 30
0.0
 11
52.44979591785491
 21
162.5468136594306
 31
0.0
  0
LINE
  5
B32
330
18
100
AcDbEntity
  8
隠れ線2
100
AcDbLine
 10
37.19979591785492
 20
90.31031435866637
 30
0.0
 11
39.14931409525232
 21
84.31031435866636
 31
0.0
  0
LINE
  5
B33
330
18
100
AcDbEntity
  8
隠れ線2
100
AcDbLine
 10
47.69979591785491
 20
90.31031435866637
 30
0.0
 11
45.7502777404575
 21
84.31031435866636
 31
0.0
  0
LINE
  5
B34
330
18
100
AcDbEntity
  8
隠れ線2
100
AcDbLine
 10
42.44979591785491
 20
84.31031435866637
 30
0.0
 11
39.14931409525232
 21
84.31031435866636
 31
0.0
  0
LINE
  5
B35
330
18
100
AcDbEntity
  8
隠れ線2
100
AcDbLine
 10
42.44979591785491
 20
84.31031435866637
 30
0.0
 11
45.7502777404575
 21
84.31031435866636
 31
0.0
  0
LINE
  5
B3E
330
18
100
AcDbEntity
  8
中心線
100
AcDbLine
 10
108.9562575844456
 20
229.4103143586664
 30
0.0
 11
186.9774730154955
 21
229.4103143586664
 31
0.0
  0
LINE
  5
B3F
330
18
100
AcDbEntity
  8
中心線
100
AcDbLine
 10
152.028609466449
 20
269.6693911568848
 30
0.0
 11
152.028609466449
 21
184.7017265070299
 31
0.0
  0
LINE
  5
B41
330
18
100
AcDbEntity
  8
外形線
100
AcDbLine
 10
187.028609466449
 20
240.9008876841469
 30
0.0
 11
187.028609466449
 21
192.3103143586664
 31
0.0
  0
LINE
  5
B43
330
18
100
AcDbEntity
  8
外形線
100
AcDbLine
 10
135.028609466449
 20
197.9255561413957
 30
0.0
 11
135.028609466449
 21
195.3103143586663
 31
0.0
  0
ARC
  5
B44
330
18
100
AcDbEntity
  8
外形線
100
AcDbCircle
 10
152.028609466449
 20
229.4103143586664
 30
0.0
 40
34.3
100
AcDbArc
 50
22.78762157813309
 51
237.5751440397091
  0
ARC
  5
B45
330
18
100
AcDbEntity
  8
外形線
100
AcDbCircle
 10
132.028609466449
 20
197.9255561413957
 30
0.0
 40
3.0
100
AcDbArc
 50
0.0
 51
57.57514403970957
  0
ARC
  5
B46
330
18
100
AcDbEntity
  8
外形線
100
AcDbCircle
 10
138.028609466449
 20
195.3103143586663
 30
0.0
 40
3.0
100
AcDbArc
 50
180.0
 51
270.0
  0
ARC
  5
B47
330
18
100
AcDbEntity
  8
外形線
100
AcDbCircle
 10
186.4172269929177
 20
243.8572166085689
 30
0.0
 40
3.0
100
AcDbArc
 50
202.7876215781331
 51
275.2721569347975
  0
LINE
  5
B49
330
18
100
AcDbEntity
  8
隠れ線2
100
AcDbLine
 10
38.44979591785492
 20
140.3103143586663
 30
0.0
 11
38.44979591785492
 21
99.31031435866636
 31
0.0
  0
LINE
  5
B4A
330
18
100
AcDbEntity
  8
隠れ線2
100
AcDbLine
 10
46.44979591785491
 20
140.3103143586663
 30
0.0
 11
46.44979591785491
 21
99.31031435866636
 31
0.0
  0
LINE
  5
B4B
330
18
100
AcDbEntity
  8
外形線
100
AcDbLine
 10
40.44979591785502
 20
263.7103143586663
 30
0.0
 11
33.44979591785492
 21
263.7103143586663
 31
0.0
  0
LINE
  5
B59
330
18
100
AcDbEntity
  8
外形線
100
AcDbLine
 10
44.44979591785491
 20
272.4103143586664
 30
0.0
 11
44.44979591785491
 21
154.3100796145587
 31
0.0
  0
LINE
  5
CEE
330
18
100
AcDbEntity
  8
中心線
100
AcDbLine
 10
28.21602535197598
 20
229.4103143586664
 30
0.0
 11
58.52666068486303
 21
229.4103143586664
 31
0.0
  0
LINE
  5
CF1
330
18
100
AcDbEntity
  8
目盛
100
AcDbLine
 10
123.0858343420291
 20
231.2312394250165
 30
0.0
 11
126.329421209421
 21
231.0271702365462
 31
0.0
  0
LINE
  5
CF2
330
18
100
AcDbEntity
  8
目盛
100
AcDbLine
 10
124.0424257762086
 20
230.289815612854
 30
0.0
 11
125.5416856167571
 21
230.2426994742369
 31
0.0
  0
LINE
  5
CF3
330
18
100
AcDbEntity
  8
目盛
100
AcDbLine
 10
124.1528744575628
 20
232.0453471315848
 30
0.0
 11
125.6462174044674
 21
231.904184661607
 31
0.0
  0
LINE
  5
CF4
330
18
100
AcDbEntity
  8
目盛
100
AcDbLine
 10
123.5422791953171
 20
234.8443724816524
 30
0.0
 11
126.7347127601853
 21
234.2353832092488
 31
0.0
  0
LINE
  5
CF5
330
18
100
AcDbEntity
  8
目盛
100
AcDbLine
 10
123.2572831283291
 20
233.0449781320313
 30
0.0
 11
126.4816559076012
 21
232.6376451229473
 31
0.0
  0
LINE
  5
CF6
330
18
100
AcDbEntity
  8
目盛
100
AcDbLine
 10
124.0424257762086
 20
228.5308131044788
 30
0.0
 11
125.5416856167571
 21
228.577929243096
 31
0.0
  0
LINE
  5
CF7
330
18
100
AcDbEntity
  8
目盛
100
AcDbLine
 10
124.1528744575628
 20
226.775281585748
 30
0.0
 11
125.6462174044674
 21
226.9164440557259
 31
0.0
  0
LINE
  5
CF8
330
18
100
AcDbEntity
  8
目盛
100
AcDbLine
 10
123.0858343420292
 20
227.5893892923164
 30
0.0
 11
126.329421209421
 21
227.7934584807866
 31
0.0
  0
LINE
  5
CF9
330
18
100
AcDbEntity
  8
目盛
100
AcDbLine
 10
123.2572831283291
 20
225.7756505853016
 30
0.0
 11
126.4816559076012
 21
226.1829835943856
 31
0.0
  0
LINE
  5
CFA
330
18
100
AcDbEntity
  8
目盛
100
AcDbLine
 10
123.028609466449
 20
229.4103143586665
 30
0.0
 11
127.028609466449
 21
229.4103143586665
 31
0.0
  0
LINE
  5
CFB
330
18
100
AcDbEntity
  8
目盛
100
AcDbLine
 10
123.9396977937186
 20
236.6223210864472
 30
0.0
 11
127.0875930673868
 21
235.8140789531615
 31
0.0
  0
LINE
  5
CFC
330
18
100
AcDbEntity
  8
目盛
100
AcDbLine
 10
123.9396977937186
 20
222.1983076308856
 30
0.0
 11
127.0875930673867
 21
223.0065497641715
 31
0.0
  0
LINE
  5
CFD
330
18
100
AcDbEntity
  8
目盛
100
AcDbLine
 10
123.5422791953171
 20
223.9762562356804
 30
0.0
 11
126.7347127601853
 21
224.5852455080841
 31
0.0
  0
CIRCLE
  5
CFE
330
18
100
AcDbEntity
  8
外形線
100
AcDbCircle
 10
152.028609466449
 20
229.4103143586664
 30
0.0
 40
29.0
  0
CIRCLE
  5
CFF
330
18
100
AcDbEntity
  8
外形線
100
AcDbCircle
 10
152.028609466449
 20
229.4103143586664
 30
0.0
 40
33.0
  0
LINE
  5
D00
330
18
100
AcDbEntity
  8
目盛
100
AcDbLine
 10
175.4901023033225
 20
246.456086675148
 30
0.0
 11
172.2540343258228
 21
244.1049456659782
 31
0.0
  0
TEXT
  5
D01
330
18
100
AcDbEntity
  8
文字
100
AcDbText
 10
171.85460157016
 20
234.6877804412969
 30
0.0
 40
3.0
  1
2
  7
STYLE3
100
AcDbText
  0
LINE
  5
D02
330
18
100
AcDbEntity
  8
目盛
100
AcDbLine
 10
173.0317194161019
 20
247.9270465877285
 30
0.0
 11
171.9065528116563
 21
246.9350787897431
 31
0.0
  0
LINE
  5
D03
330
18
100
AcDbEntity
  8
目盛
100
AcDbLine
 10
174.3734935069469
 20
247.8956100613783
 30
0.0
 11
171.8693254679256
 21
245.8239820946951
 31
0.0
  0
LINE
  5
D04
330
18
100
AcDbEntity
  8
目盛
100
AcDbLine
 10
173.16869966167
 20
249.2621804305982
 30
0.0
 11
170.7995516225504
 21
247.0374023363302
 31
0.0
  0
TEXT
  5
D05
330
18
100
AcDbEntity
  8
文字
100
AcDbText
 10
171.4313216404437
 20
221.1534328445334
 30
0.0
 40
3.0
  1
3
  7
STYLE3
100
AcDbText
  0
LINE
  5
D06
330
18
100
AcDbEntity
  8
目盛
100
AcDbLine
 10
173.0317194161019
 20
210.8935821296041
 30
0.0
 11
171.9065528116562
 21
211.8855499275895
 31
0.0
  0
LINE
  5
D07
330
18
100
AcDbEntity
  8
目盛
100
AcDbLine
 10
173.16869966167
 20
209.5584482867344
 30
0.0
 11
170.7995516225504
 21
211.7832263810026
 31
0.0
  0
LINE
  5
D08
330
18
100
AcDbEntity
  8
目盛
100
AcDbLine
 10
174.3734935069469
 20
210.9250186559543
 30
0.0
 11
171.8693254679256
 21
212.9966466226376
 31
0.0
  0
LINE
  5
D09
330
18
100
AcDbEntity
  8
目盛
100
AcDbLine
 10
175.4901023033225
 20
212.3645420421846
 30
0.0
 11
172.2540343258228
 21
214.7156830513544
 31
0.0
  0
HATCH
  5
D0A
330
18
100
AcDbEntity
  8
針
100
AcDbHatch
 10
0.0
 20
0.0
 30
0.0
210
0.0
220
0.0
230
1.0
  2
SOLID
 70
     1
 71
     1
 91
        1
 92
        7
 72
     1
 73
     1
 93
        7
 10
151.4286094664488
 20
232.5852159319348
 42
-0.141500015329121
 10
150.9667552409209
 20
230.9858985689605
 42
-0.3055181981730916
 10
153.0904636919768
 20
230.9858985689607
 42
-0.1415000153295778
 10
152.628609466449
 20
232.5852159319403
 42
0.0
 10
152.128609466449
 20
255.9103143586664
 42
0.0
 10
152.0286094664491
 20
255.9103143586664
 42
0.0
 10
151.9286094664491
 20
255.9103143586665
 42
0.0
 97
        7
330
D39
330
D38
330
D0B
330
D8D
330
D8C
330
D8E
330
D0C
 75
     0
 76
     1
 47
0.070338108143851
 98
        1
 10
151.8281461055816
 20
237.7859773855344
450
        0
451
        0
460
0.0
461
0.0
452
        0
462
0.0
453
        0
470

  0
LINE
  5
D0B
102
{ACAD_REACTORS
330
D0A
102
}
330
18
100
AcDbEntity
  8
針
100
AcDbLine
 10
151.4286094664489
 20
232.5852159319405
 30
0.0
 11
151.9286094664491
 21
255.9103143586664
 31
0.0
  0
LINE
  5
D0C
102
{ACAD_REACTORS
330
D0A
102
}
330
18
100
AcDbEntity
  8
針
100
AcDbLine
 10
152.628609466449
 20
232.5852159319405
 30
0.0
 11
152.128609466449
 21
255.9103143586664
 31
0.0
  0
LINE
  5
D0D
330
18
100
AcDbEntity
  8
目盛
100
AcDbLine
 10
128.8703533867613
 20
245.1486489385261
 30
0.0
 11
130.1109742481731
 21
244.3055238717479
 31
0.0
  0
LINE
  5
D0E
330
18
100
AcDbEntity
  8
目盛
100
AcDbLine
 10
127.5430996268906
 20
244.9492914130573
 30
0.0
 11
130.287165384772
 21
243.2078543293756
 31
0.0
  0
LINE
  5
D0F
330
18
100
AcDbEntity
  8
目盛
100
AcDbLine
 10
128.5671166295754
 20
246.4560866751482
 30
0.0
 11
131.8031846070753
 21
244.1049456659782
 31
0.0
  0
LINE
  5
D12
330
18
100
AcDbEntity
  8
目盛
100
AcDbLine
 10
148.3939456930842
 20
258.1816406967863
 30
0.0
 11
148.8012787021683
 21
254.9572679175142
 31
0.0
  0
LINE
  5
D13
330
18
100
AcDbEntity
  8
目盛
100
AcDbLine
 10
136.2902748865894
 20
252.5685704383541
 30
0.0
 11
137.1333999533677
 21
251.3279495769423
 31
0.0
  0
LINE
  5
D14
330
18
100
AcDbEntity
  8
目盛
100
AcDbLine
 10
134.9828371499673
 20
252.8718071955399
 30
0.0
 11
137.3339781591373
 21
249.6357392180401
 31
0.0
  0
LINE
  5
D15
330
18
100
AcDbEntity
  8
目盛
100
AcDbLine
 10
129.9042691199297
 20
246.5717118609498
 30
0.0
 11
131.0895016384933
 21
245.6523512804703
 31
0.0
  0
LINE
  5
D16
330
18
100
AcDbEntity
  8
目盛
100
AcDbLine
 10
129.6837254259511
 20
247.8956100613785
 30
0.0
 11
132.1878934649723
 21
245.8239820946952
 31
0.0
  0
LINE
  5
D17
330
18
100
AcDbEntity
  8
目盛
100
AcDbLine
 10
133.543313763737
 20
251.7551983991643
 30
0.0
 11
135.6149417304203
 21
249.251030360143
 31
0.0
  0
LINE
  5
D18
330
18
100
AcDbEntity
  8
目盛
100
AcDbLine
 10
133.5118772373868
 20
250.4134243083193
 30
0.0
 11
134.5038450353722
 21
249.2882577038736
 31
0.0
  0
LINE
  5
D19
330
18
100
AcDbEntity
  8
目盛
100
AcDbLine
 10
134.8672119641657
 20
251.5346547051858
 30
0.0
 11
135.7865725446451
 21
250.3494221866223
 31
0.0
  0
LINE
  5
D1A
330
18
100
AcDbEntity
  8
目盛
100
AcDbLine
 10
132.2296195932257
 20
249.2093042318898
 30
0.0
 11
133.2902797650055
 21
248.1486440601099
 31
0.0
  0
LINE
  5
D1B
330
18
100
AcDbEntity
  8
目盛
100
AcDbLine
 10
132.1767433945171
 20
250.5504045538874
 30
0.0
 11
134.4015214887853
 21
248.1812565147677
 31
0.0
  0
LINE
  5
D1C
330
18
100
AcDbEntity
  8
目盛
100
AcDbLine
 10
131.0254995167961
 20
247.9270465877287
 30
0.0
 11
132.1506661212418
 21
246.9350787897432
 31
0.0
  0
LINE
  5
D1D
330
18
100
AcDbEntity
  8
目盛
100
AcDbLine
 10
130.888519271228
 20
249.2621804305984
 30
0.0
 11
133.2576673103476
 21
247.0374023363302
 31
0.0
  0
TEXT
  5
D1E
330
18
100
AcDbEntity
  8
文字
100
AcDbText
 10
145.7135352514435
 20
263.4264856948693
 30
0.0
 40
2.0
  1
0
  7
STYLE3
100
AcDbText
  0
LINE
  5
D1F
330
18
100
AcDbEntity
  8
外形線
100
AcDbLine
 10
142.628609466449
 20
268.8100796145587
 30
0.0
 11
142.628609466449
 21
262.3971299067001
 31
0.0
  0
LINE
  5
D20
330
18
100
AcDbEntity
  8
目盛
100
AcDbLine
 10
141.3529974385934
 20
256.3738324494257
 30
0.0
 11
142.5494022348186
 21
253.3520588702889
 31
0.0
  0
LINE
  5
D21
330
18
100
AcDbEntity
  8
目盛
100
AcDbLine
 10
137.7754498254387
 20
253.5110911147769
 30
0.0
 11
138.5390119490643
 21
252.2199780742709
 31
0.0
  0
LINE
  5
D22
330
18
100
AcDbEntity
  8
目盛
100
AcDbLine
 10
138.0577529174993
 20
254.8232080799385
 30
0.0
 11
139.6234523583299
 21
251.975211369796
 31
0.0
  0
LINE
  5
D23
330
18
100
AcDbEntity
  8
目盛
100
AcDbLine
 10
136.4896324120581
 20
253.8958241982248
 30
0.0
 11
138.2310694957399
 21
251.1517584403434
 31
0.0
  0
LINE
  5
D24
330
18
100
AcDbEntity
  8
目盛
100
AcDbLine
 10
140.9084685286753
 20
255.1074438778179
 30
0.0
 11
141.5041903646274
 21
253.7308119392919
 31
0.0
  0
LINE
  5
D25
330
18
100
AcDbEntity
  8
目盛
100
AcDbLine
 10
139.3168754737418
 20
254.3584970359407
 30
0.0
 11
139.997861223351
 21
253.0219872496582
 31
0.0
  0
LINE
  5
D26
330
18
100
AcDbEntity
  8
目盛
100
AcDbLine
 10
139.681010011062
 20
255.650298880181
 30
0.0
 11
141.0647927086484
 21
252.7096109596664
 31
0.0
  0
TEXT
  5
D27
330
18
100
AcDbEntity
  8
文字
100
AcDbText
 10
137.7806922220763
 20
245.6844378224375
 30
0.0
 40
3.0
  1
9
  7
STYLE3
100
AcDbText
  0
LINE
  5
D28
330
18
100
AcDbEntity
  8
目盛
100
AcDbLine
 10
147.6484444453227
 20
257.0655878953303
 30
0.0
 11
147.8830961428829
 21
255.5840553844376
 31
0.0
  0
LINE
  5
D29
330
18
100
AcDbEntity
  8
目盛
100
AcDbLine
 10
145.9205987073459
 20
256.7359836929513
 30
0.0
 11
146.2478135694406
 21
255.2721085500432
 31
0.0
  0
LINE
  5
D2A
330
18
100
AcDbEntity
  8
目盛
100
AcDbLine
 10
146.5945513434631
 20
257.8966446297984
 30
0.0
 11
147.2035406158667
 21
254.7042110649301
 31
0.0
  0
LINE
  5
D2B
330
18
100
AcDbEntity
  8
目盛
100
AcDbLine
 10
142.5439476995809
 20
255.7549758893847
 30
0.0
 11
143.0520545799488
 21
254.3436547359534
 31
0.0
  0
LINE
  5
D2C
330
18
100
AcDbEntity
  8
目盛
100
AcDbLine
 10
144.2168584973507
 20
256.2985375576209
 30
0.0
 11
144.6353451564095
 21
254.8580970291054
 31
0.0
  0
LINE
  5
D2D
330
18
100
AcDbEntity
  8
目盛
100
AcDbLine
 10
143.0671166295756
 20
256.9909533312259
 30
0.0
 11
144.3031846070754
 21
253.1867272660452
 31
0.0
  0
LINE
  5
D2E
330
18
100
AcDbEntity
  8
目盛
100
AcDbLine
 10
144.8166027386683
 20
257.4992260313967
 30
0.0
 11
145.624844871954
 21
254.3513307577287
 31
0.0
  0
LINE
  5
D2F
330
18
100
AcDbEntity
  8
目盛
100
AcDbLine
 10
160.9901023033225
 20
256.9909533312258
 30
0.0
 11
159.7540343258228
 21
253.1867272660452
 31
0.0
  0
LINE
  5
D30
330
18
100
AcDbEntity
  8
外形線
100
AcDbLine
 10
150.628609466449
 20
268.8100796145587
 30
0.0
 11
150.628609466449
 21
263.6817310203686
 31
0.0
  0
TEXT
  5
D31
330
18
100
AcDbEntity
  8
文字
100
AcDbText
 10
150.5848623709828
 20
249.9139217350335
 30
0.0
 40
3.0
  1
0
  7
STYLE3
100
AcDbText
  0
LINE
  5
D32
330
18
100
AcDbEntity
  8
目盛
100
AcDbLine
 10
153.8495345327991
 20
258.3530894830862
 30
0.0
 11
153.645465344329
 21
255.1095026156944
 31
0.0
  0
LINE
  5
D33
330
18
100
AcDbEntity
  8
目盛
100
AcDbLine
 10
152.0286094664491
 20
258.4103143586664
 30
0.0
 11
152.0286094664491
 21
254.4103143586664
 31
0.0
  0
LINE
  5
D34
330
18
100
AcDbEntity
  8
目盛
100
AcDbLine
 10
152.9081107206366
 20
257.3964980489069
 30
0.0
 11
152.8609945820194
 21
255.8972382083583
 31
0.0
  0
LINE
  5
D35
330
18
100
AcDbEntity
  8
目盛
100
AcDbLine
 10
150.207684400099
 20
258.3530894830862
 30
0.0
 11
150.4117535885692
 21
255.1095026156944
 31
0.0
  0
LINE
  5
D36
330
18
100
AcDbEntity
  8
目盛
100
AcDbLine
 10
149.3935766935307
 20
257.2860493675527
 30
0.0
 11
149.5347391635085
 21
255.792706420648
 31
0.0
  0
LINE
  5
D37
330
18
100
AcDbEntity
  8
目盛
100
AcDbLine
 10
151.1491082122615
 20
257.3964980489069
 30
0.0
 11
151.1962243508787
 21
255.8972382083584
 31
0.0
  0
LINE
  5
D38
102
{ACAD_REACTORS
330
D0A
102
}
330
18
100
AcDbEntity
  8
針
100
AcDbLine
 10
152.0286094664491
 20
255.9103143586664
 30
0.0
 11
151.9286094664491
 21
255.9103143586664
 31
0.0
  0
LINE
  5
D39
102
{ACAD_REACTORS
330
D0A
102
}
330
18
100
AcDbEntity
  8
針
100
AcDbLine
 10
152.0286094664491
 20
255.9103143586664
 30
0.0
 11
152.128609466449
 21
255.9103143586664
 31
0.0
  0
LINE
  5
D3A
330
18
100
AcDbEntity
  8
目盛
100
AcDbLine
 10
159.2406161942298
 20
257.4992260313967
 30
0.0
 11
158.4323740609441
 21
254.3513307577287
 31
0.0
  0
LINE
  5
D3B
330
18
100
AcDbEntity
  8
目盛
100
AcDbLine
 10
158.1366202255523
 20
256.7359836929513
 30
0.0
 11
157.8094053634575
 21
255.2721085500432
 31
0.0
  0
LINE
  5
D3C
330
18
100
AcDbEntity
  8
目盛
100
AcDbLine
 10
159.8403604355475
 20
256.2985375576208
 30
0.0
 11
159.4218737764886
 21
254.8580970291054
 31
0.0
  0
LINE
  5
D3D
330
18
100
AcDbEntity
  8
目盛
100
AcDbLine
 10
155.6632732398139
 20
258.1816406967863
 30
0.0
 11
155.2559402307299
 21
254.9572679175142
 31
0.0
  0
LINE
  5
D3E
330
18
100
AcDbEntity
  8
目盛
100
AcDbLine
 10
157.4626675894351
 20
257.8966446297984
 30
0.0
 11
156.8536783170315
 21
254.7042110649301
 31
0.0
  0
LINE
  5
D3F
330
18
100
AcDbEntity
  8
目盛
100
AcDbLine
 10
154.6636422393675
 20
257.2860493675527
 30
0.0
 11
154.5224797693897
 21
255.792706420648
 31
0.0
  0
LINE
  5
D40
330
18
100
AcDbEntity
  8
目盛
100
AcDbLine
 10
156.4087744875756
 20
257.0655878953303
 30
0.0
 11
156.1741227900152
 21
255.5840553844376
 31
0.0
  0
LINE
  5
D41
330
18
100
AcDbEntity
  8
目盛
100
AcDbLine
 10
167.56758652084
 20
253.8958241982248
 30
0.0
 11
165.8261494371583
 21
251.1517584403432
 31
0.0
  0
LINE
  5
D42
330
18
100
AcDbEntity
  8
目盛
100
AcDbLine
 10
165.9994660153988
 20
254.8232080799385
 30
0.0
 11
164.4337665745682
 21
251.9752113697959
 31
0.0
  0
LINE
  5
D43
330
18
100
AcDbEntity
  8
目盛
100
AcDbLine
 10
166.2817691074595
 20
253.5110911147768
 30
0.0
 11
165.5182069838339
 21
252.2199780742709
 31
0.0
  0
LINE
  5
D44
330
18
100
AcDbEntity
  8
目盛
100
AcDbLine
 10
163.148750404223
 20
255.1074438778178
 30
0.0
 11
162.5530285682708
 21
253.7308119392919
 31
0.0
  0
LINE
  5
D45
330
18
100
AcDbEntity
  8
目盛
100
AcDbLine
 10
164.3762089218362
 20
255.6502988801809
 30
0.0
 11
162.9924262242497
 21
252.7096109596664
 31
0.0
  0
LINE
  5
D46
330
18
100
AcDbEntity
  8
目盛
100
AcDbLine
 10
164.7403434591564
 20
254.3584970359407
 30
0.0
 11
164.0593577095471
 21
253.0219872496581
 31
0.0
  0
LINE
  5
D47
330
18
100
AcDbEntity
  8
目盛
100
AcDbLine
 10
161.5132712333173
 20
255.7549758893847
 30
0.0
 11
161.0051643529493
 21
254.3436547359534
 31
0.0
  0
LINE
  5
D48
330
18
100
AcDbEntity
  8
目盛
100
AcDbLine
 10
162.7042214943047
 20
256.3738324494257
 30
0.0
 11
161.5078166980795
 21
253.3520588702888
 31
0.0
  0
TEXT
  5
D49
330
18
100
AcDbEntity
  8
文字
100
AcDbText
 10
163.9181312957246
 20
245.2614892332758
 30
0.0
 40
3.0
  1
1
  7
STYLE3
100
AcDbText
  0
LINE
  5
D4A
330
18
100
AcDbEntity
  8
目盛
100
AcDbLine
 10
167.7669440463087
 20
252.5685704383541
 30
0.0
 11
166.9238189795306
 21
251.3279495769423
 31
0.0
  0
LINE
  5
D4B
330
18
100
AcDbEntity
  8
目盛
100
AcDbLine
 10
169.0743817829307
 20
252.8718071955398
 30
0.0
 11
166.7232407737609
 21
249.6357392180401
 31
0.0
  0
LINE
  5
D4C
330
18
100
AcDbEntity
  8
目盛
100
AcDbLine
 10
171.8275993396724
 20
249.2093042318897
 30
0.0
 11
170.7669391678926
 21
248.1486440601099
 31
0.0
  0
LINE
  5
D4D
330
18
100
AcDbEntity
  8
目盛
100
AcDbLine
 10
169.1900069687324
 20
251.5346547051857
 30
0.0
 11
168.2706463882529
 21
250.3494221866222
 31
0.0
  0
LINE
  5
D4E
330
18
100
AcDbEntity
  8
目盛
100
AcDbLine
 10
170.5139051691611
 20
251.7551983991642
 30
0.0
 11
168.4422772024778
 21
249.2510303601429
 31
0.0
  0
LINE
  5
D4F
330
18
100
AcDbEntity
  8
目盛
100
AcDbLine
 10
170.5453416955113
 20
250.4134243083193
 30
0.0
 11
169.5533738975259
 21
249.2882577038735
 31
0.0
  0
LINE
  5
D50
330
18
100
AcDbEntity
  8
目盛
100
AcDbLine
 10
171.880475538381
 20
250.5504045538873
 30
0.0
 11
169.6556974441128
 21
248.1812565147677
 31
0.0
  0
TEXT
  5
D51
330
18
100
AcDbEntity
  8
文字
100
AcDbText
 10
147.1109604039391
 20
214.9246615756694
 30
0.0
 40
1.5
  1
0.05mm
  7
STYLE3
100
AcDbText
  0
LINE
  5
D52
330
18
100
AcDbEntity
  8
目盛
100
AcDbLine
 10
148.3939456930841
 20
200.6389880205464
 30
0.0
 11
148.8012787021681
 21
203.8633607998186
 31
0.0
  0
TEXT
  5
D53
330
18
100
AcDbEntity
  8
文字
100
AcDbText
 10
143.8398870963892
 20
238.9086814636752
 30
0.0
 40
1.5
  1
MADE IN JAPAN
  7
STYLE3
100
AcDbText
  0
INSERT
  5
D54
330
18
100
AcDbEntity
  8
文字
100
AcDbBlockReference
  2
ROGO
 10
142.1303863360681
 20
241.4103143586663
 30
0.0
 41
0.5
 42
0.5
 43
0.5
  0
LINE
  5
D55
330
18
100
AcDbEntity
  8
目盛
100
AcDbLine
 10
128.8703533867613
 20
213.6719797788068
 30
0.0
 11
130.1109742481731
 21
214.5151048455849
 31
0.0
  0
LINE
  5
D56
330
18
100
AcDbEntity
  8
目盛
100
AcDbLine
 10
127.5430996268906
 20
213.8713373042755
 30
0.0
 11
130.2871653847721
 21
215.6127743879572
 31
0.0
  0
LINE
  5
D57
330
18
100
AcDbEntity
  8
目盛
100
AcDbLine
 10
128.5671166295756
 20
212.3645420421847
 30
0.0
 11
131.8031846070753
 21
214.7156830513545
 31
0.0
  0
TEXT
  5
D58
330
18
100
AcDbEntity
  8
文字
100
AcDbText
 10
129.4209454268541
 20
234.6877804412968
 30
0.0
 40
3.0
  1
8
  7
STYLE3
100
AcDbText
  0
LINE
  5
D59
330
18
100
AcDbEntity
  8
目盛
100
AcDbLine
 10
125.1403862674946
 20
237.2220653277648
 30
0.0
 11
126.58082679601
 21
236.803578668706
 31
0.0
  0
LINE
  5
D5A
330
18
100
AcDbEntity
  8
目盛
100
AcDbLine
 10
124.4479704938896
 20
238.3718071955399
 30
0.0
 11
128.2521965590701
 21
237.1357392180401
 31
0.0
  0
LINE
  5
D5B
330
18
100
AcDbEntity
  8
目盛
100
AcDbLine
 10
125.6839479357306
 20
238.8949761255346
 30
0.0
 11
127.095269089162
 21
238.3868692451667
 31
0.0
  0
LINE
  5
D5C
330
18
100
AcDbEntity
  8
目盛
100
AcDbLine
 10
125.0650913756897
 20
240.0859263865221
 30
0.0
 11
128.0868649548265
 21
238.8895215902969
 31
0.0
  0
LINE
  5
D5D
330
18
100
AcDbEntity
  8
目盛
100
AcDbLine
 10
126.3314799472976
 20
240.5304552964403
 30
0.0
 11
127.7081118858235
 21
239.9347334604882
 31
0.0
  0
LINE
  5
D5E
330
18
100
AcDbEntity
  8
目盛
100
AcDbLine
 10
125.7886249449344
 20
241.7579138140535
 30
0.0
 11
128.7293128654489
 21
240.3741311164671
 31
0.0
  0
LINE
  5
D5F
330
18
100
AcDbEntity
  8
目盛
100
AcDbLine
 10
127.0804267891747
 20
242.1220483513738
 30
0.0
 11
128.4169365754572
 21
241.4410626017644
 31
0.0
  0
LINE
  5
D60
330
18
100
AcDbEntity
  8
目盛
100
AcDbLine
 10
127.9278327103385
 20
243.6634739996769
 30
0.0
 11
129.2189457508444
 21
242.8999118760513
 31
0.0
  0
LINE
  5
D61
330
18
100
AcDbEntity
  8
目盛
100
AcDbLine
 10
126.615715745177
 20
243.3811709076162
 30
0.0
 11
129.4637124553195
 21
241.8154714667856
 31
0.0
  0
LINE
  5
D62
330
18
100
AcDbEntity
  8
目盛
100
AcDbLine
 10
124.702940132164
 20
235.5183251177696
 30
0.0
 11
126.1668152750722
 21
235.1911102556748
 31
0.0
  0
LINE
  5
D63
330
18
100
AcDbEntity
  8
目盛
100
AcDbLine
 10
124.3733359297852
 20
233.7904793797929
 30
0.0
 11
125.8548684406778
 21
233.5558276822326
 31
0.0
  0
TEXT
  5
D64
330
18
100
AcDbEntity
  8
文字
100
AcDbText
 10
129.7384031015217
 20
220.3075363258838
 30
0.0
 40
3.0
  1
7
  7
STYLE3
100
AcDbText
  0
LINE
  5
D65
330
18
100
AcDbEntity
  8
目盛
100
AcDbLine
 10
125.1403862674946
 20
221.598563389568
 30
0.0
 11
126.58082679601
 21
222.0170500486269
 31
0.0
  0
LINE
  5
D66
330
18
100
AcDbEntity
  8
目盛
100
AcDbLine
 10
124.3733359297852
 20
225.0301493375399
 30
0.0
 11
125.8548684406778
 21
225.2648010351003
 31
0.0
  0
LINE
  5
D67
330
18
100
AcDbEntity
  8
目盛
100
AcDbLine
 10
124.702940132164
 20
223.3023035995632
 30
0.0
 11
126.1668152750722
 21
223.6295184616581
 31
0.0
  0
LINE
  5
D68
330
18
100
AcDbEntity
  8
目盛
100
AcDbLine
 10
125.0650913756897
 20
218.7347023308107
 30
0.0
 11
128.0868649548265
 21
219.931107127036
 31
0.0
  0
LINE
  5
D69
330
18
100
AcDbEntity
  8
目盛
100
AcDbLine
 10
125.6839479357308
 20
219.9256525917983
 30
0.0
 11
127.095269089162
 21
220.4337594721661
 31
0.0
  0
LINE
  5
D6A
330
18
100
AcDbEntity
  8
目盛
100
AcDbLine
 10
124.4479704938896
 20
220.448821521793
 30
0.0
 11
128.2521965590701
 21
221.6848894992927
 31
0.0
  0
LINE
  5
D6B
330
18
100
AcDbEntity
  8
目盛
100
AcDbLine
 10
127.0804267891748
 20
216.6985803659592
 30
0.0
 11
128.4169365754572
 21
217.3795661155684
 31
0.0
  0
LINE
  5
D6C
330
18
100
AcDbEntity
  8
目盛
100
AcDbLine
 10
125.7886249449344
 20
217.0627149032793
 30
0.0
 11
128.729312865449
 21
218.4464976008658
 31
0.0
  0
LINE
  5
D6D
330
18
100
AcDbEntity
  8
目盛
100
AcDbLine
 10
126.3314799472976
 20
218.2901734208925
 30
0.0
 11
127.7081118858235
 21
218.8858952568447
 31
0.0
  0
LINE
  5
D6E
330
18
100
AcDbEntity
  8
目盛
100
AcDbLine
 10
127.9278327103386
 20
215.157154717656
 30
0.0
 11
129.2189457508445
 21
215.9207168412815
 31
0.0
  0
LINE
  5
D6F
330
18
100
AcDbEntity
  8
目盛
100
AcDbLine
 10
126.615715745177
 20
215.4394578097166
 30
0.0
 11
129.4637124553195
 21
217.0051572505472
 31
0.0
  0
LINE
  5
D70
330
18
100
AcDbEntity
  8
目盛
100
AcDbLine
 10
136.2902748865892
 20
206.2520582789787
 30
0.0
 11
137.1333999533675
 21
207.4926791403905
 31
0.0
  0
LINE
  5
D71
330
18
100
AcDbEntity
  8
目盛
100
AcDbLine
 10
134.9828371499673
 20
205.9488215217929
 30
0.0
 11
137.3339781591371
 21
209.1848894992927
 31
0.0
  0
LINE
  5
D72
330
18
100
AcDbEntity
  8
目盛
100
AcDbLine
 10
129.9042691199297
 20
212.2489168563831
 30
0.0
 11
131.0895016384933
 21
213.1682774368625
 31
0.0
  0
LINE
  5
D73
330
18
100
AcDbEntity
  8
目盛
100
AcDbLine
 10
129.6837254259511
 20
210.9250186559544
 30
0.0
 11
132.1878934649725
 21
212.9966466226377
 31
0.0
  0
LINE
  5
D74
330
18
100
AcDbEntity
  8
目盛
100
AcDbLine
 10
134.8672119641657
 20
207.2859740121471
 30
0.0
 11
135.7865725446451
 21
208.4712065307106
 31
0.0
  0
LINE
  5
D75
330
18
100
AcDbEntity
  8
目盛
100
AcDbLine
 10
133.543313763737
 20
207.0654303181685
 30
0.0
 11
135.6149417304202
 21
209.5695983571899
 31
0.0
  0
LINE
  5
D76
330
18
100
AcDbEntity
  8
目盛
100
AcDbLine
 10
133.5118772373868
 20
208.4072044090135
 30
0.0
 11
134.5038450353722
 21
209.5323710134592
 31
0.0
  0
LINE
  5
D77
330
18
100
AcDbEntity
  8
目盛
100
AcDbLine
 10
131.0254995167961
 20
210.8935821296042
 30
0.0
 11
132.1506661212417
 21
211.8855499275896
 31
0.0
  0
LINE
  5
D78
330
18
100
AcDbEntity
  8
目盛
100
AcDbLine
 10
132.2296195932257
 20
209.611324485443
 30
0.0
 11
133.2902797650055
 21
210.6719846572228
 31
0.0
  0
LINE
  5
D79
330
18
100
AcDbEntity
  8
目盛
100
AcDbLine
 10
130.8885192712281
 20
209.5584482867344
 30
0.0
 11
133.2576673103476
 21
211.7832263810027
 31
0.0
  0
LINE
  5
D7A
330
18
100
AcDbEntity
  8
目盛
100
AcDbLine
 10
132.1767433945169
 20
208.2702241634454
 30
0.0
 11
134.4015214887853
 21
210.6393722025651
 31
0.0
  0
LINE
  5
D7B
330
18
100
AcDbEntity
  8
目盛
100
AcDbLine
 10
141.3529974385933
 20
202.4467962679071
 30
0.0
 11
142.5494022348185
 21
205.4685698470439
 31
0.0
  0
LINE
  5
D7C
330
18
100
AcDbEntity
  8
目盛
100
AcDbLine
 10
138.0577529174992
 20
203.9974206373943
 30
0.0
 11
139.6234523583298
 21
206.8454173475369
 31
0.0
  0
LINE
  5
D7D
330
18
100
AcDbEntity
  8
目盛
100
AcDbLine
 10
136.4896324120581
 20
204.9248045191079
 30
0.0
 11
138.2310694957398
 21
207.6688702769895
 31
0.0
  0
TEXT
  5
D7E
330
18
100
AcDbEntity
  8
文字
100
AcDbText
 10
138.4156087077215
 20
209.8395646811952
 30
0.0
 40
3.0
  1
6
  7
STYLE3
100
AcDbText
  0
LINE
  5
D7F
330
18
100
AcDbEntity
  8
目盛
100
AcDbLine
 10
137.7754498254386
 20
205.3095376025559
 30
0.0
 11
138.5390119490641
 21
206.6006506430619
 31
0.0
  0
LINE
  5
D80
330
18
100
AcDbEntity
  8
目盛
100
AcDbLine
 10
139.3168754737416
 20
204.4621316813921
 30
0.0
 11
139.9978612233509
 21
205.7986414676746
 31
0.0
  0
LINE
  5
D81
330
18
100
AcDbEntity
  8
目盛
100
AcDbLine
 10
139.6810100110618
 20
203.1703298371518
 30
0.0
 11
141.0647927086484
 21
206.1110177576664
 31
0.0
  0
LINE
  5
D82
330
18
100
AcDbEntity
  8
目盛
100
AcDbLine
 10
140.9084685286751
 20
203.7131848395149
 30
0.0
 11
141.5041903646273
 21
205.0898167780408
 31
0.0
  0
LINE
  5
D83
330
18
100
AcDbEntity
  8
目盛
100
AcDbLine
 10
145.9205987073458
 20
202.0846450243814
 30
0.0
 11
146.2478135694405
 21
203.5485201672896
 31
0.0
  0
LINE
  5
D84
330
18
100
AcDbEntity
  8
目盛
100
AcDbLine
 10
147.6484444453225
 20
201.7550408220025
 30
0.0
 11
147.8830961428829
 21
203.2365733328952
 31
0.0
  0
LINE
  5
D85
330
18
100
AcDbEntity
  8
目盛
100
AcDbLine
 10
146.5945513434629
 20
200.9239840875344
 30
0.0
 11
147.2035406158665
 21
204.1164176524027
 31
0.0
  0
LINE
  5
D86
330
18
100
AcDbEntity
  8
目盛
100
AcDbLine
 10
144.2168584973506
 20
202.522091159712
 30
0.0
 11
144.6353451564093
 21
203.9625316882274
 31
0.0
  0
LINE
  5
D87
330
18
100
AcDbEntity
  8
目盛
100
AcDbLine
 10
143.0671166295755
 20
201.8296753861069
 30
0.0
 11
144.3031846070753
 21
205.6339014512875
 31
0.0
  0
LINE
  5
D88
330
18
100
AcDbEntity
  8
目盛
100
AcDbLine
 10
142.5439476995808
 20
203.0656528279481
 30
0.0
 11
143.0520545799487
 21
204.4769739813794
 31
0.0
  0
LINE
  5
D89
330
18
100
AcDbEntity
  8
目盛
100
AcDbLine
 10
144.8166027386681
 20
201.3214026859361
 30
0.0
 11
145.624844871954
 21
204.4692979596041
 31
0.0
  0
CIRCLE
  5
D8A
330
18
100
AcDbEntity
  8
針
100
AcDbCircle
 10
152.028609466449
 20
229.4103143586664
 30
0.0
 40
0.475
  0
CIRCLE
  5
D8B
330
18
100
AcDbEntity
  8
針
100
AcDbCircle
 10
152.028609466449
 20
229.4103143586664
 30
0.0
 40
1.7
  0
CIRCLE
  5
D8C
102
{ACAD_REACTORS
330
D0A
102
}
330
18
100
AcDbEntity
  8
針
100
AcDbCircle
 10
152.028609466449
 20
229.4103143586664
 30
0.0
 40
1.9
  0
ARC
  5
D8D
102
{ACAD_REACTORS
330
D0A
102
}
330
18
100
AcDbEntity
  8
針
100
AcDbCircle
 10
148.4286094664488
 20
232.5852159319405
 30
0.0
 40
3.0
100
AcDbArc
 50
327.7844584318137
 51
0.0
  0
ARC
  5
D8E
102
{ACAD_REACTORS
330
D0A
102
}
330
18
100
AcDbEntity
  8
針
100
AcDbCircle
 10
155.628609466449
 20
232.5852159319405
 30
0.0
 40
3.0
100
AcDbArc
 50
180.0
 51
212.2155415681862
  0
TEXT
  5
D8F
330
18
100
AcDbEntity
  8
文字
100
AcDbText
 10
148.648015932562
 20
217.4378132422838
 30
0.0
 40
2.0
  1
K-2
  7
STYLE3
100
AcDbText
  0
LINE
  5
D90
330
18
100
AcDbEntity
  8
目盛
100
AcDbLine
 10
160.9901023033225
 20
201.8296753861069
 30
0.0
 11
159.7540343258226
 21
205.6339014512875
 31
0.0
  0
TEXT
  5
D91
330
18
100
AcDbEntity
  8
文字
100
AcDbText
 10
150.6906823534118
 20
205.7158179158898
 30
0.0
 40
3.0
  1
5
  7
STYLE3
100
AcDbText
  0
LINE
  5
D92
330
18
100
AcDbEntity
  8
目盛
100
AcDbLine
 10
152.9081107206366
 20
201.4241306684259
 30
0.0
 11
152.8609945820194
 21
202.9233905089745
 31
0.0
  0
LINE
  5
D93
330
18
100
AcDbEntity
  8
目盛
100
AcDbLine
 10
151.1491082122613
 20
201.4241306684259
 30
0.0
 11
151.1962243508785
 21
202.9233905089744
 31
0.0
  0
LINE
  5
D94
330
18
100
AcDbEntity
  8
目盛
100
AcDbLine
 10
149.3935766935305
 20
201.5345793497801
 30
0.0
 11
149.5347391635083
 21
203.0279222966847
 31
0.0
  0
LINE
  5
D95
330
18
100
AcDbEntity
  8
目盛
100
AcDbLine
 10
153.8495345327991
 20
200.4675392342465
 30
0.0
 11
153.6454653443288
 21
203.7111261016383
 31
0.0
  0
LINE
  5
D96
330
18
100
AcDbEntity
  8
目盛
100
AcDbLine
 10
150.2076844000988
 20
200.4675392342465
 30
0.0
 11
150.4117535885691
 21
203.7111261016384
 31
0.0
  0
LINE
  5
D97
330
18
100
AcDbEntity
  8
目盛
100
AcDbLine
 10
152.028609466449
 20
200.4103143586664
 30
0.0
 11
152.028609466449
 21
204.4103143586664
 31
0.0
  0
LINE
  5
D98
330
18
100
AcDbEntity
  8
目盛
100
AcDbLine
 10
159.2406161942298
 20
201.3214026859361
 30
0.0
 11
158.432374060944
 21
204.4692979596041
 31
0.0
  0
LINE
  5
D99
330
18
100
AcDbEntity
  8
目盛
100
AcDbLine
 10
159.8403604355474
 20
202.522091159712
 30
0.0
 11
159.4218737764886
 21
203.9625316882273
 31
0.0
  0
LINE
  5
D9A
330
18
100
AcDbEntity
  8
目盛
100
AcDbLine
 10
158.1366202255521
 20
202.0846450243814
 30
0.0
 11
157.8094053634573
 21
203.5485201672896
 31
0.0
  0
LINE
  5
D9B
330
18
100
AcDbEntity
  8
目盛
100
AcDbLine
 10
154.6636422393674
 20
201.5345793497801
 30
0.0
 11
154.5224797693896
 21
203.0279222966847
 31
0.0
  0
LINE
  5
D9C
330
18
100
AcDbEntity
  8
目盛
100
AcDbLine
 10
156.4087744875754
 20
201.7550408220025
 30
0.0
 11
156.174122790015
 21
203.2365733328952
 31
0.0
  0
LINE
  5
D9D
330
18
100
AcDbEntity
  8
目盛
100
AcDbLine
 10
155.6632732398138
 20
200.6389880205465
 30
0.0
 11
155.2559402307298
 21
203.8633607998185
 31
0.0
  0
LINE
  5
D9E
330
18
100
AcDbEntity
  8
目盛
100
AcDbLine
 10
157.462667589435
 20
200.9239840875344
 30
0.0
 11
156.8536783170314
 21
204.1164176524026
 31
0.0
  0
POINT
  5
DA0
330
18
100
AcDbEntity
  8
DEFPOINTS
  6
ByBlock
 62
     0
100
AcDbPoint
 10
152.028609466449
 20
194.4103143586664
 30
0.0
  0
LINE
  5
DA1
330
18
100
AcDbEntity
  8
目盛
100
AcDbLine
 10
167.5675865208399
 20
204.9248045191079
 30
0.0
 11
165.8261494371581
 21
207.6688702769894
 31
0.0
  0
LINE
  5
DA2
330
18
100
AcDbEntity
  8
目盛
100
AcDbLine
 10
165.9994660153988
 20
203.9974206373943
 30
0.0
 11
164.4337665745682
 21
206.8454173475369
 31
0.0
  0
TEXT
  5
DA3
330
18
100
AcDbEntity
  8
文字
100
AcDbText
 10
163.4948525023181
 20
210.1567761230666
 30
0.0
 40
3.0
  1
4
  7
STYLE3
100
AcDbText
  0
LINE
  5
DA4
330
18
100
AcDbEntity
  8
目盛
100
AcDbLine
 10
163.1487504042229
 20
203.7131848395148
 30
0.0
 11
162.5530285682707
 21
205.0898167780408
 31
0.0
  0
LINE
  5
DA5
330
18
100
AcDbEntity
  8
目盛
100
AcDbLine
 10
164.7403434591563
 20
204.4621316813921
 30
0.0
 11
164.059357709547
 21
205.7986414676746
 31
0.0
  0
LINE
  5
DA6
330
18
100
AcDbEntity
  8
目盛
100
AcDbLine
 10
164.3762089218361
 20
203.1703298371517
 30
0.0
 11
162.9924262242497
 21
206.1110177576663
 31
0.0
  0
LINE
  5
DA7
330
18
100
AcDbEntity
  8
目盛
100
AcDbLine
 10
166.2817691074593
 20
205.3095376025559
 30
0.0
 11
165.5182069838338
 21
206.6006506430619
 31
0.0
  0
LINE
  5
DA8
330
18
100
AcDbEntity
  8
目盛
100
AcDbLine
 10
161.5132712333172
 20
203.0656528279481
 30
0.0
 11
161.0051643529493
 21
204.4769739813794
 31
0.0
  0
LINE
  5
DA9
330
18
100
AcDbEntity
  8
目盛
100
AcDbLine
 10
162.7042214943047
 20
202.4467962679071
 30
0.0
 11
161.5078166980795
 21
205.4685698470439
 31
0.0
  0
LINE
  5
DAA
330
18
100
AcDbEntity
  8
目盛
100
AcDbLine
 10
167.7669440463087
 20
206.2520582789787
 30
0.0
 11
166.9238189795304
 21
207.4926791403905
 31
0.0
  0
LINE
  5
DAB
330
18
100
AcDbEntity
  8
目盛
100
AcDbLine
 10
169.0743817829307
 20
205.9488215217929
 30
0.0
 11
166.7232407737609
 21
209.1848894992927
 31
0.0
  0
LINE
  5
DAC
330
18
100
AcDbEntity
  8
目盛
100
AcDbLine
 10
171.8275993396723
 20
209.611324485443
 30
0.0
 11
170.7669391678926
 21
210.6719846572228
 31
0.0
  0
LINE
  5
DAD
330
18
100
AcDbEntity
  8
目盛
100
AcDbLine
 10
169.1900069687324
 20
207.285974012147
 30
0.0
 11
168.2706463882529
 21
208.4712065307105
 31
0.0
  0
LINE
  5
DAE
330
18
100
AcDbEntity
  8
目盛
100
AcDbLine
 10
170.513905169161
 20
207.0654303181684
 30
0.0
 11
168.4422772024778
 21
209.5695983571898
 31
0.0
  0
LINE
  5
DAF
330
18
100
AcDbEntity
  8
目盛
100
AcDbLine
 10
170.5453416955113
 20
208.4072044090135
 30
0.0
 11
169.5533738975258
 21
209.5323710134591
 31
0.0
  0
LINE
  5
DB0
330
18
100
AcDbEntity
  8
目盛
100
AcDbLine
 10
171.880475538381
 20
208.2702241634454
 30
0.0
 11
169.6556974441128
 21
210.639372202565
 31
0.0
  0
LINE
  5
DB1
330
18
100
AcDbEntity
  8
目盛
100
AcDbLine
 10
176.5141193060074
 20
244.9492914130572
 30
0.0
 11
173.7700535481258
 21
243.2078543293755
 31
0.0
  0
LINE
  5
DB2
330
18
100
AcDbEntity
  8
目盛
100
AcDbLine
 10
175.1868655461367
 20
245.1486489385259
 30
0.0
 11
173.9462446847249
 21
244.3055238717478
 31
0.0
  0
LINE
  5
DB3
330
18
100
AcDbEntity
  8
目盛
100
AcDbLine
 10
174.1529498129683
 20
246.5717118609497
 30
0.0
 11
172.9677172944048
 21
245.6523512804702
 31
0.0
  0
LINE
  5
DB4
330
18
100
AcDbEntity
  8
目盛
100
AcDbLine
 10
175.1868655461368
 20
213.6719797788066
 30
0.0
 11
173.9462446847249
 21
214.5151048455848
 31
0.0
  0
LINE
  5
DB5
330
18
100
AcDbEntity
  8
目盛
100
AcDbLine
 10
176.5141193060075
 20
213.8713373042754
 30
0.0
 11
173.770053548126
 21
215.6127743879572
 31
0.0
  0
LINE
  5
DB6
330
18
100
AcDbEntity
  8
目盛
100
AcDbLine
 10
180.0147931566895
 20
230.2898156128539
 30
0.0
 11
178.515533316141
 21
230.2426994742368
 31
0.0
  0
LINE
  5
DB7
330
18
100
AcDbEntity
  8
目盛
100
AcDbLine
 10
179.9043444753353
 20
232.0453471315847
 30
0.0
 11
178.4110015284307
 21
231.9041846616069
 31
0.0
  0
LINE
  5
DB8
330
18
100
AcDbEntity
  8
目盛
100
AcDbLine
 10
179.6838830031129
 20
233.7904793797928
 30
0.0
 11
178.2023504922202
 21
233.5558276822325
 31
0.0
  0
LINE
  5
DB9
330
18
100
AcDbEntity
  8
目盛
100
AcDbLine
 10
178.9921275572083
 20
240.085926386522
 30
0.0
 11
175.9703539780715
 21
238.8895215902968
 31
0.0
  0
LINE
  5
DBA
330
18
100
AcDbEntity
  8
目盛
100
AcDbLine
 10
178.9168326654034
 20
237.2220653277647
 30
0.0
 11
177.4763921368881
 21
236.8035786687059
 31
0.0
  0
LINE
  5
DBB
330
18
100
AcDbEntity
  8
目盛
100
AcDbLine
 10
180.1175211391793
 20
236.6223210864472
 30
0.0
 11
176.9696258655113
 21
235.8140789531613
 31
0.0
  0
LINE
  5
DBC
330
18
100
AcDbEntity
  8
目盛
100
AcDbLine
 10
179.6092484390085
 20
238.3718071955399
 30
0.0
 11
175.8050223738279
 21
237.13573921804
 31
0.0
  0
LINE
  5
DBD
330
18
100
AcDbEntity
  8
目盛
100
AcDbLine
 10
179.354278800734
 20
235.5183251177696
 30
0.0
 11
177.8904036578259
 21
235.1911102556747
 31
0.0
  0
LINE
  5
DBE
330
18
100
AcDbEntity
  8
目盛
100
AcDbLine
 10
180.9713845908689
 20
231.2312394250164
 30
0.0
 11
177.727797723477
 21
231.0271702365462
 31
0.0
  0
LINE
  5
DBF
330
18
100
AcDbEntity
  8
目盛
100
AcDbLine
 10
180.7999358045689
 20
233.0449781320312
 30
0.0
 11
177.5755630252968
 21
232.6376451229472
 31
0.0
  0
LINE
  5
DC0
330
18
100
AcDbEntity
  8
目盛
100
AcDbLine
 10
180.514939737581
 20
234.8443724816524
 30
0.0
 11
177.3225061727128
 21
234.2353832092488
 31
0.0
  0
LINE
  5
DC1
330
18
100
AcDbEntity
  8
目盛
100
AcDbLine
 10
176.1293862225595
 20
243.6634739996767
 30
0.0
 11
174.8382731820536
 21
242.8999118760512
 31
0.0
  0
LINE
  5
DC2
330
18
100
AcDbEntity
  8
目盛
100
AcDbLine
 10
177.7257389856005
 20
240.5304552964402
 30
0.0
 11
176.3491070470746
 21
239.934733460488
 31
0.0
  0
LINE
  5
DC3
330
18
100
AcDbEntity
  8
目盛
100
AcDbLine
 10
176.9767921437233
 20
242.1220483513736
 30
0.0
 11
175.6402823574408
 21
241.4410626017643
 31
0.0
  0
LINE
  5
DC4
330
18
100
AcDbEntity
  8
目盛
100
AcDbLine
 10
177.4415031877211
 20
243.3811709076161
 30
0.0
 11
174.5935064775785
 21
241.8154714667855
 31
0.0
  0
LINE
  5
DC5
330
18
100
AcDbEntity
  8
目盛
100
AcDbLine
 10
178.2685939879637
 20
241.7579138140535
 30
0.0
 11
175.3279060674491
 21
240.3741311164669
 31
0.0
  0
LINE
  5
DC6
330
18
100
AcDbEntity
  8
目盛
100
AcDbLine
 10
178.3732709971673
 20
238.8949761255345
 30
0.0
 11
176.961949843736
 21
238.3868692451666
 31
0.0
  0
LINE
  5
DC7
330
18
100
AcDbEntity
  8
目盛
100
AcDbLine
 10
180.0147931566895
 20
228.5308131044788
 30
0.0
 11
178.515533316141
 21
228.5779292430959
 31
0.0
  0
LINE
  5
DC8
330
18
100
AcDbEntity
  8
目盛
100
AcDbLine
 10
179.6838830031128
 20
225.0301493375399
 30
0.0
 11
178.2023504922202
 21
225.2648010351002
 31
0.0
  0
LINE
  5
DC9
330
18
100
AcDbEntity
  8
目盛
100
AcDbLine
 10
179.9043444753353
 20
226.775281585748
 30
0.0
 11
178.4110015284307
 21
226.9164440557257
 31
0.0
  0
LINE
  5
DCA
330
18
100
AcDbEntity
  8
目盛
100
AcDbLine
 10
180.9713845908689
 20
227.5893892923163
 30
0.0
 11
177.727797723477
 21
227.7934584807866
 31
0.0
  0
LINE
  5
DCB
330
18
100
AcDbEntity
  8
目盛
100
AcDbLine
 10
181.028609466449
 20
229.4103143586664
 30
0.0
 11
177.0286094664491
 21
229.4103143586664
 31
0.0
  0
LINE
  5
DCC
330
18
100
AcDbEntity
  8
目盛
100
AcDbLine
 10
180.7999358045689
 20
225.7756505853015
 30
0.0
 11
177.5755630252968
 21
226.1829835943855
 31
0.0
  0
LINE
  5
DCD
330
18
100
AcDbEntity
  8
目盛
100
AcDbLine
 10
180.1175211391793
 20
222.1983076308855
 30
0.0
 11
176.9696258655113
 21
223.0065497641713
 31
0.0
  0
LINE
  5
DCE
330
18
100
AcDbEntity
  8
目盛
100
AcDbLine
 10
179.354278800734
 20
223.3023035995632
 30
0.0
 11
177.8904036578258
 21
223.629518461658
 31
0.0
  0
LINE
  5
DCF
330
18
100
AcDbEntity
  8
目盛
100
AcDbLine
 10
178.9168326654034
 20
221.5985633895679
 30
0.0
 11
177.476392136888
 21
222.0170500486267
 31
0.0
  0
LINE
  5
DD0
330
18
100
AcDbEntity
  8
目盛
100
AcDbLine
 10
178.9921275572084
 20
218.7347023308106
 30
0.0
 11
175.9703539780715
 21
219.9311071270358
 31
0.0
  0
LINE
  5
DD1
330
18
100
AcDbEntity
  8
目盛
100
AcDbLine
 10
179.6092484390085
 20
220.4488215217929
 30
0.0
 11
175.8050223738279
 21
221.6848894992927
 31
0.0
  0
LINE
  5
DD2
330
18
100
AcDbEntity
  8
目盛
100
AcDbLine
 10
180.514939737581
 20
223.9762562356804
 30
0.0
 11
177.3225061727128
 21
224.585245508084
 31
0.0
  0
LINE
  5
DD3
330
18
100
AcDbEntity
  8
目盛
100
AcDbLine
 10
176.1293862225595
 20
215.1571547176559
 30
0.0
 11
174.8382731820536
 21
215.9207168412814
 31
0.0
  0
LINE
  5
DD4
330
18
100
AcDbEntity
  8
目盛
100
AcDbLine
 10
176.9767921437233
 20
216.698580365959
 30
0.0
 11
175.6402823574408
 21
217.3795661155683
 31
0.0
  0
LINE
  5
DD5
330
18
100
AcDbEntity
  8
目盛
100
AcDbLine
 10
177.4415031877211
 20
215.4394578097166
 30
0.0
 11
174.5935064775785
 21
217.0051572505471
 31
0.0
  0
LINE
  5
DD6
330
18
100
AcDbEntity
  8
目盛
100
AcDbLine
 10
177.7257389856005
 20
218.2901734208925
 30
0.0
 11
176.3491070470745
 21
218.8858952568446
 31
0.0
  0
LINE
  5
DD7
330
18
100
AcDbEntity
  8
目盛
100
AcDbLine
 10
178.3732709971673
 20
219.9256525917982
 30
0.0
 11
176.9619498437361
 21
220.4337594721661
 31
0.0
  0
LINE
  5
DD8
330
18
100
AcDbEntity
  8
目盛
100
AcDbLine
 10
178.2685939879637
 20
217.0627149032792
 30
0.0
 11
175.3279060674491
 21
218.4464976008657
 31
0.0
  0
LINE
  5
DD9
330
18
100
AcDbEntity
  8
目盛
100
AcDbLine
 10
174.1529498129683
 20
212.2489168563829
 30
0.0
 11
172.9677172944048
 21
213.1682774368624
 31
0.0
  0
MTEXT
  5
DDF
330
18
100
AcDbEntity
  8
0
  6
ByBlock
 62
     6
100
AcDbMText
 10
64.60365675600872
 20
228.5327355426546
 30
0.0
 40
2.5
 41
0.0
 71
     5
 72
     1
  1
\A1;φ66
  7
STYLE3
 11
0.0000000000000003
 21
1.0
 31
0.0
 73
     1
 44
1.0
  0
LINE
  5
DE0
330
18
100
AcDbEntity
  8
0
  6
ByBlock
 62
     2
100
AcDbLine
 10
51.44979591785491
 20
196.4103143586663
 30
0.0
 11
67.76807246978174
 21
196.4103143586663
 31
0.0
  0
LINE
  5
DE1
330
18
100
AcDbEntity
  8
0
  6
ByBlock
 62
     2
100
AcDbLine
 10
51.44979591785491
 20
262.4103143586664
 30
0.0
 11
67.76807246978174
 21
262.4103143586664
 31
0.0
  0
LINE
  5
DE2
330
18
100
AcDbEntity
  8
外形線
100
AcDbLine
 10
53.44979591785492
 20
260.4103143586664
 30
0.0
 11
53.44979591785492
 21
198.4103143586663
 31
0.0
  0
LINE
  5
DE3
330
18
100
AcDbEntity
  8
外形線
100
AcDbLine
 10
51.44979591785491
 20
262.4103143586664
 30
0.0
 11
51.44979591785491
 21
196.4103143586663
 31
0.0
  0
LINE
  5
DE4
330
18
100
AcDbEntity
  8
外形線
100
AcDbLine
 10
44.44979591785503
 20
272.4103143586665
 30
0.0
 11
44.4497959178548
 21
194.4103143586663
 31
0.0
  0
LINE
  5
DE5
330
18
100
AcDbEntity
  8
外形線
100
AcDbLine
 10
44.44979591785503
 20
263.1244063677951
 30
0.0
 11
40.44979591785502
 21
263.1244063677951
 31
0.0
  0
LINE
  5
DE6
330
18
100
AcDbEntity
  8
外形線
100
AcDbLine
 10
40.44979591785502
 20
272.4103143586664
 30
0.0
 11
44.44979591785503
 21
272.4103143586664
 31
0.0
  0
LINE
  5
DE7
330
18
100
AcDbEntity
  8
外形線
100
AcDbLine
 10
40.44979591785502
 20
272.4103143586664
 30
0.0
 11
40.44979591785502
 21
263.1244063677951
 31
0.0
  0
LINE
  5
DE8
330
18
100
AcDbEntity
  8
外形線
100
AcDbLine
 10
51.44979591785491
 20
262.4103143586664
 30
0.0
 11
44.44979591785491
 21
262.4103143586664
 31
0.0
  0
LINE
  5
DE9
330
18
100
AcDbEntity
  8
寸法線
100
AcDbLine
 10
44.44979591785491
 20
261.8017670986521
 30
0.0
 11
51.44979591785491
 21
261.801767098652
 31
0.0
  0
LINE
  5
DEA
330
18
100
AcDbEntity
  8
寸法線
100
AcDbLine
 10
44.44979591785491
 20
260.3079752932393
 30
0.0
 11
51.44979591785491
 21
260.3079752932392
 31
0.0
  0
POINT
  5
DEB
330
18
100
AcDbEntity
  8
DEFPOINTS
  6
ByBlock
 62
     0
100
AcDbPoint
 10
51.44979591785491
 20
262.4103143586664
 30
0.0
  0
LINE
  5
DEC
330
18
100
AcDbEntity
  8
外形線
100
AcDbLine
 10
53.44979591785492
 20
260.4103143586664
 30
0.0
 11
51.44979591785491
 21
262.4103143586664
 31
0.0
  0
LINE
  5
DED
330
18
100
AcDbEntity
  8
寸法線
100
AcDbLine
 10
44.44979591785491
 20
258.4822299016125
 30
0.0
 11
51.44979591785491
 21
258.4822299016124
 31
0.0
  0
LINE
  5
DEE
330
18
100
AcDbEntity
  8
寸法線
100
AcDbLine
 10
44.44979591785491
 20
256.6564845099857
 30
0.0
 11
51.44979591785491
 21
256.6564845099856
 31
0.0
  0
LINE
  5
DEF
330
18
100
AcDbEntity
  8
寸法線
100
AcDbLine
 10
44.44979591785491
 20
254.166831278481
 30
0.0
 11
51.44979591785491
 21
254.166831278481
 31
0.0
  0
LINE
  5
DF0
330
18
100
AcDbEntity
  8
寸法線
100
AcDbLine
 10
44.44979591785491
 20
251.1792483351053
 30
0.0
 11
51.44979591785491
 21
251.1792483351052
 31
0.0
  0
LINE
  5
DF1
330
18
100
AcDbEntity
  8
寸法線
100
AcDbLine
 10
44.44979591785491
 20
247.1958032981877
 30
0.0
 11
51.44979591785491
 21
247.1958032981877
 31
0.0
  0
LINE
  5
DF5
330
18
100
AcDbEntity
  8
外形線
100
AcDbLine
 10
53.44979591785502
 20
214.4603143586665
 30
0.0
 11
53.44979591785502
 21
203.4103143586663
 31
0.0
  0
LINE
  5
DF6
330
18
100
AcDbEntity
  8
寸法線
100
AcDbLine
 10
44.44979591785491
 20
243.0463821356132
 30
0.0
 11
51.44979591785491
 21
243.0463821356132
 31
0.0
  0
LINE
  5
DF7
330
18
100
AcDbEntity
  8
寸法線
100
AcDbLine
 10
44.44979591785491
 20
238.7309835124817
 30
0.0
 11
51.44979591785491
 21
238.7309835124817
 31
0.0
  0
LINE
  5
DF8
330
18
100
AcDbEntity
  8
寸法線
100
AcDbLine
 10
44.44979591785491
 20
234.2496080962432
 30
0.0
 11
51.44979591785491
 21
234.2496080962432
 31
0.0
  0
LINE
  5
DFD
330
18
100
AcDbEntity
  8
外形線
100
AcDbLine
 10
51.44979591785491
 20
196.4103143586663
 30
0.0
 11
44.44979591785491
 21
196.4103143586663
 31
0.0
  0
POINT
  5
DFE
330
18
100
AcDbEntity
  8
DEFPOINTS
  6
ByBlock
 62
     0
100
AcDbPoint
 10
51.44979591785491
 20
196.4103143586663
 30
0.0
  0
LINE
  5
DFF
330
18
100
AcDbEntity
  8
外形線
100
AcDbLine
 10
51.44979591785491
 20
196.4103143586663
 30
0.0
 11
53.44979591785492
 21
198.4103143586663
 31
0.0
  0
LINE
  5
E09
330
18
100
AcDbEntity
  8
0
  6
ByBlock
 62
     2
100
AcDbLine
 10
66.51807246978174
 20
259.9103143586664
 30
0.0
 11
66.51807246978174
 21
198.9103143586663
 31
0.0
  0
INSERT
  5
E0A
330
18
100
AcDbEntity
  8
0
  6
ByBlock
 62
     2
100
AcDbBlockReference
  2
_OPEN
 10
66.51807246978174
 20
262.4103143586662
 30
0.0
 41
2.5
 42
2.5
 43
2.5
 50
89.99999999999998
  0
POINT
  5
E0B
330
18
100
AcDbEntity
  8
DEFPOINTS
  6
ByBlock
 62
     0
100
AcDbPoint
 10
66.51807246978174
 20
196.4103143586663
 30
0.0
  0
INSERT
  5
E0C
330
18
100
AcDbEntity
  8
0
  6
ByBlock
 62
     2
100
AcDbBlockReference
  2
_OPEN
 10
66.51807246978171
 20
196.4103143586663
 30
0.0
 41
2.5
 42
2.5
 43
2.5
 50
270.0
  0
DIMENSION
  5
E11
330
18
100
AcDbEntity
  8
寸法線
100
AcDbDimension
  2
*D10
 10
44.44979591785503
 20
279.7948294470248
 30
0.0
 11
42.44979591785503
 21
281.6698294470248
 31
0.0
 70
    32
 71
     5
 42
-1.0
  3
STYLE3
100
AcDbAlignedDimension
 13
40.44979591785502
 23
272.4103143586664
 33
0.0
 14
44.44979591785503
 24
272.4103143586665
 34
0.0
100
AcDbRotatedDimension
1001
ACAD
1000
DSTYLE
1002
{
1070
   271
1070
     2
1002
}
  0
LINE
  5
E6E
330
18
100
AcDbEntity
  8
外形線
100
AcDbLine
 10
33.69979591785492
 20
145.8103143586663
 30
0.0
 11
51.19979591785491
 21
145.8103143586663
 31
0.0
  0
LINE
  5
E6F
330
18
100
AcDbEntity
  8
外形線
100
AcDbLine
 10
33.69979591785492
 20
143.3103143586663
 30
0.0
 11
51.19979591785491
 21
143.3103143586663
 31
0.0
  0
LINE
  5
E70
330
18
100
AcDbEntity
  8
外形線
100
AcDbLine
 10
33.69979591785492
 20
143.3103143586663
 30
0.0
 11
51.19979591785491
 21
143.3103143586663
 31
0.0
  0
LINE
  5
E71
330
18
100
AcDbEntity
  8
外形線
100
AcDbLine
 10
33.69979591785492
 20
140.8103143586663
 30
0.0
 11
51.19979591785491
 21
140.8103143586663
 31
0.0
  0
ARC
  5
E7C
330
18
100
AcDbEntity
  8
外形線
100
AcDbCircle
 10
33.69979591785492
 20
142.0603143586663
 30
0.0
 40
1.249999999999992
100
AcDbArc
 50
90.0
 51
270.0
  0
POINT
  5
E7D
330
18
100
AcDbEntity
  8
DEFPOINTS
  6
ByBlock
 62
     0
100
AcDbPoint
 10
33.69979591785492
 20
140.8103143586663
 30
0.0
  0
LINE
  5
E7E
330
18
100
AcDbEntity
  8
外形線
100
AcDbLine
 10
36.94979591785492
 20
140.8103143586663
 30
0.0
 11
36.94979591785492
 21
140.3103143586663
 31
0.0
  0
ARC
  5
E7F
330
18
100
AcDbEntity
  8
外形線
100
AcDbCircle
 10
33.69979591785492
 20
144.5603143586663
 30
0.0
 40
1.249999999999992
100
AcDbArc
 50
90.00000000000003
 51
270.0
  0
POINT
  5
E80
330
18
100
AcDbEntity
  8
DEFPOINTS
  6
ByBlock
 62
     0
100
AcDbPoint
 10
32.44979591785492
 20
142.0603143586663
 30
0.0
  0
POINT
  5
E81
330
18
100
AcDbEntity
  8
DEFPOINTS
  6
ByBlock
 62
     0
100
AcDbPoint
 10
33.69979591785492
 20
145.8103143586663
 30
0.0
  0
ARC
  5
E82
330
18
100
AcDbEntity
  8
外形線
100
AcDbCircle
 10
51.19979591785491
 20
142.0603143586663
 30
0.0
 40
1.249999999999992
100
AcDbArc
 50
270.0
 51
90.0
  0
LINE
  5
E83
330
18
100
AcDbEntity
  8
外形線
100
AcDbLine
 10
47.94979591785491
 20
140.8103143586663
 30
0.0
 11
47.94979591785491
 21
140.3103143586663
 31
0.0
  0
POINT
  5
E84
330
18
100
AcDbEntity
  8
DEFPOINTS
  6
ByBlock
 62
     0
100
AcDbPoint
 10
52.44979591785491
 20
142.0603143586663
 30
0.0
  0
ARC
  5
E85
330
18
100
AcDbEntity
  8
外形線
100
AcDbCircle
 10
51.19979591785491
 20
144.5603143586663
 30
0.0
 40
1.249999999999992
100
AcDbArc
 50
270.0
 51
90.00000000000003
  0
MTEXT
  5
E8D
330
18
100
AcDbEntity
  8
0
  6
ByBlock
 62
     6
100
AcDbMText
 10
119.3076762370656
 20
140.9531608321447
 30
0.0
 40
2.5
 41
0.0
 71
     5
 72
     1
  1
2.5
  7
STYLE3
 11
0.0000000000000001
 21
1.0
 31
0.0
 73
     1
 44
1.0
  0
INSERT
  5
E8E
330
18
100
AcDbEntity
  8
0
  6
ByBlock
 62
     2
100
AcDbBlockReference
  2
_OPEN
 10
122.8159189178163
 20
140.8103143586663
 30
0.0
 41
2.5
 42
2.5
 43
2.5
 50
90.0
  0
LINE
  5
E8F
330
18
100
AcDbEntity
  8
隠れ線2
100
AcDbLine
 10
150.628609466449
 20
140.3103143586663
 30
0.0
 11
150.628609466449
 21
99.31031435866636
 31
0.0
  0
LINE
  5
E90
330
18
100
AcDbEntity
  8
隠れ線2
100
AcDbLine
 10
142.628609466449
 20
140.3103143586663
 30
0.0
 11
142.628609466449
 21
99.31031435866636
 31
0.0
  0
LINE
  5
E91
330
18
100
AcDbEntity
  8
0
  6
ByBlock
 62
     2
100
AcDbLine
 10
122.8159189178163
 20
138.3103143586663
 30
0.0
 11
122.8159189178163
 21
135.8103143586663
 31
0.0
  0
LINE
  5
E92
330
18
100
AcDbEntity
  8
外形線
100
AcDbLine
 10
137.878609466449
 20
140.8103143586663
 30
0.0
 11
155.378609466449
 21
140.8103143586663
 31
0.0
  0
LINE
  5
E93
330
18
100
AcDbEntity
  8
外形線
100
AcDbLine
 10
137.878609466449
 20
143.3103143586663
 30
0.0
 11
155.378609466449
 21
143.3103143586663
 31
0.0
  0
LINE
  5
E94
330
18
100
AcDbEntity
  8
外形線
100
AcDbLine
 10
137.878609466449
 20
143.3103143586663
 30
0.0
 11
155.378609466449
 21
143.3103143586663
 31
0.0
  0
LINE
  5
E95
330
18
100
AcDbEntity
  8
外形線
100
AcDbLine
 10
137.628609466449
 20
145.8103143586663
 30
0.0
 11
155.628609466449
 21
145.8103143586663
 31
0.0
  0
MTEXT
  5
E96
330
18
100
AcDbEntity
  8
0
  6
ByBlock
 62
     6
100
AcDbMText
 10
120.5094469699322
 20
149.2692265997324
 30
0.0
 40
2.5
 41
0.0
 71
     5
 72
     1
  1
2.5
  7
STYLE3
 11
0.0000000000000001
 21
1.0
 31
0.0
 73
     1
 44
1.0
  0
LINE
  5
E97
330
18
100
AcDbEntity
  8
寸法線
100
AcDbLine
 10
137.878609466449
 20
143.3103143586663
 30
0.0
 11
121.2734121999431
 21
143.3103143586663
 31
0.0
  0
LINE
  5
E98
330
18
100
AcDbEntity
  8
0
  6
ByBlock
 62
     2
100
AcDbLine
 10
137.878609466449
 20
140.8103143586663
 30
0.0
 11
121.5659189178163
 21
140.8103143586663
 31
0.0
  0
LINE
  5
E99
330
18
100
AcDbEntity
  8
0
  6
ByBlock
 62
     2
100
AcDbLine
 10
137.878609466449
 20
145.8103143586663
 30
0.0
 11
121.5659189178164
 21
145.8103143586663
 31
0.0
  0
INSERT
  5
E9A
330
18
100
AcDbEntity
  8
0
  6
ByBlock
 62
     2
100
AcDbBlockReference
  2
_OPEN
 10
122.8159189178163
 20
145.8103143586663
 30
0.0
 41
2.5
 42
2.5
 43
2.5
 50
270.0
  0
HATCH
  5
E9B
330
18
100
AcDbEntity
  8
寸法線
100
AcDbHatch
 10
0.0
 20
0.0
 30
0.0
210
0.0
220
0.0
230
1.0
  2
SOLID
 70
     1
 71
     1
 91
        1
 92
        1
 93
        1
 72
     2
 10
122.8159189178163
 20
143.3103143586663
 40
0.5
 50
0.0
 51
360.0
 73
     1
 97
        1
330
E9E
 75
     0
 76
     1
 98
        1
 10
0.5328826643601588
 20
28.54175580729893
450
        0
451
        0
460
0.0
461
0.0
452
        0
462
0.0
453
        0
470

  0
LINE
  5
E9C
330
18
100
AcDbEntity
  8
0
  6
ByBlock
 62
     2
100
AcDbLine
 10
122.8159189178163
 20
145.8103143586663
 30
0.0
 11
122.8159189178163
 21
140.8103143586663
 31
0.0
  0
POINT
  5
E9D
330
18
100
AcDbEntity
  8
DEFPOINTS
  6
ByBlock
 62
     0
100
AcDbPoint
 10
122.8159189178163
 20
140.8103143586663
 30
0.0
  0
CIRCLE
  5
E9E
102
{ACAD_REACTORS
330
E9B
102
}
330
18
100
AcDbEntity
  8
寸法線
100
AcDbCircle
 10
122.8159189178163
 20
143.3103143586663
 30
0.0
 40
0.5
  0
LINE
  5
E9F
330
18
100
AcDbEntity
  8
0
  6
ByBlock
 62
     2
100
AcDbLine
 10
122.8159189178163
 20
148.3103143586663
 30
0.0
 11
122.8159189178163
 21
150.8103143586663
 31
0.0
  0
POINT
  5
EA0
330
18
100
AcDbEntity
  8
DEFPOINTS
  6
ByBlock
 62
     0
100
AcDbPoint
 10
137.878609466449
 20
145.8103143586663
 30
0.0
  0
POINT
  5
EA1
330
18
100
AcDbEntity
  8
DEFPOINTS
  6
ByBlock
 62
     0
100
AcDbPoint
 10
136.628609466449
 20
142.0603143586663
 30
0.0
  0
ARC
  5
EA2
330
18
100
AcDbEntity
  8
外形線
100
AcDbCircle
 10
137.878609466449
 20
144.5603143586663
 30
0.0
 40
1.249999999999992
100
AcDbArc
 50
90.00000000000003
 51
270.0
  0
LINE
  5
EA3
330
18
100
AcDbEntity
  8
外形線
100
AcDbLine
 10
141.128609466449
 20
140.8103143586663
 30
0.0
 11
141.128609466449
 21
140.3103143586663
 31
0.0
  0
POINT
  5
EA4
330
18
100
AcDbEntity
  8
DEFPOINTS
  6
ByBlock
 62
     0
100
AcDbPoint
 10
137.878609466449
 20
140.8103143586663
 30
0.0
  0
ARC
  5
EA5
330
18
100
AcDbEntity
  8
外形線
100
AcDbCircle
 10
137.878609466449
 20
142.0603143586663
 30
0.0
 40
1.249999999999992
100
AcDbArc
 50
90.0
 51
270.0
  0
LINE
  5
EA6
330
18
100
AcDbEntity
  8
外形線
100
AcDbLine
 10
152.128609466449
 20
140.8103143586663
 30
0.0
 11
152.128609466449
 21
140.3103143586663
 31
0.0
  0
ARC
  5
EA7
330
18
100
AcDbEntity
  8
外形線
100
AcDbCircle
 10
155.378609466449
 20
144.5603143586663
 30
0.0
 40
1.249999999999992
100
AcDbArc
 50
270.0
 51
90.00000000000003
  0
POINT
  5
EA8
330
18
100
AcDbEntity
  8
DEFPOINTS
  6
ByBlock
 62
     0
100
AcDbPoint
 10
156.628609466449
 20
142.0603143586663
 30
0.0
  0
ARC
  5
EA9
330
18
100
AcDbEntity
  8
外形線
100
AcDbCircle
 10
155.378609466449
 20
142.0603143586663
 30
0.0
 40
1.249999999999992
100
AcDbArc
 50
270.0
 51
90.0
  0
LINE
  5
EB9
330
18
100
AcDbEntity
  8
外形線
100
AcDbLine
 10
142.628609466449
 20
197.7774200870382
 30
0.0
 11
142.628609466449
 21
154.3103143586663
 31
0.0
  0
LINE
  5
EBA
330
18
100
AcDbEntity
  8
外形線
100
AcDbLine
 10
150.628609466449
 20
196.4400247026745
 30
0.0
 11
150.628609466449
 21
154.3103143586663
 31
0.0
  0
LINE
  5
EBB
330
18
100
AcDbEntity
  8
外形線
100
AcDbLine
 10
150.628609466449
 20
192.3103143586663
 30
0.0
 11
202.248042698217
 21
192.3103143586663
 31
0.0
  0
LINE
  5
EBC
330
18
100
AcDbEntity
  8
隠れ線2
 48
0.7
100
AcDbLine
 10
142.628609466449
 20
192.3103143586663
 30
0.0
 11
150.628609466449
 21
192.3103143586663
 31
0.0
  0
CIRCLE
  5
EBF
330
18
100
AcDbEntity
  8
寸法線
100
AcDbCircle
 10
146.628609466449
 20
132.3103143586663
 30
0.0
 40
1.5
  0
CIRCLE
  5
EC0
330
18
100
AcDbEntity
  8
外形線
100
AcDbCircle
 10
146.628609466449
 20
132.3103143586663
 30
0.0
 40
1.04923056471307
  0
LINE
  5
EED
330
18
100
AcDbEntity
  8
外形線
100
AcDbLine
 10
34.44979591785493
 20
268.3103143586663
 30
0.0
 11
40.44979591785502
 21
268.3103143586663
 31
0.0
  0
LINE
  5
FB4
330
18
100
AcDbEntity
  8
外形線
100
AcDbLine
 10
149.628609466449
 20
148.0807120650226
 30
0.0
 11
149.628609466449
 21
148.0601586385402
 31
0.0
  0
LINE
  5
FB5
330
18
100
AcDbEntity
  8
隠れ線2
100
AcDbLine
 10
143.628609466449
 20
150.4212544511226
 30
0.0
 11
143.628609466449
 21
148.4180950771753
 31
0.0
  0
LINE
  5
FB6
330
18
100
AcDbEntity
  8
隠れ線2
100
AcDbLine
 10
149.628609466449
 20
150.0838714389698
 30
0.0
 11
149.628609466449
 21
148.0807120650226
 31
0.0
  0
LINE
  5
FB7
330
18
100
AcDbEntity
  8
外形線
100
AcDbLine
 10
142.628609466449
 20
268.8100796145587
 30
0.0
 11
150.628609466449
 21
268.8100796145588
 31
0.0
  0
LINE
  5
FB9
330
18
100
AcDbEntity
  8
中心線
100
AcDbLine
 10
187.0380805733389
 20
214.3103143586663
 30
0.0
 11
220.2192357112028
 21
214.3103143586663
 31
0.0
  0
LINE
  5
FBA
330
18
100
AcDbEntity
  8
外形線
100
AcDbLine
 10
150.028609466449
 20
188.8100796145588
 30
0.0
 11
150.628609466449
 21
188.8100796145587
 31
0.0
  0
LINE
  5
FBB
330
18
100
AcDbEntity
  8
中心線
 48
0.3
100
AcDbLine
 10
150.428609466449
 20
197.0752765872865
 30
0.0
 11
150.428609466449
 21
187.6527542719103
 31
0.0
  0
DIMENSION
  5
FCC
330
18
100
AcDbEntity
  8
寸法線
100
AcDbDimension
  2
*D12
 10
164.5269745638347
 20
140.3103143586663
 30
0.0
 11
162.6519745638347
 21
141.8103143586663
 31
0.0
 70
    32
 71
     5
 42
-1.0
  3
STYLE3
100
AcDbAlignedDimension
 13
155.378609466449
 23
143.3103143586663
 33
0.0
 14
163.9640704157614
 24
140.3103143586663
 34
0.0
 50
90.0
100
AcDbRotatedDimension
1001
ACAD
1000
DSTYLE
1002
{
1070
   271
1070
     2
1002
}
  0
LINE
  5
FE5
330
18
100
AcDbEntity
  8
外形線
100
AcDbLine
 10
44.44979591785492
 20
268.3103143586664
 30
0.0
 11
50.44979591785491
 21
268.3103143586664
 31
0.0
  0
LINE
  5
FE6
330
18
100
AcDbEntity
  8
外形線
100
AcDbLine
 10
51.44979591785491
 20
267.3103143586664
 30
0.0
 11
51.44979591785491
 21
262.4103143586664
 31
0.0
  0
ARC
  5
FE7
330
18
100
AcDbEntity
  8
外形線
100
AcDbCircle
 10
34.44979591785493
 20
267.3103143586664
 30
0.0
 40
1.0
100
AcDbArc
 50
90.0
 51
180.0
  0
ARC
  5
FE8
330
18
100
AcDbEntity
  8
外形線
100
AcDbCircle
 10
50.44979591785491
 20
267.3103143586664
 30
0.0
 40
1.0
100
AcDbArc
 50
0.0
 51
90.0
  0
LINE
  5
FE9
330
18
100
AcDbEntity
  8
外形線
100
AcDbLine
 10
37.94979591785491
 20
152.8100796145587
 30
0.0
 11
46.94979591785491
 21
152.8100796145587
 31
0.0
  0
LINE
  5
FEA
330
18
100
AcDbEntity
  8
外形線
100
AcDbLine
 10
37.44979591785492
 20
153.3100796145587
 30
0.0
 11
47.44979591785491
 21
153.3100796145587
 31
0.0
  0
LINE
  5
FEB
330
18
100
AcDbEntity
  8
外形線
100
AcDbLine
 10
37.44979591785492
 20
153.8100796145587
 30
0.0
 11
47.44979591785491
 21
153.8100796145587
 31
0.0
  0
LINE
  5
FEC
330
18
100
AcDbEntity
  8
外形線
100
AcDbLine
 10
37.94979591785491
 20
154.3100796145587
 30
0.0
 11
46.94979591785491
 21
154.3100796145587
 31
0.0
  0
LINE
  5
FED
330
18
100
AcDbEntity
  8
外形線
100
AcDbLine
 10
42.44979591785491
 20
146.1103143586664
 30
0.0
 11
33.44979591785492
 21
146.1103143586664
 31
0.0
  0
LINE
  5
FEE
330
18
100
AcDbEntity
  8
外形線
100
AcDbLine
 10
33.44979591785492
 20
146.8103143586663
 30
0.0
 11
51.44979591785491
 21
146.8103143586663
 31
0.0
  0
LINE
  5
FEF
330
18
100
AcDbEntity
  8
外形線
100
AcDbLine
 10
34.44979591785492
 20
147.8103143586663
 30
0.0
 11
50.44979591785491
 21
147.8103143586663
 31
0.0
  0
LINE
  5
FF1
330
18
100
AcDbEntity
  8
外形線
100
AcDbLine
 10
33.44979591785492
 20
146.1103143586664
 30
0.0
 11
33.74979591785493
 21
145.8103143586663
 31
0.0
  0
LINE
  5
FF2
330
18
100
AcDbEntity
  8
外形線
100
AcDbLine
 10
33.44979591785492
 20
146.8103143586663
 30
0.0
 11
33.44979591785492
 21
146.1103143586664
 31
0.0
  0
LINE
  5
FF3
330
18
100
AcDbEntity
  8
外形線
100
AcDbLine
 10
34.44979591785492
 20
147.8103143586663
 30
0.0
 11
33.44979591785492
 21
146.8103143586663
 31
0.0
  0
POINT
  5
FF4
330
18
100
AcDbEntity
  8
DEFPOINTS
  6
ByBlock
 62
     0
100
AcDbPoint
 10
33.69979591785492
 20
145.8103143586663
 30
0.0
  0
LINE
  5
FF5
330
18
100
AcDbEntity
  8
外形線
100
AcDbLine
 10
37.44979591785492
 20
153.3100796145587
 30
0.0
 11
37.94979591785491
 21
152.8100796145587
 31
0.0
  0
LINE
  5
FF6
330
18
100
AcDbEntity
  8
外形線
100
AcDbLine
 10
37.44979591785492
 20
153.8100796145587
 30
0.0
 11
37.44979591785492
 21
153.3100796145587
 31
0.0
  0
LINE
  5
FF7
330
18
100
AcDbEntity
  8
外形線
100
AcDbLine
 10
37.94979591785491
 20
154.3100796145587
 30
0.0
 11
37.44979591785492
 21
153.8100796145587
 31
0.0
  0
LINE
  5
FF8
330
18
100
AcDbEntity
  8
外形線
100
AcDbLine
 10
42.44979591785491
 20
146.1103143586664
 30
0.0
 11
51.44979591785491
 21
146.1103143586664
 31
0.0
  0
LINE
  5
FF9
330
18
100
AcDbEntity
  8
外形線
100
AcDbLine
 10
45.44979591785491
 20
152.8100796145587
 30
0.0
 11
45.44979591785486
 21
147.8103143586663
 31
0.0
  0
LINE
  5
FFA
330
18
100
AcDbEntity
  8
外形線
100
AcDbLine
 10
39.44979591785492
 20
152.8100796145587
 30
0.0
 11
39.44979591785492
 21
147.8103143586663
 31
0.0
  0
LINE
  5
FFE
330
18
100
AcDbEntity
  8
外形線
100
AcDbLine
 10
46.94979591785491
 20
152.8100796145587
 30
0.0
 11
47.44979591785491
 21
153.3100796145587
 31
0.0
  0
LINE
  5
FFF
330
18
100
AcDbEntity
  8
外形線
100
AcDbLine
 10
47.44979591785491
 20
153.8100796145587
 30
0.0
 11
47.44979591785491
 21
153.3100796145587
 31
0.0
  0
LINE
  5
1000
330
18
100
AcDbEntity
  8
外形線
100
AcDbLine
 10
47.44979591785491
 20
153.8100796145587
 30
0.0
 11
46.94979591785491
 21
154.3100796145587
 31
0.0
  0
LINE
  5
1001
330
18
100
AcDbEntity
  8
外形線
100
AcDbLine
 10
51.44979591785491
 20
146.8103143586663
 30
0.0
 11
51.44979591785491
 21
146.1103143586664
 31
0.0
  0
LINE
  5
1002
330
18
100
AcDbEntity
  8
外形線
100
AcDbLine
 10
51.44979591785491
 20
146.1103143586664
 30
0.0
 11
51.1497959178549
 21
145.8103143586663
 31
0.0
  0
LINE
  5
1003
330
18
100
AcDbEntity
  8
外形線
100
AcDbLine
 10
51.44979591785491
 20
146.8103143586663
 30
0.0
 11
50.44979591785491
 21
147.8103143586663
 31
0.0
  0
LINE
  5
1005
330
18
100
AcDbEntity
  8
外形線
100
AcDbLine
 10
38.94979591785491
 20
150.5266316096642
 30
0.0
 11
38.94979591785491
 21
148.536814245436
 31
0.0
  0
LINE
  5
1006
330
18
100
AcDbEntity
  8
外形線
100
AcDbLine
 10
45.94979591785489
 20
150.5266316096641
 30
0.0
 11
45.94979591785487
 21
148.5368142454359
 31
0.0
  0
LINE
  5
1008
330
18
100
AcDbEntity
  8
外形線
100
AcDbLine
 10
40.44979591785491
 20
192.3103143586663
 30
0.0
 11
40.44979591785491
 21
154.3100796145587
 31
0.0
  0
LINE
  5
100B
330
18
100
AcDbEntity
  8
寸法線
100
AcDbLine
 10
137.628609466449
 20
140.3103143586663
 30
0.0
 11
109.8619769028037
 21
140.3103143586663
 31
0.0
  0
DIMENSION
  5
1018
330
18
100
AcDbEntity
  8
寸法線
100
AcDbDimension
  2
*D13
 10
112.0722688739138
 20
99.31031435866636
 30
0.0
 11
110.1972688739138
 21
80.81031435866636
 31
0.0
 70
    32
 71
     5
 42
-1.0
  3
STYLE3
100
AcDbAlignedDimension
 13
191.628609466449
 23
62.31031435866634
 33
0.0
 14
137.628609466449
 24
99.31031435866634
 34
0.0
 50
90.0
100
AcDbRotatedDimension
1001
ACAD
1000
DSTYLE
1002
{
1070
   271
1070
     2
1002
}
  0
DIMENSION
  5
1024
330
18
100
AcDbEntity
  8
寸法線
100
AcDbDimension
  2
*D14
 10
112.0722688739138
 20
140.3103143586663
 30
0.0
 11
110.1972688739138
 21
119.8103143586663
 31
0.0
 70
    32
 71
     5
 42
-1.0
  3
STYLE3
100
AcDbAlignedDimension
 13
137.628609466449
 23
99.31031435866634
 33
0.0
 14
109.8619769028037
 24
140.3103143586663
 34
0.0
 50
90.0
100
AcDbRotatedDimension
1001
ACAD
1000
DSTYLE
1002
{
1070
    75
1070
     1
1070
   271
1070
     2
1070
   279
1070
     1
1002
}
  0
DIMENSION
  5
1030
330
18
100
AcDbEntity
  8
寸法線
100
AcDbDimension
  2
*D15
 10
112.0722688739138
 20
192.3103143586663
 30
0.0
 11
110.1972688739138
 21
166.3103143586663
 31
0.0
 70
    32
 71
     5
 42
-1.0
  3
STYLE3
100
AcDbAlignedDimension
 13
109.8619769028037
 23
140.3103143586663
 33
0.0
 14
138.028609466449
 24
192.3103143586663
 34
0.0
 50
90.0
100
AcDbRotatedDimension
1001
ACAD
1000
DSTYLE
1002
{
1070
    75
1070
     1
1070
   271
1070
     2
1070
   279
1070
     1
1002
}
  0
DIMENSION
  5
103C
330
18
100
AcDbEntity
  8
寸法線
100
AcDbDimension
  2
*D16
 10
112.0722688739138
 20
229.4103143586664
 30
0.0
 11
110.1972688739138
 21
210.8603143586663
 31
0.0
 70
    32
 71
     5
 42
-1.0
  3
STYLE3
100
AcDbAlignedDimension
 13
138.028609466449
 23
192.3103143586663
 33
0.0
 14
108.9562575844456
 24
229.4103143586664
 34
0.0
 50
90.0
100
AcDbRotatedDimension
1001
ACAD
1000
DSTYLE
1002
{
1070
    75
1070
     1
1070
   271
1070
     2
1070
   279
1070
     1
1002
}
  0
DIMENSION
  5
1048
330
18
100
AcDbEntity
  8
寸法線
100
AcDbDimension
  2
*D17
 10
112.0722688739138
 20
268.8100796145587
 30
0.0
 11
110.1972688739138
 21
249.1101969866125
 31
0.0
 70
    32
 71
     5
 42
-1.0
  3
STYLE3
100
AcDbAlignedDimension
 13
108.9562575844456
 23
229.4103143586664
 33
0.0
 14
142.628609466449
 24
268.8100796145587
 34
0.0
 50
90.0
100
AcDbRotatedDimension
1001
ACAD
1000
DSTYLE
1002
{
1070
    75
1070
     1
1070
   271
1070
     2
1070
   279
1070
     1
1002
}
  0
DIMENSION
  5
1088
330
18
100
AcDbEntity
  8
寸法線
100
AcDbDimension
  2
*D18
 10
106.1915902082112
 20
62.31031435866636
 30
0.0
 11
104.3165902082112
 21
165.5601969866125
 31
0.0
 70
    32
 71
     5
 42
-1.0
  3
STYLE3
100
AcDbAlignedDimension
 13
110.8222688739138
 23
268.8100796145587
 33
0.0
 14
110.8222688739138
 24
62.31031435866636
 34
0.0
 50
90.0
100
AcDbRotatedDimension
1001
ACAD
1000
DSTYLE
1002
{
1070
   271
1070
     2
1002
}
  0
DIMENSION
  5
1095
330
18
100
AcDbEntity
  8
寸法線
100
AcDbDimension
  2
*D19
 10
150.628609466449
 20
284.654424532946
 30
0.0
 11
146.628609466449
 21
286.529424532946
 31
0.0
 70
    32
 71
     5
 42
-1.0
  3
STYLE3
100
AcDbAlignedDimension
 13
142.628609466449
 23
268.8100796145587
 33
0.0
 14
150.628609466449
 24
268.8100796145588
 34
0.0
100
AcDbRotatedDimension
1001
ACAD
1000
DSTYLE
1002
{
1070
   271
1070
     2
1002
}
  0
DIMENSION
  5
10A4
330
18
100
AcDbEntity
  8
寸法線
100
AcDbDimension
  2
*D20
 10
152.028609466449
 20
279.0705512622389
 30
0.0
 11
160.3321808950204
 21
280.945551262239
 31
0.0
 70
    32
 71
     5
 42
-1.0
  3
STYLE3
100
AcDbAlignedDimension
 13
146.628609466449
 23
270.1958246544839
 33
0.0
 14
152.028609466449
 24
269.6693911568848
 34
0.0
100
AcDbRotatedDimension
1001
ACAD
1000
DSTYLE
1002
{
1070
   271
1070
     2
1002
}
  0
LINE
  5
10C1
330
18
100
AcDbEntity
  8
0
  6
ByBlock
 62
     2
100
AcDbLine
 10
136.628609466449
 20
142.0603143586663
 30
0.0
 11
136.628609466449
 21
123.1332223626339
 31
0.0
  0
LINE
  5
10C2
330
18
100
AcDbEntity
  8
0
  6
ByBlock
 62
     2
100
AcDbLine
 10
156.628609466449
 20
142.0603143586663
 30
0.0
 11
156.628609466449
 21
123.1332223626339
 31
0.0
  0
LINE
  5
10C3
330
18
100
AcDbEntity
  8
0
  6
ByBlock
 62
     2
100
AcDbLine
 10
139.128609466449
 20
124.3832223626339
 30
0.0
 11
154.128609466449
 21
124.3832223626339
 31
0.0
  0
INSERT
  5
10C4
330
18
100
AcDbEntity
  8
0
  6
ByBlock
 62
     2
100
AcDbBlockReference
  2
_OPEN
 10
136.628609466449
 20
124.3832223626339
 30
0.0
 41
2.5
 42
2.5
 43
2.5
 50
180.0
  0
INSERT
  5
10C5
330
18
100
AcDbEntity
  8
0
  6
ByBlock
 62
     2
100
AcDbBlockReference
  2
_OPEN
 10
156.628609466449
 20
124.3832223626339
 30
0.0
 41
2.5
 42
2.5
 43
2.5
  0
MTEXT
  5
10C6
330
18
100
AcDbEntity
  8
0
  6
ByBlock
 62
     6
100
AcDbMText
 10
146.628609466449
 20
126.2582223626339
 30
0.0
 40
2.5
 41
0.0
 71
     5
 72
     1
  1
\A1;2-φ20
  7
STYLE3
 73
     1
 44
1.0
  0
POINT
  5
10C7
330
18
100
AcDbEntity
  8
DEFPOINTS
  6
ByBlock
 62
     0
100
AcDbPoint
 10
136.628609466449
 20
142.0603143586663
 30
0.0
  0
POINT
  5
10C8
330
18
100
AcDbEntity
  8
DEFPOINTS
  6
ByBlock
 62
     0
100
AcDbPoint
 10
156.628609466449
 20
142.0603143586663
 30
0.0
  0
POINT
  5
10C9
330
18
100
AcDbEntity
  8
DEFPOINTS
  6
ByBlock
 62
     0
100
AcDbPoint
 10
156.628609466449
 20
124.3832223626339
 30
0.0
  0
DIMENSION
  5
10DB
330
18
100
AcDbEntity
  8
寸法線
100
AcDbDimension
  2
*D21
 10
146.628609466449
 20
50.59283117410564
 30
0.0
 11
348.628609466449
 21
52.46783117410564
 31
0.0
 70
    32
 71
     5
 42
-1.0
  3
STYLE3
100
AcDbAlignedDimension
 13
550.6286094664489
 23
166.3103143586663
 33
0.0
 14
146.628609466449
 24
73.67023471580239
 34
0.0
100
AcDbRotatedDimension
1001
ACAD
1000
DSTYLE
1002
{
1070
   271
1070
     2
1002
}
  0
LINE
  5
1575
330
18
100
AcDbEntity
  8
外形線
100
AcDbLine
 10
211.0940306171947
 20
342.2189028520868
 30
0.0
 11
331.0940306171947
 21
342.2189028520868
 31
0.0
  0
LINE
  5
1576
330
18
100
AcDbEntity
  8
外形線
100
AcDbLine
 10
211.0940306171947
 20
343.2189028520868
 30
0.0
 11
331.0940306171947
 21
343.2189028520868
 31
0.0
  0
TEXT
  5
1577
330
18
100
AcDbEntity
  8
文字
100
AcDbText
 10
212.2438676171947
 20
346.8242968520868
 30
0.0
 40
5.0
  1
Model No.K-2 Dial Sheet Gauge
  7
STYLE3
100
AcDbText
  0
LINE
  5
1578
330
18
100
AcDbEntity
  8
外形線
100
AcDbLine
 10
517.6226686021887
 20
10.0123192898944
 30
0.0
 11
517.6226686021887
 21
0.3975412898944057
 31
0.0
  0
TEXT
  5
1579
330
18
100
AcDbEntity
  8
0
  6
Continuous
100
AcDbText
 10
489.4389096021886
 20
5.478766289894405
 30
0.0
 40
3.0
  1
日 付
  7
STYLE3
100
AcDbText
  0
TEXT
  5
157A
330
18
100
AcDbEntity
  8
0
  6
Continuous
100
AcDbText
 10
489.8222706021887
 20
2.145683289894407
 30
0.0
 40
2.1
  1
Date
  7
STYLE3
100
AcDbText
  0
LINE
  5
157B
330
18
100
AcDbEntity
  8
外形線
100
AcDbLine
 10
487.8903196021887
 20
10.0123192898944
 30
0.0
 11
487.8903196021887
 21
0.3975412898944057
 31
0.0
  0
TEXT
  5
157C
330
18
100
AcDbEntity
  8
0
  6
Continuous
100
AcDbText
 10
498.5670776021887
 20
3.893823289894406
 30
0.0
 40
2.1
  1
2010.06.16
  7
STYLE3
100
AcDbText
  0
TEXT
  5
157D
330
18
100
AcDbEntity
  8
0
  6
Continuous
100
AcDbText
 10
519.8461106021887
 20
2.145682289894402
 30
0.0
 40
2.1
  1
OZAKI MFG. CO., LTD.
  7
STYLE3
100
AcDbText
  0
TEXT
  5
157E
330
18
100
AcDbEntity
  8
0
  6
Continuous
100
AcDbText
 10
518.9716316021887
 20
5.933321289894404
 30
0.0
 40
3.0
  1
株式会社　尾崎製作所
  7
STYLE3
100
AcDbText
  0
TEXT
  5
157F
330
18
100
AcDbEntity
  8
0
  6
Continuous
100
AcDbText
 10
479.7284986021887
 20
4.185182289894406
 30
0.0
 40
2.399999999999999
  1
1/1
  7
STYLE3
100
AcDbText
  0
TEXT
  5
1580
330
18
100
AcDbEntity
  8
0
  6
Continuous
100
AcDbText
 10
460.3701466021886
 20
3.893825289894405
 30
0.0
 40
2.399999999999999
  1
mm
  7
STYLE3
100
AcDbText
  0
LINE
  5
1581
330
18
100
AcDbEntity
  8
外形線
100
AcDbLine
 10
468.3602466021887
 20
10.0123192898944
 30
0.0
 11
468.3602466021887
 21
0.3975412898944057
 31
0.0
  0
TEXT
  5
1582
330
18
100
AcDbEntity
  8
0
  6
Continuous
100
AcDbText
 10
469.6459946021887
 20
5.356561289894404
 30
0.0
 40
3.0
  1
尺 度
  7
STYLE3
100
AcDbText
  0
TEXT
  5
1583
330
18
100
AcDbEntity
  8
0
  6
Continuous
100
AcDbText
 10
470.1092096021887
 20
2.437039289894407
 30
0.0
 40
2.1
  1
Scale
  7
STYLE3
100
AcDbText
  0
LINE
  5
1584
330
18
100
AcDbEntity
  8
外形線
100
AcDbLine
 10
450.8706296021887
 20
10.0123192898944
 30
0.0
 11
450.8706296021887
 21
0.3975412898944057
 31
0.0
  0
TEXT
  5
1585
330
18
100
AcDbEntity
  8
0
  6
Continuous
100
AcDbText
 10
452.3280986021886
 20
5.647919289894403
 30
0.0
 40
3.0
  1
単位
  7
STYLE3
100
AcDbText
  0
TEXT
  5
1586
330
18
100
AcDbEntity
  8
0
  6
Continuous
100
AcDbText
 10
452.4998196021887
 20
2.145682289894402
 30
0.0
 40
2.1
  1
Unit
  7
STYLE3
100
AcDbText
  0
LINE
  5
1587
330
18
100
AcDbEntity
  8
外形線
100
AcDbLine
 10
415.5999016021887
 20
0.3975412898944057
 30
0.0
 11
415.5999016021887
 21
20.79252428989441
 31
0.0
  0
TEXT
  5
1588
330
18
100
AcDbEntity
  8
0
  6
Continuous
100
AcDbText
 10
419.3893206021887
 20
5.641964289894403
 30
0.0
 40
3.0
  1
三　　角　　法
  7
STYLE3
100
AcDbText
  0
TEXT
  5
1589
330
18
100
AcDbEntity
  8
0
  6
Continuous
100
AcDbText
 10
416.7658776021887
 20
2.145681289894405
 30
0.0
 40
2.1
  1
3RD Angle Projection
  7
STYLE3
100
AcDbText
  0
LINE
  5
158A
330
18
100
AcDbEntity
  8
外形線
100
AcDbLine
 10
415.5999016021887
 20
20.79252428989441
 30
0.0
 11
556.3913196021887
 21
20.79252428989441
 31
0.0
  0
LINE
  5
158B
330
18
100
AcDbEntity
  8
外形線
100
AcDbLine
 10
415.5999016021887
 20
10.0123192898944
 30
0.0
 11
556.3913196021887
 21
10.0123192898944
 31
0.0
  0
TEXT
  5
158C
330
18
100
AcDbEntity
  8
0
  6
Continuous
100
AcDbText
 10
417.0573696021887
 20
11.9103092898944
 30
0.0
 40
2.1
  1
Design and specifications are subject to change without notice for future improvement.
  7
STYLE3
100
AcDbText
  0
TEXT
  5
158D
330
18
100
AcDbEntity
  8
0
  6
Continuous
100
AcDbText
 10
417.3488636021887
 20
15.8394572898944
 30
0.0
 40
3.5
  1
仕様及び外観は予告なく変更される場合がございますのでご了承下さい。
  7
STYLE3
100
AcDbText
  0
ENDSEC
  0
SECTION
  2
OBJECTS
  0
DICTIONARY
  5
C
330
0
100
AcDbDictionary
281
     1
  3
ACAD_COLOR
350
110F
  3
ACAD_GROUP
350
D
  3
ACAD_LAYOUT
350
1112
  3
ACAD_MATERIAL
350
110E
  3
ACAD_MLINESTYLE
350
1B
  3
ACAD_PLOTSETTINGS
350
1113
  3
ACAD_PLOTSTYLENAME
350
110C
  3
ACAD_TABLESTYLE
350
1110
  3
AcDbVariableDictionary
350
111D
  0
DICTIONARY
  5
110F
102
{ACAD_REACTORS
330
C
102
}
330
C
100
AcDbDictionary
281
     1
  0
DICTIONARY
  5
D
102
{ACAD_REACTORS
330
C
102
}
330
C
100
AcDbDictionary
281
     1
  0
DICTIONARY
  5
1112
102
{ACAD_REACTORS
330
C
102
}
330
C
100
AcDbDictionary
281
     1
  3
Model
350
1114
  3
レイアウト1
350
1115
  0
DICTIONARY
  5
110E
102
{ACAD_REACTORS
330
C
102
}
330
C
100
AcDbDictionary
281
     1
  0
DICTIONARY
  5
1B
102
{ACAD_REACTORS
330
C
102
}
330
C
100
AcDbDictionary
281
     1
  3
STANDARD
350
1C
  0
DICTIONARY
  5
1113
102
{ACAD_REACTORS
330
C
102
}
330
C
100
AcDbDictionary
281
     1
  0
ACDBDICTIONARYWDFLT
  5
110C
102
{ACAD_REACTORS
330
C
102
}
330
C
100
AcDbDictionary
281
     1
  3
Normal
350
110D
100
AcDbDictionaryWithDefault
340
110D
  0
DICTIONARY
  5
1110
102
{ACAD_REACTORS
330
C
102
}
330
C
100
AcDbDictionary
281
     1
  3
Standard
350
1111
  0
DICTIONARY
  5
111D
102
{ACAD_REACTORS
330
C
102
}
330
C
100
AcDbDictionary
281
     1
  3
CTABLESTYLE
350
111E
  0
LAYOUT
  5
1114
102
{ACAD_REACTORS
330
1112
102
}
330
1112
100
AcDbPlotSettings
  1

  2
C:\Documents and Settings\佐藤\Application Data\Autodesk\AutoCAD LT 2005\R10\jpn\plotters\Default Windows System Printer.pc3
  4
A4
  6

 40
5.873749732971191
 41
5.873747825622558
 42
5.873748779296875
 43
5.873748779296875
 44
209.9733276367187
 45
297.0106506347656
 46
0.0
 47
0.0
 48
0.0
 49
0.0
140
0.0
141
0.0
142
1.0
143
5.913323416154764
 70
 11952
 72
     1
 73
     1
 74
     0
  7
AutoCAD LT 98.ctb
 75
     0
147
0.1691096409961399
 76
     0
 77
     2
 78
   300
148
565.3018116307566
149
684.176728773987
100
AcDbLayout
  1
Model
 70
     1
 71
     0
 10
0.0
 20
0.0
 11
12.0
 21
9.0
 12
0.0
 22
0.0
 32
0.0
 14
0.0
 24
0.0
 34
0.0
 15
0.0
 25
0.0
 35
0.0
146
0.0
 13
0.0
 23
0.0
 33
0.0
 16
1.0
 26
0.0
 36
0.0
 17
0.0
 27
1.0
 37
0.0
 76
     0
330
18
1001
ACAD_PSEXT
1000
C:\Documents and Settings\佐藤\Application Data\Autodesk\AutoCAD LT 2005\R10\jpn\plotters\Default Windows System Printer.pc3
1000
EPSON LP-6100
1000
USB002
1000

1070
     0
  0
LAYOUT
  5
1115
102
{ACAD_REACTORS
330
1112
102
}
330
1112
100
AcDbPlotSettings
  1

  2
\\SATO-MATE2\EPSON LP-6100
  4

  6

 40
0.0
 41
0.0
 42
0.0
 43
0.0
 44
0.0
 45
0.0
 46
0.0
 47
0.0
 48
0.0
 49
0.0
140
0.0
141
0.0
142
1.0
143
1.0
 70
   688
 72
     0
 73
     0
 74
     5
  7
AutoCAD LT 98.ctb
 75
    16
147
1.0
 76
     0
 77
     2
 78
   300
148
0.0
149
0.0
100
AcDbLayout
  1
レイアウト1
 70
     1
 71
     1
 10
0.0
 20
0.0
 11
420.0
 21
297.0
 12
0.0
 22
0.0
 32
0.0
 14
1.000000000000000E+20
 24
1.000000000000000E+20
 34
1.000000000000000E+20
 15
-1.000000000000000E+20
 25
-1.000000000000000E+20
 35
-1.000000000000000E+20
146
0.0
 13
0.0
 23
0.0
 33
0.0
 16
1.0
 26
0.0
 36
0.0
 17
0.0
 27
1.0
 37
0.0
 76
     0
330
15
  0
MLINESTYLE
  5
1C
102
{ACAD_REACTORS
330
1B
102
}
330
1B
100
AcDbMlineStyle
  2
STANDARD
 70
     0
  3

 62
   256
 51
90.0
 52
90.0
 71
     2
 49
0.5
 62
   256
  6
BYLAYER
 49
-0.5
 62
   256
  6
BYLAYER
  0
ACDBPLACEHOLDER
  5
110D
102
{ACAD_REACTORS
330
110C
102
}
330
110C
  0
ACAD_PROXY_OBJECT
  5
1111
102
{ACAD_REACTORS
330
1110
102
}
330
1110
100
AcDbProxyObject
 90
      499
 91
      503
 95
  2555929
 70
     0
 93
     1849
310
4214DD185B99185C992420000000000000F83F0000000000003E0FC00000000000004901028000000C1008070000C3001FDFF8000000C1003FBFF000000182007F7FE00000030400FEFFC00000060801FDFF8000000C1003FBFF000000182000000000000000C2020B0000001820100E000186003FBFF000000182007F7FE0
310
0000030400FEFFC00000060801FDFF8000000C1003FBFF000000182007F7FE0000003040000000000000012404160000003040201C00030C007F7FE00000030400FEFFC00000060801FDFF8000000C1003FBFF000000182007F7FE00000030400FEFFC000000608000
340
F
340
F
340
F
 94
        0
  0
DICTIONARYVAR
  5
111E
102
{ACAD_REACTORS
330
111D
102
}
330
111D
100
DictionaryVariables
280
     0
  1
STANDARD
  0
ENDSEC
  0
EOF
