  0
SECTION
  2
HEADER
  9
$ACADVER
  1
AC1018
  9
$ACADMAINTVER
 70
     0
  9
$DWGCODEPAGE
  3
ANSI_932
  9
$INSBASE
 10
0.0
 20
0.0
 30
0.0
  9
$EXTMIN
 10
-228.5777991932687
 20
90.30430422058737
 30
-0.000076249702996
  9
$EXTMAX
 10
530.1012201524815
 20
432.0604052395488
 30
1.000061067754742
  9
$LIMMIN
 10
0.0
 20
0.0
  9
$LIMMAX
 10
420.0
 20
297.0
  9
$ORTHOMODE
 70
     0
  9
$REGENMODE
 70
     1
  9
$FILLMODE
 70
     1
  9
$QTEXTMODE
 70
     0
  9
$MIRRTEXT
 70
     1
  9
$LTSCALE
 40
1.0
  9
$ATTMODE
 70
     1
  9
$TEXTSIZE
 40
2.5
  9
$TRACEWID
 40
1.0
  9
$TEXTSTYLE
  7
STYLE3
  9
$CLAYER
  8
寸法線
  9
$CELTYPE
  6
BYLAYER
  9
$CECOLOR
 62
   256
  9
$CELTSCALE
 40
1.0
  9
$DISPSILH
 70
     0
  9
$DIMSCALE
 40
1.0
  9
$DIMASZ
 40
2.5
  9
$DIMEXO
 40
0.0
  9
$DIMDLI
 40
3.75
  9
$DIMRND
 40
0.0
  9
$DIMDLE
 40
0.0
  9
$DIMEXE
 40
1.25
  9
$DIMTP
 40
0.0
  9
$DIMTM
 40
0.0
  9
$DIMTXT
 40
2.5
  9
$DIMCEN
 40
2.5
  9
$DIMTSZ
 40
0.0
  9
$DIMTOL
 70
     0
  9
$DIMLIM
 70
     0
  9
$DIMTIH
 70
     0
  9
$DIMTOH
 70
     0
  9
$DIMSE1
 70
     0
  9
$DIMSE2
 70
     0
  9
$DIMTAD
 70
     1
  9
$DIMZIN
 70
     8
  9
$DIMBLK
  1

  9
$DIMASO
 70
     1
  9
$DIMSHO
 70
     1
  9
$DIMPOST
  1

  9
$DIMAPOST
  1

  9
$DIMALT
 70
     0
  9
$DIMALTD
 70
     4
  9
$DIMALTF
 40
0.0394
  9
$DIMLFAC
 40
1.0
  9
$DIMTOFL
 70
     1
  9
$DIMTVP
 40
0.0
  9
$DIMTIX
 70
     0
  9
$DIMSOXD
 70
     0
  9
$DIMSAH
 70
     1
  9
$DIMBLK1
  1
OPEN
  9
$DIMBLK2
  1
OPEN
  9
$DIMSTYLE
  2
STYLE3
  9
$DIMCLRD
 70
     2
  9
$DIMCLRE
 70
     2
  9
$DIMCLRT
 70
     6
  9
$DIMTFAC
 40
1.0
  9
$DIMGAP
 40
0.625
  9
$DIMJUST
 70
     0
  9
$DIMSD1
 70
     0
  9
$DIMSD2
 70
     0
  9
$DIMTOLJ
 70
     1
  9
$DIMTZIN
 70
     0
  9
$DIMALTZ
 70
     0
  9
$DIMALTTZ
 70
     0
  9
$DIMUPT
 70
     0
  9
$DIMDEC
 70
     2
  9
$DIMTDEC
 70
     4
  9
$DIMALTU
 70
     8
  9
$DIMALTTD
 70
     4
  9
$DIMTXSTY
  7
STYLE3
  9
$DIMAUNIT
 70
     0
  9
$DIMADEC
 70
     0
  9
$DIMALTRND
 40
0.0
  9
$DIMAZIN
 70
     0
  9
$DIMDSEP
 70
    46
  9
$DIMATFIT
 70
     3
  9
$DIMFRAC
 70
     0
  9
$DIMLDRBLK
  1

  9
$DIMLUNIT
 70
     2
  9
$DIMLWD
 70
    -2
  9
$DIMLWE
 70
    -2
  9
$DIMTMOVE
 70
     0
  9
$LUNITS
 70
     2
  9
$LUPREC
 70
     4
  9
$SKETCHINC
 40
1.0
  9
$FILLETRAD
 40
1.5
  9
$AUNITS
 70
     0
  9
$AUPREC
 70
     0
  9
$MENU
  1
.
  9
$ELEVATION
 40
0.0
  9
$PELEVATION
 40
0.0
  9
$THICKNESS
 40
0.0
  9
$LIMCHECK
 70
     0
  9
$CHAMFERA
 40
0.5
  9
$CHAMFERB
 40
0.5
  9
$CHAMFERC
 40
20.0
  9
$CHAMFERD
 40
0.0
  9
$SKPOLY
 70
     0
  9
$TDCREATE
 40
2451675.596150694
  9
$TDUCREATE
 40
2451675.221150694
  9
$TDUPDATE
 40
2455364.445590093
  9
$TDUUPDATE
 40
2455364.070590093
  9
$TDINDWG
 40
1.1467771528
  9
$TDUSRTIMER
 40
1.1467771528
  9
$USRTIMER
 70
     1
  9
$ANGBASE
 50
0.0
  9
$ANGDIR
 70
     0
  9
$PDMODE
 70
     0
  9
$PDSIZE
 40
0.0
  9
$PLINEWID
 40
0.0
  9
$SPLFRAME
 70
     0
  9
$SPLINETYPE
 70
     6
  9
$SPLINESEGS
 70
     8
  9
$HANDSEED
  5
1D08
  9
$SURFTAB1
 70
     6
  9
$SURFTAB2
 70
     6
  9
$SURFTYPE
 70
     6
  9
$SURFU
 70
     6
  9
$SURFV
 70
     6
  9
$UCSBASE
  2

  9
$UCSNAME
  2

  9
$UCSORG
 10
0.0
 20
0.0
 30
0.0
  9
$UCSXDIR
 10
1.0
 20
0.0
 30
0.0
  9
$UCSYDIR
 10
0.0
 20
1.0
 30
0.0
  9
$UCSORTHOREF
  2

  9
$UCSORTHOVIEW
 70
     0
  9
$UCSORGTOP
 10
0.0
 20
0.0
 30
0.0
  9
$UCSORGBOTTOM
 10
0.0
 20
0.0
 30
0.0
  9
$UCSORGLEFT
 10
0.0
 20
0.0
 30
0.0
  9
$UCSORGRIGHT
 10
0.0
 20
0.0
 30
0.0
  9
$UCSORGFRONT
 10
0.0
 20
0.0
 30
0.0
  9
$UCSORGBACK
 10
0.0
 20
0.0
 30
0.0
  9
$PUCSBASE
  2

  9
$PUCSNAME
  2

  9
$PUCSORG
 10
0.0
 20
0.0
 30
0.0
  9
$PUCSXDIR
 10
1.0
 20
0.0
 30
0.0
  9
$PUCSYDIR
 10
0.0
 20
1.0
 30
0.0
  9
$PUCSORTHOREF
  2

  9
$PUCSORTHOVIEW
 70
     0
  9
$PUCSORGTOP
 10
0.0
 20
0.0
 30
0.0
  9
$PUCSORGBOTTOM
 10
0.0
 20
0.0
 30
0.0
  9
$PUCSORGLEFT
 10
0.0
 20
0.0
 30
0.0
  9
$PUCSORGRIGHT
 10
0.0
 20
0.0
 30
0.0
  9
$PUCSORGFRONT
 10
0.0
 20
0.0
 30
0.0
  9
$PUCSORGBACK
 10
0.0
 20
0.0
 30
0.0
  9
$USERI1
 70
     0
  9
$USERI2
 70
     0
  9
$USERI3
 70
     0
  9
$USERI4
 70
     0
  9
$USERI5
 70
     0
  9
$USERR1
 40
0.0
  9
$USERR2
 40
0.0
  9
$USERR3
 40
0.0
  9
$USERR4
 40
0.0
  9
$USERR5
 40
0.0
  9
$WORLDVIEW
 70
     1
  9
$SHADEDGE
 70
     3
  9
$SHADEDIF
 70
    70
  9
$TILEMODE
 70
     1
  9
$MAXACTVP
 70
    48
  9
$PINSBASE
 10
0.0
 20
0.0
 30
0.0
  9
$PLIMCHECK
 70
     0
  9
$PEXTMIN
 10
1.000000000000000E+20
 20
1.000000000000000E+20
 30
1.000000000000000E+20
  9
$PEXTMAX
 10
-1.000000000000000E+20
 20
-1.000000000000000E+20
 30
-1.000000000000000E+20
  9
$PLIMMIN
 10
0.0
 20
0.0
  9
$PLIMMAX
 10
420.0
 20
297.0
  9
$UNITMODE
 70
     0
  9
$VISRETAIN
 70
     1
  9
$PLINEGEN
 70
     0
  9
$PSLTSCALE
 70
     1
  9
$TREEDEPTH
 70
  3020
  9
$CMLSTYLE
  2
STANDARD
  9
$CMLJUST
 70
     0
  9
$CMLSCALE
 40
20.0
  9
$PROXYGRAPHICS
 70
     1
  9
$MEASUREMENT
 70
     1
  9
$CELWEIGHT
370
    -1
  9
$ENDCAPS
280
     0
  9
$JOINSTYLE
280
     0
  9
$LWDISPLAY
290
     0
  9
$INSUNITS
 70
     0
  9
$HYPERLINKBASE
  1

  9
$STYLESHEET
  1

  9
$XEDIT
290
     1
  9
$CEPSNTYPE
380
     0
  9
$PSTYLEMODE
290
     1
  9
$FINGERPRINTGUID
  2
{320A02E3-2700-4BEB-858A-A83410C6B94D}
  9
$VERSIONGUID
  2
{678D0A62-1951-408C-BD37-614EAF192B36}
  9
$EXTNAMES
290
     1
  9
$PSVPSCALE
 40
0.0
  9
$OLESTARTUP
290
     0
  9
$SORTENTS
280
    96
  9
$INDEXCTL
280
     0
  9
$HIDETEXT
280
     0
  9
$XCLIPFRAME
290
     0
  9
$HALOGAP
280
     0
  9
$OBSCOLOR
 70
   257
  9
$OBSLTYPE
280
     0
  9
$INTERSECTIONDISPLAY
280
     0
  9
$INTERSECTIONCOLOR
 70
   257
  9
$DIMASSOC
280
     1
  9
$PROJECTNAME
  1

  0
ENDSEC
  0
SECTION
  2
CLASSES
  0
CLASS
  1
DICTIONARYVAR
  2
AcDbDictionaryVar
  3
ObjectDBX Classes
 90
        0
 91
        1
280
     0
281
     0
  0
CLASS
  1
ACDBDICTIONARYWDFLT
  2
AcDbDictionaryWithDefault
  3
ObjectDBX Classes
 90
        0
 91
        1
280
     0
281
     0
  0
ENDSEC
  0
SECTION
  2
TABLES
  0
TABLE
  2
VPORT
  5
8
330
0
100
AcDbSymbolTable
 70
     2
  0
VPORT
  5
1D07
330
8
100
AcDbSymbolTableRecord
100
AcDbViewportTableRecord
  2
*Active
 70
     0
 10
0.0
 20
0.0
 11
1.0
 21
1.0
 12
150.7617104796064
 22
261.1823547300681
 13
0.0
 23
0.0
 14
10.0
 24
10.0
 15
10.0
 25
10.0
 16
0.0
 26
0.0
 36
1.0
 17
0.0
 27
0.0
 37
0.0
 40
498.1837655253176
 41
1.530456852791878
 42
50.0
 43
0.0
 44
0.0
 50
0.0
 51
0.0
 71
     0
 72
   100
 73
     1
 74
     1
 75
     0
 76
     0
 77
     0
 78
     0
281
     0
 65
     1
110
0.0
120
0.0
130
0.0
111
1.0
121
0.0
131
0.0
112
0.0
122
1.0
132
0.0
 79
     0
146
0.0
  0
ENDTAB
  0
TABLE
  2
LTYPE
  5
5
330
0
100
AcDbSymbolTable
 70
    12
  0
LTYPE
  5
12
330
5
100
AcDbSymbolTableRecord
100
AcDbLinetypeTableRecord
  2
BYBLOCK
 70
     0
  3

 72
    65
 73
     0
 40
0.0
  0
LTYPE
  5
13
330
5
100
AcDbSymbolTableRecord
100
AcDbLinetypeTableRecord
  2
BYLAYER
 70
     0
  3

 72
    65
 73
     0
 40
0.0
  0
LTYPE
  5
14
330
5
100
AcDbSymbolTableRecord
100
AcDbLinetypeTableRecord
  2
CONTINUOUS
 70
     0
  3
Solid line
 72
    65
 73
     0
 40
0.0
  0
LTYPE
  5
22
330
5
100
AcDbSymbolTableRecord
100
AcDbLinetypeTableRecord
  2
CENTER2
 70
     0
  3
Center (.5x) ___ _ ___ _ ___ _ ___ _ ___ _ ___
 72
    65
 73
     4
 40
28.575
 49
19.05
 74
     0
 49
-3.174999999999999
 74
     0
 49
3.174999999999999
 74
     0
 49
-3.174999999999999
 74
     0
  0
LTYPE
  5
23
330
5
100
AcDbSymbolTableRecord
100
AcDbLinetypeTableRecord
  2
HIDDEN2
 70
     0
  3
Hidden (.5x) _ _ _ _ _ _ _ _ _ _ _ _ _ _ _ _ _
 72
    65
 73
     2
 40
4.762499999999999
 49
3.174999999999999
 74
     0
 49
-1.587499999999999
 74
     0
  0
LTYPE
  5
24
330
5
100
AcDbSymbolTableRecord
100
AcDbLinetypeTableRecord
  2
PHANTOM2
 70
     0
  3
Phantom (.5x) ___ _ _ ___ _ _ ___ _ _ ___ _ _
 72
    65
 73
     6
 40
31.75
 49
15.875
 74
     0
 49
-3.174999999999999
 74
     0
 49
3.174999999999999
 74
     0
 49
-3.174999999999999
 74
     0
 49
3.174999999999999
 74
     0
 49
-3.174999999999999
 74
     0
  0
ENDTAB
  0
TABLE
  2
LAYER
  5
2
330
0
100
AcDbSymbolTable
 70
    16
  0
LAYER
  5
E
330
2
100
AcDbSymbolTableRecord
100
AcDbLayerTableRecord
  2
0
 70
     0
 62
     7
  6
CONTINUOUS
370
    -3
390
1CA9
  0
LAYER
  5
25
330
2
100
AcDbSymbolTableRecord
100
AcDbLayerTableRecord
  2
外形線
 70
     0
 62
     7
  6
CONTINUOUS
370
    -3
390
1CA9
  0
LAYER
  5
26
330
2
100
AcDbSymbolTableRecord
100
AcDbLayerTableRecord
  2
寸法線
 70
     0
 62
     2
  6
CONTINUOUS
370
    -3
390
1CA9
  0
LAYER
  5
27
330
2
100
AcDbSymbolTableRecord
100
AcDbLayerTableRecord
  2
中心線
 70
     0
 62
     4
  6
CENTER2
370
    -3
390
1CA9
  0
LAYER
  5
29
330
2
100
AcDbSymbolTableRecord
100
AcDbLayerTableRecord
  2
想像線
 70
     0
 62
     1
  6
PHANTOM2
370
    -3
390
1CA9
  0
LAYER
  5
2A
330
2
100
AcDbSymbolTableRecord
100
AcDbLayerTableRecord
  2
ﾊｯﾁﾝｸ
 70
     0
 62
     6
  6
CONTINUOUS
370
    -3
390
1CA9
  0
LAYER
  5
2B
330
2
100
AcDbSymbolTableRecord
100
AcDbLayerTableRecord
  2
文字
 70
     0
 62
     6
  6
CONTINUOUS
370
    -3
390
1CA9
  0
LAYER
  5
2C
330
2
100
AcDbSymbolTableRecord
100
AcDbLayerTableRecord
  2
目盛
 70
     0
 62
    72
  6
CONTINUOUS
370
    -3
390
1CA9
  0
LAYER
  5
2D
330
2
100
AcDbSymbolTableRecord
100
AcDbLayerTableRecord
  2
針
 70
     0
 62
     5
  6
CONTINUOUS
370
    -3
390
1CA9
  0
LAYER
  5
53
330
2
100
AcDbSymbolTableRecord
100
AcDbLayerTableRecord
  2
DEFPOINTS
 70
     0
 62
     7
  6
CONTINUOUS
290
     0
370
    -3
390
1CA9
  0
LAYER
  5
A5
330
2
100
AcDbSymbolTableRecord
100
AcDbLayerTableRecord
  2
C
 70
     0
 62
     7
  6
CONTINUOUS
370
    -3
390
1CA9
  0
LAYER
  5
697
330
2
100
AcDbSymbolTableRecord
100
AcDbLayerTableRecord
  2
隠れ線2
 70
     0
 62
     1
  6
HIDDEN2
370
    -3
390
1CA9
  0
LAYER
  5
C51
330
2
100
AcDbSymbolTableRecord
100
AcDbLayerTableRecord
  2
ROGO
 70
     0
 62
     6
  6
CONTINUOUS
370
    -3
390
1CA9
  0
ENDTAB
  0
TABLE
  2
STYLE
  5
3
330
0
100
AcDbSymbolTable
 70
     6
  0
STYLE
  5
F
330
3
100
AcDbSymbolTableRecord
100
AcDbTextStyleTableRecord
  2
STANDARD
 70
     0
 40
0.0
 41
1.0
 50
0.0
 71
     0
 42
2.5
  3
txt
  4

  0
STYLE
  5
3F
330
3
100
AcDbSymbolTableRecord
100
AcDbTextStyleTableRecord
  2
STYLE3
 70
     0
 40
0.0
 41
1.0
 50
0.0
 71
     0
 42
2.5
  3
romans.shx
  4
bigfont.shx
  0
ENDTAB
  0
TABLE
  2
VIEW
  5
6
330
0
100
AcDbSymbolTable
 70
     0
  0
ENDTAB
  0
TABLE
  2
UCS
  5
7
330
0
100
AcDbSymbolTable
 70
     0
  0
ENDTAB
  0
TABLE
  2
APPID
  5
9
330
0
100
AcDbSymbolTable
 70
     1
  0
APPID
  5
10
330
9
100
AcDbSymbolTableRecord
100
AcDbRegAppTableRecord
  2
ACAD
 70
     0
  0
ENDTAB
  0
TABLE
  2
DIMSTYLE
  5
A
330
0
100
AcDbSymbolTable
 70
     4
100
AcDbDimStyleTable
 71
     0
  0
DIMSTYLE
105
1D
330
A
100
AcDbSymbolTableRecord
100
AcDbDimStyleTableRecord
  2
STANDARD
 70
     0
 41
2.5
 42
0.625
 43
3.75
 44
1.25
 73
     0
 74
     0
 77
     1
 78
     8
140
2.5
141
2.5
143
0.0394
147
0.625
171
     4
172
     1
273
     8
274
     4
277
     6
340
F
  0
DIMSTYLE
105
8F
102
{ACAD_REACTORS
330
94E
330
95A
330
1A2A
330
1AF1
330
1AFD
330
1B09
330
1B15
330
1B21
330
1B61
330
1B6E
330
1B7B
330
1B9E
330
1BAB
330
1BEC
330
1C06
330
1C1E
330
1C2B
330
1C38
330
1C7E
330
1541
330
154A
330
154B
330
154C
330
154D
330
1560
330
1561
330
1563
330
15CE
330
15CF
330
15D2
330
15D4
330
15DB
102
}
330
A
100
AcDbSymbolTableRecord
100
AcDbDimStyleTableRecord
  2
STYLE3
 70
     0
 41
2.5
 42
0.0
 43
3.75
 44
1.25
 73
     0
 74
     0
 77
     1
 78
     8
140
2.5
141
2.5
143
0.0394
147
0.625
171
     4
172
     1
173
     1
176
     2
177
     2
178
     6
271
     1
273
     8
274
     4
340
3F
341
45
343
45
344
45
  0
ENDTAB
  0
TABLE
  2
BLOCK_RECORD
  5
1
330
0
100
AcDbSymbolTable
 70
    48
  0
BLOCK_RECORD
  5
18
330
1
100
AcDbSymbolTableRecord
100
AcDbBlockTableRecord
  2
*MODEL_SPACE
340
1CAE
  0
BLOCK_RECORD
  5
15
330
1
100
AcDbSymbolTableRecord
100
AcDbBlockTableRecord
  2
*PAPER_SPACE
340
1CAF
  0
BLOCK_RECORD
  5
45
330
1
100
AcDbSymbolTableRecord
100
AcDbBlockTableRecord
  2
_OPEN
340
0
102
{BLKREFS
331
763
331
764
331
1BD2
331
1BD3
331
B31
331
B32
331
953
331
954
331
C7A
331
C7D
331
C92
331
C96
331
D38
331
D49
331
D4B
331
E01
331
14B5
331
14BD
331
14BE
331
14C9
331
14CA
331
14D3
331
14D4
331
14E1
331
14EA
331
14EB
331
14F8
331
14F9
331
1504
331
150D
331
150E
331
1519
331
151A
331
1524
331
1525
331
1530
331
1531
331
153B
331
1558
331
1559
331
1562
331
157D
331
157E
331
158C
331
158F
331
1592
331
15A0
331
15A1
331
15A6
331
15B0
331
15B4
331
15B6
331
15B9
331
15BE
331
15C8
331
15CA
331
1A23
331
1A24
331
1B44
331
1B45
331
1B4E
331
1B4F
331
1B25
331
1B26
331
1B39
331
1B3A
331
1B2F
331
1B30
331
1B5A
331
1B5B
331
1C6B
331
1C6C
331
1C60
331
1C61
331
1B97
331
1B98
331
1BB0
331
1BB1
331
1BF3
331
1BF4
331
1C0B
331
1C0C
331
1C17
331
1C18
331
1C24
331
1C25
331
1C3D
331
1C3E
331
1C77
331
1C78
331
1718
331
1719
331
174B
331
174C
331
1756
331
1757
331
1761
331
1762
331
176B
331
1775
331
1776
331
1780
331
1781
331
178B
331
1A16
331
1A17
331
1A3A
331
1A3B
331
1A46
331
1A47
331
1A68
331
1A69
331
1A78
331
1A79
331
1A85
331
1A8F
331
1A90
331
1A9A
331
1A9B
331
1AA4
331
1AA5
331
1AAF
331
1AB0
331
1ABA
331
1ABB
331
1AC4
331
1ACC
331
1ACD
331
1AEA
331
1AEB
331
1AF6
331
1AF7
331
1B02
331
1B03
331
1B0E
331
1B0F
331
1B1A
331
1B1B
331
1B67
331
1B68
331
1B74
331
1B75
331
1B80
331
1B81
331
1B8B
331
1B8C
331
1BA4
331
1BA5
331
1BBC
331
1BBD
331
1BC8
331
1BC9
331
1BE5
331
1BE6
331
1BFF
331
1C00
331
1C31
331
1C32
331
1C4A
331
1C4B
331
1C55
331
1C56
102
}
  0
BLOCK_RECORD
  5
942
330
1
100
AcDbSymbolTableRecord
100
AcDbBlockTableRecord
  2
*D7
340
0
  0
BLOCK_RECORD
  5
94F
330
1
100
AcDbSymbolTableRecord
100
AcDbBlockTableRecord
  2
*D8
340
0
  0
BLOCK_RECORD
  5
1A1E
330
1
100
AcDbSymbolTableRecord
100
AcDbBlockTableRecord
  2
*D29
340
0
  0
BLOCK_RECORD
  5
1AE5
330
1
100
AcDbSymbolTableRecord
100
AcDbBlockTableRecord
  2
*D30
340
0
  0
BLOCK_RECORD
  5
1AF2
330
1
100
AcDbSymbolTableRecord
100
AcDbBlockTableRecord
  2
*D31
340
0
  0
BLOCK_RECORD
  5
1AFE
330
1
100
AcDbSymbolTableRecord
100
AcDbBlockTableRecord
  2
*D32
340
0
  0
BLOCK_RECORD
  5
1B0A
330
1
100
AcDbSymbolTableRecord
100
AcDbBlockTableRecord
  2
*D33
340
0
  0
BLOCK_RECORD
  5
1B16
330
1
100
AcDbSymbolTableRecord
100
AcDbBlockTableRecord
  2
*D34
340
0
  0
BLOCK_RECORD
  5
1B55
330
1
100
AcDbSymbolTableRecord
100
AcDbBlockTableRecord
  2
*D35
340
0
  0
BLOCK_RECORD
  5
1B62
330
1
100
AcDbSymbolTableRecord
100
AcDbBlockTableRecord
  2
*D36
340
0
  0
BLOCK_RECORD
  5
1B6F
330
1
100
AcDbSymbolTableRecord
100
AcDbBlockTableRecord
  2
*D37
340
0
  0
BLOCK_RECORD
  5
1B92
330
1
100
AcDbSymbolTableRecord
100
AcDbBlockTableRecord
  2
*D38
340
0
  0
BLOCK_RECORD
  5
1B9F
330
1
100
AcDbSymbolTableRecord
100
AcDbBlockTableRecord
  2
*D39
340
0
  0
BLOCK_RECORD
  5
1BDE
330
1
100
AcDbSymbolTableRecord
100
AcDbBlockTableRecord
  2
*D40
340
0
  0
BLOCK_RECORD
  5
1BFA
330
1
100
AcDbSymbolTableRecord
100
AcDbBlockTableRecord
  2
*D41
340
0
  0
BLOCK_RECORD
  5
1C12
330
1
100
AcDbSymbolTableRecord
100
AcDbBlockTableRecord
  2
*D42
340
0
  0
BLOCK_RECORD
  5
1C1F
330
1
100
AcDbSymbolTableRecord
100
AcDbBlockTableRecord
  2
*D43
340
0
  0
BLOCK_RECORD
  5
1C2C
330
1
100
AcDbSymbolTableRecord
100
AcDbBlockTableRecord
  2
*D44
340
0
  0
BLOCK_RECORD
  5
1C72
330
1
100
AcDbSymbolTableRecord
100
AcDbBlockTableRecord
  2
*D45
340
0
  0
ENDTAB
  0
ENDSEC
  0
SECTION
  2
BLOCKS
  0
BLOCK
  5
19
330
18
100
AcDbEntity
  8
0
100
AcDbBlockBegin
  2
*MODEL_SPACE
 70
     0
 10
0.0
 20
0.0
 30
0.0
  3
*MODEL_SPACE
  1

  0
ENDBLK
  5
1A
330
18
100
AcDbEntity
  8
0
100
AcDbBlockEnd
  0
BLOCK
  5
16
330
15
100
AcDbEntity
 67
     1
  8
0
100
AcDbBlockBegin
  2
*PAPER_SPACE
 70
     0
 10
0.0
 20
0.0
 30
0.0
  3
*PAPER_SPACE
  1

  0
ENDBLK
  5
17
330
15
100
AcDbEntity
 67
     1
  8
0
100
AcDbBlockEnd
  0
BLOCK
  5
46
330
45
100
AcDbEntity
  8
0
100
AcDbBlockBegin
  2
_OPEN
 70
     0
 10
0.0
 20
0.0
 30
0.0
  3
_OPEN
  1

  0
LINE
  5
47
330
45
100
AcDbEntity
  8
0
  6
ByBlock
 62
     0
100
AcDbLine
 10
-1.0
 20
0.1666666666666666
 30
0.0
 11
0.0
 21
0.0
 31
0.0
  0
LINE
  5
48
330
45
100
AcDbEntity
  8
0
  6
ByBlock
 62
     0
100
AcDbLine
 10
0.0
 20
0.0
 30
0.0
 11
-1.0
 21
-0.1666666666666666
 31
0.0
  0
LINE
  5
49
330
45
100
AcDbEntity
  8
0
  6
ByBlock
 62
     0
100
AcDbLine
 10
0.0
 20
0.0
 30
0.0
 11
-1.0
 21
0.0
 31
0.0
  0
ENDBLK
  5
4A
330
45
100
AcDbEntity
  8
0
100
AcDbBlockEnd
  0
BLOCK
  5
B2D
330
942
100
AcDbEntity
  8
0
100
AcDbBlockBegin
  2
*D7
 70
     1
 10
0.0
 20
0.0
 30
0.0
  3
*D7
  1

  0
LINE
  5
B2E
330
942
100
AcDbEntity
  8
0
  6
ByBlock
 62
     2
100
AcDbLine
 10
-78.23693164056533
 20
162.5852107481416
 30
0.0
 11
-78.23693164056533
 21
126.0929214083148
 31
0.0
  0
LINE
  5
B2F
330
942
100
AcDbEntity
  8
0
  6
ByBlock
 62
     2
100
AcDbLine
 10
427.7630683594346
 20
234.3081162981867
 30
0.0
 11
427.7630683594346
 21
126.0929214083148
 31
0.0
  0
LINE
  5
B30
330
942
100
AcDbEntity
  8
0
  6
ByBlock
 62
     2
100
AcDbLine
 10
-75.73693164056533
 20
127.3429214083148
 30
0.0
 11
425.2630683594346
 21
127.3429214083148
 31
0.0
  0
INSERT
  5
B31
330
942
100
AcDbEntity
  8
0
  6
ByBlock
 62
     2
100
AcDbBlockReference
  2
_OPEN
 10
-78.23693164056533
 20
127.3429214083148
 30
0.0
 41
2.5
 42
2.5
 43
2.5
 50
180.0
  0
INSERT
  5
B32
330
942
100
AcDbEntity
  8
0
  6
ByBlock
 62
     2
100
AcDbBlockReference
  2
_OPEN
 10
427.7630683594346
 20
127.3429214083148
 30
0.0
 41
2.5
 42
2.5
 43
2.5
  0
MTEXT
  5
B33
330
942
100
AcDbEntity
  8
0
  6
ByBlock
 62
     6
100
AcDbMText
 10
174.7630683594346
 20
129.2179214083148
 30
0.0
 40
2.5
 41
0.0
 71
     5
 72
     1
  1
\A1;506
  7
STYLE3
 73
     1
 44
1.0
  0
POINT
  5
B34
330
942
100
AcDbEntity
  8
DEFPOINTS
  6
ByBlock
 62
     0
100
AcDbPoint
 10
-78.23693164056533
 20
162.5852107481416
 30
0.0
  0
POINT
  5
B35
330
942
100
AcDbEntity
  8
DEFPOINTS
  6
ByBlock
 62
     0
100
AcDbPoint
 10
427.7630683594346
 20
234.3081162981867
 30
0.0
  0
POINT
  5
B36
330
942
100
AcDbEntity
  8
DEFPOINTS
  6
ByBlock
 62
     0
100
AcDbPoint
 10
427.7630683594346
 20
127.3429214083148
 30
0.0
  0
ENDBLK
  5
B37
330
942
100
AcDbEntity
  8
0
100
AcDbBlockEnd
  0
BLOCK
  5
950
330
94F
100
AcDbEntity
  8
0
100
AcDbBlockBegin
  2
*D8
 70
     1
 10
0.0
 20
0.0
 30
0.0
  3
*D8
  1

  0
LINE
  5
951
330
94F
100
AcDbEntity
  8
0
  6
ByBlock
 62
     2
100
AcDbLine
 10
511.7630683594346
 20
277.6537311485332
 30
0.0
 11
511.7630683594346
 21
169.4385362586613
 31
0.0
  0
LINE
  5
952
330
94F
100
AcDbEntity
  8
0
  6
ByBlock
 62
     2
100
AcDbLine
 10
430.2630683594347
 20
170.6885362586613
 30
0.0
 11
509.2630683594347
 21
170.6885362586613
 31
0.0
  0
INSERT
  5
953
330
94F
100
AcDbEntity
  8
0
  6
ByBlock
 62
     2
100
AcDbBlockReference
  2
_OPEN
 10
427.7630683594346
 20
170.6885362586613
 30
0.0
 41
2.5
 42
2.5
 43
2.5
 50
180.0
  0
INSERT
  5
954
330
94F
100
AcDbEntity
  8
0
  6
ByBlock
 62
     2
100
AcDbBlockReference
  2
_OPEN
 10
511.7630683594346
 20
170.6885362586613
 30
0.0
 41
2.5
 42
2.5
 43
2.5
  0
MTEXT
  5
955
330
94F
100
AcDbEntity
  8
0
  6
ByBlock
 62
     6
100
AcDbMText
 10
469.7630683594346
 20
172.5635362586613
 30
0.0
 40
2.5
 41
0.0
 71
     5
 72
     1
  1
\A1;84
  7
STYLE3
 73
     1
 44
1.0
  0
POINT
  5
956
330
94F
100
AcDbEntity
  8
DEFPOINTS
  6
ByBlock
 62
     0
100
AcDbPoint
 10
427.7630683594346
 20
277.6537311485332
 30
0.0
  0
POINT
  5
957
330
94F
100
AcDbEntity
  8
DEFPOINTS
  6
ByBlock
 62
     0
100
AcDbPoint
 10
511.7630683594346
 20
277.6537311485332
 30
0.0
  0
POINT
  5
958
330
94F
100
AcDbEntity
  8
DEFPOINTS
  6
ByBlock
 62
     0
100
AcDbPoint
 10
511.7630683594346
 20
170.6885362586613
 30
0.0
  0
ENDBLK
  5
959
330
94F
100
AcDbEntity
  8
0
100
AcDbBlockEnd
  0
BLOCK
  5
1A1F
330
1A1E
100
AcDbEntity
  8
0
100
AcDbBlockBegin
  2
*D29
 70
     1
 10
0.0
 20
0.0
 30
0.0
  3
*D29
  1

  0
LINE
  5
1A20
330
1A1E
100
AcDbEntity
  8
0
  6
ByBlock
 62
     2
100
AcDbLine
 10
421.7630683594347
 20
162.1542048890818
 30
0.0
 11
421.7630683594347
 21
131.8237595128686
 31
0.0
  0
LINE
  5
1A21
330
1A1E
100
AcDbEntity
  8
0
  6
ByBlock
 62
     2
100
AcDbLine
 10
-78.23693164056533
 20
134.1145546991789
 30
0.0
 11
-78.23693164056533
 21
131.8237595128686
 31
0.0
  0
LINE
  5
1A22
330
1A1E
100
AcDbEntity
  8
0
  6
ByBlock
 62
     2
100
AcDbLine
 10
419.2630683594346
 20
133.0737595128686
 30
0.0
 11
-75.73693164056533
 21
133.0737595128686
 31
0.0
  0
INSERT
  5
1A23
330
1A1E
100
AcDbEntity
  8
0
  6
ByBlock
 62
     2
100
AcDbBlockReference
  2
_OPEN
 10
421.7630683594347
 20
133.0737595128686
 30
0.0
 41
2.5
 42
2.5
 43
2.5
  0
INSERT
  5
1A24
330
1A1E
100
AcDbEntity
  8
0
  6
ByBlock
 62
     2
100
AcDbBlockReference
  2
_OPEN
 10
-78.23693164056533
 20
133.0737595128686
 30
0.0
 41
2.5
 42
2.5
 43
2.5
 50
180.0
  0
MTEXT
  5
1A25
330
1A1E
100
AcDbEntity
  8
0
  6
ByBlock
 62
     6
100
AcDbMText
 10
171.7630683594346
 20
134.9487595128686
 30
0.0
 40
2.5
 41
0.0
 71
     5
 72
     1
  1
\A1;500
  7
STYLE3
 73
     1
 44
1.0
  0
POINT
  5
1A26
330
1A1E
100
AcDbEntity
  8
DEFPOINTS
  6
ByBlock
 62
     0
100
AcDbPoint
 10
421.7630683594347
 20
162.1542048890818
 30
0.0
  0
POINT
  5
1A27
330
1A1E
100
AcDbEntity
  8
DEFPOINTS
  6
ByBlock
 62
     0
100
AcDbPoint
 10
-78.23693164056533
 20
134.1145546991789
 30
0.0
  0
POINT
  5
1A28
330
1A1E
100
AcDbEntity
  8
DEFPOINTS
  6
ByBlock
 62
     0
100
AcDbPoint
 10
-78.23693164056533
 20
133.0737595128686
 30
0.0
  0
ENDBLK
  5
1A29
330
1A1E
100
AcDbEntity
  8
0
100
AcDbBlockEnd
  0
BLOCK
  5
1B40
330
1AE5
100
AcDbEntity
  8
0
100
AcDbBlockBegin
  2
*D30
 70
     1
 10
0.0
 20
0.0
 30
0.0
  3
*D30
  1

  0
LINE
  5
1B41
330
1AE5
100
AcDbEntity
  8
0
  6
ByBlock
 62
     2
100
AcDbLine
 10
-78.23693164056533
 20
364.1081162981869
 30
0.0
 11
-119.2012017000033
 21
364.1081162981869
 31
0.0
  0
LINE
  5
1B42
330
1AE5
100
AcDbEntity
  8
0
  6
ByBlock
 62
     2
100
AcDbLine
 10
-115.4274214698325
 20
323.1081162981869
 30
0.0
 11
-119.2012017000033
 21
323.1081162981869
 31
0.0
  0
LINE
  5
1B43
330
1AE5
100
AcDbEntity
  8
0
  6
ByBlock
 62
     2
100
AcDbLine
 10
-117.9512017000033
 20
361.6081162981869
 30
0.0
 11
-117.9512017000033
 21
325.6081162981869
 31
0.0
  0
INSERT
  5
1B44
330
1AE5
100
AcDbEntity
  8
0
  6
ByBlock
 62
     2
100
AcDbBlockReference
  2
_OPEN
 10
-117.9512017000033
 20
364.1081162981869
 30
0.0
 41
2.5
 42
2.5
 43
2.5
 50
90.0
  0
INSERT
  5
1B45
330
1AE5
100
AcDbEntity
  8
0
  6
ByBlock
 62
     2
100
AcDbBlockReference
  2
_OPEN
 10
-117.9512017000033
 20
323.1081162981869
 30
0.0
 41
2.5
 42
2.5
 43
2.5
 50
270.0
  0
MTEXT
  5
1B46
330
1AE5
100
AcDbEntity
  8
0
  6
ByBlock
 62
     6
100
AcDbMText
 10
-119.8262017000033
 20
343.6081162981869
 30
0.0
 40
2.5
 41
0.0
 71
     5
 72
     1
  1
\A1;41
  7
STYLE3
 11
0.0000000000000001
 21
1.0
 31
0.0
 73
     1
 44
1.0
  0
POINT
  5
1B47
330
1AE5
100
AcDbEntity
  8
DEFPOINTS
  6
ByBlock
 62
     0
100
AcDbPoint
 10
-78.23693164056533
 20
364.1081162981869
 30
0.0
  0
POINT
  5
1B48
330
1AE5
100
AcDbEntity
  8
DEFPOINTS
  6
ByBlock
 62
     0
100
AcDbPoint
 10
-115.4274214698325
 20
323.1081162981869
 30
0.0
  0
POINT
  5
1B49
330
1AE5
100
AcDbEntity
  8
DEFPOINTS
  6
ByBlock
 62
     0
100
AcDbPoint
 10
-117.9512017000033
 20
323.1081162981869
 30
0.0
  0
ENDBLK
  5
1B4A
330
1AE5
100
AcDbEntity
  8
0
100
AcDbBlockEnd
  0
BLOCK
  5
1B4B
330
1AF2
100
AcDbEntity
  8
0
100
AcDbBlockBegin
  2
*D31
 70
     1
 10
0.0
 20
0.0
 30
0.0
  3
*D31
  1

  0
LINE
  5
1B4C
330
1AF2
100
AcDbEntity
  8
0
  6
ByBlock
 62
     2
100
AcDbLine
 10
-92.23693164056545
 20
261.8081162981868
 30
0.0
 11
-119.2012017000033
 21
261.8081162981868
 31
0.0
  0
LINE
  5
1B4D
330
1AF2
100
AcDbEntity
  8
0
  6
ByBlock
 62
     2
100
AcDbLine
 10
-117.9512017000033
 20
320.6081162981869
 30
0.0
 11
-117.9512017000033
 21
264.3081162981868
 31
0.0
  0
INSERT
  5
1B4E
330
1AF2
100
AcDbEntity
  8
0
  6
ByBlock
 62
     2
100
AcDbBlockReference
  2
_OPEN
 10
-117.9512017000033
 20
323.1081162981869
 30
0.0
 41
2.5
 42
2.5
 43
2.5
 50
90.0
  0
INSERT
  5
1B4F
330
1AF2
100
AcDbEntity
  8
0
  6
ByBlock
 62
     2
100
AcDbBlockReference
  2
_OPEN
 10
-117.9512017000033
 20
261.8081162981868
 30
0.0
 41
2.5
 42
2.5
 43
2.5
 50
270.0
  0
MTEXT
  5
1B50
330
1AF2
100
AcDbEntity
  8
0
  6
ByBlock
 62
     6
100
AcDbMText
 10
-119.8262017000033
 20
292.4581162981868
 30
0.0
 40
2.5
 41
0.0
 71
     5
 72
     1
  1
\A1;61.3
  7
STYLE3
 11
0.0000000000000001
 21
1.0
 31
0.0
 73
     1
 44
1.0
  0
POINT
  5
1B51
330
1AF2
100
AcDbEntity
  8
DEFPOINTS
  6
ByBlock
 62
     0
100
AcDbPoint
 10
-115.4274214698325
 20
323.1081162981869
 30
0.0
  0
POINT
  5
1B52
330
1AF2
100
AcDbEntity
  8
DEFPOINTS
  6
ByBlock
 62
     0
100
AcDbPoint
 10
-92.23693164056545
 20
261.8081162981868
 30
0.0
  0
POINT
  5
1B53
330
1AF2
100
AcDbEntity
  8
DEFPOINTS
  6
ByBlock
 62
     0
100
AcDbPoint
 10
-117.9512017000033
 20
261.8081162981868
 30
0.0
  0
ENDBLK
  5
1B54
330
1AF2
100
AcDbEntity
  8
0
100
AcDbBlockEnd
  0
BLOCK
  5
1B22
330
1AFE
100
AcDbEntity
  8
0
100
AcDbBlockBegin
  2
*D32
 70
     1
 10
0.0
 20
0.0
 30
0.0
  3
*D32
  1

  0
LINE
  5
1B23
330
1AFE
100
AcDbEntity
  8
0
  6
ByBlock
 62
     2
100
AcDbLine
 10
-87.23693164056545
 20
206.8081162981869
 30
0.0
 11
-119.2012017000033
 21
206.8081162981869
 31
0.0
  0
LINE
  5
1B24
330
1AFE
100
AcDbEntity
  8
0
  6
ByBlock
 62
     2
100
AcDbLine
 10
-117.9512017000033
 20
259.3081162981868
 30
0.0
 11
-117.9512017000033
 21
209.3081162981869
 31
0.0
  0
INSERT
  5
1B25
330
1AFE
100
AcDbEntity
  8
0
  6
ByBlock
 62
     2
100
AcDbBlockReference
  2
_OPEN
 10
-117.9512017000033
 20
261.8081162981868
 30
0.0
 41
2.5
 42
2.5
 43
2.5
 50
90.0
  0
INSERT
  5
1B26
330
1AFE
100
AcDbEntity
  8
0
  6
ByBlock
 62
     2
100
AcDbBlockReference
  2
_OPEN
 10
-117.9512017000033
 20
206.8081162981869
 30
0.0
 41
2.5
 42
2.5
 43
2.5
 50
270.0
  0
MTEXT
  5
1B27
330
1AFE
100
AcDbEntity
  8
0
  6
ByBlock
 62
     6
100
AcDbMText
 10
-119.8262017000033
 20
234.3081162981868
 30
0.0
 40
2.5
 41
0.0
 71
     5
 72
     1
  1
\A1;55
  7
STYLE3
 11
0.0000000000000001
 21
1.0
 31
0.0
 73
     1
 44
1.0
  0
POINT
  5
1B28
330
1AFE
100
AcDbEntity
  8
DEFPOINTS
  6
ByBlock
 62
     0
100
AcDbPoint
 10
-92.23693164056545
 20
261.8081162981868
 30
0.0
  0
POINT
  5
1B29
330
1AFE
100
AcDbEntity
  8
DEFPOINTS
  6
ByBlock
 62
     0
100
AcDbPoint
 10
-87.23693164056545
 20
206.8081162981869
 30
0.0
  0
POINT
  5
1B2A
330
1AFE
100
AcDbEntity
  8
DEFPOINTS
  6
ByBlock
 62
     0
100
AcDbPoint
 10
-117.9512017000033
 20
206.8081162981869
 30
0.0
  0
ENDBLK
  5
1B2B
330
1AFE
100
AcDbEntity
  8
0
100
AcDbBlockEnd
  0
BLOCK
  5
1B36
330
1B0A
100
AcDbEntity
  8
0
100
AcDbBlockBegin
  2
*D33
 70
     1
 10
0.0
 20
0.0
 30
0.0
  3
*D33
  1

  0
LINE
  5
1B37
330
1B0A
100
AcDbEntity
  8
0
  6
ByBlock
 62
     2
100
AcDbLine
 10
-87.23693164056532
 20
165.8081162981868
 30
0.0
 11
-119.2012017000033
 21
165.8081162981868
 31
0.0
  0
LINE
  5
1B38
330
1B0A
100
AcDbEntity
  8
0
  6
ByBlock
 62
     2
100
AcDbLine
 10
-117.9512017000033
 20
204.3081162981869
 30
0.0
 11
-117.9512017000033
 21
168.3081162981868
 31
0.0
  0
INSERT
  5
1B39
330
1B0A
100
AcDbEntity
  8
0
  6
ByBlock
 62
     2
100
AcDbBlockReference
  2
_OPEN
 10
-117.9512017000033
 20
206.8081162981869
 30
0.0
 41
2.5
 42
2.5
 43
2.5
 50
90.0
  0
INSERT
  5
1B3A
330
1B0A
100
AcDbEntity
  8
0
  6
ByBlock
 62
     2
100
AcDbBlockReference
  2
_OPEN
 10
-117.9512017000033
 20
165.8081162981868
 30
0.0
 41
2.5
 42
2.5
 43
2.5
 50
270.0
  0
MTEXT
  5
1B3B
330
1B0A
100
AcDbEntity
  8
0
  6
ByBlock
 62
     6
100
AcDbMText
 10
-119.8262017000033
 20
186.3081162981868
 30
0.0
 40
2.5
 41
0.0
 71
     5
 72
     1
  1
\A1;41
  7
STYLE3
 11
0.0000000000000001
 21
1.0
 31
0.0
 73
     1
 44
1.0
  0
POINT
  5
1B3C
330
1B0A
100
AcDbEntity
  8
DEFPOINTS
  6
ByBlock
 62
     0
100
AcDbPoint
 10
-87.23693164056545
 20
206.8081162981869
 30
0.0
  0
POINT
  5
1B3D
330
1B0A
100
AcDbEntity
  8
DEFPOINTS
  6
ByBlock
 62
     0
100
AcDbPoint
 10
-87.23693164056532
 20
165.8081162981868
 30
0.0
  0
POINT
  5
1B3E
330
1B0A
100
AcDbEntity
  8
DEFPOINTS
  6
ByBlock
 62
     0
100
AcDbPoint
 10
-117.9512017000033
 20
165.8081162981868
 30
0.0
  0
ENDBLK
  5
1B3F
330
1B0A
100
AcDbEntity
  8
0
100
AcDbBlockEnd
  0
BLOCK
  5
1B2C
330
1B16
100
AcDbEntity
  8
0
100
AcDbBlockBegin
  2
*D34
 70
     1
 10
0.0
 20
0.0
 30
0.0
  3
*D34
  1

  0
LINE
  5
1B2D
330
1B16
100
AcDbEntity
  8
0
  6
ByBlock
 62
     2
100
AcDbLine
 10
-33.23693164056534
 20
138.8081162981867
 30
0.0
 11
-119.2012017000033
 21
138.8081162981867
 31
0.0
  0
LINE
  5
1B2E
330
1B16
100
AcDbEntity
  8
0
  6
ByBlock
 62
     2
100
AcDbLine
 10
-117.9512017000033
 20
163.3081162981868
 30
0.0
 11
-117.9512017000033
 21
141.3081162981868
 31
0.0
  0
INSERT
  5
1B2F
330
1B16
100
AcDbEntity
  8
0
  6
ByBlock
 62
     2
100
AcDbBlockReference
  2
_OPEN
 10
-117.9512017000033
 20
165.8081162981868
 30
0.0
 41
2.5
 42
2.5
 43
2.5
 50
90.0
  0
INSERT
  5
1B30
330
1B16
100
AcDbEntity
  8
0
  6
ByBlock
 62
     2
100
AcDbBlockReference
  2
_OPEN
 10
-117.9512017000033
 20
138.8081162981867
 30
0.0
 41
2.5
 42
2.5
 43
2.5
 50
270.0
  0
MTEXT
  5
1B31
330
1B16
100
AcDbEntity
  8
0
  6
ByBlock
 62
     6
100
AcDbMText
 10
-119.8262017000033
 20
152.3081162981868
 30
0.0
 40
2.5
 41
0.0
 71
     5
 72
     1
  1
\A1;27
  7
STYLE3
 11
0.0000000000000001
 21
1.0
 31
0.0
 73
     1
 44
1.0
  0
POINT
  5
1B32
330
1B16
100
AcDbEntity
  8
DEFPOINTS
  6
ByBlock
 62
     0
100
AcDbPoint
 10
-87.23693164056532
 20
165.8081162981868
 30
0.0
  0
POINT
  5
1B33
330
1B16
100
AcDbEntity
  8
DEFPOINTS
  6
ByBlock
 62
     0
100
AcDbPoint
 10
-33.23693164056534
 20
138.8081162981867
 30
0.0
  0
POINT
  5
1B34
330
1B16
100
AcDbEntity
  8
DEFPOINTS
  6
ByBlock
 62
     0
100
AcDbPoint
 10
-117.9512017000033
 20
138.8081162981867
 30
0.0
  0
ENDBLK
  5
1B35
330
1B16
100
AcDbEntity
  8
0
100
AcDbBlockEnd
  0
BLOCK
  5
1B56
330
1B55
100
AcDbEntity
  8
0
100
AcDbBlockBegin
  2
*D35
 70
     1
 10
0.0
 20
0.0
 30
0.0
  3
*D35
  1

  0
LINE
  5
1B57
330
1B55
100
AcDbEntity
  8
0
  6
ByBlock
 62
     2
100
AcDbLine
 10
-119.2012017000033
 20
364.1081162981869
 30
0.0
 11
-125.4913251602872
 21
364.1081162981869
 31
0.0
  0
LINE
  5
1B58
330
1B55
100
AcDbEntity
  8
0
  6
ByBlock
 62
     2
100
AcDbLine
 10
-119.2012017000033
 20
138.8081162981867
 30
0.0
 11
-125.4913251602872
 21
138.8081162981867
 31
0.0
  0
LINE
  5
1B59
330
1B55
100
AcDbEntity
  8
0
  6
ByBlock
 62
     2
100
AcDbLine
 10
-124.2413251602872
 20
361.6081162981869
 30
0.0
 11
-124.2413251602872
 21
141.3081162981868
 31
0.0
  0
INSERT
  5
1B5A
330
1B55
100
AcDbEntity
  8
0
  6
ByBlock
 62
     2
100
AcDbBlockReference
  2
_OPEN
 10
-124.2413251602872
 20
364.1081162981869
 30
0.0
 41
2.5
 42
2.5
 43
2.5
 50
90.0
  0
INSERT
  5
1B5B
330
1B55
100
AcDbEntity
  8
0
  6
ByBlock
 62
     2
100
AcDbBlockReference
  2
_OPEN
 10
-124.2413251602872
 20
138.8081162981867
 30
0.0
 41
2.5
 42
2.5
 43
2.5
 50
270.0
  0
MTEXT
  5
1B5C
330
1B55
100
AcDbEntity
  8
0
  6
ByBlock
 62
     6
100
AcDbMText
 10
-126.1163251602872
 20
251.4581162981869
 30
0.0
 40
2.5
 41
0.0
 71
     5
 72
     1
  1
\A1;225.3
  7
STYLE3
 11
0.0000000000000001
 21
1.0
 31
0.0
 73
     1
 44
1.0
  0
POINT
  5
1B5D
330
1B55
100
AcDbEntity
  8
DEFPOINTS
  6
ByBlock
 62
     0
100
AcDbPoint
 10
-119.2012017000033
 20
364.1081162981869
 30
0.0
  0
POINT
  5
1B5E
330
1B55
100
AcDbEntity
  8
DEFPOINTS
  6
ByBlock
 62
     0
100
AcDbPoint
 10
-119.2012017000033
 20
138.8081162981867
 30
0.0
  0
POINT
  5
1B5F
330
1B55
100
AcDbEntity
  8
DEFPOINTS
  6
ByBlock
 62
     0
100
AcDbPoint
 10
-124.2413251602872
 20
138.8081162981867
 30
0.0
  0
ENDBLK
  5
1B60
330
1B55
100
AcDbEntity
  8
0
100
AcDbBlockEnd
  0
BLOCK
  5
1C67
330
1B62
100
AcDbEntity
  8
0
100
AcDbBlockBegin
  2
*D36
 70
     1
 10
0.0
 20
0.0
 30
0.0
  3
*D36
  1

  0
LINE
  5
1C68
330
1B62
100
AcDbEntity
  8
0
  6
ByBlock
 62
     2
100
AcDbLine
 10
-107.2369316405653
 20
323.1081162981869
 30
0.0
 11
-107.2369316405653
 21
369.3095225565831
 31
0.0
  0
LINE
  5
1C69
330
1B62
100
AcDbEntity
  8
0
  6
ByBlock
 62
     2
100
AcDbLine
 10
-49.23693164056533
 20
323.1081162981869
 30
0.0
 11
-49.23693164056533
 21
369.3095225565831
 31
0.0
  0
LINE
  5
1C6A
330
1B62
100
AcDbEntity
  8
0
  6
ByBlock
 62
     2
100
AcDbLine
 10
-104.7369316405653
 20
368.0595225565832
 30
0.0
 11
-51.73693164056533
 21
368.0595225565832
 31
0.0
  0
INSERT
  5
1C6B
330
1B62
100
AcDbEntity
  8
0
  6
ByBlock
 62
     2
100
AcDbBlockReference
  2
_OPEN
 10
-107.2369316405653
 20
368.0595225565832
 30
0.0
 41
2.5
 42
2.5
 43
2.5
 50
180.0
  0
INSERT
  5
1C6C
330
1B62
100
AcDbEntity
  8
0
  6
ByBlock
 62
     2
100
AcDbBlockReference
  2
_OPEN
 10
-49.23693164056533
 20
368.0595225565832
 30
0.0
 41
2.5
 42
2.5
 43
2.5
  0
MTEXT
  5
1C6D
330
1B62
100
AcDbEntity
  8
0
  6
ByBlock
 62
     6
100
AcDbMText
 10
-78.23693164056533
 20
369.9345225565831
 30
0.0
 40
2.5
 41
0.0
 71
     5
 72
     1
  1
\A1;φ58
  7
STYLE3
 73
     1
 44
1.0
  0
POINT
  5
1C6E
330
1B62
100
AcDbEntity
  8
DEFPOINTS
  6
ByBlock
 62
     0
100
AcDbPoint
 10
-107.2369316405653
 20
323.1081162981869
 30
0.0
  0
POINT
  5
1C6F
330
1B62
100
AcDbEntity
  8
DEFPOINTS
  6
ByBlock
 62
     0
100
AcDbPoint
 10
-49.23693164056533
 20
323.1081162981869
 30
0.0
  0
POINT
  5
1C70
330
1B62
100
AcDbEntity
  8
DEFPOINTS
  6
ByBlock
 62
     0
100
AcDbPoint
 10
-49.23693164056533
 20
368.0595225565832
 30
0.0
  0
ENDBLK
  5
1C71
330
1B62
100
AcDbEntity
  8
0
100
AcDbBlockEnd
  0
BLOCK
  5
1C5C
330
1B6F
100
AcDbEntity
  8
0
100
AcDbBlockBegin
  2
*D37
 70
     1
 10
0.0
 20
0.0
 30
0.0
  3
*D37
  1

  0
LINE
  5
1C5D
330
1B6F
100
AcDbEntity
  8
0
  6
ByBlock
 62
     2
100
AcDbLine
 10
-44.98693164056533
 20
323.1081162981869
 30
0.0
 11
-44.98693164056533
 21
375.6990606182909
 31
0.0
  0
LINE
  5
1C5E
330
1B6F
100
AcDbEntity
  8
0
  6
ByBlock
 62
     2
100
AcDbLine
 10
-111.4869316405653
 20
323.1081162981869
 30
0.0
 11
-111.4869316405653
 21
375.6990606182909
 31
0.0
  0
LINE
  5
1C5F
330
1B6F
100
AcDbEntity
  8
0
  6
ByBlock
 62
     2
100
AcDbLine
 10
-47.48693164056533
 20
374.4490606182909
 30
0.0
 11
-108.9869316405653
 21
374.4490606182909
 31
0.0
  0
INSERT
  5
1C60
330
1B6F
100
AcDbEntity
  8
0
  6
ByBlock
 62
     2
100
AcDbBlockReference
  2
_OPEN
 10
-44.98693164056533
 20
374.4490606182909
 30
0.0
 41
2.5
 42
2.5
 43
2.5
  0
INSERT
  5
1C61
330
1B6F
100
AcDbEntity
  8
0
  6
ByBlock
 62
     2
100
AcDbBlockReference
  2
_OPEN
 10
-111.4869316405653
 20
374.4490606182909
 30
0.0
 41
2.5
 42
2.5
 43
2.5
 50
180.0
  0
MTEXT
  5
1C62
330
1B6F
100
AcDbEntity
  8
0
  6
ByBlock
 62
     6
100
AcDbMText
 10
-78.23693164056533
 20
376.3240606182909
 30
0.0
 40
2.5
 41
0.0
 71
     5
 72
     1
  1
\A1;φ66.5
  7
STYLE3
 73
     1
 44
1.0
  0
POINT
  5
1C63
330
1B6F
100
AcDbEntity
  8
DEFPOINTS
  6
ByBlock
 62
     0
100
AcDbPoint
 10
-44.98693164056533
 20
323.1081162981869
 30
0.0
  0
POINT
  5
1C64
330
1B6F
100
AcDbEntity
  8
DEFPOINTS
  6
ByBlock
 62
     0
100
AcDbPoint
 10
-111.4869316405653
 20
323.1081162981869
 30
0.0
  0
POINT
  5
1C65
330
1B6F
100
AcDbEntity
  8
DEFPOINTS
  6
ByBlock
 62
     0
100
AcDbPoint
 10
-111.4869316405653
 20
374.4490606182909
 30
0.0
  0
ENDBLK
  5
1C66
330
1B6F
100
AcDbEntity
  8
0
100
AcDbBlockEnd
  0
BLOCK
  5
1B93
330
1B92
100
AcDbEntity
  8
0
100
AcDbBlockBegin
  2
*D38
 70
     1
 10
0.0
 20
0.0
 30
0.0
  3
*D38
  1

  0
LINE
  5
1B94
330
1B92
100
AcDbEntity
  8
0
  6
ByBlock
 62
     2
100
AcDbLine
 10
-88.23693164056534
 20
213.8081162981869
 30
0.0
 11
-112.3464968586299
 21
213.8081162981869
 31
0.0
  0
LINE
  5
1B95
330
1B92
100
AcDbEntity
  8
0
  6
ByBlock
 62
     2
100
AcDbLine
 10
-104.7037220767545
 20
206.8081162981869
 30
0.0
 11
-112.3464968586299
 21
206.8081162981869
 31
0.0
  0
LINE
  5
1B96
330
1B92
100
AcDbEntity
  8
0
  6
ByBlock
 62
     2
100
AcDbLine
 10
-111.0964968586299
 20
211.3081162981868
 30
0.0
 11
-111.0964968586299
 21
209.3081162981869
 31
0.0
  0
INSERT
  5
1B97
330
1B92
100
AcDbEntity
  8
0
  6
ByBlock
 62
     2
100
AcDbBlockReference
  2
_OPEN
 10
-111.0964968586299
 20
213.8081162981869
 30
0.0
 41
2.5
 42
2.5
 43
2.5
 50
90.0
  0
INSERT
  5
1B98
330
1B92
100
AcDbEntity
  8
0
  6
ByBlock
 62
     2
100
AcDbBlockReference
  2
_OPEN
 10
-111.0964968586299
 20
206.8081162981869
 30
0.0
 41
2.5
 42
2.5
 43
2.5
 50
270.0
  0
MTEXT
  5
1B99
330
1B92
100
AcDbEntity
  8
0
  6
ByBlock
 62
     6
100
AcDbMText
 10
-112.9714968586299
 20
210.3081162981868
 30
0.0
 40
2.5
 41
0.0
 71
     5
 72
     1
  1
\A1;7
  7
STYLE3
 11
0.0000000000000001
 21
1.0
 31
0.0
 73
     1
 44
1.0
  0
POINT
  5
1B9A
330
1B92
100
AcDbEntity
  8
DEFPOINTS
  6
ByBlock
 62
     0
100
AcDbPoint
 10
-88.23693164056534
 20
213.8081162981869
 30
0.0
  0
POINT
  5
1B9B
330
1B92
100
AcDbEntity
  8
DEFPOINTS
  6
ByBlock
 62
     0
100
AcDbPoint
 10
-104.7037220767545
 20
206.8081162981869
 30
0.0
  0
POINT
  5
1B9C
330
1B92
100
AcDbEntity
  8
DEFPOINTS
  6
ByBlock
 62
     0
100
AcDbPoint
 10
-111.0964968586299
 20
206.8081162981869
 30
0.0
  0
ENDBLK
  5
1B9D
330
1B92
100
AcDbEntity
  8
0
100
AcDbBlockEnd
  0
BLOCK
  5
1BAC
330
1B9F
100
AcDbEntity
  8
0
100
AcDbBlockBegin
  2
*D39
 70
     1
 10
0.0
 20
0.0
 30
0.0
  3
*D39
  1

  0
LINE
  5
1BAD
330
1B9F
100
AcDbEntity
  8
0
  6
ByBlock
 62
     2
100
AcDbLine
 10
-88.23693164056534
 20
211.3081162981868
 30
0.0
 11
-88.23693164056534
 21
185.5085100045045
 31
0.0
  0
LINE
  5
1BAE
330
1B9F
100
AcDbEntity
  8
0
  6
ByBlock
 62
     2
100
AcDbLine
 10
-68.23693164056535
 20
211.3081162981868
 30
0.0
 11
-68.23693164056535
 21
185.5085100045045
 31
0.0
  0
LINE
  5
1BAF
330
1B9F
100
AcDbEntity
  8
0
  6
ByBlock
 62
     2
100
AcDbLine
 10
-85.73693164056534
 20
186.7585100045045
 30
0.0
 11
-70.73693164056535
 21
186.7585100045045
 31
0.0
  0
INSERT
  5
1BB0
330
1B9F
100
AcDbEntity
  8
0
  6
ByBlock
 62
     2
100
AcDbBlockReference
  2
_OPEN
 10
-88.23693164056534
 20
186.7585100045045
 30
0.0
 41
2.5
 42
2.5
 43
2.5
 50
180.0
  0
INSERT
  5
1BB1
330
1B9F
100
AcDbEntity
  8
0
  6
ByBlock
 62
     2
100
AcDbBlockReference
  2
_OPEN
 10
-68.23693164056535
 20
186.7585100045045
 30
0.0
 41
2.5
 42
2.5
 43
2.5
  0
MTEXT
  5
1BB2
330
1B9F
100
AcDbEntity
  8
0
  6
ByBlock
 62
     6
100
AcDbMText
 10
-78.23693164056535
 20
188.6335100045045
 30
0.0
 40
2.5
 41
0.0
 71
     5
 72
     1
  1
\A1;φ20
  7
STYLE3
 73
     1
 44
1.0
  0
POINT
  5
1BB3
330
1B9F
100
AcDbEntity
  8
DEFPOINTS
  6
ByBlock
 62
     0
100
AcDbPoint
 10
-88.23693164056534
 20
211.3081162981868
 30
0.0
  0
POINT
  5
1BB4
330
1B9F
100
AcDbEntity
  8
DEFPOINTS
  6
ByBlock
 62
     0
100
AcDbPoint
 10
-68.23693164056535
 20
211.3081162981868
 30
0.0
  0
POINT
  5
1BB5
330
1B9F
100
AcDbEntity
  8
DEFPOINTS
  6
ByBlock
 62
     0
100
AcDbPoint
 10
-68.23693164056535
 20
186.7585100045045
 30
0.0
  0
ENDBLK
  5
1BB6
330
1B9F
100
AcDbEntity
  8
0
100
AcDbBlockEnd
  0
BLOCK
  5
1BED
330
1BDE
100
AcDbEntity
  8
0
100
AcDbBlockBegin
  2
*D40
 70
     1
 10
0.0
 20
0.0
 30
0.0
  3
*D40
  1

  0
LINE
  5
1BEE
330
1BDE
100
AcDbEntity
  8
0
  6
ByBlock
 62
     2
100
AcDbLine
 10
-80.73693164056534
 20
251.379074985122
 30
0.0
 11
-80.73693164056534
 21
249.101460472706
 31
0.0
  0
LINE
  5
1BEF
330
1BDE
100
AcDbEntity
  8
0
  6
ByBlock
 62
     2
100
AcDbLine
 10
-75.73693164056533
 20
250.7918659051485
 30
0.0
 11
-75.73693164056533
 21
249.101460472706
 31
0.0
  0
LINE
  5
1BF0
330
1BDE
100
AcDbEntity
  8
0
  6
ByBlock
 62
     2
100
AcDbLine
 10
-83.23693164056534
 20
250.351460472706
 30
0.0
 11
-85.73693164056534
 21
250.351460472706
 31
0.0
  0
LINE
  5
1BF1
330
1BDE
100
AcDbEntity
  8
0
  6
ByBlock
 62
     2
100
AcDbLine
 10
-73.23693164056533
 20
250.351460472706
 30
0.0
 11
-64.96312211675581
 21
250.351460472706
 31
0.0
  0
LINE
  5
1BF2
330
1BDE
100
AcDbEntity
  8
0
  6
ByBlock
 62
     2
100
AcDbLine
 10
-80.73693164056534
 20
250.351460472706
 30
0.0
 11
-75.73693164056533
 21
250.351460472706
 31
0.0
  0
INSERT
  5
1BF3
330
1BDE
100
AcDbEntity
  8
0
  6
ByBlock
 62
     2
100
AcDbBlockReference
  2
_OPEN
 10
-80.73693164056534
 20
250.351460472706
 30
0.0
 41
2.5
 42
2.5
 43
2.5
  0
INSERT
  5
1BF4
330
1BDE
100
AcDbEntity
  8
0
  6
ByBlock
 62
     2
100
AcDbBlockReference
  2
_OPEN
 10
-75.73693164056533
 20
250.351460472706
 30
0.0
 41
2.5
 42
2.5
 43
2.5
 50
180.0
  0
MTEXT
  5
1BF5
330
1BDE
100
AcDbEntity
  8
0
  6
ByBlock
 62
     6
100
AcDbMText
 10
-67.85002687866057
 20
252.226460472706
 30
0.0
 40
2.5
 41
0.0
 71
     5
 72
     1
  1
\A1;φ5
  7
STYLE3
 73
     1
 44
1.0
  0
POINT
  5
1BF6
330
1BDE
100
AcDbEntity
  8
DEFPOINTS
  6
ByBlock
 62
     0
100
AcDbPoint
 10
-80.73693164056534
 20
251.379074985122
 30
0.0
  0
POINT
  5
1BF7
330
1BDE
100
AcDbEntity
  8
DEFPOINTS
  6
ByBlock
 62
     0
100
AcDbPoint
 10
-75.73693164056533
 20
250.7918659051485
 30
0.0
  0
POINT
  5
1BF8
330
1BDE
100
AcDbEntity
  8
DEFPOINTS
  6
ByBlock
 62
     0
100
AcDbPoint
 10
-75.73693164056533
 20
250.351460472706
 30
0.0
  0
ENDBLK
  5
1BF9
330
1BDE
100
AcDbEntity
  8
0
100
AcDbBlockEnd
  0
BLOCK
  5
1C07
330
1BFA
100
AcDbEntity
  8
0
100
AcDbBlockBegin
  2
*D41
 70
     1
 10
0.0
 20
0.0
 30
0.0
  3
*D41
  1

  0
LINE
  5
1C08
330
1BFA
100
AcDbEntity
  8
0
  6
ByBlock
 62
     2
100
AcDbLine
 10
-83.23693164056534
 20
176.603017351135
 30
0.0
 11
-83.23693164056534
 21
174.6190068276906
 31
0.0
  0
LINE
  5
1C09
330
1BFA
100
AcDbEntity
  8
0
  6
ByBlock
 62
     2
100
AcDbLine
 10
-73.23693164056533
 20
177.3370278745793
 30
0.0
 11
-73.23693164056533
 21
174.6190068276906
 31
0.0
  0
LINE
  5
1C0A
330
1BFA
100
AcDbEntity
  8
0
  6
ByBlock
 62
     2
100
AcDbLine
 10
-80.73693164056534
 20
175.8690068276906
 30
0.0
 11
-75.73693164056533
 21
175.8690068276906
 31
0.0
  0
INSERT
  5
1C0B
330
1BFA
100
AcDbEntity
  8
0
  6
ByBlock
 62
     2
100
AcDbBlockReference
  2
_OPEN
 10
-83.23693164056534
 20
175.8690068276906
 30
0.0
 41
2.5
 42
2.5
 43
2.5
 50
180.0
  0
INSERT
  5
1C0C
330
1BFA
100
AcDbEntity
  8
0
  6
ByBlock
 62
     2
100
AcDbBlockReference
  2
_OPEN
 10
-73.23693164056533
 20
175.8690068276906
 30
0.0
 41
2.5
 42
2.5
 43
2.5
  0
MTEXT
  5
1C0D
330
1BFA
100
AcDbEntity
  8
0
  6
ByBlock
 62
     6
100
AcDbMText
 10
-78.23693164056533
 20
177.7440068276906
 30
0.0
 40
2.5
 41
0.0
 71
     5
 72
     1
  1
\A1;φ10
  7
STYLE3
 73
     1
 44
1.0
  0
POINT
  5
1C0E
330
1BFA
100
AcDbEntity
  8
DEFPOINTS
  6
ByBlock
 62
     0
100
AcDbPoint
 10
-83.23693164056534
 20
176.603017351135
 30
0.0
  0
POINT
  5
1C0F
330
1BFA
100
AcDbEntity
  8
DEFPOINTS
  6
ByBlock
 62
     0
100
AcDbPoint
 10
-73.23693164056533
 20
177.3370278745793
 30
0.0
  0
POINT
  5
1C10
330
1BFA
100
AcDbEntity
  8
DEFPOINTS
  6
ByBlock
 62
     0
100
AcDbPoint
 10
-73.23693164056533
 20
175.8690068276906
 30
0.0
  0
ENDBLK
  5
1C11
330
1BFA
100
AcDbEntity
  8
0
100
AcDbBlockEnd
  0
BLOCK
  5
1C13
330
1C12
100
AcDbEntity
  8
0
100
AcDbBlockBegin
  2
*D42
 70
     1
 10
0.0
 20
0.0
 30
0.0
  3
*D42
  1

  0
LINE
  5
1C14
330
1C12
100
AcDbEntity
  8
0
  6
ByBlock
 62
     2
100
AcDbLine
 10
-182.3825256914657
 20
176.8534448987456
 30
0.0
 11
-182.3825256914657
 21
174.2822252953275
 31
0.0
  0
LINE
  5
1C15
330
1C12
100
AcDbEntity
  8
0
  6
ByBlock
 62
     2
100
AcDbLine
 10
-164.3825256914657
 20
176.2662358187718
 30
0.0
 11
-164.3825256914657
 21
174.2822252953275
 31
0.0
  0
LINE
  5
1C16
330
1C12
100
AcDbEntity
  8
0
  6
ByBlock
 62
     2
100
AcDbLine
 10
-179.8825256914657
 20
175.5322252953275
 30
0.0
 11
-166.8825256914657
 21
175.5322252953275
 31
0.0
  0
INSERT
  5
1C17
330
1C12
100
AcDbEntity
  8
0
  6
ByBlock
 62
     2
100
AcDbBlockReference
  2
_OPEN
 10
-182.3825256914657
 20
175.5322252953275
 30
0.0
 41
2.5
 42
2.5
 43
2.5
 50
180.0
  0
INSERT
  5
1C18
330
1C12
100
AcDbEntity
  8
0
  6
ByBlock
 62
     2
100
AcDbBlockReference
  2
_OPEN
 10
-164.3825256914657
 20
175.5322252953275
 30
0.0
 41
2.5
 42
2.5
 43
2.5
  0
MTEXT
  5
1C19
330
1C12
100
AcDbEntity
  8
0
  6
ByBlock
 62
     6
100
AcDbMText
 10
-173.3825256914657
 20
177.4072252953275
 30
0.0
 40
2.5
 41
0.0
 71
     5
 72
     1
  1
\A1;18
  7
STYLE3
 73
     1
 44
1.0
  0
POINT
  5
1C1A
330
1C12
100
AcDbEntity
  8
DEFPOINTS
  6
ByBlock
 62
     0
100
AcDbPoint
 10
-182.3825256914657
 20
176.8534448987456
 30
0.0
  0
POINT
  5
1C1B
330
1C12
100
AcDbEntity
  8
DEFPOINTS
  6
ByBlock
 62
     0
100
AcDbPoint
 10
-164.3825256914657
 20
176.2662358187718
 30
0.0
  0
POINT
  5
1C1C
330
1C12
100
AcDbEntity
  8
DEFPOINTS
  6
ByBlock
 62
     0
100
AcDbPoint
 10
-164.3825256914657
 20
175.5322252953275
 30
0.0
  0
ENDBLK
  5
1C1D
330
1C12
100
AcDbEntity
  8
0
100
AcDbBlockEnd
  0
BLOCK
  5
1C20
330
1C1F
100
AcDbEntity
  8
0
100
AcDbBlockBegin
  2
*D43
 70
     1
 10
0.0
 20
0.0
 30
0.0
  3
*D43
  1

  0
LINE
  5
1C21
330
1C1F
100
AcDbEntity
  8
0
  6
ByBlock
 62
     2
100
AcDbLine
 10
-185.3825256914657
 20
140.3081162981867
 30
0.0
 11
-185.3825256914657
 21
124.9567110668746
 31
0.0
  0
LINE
  5
1C22
330
1C1F
100
AcDbEntity
  8
0
  6
ByBlock
 62
     2
100
AcDbLine
 10
-161.3825256914657
 20
140.3081162981868
 30
0.0
 11
-161.3825256914657
 21
124.9567110668746
 31
0.0
  0
LINE
  5
1C23
330
1C1F
100
AcDbEntity
  8
0
  6
ByBlock
 62
     2
100
AcDbLine
 10
-182.8825256914657
 20
126.2067110668746
 30
0.0
 11
-163.8825256914657
 21
126.2067110668746
 31
0.0
  0
INSERT
  5
1C24
330
1C1F
100
AcDbEntity
  8
0
  6
ByBlock
 62
     2
100
AcDbBlockReference
  2
_OPEN
 10
-185.3825256914657
 20
126.2067110668746
 30
0.0
 41
2.5
 42
2.5
 43
2.5
 50
180.0
  0
INSERT
  5
1C25
330
1C1F
100
AcDbEntity
  8
0
  6
ByBlock
 62
     2
100
AcDbBlockReference
  2
_OPEN
 10
-161.3825256914657
 20
126.2067110668746
 30
0.0
 41
2.5
 42
2.5
 43
2.5
  0
MTEXT
  5
1C26
330
1C1F
100
AcDbEntity
  8
0
  6
ByBlock
 62
     6
100
AcDbMText
 10
-173.3825256914657
 20
128.0817110668746
 30
0.0
 40
2.5
 41
0.0
 71
     5
 72
     1
  1
\A1;24
  7
STYLE3
 73
     1
 44
1.0
  0
POINT
  5
1C27
330
1C1F
100
AcDbEntity
  8
DEFPOINTS
  6
ByBlock
 62
     0
100
AcDbPoint
 10
-185.3825256914657
 20
140.3081162981867
 30
0.0
  0
POINT
  5
1C28
330
1C1F
100
AcDbEntity
  8
DEFPOINTS
  6
ByBlock
 62
     0
100
AcDbPoint
 10
-161.3825256914657
 20
140.3081162981868
 30
0.0
  0
POINT
  5
1C29
330
1C1F
100
AcDbEntity
  8
DEFPOINTS
  6
ByBlock
 62
     0
100
AcDbPoint
 10
-161.3825256914657
 20
126.2067110668746
 30
0.0
  0
ENDBLK
  5
1C2A
330
1C1F
100
AcDbEntity
  8
0
100
AcDbBlockEnd
  0
BLOCK
  5
1C39
330
1C2C
100
AcDbEntity
  8
0
100
AcDbBlockBegin
  2
*D44
 70
     1
 10
0.0
 20
0.0
 30
0.0
  3
*D44
  1

  0
LINE
  5
1C3A
330
1C2C
100
AcDbEntity
  8
0
  6
ByBlock
 62
     2
100
AcDbLine
 10
-128.471306681533
 20
140.9360230404431
 30
0.0
 11
-128.471306681533
 21
118.4728844029456
 31
0.0
  0
LINE
  5
1C3B
330
1C2C
100
AcDbEntity
  8
0
  6
ByBlock
 62
     2
100
AcDbLine
 10
-218.2937447013984
 20
140.9360230404431
 30
0.0
 11
-218.2937447013984
 21
118.4728844029456
 31
0.0
  0
LINE
  5
1C3C
330
1C2C
100
AcDbEntity
  8
0
  6
ByBlock
 62
     2
100
AcDbLine
 10
-130.971306681533
 20
119.7228844029456
 30
0.0
 11
-215.7937447013984
 21
119.7228844029456
 31
0.0
  0
INSERT
  5
1C3D
330
1C2C
100
AcDbEntity
  8
0
  6
ByBlock
 62
     2
100
AcDbBlockReference
  2
_OPEN
 10
-128.471306681533
 20
119.7228844029456
 30
0.0
 41
2.5
 42
2.5
 43
2.5
  0
INSERT
  5
1C3E
330
1C2C
100
AcDbEntity
  8
0
  6
ByBlock
 62
     2
100
AcDbBlockReference
  2
_OPEN
 10
-218.2937447013984
 20
119.7228844029456
 30
0.0
 41
2.5
 42
2.5
 43
2.5
 50
180.0
  0
MTEXT
  5
1C3F
330
1C2C
100
AcDbEntity
  8
0
  6
ByBlock
 62
     6
100
AcDbMText
 10
-173.3825256914657
 20
121.5978844029456
 30
0.0
 40
2.5
 41
0.0
 71
     5
 72
     1
  1
\A1;90
  7
STYLE3
 73
     1
 44
1.0
  0
POINT
  5
1C40
330
1C2C
100
AcDbEntity
  8
DEFPOINTS
  6
ByBlock
 62
     0
100
AcDbPoint
 10
-128.471306681533
 20
140.9360230404431
 30
0.0
  0
POINT
  5
1C41
330
1C2C
100
AcDbEntity
  8
DEFPOINTS
  6
ByBlock
 62
     0
100
AcDbPoint
 10
-218.2937447013984
 20
140.9360230404431
 30
0.0
  0
POINT
  5
1C42
330
1C2C
100
AcDbEntity
  8
DEFPOINTS
  6
ByBlock
 62
     0
100
AcDbPoint
 10
-218.2937447013984
 20
119.7228844029456
 30
0.0
  0
ENDBLK
  5
1C43
330
1C2C
100
AcDbEntity
  8
0
100
AcDbBlockEnd
  0
BLOCK
  5
1C73
330
1C72
100
AcDbEntity
  8
0
100
AcDbBlockBegin
  2
*D45
 70
     1
 10
0.0
 20
0.0
 30
0.0
  3
*D45
  1

  0
LINE
  5
1C74
330
1C72
100
AcDbEntity
  8
0
  6
ByBlock
 62
     2
100
AcDbLine
 10
511.7630683594346
 20
126.0929214083148
 30
0.0
 11
511.7630683594346
 21
119.0182482940441
 31
0.0
  0
LINE
  5
1C75
330
1C72
100
AcDbEntity
  8
0
  6
ByBlock
 62
     2
100
AcDbLine
 10
-78.23693164056533
 20
126.0929214083148
 30
0.0
 11
-78.23693164056533
 21
119.0182482940441
 31
0.0
  0
LINE
  5
1C76
330
1C72
100
AcDbEntity
  8
0
  6
ByBlock
 62
     2
100
AcDbLine
 10
509.2630683594347
 20
120.2682482940441
 30
0.0
 11
-75.73693164056533
 21
120.2682482940441
 31
0.0
  0
INSERT
  5
1C77
330
1C72
100
AcDbEntity
  8
0
  6
ByBlock
 62
     2
100
AcDbBlockReference
  2
_OPEN
 10
511.7630683594346
 20
120.2682482940441
 30
0.0
 41
2.5
 42
2.5
 43
2.5
  0
INSERT
  5
1C78
330
1C72
100
AcDbEntity
  8
0
  6
ByBlock
 62
     2
100
AcDbBlockReference
  2
_OPEN
 10
-78.23693164056533
 20
120.2682482940441
 30
0.0
 41
2.5
 42
2.5
 43
2.5
 50
180.0
  0
MTEXT
  5
1C79
330
1C72
100
AcDbEntity
  8
0
  6
ByBlock
 62
     6
100
AcDbMText
 10
216.7630683594347
 20
122.1432482940441
 30
0.0
 40
2.5
 41
0.0
 71
     5
 72
     1
  1
\A1;590
  7
STYLE3
 73
     1
 44
1.0
  0
POINT
  5
1C7A
330
1C72
100
AcDbEntity
  8
DEFPOINTS
  6
ByBlock
 62
     0
100
AcDbPoint
 10
511.7630683594346
 20
126.0929214083148
 30
0.0
  0
POINT
  5
1C7B
330
1C72
100
AcDbEntity
  8
DEFPOINTS
  6
ByBlock
 62
     0
100
AcDbPoint
 10
-78.23693164056533
 20
126.0929214083148
 30
0.0
  0
POINT
  5
1C7C
330
1C72
100
AcDbEntity
  8
DEFPOINTS
  6
ByBlock
 62
     0
100
AcDbPoint
 10
-78.23693164056533
 20
120.2682482940441
 30
0.0
  0
ENDBLK
  5
1C7D
330
1C72
100
AcDbEntity
  8
0
100
AcDbBlockEnd
  0
ENDSEC
  0
SECTION
  2
ENTITIES
  0
LWPOLYLINE
  5
1A0
330
18
100
AcDbEntity
  8
C
100
AcDbPolyline
 90
        5
 70
     0
 43
0.8
 38
1.0
 10
-228.1600053310424
 20
431.6407723810459
 10
529.6951974164533
 20
431.6407723810459
 10
529.6951974164533
 20
90.72452929666292
 10
-228.1600053310424
 20
90.72452929666292
 10
-228.1600053310424
 20
431.6407723810459
  0
LINE
  5
26D
330
18
100
AcDbEntity
  8
中心線
 48
2.0
100
AcDbLine
 10
-85.11957281978027
 20
234.3081162981867
 30
0.0
 11
517.396223087072
 21
234.3081162981867
 31
0.0
  0
LINE
  5
478
330
18
100
AcDbEntity
  8
外形線
100
AcDbLine
 10
-92.23693164056532
 20
285.8081162981867
 30
0.0
 11
-92.23693164056545
 21
261.8081162981868
 31
0.0
  0
ARC
  5
5C2
330
18
100
AcDbEntity
  8
外形線
100
AcDbCircle
 10
400.2630683594346
 20
234.3081162981867
 30
0.0
 40
27.5
100
AcDbArc
 50
270.0
 51
90.0
  0
ARC
  5
5C3
330
18
100
AcDbEntity
  8
外形線
100
AcDbCircle
 10
400.2630683594346
 20
234.3081162981867
 30
0.0
 40
34.5
100
AcDbArc
 50
295.7785662392843
 51
64.22143376071568
  0
ARC
  5
5C4
330
18
100
AcDbEntity
  8
外形線
100
AcDbCircle
 10
416.7630683594346
 20
234.3081162981867
 30
0.0
 40
95.0
100
AcDbArc
 50
266.7661614785363
 51
91.81596619605185
  0
ARC
  5
5C5
330
18
100
AcDbEntity
  8
外形線
100
AcDbCircle
 10
416.7630683594346
 20
234.3081162981867
 30
0.0
 40
88.0
100
AcDbArc
 50
271.8322860661967
 51
88.16771393380333
  0
LINE
  5
5C6
330
18
100
AcDbEntity
  8
外形線
100
AcDbLine
 10
400.2630683594346
 20
261.8081162981868
 30
0.0
 11
38.70747725548959
 21
261.8081162981868
 31
0.0
  0
LINE
  5
5C7
330
18
100
AcDbEntity
  8
外形線
100
AcDbLine
 10
400.2630683594346
 20
206.8081162981867
 30
0.0
 11
-87.23693164056532
 21
206.8081162981868
 31
0.0
  0
LINE
  5
5C8
330
18
100
AcDbEntity
  8
中心線
100
AcDbLine
 10
459.7630683594347
 20
291.0124857054819
 30
0.0
 11
459.7630683594347
 21
245.6037468908915
 31
0.0
  0
LINE
  5
5C9
330
18
100
AcDbEntity
  8
中心線
100
AcDbLine
 10
437.0586989521394
 20
268.3081162981868
 30
0.0
 11
482.4674377667299
 21
268.3081162981868
 31
0.0
  0
LINE
  5
5CA
330
18
100
AcDbEntity
  8
中心線
100
AcDbLine
 10
437.0586989521394
 20
200.3081162981867
 30
0.0
 11
482.4674377667299
 21
200.3081162981867
 31
0.0
  0
CIRCLE
  5
5CB
330
18
100
AcDbEntity
  8
外形線
100
AcDbCircle
 10
459.7630683594347
 20
200.3081162981867
 30
0.0
 40
17.5
  0
CIRCLE
  5
5CC
330
18
100
AcDbEntity
  8
外形線
100
AcDbCircle
 10
459.7630683594347
 20
268.3081162981868
 30
0.0
 40
17.5
  0
LINE
  5
5CE
330
18
100
AcDbEntity
  8
外形線
100
AcDbLine
 10
-87.23693164056545
 20
206.8081162981869
 30
0.0
 11
-87.23693164056532
 21
165.8081162981868
 31
0.0
  0
LINE
  5
5CF
330
18
100
AcDbEntity
  8
外形線
100
AcDbLine
 10
-14.23693164056533
 20
165.8081162981867
 30
0.0
 11
-87.23693164056532
 21
165.8081162981868
 31
0.0
  0
LINE
  5
5D0
330
18
100
AcDbEntity
  8
外形線
100
AcDbLine
 10
-37.23693164056545
 20
302.8081162981867
 30
0.0
 11
-37.23693164056545
 21
261.8081162981868
 31
0.0
  0
LINE
  5
5D1
330
18
100
AcDbEntity
  8
外形線
100
AcDbLine
 10
-37.23693164056533
 20
302.8081162981867
 30
0.0
 11
-46.83629470435016
 21
302.8081162981867
 31
0.0
  0
LINE
  5
5D2
330
18
100
AcDbEntity
  8
外形線
100
AcDbLine
 10
-78.23693164056533
 20
285.8081162981867
 30
0.0
 11
-92.23693164056532
 21
285.8081162981867
 31
0.0
  0
ARC
  5
5D5
330
18
100
AcDbEntity
  8
外形線
100
AcDbCircle
 10
-78.23693164056533
 20
323.3081162981867
 30
0.0
 40
37.5
100
AcDbArc
 50
269.9999999999999
 51
326.8613684586842
  0
LINE
  5
5D6
330
18
100
AcDbEntity
  8
外形線
100
AcDbLine
 10
-14.23693164056533
 20
163.5085900984203
 30
0.0
 11
411.4040074030044
 21
139.4593921862343
 31
0.0
  0
LINE
  5
5D7
330
18
100
AcDbEntity
  8
外形線
100
AcDbLine
 10
-37.23693164056533
 20
302.8081162981867
 30
0.0
 11
101.2547721885568
 21
310.8918831516488
 31
0.0
  0
LINE
  5
5DC
330
18
100
AcDbEntity
  8
外形線
100
AcDbLine
 10
201.1786042073415
 20
322.5207023290628
 30
0.0
 11
413.7525864704576
 21
329.2604043106203
 31
0.0
  0
LINE
  5
5E6
330
18
100
AcDbEntity
  8
外形線
100
AcDbLine
 10
-28.46257631241497
 20
171.3235196494606
 30
0.0
 11
70.03742368758492
 21
165.7581574461133
 31
0.0
  0
LINE
  5
5E7
330
18
100
AcDbEntity
  8
外形線
100
AcDbLine
 10
388.7630683594348
 20
199.8081162981867
 30
0.0
 11
250.2630683594347
 21
199.8081162981868
 31
0.0
  0
LINE
  5
5EA
330
18
100
AcDbEntity
  8
中心線
100
AcDbLine
 10
459.7630683594347
 20
223.0124857054819
 30
0.0
 11
459.7630683594347
 21
177.6037468908915
 31
0.0
  0
LINE
  5
5EB
330
18
100
AcDbEntity
  8
外形線
100
AcDbLine
 10
201.4004291886346
 20
315.5242179491993
 30
0.0
 11
295.1363112272673
 21
318.4961334357183
 31
0.0
  0
LINE
  5
5EC
330
18
100
AcDbEntity
  8
外形線
100
AcDbLine
 10
388.7630683594347
 20
268.8081162981867
 30
0.0
 11
310.2630683594347
 21
268.8081162981867
 31
0.0
  0
LINE
  5
5ED
330
18
100
AcDbEntity
  8
外形線
100
AcDbLine
 10
-28.47001508952224
 20
296.3079270261261
 30
0.0
 11
89.43181800927378
 21
303.1898622180161
 31
0.0
  0
LINE
  5
5EE
330
18
100
AcDbEntity
  8
外形線
100
AcDbLine
 10
-37.23693164056533
 20
206.8081162981868
 30
0.0
 11
-37.23693164056533
 21
165.8081162981867
 31
0.0
  0
LINE
  5
5F0
330
18
100
AcDbEntity
  8
外形線
100
AcDbLine
 10
-32.23693164056533
 20
195.8081162981868
 30
0.0
 11
-32.23693164056533
 21
175.3171501383849
 31
0.0
  0
LINE
  5
5F6
330
18
100
AcDbEntity
  8
外形線
100
AcDbLine
 10
246.2630683594347
 20
195.8081162981868
 30
0.0
 11
246.2630683594347
 21
159.5815828933878
 31
0.0
  0
LINE
  5
5F7
330
18
100
AcDbEntity
  8
外形線
100
AcDbLine
 10
239.2630683594346
 20
195.8081162981868
 30
0.0
 11
239.2630683594347
 21
160.429099980192
 31
0.0
  0
LINE
  5
5F8
330
18
100
AcDbEntity
  8
外形線
100
AcDbLine
 10
74.26306835943467
 20
195.8081162981868
 30
0.0
 11
74.26306835943467
 21
169.7517879350376
 31
0.0
  0
LINE
  5
5F9
330
18
100
AcDbEntity
  8
外形線
100
AcDbLine
 10
81.26306835943456
 20
195.8081162981868
 30
0.0
 11
81.26306835943456
 21
168.9042708482335
 31
0.0
  0
ARC
  5
5FA
330
18
100
AcDbEntity
  8
外形線
100
AcDbCircle
 10
-17.23693164056533
 20
184.8081162981868
 30
0.0
 40
4.0
100
AcDbArc
 50
89.97553888839034
 51
266.9205230462649
  0
ARC
  5
5FB
330
18
100
AcDbEntity
  8
外形線
100
AcDbCircle
 10
57.76306835943467
 20
182.7760965937532
 30
0.0
 40
6.0
100
AcDbArc
 50
266.9205230462649
 51
89.97553888839032
  0
ARC
  5
5FC
330
18
100
AcDbEntity
  8
外形線
100
AcDbCircle
 10
99.76306835943455
 20
181.6381655592705
 30
0.0
 40
8.0
100
AcDbArc
 50
89.90432577425282
 51
266.9917361604024
  0
ARC
  5
5FD
330
18
100
AcDbEntity
  8
外形線
100
AcDbCircle
 10
217.7630683594347
 20
178.4411212242951
 30
0.0
 40
11.0
100
AcDbArc
 50
266.9917361604023
 51
89.90432577425279
  0
ARC
  5
5FE
330
18
100
AcDbEntity
  8
外形線
100
AcDbCircle
 10
269.7630683594347
 20
177.0322542292212
 30
0.0
 40
13.0
100
AcDbArc
 50
89.89208539990485
 51
267.0039765347503
  0
LINE
  5
600
330
18
100
AcDbEntity
  8
外形線
100
AcDbLine
 10
85.03742368758492
 20
164.9106403593092
 30
0.0
 11
235.0374236875849
 21
156.4354694912676
 31
0.0
  0
LINE
  5
601
330
18
100
AcDbEntity
  8
外形線
100
AcDbLine
 10
70.26306835943467
 20
199.8081162981868
 30
0.0
 11
-28.23693164056533
 21
199.8081162981868
 31
0.0
  0
LINE
  5
602
330
18
100
AcDbEntity
  8
外形線
100
AcDbLine
 10
235.2630683594346
 20
199.8081162981868
 30
0.0
 11
85.26306835943456
 21
199.8081162981868
 31
0.0
  0
LINE
  5
603
330
18
100
AcDbEntity
  8
外形線
100
AcDbLine
 10
250.037423687585
 20
155.5879524044635
 30
0.0
 11
388.7630683594348
 21
147.7497954553091
 31
0.0
  0
ARC
  5
604
330
18
100
AcDbEntity
  8
外形線
100
AcDbCircle
 10
-28.23693164056533
 20
175.3171501383849
 30
0.0
 40
4.0
100
AcDbArc
 50
180.0
 51
266.7661614785363
  0
ARC
  5
605
330
18
100
AcDbEntity
  8
外形線
100
AcDbCircle
 10
-28.23693164056533
 20
195.8081162981868
 30
0.0
 40
4.0
100
AcDbArc
 50
90.0
 51
180.0
  0
ARC
  5
606
330
18
100
AcDbEntity
  8
外形線
100
AcDbCircle
 10
70.26306835943467
 20
169.7517879350376
 30
0.0
 40
4.0
100
AcDbArc
 50
266.7661614785363
 51
0.0
  0
ARC
  5
607
330
18
100
AcDbEntity
  8
外形線
100
AcDbCircle
 10
70.26306835943467
 20
195.8081162981868
 30
0.0
 40
4.0
100
AcDbArc
 50
0.0
 51
90.0
  0
ARC
  5
608
330
18
100
AcDbEntity
  8
外形線
100
AcDbCircle
 10
85.26306835943456
 20
168.9042708482335
 30
0.0
 40
4.0
100
AcDbArc
 50
180.0
 51
266.7661614785363
  0
ARC
  5
609
330
18
100
AcDbEntity
  8
外形線
100
AcDbCircle
 10
85.26306835943456
 20
195.8081162981868
 30
0.0
 40
4.0
100
AcDbArc
 50
90.0
 51
180.0
  0
ARC
  5
60A
330
18
100
AcDbEntity
  8
外形線
100
AcDbCircle
 10
235.2630683594346
 20
195.8081162981868
 30
0.0
 40
4.0
100
AcDbArc
 50
0.0
 51
90.0
  0
ARC
  5
60B
330
18
100
AcDbEntity
  8
外形線
100
AcDbCircle
 10
235.2630683594347
 20
160.429099980192
 30
0.0
 40
4.0
100
AcDbArc
 50
266.7661614785363
 51
0.0000000000000254
  0
ARC
  5
60C
330
18
100
AcDbEntity
  8
外形線
100
AcDbCircle
 10
250.2630683594347
 20
159.5815828933878
 30
0.0
 40
4.0
100
AcDbArc
 50
180.0
 51
266.7661614785363
  0
ARC
  5
60D
330
18
100
AcDbEntity
  8
外形線
100
AcDbCircle
 10
250.2630683594347
 20
195.8081162981868
 30
0.0
 40
4.0
100
AcDbArc
 50
89.99999999999998
 51
180.0
  0
LINE
  5
60E
330
18
100
AcDbEntity
  8
外形線
100
AcDbLine
 10
-17.23522393287203
 20
188.8081159336535
 30
0.0
 11
57.76562992097456
 21
188.7760960469534
 31
0.0
  0
LINE
  5
60F
330
18
100
AcDbEntity
  8
外形線
100
AcDbLine
 10
-17.45181619636651
 20
180.8138923901317
 30
0.0
 11
57.44074152573285
 21
176.7847607316707
 31
0.0
  0
LINE
  5
610
330
18
100
AcDbEntity
  8
外形線
100
AcDbLine
 10
99.77642699521528
 20
189.6381544059408
 30
0.0
 11
217.781436483633
 21
189.4411058884669
 31
0.0
  0
LINE
  5
611
330
18
100
AcDbEntity
  8
外形線
100
AcDbLine
 10
217.18578847775
 20
167.4562794895134
 30
0.0
 11
99.34322844548217
 21
173.6491897521565
 31
0.0
  0
ARC
  5
613
330
18
100
AcDbEntity
  8
外形線
100
AcDbCircle
 10
388.7630683594347
 20
173.8081162981867
 30
0.0
 40
16.0
100
AcDbArc
 50
267.0039765347502
 51
89.89208539990498
  0
LINE
  5
614
330
18
100
AcDbEntity
  8
外形線
100
AcDbLine
 10
269.7875533910323
 20
190.0322311708634
 30
0.0
 11
388.7932037829395
 21
189.8080879186694
 31
0.0
  0
LINE
  5
615
330
18
100
AcDbEntity
  8
外形線
100
AcDbLine
 10
387.9268019977067
 20
157.829985663715
 30
0.0
 11
269.0836019405308
 21
164.0500230887129
 31
0.0
  0
ARC
  5
616
330
18
100
AcDbEntity
  8
外形線
100
AcDbCircle
 10
388.7630683594347
 20
173.8081162981867
 30
0.0
 40
26.0
100
AcDbArc
 50
270.0
 51
90.0
  0
ARC
  5
617
330
18
100
AcDbEntity
  8
外形線
100
AcDbCircle
 10
388.7630683594347
 20
173.8081162981867
 30
0.0
 40
33.0
100
AcDbArc
 50
323.7728148283726
 51
41.00147183085966
  0
ARC
  5
618
330
18
100
AcDbEntity
  8
外形線
100
AcDbCircle
 10
419.4169082152718
 20
151.3505540508571
 30
0.0
 40
5.0
100
AcDbArc
 50
143.7728148283726
 51
271.8322860661967
  0
ARC
  5
619
330
18
100
AcDbEntity
  8
外形線
100
AcDbCircle
 10
417.44139198301
 20
198.7390961052757
 30
0.0
 40
5.0
100
AcDbArc
 50
115.7785662392839
 51
221.0014718308596
  0
LINE
  5
61C
330
18
100
AcDbEntity
  8
外形線
100
AcDbLine
 10
-32.23693164056545
 20
292.3147237873938
 30
0.0
 11
-32.23693164056545
 21
272.8081162981868
 31
0.0
  0
LINE
  5
622
330
18
100
AcDbEntity
  8
外形線
100
AcDbLine
 10
184.2630683594345
 20
304.4848779724157
 30
0.0
 11
184.2630683594345
 21
272.8081162981866
 31
0.0
  0
LINE
  5
623
330
18
100
AcDbEntity
  8
外形線
100
AcDbLine
 10
191.2630683594347
 20
310.8178663679854
 30
0.0
 11
191.2630683594346
 21
272.8081162981867
 31
0.0
  0
LINE
  5
627
330
18
100
AcDbEntity
  8
外形線
100
AcDbLine
 10
306.2630683594347
 20
314.9737204574143
 30
0.0
 11
306.2630683594347
 21
272.8081162981867
 31
0.0
  0
LINE
  5
628
330
18
100
AcDbEntity
  8
外形線
100
AcDbLine
 10
299.2630683594347
 20
314.4981423615106
 30
0.0
 11
299.2630683594347
 21
272.8081162981867
 31
0.0
  0
LINE
  5
637
330
18
100
AcDbEntity
  8
外形線
100
AcDbLine
 10
295.2630683594346
 20
268.8081162981867
 30
0.0
 11
195.2630683594346
 21
268.8081162981867
 31
0.0
  0
LINE
  5
638
330
18
100
AcDbEntity
  8
外形線
100
AcDbLine
 10
310.1363112272673
 20
318.971711531622
 30
0.0
 11
388.7630683594348
 21
321.4645890945555
 31
0.0
  0
LINE
  5
63A
330
18
100
AcDbEntity
  8
外形線
100
AcDbLine
 10
180.2630683594345
 20
268.8081162981866
 30
0.0
 11
56.65615705719703
 21
268.8081162981867
 31
0.0
  0
ARC
  5
652
330
18
100
AcDbEntity
  8
外形線
100
AcDbCircle
 10
388.7630683594347
 20
294.8081162981868
 30
0.0
 40
16.0
100
AcDbArc
 50
270.0485828441754
 51
91.9269379551042
  0
ARC
  5
653
330
18
100
AcDbEntity
  8
外形線
100
AcDbCircle
 10
388.4348319612502
 20
295.1363526963712
 30
0.0
 40
26.33028239445559
100
AcDbArc
 50
270.7142744294797
 51
89.28572557052008
  0
ARC
  5
654
330
18
100
AcDbEntity
  8
外形線
100
AcDbCircle
 10
388.7630683594347
 20
294.8081162981868
 30
0.0
 40
33.0
100
AcDbArc
 50
318.9985281691404
 51
36.22718517162728
  0
ARC
  5
655
330
18
100
AcDbEntity
  8
外形線
100
AcDbCircle
 10
327.7630683594347
 20
293.7563921602557
 30
0.0
 40
15.0
100
AcDbArc
 50
91.92693795510422
 51
270.0485828441755
  0
ARC
  5
656
330
18
100
AcDbEntity
  8
外形線
100
AcDbCircle
 10
278.7630683594347
 20
292.9115645740488
 30
0.0
 40
14.0
100
AcDbArc
 50
270.0926104624563
 51
91.8829103368235
  0
ARC
  5
657
330
18
100
AcDbEntity
  8
外形線
100
AcDbCircle
 10
214.7630683594347
 20
291.8081162981867
 30
0.0
 40
13.0
100
AcDbArc
 50
91.88291033682343
 51
270.0926104624562
  0
ARC
  5
658
330
18
100
AcDbEntity
  8
外形線
100
AcDbCircle
 10
164.7630683594347
 20
287.8081162981867
 30
0.0
 40
9.0
100
AcDbArc
 50
269.8378176113471
 51
93.30951049685801
  0
ARC
  5
659
330
18
100
AcDbEntity
  8
外形線
100
AcDbCircle
 10
-17.23693164056544
 20
282.8081162981868
 30
0.0
 40
4.0
100
AcDbArc
 50
93.10115619125205
 51
270.0461719169529
  0
ARC
  5
65A
330
18
100
AcDbEntity
  8
隠れ線2
100
AcDbCircle
 10
57.76306835943467
 20
284.8685558586263
 30
0.0
 40
6.0
100
AcDbArc
 50
270.0461719169529
 51
32.13441994062784
  0
ARC
  5
65B
330
18
100
AcDbEntity
  8
隠れ線2
100
AcDbCircle
 10
98.76306835943456
 20
285.9949294849999
 30
0.0
 40
7.0
100
AcDbArc
 50
93.30951049685797
 51
180.3361549428122
  0
ARC
  5
65C
330
18
100
AcDbEntity
  8
外形線
100
AcDbCircle
 10
-28.23693164056545
 20
292.3147237873938
 30
0.0
 40
4.0
100
AcDbArc
 50
93.34056677555542
 51
180.0
  0
ARC
  5
65D
330
18
100
AcDbEntity
  8
外形線
100
AcDbCircle
 10
-28.23693164056545
 20
272.8081162981868
 30
0.0
 40
4.0
100
AcDbArc
 50
180.0
 51
270.0
  0
ARC
  5
65E
330
18
100
AcDbEntity
  8
外形線
100
AcDbCircle
 10
180.2630683594345
 20
304.4848779724157
 30
0.0
 40
4.0
100
AcDbArc
 50
0.0
 51
93.3405667755554
  0
ARC
  5
660
330
18
100
AcDbEntity
  8
外形線
100
AcDbCircle
 10
180.2630683594345
 20
272.8081162981866
 30
0.0
 40
4.0
100
AcDbArc
 50
270.0
 51
0.0000000000000127
  0
ARC
  5
661
330
18
100
AcDbEntity
  8
外形線
100
AcDbCircle
 10
195.2630683594346
 20
272.8081162981867
 30
0.0
 40
4.0
100
AcDbArc
 50
180.0
 51
270.0
  0
LINE
  5
662
330
18
100
AcDbEntity
  8
外形線
100
AcDbLine
 10
-17.45332749172075
 20
286.8022586135785
 30
0.0
 11
57.43847458270147
 21
290.8597693317138
 31
0.0
  0
LINE
  5
663
330
18
100
AcDbEntity
  8
外形線
100
AcDbLine
 10
-17.23370823302309
 20
278.8081175969815
 30
0.0
 11
42.36137547188337
 21
278.8561424231493
 31
0.0
  0
LINE
  5
665
330
18
100
AcDbEntity
  8
外形線
100
AcDbLine
 10
42.90909064277548
 20
278.8685578068184
 30
0.0
 11
42.38900499459562
 21
278.8685578068184
 31
0.0
  0
LINE
  5
666
330
18
100
AcDbEntity
  8
隠れ線2
 48
0.5
100
AcDbLine
 10
98.35896017657546
 20
292.9832552198628
 30
0.0
 11
101.539745330319
 21
293.1671878751671
 31
0.0
  0
LINE
  5
667
330
18
100
AcDbEntity
  8
外形線
100
AcDbLine
 10
98.74325406919945
 20
278.9949575283488
 30
0.0
 11
164.7375928434179
 21
278.808152353921
 31
0.0
  0
LINE
  5
669
330
18
100
AcDbEntity
  8
外形線
100
AcDbLine
 10
214.7840809976765
 20
278.8081332801581
 30
0.0
 11
278.7856973544644
 21
278.9115828623256
 31
0.0
  0
LINE
  5
66A
330
18
100
AcDbEntity
  8
外形線
100
AcDbLine
 10
214.335926449276
 20
304.8010970873893
 30
0.0
 11
278.3030693792638
 21
306.9040054239593
 31
0.0
  0
LINE
  5
66B
330
18
100
AcDbEntity
  8
外形線
100
AcDbLine
 10
327.7757873167733
 20
278.7563975526525
 30
0.0
 11
388.7766352472624
 21
278.8081220500767
 31
0.0
  0
LINE
  5
66C
330
18
100
AcDbEntity
  8
外形線
100
AcDbLine
 10
327.2586922759421
 20
308.7479099208562
 30
0.0
 11
388.2250672037093
 21
310.7990685761606
 31
0.0
  0
ARC
  5
66D
330
18
100
AcDbEntity
  8
外形線
100
AcDbCircle
 10
295.2630683594346
 20
272.8081162981867
 30
0.0
 40
4.0
100
AcDbArc
 50
270.0
 51
0.0
  0
ARC
  5
66E
330
18
100
AcDbEntity
  8
外形線
100
AcDbCircle
 10
310.2630683594347
 20
272.8081162981867
 30
0.0
 40
4.0
100
AcDbArc
 50
180.0
 51
270.0
  0
ARC
  5
66F
330
18
100
AcDbEntity
  8
外形線
100
AcDbCircle
 10
310.2630683594347
 20
314.9737204574143
 30
0.0
 40
4.0
100
AcDbArc
 50
91.81596619605189
 51
180.0
  0
ARC
  5
670
330
18
100
AcDbEntity
  8
外形線
100
AcDbCircle
 10
295.2630683594346
 20
314.4981423615106
 30
0.0
 40
4.0
100
AcDbArc
 50
0.0
 51
91.81596619605175
  0
ARC
  5
671
330
18
100
AcDbEntity
  8
外形線
100
AcDbCircle
 10
417.44139198301
 20
269.8771364910978
 30
0.0
 40
5.0
100
AcDbArc
 50
138.9985281691404
 51
244.2214337607161
  0
ARC
  5
672
330
18
100
AcDbEntity
  8
外形線
100
AcDbCircle
 10
419.4169082152718
 20
317.2656785455164
 30
0.0
 40
5.0
100
AcDbArc
 50
88.16771393380326
 51
216.2271851716277
  0
ARC
  5
679
330
18
100
AcDbEntity
  8
外形線
100
AcDbCircle
 10
202.7630683594347
 20
272.5458139014662
 30
0.0
 40
50.0
100
AcDbArc
 50
91.81596619605185
 51
112.5727962302286
  0
ARC
  5
67A
330
18
100
AcDbEntity
  8
外形線
100
AcDbCircle
 10
202.7630683594347
 20
272.5458139014662
 30
0.0
 40
43.0
100
AcDbArc
 50
91.81596619605171
 51
101.0874892109706
  0
ARC
  5
67D
330
18
100
AcDbEntity
  8
外形線
100
AcDbCircle
 10
162.8419462415919
 20
368.5786416680809
 30
0.0
 40
54.0
100
AcDbArc
 50
273.3405667755554
 51
292.5727962302286
  0
ARC
  5
67F
330
18
100
AcDbEntity
  8
外形線
100
AcDbCircle
 10
195.2630683594346
 20
310.8178663679854
 30
0.0
 40
4.0
100
AcDbArc
 50
101.0874892109707
 51
180.0
  0
LINE
  5
6A0
330
18
100
AcDbEntity
  8
隠れ線2
100
AcDbLine
 10
-83.23693164056534
 20
206.8081162981868
 30
0.0
 11
-83.23693164056534
 21
165.8081162981868
 31
0.0
  0
LINE
  5
6A1
330
18
100
AcDbEntity
  8
隠れ線2
100
AcDbLine
 10
-73.23693164056533
 20
206.8081162981868
 30
0.0
 11
-73.23693164056533
 21
165.8081162981868
 31
0.0
  0
LINE
  5
6A2
330
18
100
AcDbEntity
  8
隠れ線2
100
AcDbLine
 10
-82.23693164056532
 20
285.8081162981867
 30
0.0
 11
-82.23693164056532
 21
261.8081162981868
 31
0.0
  0
LINE
  5
6A3
330
18
100
AcDbEntity
  8
隠れ線2
100
AcDbLine
 10
-74.23693164056533
 20
286.0220599231825
 30
0.0
 11
-74.23693164056533
 21
261.8081162981868
 31
0.0
  0
LINE
  5
6BD
330
18
100
AcDbEntity
  8
中心線
 48
0.5
100
AcDbLine
 10
-33.23693164056533
 20
178.5797561578855
 30
0.0
 11
-33.23693164056533
 21
134.9603069432093
 31
0.0
  0
LINE
  5
6BE
330
18
100
AcDbEntity
  8
隠れ線2
100
AcDbLine
 10
-30.23693164056533
 20
172.8081162981867
 30
0.0
 11
-36.23693164056533
 21
172.8081162981867
 31
0.0
  0
LINE
  5
6BF
330
18
100
AcDbEntity
  8
隠れ線2
100
AcDbLine
 10
-36.23693164056533
 20
172.8081162981867
 30
0.0
 11
-36.23693164056533
 21
166.1081162981867
 31
0.0
  0
LINE
  5
6C0
330
18
100
AcDbEntity
  8
隠れ線2
100
AcDbLine
 10
-30.23693164056533
 20
172.8081162981867
 30
0.0
 11
-30.23693164056533
 21
166.1081162981868
 31
0.0
  0
LINE
  5
6C1
330
18
100
AcDbEntity
  8
隠れ線2
 48
0.4
100
AcDbLine
 10
-30.93693164056527
 20
175.128746998695
 30
0.0
 11
-35.5369316405654
 21
175.1287469986949
 31
0.0
  0
LINE
  5
6C2
330
18
100
AcDbEntity
  8
隠れ線2
100
AcDbLine
 10
-35.5369316405654
 20
175.1287469986949
 30
0.0
 11
-35.5369316405654
 21
166.8081162981867
 31
0.0
  0
LINE
  5
6C3
330
18
100
AcDbEntity
  8
隠れ線2
100
AcDbLine
 10
-30.93693164056527
 20
175.1287469986949
 30
0.0
 11
-30.93693164056527
 21
166.8081162981867
 31
0.0
  0
LINE
  5
6C4
330
18
100
AcDbEntity
  8
隠れ線2
 48
0.4
100
AcDbLine
 10
-35.5369316405654
 20
175.1287469986949
 30
0.0
 11
-33.23693164056533
 21
176.4566526178311
 31
0.0
  0
LINE
  5
6C5
330
18
100
AcDbEntity
  8
隠れ線2
 48
0.4
100
AcDbLine
 10
-30.93693164056527
 20
175.128746998695
 30
0.0
 11
-33.23693164056533
 21
176.4566526178311
 31
0.0
  0
LINE
  5
6C6
330
18
100
AcDbEntity
  8
隠れ線2
 48
0.4
100
AcDbLine
 10
-30.93693164056527
 20
166.8081162981867
 30
0.0
 11
-35.5369316405654
 21
166.8081162981867
 31
0.0
  0
LINE
  5
6C7
330
18
100
AcDbEntity
  8
隠れ線2
 48
0.4
100
AcDbLine
 10
-30.93693164056527
 20
166.8081162981867
 30
0.0
 11
-29.93693164056526
 21
165.8081162981867
 31
0.0
  0
LINE
  5
6C8
330
18
100
AcDbEntity
  8
隠れ線2
 48
0.4
100
AcDbLine
 10
-35.5369316405654
 20
166.8081162981867
 30
0.0
 11
-36.53693164056529
 21
165.8081162981867
 31
0.0
  0
LINE
  5
6D3
330
18
100
AcDbEntity
  8
中心線
 48
0.3
100
AcDbLine
 10
77.76306835943467
 20
293.9806737960708
 30
0.0
 11
77.76306835943467
 21
277.9917723022438
 31
0.0
  0
LINE
  5
6D4
330
18
100
AcDbEntity
  8
中心線
 48
0.3
100
AcDbLine
 10
32.76306835943467
 20
301.210201579181
 30
0.0
 11
32.76306835943467
 21
287.7139331519197
 31
0.0
  0
LINE
  5
6D7
330
18
100
AcDbEntity
  8
中心線
 48
0.3
100
AcDbLine
 10
84.73298895479137
 20
285.8081162981867
 30
0.0
 11
70.61204807747799
 21
285.8081162981867
 31
0.0
  0
LINE
  5
6D9
330
18
100
AcDbEntity
  8
中心線
 48
0.3
100
AcDbLine
 10
40.68003653116375
 20
294.3081162981867
 30
0.0
 11
24.91138553159499
 21
294.3081162981867
 31
0.0
  0
POINT
  5
72F
330
18
100
AcDbEntity
  8
DEFPOINTS
  6
ByBlock
 62
     0
100
AcDbPoint
 10
77.76306835943467
 20
285.8081162981868
 30
0.0
  0
POINT
  5
735
330
18
100
AcDbEntity
  8
DEFPOINTS
  6
ByBlock
 62
     0
100
AcDbPoint
 10
32.76306835943467
 20
301.210201579181
 30
0.0
  0
POINT
  5
736
330
18
100
AcDbEntity
  8
DEFPOINTS
  6
ByBlock
 62
     0
100
AcDbPoint
 10
77.76306835943467
 20
293.9806737960708
 30
0.0
  0
LINE
  5
760
330
18
100
AcDbEntity
  8
0
  6
ByBlock
 62
     2
100
AcDbLine
 10
416.7630683594346
 20
329.3081162981867
 30
0.0
 11
521.9927009642687
 21
338.6058650443374
 31
0.0
  0
LINE
  5
761
330
18
100
AcDbEntity
  8
0
  6
ByBlock
 62
     2
100
AcDbLine
 10
416.7630683594346
 20
139.3081162981867
 30
0.0
 11
521.9927009642687
 21
148.6058650443375
 31
0.0
  0
LINE
  5
762
330
18
100
AcDbEntity
  8
0
  6
ByBlock
 62
     2
100
AcDbLine
 10
520.7427009642688
 20
336.1058650443375
 30
0.0
 11
520.7427009642688
 21
151.1058650443375
 31
0.0
  0
INSERT
  5
763
330
18
100
AcDbEntity
  8
0
  6
ByBlock
 62
     2
100
AcDbBlockReference
  2
_OPEN
 10
520.7427009642688
 20
338.6058650443374
 30
0.0
 41
2.5
 42
2.5
 43
2.5
 50
90.0
  0
INSERT
  5
764
330
18
100
AcDbEntity
  8
0
  6
ByBlock
 62
     2
100
AcDbBlockReference
  2
_OPEN
 10
520.7427009642688
 20
148.6058650443375
 30
0.0
 41
2.5
 42
2.5
 43
2.5
 50
270.0
  0
MTEXT
  5
765
330
18
100
AcDbEntity
  8
0
  6
ByBlock
 62
     6
100
AcDbMText
 10
518.8677009642687
 20
243.6058650443375
 30
0.0
 40
2.5
 41
0.0
 71
     5
 72
     1
  1
\A1;190
  7
STYLE3
 11
0.0000000000000001
 21
1.0
 31
0.0
 73
     1
 44
1.0
  0
POINT
  5
766
330
18
100
AcDbEntity
  8
DEFPOINTS
  6
ByBlock
 62
     0
100
AcDbPoint
 10
416.7630683594346
 20
329.3081162981867
 30
0.0
  0
POINT
  5
767
330
18
100
AcDbEntity
  8
DEFPOINTS
  6
ByBlock
 62
     0
100
AcDbPoint
 10
416.7630683594346
 20
139.3081162981867
 30
0.0
  0
POINT
  5
768
330
18
100
AcDbEntity
  8
DEFPOINTS
  6
ByBlock
 62
     0
100
AcDbPoint
 10
520.7427009642688
 20
148.6058650443375
 30
0.0
  0
LINE
  5
76C
330
18
100
AcDbEntity
  8
中心線
 48
0.3
100
AcDbLine
 10
-73.82504421993963
 20
168.3081162981868
 30
0.0
 11
-82.64480042032948
 21
168.3081162981867
 31
0.0
  0
CIRCLE
  5
76F
330
18
100
AcDbEntity
  8
隠れ線2
 48
0.3
100
AcDbCircle
 10
-78.23693164056533
 20
168.3081162981868
 30
0.0
 40
0.75
  0
LINE
  5
771
330
18
100
AcDbEntity
  8
中心線
 48
0.2
100
AcDbLine
 10
-75.02145856573633
 20
272.8081162981867
 30
0.0
 11
-81.3808479496239
 21
272.8081162981867
 31
0.0
  0
LINE
  5
772
330
18
100
AcDbEntity
  8
中心線
 48
0.2
100
AcDbLine
 10
-75.02145856573633
 20
277.3081162981867
 30
0.0
 11
-81.3808479496239
 21
277.3081162981867
 31
0.0
  0
LINE
  5
773
330
18
100
AcDbEntity
  8
中心線
 48
0.2
100
AcDbLine
 10
-75.02145856573633
 20
281.8081162981867
 30
0.0
 11
-81.3808479496239
 21
281.8081162981867
 31
0.0
  0
LINE
  5
774
330
18
100
AcDbEntity
  8
中心線
100
AcDbLine
 10
-63.23693164056533
 20
285.9923262223234
 30
0.0
 11
-63.23693164056533
 21
276.6294118335212
 31
0.0
  0
LINE
  5
775
330
18
100
AcDbEntity
  8
中心線
 48
0.2
100
AcDbLine
 10
-59.84601162503532
 20
267.8081162981868
 30
0.0
 11
-66.32222903100148
 21
267.8081162981868
 31
0.0
  0
LINE
  5
776
330
18
100
AcDbEntity
  8
中心線
 48
0.2
100
AcDbLine
 10
-60.07966766919344
 20
281.8081162981867
 30
0.0
 11
-66.32222658986268
 21
281.8081162981867
 31
0.0
  0
CIRCLE
  5
777
330
18
100
AcDbEntity
  8
隠れ線2
 48
0.4
100
AcDbCircle
 10
-78.23693164056533
 20
272.8081162981867
 30
0.0
 40
1.5
  0
CIRCLE
  5
778
330
18
100
AcDbEntity
  8
隠れ線2
 48
0.4
100
AcDbCircle
 10
-78.23693164056533
 20
272.8081162981867
 30
0.0
 40
1.037210669734918
  0
CIRCLE
  5
779
330
18
100
AcDbEntity
  8
隠れ線2
 48
0.4
100
AcDbCircle
 10
-78.23693164056533
 20
277.3081162981867
 30
0.0
 40
1.5
  0
CIRCLE
  5
77A
330
18
100
AcDbEntity
  8
隠れ線2
 48
0.4
100
AcDbCircle
 10
-78.23693164056533
 20
277.3081162981867
 30
0.0
 40
1.037210669734918
  0
CIRCLE
  5
77B
330
18
100
AcDbEntity
  8
隠れ線2
 48
0.4
100
AcDbCircle
 10
-78.23693164056533
 20
281.8081162981867
 30
0.0
 40
1.5
  0
CIRCLE
  5
77C
330
18
100
AcDbEntity
  8
隠れ線2
 48
0.4
100
AcDbCircle
 10
-78.23693164056533
 20
281.8081162981867
 30
0.0
 40
1.037210669734918
  0
CIRCLE
  5
77D
330
18
100
AcDbEntity
  8
隠れ線2
 48
0.4
100
AcDbCircle
 10
-63.23015291447837
 20
281.8081162981867
 30
0.0
 40
1.5
  0
CIRCLE
  5
77E
330
18
100
AcDbEntity
  8
隠れ線2
 48
0.4
100
AcDbCircle
 10
-63.23015291447837
 20
281.8081162981867
 30
0.0
 40
1.037210669734918
  0
CIRCLE
  5
77F
330
18
100
AcDbEntity
  8
隠れ線2
 48
0.4
100
AcDbCircle
 10
-63.23693164056533
 20
267.8081162981868
 30
0.0
 40
1.5
  0
CIRCLE
  5
780
330
18
100
AcDbEntity
  8
隠れ線2
 48
0.4
100
AcDbCircle
 10
-63.23693164056533
 20
267.8081162981868
 30
0.0
 40
1.037210669734918
  0
POINT
  5
7BA
330
18
100
AcDbEntity
  8
DEFPOINTS
  6
ByBlock
 62
     0
100
AcDbPoint
 10
-81.3808479496239
 20
277.3081162981867
 30
0.0
  0
POINT
  5
7BB
330
18
100
AcDbEntity
  8
DEFPOINTS
  6
ByBlock
 62
     0
100
AcDbPoint
 10
-81.3808479496239
 20
281.8081162981867
 30
0.0
  0
POINT
  5
7C7
330
18
100
AcDbEntity
  8
DEFPOINTS
  6
ByBlock
 62
     0
100
AcDbPoint
 10
-81.3808479496239
 20
272.8081162981867
 30
0.0
  0
POINT
  5
7C8
330
18
100
AcDbEntity
  8
DEFPOINTS
  6
ByBlock
 62
     0
100
AcDbPoint
 10
-81.3808479496239
 20
277.3081162981867
 30
0.0
  0
POINT
  5
800
330
18
100
AcDbEntity
  8
DEFPOINTS
  6
ByBlock
 62
     0
100
AcDbPoint
 10
-78.1193745901069
 20
323.2699196970618
 30
0.0
  0
POINT
  5
892
330
18
100
AcDbEntity
  8
DEFPOINTS
  6
ByBlock
 62
     0
100
AcDbPoint
 10
-62.5093826367522
 20
266.4963722503441
 30
0.0
  0
POINT
  5
893
330
18
100
AcDbEntity
  8
DEFPOINTS
  6
ByBlock
 62
     0
100
AcDbPoint
 10
-63.23693164056533
 20
267.8081162981868
 30
0.0
  0
LINE
  5
8A2
330
18
100
AcDbEntity
  8
外形線
100
AcDbLine
 10
-162.3825256914657
 20
139.3081162981868
 30
0.0
 11
-171.2272125054998
 21
139.3081162981867
 31
0.0
  0
LINE
  5
8A3
330
18
100
AcDbEntity
  8
外形線
100
AcDbLine
 10
-181.0825256914658
 20
329.3081162981868
 30
0.0
 11
-182.3825256914657
 21
329.3081162981869
 31
0.0
  0
LINE
  5
8A4
330
18
100
AcDbEntity
  8
外形線
100
AcDbLine
 10
-185.3825256914657
 20
328.3081162981868
 30
0.0
 11
-185.3825256914657
 21
284.5581162981868
 31
0.0
  0
LINE
  5
8A5
330
18
100
AcDbEntity
  8
外形線
100
AcDbLine
 10
-162.3825256914657
 20
289.8581162981869
 30
0.0
 11
-162.3825256914657
 21
278.8081162981867
 31
0.0
  0
LINE
  5
8A6
330
18
100
AcDbEntity
  8
外形線
100
AcDbLine
 10
-161.3825256914657
 20
206.8081162981868
 30
0.0
 11
-185.3825256914657
 21
206.8081162981869
 31
0.0
  0
LINE
  5
8A7
330
18
100
AcDbEntity
  8
外形線
100
AcDbLine
 10
-163.8825256914657
 20
165.8081162981867
 30
0.0
 11
-182.8825256914657
 21
165.8081162981868
 31
0.0
  0
LINE
  5
8A8
330
18
100
AcDbEntity
  8
外形線
100
AcDbLine
 10
-164.3825256914657
 20
285.8081162981867
 30
0.0
 11
-182.3825256914657
 21
285.8081162981867
 31
0.0
  0
LINE
  5
8A9
330
18
100
AcDbEntity
  8
外形線
100
AcDbLine
 10
-163.8825256914657
 20
163.7910957940217
 30
0.0
 11
-182.8825256914657
 21
163.7910957940217
 31
0.0
  0
LINE
  5
8AA
330
18
100
AcDbEntity
  8
外形線
100
AcDbLine
 10
-162.3825256914657
 20
261.8081162981868
 30
0.0
 11
-185.3825256914657
 21
261.8081162981868
 31
0.0
  0
LINE
  5
8AB
330
18
100
AcDbEntity
  8
外形線
100
AcDbLine
 10
-181.0825256914658
 20
302.8081162981867
 30
0.0
 11
-182.3825256914657
 21
302.8081162981867
 31
0.0
  0
LINE
  5
8AC
330
18
100
AcDbEntity
  8
隠れ線2
100
AcDbLine
 10
-178.3825256914657
 20
206.8081162981869
 30
0.0
 11
-178.3825256914657
 21
165.8081162981868
 31
0.0
  0
LINE
  5
8AD
330
18
100
AcDbEntity
  8
隠れ線2
100
AcDbLine
 10
-168.3825256914657
 20
206.8081162981869
 30
0.0
 11
-168.3825256914657
 21
165.8081162981868
 31
0.0
  0
LINE
  5
8AF
330
18
100
AcDbEntity
  8
中心線
 48
0.2
100
AcDbLine
 10
-176.3266120025178
 20
168.3081162981868
 30
0.0
 11
-184.8704198100944
 21
168.3081162981868
 31
0.0
  0
LINE
  5
8B0
330
18
100
AcDbEntity
  8
隠れ線2
 48
0.3
100
AcDbLine
 10
-164.3825256914657
 20
200.1081162981868
 30
0.0
 11
-168.3825256914657
 21
200.1081162981868
 31
0.0
  0
LINE
  5
8B1
330
18
100
AcDbEntity
  8
隠れ線2
 48
0.3
100
AcDbLine
 10
-164.3825256914657
 20
197.5081162981868
 30
0.0
 11
-168.3825256914657
 21
197.5081162981868
 31
0.0
  0
LINE
  5
8B2
330
18
100
AcDbEntity
  8
隠れ線2
 48
0.3
100
AcDbLine
 10
-178.3825256914657
 20
169.0581162981868
 30
0.0
 11
-182.3825256914657
 21
169.0581162981867
 31
0.0
  0
LINE
  5
8B3
330
18
100
AcDbEntity
  8
隠れ線2
 48
0.3
100
AcDbLine
 10
-178.3825256914657
 20
167.5581162981868
 30
0.0
 11
-182.3825256914657
 21
167.5581162981868
 31
0.0
  0
LINE
  5
8B4
330
18
100
AcDbEntity
  8
隠れ線2
 48
0.3
100
AcDbLine
 10
-164.3825256914657
 20
199.6081162981868
 30
0.0
 11
-168.3825256914657
 21
199.6081162981868
 31
0.0
  0
LINE
  5
8B5
330
18
100
AcDbEntity
  8
隠れ線2
 48
0.3
100
AcDbLine
 10
-164.3825256914657
 20
198.0081162981868
 30
0.0
 11
-168.3825256914657
 21
198.0081162981868
 31
0.0
  0
ARC
  5
8B6
330
18
100
AcDbEntity
  8
外形線
100
AcDbCircle
 10
-184.3825256914657
 20
140.3081162981867
 30
0.0
 40
1.0
100
AcDbArc
 50
180.0
 51
270.0
  0
ARC
  5
8B7
330
18
100
AcDbEntity
  8
外形線
100
AcDbCircle
 10
-162.3825256914657
 20
140.3081162981868
 30
0.0
 40
1.0
100
AcDbArc
 50
270.0000000000001
 51
0.0
  0
ARC
  5
8B8
330
18
100
AcDbEntity
  8
外形線
100
AcDbCircle
 10
-184.3825256914657
 20
328.3081162981868
 30
0.0
 40
1.0
100
AcDbArc
 50
89.99999999999987
 51
180.0
  0
LINE
  5
8BA
330
18
100
AcDbEntity
  8
外形線
100
AcDbLine
 10
-182.3825256914657
 20
363.8081162981869
 30
0.0
 11
-182.3825256914657
 21
261.8081162981868
 31
0.0
  0
LINE
  5
8BB
330
18
100
AcDbEntity
  8
外形線
100
AcDbLine
 10
-164.3825256914657
 20
289.8581162981869
 30
0.0
 11
-164.3825256914657
 21
261.8081162981868
 31
0.0
  0
LINE
  5
8BC
330
18
100
AcDbEntity
  8
外形線
100
AcDbLine
 10
-182.3825256914657
 20
206.8081162981868
 30
0.0
 11
-182.3825256914657
 21
165.8081162981867
 31
0.0
  0
LINE
  5
8BD
330
18
100
AcDbEntity
  8
外形線
100
AcDbLine
 10
-164.3825256914657
 20
206.8081162981868
 30
0.0
 11
-164.3825256914657
 21
165.8081162981867
 31
0.0
  0
LINE
  5
8BE
330
18
100
AcDbEntity
  8
外形線
100
AcDbLine
 10
-183.8825256914657
 20
315.5581162981868
 30
0.0
 11
-185.3825256914657
 21
328.3081162981868
 31
0.0
  0
LINE
  5
8C0
330
18
100
AcDbEntity
  8
外形線
100
AcDbLine
 10
-182.6198222213674
 20
163.7910957940217
 30
0.0
 11
-182.6491923581324
 21
163.54144963152
 31
0.0
  0
LINE
  5
8C1
330
18
100
AcDbEntity
  8
外形線
100
AcDbLine
 10
-164.145229161564
 20
163.7910957940217
 30
0.0
 11
-164.1158590247991
 21
163.5414496315201
 31
0.0
  0
LINE
  5
8C2
330
18
100
AcDbEntity
  8
中心線
 48
0.2
100
AcDbLine
 10
-175.9680281546175
 20
281.8081162981867
 30
0.0
 11
-188.4211701213054
 21
281.8081162981867
 31
0.0
  0
LINE
  5
8C3
330
18
100
AcDbEntity
  8
中心線
 48
0.2
100
AcDbLine
 10
-175.9680281546175
 20
277.3081162981867
 30
0.0
 11
-188.4211701213054
 21
277.3081162981867
 31
0.0
  0
LINE
  5
8C4
330
18
100
AcDbEntity
  8
中心線
 48
0.2
100
AcDbLine
 10
-175.9680281546175
 20
272.8081162981867
 30
0.0
 11
-188.4211701213054
 21
272.8081162981867
 31
0.0
  0
LINE
  5
8C5
330
18
100
AcDbEntity
  8
中心線
 48
0.2
100
AcDbLine
 10
-176.0285486674729
 20
267.8081162981868
 30
0.0
 11
-188.5985186562394
 21
267.8081162981868
 31
0.0
  0
LINE
  5
8C6
330
18
100
AcDbEntity
  8
隠れ線2
100
AcDbLine
 10
-177.3825256914657
 20
285.8081162981869
 30
0.0
 11
-177.3825256914657
 21
261.8081162981868
 31
0.0
  0
LINE
  5
8C7
330
18
100
AcDbEntity
  8
隠れ線2
100
AcDbLine
 10
-169.3825256914657
 20
285.8081162981867
 30
0.0
 11
-169.3825256914657
 21
261.8081162981868
 31
0.0
  0
LINE
  5
8C8
330
18
100
AcDbEntity
  8
隠れ線2
100
AcDbLine
 10
-177.3825256914657
 20
283.3081162981867
 30
0.0
 11
-182.3825256914657
 21
283.3081162981868
 31
0.0
  0
LINE
  5
8C9
330
18
100
AcDbEntity
  8
隠れ線2
100
AcDbLine
 10
-177.3825256914657
 20
280.3081162981868
 30
0.0
 11
-182.3825256914657
 21
280.3081162981868
 31
0.0
  0
LINE
  5
8CA
330
18
100
AcDbEntity
  8
隠れ線2
100
AcDbLine
 10
-177.3825256914657
 20
282.8081162981868
 30
0.0
 11
-182.3825256914657
 21
282.8081162981868
 31
0.0
  0
LINE
  5
8CB
330
18
100
AcDbEntity
  8
隠れ線2
100
AcDbLine
 10
-177.3825256914657
 20
280.8081162981867
 30
0.0
 11
-182.3825256914657
 21
280.8081162981868
 31
0.0
  0
LINE
  5
8CC
330
18
100
AcDbEntity
  8
隠れ線2
100
AcDbLine
 10
-177.3825256914657
 20
276.3081162981868
 30
0.0
 11
-182.3825256914657
 21
276.3081162981868
 31
0.0
  0
LINE
  5
8CD
330
18
100
AcDbEntity
  8
隠れ線2
100
AcDbLine
 10
-177.3825256914657
 20
278.3081162981868
 30
0.0
 11
-182.3825256914657
 21
278.3081162981868
 31
0.0
  0
LINE
  5
8CE
330
18
100
AcDbEntity
  8
隠れ線2
100
AcDbLine
 10
-177.3825256914657
 20
275.8081162981867
 30
0.0
 11
-182.3825256914657
 21
275.8081162981868
 31
0.0
  0
LINE
  5
8CF
330
18
100
AcDbEntity
  8
隠れ線2
100
AcDbLine
 10
-177.3825256914657
 20
278.8081162981868
 30
0.0
 11
-182.3825256914657
 21
278.8081162981868
 31
0.0
  0
LINE
  5
8D0
330
18
100
AcDbEntity
  8
隠れ線2
100
AcDbLine
 10
-177.3825256914657
 20
271.8081162981867
 30
0.0
 11
-182.3825256914657
 21
271.8081162981868
 31
0.0
  0
LINE
  5
8D1
330
18
100
AcDbEntity
  8
隠れ線2
100
AcDbLine
 10
-177.3825256914657
 20
273.8081162981867
 30
0.0
 11
-182.3825256914657
 21
273.8081162981868
 31
0.0
  0
LINE
  5
8D2
330
18
100
AcDbEntity
  8
隠れ線2
100
AcDbLine
 10
-177.3825256914657
 20
271.3081162981867
 30
0.0
 11
-182.3825256914657
 21
271.3081162981868
 31
0.0
  0
LINE
  5
8D3
330
18
100
AcDbEntity
  8
隠れ線2
100
AcDbLine
 10
-177.3825256914657
 20
274.3081162981868
 30
0.0
 11
-182.3825256914657
 21
274.3081162981868
 31
0.0
  0
POINT
  5
913
330
18
100
AcDbEntity
  8
DEFPOINTS
  6
ByBlock
 62
     0
100
AcDbPoint
 10
-83.23693164056534
 20
206.8081162981868
 30
0.0
  0
POINT
  5
914
330
18
100
AcDbEntity
  8
DEFPOINTS
  6
ByBlock
 62
     0
100
AcDbPoint
 10
-73.23693164056533
 20
206.8081162981868
 30
0.0
  0
DIMENSION
  5
94E
330
18
100
AcDbEntity
  8
寸法線
100
AcDbDimension
  2
*D7
 10
427.7630683594346
 20
127.3429214083148
 30
0.0
 11
174.7630683594346
 21
129.2179214083148
 31
0.0
 70
    32
 71
     5
 42
-1.0
  3
STYLE3
100
AcDbAlignedDimension
 13
-78.23693164056533
 23
162.5852107481416
 33
0.0
 14
427.7630683594346
 24
234.3081162981867
 34
0.0
100
AcDbRotatedDimension
1001
ACAD
1000
DSTYLE
1002
{
1070
   271
1070
     2
1002
}
  0
DIMENSION
  5
95A
330
18
100
AcDbEntity
  8
寸法線
100
AcDbDimension
  2
*D8
 10
511.7630683594346
 20
127.3429214083148
 30
0.0
 11
469.7630683594346
 21
129.2179214083148
 31
0.0
 12
0.0
 22
-43.34561485034646
 32
0.0
 70
    32
 71
     5
 42
-1.0
  3
STYLE3
100
AcDbAlignedDimension
 13
427.7630683594346
 23
234.3081162981867
 33
0.0
 14
511.7630683594346
 24
234.3081162981867
 34
0.0
100
AcDbRotatedDimension
1001
ACAD
1000
DSTYLE
1002
{
1070
    75
1070
     1
1070
   271
1070
     2
1070
   279
1070
     1
1002
}
  0
LINE
  5
A23
330
18
100
AcDbEntity
  8
外形線
100
AcDbLine
 10
-14.23693164056533
 20
165.8081162981867
 30
0.0
 11
-14.23693164056533
 21
163.5085900984204
 31
0.0
  0
LINE
  5
A79
330
18
100
AcDbEntity
  8
外形線
100
AcDbLine
 10
-22.23693164056533
 20
165.8081162981868
 30
0.0
 11
-22.2369316405653
 21
140.3503472521279
 31
0.0
  0
LINE
  5
A7A
330
18
100
AcDbEntity
  8
外形線
100
AcDbLine
 10
-44.23693164056532
 20
165.8081162981868
 30
0.0
 11
-44.23693164056532
 21
140.3503472521279
 31
0.0
  0
ARC
  5
A7B
330
18
100
AcDbEntity
  8
外形線
100
AcDbCircle
 10
-33.23693164056533
 20
178.8081162981868
 30
0.0
 40
40.0
100
AcDbArc
 50
269.9999999999999
 51
285.9620141628472
  0
ARC
  5
A7C
330
18
100
AcDbEntity
  8
外形線
100
AcDbCircle
 10
-33.23693164056533
 20
178.8081162981868
 30
0.0
 40
40.0
100
AcDbArc
 50
254.0379858371528
 51
270.0000000000001
  0
LINE
  5
A7D
330
18
100
AcDbEntity
  8
隠れ線2
100
AcDbLine
 10
-33.23693164056533
 20
157.8081162981868
 30
0.0
 11
-29.93644981796274
 21
157.8081162981868
 31
0.0
  0
LINE
  5
A7E
330
18
100
AcDbEntity
  8
外形線
100
AcDbLine
 10
-44.23693164056532
 20
165.8081162981867
 30
0.0
 11
-22.23693164056533
 21
165.8081162981867
 31
0.0
  0
LINE
  5
A7F
330
18
100
AcDbEntity
  8
隠れ線2
100
AcDbLine
 10
-44.23693164056532
 20
163.8081162981867
 30
0.0
 11
-22.23693164056533
 21
163.8081162981867
 31
0.0
  0
LINE
  5
A81
330
18
100
AcDbEntity
  8
隠れ線2
100
AcDbLine
 10
-38.48693164056533
 20
163.8081162981867
 30
0.0
 11
-36.53741346316792
 21
157.8081162981868
 31
0.0
  0
LINE
  5
A82
330
18
100
AcDbEntity
  8
外形線
100
AcDbLine
 10
-44.23693164056532
 20
160.5988139726053
 30
0.0
 11
-48.36373393855041
 21
158.2954824574509
 31
0.0
  0
LINE
  5
A83
330
18
100
AcDbEntity
  8
隠れ線2
100
AcDbLine
 10
-36.53741346316787
 20
157.8081162981868
 30
0.0
 11
-42.7384212602974
 21
149.0965388971211
 31
0.0
  0
LINE
  5
A84
330
18
100
AcDbEntity
  8
外形線
100
AcDbLine
 10
-48.7495654813012
 20
156.9349185961718
 30
0.0
 11
-44.42630441255698
 21
149.1890758480051
 31
0.0
  0
ARC
  5
A85
330
18
100
AcDbEntity
  8
外形線
100
AcDbCircle
 10
-43.55310671054212
 20
149.6764420072693
 30
0.0
 40
1.0
100
AcDbArc
 50
209.1676133795778
 51
226.8567355129944
  0
ARC
  5
A86
330
18
100
AcDbEntity
  8
隠れ線2
100
AcDbCircle
 10
-43.55310671054212
 20
149.6764420072693
 30
0.0
 40
1.0
100
AcDbArc
 50
226.8567355129944
 51
324.5562717879028
  0
ARC
  5
A87
330
18
100
AcDbEntity
  8
外形線
100
AcDbCircle
 10
-47.87636777928628
 20
157.422284755436
 30
0.0
 40
1.0
100
AcDbArc
 50
119.1676133795778
 51
209.1676133795778
  0
LINE
  5
A88
330
18
100
AcDbEntity
  8
隠れ線2
100
AcDbLine
 10
-33.23693164056533
 20
157.8081162981868
 30
0.0
 11
-36.53741346316792
 21
157.8081162981868
 31
0.0
  0
LINE
  5
A89
330
18
100
AcDbEntity
  8
隠れ線2
100
AcDbLine
 10
-38.48693164056533
 20
163.8081162981867
 30
0.0
 11
-44.23693164056532
 21
160.5988139726053
 31
0.0
  0
LINE
  5
A8A
330
18
100
AcDbEntity
  8
外形線
100
AcDbLine
 10
-22.23693164056533
 20
160.5988139726053
 30
0.0
 11
-18.11012934258025
 21
158.2954824574509
 31
0.0
  0
LINE
  5
A8B
330
18
100
AcDbEntity
  8
隠れ線2
100
AcDbLine
 10
-27.98693164056533
 20
163.8081162981867
 30
0.0
 11
-29.93644981796274
 21
157.8081162981868
 31
0.0
  0
LINE
  5
A8C
330
18
100
AcDbEntity
  8
外形線
100
AcDbLine
 10
-17.72429779982946
 20
156.9349185961718
 30
0.0
 11
-22.04755886857368
 21
149.1890758480051
 31
0.0
  0
LINE
  5
A8D
330
18
100
AcDbEntity
  8
隠れ線2
100
AcDbLine
 10
-29.93644981796279
 20
157.8081162981868
 30
0.0
 11
-23.73544202083326
 21
149.0965388971211
 31
0.0
  0
ARC
  5
A8E
330
18
100
AcDbEntity
  8
隠れ線2
100
AcDbCircle
 10
-22.92075657058857
 20
149.6764420072693
 30
0.0
 40
1.0
100
AcDbArc
 50
215.4437282120972
 51
313.1432644870079
  0
ARC
  5
A8F
330
18
100
AcDbEntity
  8
外形線
100
AcDbCircle
 10
-22.92075657058857
 20
149.6764420072693
 30
0.0
 40
1.0
100
AcDbArc
 50
313.1432644870079
 51
330.8323866204221
  0
ARC
  5
A90
330
18
100
AcDbEntity
  8
外形線
100
AcDbCircle
 10
-18.59749550184438
 20
157.422284755436
 30
0.0
 40
1.0
100
AcDbArc
 50
330.8323866204222
 51
60.83238662042216
  0
LINE
  5
A91
330
18
100
AcDbEntity
  8
隠れ線2
100
AcDbLine
 10
-27.98693164056533
 20
163.8081162981867
 30
0.0
 11
-22.23693164056533
 21
160.5988139726053
 31
0.0
  0
ARC
  5
A99
330
18
100
AcDbEntity
  8
外形線
100
AcDbCircle
 10
-182.8825256914657
 20
158.7910957940217
 30
0.0
 40
5.0
100
AcDbArc
 50
90.0
 51
127.5685617369824
  0
ARC
  5
A9A
330
18
100
AcDbEntity
  8
外形線
100
AcDbCircle
 10
-163.8825256914657
 20
158.7910957940217
 30
0.0
 40
5.0
100
AcDbArc
 50
52.43143826300855
 51
90.0
  0
ARC
  5
A9B
330
18
100
AcDbEntity
  8
外形線
100
AcDbCircle
 10
-182.8825256914657
 20
158.7910957940217
 30
0.0
 40
7.0
100
AcDbArc
 50
90.0
 51
127.5685617370095
  0
ARC
  5
A9C
330
18
100
AcDbEntity
  8
外形線
100
AcDbCircle
 10
-163.8825256914657
 20
158.7910957940217
 30
0.0
 40
7.0
100
AcDbArc
 50
52.43143826300869
 51
90.0
  0
LINE
  5
AA1
330
18
100
AcDbEntity
  8
外形線
100
AcDbLine
 10
-128.471306681533
 20
140.9360230404431
 30
0.0
 11
-159.6145532988977
 21
164.3394659741987
 31
0.0
  0
LINE
  5
AA2
330
18
100
AcDbEntity
  8
外形線
100
AcDbLine
 10
-129.6907273651239
 20
139.3507744175354
 30
0.0
 11
-160.8339739824886
 21
162.754217351291
 31
0.0
  0
LINE
  5
AA4
330
18
100
AcDbEntity
  8
外形線
100
AcDbLine
 10
-128.471306681533
 20
140.9360230404431
 30
0.0
 11
-129.6907273651239
 21
139.3507744175354
 31
0.0
  0
LINE
  5
AA5
330
18
100
AcDbEntity
  8
外形線
100
AcDbLine
 10
-217.0743240178075
 20
139.3507744175354
 30
0.0
 11
-185.9310774004428
 21
162.754217351291
 31
0.0
  0
LINE
  5
AA6
330
18
100
AcDbEntity
  8
外形線
100
AcDbLine
 10
-218.2937447013984
 20
140.9360230404431
 30
0.0
 11
-187.1504980840337
 21
164.3394659741987
 31
0.0
  0
LINE
  5
AA7
330
18
100
AcDbEntity
  8
外形線
100
AcDbLine
 10
-218.2937447013984
 20
140.9360230404431
 30
0.0
 11
-217.0743240178075
 21
139.3507744175354
 31
0.0
  0
LINE
  5
AA9
330
18
100
AcDbEntity
  8
外形線
100
AcDbLine
 10
-161.3825256914657
 20
163.1212228129439
 30
0.0
 11
-161.3825256914657
 21
140.3081162981868
 31
0.0
  0
LINE
  5
AAA
330
18
100
AcDbEntity
  8
外形線
100
AcDbLine
 10
-185.3825256914657
 20
163.1212228129439
 30
0.0
 11
-185.3825256914657
 21
140.3081162981867
 31
0.0
  0
LINE
  5
AEC
330
18
100
AcDbEntity
  8
外形線
100
AcDbLine
 10
-171.2856277755409
 20
136.3423305933167
 30
0.0
 11
-171.0150806451718
 21
150.0782049833122
 31
0.0
  0
LINE
  5
AED
330
18
100
AcDbEntity
  8
外形線
100
AcDbLine
 10
-175.4794236073905
 20
136.3423305933167
 30
0.0
 11
-175.7499707377596
 21
150.0782049833122
 31
0.0
  0
ARC
  5
AEE
330
18
100
AcDbEntity
  8
外形線
100
AcDbCircle
 10
-173.3825256914657
 20
136.5726501779285
 30
0.0
 40
2.109508943063662
100
AcDbArc
 50
270.0
 51
353.7318588147518
  0
ARC
  5
AEF
330
18
100
AcDbEntity
  8
外形線
100
AcDbCircle
 10
-173.3825256914657
 20
136.5726501779285
 30
0.0
 40
2.109508943063662
100
AcDbArc
 50
186.2681411852482
 51
270.0
  0
LINE
  5
AF0
330
18
100
AcDbEntity
  8
外形線
100
AcDbLine
 10
-164.3825256914657
 20
163.8081162981867
 30
0.0
 11
-166.3825256914657
 21
163.8081162981867
 31
0.0
  0
LINE
  5
AF2
330
18
100
AcDbEntity
  8
外形線
100
AcDbLine
 10
-182.8825256914657
 20
163.3081162981867
 30
0.0
 11
-163.8825256914657
 21
163.3081162981867
 31
0.0
  0
LINE
  5
AF3
330
18
100
AcDbEntity
  8
外形線
100
AcDbLine
 10
-181.3825256914657
 20
150.5782049833122
 30
0.0
 11
-165.3825256914657
 21
150.5782049833122
 31
0.0
  0
LINE
  5
AF4
330
18
100
AcDbEntity
  8
外形線
100
AcDbLine
 10
-181.3825256914657
 20
152.5782049833122
 30
0.0
 11
-165.3825256914657
 21
152.5782049833122
 31
0.0
  0
LINE
  5
AF5
330
18
100
AcDbEntity
  8
外形線
100
AcDbLine
 10
-180.8825256914657
 20
150.0782049833122
 30
0.0
 11
-165.8825256914657
 21
150.0782049833122
 31
0.0
  0
LINE
  5
AF6
330
18
100
AcDbEntity
  8
外形線
100
AcDbLine
 10
-180.8825256914657
 20
153.0782049833122
 30
0.0
 11
-165.8825256914657
 21
153.0782049833122
 31
0.0
  0
LINE
  5
AF7
330
18
100
AcDbEntity
  8
外形線
100
AcDbLine
 10
-182.8825256914657
 20
162.3081162981867
 30
0.0
 11
-163.8825256914657
 21
162.3081162981867
 31
0.0
  0
LINE
  5
AF8
330
18
100
AcDbEntity
  8
外形線
100
AcDbLine
 10
-182.3825256914657
 20
161.8081162981868
 30
0.0
 11
-164.3825256914657
 21
161.8081162981868
 31
0.0
  0
LINE
  5
AF9
330
18
100
AcDbEntity
  8
外形線
 62
     4
100
AcDbLine
 10
-174.4962373609024
 20
152.5782049833122
 30
0.0
 11
-174.4962373609024
 21
150.5782049833122
 31
0.0
  0
LINE
  5
AFA
330
18
100
AcDbEntity
  8
外形線
 62
     4
100
AcDbLine
 10
-175.4962373609024
 20
152.5782049833122
 30
0.0
 11
-175.4962373609024
 21
150.5782049833122
 31
0.0
  0
LINE
  5
AFB
330
18
100
AcDbEntity
  8
外形線
 62
     4
100
AcDbLine
 10
-176.4962373609024
 20
152.5782049833122
 30
0.0
 11
-176.4962373609024
 21
150.5782049833122
 31
0.0
  0
LINE
  5
AFC
330
18
100
AcDbEntity
  8
外形線
 62
     4
100
AcDbLine
 10
-177.4962373609024
 20
152.5782049833122
 30
0.0
 11
-177.4962373609024
 21
150.5782049833122
 31
0.0
  0
LINE
  5
AFD
330
18
100
AcDbEntity
  8
外形線
 62
     4
100
AcDbLine
 10
-180.4962373609024
 20
152.5782049833122
 30
0.0
 11
-180.4962373609024
 21
150.5782049833122
 31
0.0
  0
LINE
  5
AFE
330
18
100
AcDbEntity
  8
外形線
100
AcDbLine
 10
-181.3825256914657
 20
152.5782049833122
 30
0.0
 11
-181.3825256914657
 21
150.5782049833122
 31
0.0
  0
LINE
  5
AFF
330
18
100
AcDbEntity
  8
外形線
 62
     4
100
AcDbLine
 10
-179.4962373609024
 20
152.5782049833122
 30
0.0
 11
-179.4962373609024
 21
150.5782049833122
 31
0.0
  0
LINE
  5
B00
330
18
100
AcDbEntity
  8
外形線
 62
     4
100
AcDbLine
 10
-178.4962373609024
 20
152.5782049833122
 30
0.0
 11
-178.4962373609024
 21
150.5782049833122
 31
0.0
  0
LINE
  5
B01
330
18
100
AcDbEntity
  8
外形線
100
AcDbLine
 10
-180.8825256914657
 20
150.0782049833122
 30
0.0
 11
-181.3825256914657
 21
150.5782049833122
 31
0.0
  0
LINE
  5
B02
330
18
100
AcDbEntity
  8
外形線
100
AcDbLine
 10
-182.3825256914657
 20
163.8081162981867
 30
0.0
 11
-166.3825256914657
 21
163.8081162981867
 31
0.0
  0
LINE
  5
B03
330
18
100
AcDbEntity
  8
外形線
100
AcDbLine
 10
-181.3825256914657
 20
152.5782049833122
 30
0.0
 11
-180.8825256914657
 21
153.0782049833122
 31
0.0
  0
LINE
  5
B05
330
18
100
AcDbEntity
  8
外形線
100
AcDbLine
 10
-182.8825256914657
 20
163.3081162981867
 30
0.0
 11
-182.3825256914657
 21
163.8081162981867
 31
0.0
  0
LINE
  5
B06
330
18
100
AcDbEntity
  8
外形線
100
AcDbLine
 10
-182.3825256914657
 20
161.8081162981868
 30
0.0
 11
-182.8825256914657
 21
162.3081162981867
 31
0.0
  0
LINE
  5
B07
330
18
100
AcDbEntity
  8
外形線
100
AcDbLine
 10
-182.8825256914657
 20
163.3081162981867
 30
0.0
 11
-182.8825256914657
 21
162.3081162981867
 31
0.0
  0
ARC
  5
B08
330
18
100
AcDbEntity
  8
外形線
100
AcDbCircle
 10
-180.3825256914657
 20
165.8081162981867
 30
0.0
 40
2.0
100
AcDbArc
 50
270.0
 51
359.9999999999996
  0
LINE
  5
B09
330
18
100
AcDbEntity
  8
外形線
100
AcDbLine
 10
-178.3825256914657
 20
165.8081162981867
 30
0.0
 11
-178.3825256914657
 21
165.8081162981867
 31
0.0
  0
LINE
  5
B0A
330
18
100
AcDbEntity
  8
外形線
 62
     4
100
AcDbLine
 10
-179.8825256914657
 20
163.3081162981867
 30
0.0
 11
-179.8825256914657
 21
162.3081162981867
 31
0.0
  0
LINE
  5
B0B
330
18
100
AcDbEntity
  8
外形線
 62
     4
100
AcDbLine
 10
-180.8825256914657
 20
163.3081162981867
 30
0.0
 11
-180.8825256914657
 21
162.3081162981867
 31
0.0
  0
LINE
  5
B0C
330
18
100
AcDbEntity
  8
外形線
 62
     4
100
AcDbLine
 10
-181.8825256914657
 20
163.3081162981867
 30
0.0
 11
-181.8825256914657
 21
162.3081162981867
 31
0.0
  0
LINE
  5
B0D
330
18
100
AcDbEntity
  8
外形線
 62
     4
100
AcDbLine
 10
-177.8825256914657
 20
163.3081162981867
 30
0.0
 11
-177.8825256914657
 21
162.3081162981867
 31
0.0
  0
LINE
  5
B0E
330
18
100
AcDbEntity
  8
外形線
 62
     4
100
AcDbLine
 10
-178.8825256914657
 20
163.3081162981867
 30
0.0
 11
-178.8825256914657
 21
162.3081162981867
 31
0.0
  0
LINE
  5
B0F
330
18
100
AcDbEntity
  8
中心線
100
AcDbLine
 10
-172.1325256914657
 20
161.8081162981868
 30
0.0
 11
-172.1325256914657
 21
153.0782049833122
 31
0.0
  0
LINE
  5
B10
330
18
100
AcDbEntity
  8
中心線
100
AcDbLine
 10
-174.6325256914657
 20
161.8081162981868
 30
0.0
 11
-174.6325256914657
 21
153.0782049833122
 31
0.0
  0
LINE
  5
B11
330
18
100
AcDbEntity
  8
外形線
100
AcDbLine
 10
-175.3825256914657
 20
161.8081162981868
 30
0.0
 11
-175.3825256914657
 21
153.0782049833122
 31
0.0
  0
LINE
  5
B12
330
18
100
AcDbEntity
  8
外形線
100
AcDbLine
 10
-171.3825256914657
 20
161.8081162981868
 30
0.0
 11
-171.3825256914657
 21
153.0782049833122
 31
0.0
  0
LINE
  5
B16
330
18
100
AcDbEntity
  8
外形線
 62
     4
100
AcDbLine
 10
-174.8825256914657
 20
163.3081162981867
 30
0.0
 11
-174.8825256914657
 21
162.3081162981867
 31
0.0
  0
LINE
  5
B17
330
18
100
AcDbEntity
  8
外形線
 62
     4
100
AcDbLine
 10
-175.8825256914657
 20
163.3081162981867
 30
0.0
 11
-175.8825256914657
 21
162.3081162981867
 31
0.0
  0
LINE
  5
B18
330
18
100
AcDbEntity
  8
外形線
 62
     4
100
AcDbLine
 10
-176.8825256914657
 20
163.3081162981867
 30
0.0
 11
-176.8825256914657
 21
162.3081162981867
 31
0.0
  0
ARC
  5
B19
330
18
100
AcDbEntity
  8
外形線
100
AcDbCircle
 10
-166.3825256914657
 20
165.8081162981867
 30
0.0
 40
2.0
100
AcDbArc
 50
180.0000000000004
 51
270.0
  0
LINE
  5
B1A
330
18
100
AcDbEntity
  8
外形線
100
AcDbLine
 10
-165.3825256914657
 20
152.5782049833122
 30
0.0
 11
-165.3825256914657
 21
150.5782049833122
 31
0.0
  0
LINE
  5
B1B
330
18
100
AcDbEntity
  8
外形線
100
AcDbLine
 10
-165.3825256914657
 20
150.5782049833122
 30
0.0
 11
-165.8825256914657
 21
150.0782049833122
 31
0.0
  0
LINE
  5
B1C
330
18
100
AcDbEntity
  8
外形線
100
AcDbLine
 10
-165.8825256914657
 20
153.0782049833122
 30
0.0
 11
-165.3825256914657
 21
152.5782049833122
 31
0.0
  0
LINE
  5
B1D
330
18
100
AcDbEntity
  8
外形線
100
AcDbLine
 10
-164.3825256914657
 20
163.8081162981867
 30
0.0
 11
-163.8825256914657
 21
163.3081162981867
 31
0.0
  0
LINE
  5
B1E
330
18
100
AcDbEntity
  8
外形線
100
AcDbLine
 10
-163.8825256914657
 20
162.3081162981867
 30
0.0
 11
-164.3825256914657
 21
161.8081162981868
 31
0.0
  0
LINE
  5
B1F
330
18
100
AcDbEntity
  8
外形線
100
AcDbLine
 10
-163.8825256914657
 20
163.3081162981867
 30
0.0
 11
-163.8825256914657
 21
162.3081162981867
 31
0.0
  0
LINE
  5
B21
330
18
100
AcDbEntity
  8
外形線
100
AcDbLine
 10
-175.5378388774316
 20
139.3081162981867
 30
0.0
 11
-184.3825256914657
 21
139.3081162981867
 31
0.0
  0
LINE
  5
B22
330
18
100
AcDbEntity
  8
外形線
100
AcDbLine
 10
-163.9614730598868
 20
162.2291689297656
 30
0.0
 11
-161.3825256914657
 21
140.3081162981868
 31
0.0
  0
LINE
  5
B23
330
18
100
AcDbEntity
  8
外形線
100
AcDbLine
 10
-182.8035783230447
 20
162.2291689297657
 30
0.0
 11
-185.3825256914657
 21
140.3081162981867
 31
0.0
  0
LINE
  5
B38
330
18
100
AcDbEntity
  8
中心線
100
AcDbLine
 10
-63.23693164056533
 20
272.0145069804836
 30
0.0
 11
-63.23693164056533
 21
263.9623814949542
 31
0.0
  0
LINE
  5
B39
330
18
100
AcDbEntity
  8
外形線
100
AcDbLine
 10
-68.73693164056533
 20
163.3081162981867
 30
0.0
 11
-68.73693164056533
 21
162.3081162981867
 31
0.0
  0
LINE
  5
B3A
330
18
100
AcDbEntity
  8
外形線
 62
     4
100
AcDbLine
 10
-81.73693164056533
 20
163.3081162981867
 30
0.0
 11
-81.73693164056533
 21
162.3081162981867
 31
0.0
  0
LINE
  5
B3B
330
18
100
AcDbEntity
  8
外形線
 62
     4
100
AcDbLine
 10
-80.73693164056534
 20
163.3081162981867
 30
0.0
 11
-80.73693164056534
 21
162.3081162981867
 31
0.0
  0
LINE
  5
B3C
330
18
100
AcDbEntity
  8
外形線
 62
     4
100
AcDbLine
 10
-79.73693164056533
 20
163.3081162981867
 30
0.0
 11
-79.73693164056533
 21
162.3081162981867
 31
0.0
  0
LINE
  5
B3D
330
18
100
AcDbEntity
  8
外形線
 62
     4
100
AcDbLine
 10
-83.73693164056533
 20
163.3081162981867
 30
0.0
 11
-83.73693164056533
 21
162.3081162981867
 31
0.0
  0
LINE
  5
B3E
330
18
100
AcDbEntity
  8
外形線
 62
     4
100
AcDbLine
 10
-82.73693164056533
 20
163.3081162981867
 30
0.0
 11
-82.73693164056533
 21
162.3081162981867
 31
0.0
  0
LINE
  5
B3F
330
18
100
AcDbEntity
  8
外形線
 62
     4
100
AcDbLine
 10
-86.73693164056533
 20
163.3081162981867
 30
0.0
 11
-86.73693164056533
 21
162.3081162981867
 31
0.0
  0
LINE
  5
B40
330
18
100
AcDbEntity
  8
外形線
 62
     4
100
AcDbLine
 10
-85.73693164056534
 20
163.3081162981867
 30
0.0
 11
-85.73693164056534
 21
162.3081162981867
 31
0.0
  0
LINE
  5
B41
330
18
100
AcDbEntity
  8
外形線
 62
     4
100
AcDbLine
 10
-84.73693164056532
 20
163.3081162981867
 30
0.0
 11
-84.73693164056532
 21
162.3081162981867
 31
0.0
  0
LINE
  5
B42
330
18
100
AcDbEntity
  8
外形線
100
AcDbLine
 10
-87.73693164056533
 20
163.3081162981867
 30
0.0
 11
-87.73693164056533
 21
162.3081162981867
 31
0.0
  0
LINE
  5
B43
330
18
100
AcDbEntity
  8
外形線
100
AcDbLine
 10
-87.23693164056532
 20
161.8081162981868
 30
0.0
 11
-69.23693164056533
 21
161.8081162981868
 31
0.0
  0
LINE
  5
B44
330
18
100
AcDbEntity
  8
外形線
100
AcDbLine
 10
-87.73693164056533
 20
162.3081162981867
 30
0.0
 11
-68.73693164056533
 21
162.3081162981867
 31
0.0
  0
LINE
  5
B45
330
18
100
AcDbEntity
  8
外形線
100
AcDbLine
 10
-85.73693164056534
 20
153.0782049833122
 30
0.0
 11
-70.73693164056533
 21
153.0782049833122
 31
0.0
  0
LINE
  5
B46
330
18
100
AcDbEntity
  8
外形線
100
AcDbLine
 10
-85.73693164056534
 20
150.0782049833122
 30
0.0
 11
-70.73693164056533
 21
150.0782049833122
 31
0.0
  0
LINE
  5
B47
330
18
100
AcDbEntity
  8
外形線
100
AcDbLine
 10
-86.23693164056533
 20
152.5782049833122
 30
0.0
 11
-70.23693164056533
 21
152.5782049833122
 31
0.0
  0
LINE
  5
B48
330
18
100
AcDbEntity
  8
外形線
100
AcDbLine
 10
-86.23693164056533
 20
150.5782049833122
 30
0.0
 11
-70.23693164056533
 21
150.5782049833122
 31
0.0
  0
LINE
  5
B49
330
18
100
AcDbEntity
  8
外形線
100
AcDbLine
 10
-86.23693164056533
 20
152.5782049833122
 30
0.0
 11
-85.73693164056534
 21
153.0782049833122
 31
0.0
  0
LINE
  5
B4A
330
18
100
AcDbEntity
  8
外形線
100
AcDbLine
 10
-85.73693164056534
 20
150.0782049833122
 30
0.0
 11
-86.23693164056533
 21
150.5782049833122
 31
0.0
  0
LINE
  5
B4B
330
18
100
AcDbEntity
  8
外形線
100
AcDbLine
 10
-86.23693164056533
 20
152.5782049833122
 30
0.0
 11
-86.23693164056533
 21
150.5782049833122
 31
0.0
  0
LINE
  5
B4C
330
18
100
AcDbEntity
  8
外形線
 62
     4
100
AcDbLine
 10
-85.35064331000205
 20
152.5782049833122
 30
0.0
 11
-85.35064331000205
 21
150.5782049833122
 31
0.0
  0
LINE
  5
B4D
330
18
100
AcDbEntity
  8
外形線
100
AcDbLine
 10
-87.23693164056532
 20
161.8081162981868
 30
0.0
 11
-87.73693164056533
 21
162.3081162981867
 31
0.0
  0
LINE
  5
B4E
330
18
100
AcDbEntity
  8
外形線
100
AcDbLine
 10
-76.23693164056533
 20
161.8081162981868
 30
0.0
 11
-76.23693164056533
 21
153.0782049833122
 31
0.0
  0
LINE
  5
B4F
330
18
100
AcDbEntity
  8
外形線
100
AcDbLine
 10
-80.23693164056533
 20
161.8081162981868
 30
0.0
 11
-80.23693164056533
 21
153.0782049833122
 31
0.0
  0
LINE
  5
B50
330
18
100
AcDbEntity
  8
中心線
100
AcDbLine
 10
-79.48693164056533
 20
161.8081162981868
 30
0.0
 11
-79.48693164056533
 21
153.0782049833122
 31
0.0
  0
LINE
  5
B51
330
18
100
AcDbEntity
  8
中心線
100
AcDbLine
 10
-76.98693164056533
 20
161.8081162981868
 30
0.0
 11
-76.98693164056533
 21
153.0782049833122
 31
0.0
  0
LINE
  5
B52
330
18
100
AcDbEntity
  8
外形線
 62
     4
100
AcDbLine
 10
-83.35064331000205
 20
152.5782049833122
 30
0.0
 11
-83.35064331000205
 21
150.5782049833122
 31
0.0
  0
LINE
  5
B53
330
18
100
AcDbEntity
  8
外形線
 62
     4
100
AcDbLine
 10
-84.35064331000205
 20
152.5782049833122
 30
0.0
 11
-84.35064331000205
 21
150.5782049833122
 31
0.0
  0
LINE
  5
B54
330
18
100
AcDbEntity
  8
外形線
 62
     4
100
AcDbLine
 10
-82.35064331000206
 20
152.5782049833122
 30
0.0
 11
-82.35064331000206
 21
150.5782049833122
 31
0.0
  0
LINE
  5
B55
330
18
100
AcDbEntity
  8
外形線
 62
     4
100
AcDbLine
 10
-81.35064331000206
 20
152.5782049833122
 30
0.0
 11
-81.35064331000206
 21
150.5782049833122
 31
0.0
  0
LINE
  5
B56
330
18
100
AcDbEntity
  8
外形線
 62
     4
100
AcDbLine
 10
-80.35064331000205
 20
152.5782049833122
 30
0.0
 11
-80.35064331000205
 21
150.5782049833122
 31
0.0
  0
LINE
  5
B57
330
18
100
AcDbEntity
  8
外形線
 62
     4
100
AcDbLine
 10
-79.35064331000205
 20
152.5782049833122
 30
0.0
 11
-79.35064331000205
 21
150.5782049833122
 31
0.0
  0
LINE
  5
B58
330
18
100
AcDbEntity
  8
外形線
100
AcDbLine
 10
-70.73693164056533
 20
153.0782049833122
 30
0.0
 11
-70.23693164056533
 21
152.5782049833122
 31
0.0
  0
LINE
  5
B59
330
18
100
AcDbEntity
  8
外形線
100
AcDbLine
 10
-70.23693164056533
 20
150.5782049833122
 30
0.0
 11
-70.73693164056533
 21
150.0782049833122
 31
0.0
  0
LINE
  5
B5A
330
18
100
AcDbEntity
  8
外形線
100
AcDbLine
 10
-70.23693164056533
 20
152.5782049833122
 30
0.0
 11
-70.23693164056533
 21
150.5782049833122
 31
0.0
  0
LINE
  5
B5B
330
18
100
AcDbEntity
  8
外形線
100
AcDbLine
 10
-68.73693164056533
 20
162.3081162981867
 30
0.0
 11
-69.23693164056533
 21
161.8081162981868
 31
0.0
  0
ARC
  5
B5C
330
18
100
AcDbEntity
  8
外形線
100
AcDbCircle
 10
-85.23693164056533
 20
165.8081162981867
 30
0.0
 40
2.0
100
AcDbArc
 50
270.0
 51
359.9999999999996
  0
LINE
  5
B5D
330
18
100
AcDbEntity
  8
外形線
100
AcDbLine
 10
-87.23693164056532
 20
163.8081162981867
 30
0.0
 11
-71.23693164056533
 21
163.8081162981867
 31
0.0
  0
LINE
  5
B5E
330
18
100
AcDbEntity
  8
外形線
100
AcDbLine
 10
-87.73693164056533
 20
163.3081162981867
 30
0.0
 11
-68.73693164056533
 21
163.3081162981867
 31
0.0
  0
LINE
  5
B60
330
18
100
AcDbEntity
  8
外形線
100
AcDbLine
 10
-87.73693164056533
 20
163.3081162981867
 30
0.0
 11
-87.23693164056532
 21
163.8081162981867
 31
0.0
  0
LINE
  5
B62
330
18
100
AcDbEntity
  8
外形線
100
AcDbLine
 10
-69.23693164056533
 20
163.8081162981867
 30
0.0
 11
-71.23693164056533
 21
163.8081162981867
 31
0.0
  0
LINE
  5
B63
330
18
100
AcDbEntity
  8
外形線
100
AcDbLine
 10
-83.2369316405653
 20
165.8081162981867
 30
0.0
 11
-83.23693164056534
 21
165.8081162981867
 31
0.0
  0
ARC
  5
B64
330
18
100
AcDbEntity
  8
外形線
100
AcDbCircle
 10
-71.23693164056533
 20
165.8081162981867
 30
0.0
 40
2.0
100
AcDbArc
 50
180.0000000000004
 51
270.0
  0
LINE
  5
B65
330
18
100
AcDbEntity
  8
外形線
100
AcDbLine
 10
-69.23693164056533
 20
163.8081162981867
 30
0.0
 11
-68.73693164056533
 21
163.3081162981867
 31
0.0
  0
LINE
  5
BBF
330
18
100
AcDbEntity
  8
外形線
100
AcDbLine
 10
-161.4794201971719
 20
203.3081162981868
 30
0.0
 11
-161.4794201971719
 21
194.3081162981868
 31
0.0
  0
LINE
  5
BC0
330
18
100
AcDbEntity
  8
外形線
100
AcDbLine
 10
-160.9794201971718
 20
203.8081162981868
 30
0.0
 11
-160.9794201971718
 21
193.8081162981868
 31
0.0
  0
LINE
  5
BC1
330
18
100
AcDbEntity
  8
外形線
100
AcDbLine
 10
-158.9794201971718
 20
203.8081162981868
 30
0.0
 11
-158.9794201971718
 21
193.8081162981868
 31
0.0
  0
LINE
  5
BC2
330
18
100
AcDbEntity
  8
外形線
100
AcDbLine
 10
-158.4794201971718
 20
203.3081162981868
 30
0.0
 11
-158.4794201971718
 21
194.3081162981868
 31
0.0
  0
LINE
  5
BC3
330
18
100
AcDbEntity
  8
外形線
100
AcDbLine
 10
-160.9794201971718
 20
193.8081162981868
 30
0.0
 11
-158.9794201971718
 21
193.8081162981868
 31
0.0
  0
LINE
  5
BC4
330
18
100
AcDbEntity
  8
外形線
100
AcDbLine
 10
-160.9794201971718
 20
193.8081162981868
 30
0.0
 11
-161.4794201971719
 21
194.3081162981868
 31
0.0
  0
LINE
  5
BC5
330
18
100
AcDbEntity
  8
外形線
100
AcDbLine
 10
-158.4794201971718
 20
194.3081162981868
 30
0.0
 11
-158.9794201971718
 21
193.8081162981868
 31
0.0
  0
LINE
  5
BC6
330
18
100
AcDbEntity
  8
中心線
 48
0.4
100
AcDbLine
 10
-169.3223949662195
 20
198.8081162981868
 30
0.0
 11
-156.4872408709549
 21
198.8081162981868
 31
0.0
  0
LINE
  5
BC7
330
18
100
AcDbEntity
  8
中心線
 48
0.4
100
AcDbLine
 10
-159.7145152970671
 20
203.8081162981868
 30
0.0
 11
-158.9794201971718
 21
203.3837089443823
 31
0.0
  0
LINE
  5
BC8
330
18
100
AcDbEntity
  8
中心線
 48
0.4
100
AcDbLine
 10
-160.9794201971718
 20
202.8108572335201
 30
0.0
 11
-159.2521168288604
 21
203.8081162981868
 31
0.0
  0
LINE
  5
BC9
330
18
100
AcDbEntity
  8
外形線
100
AcDbLine
 10
-161.4794201971719
 20
203.3081162981868
 30
0.0
 11
-160.9794201971718
 21
203.8081162981868
 31
0.0
  0
LINE
  5
BCA
330
18
100
AcDbEntity
  8
外形線
100
AcDbLine
 10
-158.9794201971718
 20
203.8081162981868
 30
0.0
 11
-158.4794201971718
 21
203.3081162981868
 31
0.0
  0
LINE
  5
BCB
330
18
100
AcDbEntity
  8
中心線
 48
0.4
100
AcDbLine
 10
-160.9794201971718
 20
203.3837089443823
 30
0.0
 11
-158.9794201971718
 21
202.229008406003
 31
0.0
  0
LINE
  5
BCC
330
18
100
AcDbEntity
  8
中心線
 48
0.4
100
AcDbLine
 10
-160.9794201971718
 20
202.229008406003
 30
0.0
 11
-158.9794201971718
 21
201.0743078676238
 31
0.0
  0
LINE
  5
BCD
330
18
100
AcDbEntity
  8
中心線
 48
0.4
100
AcDbLine
 10
-160.9794201971718
 20
201.0743078676237
 30
0.0
 11
-158.9794201971718
 21
199.9196073292445
 31
0.0
  0
LINE
  5
BCE
330
18
100
AcDbEntity
  8
中心線
 48
0.4
100
AcDbLine
 10
-160.9794201971718
 20
199.9196073292444
 30
0.0
 11
-158.9794201971718
 21
198.7649067908652
 31
0.0
  0
LINE
  5
BCF
330
18
100
AcDbEntity
  8
中心線
 48
0.4
100
AcDbLine
 10
-160.9794201971718
 20
201.6561566951408
 30
0.0
 11
-158.9794201971718
 21
202.8108572335201
 31
0.0
  0
LINE
  5
BD0
330
18
100
AcDbEntity
  8
中心線
 48
0.4
100
AcDbLine
 10
-160.9794201971718
 20
200.5014561567615
 30
0.0
 11
-158.9794201971718
 21
201.6561566951408
 31
0.0
  0
LINE
  5
BD1
330
18
100
AcDbEntity
  8
中心線
 48
0.4
100
AcDbLine
 10
-160.9794201971718
 20
199.3467556183822
 30
0.0
 11
-158.9794201971718
 21
200.5014561567615
 31
0.0
  0
LINE
  5
BD2
330
18
100
AcDbEntity
  8
中心線
 48
0.4
100
AcDbLine
 10
-164.3825256914657
 20
198.0081162981868
 30
0.0
 11
-161.4794201971719
 21
198.0081162981868
 31
0.0
  0
LINE
  5
BD3
330
18
100
AcDbEntity
  8
中心線
 48
0.4
100
AcDbLine
 10
-164.3825256914657
 20
199.6081162981868
 30
0.0
 11
-161.4794201971719
 21
199.6081162981868
 31
0.0
  0
LINE
  5
BD4
330
18
100
AcDbEntity
  8
外形線
100
AcDbLine
 10
-164.3825256914657
 20
197.5081162981868
 30
0.0
 11
-161.4794201971719
 21
197.5081162981868
 31
0.0
  0
LINE
  5
BD5
330
18
100
AcDbEntity
  8
外形線
100
AcDbLine
 10
-164.3825256914657
 20
200.1081162981868
 30
0.0
 11
-161.4794201971719
 21
200.1081162981868
 31
0.0
  0
LINE
  5
BD6
330
18
100
AcDbEntity
  8
中心線
 48
0.4
100
AcDbLine
 10
-159.9123708667047
 20
198.8081162981868
 30
0.0
 11
-158.9794201971718
 21
199.3467556183822
 31
0.0
  0
LINE
  5
BD7
330
18
100
AcDbEntity
  8
外形線
100
AcDbLine
 10
-160.9794201971718
 20
203.8081162981868
 30
0.0
 11
-158.9794201971718
 21
203.8081162981868
 31
0.0
  0
CIRCLE
  5
BD8
330
18
100
AcDbEntity
  8
外形線
100
AcDbCircle
 10
-78.23693164056533
 20
198.8081162981868
 30
0.0
 40
5.0
  0
CIRCLE
  5
BD9
330
18
100
AcDbEntity
  8
外形線
100
AcDbCircle
 10
-78.23693164056533
 20
198.8081162981868
 30
0.0
 40
4.5
  0
LINE
  5
BDA
330
18
100
AcDbEntity
  8
外形線
100
AcDbLine
 10
-82.73693164056535
 20
223.3081162981869
 30
0.0
 11
-73.73693164056534
 21
223.3081162981869
 31
0.0
  0
LINE
  5
BDB
330
18
100
AcDbEntity
  8
外形線
100
AcDbLine
 10
-82.73693164056535
 20
225.3081162981869
 30
0.0
 11
-73.73693164056534
 21
225.3081162981869
 31
0.0
  0
LINE
  5
BDC
330
18
100
AcDbEntity
  8
外形線
100
AcDbLine
 10
-83.23693164056534
 20
224.8081162981868
 30
0.0
 11
-73.23693164056535
 21
224.8081162981868
 31
0.0
  0
LINE
  5
BDD
330
18
100
AcDbEntity
  8
外形線
100
AcDbLine
 10
-83.23693164056534
 20
223.8081162981869
 30
0.0
 11
-73.23693164056535
 21
223.8081162981869
 31
0.0
  0
LINE
  5
BDE
330
18
100
AcDbEntity
  8
外形線
100
AcDbLine
 10
-78.23693164056535
 20
215.5081162981868
 30
0.0
 11
-73.23693164056535
 21
215.5081162981868
 31
0.0
  0
LINE
  5
BDF
330
18
100
AcDbEntity
  8
外形線
100
AcDbLine
 10
-78.23693164056535
 20
216.1081162981869
 30
0.0
 11
-73.23693164056535
 21
216.1081162981869
 31
0.0
  0
LINE
  5
BE0
330
18
100
AcDbEntity
  8
外形線
100
AcDbLine
 10
-78.23693164056535
 20
213.8081162981869
 30
0.0
 11
-73.53693164056536
 21
213.8081162981869
 31
0.0
  0
LINE
  5
BE1
330
18
100
AcDbEntity
  8
外形線
100
AcDbLine
 10
-82.93693164056533
 20
215.8081162981869
 30
0.0
 11
-73.53693164056536
 21
215.8081162981869
 31
0.0
  0
LINE
  5
BE2
330
18
100
AcDbEntity
  8
外形線
100
AcDbLine
 10
-82.23693164056534
 20
217.8081162981869
 30
0.0
 11
-74.23693164056534
 21
217.8081162981869
 31
0.0
  0
LINE
  5
BE3
330
18
100
AcDbEntity
  8
外形線
100
AcDbLine
 10
-83.23693164056534
 20
216.8081162981869
 30
0.0
 11
-73.23693164056535
 21
216.8081162981869
 31
0.0
  0
LINE
  5
BE4
330
18
100
AcDbEntity
  8
中心線
 48
0.4
100
AcDbLine
 10
-85.25775091011292
 20
198.8081162981868
 30
0.0
 11
-71.21611237101774
 21
198.8081162981868
 31
0.0
  0
LINE
  5
BE5
330
18
100
AcDbEntity
  8
外形線
100
AcDbLine
 10
-78.23693164056535
 20
208.8081162981868
 30
0.0
 11
-69.23693164056534
 21
208.8081162981868
 31
0.0
  0
LINE
  5
BE6
330
18
100
AcDbEntity
  8
外形線
100
AcDbLine
 10
-78.23693164056535
 20
211.3081162981868
 30
0.0
 11
-68.23693164056535
 21
211.3081162981868
 31
0.0
  0
LINE
  5
BE7
330
18
100
AcDbEntity
  8
外形線
100
AcDbLine
 10
-78.23693164056535
 20
213.8081162981869
 30
0.0
 11
-68.23693164056535
 21
213.8081162981869
 31
0.0
  0
LINE
  5
BE8
330
18
100
AcDbEntity
  8
外形線
100
AcDbLine
 10
-88.23693164056534
 20
211.3081162981868
 30
0.0
 11
-87.23693164056534
 21
208.8081162981868
 31
0.0
  0
LINE
  5
BE9
330
18
100
AcDbEntity
  8
外形線
100
AcDbLine
 10
-78.23693164056535
 20
208.8081162981868
 30
0.0
 11
-87.23693164056534
 21
208.8081162981868
 31
0.0
  0
LINE
  5
BEA
330
18
100
AcDbEntity
  8
外形線
100
AcDbLine
 10
-84.73693164056534
 20
208.8081162981868
 30
0.0
 11
-84.73693164056534
 21
206.8081162981868
 31
0.0
  0
LINE
  5
BEB
330
18
100
AcDbEntity
  8
外形線
100
AcDbLine
 10
-78.23693164056535
 20
211.3081162981868
 30
0.0
 11
-88.23693164056534
 21
211.3081162981868
 31
0.0
  0
LINE
  5
BEC
330
18
100
AcDbEntity
  8
外形線
100
AcDbLine
 10
-78.23693164056535
 20
213.8081162981869
 30
0.0
 11
-88.23693164056534
 21
213.8081162981869
 31
0.0
  0
LINE
  5
BED
330
18
100
AcDbEntity
  8
外形線
100
AcDbLine
 10
-88.23693164056534
 20
213.8081162981869
 30
0.0
 11
-88.23693164056534
 21
211.3081162981868
 31
0.0
  0
LINE
  5
BEE
330
18
100
AcDbEntity
  8
外形線
100
AcDbLine
 10
-81.23693164056534
 20
218.2370175657224
 30
0.0
 11
-81.23693164056534
 21
217.8081162981869
 31
0.0
  0
LINE
  5
BEF
330
18
100
AcDbEntity
  8
外形線
100
AcDbLine
 10
-78.23693164056535
 20
213.8081162981869
 30
0.0
 11
-82.9369316405654
 21
213.8081162981869
 31
0.0
  0
LINE
  5
BF0
330
18
100
AcDbEntity
  8
外形線
100
AcDbLine
 10
-78.23693164056535
 20
215.5081162981868
 30
0.0
 11
-83.23693164056534
 21
215.5081162981868
 31
0.0
  0
LINE
  5
BF1
330
18
100
AcDbEntity
  8
外形線
100
AcDbLine
 10
-78.23693164056535
 20
216.1081162981869
 30
0.0
 11
-83.23693164056534
 21
216.1081162981869
 31
0.0
  0
LINE
  5
BF2
330
18
100
AcDbEntity
  8
外形線
100
AcDbLine
 10
-83.23693164056534
 20
215.5081162981868
 30
0.0
 11
-82.93693164056533
 21
215.8081162981869
 31
0.0
  0
LINE
  5
BF3
330
18
100
AcDbEntity
  8
外形線
100
AcDbLine
 10
-83.23693164056534
 20
216.1081162981869
 30
0.0
 11
-82.93693164056533
 21
215.8081162981869
 31
0.0
  0
LINE
  5
BF4
330
18
100
AcDbEntity
  8
外形線
100
AcDbLine
 10
-83.23693164056534
 20
216.8081162981869
 30
0.0
 11
-83.23693164056534
 21
216.1081162981869
 31
0.0
  0
LINE
  5
BF5
330
18
100
AcDbEntity
  8
外形線
100
AcDbLine
 10
-82.23693164056534
 20
217.8081162981869
 30
0.0
 11
-83.23693164056534
 21
216.8081162981869
 31
0.0
  0
ARC
  5
BF6
330
18
100
AcDbEntity
  8
外形線
100
AcDbCircle
 10
-82.9369316405654
 20
214.1081162981869
 30
0.0
 40
0.3
100
AcDbArc
 50
180.0
 51
270.0
  0
LINE
  5
BF7
330
18
100
AcDbEntity
  8
外形線
100
AcDbLine
 10
-83.23693164056534
 20
214.1081162981869
 30
0.0
 11
-83.23693164056534
 21
215.5081162981868
 31
0.0
  0
LINE
  5
BF8
330
18
100
AcDbEntity
  8
外形線
100
AcDbLine
 10
-75.23693164056535
 20
218.7078336749196
 30
0.0
 11
-75.23693164056535
 21
217.8081162981869
 31
0.0
  0
LINE
  5
BF9
330
18
100
AcDbEntity
  8
外形線
100
AcDbLine
 10
-81.23693164056534
 20
223.3081162981869
 30
0.0
 11
-81.23693164056534
 21
220.7373110917045
 31
0.0
  0
LINE
  5
BFA
330
18
100
AcDbEntity
  8
外形線
100
AcDbLine
 10
-83.23693164056534
 20
224.8081162981868
 30
0.0
 11
-83.23693164056534
 21
223.8081162981869
 31
0.0
  0
LINE
  5
BFB
330
18
100
AcDbEntity
  8
外形線
100
AcDbLine
 10
-82.73693164056535
 20
225.3081162981869
 30
0.0
 11
-83.23693164056534
 21
224.8081162981868
 31
0.0
  0
LINE
  5
BFC
330
18
100
AcDbEntity
  8
外形線
100
AcDbLine
 10
-83.23693164056534
 20
223.8081162981869
 30
0.0
 11
-82.73693164056535
 21
223.3081162981869
 31
0.0
  0
LINE
  5
BFD
330
18
100
AcDbEntity
  8
外形線
100
AcDbLine
 10
-75.23693164056535
 20
223.3081162981869
 30
0.0
 11
-75.23693164056536
 21
221.2345744782945
 31
0.0
  0
LINE
  5
BFE
330
18
100
AcDbEntity
  8
外形線
100
AcDbLine
 10
-68.23693164056535
 20
211.3081162981868
 30
0.0
 11
-69.23693164056534
 21
208.8081162981868
 31
0.0
  0
LINE
  5
BFF
330
18
100
AcDbEntity
  8
外形線
100
AcDbLine
 10
-71.73693164056534
 20
208.8081162981868
 30
0.0
 11
-71.73693164056534
 21
206.8081162981868
 31
0.0
  0
LINE
  5
C00
330
18
100
AcDbEntity
  8
外形線
100
AcDbLine
 10
-73.23693164056535
 20
215.5081162981868
 30
0.0
 11
-73.53693164056536
 21
215.8081162981869
 31
0.0
  0
LINE
  5
C01
330
18
100
AcDbEntity
  8
外形線
100
AcDbLine
 10
-73.23693164056535
 20
216.8081162981869
 30
0.0
 11
-73.23693164056535
 21
216.1081162981869
 31
0.0
  0
LINE
  5
C02
330
18
100
AcDbEntity
  8
外形線
100
AcDbLine
 10
-73.23693164056535
 20
216.1081162981869
 30
0.0
 11
-73.53693164056536
 21
215.8081162981869
 31
0.0
  0
LINE
  5
C03
330
18
100
AcDbEntity
  8
外形線
100
AcDbLine
 10
-73.23693164056535
 20
216.8081162981869
 30
0.0
 11
-74.23693164056534
 21
217.8081162981869
 31
0.0
  0
ARC
  5
C04
330
18
100
AcDbEntity
  8
外形線
100
AcDbCircle
 10
-73.53693164056536
 20
214.1081162981869
 30
0.0
 40
0.3
100
AcDbArc
 50
270.0
 51
0.0
  0
LINE
  5
C05
330
18
100
AcDbEntity
  8
外形線
100
AcDbLine
 10
-73.23693164056535
 20
214.1081162981869
 30
0.0
 11
-73.23693164056535
 21
215.5081162981868
 31
0.0
  0
LINE
  5
C06
330
18
100
AcDbEntity
  8
外形線
100
AcDbLine
 10
-68.23693164056535
 20
213.8081162981869
 30
0.0
 11
-68.23693164056535
 21
211.3081162981868
 31
0.0
  0
LINE
  5
C07
330
18
100
AcDbEntity
  8
外形線
100
AcDbLine
 10
-73.23693164056535
 20
224.8081162981868
 30
0.0
 11
-73.23693164056535
 21
223.8081162981869
 31
0.0
  0
LINE
  5
C08
330
18
100
AcDbEntity
  8
外形線
100
AcDbLine
 10
-73.73693164056534
 20
223.3081162981869
 30
0.0
 11
-73.23693164056535
 21
223.8081162981869
 31
0.0
  0
LINE
  5
C09
330
18
100
AcDbEntity
  8
外形線
100
AcDbLine
 10
-73.23693164056535
 20
224.8081162981868
 30
0.0
 11
-73.73693164056534
 21
225.3081162981869
 31
0.0
  0
LINE
  5
C0B
330
18
100
AcDbEntity
  8
外形線
100
AcDbLine
 10
-161.3825256914657
 20
194.2112217924807
 30
0.0
 11
-161.3825256914657
 21
165.3294442093327
 31
0.0
  0
LINE
  5
C0F
330
18
100
AcDbEntity
  8
外形線
100
AcDbLine
 10
-168.3825256914657
 20
216.8081162981869
 30
0.0
 11
-169.3825256914657
 21
217.8081162981869
 31
0.0
  0
LINE
  5
C10
330
18
100
AcDbEntity
  8
外形線
100
AcDbLine
 10
-173.3825256914657
 20
213.8081162981869
 30
0.0
 11
-163.3825256914657
 21
213.8081162981869
 31
0.0
  0
LINE
  5
C11
330
18
100
AcDbEntity
  8
外形線
100
AcDbLine
 10
-173.3825256914657
 20
213.8081162981869
 30
0.0
 11
-168.6825256914657
 21
213.8081162981869
 31
0.0
  0
LINE
  5
C12
330
18
100
AcDbEntity
  8
外形線
100
AcDbLine
 10
-173.3825256914657
 20
216.1081162981869
 30
0.0
 11
-168.3825256914657
 21
216.1081162981869
 31
0.0
  0
LINE
  5
C13
330
18
100
AcDbEntity
  8
外形線
100
AcDbLine
 10
-173.3825256914657
 20
215.5081162981868
 30
0.0
 11
-168.3825256914657
 21
215.5081162981868
 31
0.0
  0
LINE
  5
C14
330
18
100
AcDbEntity
  8
外形線
100
AcDbLine
 10
-178.3825256914657
 20
216.8081162981869
 30
0.0
 11
-168.3825256914657
 21
216.8081162981869
 31
0.0
  0
LINE
  5
C15
330
18
100
AcDbEntity
  8
外形線
100
AcDbLine
 10
-178.0825256914657
 20
215.8081162981869
 30
0.0
 11
-168.6825256914657
 21
215.8081162981869
 31
0.0
  0
LINE
  5
C16
330
18
100
AcDbEntity
  8
外形線
100
AcDbLine
 10
-178.3825256914657
 20
223.8081162981869
 30
0.0
 11
-168.3825256914657
 21
223.8081162981869
 31
0.0
  0
LINE
  5
C17
330
18
100
AcDbEntity
  8
外形線
100
AcDbLine
 10
-178.3825256914657
 20
224.8081162981869
 30
0.0
 11
-168.3825256914657
 21
224.8081162981869
 31
0.0
  0
LINE
  5
C18
330
18
100
AcDbEntity
  8
外形線
100
AcDbLine
 10
-177.8825256914657
 20
225.3081162981869
 30
0.0
 11
-168.8825256914657
 21
225.3081162981869
 31
0.0
  0
LINE
  5
C19
330
18
100
AcDbEntity
  8
外形線
100
AcDbLine
 10
-177.8825256914657
 20
223.3081162981869
 30
0.0
 11
-168.8825256914657
 21
223.3081162981869
 31
0.0
  0
LINE
  5
C1A
330
18
100
AcDbEntity
  8
外形線
100
AcDbLine
 10
-173.3825256914657
 20
211.3081162981869
 30
0.0
 11
-163.3825256914657
 21
211.3081162981869
 31
0.0
  0
LINE
  5
C1B
330
18
100
AcDbEntity
  8
外形線
100
AcDbLine
 10
-173.3825256914657
 20
208.8081162981868
 30
0.0
 11
-164.3825256914657
 21
208.8081162981868
 31
0.0
  0
LINE
  5
C1D
330
18
100
AcDbEntity
  8
外形線
100
AcDbLine
 10
-183.3825256914657
 20
211.3081162981869
 30
0.0
 11
-182.3825256914657
 21
208.8081162981868
 31
0.0
  0
LINE
  5
C1E
330
18
100
AcDbEntity
  8
外形線
100
AcDbLine
 10
-173.3825256914657
 20
208.8081162981868
 30
0.0
 11
-182.3825256914657
 21
208.8081162981868
 31
0.0
  0
LINE
  5
C1F
330
18
100
AcDbEntity
  8
外形線
100
AcDbLine
 10
-179.8825256914657
 20
208.8081162981868
 30
0.0
 11
-179.8825256914657
 21
206.8081162981868
 31
0.0
  0
POINT
  5
C20
330
18
100
AcDbEntity
  8
DEFPOINTS
  6
ByBlock
 62
     0
100
AcDbPoint
 10
-178.3825256914657
 20
206.8081162981868
 30
0.0
  0
LINE
  5
C21
330
18
100
AcDbEntity
  8
外形線
100
AcDbLine
 10
-177.3825256914657
 20
217.8081162981869
 30
0.0
 11
-169.3825256914657
 21
217.8081162981869
 31
0.0
  0
LINE
  5
C22
330
18
100
AcDbEntity
  8
外形線
100
AcDbLine
 10
-173.3825256914657
 20
216.1081162981869
 30
0.0
 11
-178.3825256914657
 21
216.1081162981869
 31
0.0
  0
LINE
  5
C23
330
18
100
AcDbEntity
  8
外形線
100
AcDbLine
 10
-173.3825256914657
 20
215.5081162981868
 30
0.0
 11
-178.3825256914657
 21
215.5081162981868
 31
0.0
  0
LINE
  5
C24
330
18
100
AcDbEntity
  8
外形線
100
AcDbLine
 10
-173.3825256914657
 20
213.8081162981869
 30
0.0
 11
-178.0825256914658
 21
213.8081162981869
 31
0.0
  0
LINE
  5
C25
330
18
100
AcDbEntity
  8
外形線
100
AcDbLine
 10
-173.3825256914657
 20
213.8081162981869
 30
0.0
 11
-183.3825256914657
 21
213.8081162981869
 31
0.0
  0
LINE
  5
C26
330
18
100
AcDbEntity
  8
外形線
100
AcDbLine
 10
-173.3825256914657
 20
211.3081162981869
 30
0.0
 11
-183.3825256914657
 21
211.3081162981869
 31
0.0
  0
LINE
  5
C27
330
18
100
AcDbEntity
  8
外形線
100
AcDbLine
 10
-178.3825256914657
 20
214.1081162981869
 30
0.0
 11
-178.3825256914657
 21
215.5081162981868
 31
0.0
  0
ARC
  5
C28
330
18
100
AcDbEntity
  8
外形線
100
AcDbCircle
 10
-178.0825256914658
 20
214.1081162981869
 30
0.0
 40
0.3
100
AcDbArc
 50
180.0
 51
270.0
  0
LINE
  5
C29
330
18
100
AcDbEntity
  8
外形線
100
AcDbLine
 10
-178.3825256914657
 20
216.8081162981869
 30
0.0
 11
-178.3825256914657
 21
216.1081162981869
 31
0.0
  0
LINE
  5
C2A
330
18
100
AcDbEntity
  8
外形線
100
AcDbLine
 10
-178.3825256914657
 20
216.1081162981869
 30
0.0
 11
-178.0825256914657
 21
215.8081162981869
 31
0.0
  0
LINE
  5
C2B
330
18
100
AcDbEntity
  8
外形線
100
AcDbLine
 10
-178.3825256914657
 20
215.5081162981868
 30
0.0
 11
-178.0825256914657
 21
215.8081162981869
 31
0.0
  0
LINE
  5
C2C
330
18
100
AcDbEntity
  8
外形線
100
AcDbLine
 10
-177.3825256914657
 20
217.8081162981869
 30
0.0
 11
-178.3825256914657
 21
216.8081162981869
 31
0.0
  0
LINE
  5
C2D
330
18
100
AcDbEntity
  8
外形線
100
AcDbLine
 10
-183.3825256914657
 20
213.8081162981869
 30
0.0
 11
-183.3825256914657
 21
211.3081162981869
 31
0.0
  0
LINE
  5
C2F
330
18
100
AcDbEntity
  8
外形線
100
AcDbLine
 10
-178.3825256914657
 20
223.8081162981869
 30
0.0
 11
-177.8825256914657
 21
223.3081162981869
 31
0.0
  0
LINE
  5
C30
330
18
100
AcDbEntity
  8
外形線
100
AcDbLine
 10
-177.8825256914657
 20
225.3081162981869
 30
0.0
 11
-178.3825256914657
 21
224.8081162981869
 31
0.0
  0
LINE
  5
C31
330
18
100
AcDbEntity
  8
外形線
100
AcDbLine
 10
-178.3825256914657
 20
224.8081162981869
 30
0.0
 11
-178.3825256914657
 21
223.8081162981869
 31
0.0
  0
LINE
  5
C32
330
18
100
AcDbEntity
  8
外形線
100
AcDbLine
 10
-176.3825256914657
 20
223.3081162981869
 30
0.0
 11
-176.3825256914657
 21
217.8081162981869
 31
0.0
  0
LINE
  5
C33
330
18
100
AcDbEntity
  8
外形線
100
AcDbLine
 10
-170.3825256914657
 20
223.3081162981869
 30
0.0
 11
-170.3825256914657
 21
217.8081162981869
 31
0.0
  0
LINE
  5
C34
330
18
100
AcDbEntity
  8
外形線
100
AcDbLine
 10
-163.3825256914657
 20
211.3081162981869
 30
0.0
 11
-164.3825256914657
 21
208.8081162981868
 31
0.0
  0
LINE
  5
C35
330
18
100
AcDbEntity
  8
外形線
100
AcDbLine
 10
-166.8825256914657
 20
208.8081162981868
 30
0.0
 11
-166.8825256914657
 21
206.8081162981868
 31
0.0
  0
POINT
  5
C36
330
18
100
AcDbEntity
  8
DEFPOINTS
  6
ByBlock
 62
     0
100
AcDbPoint
 10
-168.3825256914657
 20
206.8081162981868
 30
0.0
  0
LINE
  5
C37
330
18
100
AcDbEntity
  8
外形線
100
AcDbLine
 10
-168.3825256914657
 20
214.1081162981869
 30
0.0
 11
-168.3825256914657
 21
215.5081162981868
 31
0.0
  0
ARC
  5
C38
330
18
100
AcDbEntity
  8
外形線
100
AcDbCircle
 10
-168.6825256914657
 20
214.1081162981869
 30
0.0
 40
0.3
100
AcDbArc
 50
270.0
 51
0.0
  0
LINE
  5
C39
330
18
100
AcDbEntity
  8
外形線
100
AcDbLine
 10
-168.3825256914657
 20
216.1081162981869
 30
0.0
 11
-168.6825256914657
 21
215.8081162981869
 31
0.0
  0
LINE
  5
C3A
330
18
100
AcDbEntity
  8
外形線
100
AcDbLine
 10
-168.3825256914657
 20
216.8081162981869
 30
0.0
 11
-168.3825256914657
 21
216.1081162981869
 31
0.0
  0
LINE
  5
C3B
330
18
100
AcDbEntity
  8
外形線
100
AcDbLine
 10
-168.3825256914657
 20
215.5081162981868
 30
0.0
 11
-168.6825256914657
 21
215.8081162981869
 31
0.0
  0
LINE
  5
C3C
330
18
100
AcDbEntity
  8
外形線
100
AcDbLine
 10
-163.3825256914657
 20
213.8081162981869
 30
0.0
 11
-163.3825256914657
 21
211.3081162981869
 31
0.0
  0
LINE
  5
C3D
330
18
100
AcDbEntity
  8
外形線
100
AcDbLine
 10
-168.3825256914657
 20
224.8081162981869
 30
0.0
 11
-168.8825256914657
 21
225.3081162981869
 31
0.0
  0
LINE
  5
C3E
330
18
100
AcDbEntity
  8
外形線
100
AcDbLine
 10
-168.8825256914657
 20
223.3081162981869
 30
0.0
 11
-168.3825256914657
 21
223.8081162981869
 31
0.0
  0
LINE
  5
C3F
330
18
100
AcDbEntity
  8
外形線
100
AcDbLine
 10
-168.3825256914657
 20
224.8081162981869
 30
0.0
 11
-168.3825256914657
 21
223.8081162981869
 31
0.0
  0
LINE
  5
C40
330
18
100
AcDbEntity
  8
外形線
100
AcDbLine
 10
-175.8825256914657
 20
242.1081162981869
 30
0.0
 11
-170.8825256914657
 21
242.108116298187
 31
0.0
  0
LINE
  5
C41
330
18
100
AcDbEntity
  8
外形線
100
AcDbLine
 10
-80.73693164056534
 20
242.1081162981869
 30
0.0
 11
-75.73693164056532
 21
242.1081162981868
 31
0.0
  0
LINE
  5
C42
330
18
100
AcDbEntity
  8
外形線
100
AcDbLine
 10
-175.8825256914657
 20
261.8081162981868
 30
0.0
 11
-175.8825256914657
 21
225.3081162981868
 31
0.0
  0
LINE
  5
C43
330
18
100
AcDbEntity
  8
外形線
100
AcDbLine
 10
-170.8825256914657
 20
261.8081162981868
 30
0.0
 11
-170.8825256914657
 21
225.3081162981868
 31
0.0
  0
LINE
  5
C44
330
18
100
AcDbEntity
  8
外形線
100
AcDbLine
 10
-80.73693164056534
 20
261.8081162981868
 30
0.0
 11
-80.73693164056534
 21
225.3081162981869
 31
0.0
  0
LINE
  5
C45
330
18
100
AcDbEntity
  8
外形線
100
AcDbLine
 10
-75.73693164056533
 20
261.8081162981868
 30
0.0
 11
-75.73693164056533
 21
225.3081162981869
 31
0.0
  0
CIRCLE
  5
E33
330
18
100
AcDbEntity
  8
外形線
100
AcDbCircle
 10
-78.23693164056533
 20
323.1081162981869
 30
0.0
 40
33.25
  0
LINE
  5
E38
102
{ACAD_REACTORS
330
E3A
102
}
330
18
100
AcDbEntity
  8
針
100
AcDbLine
 10
-78.83693164056541
 20
326.283017871461
 30
0.0
 11
-78.3369316405654
 21
350.1081162981869
 31
0.0
  0
LINE
  5
E39
102
{ACAD_REACTORS
330
E3A
102
}
330
18
100
AcDbEntity
  8
針
100
AcDbLine
 10
-77.63693164056535
 20
326.2830178714611
 30
0.0
 11
-78.13693164056539
 21
350.1081162981869
 31
0.0
  0
HATCH
  5
E3A
330
18
100
AcDbEntity
  8
針
100
AcDbHatch
 10
0.0
 20
0.0
 30
0.0
210
0.0
220
0.0
230
1.0
  2
SOLID
 70
     1
 71
     1
 91
        1
 92
        7
 72
     1
 73
     1
 93
        7
 10
-78.83693164056549
 20
326.2830178714568
 42
-0.1415000153292385
 10
-79.29878586609337
 20
324.6837005084811
 42
-0.3055181981730818
 10
-77.17507741503755
 20
324.6837005084813
 42
-0.1415000153295119
 10
-77.63693164056533
 20
326.2830178714602
 42
0.0
 10
-78.13693164056539
 20
350.1081162981869
 42
0.0
 10
-78.23693164056539
 20
350.1081162981869
 42
0.0
 10
-78.3369316405654
 20
350.108116298187
 42
0.0
 97
        7
330
F5A
330
F5B
330
E38
330
ECA
330
ECB
330
EC8
330
E39
 75
     0
 76
     1
 47
0.070338108143851
 98
        1
 10
-78.43739500143283
 20
331.483779325055
450
        0
451
        0
460
0.0
461
0.0
452
        0
462
0.0
453
        0
470

  0
TEXT
  5
E3B
330
18
100
AcDbEntity
  8
文字
100
AcDbText
 10
-80.89005427413439
 20
326.410109519755
 30
0.0
 40
1.0
  1
NO.207
  7
STYLE3
100
AcDbText
  0
TEXT
  5
E3C
330
18
100
AcDbEntity
  8
文字
100
AcDbText
 10
-62.35121263387515
 20
325.6958102327649
 30
0.0
 40
1.5
  1
80
  7
STYLE3
100
AcDbText
  0
TEXT
  5
E3D
330
18
100
AcDbEntity
  8
文字
100
AcDbText
 10
-97.55825068638166
 20
326.3947658930958
 30
0.0
 40
1.5
  1
20
  7
STYLE3
100
AcDbText
  0
LINE
  5
E3E
330
18
100
AcDbEntity
  8
目盛
100
AcDbLine
 10
-49.46560530244551
 20
326.7427800715517
 30
0.0
 11
-52.19392073106035
 21
326.3981136792498
 31
0.0
  0
LINE
  5
E3F
330
18
100
AcDbEntity
  8
目盛
100
AcDbLine
 10
-107.0082579786852
 20
326.7427800715517
 30
0.0
 11
-104.2799425500703
 21
326.3981136792499
 31
0.0
  0
CIRCLE
  5
E40
330
18
100
AcDbEntity
  8
外形線
100
AcDbCircle
 10
-78.23693164056533
 20
323.1081162981869
 30
0.0
 40
29.0
  0
CIRCLE
  5
E41
330
18
100
AcDbEntity
  8
外形線
100
AcDbCircle
 10
-78.23693164056533
 20
323.1081162981869
 30
0.0
 40
15.5
  0
ARC
  5
E42
330
18
100
AcDbEntity
  8
外形線
100
AcDbCircle
 10
-406.7131000157951
 20
323.1081162981869
 30
0.0
 40
247.8305743243293
100
AcDbArc
 50
352.9948638173551
 51
7.005136182644887
  0
LINE
  5
E43
330
18
100
AcDbEntity
  8
外形線
100
AcDbLine
 10
-165.7325256914658
 20
355.0081162981868
 30
0.0
 11
-165.7325256914658
 21
291.2081162981869
 31
0.0
  0
LINE
  5
E44
330
18
100
AcDbEntity
  8
外形線
100
AcDbLine
 10
-161.9325256914658
 20
356.1081162981869
 30
0.0
 11
-161.9325256914657
 21
290.108116298187
 31
0.0
  0
LINE
  5
E45
330
18
100
AcDbEntity
  8
外形線
100
AcDbLine
 10
-160.7325256914657
 20
354.0581162981868
 30
0.0
 11
-160.7325256914657
 21
292.1581162981869
 31
0.0
  0
LINE
  5
E46
330
18
100
AcDbEntity
  8
外形線
100
AcDbLine
 10
-166.4325256914658
 20
355.0081162981868
 30
0.0
 11
-166.4325256914658
 21
291.208116298187
 31
0.0
  0
LINE
  5
E47
330
18
100
AcDbEntity
  8
外形線
100
AcDbLine
 10
-181.0825256914658
 20
352.9081162981868
 30
0.0
 11
-181.0825256914658
 21
293.3081162981868
 31
0.0
  0
LINE
  5
E48
330
18
100
AcDbEntity
  8
外形線
100
AcDbLine
 10
-180.8825256914658
 20
354.3581162981869
 30
0.0
 11
-180.8825256914657
 21
291.8581162981869
 31
0.0
  0
TEXT
  5
E66
330
18
100
AcDbEntity
  8
文字
100
AcDbText
 10
-68.4648187295283
 20
305.0082457717329
 30
0.0
 40
3.0
  1
40
  7
STYLE3
100
AcDbText
  0
LINE
  5
E67
330
18
100
AcDbEntity
  8
目盛
100
AcDbLine
 10
-64.26607509161556
 20
297.6952225769147
 30
0.0
 11
-65.59089769539537
 21
300.1050659470354
 31
0.0
  0
LINE
  5
E68
330
18
100
AcDbEntity
  8
目盛
100
AcDbLine
 10
-67.56131961270966
 20
296.1445982074276
 30
0.0
 11
-68.57366213259251
 21
298.7014835436202
 31
0.0
  0
LINE
  5
E69
330
18
100
AcDbEntity
  8
目盛
100
AcDbLine
 10
-65.8893321851782
 20
296.8681317766722
 30
0.0
 11
-67.0602252369822
 21
299.3564061709538
 31
0.0
  0
LINE
  5
E6A
330
18
100
AcDbEntity
  8
目盛
100
AcDbLine
 10
-69.27543880369182
 20
295.5274773256274
 30
0.0
 11
-70.74326952697282
 21
300.0449957780294
 31
0.0
  0
LINE
  5
E6B
330
18
100
AcDbEntity
  8
目盛
100
AcDbLine
 10
-78.23693164056539
 20
294.1081162981869
 30
0.0
 11
-78.23693164056539
 21
298.8581162981869
 31
0.0
  0
LINE
  5
E6C
330
18
100
AcDbEntity
  8
目盛
100
AcDbLine
 10
-87.19842447743884
 20
295.5274773256274
 30
0.0
 11
-85.73059375415784
 21
300.0449957780294
 31
0.0
  0
LINE
  5
E6D
330
18
100
AcDbEntity
  8
目盛
100
AcDbLine
 10
-92.20778818951515
 20
297.6952225769148
 30
0.0
 11
-90.8829655857354
 21
300.1050659470355
 31
0.0
  0
LINE
  5
E6E
330
18
100
AcDbEntity
  8
目盛
100
AcDbLine
 10
-90.58453109595257
 20
296.8681317766722
 30
0.0
 11
-89.41363804414857
 21
299.3564061709539
 31
0.0
  0
LINE
  5
E6F
330
18
100
AcDbEntity
  8
目盛
100
AcDbLine
 10
-88.91254366842099
 20
296.1445982074276
 30
0.0
 11
-87.90020114853826
 21
298.7014835436203
 31
0.0
  0
LINE
  5
E7D
330
18
100
AcDbEntity
  8
目盛
100
AcDbLine
 10
-85.44893836834621
 20
295.0192046254567
 30
0.0
 11
-84.76504117864283
 21
297.6828083185604
 31
0.0
  0
LINE
  5
E7E
330
18
100
AcDbEntity
  8
目盛
100
AcDbLine
 10
-83.67098976355141
 20
294.621786027055
 30
0.0
 11
-83.15569114844066
 21
297.3230759665589
 31
0.0
  0
LINE
  5
E7F
330
18
100
AcDbEntity
  8
目盛
100
AcDbLine
 10
-81.87159541393027
 20
294.336789960067
 30
0.0
 11
-81.5269290216284
 21
297.0651053886819
 31
0.0
  0
LINE
  5
E80
330
18
100
AcDbEntity
  8
目盛
100
AcDbLine
 10
-76.41600657421526
 20
294.1653411737671
 30
0.0
 11
-76.58868050292085
 21
296.9099146769448
 31
0.0
  0
LINE
  5
E81
330
18
100
AcDbEntity
  8
目盛
100
AcDbLine
 10
-80.05785670691546
 20
294.1653411737671
 30
0.0
 11
-79.88518277820992
 21
296.9099146769448
 31
0.0
  0
LINE
  5
E82
330
18
100
AcDbEntity
  8
目盛
100
AcDbLine
 10
-74.60226786720046
 20
294.3367899600671
 30
0.0
 11
-74.94693425950231
 21
297.0651053886818
 31
0.0
  0
LINE
  5
E83
330
18
100
AcDbEntity
  8
目盛
100
AcDbLine
 10
-72.80287351757931
 20
294.6217860270548
 30
0.0
 11
-73.31817213269005
 21
297.3230759665589
 31
0.0
  0
LINE
  5
E84
330
18
100
AcDbEntity
  8
目盛
100
AcDbLine
 10
-71.02492491278451
 20
295.0192046254565
 30
0.0
 11
-71.70882210248795
 21
297.6828083185604
 31
0.0
  0
LINE
  5
E85
330
18
100
AcDbEntity
  8
中心線
 48
0.2
100
AcDbLine
 10
-88.39620682749512
 20
313.034144886673
 30
0.0
 11
-73.86821937951492
 21
313.034144886673
 31
0.0
  0
LINE
  5
E86
330
18
100
AcDbEntity
  8
目盛
100
AcDbLine
 10
-99.37702183578631
 20
303.2562502262549
 30
0.0
 11
-97.37235811037743
 21
305.1387547675588
 31
0.0
  0
LINE
  5
E87
330
18
100
AcDbEntity
  8
目盛
100
AcDbLine
 10
-98.08879771249747
 20
301.9680261029659
 30
0.0
 11
-96.20629317119346
 21
303.9726898283748
 31
0.0
  0
LINE
  5
E88
330
18
100
AcDbEntity
  8
目盛
100
AcDbLine
 10
-101.6984244774388
 20
306.0623439817052
 30
0.0
 11
-97.85559375415784
 21
308.8543239300944
 31
0.0
  0
LINE
  5
E89
330
18
100
AcDbEntity
  8
目盛
100
AcDbLine
 10
-100.5818156810633
 20
304.6228205954749
 30
0.0
 11
-98.46290426342989
 21
306.3757365672838
 31
0.0
  0
LINE
  5
E8A
330
18
100
AcDbEntity
  8
目盛
100
AcDbLine
 10
-104.4769161620799
 20
310.7605168427998
 30
0.0
 11
-101.9886417677983
 21
311.9314098946038
 31
0.0
  0
LINE
  5
E8B
330
18
100
AcDbEntity
  8
目盛
100
AcDbLine
 10
-103.6498253618374
 20
309.1372597492371
 30
0.0
 11
-101.2399819917167
 21
310.4620823530169
 31
0.0
  0
LINE
  5
E8C
330
18
100
AcDbEntity
  8
目盛
100
AcDbLine
 10
-102.7224414801237
 20
307.569139243796
 30
0.0
 11
-100.4005396849932
 21
309.0426629299882
 31
0.0
  0
TEXT
  5
E8D
330
18
100
AcDbEntity
  8
文字
100
AcDbText
 10
-93.40161597835271
 20
304.5143014978745
 30
0.0
 40
3.0
  1
60
  7
STYLE3
100
AcDbText
  0
LINE
  5
E8E
330
18
100
AcDbEntity
  8
目盛
100
AcDbLine
 10
-93.77590869495628
 20
298.6226064586285
 30
0.0
 11
-92.30238500876408
 21
300.944508253759
 31
0.0
  0
LINE
  5
E8F
330
18
100
AcDbEntity
  8
目盛
100
AcDbLine
 10
-95.28270395704709
 20
299.6466234613134
 30
0.0
 11
-92.49072400865783
 21
303.4894541845944
 31
0.0
  0
LINE
  5
E90
330
18
100
AcDbEntity
  8
目盛
100
AcDbLine
 10
-96.72222734327739
 20
300.763232257689
 30
0.0
 11
-94.9693113714685
 21
302.8821436753224
 31
0.0
  0
TEXT
  5
E91
330
18
100
AcDbEntity
  8
文字
100
AcDbText
 10
-90.91285316313809
 20
308.6493832151518
 30
0.0
 40
1.5
  1
40
  7
STYLE3
100
AcDbText
  0
TEXT
  5
E92
330
18
100
AcDbEntity
  8
文字
100
AcDbText
 10
-100.9803916216559
 20
314.4173974982321
 30
0.0
 40
3.0
  1
70
  7
STYLE3
100
AcDbText
  0
LINE
  5
E93
330
18
100
AcDbEntity
  8
目盛
100
AcDbLine
 10
-107.0082579786852
 20
319.473452524822
 30
0.0
 11
-104.2799425500703
 21
319.8181189171239
 31
0.0
  0
LINE
  5
E94
330
18
100
AcDbEntity
  8
目盛
100
AcDbLine
 10
-105.2004497313246
 20
312.4325042703313
 30
0.0
 11
-102.6435643951319
 21
313.444846790214
 31
0.0
  0
LINE
  5
E95
330
18
100
AcDbEntity
  8
目盛
100
AcDbLine
 10
-105.8175706131247
 20
314.1466234613134
 30
0.0
 11
-101.3000521607227
 21
315.6144541845944
 31
0.0
  0
LINE
  5
E96
330
18
100
AcDbEntity
  8
目盛
100
AcDbLine
 10
-106.7232619116974
 20
317.6740581752009
 30
0.0
 11
-104.0219719721933
 21
318.1893567903117
 31
0.0
  0
LINE
  5
E97
330
18
100
AcDbEntity
  8
目盛
100
AcDbLine
 10
-106.3258433132956
 20
315.8961095704061
 30
0.0
 11
-103.6622396201918
 21
316.5800067601095
 31
0.0
  0
LINE
  5
E98
330
18
100
AcDbEntity
  8
目盛
100
AcDbLine
 10
-107.2369316405653
 20
323.1081162981869
 30
0.0
 11
-102.4869316405653
 21
323.1081162981869
 31
0.0
  0
POINT
  5
E99
330
18
100
AcDbEntity
  8
DEFPOINTS
  6
ByBlock
 62
     0
100
AcDbPoint
 10
-107.2369316405653
 20
323.1081162981869
 30
0.0
  0
LINE
  5
E9A
330
18
100
AcDbEntity
  8
目盛
100
AcDbLine
 10
-107.1797067649851
 20
321.2871912318369
 30
0.0
 11
-104.4351332618074
 21
321.4598651605424
 31
0.0
  0
LINE
  5
E9B
330
18
100
AcDbEntity
  8
目盛
100
AcDbLine
 10
-107.1797067649852
 20
324.9290413645369
 30
0.0
 11
-104.4351332618074
 21
324.7563674358314
 31
0.0
  0
TEXT
  5
E9C
330
18
100
AcDbEntity
  8
文字
100
AcDbText
 10
-96.67794835941908
 20
318.274248227832
 30
0.0
 40
1.5
  1
30
  7
STYLE3
100
AcDbText
  0
CIRCLE
  5
E9D
330
18
100
AcDbEntity
  8
針
100
AcDbCircle
 10
-81.43693164056537
 20
313.034144886673
 30
0.0
 40
0.75
  0
CIRCLE
  5
E9E
330
18
100
AcDbEntity
  8
針
100
AcDbCircle
 10
-81.43693164056537
 20
313.034144886673
 30
0.0
 40
1.1
  0
HATCH
  5
E9F
330
18
100
AcDbEntity
  8
針
100
AcDbHatch
 10
0.0
 20
0.0
 30
0.0
210
0.0
220
0.0
230
1.0
  2
SOLID
 70
     1
 71
     0
 91
        4
 92
        7
 72
     1
 73
     1
 93
        4
 10
-82.52484909026355
 20
313.1967352389156
 42
0.0
 10
-82.17869353808685
 20
313.1450019450202
 42
-0.4142135623730951
 10
-81.32607458221826
 20
313.7759067841944
 42
0.0
 10
-81.27434128832289
 20
314.1220623363711
 42
0.4142135623730996
 97
        0
 92
        7
 72
     1
 73
     1
 93
        5
 10
-82.17869353808685
 20
313.1450019450202
 42
0.0
 10
-82.52484909026355
 20
313.1967352389156
 42
0.3173569687788799
 10
-81.95455700893502
 20
312.063545083448
 42
0.0
 10
-81.55217899872582
 20
312.2630068071686
 42
0.0
 10
-81.54778869891272
 20
312.2923829891515
 42
-0.4142135623730839
 97
        0
 92
        7
 72
     1
 73
     1
 93
        4
 10
-81.27434128832289
 20
314.1220623363711
 42
0.0
 10
-81.32607458221826
 20
313.7759067841944
 42
-0.4142135623730951
 10
-80.69516974304395
 20
312.9232878283257
 42
0.0
 10
-80.34901419086731
 20
312.8715545344304
 42
0.4142135623730996
 97
        0
 92
        7
 72
     1
 73
     1
 93
        4
 10
-80.69516974304395
 20
312.9232878283257
 42
-0.1036385141593389
 10
-80.80206157315274
 20
312.6348455033735
 42
0.0
 10
-80.35105993527464
 20
312.8584103150917
 42
0.003023315109616
 10
-80.34901419086731
 20
312.8715545344304
 42
0.0
 97
        0
 75
     0
 76
     1
 47
0.0223982890607777
 98
        4
 10
-81.94098714156444
 20
313.8859000747416
 10
-82.26834212882705
 20
312.7562608736385
 10
-81.00955179137327
 20
313.9053485455483
 10
-80.62368033464389
 20
312.8504340988351
450
        0
451
        0
460
0.0
461
0.0
452
        0
462
0.0
453
        0
470

  0
HATCH
  5
EA0
330
18
100
AcDbEntity
  8
針
100
AcDbHatch
 10
0.0
 20
0.0
 30
0.0
210
0.0
220
0.0
230
1.0
  2
SOLID
 70
     1
 71
     0
 91
        2
 92
        7
 72
     1
 73
     1
 93
        5
 10
-81.08425735092117
 20
311.9922135811523
 42
0.31735696877887
 10
-80.33705880078906
 20
313.0174195668718
 42
0.0
 10
-80.69838947807175
 20
313.284127616964
 42
0.0
 10
-80.72652393225586
 20
313.2746046296122
 42
-0.4142135623731173
 10
-81.19647189762616
 20
312.3237371783634
 42
0.0
 97
        0
 92
        7
 72
     1
 73
     1
 93
        4
 10
-81.08425735092117
 20
311.9922135811523
 42
0.0
 10
-81.19647189762616
 20
312.3237371783634
 42
-0.4142135623730728
 10
-82.14733934887489
 20
312.7936851437337
 42
0.0
 10
-82.478862946086
 20
312.6814705970287
 42
0.4142135623730844
 97
        0
 75
     0
 76
     1
 47
0.0161501285364394
 98
        2
 10
-80.77538462873929
 20
312.3378150842693
 10
-81.45417969965649
 20
312.1251055423187
450
        0
451
        0
460
0.0
461
0.0
452
        0
462
0.0
453
        0
470

  0
LINE
  5
EA1
330
18
100
AcDbEntity
  8
中心線
 48
0.2
100
AcDbLine
 10
-81.43693164056537
 20
320.8973523053947
 30
0.0
 11
-81.43693164056537
 21
305.2077582833592
 31
0.0
  0
CIRCLE
  5
EA2
330
18
100
AcDbEntity
  8
外形線
100
AcDbCircle
 10
-81.43693164056537
 20
313.034144886673
 30
0.0
 40
4.75
  0
TEXT
  5
EA3
330
18
100
AcDbEntity
  8
文字
100
AcDbText
 10
-69.21669767412026
 20
311.2087652523123
 30
0.0
 40
1.0
  1
P
 50
38.83525552651983
  7
STYLE3
100
AcDbText
  0
TEXT
  5
EA4
330
18
100
AcDbEntity
  8
文字
100
AcDbText
 10
-68.48748999910014
 20
311.8918076508765
 30
0.0
 40
1.0
  1
R
 50
41.65670944743552
  7
STYLE3
100
AcDbText
  0
TEXT
  5
EA5
330
18
100
AcDbEntity
  8
文字
100
AcDbText
 10
-79.7507720920641
 20
304.4038320710231
 30
0.0
 40
1.5
  1
50
  7
STYLE3
100
AcDbText
  0
TEXT
  5
EA6
330
18
100
AcDbEntity
  8
文字
100
AcDbText
 10
-81.15445294654278
 20
300.0428992733227
 30
0.0
 40
3.0
  1
50
  7
STYLE3
100
AcDbText
  0
TEXT
  5
EA7
330
18
100
AcDbEntity
  8
文字
100
AcDbText
 10
-81.9548832634174
 20
309.1112521763039
 30
0.0
 40
1.0
  1
5
  7
STYLE3
100
AcDbText
  0
LINE
  5
EA8
330
18
100
AcDbEntity
  8
目盛
100
AcDbLine
 10
-85.95445009296748
 20
311.566314163392
 30
0.0
 11
-85.47892183481986
 21
311.7208226605794
 31
0.0
  0
TEXT
  5
EA9
330
18
100
AcDbEntity
  8
文字
100
AcDbText
 10
-85.2529472053717
 20
311.3211849906627
 30
0.0
 40
1.0
  1
3
  7
STYLE3
100
AcDbText
  0
LINE
  5
EAA
330
18
100
AcDbEntity
  8
目盛
100
AcDbLine
 10
-84.2289115889547
 20
309.191314163392
 30
0.0
 11
-83.9350189628085
 21
309.5958226605794
 31
0.0
  0
LINE
  5
EAB
330
18
100
AcDbEntity
  8
目盛
100
AcDbLine
 10
-81.43693164056537
 20
308.284144886673
 30
0.0
 11
-81.43693164056537
 21
308.784144886673
 31
0.0
  0
TEXT
  5
EAC
330
18
100
AcDbEntity
  8
文字
100
AcDbText
 10
-84.0583748327897
 20
309.5859901618354
 30
0.0
 40
1.0
  1
4
  7
STYLE3
100
AcDbText
  0
LINE
  5
EAD
330
18
100
AcDbEntity
  8
目盛
100
AcDbLine
 10
-78.64495169217605
 20
309.191314163392
 30
0.0
 11
-78.93884431832237
 21
309.5958226605795
 31
0.0
  0
LINE
  5
EAE
330
18
100
AcDbEntity
  8
目盛
100
AcDbLine
 10
-76.91941318816351
 20
311.566314163392
 30
0.0
 11
-77.39494144631101
 21
311.7208226605794
 31
0.0
  0
TEXT
  5
EAF
330
18
100
AcDbEntity
  8
文字
100
AcDbText
 10
-78.40259775603271
 20
311.3126536722161
 30
0.0
 40
1.0
  1
7
  7
STYLE3
100
AcDbText
  0
TEXT
  5
EB0
330
18
100
AcDbEntity
  8
文字
100
AcDbText
 10
-79.84249427773239
 20
309.7085339329269
 30
0.0
 40
1.0
  1
6
  7
STYLE3
100
AcDbText
  0
TEXT
  5
EB1
330
18
100
AcDbEntity
  8
文字
100
AcDbText
 10
-70.58795600335429
 20
310.2591961298299
 30
0.0
 40
1.0
  1
K
 50
26.74010930037497
  7
STYLE3
100
AcDbText
  0
TEXT
  5
EB2
330
18
100
AcDbEntity
  8
文字
100
AcDbText
 10
-72.46621369177962
 20
309.3666619046683
 30
0.0
 40
1.0
  1
O
 50
17.35565287000321
  7
STYLE3
100
AcDbText
  0
TEXT
  5
EB3
330
18
100
AcDbEntity
  8
文字
100
AcDbText
 10
-71.53050836247832
 20
309.8167703588182
 30
0.0
 40
1.0
  1
C
 50
21.28193050434719
  7
STYLE3
100
AcDbText
  0
TEXT
  5
EB4
330
18
100
AcDbEntity
  8
文字
100
AcDbText
 10
-74.18457006145911
 20
308.6981110634182
 30
0.0
 40
1.0
  1
S
 50
15.59472272566242
  7
STYLE3
100
AcDbText
  0
TEXT
  5
EB5
330
18
100
AcDbEntity
  8
文字
100
AcDbText
 10
-73.35261213833854
 20
309.0017833433365
 30
0.0
 40
1.0
  1
H
 50
17.18454433900268
  7
STYLE3
100
AcDbText
  0
TEXT
  5
EB6
330
18
100
AcDbEntity
  8
文字
100
AcDbText
 10
-68.68052729307891
 20
308.6606478399706
 30
0.0
 40
1.5
  1
60
  7
STYLE3
100
AcDbText
  0
ARC
  5
EB7
330
18
100
AcDbEntity
  8
針
100
AcDbCircle
 10
-80.79207122721987
 20
314.498438247751
 30
0.0
 40
0.5
100
AcDbArc
 50
180.7934591207347
 51
246.2317787024804
  0
CIRCLE
  5
EB8
330
18
100
AcDbEntity
  8
針
 62
     4
100
AcDbCircle
 10
-81.43693164056537
 20
313.034144886673
 30
0.0
 40
0.4
  0
HATCH
  5
EB9
330
18
100
AcDbEntity
  8
針
100
AcDbHatch
 10
0.0
 20
0.0
 30
0.0
210
0.0
220
0.0
230
1.0
  2
SOLID
 70
     1
 71
     0
 91
        1
 92
        7
 72
     1
 73
     1
 93
        7
 10
-81.33693164056529
 20
317.7341448866731
 42
0.0
 10
-81.43693164056543
 20
317.7341448866729
 42
0.0
 10
-81.53693164056546
 20
317.7341448866729
 42
0.0
 10
-81.58183999820375
 20
314.4915142320026
 42
-0.2935495917910092
 10
-81.88027317474057
 20
314.0408465724144
 42
-0.2104432563350663
 10
-80.99359078600754
 20
314.0408468717112
 42
-0.2935491884945053
 10
-81.292023282927
 20
314.4915142320025
 42
0.0
 97
        0
 75
     0
 76
     1
 47
0.0140573597042523
 98
        1
 10
-81.37832992466798
 20
315.9287049319732
450
        0
451
        0
460
0.0
461
0.0
452
        0
462
0.0
453
        0
470

  0
TEXT
  5
EBA
330
18
100
AcDbEntity
  8
文字
100
AcDbText
 10
-81.92330807969574
 20
316.0619188151478
 30
0.0
 40
1.0
  1
0
  7
STYLE3
100
AcDbText
  0
LINE
  5
EBB
330
18
100
AcDbEntity
  8
文字
100
AcDbLine
 10
-81.33693164056541
 20
317.7341448866729
 30
0.0
 11
-81.53693164056546
 21
317.7341448866729
 31
0.0
  0
ARC
  5
EBC
330
18
100
AcDbEntity
  8
針
100
AcDbCircle
 10
-82.08179205391099
 20
314.498438247751
 30
0.0
 40
0.5
100
AcDbArc
 50
293.7682212975196
 51
359.2065408792653
  0
LINE
  5
EBD
330
18
100
AcDbEntity
  8
針
100
AcDbLine
 10
-81.58183999820375
 20
314.4915142320026
 30
0.0
 11
-81.53693164056546
 21
317.7341448866729
 31
0.0
  0
LINE
  5
EBE
330
18
100
AcDbEntity
  8
針
100
AcDbLine
 10
-81.292023282927
 20
314.4915142320026
 30
0.0
 11
-81.33693164056541
 21
317.7341448866729
 31
0.0
  0
LINE
  5
EBF
330
18
100
AcDbEntity
  8
目盛
100
AcDbLine
 10
-85.95445009296748
 20
314.5019756099539
 30
0.0
 11
-85.47892183481975
 21
314.3474671127665
 31
0.0
  0
LINE
  5
EC0
330
18
100
AcDbEntity
  8
目盛
100
AcDbLine
 10
-84.2289115889547
 20
316.876975609954
 30
0.0
 11
-83.93501896280838
 21
316.4724671127665
 31
0.0
  0
TEXT
  5
EC1
330
18
100
AcDbEntity
  8
文字
100
AcDbText
 10
-85.22370420133814
 20
313.5840267403019
 30
0.0
 40
1.0
  1
2
  7
STYLE3
100
AcDbText
  0
LINE
  5
EC2
330
18
100
AcDbEntity
  8
目盛
100
AcDbLine
 10
-81.43693164056537
 20
317.7841448866729
 30
0.0
 11
-81.43693164056537
 21
317.284144886673
 31
0.0
  0
TEXT
  5
EC3
330
18
100
AcDbEntity
  8
文字
100
AcDbText
 10
-83.86342185439275
 20
315.3861947464633
 30
0.0
 40
1.0
  1
1
  7
STYLE3
100
AcDbText
  0
LINE
  5
EC4
330
18
100
AcDbEntity
  8
目盛
100
AcDbLine
 10
-78.64495169217616
 20
316.876975609954
 30
0.0
 11
-78.93884431832237
 21
316.4724671127665
 31
0.0
  0
TEXT
  5
EC5
330
18
100
AcDbEntity
  8
文字
100
AcDbText
 10
-79.83980834193392
 20
315.3355888346895
 30
0.0
 40
1.0
  1
9
  7
STYLE3
100
AcDbText
  0
LINE
  5
EC6
330
18
100
AcDbEntity
  8
目盛
100
AcDbLine
 10
-76.91941318816351
 20
314.5019756099539
 30
0.0
 11
-77.39494144631101
 21
314.3474671127664
 31
0.0
  0
TEXT
  5
EC7
330
18
100
AcDbEntity
  8
文字
100
AcDbText
 10
-78.34241082408675
 20
313.6162810572907
 30
0.0
 40
1.0
  1
8
  7
STYLE3
100
AcDbText
  0
ARC
  5
EC8
102
{ACAD_REACTORS
330
E3A
102
}
330
18
100
AcDbEntity
  8
針
100
AcDbCircle
 10
-74.63693164056533
 20
326.2830178714611
 30
0.0
 40
3.0
100
AcDbArc
 50
180.0
 51
212.2155415681862
  0
CIRCLE
  5
EC9
330
18
100
AcDbEntity
  8
針
100
AcDbCircle
 10
-78.23693164056535
 20
323.1081162981869
 30
0.0
 40
0.475
  0
ARC
  5
ECA
102
{ACAD_REACTORS
330
E3A
102
}
330
18
100
AcDbEntity
  8
針
100
AcDbCircle
 10
-81.83693164056551
 20
326.2830178714611
 30
0.0
 40
3.0
100
AcDbArc
 50
327.7844584318137
 51
0.0
  0
CIRCLE
  5
ECB
102
{ACAD_REACTORS
330
E3A
102
}
330
18
100
AcDbEntity
  8
針
100
AcDbCircle
 10
-78.23693164056535
 20
323.1081162981869
 30
0.0
 40
1.9
  0
CIRCLE
  5
ECC
330
18
100
AcDbEntity
  8
針
100
AcDbCircle
 10
-78.23693164056535
 20
323.1081162981869
 30
0.0
 40
1.7
  0
TEXT
  5
ECD
330
18
100
AcDbEntity
  8
文字
100
AcDbText
 10
-67.72629544477059
 20
312.6027705685338
 30
0.0
 40
1.0
  1
O
 50
43.33250016505125
  7
STYLE3
100
AcDbText
  0
TEXT
  5
ECE
330
18
100
AcDbEntity
  8
文字
100
AcDbText
 10
-66.96406010193567
 20
313.4125112403535
 30
0.0
 40
1.0
  1
O
 50
43.24428049450362
  7
STYLE3
100
AcDbText
  0
TEXT
  5
ECF
330
18
100
AcDbEntity
  8
文字
100
AcDbText
 10
-66.16287306937255
 20
314.2076693959459
 30
0.0
 40
1.0
  1
F
 50
50.8862719903993
  7
STYLE3
100
AcDbText
  0
LINE
  5
ED0
102
{ACAD_REACTORS
330
ED2
102
}
330
18
100
AcDbEntity
  8
外形線
100
AcDbLine
 10
-69.7314760364311
 20
324.5581162981868
 30
0.0
 11
-70.89814270309784
 21
324.982748238164
 31
0.0
  0
LINE
  5
ED1
102
{ACAD_REACTORS
330
ED2
102
}
330
18
100
AcDbEntity
  8
外形線
100
AcDbLine
 10
-69.7314760364311
 20
324.5581162981868
 30
0.0
 11
-70.89814270309784
 21
324.1334843582095
 31
0.0
  0
HATCH
  5
ED2
330
18
100
AcDbEntity
  8
外形線
100
AcDbHatch
 10
0.0
 20
0.0
 30
0.0
210
0.0
220
0.0
230
1.0
  2
SOLID
 70
     1
 71
     1
 91
        2
 92
        1
 93
        7
 72
     1
 10
-69.7314760364311
 20
324.5581162981868
 11
-70.89814270309784
 21
324.1334843582095
 72
     1
 10
-70.89814270309784
 20
324.1334843582096
 11
-70.89814270309784
 21
324.4685329648535
 72
     1
 10
-70.89814270309784
 20
324.4685329648535
 11
-71.89814270309785
 21
324.4685329648534
 72
     1
 10
-71.89814270309785
 20
324.4685329648534
 11
-71.89814270309785
 21
324.6476996315201
 72
     1
 10
-71.89814270309785
 20
324.6476996315201
 11
-70.89814270309784
 21
324.6476996315201
 72
     1
 10
-70.89814270309784
 20
324.6476996315201
 11
-70.89814270309784
 21
324.982748238164
 72
     1
 10
-70.89814270309784
 20
324.982748238164
 11
-69.7314760364311
 21
324.5581162981868
 97
        7
330
ED1
330
ED6
330
EDB
330
EDA
330
EDC
330
ED9
330
ED0
 92
        1
 93
        4
 72
     1
 10
-69.7314760364311
 20
325.3081162981868
 11
-69.7314760364311
 21
323.8081162981868
 72
     1
 10
-69.7314760364311
 20
323.8081162981868
 11
-69.56480936976459
 21
323.8081162981868
 72
     1
 10
-69.56480936976459
 20
323.8081162981868
 11
-69.56480936976459
 21
325.3081162981868
 72
     1
 10
-69.56480936976459
 20
325.3081162981868
 11
-69.7314760364311
 21
325.3081162981868
 97
        4
330
EE9
330
EDE
330
EE8
330
EEA
 75
     0
 76
     1
 98
        1
 10
22.59808067004917
 20
255.8959654910058
450
        0
451
        0
460
0.0
461
0.0
452
        0
462
0.0
453
        0
470

  0
TEXT
  5
ED3
330
18
100
AcDbEntity
  8
文字
100
AcDbText
 10
-72.16839632031156
 20
322.0718260637743
 30
0.0
 40
1.0
  1
0.01mm
  7
STYLE3
100
AcDbText
  0
POINT
  5
ED4
330
18
100
AcDbEntity
  8
DEFPOINTS
  6
ByBlock
 62
     0
100
AcDbPoint
 10
-70.89814270309784
 20
324.1334843582095
 30
0.0
  0
POINT
  5
ED5
330
18
100
AcDbEntity
  8
DEFPOINTS
  6
ByBlock
 62
     0
100
AcDbPoint
 10
-70.89814270309784
 20
324.1334843582095
 30
0.0
  0
LINE
  5
ED6
102
{ACAD_REACTORS
330
ED2
102
}
330
18
100
AcDbEntity
  8
外形線
100
AcDbLine
 10
-70.89814270309784
 20
324.4685329648535
 30
0.0
 11
-70.89814270309784
 21
324.1334843582096
 31
0.0
  0
POINT
  5
ED7
330
18
100
AcDbEntity
  8
DEFPOINTS
  6
ByBlock
 62
     0
100
AcDbPoint
 10
-70.89814270309784
 20
324.982748238164
 30
0.0
  0
POINT
  5
ED8
330
18
100
AcDbEntity
  8
DEFPOINTS
  6
ByBlock
 62
     0
100
AcDbPoint
 10
-70.89814270309784
 20
324.982748238164
 30
0.0
  0
LINE
  5
ED9
102
{ACAD_REACTORS
330
ED2
102
}
330
18
100
AcDbEntity
  8
外形線
100
AcDbLine
 10
-70.89814270309784
 20
324.982748238164
 30
0.0
 11
-70.89814270309784
 21
324.6476996315201
 31
0.0
  0
LINE
  5
EDA
102
{ACAD_REACTORS
330
ED2
102
}
330
18
100
AcDbEntity
  8
外形線
100
AcDbLine
 10
-71.89814270309785
 20
324.6476996315201
 30
0.0
 11
-71.89814270309785
 21
324.4685329648534
 31
0.0
  0
LINE
  5
EDB
102
{ACAD_REACTORS
330
ED2
102
}
330
18
100
AcDbEntity
  8
外形線
100
AcDbLine
 10
-71.89814270309785
 20
324.4685329648534
 30
0.0
 11
-70.89814270309784
 21
324.4685329648535
 31
0.0
  0
LINE
  5
EDC
102
{ACAD_REACTORS
330
ED2
102
}
330
18
100
AcDbEntity
  8
外形線
100
AcDbLine
 10
-71.89814270309785
 20
324.6476996315201
 30
0.0
 11
-70.89814270309784
 21
324.6476996315201
 31
0.0
  0
LINE
  5
EDD
102
{ACAD_REACTORS
330
EF6
102
}
330
18
100
AcDbEntity
  8
外形線
100
AcDbLine
 10
-66.39814270309784
 20
324.6476996315201
 30
0.0
 11
-66.39814270309784
 21
324.4685329648534
 31
0.0
  0
LINE
  5
EDE
102
{ACAD_REACTORS
330
ED2
102
}
330
18
100
AcDbEntity
  8
外形線
100
AcDbLine
 10
-69.56480936976459
 20
323.8081162981868
 30
0.0
 11
-69.7314760364311
 21
323.8081162981868
 31
0.0
  0
POINT
  5
EDF
330
18
100
AcDbEntity
  8
DEFPOINTS
  6
ByBlock
 62
     0
100
AcDbPoint
 10
-69.7314760364311
 20
323.8081162981868
 30
0.0
  0
POINT
  5
EE0
330
18
100
AcDbEntity
  8
DEFPOINTS
  6
ByBlock
 62
     0
100
AcDbPoint
 10
-69.56480936976459
 20
323.8081162981868
 30
0.0
  0
POINT
  5
EE1
330
18
100
AcDbEntity
  8
DEFPOINTS
  6
ByBlock
 62
     0
100
AcDbPoint
 10
-69.7314760364311
 20
323.8081162981868
 30
0.0
  0
POINT
  5
EE2
330
18
100
AcDbEntity
  8
DEFPOINTS
  6
ByBlock
 62
     0
100
AcDbPoint
 10
-69.56480936976459
 20
323.8081162981868
 30
0.0
  0
POINT
  5
EE3
330
18
100
AcDbEntity
  8
DEFPOINTS
  6
ByBlock
 62
     0
100
AcDbPoint
 10
-68.73147603643122
 20
323.8081162981868
 30
0.0
  0
POINT
  5
EE4
330
18
100
AcDbEntity
  8
DEFPOINTS
  6
ByBlock
 62
     0
100
AcDbPoint
 10
-68.56480936976459
 20
323.8081162981868
 30
0.0
  0
POINT
  5
EE5
330
18
100
AcDbEntity
  8
DEFPOINTS
  6
ByBlock
 62
     0
100
AcDbPoint
 10
-68.73147603643122
 20
323.8081162981868
 30
0.0
  0
POINT
  5
EE6
330
18
100
AcDbEntity
  8
DEFPOINTS
  6
ByBlock
 62
     0
100
AcDbPoint
 10
-68.56480936976459
 20
323.8081162981868
 30
0.0
  0
LINE
  5
EE7
102
{ACAD_REACTORS
330
EF6
102
}
330
18
100
AcDbEntity
  8
外形線
100
AcDbLine
 10
-68.73147603643122
 20
323.8081162981868
 30
0.0
 11
-68.56480936976459
 21
323.8081162981868
 31
0.0
  0
LINE
  5
EE8
102
{ACAD_REACTORS
330
ED2
102
}
330
18
100
AcDbEntity
  8
外形線
100
AcDbLine
 10
-69.56480936976459
 20
325.3081162981868
 30
0.0
 11
-69.56480936976459
 21
323.8081162981868
 31
0.0
  0
LINE
  5
EE9
102
{ACAD_REACTORS
330
ED2
102
}
330
18
100
AcDbEntity
  8
外形線
100
AcDbLine
 10
-69.7314760364311
 20
325.3081162981868
 30
0.0
 11
-69.7314760364311
 21
323.8081162981868
 31
0.0
  0
LINE
  5
EEA
102
{ACAD_REACTORS
330
ED2
102
}
330
18
100
AcDbEntity
  8
外形線
100
AcDbLine
 10
-69.56480936976459
 20
325.3081162981868
 30
0.0
 11
-69.7314760364311
 21
325.3081162981868
 31
0.0
  0
LINE
  5
EEB
102
{ACAD_REACTORS
330
EF6
102
}
330
18
100
AcDbEntity
  8
外形線
100
AcDbLine
 10
-68.56480936976459
 20
324.5581162981868
 30
0.0
 11
-67.39814270309785
 21
324.982748238164
 31
0.0
  0
LINE
  5
EEC
102
{ACAD_REACTORS
330
EF6
102
}
330
18
100
AcDbEntity
  8
外形線
100
AcDbLine
 10
-68.56480936976459
 20
325.3081162981868
 30
0.0
 11
-68.56480936976459
 21
323.8081162981868
 31
0.0
  0
LINE
  5
EED
102
{ACAD_REACTORS
330
EF6
102
}
330
18
100
AcDbEntity
  8
外形線
100
AcDbLine
 10
-68.73147603643122
 20
325.3081162981868
 30
0.0
 11
-68.73147603643122
 21
323.8081162981868
 31
0.0
  0
LINE
  5
EEE
102
{ACAD_REACTORS
330
EF6
102
}
330
18
100
AcDbEntity
  8
外形線
100
AcDbLine
 10
-67.39814270309785
 20
324.4685329648535
 30
0.0
 11
-67.39814270309785
 21
324.1334843582096
 31
0.0
  0
POINT
  5
EEF
330
18
100
AcDbEntity
  8
DEFPOINTS
  6
ByBlock
 62
     0
100
AcDbPoint
 10
-67.39814270309785
 20
324.1334843582095
 30
0.0
  0
POINT
  5
EF0
330
18
100
AcDbEntity
  8
DEFPOINTS
  6
ByBlock
 62
     0
100
AcDbPoint
 10
-67.39814270309785
 20
324.1334843582095
 30
0.0
  0
LINE
  5
EF1
102
{ACAD_REACTORS
330
EF6
102
}
330
18
100
AcDbEntity
  8
外形線
100
AcDbLine
 10
-68.56480936976459
 20
324.5581162981868
 30
0.0
 11
-67.39814270309785
 21
324.1334843582095
 31
0.0
  0
LINE
  5
EF2
102
{ACAD_REACTORS
330
EF6
102
}
330
18
100
AcDbEntity
  8
外形線
100
AcDbLine
 10
-67.39814270309785
 20
324.982748238164
 30
0.0
 11
-67.39814270309785
 21
324.6476996315201
 31
0.0
  0
POINT
  5
EF3
330
18
100
AcDbEntity
  8
DEFPOINTS
  6
ByBlock
 62
     0
100
AcDbPoint
 10
-67.39814270309785
 20
324.982748238164
 30
0.0
  0
POINT
  5
EF4
330
18
100
AcDbEntity
  8
DEFPOINTS
  6
ByBlock
 62
     0
100
AcDbPoint
 10
-67.39814270309785
 20
324.982748238164
 30
0.0
  0
LINE
  5
EF5
102
{ACAD_REACTORS
330
EF6
102
}
330
18
100
AcDbEntity
  8
外形線
100
AcDbLine
 10
-68.73147603643122
 20
325.3081162981868
 30
0.0
 11
-68.56480936976459
 21
325.3081162981868
 31
0.0
  0
HATCH
  5
EF6
330
18
100
AcDbEntity
  8
外形線
100
AcDbHatch
 10
0.0
 20
0.0
 30
0.0
210
0.0
220
0.0
230
1.0
  2
SOLID
 70
     1
 71
     1
 91
        2
 92
        1
 93
        7
 72
     1
 10
-68.56480936976459
 20
324.5581162981868
 11
-67.39814270309785
 21
324.1334843582095
 72
     1
 10
-67.39814270309785
 20
324.1334843582096
 11
-67.39814270309785
 21
324.4685329648535
 72
     1
 10
-67.39814270309785
 20
324.4685329648535
 11
-66.39814270309784
 21
324.4685329648534
 72
     1
 10
-66.39814270309784
 20
324.4685329648534
 11
-66.39814270309784
 21
324.6476996315201
 72
     1
 10
-66.39814270309784
 20
324.6476996315201
 11
-67.39814270309785
 21
324.6476996315201
 72
     1
 10
-67.39814270309785
 20
324.6476996315201
 11
-67.39814270309785
 21
324.982748238164
 72
     1
 10
-67.39814270309785
 20
324.982748238164
 11
-68.56480936976459
 21
324.5581162981868
 97
        7
330
EF1
330
EEE
330
EF7
330
EDD
330
EF8
330
EF2
330
EEB
 92
        1
 93
        4
 72
     1
 10
-68.56480936976459
 20
325.3081162981868
 11
-68.56480936976459
 21
323.8081162981868
 72
     1
 10
-68.56480936976459
 20
323.8081162981868
 11
-68.73147603643122
 21
323.8081162981868
 72
     1
 10
-68.73147603643122
 20
323.8081162981868
 11
-68.73147603643122
 21
325.3081162981868
 72
     1
 10
-68.73147603643122
 20
325.3081162981868
 11
-68.56480936976459
 21
325.3081162981868
 97
        4
330
EEC
330
EE7
330
EED
330
EF5
 75
     0
 76
     1
 98
        1
 10
-160.8943660762449
 20
255.8959654910058
450
        0
451
        0
460
0.0
461
0.0
452
        0
462
0.0
453
        0
470

  0
LINE
  5
EF7
102
{ACAD_REACTORS
330
EF6
102
}
330
18
100
AcDbEntity
  8
外形線
100
AcDbLine
 10
-66.39814270309784
 20
324.4685329648534
 30
0.0
 11
-67.39814270309785
 21
324.4685329648535
 31
0.0
  0
LINE
  5
EF8
102
{ACAD_REACTORS
330
EF6
102
}
330
18
100
AcDbEntity
  8
外形線
100
AcDbLine
 10
-66.39814270309784
 20
324.6476996315201
 30
0.0
 11
-67.39814270309785
 21
324.6476996315201
 31
0.0
  0
LINE
  5
EFA
330
18
100
AcDbEntity
  8
目盛
100
AcDbLine
 10
-52.82403791929329
 20
309.1372597492372
 30
0.0
 11
-55.23388128941395
 21
310.4620823530169
 31
0.0
  0
LINE
  5
EFB
330
18
100
AcDbEntity
  8
目盛
100
AcDbLine
 10
-51.99694711905073
 20
310.7605168427998
 30
0.0
 11
-54.48522151333236
 21
311.9314098946038
 31
0.0
  0
LINE
  5
EFC
330
18
100
AcDbEntity
  8
目盛
100
AcDbLine
 10
-55.89204760006748
 20
304.6228205954748
 30
0.0
 11
-58.01095901770088
 21
306.3757365672837
 31
0.0
  0
LINE
  5
EFD
330
18
100
AcDbEntity
  8
目盛
100
AcDbLine
 10
-58.38506556863342
 20
301.9680261029659
 30
0.0
 11
-60.26757010993731
 21
303.9726898283748
 31
0.0
  0
LINE
  5
EFE
330
18
100
AcDbEntity
  8
目盛
100
AcDbLine
 10
-57.09684144534435
 20
303.2562502262547
 30
0.0
 11
-59.10150517075329
 21
305.1387547675588
 31
0.0
  0
LINE
  5
EFF
330
18
100
AcDbEntity
  8
目盛
100
AcDbLine
 10
-59.75163593785339
 20
300.7632322576889
 30
0.0
 11
-61.50455190966226
 21
302.8821436753223
 31
0.0
  0
LINE
  5
F00
330
18
100
AcDbEntity
  8
目盛
100
AcDbLine
 10
-61.19115932408362
 20
299.6466234613134
 30
0.0
 11
-63.98313927247284
 21
303.4894541845944
 31
0.0
  0
LINE
  5
F01
330
18
100
AcDbEntity
  8
目盛
100
AcDbLine
 10
-62.69795458617443
 20
298.6226064586284
 30
0.0
 11
-64.1714782723667
 21
300.9445082537589
 31
0.0
  0
LINE
  5
F02
330
18
100
AcDbEntity
  8
目盛
100
AcDbLine
 10
-53.75142180100692
 20
307.569139243796
 30
0.0
 11
-56.07332359613747
 21
309.0426629299882
 31
0.0
  0
LINE
  5
F03
330
18
100
AcDbEntity
  8
目盛
100
AcDbLine
 10
-54.77543880369182
 20
306.0623439817051
 30
0.0
 11
-58.61826952697288
 21
308.8543239300944
 31
0.0
  0
LINE
  5
F04
330
18
100
AcDbEntity
  8
目盛
100
AcDbLine
 10
-49.23693164056533
 20
323.1081162981868
 30
0.0
 11
-53.98693164056533
 21
323.1081162981868
 31
0.0
  0
LINE
  5
F05
330
18
100
AcDbEntity
  8
目盛
100
AcDbLine
 10
-50.6562926680059
 20
314.1466234613135
 30
0.0
 11
-55.17381112040784
 21
315.6144541845945
 31
0.0
  0
LINE
  5
F06
330
18
100
AcDbEntity
  8
目盛
100
AcDbLine
 10
-51.27341354980604
 20
312.4325042703313
 30
0.0
 11
-53.83029888599878
 21
313.444846790214
 31
0.0
  0
TEXT
  5
F07
330
18
100
AcDbEntity
  8
文字
100
AcDbText
 10
-62.6302210835243
 20
318.9343418067626
 30
0.0
 40
1.5
  1
70
  7
STYLE3
100
AcDbText
  0
TEXT
  5
F08
330
18
100
AcDbEntity
  8
文字
100
AcDbText
 10
-61.7048678073366
 20
314.6801873640935
 30
0.0
 40
3.0
  1
30
  7
STYLE3
100
AcDbText
  0
LINE
  5
F09
330
18
100
AcDbEntity
  8
目盛
100
AcDbLine
 10
-49.46560530244539
 20
319.4734525248219
 30
0.0
 11
-52.1939207310603
 21
319.8181189171238
 31
0.0
  0
LINE
  5
F0A
330
18
100
AcDbEntity
  8
目盛
100
AcDbLine
 10
-50.14801996783507
 20
315.896109570406
 30
0.0
 11
-52.81162366093878
 21
316.5800067601094
 31
0.0
  0
LINE
  5
F0B
330
18
100
AcDbEntity
  8
目盛
100
AcDbLine
 10
-49.75060136943335
 20
317.6740581752008
 30
0.0
 11
-52.45189130893726
 21
318.1893567903115
 31
0.0
  0
POINT
  5
F0C
330
18
100
AcDbEntity
  8
DEFPOINTS
  6
ByBlock
 62
     0
100
AcDbPoint
 10
-49.23693164056533
 20
323.1081162981869
 30
0.0
  0
LINE
  5
F0D
330
18
100
AcDbEntity
  8
目盛
100
AcDbLine
 10
-49.29415651614556
 20
324.9290413645369
 30
0.0
 11
-52.03873001932322
 21
324.7563674358314
 31
0.0
  0
LINE
  5
F0E
330
18
100
AcDbEntity
  8
目盛
100
AcDbLine
 10
-49.29415651614545
 20
321.2871912318367
 30
0.0
 11
-52.03873001932322
 21
321.4598651605423
 31
0.0
  0
LINE
  5
F27
330
18
100
AcDbEntity
  8
外形線
100
AcDbLine
 10
-166.4325256914658
 20
291.8581162981869
 30
0.0
 11
-180.8825256914657
 21
291.8581162981869
 31
0.0
  0
LINE
  5
F2C
330
18
100
AcDbEntity
  8
外形線
100
AcDbLine
 10
-165.7325256914657
 20
290.1081162981869
 30
0.0
 11
-165.7325256914658
 21
291.2081162981869
 31
0.0
  0
POINT
  5
F2D
330
18
100
AcDbEntity
  8
DEFPOINTS
  6
ByBlock
 62
     0
100
AcDbPoint
 10
-162.1825256914658
 20
289.8581162981869
 30
0.0
  0
POINT
  5
F2E
330
18
100
AcDbEntity
  8
DEFPOINTS
  6
ByBlock
 62
     0
100
AcDbPoint
 10
-162.1825256914658
 20
289.8581162981869
 30
0.0
  0
LINE
  5
F2F
330
18
100
AcDbEntity
  8
外形線
100
AcDbLine
 10
-165.4825256914657
 20
289.8581162981869
 30
0.0
 11
-165.7325256914657
 21
290.1081162981869
 31
0.0
  0
LINE
  5
F30
330
18
100
AcDbEntity
  8
外形線
100
AcDbLine
 10
-161.9325256914658
 20
290.1081162981869
 30
0.0
 11
-162.1825256914658
 21
289.8581162981869
 31
0.0
  0
LINE
  5
F31
330
18
100
AcDbEntity
  8
外形線
100
AcDbLine
 10
-162.1825256914658
 20
289.8581162981869
 30
0.0
 11
-165.4825256914657
 21
289.8581162981869
 31
0.0
  0
LINE
  5
F32
330
18
100
AcDbEntity
  8
外形線
100
AcDbLine
 10
-160.7325256914657
 20
292.1581162981869
 30
0.0
 11
-161.9325256914658
 21
291.1081162981869
 31
0.0
  0
LINE
  5
F33
330
18
100
AcDbEntity
  8
外形線
 62
     4
100
AcDbLine
 10
-161.9325256914658
 20
290.8581162981869
 30
0.0
 11
-165.7325256914658
 21
290.8581162981869
 31
0.0
  0
LINE
  5
F34
330
18
100
AcDbEntity
  8
外形線
 62
     4
100
AcDbLine
 10
-161.9325256914658
 20
292.0581162981869
 30
0.0
 11
-165.7325256914658
 21
292.0581162981869
 31
0.0
  0
LINE
  5
F35
330
18
100
AcDbEntity
  8
外形線
 62
     4
100
AcDbLine
 10
-161.9325256914658
 20
293.2581162981868
 30
0.0
 11
-165.7325256914658
 21
293.2581162981868
 31
0.0
  0
LINE
  5
F36
330
18
100
AcDbEntity
  8
外形線
 62
     4
100
AcDbLine
 10
-161.9325256914658
 20
294.6581162981868
 30
0.0
 11
-165.7325256914658
 21
294.6581162981868
 31
0.0
  0
LINE
  5
F37
330
18
100
AcDbEntity
  8
外形線
 62
     4
100
AcDbLine
 10
-161.9325256914658
 20
296.0581162981868
 30
0.0
 11
-165.7325256914658
 21
296.0581162981868
 31
0.0
  0
LINE
  5
F38
330
18
100
AcDbEntity
  8
外形線
100
AcDbLine
 10
-165.7325256914658
 20
291.2081162981869
 30
0.0
 11
-166.4325256914658
 21
291.2081162981869
 31
0.0
  0
POINT
  5
F3C
330
18
100
AcDbEntity
  8
DEFPOINTS
  6
ByBlock
 62
     0
100
AcDbPoint
 10
-180.8825256914657
 20
291.8581162981869
 30
0.0
  0
LINE
  5
F3D
330
18
100
AcDbEntity
  8
外形線
100
AcDbLine
 10
-180.8825256914657
 20
293.3081162981868
 30
0.0
 11
-181.0825256914658
 21
293.3081162981868
 31
0.0
  0
LINE
  5
F3E
330
18
100
AcDbEntity
  8
中心線
 48
0.7
100
AcDbLine
 10
-155.6681119122079
 20
323.1081162981869
 30
0.0
 11
-183.1889583238637
 21
323.1081162981869
 31
0.0
  0
POINT
  5
F3F
330
18
100
AcDbEntity
  8
DEFPOINTS
  6
ByBlock
 62
     0
100
AcDbPoint
 10
-158.8825256914658
 20
323.1081162981869
 30
0.0
  0
LINE
  5
F40
330
18
100
AcDbEntity
  8
外形線
 62
     4
100
AcDbLine
 10
-161.9325256914658
 20
323.1081162981869
 30
0.0
 11
-165.7325256914658
 21
323.1081162981869
 31
0.0
  0
LINE
  5
F41
330
18
100
AcDbEntity
  8
外形線
 62
     4
100
AcDbLine
 10
-161.9325256914658
 20
320.3081162981869
 30
0.0
 11
-165.7325256914658
 21
320.3081162981869
 31
0.0
  0
LINE
  5
F42
330
18
100
AcDbEntity
  8
外形線
 62
     4
100
AcDbLine
 10
-161.9325256914658
 20
321.708116298187
 30
0.0
 11
-165.7325256914658
 21
321.708116298187
 31
0.0
  0
LINE
  5
F43
330
18
100
AcDbEntity
  8
外形線
 62
     4
100
AcDbLine
 10
-161.9325256914658
 20
325.9081162981869
 30
0.0
 11
-165.7325256914658
 21
325.9081162981869
 31
0.0
  0
LINE
  5
F44
330
18
100
AcDbEntity
  8
外形線
 62
     4
100
AcDbLine
 10
-161.9325256914658
 20
324.5081162981869
 30
0.0
 11
-165.7325256914658
 21
324.5081162981869
 31
0.0
  0
TEXT
  5
F45
330
18
100
AcDbEntity
  8
文字
100
AcDbText
 10
-68.70662763646049
 20
338.4799368671083
 30
0.0
 40
3.0
  1
10
  7
STYLE3
100
AcDbText
  0
LINE
  5
F46
330
18
100
AcDbEntity
  8
目盛
100
AcDbLine
 10
-64.2660750916155
 20
348.521010019459
 30
0.0
 11
-65.59089769539531
 21
346.1111666493382
 31
0.0
  0
LINE
  5
F47
330
18
100
AcDbEntity
  8
目盛
100
AcDbLine
 10
-87.19842447743884
 20
350.6887552707463
 30
0.0
 11
-85.73059375415779
 21
346.1712368183443
 31
0.0
  0
TEXT
  5
F48
330
18
100
AcDbEntity
  8
文字
100
AcDbText
 10
-93.04087418104717
 20
338.848282092626
 30
0.0
 40
3.0
  1
90
  7
STYLE3
100
AcDbText
  0
LINE
  5
F49
330
18
100
AcDbEntity
  8
目盛
100
AcDbLine
 10
-100.5818156810631
 20
341.5934120008988
 30
0.0
 11
-98.46290426342967
 21
339.84049602909
 31
0.0
  0
TEXT
  5
F4A
330
18
100
AcDbEntity
  8
文字
100
AcDbText
 10
-100.8079125190342
 20
328.8137117888702
 30
0.0
 40
3.0
  1
80
  7
STYLE3
100
AcDbText
  0
LINE
  5
F4B
330
18
100
AcDbEntity
  8
目盛
100
AcDbLine
 10
-101.6984244774388
 20
340.1538886146686
 30
0.0
 11
-97.85559375415779
 21
337.3619086662793
 31
0.0
  0
LINE
  5
F4C
330
18
100
AcDbEntity
  8
目盛
100
AcDbLine
 10
-105.8175706131247
 20
332.0696091350604
 30
0.0
 11
-101.3000521607228
 21
330.6017784117794
 31
0.0
  0
LINE
  5
F4D
330
18
100
AcDbEntity
  8
目盛
100
AcDbLine
 10
-105.2004497313246
 20
333.7837283260425
 30
0.0
 11
-102.6435643951319
 21
332.7713858061598
 31
0.0
  0
LINE
  5
F4E
330
18
100
AcDbEntity
  8
目盛
100
AcDbLine
 10
-106.3258433132956
 20
330.3201230259677
 30
0.0
 11
-103.6622396201918
 21
329.6362258362643
 31
0.0
  0
LINE
  5
F4F
330
18
100
AcDbEntity
  8
目盛
100
AcDbLine
 10
-106.7232619116973
 20
328.5421744211729
 30
0.0
 11
-104.0219719721934
 21
328.0268758060622
 31
0.0
  0
LINE
  5
F50
330
18
100
AcDbEntity
  8
目盛
100
AcDbLine
 10
-103.6498253618374
 20
337.0789728471367
 30
0.0
 11
-101.2399819917167
 21
335.754150243357
 31
0.0
  0
LINE
  5
F51
330
18
100
AcDbEntity
  8
目盛
100
AcDbLine
 10
-104.47691616208
 20
335.4557157535741
 30
0.0
 11
-101.9886417677983
 21
334.2848227017701
 31
0.0
  0
LINE
  5
F52
330
18
100
AcDbEntity
  8
目盛
100
AcDbLine
 10
-102.7224414801237
 20
338.6470933525778
 30
0.0
 11
-100.4005396849932
 21
337.1735696663856
 31
0.0
  0
TEXT
  5
F53
330
18
100
AcDbEntity
  8
文字
100
AcDbText
 10
-91.04349109569312
 20
335.8754462847568
 30
0.0
 40
1.5
  1
10
  7
STYLE3
100
AcDbText
  0
LINE
  5
F54
330
18
100
AcDbEntity
  8
目盛
100
AcDbLine
 10
-98.08879771249729
 20
344.2482064934078
 30
0.0
 11
-96.20629317119336
 21
342.243542767999
 31
0.0
  0
LINE
  5
F55
330
18
100
AcDbEntity
  8
目盛
100
AcDbLine
 10
-99.37702183578625
 20
342.9599823701189
 30
0.0
 11
-97.37235811037733
 21
341.0774778288149
 31
0.0
  0
LINE
  5
F56
330
18
100
AcDbEntity
  8
目盛
100
AcDbLine
 10
-88.91254366842094
 20
350.0716343889461
 30
0.0
 11
-87.90020114853815
 21
347.5147490527535
 31
0.0
  0
LINE
  5
F57
330
18
100
AcDbEntity
  8
目盛
100
AcDbLine
 10
-90.58453109595246
 20
349.3481008197015
 30
0.0
 11
-89.41363804414846
 21
346.8598264254199
 31
0.0
  0
LINE
  5
F58
330
18
100
AcDbEntity
  8
目盛
100
AcDbLine
 10
-92.2077881895151
 20
348.521010019459
 30
0.0
 11
-90.88296558573535
 21
346.1111666493383
 31
0.0
  0
LINE
  5
F59
330
18
100
AcDbEntity
  8
目盛
100
AcDbLine
 10
-93.77590869495623
 20
347.5936261377454
 30
0.0
 11
-92.30238500876396
 21
345.2717243426148
 31
0.0
  0
LINE
  5
F5A
102
{ACAD_REACTORS
330
E3A
102
}
330
18
100
AcDbEntity
  8
針
100
AcDbLine
 10
-78.23693164056539
 20
350.1081162981869
 30
0.0
 11
-78.13693164056539
 21
350.1081162981869
 31
0.0
  0
LINE
  5
F5B
102
{ACAD_REACTORS
330
E3A
102
}
330
18
100
AcDbEntity
  8
針
100
AcDbLine
 10
-78.23693164056539
 20
350.1081162981869
 30
0.0
 11
-78.3369316405654
 21
350.1081162981869
 31
0.0
  0
LINE
  5
F5C
330
18
100
AcDbEntity
  8
目盛
100
AcDbLine
 10
-96.72222734327727
 20
345.4530003386848
 30
0.0
 11
-94.96931137146839
 21
343.3340889210513
 31
0.0
  0
LINE
  5
F5D
330
18
100
AcDbEntity
  8
目盛
100
AcDbLine
 10
-95.28270395704703
 20
346.5696091350604
 30
0.0
 11
-92.49072400865783
 21
342.7267784117794
 31
0.0
  0
TEXT
  5
F5E
330
18
100
AcDbEntity
  8
文字
100
AcDbText
 10
-78.98684465234584
 20
340.3248833651369
 30
0.0
 40
1.5
  1
0
  7
STYLE3
100
AcDbText
  0
SPLINE
  5
F5F
102
{ACAD_REACTORS
330
F61
102
}
330
18
100
AcDbEntity
  8
ROGO
 62
     4
100
AcDbSpline
210
0.0
220
0.0
230
1.0
 70
     8
 71
     3
 72
    38
 73
    34
 74
    32
 42
0.0000000001
 43
0.0000000001
 44
0.0000000001
 40
0.0
 40
0.0
 40
0.0
 40
0.0
 40
0.1807680148264315
 40
0.2375392910068956
 40
0.3104865209606157
 40
0.3712759982447458
 40
0.422566754387306
 40
0.490692583720658
 40
0.5255021974951946
 40
0.5647069597052371
 40
0.622487401681883
 40
0.6879401044674746
 40
0.7303986317551266
 40
0.7765228362185534
 40
0.8277951442290254
 40
0.9056034697002209
 40
0.9795294930264187
 40
1.013897332332996
 40
1.053089255536027
 40
1.099518741889647
 40
1.132570569820733
 40
1.160277520290299
 40
1.19983678629386
 40
1.243305643169139
 40
1.286774258016964
 40
1.324809356515675
 40
1.411916492917645
 40
1.446284332224223
 40
1.5150200516612
 40
1.575779369908399
 40
1.69209852953623
 40
1.835624328519098
 40
2.042896467983898
 40
2.042896467983898
 40
2.042896467983898
 40
2.042896467983898
 10
-75.54020331931764
 20
332.4785601584657
 30
0.0
 10
-75.60045871694331
 20
332.4743035393648
 30
0.0
 10
-75.6796376825644
 20
332.4687101035775
 30
0.0
 10
-75.78017645507407
 20
332.4411654773728
 30
0.0
 10
-75.83498120951495
 20
332.4083509579148
 30
0.0
 10
-75.89201651083221
 20
332.3842307132144
 30
0.0
 10
-75.9406444172172
 20
332.3485134139649
 30
0.0
 10
-75.98983051791307
 20
332.3301086337716
 30
0.0
 10
-76.02427213128897
 20
332.2969215253991
 30
0.0
 10
-76.06413548942183
 20
332.276649407224
 30
0.0
 10
-76.09587938925712
 20
332.2312745132097
 30
0.0
 10
-76.13136006578892
 20
332.1888506315513
 30
0.0
 10
-76.172522114196
 20
332.1578830899737
 30
0.0
 10
-76.20630435975543
 20
332.1253581110115
 30
0.0
 10
-76.23729487267974
 20
332.0751622958274
 30
0.0
 10
-76.25563644525087
 20
332.0084669211419
 30
0.0
 10
-76.30733825966022
 20
331.9663578668567
 30
0.0
 10
-76.31512293414335
 20
331.9157302191805
 30
0.0
 10
-76.34372078433897
 20
331.8858607589899
 30
0.0
 10
-76.35615612979498
 20
331.847303577005
 30
0.0
 10
-76.36089210791872
 20
331.8119783876842
 30
0.0
 10
-76.36657641096118
 20
331.7789871062559
 30
0.0
 10
-76.38144547119373
 20
331.7442817355181
 30
0.0
 10
-76.37659215863229
 20
331.701411456583
 30
0.0
 10
-76.37797472167446
 20
331.6598987425566
 30
0.0
 10
-76.37716108170121
 20
331.6038552859451
 30
0.0
 10
-76.38009762104719
 20
331.5492900890257
 30
0.0
 10
-76.35667987053219
 20
331.4899102128572
 30
0.0
 10
-76.34282202292935
 20
331.4369812681908
 30
0.0
 10
-76.30487005298573
 20
331.3636947259391
 30
0.0
 10
-76.2394037001678
 20
331.2791379022304
 30
0.0
 10
-76.11491395415029
 20
331.1765019389375
 30
0.0
 10
-75.99521342359095
 20
331.1660899982202
 30
0.0
 10
-75.92448728086077
 20
331.1599380087359
 30
0.0
 11
-75.54020331931764
 21
332.4785601584657
 31
0.0
 11
-75.71965995626493
 21
332.4568256090143
 31
0.0
 11
-75.77404074239308
 21
332.440525059967
 31
0.0
 11
-75.83929742940108
 21
332.4079234778174
 31
0.0
 11
-75.89367821552923
 21
332.3807556540443
 31
0.0
 11
-75.93718267353455
 21
332.3535875882438
 31
0.0
 11
-75.99700141010259
 21
332.3209862481217
 31
0.0
 11
-76.02419201678827
 21
332.2992519406978
 31
0.0
 11
-76.05682057391374
 21
332.2775173912464
 31
0.0
 11
-76.09488708147916
 21
332.2340487763985
 31
0.0
 11
-76.13839153948447
 21
332.1851466452016
 31
0.0
 11
-76.17102009661005
 21
332.1579785794011
 31
0.0
 11
-76.20364822649247
 21
332.125377239279
 31
0.0
 11
-76.2308388331781
 21
332.0819086244311
 31
0.0
 11
-76.26346696306047
 21
332.0112719437828
 31
0.0
 11
-76.30697184830893
 21
331.9515025378602
 31
0.0
 11
-76.31784774918867
 21
331.9189009557106
 31
0.0
 11
-76.33959997819136
 21
331.8862996155884
 31
0.0
 11
-76.35591425675409
 21
331.8428307587132
 31
0.0
 11
-76.36135263443708
 21
331.8102294185909
 31
0.0
 11
-76.36679058487698
 21
331.7830613527905
 31
0.0
 11
-76.37766648575677
 21
331.7450264963192
 31
0.0
 11
-76.37766648575677
 21
331.7015576394439
 31
0.0
 11
-76.37766648575677
 21
331.6580890245961
 31
0.0
 11
-76.37766648575677
 21
331.6200539260974
 31
0.0
 11
-76.37222853531682
 21
331.5331166964017
 31
0.0
 11
-76.36135263443708
 21
331.5005151142521
 31
0.0
 11
-76.33959997819136
 21
331.4353121919804
 31
0.0
 11
-76.31240979874878
 21
331.3809763024068
 31
0.0
 11
-76.24171473405789
 21
331.288605556362
 31
0.0
 11
-76.12751521136158
 21
331.2016680846389
 31
0.0
 11
-75.92448728086077
 21
331.1599380087359
 31
0.0
  0
LINE
  5
F60
102
{ACAD_REACTORS
330
F61
102
}
330
18
100
AcDbEntity
  8
ROGO
 62
     4
100
AcDbLine
 10
-75.92448728086077
 20
331.1599380087359
 30
0.0
 11
-75.17403345767542
 21
331.1599380087359
 31
0.0
  0
HATCH
  5
F61
330
18
100
AcDbEntity
  8
ROGO
 62
     4
100
AcDbHatch
 10
0.0
 20
0.0
 30
0.0
210
0.0
220
0.0
230
1.0
  2
SOLID
 70
     1
 71
     1
 91
        2
 92
        5
 93
        6
 72
     4
 94
        3
 73
     0
 74
     0
 95
       38
 96
       34
 40
0.0
 40
0.0
 40
0.0
 40
0.0
 40
0.1807680148264315
 40
0.2375392910068956
 40
0.3104865209606157
 40
0.3712759982447458
 40
0.422566754387306
 40
0.490692583720658
 40
0.5255021974951946
 40
0.5647069597052371
 40
0.622487401681883
 40
0.6879401044674746
 40
0.7303986317551266
 40
0.7765228362185534
 40
0.8277951442290254
 40
0.9056034697002209
 40
0.9795294930264187
 40
1.013897332332996
 40
1.053089255536027
 40
1.099518741889647
 40
1.132570569820733
 40
1.160277520290299
 40
1.19983678629386
 40
1.243305643169139
 40
1.286774258016964
 40
1.324809356515675
 40
1.411916492917645
 40
1.446284332224223
 40
1.5150200516612
 40
1.575779369908399
 40
1.69209852953623
 40
1.835624328519098
 40
2.042896467983898
 40
2.042896467983898
 40
2.042896467983898
 40
2.042896467983898
 10
-75.54020331931764
 20
332.4785601584657
 10
-75.60045871694331
 20
332.4743035393648
 10
-75.6796376825644
 20
332.4687101035775
 10
-75.78017645507407
 20
332.4411654773728
 10
-75.83498120951495
 20
332.4083509579148
 10
-75.89201651083221
 20
332.3842307132143
 10
-75.9406444172172
 20
332.3485134139649
 10
-75.98983051791307
 20
332.3301086337716
 10
-76.02427213128897
 20
332.2969215253991
 10
-76.06413548942183
 20
332.276649407224
 10
-76.09587938925713
 20
332.2312745132097
 10
-76.13136006578891
 20
332.1888506315513
 10
-76.172522114196
 20
332.1578830899737
 10
-76.20630435975543
 20
332.1253581110114
 10
-76.23729487267974
 20
332.0751622958274
 10
-76.25563644525087
 20
332.0084669211419
 10
-76.30733825966022
 20
331.9663578668567
 10
-76.31512293414335
 20
331.9157302191805
 10
-76.343720784339
 20
331.8858607589899
 10
-76.35615612979492
 20
331.847303577005
 10
-76.36089210791874
 20
331.8119783876842
 10
-76.36657641096118
 20
331.7789871062558
 10
-76.38144547119371
 20
331.7442817355181
 10
-76.37659215863229
 20
331.701411456583
 10
-76.37797472167446
 20
331.6598987425566
 10
-76.37716108170121
 20
331.6038552859451
 10
-76.38009762104719
 20
331.5492900890257
 10
-76.35667987053219
 20
331.4899102128572
 10
-76.34282202292934
 20
331.4369812681907
 10
-76.30487005298573
 20
331.3636947259391
 10
-76.23940370016781
 20
331.2791379022303
 10
-76.11491395415029
 20
331.1765019389375
 10
-75.99521342359095
 20
331.1660899982202
 10
-75.92448728086077
 20
331.1599380087359
 72
     1
 10
-75.9244872808609
 20
331.1599380087359
 11
-75.17403345767455
 21
331.1599380087359
 72
     4
 94
        3
 73
     0
 74
     0
 95
       11
 96
        7
 40
0.1647869275458135
 40
0.1647869275458135
 40
0.1647869275458135
 40
0.1647869275458135
 40
0.2545010798212315
 40
0.5111620267764023
 40
0.7602998271033902
 40
0.8850764140209603
 40
0.8850764140209603
 40
0.8850764140209603
 40
0.8850764140209603
 10
-75.17403345767542
 20
331.1599380087359
 10
-75.16356155735548
 20
331.1597361930929
 10
-75.12313086252692
 20
331.1589570081861
 10
-75.05403432043056
 20
331.1688835387707
 10
-74.98133555329246
 20
331.1783959331441
 10
-74.93799454185825
 20
331.185323522928
 10
-74.92401599905742
 20
331.1892144556445
 72
     4
 94
        3
 73
     0
 74
     0
 95
        9
 96
        5
 40
0.0
 40
0.0
 40
0.0
 40
0.0
 40
0.1135793343552172
 40
0.2662938392177403
 40
0.2662938392177403
 40
0.2662938392177403
 40
0.2662938392177403
 10
-74.92401599905742
 20
331.1892144556445
 10
-74.88753103073944
 20
331.2003767953677
 10
-74.80198974506196
 20
331.2265475976216
 10
-74.73131304782518
 20
331.2818599153961
 10
-74.69078129216933
 20
331.313580488604
 72
     4
 94
        3
 73
     0
 74
     0
 95
       25
 96
       21
 40
0.0
 40
0.0
 40
0.0
 40
0.0
 40
0.165525918914855
 40
0.3412380755365305
 40
0.5940540902285263
 40
0.7697671103696209
 40
0.9377330196075423
 40
1.11479469302833
 40
1.274661249598185
 40
1.574522170874768
 40
1.815540668866877
 40
2.15849091873445
 40
2.536227739636605
 40
2.738070817316548
 40
2.925680654369045
 40
3.162706124480894
 40
3.395643218188267
 40
3.648478129958861
 40
3.928509979727306
 40
4.337226830236035
 40
4.337226830236035
 40
4.337226830236035
 40
4.337226830236035
 10
-74.69078129216933
 20
331.313580488604
 10
-74.67588863477562
 20
331.3258872325497
 10
-74.64764133547169
 20
331.3551573557714
 10
-74.59754009883198
 20
331.40259770411
 10
-74.55338993902535
 20
331.457869474564
 10
-74.49892753830813
 20
331.5026653074375
 10
-74.47057458276913
 20
331.5574315337849
 10
-74.42970603546502
 20
331.600504004284
 10
-74.39542401654768
 20
331.6670251862746
 10
-74.36633741784766
 20
331.7434369514188
 10
-74.33860736235016
 20
331.8430382351222
 10
-74.3279809190135
 20
331.9554032881677
 10
-74.34370937666074
 20
332.0641164205988
 10
-74.38170535433551
 20
332.1453759161357
 10
-74.40963951510468
 20
332.2130973308018
 10
-74.45203310374711
 20
332.2772414344789
 10
-74.50039845860771
 20
332.3470052408131
 10
-74.56853667936707
 20
332.404711203128
 10
-74.65758633798822
 20
332.4743138925036
 10
-74.74052944570672
 20
332.4769787690096
 10
-74.78974949613228
 20
332.4785601584657
 72
     1
 10
-74.78974949613238
 20
332.4785601584657
 11
-75.54020331931774
 21
332.4785601584657
 97
        6
330
FA4
330
FA5
330
F5F
330
F60
330
FA6
330
FA7
 92
       20
 93
        1
 72
     3
 10
-75.36774492468691
 20
331.8008641662467
 11
0.1782847090673272
 21
0.1567790921840611
 40
0.678808341743879
 50
0.0
 51
360.0
 73
     1
 97
        1
330
FA8
 75
     0
 76
     1
 47
0.088756267210375
 98
        2
 10
-75.31531364891828
 20
332.1143514365707
 10
-75.31531364891828
 20
332.1143514365707
450
        0
451
        0
460
0.0
461
0.0
452
        0
462
0.0
453
        0
470

  0
LINE
  5
F62
102
{ACAD_REACTORS
330
F64
330
F94
330
F79
102
}
330
18
100
AcDbEntity
  8
ROGO
 62
     4
100
AcDbLine
 10
-85.91955829549982
 20
330.4212041543874
 30
0.0
 11
-72.03038102847603
 21
330.4212041543874
 31
0.0
  0
LINE
  5
F63
102
{ACAD_REACTORS
330
F64
102
}
330
18
100
AcDbEntity
  8
ROGO
 62
     4
100
AcDbLine
 10
-84.88696975105801
 20
330.6268743606787
 30
0.0
 11
-72.68391096359408
 21
330.6268743606787
 31
0.0
  0
HATCH
  5
F64
330
18
100
AcDbEntity
  8
ROGO
 62
     4
100
AcDbHatch
 10
0.0
 20
0.0
 30
0.0
210
0.0
220
0.0
230
1.0
  2
SOLID
 70
     1
 71
     1
 91
        1
 92
        7
 72
     0
 73
     1
 93
        4
 10
-84.8727063041413
 20
330.6268743606787
 10
-84.96575733956326
 20
330.4212041543874
 10
-72.78646477098023
 20
330.4212041543874
 10
-72.6839109635941
 20
330.6268743606787
 97
        4
330
F63
330
F75
330
F62
330
FA9
 75
     0
 76
     1
 47
0.0514683685270805
 98
        1
 10
-77.17647104325306
 20
330.5724778964739
450
        0
451
        0
460
0.0
461
0.0
452
        0
462
0.0
453
        0
470

  0
TEXT
  5
F65
330
18
100
AcDbEntity
  8
文字
100
AcDbText
 10
-84.51508814194927
 20
328.5047916340421
 30
0.0
 40
1.0
  1
MADE  IN  JAPAN
  7
STYLE3
100
AcDbText
  0
LINE
  5
F66
102
{ACAD_REACTORS
330
F6C
102
}
330
18
100
AcDbEntity
  8
ROGO
 62
     4
100
AcDbLine
 10
-82.98891734847648
 20
331.1599380087359
 30
0.0
 11
-81.21283419999258
 21
331.1599380087359
 31
0.0
  0
LINE
  5
F67
102
{ACAD_REACTORS
330
F6C
102
}
330
18
100
AcDbEntity
  8
ROGO
 62
     4
100
AcDbLine
 10
-81.64540091868502
 20
332.1722806086013
 30
0.0
 11
-80.71193649646705
 21
332.1722806086013
 31
0.0
  0
LINE
  5
F68
102
{ACAD_REACTORS
330
F6C
102
}
330
18
100
AcDbEntity
  8
ROGO
 62
     4
100
AcDbLine
 10
-81.76177076476148
 20
331.9370905654171
 30
0.0
 11
-80.82830634254355
 21
331.9370905654171
 31
0.0
  0
LINE
  5
F69
102
{ACAD_REACTORS
330
F6C
102
}
330
18
100
AcDbEntity
  8
ROGO
 62
     4
100
AcDbLine
 10
-81.99747191300167
 20
331.4607252087359
 30
0.0
 11
-81.06400749078375
 21
331.4607252087359
 31
0.0
  0
LINE
  5
F6A
102
{ACAD_REACTORS
330
F6C
102
}
330
18
100
AcDbEntity
  8
ROGO
 62
     4
100
AcDbLine
 10
-81.88109714038535
 20
331.6959252087359
 30
0.0
 11
-80.94763271816743
 21
331.6959252087359
 31
0.0
  0
LINE
  5
F6B
102
{ACAD_REACTORS
330
F6C
102
}
330
18
100
AcDbEntity
  8
ROGO
 62
     4
100
AcDbLine
 10
-82.33918544921641
 20
332.4730829392934
 30
0.0
 11
-80.5631023007325
 21
332.4730829392934
 31
0.0
  0
HATCH
  5
F6C
330
18
100
AcDbEntity
  8
ROGO
 62
     4
100
AcDbHatch
 10
0.0
 20
0.0
 30
0.0
210
0.0
220
0.0
230
1.0
  2
SOLID
 70
     1
 71
     1
 91
        1
 92
        1
 93
       12
 72
     1
 10
-82.33918544921641
 20
332.4730829392934
 11
-80.5631023007325
 21
332.4730829392934
 72
     1
 10
-80.5631023007325
 20
332.4730829392934
 11
-80.71193649646705
 21
332.1722806086013
 72
     1
 10
-80.71193649646705
 20
332.1722806086013
 11
-81.64540091868502
 21
332.1722806086013
 72
     1
 10
-81.64540091868502
 20
332.1722806086013
 11
-81.76177076476148
 21
331.9370905654171
 72
     1
 10
-81.76177076476148
 20
331.9370905654171
 11
-80.82830634254355
 21
331.9370905654171
 72
     1
 10
-80.82830634254355
 20
331.9370905654171
 11
-80.94763271816743
 21
331.6959252087359
 72
     1
 10
-80.94763271816743
 20
331.6959252087359
 11
-81.88109714038535
 21
331.6959252087359
 72
     1
 10
-81.88109714038535
 20
331.6959252087359
 11
-81.99747191300174
 21
331.4607252087359
 72
     1
 10
-81.99747191300167
 20
331.4607252087359
 11
-81.06400749078375
 21
331.4607252087359
 72
     1
 10
-81.06400749078375
 20
331.4607252087359
 11
-81.21283419999258
 21
331.1599380087359
 72
     1
 10
-81.21283419999258
 20
331.1599380087359
 11
-82.98891734847648
 21
331.1599380087359
 72
     1
 10
-82.98891734847648
 20
331.1599380087359
 11
-82.33918544921641
 21
332.4730829392934
 97
       12
330
F6B
330
F7B
330
F67
330
F77
330
F68
330
F7C
330
F6A
330
F78
330
F69
330
F7D
330
F66
330
F76
 75
     0
 76
     1
 98
        1
 10
-154.9893144279253
 20
241.6749868911821
450
        0
451
        0
460
0.0
461
0.0
452
        0
462
0.0
453
        0
470

  0
LINE
  5
F6D
102
{ACAD_REACTORS
330
F79
102
}
330
18
100
AcDbEntity
  8
ROGO
 62
     4
100
AcDbLine
 10
-84.90430775540716
 20
332.4730829392934
 30
0.0
 11
-83.291809442422
 21
332.4730829392934
 31
0.0
  0
LINE
  5
F6E
102
{ACAD_REACTORS
330
F79
102
}
330
18
100
AcDbEntity
  8
ROGO
 62
     4
100
AcDbLine
 10
-84.90430775540716
 20
332.4730829392934
 30
0.0
 11
-85.91955829549982
 21
330.4212041543873
 31
0.0
  0
SPLINE
  5
F6F
102
{ACAD_REACTORS
330
F79
102
}
330
18
100
AcDbEntity
  8
ROGO
 62
     4
100
AcDbSpline
210
0.0
220
0.0
230
1.0
 70
     8
 71
     3
 72
    18
 73
    14
 74
     0
 42
0.0000000001
 43
0.0000000001
 40
0.1087402787915014
 40
0.1087402787915014
 40
0.1087402787915014
 40
0.1087402787915014
 40
0.5992371417938475
 40
1.083176791562496
 40
1.448211145705696
 40
1.714037220764907
 40
2.164002567013297
 40
2.740236056362883
 40
3.395137510199602
 40
4.071816045172726
 40
4.784906178399433
 40
5.506895915094292
 40
6.060470601257719
 40
6.060470601257719
 40
6.060470601257719
 40
6.060470601257719
 10
-83.291809442422
 20
332.4730829392934
 30
0.0
 10
-83.24014990478593
 20
332.4541505844457
 30
0.0
 10
-83.13856195693546
 20
332.4141246931304
 30
0.0
 10
-83.01457672138827
 20
332.3227723833391
 30
0.0
 10
-82.94696052746354
 20
332.2173136061663
 30
0.0
 10
-82.88192131892049
 20
332.1134028638634
 30
0.0
 10
-82.87281920040959
 20
331.964325329707
 30
0.0
 10
-82.88772908545666
 20
331.7758551941353
 30
0.0
 10
-82.98398595633278
 20
331.5792060566146
 30
0.0
 10
-83.13848389541419
 20
331.4072090258127
 30
0.0
 10
-83.33030386850721
 20
331.269544845471
 30
0.0
 10
-83.53258464661445
 20
331.1614820089756
 30
0.0
 10
-83.67717500366802
 20
331.160405288367
 30
0.0
 10
-83.73992492056272
 20
331.1599380087359
 30
0.0
  0
LINE
  5
F70
102
{ACAD_REACTORS
330
F79
102
}
330
18
100
AcDbEntity
  8
ROGO
 62
     4
100
AcDbLine
 10
-83.7399249202536
 20
331.1599380087359
 30
0.0
 11
-84.63153318873485
 21
331.1599380087359
 31
0.0
  0
LINE
  5
F71
102
{ACAD_REACTORS
330
F79
102
}
330
18
100
AcDbEntity
  8
ROGO
 62
     4
100
AcDbLine
 10
-84.2671709000673
 20
331.96528602808
 30
0.0
 11
-84.42516869642469
 21
331.6160643431946
 31
0.0
  0
SPLINE
  5
F72
102
{ACAD_REACTORS
330
F79
102
}
330
18
100
AcDbEntity
  8
ROGO
 62
     4
100
AcDbSpline
210
0.0
220
0.0
230
1.0
 70
     8
 71
     3
 72
    15
 73
    11
 74
     9
 42
0.0000000001
 43
0.0000000001
 44
0.0000000001
 40
0.0
 40
0.0
 40
0.0
 40
0.0
 40
0.1539705029175028
 40
0.2241725832587281
 40
0.3038566179396687
 40
0.3581410872474193
 40
0.443992538467216
 40
0.4954152125469665
 40
0.5836396705646186
 40
0.6130478420065743
 40
0.6130478420065743
 40
0.6130478420065743
 40
0.6130478420065743
 10
-83.86118390096987
 20
331.96528602808
 30
0.0
 10
-83.80335556591068
 20
331.9655509127224
 30
0.0
 10
-83.71916069085264
 20
331.9659365701921
 30
0.0
 10
-83.67311993448788
 20
331.8617872662627
 30
0.0
 10
-83.69375759672152
 20
331.7947313616253
 30
0.0
 10
-83.71970082014549
 20
331.7258858473774
 30
0.0
 10
-83.76554837168789
 20
331.6791042821081
 30
0.0
 10
-83.8270825012831
 20
331.6340457484712
 30
0.0
 10
-83.8852351943388
 20
331.6285912112117
 30
0.0
 10
-83.9230569933114
 20
331.6185697177574
 30
0.0
 10
-83.93251244758067
 20
331.6160643431946
 30
0.0
 11
-83.86118390096987
 21
331.96528602808
 31
0.0
 11
-83.71139383004106
 21
331.9296510674401
 31
0.0
 11
-83.68286232936606
 21
331.8655083706347
 31
0.0
 11
-83.69712787462692
 21
331.7871116895733
 31
0.0
 11
-83.71852639759476
 21
331.7372227446775
 31
0.0
 11
-83.77558939894482
 21
331.6730800478721
 31
0.0
 11
-83.81838644488068
 21
331.6445720793602
 31
0.0
 11
-83.90398094690567
 21
331.6231913353226
 31
0.0
 11
-83.93251244758067
 21
331.6160643431946
 31
0.0
  0
LINE
  5
F73
102
{ACAD_REACTORS
330
F79
102
}
330
18
100
AcDbEntity
  8
ROGO
 62
     4
100
AcDbLine
 10
-83.86118390096982
 20
331.96528602808
 30
0.0
 11
-84.2671709000673
 21
331.96528602808
 31
0.0
  0
LINE
  5
F74
102
{ACAD_REACTORS
330
F79
102
}
330
18
100
AcDbEntity
  8
ROGO
 62
     4
100
AcDbLine
 10
-83.93251244758062
 20
331.6160643431946
 30
0.0
 11
-84.42516869642469
 21
331.6160643431946
 31
0.0
  0
LINE
  5
F75
102
{ACAD_REACTORS
330
F64
330
F79
102
}
330
18
100
AcDbEntity
  8
ROGO
 62
     4
100
AcDbLine
 10
-84.63153318873485
 20
331.1599380087359
 30
0.0
 11
-84.96575733956332
 21
330.4212041543874
 31
0.0
  0
LINE
  5
F76
102
{ACAD_REACTORS
330
F6C
102
}
330
18
100
AcDbEntity
  8
ROGO
 62
     4
100
AcDbLine
 10
-82.33918544921641
 20
332.4730829392934
 30
0.0
 11
-82.98891734847648
 21
331.1599380087359
 31
0.0
  0
LINE
  5
F77
102
{ACAD_REACTORS
330
F6C
102
}
330
18
100
AcDbEntity
  8
ROGO
 62
     4
100
AcDbLine
 10
-81.64540091868502
 20
332.1722806086013
 30
0.0
 11
-81.76177076476148
 21
331.9370905654171
 31
0.0
  0
LINE
  5
F78
102
{ACAD_REACTORS
330
F6C
102
}
330
18
100
AcDbEntity
  8
ROGO
 62
     4
100
AcDbLine
 10
-81.88109714038535
 20
331.6959252087359
 30
0.0
 11
-81.99747191300174
 21
331.4607252087359
 31
0.0
  0
HATCH
  5
F79
330
18
100
AcDbEntity
  8
ROGO
 62
     4
100
AcDbHatch
 10
0.0
 20
0.0
 30
0.0
210
0.0
220
0.0
230
1.0
  2
SOLID
 70
     1
 71
     1
 91
        2
 92
        5
 93
        6
 72
     1
 10
-85.91955829549981
 20
330.4212041543873
 11
-84.96575733956339
 21
330.4212041543873
 72
     1
 10
-84.96575733956339
 20
330.4212041543873
 11
-84.6315331887348
 21
331.1599380087359
 72
     1
 10
-84.6315331887348
 20
331.1599380087359
 11
-83.73992492056224
 21
331.1599380087359
 72
     4
 94
        3
 73
     0
 74
     0
 95
       18
 96
       14
 40
0.108740278791501
 40
0.108740278791501
 40
0.108740278791501
 40
0.108740278791501
 40
0.6623149649549278
 40
1.384304701649787
 40
2.097394834876493
 40
2.774073369849618
 40
3.428974823686337
 40
4.005208313035923
 40
4.455173659284313
 40
4.720999734343524
 40
5.086034088486724
 40
5.569973738255373
 40
6.060470601257719
 40
6.060470601257719
 40
6.060470601257719
 40
6.060470601257719
 10
-83.73992492056272
 20
331.1599380087359
 10
-83.67717500366802
 20
331.160405288367
 10
-83.53258464661445
 20
331.1614820089756
 10
-83.33030386850721
 20
331.269544845471
 10
-83.13848389541419
 20
331.4072090258127
 10
-82.98398595633278
 20
331.5792060566146
 10
-82.88772908545666
 20
331.7758551941353
 10
-82.87281920040959
 20
331.964325329707
 10
-82.88192131892049
 20
332.1134028638634
 10
-82.94696052746354
 20
332.2173136061663
 10
-83.01457672138827
 20
332.3227723833391
 10
-83.13856195693546
 20
332.4141246931304
 10
-83.24014990478593
 20
332.4541505844457
 10
-83.291809442422
 20
332.4730829392934
 72
     1
 10
-83.29180944242189
 20
332.4730829392934
 11
-84.90430775540716
 21
332.4730829392934
 72
     1
 10
-84.90430775540716
 20
332.4730829392934
 11
-85.91955829549981
 21
330.4212041543873
 97
        6
330
F6F
330
F6D
330
F6E
330
F62
330
F75
330
F70
 92
       20
 93
        4
 72
     1
 10
-84.42516869642471
 20
331.6160643431946
 11
-84.2671709000673
 21
331.9652860280799
 72
     1
 10
-84.2671709000673
 20
331.9652860280799
 11
-83.8611839009706
 21
331.9652860280801
 72
     4
 94
        3
 73
     0
 74
     0
 95
       15
 96
       11
 40
0.0
 40
0.0
 40
0.0
 40
0.0
 40
0.1539705029175028
 40
0.2241725832587281
 40
0.3038566179396687
 40
0.3581410872474193
 40
0.443992538467216
 40
0.4954152125469665
 40
0.5836396705646186
 40
0.6130478420065743
 40
0.6130478420065743
 40
0.6130478420065743
 40
0.6130478420065743
 10
-83.86118390096987
 20
331.96528602808
 10
-83.80335556591068
 20
331.9655509127224
 10
-83.71916069085264
 20
331.9659365701921
 10
-83.67311993448788
 20
331.8617872662627
 10
-83.69375759672152
 20
331.7947313616253
 10
-83.71970082014549
 20
331.7258858473774
 10
-83.76554837168788
 20
331.6791042821081
 10
-83.82708250128311
 20
331.6340457484712
 10
-83.8852351943388
 20
331.6285912112117
 10
-83.9230569933114
 20
331.6185697177575
 10
-83.93251244758067
 20
331.6160643431946
 72
     1
 10
-83.93251244758042
 20
331.6160643431946
 11
-84.42516869642471
 21
331.6160643431946
 97
        4
330
F71
330
F73
330
F72
330
F74
 75
     0
 76
     1
 47
0.0514683685270805
 98
        2
 10
-84.89568920210023
 20
331.8348941824044
 10
-84.89568920210023
 20
331.8348941824044
450
        0
451
        0
460
0.0
461
0.0
452
        0
462
0.0
453
        0
470

  0
LINE
  5
F7A
102
{ACAD_REACTORS
330
F91
102
}
330
18
100
AcDbEntity
  8
ROGO
 62
     4
100
AcDbLine
 10
-76.2694286393604
 20
332.4730829392934
 30
0.0
 11
-76.51304793990101
 21
331.9845078870765
 31
0.0
  0
LINE
  5
F7B
102
{ACAD_REACTORS
330
F6C
102
}
330
18
100
AcDbEntity
  8
ROGO
 62
     4
100
AcDbLine
 10
-80.5631023007325
 20
332.4730829392934
 30
0.0
 11
-80.71193649646705
 21
332.1722806086013
 31
0.0
  0
LINE
  5
F7C
102
{ACAD_REACTORS
330
F6C
102
}
330
18
100
AcDbEntity
  8
ROGO
 62
     4
100
AcDbLine
 10
-80.82830634254355
 20
331.9370905654171
 30
0.0
 11
-80.94763271816743
 21
331.6959252087359
 31
0.0
  0
LINE
  5
F7D
102
{ACAD_REACTORS
330
F6C
102
}
330
18
100
AcDbEntity
  8
ROGO
 62
     4
100
AcDbLine
 10
-81.06400749078375
 20
331.4607252087359
 30
0.0
 11
-81.21283419999258
 21
331.1599380087359
 31
0.0
  0
LINE
  5
F7E
102
{ACAD_REACTORS
330
F8C
102
}
330
18
100
AcDbEntity
  8
ROGO
 62
     4
100
AcDbLine
 10
-80.04860803553482
 20
332.4730829392934
 30
0.0
 11
-80.99554236563392
 21
331.1599380087359
 31
0.0
  0
LINE
  5
F7F
102
{ACAD_REACTORS
330
F8C
102
}
330
18
100
AcDbEntity
  8
ROGO
 62
     4
100
AcDbLine
 10
-79.57448017890311
 20
332.1220739623417
 30
0.0
 11
-79.89784691521634
 21
331.6736506905227
 31
0.0
  0
LINE
  5
F80
102
{ACAD_REACTORS
330
F8C
102
}
330
18
100
AcDbEntity
  8
ROGO
 62
     4
100
AcDbLine
 10
-80.08800467636143
 20
331.4099526788267
 30
0.0
 11
-79.25812768757708
 21
331.4099526788267
 31
0.0
  0
LINE
  5
F81
102
{ACAD_REACTORS
330
F8C
102
}
330
18
100
AcDbEntity
  8
ROGO
 62
     4
100
AcDbLine
 10
-79.89784691521634
 20
331.6736506905228
 30
0.0
 11
-79.37527279317766
 21
331.6736506905228
 31
0.0
  0
LINE
  5
F82
102
{ACAD_REACTORS
330
F8C
102
}
330
18
100
AcDbEntity
  8
ROGO
 62
     4
100
AcDbLine
 10
-80.08800467636143
 20
331.4099526788267
 30
0.0
 11
-80.26829511394231
 21
331.1599380087359
 31
0.0
  0
LINE
  5
F83
102
{ACAD_REACTORS
330
F8C
102
}
330
18
100
AcDbEntity
  8
ROGO
 62
     4
100
AcDbLine
 10
-80.99554236563392
 20
331.1599380087359
 30
0.0
 11
-80.26829511394238
 21
331.1599380087359
 31
0.0
  0
LINE
  5
F84
102
{ACAD_REACTORS
330
F8C
102
}
330
18
100
AcDbEntity
  8
ROGO
 62
     4
100
AcDbLine
 10
-80.04860803553482
 20
332.4730829392934
 30
0.0
 11
-78.99820455276335
 21
332.4730829392934
 31
0.0
  0
LINE
  5
F85
102
{ACAD_REACTORS
330
F8C
102
}
330
18
100
AcDbEntity
  8
ROGO
 62
     4
100
AcDbLine
 10
-78.41485354238006
 20
331.1599380087359
 30
0.0
 11
-79.14706126450818
 21
331.1599380087359
 31
0.0
  0
LINE
  5
F86
102
{ACAD_REACTORS
330
F91
102
}
330
18
100
AcDbEntity
  8
ROGO
 62
     4
100
AcDbLine
 10
-78.05523412737426
 20
331.1599380087359
 30
0.0
 11
-76.92420511236964
 21
331.1599380087359
 31
0.0
  0
SPLINE
  5
F87
102
{ACAD_REACTORS
330
F91
102
}
330
18
100
AcDbEntity
  8
ROGO
 62
     4
100
AcDbSpline
210
0.0
220
0.0
230
1.0
 70
     8
 71
     3
 72
    26
 73
    22
 74
    20
 42
0.0000000001
 43
0.0000000001
 44
0.0000000001
 40
0.0
 40
0.0
 40
0.0
 40
0.0
 40
0.2382195346591896
 40
0.397689067266058
 40
0.5126795869787669
 40
0.5985392873135731
 40
0.7099038249249733
 40
0.7911890807494741
 40
0.9379713068543702
 40
1.057449928673087
 40
1.138714535893316
 40
1.218398644003506
 40
1.36093802187036
 40
1.461730374800257
 40
1.516014844108008
 40
1.593124329220501
 40
1.648806818593631
 40
1.729472362005518
 40
1.775122082164342
 40
1.874460993765092
 40
1.919820003751207
 40
1.919820003751207
 40
1.919820003751207
 40
1.919820003751207
 10
-77.58446498146668
 20
332.4730829392934
 30
0.0
 10
-77.66532037222532
 20
332.4682589680282
 30
0.0
 10
-77.80030218629125
 20
332.4602057215316
 30
0.0
 10
-77.94851139700305
 20
332.3701702176732
 30
0.0
 10
-78.05709814141325
 20
332.3178275323308
 30
0.0
 10
-78.13454207583749
 20
332.2466721109112
 30
0.0
 10
-78.19130879370502
 20
332.1731737583898
 30
0.0
 10
-78.26287389840253
 20
332.0856010102645
 30
0.0
 10
-78.32123319630845
 20
331.9836260887999
 30
0.0
 10
-78.35095203884161
 20
331.8712319477366
 30
0.0
 10
-78.37727670749531
 20
331.7816531651776
 30
0.0
 10
-78.39679952246834
 20
331.6818293022852
 30
0.0
 10
-78.3918323656554
 20
331.5739844141629
 30
0.0
 10
-78.38471916977086
 20
331.4738236031592
 30
0.0
 10
-78.3529604798469
 20
331.4023237802325
 30
0.0
 10
-78.3167929574569
 20
331.3514208333031
 30
0.0
 10
-78.27250632160195
 20
331.2953568806045
 30
0.0
 10
-78.22404705728456
 20
331.2582259062741
 30
0.0
 10
-78.18396729017384
 20
331.1909606511335
 30
0.0
 10
-78.11380900991148
 20
331.1823771194573
 30
0.0
 10
-78.06921361583565
 20
331.1652933295803
 30
0.0
 10
-78.05523412737421
 20
331.1599380087359
 30
0.0
 11
-77.58446498146668
 21
332.4730829392934
 31
0.0
 11
-77.8198495544205
 21
332.4364407571997
 31
0.0
 11
-77.9625070577955
 21
332.3651710682662
 31
0.0
 11
-78.06236710508136
 21
332.3081553635888
 31
0.0
 11
-78.12656267398512
 21
332.251139426565
 31
0.0
 11
-78.19789122059586
 21
332.1656157533756
 31
0.0
 11
-78.24782124423882
 21
332.1014730565702
 31
0.0
 11
-78.31915020100303
 21
331.973187430613
 31
0.0
 11
-78.35481426923178
 21
331.8591557889118
 31
0.0
 11
-78.37621279219963
 21
331.7807591078503
 31
0.0
 11
-78.39047874761388
 21
331.702362426789
 31
0.0
 11
-78.39047874761388
 21
331.5598230489221
 31
0.0
 11
-78.37621279219963
 21
331.4600453914768
 31
0.0
 11
-78.35481426923178
 21
331.410156446581
 31
0.0
 11
-78.31201722329598
 21
331.3460137497755
 31
0.0
 11
-78.27635274491382
 21
331.3032517970077
 31
0.0
 11
-78.21929015371728
 21
331.2462360923302
 31
0.0
 11
-78.19075865304217
 21
331.2106011316903
 31
0.0
 11
-78.09803117331006
 21
331.1749664033968
 31
0.0
 11
-78.05523412737421
 21
331.1599380087359
 31
0.0
  0
SPLINE
  5
F88
102
{ACAD_REACTORS
330
F91
102
}
330
18
100
AcDbEntity
  8
ROGO
 62
     4
100
AcDbSpline
210
0.0
220
0.0
230
1.0
 70
     8
 71
     3
 72
    16
 73
    12
 74
    10
 42
0.0000000001
 43
0.0000000001
 44
0.0000000001
 40
0.0
 40
0.0
 40
0.0
 40
0.0
 40
0.1255907025629711
 40
0.1869327038470372
 40
0.2171823804790188
 40
0.2490606136884497
 40
0.2947101524738226
 40
0.3362763310931653
 40
0.3796288870083566
 40
0.452312579561098
 40
0.5242542460842631
 40
0.5242542460842631
 40
0.5242542460842631
 40
0.5242542460842631
 10
-77.33481486325212
 20
331.9845078870765
 30
0.0
 10
-77.37734557087359
 20
331.9780237937725
 30
0.0
 10
-77.44064946208493
 20
331.9683726884871
 30
0.0
 10
-77.497895213476
 20
331.9230575815112
 30
0.0
 10
-77.53017784260013
 20
331.8960981091948
 30
0.0
 10
-77.54116053685168
 20
331.8603961150126
 30
0.0
 10
-77.57065660471234
 20
331.832982463977
 30
0.0
 10
-77.59496975458955
 20
331.7953072832608
 30
0.0
 10
-77.60077518365138
 20
331.7435598123017
 30
0.0
 10
-77.59651386580365
 20
331.6709401231644
 30
0.0
 10
-77.54559715123466
 20
331.6559596791651
 30
0.0
 10
-77.52026941256293
 20
331.6485078870765
 30
0.0
 11
-77.33481486325212
 21
331.9845078870765
 31
0.0
 11
-77.45607343350588
 21
331.9518064542291
 31
0.0
 11
-77.50600345714878
 21
331.9161717259356
 31
0.0
 11
-77.52740198011662
 21
331.8947907495515
 31
0.0
 11
-77.54166793553088
 21
331.8662827810397
 31
0.0
 11
-77.57019943620588
 21
331.8306480527462
 31
0.0
 11
-77.59159795917383
 21
331.7950130921063
 31
0.0
 11
-77.59873093688094
 21
331.7522513716848
 31
0.0
 11
-77.58446498146668
 21
331.680981450405
 31
0.0
 11
-77.52026941256293
 21
331.6485078870765
 31
0.0
  0
LINE
  5
F89
102
{ACAD_REACTORS
330
F8C
102
}
330
18
100
AcDbEntity
  8
ROGO
 62
     4
100
AcDbLine
 10
-78.99820455276335
 20
332.4730829392934
 30
0.0
 11
-78.41485354238006
 21
331.1599380087359
 31
0.0
  0
LINE
  5
F8A
102
{ACAD_REACTORS
330
F8C
102
}
330
18
100
AcDbEntity
  8
ROGO
 62
     4
100
AcDbLine
 10
-79.57448017890306
 20
332.1220739623417
 30
0.0
 11
-79.37527279317766
 21
331.6736506905227
 31
0.0
  0
LINE
  5
F8B
102
{ACAD_REACTORS
330
F8C
102
}
330
18
100
AcDbEntity
  8
ROGO
 62
     4
100
AcDbLine
 10
-79.25812768757708
 20
331.4099526788267
 30
0.0
 11
-79.14706126450818
 21
331.1599380087359
 31
0.0
  0
HATCH
  5
F8C
330
18
100
AcDbEntity
  8
ROGO
 62
     4
100
AcDbHatch
 10
0.0
 20
0.0
 30
0.0
210
0.0
220
0.0
230
1.0
  2
SOLID
 70
     1
 71
     1
 91
        2
 92
        7
 72
     0
 73
     1
 93
        8
 10
-78.99820455276338
 20
332.4730829392935
 10
-80.04860803553485
 20
332.4730829392933
 10
-80.9955423656339
 20
331.1599380087359
 10
-80.26829511394238
 20
331.1599380087359
 10
-80.08800467636142
 20
331.4099526788267
 10
-79.2581276875771
 20
331.4099526788267
 10
-79.1470612645082
 20
331.1599380087359
 10
-78.41485354238007
 20
331.1599380087359
 97
        8
330
F84
330
F7E
330
F83
330
F82
330
F80
330
F8B
330
F85
330
F89
 92
       22
 72
     0
 73
     1
 93
        3
 10
-79.37527279317767
 20
331.6736506905228
 10
-79.89784691521629
 20
331.6736506905228
 10
-79.5744801789031
 20
332.1220739623417
 97
        3
330
F81
330
F7F
330
F8A
 75
     0
 76
     1
 47
0.0128389261915577
 98
        2
 10
-79.08045944525913
 20
332.1580410224843
 10
-79.08045944525913
 20
332.1580410224843
450
        0
451
        0
460
0.0
461
0.0
452
        0
462
0.0
453
        0
470

  0
LINE
  5
F8D
102
{ACAD_REACTORS
330
F91
102
}
330
18
100
AcDbEntity
  8
ROGO
 62
     4
100
AcDbLine
 10
-77.33481486325217
 20
331.9845078870765
 30
0.0
 11
-76.51304793990101
 21
331.9845078870765
 31
0.0
  0
LINE
  5
F8E
102
{ACAD_REACTORS
330
F91
102
}
330
18
100
AcDbEntity
  8
ROGO
 62
     4
100
AcDbLine
 10
-77.52026941256298
 20
331.6485078870765
 30
0.0
 11
-76.68058839169083
 21
331.6485078870765
 31
0.0
  0
LINE
  5
F8F
102
{ACAD_REACTORS
330
F91
102
}
330
18
100
AcDbEntity
  8
ROGO
 62
     4
100
AcDbLine
 10
-76.68058839169083
 20
331.6485078870765
 30
0.0
 11
-76.92420511236964
 21
331.1599380087359
 31
0.0
  0
LINE
  5
F90
102
{ACAD_REACTORS
330
F91
102
}
330
18
100
AcDbEntity
  8
ROGO
 62
     4
100
AcDbLine
 10
-77.58446498146629
 20
332.4730829392934
 30
0.0
 11
-76.2694286393604
 21
332.4730829392934
 31
0.0
  0
HATCH
  5
F91
330
18
100
AcDbEntity
  8
ROGO
 62
     4
100
AcDbHatch
 10
0.0
 20
0.0
 30
0.0
210
0.0
220
0.0
230
1.0
  2
SOLID
 70
     1
 71
     1
 91
        1
 92
        5
 93
        8
 72
     1
 10
-76.51304793990096
 20
331.9845078870765
 11
-76.26942863936038
 21
332.4730829392935
 72
     1
 10
-76.26942863936038
 20
332.4730829392935
 11
-77.58446498146657
 21
332.4730829392934
 72
     4
 94
        3
 73
     0
 74
     0
 95
       26
 96
       22
 40
0.0
 40
0.0
 40
0.0
 40
0.0
 40
0.2382195346591896
 40
0.397689067266058
 40
0.5126795869787669
 40
0.5985392873135731
 40
0.7099038249249733
 40
0.7911890807494741
 40
0.9379713068543702
 40
1.057449928673087
 40
1.138714535893316
 40
1.218398644003506
 40
1.36093802187036
 40
1.461730374800257
 40
1.516014844108008
 40
1.593124329220501
 40
1.648806818593631
 40
1.729472362005518
 40
1.775122082164342
 40
1.874460993765092
 40
1.919820003751207
 40
1.919820003751207
 40
1.919820003751207
 40
1.919820003751207
 10
-77.58446498146668
 20
332.4730829392934
 10
-77.66532037222532
 20
332.4682589680282
 10
-77.80030218629126
 20
332.4602057215316
 10
-77.94851139700305
 20
332.3701702176732
 10
-78.05709814141325
 20
332.3178275323308
 10
-78.13454207583749
 20
332.2466721109112
 10
-78.19130879370502
 20
332.1731737583898
 10
-78.26287389840252
 20
332.0856010102644
 10
-78.32123319630847
 20
331.9836260887998
 10
-78.3509520388416
 20
331.8712319477366
 10
-78.37727670749533
 20
331.7816531651776
 10
-78.39679952246832
 20
331.6818293022852
 10
-78.39183236565543
 20
331.5739844141629
 10
-78.38471916977084
 20
331.4738236031592
 10
-78.35296047984693
 20
331.4023237802325
 10
-78.31679295745688
 20
331.3514208333031
 10
-78.27250632160195
 20
331.2953568806045
 10
-78.22404705728456
 20
331.2582259062741
 10
-78.18396729017384
 20
331.1909606511335
 10
-78.11380900991148
 20
331.1823771194574
 10
-78.06921361583565
 20
331.1652933295804
 10
-78.05523412737421
 20
331.1599380087359
 72
     1
 10
-78.0552341273743
 20
331.1599380087359
 11
-76.92420511236966
 21
331.1599380087359
 72
     1
 10
-76.92420511236966
 20
331.1599380087359
 11
-76.68058839169084
 21
331.6485078870765
 72
     1
 10
-76.68058839169084
 20
331.6485078870765
 11
-77.52026941256295
 21
331.6485078870765
 72
     4
 94
        3
 73
     0
 74
     0
 95
       16
 96
       12
 40
0.0
 40
0.0
 40
0.0
 40
0.0
 40
0.0719416665231651
 40
0.1446253590759065
 40
0.1879779149910977
 40
0.2295440936104405
 40
0.2751936323958134
 40
0.3070718656052443
 40
0.3373215422372259
 40
0.3986635435212919
 40
0.5242542460842631
 40
0.5242542460842631
 40
0.5242542460842631
 40
0.5242542460842631
 10
-77.52026941256293
 20
331.6485078870765
 10
-77.54559715123466
 20
331.6559596791651
 10
-77.59651386580365
 20
331.6709401231644
 10
-77.60077518365138
 20
331.7435598123017
 10
-77.59496975458955
 20
331.7953072832608
 10
-77.57065660471235
 20
331.8329824639771
 10
-77.54116053685168
 20
331.8603961150126
 10
-77.53017784260013
 20
331.8960981091948
 10
-77.497895213476
 20
331.9230575815112
 10
-77.44064946208493
 20
331.9683726884871
 10
-77.37734557087359
 20
331.9780237937725
 10
-77.33481486325212
 20
331.9845078870765
 72
     1
 10
-77.33481486325224
 20
331.9845078870765
 11
-76.51304793990096
 21
331.9845078870765
 97
        8
330
F90
330
F87
330
F86
330
F8F
330
F8E
330
F88
330
F8D
330
F7A
 75
     0
 76
     1
 47
0.0514683685270805
 98
        1
 10
-77.12454808425974
 20
332.1807614829464
450
        0
451
        0
460
0.0
461
0.0
452
        0
462
0.0
453
        0
470

  0
LINE
  5
F92
102
{ACAD_REACTORS
330
F94
102
}
330
18
100
AcDbEntity
  8
ROGO
 62
     4
100
AcDbLine
 10
-71.25178176597962
 20
331.4471435468404
 30
0.0
 11
-70.00887302064836
 21
332.4730829392934
 31
0.0
  0
LINE
  5
F93
102
{ACAD_REACTORS
330
F94
102
}
330
18
100
AcDbEntity
  8
ROGO
 62
     4
100
AcDbLine
 10
-70.76494022064839
 20
332.4730829392934
 30
0.0
 11
-70.00887302064836
 21
332.4730829392934
 31
0.0
  0
HATCH
  5
F94
330
18
100
AcDbEntity
  8
ROGO
 62
     4
100
AcDbHatch
 10
0.0
 20
0.0
 30
0.0
210
0.0
220
0.0
230
1.0
  2
SOLID
 70
     1
 71
     1
 91
        1
 92
        7
 72
     0
 73
     1
 93
       11
 10
-72.78646477098027
 20
330.4212041543874
 10
-72.03038102847603
 20
330.4212041543874
 10
-71.76333173931038
 20
330.9567677165069
 10
-71.49628245014468
 20
330.4212041543874
 10
-70.74021525014472
 20
330.4212041543874
 10
-71.25178176597962
 20
331.4471435468403
 10
-70.00887302064838
 20
332.4730829392934
 10
-70.7649402206483
 20
332.4730829392933
 10
-71.11895330372718
 20
332.2490595304718
 10
-71.00724799680619
 20
332.4730829392933
 10
-71.76333173931034
 20
332.4730829392934
 97
       11
330
F93
330
F97
330
F96
330
F95
330
FA9
330
F62
330
FAA
330
F98
330
F9A
330
F99
330
F92
 75
     0
 76
     1
 47
0.0514683685270805
 98
        1
 10
-71.82840298571426
 20
331.5927869558519
450
        0
451
        0
460
0.0
461
0.0
452
        0
462
0.0
453
        0
470

  0
LINE
  5
F95
102
{ACAD_REACTORS
330
F94
102
}
330
18
100
AcDbEntity
  8
ROGO
 62
     4
100
AcDbLine
 10
-71.76333173931038
 20
332.4730829392934
 30
0.0
 11
-71.00724799680619
 21
332.4730829392934
 31
0.0
  0
LINE
  5
F96
102
{ACAD_REACTORS
330
F94
102
}
330
18
100
AcDbEntity
  8
ROGO
 62
     4
100
AcDbLine
 10
-71.00724799680619
 20
332.4730829392934
 30
0.0
 11
-71.11895330372721
 21
332.2490595304718
 31
0.0
  0
LINE
  5
F97
102
{ACAD_REACTORS
330
F94
102
}
330
18
100
AcDbEntity
  8
ROGO
 62
     4
100
AcDbLine
 10
-71.11895330372721
 20
332.2490595304718
 30
0.0
 11
-70.76494022064839
 21
332.4730829392934
 31
0.0
  0
LINE
  5
F98
102
{ACAD_REACTORS
330
F94
102
}
330
18
100
AcDbEntity
  8
ROGO
 62
     4
100
AcDbLine
 10
-71.76333173931038
 20
330.9567677165069
 30
0.0
 11
-71.49628245014469
 21
330.4212041543874
 31
0.0
  0
LINE
  5
F99
102
{ACAD_REACTORS
330
F94
102
}
330
18
100
AcDbEntity
  8
ROGO
 62
     4
100
AcDbLine
 10
-71.25178176597962
 20
331.4471435468404
 30
0.0
 11
-70.74021525014472
 21
330.4212041543874
 31
0.0
  0
LINE
  5
F9A
102
{ACAD_REACTORS
330
F94
102
}
330
18
100
AcDbEntity
  8
ROGO
 62
     4
100
AcDbLine
 10
-71.49628245014469
 20
330.4212041543874
 30
0.0
 11
-70.74021525014472
 21
330.4212041543874
 31
0.0
  0
LINE
  5
F9B
102
{ACAD_REACTORS
330
FA3
102
}
330
18
100
AcDbEntity
  8
ROGO
 62
     4
100
AcDbLine
 10
-73.82416435644643
 20
331.1599380087359
 30
0.0
 11
-72.69313534144174
 21
331.1599380087359
 31
0.0
  0
LINE
  5
F9C
102
{ACAD_REACTORS
330
FA3
102
}
330
18
100
AcDbEntity
  8
ROGO
 62
     4
100
AcDbLine
 10
-73.35339521053851
 20
332.4730829392934
 30
0.0
 11
-72.03835886843257
 21
332.4730829392934
 31
0.0
  0
SPLINE
  5
F9D
102
{ACAD_REACTORS
330
FA3
102
}
330
18
100
AcDbEntity
  8
ROGO
 62
     4
100
AcDbSpline
210
0.0
220
0.0
230
1.0
 70
     8
 71
     3
 72
    16
 73
    12
 74
    10
 42
0.0000000001
 43
0.0000000001
 44
0.0000000001
 40
0.0
 40
0.0
 40
0.0
 40
0.0
 40
0.1255907025629163
 40
0.1869327038470616
 40
0.217182380479003
 40
0.2490606136884339
 40
0.2947101524738157
 40
0.3362763310931585
 40
0.3796288870082937
 40
0.4523125795610796
 40
0.5242542460842448
 40
0.5242542460842448
 40
0.5242542460842448
 40
0.5242542460842448
 10
-73.10374509232429
 20
331.9845078870765
 30
0.0
 10
-73.14627579994571
 20
331.9780237937725
 30
0.0
 10
-73.20957969115707
 20
331.968372688487
 30
0.0
 10
-73.26682544254815
 20
331.9230575815113
 30
0.0
 10
-73.29910807167228
 20
331.8960981091948
 30
0.0
 10
-73.31009076592389
 20
331.8603961150127
 30
0.0
 10
-73.33958683378442
 20
331.8329824639769
 30
0.0
 10
-73.36389998366165
 20
331.7953072832608
 30
0.0
 10
-73.36970541272347
 20
331.7435598123017
 30
0.0
 10
-73.36544409487586
 20
331.6709401231643
 30
0.0
 10
-73.31452738030683
 20
331.655959679165
 30
0.0
 10
-73.28919964163509
 20
331.6485078870765
 30
0.0
 11
-73.10374509232429
 21
331.9845078870765
 31
0.0
 11
-73.22500366257798
 21
331.9518064542291
 31
0.0
 11
-73.27493368622095
 21
331.9161717259355
 31
0.0
 11
-73.29633220918879
 21
331.8947907495515
 31
0.0
 11
-73.31059816460305
 21
331.8662827810397
 31
0.0
 11
-73.33912966527799
 21
331.8306480527462
 31
0.0
 11
-73.36052818824595
 21
331.7950130921063
 31
0.0
 11
-73.36766116595305
 21
331.7522513716848
 31
0.0
 11
-73.35339521053885
 21
331.680981450405
 31
0.0
 11
-73.28919964163509
 21
331.6485078870765
 31
0.0
  0
SPLINE
  5
F9E
102
{ACAD_REACTORS
330
FA3
102
}
330
18
100
AcDbEntity
  8
ROGO
 62
     4
100
AcDbSpline
210
0.0
220
0.0
230
1.0
 70
     8
 71
     3
 72
    26
 73
    22
 74
    20
 42
0.0000000001
 43
0.0000000001
 44
0.0000000001
 40
0.0
 40
0.0
 40
0.0
 40
0.0
 40
0.2382195346591896
 40
0.397689067266058
 40
0.5126795869787176
 40
0.5985392873135238
 40
0.7099038249250041
 40
0.7911890807494602
 40
0.9379713068544059
 40
1.057449928673177
 40
1.138714535893296
 40
1.218398644003487
 40
1.36093802187034
 40
1.461730374800238
 40
1.51601484410804
 40
1.593124329220486
 40
1.648806818593696
 40
1.729472362005543
 40
1.775122082164332
 40
1.874460993765135
 40
1.919820003751196
 40
1.919820003751196
 40
1.919820003751196
 40
1.919820003751196
 10
-73.35339521053885
 20
332.4730829392934
 30
0.0
 10
-73.43425060129749
 20
332.4682589680282
 30
0.0
 10
-73.56923241536342
 20
332.4602057215316
 30
0.0
 10
-73.71744162607521
 20
332.3701702176733
 30
0.0
 10
-73.82602837048537
 20
332.3178275323307
 30
0.0
 10
-73.90347230490963
 20
332.2466721109112
 30
0.0
 10
-73.96023902277715
 20
332.1731737583898
 30
0.0
 10
-74.03180412747471
 20
332.0856010102644
 30
0.0
 10
-74.09016342538063
 20
331.9836260887998
 30
0.0
 10
-74.11988226791372
 20
331.8712319477366
 30
0.0
 10
-74.14620693656754
 20
331.7816531651776
 30
0.0
 10
-74.16572975154045
 20
331.6818293022851
 30
0.0
 10
-74.1607625947276
 20
331.573984414163
 30
0.0
 10
-74.15364939884302
 20
331.4738236031591
 30
0.0
 10
-74.12189070891911
 20
331.4023237802325
 30
0.0
 10
-74.08572318652904
 20
331.3514208333031
 30
0.0
 10
-74.04143655067409
 20
331.2953568806043
 30
0.0
 10
-73.99297728635666
 20
331.2582259062742
 30
0.0
 10
-73.95289751924604
 20
331.1909606511334
 30
0.0
 10
-73.88273923898363
 20
331.1823771194574
 30
0.0
 10
-73.83814384490779
 20
331.1652933295803
 30
0.0
 10
-73.82416435644637
 20
331.1599380087359
 30
0.0
 11
-73.35339521053885
 21
332.4730829392934
 31
0.0
 11
-73.58877978349267
 21
332.4364407571997
 31
0.0
 11
-73.73143728686767
 21
332.3651710682662
 31
0.0
 11
-73.83129733415348
 21
332.3081553635888
 31
0.0
 11
-73.89549290305723
 21
332.251139426565
 31
0.0
 11
-73.96682144966803
 21
332.1656157533756
 31
0.0
 11
-74.01675147331099
 21
332.1014730565702
 31
0.0
 11
-74.08808043007519
 21
331.9731874306129
 31
0.0
 11
-74.12374449830394
 21
331.8591557889117
 31
0.0
 11
-74.14514302127179
 21
331.7807591078503
 31
0.0
 11
-74.15940897668605
 21
331.702362426789
 31
0.0
 11
-74.15940897668605
 21
331.5598230489221
 31
0.0
 11
-74.14514302127179
 21
331.4600453914768
 31
0.0
 11
-74.12374449830394
 21
331.410156446581
 31
0.0
 11
-74.08094745236815
 21
331.3460137497755
 31
0.0
 11
-74.04528297398593
 21
331.3032517970076
 31
0.0
 11
-73.9882203827894
 21
331.2462360923302
 31
0.0
 11
-73.95968888211434
 21
331.2106011316903
 31
0.0
 11
-73.86696140238218
 21
331.1749664033968
 31
0.0
 11
-73.82416435644637
 21
331.1599380087359
 31
0.0
  0
LINE
  5
F9F
102
{ACAD_REACTORS
330
FA3
102
}
330
18
100
AcDbEntity
  8
ROGO
 62
     4
100
AcDbLine
 10
-72.44951862076295
 20
331.6485078870765
 30
0.0
 11
-72.6931353414418
 21
331.1599380087359
 31
0.0
  0
LINE
  5
FA0
102
{ACAD_REACTORS
330
FA3
102
}
330
18
100
AcDbEntity
  8
ROGO
 62
     4
100
AcDbLine
 10
-73.28919964163509
 20
331.6485078870765
 30
0.0
 11
-72.44951862076295
 21
331.6485078870765
 31
0.0
  0
LINE
  5
FA1
102
{ACAD_REACTORS
330
FA3
102
}
330
18
100
AcDbEntity
  8
ROGO
 62
     4
100
AcDbLine
 10
-73.10374509232435
 20
331.9845078870765
 30
0.0
 11
-72.28197816897313
 21
331.9845078870765
 31
0.0
  0
LINE
  5
FA2
102
{ACAD_REACTORS
330
FA3
102
}
330
18
100
AcDbEntity
  8
ROGO
 62
     4
100
AcDbLine
 10
-72.03835886843257
 20
332.4730829392934
 30
0.0
 11
-72.28197816897313
 21
331.9845078870765
 31
0.0
  0
HATCH
  5
FA3
330
18
100
AcDbEntity
  8
ROGO
 62
     4
100
AcDbHatch
 10
0.0
 20
0.0
 30
0.0
210
0.0
220
0.0
230
1.0
  2
SOLID
 70
     1
 71
     1
 91
        1
 92
        5
 93
        8
 72
     4
 94
        3
 73
     0
 74
     0
 95
       26
 96
       22
 40
0.0
 40
0.0
 40
0.0
 40
0.0
 40
0.2382195346591896
 40
0.397689067266058
 40
0.5126795869787176
 40
0.5985392873135238
 40
0.7099038249250041
 40
0.7911890807494602
 40
0.9379713068544059
 40
1.057449928673177
 40
1.138714535893296
 40
1.218398644003487
 40
1.36093802187034
 40
1.461730374800238
 40
1.51601484410804
 40
1.593124329220486
 40
1.648806818593696
 40
1.729472362005543
 40
1.775122082164332
 40
1.874460993765135
 40
1.919820003751196
 40
1.919820003751196
 40
1.919820003751196
 40
1.919820003751196
 10
-73.35339521053885
 20
332.4730829392934
 10
-73.43425060129749
 20
332.4682589680282
 10
-73.56923241536343
 20
332.4602057215316
 10
-73.71744162607521
 20
332.3701702176732
 10
-73.82602837048536
 20
332.3178275323308
 10
-73.90347230490963
 20
332.2466721109112
 10
-73.96023902277715
 20
332.1731737583898
 10
-74.03180412747471
 20
332.0856010102644
 10
-74.09016342538063
 20
331.9836260887998
 10
-74.11988226791374
 20
331.8712319477366
 10
-74.14620693656752
 20
331.7816531651776
 10
-74.16572975154048
 20
331.6818293022851
 10
-74.1607625947276
 20
331.5739844141631
 10
-74.15364939884302
 20
331.4738236031591
 10
-74.12189070891911
 20
331.4023237802325
 10
-74.08572318652904
 20
331.3514208333031
 10
-74.04143655067409
 20
331.2953568806043
 10
-73.99297728635666
 20
331.2582259062742
 10
-73.95289751924604
 20
331.1909606511334
 10
-73.8827392389836
 20
331.1823771194574
 10
-73.83814384490782
 20
331.1652933295804
 10
-73.82416435644637
 20
331.1599380087359
 72
     1
 10
-73.82416435644646
 20
331.1599380087358
 11
-72.69313534144183
 21
331.1599380087359
 72
     1
 10
-72.69313534144183
 20
331.1599380087359
 11
-72.44951862076297
 21
331.6485078870765
 72
     1
 10
-72.44951862076297
 20
331.6485078870765
 11
-73.28919964163515
 21
331.6485078870765
 72
     4
 94
        3
 73
     0
 74
     0
 95
       16
 96
       12
 40
0.0
 40
0.0
 40
0.0
 40
0.0
 40
0.0719416665231652
 40
0.1446253590759511
 40
0.1879779149910863
 40
0.229544093610429
 40
0.2751936323958108
 40
0.3070718656052417
 40
0.3373215422371831
 40
0.3986635435213285
 40
0.5242542460842448
 40
0.5242542460842448
 40
0.5242542460842448
 40
0.5242542460842448
 10
-73.28919964163509
 20
331.6485078870765
 10
-73.31452738030683
 20
331.655959679165
 10
-73.36544409487586
 20
331.6709401231643
 10
-73.36970541272347
 20
331.7435598123017
 10
-73.36389998366167
 20
331.7953072832608
 10
-73.33958683378442
 20
331.8329824639769
 10
-73.31009076592389
 20
331.8603961150127
 10
-73.29910807167228
 20
331.8960981091948
 10
-73.26682544254815
 20
331.9230575815113
 10
-73.20957969115707
 20
331.968372688487
 10
-73.14627579994571
 20
331.9780237937724
 10
-73.10374509232429
 20
331.9845078870765
 72
     1
 10
-73.10374509232426
 20
331.9845078870765
 11
-72.28197816897315
 21
331.9845078870765
 72
     1
 10
-72.28197816897315
 20
331.9845078870765
 11
-72.03835886843258
 21
332.4730829392934
 72
     1
 10
-72.03835886843258
 20
332.4730829392934
 11
-73.35339521053879
 21
332.4730829392934
 97
        8
330
F9C
330
F9E
330
F9B
330
F9F
330
FA0
330
F9D
330
FA1
330
FA2
 75
     0
 76
     1
 47
0.0514683685270805
 98
        1
 10
-73.12647778085398
 20
332.2326416361143
450
        0
451
        0
460
0.0
461
0.0
452
        0
462
0.0
453
        0
470

  0
SPLINE
  5
FA4
102
{ACAD_REACTORS
330
F61
102
}
330
18
100
AcDbEntity
  8
ROGO
 62
     4
100
AcDbSpline
210
0.0
220
0.0
230
1.0
 70
     8
 71
     3
 72
    25
 73
    21
 74
     0
 42
0.0000000001
 43
0.0000000001
 40
0.0
 40
0.0
 40
0.0
 40
0.0
 40
0.4087168505087288
 40
0.6887487002771746
 40
0.9415836120477687
 40
1.17452070575514
 40
1.41154617586699
 40
1.599156012919487
 40
1.80099909059943
 40
2.178735911501585
 40
2.521686161369157
 40
2.762704659361267
 40
3.06256558063785
 40
3.222432137207705
 40
3.399493810628493
 40
3.567459719866414
 40
3.743172740007509
 40
3.995988754699505
 40
4.17170091132118
 40
4.337226830236035
 40
4.337226830236035
 40
4.337226830236035
 40
4.337226830236035
 10
-74.78974949613228
 20
332.4785601584657
 30
0.0
 10
-74.74052944570672
 20
332.4769787690096
 30
0.0
 10
-74.65758633798822
 20
332.4743138925036
 30
0.0
 10
-74.56853667936707
 20
332.404711203128
 30
0.0
 10
-74.50039845860771
 20
332.3470052408131
 30
0.0
 10
-74.45203310374711
 20
332.2772414344789
 30
0.0
 10
-74.40963951510468
 20
332.2130973308018
 30
0.0
 10
-74.38170535433551
 20
332.1453759161357
 30
0.0
 10
-74.34370937666074
 20
332.0641164205988
 30
0.0
 10
-74.3279809190135
 20
331.9554032881677
 30
0.0
 10
-74.33860736235016
 20
331.8430382351222
 30
0.0
 10
-74.36633741784766
 20
331.7434369514188
 30
0.0
 10
-74.39542401654768
 20
331.6670251862746
 30
0.0
 10
-74.42970603546502
 20
331.600504004284
 30
0.0
 10
-74.47057458276913
 20
331.5574315337849
 30
0.0
 10
-74.49892753830813
 20
331.5026653074375
 30
0.0
 10
-74.55338993902535
 20
331.457869474564
 30
0.0
 10
-74.59754009883198
 20
331.40259770411
 30
0.0
 10
-74.64764133547169
 20
331.3551573557714
 30
0.0
 10
-74.67588863477562
 20
331.3258872325497
 30
0.0
 10
-74.69078129216933
 20
331.313580488604
 30
0.0
  0
LINE
  5
FA5
102
{ACAD_REACTORS
330
F61
102
}
330
18
100
AcDbEntity
  8
ROGO
 62
     4
100
AcDbLine
 10
-75.54020331931764
 20
332.4785601584657
 30
0.0
 11
-74.78974949613228
 21
332.4785601584657
 31
0.0
  0
SPLINE
  5
FA6
102
{ACAD_REACTORS
330
F61
102
}
330
18
100
AcDbEntity
  8
ROGO
 62
     4
100
AcDbSpline
210
0.0
220
0.0
230
1.0
 70
     8
 71
     3
 72
    11
 73
     7
 74
     0
 42
0.0000000001
 43
0.0000000001
 40
0.1647869275458134
 40
0.1647869275458134
 40
0.1647869275458134
 40
0.1647869275458134
 40
0.2895635144633836
 40
0.5387013147903714
 40
0.7953622617455423
 40
0.8850764140209602
 40
0.8850764140209602
 40
0.8850764140209602
 40
0.8850764140209602
 10
-74.92401599905742
 20
331.1892144556445
 30
0.0
 10
-74.93799454185825
 20
331.185323522928
 30
0.0
 10
-74.98133555329246
 20
331.1783959331441
 30
0.0
 10
-75.05403432043056
 20
331.1688835387707
 30
0.0
 10
-75.12313086252692
 20
331.1589570081861
 30
0.0
 10
-75.16356155735548
 20
331.1597361930929
 30
0.0
 10
-75.17403345767542
 20
331.1599380087359
 30
0.0
  0
SPLINE
  5
FA7
102
{ACAD_REACTORS
330
F61
102
}
330
18
100
AcDbEntity
  8
ROGO
 62
     4
100
AcDbSpline
210
0.0
220
0.0
230
1.0
 70
     8
 71
     3
 72
     9
 73
     5
 74
     3
 42
0.0000000001
 43
0.0000000001
 44
0.0000000001
 40
0.0
 40
0.0
 40
0.0
 40
0.0
 40
0.1135793343552172
 40
0.2662938392177403
 40
0.2662938392177403
 40
0.2662938392177403
 40
0.2662938392177403
 10
-74.92401599905742
 20
331.1892144556445
 30
0.0
 10
-74.88753103073944
 20
331.2003767953678
 30
0.0
 10
-74.80198974506196
 20
331.2265475976217
 30
0.0
 10
-74.73131304782519
 20
331.2818599153961
 30
0.0
 10
-74.69078129216933
 20
331.313580488604
 30
0.0
 11
-74.92401599905742
 21
331.1892144556445
 31
0.0
 11
-74.81726523483274
 21
331.2280028499142
 31
0.0
 11
-74.69078129216933
 21
331.313580488604
 31
0.0
  0
ELLIPSE
  5
FA8
102
{ACAD_REACTORS
330
F61
102
}
330
18
100
AcDbEntity
  8
ROGO
 62
     4
100
AcDbEllipse
 10
-75.36774492468691
 20
331.8008641662467
 30
0.0
 11
0.1782847090673272
 21
0.1567790921840611
 31
0.0
210
0.0
220
0.0
230
0.9999999999999998
 40
0.6788083417438792
 41
0.0
 42
6.283185307179586
  0
LINE
  5
FA9
102
{ACAD_REACTORS
330
F64
330
F94
102
}
330
18
100
AcDbEntity
  8
ROGO
 62
     4
100
AcDbLine
 10
-71.76333173931038
 20
332.4730829392934
 30
0.0
 11
-72.78646477098027
 21
330.4212041543874
 31
0.0
  0
LINE
  5
FAA
102
{ACAD_REACTORS
330
F94
102
}
330
18
100
AcDbEntity
  8
ROGO
 62
     4
100
AcDbLine
 10
-71.76333173931038
 20
330.9567677165069
 30
0.0
 11
-72.03038102847603
 21
330.4212041543874
 31
0.0
  0
TEXT
  5
FAB
330
18
100
AcDbEntity
  8
文字
100
AcDbText
 10
-68.33878045089699
 20
335.7594227656667
 30
0.0
 40
1.5
  1
90
  7
STYLE3
100
AcDbText
  0
LINE
  5
FAC
330
18
100
AcDbEntity
  8
目盛
100
AcDbLine
 10
-78.23693164056533
 20
352.1081162981869
 30
0.0
 11
-78.23693164056533
 21
347.3581162981869
 31
0.0
  0
TEXT
  5
FAD
330
18
100
AcDbEntity
  8
文字
100
AcDbText
 10
-79.73628888425498
 20
343.3715010392029
 30
0.0
 40
3.0
  1
0
  7
STYLE3
100
AcDbText
  0
LINE
  5
FAE
330
18
100
AcDbEntity
  8
目盛
100
AcDbLine
 10
-81.87159541393009
 20
351.8794426363067
 30
0.0
 11
-81.52692902162829
 21
349.1511272076918
 31
0.0
  0
LINE
  5
FAF
330
18
100
AcDbEntity
  8
目盛
100
AcDbLine
 10
-83.67098976355128
 20
351.5944465693189
 30
0.0
 11
-83.15569114844056
 21
348.8931566298149
 31
0.0
  0
LINE
  5
FB0
330
18
100
AcDbEntity
  8
目盛
100
AcDbLine
 10
-85.44893836834615
 20
351.1970279709171
 30
0.0
 11
-84.76504117864266
 21
348.5334242778134
 31
0.0
  0
LINE
  5
FB1
330
18
100
AcDbEntity
  8
目盛
100
AcDbLine
 10
-80.05785670691535
 20
352.0508914226067
 30
0.0
 11
-79.88518277820976
 21
349.3063179194289
 31
0.0
  0
LINE
  5
FB2
330
18
100
AcDbEntity
  8
目盛
100
AcDbLine
 10
-76.41600657421526
 20
352.0508914226068
 30
0.0
 11
-76.58868050292079
 21
349.306317919429
 31
0.0
  0
LINE
  5
FB3
330
18
100
AcDbEntity
  8
目盛
100
AcDbLine
 10
-69.27543880369182
 20
350.6887552707463
 30
0.0
 11
-70.74326952697282
 21
346.1712368183444
 31
0.0
  0
LINE
  5
FB4
330
18
100
AcDbEntity
  8
目盛
100
AcDbLine
 10
-65.88933218517815
 20
349.3481008197016
 30
0.0
 11
-67.06022523698215
 21
346.8598264254199
 31
0.0
  0
LINE
  5
FB5
330
18
100
AcDbEntity
  8
目盛
100
AcDbLine
 10
-67.56131961270966
 20
350.0716343889461
 30
0.0
 11
-68.57366213259246
 21
347.5147490527535
 31
0.0
  0
LINE
  5
FB6
330
18
100
AcDbEntity
  8
目盛
100
AcDbLine
 10
-71.02492491278451
 20
351.1970279709171
 30
0.0
 11
-71.70882210248788
 21
348.5334242778134
 31
0.0
  0
LINE
  5
FB7
330
18
100
AcDbEntity
  8
目盛
100
AcDbLine
 10
-72.80287351757931
 20
351.5944465693189
 30
0.0
 11
-73.31817213269005
 21
348.8931566298149
 31
0.0
  0
LINE
  5
FB8
330
18
100
AcDbEntity
  8
目盛
100
AcDbLine
 10
-74.60226786720046
 20
351.8794426363068
 30
0.0
 11
-74.94693425950231
 21
349.1511272076919
 31
0.0
  0
LINE
  5
FB9
330
18
100
AcDbEntity
  8
外形線
100
AcDbLine
 10
-81.73693164056533
 20
358.1081162981869
 30
0.0
 11
-74.73693164056533
 21
358.1081162981869
 31
0.0
  0
LINE
  5
FBA
330
18
100
AcDbEntity
  8
外形線
100
AcDbLine
 10
-81.73693164056533
 20
358.6081162981869
 30
0.0
 11
-74.73693164056533
 21
358.6081162981869
 31
0.0
  0
LINE
  5
FBB
330
18
100
AcDbEntity
  8
外形線
100
AcDbLine
 10
-81.73693164056539
 20
363.6081162981869
 30
0.0
 11
-74.73693164056538
 21
363.6081162981869
 31
0.0
  0
ARC
  5
FBC
330
18
100
AcDbEntity
  8
外形線
100
AcDbCircle
 10
-78.23693164056533
 20
351.608116298187
 30
0.0
 40
12.49999999999989
100
AcDbArc
 50
73.73979529168789
 51
106.2602047083121
  0
LINE
  5
FBD
330
18
100
AcDbEntity
  8
ﾊｯﾁﾝｸ
 62
     4
100
AcDbLine
 10
-78.23693164056533
 20
361.2880958951074
 30
0.0
 11
-79.5763960448088
 21
363.6081162981869
 31
0.0
  0
LINE
  5
FBE
330
18
100
AcDbEntity
  8
外形線
100
AcDbLine
 10
-81.73693164056539
 20
363.6081162981869
 30
0.0
 11
-81.73693164056533
 21
358.6081162981869
 31
0.0
  0
LINE
  5
FBF
330
18
100
AcDbEntity
  8
ﾊｯﾁﾝｸ
 62
     4
100
AcDbLine
 10
-81.73693164056539
 20
361.5970421800108
 30
0.0
 11
-80.57583745707615
 21
363.6081162981869
 31
0.0
  0
LINE
  5
FC0
330
18
100
AcDbEntity
  8
ﾊｯﾁﾝｸ
 62
     4
100
AcDbLine
 10
-81.15318772626585
 20
358.6081162981869
 30
0.0
 11
-78.26643638031772
 21
363.6081162981869
 31
0.0
  0
LINE
  5
FC1
330
18
100
AcDbEntity
  8
ﾊｯﾁﾝｸ
 62
     4
100
AcDbLine
 10
-81.73693164056533
 20
359.597042180011
 30
0.0
 11
-79.42113691869685
 21
363.6081162981869
 31
0.0
  0
LINE
  5
FC2
330
18
100
AcDbEntity
  8
ﾊｯﾁﾝｸ
 62
     4
100
AcDbLine
 10
-78.23693164056527
 20
359.2880958951073
 30
0.0
 11
-80.73109658318804
 21
363.6081162981869
 31
0.0
  0
LINE
  5
FC3
330
18
100
AcDbEntity
  8
ﾊｯﾁﾝｸ
 62
     4
100
AcDbLine
 10
-78.99904577561915
 20
358.6081162981869
 30
0.0
 11
-81.73693164056544
 21
363.3502737215985
 31
0.0
  0
LINE
  5
FC4
330
18
100
AcDbEntity
  8
ﾊｯﾁﾝｸ
 62
     4
100
AcDbLine
 10
-80.14735266888839
 20
358.597042180011
 30
0.0
 11
-81.73693164056533
 21
361.3502737215986
 31
0.0
  0
LINE
  5
FC5
330
18
100
AcDbEntity
  8
ﾊｯﾁﾝｸ
 62
     4
100
AcDbLine
 10
-81.30844685237752
 20
358.6081162981869
 30
0.0
 11
-81.73693164056533
 21
359.3502737215986
 31
0.0
  0
ARC
  5
FC6
330
18
100
AcDbEntity
  8
外形線
100
AcDbCircle
 10
-81.73693164056533
 20
357.6081162981869
 30
0.0
 40
0.5
100
AcDbArc
 50
90.0
 51
180.0
  0
LINE
  5
FC7
330
18
100
AcDbEntity
  8
外形線
100
AcDbLine
 10
-82.23693164056532
 20
357.6081162981869
 30
0.0
 11
-82.23693164056545
 21
356.1166379251849
 31
0.0
  0
LINE
  5
FC8
330
18
100
AcDbEntity
  8
外形線
100
AcDbLine
 10
-81.73693164056533
 20
358.6081162981869
 30
0.0
 11
-81.23693164056533
 21
358.1081162981869
 31
0.0
  0
LINE
  5
FC9
330
18
100
AcDbEntity
  8
ﾊｯﾁﾝｸ
 62
     4
100
AcDbLine
 10
-78.84378664950737
 20
358.6081162981869
 30
0.0
 11
-78.23693164056533
 21
359.6592200065021
 31
0.0
  0
LINE
  5
FCA
330
18
100
AcDbEntity
  8
ﾊｯﾁﾝｸ
 62
     4
100
AcDbLine
 10
-80.00488083299648
 20
358.597042180011
 30
0.0
 11
-78.23693164056527
 21
361.6592200065022
 31
0.0
  0
LINE
  5
FCB
330
18
100
AcDbEntity
  8
外形線
100
AcDbLine
 10
-81.73693164056549
 20
363.5970421800108
 30
0.0
 11
-81.73053799545545
 21
363.6081162981869
 31
0.0
  0
POINT
  5
FCC
330
18
100
AcDbEntity
  8
DEFPOINTS
  6
ByBlock
 62
     0
100
AcDbPoint
 10
-78.23693164056533
 20
364.1081162981869
 30
0.0
  0
LINE
  5
FCD
330
18
100
AcDbEntity
  8
ﾊｯﾁﾝｸ
 62
     4
100
AcDbLine
 10
-78.23693164056533
 20
363.2880958951073
 30
0.0
 11
-78.42169550642956
 21
363.6081162981869
 31
0.0
  0
LINE
  5
FCE
330
18
100
AcDbEntity
  8
外形線
100
AcDbLine
 10
-74.73693164056538
 20
363.6081162981869
 30
0.0
 11
-74.73693164056533
 21
358.6081162981869
 31
0.0
  0
ARC
  5
FCF
330
18
100
AcDbEntity
  8
外形線
100
AcDbCircle
 10
-74.73693164056533
 20
357.6081162981869
 30
0.0
 40
0.5
100
AcDbArc
 50
0.0
 51
90.0
  0
LINE
  5
FD0
330
18
100
AcDbEntity
  8
外形線
100
AcDbLine
 10
-74.23693164056533
 20
357.6081162981869
 30
0.0
 11
-74.23693164056533
 21
356.1166379251849
 31
0.0
  0
LINE
  5
FD1
330
18
100
AcDbEntity
  8
外形線
100
AcDbLine
 10
-75.23693164056533
 20
358.1081162981869
 30
0.0
 11
-74.73693164056533
 21
358.6081162981869
 31
0.0
  0
LINE
  5
FD2
330
18
100
AcDbEntity
  8
目盛
100
AcDbLine
 10
-55.89204760006748
 20
341.5934120008988
 30
0.0
 11
-58.01095901770088
 21
339.8404960290899
 31
0.0
  0
LINE
  5
FD3
330
18
100
AcDbEntity
  8
目盛
100
AcDbLine
 10
-51.27341354980604
 20
333.7837283260424
 30
0.0
 11
-53.83029888599867
 21
332.7713858061596
 31
0.0
  0
LINE
  5
FD4
330
18
100
AcDbEntity
  8
目盛
100
AcDbLine
 10
-51.99694711905073
 20
335.4557157535739
 30
0.0
 11
-54.4852215133323
 21
334.28482270177
 31
0.0
  0
LINE
  5
FD5
330
18
100
AcDbEntity
  8
目盛
100
AcDbLine
 10
-52.82403791929323
 20
337.0789728471366
 30
0.0
 11
-55.23388128941388
 21
335.7541502433568
 31
0.0
  0
LINE
  5
FD6
330
18
100
AcDbEntity
  8
目盛
100
AcDbLine
 10
-50.6562926680059
 20
332.0696091350604
 30
0.0
 11
-55.17381112040789
 21
330.6017784117793
 31
0.0
  0
TEXT
  5
FD7
330
18
100
AcDbEntity
  8
文字
100
AcDbText
 10
-61.54986073723279
 20
328.3200122981345
 30
0.0
 40
3.0
  1
20
  7
STYLE3
100
AcDbText
  0
LINE
  5
FD8
330
18
100
AcDbEntity
  8
目盛
100
AcDbLine
 10
-54.77543880369182
 20
340.1538886146686
 30
0.0
 11
-58.61826952697288
 21
337.3619086662793
 31
0.0
  0
LINE
  5
FD9
330
18
100
AcDbEntity
  8
目盛
100
AcDbLine
 10
-53.75142180100687
 20
338.6470933525778
 30
0.0
 11
-56.07332359613741
 21
337.1735696663855
 31
0.0
  0
LINE
  5
FDA
330
18
100
AcDbEntity
  8
目盛
100
AcDbLine
 10
-49.7506013694333
 20
328.5421744211728
 30
0.0
 11
-52.45189130893732
 21
328.0268758060621
 31
0.0
  0
LINE
  5
FDB
330
18
100
AcDbEntity
  8
目盛
100
AcDbLine
 10
-50.14801996783507
 20
330.3201230259677
 30
0.0
 11
-52.81162366093884
 21
329.6362258362643
 31
0.0
  0
LINE
  5
FDC
330
18
100
AcDbEntity
  8
目盛
100
AcDbLine
 10
-57.09684144534441
 20
342.9599823701189
 30
0.0
 11
-59.10150517075329
 21
341.0774778288149
 31
0.0
  0
LINE
  5
FDD
330
18
100
AcDbEntity
  8
目盛
100
AcDbLine
 10
-58.38506556863331
 20
344.2482064934079
 30
0.0
 11
-60.26757010993731
 21
342.2435427679989
 31
0.0
  0
LINE
  5
FDE
330
18
100
AcDbEntity
  8
目盛
100
AcDbLine
 10
-62.69795458617437
 20
347.5936261377453
 30
0.0
 11
-64.17147827236664
 21
345.2717243426147
 31
0.0
  0
LINE
  5
FDF
330
18
100
AcDbEntity
  8
目盛
100
AcDbLine
 10
-61.19115932408362
 20
346.5696091350604
 30
0.0
 11
-63.9831392724729
 21
342.7267784117793
 31
0.0
  0
LINE
  5
FE0
330
18
100
AcDbEntity
  8
目盛
100
AcDbLine
 10
-59.75163593785339
 20
345.4530003386848
 30
0.0
 11
-61.50455190966221
 21
343.3340889210513
 31
0.0
  0
LINE
  5
FE2
330
18
100
AcDbEntity
  8
外形線
100
AcDbLine
 10
-169.3825256914657
 20
357.6081162981869
 30
0.0
 11
-169.3825256914657
 21
354.3581162981869
 31
0.0
  0
LINE
  5
FE3
330
18
100
AcDbEntity
  8
外形線
100
AcDbLine
 10
-177.3825256914657
 20
357.6081162981869
 30
0.0
 11
-177.3825256914657
 21
354.3581162981869
 31
0.0
  0
LINE
  5
FE4
330
18
100
AcDbEntity
  8
外形線
100
AcDbLine
 10
-165.7325256914657
 20
356.1081162981869
 30
0.0
 11
-165.7325256914658
 21
355.0081162981868
 31
0.0
  0
LINE
  5
FE5
330
18
100
AcDbEntity
  8
外形線
100
AcDbLine
 10
-166.4325256914658
 20
354.3581162981869
 30
0.0
 11
-180.8825256914658
 21
354.3581162981869
 31
0.0
  0
LINE
  5
FE6
330
18
100
AcDbEntity
  8
外形線
100
AcDbLine
 10
-160.7325256914657
 20
354.0581162981868
 30
0.0
 11
-161.9325256914658
 21
355.1081162981869
 31
0.0
  0
LINE
  5
FE7
330
18
100
AcDbEntity
  8
外形線
 62
     4
100
AcDbLine
 10
-161.9325256914658
 20
350.158116298187
 30
0.0
 11
-165.7325256914658
 21
350.158116298187
 31
0.0
  0
LINE
  5
FE8
330
18
100
AcDbEntity
  8
外形線
 62
     4
100
AcDbLine
 10
-161.9325256914658
 20
351.5581162981869
 30
0.0
 11
-165.7325256914658
 21
351.5581162981869
 31
0.0
  0
LINE
  5
FE9
330
18
100
AcDbEntity
  8
外形線
 62
     4
100
AcDbLine
 10
-161.9325256914658
 20
352.9581162981869
 30
0.0
 11
-165.7325256914658
 21
352.9581162981869
 31
0.0
  0
LINE
  5
FEA
330
18
100
AcDbEntity
  8
外形線
 62
     4
100
AcDbLine
 10
-161.9325256914658
 20
354.1581162981868
 30
0.0
 11
-165.7325256914658
 21
354.1581162981869
 31
0.0
  0
LINE
  5
FEB
330
18
100
AcDbEntity
  8
外形線
100
AcDbLine
 10
-165.7325256914658
 20
355.0081162981868
 30
0.0
 11
-166.4325256914658
 21
355.0081162981868
 31
0.0
  0
POINT
  5
FEC
330
18
100
AcDbEntity
  8
DEFPOINTS
  6
ByBlock
 62
     0
100
AcDbPoint
 10
-180.8825256914658
 20
354.3581162981869
 30
0.0
  0
POINT
  5
FED
330
18
100
AcDbEntity
  8
DEFPOINTS
  6
ByBlock
 62
     0
100
AcDbPoint
 10
-180.8825256914658
 20
354.3581162981869
 30
0.0
  0
LINE
  5
FEE
330
18
100
AcDbEntity
  8
外形線
100
AcDbLine
 10
-180.8825256914657
 20
352.9081162981868
 30
0.0
 11
-181.0825256914658
 21
352.9081162981868
 31
0.0
  0
POINT
  5
FF0
330
18
100
AcDbEntity
  8
DEFPOINTS
  6
ByBlock
 62
     0
100
AcDbPoint
 10
-162.1825256914658
 20
356.3581162981869
 30
0.0
  0
LINE
  5
FF1
330
18
100
AcDbEntity
  8
外形線
 62
     4
100
AcDbLine
 10
-161.9325256914658
 20
355.3581162981869
 30
0.0
 11
-165.7325256914658
 21
355.3581162981869
 31
0.0
  0
LINE
  5
FF2
330
18
100
AcDbEntity
  8
外形線
100
AcDbLine
 10
-161.9325256914658
 20
356.1081162981869
 30
0.0
 11
-162.1825256914658
 21
356.3581162981869
 31
0.0
  0
LINE
  5
FF3
330
18
100
AcDbEntity
  8
外形線
100
AcDbLine
 10
-165.4825256914657
 20
356.3581162981869
 30
0.0
 11
-165.7325256914657
 21
356.1081162981869
 31
0.0
  0
LINE
  5
FF4
330
18
100
AcDbEntity
  8
外形線
100
AcDbLine
 10
-162.1825256914658
 20
356.3581162981869
 30
0.0
 11
-165.4825256914657
 21
356.3581162981869
 31
0.0
  0
LINE
  5
FF5
330
18
100
AcDbEntity
  8
ﾊｯﾁﾝｸ
 62
     4
100
AcDbLine
 10
-173.3825256914657
 20
361.2880958951074
 30
0.0
 11
-172.0430612872222
 21
363.6081162981869
 31
0.0
  0
LINE
  5
FF6
330
18
100
AcDbEntity
  8
ﾊｯﾁﾝｸ
 62
     4
100
AcDbLine
 10
-173.3825256914658
 20
359.2880958951073
 30
0.0
 11
-170.888360748843
 21
363.6081162981869
 31
0.0
  0
LINE
  5
FF7
330
18
100
AcDbEntity
  8
ﾊｯﾁﾝｸ
 62
     4
100
AcDbLine
 10
-172.6204115564119
 20
358.6081162981869
 30
0.0
 11
-169.8825256914656
 21
363.3502737215985
 31
0.0
  0
LINE
  5
FF8
330
18
100
AcDbEntity
  8
ﾊｯﾁﾝｸ
 62
     4
100
AcDbLine
 10
-169.8825256914656
 20
361.5970421800108
 30
0.0
 11
-171.0436198749549
 21
363.6081162981869
 31
0.0
  0
LINE
  5
FF9
330
18
100
AcDbEntity
  8
ﾊｯﾁﾝｸ
 62
     4
100
AcDbLine
 10
-170.4662696057652
 20
358.6081162981869
 30
0.0
 11
-173.3530209517133
 21
363.6081162981869
 31
0.0
  0
LINE
  5
FFA
330
18
100
AcDbEntity
  8
ﾊｯﾁﾝｸ
 62
     4
100
AcDbLine
 10
-169.8825256914657
 20
359.597042180011
 30
0.0
 11
-172.1983204133342
 21
363.6081162981869
 31
0.0
  0
LINE
  5
FFB
330
18
100
AcDbEntity
  8
外形線
100
AcDbLine
 10
-169.8825256914656
 20
363.6081162981869
 30
0.0
 11
-169.8825256914657
 21
358.6081162981869
 31
0.0
  0
LINE
  5
FFC
330
18
100
AcDbEntity
  8
外形線
100
AcDbLine
 10
-176.8825256914657
 20
363.6081162981869
 30
0.0
 11
-176.8825256914657
 21
358.6081162981869
 31
0.0
  0
LINE
  5
FFD
330
18
100
AcDbEntity
  8
ﾊｯﾁﾝｸ
 62
     4
100
AcDbLine
 10
-172.7756706825237
 20
358.6081162981869
 30
0.0
 11
-173.3825256914657
 21
359.6592200065021
 31
0.0
  0
LINE
  5
FFE
330
18
100
AcDbEntity
  8
ﾊｯﾁﾝｸ
 62
     4
100
AcDbLine
 10
-171.6145764990345
 20
358.597042180011
 30
0.0
 11
-173.3825256914658
 21
361.6592200065022
 31
0.0
  0
LINE
  5
FFF
330
18
100
AcDbEntity
  8
外形線
100
AcDbLine
 10
-169.8825256914657
 20
358.6081162981869
 30
0.0
 11
-176.8825256914657
 21
358.6081162981869
 31
0.0
  0
LINE
  5
1000
330
18
100
AcDbEntity
  8
外形線
100
AcDbLine
 10
-169.8825256914657
 20
358.1081162981869
 30
0.0
 11
-176.8825256914657
 21
358.1081162981869
 31
0.0
  0
LINE
  5
1001
330
18
100
AcDbEntity
  8
ﾊｯﾁﾝｸ
 62
     4
100
AcDbLine
 10
-171.4721046631426
 20
358.597042180011
 30
0.0
 11
-169.8825256914657
 21
361.3502737215986
 31
0.0
  0
LINE
  5
1002
330
18
100
AcDbEntity
  8
ﾊｯﾁﾝｸ
 62
     4
100
AcDbLine
 10
-170.3110104796535
 20
358.6081162981869
 30
0.0
 11
-169.8825256914657
 21
359.3502737215986
 31
0.0
  0
LINE
  5
1003
330
18
100
AcDbEntity
  8
外形線
100
AcDbLine
 10
-169.8825256914657
 20
358.6081162981869
 30
0.0
 11
-170.3825256914657
 21
358.1081162981869
 31
0.0
  0
ARC
  5
1004
330
18
100
AcDbEntity
  8
外形線
100
AcDbCircle
 10
-169.8825256914657
 20
357.6081162981869
 30
0.0
 40
0.5
100
AcDbArc
 50
0.000000000000007
 51
90.0
  0
LINE
  5
1005
330
18
100
AcDbEntity
  8
外形線
100
AcDbLine
 10
-176.3825256914657
 20
358.1081162981869
 30
0.0
 11
-176.8825256914657
 21
358.6081162981869
 31
0.0
  0
ARC
  5
1006
330
18
100
AcDbEntity
  8
外形線
100
AcDbCircle
 10
-176.8825256914657
 20
357.6081162981869
 30
0.0
 40
0.5
100
AcDbArc
 50
90.0
 51
180.0
  0
ARC
  5
1007
330
18
100
AcDbEntity
  8
外形線
100
AcDbCircle
 10
-173.3825256914657
 20
351.608116298187
 30
0.0
 40
12.49999999999989
100
AcDbArc
 50
73.73979529168789
 51
106.2602047083121
  0
LINE
  5
1008
330
18
100
AcDbEntity
  8
外形線
100
AcDbLine
 10
-169.8825256914656
 20
363.6081162981869
 30
0.0
 11
-176.8825256914657
 21
363.6081162981869
 31
0.0
  0
LINE
  5
1009
330
18
100
AcDbEntity
  8
外形線
100
AcDbLine
 10
-169.8825256914655
 20
363.5970421800108
 30
0.0
 11
-169.8889193365756
 21
363.6081162981869
 31
0.0
  0
POINT
  5
100A
330
18
100
AcDbEntity
  8
DEFPOINTS
  6
ByBlock
 62
     0
100
AcDbPoint
 10
-173.3825256914657
 20
364.1081162981869
 30
0.0
  0
POINT
  5
100B
330
18
100
AcDbEntity
  8
DEFPOINTS
  6
ByBlock
 62
     0
100
AcDbPoint
 10
-173.3825256914657
 20
364.1081162981869
 30
0.0
  0
LINE
  5
100C
330
18
100
AcDbEntity
  8
ﾊｯﾁﾝｸ
 62
     4
100
AcDbLine
 10
-173.3825256914657
 20
363.2880958951073
 30
0.0
 11
-173.1977618256015
 21
363.6081162981869
 31
0.0
  0
LINE
  5
100F
330
18
100
AcDbEntity
  8
中心線
100
AcDbLine
 10
-115.4274214698325
 20
323.1081162981869
 30
0.0
 11
-37.5257806045247
 21
323.1081162981869
 31
0.0
  0
LINE
  5
101B
330
18
100
AcDbEntity
  8
中心線
100
AcDbLine
 10
-173.3825256914657
 20
369.2899984273829
 30
0.0
 11
-173.3825256914657
 21
131.3577723146753
 31
0.0
  0
LINE
  5
101C
330
18
100
AcDbEntity
  8
中心線
100
AcDbLine
 10
-78.23693164056533
 20
366.2592482301588
 30
0.0
 11
-78.23693164056533
 21
162.1542048890818
 31
0.0
  0
LINE
  5
101D
330
18
100
AcDbEntity
  8
外形線
100
AcDbLine
 10
-82.23693164056532
 20
285.8081162981867
 30
0.0
 11
-82.23693164056532
 21
290.0995946711888
 31
0.0
  0
LINE
  5
101E
330
18
100
AcDbEntity
  8
外形線
100
AcDbLine
 10
-74.23693164056533
 20
286.0220599231825
 30
0.0
 11
-74.23693164056533
 21
290.0995946711888
 31
0.0
  0
LINE
  5
101F
330
18
100
AcDbEntity
  8
外形線
100
AcDbLine
 10
-177.3825256914657
 20
285.8081162981867
 30
0.0
 11
-177.3825256914657
 21
291.8581162981868
 31
0.0
  0
LINE
  5
1020
330
18
100
AcDbEntity
  8
外形線
100
AcDbLine
 10
-169.3825256914657
 20
285.8081162981867
 30
0.0
 11
-169.3825256914657
 21
291.8581162981869
 31
0.0
  0
LINE
  5
126B
330
18
100
AcDbEntity
  8
外形線
100
AcDbLine
 10
-162.3825256914657
 20
371.8904289709091
 30
0.0
 11
-162.3825256914657
 21
356.3581162981869
 31
0.0
  0
ARC
  5
126C
330
18
100
AcDbEntity
  8
外形線
100
AcDbCircle
 10
-146.3825256914657
 20
367.8904289709091
 30
0.0
 40
6.5
100
AcDbArc
 50
322.0201275551474
 51
37.97987244485262
  0
LINE
  5
126D
330
18
100
AcDbEntity
  8
外形線
100
AcDbLine
 10
-141.2590503084859
 20
371.8904289709091
 30
0.0
 11
-141.2590503084859
 21
363.890428970909
 31
0.0
  0
LINE
  5
12A8
330
18
100
AcDbEntity
  8
外形線
100
AcDbLine
 10
-155.8825256914657
 20
290.3081162981867
 30
0.0
 11
-155.8825256914657
 21
286.3081162981867
 31
0.0
  0
LINE
  5
12A9
330
18
100
AcDbEntity
  8
外形線
100
AcDbLine
 10
-156.3825256914657
 20
290.8081162981868
 30
0.0
 11
-156.3825256914657
 21
286.3081162981867
 31
0.0
  0
LINE
  5
12AB
330
18
100
AcDbEntity
  8
外形線
100
AcDbLine
 10
-156.3825256914657
 20
280.8081162981867
 30
0.0
 11
-158.8825256914657
 21
280.8081162981868
 31
0.0
  0
LINE
  5
12AC
330
18
100
AcDbEntity
  8
外形線
100
AcDbLine
 10
-155.8825256914657
 20
286.3081162981867
 30
0.0
 11
-157.0825256914657
 21
286.3081162981867
 31
0.0
  0
LINE
  5
12AD
330
18
100
AcDbEntity
  8
外形線
100
AcDbLine
 10
-156.3825256914657
 20
280.8081162981867
 30
0.0
 11
-156.3825256914657
 21
285.3081162981867
 31
0.0
  0
LINE
  5
12AE
330
18
100
AcDbEntity
  8
外形線
100
AcDbLine
 10
-155.8825256914657
 20
281.3081162981868
 30
0.0
 11
-155.8825256914657
 21
285.3081162981867
 31
0.0
  0
LINE
  5
12AF
330
18
100
AcDbEntity
  8
外形線
100
AcDbLine
 10
-157.0825256914657
 20
285.3081162981867
 30
0.0
 11
-157.0825256914657
 21
285.8081162981867
 31
0.0
  0
LINE
  5
12B0
330
18
100
AcDbEntity
  8
外形線
100
AcDbLine
 10
-155.8825256914657
 20
285.3081162981867
 30
0.0
 11
-157.0825256914657
 21
285.3081162981867
 31
0.0
  0
LINE
  5
12B1
330
18
100
AcDbEntity
  8
外形線
100
AcDbLine
 10
-156.3825256914657
 20
280.8081162981867
 30
0.0
 11
-155.8825256914657
 21
281.3081162981868
 31
0.0
  0
LINE
  5
12B2
330
18
100
AcDbEntity
  8
外形線
100
AcDbLine
 10
-157.0825256914657
 20
286.3081162981867
 30
0.0
 11
-157.0825256914657
 21
285.8081162981867
 31
0.0
  0
LINE
  5
12B3
330
18
100
AcDbEntity
  8
外形線
100
AcDbLine
 10
-156.3825256914657
 20
290.8081162981868
 30
0.0
 11
-158.8825256914657
 21
290.8081162981867
 31
0.0
  0
LINE
  5
12B5
330
18
100
AcDbEntity
  8
外形線
100
AcDbLine
 10
-156.3825256914657
 20
290.8081162981868
 30
0.0
 11
-155.8825256914657
 21
290.3081162981867
 31
0.0
  0
LINE
  5
12EA
330
18
100
AcDbEntity
  8
外形線
100
AcDbLine
 10
-141.2590503084859
 20
363.890428970909
 30
0.0
 11
-159.8825256914657
 21
363.890428970909
 31
0.0
  0
LINE
  5
12F6
330
18
100
AcDbEntity
  8
中心線
 48
0.9
100
AcDbLine
 10
-137.4954311142705
 20
367.8904289709091
 30
0.0
 11
-165.4040884318655
 21
367.8904289709091
 31
0.0
  0
LINE
  5
12F7
330
18
100
AcDbEntity
  8
外形線
100
AcDbLine
 10
-141.2590503084859
 20
371.8904289709091
 30
0.0
 11
-162.3825256914657
 21
371.8904289709091
 31
0.0
  0
LINE
  5
12FA
330
18
100
AcDbEntity
  8
中心線
100
AcDbLine
 10
28.8123184265212
 20
293.9386396094067
 30
0.0
 11
91.44003992344206
 21
299.7901972869954
 31
0.0
  0
LINE
  5
12FB
330
18
100
AcDbEntity
  8
中心線
100
AcDbLine
 10
35.10494807503358
 20
295.531493939206
 30
0.0
 11
85.33595339598436
 21
300.2237027027354
 31
0.0
  0
LINE
  5
12FC
330
18
100
AcDbEntity
  8
中心線
100
AcDbLine
 10
35.30295713737307
 20
293.5412848038512
 30
0.0
 11
85.53396245832386
 21
298.2334935673806
 31
0.0
  0
LINE
  5
1364
330
18
100
AcDbEntity
  8
中心線
 48
0.3
100
AcDbLine
 10
32.44756636753148
 20
297.6817241906399
 30
0.0
 11
33.16349350752016
 21
290.0264398758951
 31
0.0
  0
POINT
  5
1365
330
18
100
AcDbEntity
  8
DEFPOINTS
  6
ByBlock
 62
     0
100
AcDbPoint
 10
32.76306835943473
 20
294.3081162981867
 30
0.0
  0
CIRCLE
  5
1366
330
18
100
AcDbEntity
  8
外形線
100
AcDbCircle
 10
32.76306835943467
 20
294.3081162981867
 30
0.0
 40
2.0
  0
CIRCLE
  5
1367
330
18
100
AcDbEntity
  8
外形線
100
AcDbCircle
 10
32.76306835943467
 20
294.3081162981867
 30
0.0
 40
1.25
  0
CIRCLE
  5
1478
330
18
100
AcDbEntity
  8
隠れ線2
 48
0.5
100
AcDbCircle
 10
87.7741168340016
 20
299.447357788822
 30
0.0
 40
1.25
  0
CIRCLE
  5
1479
330
18
100
AcDbEntity
  8
隠れ線2
 48
0.5
100
AcDbCircle
 10
87.7741168340016
 20
299.447357788822
 30
0.0
 40
2.0
  0
LINE
  5
147B
330
18
100
AcDbEntity
  8
中心線
 48
0.2
100
AcDbLine
 10
87.43217710282713
 20
303.1036598263303
 30
0.0
 11
88.14810424281585
 21
295.4483755115854
 31
0.0
  0
LINE
  5
1486
330
18
100
AcDbEntity
  8
外形線
100
AcDbLine
 10
36.59303381033018
 20
296.1728424472858
 30
0.0
 11
83.64546540093639
 21
300.5677889398861
 31
0.0
  0
LINE
  5
1487
330
18
100
AcDbEntity
  8
外形線
100
AcDbLine
 10
36.89004740383943
 20
293.1875287442537
 30
0.0
 11
80.30207043187763
 21
297.2423210287673
 31
0.0
  0
LINE
  5
1488
330
18
100
AcDbEntity
  8
外形線
100
AcDbLine
 10
36.59303381033018
 20
296.1728424472858
 30
0.0
 11
36.89004740383943
 21
293.1875287442537
 31
0.0
  0
LINE
  5
1489
330
18
100
AcDbEntity
  8
外形線
100
AcDbLine
 10
83.64546540093639
 20
300.5677889398861
 30
0.0
 11
83.75267588321127
 21
299.4902055267422
 31
0.0
  0
LINE
  5
148A
330
18
100
AcDbEntity
  8
隠れ線2
 48
0.3
100
AcDbLine
 10
83.75267588321127
 20
299.4902055267423
 30
0.0
 11
83.94247899444557
 21
297.5824752368539
 31
0.0
  0
LINE
  5
148B
330
18
100
AcDbEntity
  8
隠れ線2
 48
0.5
100
AcDbLine
 10
80.30153424040239
 20
297.2419717287612
 30
0.0
 11
83.94247899444557
 21
297.5824752368539
 31
0.0
  0
POINT
  5
1493
330
18
100
AcDbEntity
  8
DEFPOINTS
  6
ByBlock
 62
     0
100
AcDbPoint
 10
87.77411683400162
 20
299.4473577888219
 30
0.0
  0
LINE
  5
149B
330
18
100
AcDbEntity
  8
外形線
100
AcDbLine
 10
-71.79313684638692
 20
361.4551751217161
 30
0.0
 11
-55.03927038152301
 21
347.3375280628927
 31
0.0
  0
ARC
  5
149C
330
18
100
AcDbEntity
  8
外形線
100
AcDbCircle
 10
-78.23693164056533
 20
353.8081162981868
 30
0.0
 40
10.0
100
AcDbArc
 50
49.88083310159495
 51
69.51268488527773
  0
ARC
  5
149D
330
18
100
AcDbEntity
  8
外形線
100
AcDbCircle
 10
-78.23693164056533
 20
319.8081162981868
 30
0.0
 40
36.0
100
AcDbArc
 50
331.8213572594701
 51
49.88083310159491
  0
LINE
  5
149E
330
18
100
AcDbEntity
  8
外形線
100
AcDbLine
 10
-84.68072643474375
 20
361.4551751217161
 30
0.0
 11
-101.4345928996076
 21
347.3375280628927
 31
0.0
  0
ARC
  5
149F
330
18
100
AcDbEntity
  8
外形線
100
AcDbCircle
 10
-78.23693164056533
 20
319.8081162981868
 30
0.0
 40
36.0
100
AcDbArc
 50
130.1191668984051
 51
250.8118635462791
  0
LINE
  5
14A0
330
18
100
AcDbEntity
  8
隠れ線2
100
AcDbLine
 10
-88.23693164056534
 20
285.8081162981868
 30
0.0
 11
-88.23693164056534
 21
263.3081162981867
 31
0.0
  0
ARC
  5
14A1
330
18
100
AcDbEntity
  8
隠れ線2
100
AcDbCircle
 10
-86.73693164056533
 20
263.3081162981867
 30
0.0
 40
1.5
100
AcDbArc
 50
180.0
 51
270.0
  0
ARC
  5
14A2
330
18
100
AcDbEntity
  8
隠れ線2
100
AcDbCircle
 10
-59.73693164056533
 20
263.3081162981867
 30
0.0
 40
1.5
100
AcDbArc
 50
269.9999999999999
 51
0.0
  0
LINE
  5
14A3
330
18
100
AcDbEntity
  8
隠れ線2
100
AcDbLine
 10
-58.23693164056534
 20
291.586672447063
 30
0.0
 11
-58.23693164056533
 21
263.3081162981867
 31
0.0
  0
LINE
  5
14A5
330
18
100
AcDbEntity
  8
中心線
 48
0.5
100
AcDbLine
 10
77.76306835943467
 20
293.7643850190568
 30
0.0
 11
77.76306835943467
 21
277.8518475773167
 31
0.0
  0
ARC
  5
14A7
330
18
100
AcDbEntity
  8
外形線
100
AcDbCircle
 10
77.76306835943467
 20
285.8081162981867
 30
0.0
 40
4.5
100
AcDbArc
 50
318.18473853672
 51
131.8152614632798
  0
CIRCLE
  5
14A8
330
18
100
AcDbEntity
  8
外形線
100
AcDbCircle
 10
77.76306835943467
 20
285.8081162981867
 30
0.0
 40
5.0
  0
ARC
  5
1934
330
18
100
AcDbEntity
  8
外形線
100
AcDbCircle
 10
77.76306835943467
 20
285.8081162981867
 30
0.0
 40
4.5
100
AcDbArc
 50
318.18473853672
 51
131.8152614632798
  0
POINT
  5
193B
330
18
100
AcDbEntity
  8
DEFPOINTS
  6
ByBlock
 62
     0
100
AcDbPoint
 10
77.76306835943464
 20
285.8081162981869
 30
0.0
  0
POINT
  5
193C
330
18
100
AcDbEntity
  8
DEFPOINTS
  6
ByBlock
 62
     0
100
AcDbPoint
 10
78.22060656093092
 20
293.9678561745794
 30
0.0
  0
LINE
  5
194B
330
18
100
AcDbEntity
  8
外形線
100
AcDbLine
 10
74.58534643768868
 20
275.8005150177572
 30
0.0
 11
-63.99506342087602
 21
221.7540403061372
 31
0.0
  0
LINE
  5
194C
330
18
100
AcDbEntity
  8
外形線
100
AcDbLine
 10
-64.61223083462797
 20
230.7873292700639
 30
0.0
 11
68.39762450165162
 21
290.5555852392877
 31
0.0
  0
LINE
  5
194D
330
18
100
AcDbEntity
  8
中心線
100
AcDbLine
 10
-61.24358744769097
 20
227.5139489049444
 30
0.0
 11
80.06508604928265
 21
286.7734960044678
 31
0.0
  0
LINE
  5
194F
330
18
100
AcDbEntity
  8
外形線
100
AcDbLine
 10
87.91090909338127
 20
283.1115762116215
 30
0.0
 11
198.4531327832638
 21
364.6717075776145
 31
0.0
  0
LINE
  5
1950
330
18
100
AcDbEntity
  8
外形線
100
AcDbLine
 10
78.79065212974541
 20
296.2577130174383
 30
0.0
 11
193.8949394670884
 21
371.241986590665
 31
0.0
  0
LINE
  5
1951
330
18
100
AcDbEntity
  8
中心線
100
AcDbLine
 10
74.11661558125064
 20
283.2783551345812
 30
0.0
 11
201.821920442744
 21
371.8751203409888
 31
0.0
  0
ARC
  5
1952
330
18
100
AcDbEntity
  8
外形線
100
AcDbCircle
 10
77.76306835943467
 20
285.8081162981867
 30
0.0
 40
10.5
100
AcDbArc
 50
84.38375214550621
 51
153.1189392338775
  0
LINE
  5
1953
330
18
100
AcDbEntity
  8
中心線
100
AcDbLine
 10
83.65493531842265
 20
296.5896365847253
 30
0.0
 11
90.63208264525631
 21
301.4300986485091
 31
0.0
  0
ARC
  5
1954
330
18
100
AcDbEntity
  8
外形線
100
AcDbCircle
 10
77.76306835943467
 20
285.8081162981867
 30
0.0
 40
10.5
100
AcDbArc
 50
252.3837521455065
 51
345.118939233877
  0
POINT
  5
1955
330
18
100
AcDbEntity
  8
DEFPOINTS
  6
ByBlock
 62
     0
100
AcDbPoint
 10
74.58534643768868
 20
275.8005150177572
 30
0.0
 50
192.0
  0
POINT
  5
1956
330
18
100
AcDbEntity
  8
DEFPOINTS
  6
ByBlock
 62
     0
100
AcDbPoint
 10
68.39762450165167
 20
290.5555852392875
 30
0.0
 50
192.0
  0
POINT
  5
1957
330
18
100
AcDbEntity
  8
DEFPOINTS
  6
ByBlock
 62
     0
100
AcDbPoint
 10
87.91090909338121
 20
283.1115762116215
 30
0.0
  0
POINT
  5
1958
330
18
100
AcDbEntity
  8
DEFPOINTS
  6
ByBlock
 62
     0
100
AcDbPoint
 10
75.63313587504817
 20
296.0898178894582
 30
0.0
  0
POINT
  5
1959
330
18
100
AcDbEntity
  8
DEFPOINTS
  6
ByBlock
 62
     0
100
AcDbPoint
 10
78.79065212974547
 20
296.2577130174383
 30
0.0
  0
POINT
  5
195A
330
18
100
AcDbEntity
  8
DEFPOINTS
  6
ByBlock
 62
     0
100
AcDbPoint
 10
67.69407145434886
 20
300.3217874962004
 30
0.0
  0
POINT
  5
195B
330
18
100
AcDbEntity
  8
DEFPOINTS
  6
ByBlock
 62
     0
100
AcDbPoint
 10
84.93472893927359
 20
303.5401132734216
 30
0.0
  0
LINE
  5
195C
330
18
100
AcDbEntity
  8
中心線
100
AcDbLine
 10
84.93472893927359
 20
303.5401132734216
 30
0.0
 11
89.79874321194168
 21
296.5290172803045
 31
0.0
  0
LINE
  5
195D
330
18
100
AcDbEntity
  8
中心線
 48
0.4
100
AcDbLine
 10
191.7025014582392
 20
374.197799628395
 30
0.0
 11
200.4323684317749
 21
361.6143794475528
 31
0.0
  0
ARC
  5
195F
330
18
100
AcDbEntity
  8
外形線
100
AcDbCircle
 10
-81.94533898072748
 20
265.731734735534
 30
0.0
 40
45.0
100
AcDbArc
 50
264.268580313852
 51
292.1732717492241
  0
ARC
  5
1960
330
18
100
AcDbEntity
  8
外形線
100
AcDbCircle
 10
-81.94533898072748
 20
265.731734735534
 30
0.0
 40
47.5
100
AcDbArc
 50
264.3776542926052
 51
292.2036976457789
  0
LINE
  5
1961
330
18
100
AcDbEntity
  8
外形線
100
AcDbLine
 10
-86.59896324545593
 20
218.4602445834059
 30
0.0
 11
-86.43928199622354
 21
220.9566917297089
 31
0.0
  0
ARC
  5
1963
330
18
100
AcDbEntity
  8
外形線
100
AcDbCircle
 10
-63.38261138428681
 20
228.0509016705572
 30
0.0
 40
3.0
100
AcDbArc
 50
114.1968665399464
 51
202.7513456896921
  0
LINE
  5
1964
330
18
100
AcDbEntity
  8
隠れ線2
100
AcDbLine
 10
-64.96189497338185
 20
224.0595200282514
 30
0.0
 11
-55.73997608492573
 21
227.9268462382747
 31
0.0
  0
LINE
  5
1965
330
18
100
AcDbEntity
  8
隠れ線2
 48
0.3
100
AcDbLine
 10
-61.27312741799944
 20
225.6064505122605
 30
0.0
 11
-60.26725992176341
 21
223.2078867606997
 31
0.0
  0
LINE
  5
1966
330
18
100
AcDbEntity
  8
外形線
100
AcDbLine
 10
-66.14918705082368
 20
226.8907038075503
 30
0.0
 11
-63.99506342087597
 21
221.7540403061372
 31
0.0
  0
LINE
  5
1967
330
18
100
AcDbEntity
  8
隠れ線2
 48
0.3
100
AcDbLine
 10
-55.73997608492561
 20
227.9268462382746
 30
0.0
 11
-54.67555467309409
 21
225.3886564425433
 31
0.0
  0
POINT
  5
1968
330
18
100
AcDbEntity
  8
DEFPOINTS
  6
ByBlock
 62
     0
100
AcDbPoint
 10
-54.67555467309421
 20
225.388656442543
 30
0.0
 50
192.0
  0
POINT
  5
1969
330
18
100
AcDbEntity
  8
DEFPOINTS
  6
ByBlock
 62
     0
100
AcDbPoint
 10
-58.15614826211526
 20
233.688383442154
 30
0.0
 50
192.0
  0
CIRCLE
  5
196B
330
18
100
AcDbEntity
  8
外形線
100
AcDbCircle
 10
196.0782996117861
 20
367.8904289709091
 30
0.0
 40
4.0
  0
LINE
  5
1999
330
18
100
AcDbEntity
  8
外形線
100
AcDbLine
 10
74.40873333177491
 20
289.5160047164397
 30
0.0
 11
81.47095677768765
 21
282.4537812705269
 31
0.0
  0
LINE
  5
199A
330
18
100
AcDbEntity
  8
外形線
100
AcDbLine
 10
74.05517994118167
 20
289.1624513258465
 30
0.0
 11
81.11740338709441
 21
282.1002278799337
 31
0.0
  0
ARC
  5
199B
330
18
100
AcDbEntity
  8
外形線
100
AcDbCircle
 10
77.76306835943467
 20
285.8081162981867
 30
0.0
 40
4.5
100
AcDbArc
 50
138.1847385367197
 51
311.8152614632801
  0
ARC
  5
199C
330
18
100
AcDbEntity
  8
外形線
100
AcDbCircle
 10
77.76306835943467
 20
285.8081162981867
 30
0.0
 40
4.5
100
AcDbArc
 50
138.1847385367197
 51
311.8152614632801
  0
CIRCLE
  5
199D
330
18
100
AcDbEntity
  8
外形線
100
AcDbCircle
 10
77.76306835943467
 20
285.8081162981867
 30
0.0
 40
7.0
  0
ARC
  5
199F
330
18
100
AcDbEntity
  8
外形線
100
AcDbCircle
 10
98.76306835943456
 20
285.9949294849999
 30
0.0
 40
7.0
100
AcDbArc
 50
180.3361549428122
 51
269.8378176113472
  0
LINE
  5
19A0
330
18
100
AcDbEntity
  8
外形線
100
AcDbLine
 10
101.539745330319
 20
293.1671878751671
 30
0.0
 11
164.2435006957585
 21
296.7931065287247
 31
0.0
  0
LINE
  5
19A4
330
18
100
AcDbEntity
  8
外形線
100
AcDbLine
 10
117.3310973988892
 20
304.8183443850312
 30
0.0
 11
180.0299849104778
 21
308.4780812111481
 31
0.0
  0
LINE
  5
19A5
330
18
100
AcDbEntity
  8
外形線
100
AcDbLine
 10
127.651102353118
 20
312.4326381061882
 30
0.0
 11
165.9885728025093
 21
314.6703979451944
 31
0.0
  0
LINE
  5
19A6
330
18
100
AcDbEntity
  8
隠れ線2
100
AcDbLine
 10
101.2547721885568
 20
310.8918831516488
 30
0.0
 11
127.6511023531179
 21
312.4326381061881
 31
0.0
  0
LINE
  5
19A7
330
18
100
AcDbEntity
  8
隠れ線2
100
AcDbLine
 10
89.43181800927391
 20
303.1898622180161
 30
0.0
 11
117.3310973988891
 21
304.8183443850311
 31
0.0
  0
LINE
  5
19AA
330
18
100
AcDbEntity
  8
隠れ線2
100
AcDbLine
 10
42.36137547188324
 20
278.8561424231492
 30
0.0
 11
57.76790347074802
 21
278.8685578068184
 31
0.0
  0
ARC
  5
19AB
330
18
100
AcDbEntity
  8
外形線
100
AcDbCircle
 10
57.76306835943467
 20
284.8685558586263
 30
0.0
 40
6.0
100
AcDbArc
 50
32.13441994062845
 51
93.10115619125204
  0
LINE
  5
19AE
330
18
100
AcDbEntity
  8
隠れ線2
100
AcDbLine
 10
38.70747725548961
 20
261.8081162981868
 30
0.0
 11
4.422247888538729
 21
261.8081162981868
 31
0.0
  0
LINE
  5
19AF
330
18
100
AcDbEntity
  8
隠れ線2
100
AcDbLine
 10
56.65615705719715
 20
268.8081162981867
 30
0.0
 11
20.00023276120083
 21
268.8081162981868
 31
0.0
  0
LINE
  5
19B0
330
18
100
AcDbEntity
  8
外形線
100
AcDbLine
 10
20.00023276120105
 20
268.8081162981869
 30
0.0
 11
-28.23693164056545
 21
268.8081162981868
 31
0.0
  0
LINE
  5
19B1
330
18
100
AcDbEntity
  8
外形線
100
AcDbLine
 10
4.422247888538749
 20
261.8081162981868
 30
0.0
 11
-92.23693164056532
 21
261.8081162981868
 31
0.0
  0
ARC
  5
19B3
330
18
100
AcDbEntity
  8
外形線
100
AcDbCircle
 10
-78.23693164056533
 20
353.8081162981868
 30
0.0
 40
10.0
100
AcDbArc
 50
110.487315114723
 51
130.1191668984051
  0
LINE
  5
19B4
330
18
100
AcDbEntity
  8
外形線
100
AcDbLine
 10
-183.8825256914657
 20
363.8081162981869
 30
0.0
 11
-183.8825256914657
 21
261.8081162981868
 31
0.0
  0
LINE
  5
19B5
330
18
100
AcDbEntity
  8
外形線
100
AcDbLine
 10
-182.3825256914657
 20
363.8081162981869
 30
0.0
 11
-183.8825256914657
 21
363.8081162981869
 31
0.0
  0
LINE
  5
19B6
330
18
100
AcDbEntity
  8
外形線
100
AcDbLine
 10
-183.8825256914657
 20
329.3081162981869
 30
0.0
 11
-184.3825256914657
 21
329.3081162981868
 31
0.0
  0
LINE
  5
19B7
330
18
100
AcDbEntity
  8
外形線
100
AcDbLine
 10
-185.8825256914657
 20
279.5581162981867
 30
0.0
 11
-185.8825256914657
 21
275.0581162981867
 31
0.0
  0
LINE
  5
19B8
330
18
100
AcDbEntity
  8
外形線
 48
0.5
100
AcDbLine
 10
-183.8825256914657
 20
274.5581162981868
 30
0.0
 11
-185.3825256914657
 21
274.5581162981868
 31
0.0
  0
ARC
  5
19B9
330
18
100
AcDbEntity
  8
外形線
 48
0.5
100
AcDbCircle
 10
-185.3825256914657
 20
275.0581162981867
 30
0.0
 40
0.5
100
AcDbArc
 50
180.0
 51
270.0000000000001
  0
LINE
  5
19BA
330
18
100
AcDbEntity
  8
外形線
 48
0.5
100
AcDbLine
 10
-183.8825256914657
 20
284.5581162981868
 30
0.0
 11
-185.3825256914657
 21
284.5581162981868
 31
0.0
  0
LINE
  5
19BB
330
18
100
AcDbEntity
  8
外形線
 48
0.5
100
AcDbLine
 10
-183.8825256914657
 20
280.0581162981867
 30
0.0
 11
-185.3825256914657
 21
280.0581162981867
 31
0.0
  0
ARC
  5
19BC
330
18
100
AcDbEntity
  8
外形線
 48
0.5
100
AcDbCircle
 10
-185.3825256914657
 20
284.0581162981867
 30
0.0
 40
0.5
100
AcDbArc
 50
90.0000000000001
 51
180.0
  0
ARC
  5
19BD
330
18
100
AcDbEntity
  8
外形線
 48
0.5
100
AcDbCircle
 10
-185.3825256914657
 20
279.5581162981867
 30
0.0
 40
0.5
100
AcDbArc
 50
90.0000000000001
 51
180.0
  0
LINE
  5
19BE
330
18
100
AcDbEntity
  8
外形線
100
AcDbLine
 10
-185.8825256914657
 20
284.0581162981867
 30
0.0
 11
-185.8825256914657
 21
279.5581162981867
 31
0.0
  0
LINE
  5
19BF
330
18
100
AcDbEntity
  8
外形線
 48
0.5
100
AcDbLine
 10
-183.8825256914657
 20
270.5581162981868
 30
0.0
 11
-185.3825256914657
 21
270.5581162981868
 31
0.0
  0
LINE
  5
19C0
330
18
100
AcDbEntity
  8
外形線
 48
0.5
100
AcDbLine
 10
-183.8825256914657
 20
265.0581162981867
 30
0.0
 11
-185.3825256914657
 21
265.0581162981867
 31
0.0
  0
LINE
  5
19C1
330
18
100
AcDbEntity
  8
外形線
100
AcDbLine
 10
-185.8825256914657
 20
270.0581162981868
 30
0.0
 11
-185.8825256914657
 21
265.5581162981867
 31
0.0
  0
ARC
  5
19C2
330
18
100
AcDbEntity
  8
外形線
 48
0.5
100
AcDbCircle
 10
-185.3825256914657
 20
265.5581162981867
 30
0.0
 40
0.5
100
AcDbArc
 50
180.0
 51
270.0000000000001
  0
ARC
  5
19C3
330
18
100
AcDbEntity
  8
外形線
 48
0.5
100
AcDbCircle
 10
-185.3825256914657
 20
270.0581162981868
 30
0.0
 40
0.5
100
AcDbArc
 50
90.0000000000001
 51
180.0
  0
LINE
  5
19C4
330
18
100
AcDbEntity
  8
外形線
100
AcDbLine
 10
-185.3825256914657
 20
265.0581162981867
 30
0.0
 11
-185.3825256914657
 21
165.3294442093327
 31
0.0
  0
LINE
  5
19C5
330
18
100
AcDbEntity
  8
外形線
100
AcDbLine
 10
-185.3825256914657
 20
274.5581162981868
 30
0.0
 11
-185.3825256914657
 21
270.5581162981868
 31
0.0
  0
LINE
  5
1A0F
330
18
100
AcDbEntity
  8
想像線
100
AcDbLine
 10
421.7630683594347
 20
267.2398862360801
 30
0.0
 11
421.7630683594347
 21
162.1542048890818
 31
0.0
  0
DIMENSION
  5
1A2A
330
18
100
AcDbEntity
  8
寸法線
100
AcDbDimension
  2
*D29
 10
-78.23693164056533
 20
133.0737595128686
 30
0.0
 11
171.7630683594346
 21
134.9487595128686
 31
0.0
 70
    32
 71
     5
 42
-1.0
  3
STYLE3
100
AcDbAlignedDimension
 13
421.7630683594347
 23
162.1542048890818
 33
0.0
 14
-78.23693164056533
 24
134.1145546991789
 34
0.0
100
AcDbRotatedDimension
1001
ACAD
1000
DSTYLE
1002
{
1070
   271
1070
     2
1002
}
  0
LINE
  5
1A4D
330
18
100
AcDbEntity
  8
外形線
100
AcDbLine
 10
-159.8825256914657
 20
371.8904289709091
 30
0.0
 11
-159.8825256914657
 21
345.3490953379822
 31
0.0
  0
LINE
  5
1A52
330
18
100
AcDbEntity
  8
中心線
 48
0.3
100
AcDbLine
 10
-153.6631116531678
 20
285.8081162981867
 30
0.0
 11
-163.7166290593623
 21
285.8081162981867
 31
0.0
  0
LINE
  5
1A53
330
18
100
AcDbEntity
  8
外形線
100
AcDbLine
 10
-162.3825256914657
 20
289.8581162981869
 30
0.0
 11
-162.3825256914657
 21
221.7540403061373
 31
0.0
  0
LINE
  5
1A54
330
18
100
AcDbEntity
  8
外形線
100
AcDbLine
 10
-159.8825256914657
 20
300.8671372583912
 30
0.0
 11
-159.8825256914657
 21
221.7540403061372
 31
0.0
  0
LINE
  5
1A55
330
18
100
AcDbEntity
  8
外形線
100
AcDbLine
 10
-158.8825256914657
 20
278.8081162981868
 30
0.0
 11
-159.8825256914657
 21
278.8081162981868
 31
0.0
  0
LINE
  5
1A56
330
18
100
AcDbEntity
  8
外形線
100
AcDbLine
 10
-158.8825256914657
 20
292.8081162981868
 30
0.0
 11
-159.8825256914657
 21
292.8081162981868
 31
0.0
  0
LINE
  5
1A57
330
18
100
AcDbEntity
  8
外形線
100
AcDbLine
 10
-158.8825256914657
 20
292.8081162981868
 30
0.0
 11
-158.8825256914657
 21
278.8081162981868
 31
0.0
  0
LINE
  5
1A59
330
18
100
AcDbEntity
  8
外形線
100
AcDbLine
 10
-162.3825256914657
 20
278.8081162981866
 30
0.0
 11
-163.3825256914657
 21
278.8081162981866
 31
0.0
  0
LINE
  5
1A5A
330
18
100
AcDbEntity
  8
外形線
100
AcDbLine
 10
-163.3825256914657
 20
278.8081162981866
 30
0.0
 11
-163.3825256914657
 21
289.8581162981869
 31
0.0
  0
LINE
  5
1A5E
330
18
100
AcDbEntity
  8
外形線
100
AcDbLine
 10
-159.8825256914656
 20
221.7540403061372
 30
0.0
 11
-166.8825256914657
 21
221.7540403061372
 31
0.0
  0
LINE
  5
1A5F
330
18
100
AcDbEntity
  8
外形線
100
AcDbLine
 10
-166.8825256914657
 20
218.231734735534
 30
0.0
 11
-170.3825256914657
 21
218.231734735534
 31
0.0
  0
LINE
  5
1AD3
330
18
100
AcDbEntity
  8
外形線
100
AcDbLine
 10
-162.3825256914657
 20
227.9268462382748
 30
0.0
 11
-170.8825256914657
 21
227.9268462382748
 31
0.0
  0
LINE
  5
1AD5
330
18
100
AcDbEntity
  8
外形線
100
AcDbLine
 10
-166.8825256914657
 20
220.956691729709
 30
0.0
 11
-169.8825256914657
 21
220.956691729709
 31
0.0
  0
LINE
  5
1AD7
330
18
100
AcDbEntity
  8
外形線
100
AcDbLine
 10
-179.8825256914657
 20
225.9268462382739
 30
0.0
 11
-179.8825256914657
 21
218.231734735534
 31
0.0
  0
LINE
  5
1AD8
330
18
100
AcDbEntity
  8
外形線
100
AcDbLine
 10
-166.8825256914657
 20
221.7540403061372
 30
0.0
 11
-166.8825256914657
 21
218.231734735534
 31
0.0
  0
LINE
  5
1AD9
330
18
100
AcDbEntity
  8
外形線
100
AcDbLine
 10
-176.8825256914657
 20
223.3081162981869
 30
0.0
 11
-176.8825256914657
 21
218.231734735534
 31
0.0
  0
LINE
  5
1ADA
330
18
100
AcDbEntity
  8
外形線
100
AcDbLine
 10
-169.8825256914657
 20
223.3081162981869
 30
0.0
 11
-169.8825256914657
 21
218.231734735534
 31
0.0
  0
LINE
  5
1ADB
330
18
100
AcDbEntity
  8
外形線
100
AcDbLine
 10
-176.8825256914657
 20
220.956691729709
 30
0.0
 11
-179.8825256914657
 21
220.956691729709
 31
0.0
  0
LINE
  5
1ADC
330
18
100
AcDbEntity
  8
外形線
100
AcDbLine
 10
-176.3825256914657
 20
218.231734735534
 30
0.0
 11
-179.8825256914657
 21
218.231734735534
 31
0.0
  0
LINE
  5
1ADD
330
18
100
AcDbEntity
  8
外形線
100
AcDbLine
 10
-175.8825256914658
 20
227.9268462382748
 30
0.0
 11
-176.8825256914663
 21
227.9268462382748
 31
0.0
  0
LINE
  5
1ADE
330
18
100
AcDbEntity
  8
隠れ線2
100
AcDbLine
 10
-175.8825256914658
 20
227.9268462382748
 30
0.0
 11
-170.8825256914657
 21
227.9268462382748
 31
0.0
  0
LINE
  5
1AE0
330
18
100
AcDbEntity
  8
外形線
100
AcDbLine
 10
-176.8825256914657
 20
223.3081162981869
 30
0.0
 11
-176.8825256914657
 21
218.231734735534
 31
0.0
  0
ELLIPSE
  5
1AE2
330
18
100
AcDbEntity
  8
外形線
100
AcDbEllipse
 10
-176.8825256914657
 20
225.9268462382748
 30
0.0
 11
-3.0
 21
-0.0000000000000284
 31
0.0
210
0.0
220
0.0
230
1.0
 40
0.6666666666666666
 41
4.712388980384689
 42
6.283185307179586
  0
LINE
  5
1AE3
330
18
100
AcDbEntity
  8
外形線
100
AcDbLine
 10
-161.3825256914657
 20
203.405010803893
 30
0.0
 11
-161.3825256914657
 21
221.7540403061372
 31
0.0
  0
DIMENSION
  5
1AF1
330
18
100
AcDbEntity
  8
寸法線
100
AcDbDimension
  2
*D30
 10
-117.9512017000033
 20
323.1081162981869
 30
0.0
 11
-119.8262017000033
 21
343.6081162981869
 31
0.0
 70
    32
 71
     5
 42
-1.0
  3
STYLE3
100
AcDbAlignedDimension
 13
-78.23693164056533
 23
364.1081162981869
 33
0.0
 14
-115.4274214698325
 24
323.1081162981869
 34
0.0
 50
90.0
100
AcDbRotatedDimension
1001
ACAD
1000
DSTYLE
1002
{
1070
   271
1070
     2
1002
}
  0
DIMENSION
  5
1AFD
330
18
100
AcDbEntity
  8
寸法線
100
AcDbDimension
  2
*D31
 10
-117.9512017000033
 20
261.8081162981868
 30
0.0
 11
-119.8262017000033
 21
292.4581162981868
 31
0.0
 70
    32
 71
     5
 42
-1.0
  3
STYLE3
100
AcDbAlignedDimension
 13
-115.4274214698325
 23
323.1081162981869
 33
0.0
 14
-92.23693164056545
 24
261.8081162981868
 34
0.0
 50
90.0
100
AcDbRotatedDimension
1001
ACAD
1000
DSTYLE
1002
{
1070
    75
1070
     1
1070
   271
1070
     2
1070
   279
1070
     1
1002
}
  0
DIMENSION
  5
1B09
330
18
100
AcDbEntity
  8
寸法線
100
AcDbDimension
  2
*D32
 10
-117.9512017000033
 20
206.8081162981869
 30
0.0
 11
-119.8262017000033
 21
234.3081162981868
 31
0.0
 70
    32
 71
     5
 42
-1.0
  3
STYLE3
100
AcDbAlignedDimension
 13
-92.23693164056545
 23
261.8081162981868
 33
0.0
 14
-87.23693164056545
 24
206.8081162981869
 34
0.0
 50
90.0
100
AcDbRotatedDimension
1001
ACAD
1000
DSTYLE
1002
{
1070
    75
1070
     1
1070
   271
1070
     2
1070
   279
1070
     1
1002
}
  0
DIMENSION
  5
1B15
330
18
100
AcDbEntity
  8
寸法線
100
AcDbDimension
  2
*D33
 10
-117.9512017000033
 20
165.8081162981868
 30
0.0
 11
-119.8262017000033
 21
186.3081162981868
 31
0.0
 70
    32
 71
     5
 42
-1.0
  3
STYLE3
100
AcDbAlignedDimension
 13
-87.23693164056545
 23
206.8081162981869
 33
0.0
 14
-87.23693164056532
 24
165.8081162981868
 34
0.0
 50
90.0
100
AcDbRotatedDimension
1001
ACAD
1000
DSTYLE
1002
{
1070
    75
1070
     1
1070
   271
1070
     2
1070
   279
1070
     1
1002
}
  0
DIMENSION
  5
1B21
330
18
100
AcDbEntity
  8
寸法線
100
AcDbDimension
  2
*D34
 10
-117.9512017000033
 20
138.8081162981867
 30
0.0
 11
-119.8262017000033
 21
152.3081162981868
 31
0.0
 70
    32
 71
     5
 42
-1.0
  3
STYLE3
100
AcDbAlignedDimension
 13
-87.23693164056532
 23
165.8081162981868
 33
0.0
 14
-33.23693164056534
 24
138.8081162981867
 34
0.0
 50
90.0
100
AcDbRotatedDimension
1001
ACAD
1000
DSTYLE
1002
{
1070
    75
1070
     1
1070
   271
1070
     2
1070
   279
1070
     1
1002
}
  0
DIMENSION
  5
1B61
330
18
100
AcDbEntity
  8
寸法線
100
AcDbDimension
  2
*D35
 10
-124.2413251602872
 20
138.8081162981867
 30
0.0
 11
-126.1163251602872
 21
251.4581162981869
 31
0.0
 70
    32
 71
     5
 42
-1.0
  3
STYLE3
100
AcDbAlignedDimension
 13
-119.2012017000033
 23
364.1081162981869
 33
0.0
 14
-119.2012017000033
 24
138.8081162981867
 34
0.0
 50
90.0
100
AcDbRotatedDimension
1001
ACAD
1000
DSTYLE
1002
{
1070
   271
1070
     2
1002
}
  0
DIMENSION
  5
1B6E
330
18
100
AcDbEntity
  8
寸法線
100
AcDbDimension
  2
*D36
 10
-49.23693164056533
 20
368.0595225565832
 30
0.0
 11
-78.23693164056533
 21
369.9345225565831
 31
0.0
 70
    32
  1
φ<>
 71
     5
 42
-1.0
  3
STYLE3
100
AcDbAlignedDimension
 13
-107.2369316405653
 23
323.1081162981869
 33
0.0
 14
-49.23693164056533
 24
323.1081162981869
 34
0.0
100
AcDbRotatedDimension
1001
ACAD
1000
DSTYLE
1002
{
1070
   271
1070
     2
1002
}
  0
DIMENSION
  5
1B7B
330
18
100
AcDbEntity
  8
寸法線
100
AcDbDimension
  2
*D37
 10
-111.4869316405653
 20
374.4490606182909
 30
0.0
 11
-78.23693164056533
 21
376.3240606182909
 31
0.0
 70
    32
  1
φ<>
 71
     5
 42
-1.0
  3
STYLE3
100
AcDbAlignedDimension
 13
-44.98693164056533
 23
323.1081162981869
 33
0.0
 14
-111.4869316405653
 24
323.1081162981869
 34
0.0
100
AcDbRotatedDimension
1001
ACAD
1000
DSTYLE
1002
{
1070
   271
1070
     2
1002
}
  0
DIMENSION
  5
1B9E
330
18
100
AcDbEntity
  8
寸法線
100
AcDbDimension
  2
*D38
 10
-111.0964968586299
 20
206.8081162981869
 30
0.0
 11
-112.9714968586299
 21
210.3081162981868
 31
0.0
 70
    32
 71
     5
 42
-1.0
  3
STYLE3
100
AcDbAlignedDimension
 13
-88.23693164056534
 23
213.8081162981869
 33
0.0
 14
-104.7037220767545
 24
206.8081162981869
 34
0.0
 50
90.0
100
AcDbRotatedDimension
1001
ACAD
1000
DSTYLE
1002
{
1070
   271
1070
     2
1002
}
  0
DIMENSION
  5
1BAB
330
18
100
AcDbEntity
  8
寸法線
100
AcDbDimension
  2
*D39
 10
-68.23693164056535
 20
186.7585100045045
 30
0.0
 11
-78.23693164056535
 21
188.6335100045045
 31
0.0
 70
    32
  1
φ<>
 71
     5
 42
-1.0
  3
STYLE3
100
AcDbAlignedDimension
 13
-88.23693164056534
 23
211.3081162981868
 33
0.0
 14
-68.23693164056535
 24
211.3081162981868
 34
0.0
100
AcDbRotatedDimension
1001
ACAD
1000
DSTYLE
1002
{
1070
   271
1070
     2
1002
}
  0
LINE
  5
1BCF
330
18
100
AcDbEntity
  8
0
  6
ByBlock
 62
     2
100
AcDbLine
 10
-83.23693164056539
 20
214.1081162981869
 30
0.0
 11
-83.23693164056539
 21
208.5236426993505
 31
0.0
  0
LINE
  5
1BD0
330
18
100
AcDbEntity
  8
0
  6
ByBlock
 62
     2
100
AcDbLine
 10
-73.23693164056535
 20
214.1081162981869
 30
0.0
 11
-73.23693164056535
 21
208.5236426993505
 31
0.0
  0
LINE
  5
1BD1
330
18
100
AcDbEntity
  8
0
  6
ByBlock
 62
     2
100
AcDbLine
 10
-80.73693164056539
 20
209.7736426993505
 30
0.0
 11
-75.73693164056535
 21
209.7736426993505
 31
0.0
  0
INSERT
  5
1BD2
330
18
100
AcDbEntity
  8
0
  6
ByBlock
 62
     2
100
AcDbBlockReference
  2
_OPEN
 10
-83.23693164056539
 20
209.7736426993505
 30
0.0
 41
2.5
 42
2.5
 43
2.5
 50
180.0
  0
INSERT
  5
1BD3
330
18
100
AcDbEntity
  8
0
  6
ByBlock
 62
     2
100
AcDbBlockReference
  2
_OPEN
 10
-73.23693164056535
 20
209.7736426993505
 30
0.0
 41
2.5
 42
2.5
 43
2.5
  0
MTEXT
  5
1BD4
330
18
100
AcDbEntity
  8
0
  6
ByBlock
 62
     6
100
AcDbMText
 10
-96.69388993925888
 20
235.5220265987756
 30
0.0
 40
2.5
 41
0.0
 71
     5
 72
     1
  1
\A1;φ10
  7
STYLE3
 73
     1
 44
1.0
  0
POINT
  5
1BD5
330
18
100
AcDbEntity
  8
DEFPOINTS
  6
ByBlock
 62
     0
100
AcDbPoint
 10
-83.23693164056539
 20
214.1081162981869
 30
0.0
  0
POINT
  5
1BD6
330
18
100
AcDbEntity
  8
DEFPOINTS
  6
ByBlock
 62
     0
100
AcDbPoint
 10
-73.23693164056535
 20
214.1081162981869
 30
0.0
  0
POINT
  5
1BD7
330
18
100
AcDbEntity
  8
DEFPOINTS
  6
ByBlock
 62
     0
100
AcDbPoint
 10
-73.23693164056535
 20
209.7736426993505
 30
0.0
  0
LINE
  5
1BD8
330
18
100
AcDbEntity
  8
寸法線
100
AcDbLine
 10
-78.23693164056533
 20
209.7736426993505
 30
0.0
 11
-91.97043110940217
 21
233.7632191533313
 31
0.0
  0
LINE
  5
1BD9
330
18
100
AcDbEntity
  8
寸法線
100
AcDbLine
 10
-91.97043110940217
 20
233.7632191533313
 30
0.0
 11
-100.2217787179283
 21
233.7632191533313
 31
0.0
  0
DIMENSION
  5
1BEC
330
18
100
AcDbEntity
  8
寸法線
100
AcDbDimension
  2
*D40
 10
-75.73693164056533
 20
250.351460472706
 30
0.0
 11
-67.85002687866057
 21
252.226460472706
 31
0.0
 70
    32
  1
φ<>
 71
     5
 42
-1.0
  3
STYLE3
100
AcDbAlignedDimension
 13
-80.73693164056534
 23
251.379074985122
 33
0.0
 14
-75.73693164056533
 24
250.7918659051485
 34
0.0
100
AcDbRotatedDimension
1001
ACAD
1000
DSTYLE
1002
{
1070
   271
1070
     2
1002
}
  0
DIMENSION
  5
1C06
330
18
100
AcDbEntity
  8
寸法線
100
AcDbDimension
  2
*D41
 10
-73.23693164056533
 20
175.8690068276906
 30
0.0
 11
-78.23693164056533
 21
177.7440068276906
 31
0.0
 70
    32
  1
φ<>
 71
     5
 42
-1.0
  3
STYLE3
100
AcDbAlignedDimension
 13
-83.23693164056534
 23
176.603017351135
 33
0.0
 14
-73.23693164056533
 24
177.3370278745793
 34
0.0
100
AcDbRotatedDimension
1001
ACAD
1000
DSTYLE
1002
{
1070
   271
1070
     2
1002
}
  0
DIMENSION
  5
1C1E
330
18
100
AcDbEntity
  8
寸法線
100
AcDbDimension
  2
*D42
 10
-164.3825256914657
 20
175.5322252953275
 30
0.0
 11
-173.3825256914657
 21
177.4072252953275
 31
0.0
 70
    32
 71
     5
 42
-1.0
  3
STYLE3
100
AcDbAlignedDimension
 13
-182.3825256914657
 23
176.8534448987456
 33
0.0
 14
-164.3825256914657
 24
176.2662358187718
 34
0.0
100
AcDbRotatedDimension
1001
ACAD
1000
DSTYLE
1002
{
1070
   271
1070
     2
1002
}
  0
DIMENSION
  5
1C2B
330
18
100
AcDbEntity
  8
寸法線
100
AcDbDimension
  2
*D43
 10
-161.3825256914657
 20
126.2067110668746
 30
0.0
 11
-173.3825256914657
 21
128.0817110668746
 31
0.0
 70
    32
 71
     5
 42
-1.0
  3
STYLE3
100
AcDbAlignedDimension
 13
-185.3825256914657
 23
140.3081162981867
 33
0.0
 14
-161.3825256914657
 24
140.3081162981868
 34
0.0
100
AcDbRotatedDimension
1001
ACAD
1000
DSTYLE
1002
{
1070
   271
1070
     2
1002
}
  0
DIMENSION
  5
1C38
330
18
100
AcDbEntity
  8
寸法線
100
AcDbDimension
  2
*D44
 10
-218.2937447013984
 20
119.7228844029456
 30
0.0
 11
-173.3825256914657
 21
121.5978844029456
 31
0.0
 70
    32
  1
90
 71
     5
 42
-1.0
  3
STYLE3
100
AcDbAlignedDimension
 13
-128.471306681533
 23
140.9360230404431
 33
0.0
 14
-218.2937447013984
 24
140.9360230404431
 34
0.0
100
AcDbRotatedDimension
1001
ACAD
1000
DSTYLE
1002
{
1070
   271
1070
     2
1002
}
  0
DIMENSION
  5
1C7E
330
18
100
AcDbEntity
  8
寸法線
100
AcDbDimension
  2
*D45
 10
-78.23693164056533
 20
120.2682482940441
 30
0.0
 11
216.7630683594347
 21
122.1432482940441
 31
0.0
 70
    32
 71
     5
 42
-1.0
  3
STYLE3
100
AcDbAlignedDimension
 13
511.7630683594346
 23
126.0929214083148
 33
0.0
 14
-78.23693164056533
 24
126.0929214083148
 34
0.0
100
AcDbRotatedDimension
1001
ACAD
1000
DSTYLE
1002
{
1070
   271
1070
     2
1002
}
  0
TEXT
  5
1CEE
330
18
100
AcDbEntity
  8
文字
100
AcDbText
 10
57.15818128395734
 20
413.2801010594257
 30
0.0
 40
5.0
  1
Model No.K-3 Dial Sheet Gauge
  7
STYLE3
100
AcDbText
  0
LINE
  5
1CEF
330
18
100
AcDbEntity
  8
外形線
100
AcDbLine
 10
56.00834428395733
 20
409.6747070594258
 30
0.0
 11
176.0083442839573
 21
409.6747070594258
 31
0.0
  0
LINE
  5
1CF0
330
18
100
AcDbEntity
  8
外形線
100
AcDbLine
 10
56.00834428395733
 20
408.6747070594257
 30
0.0
 11
176.0083442839573
 21
408.6747070594257
 31
0.0
  0
LINE
  5
1CF1
330
18
100
AcDbEntity
  8
外形線
100
AcDbLine
 10
388.3373237001624
 20
111.6143456032138
 30
0.0
 11
529.1287417001624
 21
111.6143456032138
 31
0.0
  0
LINE
  5
1CF2
330
18
100
AcDbEntity
  8
外形線
100
AcDbLine
 10
388.3373237001624
 20
100.8341406032138
 30
0.0
 11
529.1287417001624
 21
100.8341406032138
 31
0.0
  0
LINE
  5
1CF3
330
18
100
AcDbEntity
  8
外形線
100
AcDbLine
 10
388.3373237001624
 20
91.21936260321385
 30
0.0
 11
388.3373237001624
 21
111.6143456032138
 31
0.0
  0
TEXT
  5
1CF4
330
18
100
AcDbEntity
  8
0
  6
Continuous
100
AcDbText
 10
492.5835327001624
 20
92.96750360321384
 30
0.0
 40
2.1
  1
OZAKI MFG. CO., LTD.
  7
STYLE3
100
AcDbText
  0
TEXT
  5
1CF5
330
18
100
AcDbEntity
  8
0
  6
Continuous
100
AcDbText
 10
491.7090537001624
 20
96.75514260321385
 30
0.0
 40
3.0
  1
株式会社　尾崎製作所
  7
STYLE3
100
AcDbText
  0
TEXT
  5
1CF6
330
18
100
AcDbEntity
  8
0
  6
Continuous
100
AcDbText
 10
389.7947917001625
 20
102.7321306032138
 30
0.0
 40
2.1
  1
Design and specifications are subject to change without notice for future improvement.
  7
STYLE3
100
AcDbText
  0
TEXT
  5
1CF7
330
18
100
AcDbEntity
  8
0
  6
Continuous
100
AcDbText
 10
390.0862857001624
 20
106.6612786032138
 30
0.0
 40
3.5
  1
仕様及び外観は予告なく変更される場合がございますのでご了承下さい。
  7
STYLE3
100
AcDbText
  0
TEXT
  5
1CF8
330
18
100
AcDbEntity
  8
0
  6
Continuous
100
AcDbText
 10
442.3834167001624
 20
96.17838260321384
 30
0.0
 40
3.0
  1
尺 度
  7
STYLE3
100
AcDbText
  0
TEXT
  5
1CF9
330
18
100
AcDbEntity
  8
0
  6
Continuous
100
AcDbText
 10
442.8466317001624
 20
93.25886060321385
 30
0.0
 40
2.1
  1
Scale
  7
STYLE3
100
AcDbText
  0
TEXT
  5
1CFA
330
18
100
AcDbEntity
  8
0
  6
Continuous
100
AcDbText
 10
389.5032997001625
 20
92.96750260321383
 30
0.0
 40
2.1
  1
3RD Angle Projection
  7
STYLE3
100
AcDbText
  0
TEXT
  5
1CFB
330
18
100
AcDbEntity
  8
0
  6
Continuous
100
AcDbText
 10
392.1267427001624
 20
96.46378560321386
 30
0.0
 40
3.0
  1
三　　角　　法
  7
STYLE3
100
AcDbText
  0
LINE
  5
1CFC
330
18
100
AcDbEntity
  8
外形線
100
AcDbLine
 10
441.0976687001624
 20
100.8341406032138
 30
0.0
 11
441.0976687001624
 21
91.21936260321385
 31
0.0
  0
TEXT
  5
1CFD
330
18
100
AcDbEntity
  8
0
  6
Continuous
100
AcDbText
 10
425.0655207001624
 20
96.46974060321383
 30
0.0
 40
3.0
  1
単位
  7
STYLE3
100
AcDbText
  0
LINE
  5
1CFE
330
18
100
AcDbEntity
  8
外形線
100
AcDbLine
 10
423.6080517001624
 20
100.8341406032138
 30
0.0
 11
423.6080517001624
 21
91.21936260321385
 31
0.0
  0
TEXT
  5
1CFF
330
18
100
AcDbEntity
  8
0
  6
Continuous
100
AcDbText
 10
425.2372417001624
 20
92.96750360321384
 30
0.0
 40
2.1
  1
Unit
  7
STYLE3
100
AcDbText
  0
TEXT
  5
1D00
330
18
100
AcDbEntity
  8
0
  6
Continuous
100
AcDbText
 10
433.1075687001624
 20
94.71564660321384
 30
0.0
 40
2.399999999999999
  1
mm
  7
STYLE3
100
AcDbText
  0
TEXT
  5
1D01
330
18
100
AcDbEntity
  8
0
  6
Continuous
100
AcDbText
 10
471.3044997001624
 20
94.71564460321385
 30
0.0
 40
2.1
  1
2010.06.16
  7
STYLE3
100
AcDbText
  0
LINE
  5
1D02
330
18
100
AcDbEntity
  8
外形線
100
AcDbLine
 10
460.6277417001623
 20
100.8341406032138
 30
0.0
 11
460.6277417001623
 21
91.21936260321385
 31
0.0
  0
TEXT
  5
1D03
330
18
100
AcDbEntity
  8
0
  6
Continuous
100
AcDbText
 10
452.4659207001624
 20
95.00700360321383
 30
0.0
 40
2.399999999999999
  1
1/1
  7
STYLE3
100
AcDbText
  0
TEXT
  5
1D04
330
18
100
AcDbEntity
  8
0
  6
Continuous
100
AcDbText
 10
462.1763317001624
 20
96.30058760321384
 30
0.0
 40
3.0
  1
日 付
  7
STYLE3
100
AcDbText
  0
TEXT
  5
1D05
330
18
100
AcDbEntity
  8
0
  6
Continuous
100
AcDbText
 10
462.5596927001624
 20
92.96750460321383
 30
0.0
 40
2.1
  1
Date
  7
STYLE3
100
AcDbText
  0
LINE
  5
1D06
330
18
100
AcDbEntity
  8
外形線
100
AcDbLine
 10
490.3600907001623
 20
100.8341406032138
 30
0.0
 11
490.3600907001623
 21
91.21936260321385
 31
0.0
  0
ENDSEC
  0
SECTION
  2
OBJECTS
  0
DICTIONARY
  5
C
330
0
100
AcDbDictionary
281
     1
  3
ACAD_COLOR
350
1CAB
  3
ACAD_GROUP
350
D
  3
ACAD_LAYOUT
350
1CAC
  3
ACAD_MATERIAL
350
1CAA
  3
ACAD_MLINESTYLE
350
1B
  3
ACAD_PLOTSETTINGS
350
1CAD
  3
ACAD_PLOTSTYLENAME
350
1CA8
  3
ACDBVARIABLEDICTIONARY
350
7CB
  0
DICTIONARY
  5
1CAB
102
{ACAD_REACTORS
330
C
102
}
330
C
100
AcDbDictionary
281
     1
  0
DICTIONARY
  5
D
102
{ACAD_REACTORS
330
C
102
}
330
C
100
AcDbDictionary
281
     1
  0
DICTIONARY
  5
1CAC
102
{ACAD_REACTORS
330
C
102
}
330
C
100
AcDbDictionary
281
     1
  3
Model
350
1CAE
  3
レイアウト1
350
1CAF
  0
DICTIONARY
  5
1CAA
102
{ACAD_REACTORS
330
C
102
}
330
C
100
AcDbDictionary
281
     1
  0
DICTIONARY
  5
1B
102
{ACAD_REACTORS
330
C
102
}
330
C
100
AcDbDictionary
281
     1
  3
STANDARD
350
1C
  0
DICTIONARY
  5
1CAD
102
{ACAD_REACTORS
330
C
102
}
330
C
100
AcDbDictionary
281
     1
  0
ACDBDICTIONARYWDFLT
  5
1CA8
102
{ACAD_REACTORS
330
C
102
}
330
C
100
AcDbDictionary
281
     1
  3
Normal
350
1CA9
100
AcDbDictionaryWithDefault
340
1CA9
  0
DICTIONARY
  5
7CB
102
{ACAD_REACTORS
330
C
102
}
330
C
100
AcDbDictionary
281
     1
  3
SORTENTS
350
7CC
  0
LAYOUT
  5
1CAE
102
{ACAD_REACTORS
330
1CAC
102
}
330
1CAC
100
AcDbPlotSettings
  1

  2
EPSON PX-101
  4

  6

 40
0.0
 41
0.0
 42
0.0
 43
0.0
 44
0.0
 45
0.0
 46
0.0
 47
0.0
 48
0.0
 49
0.0
140
0.0
141
0.0
142
1.0
143
1.0
 70
  1712
 72
     0
 73
     0
 74
     0
  7
AutoCad LT 98fukui.ctb
 75
     0
147
1.0
 76
     0
 77
     2
 78
   300
148
0.0
149
0.0
100
AcDbLayout
  1
Model
 70
     1
 71
     0
 10
0.0
 20
0.0
 11
12.0
 21
9.0
 12
0.0
 22
0.0
 32
0.0
 14
0.0
 24
0.0
 34
0.0
 15
0.0
 25
0.0
 35
0.0
146
0.0
 13
0.0
 23
0.0
 33
0.0
 16
1.0
 26
0.0
 36
0.0
 17
0.0
 27
1.0
 37
0.0
 76
     0
330
18
  0
LAYOUT
  5
1CAF
102
{ACAD_REACTORS
330
1CAC
102
}
330
1CAC
100
AcDbPlotSettings
  1

  2
EPSON PX-101
  4

  6

 40
0.0
 41
0.0
 42
0.0
 43
0.0
 44
0.0
 45
0.0
 46
0.0
 47
0.0
 48
0.0
 49
0.0
140
0.0
141
0.0
142
1.0
143
1.0
 70
   688
 72
     0
 73
     0
 74
     5
  7
AutoCad LT 98fukui.ctb
 75
    16
147
1.0
 76
     0
 77
     2
 78
   300
148
0.0
149
0.0
100
AcDbLayout
  1
レイアウト1
 70
     1
 71
     1
 10
0.0
 20
0.0
 11
420.0
 21
297.0
 12
0.0
 22
0.0
 32
0.0
 14
1.000000000000000E+20
 24
1.000000000000000E+20
 34
1.000000000000000E+20
 15
-1.000000000000000E+20
 25
-1.000000000000000E+20
 35
-1.000000000000000E+20
146
0.0
 13
0.0
 23
0.0
 33
0.0
 16
1.0
 26
0.0
 36
0.0
 17
0.0
 27
1.0
 37
0.0
 76
     0
330
15
  0
MLINESTYLE
  5
1C
102
{ACAD_REACTORS
330
1B
102
}
330
1B
100
AcDbMlineStyle
  2
STANDARD
 70
     0
  3

 62
   256
 51
90.0
 52
90.0
 71
     2
 49
0.5
 62
   256
  6
BYLAYER
 49
-0.5
 62
   256
  6
BYLAYER
  0
ACDBPLACEHOLDER
  5
1CA9
102
{ACAD_REACTORS
330
1CA8
102
}
330
1CA8
  0
DICTIONARYVAR
  5
7CC
102
{ACAD_REACTORS
330
7CB
102
}
330
7CB
100
DictionaryVariables
280
     0
  1
96
  0
ENDSEC
  0
EOF
