  0
SECTION
  2
HEADER
  9
$ACADVER
  1
AC1018
  9
$ACADMAINTVER
 70
     0
  9
$DWGCODEPAGE
  3
ANSI_932
  9
$INSBASE
 10
0.0
 20
0.0
 30
0.0
  9
$EXTMIN
 10
-228.5831558841076
 20
48.55238514186351
 30
-0.0001525820700365
  9
$EXTMAX
 10
530.1183515022814
 20
455.6818203637653
 30
1.000061039812933
  9
$LIMMIN
 10
0.0
 20
0.0
  9
$LIMMAX
 10
420.0
 20
297.0
  9
$ORTHOMODE
 70
     0
  9
$REGENMODE
 70
     1
  9
$FILLMODE
 70
     1
  9
$QTEXTMODE
 70
     0
  9
$MIRRTEXT
 70
     1
  9
$LTSCALE
 40
1.0
  9
$ATTMODE
 70
     1
  9
$TEXTSIZE
 40
2.5
  9
$TRACEWID
 40
1.0
  9
$TEXTSTYLE
  7
STYLE3
  9
$CLAYER
  8
寸法線
  9
$CELTYPE
  6
BYLAYER
  9
$CECOLOR
 62
   256
  9
$CELTSCALE
 40
1.0
  9
$DISPSILH
 70
     0
  9
$DIMSCALE
 40
1.0
  9
$DIMASZ
 40
2.5
  9
$DIMEXO
 40
0.0
  9
$DIMDLI
 40
3.75
  9
$DIMRND
 40
0.0
  9
$DIMDLE
 40
0.0
  9
$DIMEXE
 40
1.25
  9
$DIMTP
 40
0.0
  9
$DIMTM
 40
0.0
  9
$DIMTXT
 40
2.5
  9
$DIMCEN
 40
2.5
  9
$DIMTSZ
 40
0.0
  9
$DIMTOL
 70
     0
  9
$DIMLIM
 70
     0
  9
$DIMTIH
 70
     0
  9
$DIMTOH
 70
     0
  9
$DIMSE1
 70
     0
  9
$DIMSE2
 70
     0
  9
$DIMTAD
 70
     1
  9
$DIMZIN
 70
     8
  9
$DIMBLK
  1

  9
$DIMASO
 70
     1
  9
$DIMSHO
 70
     1
  9
$DIMPOST
  1

  9
$DIMAPOST
  1

  9
$DIMALT
 70
     0
  9
$DIMALTD
 70
     4
  9
$DIMALTF
 40
0.0394
  9
$DIMLFAC
 40
1.0
  9
$DIMTOFL
 70
     1
  9
$DIMTVP
 40
0.0
  9
$DIMTIX
 70
     0
  9
$DIMSOXD
 70
     0
  9
$DIMSAH
 70
     1
  9
$DIMBLK1
  1
OPEN
  9
$DIMBLK2
  1
OPEN
  9
$DIMSTYLE
  2
STYLE3
  9
$DIMCLRD
 70
     2
  9
$DIMCLRE
 70
     2
  9
$DIMCLRT
 70
     6
  9
$DIMTFAC
 40
1.0
  9
$DIMGAP
 40
0.625
  9
$DIMJUST
 70
     0
  9
$DIMSD1
 70
     0
  9
$DIMSD2
 70
     0
  9
$DIMTOLJ
 70
     1
  9
$DIMTZIN
 70
     0
  9
$DIMALTZ
 70
     0
  9
$DIMALTTZ
 70
     0
  9
$DIMUPT
 70
     0
  9
$DIMDEC
 70
     2
  9
$DIMTDEC
 70
     4
  9
$DIMALTU
 70
     8
  9
$DIMALTTD
 70
     4
  9
$DIMTXSTY
  7
STYLE3
  9
$DIMAUNIT
 70
     0
  9
$DIMADEC
 70
     0
  9
$DIMALTRND
 40
0.0
  9
$DIMAZIN
 70
     0
  9
$DIMDSEP
 70
    46
  9
$DIMATFIT
 70
     3
  9
$DIMFRAC
 70
     0
  9
$DIMLDRBLK
  1

  9
$DIMLUNIT
 70
     2
  9
$DIMLWD
 70
    -2
  9
$DIMLWE
 70
    -2
  9
$DIMTMOVE
 70
     0
  9
$LUNITS
 70
     2
  9
$LUPREC
 70
     4
  9
$SKETCHINC
 40
1.0
  9
$FILLETRAD
 40
1.0
  9
$AUNITS
 70
     0
  9
$AUPREC
 70
     0
  9
$MENU
  1
.
  9
$ELEVATION
 40
0.0
  9
$PELEVATION
 40
0.0
  9
$THICKNESS
 40
0.0
  9
$LIMCHECK
 70
     0
  9
$CHAMFERA
 40
0.5
  9
$CHAMFERB
 40
0.5
  9
$CHAMFERC
 40
20.0
  9
$CHAMFERD
 40
0.0
  9
$SKPOLY
 70
     0
  9
$TDCREATE
 40
2451675.596150694
  9
$TDUCREATE
 40
2451675.221150694
  9
$TDUPDATE
 40
2455364.454268113
  9
$TDUUPDATE
 40
2455364.079268113
  9
$TDINDWG
 40
1.6225133565
  9
$TDUSRTIMER
 40
1.6225133565
  9
$USRTIMER
 70
     1
  9
$ANGBASE
 50
0.0
  9
$ANGDIR
 70
     0
  9
$PDMODE
 70
     0
  9
$PDSIZE
 40
0.0
  9
$PLINEWID
 40
0.0
  9
$SPLFRAME
 70
     0
  9
$SPLINETYPE
 70
     6
  9
$SPLINESEGS
 70
     8
  9
$HANDSEED
  5
235A
  9
$SURFTAB1
 70
     6
  9
$SURFTAB2
 70
     6
  9
$SURFTYPE
 70
     6
  9
$SURFU
 70
     6
  9
$SURFV
 70
     6
  9
$UCSBASE
  2

  9
$UCSNAME
  2

  9
$UCSORG
 10
0.0
 20
0.0
 30
0.0
  9
$UCSXDIR
 10
1.0
 20
0.0
 30
0.0
  9
$UCSYDIR
 10
0.0
 20
1.0
 30
0.0
  9
$UCSORTHOREF
  2

  9
$UCSORTHOVIEW
 70
     0
  9
$UCSORGTOP
 10
0.0
 20
0.0
 30
0.0
  9
$UCSORGBOTTOM
 10
0.0
 20
0.0
 30
0.0
  9
$UCSORGLEFT
 10
0.0
 20
0.0
 30
0.0
  9
$UCSORGRIGHT
 10
0.0
 20
0.0
 30
0.0
  9
$UCSORGFRONT
 10
0.0
 20
0.0
 30
0.0
  9
$UCSORGBACK
 10
0.0
 20
0.0
 30
0.0
  9
$PUCSBASE
  2

  9
$PUCSNAME
  2

  9
$PUCSORG
 10
0.0
 20
0.0
 30
0.0
  9
$PUCSXDIR
 10
1.0
 20
0.0
 30
0.0
  9
$PUCSYDIR
 10
0.0
 20
1.0
 30
0.0
  9
$PUCSORTHOREF
  2

  9
$PUCSORTHOVIEW
 70
     0
  9
$PUCSORGTOP
 10
0.0
 20
0.0
 30
0.0
  9
$PUCSORGBOTTOM
 10
0.0
 20
0.0
 30
0.0
  9
$PUCSORGLEFT
 10
0.0
 20
0.0
 30
0.0
  9
$PUCSORGRIGHT
 10
0.0
 20
0.0
 30
0.0
  9
$PUCSORGFRONT
 10
0.0
 20
0.0
 30
0.0
  9
$PUCSORGBACK
 10
0.0
 20
0.0
 30
0.0
  9
$USERI1
 70
     0
  9
$USERI2
 70
     0
  9
$USERI3
 70
     0
  9
$USERI4
 70
     0
  9
$USERI5
 70
     0
  9
$USERR1
 40
0.0
  9
$USERR2
 40
0.0
  9
$USERR3
 40
0.0
  9
$USERR4
 40
0.0
  9
$USERR5
 40
0.0
  9
$WORLDVIEW
 70
     1
  9
$SHADEDGE
 70
     3
  9
$SHADEDIF
 70
    70
  9
$TILEMODE
 70
     1
  9
$MAXACTVP
 70
    48
  9
$PINSBASE
 10
0.0
 20
0.0
 30
0.0
  9
$PLIMCHECK
 70
     0
  9
$PEXTMIN
 10
1.000000000000000E+20
 20
1.000000000000000E+20
 30
1.000000000000000E+20
  9
$PEXTMAX
 10
-1.000000000000000E+20
 20
-1.000000000000000E+20
 30
-1.000000000000000E+20
  9
$PLIMMIN
 10
0.0
 20
0.0
  9
$PLIMMAX
 10
420.0
 20
297.0
  9
$UNITMODE
 70
     0
  9
$VISRETAIN
 70
     1
  9
$PLINEGEN
 70
     0
  9
$PSLTSCALE
 70
     1
  9
$TREEDEPTH
 70
  3020
  9
$CMLSTYLE
  2
STANDARD
  9
$CMLJUST
 70
     0
  9
$CMLSCALE
 40
20.0
  9
$PROXYGRAPHICS
 70
     1
  9
$MEASUREMENT
 70
     1
  9
$CELWEIGHT
370
    -1
  9
$ENDCAPS
280
     0
  9
$JOINSTYLE
280
     0
  9
$LWDISPLAY
290
     0
  9
$INSUNITS
 70
     0
  9
$HYPERLINKBASE
  1

  9
$STYLESHEET
  1

  9
$XEDIT
290
     1
  9
$CEPSNTYPE
380
     0
  9
$PSTYLEMODE
290
     1
  9
$FINGERPRINTGUID
  2
{C676A624-63AE-4270-98DA-51CD39793116}
  9
$VERSIONGUID
  2
{ACAE667D-D6A8-4543-A07A-1FF2FAE0ADB9}
  9
$EXTNAMES
290
     1
  9
$PSVPSCALE
 40
0.0
  9
$OLESTARTUP
290
     0
  9
$SORTENTS
280
    96
  9
$INDEXCTL
280
     0
  9
$HIDETEXT
280
     0
  9
$XCLIPFRAME
290
     0
  9
$HALOGAP
280
     0
  9
$OBSCOLOR
 70
   257
  9
$OBSLTYPE
280
     0
  9
$INTERSECTIONDISPLAY
280
     0
  9
$INTERSECTIONCOLOR
 70
   257
  9
$DIMASSOC
280
     1
  9
$PROJECTNAME
  1

  0
ENDSEC
  0
SECTION
  2
CLASSES
  0
CLASS
  1
LWPOLYLINE
  2
AcDbPolyline
  3
ObjectDBX Classes
 90
        0
 91
       11
280
     0
281
     1
  0
CLASS
  1
DICTIONARYVAR
  2
AcDbDictionaryVar
  3
ObjectDBX Classes
 90
        0
 91
        2
280
     0
281
     0
  0
CLASS
  1
HATCH
  2
AcDbHatch
  3
ObjectDBX Classes
 90
        0
 91
       39
280
     0
281
     1
  0
CLASS
  1
ACDBDICTIONARYWDFLT
  2
AcDbDictionaryWithDefault
  3
ObjectDBX Classes
 90
        0
 91
        1
280
     0
281
     0
  0
CLASS
  1
TABLESTYLE
  2
AcDbTableStyle
  3
ObjectDBX Classes
 90
     2047
 91
        1
280
     0
281
     0
  0
CLASS
  1
SORTENTSTABLE
  2
AcDbSortentsTable
  3
ObjectDBX Classes
 90
        0
 91
        1
280
     0
281
     0
  0
ENDSEC
  0
SECTION
  2
TABLES
  0
TABLE
  2
VPORT
  5
8
330
0
100
AcDbSymbolTable
 70
     2
  0
VPORT
  5
2359
330
8
100
AcDbSymbolTableRecord
100
AcDbViewportTableRecord
  2
*Active
 70
     0
 10
0.0
 20
0.0
 11
1.0
 21
1.0
 12
150.7675978090869
 22
252.1171027528144
 13
0.0
 23
0.0
 14
10.0
 24
10.0
 15
10.0
 25
10.0
 16
0.0
 26
0.0
 36
1.0
 17
0.0
 27
0.0
 37
0.0
 40
498.1985322138368
 41
1.530456852791878
 42
50.0
 43
0.0
 44
0.0
 50
0.0
 51
0.0
 71
     0
 72
   100
 73
     1
 74
     1
 75
     0
 76
     0
 77
     0
 78
     0
281
     0
 65
     1
110
0.0
120
0.0
130
0.0
111
1.0
121
0.0
131
0.0
112
0.0
122
1.0
132
0.0
 79
     0
146
0.0
  0
ENDTAB
  0
TABLE
  2
LTYPE
  5
5
330
0
100
AcDbSymbolTable
 70
    12
  0
LTYPE
  5
12
330
5
100
AcDbSymbolTableRecord
100
AcDbLinetypeTableRecord
  2
BYBLOCK
 70
     0
  3

 72
    65
 73
     0
 40
0.0
  0
LTYPE
  5
13
330
5
100
AcDbSymbolTableRecord
100
AcDbLinetypeTableRecord
  2
BYLAYER
 70
     0
  3

 72
    65
 73
     0
 40
0.0
  0
LTYPE
  5
14
330
5
100
AcDbSymbolTableRecord
100
AcDbLinetypeTableRecord
  2
CONTINUOUS
 70
     0
  3
Solid line
 72
    65
 73
     0
 40
0.0
  0
LTYPE
  5
22
330
5
100
AcDbSymbolTableRecord
100
AcDbLinetypeTableRecord
  2
CENTER2
 70
     0
  3
Center (.5x) ___ _ ___ _ ___ _ ___ _ ___ _ ___
 72
    65
 73
     4
 40
28.575
 49
19.05
 74
     0
 49
-3.174999999999999
 74
     0
 49
3.174999999999999
 74
     0
 49
-3.174999999999999
 74
     0
  0
LTYPE
  5
23
330
5
100
AcDbSymbolTableRecord
100
AcDbLinetypeTableRecord
  2
HIDDEN2
 70
     0
  3
Hidden (.5x) _ _ _ _ _ _ _ _ _ _ _ _ _ _ _ _ _
 72
    65
 73
     2
 40
4.762499999999999
 49
3.174999999999999
 74
     0
 49
-1.587499999999999
 74
     0
  0
LTYPE
  5
24
330
5
100
AcDbSymbolTableRecord
100
AcDbLinetypeTableRecord
  2
PHANTOM2
 70
     0
  3
Phantom (.5x) ___ _ _ ___ _ _ ___ _ _ ___ _ _
 72
    65
 73
     6
 40
31.75
 49
15.875
 74
     0
 49
-3.174999999999999
 74
     0
 49
3.174999999999999
 74
     0
 49
-3.174999999999999
 74
     0
 49
3.174999999999999
 74
     0
 49
-3.174999999999999
 74
     0
  0
ENDTAB
  0
TABLE
  2
LAYER
  5
2
330
0
100
AcDbSymbolTable
 70
    16
  0
LAYER
  5
E
330
2
100
AcDbSymbolTableRecord
100
AcDbLayerTableRecord
  2
0
 70
     0
 62
     7
  6
CONTINUOUS
370
    -3
390
2230
  0
LAYER
  5
25
330
2
100
AcDbSymbolTableRecord
100
AcDbLayerTableRecord
  2
外形線
 70
     0
 62
     7
  6
CONTINUOUS
370
    -3
390
2230
  0
LAYER
  5
26
330
2
100
AcDbSymbolTableRecord
100
AcDbLayerTableRecord
  2
寸法線
 70
     0
 62
     2
  6
CONTINUOUS
370
    -3
390
2230
  0
LAYER
  5
27
330
2
100
AcDbSymbolTableRecord
100
AcDbLayerTableRecord
  2
中心線
 70
     0
 62
     4
  6
CENTER2
370
    -3
390
2230
  0
LAYER
  5
29
330
2
100
AcDbSymbolTableRecord
100
AcDbLayerTableRecord
  2
想像線
 70
     0
 62
     1
  6
PHANTOM2
370
    -3
390
2230
  0
LAYER
  5
2B
330
2
100
AcDbSymbolTableRecord
100
AcDbLayerTableRecord
  2
文字
 70
     0
 62
     6
  6
CONTINUOUS
370
    -3
390
2230
  0
LAYER
  5
2C
330
2
100
AcDbSymbolTableRecord
100
AcDbLayerTableRecord
  2
目盛
 70
     0
 62
    72
  6
CONTINUOUS
370
    -3
390
2230
  0
LAYER
  5
2D
330
2
100
AcDbSymbolTableRecord
100
AcDbLayerTableRecord
  2
針
 70
     0
 62
     5
  6
CONTINUOUS
370
    -3
390
2230
  0
LAYER
  5
53
330
2
100
AcDbSymbolTableRecord
100
AcDbLayerTableRecord
  2
DEFPOINTS
 70
     0
 62
     7
  6
CONTINUOUS
290
     0
370
    -3
390
2230
  0
LAYER
  5
A5
330
2
100
AcDbSymbolTableRecord
100
AcDbLayerTableRecord
  2
C
 70
     0
 62
     7
  6
CONTINUOUS
370
    -3
390
2230
  0
LAYER
  5
697
330
2
100
AcDbSymbolTableRecord
100
AcDbLayerTableRecord
  2
隠れ線2
 70
     0
 62
     1
  6
HIDDEN2
370
    -3
390
2230
  0
LAYER
  5
C51
330
2
100
AcDbSymbolTableRecord
100
AcDbLayerTableRecord
  2
ROGO
 70
     0
 62
     6
  6
CONTINUOUS
370
    -3
390
2230
  0
ENDTAB
  0
TABLE
  2
STYLE
  5
3
330
0
100
AcDbSymbolTable
 70
     6
  0
STYLE
  5
F
330
3
100
AcDbSymbolTableRecord
100
AcDbTextStyleTableRecord
  2
STANDARD
 70
     0
 40
0.0
 41
1.0
 50
0.0
 71
     0
 42
2.5
  3
txt
  4

  0
STYLE
  5
3F
330
3
100
AcDbSymbolTableRecord
100
AcDbTextStyleTableRecord
  2
STYLE3
 70
     0
 40
0.0
 41
1.0
 50
0.0
 71
     0
 42
2.5
  3
romans.shx
  4
bigfont.shx
  0
ENDTAB
  0
TABLE
  2
VIEW
  5
6
330
0
100
AcDbSymbolTable
 70
     0
  0
ENDTAB
  0
TABLE
  2
UCS
  5
7
330
0
100
AcDbSymbolTable
 70
     0
  0
ENDTAB
  0
TABLE
  2
APPID
  5
9
330
0
100
AcDbSymbolTable
 70
     2
  0
APPID
  5
10
330
9
100
AcDbSymbolTableRecord
100
AcDbRegAppTableRecord
  2
ACAD
 70
     0
  0
APPID
  5
22FB
330
9
100
AcDbSymbolTableRecord
100
AcDbRegAppTableRecord
  2
ACAD_PSEXT
 70
     0
  0
ENDTAB
  0
TABLE
  2
DIMSTYLE
  5
A
330
0
100
AcDbSymbolTable
 70
     4
100
AcDbDimStyleTable
 71
     0
  0
DIMSTYLE
105
1D
330
A
100
AcDbSymbolTableRecord
100
AcDbDimStyleTableRecord
  2
STANDARD
 70
     0
 41
2.5
 42
0.625
 43
3.75
 44
1.25
 73
     0
 74
     0
 77
     1
 78
     8
140
2.5
141
2.5
143
0.0394
147
0.625
171
     4
172
     1
273
     8
274
     4
277
     6
340
F
  0
DIMSTYLE
105
8F
102
{ACAD_REACTORS
330
94E
330
95A
330
1A2A
330
1B15
330
1B21
330
1C1E
330
1C2B
330
1C38
330
1C7E
330
20CD
330
2145
330
2154
330
2161
330
21DA
330
2226
330
1541
330
154A
330
154B
330
154C
330
154D
330
1560
330
1561
330
1563
330
15CE
330
15CF
330
15D2
330
15D4
330
15DB
330
1D13
330
1DFB
330
208E
102
}
330
A
100
AcDbSymbolTableRecord
100
AcDbDimStyleTableRecord
  2
STYLE3
 70
     0
 41
2.5
 42
0.0
 43
3.75
 44
1.25
 73
     0
 74
     0
 77
     1
 78
     8
140
2.5
141
2.5
143
0.0394
147
0.625
171
     4
172
     1
173
     1
176
     2
177
     2
178
     6
271
     1
273
     8
274
     4
340
3F
341
45
343
45
344
45
  0
ENDTAB
  0
TABLE
  2
BLOCK_RECORD
  5
1
330
0
100
AcDbSymbolTable
 70
    49
  0
BLOCK_RECORD
  5
18
102
{ACAD_XDICTIONARY
360
2245
102
}
330
1
100
AcDbSymbolTableRecord
100
AcDbBlockTableRecord
  2
*MODEL_SPACE
340
2237
  0
BLOCK_RECORD
  5
15
330
1
100
AcDbSymbolTableRecord
100
AcDbBlockTableRecord
  2
*PAPER_SPACE
340
2238
  0
BLOCK_RECORD
  5
45
330
1
100
AcDbSymbolTableRecord
100
AcDbBlockTableRecord
  2
_OPEN
340
0
102
{BLKREFS
331
763
331
764
331
1F83
331
1F84
331
2191
331
2192
331
2197
331
2198
331
2199
331
219A
331
219B
331
21AB
331
2210
331
2211
331
C7A
331
C7D
331
C92
331
C96
331
D38
331
D49
331
D4B
331
E01
331
14B5
331
14BD
331
14BE
331
14C9
331
14CA
331
14D3
331
14D4
331
14E1
331
14EA
331
14EB
331
14F8
331
14F9
331
1504
331
150D
331
150E
331
1519
331
151A
331
1524
331
1525
331
1530
331
1531
331
153B
331
1558
331
1559
331
1562
331
157D
331
157E
331
158C
331
158F
331
1592
331
15A0
331
15A1
331
15A6
331
15B0
331
15B4
331
15B6
331
15B9
331
15BE
331
15C8
331
15CA
331
21C7
331
21C8
331
21BD
331
21BE
331
1C17
331
1C18
331
1CFD
331
1CFE
331
1D09
331
1D0A
331
1E11
331
1E13
331
2085
331
2086
331
212F
331
2130
331
213E
331
213F
331
2168
331
2169
331
215A
331
215B
331
21D3
331
21D4
331
221F
331
2220
331
2298
331
2299
331
22A0
331
22A1
331
22AB
331
22AC
331
22B5
331
22B6
331
22CC
331
22CD
331
22D5
331
22D6
102
}
  0
BLOCK_RECORD
  5
942
330
1
100
AcDbSymbolTableRecord
100
AcDbBlockTableRecord
  2
*D7
340
0
  0
BLOCK_RECORD
  5
94F
330
1
100
AcDbSymbolTableRecord
100
AcDbBlockTableRecord
  2
*D8
340
0
  0
BLOCK_RECORD
  5
1A1E
330
1
100
AcDbSymbolTableRecord
100
AcDbBlockTableRecord
  2
*D29
340
0
  0
BLOCK_RECORD
  5
1B0A
330
1
100
AcDbSymbolTableRecord
100
AcDbBlockTableRecord
  2
*D30
340
0
  0
BLOCK_RECORD
  5
1B16
330
1
100
AcDbSymbolTableRecord
100
AcDbBlockTableRecord
  2
*D31
340
0
  0
BLOCK_RECORD
  5
1C12
330
1
100
AcDbSymbolTableRecord
100
AcDbBlockTableRecord
  2
*D32
340
0
  0
BLOCK_RECORD
  5
1C1F
330
1
100
AcDbSymbolTableRecord
100
AcDbBlockTableRecord
  2
*D33
340
0
  0
BLOCK_RECORD
  5
1C2C
330
1
100
AcDbSymbolTableRecord
100
AcDbBlockTableRecord
  2
*D34
340
0
  0
BLOCK_RECORD
  5
1C72
330
1
100
AcDbSymbolTableRecord
100
AcDbBlockTableRecord
  2
*D35
340
0
  0
BLOCK_RECORD
  5
1CA4
330
1
100
AcDbSymbolTableRecord
100
AcDbBlockTableRecord
  2
ROGO
340
0
102
{BLKREFS
331
1E34
331
1D15
102
}
  0
BLOCK_RECORD
  5
2109
330
1
100
AcDbSymbolTableRecord
100
AcDbBlockTableRecord
  2
*D42
340
0
  0
BLOCK_RECORD
  5
2137
330
1
100
AcDbSymbolTableRecord
100
AcDbBlockTableRecord
  2
*D43
340
0
  0
BLOCK_RECORD
  5
2146
330
1
100
AcDbSymbolTableRecord
100
AcDbBlockTableRecord
  2
*D44
340
0
  0
BLOCK_RECORD
  5
2155
330
1
100
AcDbSymbolTableRecord
100
AcDbBlockTableRecord
  2
*D45
340
0
  0
BLOCK_RECORD
  5
21CE
330
1
100
AcDbSymbolTableRecord
100
AcDbBlockTableRecord
  2
*D46
340
0
  0
BLOCK_RECORD
  5
2218
330
1
100
AcDbSymbolTableRecord
100
AcDbBlockTableRecord
  2
*D47
340
0
  0
ENDTAB
  0
ENDSEC
  0
SECTION
  2
BLOCKS
  0
BLOCK
  5
19
330
18
100
AcDbEntity
  8
0
100
AcDbBlockBegin
  2
*MODEL_SPACE
 70
     0
 10
0.0
 20
0.0
 30
0.0
  3
*MODEL_SPACE
  1

  0
ENDBLK
  5
1A
330
18
100
AcDbEntity
  8
0
100
AcDbBlockEnd
  0
BLOCK
  5
16
330
15
100
AcDbEntity
 67
     1
  8
0
100
AcDbBlockBegin
  2
*PAPER_SPACE
 70
     0
 10
0.0
 20
0.0
 30
0.0
  3
*PAPER_SPACE
  1

  0
ENDBLK
  5
17
330
15
100
AcDbEntity
 67
     1
  8
0
100
AcDbBlockEnd
  0
BLOCK
  5
46
330
45
100
AcDbEntity
  8
0
100
AcDbBlockBegin
  2
_OPEN
 70
     0
 10
0.0
 20
0.0
 30
0.0
  3
_OPEN
  1

  0
LINE
  5
47
330
45
100
AcDbEntity
  8
0
  6
ByBlock
 62
     0
100
AcDbLine
 10
-1.0
 20
0.1666666666666666
 30
0.0
 11
0.0
 21
0.0
 31
0.0
  0
LINE
  5
48
330
45
100
AcDbEntity
  8
0
  6
ByBlock
 62
     0
100
AcDbLine
 10
0.0
 20
0.0
 30
0.0
 11
-1.0
 21
-0.1666666666666666
 31
0.0
  0
LINE
  5
49
330
45
100
AcDbEntity
  8
0
  6
ByBlock
 62
     0
100
AcDbLine
 10
0.0
 20
0.0
 30
0.0
 11
-1.0
 21
0.0
 31
0.0
  0
ENDBLK
  5
4A
330
45
100
AcDbEntity
  8
0
100
AcDbBlockEnd
  0
BLOCK
  5
B2D
330
942
100
AcDbEntity
  8
0
100
AcDbBlockBegin
  2
*D7
 70
     1
 10
0.0
 20
0.0
 30
0.0
  3
*D7
  1

  0
LINE
  5
2295
330
942
100
AcDbEntity
  8
寸法線
 62
     2
370
    -2
100
AcDbLine
 10
-78.23693164056533
 20
162.5852107481416
 30
0.0
 11
-78.23693164056533
 21
111.5675920389264
 31
0.0
  0
LINE
  5
2296
330
942
100
AcDbEntity
  8
寸法線
 62
     2
370
    -2
100
AcDbLine
 10
427.7630683594346
 20
234.3081162981867
 30
0.0
 11
427.7630683594346
 21
111.5675920389264
 31
0.0
  0
LINE
  5
2297
330
942
100
AcDbEntity
  8
寸法線
 62
     2
370
    -2
100
AcDbLine
 10
-75.73693164056533
 20
112.8175920389264
 30
0.0
 11
425.2630683594346
 21
112.8175920389264
 31
0.0
  0
INSERT
  5
2298
330
942
100
AcDbEntity
  8
寸法線
 62
     2
370
    -2
100
AcDbBlockReference
  2
_OPEN
 10
-78.23693164056533
 20
112.8175920389264
 30
0.0
 41
2.5
 42
2.5
 43
2.5
 50
180.0
  0
INSERT
  5
2299
330
942
100
AcDbEntity
  8
寸法線
 62
     2
370
    -2
100
AcDbBlockReference
  2
_OPEN
 10
427.7630683594346
 20
112.8175920389264
 30
0.0
 41
2.5
 42
2.5
 43
2.5
  0
MTEXT
  5
229A
330
942
100
AcDbEntity
  8
寸法線
 62
     6
100
AcDbMText
 10
174.7630683594346
 20
114.6925920389264
 30
0.0
 40
2.5
 41
0.0
 71
     5
 72
     1
  1
\A1;506
  7
STYLE3
 73
     1
 44
1.0
  0
POINT
  5
229B
330
942
100
AcDbEntity
  8
DEFPOINTS
 62
     0
100
AcDbPoint
 10
-78.23693164056533
 20
162.5852107481416
 30
0.0
  0
POINT
  5
229C
330
942
100
AcDbEntity
  8
DEFPOINTS
 62
     0
100
AcDbPoint
 10
427.7630683594346
 20
234.3081162981867
 30
0.0
  0
POINT
  5
229D
330
942
100
AcDbEntity
  8
DEFPOINTS
 62
     0
100
AcDbPoint
 10
427.7630683594346
 20
112.8175920389264
 30
0.0
  0
ENDBLK
  5
B37
330
942
100
AcDbEntity
  8
0
100
AcDbBlockEnd
  0
BLOCK
  5
950
330
94F
100
AcDbEntity
  8
0
100
AcDbBlockBegin
  2
*D8
 70
     1
 10
0.0
 20
0.0
 30
0.0
  3
*D8
  1

  0
LINE
  5
229E
330
94F
100
AcDbEntity
  8
寸法線
 62
     2
370
    -2
100
AcDbLine
 10
511.7630683594346
 20
234.3081162981867
 30
0.0
 11
511.7630683594346
 21
111.5675920389264
 31
0.0
  0
LINE
  5
229F
330
94F
100
AcDbEntity
  8
寸法線
 62
     2
370
    -2
100
AcDbLine
 10
430.2630683594347
 20
112.8175920389264
 30
0.0
 11
509.2630683594347
 21
112.8175920389264
 31
0.0
  0
INSERT
  5
22A0
330
94F
100
AcDbEntity
  8
寸法線
 62
     2
370
    -2
100
AcDbBlockReference
  2
_OPEN
 10
427.7630683594346
 20
112.8175920389264
 30
0.0
 41
2.5
 42
2.5
 43
2.5
 50
180.0
  0
INSERT
  5
22A1
330
94F
100
AcDbEntity
  8
寸法線
 62
     2
370
    -2
100
AcDbBlockReference
  2
_OPEN
 10
511.7630683594346
 20
112.8175920389264
 30
0.0
 41
2.5
 42
2.5
 43
2.5
  0
MTEXT
  5
22A2
330
94F
100
AcDbEntity
  8
寸法線
 62
     6
100
AcDbMText
 10
469.7630683594346
 20
114.6925920389264
 30
0.0
 40
2.5
 41
0.0
 71
     5
 72
     1
  1
\A1;84
  7
STYLE3
 73
     1
 44
1.0
  0
POINT
  5
22A3
330
94F
100
AcDbEntity
  8
DEFPOINTS
 62
     0
100
AcDbPoint
 10
427.7630683594346
 20
234.3081162981867
 30
0.0
  0
POINT
  5
22A4
330
94F
100
AcDbEntity
  8
DEFPOINTS
 62
     0
100
AcDbPoint
 10
511.7630683594346
 20
234.3081162981867
 30
0.0
  0
POINT
  5
22A5
330
94F
100
AcDbEntity
  8
DEFPOINTS
 62
     0
100
AcDbPoint
 10
511.7630683594346
 20
112.8175920389264
 30
0.0
  0
ENDBLK
  5
959
330
94F
100
AcDbEntity
  8
0
100
AcDbBlockEnd
  0
BLOCK
  5
1A1F
330
1A1E
100
AcDbEntity
  8
0
100
AcDbBlockBegin
  2
*D29
 70
     1
 10
0.0
 20
0.0
 30
0.0
  3
*D29
  1

  0
LINE
  5
22A8
330
1A1E
100
AcDbEntity
  8
寸法線
 62
     2
370
    -2
100
AcDbLine
 10
421.7630683594347
 20
162.1542048890818
 30
0.0
 11
421.7630683594347
 21
124.0459975226889
 31
0.0
  0
LINE
  5
22A9
330
1A1E
100
AcDbEntity
  8
寸法線
 62
     2
370
    -2
100
AcDbLine
 10
-78.23693164056533
 20
134.1145546991789
 30
0.0
 11
-78.23693164056533
 21
124.0459975226889
 31
0.0
  0
LINE
  5
22AA
330
1A1E
100
AcDbEntity
  8
寸法線
 62
     2
370
    -2
100
AcDbLine
 10
419.2630683594346
 20
125.2959975226889
 30
0.0
 11
-75.73693164056533
 21
125.2959975226889
 31
0.0
  0
INSERT
  5
22AB
330
1A1E
100
AcDbEntity
  8
寸法線
 62
     2
370
    -2
100
AcDbBlockReference
  2
_OPEN
 10
421.7630683594347
 20
125.2959975226889
 30
0.0
 41
2.5
 42
2.5
 43
2.5
  0
INSERT
  5
22AC
330
1A1E
100
AcDbEntity
  8
寸法線
 62
     2
370
    -2
100
AcDbBlockReference
  2
_OPEN
 10
-78.23693164056533
 20
125.2959975226889
 30
0.0
 41
2.5
 42
2.5
 43
2.5
 50
180.0
  0
MTEXT
  5
22AD
330
1A1E
100
AcDbEntity
  8
寸法線
 62
     6
100
AcDbMText
 10
171.7630683594346
 20
127.1709975226889
 30
0.0
 40
2.5
 41
0.0
 71
     5
 72
     1
  1
\A1;500
  7
STYLE3
 73
     1
 44
1.0
  0
POINT
  5
22AE
330
1A1E
100
AcDbEntity
  8
DEFPOINTS
 62
     0
100
AcDbPoint
 10
421.7630683594347
 20
162.1542048890818
 30
0.0
  0
POINT
  5
22AF
330
1A1E
100
AcDbEntity
  8
DEFPOINTS
 62
     0
100
AcDbPoint
 10
-78.23693164056533
 20
134.1145546991789
 30
0.0
  0
POINT
  5
22B0
330
1A1E
100
AcDbEntity
  8
DEFPOINTS
 62
     0
100
AcDbPoint
 10
-78.23693164056533
 20
125.2959975226889
 30
0.0
  0
ENDBLK
  5
1A29
330
1A1E
100
AcDbEntity
  8
0
100
AcDbBlockEnd
  0
BLOCK
  5
21C4
330
1B0A
100
AcDbEntity
  8
0
100
AcDbBlockBegin
  2
*D30
 70
     1
 10
0.0
 20
0.0
 30
0.0
  3
*D30
  1

  0
LINE
  5
21C5
330
1B0A
100
AcDbEntity
  8
0
  6
ByBlock
 62
     2
100
AcDbLine
 10
-87.23693164056532
 20
165.8081162981868
 30
0.0
 11
-115.8956904170484
 21
165.8081162981868
 31
0.0
  0
LINE
  5
21C6
330
1B0A
100
AcDbEntity
  8
0
  6
ByBlock
 62
     2
100
AcDbLine
 10
-114.6456904170484
 20
204.3081162981869
 30
0.0
 11
-114.6456904170484
 21
168.3081162981868
 31
0.0
  0
INSERT
  5
21C7
330
1B0A
100
AcDbEntity
  8
0
  6
ByBlock
 62
     2
100
AcDbBlockReference
  2
_OPEN
 10
-114.6456904170484
 20
206.8081162981869
 30
0.0
 41
2.5
 42
2.5
 43
2.5
 50
90.0
  0
INSERT
  5
21C8
330
1B0A
100
AcDbEntity
  8
0
  6
ByBlock
 62
     2
100
AcDbBlockReference
  2
_OPEN
 10
-114.6456904170484
 20
165.8081162981868
 30
0.0
 41
2.5
 42
2.5
 43
2.5
 50
270.0
  0
MTEXT
  5
21C9
330
1B0A
100
AcDbEntity
  8
0
  6
ByBlock
 62
     6
100
AcDbMText
 10
-116.5206904170484
 20
186.3081162981868
 30
0.0
 40
2.5
 41
0.0
 71
     5
 72
     1
  1
\A1;41
  7
STYLE3
 11
0.0000000000000001
 21
1.0
 31
0.0
 73
     1
 44
1.0
  0
POINT
  5
21CA
330
1B0A
100
AcDbEntity
  8
DEFPOINTS
  6
ByBlock
 62
     0
100
AcDbPoint
 10
-87.23693164056545
 20
206.8081162981869
 30
0.0
  0
POINT
  5
21CB
330
1B0A
100
AcDbEntity
  8
DEFPOINTS
  6
ByBlock
 62
     0
100
AcDbPoint
 10
-87.23693164056532
 20
165.8081162981868
 30
0.0
  0
POINT
  5
21CC
330
1B0A
100
AcDbEntity
  8
DEFPOINTS
  6
ByBlock
 62
     0
100
AcDbPoint
 10
-114.6456904170484
 20
165.8081162981868
 30
0.0
  0
ENDBLK
  5
21CD
330
1B0A
100
AcDbEntity
  8
0
100
AcDbBlockEnd
  0
BLOCK
  5
21BA
330
1B16
100
AcDbEntity
  8
0
100
AcDbBlockBegin
  2
*D31
 70
     1
 10
0.0
 20
0.0
 30
0.0
  3
*D31
  1

  0
LINE
  5
21BB
330
1B16
100
AcDbEntity
  8
0
  6
ByBlock
 62
     2
100
AcDbLine
 10
-33.23693164056534
 20
138.8081162981867
 30
0.0
 11
-115.8956904170484
 21
138.8081162981867
 31
0.0
  0
LINE
  5
21BC
330
1B16
100
AcDbEntity
  8
0
  6
ByBlock
 62
     2
100
AcDbLine
 10
-114.6456904170484
 20
163.3081162981868
 30
0.0
 11
-114.6456904170484
 21
141.3081162981868
 31
0.0
  0
INSERT
  5
21BD
330
1B16
100
AcDbEntity
  8
0
  6
ByBlock
 62
     2
100
AcDbBlockReference
  2
_OPEN
 10
-114.6456904170484
 20
165.8081162981868
 30
0.0
 41
2.5
 42
2.5
 43
2.5
 50
90.0
  0
INSERT
  5
21BE
330
1B16
100
AcDbEntity
  8
0
  6
ByBlock
 62
     2
100
AcDbBlockReference
  2
_OPEN
 10
-114.6456904170484
 20
138.8081162981867
 30
0.0
 41
2.5
 42
2.5
 43
2.5
 50
270.0
  0
MTEXT
  5
21BF
330
1B16
100
AcDbEntity
  8
0
  6
ByBlock
 62
     6
100
AcDbMText
 10
-116.5206904170484
 20
152.3081162981868
 30
0.0
 40
2.5
 41
0.0
 71
     5
 72
     1
  1
\A1;27
  7
STYLE3
 11
0.0000000000000001
 21
1.0
 31
0.0
 73
     1
 44
1.0
  0
POINT
  5
21C0
330
1B16
100
AcDbEntity
  8
DEFPOINTS
  6
ByBlock
 62
     0
100
AcDbPoint
 10
-87.23693164056532
 20
165.8081162981868
 30
0.0
  0
POINT
  5
21C1
330
1B16
100
AcDbEntity
  8
DEFPOINTS
  6
ByBlock
 62
     0
100
AcDbPoint
 10
-33.23693164056534
 20
138.8081162981867
 30
0.0
  0
POINT
  5
21C2
330
1B16
100
AcDbEntity
  8
DEFPOINTS
  6
ByBlock
 62
     0
100
AcDbPoint
 10
-114.6456904170484
 20
138.8081162981867
 30
0.0
  0
ENDBLK
  5
21C3
330
1B16
100
AcDbEntity
  8
0
100
AcDbBlockEnd
  0
BLOCK
  5
1C13
330
1C12
100
AcDbEntity
  8
0
100
AcDbBlockBegin
  2
*D32
 70
     1
 10
0.0
 20
0.0
 30
0.0
  3
*D32
  1

  0
LINE
  5
1C14
330
1C12
100
AcDbEntity
  8
0
  6
ByBlock
 62
     2
100
AcDbLine
 10
-182.3825256914657
 20
176.8534448987456
 30
0.0
 11
-182.3825256914657
 21
174.2822252953275
 31
0.0
  0
LINE
  5
1C15
330
1C12
100
AcDbEntity
  8
0
  6
ByBlock
 62
     2
100
AcDbLine
 10
-164.3825256914657
 20
176.2662358187718
 30
0.0
 11
-164.3825256914657
 21
174.2822252953275
 31
0.0
  0
LINE
  5
1C16
330
1C12
100
AcDbEntity
  8
0
  6
ByBlock
 62
     2
100
AcDbLine
 10
-179.8825256914657
 20
175.5322252953275
 30
0.0
 11
-166.8825256914657
 21
175.5322252953275
 31
0.0
  0
INSERT
  5
1C17
330
1C12
100
AcDbEntity
  8
0
  6
ByBlock
 62
     2
100
AcDbBlockReference
  2
_OPEN
 10
-182.3825256914657
 20
175.5322252953275
 30
0.0
 41
2.5
 42
2.5
 43
2.5
 50
180.0
  0
INSERT
  5
1C18
330
1C12
100
AcDbEntity
  8
0
  6
ByBlock
 62
     2
100
AcDbBlockReference
  2
_OPEN
 10
-164.3825256914657
 20
175.5322252953275
 30
0.0
 41
2.5
 42
2.5
 43
2.5
  0
MTEXT
  5
1C19
330
1C12
100
AcDbEntity
  8
0
  6
ByBlock
 62
     6
100
AcDbMText
 10
-173.3825256914657
 20
177.4072252953275
 30
0.0
 40
2.5
 41
0.0
 71
     5
 72
     1
  1
\A1;18
  7
STYLE3
 73
     1
 44
1.0
  0
POINT
  5
1C1A
330
1C12
100
AcDbEntity
  8
DEFPOINTS
  6
ByBlock
 62
     0
100
AcDbPoint
 10
-182.3825256914657
 20
176.8534448987456
 30
0.0
  0
POINT
  5
1C1B
330
1C12
100
AcDbEntity
  8
DEFPOINTS
  6
ByBlock
 62
     0
100
AcDbPoint
 10
-164.3825256914657
 20
176.2662358187718
 30
0.0
  0
POINT
  5
1C1C
330
1C12
100
AcDbEntity
  8
DEFPOINTS
  6
ByBlock
 62
     0
100
AcDbPoint
 10
-164.3825256914657
 20
175.5322252953275
 30
0.0
  0
ENDBLK
  5
1C1D
330
1C12
100
AcDbEntity
  8
0
100
AcDbBlockEnd
  0
BLOCK
  5
1C20
330
1C1F
100
AcDbEntity
  8
0
100
AcDbBlockBegin
  2
*D33
 70
     1
 10
0.0
 20
0.0
 30
0.0
  3
*D33
  1

  0
LINE
  5
22C9
330
1C1F
100
AcDbEntity
  8
寸法線
 62
     2
370
    -2
100
AcDbLine
 10
-185.3825256914657
 20
140.3081162981867
 30
0.0
 11
-185.3825256914657
 21
123.0791060284713
 31
0.0
  0
LINE
  5
22CA
330
1C1F
100
AcDbEntity
  8
寸法線
 62
     2
370
    -2
100
AcDbLine
 10
-161.3825256914657
 20
140.3081162981868
 30
0.0
 11
-161.3825256914657
 21
123.0791060284713
 31
0.0
  0
LINE
  5
22CB
330
1C1F
100
AcDbEntity
  8
寸法線
 62
     2
370
    -2
100
AcDbLine
 10
-182.8825256914657
 20
124.3291060284713
 30
0.0
 11
-163.8825256914657
 21
124.3291060284713
 31
0.0
  0
INSERT
  5
22CC
330
1C1F
100
AcDbEntity
  8
寸法線
 62
     2
370
    -2
100
AcDbBlockReference
  2
_OPEN
 10
-185.3825256914657
 20
124.3291060284713
 30
0.0
 41
2.5
 42
2.5
 43
2.5
 50
180.0
  0
INSERT
  5
22CD
330
1C1F
100
AcDbEntity
  8
寸法線
 62
     2
370
    -2
100
AcDbBlockReference
  2
_OPEN
 10
-161.3825256914657
 20
124.3291060284713
 30
0.0
 41
2.5
 42
2.5
 43
2.5
  0
MTEXT
  5
22CE
330
1C1F
100
AcDbEntity
  8
寸法線
 62
     6
100
AcDbMText
 10
-173.3825256914657
 20
126.2041060284713
 30
0.0
 40
2.5
 41
0.0
 71
     5
 72
     1
  1
\A1;24
  7
STYLE3
 73
     1
 44
1.0
  0
POINT
  5
22CF
330
1C1F
100
AcDbEntity
  8
DEFPOINTS
 62
     0
100
AcDbPoint
 10
-185.3825256914657
 20
140.3081162981867
 30
0.0
  0
POINT
  5
22D0
330
1C1F
100
AcDbEntity
  8
DEFPOINTS
 62
     0
100
AcDbPoint
 10
-161.3825256914657
 20
140.3081162981868
 30
0.0
  0
POINT
  5
22D1
330
1C1F
100
AcDbEntity
  8
DEFPOINTS
 62
     0
100
AcDbPoint
 10
-161.3825256914657
 20
124.3291060284713
 30
0.0
  0
ENDBLK
  5
1C2A
330
1C1F
100
AcDbEntity
  8
0
100
AcDbBlockEnd
  0
BLOCK
  5
1C39
330
1C2C
100
AcDbEntity
  8
0
100
AcDbBlockBegin
  2
*D34
 70
     1
 10
0.0
 20
0.0
 30
0.0
  3
*D34
  1

  0
LINE
  5
22D2
330
1C2C
100
AcDbEntity
  8
寸法線
 62
     2
370
    -2
100
AcDbLine
 10
-128.471306681533
 20
140.9360230404431
 30
0.0
 11
-128.471306681533
 21
115.6564762686433
 31
0.0
  0
LINE
  5
22D3
330
1C2C
100
AcDbEntity
  8
寸法線
 62
     2
370
    -2
100
AcDbLine
 10
-218.2937447013984
 20
140.9360230404431
 30
0.0
 11
-218.2937447013984
 21
115.6564762686433
 31
0.0
  0
LINE
  5
22D4
330
1C2C
100
AcDbEntity
  8
寸法線
 62
     2
370
    -2
100
AcDbLine
 10
-130.971306681533
 20
116.9064762686433
 30
0.0
 11
-215.7937447013984
 21
116.9064762686433
 31
0.0
  0
INSERT
  5
22D5
330
1C2C
100
AcDbEntity
  8
寸法線
 62
     2
370
    -2
100
AcDbBlockReference
  2
_OPEN
 10
-128.471306681533
 20
116.9064762686433
 30
0.0
 41
2.5
 42
2.5
 43
2.5
  0
INSERT
  5
22D6
330
1C2C
100
AcDbEntity
  8
寸法線
 62
     2
370
    -2
100
AcDbBlockReference
  2
_OPEN
 10
-218.2937447013984
 20
116.9064762686433
 30
0.0
 41
2.5
 42
2.5
 43
2.5
 50
180.0
  0
MTEXT
  5
22D7
330
1C2C
100
AcDbEntity
  8
寸法線
 62
     6
100
AcDbMText
 10
-173.3825256914657
 20
118.7814762686433
 30
0.0
 40
2.5
 41
0.0
 71
     5
 72
     1
  1
\A1;90
  7
STYLE3
 73
     1
 44
1.0
  0
POINT
  5
22D8
330
1C2C
100
AcDbEntity
  8
DEFPOINTS
 62
     0
100
AcDbPoint
 10
-128.471306681533
 20
140.9360230404431
 30
0.0
  0
POINT
  5
22D9
330
1C2C
100
AcDbEntity
  8
DEFPOINTS
 62
     0
100
AcDbPoint
 10
-218.2937447013984
 20
140.9360230404431
 30
0.0
  0
POINT
  5
22DA
330
1C2C
100
AcDbEntity
  8
DEFPOINTS
 62
     0
100
AcDbPoint
 10
-218.2937447013984
 20
116.9064762686433
 30
0.0
  0
ENDBLK
  5
1C43
330
1C2C
100
AcDbEntity
  8
0
100
AcDbBlockEnd
  0
BLOCK
  5
1C73
330
1C72
100
AcDbEntity
  8
0
100
AcDbBlockBegin
  2
*D35
 70
     1
 10
0.0
 20
0.0
 30
0.0
  3
*D35
  1

  0
LINE
  5
22B2
330
1C72
100
AcDbEntity
  8
寸法線
 62
     2
370
    -2
100
AcDbLine
 10
511.7630683594346
 20
126.0929214083148
 30
0.0
 11
511.7630683594346
 21
99.86897907762738
 31
0.0
  0
LINE
  5
22B3
330
1C72
100
AcDbEntity
  8
寸法線
 62
     2
370
    -2
100
AcDbLine
 10
-78.23693164056533
 20
126.0929214083148
 30
0.0
 11
-78.23693164056533
 21
99.86897907762738
 31
0.0
  0
LINE
  5
22B4
330
1C72
100
AcDbEntity
  8
寸法線
 62
     2
370
    -2
100
AcDbLine
 10
509.2630683594347
 20
101.1189790776274
 30
0.0
 11
-75.73693164056533
 21
101.1189790776274
 31
0.0
  0
INSERT
  5
22B5
330
1C72
100
AcDbEntity
  8
寸法線
 62
     2
370
    -2
100
AcDbBlockReference
  2
_OPEN
 10
511.7630683594346
 20
101.1189790776274
 30
0.0
 41
2.5
 42
2.5
 43
2.5
  0
INSERT
  5
22B6
330
1C72
100
AcDbEntity
  8
寸法線
 62
     2
370
    -2
100
AcDbBlockReference
  2
_OPEN
 10
-78.23693164056533
 20
101.1189790776274
 30
0.0
 41
2.5
 42
2.5
 43
2.5
 50
180.0
  0
MTEXT
  5
22B7
330
1C72
100
AcDbEntity
  8
寸法線
 62
     6
100
AcDbMText
 10
216.7630683594347
 20
102.9939790776274
 30
0.0
 40
2.5
 41
0.0
 71
     5
 72
     1
  1
\A1;590
  7
STYLE3
 73
     1
 44
1.0
  0
POINT
  5
22B8
330
1C72
100
AcDbEntity
  8
DEFPOINTS
 62
     0
100
AcDbPoint
 10
511.7630683594346
 20
126.0929214083148
 30
0.0
  0
POINT
  5
22B9
330
1C72
100
AcDbEntity
  8
DEFPOINTS
 62
     0
100
AcDbPoint
 10
-78.23693164056533
 20
126.0929214083148
 30
0.0
  0
POINT
  5
22BA
330
1C72
100
AcDbEntity
  8
DEFPOINTS
 62
     0
100
AcDbPoint
 10
-78.23693164056533
 20
101.1189790776274
 30
0.0
  0
ENDBLK
  5
1C7D
330
1C72
100
AcDbEntity
  8
0
100
AcDbBlockEnd
  0
BLOCK
  5
1CF7
330
1CA4
100
AcDbEntity
  8
0
100
AcDbBlockBegin
  2
ROGO
 70
     0
 10
0.0
 20
0.0
 30
0.0
  3
ROGO
  1

  0
HATCH
  5
1CA5
330
1CA4
100
AcDbEntity
  8
ROGO
 62
     4
100
AcDbHatch
 10
0.0
 20
0.0
 30
0.0
210
0.0
220
0.0
230
1.0
  2
SOLID
 70
     1
 71
     1
 91
        1
 92
        7
 72
     0
 73
     1
 93
       11
 10
38.38165352405156
 20
4.949786840425588
 10
36.55777800832078
 20
4.949786840425588
 10
35.70378540756275
 20
4.409370842614521
 10
35.97325427788326
 20
4.949786840425588
 10
34.14933885635003
 20
4.949786840425645
 10
31.68121527448045
 20
0.0
 10
33.50513069601385
 20
0.0
 10
34.14933885635003
 20
1.291950329371957
 10
34.79354701668632
 20
0.0
 10
36.61742253241704
 20
0.0
 10
35.38336074148237
 20
2.474893420212765
 97
       11
330
1CF3
330
1CF6
330
1CF5
330
1CF4
330
1CAA
330
1CA7
330
1CF0
330
1CEF
330
1CF1
330
1CEE
330
1CF2
 75
     0
 76
     1
 47
0.0514683685270805
 98
        1
 10
33.99236623130548
 20
2.826231829978155
450
        0
451
        0
460
0.0
461
0.0
452
        0
462
0.0
453
        0
470

  0
HATCH
  5
1CA6
330
1CA4
100
AcDbEntity
  8
ROGO
 62
     4
100
AcDbHatch
 10
0.0
 20
0.0
 30
0.0
210
0.0
220
0.0
230
1.0
  2
SOLID
 70
     1
 71
     1
 91
        1
 92
        5
 93
        8
 72
     1
 10
33.48588559853425
 20
4.949786840425645
 11
30.31359802057352
 21
4.949786840425645
 72
     4
 94
        3
 73
     0
 74
     0
 95
       26
 96
       22
 40
0.0
 40
0.0
 40
0.0
 40
0.0
 40
0.7089867102952115
 40
1.183598414482279
 40
1.525832104103439
 40
1.781366926528389
 40
2.112809002752968
 40
2.354729406992515
 40
2.791581270399936
 40
3.147172406765291
 40
3.389031356825354
 40
3.626186440486682
 40
4.050410779375985
 40
4.350388020238963
 40
4.511948940797758
 40
4.741441456013356
 40
4.907163150576407
 40
5.147239172635527
 40
5.28310143501293
 40
5.578752957634333
 40
5.713750011164293
 40
5.713750011164293
 40
5.713750011164293
 40
5.713750011164293
 10
30.31359802057318
 20
4.949786840425645
 10
30.11854899911117
 20
4.938149881331241
 10
29.7929297608427
 20
4.91872287919773
 10
29.43540181805798
 20
4.70152849352172
 10
29.17345591634097
 20
4.575261222274434
 10
28.98663641691252
 20
4.403611624277345
 10
28.84969696652098
 20
4.226310128312206
 10
28.67705908163674
 20
4.015056695877603
 10
28.53627781964582
 20
3.769060622409767
 10
28.46458648155834
 20
3.497930064177694
 10
28.40108297470425
 20
3.28183743611737
 10
28.35398771091377
 20
3.041030402807223
 10
28.36597007927202
 20
2.780874095348053
 10
28.38312937914947
 20
2.539254235598093
 10
28.45974148051295
 20
2.366773831190926
 10
28.5469890936244
 20
2.243979668736869
 10
28.65382260102928
 20
2.108735512341411
 10
28.77072182070049
 20
2.019163745498303
 10
28.86740701734601
 20
1.85689847078413
 10
29.03665119246222
 20
1.836192251465718
 10
29.14422952328943
 20
1.794980695042454
 10
29.17795251342483
 20
1.782061951090668
 72
     1
 10
29.1779525134246
 20
1.782061951090668
 11
31.90635566072177
 21
1.782061951090724
 72
     1
 10
31.90635566072177
 20
1.782061951090668
 11
32.49403698331935
 21
2.960648509043437
 72
     1
 10
32.49403698331941
 20
2.960648509043437
 11
30.46845823186379
 21
2.960648509043437
 72
     4
 94
        3
 73
     0
 74
     0
 95
       16
 96
       12
 40
0.0
 40
0.0
 40
0.0
 40
0.0
 40
0.2141121027475241
 40
0.4304326162973471
 40
0.5594580803306056
 40
0.6831669452691567
 40
0.8190286678446897
 40
0.9139043619204622
 40
1.003933161420314
 40
1.186498641432482
 40
1.560280494298353
 40
1.560280494298353
 40
1.560280494298353
 40
1.560280494298353
 10
30.46845823186391
 20
2.960648509043437
 10
30.40735963846879
 20
2.978624611086559
 10
30.2845322640714
 20
3.014762225606943
 10
30.27425260468789
 20
3.189944104912854
 10
30.28825715338957
 20
3.314775529002304
 10
30.34690823463126
 20
3.405660095425673
 10
30.41806216907168
 20
3.471790575521367
 10
30.44455593462857
 20
3.557915185941965
 10
30.52243194464864
 20
3.622950041937542
 10
30.66052697686496
 20
3.732264550099898
 10
30.81323617682881
 20
3.755546097864453
 10
30.9158338246271
 20
3.771187801431096
 72
     1
 10
30.91583382462705
 20
3.77118780143121
 11
32.89819805248612
 21
3.77118780143121
 72
     1
 10
32.89819805248612
 20
3.77118780143121
 11
33.48588559853425
 21
4.949786840425701
 97
        8
330
1CA8
330
1CCC
330
1CD8
330
1CD1
330
1CEC
330
1CEB
330
1CED
330
1CA9
 75
     0
 76
     1
 47
0.0514683685270805
 98
        1
 10
30.86099532083267
 20
4.369765638819899
450
        0
451
        0
460
0.0
461
0.0
452
        0
462
0.0
453
        0
470

  0
LINE
  5
1CA7
102
{ACAD_REACTORS
330
1CAB
330
1CA5
330
1CB0
102
}
330
1CA4
100
AcDbEntity
  8
ROGO
 62
     4
100
AcDbLine
 10
0.0000000000000568
 20
0.0
 30
0.0
 11
33.50513069601385
 21
0.0
 31
0.0
  0
LINE
  5
1CA8
102
{ACAD_REACTORS
330
1CA6
102
}
330
1CA4
100
AcDbEntity
  8
ROGO
 62
     4
100
AcDbLine
 10
30.31359802057415
 20
4.949786840425645
 30
0.0
 11
33.48588559853425
 21
4.949786840425645
 31
0.0
  0
LINE
  5
1CA9
102
{ACAD_REACTORS
330
1CA6
102
}
330
1CA4
100
AcDbEntity
  8
ROGO
 62
     4
100
AcDbLine
 10
33.48588559853425
 20
4.949786840425645
 30
0.0
 11
32.89819805248607
 21
3.77118780143121
 31
0.0
  0
LINE
  5
1CAA
102
{ACAD_REACTORS
330
1CAB
330
1CA5
102
}
330
1CA4
100
AcDbEntity
  8
ROGO
 62
     4
100
AcDbLine
 10
34.14933885635003
 20
4.949786840425645
 30
0.0
 11
31.6812152744804
 21
0.0
 31
0.0
  0
HATCH
  5
1CAB
330
1CA4
100
AcDbEntity
  8
ROGO
 62
     4
100
AcDbHatch
 10
0.0
 20
0.0
 30
0.0
210
0.0
220
0.0
230
1.0
  2
SOLID
 70
     1
 71
     1
 91
        1
 92
        7
 72
     0
 73
     1
 93
        4
 10
31.9286078056424
 20
0.4961422127159381
 10
2.525341286638024
 20
0.4961422127159381
 10
2.30087247590319
 20
-0.0000000000000568
 10
31.68121527448045
 20
-0.0000000000000568
 97
        4
330
1CAF
330
1CB9
330
1CA7
330
1CAA
 75
     0
 76
     1
 47
0.0514683685270805
 98
        1
 10
21.09111831761885
 20
0.3649205710345882
450
        0
451
        0
460
0.0
461
0.0
452
        0
462
0.0
453
        0
470

  0
HATCH
  5
1CAC
330
1CA4
100
AcDbEntity
  8
ROGO
 62
     4
100
AcDbHatch
 10
0.0
 20
0.0
 30
0.0
210
0.0
220
0.0
230
1.0
  2
SOLID
 70
     1
 71
     1
 91
        2
 92
        7
 72
     0
 73
     1
 93
        8
 10
15.99342784516449
 20
4.949786840425645
 10
14.16260675403379
 20
4.949786840425645
 10
11.87829877231911
 20
1.782061951090668
 10
13.63265136986962
 20
1.782061951090668
 10
14.06756947612285
 20
2.38517717067981
 10
16.08846512307536
 20
2.385177170679696
 10
16.52338322932866
 20
1.782061951090668
 10
18.27773582687916
 20
1.782061951090668
 97
        8
330
1CAE
330
1CB6
330
1CBB
330
1CB7
330
1CAD
330
1CCF
330
1CD5
330
1CCE
 92
       22
 72
     0
 73
     1
 93
        3
 10
15.62974388152605
 20
3.021300979620718
 10
14.52629071767222
 20
3.021300979620718
 10
15.07801729959914
 20
3.786398348131172
 97
        3
330
1CDA
330
1CD9
330
1CDB
 75
     0
 76
     1
 47
0.0514683685270805
 98
        2
 10
16.20617981601185
 20
3.326837253266262
 10
16.20617981601185
 20
3.326837253266262
450
        0
451
        0
460
0.0
461
0.0
452
        0
462
0.0
453
        0
470

  0
LINE
  5
1CAD
102
{ACAD_REACTORS
330
1CAC
102
}
330
1CA4
100
AcDbEntity
  8
ROGO
 62
     4
100
AcDbLine
 10
14.06756947612285
 20
2.385177170679753
 30
0.0
 11
16.08846512307542
 21
2.385177170679753
 31
0.0
  0
LINE
  5
1CAE
102
{ACAD_REACTORS
330
1CAC
102
}
330
1CA4
100
AcDbEntity
  8
ROGO
 62
     4
100
AcDbLine
 10
14.16260675403379
 20
4.949786840425645
 30
0.0
 11
15.99342784516443
 21
4.949786840425645
 31
0.0
  0
LINE
  5
1CAF
102
{ACAD_REACTORS
330
1CAB
102
}
330
1CA4
100
AcDbEntity
  8
ROGO
 62
     4
100
AcDbLine
 10
2.490933298034235
 20
0.4961422127159381
 30
0.0
 11
31.92860780564246
 21
0.4961422127159381
 31
0.0
  0
HATCH
  5
1CB0
330
1CA4
100
AcDbEntity
  8
ROGO
 62
     4
100
AcDbHatch
 10
0.0
 20
0.0
 30
0.0
210
0.0
220
0.0
230
1.0
  2
SOLID
 70
     1
 71
     1
 91
        2
 92
        5
 93
        6
 72
     4
 94
        3
 73
     0
 74
     0
 95
       18
 96
       14
 40
0.108740278791501
 40
0.108740278791501
 40
0.108740278791501
 40
0.108740278791501
 40
0.6623149649549278
 40
1.384304701649787
 40
2.097394834876493
 40
2.774073369849618
 40
3.428974823686337
 40
4.005208313035923
 40
4.455173659284313
 40
4.720999734343524
 40
5.086034088486724
 40
5.569973738255373
 40
6.060470601257719
 40
6.060470601257719
 40
6.060470601257719
 40
6.060470601257719
 10
5.257971706506339
 20
1.782061951090668
 10
5.409344543521854
 20
1.783189178773909
 10
5.758142655701249
 20
1.785786572703102
 10
6.246108485316483
 20
2.046468641233957
 10
6.708839512865949
 20
2.378558603499755
 10
7.081537876611037
 20
2.793470364329778
 10
7.313740186156906
 20
3.267850878540173
 10
7.349707589953482
 20
3.722501028309523
 10
7.327750373593119
 20
4.082123644518105
 10
7.170855034099304
 20
4.33278953599904
 10
7.007743182975218
 20
4.587189781908875
 10
6.708651203549891
 20
4.807560723981168
 10
6.463588634008544
 20
4.904115955004613
 10
6.338969333173452
 20
4.949786840425758
 72
     1
 10
6.338969333173679
 20
4.949786840425645
 11
2.449108495127859
 21
4.949786840425645
 72
     1
 10
2.449108495127859
 20
4.949786840425645
 11
0.0
 21
-0.0000000000000568
 72
     1
 10
-0.0000000000000568
 20
0.0
 11
2.300872475903247
 21
0.0
 72
     1
 10
2.300872475903304
 20
0.0
 11
3.107127853020472
 21
1.782061951090724
 72
     1
 10
3.107127853020472
 20
1.782061951090668
 11
5.257971706506168
 21
1.782061951090668
 97
        6
330
1CB2
330
1CBC
330
1CB3
330
1CA7
330
1CB9
330
1CB8
 92
       20
 93
        4
 72
     1
 10
3.604944905315051
 20
2.882384321244217
 11
3.98608604239348
 21
3.724818539558043
 72
     1
 10
3.98608604239348
 20
3.724818539557986
 11
4.965456325034381
 21
3.724818539557986
 72
     4
 94
        3
 73
     0
 74
     0
 95
       15
 96
       11
 40
0.0
 40
0.0
 40
0.0
 40
0.0
 40
0.458245544397197
 40
0.6671803073175111
 40
0.9043351724393449
 40
1.065896092998139
 40
1.321406364485703
 40
1.474450037341961
 40
1.737022829061231
 40
1.824547148828933
 40
1.824547148828933
 40
1.824547148828933
 40
1.824547148828933
 10
4.965456325033528
 20
3.724818539557986
 10
5.104956735089615
 20
3.72545752589923
 10
5.308061659054601
 20
3.726387854865265
 10
5.419126665259284
 20
3.475146476562713
 10
5.369342033880457
 20
3.313386222112512
 10
5.306758694724408
 20
3.147308857819552
 10
5.196159760245848
 20
3.034456783979635
 10
5.047719790425048
 20
2.925761212639713
 10
4.907436925306626
 20
2.912603127013085
 10
4.816198668830168
 20
2.888428084712359
 10
4.793389093792598
 20
2.88238432124416
 72
     1
 10
4.793389093792541
 20
2.882384321244217
 11
3.604944905315051
 21
2.882384321244217
 97
        4
330
1CBF
330
1CBD
330
1CC1
330
1CBE
 75
     0
 76
     1
 47
0.0514683685270805
 98
        2
 10
2.469899197802817
 20
3.410271770727717
 10
2.469899197802817
 20
3.410271770727717
450
        0
451
        0
460
0.0
461
0.0
452
        0
462
0.0
453
        0
470

  0
HATCH
  5
1CB1
330
1CA4
100
AcDbEntity
  8
ROGO
 62
     4
100
AcDbHatch
 10
0.0
 20
0.0
 30
0.0
210
0.0
220
0.0
230
1.0
  2
SOLID
 70
     1
 71
     1
 91
        1
 92
        1
 93
       12
 72
     1
 10
8.637002599138838
 20
4.949786840425645
 11
12.92148229673961
 21
4.949786840425701
 72
     1
 10
12.92148229673961
 20
4.949786840425645
 11
12.56244669050807
 21
4.224155565819216
 72
     1
 10
12.56244669050812
 20
4.224155565819273
 11
10.31063242784853
 21
4.224155565819273
 72
     1
 10
10.31063242784847
 20
4.224155565819273
 11
10.02991119959222
 21
3.656802080167153
 72
     1
 10
10.02991119959228
 20
3.656802080167153
 11
12.28172546225187
 21
3.656802080167153
 72
     1
 10
12.28172546225181
 20
3.656802080167153
 11
11.99387214064069
 21
3.075034230307551
 72
     1
 10
11.99387214064069
 20
3.075034230307551
 11
9.742057877981153
 21
3.075034230307494
 72
     1
 10
9.742057877981153
 20
3.075034230307551
 11
9.461324765337508
 21
2.507656725636252
 72
     1
 10
9.461324765337565
 20
2.507656725636138
 11
11.71313902799716
 21
2.507656725636138
 72
     1
 10
11.71313902799716
 20
2.507656725636138
 11
11.3541214816563
 21
1.782061951090668
 72
     1
 10
11.35412148165636
 20
1.782061951090668
 11
7.06964178405559
 21
1.782061951090668
 72
     1
 10
7.06964178405559
 20
1.782061951090668
 11
8.637002599138838
 21
4.949786840425645
 97
       12
330
1CC0
330
1CC2
330
1CC4
330
1CC3
330
1CC5
330
1CC8
330
1CC7
330
1CC9
330
1CC6
330
1CB5
330
1CBA
330
1CB4
 75
     0
 76
     1
 98
        1
 10
-166.6183073243049
 20
-214.0842147101267
450
        0
451
        0
460
0.0
461
0.0
452
        0
462
0.0
453
        0
470

  0
SPLINE
  5
1CB2
102
{ACAD_REACTORS
330
1CB0
102
}
330
1CA4
100
AcDbEntity
  8
ROGO
 62
     4
100
AcDbSpline
210
0.0
220
0.0
230
1.0
 70
     8
 71
     3
 72
    18
 73
    14
 74
     0
 42
0.0000000001
 43
0.0000000001
 40
0.1087402787915014
 40
0.1087402787915014
 40
0.1087402787915014
 40
0.1087402787915014
 40
0.5992371417938475
 40
1.083176791562496
 40
1.448211145705696
 40
1.714037220764907
 40
2.164002567013297
 40
2.740236056362883
 40
3.395137510199602
 40
4.071816045172726
 40
4.784906178399433
 40
5.506895915094292
 40
6.060470601257719
 40
6.060470601257719
 40
6.060470601257719
 40
6.060470601257719
 10
6.338969333173452
 20
4.949786840425758
 30
0.0
 10
6.463588634008544
 20
4.904115955004613
 30
0.0
 10
6.708651203549891
 20
4.807560723981168
 30
0.0
 10
7.007743182975218
 20
4.587189781908875
 30
0.0
 10
7.170855034099304
 20
4.33278953599904
 30
0.0
 10
7.327750373593119
 20
4.082123644518105
 30
0.0
 10
7.349707589953482
 20
3.722501028309523
 30
0.0
 10
7.313740186156906
 20
3.267850878540173
 30
0.0
 10
7.081537876611037
 20
2.793470364329778
 30
0.0
 10
6.708839512865949
 20
2.378558603499755
 30
0.0
 10
6.246108485316483
 20
2.046468641233957
 30
0.0
 10
5.758142655701249
 20
1.785786572703102
 30
0.0
 10
5.409344543521854
 20
1.783189178773909
 30
0.0
 10
5.257971706506339
 20
1.782061951090668
 30
0.0
  0
LINE
  5
1CB3
102
{ACAD_REACTORS
330
1CB0
102
}
330
1CA4
100
AcDbEntity
  8
ROGO
 62
     4
100
AcDbLine
 10
2.449108495127859
 20
4.949786840425645
 30
0.0
 11
0.0
 21
0.0
 31
0.0
  0
LINE
  5
1CB4
102
{ACAD_REACTORS
330
1CB1
102
}
330
1CA4
100
AcDbEntity
  8
ROGO
 62
     4
100
AcDbLine
 10
8.637002599138952
 20
4.949786840425645
 30
0.0
 11
7.06964178405559
 21
1.782061951090668
 31
0.0
  0
LINE
  5
1CB5
102
{ACAD_REACTORS
330
1CB1
102
}
330
1CA4
100
AcDbEntity
  8
ROGO
 62
     4
100
AcDbLine
 10
11.71313902799716
 20
2.507656725636195
 30
0.0
 11
11.35412148165636
 21
1.782061951090668
 31
0.0
  0
LINE
  5
1CB6
102
{ACAD_REACTORS
330
1CAC
102
}
330
1CA4
100
AcDbEntity
  8
ROGO
 62
     4
100
AcDbLine
 10
14.16260675403384
 20
4.949786840425645
 30
0.0
 11
11.87829877231911
 21
1.782061951090668
 31
0.0
  0
LINE
  5
1CB7
102
{ACAD_REACTORS
330
1CAC
102
}
330
1CA4
100
AcDbEntity
  8
ROGO
 62
     4
100
AcDbLine
 10
14.06756947612285
 20
2.385177170679753
 30
0.0
 11
13.63265136986962
 21
1.782061951090781
 31
0.0
  0
LINE
  5
1CB8
102
{ACAD_REACTORS
330
1CB0
102
}
330
1CA4
100
AcDbEntity
  8
ROGO
 62
     4
100
AcDbLine
 10
5.257971707251897
 20
1.782061951090668
 30
0.0
 11
3.107127853020358
 21
1.782061951090668
 31
0.0
  0
LINE
  5
1CB9
102
{ACAD_REACTORS
330
1CAB
330
1CB0
102
}
330
1CA4
100
AcDbEntity
  8
ROGO
 62
     4
100
AcDbLine
 10
3.107127853020472
 20
1.782061951090668
 30
0.0
 11
2.300872475903304
 21
0.0
 31
0.0
  0
LINE
  5
1CBA
102
{ACAD_REACTORS
330
1CB1
102
}
330
1CA4
100
AcDbEntity
  8
ROGO
 62
     4
100
AcDbLine
 10
7.06964178405559
 20
1.782061951090668
 30
0.0
 11
11.35412148165636
 21
1.782061951090668
 31
0.0
  0
LINE
  5
1CBB
102
{ACAD_REACTORS
330
1CAC
102
}
330
1CA4
100
AcDbEntity
  8
ROGO
 62
     4
100
AcDbLine
 10
11.87829877231917
 20
1.782061951090668
 30
0.0
 11
13.63265136986962
 21
1.782061951090668
 31
0.0
  0
LINE
  5
1CBC
102
{ACAD_REACTORS
330
1CB0
102
}
330
1CA4
100
AcDbEntity
  8
ROGO
 62
     4
100
AcDbLine
 10
2.449108495127859
 20
4.949786840425645
 30
0.0
 11
6.338969333173452
 21
4.949786840425645
 31
0.0
  0
LINE
  5
1CBD
102
{ACAD_REACTORS
330
1CB0
102
}
330
1CA4
100
AcDbEntity
  8
ROGO
 62
     4
100
AcDbLine
 10
4.965456325033528
 20
3.724818539557986
 30
0.0
 11
3.986086042393537
 21
3.724818539557986
 31
0.0
  0
LINE
  5
1CBE
102
{ACAD_REACTORS
330
1CB0
102
}
330
1CA4
100
AcDbEntity
  8
ROGO
 62
     4
100
AcDbLine
 10
4.793389093792598
 20
2.88238432124416
 30
0.0
 11
3.604944905315107
 21
2.882384321244217
 31
0.0
  0
LINE
  5
1CBF
102
{ACAD_REACTORS
330
1CB0
102
}
330
1CA4
100
AcDbEntity
  8
ROGO
 62
     4
100
AcDbLine
 10
3.986086042393537
 20
3.724818539557986
 30
0.0
 11
3.604944905315051
 21
2.882384321244217
 31
0.0
  0
LINE
  5
1CC0
102
{ACAD_REACTORS
330
1CB1
102
}
330
1CA4
100
AcDbEntity
  8
ROGO
 62
     4
100
AcDbLine
 10
8.637002599138838
 20
4.949786840425645
 30
0.0
 11
12.92148229673961
 21
4.949786840425758
 31
0.0
  0
SPLINE
  5
1CC1
102
{ACAD_REACTORS
330
1CB0
102
}
330
1CA4
100
AcDbEntity
  8
ROGO
 62
     4
100
AcDbSpline
210
0.0
220
0.0
230
1.0
 70
     8
 71
     3
 72
    15
 73
    11
 74
     9
 42
0.0000000001
 43
0.0000000001
 44
0.0000000001
 40
0.0
 40
0.0
 40
0.0
 40
0.0
 40
0.3714260192954959
 40
0.5407758541881006
 40
0.7329991907503102
 40
0.8639506649775173
 40
1.071051779626874
 40
1.195099689928134
 40
1.407925254728536
 40
1.478867154939799
 40
1.478867154939799
 40
1.478867154939799
 40
1.478867154939799
 10
4.965456325033528
 20
3.724818539557986
 30
0.0
 10
5.104956735089532
 20
3.725457525899206
 30
0.0
 10
5.308061659054509
 20
3.726387854865235
 30
0.0
 10
5.419126665259303
 20
3.475146476562761
 30
0.0
 10
5.369342033880415
 20
3.31338622211255
 30
0.0
 10
5.306758694724477
 20
3.147308857819524
 30
0.0
 10
5.19615976024584
 20
3.034456783979611
 30
0.0
 10
5.047719790425087
 20
2.925761212639771
 30
0.0
 10
4.907436925306584
 20
2.912603127013052
 30
0.0
 10
4.816198668830153
 20
2.888428084712352
 30
0.0
 10
4.793389093792598
 20
2.88238432124416
 30
0.0
 11
4.965456325033528
 21
3.724818539557986
 31
0.0
 11
5.326797807465993
 21
3.63885563544693
 31
0.0
 11
5.395624897846573
 21
3.484122968540759
 31
0.0
 11
5.361211847366689
 21
3.295005139989939
 31
0.0
 11
5.309591776936599
 21
3.174657074234517
 31
0.0
 11
5.171937596175325
 21
3.019924407328176
 31
0.0
 11
5.068697455314975
 21
2.951154084039387
 31
0.0
 11
4.862216184173178
 21
2.899576902066371
 31
0.0
 11
4.793389093792598
 21
2.88238432124416
 31
0.0
  0
LINE
  5
1CC2
102
{ACAD_REACTORS
330
1CB1
102
}
330
1CA4
100
AcDbEntity
  8
ROGO
 62
     4
100
AcDbLine
 10
12.92148229673961
 20
4.949786840425645
 30
0.0
 11
12.56244669050807
 21
4.224155565819273
 31
0.0
  0
LINE
  5
1CC3
102
{ACAD_REACTORS
330
1CB1
102
}
330
1CA4
100
AcDbEntity
  8
ROGO
 62
     4
100
AcDbLine
 10
10.31063242784847
 20
4.224155565819273
 30
0.0
 11
10.02991119959222
 21
3.656802080167153
 31
0.0
  0
LINE
  5
1CC4
102
{ACAD_REACTORS
330
1CB1
102
}
330
1CA4
100
AcDbEntity
  8
ROGO
 62
     4
100
AcDbLine
 10
10.31063242784847
 20
4.224155565819273
 30
0.0
 11
12.56244669050807
 21
4.224155565819273
 31
0.0
  0
LINE
  5
1CC5
102
{ACAD_REACTORS
330
1CB1
102
}
330
1CA4
100
AcDbEntity
  8
ROGO
 62
     4
100
AcDbLine
 10
10.02991119959222
 20
3.656802080167153
 30
0.0
 11
12.28172546225187
 21
3.656802080167153
 31
0.0
  0
LINE
  5
1CC6
102
{ACAD_REACTORS
330
1CB1
102
}
330
1CA4
100
AcDbEntity
  8
ROGO
 62
     4
100
AcDbLine
 10
9.461324765337565
 20
2.507656725636195
 30
0.0
 11
11.71313902799716
 21
2.507656725636195
 31
0.0
  0
LINE
  5
1CC7
102
{ACAD_REACTORS
330
1CB1
102
}
330
1CA4
100
AcDbEntity
  8
ROGO
 62
     4
100
AcDbLine
 10
9.742057877981153
 20
3.075034230307551
 30
0.0
 11
11.99387214064069
 21
3.075034230307608
 31
0.0
  0
LINE
  5
1CC8
102
{ACAD_REACTORS
330
1CB1
102
}
330
1CA4
100
AcDbEntity
  8
ROGO
 62
     4
100
AcDbLine
 10
12.28172546225187
 20
3.656802080167153
 30
0.0
 11
11.99387214064069
 21
3.075034230307551
 31
0.0
  0
LINE
  5
1CC9
102
{ACAD_REACTORS
330
1CB1
102
}
330
1CA4
100
AcDbEntity
  8
ROGO
 62
     4
100
AcDbLine
 10
9.742057877981153
 20
3.075034230307551
 30
0.0
 11
9.461324765337508
 21
2.507656725636195
 31
0.0
  0
HATCH
  5
1CCA
330
1CA4
100
AcDbEntity
  8
ROGO
 62
     4
100
AcDbHatch
 10
0.0
 20
0.0
 30
0.0
210
0.0
220
0.0
230
1.0
  2
SOLID
 70
     1
 71
     1
 91
        2
 92
        7
 72
     1
 73
     1
 93
        4
 10
26.16568830176476
 20
4.949786840425645
 42
0.0
 10
24.88477496917216
 20
4.949786840425645
 42
0.9597396185052668
 10
24.88477496917204
 20
1.782061951090668
 42
0.0
 10
26.25774038752116
 20
1.782061951090668
 42
0.9713627655772736
 97
        4
330
1CEA
330
1CD2
330
1CD7
330
1CD3
 92
       22
 72
     1
 73
     1
 93
        8
 10
25.9709322672415
 20
3.347576112203057
 42
0.0
 10
25.92877650574593
 20
3.045974519724552
 42
-0.3696060376523694
 10
25.58588379175427
 20
2.870057733155022
 42
0.0
 10
25.47108749766136
 20
2.886103156372541
 42
-0.3541938351274232
 10
25.17427477727125
 20
3.157453445413239
 42
0.0
 10
25.21643053876682
 20
3.459055037891914
 42
-0.3439742752229287
 10
25.58698051573322
 20
3.668449396631842
 42
0.0
 10
25.69536003945933
 20
3.653300864703851
 42
-0.3460733018205655
 97
        8
330
1CE2
330
1CE8
330
1CE4
330
1CE7
330
1CE3
330
1CE6
330
1CE1
330
1CE5
 75
     0
 76
     1
 47
0.0514683685270805
 98
        2
 10
26.4770758482868
 20
3.660574202124962
 10
26.4770758482868
 20
3.660574202124962
450
        0
451
        0
460
0.0
461
0.0
452
        0
462
0.0
453
        0
470

  0
HATCH
  5
1CCB
330
1CA4
100
AcDbEntity
  8
ROGO
 62
     4
100
AcDbHatch
 10
0.0
 20
0.0
 30
0.0
210
0.0
220
0.0
230
1.0
  2
SOLID
 70
     1
 71
     1
 91
        1
 92
        5
 93
        8
 72
     1
 10
23.27919423493069
 20
4.949786840425645
 11
20.10690665697018
 21
4.949786840425701
 72
     4
 94
        3
 73
     0
 74
     0
 95
       26
 96
       22
 40
0.0
 40
0.0
 40
0.0
 40
0.0
 40
0.7089867102952115
 40
1.183598414482279
 40
1.525832104103439
 40
1.781366926528389
 40
2.112809002752968
 40
2.354729406992515
 40
2.791581270399936
 40
3.147172406765291
 40
3.389031356825354
 40
3.626186440486682
 40
4.050410779375985
 40
4.350388020238963
 40
4.511948940797758
 40
4.741441456013356
 40
4.907163150576407
 40
5.147239172635527
 40
5.28310143501293
 40
5.578752957634333
 40
5.713750011164293
 40
5.713750011164293
 40
5.713750011164293
 40
5.713750011164293
 10
20.10690665696961
 20
4.949786840425645
 10
19.9118576355076
 20
4.938149881331241
 10
19.58623839723913
 20
4.91872287919773
 10
19.22871045445441
 20
4.701528493521777
 10
18.9667645527374
 20
4.575261222274434
 10
18.77994505330895
 20
4.403611624277402
 10
18.64300560291741
 20
4.226310128312206
 10
18.47036771803317
 20
4.01505669587766
 10
18.32958645604225
 20
3.769060622409824
 10
18.25789511795477
 20
3.497930064177751
 10
18.19439161110068
 20
3.281837436117484
 10
18.14729634731026
 20
3.041030402807223
 10
18.15927871566845
 20
2.780874095348053
 10
18.1764380155459
 20
2.53925423559815
 10
18.25305011690938
 20
2.366773831190926
 10
18.34029773002083
 20
2.243979668736869
 10
18.44713123742571
 20
2.108735512341468
 10
18.56403045709697
 20
2.019163745498303
 10
18.66071565374244
 20
1.85689847078413
 10
18.82995982885865
 20
1.836192251465718
 10
18.93753815968586
 20
1.794980695042511
 10
18.97126114982126
 20
1.782061951090668
 72
     1
 10
18.97126114982103
 20
1.782061951090668
 11
21.6996642971182
 21
1.782061951090724
 72
     1
 10
21.6996642971182
 20
1.782061951090781
 11
22.28734561971584
 21
2.960648509043551
 72
     1
 10
22.28734561971584
 20
2.960648509043494
 11
20.26176686826005
 21
2.960648509043494
 72
     4
 94
        3
 73
     0
 74
     0
 95
       16
 96
       12
 40
0.0
 40
0.0
 40
0.0
 40
0.0
 40
0.2141121027475241
 40
0.4304326162973471
 40
0.5594580803306056
 40
0.6831669452691567
 40
0.8190286678446897
 40
0.9139043619204622
 40
1.003933161420314
 40
1.186498641432482
 40
1.560280494298353
 40
1.560280494298353
 40
1.560280494298353
 40
1.560280494298353
 10
20.26176686826034
 20
2.960648509043494
 10
20.20066827486522
 20
2.978624611086615
 10
20.07784090046783
 20
3.014762225607
 10
20.06756124108432
 20
3.18994410491291
 10
20.081565789786
 20
3.314775529002361
 10
20.14021687102769
 20
3.40566009542573
 10
20.21137080546811
 20
3.471790575521481
 10
20.237864571025
 20
3.557915185942079
 10
20.31574058104508
 20
3.622950041937542
 10
20.45383561326139
 20
3.732264550099955
 10
20.60654481322524
 20
3.755546097864453
 10
20.70914246102353
 20
3.77118780143121
 72
     1
 10
20.70914246102353
 20
3.77118780143121
 11
22.69150668888256
 21
3.771187801431267
 72
     1
 10
22.69150668888256
 20
3.77118780143121
 11
23.27919423493069
 21
4.949786840425645
 97
        8
330
1CE0
330
1CCD
330
1CD4
330
1CD0
330
1CDF
330
1CDC
330
1CDE
330
1CDD
 75
     0
 76
     1
 47
0.0514683685270805
 98
        1
 10
21.21637307488407
 20
4.244614142874524
450
        0
451
        0
460
0.0
461
0.0
452
        0
462
0.0
453
        0
470

  0
SPLINE
  5
1CCC
102
{ACAD_REACTORS
330
1CA6
102
}
330
1CA4
100
AcDbEntity
  8
ROGO
 62
     4
100
AcDbSpline
210
0.0
220
0.0
230
1.0
 70
     8
 71
     3
 72
    26
 73
    22
 74
    20
 42
0.0000000001
 43
0.0000000001
 44
0.0000000001
 40
0.0
 40
0.0
 40
0.0
 40
0.0
 40
0.5746615864749196
 40
0.9593530213456462
 40
1.236746873962384
 40
1.443867888111121
 40
1.712514714041724
 40
1.90860070730817
 40
2.262686307552686
 40
2.55090689560158
 40
2.746943077840944
 40
2.939166591537864
 40
3.283017086994854
 40
3.526160427536374
 40
3.657111901763582
 40
3.843124602654698
 40
3.97744854769916
 40
4.172039596738211
 40
4.282161298747791
 40
4.521798474686698
 40
4.631218890929293
 40
4.631218890929293
 40
4.631218890929293
 40
4.631218890929293
 10
30.31359802057318
 20
4.949786840425645
 30
0.0
 10
30.11854899911117
 20
4.938149881331216
 30
0.0
 10
29.79292976084273
 20
4.918722879197668
 30
0.0
 10
29.43540181805795
 20
4.701528493521752
 30
0.0
 10
29.17345591634098
 20
4.575261222274342
 30
0.0
 10
28.98663641691248
 20
4.403611624277403
 30
0.0
 10
28.84969696652104
 20
4.226310128312151
 30
0.0
 10
28.67705908163667
 20
4.015056695877607
 30
0.0
 10
28.53627781964588
 20
3.769060622409776
 30
0.0
 10
28.46458648155826
 20
3.49793006417775
 30
0.0
 10
28.40108297470428
 20
3.28183743611741
 30
0.0
 10
28.35398771091379
 20
3.041030402807234
 30
0.0
 10
28.36597007927193
 20
2.780874095348088
 30
0.0
 10
28.38312937914937
 20
2.539254235598058
 30
0.0
 10
28.45974148051292
 20
2.366773831190866
 30
0.0
 10
28.54698909362438
 20
2.243979668736892
 30
0.0
 10
28.65382260102934
 20
2.108735512341419
 30
0.0
 10
28.77072182070049
 20
2.019163745498228
 30
0.0
 10
28.86740701734603
 20
1.85689847078413
 30
0.0
 10
29.03665119246222
 20
1.836192251465618
 30
0.0
 10
29.14422952328949
 20
1.794980695042471
 30
0.0
 10
29.17795251342483
 20
1.782061951090668
 30
0.0
 11
30.31359802057318
 21
4.949786840425645
 31
0.0
 11
29.74577526699892
 21
4.861394196539322
 31
0.0
 11
29.40163981509602
 21
4.689468948810883
 31
0.0
 11
29.1607454934744
 21
4.551928862726811
 31
0.0
 11
29.00588528218367
 21
4.414388216149177
 31
0.0
 11
28.83381805094274
 21
4.208077806776145
 31
0.0
 11
28.7133708901319
 21
4.053345139869975
 31
0.0
 11
28.54130266946999
 21
3.743879245563732
 31
0.0
 11
28.45526954855979
 21
3.468798512902026
 31
0.0
 11
28.4036494781297
 21
3.279680684351205
 31
0.0
 11
28.36923543822883
 21
3.090562855800612
 31
0.0
 11
28.36923543822883
 21
2.746712360343622
 31
0.0
 11
28.4036494781297
 21
2.506016789326224
 31
0.0
 11
28.45526954855979
 21
2.385668723570802
 31
0.0
 11
28.55850968942019
 21
2.230936056664518
 31
0.0
 11
28.64454379975138
 21
2.127780571731193
 31
0.0
 11
28.78219699109144
 21
1.99024048564712
 31
0.0
 11
28.85102408147219
 21
1.904277581536064
 31
0.0
 11
29.07471237256442
 21
1.818315237918568
 31
0.0
 11
29.17795251342483
 21
1.782061951090668
 31
0.0
  0
SPLINE
  5
1CCD
102
{ACAD_REACTORS
330
1CCB
102
}
330
1CA4
100
AcDbEntity
  8
ROGO
 62
     4
100
AcDbSpline
210
0.0
220
0.0
230
1.0
 70
     8
 71
     3
 72
    26
 73
    22
 74
    20
 42
0.0000000001
 43
0.0000000001
 44
0.0000000001
 40
0.0
 40
0.0
 40
0.0
 40
0.0
 40
0.5746615864749109
 40
0.9593530213456375
 40
1.236746873962375
 40
1.44386788811115
 40
1.71251471404171
 40
1.9086007073082
 40
2.262686307552666
 40
2.550906895601598
 40
2.746943077840867
 40
2.939166591537899
 40
3.28301708699489
 40
3.526160427536353
 40
3.657111901763635
 40
3.843124602654719
 40
3.977448547699138
 40
4.172039596738189
 40
4.282161298747769
 40
4.521798474686655
 40
4.631218890929288
 40
4.631218890929288
 40
4.631218890929288
 40
4.631218890929288
 10
20.10690665696961
 20
4.949786840425645
 30
0.0
 10
19.91185763550759
 20
4.938149881331241
 30
0.0
 10
19.58623839723914
 20
4.918722879197736
 30
0.0
 10
19.22871045445439
 20
4.701528493521801
 30
0.0
 10
18.96676455273739
 20
4.575261222274411
 30
0.0
 10
18.77994505330897
 20
4.4036116242774
 30
0.0
 10
18.64300560291743
 20
4.226310128312206
 30
0.0
 10
18.47036771803315
 20
4.015056695877609
 30
0.0
 10
18.32958645604223
 20
3.769060622409829
 30
0.0
 10
18.25789511795483
 20
3.497930064177774
 30
0.0
 10
18.19439161110065
 20
3.281837436117467
 30
0.0
 10
18.14729634731024
 20
3.041030402807263
 30
0.0
 10
18.15927871566836
 20
2.780874095348114
 30
0.0
 10
18.17643801554578
 20
2.539254235598062
 30
0.0
 10
18.25305011690943
 20
2.366773831190911
 30
0.0
 10
18.3402977300208
 20
2.243979668736876
 30
0.0
 10
18.44713123742579
 20
2.10873551234148
 30
0.0
 10
18.56403045709692
 20
2.019163745498289
 30
0.0
 10
18.66071565374245
 20
1.856898470784175
 30
0.0
 10
18.82995982885869
 20
1.836192251465799
 30
0.0
 10
18.93753815968592
 20
1.794980695042517
 30
0.0
 10
18.97126114982126
 20
1.782061951090668
 30
0.0
 11
20.10690665696961
 21
4.949786840425645
 31
0.0
 11
19.53908390339535
 21
4.861394196539379
 31
0.0
 11
19.19494845149245
 21
4.68946894881094
 31
0.0
 11
18.95405412987082
 21
4.551928862726867
 31
0.0
 11
18.7991939185801
 21
4.414388216149177
 31
0.0
 11
18.62712668733917
 21
4.208077806776202
 31
0.0
 11
18.50667952652833
 21
4.053345139869975
 31
0.0
 11
18.33461130586641
 21
3.743879245563789
 31
0.0
 11
18.24857818495627
 21
3.468798512902026
 31
0.0
 11
18.19695811452612
 21
3.279680684351319
 31
0.0
 11
18.16254407462526
 21
3.090562855800612
 31
0.0
 11
18.16254407462526
 21
2.746712360343622
 31
0.0
 11
18.19695811452612
 21
2.506016789326281
 31
0.0
 11
18.24857818495627
 21
2.385668723570802
 31
0.0
 11
18.35181832581662
 21
2.230936056664518
 31
0.0
 11
18.43785243614781
 21
2.12778057173125
 31
0.0
 11
18.57550562748787
 21
1.990240485647177
 31
0.0
 11
18.64433271786862
 21
1.904277581536121
 31
0.0
 11
18.86802100896085
 21
1.818315237918682
 31
0.0
 11
18.97126114982126
 21
1.782061951090668
 31
0.0
  0
LINE
  5
1CCE
102
{ACAD_REACTORS
330
1CAC
102
}
330
1CA4
100
AcDbEntity
  8
ROGO
 62
     4
100
AcDbLine
 10
15.99342784516443
 20
4.949786840425645
 30
0.0
 11
18.27773582687916
 21
1.782061951090668
 31
0.0
  0
LINE
  5
1CCF
102
{ACAD_REACTORS
330
1CAC
102
}
330
1CA4
100
AcDbEntity
  8
ROGO
 62
     4
100
AcDbLine
 10
16.08846512307542
 20
2.385177170679753
 30
0.0
 11
16.52338322932866
 21
1.782061951090781
 31
0.0
  0
LINE
  5
1CD0
102
{ACAD_REACTORS
330
1CCB
102
}
330
1CA4
100
AcDbEntity
  8
ROGO
 62
     4
100
AcDbLine
 10
22.28734561971584
 20
2.960648509043494
 30
0.0
 11
21.69966429711815
 21
1.782061951090668
 31
0.0
  0
LINE
  5
1CD1
102
{ACAD_REACTORS
330
1CA6
102
}
330
1CA4
100
AcDbEntity
  8
ROGO
 62
     4
100
AcDbLine
 10
32.49403698331935
 20
2.960648509043494
 30
0.0
 11
31.90635566072177
 21
1.782061951090611
 31
0.0
  0
ARC
  5
1CD2
102
{ACAD_REACTORS
330
1CCA
102
}
330
1CA4
100
AcDbEntity
  8
ROGO
 62
     4
100
AcDbCircle
 10
24.94987936318324
 20
3.365924395758156
 30
0.0
 40
1.585199932421021
100
AcDbArc
 50
92.3538081120337
 51
270.0
  0
ARC
  5
1CD3
102
{ACAD_REACTORS
330
1CCA
102
}
330
1CA4
100
AcDbEntity
  8
ROGO
 62
     4
100
AcDbCircle
 10
26.16568830176476
 20
3.364586908004639
 30
0.0
 40
1.585199932421021
100
AcDbArc
 50
273.3290215232082
 51
90.0000000000006
  0
LINE
  5
1CD4
102
{ACAD_REACTORS
330
1CCB
102
}
330
1CA4
100
AcDbEntity
  8
ROGO
 62
     4
100
AcDbLine
 10
18.97126114982109
 20
1.782061951090668
 30
0.0
 11
21.6996642971182
 21
1.782061951090668
 31
0.0
  0
LINE
  5
1CD5
102
{ACAD_REACTORS
330
1CAC
102
}
330
1CA4
100
AcDbEntity
  8
ROGO
 62
     4
100
AcDbLine
 10
18.27773582687911
 20
1.782061951090668
 30
0.0
 11
16.52338322932866
 21
1.782061951090668
 31
0.0
  0
LINE
  5
1CD6
330
1CA4
100
AcDbEntity
  8
ROGO
 62
     4
100
AcDbLine
 10
24.8847749691733
 20
1.782061951090668
 30
0.0
 11
26.25774038752019
 21
1.782061951090668
 31
0.0
  0
LINE
  5
1CD7
102
{ACAD_REACTORS
330
1CCA
102
}
330
1CA4
100
AcDbEntity
  8
ROGO
 62
     4
100
AcDbLine
 10
24.8847749691721
 20
1.782061951090668
 30
0.0
 11
26.25774038752121
 21
1.782061951090668
 31
0.0
  0
LINE
  5
1CD8
102
{ACAD_REACTORS
330
1CA6
102
}
330
1CA4
100
AcDbEntity
  8
ROGO
 62
     4
100
AcDbLine
 10
29.1779525134246
 20
1.782061951090668
 30
0.0
 11
31.90635566072177
 21
1.782061951090668
 31
0.0
  0
LINE
  5
1CD9
102
{ACAD_REACTORS
330
1CAC
102
}
330
1CA4
100
AcDbEntity
  8
ROGO
 62
     4
100
AcDbLine
 10
15.07801729959914
 20
3.786398348131228
 30
0.0
 11
14.52629071767222
 21
3.021300979620718
 31
0.0
  0
LINE
  5
1CDA
102
{ACAD_REACTORS
330
1CAC
102
}
330
1CA4
100
AcDbEntity
  8
ROGO
 62
     4
100
AcDbLine
 10
14.52629071767222
 20
3.021300979620775
 30
0.0
 11
15.62974388152599
 21
3.021300979620775
 31
0.0
  0
LINE
  5
1CDB
102
{ACAD_REACTORS
330
1CAC
102
}
330
1CA4
100
AcDbEntity
  8
ROGO
 62
     4
100
AcDbLine
 10
15.07801729959914
 20
3.786398348131228
 30
0.0
 11
15.62974388152599
 21
3.021300979620718
 31
0.0
  0
SPLINE
  5
1CDC
102
{ACAD_REACTORS
330
1CCB
102
}
330
1CA4
100
AcDbEntity
  8
ROGO
 62
     4
100
AcDbSpline
210
0.0
220
0.0
230
1.0
 70
     8
 71
     3
 72
    16
 73
    12
 74
    10
 42
0.0000000001
 43
0.0000000001
 44
0.0000000001
 40
0.0
 40
0.0
 40
0.0
 40
0.0
 40
0.3029648785292891
 40
0.4509413735127203
 40
0.5239132529538693
 40
0.6008137308948465
 40
0.7109349953737907
 40
0.8112058912231434
 40
0.9157860995406091
 40
1.091122375522293
 40
1.264668647774888
 40
1.264668647774888
 40
1.264668647774888
 40
1.264668647774888
 10
20.70914246102353
 20
3.77118780143121
 30
0.0
 10
20.60654481322523
 20
3.75554609786451
 30
0.0
 10
20.45383561326141
 20
3.732264550100005
 30
0.0
 10
20.31574058104511
 20
3.622950041937553
 30
0.0
 10
20.237864571025
 20
3.557915185941986
 30
0.0
 10
20.21137080546809
 20
3.471790575521536
 30
0.0
 10
20.14021687102763
 20
3.405660095425645
 30
0.0
 10
20.08156578978607
 20
3.314775529002434
 30
0.0
 10
20.06756124108431
 20
3.189944104912836
 30
0.0
 10
20.07784090046788
 20
3.014762225607029
 30
0.0
 10
20.2006682748652
 20
2.978624611086606
 30
0.0
 10
20.26176686826034
 20
2.960648509043494
 30
0.0
 11
20.70914246102353
 21
3.77118780143121
 31
0.0
 11
20.41662806897176
 21
3.692301503097155
 31
0.0
 11
20.29618090816098
 21
3.606339159479716
 31
0.0
 11
20.24456083773083
 21
3.554761417013025
 31
0.0
 11
20.21014679782997
 21
3.48599109372418
 31
0.0
 11
20.14131970744944
 21
3.400028750106798
 31
0.0
 11
20.08969963701918
 21
3.314065845995742
 31
0.0
 11
20.07249261706875
 21
3.210910921556092
 31
0.0
 11
20.10690665696961
 21
3.038985113333978
 31
0.0
 11
20.26176686826034
 21
2.960648509043494
 31
0.0
  0
LINE
  5
1CDD
102
{ACAD_REACTORS
330
1CCB
102
}
330
1CA4
100
AcDbEntity
  8
ROGO
 62
     4
100
AcDbLine
 10
23.27919423493069
 20
4.949786840425645
 30
0.0
 11
22.69150668888256
 21
3.77118780143121
 31
0.0
  0
LINE
  5
1CDE
102
{ACAD_REACTORS
330
1CCB
102
}
330
1CA4
100
AcDbEntity
  8
ROGO
 62
     4
100
AcDbLine
 10
20.70914246102342
 20
3.77118780143121
 30
0.0
 11
22.69150668888256
 21
3.771187801431267
 31
0.0
  0
LINE
  5
1CDF
102
{ACAD_REACTORS
330
1CCB
102
}
330
1CA4
100
AcDbEntity
  8
ROGO
 62
     4
100
AcDbLine
 10
20.26176686826017
 20
2.960648509043494
 30
0.0
 11
22.28734561971584
 21
2.960648509043494
 31
0.0
  0
LINE
  5
1CE0
102
{ACAD_REACTORS
330
1CCB
102
}
330
1CA4
100
AcDbEntity
  8
ROGO
 62
     4
100
AcDbLine
 10
20.10690665697052
 20
4.949786840425758
 30
0.0
 11
23.27919423493069
 21
4.949786840425758
 31
0.0
  0
LINE
  5
1CE1
102
{ACAD_REACTORS
330
1CCA
102
}
330
1CA4
100
AcDbEntity
  8
ROGO
 62
     4
100
AcDbLine
 10
25.58056374536529
 20
3.669346287921371
 30
0.0
 11
25.69536003945927
 21
3.653300864703908
 31
0.0
  0
LINE
  5
1CE2
102
{ACAD_REACTORS
330
1CCA
102
}
330
1CA4
100
AcDbEntity
  8
ROGO
 62
     4
100
AcDbLine
 10
25.97093226724161
 20
3.347576112203455
 30
0.0
 11
25.92877650574604
 21
3.04597451972495
 31
0.0
  0
LINE
  5
1CE3
102
{ACAD_REACTORS
330
1CCA
102
}
330
1CA4
100
AcDbEntity
  8
ROGO
 62
     4
100
AcDbLine
 10
25.17427477727125
 20
3.157453445413295
 30
0.0
 11
25.21643053876682
 21
3.45905503789163
 31
0.0
  0
LINE
  5
1CE4
102
{ACAD_REACTORS
330
1CCA
102
}
330
1CA4
100
AcDbEntity
  8
ROGO
 62
     4
100
AcDbLine
 10
25.4710874976596
 20
2.886103156372769
 30
0.0
 11
25.58588379175365
 21
2.870057733155078
 31
0.0
  0
ARC
  5
1CE5
102
{ACAD_REACTORS
330
1CCA
102
}
330
1CA4
100
AcDbEntity
  8
ROGO
 62
     4
100
AcDbCircle
 10
25.6387443480632
 20
3.325209828916854
 30
0.0
 40
0.3329400310507254
100
AcDbArc
 50
3.851923331663601
 51
80.20940670206341
  0
ARC
  5
1CE6
102
{ACAD_REACTORS
330
1CCA
102
}
330
1CA4
100
AcDbEntity
  8
ROGO
 62
     4
100
AcDbCircle
 10
25.53588647264388
 20
3.326301951055086
 30
0.0
 40
0.3459414339941871
100
AcDbArc
 50
82.57970078354313
 51
157.4341870372611
  0
ARC
  5
1CE7
102
{ACAD_REACTORS
330
1CCA
102
}
330
1CA4
100
AcDbEntity
  8
ROGO
 62
     4
100
AcDbCircle
 10
25.49018017588719
 20
3.204994782556525
 30
0.0
 40
0.3194626732688521
100
AcDbArc
 50
188.5583509056651
 51
266.5736774635929
  0
ARC
  5
1CE8
102
{ACAD_REACTORS
330
1CCA
102
}
330
1CA4
100
AcDbEntity
  8
ROGO
 62
     4
100
AcDbCircle
 10
25.6545957362211
 20
3.158263540113921
 30
0.0
 40
0.2962835103026008
100
AcDbArc
 50
256.5902863289752
 51
337.7287536965499
  0
LINE
  5
1CE9
330
1CA4
100
AcDbEntity
  8
ROGO
 62
     4
100
AcDbLine
 10
24.88477496917261
 20
4.949786840425645
 30
0.0
 11
25.78248633299404
 21
4.949786840425645
 31
0.0
  0
LINE
  5
1CEA
102
{ACAD_REACTORS
330
1CCA
102
}
330
1CA4
100
AcDbEntity
  8
ROGO
 62
     4
100
AcDbLine
 10
24.88477496917216
 20
4.949786840425645
 30
0.0
 11
26.16568830176476
 21
4.949786840425645
 31
0.0
  0
SPLINE
  5
1CEB
102
{ACAD_REACTORS
330
1CA6
102
}
330
1CA4
100
AcDbEntity
  8
ROGO
 62
     4
100
AcDbSpline
210
0.0
220
0.0
230
1.0
 70
     8
 71
     3
 72
    16
 73
    12
 74
    10
 42
0.0000000001
 43
0.0000000001
 44
0.0000000001
 40
0.0
 40
0.0
 40
0.0
 40
0.0
 40
0.3029648785292594
 40
0.4509413735127369
 40
0.5239132529538859
 40
0.6008137308948632
 40
0.710934995373763
 40
0.811205891223145
 40
0.9157860995407135
 40
1.091122375522274
 40
1.264668647774946
 40
1.264668647774946
 40
1.264668647774946
 40
1.264668647774946
 10
30.9158338246271
 20
3.771187801431096
 30
0.0
 10
30.81323617682881
 20
3.755546097864422
 30
0.0
 10
30.660526976865
 20
3.732264550099954
 30
0.0
 10
30.5224319446486
 20
3.62295004193761
 30
0.0
 10
30.44455593462858
 20
3.557915185941908
 30
0.0
 10
30.41806216907167
 20
3.4717905755215
 30
0.0
 10
30.34690823463119
 20
3.405660095425618
 30
0.0
 10
30.28825715338954
 20
3.314775529002425
 30
0.0
 10
30.27425260468793
 20
3.189944104912787
 30
0.0
 10
30.28453226407141
 20
3.014762225606994
 30
0.0
 10
30.40735963846873
 20
2.978624611086564
 30
0.0
 10
30.46845823186391
 20
2.960648509043437
 30
0.0
 11
30.9158338246271
 21
3.771187801431096
 31
0.0
 11
30.62331943257533
 21
3.692301503097155
 31
0.0
 11
30.50287227176449
 21
3.606339159479716
 31
0.0
 11
30.4512522013344
 21
3.554761417012969
 31
0.0
 11
30.41683816143353
 21
3.485991093724123
 31
0.0
 11
30.34801107105301
 21
3.400028750106798
 31
0.0
 11
30.29639100062269
 21
3.314065845995742
 31
0.0
 11
30.27918398067232
 21
3.210910921555978
 31
0.0
 11
30.31359802057313
 21
3.038985113333978
 31
0.0
 11
30.46845823186391
 21
2.960648509043437
 31
0.0
  0
LINE
  5
1CEC
102
{ACAD_REACTORS
330
1CA6
102
}
330
1CA4
100
AcDbEntity
  8
ROGO
 62
     4
100
AcDbLine
 10
30.46845823186379
 20
2.960648509043494
 30
0.0
 11
32.49403698331941
 21
2.960648509043494
 31
0.0
  0
LINE
  5
1CED
102
{ACAD_REACTORS
330
1CA6
102
}
330
1CA4
100
AcDbEntity
  8
ROGO
 62
     4
100
AcDbLine
 10
30.91583382462699
 20
3.77118780143121
 30
0.0
 11
32.89819805248607
 21
3.77118780143121
 31
0.0
  0
LINE
  5
1CEE
102
{ACAD_REACTORS
330
1CA5
102
}
330
1CA4
100
AcDbEntity
  8
ROGO
 62
     4
100
AcDbLine
 10
35.38336074148231
 20
2.474893420212765
 30
0.0
 11
36.6174225324171
 21
0.0
 31
0.0
  0
LINE
  5
1CEF
102
{ACAD_REACTORS
330
1CA5
102
}
330
1CA4
100
AcDbEntity
  8
ROGO
 62
     4
100
AcDbLine
 10
34.14933885635003
 20
1.291950329372127
 30
0.0
 11
34.79354701668626
 21
0.0
 31
0.0
  0
LINE
  5
1CF0
102
{ACAD_REACTORS
330
1CA5
102
}
330
1CA4
100
AcDbEntity
  8
ROGO
 62
     4
100
AcDbLine
 10
34.14933885635008
 20
1.29195032937207
 30
0.0
 11
33.50513069601385
 21
0.0
 31
0.0
  0
LINE
  5
1CF1
102
{ACAD_REACTORS
330
1CA5
102
}
330
1CA4
100
AcDbEntity
  8
ROGO
 62
     4
100
AcDbLine
 10
34.79354701668626
 20
0.0
 30
0.0
 11
36.6174225324171
 21
0.0
 31
0.0
  0
LINE
  5
1CF2
102
{ACAD_REACTORS
330
1CA5
102
}
330
1CA4
100
AcDbEntity
  8
ROGO
 62
     4
100
AcDbLine
 10
35.38336074148231
 20
2.474893420212765
 30
0.0
 11
38.38165352405161
 21
4.949786840425645
 31
0.0
  0
LINE
  5
1CF3
102
{ACAD_REACTORS
330
1CA5
102
}
330
1CA4
100
AcDbEntity
  8
ROGO
 62
     4
100
AcDbLine
 10
36.55777800832078
 20
4.949786840425645
 30
0.0
 11
38.38165352405156
 21
4.949786840425645
 31
0.0
  0
LINE
  5
1CF4
102
{ACAD_REACTORS
330
1CA5
102
}
330
1CA4
100
AcDbEntity
  8
ROGO
 62
     4
100
AcDbLine
 10
34.14933885635003
 20
4.949786840425645
 30
0.0
 11
35.97325427788326
 21
4.949786840425588
 31
0.0
  0
LINE
  5
1CF5
102
{ACAD_REACTORS
330
1CA5
102
}
330
1CA4
100
AcDbEntity
  8
ROGO
 62
     4
100
AcDbLine
 10
35.97325427788326
 20
4.949786840425588
 30
0.0
 11
35.70378540756269
 21
4.409370842614521
 31
0.0
  0
LINE
  5
1CF6
102
{ACAD_REACTORS
330
1CA5
102
}
330
1CA4
100
AcDbEntity
  8
ROGO
 62
     4
100
AcDbLine
 10
35.70378540756269
 20
4.409370842614521
 30
0.0
 11
36.55777800832078
 21
4.949786840425645
 31
0.0
  0
ENDBLK
  5
1CF8
330
1CA4
100
AcDbEntity
  8
0
100
AcDbBlockEnd
  0
BLOCK
  5
212B
330
2109
100
AcDbEntity
  8
0
100
AcDbBlockBegin
  2
*D42
 70
     1
 10
0.0
 20
0.0
 30
0.0
  3
*D42
  1

  0
LINE
  5
212C
330
2109
100
AcDbEntity
  8
0
  6
ByBlock
 62
     2
100
AcDbLine
 10
-164.3825256914658
 20
337.8081162981867
 30
0.0
 11
-146.0060119057691
 21
337.8081162981867
 31
0.0
  0
LINE
  5
212D
330
2109
100
AcDbEntity
  8
0
  6
ByBlock
 62
     2
100
AcDbLine
 10
-164.3825256914658
 20
271.8081162981867
 30
0.0
 11
-146.0060119057691
 21
271.8081162981867
 31
0.0
  0
LINE
  5
212E
330
2109
100
AcDbEntity
  8
0
  6
ByBlock
 62
     2
100
AcDbLine
 10
-147.2560119057691
 20
335.3081162981867
 30
0.0
 11
-147.2560119057691
 21
274.3081162981868
 31
0.0
  0
INSERT
  5
212F
330
2109
100
AcDbEntity
  8
0
  6
ByBlock
 62
     2
100
AcDbBlockReference
  2
_OPEN
 10
-147.2560119057691
 20
337.8081162981867
 30
0.0
 41
2.5
 42
2.5
 43
2.5
 50
90.0
  0
INSERT
  5
2130
330
2109
100
AcDbEntity
  8
0
  6
ByBlock
 62
     2
100
AcDbBlockReference
  2
_OPEN
 10
-147.2560119057691
 20
271.8081162981867
 30
0.0
 41
2.5
 42
2.5
 43
2.5
 50
270.0
  0
MTEXT
  5
2131
330
2109
100
AcDbEntity
  8
0
  6
ByBlock
 62
     6
100
AcDbMText
 10
-149.1310119057691
 20
304.8081162981867
 30
0.0
 40
2.5
 41
0.0
 71
     5
 72
     1
  1
\A1;φ66
  7
STYLE3
 11
0.0000000000000001
 21
1.0
 31
0.0
 73
     1
 44
1.0
  0
POINT
  5
2132
330
2109
100
AcDbEntity
  8
DEFPOINTS
  6
ByBlock
 62
     0
100
AcDbPoint
 10
-164.3825256914658
 20
337.8081162981867
 30
0.0
  0
POINT
  5
2133
330
2109
100
AcDbEntity
  8
DEFPOINTS
  6
ByBlock
 62
     0
100
AcDbPoint
 10
-164.3825256914658
 20
271.8081162981867
 30
0.0
  0
POINT
  5
2134
330
2109
100
AcDbEntity
  8
DEFPOINTS
  6
ByBlock
 62
     0
100
AcDbPoint
 10
-147.2560119057691
 20
271.8081162981867
 30
0.0
  0
ENDBLK
  5
2135
330
2109
100
AcDbEntity
  8
0
100
AcDbBlockEnd
  0
BLOCK
  5
2138
330
2137
100
AcDbEntity
  8
0
100
AcDbBlockBegin
  2
*D43
 70
     1
 10
0.0
 20
0.0
 30
0.0
  3
*D43
  1

  0
LINE
  5
2139
330
2137
100
AcDbEntity
  8
0
  6
ByBlock
 62
     2
100
AcDbLine
 10
-175.3825256914657
 20
347.8081162981868
 30
0.0
 11
-175.3825256914657
 21
359.08762335035
 31
0.0
  0
LINE
  5
213A
330
2137
100
AcDbEntity
  8
0
  6
ByBlock
 62
     2
100
AcDbLine
 10
-171.3825256914657
 20
347.8081162981869
 30
0.0
 11
-171.3825256914657
 21
359.08762335035
 31
0.0
  0
LINE
  5
213B
330
2137
100
AcDbEntity
  8
0
  6
ByBlock
 62
     2
100
AcDbLine
 10
-177.8825256914657
 20
357.83762335035
 30
0.0
 11
-180.3825256914657
 21
357.83762335035
 31
0.0
  0
LINE
  5
213C
330
2137
100
AcDbEntity
  8
0
  6
ByBlock
 62
     2
100
AcDbLine
 10
-168.8825256914657
 20
357.83762335035
 30
0.0
 11
-166.3825256914657
 21
357.83762335035
 31
0.0
  0
LINE
  5
213D
330
2137
100
AcDbEntity
  8
0
  6
ByBlock
 62
     2
100
AcDbLine
 10
-175.3825256914657
 20
357.83762335035
 30
0.0
 11
-171.3825256914657
 21
357.83762335035
 31
0.0
  0
INSERT
  5
213E
330
2137
100
AcDbEntity
  8
0
  6
ByBlock
 62
     2
100
AcDbBlockReference
  2
_OPEN
 10
-175.3825256914657
 20
357.83762335035
 30
0.0
 41
2.5
 42
2.5
 43
2.5
  0
INSERT
  5
213F
330
2137
100
AcDbEntity
  8
0
  6
ByBlock
 62
     2
100
AcDbBlockReference
  2
_OPEN
 10
-171.3825256914657
 20
357.83762335035
 30
0.0
 41
2.5
 42
2.5
 43
2.5
 50
180.0
  0
MTEXT
  5
2140
330
2137
100
AcDbEntity
  8
0
  6
ByBlock
 62
     6
100
AcDbMText
 10
-173.3825256914657
 20
359.71262335035
 30
0.0
 40
2.5
 41
0.0
 71
     5
 72
     1
  1
\A1;4
  7
STYLE3
 73
     1
 44
1.0
  0
POINT
  5
2141
330
2137
100
AcDbEntity
  8
DEFPOINTS
  6
ByBlock
 62
     0
100
AcDbPoint
 10
-175.3825256914657
 20
347.8081162981868
 30
0.0
  0
POINT
  5
2142
330
2137
100
AcDbEntity
  8
DEFPOINTS
  6
ByBlock
 62
     0
100
AcDbPoint
 10
-171.3825256914657
 20
347.8081162981869
 30
0.0
  0
POINT
  5
2143
330
2137
100
AcDbEntity
  8
DEFPOINTS
  6
ByBlock
 62
     0
100
AcDbPoint
 10
-171.3825256914657
 20
357.83762335035
 30
0.0
  0
ENDBLK
  5
2144
330
2137
100
AcDbEntity
  8
0
100
AcDbBlockEnd
  0
BLOCK
  5
2162
330
2146
100
AcDbEntity
  8
0
100
AcDbBlockBegin
  2
*D44
 70
     1
 10
0.0
 20
0.0
 30
0.0
  3
*D44
  1

  0
LINE
  5
2163
330
2146
100
AcDbEntity
  8
0
  6
ByBlock
 62
     2
100
AcDbLine
 10
-78.23693164056533
 20
351.6344085241944
 30
0.0
 11
-78.23693164056533
 21
366.1407610934348
 31
0.0
  0
LINE
  5
2164
330
2146
100
AcDbEntity
  8
0
  6
ByBlock
 62
     2
100
AcDbLine
 10
-72.83693164056533
 20
350.8243754851417
 30
0.0
 11
-72.83693164056533
 21
366.1407610934348
 31
0.0
  0
LINE
  5
2165
330
2146
100
AcDbEntity
  8
0
  6
ByBlock
 62
     2
100
AcDbLine
 10
-80.73693164056534
 20
364.8907610934348
 30
0.0
 11
-83.23693164056534
 21
364.8907610934348
 31
0.0
  0
LINE
  5
2166
330
2146
100
AcDbEntity
  8
0
  6
ByBlock
 62
     2
100
AcDbLine
 10
-70.33693164056533
 20
364.8907610934348
 30
0.0
 11
-61.22978878342246
 21
364.8907610934348
 31
0.0
  0
LINE
  5
2167
330
2146
100
AcDbEntity
  8
0
  6
ByBlock
 62
     2
100
AcDbLine
 10
-78.23693164056533
 20
364.8907610934348
 30
0.0
 11
-72.83693164056533
 21
364.8907610934348
 31
0.0
  0
INSERT
  5
2168
330
2146
100
AcDbEntity
  8
0
  6
ByBlock
 62
     2
100
AcDbBlockReference
  2
_OPEN
 10
-78.23693164056533
 20
364.8907610934348
 30
0.0
 41
2.5
 42
2.5
 43
2.5
  0
INSERT
  5
2169
330
2146
100
AcDbEntity
  8
0
  6
ByBlock
 62
     2
100
AcDbBlockReference
  2
_OPEN
 10
-72.83693164056533
 20
364.8907610934348
 30
0.0
 41
2.5
 42
2.5
 43
2.5
 50
180.0
  0
MTEXT
  5
216A
330
2146
100
AcDbEntity
  8
0
  6
ByBlock
 62
     6
100
AcDbMText
 10
-64.53336021199389
 20
366.7657610934348
 30
0.0
 40
2.5
 41
0.0
 71
     5
 72
     1
  1
\A1;5.4
  7
STYLE3
 73
     1
 44
1.0
  0
POINT
  5
216B
330
2146
100
AcDbEntity
  8
DEFPOINTS
  6
ByBlock
 62
     0
100
AcDbPoint
 10
-78.23693164056533
 20
351.6344085241944
 30
0.0
  0
POINT
  5
216C
330
2146
100
AcDbEntity
  8
DEFPOINTS
  6
ByBlock
 62
     0
100
AcDbPoint
 10
-72.83693164056533
 20
350.8243754851417
 30
0.0
  0
POINT
  5
216D
330
2146
100
AcDbEntity
  8
DEFPOINTS
  6
ByBlock
 62
     0
100
AcDbPoint
 10
-72.83693164056533
 20
364.8907610934348
 30
0.0
  0
ENDBLK
  5
216E
330
2146
100
AcDbEntity
  8
0
100
AcDbBlockEnd
  0
BLOCK
  5
2156
330
2155
100
AcDbEntity
  8
0
100
AcDbBlockBegin
  2
*D45
 70
     1
 10
0.0
 20
0.0
 30
0.0
  3
*D45
  1

  0
LINE
  5
2157
330
2155
100
AcDbEntity
  8
0
  6
ByBlock
 62
     2
100
AcDbLine
 10
-82.2369316405653
 20
347.8081162981867
 30
0.0
 11
-82.2369316405653
 21
359.08762335035
 31
0.0
  0
LINE
  5
2158
330
2155
100
AcDbEntity
  8
0
  6
ByBlock
 62
     2
100
AcDbLine
 10
-74.2369316405653
 20
347.8081162981868
 30
0.0
 11
-74.2369316405653
 21
359.08762335035
 31
0.0
  0
LINE
  5
2159
330
2155
100
AcDbEntity
  8
0
  6
ByBlock
 62
     2
100
AcDbLine
 10
-79.7369316405653
 20
357.83762335035
 30
0.0
 11
-76.7369316405653
 21
357.83762335035
 31
0.0
  0
INSERT
  5
215A
330
2155
100
AcDbEntity
  8
0
  6
ByBlock
 62
     2
100
AcDbBlockReference
  2
_OPEN
 10
-82.2369316405653
 20
357.83762335035
 30
0.0
 41
2.5
 42
2.5
 43
2.5
 50
180.0
  0
INSERT
  5
215B
330
2155
100
AcDbEntity
  8
0
  6
ByBlock
 62
     2
100
AcDbBlockReference
  2
_OPEN
 10
-74.2369316405653
 20
357.83762335035
 30
0.0
 41
2.5
 42
2.5
 43
2.5
  0
MTEXT
  5
215C
330
2155
100
AcDbEntity
  8
0
  6
ByBlock
 62
     6
100
AcDbMText
 10
-78.2369316405653
 20
359.71262335035
 30
0.0
 40
2.5
 41
0.0
 71
     5
 72
     1
  1
\A1;8
  7
STYLE3
 73
     1
 44
1.0
  0
POINT
  5
215D
330
2155
100
AcDbEntity
  8
DEFPOINTS
  6
ByBlock
 62
     0
100
AcDbPoint
 10
-82.2369316405653
 20
347.8081162981867
 30
0.0
  0
POINT
  5
215E
330
2155
100
AcDbEntity
  8
DEFPOINTS
  6
ByBlock
 62
     0
100
AcDbPoint
 10
-74.2369316405653
 20
347.8081162981868
 30
0.0
  0
POINT
  5
215F
330
2155
100
AcDbEntity
  8
DEFPOINTS
  6
ByBlock
 62
     0
100
AcDbPoint
 10
-74.2369316405653
 20
357.83762335035
 30
0.0
  0
ENDBLK
  5
2160
330
2155
100
AcDbEntity
  8
0
100
AcDbBlockEnd
  0
BLOCK
  5
21CF
330
21CE
100
AcDbEntity
  8
0
100
AcDbBlockBegin
  2
*D46
 70
     1
 10
0.0
 20
0.0
 30
0.0
  3
*D46
  1

  0
LINE
  5
21D0
330
21CE
100
AcDbEntity
  8
0
  6
ByBlock
 62
     2
100
AcDbLine
 10
-116.0644635987437
 20
347.8081162981867
 30
0.0
 11
-122.0060605082556
 21
347.8081162981867
 31
0.0
  0
LINE
  5
21D1
330
21CE
100
AcDbEntity
  8
0
  6
ByBlock
 62
     2
100
AcDbLine
 10
-115.8956904170484
 20
138.8081162981867
 30
0.0
 11
-122.0060605082556
 21
138.8081162981867
 31
0.0
  0
LINE
  5
21D2
330
21CE
100
AcDbEntity
  8
0
  6
ByBlock
 62
     2
100
AcDbLine
 10
-120.7560605082556
 20
345.3081162981868
 30
0.0
 11
-120.7560605082556
 21
141.3081162981868
 31
0.0
  0
INSERT
  5
21D3
330
21CE
100
AcDbEntity
  8
0
  6
ByBlock
 62
     2
100
AcDbBlockReference
  2
_OPEN
 10
-120.7560605082556
 20
347.8081162981867
 30
0.0
 41
2.5
 42
2.5
 43
2.5
 50
90.0
  0
INSERT
  5
21D4
330
21CE
100
AcDbEntity
  8
0
  6
ByBlock
 62
     2
100
AcDbBlockReference
  2
_OPEN
 10
-120.7560605082556
 20
138.8081162981867
 30
0.0
 41
2.5
 42
2.5
 43
2.5
 50
270.0
  0
MTEXT
  5
21D5
330
21CE
100
AcDbEntity
  8
0
  6
ByBlock
 62
     6
100
AcDbMText
 10
-122.6310605082556
 20
243.3081162981868
 30
0.0
 40
2.5
 41
0.0
 71
     5
 72
     1
  1
\A1;209
  7
STYLE3
 11
0.0000000000000001
 21
1.0
 31
0.0
 73
     1
 44
1.0
  0
POINT
  5
21D6
330
21CE
100
AcDbEntity
  8
DEFPOINTS
  6
ByBlock
 62
     0
100
AcDbPoint
 10
-116.0644635987437
 20
347.8081162981867
 30
0.0
  0
POINT
  5
21D7
330
21CE
100
AcDbEntity
  8
DEFPOINTS
  6
ByBlock
 62
     0
100
AcDbPoint
 10
-115.8956904170484
 20
138.8081162981867
 30
0.0
  0
POINT
  5
21D8
330
21CE
100
AcDbEntity
  8
DEFPOINTS
  6
ByBlock
 62
     0
100
AcDbPoint
 10
-120.7560605082556
 20
138.8081162981867
 30
0.0
  0
ENDBLK
  5
21D9
330
21CE
100
AcDbEntity
  8
0
100
AcDbBlockEnd
  0
BLOCK
  5
2219
330
2218
100
AcDbEntity
  8
0
100
AcDbBlockBegin
  2
*D47
 70
     1
 10
0.0
 20
0.0
 30
0.0
  3
*D47
  1

  0
LINE
  5
221A
330
2218
100
AcDbEntity
  8
0
  6
ByBlock
 62
     2
100
AcDbLine
 10
-51.36182925290518
 20
206.8081162981868
 30
0.0
 11
-48.09478284822285
 21
206.8081162981868
 31
0.0
  0
LINE
  5
221B
330
2218
100
AcDbEntity
  8
0
  6
ByBlock
 62
     2
100
AcDbLine
 10
-66.98693164056533
 20
210.3081162981868
 30
0.0
 11
-48.09478284822285
 21
210.3081162981868
 31
0.0
  0
LINE
  5
221C
330
2218
100
AcDbEntity
  8
0
  6
ByBlock
 62
     2
100
AcDbLine
 10
-49.34478284822285
 20
204.3081162981868
 30
0.0
 11
-49.34478284822285
 21
201.8081162981868
 31
0.0
  0
LINE
  5
221D
330
2218
100
AcDbEntity
  8
0
  6
ByBlock
 62
     2
100
AcDbLine
 10
-49.34478284822285
 20
212.8081162981868
 30
0.0
 11
-49.34478284822285
 21
221.7962115362821
 31
0.0
  0
LINE
  5
221E
330
2218
100
AcDbEntity
  8
0
  6
ByBlock
 62
     2
100
AcDbLine
 10
-49.34478284822285
 20
206.8081162981868
 30
0.0
 11
-49.34478284822285
 21
210.3081162981868
 31
0.0
  0
INSERT
  5
221F
330
2218
100
AcDbEntity
  8
0
  6
ByBlock
 62
     2
100
AcDbBlockReference
  2
_OPEN
 10
-49.34478284822285
 20
206.8081162981868
 30
0.0
 41
2.5
 42
2.5
 43
2.5
 50
90.0
  0
INSERT
  5
2220
330
2218
100
AcDbEntity
  8
0
  6
ByBlock
 62
     2
100
AcDbBlockReference
  2
_OPEN
 10
-49.34478284822285
 20
210.3081162981868
 30
0.0
 41
2.5
 42
2.5
 43
2.5
 50
270.0
  0
MTEXT
  5
2221
330
2218
100
AcDbEntity
  8
0
  6
ByBlock
 62
     6
100
AcDbMText
 10
-51.21978284822285
 20
218.5521639172344
 30
0.0
 40
2.5
 41
0.0
 71
     5
 72
     1
  1
\A1;3.5
  7
STYLE3
 11
0.0000000000000001
 21
1.0
 31
0.0
 73
     1
 44
1.0
  0
POINT
  5
2222
330
2218
100
AcDbEntity
  8
DEFPOINTS
  6
ByBlock
 62
     0
100
AcDbPoint
 10
-51.36182925290518
 20
206.8081162981868
 30
0.0
  0
POINT
  5
2223
330
2218
100
AcDbEntity
  8
DEFPOINTS
  6
ByBlock
 62
     0
100
AcDbPoint
 10
-66.98693164056533
 20
210.3081162981868
 30
0.0
  0
POINT
  5
2224
330
2218
100
AcDbEntity
  8
DEFPOINTS
  6
ByBlock
 62
     0
100
AcDbPoint
 10
-49.34478284822285
 20
210.3081162981868
 30
0.0
  0
ENDBLK
  5
2225
330
2218
100
AcDbEntity
  8
0
100
AcDbBlockEnd
  0
ENDSEC
  0
SECTION
  2
ENTITIES
  0
LWPOLYLINE
  5
1A0
330
18
100
AcDbEntity
  8
C
100
AcDbPolyline
 90
        5
 70
     0
 43
0.8
 38
1.0
 10
-228.1600053310424
 20
455.2679134216675
 10
529.6951974164533
 20
455.2679134216675
 10
529.6951974164533
 20
48.95661615000472
 10
-228.1600053310424
 20
48.95661615000472
 10
-228.1600053310424
 20
455.2679134216675
  0
LINE
  5
26D
330
18
100
AcDbEntity
  8
中心線
 48
2.0
100
AcDbLine
 10
-85.11957281978027
 20
234.3081162981867
 30
0.0
 11
517.396223087072
 21
234.3081162981867
 31
0.0
  0
ARC
  5
5C2
330
18
100
AcDbEntity
  8
外形線
100
AcDbCircle
 10
400.2630683594346
 20
234.3081162981867
 30
0.0
 40
27.5
100
AcDbArc
 50
270.0
 51
90.0
  0
ARC
  5
5C3
330
18
100
AcDbEntity
  8
外形線
100
AcDbCircle
 10
400.2630683594346
 20
234.3081162981867
 30
0.0
 40
34.5
100
AcDbArc
 50
295.7785662392843
 51
64.22143376071568
  0
ARC
  5
5C4
330
18
100
AcDbEntity
  8
外形線
100
AcDbCircle
 10
416.7630683594346
 20
234.3081162981867
 30
0.0
 40
95.0
100
AcDbArc
 50
266.7661614785363
 51
91.81596619605185
  0
ARC
  5
5C5
330
18
100
AcDbEntity
  8
外形線
100
AcDbCircle
 10
416.7630683594346
 20
234.3081162981867
 30
0.0
 40
88.0
100
AcDbArc
 50
271.8322860661967
 51
88.16771393380333
  0
LINE
  5
5C6
330
18
100
AcDbEntity
  8
外形線
100
AcDbLine
 10
400.2630683594346
 20
261.8081162981868
 30
0.0
 11
41.07217875646036
 21
261.8081162981868
 31
0.0
  0
LINE
  5
5C7
330
18
100
AcDbEntity
  8
外形線
100
AcDbLine
 10
400.2630683594346
 20
206.8081162981867
 30
0.0
 11
-87.23693164056532
 21
206.8081162981868
 31
0.0
  0
LINE
  5
5C8
330
18
100
AcDbEntity
  8
中心線
100
AcDbLine
 10
459.7630683594347
 20
291.0124857054819
 30
0.0
 11
459.7630683594347
 21
245.6037468908915
 31
0.0
  0
LINE
  5
5C9
330
18
100
AcDbEntity
  8
中心線
100
AcDbLine
 10
437.0586989521394
 20
268.3081162981868
 30
0.0
 11
482.4674377667299
 21
268.3081162981868
 31
0.0
  0
LINE
  5
5CA
330
18
100
AcDbEntity
  8
中心線
100
AcDbLine
 10
437.0586989521394
 20
200.3081162981867
 30
0.0
 11
482.4674377667299
 21
200.3081162981867
 31
0.0
  0
CIRCLE
  5
5CB
330
18
100
AcDbEntity
  8
外形線
100
AcDbCircle
 10
459.7630683594347
 20
200.3081162981867
 30
0.0
 40
17.5
  0
CIRCLE
  5
5CC
330
18
100
AcDbEntity
  8
外形線
100
AcDbCircle
 10
459.7630683594347
 20
268.3081162981868
 30
0.0
 40
17.5
  0
LINE
  5
5CE
330
18
100
AcDbEntity
  8
外形線
100
AcDbLine
 10
-87.23693164056545
 20
206.8081162981869
 30
0.0
 11
-87.23693164056532
 21
165.8081162981868
 31
0.0
  0
LINE
  5
5CF
330
18
100
AcDbEntity
  8
外形線
100
AcDbLine
 10
-14.23693164056533
 20
165.8081162981867
 30
0.0
 11
-87.23693164056532
 21
165.8081162981868
 31
0.0
  0
LINE
  5
5D6
330
18
100
AcDbEntity
  8
外形線
100
AcDbLine
 10
-14.23693164056533
 20
163.5085900984203
 30
0.0
 11
411.4040074030044
 21
139.4593921862343
 31
0.0
  0
LINE
  5
5D7
330
18
100
AcDbEntity
  8
外形線
100
AcDbLine
 10
-32.67844609736519
 20
303.0741953001577
 30
0.0
 11
101.2547721885568
 21
310.8918831516488
 31
0.0
  0
LINE
  5
5DC
330
18
100
AcDbEntity
  8
外形線
100
AcDbLine
 10
201.1786042073415
 20
322.5207023290628
 30
0.0
 11
413.7525864704576
 21
329.2604043106203
 31
0.0
  0
LINE
  5
5E6
330
18
100
AcDbEntity
  8
外形線
100
AcDbLine
 10
-28.46257631241497
 20
171.3235196494606
 30
0.0
 11
70.03742368758492
 21
165.7581574461133
 31
0.0
  0
LINE
  5
5E7
330
18
100
AcDbEntity
  8
外形線
100
AcDbLine
 10
388.7630683594348
 20
199.8081162981867
 30
0.0
 11
250.2630683594347
 21
199.8081162981868
 31
0.0
  0
LINE
  5
5EA
330
18
100
AcDbEntity
  8
中心線
100
AcDbLine
 10
459.7630683594347
 20
223.0124857054819
 30
0.0
 11
459.7630683594347
 21
177.6037468908915
 31
0.0
  0
LINE
  5
5EB
330
18
100
AcDbEntity
  8
外形線
100
AcDbLine
 10
201.4004291886346
 20
315.5242179491993
 30
0.0
 11
295.1363112272673
 21
318.4961334357183
 31
0.0
  0
LINE
  5
5EC
330
18
100
AcDbEntity
  8
外形線
100
AcDbLine
 10
388.7630683594347
 20
268.8081162981867
 30
0.0
 11
310.2630683594347
 21
268.8081162981867
 31
0.0
  0
LINE
  5
5ED
330
18
100
AcDbEntity
  8
外形線
100
AcDbLine
 10
-28.47001508952224
 20
296.3079270261261
 30
0.0
 11
89.43181800927378
 21
303.1898622180161
 31
0.0
  0
LINE
  5
5EE
330
18
100
AcDbEntity
  8
外形線
100
AcDbLine
 10
-37.23693164056533
 20
206.8081162981868
 30
0.0
 11
-37.23693164056533
 21
165.8081162981867
 31
0.0
  0
LINE
  5
5F0
330
18
100
AcDbEntity
  8
外形線
100
AcDbLine
 10
-32.23693164056533
 20
195.8081162981868
 30
0.0
 11
-32.23693164056533
 21
175.3171501383849
 31
0.0
  0
LINE
  5
5F6
330
18
100
AcDbEntity
  8
外形線
100
AcDbLine
 10
246.2630683594347
 20
195.8081162981868
 30
0.0
 11
246.2630683594347
 21
159.5815828933878
 31
0.0
  0
LINE
  5
5F7
330
18
100
AcDbEntity
  8
外形線
100
AcDbLine
 10
239.2630683594346
 20
195.8081162981868
 30
0.0
 11
239.2630683594347
 21
160.429099980192
 31
0.0
  0
LINE
  5
5F8
330
18
100
AcDbEntity
  8
外形線
100
AcDbLine
 10
74.26306835943467
 20
195.8081162981868
 30
0.0
 11
74.26306835943467
 21
169.7517879350376
 31
0.0
  0
LINE
  5
5F9
330
18
100
AcDbEntity
  8
外形線
100
AcDbLine
 10
81.26306835943456
 20
195.8081162981868
 30
0.0
 11
81.26306835943456
 21
168.9042708482335
 31
0.0
  0
ARC
  5
5FA
330
18
100
AcDbEntity
  8
外形線
100
AcDbCircle
 10
-17.23693164056533
 20
184.8081162981868
 30
0.0
 40
4.0
100
AcDbArc
 50
89.97553888839034
 51
266.9205230462649
  0
ARC
  5
5FB
330
18
100
AcDbEntity
  8
外形線
100
AcDbCircle
 10
57.76306835943467
 20
182.7760965937532
 30
0.0
 40
6.0
100
AcDbArc
 50
266.9205230462649
 51
89.97553888839032
  0
ARC
  5
5FC
330
18
100
AcDbEntity
  8
外形線
100
AcDbCircle
 10
99.76306835943455
 20
181.6381655592705
 30
0.0
 40
8.0
100
AcDbArc
 50
89.90432577425282
 51
266.9917361604024
  0
ARC
  5
5FD
330
18
100
AcDbEntity
  8
外形線
100
AcDbCircle
 10
217.7630683594347
 20
178.4411212242951
 30
0.0
 40
11.0
100
AcDbArc
 50
266.9917361604023
 51
89.90432577425279
  0
ARC
  5
5FE
330
18
100
AcDbEntity
  8
外形線
100
AcDbCircle
 10
269.7630683594347
 20
177.0322542292212
 30
0.0
 40
13.0
100
AcDbArc
 50
89.89208539990485
 51
267.0039765347503
  0
LINE
  5
600
330
18
100
AcDbEntity
  8
外形線
100
AcDbLine
 10
85.03742368758492
 20
164.9106403593092
 30
0.0
 11
235.0374236875849
 21
156.4354694912676
 31
0.0
  0
LINE
  5
601
330
18
100
AcDbEntity
  8
外形線
100
AcDbLine
 10
70.26306835943467
 20
199.8081162981868
 30
0.0
 11
-28.23693164056533
 21
199.8081162981868
 31
0.0
  0
LINE
  5
602
330
18
100
AcDbEntity
  8
外形線
100
AcDbLine
 10
235.2630683594346
 20
199.8081162981868
 30
0.0
 11
85.26306835943456
 21
199.8081162981868
 31
0.0
  0
LINE
  5
603
330
18
100
AcDbEntity
  8
外形線
100
AcDbLine
 10
250.037423687585
 20
155.5879524044635
 30
0.0
 11
388.7630683594348
 21
147.7497954553091
 31
0.0
  0
ARC
  5
604
330
18
100
AcDbEntity
  8
外形線
100
AcDbCircle
 10
-28.23693164056533
 20
175.3171501383849
 30
0.0
 40
4.0
100
AcDbArc
 50
180.0
 51
266.7661614785363
  0
ARC
  5
605
330
18
100
AcDbEntity
  8
外形線
100
AcDbCircle
 10
-28.23693164056533
 20
195.8081162981868
 30
0.0
 40
4.0
100
AcDbArc
 50
90.0
 51
180.0
  0
ARC
  5
606
330
18
100
AcDbEntity
  8
外形線
100
AcDbCircle
 10
70.26306835943467
 20
169.7517879350376
 30
0.0
 40
4.0
100
AcDbArc
 50
266.7661614785363
 51
0.0
  0
ARC
  5
607
330
18
100
AcDbEntity
  8
外形線
100
AcDbCircle
 10
70.26306835943467
 20
195.8081162981868
 30
0.0
 40
4.0
100
AcDbArc
 50
0.0
 51
90.0
  0
ARC
  5
608
330
18
100
AcDbEntity
  8
外形線
100
AcDbCircle
 10
85.26306835943456
 20
168.9042708482335
 30
0.0
 40
4.0
100
AcDbArc
 50
180.0
 51
266.7661614785363
  0
ARC
  5
609
330
18
100
AcDbEntity
  8
外形線
100
AcDbCircle
 10
85.26306835943456
 20
195.8081162981868
 30
0.0
 40
4.0
100
AcDbArc
 50
90.0
 51
180.0
  0
ARC
  5
60A
330
18
100
AcDbEntity
  8
外形線
100
AcDbCircle
 10
235.2630683594346
 20
195.8081162981868
 30
0.0
 40
4.0
100
AcDbArc
 50
0.0
 51
90.0
  0
ARC
  5
60B
330
18
100
AcDbEntity
  8
外形線
100
AcDbCircle
 10
235.2630683594347
 20
160.429099980192
 30
0.0
 40
4.0
100
AcDbArc
 50
266.7661614785363
 51
0.0000000000000254
  0
ARC
  5
60C
330
18
100
AcDbEntity
  8
外形線
100
AcDbCircle
 10
250.2630683594347
 20
159.5815828933878
 30
0.0
 40
4.0
100
AcDbArc
 50
180.0
 51
266.7661614785363
  0
ARC
  5
60D
330
18
100
AcDbEntity
  8
外形線
100
AcDbCircle
 10
250.2630683594347
 20
195.8081162981868
 30
0.0
 40
4.0
100
AcDbArc
 50
89.99999999999998
 51
180.0
  0
LINE
  5
60E
330
18
100
AcDbEntity
  8
外形線
100
AcDbLine
 10
-17.23522393287203
 20
188.8081159336535
 30
0.0
 11
57.76562992097456
 21
188.7760960469534
 31
0.0
  0
LINE
  5
60F
330
18
100
AcDbEntity
  8
外形線
100
AcDbLine
 10
-17.45181619636651
 20
180.8138923901317
 30
0.0
 11
57.44074152573285
 21
176.7847607316707
 31
0.0
  0
LINE
  5
610
330
18
100
AcDbEntity
  8
外形線
100
AcDbLine
 10
99.77642699521528
 20
189.6381544059408
 30
0.0
 11
217.781436483633
 21
189.4411058884669
 31
0.0
  0
LINE
  5
611
330
18
100
AcDbEntity
  8
外形線
100
AcDbLine
 10
217.18578847775
 20
167.4562794895134
 30
0.0
 11
99.34322844548217
 21
173.6491897521565
 31
0.0
  0
ARC
  5
613
330
18
100
AcDbEntity
  8
外形線
100
AcDbCircle
 10
388.7630683594347
 20
173.8081162981867
 30
0.0
 40
16.0
100
AcDbArc
 50
267.0039765347502
 51
89.89208539990498
  0
LINE
  5
614
330
18
100
AcDbEntity
  8
外形線
100
AcDbLine
 10
269.7875533910323
 20
190.0322311708634
 30
0.0
 11
388.7932037829395
 21
189.8080879186694
 31
0.0
  0
LINE
  5
615
330
18
100
AcDbEntity
  8
外形線
100
AcDbLine
 10
387.9268019977067
 20
157.829985663715
 30
0.0
 11
269.0836019405308
 21
164.0500230887129
 31
0.0
  0
ARC
  5
616
330
18
100
AcDbEntity
  8
外形線
100
AcDbCircle
 10
388.7630683594347
 20
173.8081162981867
 30
0.0
 40
26.0
100
AcDbArc
 50
270.0
 51
90.0
  0
ARC
  5
617
330
18
100
AcDbEntity
  8
外形線
100
AcDbCircle
 10
388.7630683594347
 20
173.8081162981867
 30
0.0
 40
33.0
100
AcDbArc
 50
323.7728148283726
 51
41.00147183085966
  0
ARC
  5
618
330
18
100
AcDbEntity
  8
外形線
100
AcDbCircle
 10
419.4169082152718
 20
151.3505540508571
 30
0.0
 40
5.0
100
AcDbArc
 50
143.7728148283726
 51
271.8322860661967
  0
ARC
  5
619
330
18
100
AcDbEntity
  8
外形線
100
AcDbCircle
 10
417.44139198301
 20
198.7390961052757
 30
0.0
 40
5.0
100
AcDbArc
 50
115.7785662392839
 51
221.0014718308596
  0
LINE
  5
61C
330
18
100
AcDbEntity
  8
外形線
100
AcDbLine
 10
-32.23693164056545
 20
292.3147237873938
 30
0.0
 11
-32.23693164056545
 21
272.8081162981868
 31
0.0
  0
LINE
  5
622
330
18
100
AcDbEntity
  8
外形線
100
AcDbLine
 10
184.2630683594345
 20
304.4848779724157
 30
0.0
 11
184.2630683594345
 21
272.8081162981866
 31
0.0
  0
LINE
  5
623
330
18
100
AcDbEntity
  8
外形線
100
AcDbLine
 10
191.2630683594347
 20
310.8178663679854
 30
0.0
 11
191.2630683594346
 21
272.8081162981867
 31
0.0
  0
LINE
  5
627
330
18
100
AcDbEntity
  8
外形線
100
AcDbLine
 10
306.2630683594347
 20
314.9737204574143
 30
0.0
 11
306.2630683594347
 21
272.8081162981867
 31
0.0
  0
LINE
  5
628
330
18
100
AcDbEntity
  8
外形線
100
AcDbLine
 10
299.2630683594347
 20
314.4981423615106
 30
0.0
 11
299.2630683594347
 21
272.8081162981867
 31
0.0
  0
LINE
  5
637
330
18
100
AcDbEntity
  8
外形線
100
AcDbLine
 10
295.2630683594346
 20
268.8081162981867
 30
0.0
 11
195.2630683594346
 21
268.8081162981867
 31
0.0
  0
LINE
  5
638
330
18
100
AcDbEntity
  8
外形線
100
AcDbLine
 10
310.1363112272673
 20
318.971711531622
 30
0.0
 11
388.7630683594348
 21
321.4645890945555
 31
0.0
  0
LINE
  5
63A
330
18
100
AcDbEntity
  8
外形線
100
AcDbLine
 10
180.2630683594345
 20
268.8081162981866
 30
0.0
 11
58.01270065650157
 21
268.8081162981866
 31
0.0
  0
ARC
  5
652
330
18
100
AcDbEntity
  8
外形線
100
AcDbCircle
 10
388.7630683594347
 20
294.8081162981868
 30
0.0
 40
16.0
100
AcDbArc
 50
270.0485828441754
 51
91.9269379551042
  0
ARC
  5
653
330
18
100
AcDbEntity
  8
外形線
100
AcDbCircle
 10
388.4348319612502
 20
295.1363526963712
 30
0.0
 40
26.33028239445559
100
AcDbArc
 50
270.7142744294797
 51
89.28572557052008
  0
ARC
  5
654
330
18
100
AcDbEntity
  8
外形線
100
AcDbCircle
 10
388.7630683594347
 20
294.8081162981868
 30
0.0
 40
33.0
100
AcDbArc
 50
318.9985281691404
 51
36.22718517162728
  0
ARC
  5
655
330
18
100
AcDbEntity
  8
外形線
100
AcDbCircle
 10
327.7630683594347
 20
293.7563921602557
 30
0.0
 40
15.0
100
AcDbArc
 50
91.92693795510422
 51
270.0485828441755
  0
ARC
  5
656
330
18
100
AcDbEntity
  8
外形線
100
AcDbCircle
 10
278.7630683594347
 20
292.9115645740488
 30
0.0
 40
14.0
100
AcDbArc
 50
270.0926104624563
 51
91.8829103368235
  0
ARC
  5
657
330
18
100
AcDbEntity
  8
外形線
100
AcDbCircle
 10
214.7630683594347
 20
291.8081162981867
 30
0.0
 40
13.0
100
AcDbArc
 50
91.88291033682343
 51
270.0926104624562
  0
ARC
  5
658
330
18
100
AcDbEntity
  8
外形線
100
AcDbCircle
 10
164.7630683594347
 20
287.8081162981867
 30
0.0
 40
9.0
100
AcDbArc
 50
269.8378176113471
 51
93.30951049685801
  0
ARC
  5
659
330
18
100
AcDbEntity
  8
外形線
100
AcDbCircle
 10
-17.23693164056544
 20
282.8081162981868
 30
0.0
 40
4.0
100
AcDbArc
 50
93.10115619125205
 51
270.0461719169529
  0
ARC
  5
65A
330
18
100
AcDbEntity
  8
隠れ線2
100
AcDbCircle
 10
57.76306835943467
 20
284.8685558586263
 30
0.0
 40
6.0
100
AcDbArc
 50
270.0461719169529
 51
29.71749993159592
  0
ARC
  5
65B
330
18
100
AcDbEntity
  8
隠れ線2
100
AcDbCircle
 10
98.76306835943456
 20
285.9949294849999
 30
0.0
 40
7.0
100
AcDbArc
 50
93.30951049685797
 51
180.3361549428122
  0
ARC
  5
65C
330
18
100
AcDbEntity
  8
外形線
100
AcDbCircle
 10
-28.23693164056545
 20
292.3147237873938
 30
0.0
 40
4.0
100
AcDbArc
 50
93.34056677555542
 51
180.0
  0
ARC
  5
65D
330
18
100
AcDbEntity
  8
外形線
100
AcDbCircle
 10
-28.23693164056545
 20
272.8081162981868
 30
0.0
 40
4.0
100
AcDbArc
 50
180.0
 51
270.0
  0
ARC
  5
65E
330
18
100
AcDbEntity
  8
外形線
100
AcDbCircle
 10
180.2630683594345
 20
304.4848779724157
 30
0.0
 40
4.0
100
AcDbArc
 50
0.0
 51
93.3405667755554
  0
ARC
  5
660
330
18
100
AcDbEntity
  8
外形線
100
AcDbCircle
 10
180.2630683594345
 20
272.8081162981866
 30
0.0
 40
4.0
100
AcDbArc
 50
270.0
 51
0.0000000000000127
  0
ARC
  5
661
330
18
100
AcDbEntity
  8
外形線
100
AcDbCircle
 10
195.2630683594346
 20
272.8081162981867
 30
0.0
 40
4.0
100
AcDbArc
 50
180.0
 51
270.0
  0
LINE
  5
662
330
18
100
AcDbEntity
  8
外形線
100
AcDbLine
 10
-17.45332749172075
 20
286.8022586135785
 30
0.0
 11
57.43847458270147
 21
290.8597693317138
 31
0.0
  0
LINE
  5
663
330
18
100
AcDbEntity
  8
外形線
100
AcDbLine
 10
-17.23370823302309
 20
278.8081175969815
 30
0.0
 11
44.0010918966767
 21
278.857463792151
 31
0.0
  0
LINE
  5
665
330
18
100
AcDbEntity
  8
外形線
100
AcDbLine
 10
42.90909064277548
 20
278.8685578068184
 30
0.0
 11
42.38900499459562
 21
278.8685578068184
 31
0.0
  0
LINE
  5
666
330
18
100
AcDbEntity
  8
隠れ線2
 48
0.5
100
AcDbLine
 10
98.35896017657546
 20
292.9832552198628
 30
0.0
 11
101.539745330319
 21
293.1671878751671
 31
0.0
  0
LINE
  5
667
330
18
100
AcDbEntity
  8
外形線
100
AcDbLine
 10
98.74325406919945
 20
278.9949575283488
 30
0.0
 11
164.7375928434179
 21
278.808152353921
 31
0.0
  0
LINE
  5
669
330
18
100
AcDbEntity
  8
外形線
100
AcDbLine
 10
214.7840809976765
 20
278.8081332801581
 30
0.0
 11
278.7856973544644
 21
278.9115828623256
 31
0.0
  0
LINE
  5
66A
330
18
100
AcDbEntity
  8
外形線
100
AcDbLine
 10
214.335926449276
 20
304.8010970873893
 30
0.0
 11
278.3030693792638
 21
306.9040054239593
 31
0.0
  0
LINE
  5
66B
330
18
100
AcDbEntity
  8
外形線
100
AcDbLine
 10
327.7757873167733
 20
278.7563975526525
 30
0.0
 11
388.7766352472624
 21
278.8081220500767
 31
0.0
  0
LINE
  5
66C
330
18
100
AcDbEntity
  8
外形線
100
AcDbLine
 10
327.2586922759421
 20
308.7479099208562
 30
0.0
 11
388.2250672037093
 21
310.7990685761606
 31
0.0
  0
ARC
  5
66D
330
18
100
AcDbEntity
  8
外形線
100
AcDbCircle
 10
295.2630683594346
 20
272.8081162981867
 30
0.0
 40
4.0
100
AcDbArc
 50
270.0
 51
0.0
  0
ARC
  5
66E
330
18
100
AcDbEntity
  8
外形線
100
AcDbCircle
 10
310.2630683594347
 20
272.8081162981867
 30
0.0
 40
4.0
100
AcDbArc
 50
180.0
 51
270.0
  0
ARC
  5
66F
330
18
100
AcDbEntity
  8
外形線
100
AcDbCircle
 10
310.2630683594347
 20
314.9737204574143
 30
0.0
 40
4.0
100
AcDbArc
 50
91.81596619605189
 51
180.0
  0
ARC
  5
670
330
18
100
AcDbEntity
  8
外形線
100
AcDbCircle
 10
295.2630683594346
 20
314.4981423615106
 30
0.0
 40
4.0
100
AcDbArc
 50
0.0
 51
91.81596619605175
  0
ARC
  5
671
330
18
100
AcDbEntity
  8
外形線
100
AcDbCircle
 10
417.44139198301
 20
269.8771364910978
 30
0.0
 40
5.0
100
AcDbArc
 50
138.9985281691404
 51
244.2214337607161
  0
ARC
  5
672
330
18
100
AcDbEntity
  8
外形線
100
AcDbCircle
 10
419.4169082152718
 20
317.2656785455164
 30
0.0
 40
5.0
100
AcDbArc
 50
88.16771393380326
 51
216.2271851716277
  0
ARC
  5
679
330
18
100
AcDbEntity
  8
外形線
100
AcDbCircle
 10
202.7630683594347
 20
272.5458139014662
 30
0.0
 40
50.0
100
AcDbArc
 50
91.81596619605185
 51
112.5727962302286
  0
ARC
  5
67A
330
18
100
AcDbEntity
  8
外形線
100
AcDbCircle
 10
202.7630683594347
 20
272.5458139014662
 30
0.0
 40
43.0
100
AcDbArc
 50
91.81596619605171
 51
101.0874892109706
  0
ARC
  5
67D
330
18
100
AcDbEntity
  8
外形線
100
AcDbCircle
 10
162.8419462415919
 20
368.5786416680809
 30
0.0
 40
54.0
100
AcDbArc
 50
273.3405667755554
 51
292.5727962302286
  0
ARC
  5
67F
330
18
100
AcDbEntity
  8
外形線
100
AcDbCircle
 10
195.2630683594346
 20
310.8178663679854
 30
0.0
 40
4.0
100
AcDbArc
 50
101.0874892109707
 51
180.0
  0
LINE
  5
6A0
330
18
100
AcDbEntity
  8
隠れ線2
100
AcDbLine
 10
-83.23693164056534
 20
206.8081162981868
 30
0.0
 11
-83.23693164056534
 21
165.8081162981868
 31
0.0
  0
LINE
  5
6A1
330
18
100
AcDbEntity
  8
隠れ線2
100
AcDbLine
 10
-73.23693164056533
 20
206.8081162981868
 30
0.0
 11
-73.23693164056533
 21
165.8081162981868
 31
0.0
  0
LINE
  5
6BD
330
18
100
AcDbEntity
  8
中心線
 48
0.5
100
AcDbLine
 10
-33.23693164056533
 20
178.5797561578855
 30
0.0
 11
-33.23693164056533
 21
134.9603069432093
 31
0.0
  0
LINE
  5
6BE
330
18
100
AcDbEntity
  8
隠れ線2
100
AcDbLine
 10
-30.23693164056533
 20
172.8081162981867
 30
0.0
 11
-36.23693164056533
 21
172.8081162981867
 31
0.0
  0
LINE
  5
6BF
330
18
100
AcDbEntity
  8
隠れ線2
100
AcDbLine
 10
-36.23693164056533
 20
172.8081162981867
 30
0.0
 11
-36.23693164056533
 21
166.1081162981867
 31
0.0
  0
LINE
  5
6C0
330
18
100
AcDbEntity
  8
隠れ線2
100
AcDbLine
 10
-30.23693164056533
 20
172.8081162981867
 30
0.0
 11
-30.23693164056533
 21
166.1081162981868
 31
0.0
  0
LINE
  5
6C1
330
18
100
AcDbEntity
  8
隠れ線2
 48
0.4
100
AcDbLine
 10
-30.93693164056527
 20
175.128746998695
 30
0.0
 11
-35.5369316405654
 21
175.1287469986949
 31
0.0
  0
LINE
  5
6C2
330
18
100
AcDbEntity
  8
隠れ線2
100
AcDbLine
 10
-35.5369316405654
 20
175.1287469986949
 30
0.0
 11
-35.5369316405654
 21
166.8081162981867
 31
0.0
  0
LINE
  5
6C3
330
18
100
AcDbEntity
  8
隠れ線2
100
AcDbLine
 10
-30.93693164056527
 20
175.1287469986949
 30
0.0
 11
-30.93693164056527
 21
166.8081162981867
 31
0.0
  0
LINE
  5
6C4
330
18
100
AcDbEntity
  8
隠れ線2
 48
0.4
100
AcDbLine
 10
-35.5369316405654
 20
175.1287469986949
 30
0.0
 11
-33.23693164056533
 21
176.4566526178311
 31
0.0
  0
LINE
  5
6C5
330
18
100
AcDbEntity
  8
隠れ線2
 48
0.4
100
AcDbLine
 10
-30.93693164056527
 20
175.128746998695
 30
0.0
 11
-33.23693164056533
 21
176.4566526178311
 31
0.0
  0
LINE
  5
6C6
330
18
100
AcDbEntity
  8
隠れ線2
 48
0.4
100
AcDbLine
 10
-30.93693164056527
 20
166.8081162981867
 30
0.0
 11
-35.5369316405654
 21
166.8081162981867
 31
0.0
  0
LINE
  5
6C7
330
18
100
AcDbEntity
  8
隠れ線2
 48
0.4
100
AcDbLine
 10
-30.93693164056527
 20
166.8081162981867
 30
0.0
 11
-29.93693164056526
 21
165.8081162981867
 31
0.0
  0
LINE
  5
6C8
330
18
100
AcDbEntity
  8
隠れ線2
 48
0.4
100
AcDbLine
 10
-35.5369316405654
 20
166.8081162981867
 30
0.0
 11
-36.53693164056529
 21
165.8081162981867
 31
0.0
  0
LINE
  5
6D3
330
18
100
AcDbEntity
  8
中心線
 48
0.3
100
AcDbLine
 10
77.76306835943467
 20
293.9806737960708
 30
0.0
 11
77.76306835943467
 21
277.9917723022438
 31
0.0
  0
LINE
  5
6D4
330
18
100
AcDbEntity
  8
中心線
 48
0.3
100
AcDbLine
 10
32.76306835943467
 20
301.210201579181
 30
0.0
 11
32.76306835943467
 21
287.7139331519197
 31
0.0
  0
LINE
  5
6D7
330
18
100
AcDbEntity
  8
中心線
 48
0.3
100
AcDbLine
 10
84.73298895479137
 20
285.8081162981867
 30
0.0
 11
70.61204807747799
 21
285.8081162981867
 31
0.0
  0
LINE
  5
6D9
330
18
100
AcDbEntity
  8
中心線
 48
0.3
100
AcDbLine
 10
40.68003653116375
 20
294.3081162981867
 30
0.0
 11
24.91138553159499
 21
294.3081162981867
 31
0.0
  0
POINT
  5
72F
330
18
100
AcDbEntity
  8
DEFPOINTS
  6
ByBlock
 62
     0
100
AcDbPoint
 10
77.76306835943467
 20
285.8081162981868
 30
0.0
  0
POINT
  5
735
330
18
100
AcDbEntity
  8
DEFPOINTS
  6
ByBlock
 62
     0
100
AcDbPoint
 10
32.76306835943467
 20
301.210201579181
 30
0.0
  0
POINT
  5
736
330
18
100
AcDbEntity
  8
DEFPOINTS
  6
ByBlock
 62
     0
100
AcDbPoint
 10
77.76306835943467
 20
293.9806737960708
 30
0.0
  0
LINE
  5
760
330
18
100
AcDbEntity
  8
0
  6
ByBlock
 62
     2
100
AcDbLine
 10
416.7630683594346
 20
329.3081162981867
 30
0.0
 11
521.9927009642687
 21
338.6058650443374
 31
0.0
  0
LINE
  5
761
330
18
100
AcDbEntity
  8
0
  6
ByBlock
 62
     2
100
AcDbLine
 10
416.7630683594346
 20
139.3081162981867
 30
0.0
 11
521.9927009642687
 21
148.6058650443375
 31
0.0
  0
LINE
  5
762
330
18
100
AcDbEntity
  8
0
  6
ByBlock
 62
     2
100
AcDbLine
 10
520.7427009642688
 20
336.1058650443375
 30
0.0
 11
520.7427009642688
 21
151.1058650443375
 31
0.0
  0
INSERT
  5
763
330
18
100
AcDbEntity
  8
0
  6
ByBlock
 62
     2
100
AcDbBlockReference
  2
_OPEN
 10
520.7427009642688
 20
338.6058650443374
 30
0.0
 41
2.5
 42
2.5
 43
2.5
 50
90.0
  0
INSERT
  5
764
330
18
100
AcDbEntity
  8
0
  6
ByBlock
 62
     2
100
AcDbBlockReference
  2
_OPEN
 10
520.7427009642688
 20
148.6058650443375
 30
0.0
 41
2.5
 42
2.5
 43
2.5
 50
270.0
  0
MTEXT
  5
765
330
18
100
AcDbEntity
  8
0
  6
ByBlock
 62
     6
100
AcDbMText
 10
518.8677009642687
 20
243.6058650443375
 30
0.0
 40
2.5
 41
0.0
 71
     5
 72
     1
  1
\A1;190
  7
STYLE3
 11
0.0000000000000001
 21
1.0
 31
0.0
 73
     1
 44
1.0
  0
POINT
  5
766
330
18
100
AcDbEntity
  8
DEFPOINTS
  6
ByBlock
 62
     0
100
AcDbPoint
 10
416.7630683594346
 20
329.3081162981867
 30
0.0
  0
POINT
  5
767
330
18
100
AcDbEntity
  8
DEFPOINTS
  6
ByBlock
 62
     0
100
AcDbPoint
 10
416.7630683594346
 20
139.3081162981867
 30
0.0
  0
POINT
  5
768
330
18
100
AcDbEntity
  8
DEFPOINTS
  6
ByBlock
 62
     0
100
AcDbPoint
 10
520.7427009642688
 20
148.6058650443375
 30
0.0
  0
LINE
  5
8A2
330
18
100
AcDbEntity
  8
外形線
100
AcDbLine
 10
-162.3825256914657
 20
139.3081162981868
 30
0.0
 11
-171.2272125054998
 21
139.3081162981867
 31
0.0
  0
LINE
  5
8A3
330
18
100
AcDbEntity
  8
外形線
100
AcDbLine
 10
-183.0825256914658
 20
329.3081162981867
 30
0.0
 11
-184.3825256914657
 21
329.3081162981868
 31
0.0
  0
LINE
  5
8A4
330
18
100
AcDbEntity
  8
外形線
100
AcDbLine
 10
-185.3825256914657
 20
328.3081162981868
 30
0.0
 11
-185.3825256914657
 21
284.5581162981868
 31
0.0
  0
LINE
  5
8A5
330
18
100
AcDbEntity
  8
外形線
100
AcDbLine
 10
-162.3825256914657
 20
289.8581162981869
 30
0.0
 11
-162.3825256914657
 21
278.8081162981867
 31
0.0
  0
LINE
  5
8A6
330
18
100
AcDbEntity
  8
外形線
100
AcDbLine
 10
-161.3825256914657
 20
206.8081162981868
 30
0.0
 11
-185.3825256914657
 21
206.8081162981869
 31
0.0
  0
LINE
  5
8A7
330
18
100
AcDbEntity
  8
外形線
100
AcDbLine
 10
-163.8825256914657
 20
165.8081162981867
 30
0.0
 11
-182.8825256914657
 21
165.8081162981868
 31
0.0
  0
LINE
  5
8A8
330
18
100
AcDbEntity
  8
外形線
100
AcDbLine
 10
-164.3825256914657
 20
285.8081162981867
 30
0.0
 11
-182.3825256914657
 21
285.8081162981867
 31
0.0
  0
LINE
  5
8A9
330
18
100
AcDbEntity
  8
外形線
100
AcDbLine
 10
-163.8825256914657
 20
163.7910957940217
 30
0.0
 11
-182.8825256914657
 21
163.7910957940217
 31
0.0
  0
LINE
  5
8AA
330
18
100
AcDbEntity
  8
外形線
100
AcDbLine
 10
-162.3825256914657
 20
261.8081162981868
 30
0.0
 11
-171.3825256914657
 21
261.8081162981868
 31
0.0
  0
LINE
  5
8AC
330
18
100
AcDbEntity
  8
隠れ線2
100
AcDbLine
 10
-178.3825256914657
 20
206.8081162981869
 30
0.0
 11
-178.3825256914657
 21
165.8081162981868
 31
0.0
  0
LINE
  5
8AD
330
18
100
AcDbEntity
  8
隠れ線2
100
AcDbLine
 10
-168.3825256914657
 20
206.8081162981869
 30
0.0
 11
-168.3825256914657
 21
165.8081162981868
 31
0.0
  0
LINE
  5
8B0
330
18
100
AcDbEntity
  8
隠れ線2
 48
0.3
100
AcDbLine
 10
-164.3825256914657
 20
200.1081162981868
 30
0.0
 11
-168.3825256914657
 21
200.1081162981868
 31
0.0
  0
LINE
  5
8B1
330
18
100
AcDbEntity
  8
隠れ線2
 48
0.3
100
AcDbLine
 10
-164.3825256914657
 20
197.5081162981868
 30
0.0
 11
-168.3825256914657
 21
197.5081162981868
 31
0.0
  0
LINE
  5
8B4
330
18
100
AcDbEntity
  8
隠れ線2
 48
0.3
100
AcDbLine
 10
-164.3825256914657
 20
199.6081162981868
 30
0.0
 11
-168.3825256914657
 21
199.6081162981868
 31
0.0
  0
LINE
  5
8B5
330
18
100
AcDbEntity
  8
隠れ線2
 48
0.3
100
AcDbLine
 10
-164.3825256914657
 20
198.0081162981868
 30
0.0
 11
-168.3825256914657
 21
198.0081162981868
 31
0.0
  0
ARC
  5
8B6
330
18
100
AcDbEntity
  8
外形線
100
AcDbCircle
 10
-184.3825256914657
 20
140.3081162981867
 30
0.0
 40
1.0
100
AcDbArc
 50
180.0
 51
270.0
  0
ARC
  5
8B7
330
18
100
AcDbEntity
  8
外形線
100
AcDbCircle
 10
-162.3825256914657
 20
140.3081162981868
 30
0.0
 40
1.0
100
AcDbArc
 50
270.0000000000001
 51
0.0
  0
ARC
  5
8B8
330
18
100
AcDbEntity
  8
外形線
100
AcDbCircle
 10
-184.3825256914657
 20
328.3081162981868
 30
0.0
 40
1.0
100
AcDbArc
 50
89.99999999999987
 51
180.0
  0
LINE
  5
8BB
330
18
100
AcDbEntity
  8
外形線
100
AcDbLine
 10
-164.3825256914657
 20
289.8581162981869
 30
0.0
 11
-164.3825256914657
 21
261.8081162981868
 31
0.0
  0
LINE
  5
8BC
330
18
100
AcDbEntity
  8
外形線
100
AcDbLine
 10
-182.3825256914657
 20
206.8081162981868
 30
0.0
 11
-182.3825256914657
 21
165.8081162981867
 31
0.0
  0
LINE
  5
8BD
330
18
100
AcDbEntity
  8
外形線
100
AcDbLine
 10
-164.3825256914657
 20
206.8081162981868
 30
0.0
 11
-164.3825256914657
 21
165.8081162981867
 31
0.0
  0
LINE
  5
8BE
330
18
100
AcDbEntity
  8
外形線
100
AcDbLine
 10
-182.3825256914656
 20
302.8081162981867
 30
0.0
 11
-185.3825256914657
 21
328.3081162981868
 31
0.0
  0
LINE
  5
8C1
330
18
100
AcDbEntity
  8
外形線
100
AcDbLine
 10
-164.145229161564
 20
163.7910957940217
 30
0.0
 11
-164.1158590247991
 21
163.5414496315201
 31
0.0
  0
POINT
  5
913
330
18
100
AcDbEntity
  8
DEFPOINTS
  6
ByBlock
 62
     0
100
AcDbPoint
 10
-83.23693164056534
 20
206.8081162981868
 30
0.0
  0
POINT
  5
914
330
18
100
AcDbEntity
  8
DEFPOINTS
  6
ByBlock
 62
     0
100
AcDbPoint
 10
-73.23693164056533
 20
206.8081162981868
 30
0.0
  0
DIMENSION
  5
94E
330
18
100
AcDbEntity
  8
寸法線
100
AcDbDimension
  2
*D7
 10
427.7630683594346
 20
112.8175920389264
 30
0.0
 11
174.7630683594346
 21
114.6925920389264
 31
0.0
 70
    32
 71
     5
 42
506.0
  3
STYLE3
100
AcDbAlignedDimension
 13
-78.23693164056533
 23
162.5852107481416
 33
0.0
 14
427.7630683594346
 24
234.3081162981867
 34
0.0
100
AcDbRotatedDimension
1001
ACAD
1000
DSTYLE
1002
{
1070
   271
1070
     2
1002
}
  0
DIMENSION
  5
95A
330
18
100
AcDbEntity
  8
寸法線
100
AcDbDimension
  2
*D8
 10
511.7630683594346
 20
112.8175920389264
 30
0.0
 11
469.7630683594346
 21
114.6925920389264
 31
0.0
 70
    32
 71
     5
 42
84.0
  3
STYLE3
100
AcDbAlignedDimension
 13
427.7630683594346
 23
234.3081162981867
 33
0.0
 14
511.7630683594346
 24
234.3081162981867
 34
0.0
100
AcDbRotatedDimension
1001
ACAD
1000
DSTYLE
1002
{
1070
    75
1070
     1
1070
   271
1070
     2
1070
   279
1070
     1
1002
}
  0
LINE
  5
A23
330
18
100
AcDbEntity
  8
外形線
100
AcDbLine
 10
-14.23693164056533
 20
165.8081162981867
 30
0.0
 11
-14.23693164056533
 21
163.5085900984204
 31
0.0
  0
LINE
  5
A79
330
18
100
AcDbEntity
  8
外形線
100
AcDbLine
 10
-22.23693164056533
 20
165.8081162981868
 30
0.0
 11
-22.2369316405653
 21
140.3503472521279
 31
0.0
  0
LINE
  5
A7A
330
18
100
AcDbEntity
  8
外形線
100
AcDbLine
 10
-44.23693164056532
 20
165.8081162981868
 30
0.0
 11
-44.23693164056532
 21
140.3503472521279
 31
0.0
  0
ARC
  5
A7B
330
18
100
AcDbEntity
  8
外形線
100
AcDbCircle
 10
-33.23693164056533
 20
178.8081162981868
 30
0.0
 40
40.0
100
AcDbArc
 50
269.9999999999999
 51
285.9620141628472
  0
ARC
  5
A7C
330
18
100
AcDbEntity
  8
外形線
100
AcDbCircle
 10
-33.23693164056533
 20
178.8081162981868
 30
0.0
 40
40.0
100
AcDbArc
 50
254.0379858371528
 51
270.0000000000001
  0
LINE
  5
A7D
330
18
100
AcDbEntity
  8
隠れ線2
100
AcDbLine
 10
-33.23693164056533
 20
157.8081162981868
 30
0.0
 11
-29.93644981796274
 21
157.8081162981868
 31
0.0
  0
LINE
  5
A7E
330
18
100
AcDbEntity
  8
外形線
100
AcDbLine
 10
-44.23693164056532
 20
165.8081162981867
 30
0.0
 11
-22.23693164056533
 21
165.8081162981867
 31
0.0
  0
LINE
  5
A7F
330
18
100
AcDbEntity
  8
隠れ線2
100
AcDbLine
 10
-44.23693164056532
 20
163.8081162981867
 30
0.0
 11
-22.23693164056533
 21
163.8081162981867
 31
0.0
  0
LINE
  5
A81
330
18
100
AcDbEntity
  8
隠れ線2
100
AcDbLine
 10
-38.48693164056533
 20
163.8081162981867
 30
0.0
 11
-36.53741346316792
 21
157.8081162981868
 31
0.0
  0
LINE
  5
A82
330
18
100
AcDbEntity
  8
外形線
100
AcDbLine
 10
-44.23693164056532
 20
160.5988139726053
 30
0.0
 11
-48.36373393855041
 21
158.2954824574509
 31
0.0
  0
LINE
  5
A83
330
18
100
AcDbEntity
  8
隠れ線2
100
AcDbLine
 10
-36.53741346316787
 20
157.8081162981868
 30
0.0
 11
-42.7384212602974
 21
149.0965388971211
 31
0.0
  0
LINE
  5
A84
330
18
100
AcDbEntity
  8
外形線
100
AcDbLine
 10
-48.7495654813012
 20
156.9349185961718
 30
0.0
 11
-44.42630441255698
 21
149.1890758480051
 31
0.0
  0
ARC
  5
A85
330
18
100
AcDbEntity
  8
外形線
100
AcDbCircle
 10
-43.55310671054212
 20
149.6764420072693
 30
0.0
 40
1.0
100
AcDbArc
 50
209.1676133795778
 51
226.8567355129944
  0
ARC
  5
A86
330
18
100
AcDbEntity
  8
隠れ線2
100
AcDbCircle
 10
-43.55310671054212
 20
149.6764420072693
 30
0.0
 40
1.0
100
AcDbArc
 50
226.8567355129944
 51
324.5562717879028
  0
ARC
  5
A87
330
18
100
AcDbEntity
  8
外形線
100
AcDbCircle
 10
-47.87636777928628
 20
157.422284755436
 30
0.0
 40
1.0
100
AcDbArc
 50
119.1676133795778
 51
209.1676133795778
  0
LINE
  5
A88
330
18
100
AcDbEntity
  8
隠れ線2
100
AcDbLine
 10
-33.23693164056533
 20
157.8081162981868
 30
0.0
 11
-36.53741346316792
 21
157.8081162981868
 31
0.0
  0
LINE
  5
A89
330
18
100
AcDbEntity
  8
隠れ線2
100
AcDbLine
 10
-38.48693164056533
 20
163.8081162981867
 30
0.0
 11
-44.23693164056532
 21
160.5988139726053
 31
0.0
  0
LINE
  5
A8A
330
18
100
AcDbEntity
  8
外形線
100
AcDbLine
 10
-22.23693164056533
 20
160.5988139726053
 30
0.0
 11
-18.11012934258025
 21
158.2954824574509
 31
0.0
  0
LINE
  5
A8B
330
18
100
AcDbEntity
  8
隠れ線2
100
AcDbLine
 10
-27.98693164056533
 20
163.8081162981867
 30
0.0
 11
-29.93644981796274
 21
157.8081162981868
 31
0.0
  0
LINE
  5
A8C
330
18
100
AcDbEntity
  8
外形線
100
AcDbLine
 10
-17.72429779982946
 20
156.9349185961718
 30
0.0
 11
-22.04755886857368
 21
149.1890758480051
 31
0.0
  0
LINE
  5
A8D
330
18
100
AcDbEntity
  8
隠れ線2
100
AcDbLine
 10
-29.93644981796279
 20
157.8081162981868
 30
0.0
 11
-23.73544202083326
 21
149.0965388971211
 31
0.0
  0
ARC
  5
A8E
330
18
100
AcDbEntity
  8
隠れ線2
100
AcDbCircle
 10
-22.92075657058857
 20
149.6764420072693
 30
0.0
 40
1.0
100
AcDbArc
 50
215.4437282120972
 51
313.1432644870079
  0
ARC
  5
A8F
330
18
100
AcDbEntity
  8
外形線
100
AcDbCircle
 10
-22.92075657058857
 20
149.6764420072693
 30
0.0
 40
1.0
100
AcDbArc
 50
313.1432644870079
 51
330.8323866204221
  0
ARC
  5
A90
330
18
100
AcDbEntity
  8
外形線
100
AcDbCircle
 10
-18.59749550184438
 20
157.422284755436
 30
0.0
 40
1.0
100
AcDbArc
 50
330.8323866204222
 51
60.83238662042216
  0
LINE
  5
A91
330
18
100
AcDbEntity
  8
隠れ線2
100
AcDbLine
 10
-27.98693164056533
 20
163.8081162981867
 30
0.0
 11
-22.23693164056533
 21
160.5988139726053
 31
0.0
  0
ARC
  5
A99
330
18
100
AcDbEntity
  8
外形線
100
AcDbCircle
 10
-182.8825256914657
 20
158.7910957940217
 30
0.0
 40
5.0
100
AcDbArc
 50
90.0
 51
127.5685617369824
  0
ARC
  5
A9A
330
18
100
AcDbEntity
  8
外形線
100
AcDbCircle
 10
-163.8825256914657
 20
158.7910957940217
 30
0.0
 40
5.0
100
AcDbArc
 50
52.43143826300855
 51
90.0
  0
ARC
  5
A9B
330
18
100
AcDbEntity
  8
外形線
100
AcDbCircle
 10
-182.8825256914657
 20
158.7910957940217
 30
0.0
 40
7.0
100
AcDbArc
 50
90.0
 51
127.5685617370095
  0
ARC
  5
A9C
330
18
100
AcDbEntity
  8
外形線
100
AcDbCircle
 10
-163.8825256914657
 20
158.7910957940217
 30
0.0
 40
7.0
100
AcDbArc
 50
52.43143826300869
 51
90.0
  0
LINE
  5
AA1
330
18
100
AcDbEntity
  8
外形線
100
AcDbLine
 10
-128.471306681533
 20
140.9360230404431
 30
0.0
 11
-159.6145532988977
 21
164.3394659741987
 31
0.0
  0
LINE
  5
AA2
330
18
100
AcDbEntity
  8
外形線
100
AcDbLine
 10
-129.6907273651239
 20
139.3507744175354
 30
0.0
 11
-160.8339739824886
 21
162.754217351291
 31
0.0
  0
LINE
  5
AA4
330
18
100
AcDbEntity
  8
外形線
100
AcDbLine
 10
-128.471306681533
 20
140.9360230404431
 30
0.0
 11
-129.6907273651239
 21
139.3507744175354
 31
0.0
  0
LINE
  5
AA5
330
18
100
AcDbEntity
  8
外形線
100
AcDbLine
 10
-217.0743240178075
 20
139.3507744175354
 30
0.0
 11
-185.9310774004428
 21
162.754217351291
 31
0.0
  0
LINE
  5
AA6
330
18
100
AcDbEntity
  8
外形線
100
AcDbLine
 10
-218.2937447013984
 20
140.9360230404431
 30
0.0
 11
-187.1504980840337
 21
164.3394659741987
 31
0.0
  0
LINE
  5
AA7
330
18
100
AcDbEntity
  8
外形線
100
AcDbLine
 10
-218.2937447013984
 20
140.9360230404431
 30
0.0
 11
-217.0743240178075
 21
139.3507744175354
 31
0.0
  0
LINE
  5
AA9
330
18
100
AcDbEntity
  8
外形線
100
AcDbLine
 10
-161.3825256914657
 20
163.1212228129439
 30
0.0
 11
-161.3825256914657
 21
140.3081162981868
 31
0.0
  0
LINE
  5
AAA
330
18
100
AcDbEntity
  8
外形線
100
AcDbLine
 10
-185.3825256914657
 20
163.1212228129439
 30
0.0
 11
-185.3825256914657
 21
140.3081162981867
 31
0.0
  0
LINE
  5
AEC
330
18
100
AcDbEntity
  8
外形線
100
AcDbLine
 10
-171.2856277755409
 20
136.3423305933167
 30
0.0
 11
-170.7449862083295
 21
163.7910957940217
 31
0.0
  0
LINE
  5
AED
330
18
100
AcDbEntity
  8
外形線
100
AcDbLine
 10
-175.4794236073905
 20
136.3423305933167
 30
0.0
 11
-176.020065174602
 21
163.7910957940217
 31
0.0
  0
ARC
  5
AEE
330
18
100
AcDbEntity
  8
外形線
100
AcDbCircle
 10
-173.3825256914657
 20
136.5726501779285
 30
0.0
 40
2.109508943063662
100
AcDbArc
 50
270.0
 51
353.7318588147518
  0
ARC
  5
AEF
330
18
100
AcDbEntity
  8
外形線
100
AcDbCircle
 10
-173.3825256914657
 20
136.5726501779285
 30
0.0
 40
2.109508943063662
100
AcDbArc
 50
186.2681411852482
 51
270.0
  0
LINE
  5
AF0
330
18
100
AcDbEntity
  8
外形線
100
AcDbLine
 10
-164.3825256914657
 20
163.8081162981867
 30
0.0
 11
-166.3825256914657
 21
163.8081162981867
 31
0.0
  0
LINE
  5
B09
330
18
100
AcDbEntity
  8
外形線
100
AcDbLine
 10
-178.3825256914657
 20
165.8081162981867
 30
0.0
 11
-178.3825256914657
 21
165.8081162981867
 31
0.0
  0
LINE
  5
B21
330
18
100
AcDbEntity
  8
外形線
100
AcDbLine
 10
-175.5378388774316
 20
139.3081162981867
 30
0.0
 11
-184.3825256914657
 21
139.3081162981867
 31
0.0
  0
LINE
  5
B22
330
18
100
AcDbEntity
  8
外形線
100
AcDbLine
 10
-164.145229161564
 20
163.7910957940217
 30
0.0
 11
-161.3825256914657
 21
140.3081162981868
 31
0.0
  0
LINE
  5
B23
330
18
100
AcDbEntity
  8
外形線
100
AcDbLine
 10
-182.6198222213675
 20
163.7910957940217
 30
0.0
 11
-185.3825256914657
 21
140.3081162981867
 31
0.0
  0
LINE
  5
BC6
330
18
100
AcDbEntity
  8
中心線
 48
0.3
100
AcDbLine
 10
-171.1450499114609
 20
198.8081162981868
 30
0.0
 11
-161.8150036652094
 21
198.8081162981868
 31
0.0
  0
LINE
  5
BE4
330
18
100
AcDbEntity
  8
中心線
 48
0.2
100
AcDbLine
 10
-81.10305506382042
 20
198.8081162981868
 30
0.0
 11
-75.37080644192656
 21
198.8081162981868
 31
0.0
  0
LINE
  5
C0B
330
18
100
AcDbEntity
  8
外形線
100
AcDbLine
 10
-161.3825256914657
 20
203.1797566557168
 30
0.0
 11
-161.3825256914657
 21
165.3294442093327
 31
0.0
  0
POINT
  5
C20
330
18
100
AcDbEntity
  8
DEFPOINTS
  6
ByBlock
 62
     0
100
AcDbPoint
 10
-178.3825256914657
 20
206.8081162981868
 30
0.0
  0
LINE
  5
C32
330
18
100
AcDbEntity
  8
外形線
100
AcDbLine
 10
-176.3825256914657
 20
219.8081162981868
 30
0.0
 11
-176.3825256914657
 21
217.8081162981869
 31
0.0
  0
LINE
  5
C33
330
18
100
AcDbEntity
  8
外形線
100
AcDbLine
 10
-170.3825256914657
 20
219.8081162981868
 30
0.0
 11
-170.3825256914657
 21
217.8081162981869
 31
0.0
  0
POINT
  5
C36
330
18
100
AcDbEntity
  8
DEFPOINTS
  6
ByBlock
 62
     0
100
AcDbPoint
 10
-168.3825256914657
 20
206.8081162981868
 30
0.0
  0
LINE
  5
101B
330
18
100
AcDbEntity
  8
中心線
100
AcDbLine
 10
-173.3825256914657
 20
351.8458759267917
 30
0.0
 11
-173.3825256914657
 21
128.8711537273747
 31
0.0
  0
LINE
  5
101C
330
18
100
AcDbEntity
  8
中心線
100
AcDbLine
 10
-78.23693164056533
 20
351.6344085241944
 30
0.0
 11
-78.23693164056533
 21
162.4055745282709
 31
0.0
  0
LINE
  5
126B
330
18
100
AcDbEntity
  8
外形線
100
AcDbLine
 10
-162.3825256914657
 20
371.8904289709091
 30
0.0
 11
-162.3825256914657
 21
335.6722059047839
 31
0.0
  0
ARC
  5
126C
330
18
100
AcDbEntity
  8
外形線
100
AcDbCircle
 10
-146.3825256914657
 20
367.8904289709091
 30
0.0
 40
6.5
100
AcDbArc
 50
322.0201275551474
 51
37.97987244485262
  0
LINE
  5
126D
330
18
100
AcDbEntity
  8
外形線
100
AcDbLine
 10
-141.2590503084859
 20
371.8904289709091
 30
0.0
 11
-141.2590503084859
 21
363.890428970909
 31
0.0
  0
LINE
  5
12A8
330
18
100
AcDbEntity
  8
外形線
100
AcDbLine
 10
-155.8825256914657
 20
290.3081162981867
 30
0.0
 11
-155.8825256914657
 21
286.3081162981867
 31
0.0
  0
LINE
  5
12A9
330
18
100
AcDbEntity
  8
外形線
100
AcDbLine
 10
-156.3825256914657
 20
290.8081162981868
 30
0.0
 11
-156.3825256914657
 21
286.3081162981867
 31
0.0
  0
LINE
  5
12AB
330
18
100
AcDbEntity
  8
外形線
100
AcDbLine
 10
-156.3825256914657
 20
280.8081162981867
 30
0.0
 11
-158.8825256914657
 21
280.8081162981868
 31
0.0
  0
LINE
  5
12AC
330
18
100
AcDbEntity
  8
外形線
100
AcDbLine
 10
-155.8825256914657
 20
286.3081162981867
 30
0.0
 11
-157.0825256914657
 21
286.3081162981867
 31
0.0
  0
LINE
  5
12AD
330
18
100
AcDbEntity
  8
外形線
100
AcDbLine
 10
-156.3825256914657
 20
280.8081162981867
 30
0.0
 11
-156.3825256914657
 21
285.3081162981867
 31
0.0
  0
LINE
  5
12AE
330
18
100
AcDbEntity
  8
外形線
100
AcDbLine
 10
-155.8825256914657
 20
281.3081162981868
 30
0.0
 11
-155.8825256914657
 21
285.3081162981867
 31
0.0
  0
LINE
  5
12AF
330
18
100
AcDbEntity
  8
外形線
100
AcDbLine
 10
-157.0825256914657
 20
285.3081162981867
 30
0.0
 11
-157.0825256914657
 21
285.8081162981867
 31
0.0
  0
LINE
  5
12B0
330
18
100
AcDbEntity
  8
外形線
100
AcDbLine
 10
-155.8825256914657
 20
285.3081162981867
 30
0.0
 11
-157.0825256914657
 21
285.3081162981867
 31
0.0
  0
LINE
  5
12B1
330
18
100
AcDbEntity
  8
外形線
100
AcDbLine
 10
-156.3825256914657
 20
280.8081162981867
 30
0.0
 11
-155.8825256914657
 21
281.3081162981868
 31
0.0
  0
LINE
  5
12B2
330
18
100
AcDbEntity
  8
外形線
100
AcDbLine
 10
-157.0825256914657
 20
286.3081162981867
 30
0.0
 11
-157.0825256914657
 21
285.8081162981867
 31
0.0
  0
LINE
  5
12B3
330
18
100
AcDbEntity
  8
外形線
100
AcDbLine
 10
-156.3825256914657
 20
290.8081162981868
 30
0.0
 11
-158.8825256914657
 21
290.8081162981867
 31
0.0
  0
LINE
  5
12B5
330
18
100
AcDbEntity
  8
外形線
100
AcDbLine
 10
-156.3825256914657
 20
290.8081162981868
 30
0.0
 11
-155.8825256914657
 21
290.3081162981867
 31
0.0
  0
LINE
  5
12EA
330
18
100
AcDbEntity
  8
外形線
100
AcDbLine
 10
-141.2590503084859
 20
363.890428970909
 30
0.0
 11
-159.8825256914657
 21
363.890428970909
 31
0.0
  0
LINE
  5
12F6
330
18
100
AcDbEntity
  8
中心線
 48
0.9
100
AcDbLine
 10
-137.4954311142705
 20
367.8904289709091
 30
0.0
 11
-165.4040884318655
 21
367.8904289709091
 31
0.0
  0
LINE
  5
12F7
330
18
100
AcDbEntity
  8
外形線
100
AcDbLine
 10
-141.2590503084859
 20
371.8904289709091
 30
0.0
 11
-162.3825256914657
 21
371.8904289709091
 31
0.0
  0
LINE
  5
12FA
330
18
100
AcDbEntity
  8
中心線
100
AcDbLine
 10
28.8123184265212
 20
293.9386396094067
 30
0.0
 11
91.44003992344206
 21
299.7901972869954
 31
0.0
  0
LINE
  5
12FB
330
18
100
AcDbEntity
  8
中心線
100
AcDbLine
 10
35.10494807503358
 20
295.531493939206
 30
0.0
 11
85.33595339598436
 21
300.2237027027354
 31
0.0
  0
LINE
  5
12FC
330
18
100
AcDbEntity
  8
中心線
100
AcDbLine
 10
35.30295713737307
 20
293.5412848038512
 30
0.0
 11
85.53396245832386
 21
298.2334935673806
 31
0.0
  0
LINE
  5
1364
330
18
100
AcDbEntity
  8
中心線
 48
0.3
100
AcDbLine
 10
32.44756636753148
 20
297.6817241906399
 30
0.0
 11
33.16349350752016
 21
290.0264398758951
 31
0.0
  0
POINT
  5
1365
330
18
100
AcDbEntity
  8
DEFPOINTS
  6
ByBlock
 62
     0
100
AcDbPoint
 10
32.76306835943473
 20
294.3081162981867
 30
0.0
  0
CIRCLE
  5
1366
330
18
100
AcDbEntity
  8
外形線
100
AcDbCircle
 10
32.76306835943467
 20
294.3081162981867
 30
0.0
 40
2.0
  0
CIRCLE
  5
1367
330
18
100
AcDbEntity
  8
外形線
100
AcDbCircle
 10
32.76306835943467
 20
294.3081162981867
 30
0.0
 40
1.25
  0
CIRCLE
  5
1478
330
18
100
AcDbEntity
  8
隠れ線2
 48
0.5
100
AcDbCircle
 10
87.7741168340016
 20
299.447357788822
 30
0.0
 40
1.25
  0
CIRCLE
  5
1479
330
18
100
AcDbEntity
  8
隠れ線2
 48
0.5
100
AcDbCircle
 10
87.7741168340016
 20
299.447357788822
 30
0.0
 40
2.0
  0
LINE
  5
147B
330
18
100
AcDbEntity
  8
中心線
 48
0.2
100
AcDbLine
 10
87.43217710282713
 20
303.1036598263303
 30
0.0
 11
88.14810424281585
 21
295.4483755115854
 31
0.0
  0
LINE
  5
1486
330
18
100
AcDbEntity
  8
外形線
100
AcDbLine
 10
36.59303381033018
 20
296.1728424472858
 30
0.0
 11
83.64546540093639
 21
300.5677889398861
 31
0.0
  0
LINE
  5
1487
330
18
100
AcDbEntity
  8
外形線
100
AcDbLine
 10
36.89004740383943
 20
293.1875287442537
 30
0.0
 11
80.30207043187763
 21
297.2423210287673
 31
0.0
  0
LINE
  5
1488
330
18
100
AcDbEntity
  8
外形線
100
AcDbLine
 10
36.59303381033018
 20
296.1728424472858
 30
0.0
 11
36.89004740383943
 21
293.1875287442537
 31
0.0
  0
LINE
  5
1489
330
18
100
AcDbEntity
  8
外形線
100
AcDbLine
 10
83.64546540093639
 20
300.5677889398861
 30
0.0
 11
83.75267588321127
 21
299.4902055267422
 31
0.0
  0
LINE
  5
148A
330
18
100
AcDbEntity
  8
隠れ線2
 48
0.3
100
AcDbLine
 10
83.75267588321127
 20
299.4902055267423
 30
0.0
 11
83.94247899444557
 21
297.5824752368539
 31
0.0
  0
LINE
  5
148B
330
18
100
AcDbEntity
  8
隠れ線2
 48
0.5
100
AcDbLine
 10
80.30153424040239
 20
297.2419717287612
 30
0.0
 11
83.94247899444557
 21
297.5824752368539
 31
0.0
  0
POINT
  5
1493
330
18
100
AcDbEntity
  8
DEFPOINTS
  6
ByBlock
 62
     0
100
AcDbPoint
 10
87.77411683400162
 20
299.4473577888219
 30
0.0
  0
LINE
  5
14A5
330
18
100
AcDbEntity
  8
中心線
 48
0.5
100
AcDbLine
 10
77.76306835943467
 20
293.7643850190568
 30
0.0
 11
77.76306835943467
 21
277.8518475773167
 31
0.0
  0
ARC
  5
14A7
330
18
100
AcDbEntity
  8
外形線
100
AcDbCircle
 10
77.76306835943467
 20
285.8081162981867
 30
0.0
 40
4.5
100
AcDbArc
 50
318.18473853672
 51
131.8152614632798
  0
CIRCLE
  5
14A8
330
18
100
AcDbEntity
  8
外形線
100
AcDbCircle
 10
77.76306835943467
 20
285.8081162981867
 30
0.0
 40
5.0
  0
ARC
  5
1934
330
18
100
AcDbEntity
  8
外形線
100
AcDbCircle
 10
77.76306835943467
 20
285.8081162981867
 30
0.0
 40
4.5
100
AcDbArc
 50
318.18473853672
 51
131.8152614632798
  0
POINT
  5
193B
330
18
100
AcDbEntity
  8
DEFPOINTS
  6
ByBlock
 62
     0
100
AcDbPoint
 10
77.76306835943464
 20
285.8081162981869
 30
0.0
  0
POINT
  5
193C
330
18
100
AcDbEntity
  8
DEFPOINTS
  6
ByBlock
 62
     0
100
AcDbPoint
 10
78.22060656093092
 20
293.9678561745794
 30
0.0
  0
LINE
  5
194B
330
18
100
AcDbEntity
  8
外形線
100
AcDbLine
 10
74.78597706467727
 20
275.7390087199214
 30
0.0
 11
-62.68667021679488
 21
218.9338797723918
 31
0.0
  0
LINE
  5
194C
330
18
100
AcDbEntity
  8
外形線
100
AcDbLine
 10
-63.48423932970945
 20
227.9530309870307
 30
0.0
 11
68.30461949123918
 21
290.3674742582219
 31
0.0
  0
LINE
  5
194D
330
18
100
AcDbEntity
  8
中心線
100
AcDbLine
 10
-60.05085211257583
 20
224.7476246944794
 30
0.0
 11
80.04533377321502
 21
286.8193076760844
 31
0.0
  0
LINE
  5
194F
330
18
100
AcDbEntity
  8
外形線
100
AcDbLine
 10
87.91090909338127
 20
283.1115762116215
 30
0.0
 11
198.4531327832638
 21
364.6717075776145
 31
0.0
  0
LINE
  5
1950
330
18
100
AcDbEntity
  8
外形線
100
AcDbLine
 10
78.79065212974541
 20
296.2577130174383
 30
0.0
 11
193.8949394670884
 21
371.241986590665
 31
0.0
  0
LINE
  5
1951
330
18
100
AcDbEntity
  8
中心線
100
AcDbLine
 10
74.11661558125064
 20
283.2783551345812
 30
0.0
 11
201.821920442744
 21
371.8751203409888
 31
0.0
  0
ARC
  5
1952
330
18
100
AcDbEntity
  8
外形線
100
AcDbCircle
 10
77.76306835943467
 20
285.8081162981867
 30
0.0
 40
10.5
100
AcDbArc
 50
84.38375214550621
 51
154.2640378270537
  0
LINE
  5
1953
330
18
100
AcDbEntity
  8
中心線
100
AcDbLine
 10
83.65493531842265
 20
296.5896365847253
 30
0.0
 11
90.63208264525631
 21
301.4300986485091
 31
0.0
  0
ARC
  5
1954
330
18
100
AcDbEntity
  8
外形線
100
AcDbCircle
 10
77.76306835943467
 20
285.8081162981867
 30
0.0
 40
10.5
100
AcDbArc
 50
253.5288507386843
 51
345.118939233877
  0
POINT
  5
1956
330
18
100
AcDbEntity
  8
DEFPOINTS
  6
ByBlock
 62
     0
100
AcDbPoint
 10
68.39762450165167
 20
290.5555852392875
 30
0.0
 50
192.0
  0
POINT
  5
1957
330
18
100
AcDbEntity
  8
DEFPOINTS
  6
ByBlock
 62
     0
100
AcDbPoint
 10
87.91090909338121
 20
283.1115762116215
 30
0.0
  0
POINT
  5
1958
330
18
100
AcDbEntity
  8
DEFPOINTS
  6
ByBlock
 62
     0
100
AcDbPoint
 10
75.63313587504817
 20
296.0898178894582
 30
0.0
  0
POINT
  5
1959
330
18
100
AcDbEntity
  8
DEFPOINTS
  6
ByBlock
 62
     0
100
AcDbPoint
 10
78.79065212974547
 20
296.2577130174383
 30
0.0
  0
POINT
  5
195A
330
18
100
AcDbEntity
  8
DEFPOINTS
  6
ByBlock
 62
     0
100
AcDbPoint
 10
67.69407145434886
 20
300.3217874962004
 30
0.0
  0
POINT
  5
195B
330
18
100
AcDbEntity
  8
DEFPOINTS
  6
ByBlock
 62
     0
100
AcDbPoint
 10
84.93472893927359
 20
303.5401132734216
 30
0.0
  0
LINE
  5
195C
330
18
100
AcDbEntity
  8
中心線
100
AcDbLine
 10
84.93472893927359
 20
303.5401132734216
 30
0.0
 11
89.79874321194168
 21
296.5290172803045
 31
0.0
  0
LINE
  5
195D
330
18
100
AcDbEntity
  8
中心線
 48
0.4
100
AcDbLine
 10
191.7025014582392
 20
374.197799628395
 30
0.0
 11
200.4323684317749
 21
361.6143794475528
 31
0.0
  0
ARC
  5
195F
330
18
100
AcDbEntity
  8
外形線
100
AcDbCircle
 10
-81.51222924570118
 20
262.5440658216299
 30
0.0
 40
45.0
100
AcDbArc
 50
265.4136789070318
 51
293.3183703424039
  0
ARC
  5
1960
330
18
100
AcDbEntity
  8
外形線
100
AcDbCircle
 10
-81.51222924570118
 20
262.5440658216299
 30
0.0
 40
47.5
100
AcDbArc
 50
265.522752885785
 51
293.3487962389587
  0
LINE
  5
1961
330
18
100
AcDbEntity
  8
外形線
100
AcDbLine
 10
-85.22023129066813
 20
215.1890162404656
 30
0.0
 11
-85.11047195505065
 21
217.6881559612267
 31
0.0
  0
ARC
  5
1963
330
18
100
AcDbEntity
  8
外形線
100
AcDbCircle
 10
-62.20017955276046
 20
225.2417230942931
 30
0.0
 40
3.0
100
AcDbArc
 50
115.3419651331262
 51
203.8964442828719
  0
LINE
  5
1964
330
18
100
AcDbEntity
  8
隠れ線2
100
AcDbLine
 10
-63.69938233764464
 20
221.2195775127514
 30
0.0
 11
-54.55659137620727
 21
225.2704259961504
 31
0.0
  0
LINE
  5
1965
330
18
100
AcDbEntity
  8
隠れ線2
 48
0.3
100
AcDbLine
 10
-60.04226595306971
 20
222.8399169061107
 30
0.0
 11
-58.98866545485794
 21
220.4619338362691
 31
0.0
  0
LINE
  5
1966
330
18
100
AcDbEntity
  8
外形線
100
AcDbLine
 10
-64.94301684119171
 20
224.0264685492735
 30
0.0
 11
-62.68667021679482
 21
218.9338797723918
 31
0.0
  0
LINE
  5
1967
330
18
100
AcDbEntity
  8
隠れ線2
 48
0.3
100
AcDbLine
 10
-54.55659137620717
 20
225.2704259961503
 30
0.0
 11
-53.44165831195209
 21
222.7540149320848
 31
0.0
  0
POINT
  5
1968
330
18
100
AcDbEntity
  8
DEFPOINTS
  6
ByBlock
 62
     0
100
AcDbPoint
 10
-53.44165831195221
 20
222.7540149320846
 30
0.0
 50
192.0
  0
POINT
  5
1969
330
18
100
AcDbEntity
  8
DEFPOINTS
  6
ByBlock
 62
     0
100
AcDbPoint
 10
-57.08742194701142
 20
230.9825267973786
 30
0.0
 50
192.0
  0
CIRCLE
  5
196B
330
18
100
AcDbEntity
  8
外形線
100
AcDbCircle
 10
196.0782996117861
 20
367.8904289709091
 30
0.0
 40
4.0
  0
LINE
  5
1999
330
18
100
AcDbEntity
  8
外形線
100
AcDbLine
 10
74.40873333177491
 20
289.5160047164397
 30
0.0
 11
81.47095677768765
 21
282.4537812705269
 31
0.0
  0
LINE
  5
199A
330
18
100
AcDbEntity
  8
外形線
100
AcDbLine
 10
74.05517994118167
 20
289.1624513258465
 30
0.0
 11
81.11740338709441
 21
282.1002278799337
 31
0.0
  0
ARC
  5
199B
330
18
100
AcDbEntity
  8
外形線
100
AcDbCircle
 10
77.76306835943467
 20
285.8081162981867
 30
0.0
 40
4.5
100
AcDbArc
 50
138.1847385367197
 51
311.8152614632801
  0
ARC
  5
199C
330
18
100
AcDbEntity
  8
外形線
100
AcDbCircle
 10
77.76306835943467
 20
285.8081162981867
 30
0.0
 40
4.5
100
AcDbArc
 50
138.1847385367197
 51
311.8152614632801
  0
CIRCLE
  5
199D
330
18
100
AcDbEntity
  8
外形線
100
AcDbCircle
 10
77.76306835943467
 20
285.8081162981867
 30
0.0
 40
7.0
  0
ARC
  5
199F
330
18
100
AcDbEntity
  8
外形線
100
AcDbCircle
 10
98.76306835943456
 20
285.9949294849999
 30
0.0
 40
7.0
100
AcDbArc
 50
180.3361549428122
 51
269.8378176113472
  0
LINE
  5
19A0
330
18
100
AcDbEntity
  8
外形線
100
AcDbLine
 10
101.539745330319
 20
293.1671878751671
 30
0.0
 11
164.2435006957585
 21
296.7931065287247
 31
0.0
  0
LINE
  5
19A4
330
18
100
AcDbEntity
  8
外形線
100
AcDbLine
 10
117.3310973988892
 20
304.8183443850312
 30
0.0
 11
180.0299849104778
 21
308.4780812111481
 31
0.0
  0
LINE
  5
19A5
330
18
100
AcDbEntity
  8
外形線
100
AcDbLine
 10
127.651102353118
 20
312.4326381061882
 30
0.0
 11
165.9885728025093
 21
314.6703979451944
 31
0.0
  0
LINE
  5
19A6
330
18
100
AcDbEntity
  8
隠れ線2
100
AcDbLine
 10
101.2547721885568
 20
310.8918831516488
 30
0.0
 11
127.6511023531179
 21
312.4326381061881
 31
0.0
  0
LINE
  5
19A7
330
18
100
AcDbEntity
  8
隠れ線2
100
AcDbLine
 10
89.43181800927391
 20
303.1898622180161
 30
0.0
 11
117.3310973988891
 21
304.8183443850311
 31
0.0
  0
LINE
  5
19AA
330
18
100
AcDbEntity
  8
隠れ線2
100
AcDbLine
 10
44.00109189667655
 20
278.8574637921509
 30
0.0
 11
57.76790347074802
 21
278.8685578068184
 31
0.0
  0
ARC
  5
19AB
330
18
100
AcDbEntity
  8
外形線
100
AcDbCircle
 10
57.76306835943467
 20
284.8685558586263
 30
0.0
 40
6.0
100
AcDbArc
 50
29.71749993159592
 51
93.10115619125204
  0
LINE
  5
19AE
330
18
100
AcDbEntity
  8
隠れ線2
100
AcDbLine
 10
41.07217875646031
 20
261.8081162981868
 30
0.0
 11
8.001186552516315
 21
261.8081162981868
 31
0.0
  0
LINE
  5
19AF
330
18
100
AcDbEntity
  8
隠れ線2
100
AcDbLine
 10
58.01270065650188
 20
268.8081162981868
 30
0.0
 11
22.78177199711105
 21
268.8081162981869
 31
0.0
  0
LINE
  5
19B0
330
18
100
AcDbEntity
  8
外形線
100
AcDbLine
 10
22.78177199711125
 20
268.8081162981869
 30
0.0
 11
-28.23693164056545
 21
268.8081162981868
 31
0.0
  0
LINE
  5
19B1
330
18
100
AcDbEntity
  8
外形線
100
AcDbLine
 10
8.001186552516335
 20
261.8081162981868
 30
0.0
 11
-49.83693164056532
 21
261.8081162981867
 31
0.0
  0
LINE
  5
19B6
330
18
100
AcDbEntity
  8
外形線
100
AcDbLine
 10
-182.3825256914657
 20
329.3081162981871
 30
0.0
 11
-184.3825256914657
 21
329.3081162981868
 31
0.0
  0
LINE
  5
19C4
330
18
100
AcDbEntity
  8
外形線
100
AcDbLine
 10
-185.3825256914657
 20
284.6697542285255
 30
0.0
 11
-185.3825256914657
 21
212.5581162981868
 31
0.0
  0
LINE
  5
1A0F
330
18
100
AcDbEntity
  8
想像線
100
AcDbLine
 10
421.7630683594347
 20
267.2398862360801
 30
0.0
 11
421.7630683594347
 21
162.1542048890818
 31
0.0
  0
DIMENSION
  5
1A2A
330
18
100
AcDbEntity
  8
寸法線
100
AcDbDimension
  2
*D29
 10
-78.23693164056533
 20
125.2959975226889
 30
0.0
 11
171.7630683594346
 21
127.1709975226889
 31
0.0
 70
    32
 71
     5
 42
500.0
  3
STYLE3
100
AcDbAlignedDimension
 13
421.7630683594347
 23
162.1542048890818
 33
0.0
 14
-78.23693164056533
 24
134.1145546991789
 34
0.0
100
AcDbRotatedDimension
1001
ACAD
1000
DSTYLE
1002
{
1070
   271
1070
     2
1002
}
  0
LINE
  5
1A4D
330
18
100
AcDbEntity
  8
外形線
100
AcDbLine
 10
-159.8825256914657
 20
371.8904289709091
 30
0.0
 11
-159.8825256914657
 21
300.7948262358271
 31
0.0
  0
LINE
  5
1A52
330
18
100
AcDbEntity
  8
中心線
 48
0.3
100
AcDbLine
 10
-153.6631116531678
 20
285.8081162981867
 30
0.0
 11
-163.7166290593623
 21
285.8081162981867
 31
0.0
  0
LINE
  5
1A53
330
18
100
AcDbEntity
  8
外形線
100
AcDbLine
 10
-162.3825256914657
 20
289.8581162981869
 30
0.0
 11
-162.3825256914657
 21
218.4620455920416
 31
0.0
  0
LINE
  5
1A54
330
18
100
AcDbEntity
  8
外形線
100
AcDbLine
 10
-159.8825256914657
 20
300.8671372583912
 30
0.0
 11
-159.8825256914657
 21
218.4620455920416
 31
0.0
  0
LINE
  5
1A55
330
18
100
AcDbEntity
  8
外形線
100
AcDbLine
 10
-158.8825256914657
 20
278.8081162981868
 30
0.0
 11
-159.8825256914657
 21
278.8081162981868
 31
0.0
  0
LINE
  5
1A56
330
18
100
AcDbEntity
  8
外形線
100
AcDbLine
 10
-158.8825256914657
 20
292.8081162981868
 30
0.0
 11
-159.8825256914657
 21
292.8081162981868
 31
0.0
  0
LINE
  5
1A57
330
18
100
AcDbEntity
  8
外形線
100
AcDbLine
 10
-158.8825256914657
 20
292.8081162981868
 30
0.0
 11
-158.8825256914657
 21
278.8081162981868
 31
0.0
  0
LINE
  5
1A5E
330
18
100
AcDbEntity
  8
外形線
100
AcDbLine
 10
-159.8825256914656
 20
218.4620455920416
 30
0.0
 11
-166.8825256914657
 21
218.4620455920416
 31
0.0
  0
LINE
  5
1A5F
330
18
100
AcDbEntity
  8
外形線
100
AcDbLine
 10
-166.8825256914657
 20
214.9397400214384
 30
0.0
 11
-170.3825256914657
 21
214.9397400214384
 31
0.0
  0
LINE
  5
1AD3
330
18
100
AcDbEntity
  8
外形線
100
AcDbLine
 10
-162.3825256914657
 20
224.6348515241791
 30
0.0
 11
-171.3825256914657
 21
224.6348515241792
 31
0.0
  0
LINE
  5
1AD5
330
18
100
AcDbEntity
  8
外形線
100
AcDbLine
 10
-166.8825256914657
 20
217.6646970156134
 30
0.0
 11
-169.8825256914657
 21
217.6646970156134
 31
0.0
  0
LINE
  5
1AD7
330
18
100
AcDbEntity
  8
外形線
100
AcDbLine
 10
-179.8825256914657
 20
222.6348515241783
 30
0.0
 11
-179.8825256914657
 21
214.9397400214384
 31
0.0
  0
LINE
  5
1AD8
330
18
100
AcDbEntity
  8
外形線
100
AcDbLine
 10
-166.8825256914657
 20
218.4620455920416
 30
0.0
 11
-166.8825256914657
 21
214.9397400214384
 31
0.0
  0
LINE
  5
1AD9
330
18
100
AcDbEntity
  8
外形線
100
AcDbLine
 10
-176.8825256914657
 20
219.8081162981867
 30
0.0
 11
-176.8825256914657
 21
218.231734735534
 31
0.0
  0
LINE
  5
1ADA
330
18
100
AcDbEntity
  8
外形線
100
AcDbLine
 10
-169.8825256914657
 20
219.8081162981868
 30
0.0
 11
-169.8825256914657
 21
214.9397400214384
 31
0.0
  0
LINE
  5
1ADB
330
18
100
AcDbEntity
  8
外形線
100
AcDbLine
 10
-176.8825256914657
 20
217.6646970156134
 30
0.0
 11
-179.8825256914657
 21
217.6646970156134
 31
0.0
  0
LINE
  5
1ADC
330
18
100
AcDbEntity
  8
外形線
100
AcDbLine
 10
-176.3825256914657
 20
214.9397400214384
 30
0.0
 11
-179.8825256914657
 21
214.9397400214384
 31
0.0
  0
LINE
  5
1ADD
330
18
100
AcDbEntity
  8
外形線
100
AcDbLine
 10
-175.3825256914657
 20
224.6348515241792
 30
0.0
 11
-176.8825256914663
 21
224.6348515241792
 31
0.0
  0
LINE
  5
1ADE
330
18
100
AcDbEntity
  8
隠れ線2
 48
0.6
100
AcDbLine
 10
-175.3825256914657
 20
224.6348515241792
 30
0.0
 11
-171.3825256914657
 21
224.6348515241791
 31
0.0
  0
LINE
  5
1AE0
330
18
100
AcDbEntity
  8
外形線
100
AcDbLine
 10
-176.8825256914657
 20
219.8081162981867
 30
0.0
 11
-176.8825256914657
 21
214.9397400214384
 31
0.0
  0
ELLIPSE
  5
1AE2
330
18
100
AcDbEntity
  8
外形線
100
AcDbEllipse
 10
-176.8825256914657
 20
222.6348515241792
 30
0.0
 11
-3.0
 21
-0.0000000000000284
 31
0.0
210
0.0
220
0.0
230
1.0
 40
0.6666666666666666
 41
4.712388980384689
 42
6.283185307179586
  0
LINE
  5
1AE3
330
18
100
AcDbEntity
  8
外形線
100
AcDbLine
 10
-161.3825256914657
 20
203.405010803893
 30
0.0
 11
-161.3825256914657
 21
208.0581162981868
 31
0.0
  0
DIMENSION
  5
1B15
330
18
100
AcDbEntity
  8
寸法線
100
AcDbDimension
  2
*D30
 10
-114.6456904170484
 20
165.8081162981868
 30
0.0
 11
-116.5206904170484
 21
186.3081162981868
 31
0.0
 70
    32
 71
     5
 42
-1.0
  3
STYLE3
100
AcDbAlignedDimension
 13
-87.23693164056545
 23
206.8081162981869
 33
0.0
 14
-87.23693164056532
 24
165.8081162981868
 34
0.0
 50
90.0
100
AcDbRotatedDimension
1001
ACAD
1000
DSTYLE
1002
{
1070
    75
1070
     1
1070
   271
1070
     2
1070
   279
1070
     1
1002
}
  0
DIMENSION
  5
1B21
330
18
100
AcDbEntity
  8
寸法線
100
AcDbDimension
  2
*D31
 10
-114.6456904170484
 20
138.8081162981867
 30
0.0
 11
-116.5206904170484
 21
152.3081162981868
 31
0.0
 70
    32
 71
     5
 42
-1.0
  3
STYLE3
100
AcDbAlignedDimension
 13
-87.23693164056532
 23
165.8081162981868
 33
0.0
 14
-33.23693164056534
 24
138.8081162981867
 34
0.0
 50
90.0
100
AcDbRotatedDimension
1001
ACAD
1000
DSTYLE
1002
{
1070
    75
1070
     1
1070
   271
1070
     2
1070
   279
1070
     1
1002
}
  0
DIMENSION
  5
1C1E
330
18
100
AcDbEntity
  8
寸法線
100
AcDbDimension
  2
*D32
 10
-164.3825256914657
 20
175.5322252953275
 30
0.0
 11
-173.3825256914657
 21
177.4072252953275
 31
0.0
 70
    32
 71
     5
 42
-1.0
  3
STYLE3
100
AcDbAlignedDimension
 13
-182.3825256914657
 23
176.8534448987456
 33
0.0
 14
-164.3825256914657
 24
176.2662358187718
 34
0.0
100
AcDbRotatedDimension
1001
ACAD
1000
DSTYLE
1002
{
1070
   271
1070
     2
1002
}
  0
DIMENSION
  5
1C2B
330
18
100
AcDbEntity
  8
寸法線
100
AcDbDimension
  2
*D33
 10
-161.3825256914657
 20
124.3291060284713
 30
0.0
 11
-173.3825256914657
 21
126.2041060284713
 31
0.0
 70
    32
 71
     5
 42
24.0
  3
STYLE3
100
AcDbAlignedDimension
 13
-185.3825256914657
 23
140.3081162981867
 33
0.0
 14
-161.3825256914657
 24
140.3081162981868
 34
0.0
100
AcDbRotatedDimension
1001
ACAD
1000
DSTYLE
1002
{
1070
   271
1070
     2
1002
}
  0
DIMENSION
  5
1C38
330
18
100
AcDbEntity
  8
寸法線
100
AcDbDimension
  2
*D34
 10
-218.2937447013984
 20
116.9064762686433
 30
0.0
 11
-173.3825256914657
 21
118.7814762686433
 31
0.0
 70
    32
  1
90
 71
     5
 42
89.82243801986532
  3
STYLE3
100
AcDbAlignedDimension
 13
-128.471306681533
 23
140.9360230404431
 33
0.0
 14
-218.2937447013984
 24
140.9360230404431
 34
0.0
100
AcDbRotatedDimension
1001
ACAD
1000
DSTYLE
1002
{
1070
   271
1070
     2
1002
}
  0
DIMENSION
  5
1C7E
330
18
100
AcDbEntity
  8
寸法線
100
AcDbDimension
  2
*D35
 10
-78.23693164056533
 20
101.1189790776274
 30
0.0
 11
216.7630683594347
 21
102.9939790776274
 31
0.0
 70
    32
 71
     5
 42
590.0
  3
STYLE3
100
AcDbAlignedDimension
 13
511.7630683594346
 23
126.0929214083148
 33
0.0
 14
-78.23693164056533
 24
126.0929214083148
 34
0.0
100
AcDbRotatedDimension
1001
ACAD
1000
DSTYLE
1002
{
1070
   271
1070
     2
1002
}
  0
LINE
  5
1C90
330
18
100
AcDbEntity
  8
中心線
100
AcDbLine
 10
-72.83693164056533
 20
350.8243754851417
 30
0.0
 11
-72.83693164056533
 21
266.2535582663525
 31
0.0
  0
LINE
  5
1C91
330
18
100
AcDbEntity
  8
中心線
100
AcDbLine
 10
-32.84227925026519
 20
304.8081162981867
 30
0.0
 11
-111.1488287420881
 21
304.8081162981867
 31
0.0
  0
LINE
  5
1C92
330
18
100
AcDbEntity
  8
外形線
100
AcDbLine
 10
-62.83693164056531
 20
267.8081162981868
 30
0.0
 11
-62.83693164056532
 21
264.8081162981867
 31
0.0
  0
CIRCLE
  5
1E31
330
18
100
AcDbEntity
  8
外形線
100
AcDbCircle
 10
-72.83693164056533
 20
304.8081162981867
 30
0.0
 40
33.0
  0
INSERT
  5
1E34
330
18
100
AcDbEntity
  8
文字
100
AcDbBlockReference
  2
ROGO
 10
-82.73515477094619
 20
316.8081162981867
 30
0.0
 41
0.5
 42
0.5
 43
0.5
  0
TEXT
  5
1E35
330
18
100
AcDbEntity
  8
文字
100
AcDbText
 10
-81.02565401062506
 20
314.3064834031957
 30
0.0
 40
1.5
  1
MADE IN JAPAN
  7
STYLE3
100
AcDbText
  0
LINE
  5
1E36
330
18
100
AcDbEntity
  8
目盛
100
AcDbLine
 10
-80.04893836834609
 20
332.8970279709171
 30
0.0
 11
-79.24069623506031
 21
329.749132697249
 31
0.0
  0
LINE
  5
1E37
330
18
100
AcDbEntity
  8
目盛
100
AcDbLine
 10
-80.04893836834614
 20
276.7192046254564
 30
0.0
 11
-79.24069623506031
 21
279.8670998991245
 31
0.0
  0
CIRCLE
  5
1E39
330
18
100
AcDbEntity
  8
外形線
100
AcDbCircle
 10
-72.83693164056533
 20
304.8081162981867
 30
0.0
 40
29.0
  0
LINE
  5
1E3A
330
18
100
AcDbEntity
  8
目盛
100
AcDbLine
 10
-101.3232619116973
 20
299.3740581752007
 30
0.0
 11
-98.13082834682909
 21
299.9830474476044
 31
0.0
  0
LINE
  5
1E3C
330
18
100
AcDbEntity
  8
目盛
100
AcDbLine
 10
-98.24982536183737
 20
290.837259749237
 30
0.0
 11
-95.40182865169484
 21
292.4029591900676
 31
0.0
  0
LINE
  5
1E3D
330
18
100
AcDbEntity
  8
目盛
100
AcDbLine
 10
-96.93770839667573
 20
290.5549566571764
 30
0.0
 11
-95.6465953561698
 21
291.3185187808019
 31
0.0
  0
LINE
  5
1E3E
330
18
100
AcDbEntity
  8
目盛
100
AcDbLine
 10
-96.29842447743877
 20
287.7623439817051
 30
0.0
 11
-93.06235649993899
 21
290.1134849908749
 31
0.0
  0
LINE
  5
1E3F
330
18
100
AcDbEntity
  8
目盛
100
AcDbLine
 10
-97.32244148012378
 20
289.2691392437959
 30
0.0
 11
-94.57837572224216
 21
291.0105763274776
 31
0.0
  0
LINE
  5
1E40
330
18
100
AcDbEntity
  8
目盛
100
AcDbLine
 10
-98.53406115971679
 20
293.6879753604129
 30
0.0
 11
-97.15742922119083
 21
294.283697196365
 31
0.0
  0
LINE
  5
1E41
330
18
100
AcDbEntity
  8
目盛
100
AcDbLine
 10
-99.07691616207987
 20
292.4605168427996
 30
0.0
 11
-96.1362282415653
 21
293.8442995403861
 31
0.0
  0
LINE
  5
1E42
330
18
100
AcDbEntity
  8
目盛
100
AcDbLine
 10
-97.78511431783957
 20
292.0963823054795
 30
0.0
 11
-96.44860453155709
 21
292.7773680550887
 31
0.0
  0
LINE
  5
1E43
330
18
100
AcDbEntity
  8
目盛
100
AcDbLine
 10
-100.1626009748503
 20
298.7001055390836
 30
0.0
 11
-98.69872583194215
 21
299.0273204011785
 31
0.0
  0
LINE
  5
1E44
330
18
100
AcDbEntity
  8
目盛
100
AcDbLine
 10
-100.4175706131247
 20
295.8466234613133
 30
0.0
 11
-96.61334454794413
 21
297.0826914388131
 31
0.0
  0
LINE
  5
1E45
330
18
100
AcDbEntity
  8
目盛
100
AcDbLine
 10
-100.9258433132956
 20
297.596109570406
 30
0.0
 11
-97.77794803962761
 21
298.4043517036918
 31
0.0
  0
LINE
  5
1E46
330
18
100
AcDbEntity
  8
目盛
100
AcDbLine
 10
-99.72515483951973
 20
296.9963653290884
 30
0.0
 11
-98.28471431100432
 21
297.4148519881472
 31
0.0
  0
LINE
  5
1E47
330
18
100
AcDbEntity
  8
目盛
100
AcDbLine
 10
-99.1815931712836
 20
295.3234545313186
 30
0.0
 11
-97.7702720178523
 21
295.8315614116865
 31
0.0
  0
LINE
  5
1E48
330
18
100
AcDbEntity
  8
目盛
100
AcDbLine
 10
-99.80044973132462
 20
294.1325042703311
 30
0.0
 11
-96.77867615218779
 21
295.3289090665563
 31
0.0
  0
TEXT
  5
1E49
330
18
100
AcDbEntity
  8
文字
100
AcDbText
 10
-86.44993239929281
 20
285.2373666207157
 30
0.0
 40
3.0
  1
6
  7
STYLE3
100
AcDbText
  0
LINE
  5
1E4A
330
18
100
AcDbEntity
  8
目盛
100
AcDbLine
 10
-95.18181568106317
 20
286.3228205954747
 30
0.0
 11
-92.67764764204187
 21
288.394448562158
 31
0.0
  0
LINE
  5
1E4B
330
18
100
AcDbEntity
  8
目盛
100
AcDbLine
 10
-94.96127198708459
 20
287.6467187959034
 30
0.0
 11
-93.77603946852108
 21
288.5660793763829
 31
0.0
  0
LINE
  5
1E4C
330
18
100
AcDbEntity
  8
目盛
100
AcDbLine
 10
-89.88270395704702
 20
281.3466234613132
 30
0.0
 11
-87.53156294787718
 21
284.5826914388131
 31
0.0
  0
LINE
  5
1E4D
330
18
100
AcDbEntity
  8
目盛
100
AcDbLine
 10
-88.57526622042504
 20
281.649860218499
 30
0.0
 11
-87.73214115364684
 21
282.8904810799108
 31
0.0
  0
LINE
  5
1E4E
330
18
100
AcDbEntity
  8
目盛
100
AcDbLine
 10
-88.37590869495622
 20
280.3226064586283
 30
0.0
 11
-86.6344716112745
 21
283.0666722165099
 31
0.0
  0
LINE
  5
1E4F
330
18
100
AcDbEntity
  8
目盛
100
AcDbLine
 10
-92.68879771249734
 20
283.6680261029658
 30
0.0
 11
-90.46401961822907
 21
286.0371741420854
 31
0.0
  0
LINE
  5
1E50
330
18
100
AcDbEntity
  8
目盛
100
AcDbLine
 10
-93.97702183578624
 20
284.9562502262548
 30
0.0
 11
-91.60787379666667
 21
287.181028320523
 31
0.0
  0
LINE
  5
1E51
330
18
100
AcDbEntity
  8
目盛
100
AcDbLine
 10
-92.63592151378864
 20
285.0091264249634
 30
0.0
 11
-91.57526134200882
 21
286.0697865967432
 31
0.0
  0
LINE
  5
1E52
330
18
100
AcDbEntity
  8
目盛
100
AcDbLine
 10
-93.84004159021818
 20
286.2913840691245
 30
0.0
 11
-92.71487498577252
 21
287.28335186711
 31
0.0
  0
LINE
  5
1E53
330
18
100
AcDbEntity
  8
目盛
100
AcDbLine
 10
-91.35366386962758
 20
283.8050063485339
 30
0.0
 11
-90.36169607164211
 21
284.9301729529795
 31
0.0
  0
LINE
  5
1E54
330
18
100
AcDbEntity
  8
目盛
100
AcDbLine
 10
-91.32222734327731
 20
282.4632322576889
 30
0.0
 11
-89.25059937659407
 21
284.9674002967102
 31
0.0
  0
LINE
  5
1E55
330
18
100
AcDbEntity
  8
目盛
100
AcDbLine
 10
-89.99832914284864
 20
282.6837759516674
 30
0.0
 11
-89.07896856236922
 21
283.8690084702309
 31
0.0
  0
LINE
  5
1E56
330
18
100
AcDbEntity
  8
目盛
100
AcDbLine
 10
-83.95707257833922
 20
279.1109867790353
 30
0.0
 11
-83.36135074238702
 21
280.4876187175612
 31
0.0
  0
LINE
  5
1E57
330
18
100
AcDbEntity
  8
目盛
100
AcDbLine
 10
-85.18453109595245
 20
278.5681317766722
 30
0.0
 11
-83.80074839836598
 21
281.5088196971867
 31
0.0
  0
LINE
  5
1E58
330
18
100
AcDbEntity
  8
目盛
100
AcDbLine
 10
-86.80778818951509
 20
279.3952225769146
 30
0.0
 11
-85.24208874868449
 21
282.2432192870572
 31
0.0
  0
LINE
  5
1E59
330
18
100
AcDbEntity
  8
目盛
100
AcDbLine
 10
-85.54866563327264
 20
279.8599336209124
 30
0.0
 11
-84.86767988366338
 21
281.1964434071949
 31
0.0
  0
LINE
  5
1E5A
330
18
100
AcDbEntity
  8
目盛
100
AcDbLine
 10
-87.09009128157575
 20
280.7073395420763
 30
0.0
 11
-86.3265291579502
 21
281.9984525825822
 31
0.0
  0
LINE
  5
1E5B
330
18
100
AcDbEntity
  8
目盛
100
AcDbLine
 10
-82.32159340743354
 20
278.4634547674684
 30
0.0
 11
-81.81348652706558
 21
279.8747759208997
 31
0.0
  0
LINE
  5
1E5C
330
18
100
AcDbEntity
  8
目盛
100
AcDbLine
 10
-81.79842447743883
 20
277.2274773256273
 30
0.0
 11
-80.56235649993906
 21
281.0317033908079
 31
0.0
  0
LINE
  5
1E5D
330
18
100
AcDbEntity
  8
目盛
100
AcDbLine
 10
-83.51254366842098
 20
277.8445982074274
 30
0.0
 11
-82.31613887219575
 21
280.8663717865643
 31
0.0
  0
LINE
  5
1E5E
330
18
100
AcDbEntity
  8
目盛
100
AcDbLine
 10
-80.64868260966372
 20
277.9198930992324
 30
0.0
 11
-80.23019595060494
 21
279.3603336277477
 31
0.0
  0
LINE
  5
1E5F
330
18
100
AcDbEntity
  8
目盛
100
AcDbLine
 10
-95.99518772025303
 20
289.0697817183271
 30
0.0
 11
-94.75456685884124
 21
289.9129067851053
 31
0.0
  0
TEXT
  5
1E60
330
18
100
AcDbEntity
  8
文字
100
AcDbText
 10
-95.12713800549258
 20
295.7053382654042
 30
0.0
 40
3.0
  1
7
  7
STYLE3
100
AcDbText
  0
TEXT
  5
1E61
330
18
100
AcDbEntity
  8
文字
100
AcDbText
 10
-87.08484888493794
 20
321.0822397619579
 30
0.0
 40
3.0
  1
9
  7
STYLE3
100
AcDbText
  0
LINE
  5
1E62
330
18
100
AcDbEntity
  8
目盛
100
AcDbLine
 10
-93.9770218357863
 20
324.6599823701188
 30
0.0
 11
-91.60787379666667
 21
322.4352042758505
 31
0.0
  0
LINE
  5
1E63
330
18
100
AcDbEntity
  8
目盛
100
AcDbLine
 10
-93.84004159021818
 20
323.3248485272491
 30
0.0
 11
-92.71487498577252
 21
322.3328807292635
 31
0.0
  0
LINE
  5
1E64
330
18
100
AcDbEntity
  8
目盛
100
AcDbLine
 10
-95.18181568106323
 20
323.2934120008988
 30
0.0
 11
-92.67764764204192
 21
321.2217840342155
 31
0.0
  0
LINE
  5
1E65
330
18
100
AcDbEntity
  8
目盛
100
AcDbLine
 10
-96.29842447743882
 20
321.8538886146685
 30
0.0
 11
-93.06235649993899
 21
319.5027476054986
 31
0.0
  0
LINE
  5
1E66
330
18
100
AcDbEntity
  8
目盛
100
AcDbLine
 10
-98.24982536183737
 20
318.7789728471365
 30
0.0
 11
-95.40182865169484
 21
317.2132734063059
 31
0.0
  0
LINE
  5
1E67
330
18
100
AcDbEntity
  8
目盛
100
AcDbLine
 10
-97.32244148012373
 20
320.3470933525776
 30
0.0
 11
-94.57837572224226
 21
318.6056562688959
 31
0.0
  0
LINE
  5
1E68
330
18
100
AcDbEntity
  8
目盛
100
AcDbLine
 10
-96.93770839667578
 20
319.0612759391972
 30
0.0
 11
-95.64659535616986
 21
318.2977138155717
 31
0.0
  0
LINE
  5
1E69
330
18
100
AcDbEntity
  8
目盛
100
AcDbLine
 10
-100.9258433132956
 20
312.0201230259675
 30
0.0
 11
-97.77794803962756
 21
311.2118808926819
 31
0.0
  0
LINE
  5
1E6A
330
18
100
AcDbEntity
  8
目盛
100
AcDbLine
 10
-101.8369316405653
 20
304.8081162981868
 30
0.0
 11
-97.83693164056533
 21
304.8081162981868
 31
0.0
  0
LINE
  5
1E6B
330
18
100
AcDbEntity
  8
目盛
100
AcDbLine
 10
-101.6082579786852
 20
301.173452524822
 30
0.0
 11
-98.38388519941313
 21
301.580785533906
 31
0.0
  0
LINE
  5
1E6C
330
18
100
AcDbEntity
  8
目盛
100
AcDbLine
 10
-101.7797067649851
 20
302.9871912318367
 30
0.0
 11
-98.53611989759329
 21
303.1912604203069
 31
0.0
  0
LINE
  5
1E6D
330
18
100
AcDbEntity
  8
目盛
100
AcDbLine
 10
-100.4922051772292
 20
300.4279512770603
 30
0.0
 11
-99.01067266633649
 21
300.6626029746207
 31
0.0
  0
LINE
  5
1E6E
330
18
100
AcDbEntity
  8
目盛
100
AcDbLine
 10
-100.7126666494515
 20
302.1730835252684
 30
0.0
 11
-99.21932370254697
 21
302.3142459952462
 31
0.0
  0
LINE
  5
1E6F
330
18
100
AcDbEntity
  8
目盛
100
AcDbLine
 10
-100.8231153308057
 20
303.9286150439992
 30
0.0
 11
-99.32385549025717
 21
303.9757311826164
 31
0.0
  0
LINE
  5
1E70
330
18
100
AcDbEntity
  8
目盛
100
AcDbLine
 10
-101.6082579786852
 20
308.4427800715516
 30
0.0
 11
-98.38388519941313
 21
308.0354470624676
 31
0.0
  0
LINE
  5
1E71
330
18
100
AcDbEntity
  8
目盛
100
AcDbLine
 10
-101.3232619116973
 20
310.2421744211728
 30
0.0
 11
-98.13082834682901
 21
309.6331851487692
 31
0.0
  0
LINE
  5
1E72
330
18
100
AcDbEntity
  8
目盛
100
AcDbLine
 10
-100.7126666494515
 20
307.4431490711051
 30
0.0
 11
-99.21932370254692
 21
307.3019866011274
 31
0.0
  0
LINE
  5
1E73
330
18
100
AcDbEntity
  8
目盛
100
AcDbLine
 10
-100.4922051772291
 20
309.1882813193133
 30
0.0
 11
-99.01067266633649
 21
308.9536296217529
 31
0.0
  0
LINE
  5
1E74
330
18
100
AcDbEntity
  8
目盛
100
AcDbLine
 10
-100.1626009748503
 20
310.9161270572899
 30
0.0
 11
-98.69872583194215
 21
310.5889121951952
 31
0.0
  0
LINE
  5
1E75
330
18
100
AcDbEntity
  8
目盛
100
AcDbLine
 10
-100.8231153308058
 20
305.6876175523744
 30
0.0
 11
-99.32385549025722
 21
305.6405014137572
 31
0.0
  0
LINE
  5
1E76
330
18
100
AcDbEntity
  8
目盛
100
AcDbLine
 10
-101.7797067649852
 20
306.6290413645369
 30
0.0
 11
-98.53611989759329
 21
306.4249721760666
 31
0.0
  0
LINE
  5
1E77
330
18
100
AcDbEntity
  8
目盛
100
AcDbLine
 10
-97.78511431783963
 20
317.5198502908941
 30
0.0
 11
-96.44860453155709
 21
316.8388645412847
 31
0.0
  0
LINE
  5
1E78
330
18
100
AcDbEntity
  8
目盛
100
AcDbLine
 10
-100.4175706131247
 20
313.7696091350603
 30
0.0
 11
-96.61334454794413
 21
312.5335411575605
 31
0.0
  0
LINE
  5
1E79
330
18
100
AcDbEntity
  8
目盛
100
AcDbLine
 10
-99.07691616207992
 20
317.1557157535739
 30
0.0
 11
-96.13622824156536
 21
315.7719330559875
 31
0.0
  0
LINE
  5
1E7A
330
18
100
AcDbEntity
  8
目盛
100
AcDbLine
 10
-98.53406115971679
 20
315.9282572359606
 30
0.0
 11
-97.15742922119083
 21
315.3325354000085
 31
0.0
  0
LINE
  5
1E7B
330
18
100
AcDbEntity
  8
目盛
100
AcDbLine
 10
-99.80044973132462
 20
315.4837283260424
 30
0.0
 11
-96.77867615218779
 21
314.2873235298173
 31
0.0
  0
LINE
  5
1E7C
330
18
100
AcDbEntity
  8
目盛
100
AcDbLine
 10
-99.18159317128365
 20
314.292778065055
 30
0.0
 11
-97.7702720178523
 21
313.784671184687
 31
0.0
  0
LINE
  5
1E7D
330
18
100
AcDbEntity
  8
目盛
100
AcDbLine
 10
-99.72515483951973
 20
312.6198672672852
 30
0.0
 11
-98.28471431100432
 21
312.2013806082264
 31
0.0
  0
TEXT
  5
1E7E
330
18
100
AcDbEntity
  8
文字
100
AcDbText
 10
-95.44459568016018
 20
310.0855823808172
 30
0.0
 40
3.0
  1
8
  7
STYLE3
100
AcDbText
  0
LINE
  5
1E7F
330
18
100
AcDbEntity
  8
目盛
100
AcDbLine
 10
-94.96127198708464
 20
321.9695138004702
 30
0.0
 11
-93.77603946852108
 21
321.0501532199907
 31
0.0
  0
LINE
  5
1E80
330
18
100
AcDbEntity
  8
目盛
100
AcDbLine
 10
-95.99518772025303
 20
320.5464508780464
 30
0.0
 11
-94.75456685884124
 21
319.7033258112683
 31
0.0
  0
LINE
  5
1E81
330
18
100
AcDbEntity
  8
目盛
100
AcDbLine
 10
-89.88270395704702
 20
328.2696091350603
 30
0.0
 11
-87.53156294787713
 21
325.0335411575604
 31
0.0
  0
LINE
  5
1E82
330
18
100
AcDbEntity
  8
目盛
100
AcDbLine
 10
-88.37590869495622
 20
329.2936261377452
 30
0.0
 11
-86.63447161127439
 21
326.5495603798637
 31
0.0
  0
LINE
  5
1E83
330
18
100
AcDbEntity
  8
目盛
100
AcDbLine
 10
-88.57526622042493
 20
327.9663723778745
 30
0.0
 11
-87.73214115364671
 21
326.7257515164627
 31
0.0
  0
LINE
  5
1E84
330
18
100
AcDbEntity
  8
目盛
100
AcDbLine
 10
-92.68879771249729
 20
325.9482064934077
 30
0.0
 11
-90.46401961822907
 21
323.5790584542881
 31
0.0
  0
LINE
  5
1E85
330
18
100
AcDbEntity
  8
目盛
100
AcDbLine
 10
-92.63592151378858
 20
324.6071061714101
 30
0.0
 11
-91.57526134200882
 21
323.5464459996303
 31
0.0
  0
LINE
  5
1E86
330
18
100
AcDbEntity
  8
目盛
100
AcDbLine
 10
-89.99832914284864
 20
326.9324566447061
 30
0.0
 11
-89.07896856236922
 21
325.7472241261426
 31
0.0
  0
LINE
  5
1E87
330
18
100
AcDbEntity
  8
目盛
100
AcDbLine
 10
-91.35366386962752
 20
325.8112262478396
 30
0.0
 11
-90.36169607164211
 21
324.6860596433939
 31
0.0
  0
LINE
  5
1E88
330
18
100
AcDbEntity
  8
目盛
100
AcDbLine
 10
-91.32222734327731
 20
327.1530003386847
 30
0.0
 11
-89.25059937659407
 21
324.6488322996634
 31
0.0
  0
LINE
  5
1E89
330
18
100
AcDbEntity
  8
目盛
100
AcDbLine
 10
-81.79842447743871
 20
332.3887552707462
 30
0.0
 11
-80.56235649993894
 21
328.5845292055656
 31
0.0
  0
LINE
  5
1E8A
330
18
100
AcDbEntity
  8
目盛
100
AcDbLine
 10
-86.80778818951504
 20
330.2210100194589
 30
0.0
 11
-85.24208874868444
 21
327.3730133093163
 31
0.0
  0
LINE
  5
1E8B
330
18
100
AcDbEntity
  8
目盛
100
AcDbLine
 10
-85.1845310959524
 20
331.0481008197013
 30
0.0
 11
-83.80074839836593
 21
328.1074128991868
 31
0.0
  0
LINE
  5
1E8C
330
18
100
AcDbEntity
  8
目盛
100
AcDbLine
 10
-83.51254366842088
 20
331.771634388946
 30
0.0
 11
-82.31613887219575
 21
328.7498608098093
 31
0.0
  0
LINE
  5
1E8D
330
18
100
AcDbEntity
  8
目盛
100
AcDbLine
 10
-87.09009128157564
 20
328.9088930542972
 30
0.0
 11
-86.32652915795009
 21
327.6177800137913
 31
0.0
  0
LINE
  5
1E8E
330
18
100
AcDbEntity
  8
目盛
100
AcDbLine
 10
-85.54866563327257
 20
329.756298975461
 30
0.0
 11
-84.86767988366327
 21
328.4197891891785
 31
0.0
  0
LINE
  5
1E8F
330
18
100
AcDbEntity
  8
目盛
100
AcDbLine
 10
-83.9570725783391
 20
330.5052458173383
 30
0.0
 11
-83.36135074238692
 21
329.1286138788123
 31
0.0
  0
LINE
  5
1E90
330
18
100
AcDbEntity
  8
目盛
100
AcDbLine
 10
-80.64868260966362
 20
331.6963394971412
 30
0.0
 11
-80.23019595060484
 21
330.2558989686258
 31
0.0
  0
LINE
  5
1E91
330
18
100
AcDbEntity
  8
目盛
100
AcDbLine
 10
-82.32159340743342
 20
331.1527778289051
 30
0.0
 11
-81.81348652706546
 21
329.7414566754737
 31
0.0
  0
LINE
  5
1E92
330
18
100
AcDbEntity
  8
外形線
100
AcDbLine
 10
-82.2369316405653
 20
347.8081162981867
 30
0.0
 11
-82.23693164056532
 21
338.5222083073155
 31
0.0
  0
LINE
  5
1E93
330
18
100
AcDbEntity
  8
目盛
100
AcDbLine
 10
-44.35060136943329
 20
299.3740581752007
 30
0.0
 11
-47.54303493430157
 21
299.9830474476043
 31
0.0
  0
LINE
  5
1E94
330
18
100
AcDbEntity
  8
目盛
100
AcDbLine
 10
-46.59694711905067
 20
292.4605168427996
 30
0.0
 11
-49.53763503956529
 21
293.844299540386
 31
0.0
  0
LINE
  5
1E95
330
18
100
AcDbEntity
  8
目盛
100
AcDbLine
 10
-45.25629266800584
 20
295.8466234613132
 30
0.0
 11
-49.06051873318645
 21
297.082691438813
 31
0.0
  0
LINE
  5
1E96
330
18
100
AcDbEntity
  8
目盛
100
AcDbLine
 10
-45.87341354980597
 20
294.132504270331
 30
0.0
 11
-48.89518712894281
 21
295.3289090665562
 31
0.0
  0
LINE
  5
1E97
330
18
100
AcDbEntity
  8
目盛
100
AcDbLine
 10
-46.492270109847
 20
295.3234545313185
 30
0.0
 11
-47.90359126327828
 21
295.8315614116864
 31
0.0
  0
LINE
  5
1E98
330
18
100
AcDbEntity
  8
目盛
100
AcDbLine
 10
-45.94870844161093
 20
296.9963653290883
 30
0.0
 11
-47.38914897012634
 21
297.4148519881471
 31
0.0
  0
LINE
  5
1E99
330
18
100
AcDbEntity
  8
目盛
100
AcDbLine
 10
-45.51126230628037
 20
298.7001055390836
 30
0.0
 11
-46.9751374491885
 21
299.0273204011784
 31
0.0
  0
LINE
  5
1E9A
330
18
100
AcDbEntity
  8
目盛
100
AcDbLine
 10
-44.748019967835
 20
297.5961095704059
 30
0.0
 11
-47.89591524150305
 21
298.4043517036917
 31
0.0
  0
LINE
  5
1E9B
330
18
100
AcDbEntity
  8
目盛
100
AcDbLine
 10
-76.4715954139302
 20
276.0367899600668
 30
0.0
 11
-76.06426240484617
 21
279.261162739339
 31
0.0
  0
LINE
  5
1E9C
330
18
100
AcDbEntity
  8
目盛
100
AcDbLine
 10
-78.27098976355134
 20
276.3217860270547
 30
0.0
 11
-77.66200049114772
 21
279.514219591923
 31
0.0
  0
LINE
  5
1E9D
330
18
100
AcDbEntity
  8
目盛
100
AcDbLine
 10
-72.83693164056533
 20
275.8081162981867
 30
0.0
 11
-72.83693164056533
 21
279.8081162981867
 31
0.0
  0
LINE
  5
1E9E
330
18
100
AcDbEntity
  8
目盛
100
AcDbLine
 10
-74.65785670691545
 20
275.8653411737669
 30
0.0
 11
-74.45378751844518
 21
279.1089280411587
 31
0.0
  0
LINE
  5
1E9F
330
18
100
AcDbEntity
  8
目盛
100
AcDbLine
 10
-67.40287351757931
 20
276.3217860270547
 30
0.0
 11
-68.01186278998293
 21
279.514219591923
 31
0.0
  0
LINE
  5
1EA0
330
18
100
AcDbEntity
  8
目盛
100
AcDbLine
 10
-69.2022678672005
 20
276.0367899600669
 30
0.0
 11
-69.60960087628447
 21
279.261162739339
 31
0.0
  0
LINE
  5
1EA1
330
18
100
AcDbEntity
  8
目盛
100
AcDbLine
 10
-71.0160065742152
 20
275.8653411737669
 30
0.0
 11
-71.22007576268552
 21
279.1089280411587
 31
0.0
  0
LINE
  5
1EA2
330
18
100
AcDbEntity
  8
目盛
100
AcDbLine
 10
-62.16131961270966
 20
277.8445982074274
 30
0.0
 11
-63.35772440893484
 21
280.8663717865643
 31
0.0
  0
TEXT
  5
1EA3
330
18
100
AcDbEntity
  8
文字
100
AcDbText
 10
-74.17485875360248
 20
281.1136198554102
 30
0.0
 40
3.0
  1
5
  7
STYLE3
100
AcDbText
  0
LINE
  5
1EA4
330
18
100
AcDbEntity
  8
目盛
100
AcDbLine
 10
-77.21709666169179
 20
277.1528427615228
 30
0.0
 11
-76.98244496413147
 21
278.6343752724156
 31
0.0
  0
LINE
  5
1EA5
330
18
100
AcDbEntity
  8
目盛
100
AcDbLine
 10
-78.94494239966857
 20
277.4824469639018
 30
0.0
 11
-78.61772753757382
 21
278.9463221068099
 31
0.0
  0
LINE
  5
1EA6
330
18
100
AcDbEntity
  8
目盛
100
AcDbLine
 10
-75.47196441348373
 20
276.9323812893004
 30
0.0
 11
-75.33080194350597
 21
278.4257242362051
 31
0.0
  0
LINE
  5
1EA7
330
18
100
AcDbEntity
  8
目盛
100
AcDbLine
 10
-73.71643289475295
 20
276.8219326079462
 30
0.0
 11
-73.66931675613577
 21
278.3211924484948
 31
0.0
  0
LINE
  5
1EA8
330
18
100
AcDbEntity
  8
目盛
100
AcDbLine
 10
-71.95743038637775
 20
276.8219326079462
 30
0.0
 11
-72.00454652499494
 21
278.3211924484949
 31
0.0
  0
LINE
  5
1EA9
330
18
100
AcDbEntity
  8
目盛
100
AcDbLine
 10
-68.45676661943887
 20
277.1528427615229
 30
0.0
 11
-68.69141831699923
 21
278.6343752724156
 31
0.0
  0
LINE
  5
1EAA
330
18
100
AcDbEntity
  8
目盛
100
AcDbLine
 10
-70.20189886764692
 20
276.9323812893005
 30
0.0
 11
-70.34306133762467
 21
278.4257242362051
 31
0.0
  0
LINE
  5
1EAB
330
18
100
AcDbEntity
  8
目盛
100
AcDbLine
 10
-66.72892088146213
 20
277.4824469639018
 30
0.0
 11
-67.05613574355695
 21
278.9463221068099
 31
0.0
  0
LINE
  5
1EAC
330
18
100
AcDbEntity
  8
目盛
100
AcDbLine
 10
-65.02518067146692
 20
277.9198930992324
 30
0.0
 11
-65.44366733052576
 21
279.3603336277477
 31
0.0
  0
LINE
  5
1EAD
330
18
100
AcDbEntity
  8
目盛
100
AcDbLine
 10
-63.87543880369182
 20
277.2274773256273
 30
0.0
 11
-65.11150678119165
 21
281.0317033908079
 31
0.0
  0
LINE
  5
1EAE
330
18
100
AcDbEntity
  8
目盛
100
AcDbLine
 10
-65.62492491278451
 20
276.7192046254564
 30
0.0
 11
-66.43316704607028
 21
279.8670998991245
 31
0.0
  0
LINE
  5
1EAF
330
18
100
AcDbEntity
  8
目盛
100
AcDbLine
 10
-63.35226987369717
 20
278.4634547674685
 30
0.0
 11
-63.86037675406507
 21
279.8747759208997
 31
0.0
  0
TEXT
  5
1EB0
330
18
100
AcDbEntity
  8
文字
100
AcDbText
 10
-76.21752517445234
 20
292.8356151818042
 30
0.0
 40
2.0
  1
K-4
  7
STYLE3
100
AcDbText
  0
TEXT
  5
1EB1
330
18
100
AcDbEntity
  8
文字
100
AcDbText
 10
-77.75458070307522
 20
290.3224635151898
 30
0.0
 40
1.5
  1
0.05mm
  7
STYLE3
100
AcDbText
  0
TEXT
  5
1EB2
330
18
100
AcDbEntity
  8
文字
100
AcDbText
 10
-61.37068860469625
 20
285.554578062587
 30
0.0
 40
3.0
  1
4
  7
STYLE3
100
AcDbText
  0
LINE
  5
1EB3
330
18
100
AcDbEntity
  8
目盛
100
AcDbLine
 10
-50.71259129404601
 20
287.6467187959033
 30
0.0
 11
-51.89782381260951
 21
288.5660793763828
 31
0.0
  0
LINE
  5
1EB4
330
18
100
AcDbEntity
  8
目盛
100
AcDbLine
 10
-49.37543880369182
 20
287.762343981705
 30
0.0
 11
-52.61150678119159
 21
290.1134849908748
 31
0.0
  0
LINE
  5
1EB5
330
18
100
AcDbEntity
  8
目盛
100
AcDbLine
 10
-50.49204760006742
 20
286.3228205954747
 30
0.0
 11
-52.99621563908871
 21
288.3944485621579
 31
0.0
  0
LINE
  5
1EB6
330
18
100
AcDbEntity
  8
目盛
100
AcDbLine
 10
-52.9850655686333
 20
283.6680261029658
 30
0.0
 11
-55.20984366290154
 21
286.0371741420854
 31
0.0
  0
LINE
  5
1EB7
330
18
100
AcDbEntity
  8
目盛
100
AcDbLine
 10
-54.32019941150307
 20
283.8050063485338
 30
0.0
 11
-55.31216720948854
 21
284.9301729529795
 31
0.0
  0
LINE
  5
1EB8
330
18
100
AcDbEntity
  8
目盛
100
AcDbLine
 10
-54.35163593785327
 20
282.4632322576888
 30
0.0
 11
-56.42326390453658
 21
284.9674002967102
 31
0.0
  0
LINE
  5
1EB9
330
18
100
AcDbEntity
  8
目盛
100
AcDbLine
 10
-55.79115932408362
 20
281.3466234613132
 30
0.0
 11
-58.14230033325348
 21
284.5826914388131
 31
0.0
  0
LINE
  5
1EBA
330
18
100
AcDbEntity
  8
目盛
100
AcDbLine
 10
-57.29795458617437
 20
280.3226064586283
 30
0.0
 11
-59.0393916698562
 21
283.0666722165098
 31
0.0
  0
LINE
  5
1EBB
330
18
100
AcDbEntity
  8
目盛
100
AcDbLine
 10
-57.09859706070566
 20
281.649860218499
 30
0.0
 11
-57.94172212748387
 21
282.8904810799108
 31
0.0
  0
LINE
  5
1EBC
330
18
100
AcDbEntity
  8
目盛
100
AcDbLine
 10
-58.86607509161556
 20
279.3952225769146
 30
0.0
 11
-60.43177453244616
 21
282.2432192870572
 31
0.0
  0
LINE
  5
1EBD
330
18
100
AcDbEntity
  8
目盛
100
AcDbLine
 10
-58.58377199955495
 20
280.7073395420763
 30
0.0
 11
-59.3473341231805
 21
281.9984525825822
 31
0.0
  0
LINE
  5
1EBE
330
18
100
AcDbEntity
  8
目盛
100
AcDbLine
 10
-60.4893321851782
 20
278.5681317766722
 30
0.0
 11
-61.87311488276467
 21
281.5088196971867
 31
0.0
  0
LINE
  5
1EBF
330
18
100
AcDbEntity
  8
目盛
100
AcDbLine
 10
-60.12519764785801
 20
279.8599336209124
 30
0.0
 11
-60.80618339746732
 21
281.1964434071949
 31
0.0
  0
LINE
  5
1EC0
330
18
100
AcDbEntity
  8
目盛
100
AcDbLine
 10
-61.71679070279148
 20
279.1109867790352
 30
0.0
 11
-62.31251253874368
 21
280.4876187175612
 31
0.0
  0
LINE
  5
1EC1
330
18
100
AcDbEntity
  8
目盛
100
AcDbLine
 10
-55.67553413828196
 20
282.6837759516674
 30
0.0
 11
-56.59489471876142
 21
283.8690084702309
 31
0.0
  0
LINE
  5
1EC2
330
18
100
AcDbEntity
  8
目盛
100
AcDbLine
 10
-51.69684144534435
 20
284.9562502262547
 30
0.0
 11
-54.06598948446398
 21
287.1810283205229
 31
0.0
  0
LINE
  5
1EC3
330
18
100
AcDbEntity
  8
目盛
100
AcDbLine
 10
-51.83382169091245
 20
286.2913840691244
 30
0.0
 11
-52.95898829535812
 21
287.2833518671099
 31
0.0
  0
LINE
  5
1EC4
330
18
100
AcDbEntity
  8
目盛
100
AcDbLine
 10
-53.037941767342
 20
285.0091264249634
 30
0.0
 11
-54.09860193912177
 21
286.0697865967432
 31
0.0
  0
LINE
  5
1EC5
330
18
100
AcDbEntity
  8
目盛
100
AcDbLine
 10
-47.13980212141379
 20
293.6879753604129
 30
0.0
 11
-48.51643405993982
 21
294.283697196365
 31
0.0
  0
LINE
  5
1EC6
330
18
100
AcDbEntity
  8
目盛
100
AcDbLine
 10
-48.35142180100686
 20
289.2691392437958
 30
0.0
 11
-51.09548755888837
 21
291.0105763274776
 31
0.0
  0
LINE
  5
1EC7
330
18
100
AcDbEntity
  8
目盛
100
AcDbLine
 10
-49.67867556087757
 20
289.069781718327
 30
0.0
 11
-50.91929642228942
 21
289.9129067851053
 31
0.0
  0
LINE
  5
1EC8
330
18
100
AcDbEntity
  8
目盛
100
AcDbLine
 10
-47.42403791929322
 20
290.8372597492369
 30
0.0
 11
-50.27203462943581
 21
292.4029591900675
 31
0.0
  0
LINE
  5
1EC9
330
18
100
AcDbEntity
  8
目盛
100
AcDbLine
 10
-47.88874896329102
 20
292.0963823054794
 30
0.0
 11
-49.22525874957355
 21
292.7773680550887
 31
0.0
  0
LINE
  5
1ECA
330
18
100
AcDbEntity
  8
目盛
100
AcDbLine
 10
-48.73615488445486
 20
290.5549566571762
 30
0.0
 11
-50.0272679249608
 21
291.3185187808018
 31
0.0
  0
TEXT
  5
1ECB
330
18
100
AcDbEntity
  8
文字
100
AcDbText
 10
-53.43421946657063
 20
296.5512347840538
 30
0.0
 40
3.0
  1
3
  7
STYLE3
100
AcDbText
  0
LINE
  5
1ECC
330
18
100
AcDbEntity
  8
目盛
100
AcDbLine
 10
-44.06560530244539
 20
301.1734525248219
 30
0.0
 11
-47.28997808171752
 21
301.5807855339059
 31
0.0
  0
LINE
  5
1ECD
330
18
100
AcDbEntity
  8
目盛
100
AcDbLine
 10
-43.83693164056532
 20
304.8081162981867
 30
0.0
 11
-47.83693164056527
 21
304.8081162981867
 31
0.0
  0
LINE
  5
1ECE
330
18
100
AcDbEntity
  8
目盛
100
AcDbLine
 10
-44.35060136943329
 20
310.2421744211728
 30
0.0
 11
-47.54303493430152
 21
309.6331851487692
 31
0.0
  0
LINE
  5
1ECF
330
18
100
AcDbEntity
  8
目盛
100
AcDbLine
 10
-44.06560530244539
 20
308.4427800715516
 30
0.0
 11
-47.28997808171752
 21
308.0354470624676
 31
0.0
  0
LINE
  5
1ED0
330
18
100
AcDbEntity
  8
目盛
100
AcDbLine
 10
-43.89415651614544
 20
306.6290413645368
 30
0.0
 11
-47.13774338353729
 21
306.4249721760666
 31
0.0
  0
LINE
  5
1ED1
330
18
100
AcDbEntity
  8
目盛
100
AcDbLine
 10
-43.89415651614544
 20
302.9871912318367
 30
0.0
 11
-47.13774338353729
 21
303.1912604203069
 31
0.0
  0
LINE
  5
1ED2
330
18
100
AcDbEntity
  8
目盛
100
AcDbLine
 10
-45.51126230628037
 20
310.9161270572899
 30
0.0
 11
-46.97513744918845
 21
310.5889121951951
 31
0.0
  0
LINE
  5
1ED3
330
18
100
AcDbEntity
  8
目盛
100
AcDbLine
 10
-45.25629266800584
 20
313.7696091350603
 30
0.0
 11
-49.06051873318645
 21
312.5335411575604
 31
0.0
  0
LINE
  5
1ED4
330
18
100
AcDbEntity
  8
目盛
100
AcDbLine
 10
-44.748019967835
 20
312.0201230259675
 30
0.0
 11
-47.89591524150305
 21
311.2118808926817
 31
0.0
  0
LINE
  5
1ED5
330
18
100
AcDbEntity
  8
目盛
100
AcDbLine
 10
-45.94870844161093
 20
312.6198672672852
 30
0.0
 11
-47.38914897012628
 21
312.2013806082263
 31
0.0
  0
LINE
  5
1ED6
330
18
100
AcDbEntity
  8
目盛
100
AcDbLine
 10
-46.492270109847
 20
314.2927780650548
 30
0.0
 11
-47.90359126327834
 21
313.784671184687
 31
0.0
  0
LINE
  5
1ED7
330
18
100
AcDbEntity
  8
目盛
100
AcDbLine
 10
-46.59694711905067
 20
317.1557157535738
 30
0.0
 11
-49.53763503956529
 21
315.7719330559873
 31
0.0
  0
LINE
  5
1ED8
330
18
100
AcDbEntity
  8
目盛
100
AcDbLine
 10
-45.87341354980603
 20
315.4837283260424
 30
0.0
 11
-48.89518712894286
 21
314.2873235298172
 31
0.0
  0
LINE
  5
1ED9
102
{ACAD_REACTORS
330
1EDB
102
}
330
18
100
AcDbEntity
  8
針
100
AcDbLine
 10
-72.2369316405653
 20
307.9830178714609
 30
0.0
 11
-72.7369316405653
 21
331.3081162981867
 31
0.0
  0
LINE
  5
1EDA
102
{ACAD_REACTORS
330
1EDB
102
}
330
18
100
AcDbEntity
  8
針
100
AcDbLine
 10
-73.43693164056535
 20
307.9830178714609
 30
0.0
 11
-72.93693164056529
 21
331.3081162981867
 31
0.0
  0
HATCH
  5
1EDB
330
18
100
AcDbEntity
  8
針
100
AcDbHatch
 10
0.0
 20
0.0
 30
0.0
210
0.0
220
0.0
230
1.0
  2
SOLID
 70
     1
 71
     1
 91
        1
 92
        7
 72
     1
 73
     1
 93
        7
 10
-73.43693164056546
 20
307.9830178714554
 42
-0.141500015329137
 10
-73.89878586609333
 20
306.3837005084809
 42
-0.3055181981730818
 10
-71.77507741503752
 20
306.3837005084811
 42
-0.141500015329565
 10
-72.2369316405653
 20
307.9830178714606
 42
0.0
 10
-72.7369316405653
 20
331.3081162981868
 42
0.0
 10
-72.83693164056527
 20
331.3081162981867
 42
0.0
 10
-72.93693164056531
 20
331.3081162981867
 42
0.0
 97
        7
330
1EF4
330
1EF5
330
1EDA
330
1EE4
330
1EE0
330
1EE3
330
1ED9
 75
     0
 76
     1
 47
0.070338108143851
 98
        1
 10
-73.03739500143277
 20
313.1837793250547
450
        0
451
        0
460
0.0
461
0.0
452
        0
462
0.0
453
        0
470

  0
TEXT
  5
1EDC
330
18
100
AcDbEntity
  8
文字
100
AcDbText
 10
-60.9474098112897
 20
320.6592911727962
 30
0.0
 40
3.0
  1
1
  7
STYLE3
100
AcDbText
  0
LINE
  5
1EDD
330
18
100
AcDbEntity
  8
目盛
100
AcDbLine
 10
-51.69684144534435
 20
324.6599823701187
 30
0.0
 11
-54.06598948446398
 21
322.4352042758505
 31
0.0
  0
LINE
  5
1EDE
330
18
100
AcDbEntity
  8
目盛
100
AcDbLine
 10
-50.49204760006748
 20
323.2934120008987
 30
0.0
 11
-52.99621563908871
 21
321.2217840342155
 31
0.0
  0
LINE
  5
1EDF
330
18
100
AcDbEntity
  8
目盛
100
AcDbLine
 10
-51.8338216909124
 20
323.3248485272489
 30
0.0
 11
-52.95898829535807
 21
322.3328807292635
 31
0.0
  0
CIRCLE
  5
1EE0
102
{ACAD_REACTORS
330
1EDB
102
}
330
18
100
AcDbEntity
  8
針
100
AcDbCircle
 10
-72.83693164056533
 20
304.8081162981867
 30
0.0
 40
1.9
  0
CIRCLE
  5
1EE1
330
18
100
AcDbEntity
  8
針
100
AcDbCircle
 10
-72.83693164056533
 20
304.8081162981867
 30
0.0
 40
1.7
  0
CIRCLE
  5
1EE2
330
18
100
AcDbEntity
  8
針
100
AcDbCircle
 10
-72.83693164056533
 20
304.8081162981867
 30
0.0
 40
0.475
  0
ARC
  5
1EE3
102
{ACAD_REACTORS
330
1EDB
102
}
330
18
100
AcDbEntity
  8
針
100
AcDbCircle
 10
-69.2369316405653
 20
307.9830178714609
 30
0.0
 40
3.0
100
AcDbArc
 50
180.0
 51
212.2155415681862
  0
ARC
  5
1EE4
102
{ACAD_REACTORS
330
1EDB
102
}
330
18
100
AcDbEntity
  8
針
100
AcDbCircle
 10
-76.43693164056546
 20
307.9830178714609
 30
0.0
 40
3.0
100
AcDbArc
 50
327.7844584318137
 51
0.0
  0
TEXT
  5
1EE5
330
18
100
AcDbEntity
  8
文字
100
AcDbText
 10
-53.01093953685435
 20
310.0855823808173
 30
0.0
 40
3.0
  1
2
  7
STYLE3
100
AcDbText
  0
LINE
  5
1EE6
330
18
100
AcDbEntity
  8
目盛
100
AcDbLine
 10
-47.42403791929322
 20
318.7789728471364
 30
0.0
 11
-50.27203462943586
 21
317.2132734063059
 31
0.0
  0
LINE
  5
1EE7
330
18
100
AcDbEntity
  8
目盛
100
AcDbLine
 10
-47.88874896329102
 20
317.519850290894
 30
0.0
 11
-49.2252587495735
 21
316.8388645412847
 31
0.0
  0
LINE
  5
1EE8
330
18
100
AcDbEntity
  8
目盛
100
AcDbLine
 10
-47.13980212141379
 20
315.9282572359606
 30
0.0
 11
-48.51643405993977
 21
315.3325354000084
 31
0.0
  0
LINE
  5
1EE9
330
18
100
AcDbEntity
  8
目盛
100
AcDbLine
 10
-49.67867556087762
 20
320.5464508780464
 30
0.0
 11
-50.91929642228942
 21
319.7033258112682
 31
0.0
  0
LINE
  5
1EEA
330
18
100
AcDbEntity
  8
目盛
100
AcDbLine
 10
-49.37543880369182
 20
321.8538886146685
 30
0.0
 11
-52.61150678119159
 21
319.5027476054985
 31
0.0
  0
LINE
  5
1EEB
330
18
100
AcDbEntity
  8
目盛
100
AcDbLine
 10
-48.35142180100692
 20
320.3470933525776
 30
0.0
 11
-51.09548755888849
 21
318.6056562688959
 31
0.0
  0
LINE
  5
1EEC
330
18
100
AcDbEntity
  8
目盛
100
AcDbLine
 10
-50.71259129404601
 20
321.9695138004701
 30
0.0
 11
-51.89782381260951
 21
321.0501532199906
 31
0.0
  0
LINE
  5
1EED
330
18
100
AcDbEntity
  8
目盛
100
AcDbLine
 10
-48.73615488445486
 20
319.0612759391971
 30
0.0
 11
-50.0272679249608
 21
318.2977138155716
 31
0.0
  0
LINE
  5
1EEE
330
18
100
AcDbEntity
  8
目盛
100
AcDbLine
 10
-62.16131961270966
 20
331.771634388946
 30
0.0
 11
-63.35772440893484
 21
328.7498608098092
 31
0.0
  0
TEXT
  5
1EEF
330
18
100
AcDbEntity
  8
文字
100
AcDbText
 10
-74.28067873603149
 20
325.311723674554
 30
0.0
 40
3.0
  1
0
  7
STYLE3
100
AcDbText
  0
LINE
  5
1EF0
330
18
100
AcDbEntity
  8
目盛
100
AcDbLine
 10
-78.27098976355128
 20
333.2944465693188
 30
0.0
 11
-77.66200049114766
 21
330.1020130044505
 31
0.0
  0
LINE
  5
1EF1
330
18
100
AcDbEntity
  8
目盛
100
AcDbLine
 10
-76.47159541393008
 20
333.5794426363066
 30
0.0
 11
-76.06426240484612
 21
330.3550698570346
 31
0.0
  0
LINE
  5
1EF2
330
18
100
AcDbEntity
  8
目盛
100
AcDbLine
 10
-78.94494239966846
 20
332.1337856324717
 30
0.0
 11
-78.6177275375737
 21
330.6699104895636
 31
0.0
  0
LINE
  5
1EF3
330
18
100
AcDbEntity
  8
目盛
100
AcDbLine
 10
-77.21709666169167
 20
332.4633898348506
 30
0.0
 11
-76.98244496413142
 21
330.9818573239579
 31
0.0
  0
LINE
  5
1EF4
102
{ACAD_REACTORS
330
1EDB
102
}
330
18
100
AcDbEntity
  8
針
100
AcDbLine
 10
-72.83693164056527
 20
331.3081162981867
 30
0.0
 11
-72.7369316405653
 21
331.3081162981867
 31
0.0
  0
LINE
  5
1EF5
102
{ACAD_REACTORS
330
1EDB
102
}
330
18
100
AcDbEntity
  8
針
100
AcDbLine
 10
-72.83693164056527
 20
331.3081162981867
 30
0.0
 11
-72.93693164056529
 21
331.3081162981867
 31
0.0
  0
LINE
  5
1EF6
330
18
100
AcDbEntity
  8
目盛
100
AcDbLine
 10
-73.71643289475284
 20
332.7942999884273
 30
0.0
 11
-73.66931675613566
 21
331.2950401478787
 31
0.0
  0
LINE
  5
1EF7
330
18
100
AcDbEntity
  8
目盛
100
AcDbLine
 10
-75.47196441348368
 20
332.683851307073
 30
0.0
 11
-75.33080194350586
 21
331.1905083601684
 31
0.0
  0
LINE
  5
1EF8
330
18
100
AcDbEntity
  8
目盛
100
AcDbLine
 10
-74.65785670691534
 20
333.7508914226066
 30
0.0
 11
-74.45378751844507
 21
330.5073045552148
 31
0.0
  0
LINE
  5
1EF9
330
18
100
AcDbEntity
  8
目盛
100
AcDbLine
 10
-71.95743038637769
 20
332.7942999884272
 30
0.0
 11
-72.00454652499487
 21
331.2950401478786
 31
0.0
  0
LINE
  5
1EFA
330
18
100
AcDbEntity
  8
目盛
100
AcDbLine
 10
-72.83693164056527
 20
333.8081162981867
 30
0.0
 11
-72.83693164056527
 21
329.8081162981867
 31
0.0
  0
LINE
  5
1EFB
330
18
100
AcDbEntity
  8
目盛
100
AcDbLine
 10
-63.87543880369182
 20
332.3887552707462
 30
0.0
 11
-65.11150678119154
 21
328.5845292055656
 31
0.0
  0
LINE
  5
1EFC
330
18
100
AcDbEntity
  8
目盛
100
AcDbLine
 10
-68.45676661943881
 20
332.4633898348506
 30
0.0
 11
-68.69141831699912
 21
330.9818573239579
 31
0.0
  0
LINE
  5
1EFD
330
18
100
AcDbEntity
  8
目盛
100
AcDbLine
 10
-70.20189886764686
 20
332.683851307073
 30
0.0
 11
-70.34306133762462
 21
331.1905083601683
 31
0.0
  0
LINE
  5
1EFE
330
18
100
AcDbEntity
  8
目盛
100
AcDbLine
 10
-67.40287351757925
 20
333.2944465693187
 30
0.0
 11
-68.01186278998287
 21
330.1020130044504
 31
0.0
  0
LINE
  5
1EFF
330
18
100
AcDbEntity
  8
目盛
100
AcDbLine
 10
-69.20226786720045
 20
333.5794426363066
 30
0.0
 11
-69.60960087628442
 21
330.3550698570346
 31
0.0
  0
LINE
  5
1F00
330
18
100
AcDbEntity
  8
目盛
100
AcDbLine
 10
-71.0160065742152
 20
333.7508914226066
 30
0.0
 11
-71.22007576268541
 21
330.5073045552147
 31
0.0
  0
LINE
  5
1F01
330
18
100
AcDbEntity
  8
目盛
100
AcDbLine
 10
-63.35226987369705
 20
331.152777828905
 30
0.0
 11
-63.86037675406502
 21
329.7414566754737
 31
0.0
  0
LINE
  5
1F02
330
18
100
AcDbEntity
  8
目盛
100
AcDbLine
 10
-65.02518067146687
 20
331.6963394971411
 30
0.0
 11
-65.44366733052569
 21
330.2558989686257
 31
0.0
  0
LINE
  5
1F03
330
18
100
AcDbEntity
  8
目盛
100
AcDbLine
 10
-66.72892088146202
 20
332.1337856324717
 30
0.0
 11
-67.05613574355684
 21
330.6699104895636
 31
0.0
  0
LINE
  5
1F04
330
18
100
AcDbEntity
  8
目盛
100
AcDbLine
 10
-65.62492491278451
 20
332.897027970917
 30
0.0
 11
-66.43316704607028
 21
329.749132697249
 31
0.0
  0
TEXT
  5
1F05
330
18
100
AcDbEntity
  8
文字
100
AcDbText
 10
-79.15200585557077
 20
342.572121456618
 30
0.0
 40
2.0
  1
0
  7
STYLE3
100
AcDbText
  0
LINE
  5
1F06
330
18
100
AcDbEntity
  8
外形線
100
AcDbLine
 10
-74.2369316405653
 20
347.8081162981868
 30
0.0
 11
-74.23693164056533
 21
339.7801050892178
 31
0.0
  0
LINE
  5
1F07
330
18
100
AcDbEntity
  8
目盛
100
AcDbLine
 10
-52.9850655686333
 20
325.9482064934077
 30
0.0
 11
-55.20984366290154
 21
323.5790584542881
 31
0.0
  0
LINE
  5
1F08
330
18
100
AcDbEntity
  8
目盛
100
AcDbLine
 10
-54.32019941150301
 20
325.8112262478396
 30
0.0
 11
-55.31216720948847
 21
324.6860596433939
 31
0.0
  0
LINE
  5
1F09
330
18
100
AcDbEntity
  8
目盛
100
AcDbLine
 10
-54.35163593785327
 20
327.1530003386846
 30
0.0
 11
-56.42326390453653
 21
324.6488322996632
 31
0.0
  0
LINE
  5
1F0A
330
18
100
AcDbEntity
  8
目盛
100
AcDbLine
 10
-58.58377199955484
 20
328.9088930542972
 30
0.0
 11
-59.34733412318038
 21
327.6177800137913
 31
0.0
  0
LINE
  5
1F0B
330
18
100
AcDbEntity
  8
目盛
100
AcDbLine
 10
-60.12519764785796
 20
329.756298975461
 30
0.0
 11
-60.80618339746727
 21
328.4197891891785
 31
0.0
  0
LINE
  5
1F0C
330
18
100
AcDbEntity
  8
目盛
100
AcDbLine
 10
-57.29795458617437
 20
329.2936261377452
 30
0.0
 11
-59.03939166985608
 21
326.5495603798636
 31
0.0
  0
LINE
  5
1F0D
330
18
100
AcDbEntity
  8
目盛
100
AcDbLine
 10
-58.86607509161556
 20
330.2210100194588
 30
0.0
 11
-60.43177453244616
 21
327.3730133093162
 31
0.0
  0
LINE
  5
1F0E
330
18
100
AcDbEntity
  8
目盛
100
AcDbLine
 10
-60.48933218517814
 20
331.0481008197013
 30
0.0
 11
-61.87311488276461
 21
328.1074128991867
 31
0.0
  0
LINE
  5
1F0F
330
18
100
AcDbEntity
  8
目盛
100
AcDbLine
 10
-55.79115932408362
 20
328.2696091350602
 30
0.0
 11
-58.14230033325348
 21
325.0335411575604
 31
0.0
  0
LINE
  5
1F10
330
18
100
AcDbEntity
  8
目盛
100
AcDbLine
 10
-55.6755341382819
 20
326.932456644706
 30
0.0
 11
-56.59489471876142
 21
325.7472241261425
 31
0.0
  0
LINE
  5
1F11
330
18
100
AcDbEntity
  8
目盛
100
AcDbLine
 10
-57.0985970607056
 20
327.9663723778745
 30
0.0
 11
-57.94172212748375
 21
326.7257515164626
 31
0.0
  0
LINE
  5
1F12
330
18
100
AcDbEntity
  8
目盛
100
AcDbLine
 10
-61.71679070279137
 20
330.5052458173382
 30
0.0
 11
-62.31251253874356
 21
329.1286138788123
 31
0.0
  0
LINE
  5
1F13
330
18
100
AcDbEntity
  8
目盛
100
AcDbLine
 10
-53.03794176734195
 20
324.6071061714101
 30
0.0
 11
-54.09860193912177
 21
323.5464459996302
 31
0.0
  0
LINE
  5
1F14
330
18
100
AcDbEntity
  8
目盛
100
AcDbLine
 10
-44.96119663167903
 20
302.1730835252683
 30
0.0
 11
-46.45453957858367
 21
302.3142459952461
 31
0.0
  0
LINE
  5
1F15
330
18
100
AcDbEntity
  8
目盛
100
AcDbLine
 10
-45.18165810390152
 20
300.4279512770602
 30
0.0
 11
-46.66319061479415
 21
300.6626029746206
 31
0.0
  0
LINE
  5
1F16
330
18
100
AcDbEntity
  8
目盛
100
AcDbLine
 10
-44.8507479503248
 20
303.9286150439991
 30
0.0
 11
-46.35000779087337
 21
303.9757311826163
 31
0.0
  0
LINE
  5
1F17
330
18
100
AcDbEntity
  8
目盛
100
AcDbLine
 10
-45.18165810390141
 20
309.1882813193132
 30
0.0
 11
-46.6631906147941
 21
308.9536296217529
 31
0.0
  0
LINE
  5
1F18
330
18
100
AcDbEntity
  8
目盛
100
AcDbLine
 10
-44.96119663167903
 20
307.4431490711051
 30
0.0
 11
-46.45453957858362
 21
307.3019866011273
 31
0.0
  0
LINE
  5
1F19
330
18
100
AcDbEntity
  8
目盛
100
AcDbLine
 10
-44.85074795032486
 20
305.6876175523743
 30
0.0
 11
-46.35000779087337
 21
305.6405014137571
 31
0.0
  0
LINE
  5
1F1C
330
18
100
AcDbEntity
  8
外形線
100
AcDbLine
 10
-82.23693164056529
 20
271.094024289058
 30
0.0
 11
-82.2369316405653
 21
221.3081162981867
 31
0.0
  0
LINE
  5
1F1D
330
18
100
AcDbEntity
  8
外形線
100
AcDbLine
 10
-74.2369316405653
 20
269.8361275071557
 30
0.0
 11
-74.2369316405653
 21
221.3081162981868
 31
0.0
  0
LINE
  5
1F22
330
18
100
AcDbEntity
  8
外形線
100
AcDbLine
 10
-178.8825256914657
 20
221.3081162981867
 30
0.0
 11
-167.8825256914657
 21
221.3081162981868
 31
0.0
  0
LINE
  5
1F23
330
18
100
AcDbEntity
  8
外形線
100
AcDbLine
 10
-178.3825256914657
 20
219.8081162981868
 30
0.0
 11
-168.3825256914657
 21
219.8081162981868
 31
0.0
  0
LINE
  5
1F24
330
18
100
AcDbEntity
  8
外形線
100
AcDbLine
 10
-181.3825256914657
 20
214.8081162981868
 30
0.0
 11
-165.3825256914657
 21
214.8081162981868
 31
0.0
  0
LINE
  5
1F25
330
18
100
AcDbEntity
  8
外形線
100
AcDbLine
 10
-184.8825256914657
 20
212.8081162981868
 30
0.0
 11
-161.8825256914657
 21
212.8081162981868
 31
0.0
  0
LINE
  5
1F26
330
18
100
AcDbEntity
  8
外形線
100
AcDbLine
 10
-184.6325256914657
 20
210.3081162981868
 30
0.0
 11
-162.1325256914657
 21
210.3081162981868
 31
0.0
  0
LINE
  5
1F27
330
18
100
AcDbEntity
  8
外形線
100
AcDbLine
 10
-184.6325256914657
 20
210.3081162981868
 30
0.0
 11
-162.1325256914657
 21
210.3081162981868
 31
0.0
  0
LINE
  5
1F28
330
18
100
AcDbEntity
  8
外形線
100
AcDbLine
 10
-184.6325256914657
 20
207.8081162981868
 30
0.0
 11
-162.1325256914657
 21
207.8081162981868
 31
0.0
  0
ARC
  5
1F36
330
18
100
AcDbEntity
  8
外形線
100
AcDbCircle
 10
-184.6325256914657
 20
209.0581162981868
 30
0.0
 40
1.249999999999992
100
AcDbArc
 50
90.0
 51
270.0
  0
POINT
  5
1F37
330
18
100
AcDbEntity
  8
DEFPOINTS
  6
ByBlock
 62
     0
100
AcDbPoint
 10
-184.6325256914657
 20
207.8081162981868
 30
0.0
  0
LINE
  5
1F38
330
18
100
AcDbEntity
  8
外形線
100
AcDbLine
 10
-178.8825256914657
 20
207.8081162981868
 30
0.0
 11
-178.8825256914657
 21
207.3081162981868
 31
0.0
  0
ARC
  5
1F39
330
18
100
AcDbEntity
  8
外形線
100
AcDbCircle
 10
-184.6325256914657
 20
211.5581162981868
 30
0.0
 40
1.249999999999992
100
AcDbArc
 50
90.00000000000003
 51
270.0
  0
POINT
  5
1F3A
330
18
100
AcDbEntity
  8
DEFPOINTS
  6
ByBlock
 62
     0
100
AcDbPoint
 10
-185.8825256914657
 20
209.0581162981868
 30
0.0
  0
LINE
  5
1F3B
330
18
100
AcDbEntity
  8
外形線
100
AcDbLine
 10
-182.3825256914657
 20
213.8081162981868
 30
0.0
 11
-182.3825256914657
 21
212.8081162981868
 31
0.0
  0
POINT
  5
1F3C
330
18
100
AcDbEntity
  8
DEFPOINTS
  6
ByBlock
 62
     0
100
AcDbPoint
 10
-184.6325256914657
 20
212.8081162981868
 30
0.0
  0
LINE
  5
1F3D
330
18
100
AcDbEntity
  8
外形線
100
AcDbLine
 10
-178.8825256914657
 20
221.3081162981867
 30
0.0
 11
-178.8825256914657
 21
220.3081162981868
 31
0.0
  0
LINE
  5
1F3E
330
18
100
AcDbEntity
  8
外形線
100
AcDbLine
 10
-176.3825256914657
 20
219.8081162981868
 30
0.0
 11
-176.3825256914657
 21
214.8081162981868
 31
0.0
  0
ARC
  5
1F41
330
18
100
AcDbEntity
  8
外形線
100
AcDbCircle
 10
-162.1325256914657
 20
209.0581162981868
 30
0.0
 40
1.249999999999992
100
AcDbArc
 50
270.0
 51
90.0
  0
LINE
  5
1F45
330
18
100
AcDbEntity
  8
外形線
100
AcDbLine
 10
-167.8825256914657
 20
207.8081162981868
 30
0.0
 11
-167.8825256914657
 21
207.3081162981868
 31
0.0
  0
LINE
  5
1F46
330
18
100
AcDbEntity
  8
外形線
100
AcDbLine
 10
-170.3825256914657
 20
219.8081162981868
 30
0.0
 11
-170.3825256914657
 21
214.8081162981868
 31
0.0
  0
LINE
  5
1F47
330
18
100
AcDbEntity
  8
外形線
100
AcDbLine
 10
-167.8825256914657
 20
221.3081162981868
 30
0.0
 11
-167.8825256914657
 21
220.3081162981868
 31
0.0
  0
LINE
  5
1F49
330
18
100
AcDbEntity
  8
外形線
100
AcDbLine
 10
-164.3825256914657
 20
213.8081162981868
 30
0.0
 11
-164.3825256914657
 21
212.8081162981868
 31
0.0
  0
POINT
  5
1F4A
330
18
100
AcDbEntity
  8
DEFPOINTS
  6
ByBlock
 62
     0
100
AcDbPoint
 10
-160.8825256914657
 20
209.0581162981868
 30
0.0
  0
ARC
  5
1F4B
330
18
100
AcDbEntity
  8
外形線
100
AcDbCircle
 10
-162.1325256914657
 20
211.5581162981868
 30
0.0
 40
1.249999999999992
100
AcDbArc
 50
270.0
 51
90.00000000000003
  0
LINE
  5
1F7E
330
18
100
AcDbEntity
  8
寸法線
100
AcDbLine
 10
-83.23693164056534
 20
165.8081162981868
 30
0.0
 11
-83.23693164056534
 21
153.5328493420888
 31
0.0
  0
LINE
  5
1F7F
330
18
100
AcDbEntity
  8
寸法線
100
AcDbLine
 10
-73.23693164056533
 20
165.8081162981868
 30
0.0
 11
-73.23693164056533
 21
153.5328493420888
 31
0.0
  0
LINE
  5
1F82
330
18
100
AcDbEntity
  8
0
  6
ByBlock
 62
     2
100
AcDbLine
 10
-80.73693164056534
 20
154.9050570670296
 30
0.0
 11
-75.73693164056533
 21
154.9050570670296
 31
0.0
  0
INSERT
  5
1F83
330
18
100
AcDbEntity
  8
0
  6
ByBlock
 62
     2
100
AcDbBlockReference
  2
_OPEN
 10
-83.23693164056534
 20
154.9050570670296
 30
0.0
 41
2.5
 42
2.5
 43
2.5
 50
180.0
  0
INSERT
  5
1F84
330
18
100
AcDbEntity
  8
0
  6
ByBlock
 62
     2
100
AcDbBlockReference
  2
_OPEN
 10
-73.23693164056533
 20
154.9050570670296
 30
0.0
 41
2.5
 42
2.5
 43
2.5
  0
MTEXT
  5
1F85
330
18
100
AcDbEntity
  8
0
  6
ByBlock
 62
     6
100
AcDbMText
 10
-78.23693164056533
 20
156.7800570670296
 30
0.0
 40
2.5
 41
0.0
 71
     5
 72
     1
  1
\A1;φ10
  7
STYLE3
 73
     1
 44
1.0
  0
POINT
  5
1F88
330
18
100
AcDbEntity
  8
DEFPOINTS
  6
ByBlock
 62
     0
100
AcDbPoint
 10
-73.23693164056533
 20
154.9050570670296
 30
0.0
  0
CIRCLE
  5
1F89
330
18
100
AcDbEntity
  8
寸法線
100
AcDbCircle
 10
-78.23693164056533
 20
198.8081162981868
 30
0.0
 40
1.5
  0
CIRCLE
  5
1F8A
330
18
100
AcDbEntity
  8
外形線
100
AcDbCircle
 10
-78.23693164056533
 20
198.8081162981868
 30
0.0
 40
1.020815904839309
  0
LINE
  5
1FF6
330
18
100
AcDbEntity
  8
外形線
100
AcDbLine
 10
-182.3825256914657
 20
213.8081162981868
 30
0.0
 11
-164.3825256914657
 21
213.8081162981868
 31
0.0
  0
LINE
  5
1FF7
330
18
100
AcDbEntity
  8
外形線
100
AcDbLine
 10
-182.3825256914657
 20
213.8081162981868
 30
0.0
 11
-181.3825256914657
 21
214.8081162981868
 31
0.0
  0
LINE
  5
1FF8
330
18
100
AcDbEntity
  8
外形線
100
AcDbLine
 10
-165.3825256914657
 20
214.8081162981868
 30
0.0
 11
-164.3825256914657
 21
213.8081162981868
 31
0.0
  0
LINE
  5
2012
330
18
100
AcDbEntity
  8
外形線
100
AcDbLine
 10
-178.8825256914657
 20
220.3081162981868
 30
0.0
 11
-167.8825256914657
 21
220.3081162981868
 31
0.0
  0
LINE
  5
2013
330
18
100
AcDbEntity
  8
外形線
100
AcDbLine
 10
-178.8825256914657
 20
220.3081162981868
 30
0.0
 11
-178.3825256914657
 21
219.8081162981868
 31
0.0
  0
LINE
  5
2014
330
18
100
AcDbEntity
  8
外形線
100
AcDbLine
 10
-168.3825256914657
 20
219.8081162981868
 30
0.0
 11
-167.8825256914657
 21
220.3081162981868
 31
0.0
  0
ARC
  5
2015
330
18
100
AcDbEntity
  8
外形線
100
AcDbCircle
 10
-66.98693164056533
 20
209.0581162981868
 30
0.0
 40
1.249999999999992
100
AcDbArc
 50
270.0
 51
90.0
  0
ARC
  5
2016
330
18
100
AcDbEntity
  8
外形線
100
AcDbCircle
 10
-66.98693164056533
 20
211.5581162981868
 30
0.0
 40
1.249999999999992
100
AcDbArc
 50
270.0
 51
90.00000000000003
  0
ARC
  5
2017
330
18
100
AcDbEntity
  8
外形線
100
AcDbCircle
 10
-89.48693164056534
 20
211.5581162981868
 30
0.0
 40
1.249999999999992
100
AcDbArc
 50
90.00000000000003
 51
270.0
  0
LINE
  5
2018
330
18
100
AcDbEntity
  8
外形線
100
AcDbLine
 10
-89.48693164056534
 20
210.3081162981868
 30
0.0
 11
-66.98693164056533
 21
210.3081162981868
 31
0.0
  0
LINE
  5
2019
330
18
100
AcDbEntity
  8
外形線
100
AcDbLine
 10
-89.48693164056534
 20
210.3081162981868
 30
0.0
 11
-66.98693164056533
 21
210.3081162981868
 31
0.0
  0
LINE
  5
201A
330
18
100
AcDbEntity
  8
外形線
100
AcDbLine
 10
-89.48693164056534
 20
207.8081162981868
 30
0.0
 11
-66.98693164056533
 21
207.8081162981868
 31
0.0
  0
POINT
  5
201B
330
18
100
AcDbEntity
  8
DEFPOINTS
  6
ByBlock
 62
     0
100
AcDbPoint
 10
-89.48693164056534
 20
207.8081162981868
 30
0.0
  0
POINT
  5
201C
330
18
100
AcDbEntity
  8
DEFPOINTS
  6
ByBlock
 62
     0
100
AcDbPoint
 10
-90.73693164056534
 20
209.0581162981868
 30
0.0
  0
ARC
  5
201D
330
18
100
AcDbEntity
  8
外形線
100
AcDbCircle
 10
-89.48693164056534
 20
209.0581162981868
 30
0.0
 40
1.249999999999992
100
AcDbArc
 50
90.0
 51
270.0
  0
LINE
  5
201E
330
18
100
AcDbEntity
  8
外形線
100
AcDbLine
 10
-83.73693164056533
 20
207.8081162981868
 30
0.0
 11
-83.73693164056533
 21
207.3081162981868
 31
0.0
  0
LINE
  5
201F
330
18
100
AcDbEntity
  8
外形線
100
AcDbLine
 10
-72.73693164056533
 20
207.8081162981868
 30
0.0
 11
-72.73693164056533
 21
207.3081162981868
 31
0.0
  0
LINE
  5
2020
330
18
100
AcDbEntity
  8
外形線
100
AcDbLine
 10
-83.23693164056534
 20
219.8081162981868
 30
0.0
 11
-73.23693164056533
 21
219.8081162981869
 31
0.0
  0
LINE
  5
2021
330
18
100
AcDbEntity
  8
外形線
100
AcDbLine
 10
-83.73693164056533
 20
220.3081162981868
 30
0.0
 11
-72.73693164056533
 21
220.3081162981868
 31
0.0
  0
LINE
  5
2022
330
18
100
AcDbEntity
  8
外形線
100
AcDbLine
 10
-83.73693164056533
 20
221.3081162981868
 30
0.0
 11
-72.73693164056533
 21
221.3081162981868
 31
0.0
  0
LINE
  5
2023
330
18
100
AcDbEntity
  8
外形線
100
AcDbLine
 10
-86.23693164056533
 20
214.8081162981868
 30
0.0
 11
-70.23693164056535
 21
214.8081162981868
 31
0.0
  0
LINE
  5
2024
330
18
100
AcDbEntity
  8
外形線
100
AcDbLine
 10
-87.23693164056532
 20
213.8081162981868
 30
0.0
 11
-69.23693164056533
 21
213.8081162981868
 31
0.0
  0
LINE
  5
2025
330
18
100
AcDbEntity
  8
外形線
100
AcDbLine
 10
-89.73693164056532
 20
212.8081162981868
 30
0.0
 11
-66.73693164056533
 21
212.8081162981868
 31
0.0
  0
LINE
  5
2026
330
18
100
AcDbEntity
  8
外形線
100
AcDbLine
 10
-83.73693164056533
 20
221.3081162981868
 30
0.0
 11
-83.73693164056533
 21
220.3081162981868
 31
0.0
  0
POINT
  5
2027
330
18
100
AcDbEntity
  8
DEFPOINTS
  6
ByBlock
 62
     0
100
AcDbPoint
 10
-89.48693164056534
 20
212.8081162981868
 30
0.0
  0
LINE
  5
2028
330
18
100
AcDbEntity
  8
外形線
100
AcDbLine
 10
-81.23693164056533
 20
219.8081162981868
 30
0.0
 11
-81.23693164056533
 21
217.5449079269692
 31
0.0
  0
LINE
  5
2029
330
18
100
AcDbEntity
  8
外形線
100
AcDbLine
 10
-83.73693164056533
 20
220.3081162981868
 30
0.0
 11
-83.23693164056534
 21
219.8081162981868
 31
0.0
  0
LINE
  5
202A
330
18
100
AcDbEntity
  8
外形線
100
AcDbLine
 10
-87.23693164056532
 20
213.8081162981868
 30
0.0
 11
-86.23693164056533
 21
214.8081162981868
 31
0.0
  0
LINE
  5
202B
330
18
100
AcDbEntity
  8
外形線
100
AcDbLine
 10
-87.23693164056532
 20
213.8081162981868
 30
0.0
 11
-87.23693164056532
 21
212.8081162981868
 31
0.0
  0
LINE
  5
202C
330
18
100
AcDbEntity
  8
外形線
100
AcDbLine
 10
-72.73693164056533
 20
221.3081162981868
 30
0.0
 11
-72.73693164056533
 21
220.3081162981868
 31
0.0
  0
LINE
  5
202D
330
18
100
AcDbEntity
  8
外形線
100
AcDbLine
 10
-73.23693164056533
 20
219.8081162981869
 30
0.0
 11
-72.73693164056533
 21
220.3081162981868
 31
0.0
  0
LINE
  5
202E
330
18
100
AcDbEntity
  8
外形線
100
AcDbLine
 10
-75.23693164056533
 20
219.8081162981868
 30
0.0
 11
-75.23693164056533
 21
217.9837624119024
 31
0.0
  0
LINE
  5
202F
330
18
100
AcDbEntity
  8
外形線
100
AcDbLine
 10
-70.23693164056535
 20
214.8081162981868
 30
0.0
 11
-69.23693164056534
 21
213.8081162981868
 31
0.0
  0
LINE
  5
2030
330
18
100
AcDbEntity
  8
外形線
100
AcDbLine
 10
-69.23693164056534
 20
213.8081162981868
 30
0.0
 11
-69.23693164056533
 21
212.8081162981868
 31
0.0
  0
POINT
  5
2031
330
18
100
AcDbEntity
  8
DEFPOINTS
  6
ByBlock
 62
     0
100
AcDbPoint
 10
-65.73693164056533
 20
209.0581162981868
 30
0.0
  0
LINE
  5
2033
330
18
100
AcDbEntity
  8
外形線
100
AcDbLine
 10
-75.23693164056533
 20
215.4604100590729
 30
0.0
 11
-75.23693164056533
 21
214.8081162981868
 31
0.0
  0
LINE
  5
2034
330
18
100
AcDbEntity
  8
外形線
100
AcDbLine
 10
-81.23693164056533
 20
215.0448636048705
 30
0.0
 11
-81.23693164056533
 21
214.8081162981868
 31
0.0
  0
LINE
  5
2036
330
18
100
AcDbEntity
  8
外形線
100
AcDbLine
 10
-83.73693164056533
 20
207.3081162981868
 30
0.0
 11
-72.73693164056533
 21
207.3081162981868
 31
0.0
  0
LINE
  5
2037
330
18
100
AcDbEntity
  8
外形線
100
AcDbLine
 10
-83.23693164056534
 20
206.8081162981868
 30
0.0
 11
-83.23693164056534
 21
207.3081162981868
 31
0.0
  0
LINE
  5
2038
330
18
100
AcDbEntity
  8
外形線
100
AcDbLine
 10
-73.23693164056533
 20
206.8081162981868
 30
0.0
 11
-73.23693164056533
 21
207.3081162981868
 31
0.0
  0
LINE
  5
2039
330
18
100
AcDbEntity
  8
外形線
100
AcDbLine
 10
-82.23693164056532
 20
347.8081162981867
 30
0.0
 11
-74.2369316405653
 21
347.8081162981869
 31
0.0
  0
LINE
  5
203A
330
18
100
AcDbEntity
  8
外形線
100
AcDbLine
 10
-79.7369316405653
 20
341.8081162981868
 30
0.0
 11
-74.23693164056534
 21
341.8081162981869
 31
0.0
  0
LINE
  5
203D
330
18
100
AcDbEntity
  8
外形線
100
AcDbLine
 10
-175.3825256914657
 20
269.8081162981868
 30
0.0
 11
-175.3825256914657
 21
221.3081162981868
 31
0.0
  0
LINE
  5
203E
330
18
100
AcDbEntity
  8
外形線
100
AcDbLine
 10
-171.3825256914657
 20
269.8081162981868
 30
0.0
 11
-171.3825256914657
 21
221.3081162981868
 31
0.0
  0
LINE
  5
203F
330
18
100
AcDbEntity
  8
外形線
100
AcDbLine
 10
-178.8825256914657
 20
207.3081162981868
 30
0.0
 11
-167.8825256914657
 21
207.3081162981868
 31
0.0
  0
LINE
  5
2040
330
18
100
AcDbEntity
  8
外形線
100
AcDbLine
 10
-178.3825256914657
 20
206.8081162981869
 30
0.0
 11
-178.3825256914657
 21
207.3081162981868
 31
0.0
  0
LINE
  5
2041
330
18
100
AcDbEntity
  8
外形線
100
AcDbLine
 10
-168.3825256914657
 20
206.8081162981868
 30
0.0
 11
-168.3825256914657
 21
207.3081162981868
 31
0.0
  0
LINE
  5
204A
330
18
100
AcDbEntity
  8
外形線
100
AcDbLine
 10
-161.3825256914657
 20
212.5581162981867
 30
0.0
 11
-161.3825256914657
 21
218.4620455920416
 31
0.0
  0
LINE
  5
204B
330
18
100
AcDbEntity
  8
外形線
100
AcDbLine
 10
-161.3825256914657
 20
210.0581162981868
 30
0.0
 11
-161.3825256914657
 21
210.5581162981868
 31
0.0
  0
LINE
  5
204C
330
18
100
AcDbEntity
  8
外形線
100
AcDbLine
 10
-185.3825256914657
 20
210.5581162981868
 30
0.0
 11
-185.3825256914657
 21
210.0581162981868
 31
0.0
  0
LINE
  5
204D
330
18
100
AcDbEntity
  8
外形線
100
AcDbLine
 10
-185.3825256914657
 20
208.0581162981868
 30
0.0
 11
-185.3825256914657
 21
165.3294442093327
 31
0.0
  0
ARC
  5
204F
330
18
100
AcDbEntity
  8
外形線
100
AcDbCircle
 10
-72.83693164056533
 20
304.8081162981867
 30
0.0
 40
35.0
100
AcDbArc
 50
4.671317419561102
 51
270.0
  0
LINE
  5
2050
330
18
100
AcDbEntity
  8
外形線
100
AcDbLine
 10
-72.83693164056533
 20
269.8081162981868
 30
0.0
 11
-64.83693164056531
 21
269.8081162981868
 31
0.0
  0
ARC
  5
2051
330
18
100
AcDbEntity
  8
外形線
100
AcDbCircle
 10
-64.83693164056531
 20
267.8081162981868
 30
0.0
 40
2.0
100
AcDbArc
 50
0.0000000000000509
 51
90.0
  0
LINE
  5
2052
330
18
100
AcDbEntity
  8
外形線
100
AcDbLine
 10
-34.83693164056532
 20
302.9482044039136
 30
0.0
 11
-34.83693164056532
 21
261.8081162981868
 31
0.0
  0
ARC
  5
2053
330
18
100
AcDbEntity
  8
外形線
100
AcDbCircle
 10
-32.96980040856125
 20
308.0656993485732
 30
0.0
 40
5.0
100
AcDbArc
 50
184.6713174195613
 51
273.3405667755554
  0
LINE
  5
205C
330
18
100
AcDbEntity
  8
外形線
100
AcDbLine
 10
-178.6325256914657
 20
163.7910957940217
 30
0.0
 11
-176.7952645082132
 21
158.1365872968343
 31
0.0
  0
LINE
  5
205D
330
18
100
AcDbEntity
  8
外形線
100
AcDbLine
 10
-175.9018868383617
 20
157.7910957940217
 30
0.0
 11
-176.3197362500656
 21
157.7910957940217
 31
0.0
  0
LINE
  5
205E
330
18
100
AcDbEntity
  8
外形線
100
AcDbLine
 10
-170.8631645445698
 20
157.7910957940217
 30
0.0
 11
-170.4453151328658
 21
157.7910957940217
 31
0.0
  0
LINE
  5
205F
330
18
100
AcDbEntity
  8
外形線
100
AcDbLine
 10
-168.1325256914657
 20
163.7910957940217
 30
0.0
 11
-169.9697868747182
 21
158.1365872968343
 31
0.0
  0
ARC
  5
2060
330
18
100
AcDbEntity
  8
外形線
100
AcDbCircle
 10
-176.3197362500656
 20
158.2910957940218
 30
0.0
 40
0.5
100
AcDbArc
 50
197.9999999999997
 51
270.0
  0
ARC
  5
2061
330
18
100
AcDbEntity
  8
外形線
100
AcDbCircle
 10
-170.4453151328658
 20
158.2910957940217
 30
0.0
 40
0.5
100
AcDbArc
 50
270.0
 51
342.0000000000002
  0
LINE
  5
206D
330
18
100
AcDbEntity
  8
外形線
100
AcDbLine
 10
-175.3825256914657
 20
347.8081162981867
 30
0.0
 11
-171.3825256914657
 21
347.8081162981868
 31
0.0
  0
LINE
  5
206F
330
18
100
AcDbEntity
  8
外形線
100
AcDbLine
 10
-171.3825256914657
 20
269.8081162981868
 30
0.0
 11
-182.3825256914657
 21
269.8081162981868
 31
0.0
  0
LINE
  5
2070
330
18
100
AcDbEntity
  8
外形線
100
AcDbLine
 10
-171.3825256914657
 20
338.5222083073155
 30
0.0
 11
-175.3825256914657
 21
338.5222083073155
 31
0.0
  0
LINE
  5
2071
330
18
100
AcDbEntity
  8
外形線
100
AcDbLine
 10
-175.3825256914657
 20
347.8081162981868
 30
0.0
 11
-175.3825256914657
 21
338.5222083073155
 31
0.0
  0
LINE
  5
2072
330
18
100
AcDbEntity
  8
外形線
100
AcDbLine
 10
-171.3825256914657
 20
347.8081162981869
 30
0.0
 11
-171.3825256914659
 21
269.8081162981867
 31
0.0
  0
LINE
  5
2073
330
18
100
AcDbEntity
  8
外形線
100
AcDbLine
 10
-175.3825256914657
 20
339.8081162981867
 30
0.0
 11
-181.3825256914656
 21
339.8081162981867
 31
0.0
  0
LINE
  5
2074
330
18
100
AcDbEntity
  8
外形線
100
AcDbLine
 10
-175.3825256914657
 20
261.8081162981868
 30
0.0
 11
-185.3825256914657
 21
261.8081162981868
 31
0.0
  0
LINE
  5
2075
330
18
100
AcDbEntity
  8
外形線
100
AcDbLine
 10
-182.3825256914656
 20
338.8081162981868
 30
0.0
 11
-182.3825256914657
 21
261.8081162981868
 31
0.0
  0
LINE
  5
2076
330
18
100
AcDbEntity
  8
外形線
100
AcDbLine
 10
-164.3825256914657
 20
271.8081162981869
 30
0.0
 11
-164.3825256914657
 21
261.8081162981868
 31
0.0
  0
LINE
  5
2077
330
18
100
AcDbEntity
  8
中心線
100
AcDbLine
 10
-156.1409045823293
 20
304.8081162981867
 30
0.0
 11
-189.1560722553777
 21
304.8081162981867
 31
0.0
  0
DIMENSION
  5
20CD
330
18
100
AcDbEntity
  8
外形線
100
AcDbDimension
  2
*D42
 10
-147.2560119057691
 20
271.8081162981867
 30
0.0
 11
-149.1310119057691
 21
304.8081162981867
 31
0.0
 70
    32
  1
φ66
 71
     5
 42
-1.0
  3
STYLE3
100
AcDbAlignedDimension
 13
-164.3825256914658
 23
337.8081162981867
 33
0.0
 14
-164.3825256914658
 24
271.8081162981867
 34
0.0
 50
90.0
100
AcDbRotatedDimension
1001
ACAD
1000
DSTYLE
1002
{
1070
   271
1070
     2
1002
}
  0
LINE
  5
20CE
330
18
100
AcDbEntity
  8
外形線
100
AcDbLine
 10
-164.3825256914658
 20
337.8081162981867
 30
0.0
 11
-164.3825256914658
 21
271.8081162981867
 31
0.0
  0
LINE
  5
20CF
330
18
100
AcDbEntity
  8
外形線
100
AcDbLine
 10
-162.3825256914658
 20
335.8081162981867
 30
0.0
 11
-162.3825256914658
 21
273.8081162981867
 31
0.0
  0
LINE
  5
20D6
330
18
100
AcDbEntity
  8
外形線
100
AcDbLine
 10
-164.3825256914658
 20
271.8081162981867
 30
0.0
 11
-171.3825256914658
 21
271.8081162981867
 31
0.0
  0
LINE
  5
20D7
330
18
100
AcDbEntity
  8
外形線
100
AcDbLine
 10
-164.3825256914658
 20
271.8081162981867
 30
0.0
 11
-162.3825256914658
 21
273.8081162981867
 31
0.0
  0
LINE
  5
20EF
330
18
100
AcDbEntity
  8
寸法線
100
AcDbLine
 10
-171.3825256914658
 20
309.6474100357637
 30
0.0
 11
-164.3825256914658
 21
309.6474100357636
 31
0.0
  0
LINE
  5
20F0
330
18
100
AcDbEntity
  8
寸法線
100
AcDbLine
 10
-171.3825256914658
 20
314.1287854520022
 30
0.0
 11
-164.3825256914658
 21
314.1287854520021
 31
0.0
  0
LINE
  5
20F1
330
18
100
AcDbEntity
  8
寸法線
100
AcDbLine
 10
-171.3825256914658
 20
318.4441840751337
 30
0.0
 11
-164.3825256914658
 21
318.4441840751336
 31
0.0
  0
LINE
  5
20F2
330
18
100
AcDbEntity
  8
寸法線
100
AcDbLine
 10
-171.3825256914658
 20
322.5936052377082
 30
0.0
 11
-164.3825256914658
 21
322.5936052377081
 31
0.0
  0
LINE
  5
20F3
330
18
100
AcDbEntity
  8
寸法線
100
AcDbLine
 10
-171.3825256914658
 20
326.5770502746257
 30
0.0
 11
-164.3825256914658
 21
326.5770502746256
 31
0.0
  0
LINE
  5
20F4
330
18
100
AcDbEntity
  8
寸法線
100
AcDbLine
 10
-171.3825256914658
 20
329.5646332180014
 30
0.0
 11
-164.3825256914658
 21
329.5646332180013
 31
0.0
  0
LINE
  5
20F5
330
18
100
AcDbEntity
  8
寸法線
100
AcDbLine
 10
-171.3825256914658
 20
332.0542864495061
 30
0.0
 11
-164.3825256914658
 21
332.054286449506
 31
0.0
  0
LINE
  5
20F6
330
18
100
AcDbEntity
  8
寸法線
100
AcDbLine
 10
-171.3825256914658
 20
333.8800318411329
 30
0.0
 11
-164.3825256914658
 21
333.8800318411328
 31
0.0
  0
LINE
  5
20F7
330
18
100
AcDbEntity
  8
寸法線
100
AcDbLine
 10
-171.3825256914658
 20
335.7057772327597
 30
0.0
 11
-164.3825256914658
 21
335.7057772327597
 31
0.0
  0
LINE
  5
20F8
330
18
100
AcDbEntity
  8
寸法線
100
AcDbLine
 10
-171.3825256914658
 20
337.1995690381725
 30
0.0
 11
-164.3825256914658
 21
337.1995690381725
 31
0.0
  0
LINE
  5
20F9
330
18
100
AcDbEntity
  8
外形線
100
AcDbLine
 10
-164.3825256914658
 20
337.8081162981867
 30
0.0
 11
-171.3825256914658
 21
337.8081162981867
 31
0.0
  0
LINE
  5
20FB
330
18
100
AcDbEntity
  8
外形線
100
AcDbLine
 10
-162.3825256914658
 20
335.8081162981867
 30
0.0
 11
-164.3825256914658
 21
337.8081162981867
 31
0.0
  0
ARC
  5
2136
330
18
100
AcDbEntity
  8
外形線
100
AcDbCircle
 10
-181.3825256914656
 20
338.8081162981868
 30
0.0
 40
1.0
100
AcDbArc
 50
89.99999999999955
 51
180.0
  0
DIMENSION
  5
2145
330
18
100
AcDbEntity
  8
寸法線
100
AcDbDimension
  2
*D43
 10
-171.3825256914657
 20
357.83762335035
 30
0.0
 11
-173.3825256914657
 21
359.71262335035
 31
0.0
 70
    32
 71
     5
 42
-1.0
  3
STYLE3
100
AcDbAlignedDimension
 13
-175.3825256914657
 23
347.8081162981868
 33
0.0
 14
-171.3825256914657
 24
347.8081162981869
 34
0.0
100
AcDbRotatedDimension
1001
ACAD
1000
DSTYLE
1002
{
1070
   271
1070
     2
1002
}
  0
DIMENSION
  5
2154
330
18
100
AcDbEntity
  8
寸法線
100
AcDbDimension
  2
*D44
 10
-72.83693164056533
 20
364.8907610934348
 30
0.0
 11
-64.53336021199389
 21
366.7657610934348
 31
0.0
 70
    32
 71
     5
 42
-1.0
  3
STYLE3
100
AcDbAlignedDimension
 13
-78.23693164056533
 23
351.6344085241944
 33
0.0
 14
-72.83693164056533
 24
350.8243754851417
 34
0.0
100
AcDbRotatedDimension
1001
ACAD
1000
DSTYLE
1002
{
1070
   271
1070
     2
1002
}
  0
DIMENSION
  5
2161
330
18
100
AcDbEntity
  8
寸法線
100
AcDbDimension
  2
*D45
 10
-74.2369316405653
 20
357.83762335035
 30
0.0
 11
-78.2369316405653
 21
359.71262335035
 31
0.0
 70
    32
 71
     5
 42
-1.0
  3
STYLE3
100
AcDbAlignedDimension
 13
-82.2369316405653
 23
347.8081162981867
 33
0.0
 14
-74.2369316405653
 24
347.8081162981868
 34
0.0
100
AcDbRotatedDimension
1001
ACAD
1000
DSTYLE
1002
{
1070
   271
1070
     2
1002
}
  0
LINE
  5
2170
330
18
100
AcDbEntity
  8
寸法線
100
AcDbLine
 10
-87.23693164056545
 20
206.8081162981869
 30
0.0
 11
-116.764070131825
 21
206.8081162981869
 31
0.0
  0
LINE
  5
2172
330
18
100
AcDbEntity
  8
寸法線
100
AcDbLine
 10
-114.6456904170484
 20
206.8081162981869
 30
0.0
 11
-114.6456904170484
 21
347.8081162981867
 31
0.0
  0
LINE
  5
2173
330
18
100
AcDbEntity
  8
寸法線
100
AcDbLine
 10
-82.23693164056532
 20
347.8081162981867
 30
0.0
 11
-116.0644635987437
 21
347.8081162981867
 31
0.0
  0
LINE
  5
2174
330
18
100
AcDbEntity
  8
寸法線
100
AcDbLine
 10
-111.1488287420881
 20
304.8081162981867
 30
0.0
 11
-115.896306320102
 21
304.8081162981867
 31
0.0
  0
LINE
  5
2175
330
18
100
AcDbEntity
  8
寸法線
100
AcDbLine
 10
-49.83693164056533
 20
261.8081162981868
 30
0.0
 11
-116.0644635987439
 21
261.8081162981868
 31
0.0
  0
LINE
  5
218E
330
18
100
AcDbEntity
  8
0
  6
ByBlock
 62
     2
100
AcDbLine
 10
-72.83693164056533
 20
269.8081162981868
 30
0.0
 11
-102.2808121671653
 21
269.8081162981868
 31
0.0
  0
LINE
  5
218F
330
18
100
AcDbEntity
  8
0
  6
ByBlock
 62
     2
100
AcDbLine
 10
-98.10176938516315
 20
261.8081162981868
 30
0.0
 11
-102.2808121671653
 21
261.8081162981868
 31
0.0
  0
LINE
  5
2190
330
18
100
AcDbEntity
  8
0
  6
ByBlock
 62
     2
100
AcDbLine
 10
-101.0308121671653
 20
267.3081162981867
 30
0.0
 11
-101.0308121671653
 21
264.3081162981868
 31
0.0
  0
INSERT
  5
2191
330
18
100
AcDbEntity
  8
0
  6
ByBlock
 62
     2
100
AcDbBlockReference
  2
_OPEN
 10
-101.0308121671653
 20
269.8081162981868
 30
0.0
 41
2.5
 42
2.5
 43
2.5
 50
90.0
  0
INSERT
  5
2192
330
18
100
AcDbEntity
  8
0
  6
ByBlock
 62
     2
100
AcDbBlockReference
  2
_OPEN
 10
-101.0308121671653
 20
261.8081162981868
 30
0.0
 41
2.5
 42
2.5
 43
2.5
 50
270.0
  0
MTEXT
  5
2193
330
18
100
AcDbEntity
  8
0
  6
ByBlock
 62
     6
100
AcDbMText
 10
-102.9058121671653
 20
265.8081162981868
 30
0.0
 40
2.5
 41
0.0
 71
     5
 72
     1
  1
\A1;8.8
  7
STYLE3
 11
0.0000000000000001
 21
1.0
 31
0.0
 73
     1
 44
1.0
  0
POINT
  5
2194
330
18
100
AcDbEntity
  8
DEFPOINTS
  6
ByBlock
 62
     0
100
AcDbPoint
 10
-72.83693164056533
 20
269.8081162981868
 30
0.0
  0
POINT
  5
2195
330
18
100
AcDbEntity
  8
DEFPOINTS
  6
ByBlock
 62
     0
100
AcDbPoint
 10
-98.10176938516315
 20
261.8081162981868
 30
0.0
  0
POINT
  5
2196
330
18
100
AcDbEntity
  8
DEFPOINTS
  6
ByBlock
 62
     0
100
AcDbPoint
 10
-101.0308121671653
 20
261.8081162981868
 30
0.0
  0
INSERT
  5
2197
330
18
100
AcDbEntity
  8
0
  6
ByBlock
 62
     2
100
AcDbBlockReference
  2
_OPEN
 10
-114.6456904170484
 20
261.8081162981868
 30
0.0
 41
2.5
 42
2.5
 43
2.5
 50
90.0
  0
INSERT
  5
2198
330
18
100
AcDbEntity
  8
0
  6
ByBlock
 62
     2
100
AcDbBlockReference
  2
_OPEN
 10
-114.6456904170484
 20
304.8081162981867
 30
0.0
 41
2.5
 42
2.5
 43
2.5
 50
90.0
  0
INSERT
  5
2199
330
18
100
AcDbEntity
  8
0
  6
ByBlock
 62
     2
100
AcDbBlockReference
  2
_OPEN
 10
-114.6456904170484
 20
347.8081162981867
 30
0.0
 41
2.5
 42
2.5
 43
2.5
 50
90.0
  0
INSERT
  5
219A
330
18
100
AcDbEntity
  8
0
  6
ByBlock
 62
     2
100
AcDbBlockReference
  2
_OPEN
 10
-114.6456904170484
 20
261.8081162981868
 30
0.0
 41
2.5
 42
2.5
 43
2.5
 50
270.0
  0
INSERT
  5
219B
330
18
100
AcDbEntity
  8
0
  6
ByBlock
 62
     2
100
AcDbBlockReference
  2
_OPEN
 10
-114.6456904170484
 20
304.8081162981867
 30
0.0
 41
2.5
 42
2.5
 43
2.5
 50
270.0
  0
MTEXT
  5
219C
330
18
100
AcDbEntity
  8
0
  6
ByBlock
 62
     6
100
AcDbMText
 10
-116.4413117337253
 20
283.2640261394664
 30
0.0
 40
2.5
 41
0.0
 71
     5
 72
     1
  1
43
  7
STYLE3
 11
0.0000000000000001
 21
1.0
 31
0.0
 73
     1
 44
1.0
  0
MTEXT
  5
219D
330
18
100
AcDbEntity
  8
0
  6
ByBlock
 62
     6
100
AcDbMText
 10
-116.6908096596858
 20
325.9063177427307
 30
0.0
 40
2.5
 41
0.0
 71
     5
 72
     1
  1
43
  7
STYLE3
 11
0.0000000000000001
 21
1.0
 31
0.0
 73
     1
 44
1.0
  0
INSERT
  5
21AB
330
18
100
AcDbEntity
  8
0
  6
ByBlock
 62
     2
100
AcDbBlockReference
  2
_OPEN
 10
-114.6456904170484
 20
206.8081162981869
 30
0.0
 41
2.5
 42
2.5
 43
2.5
 50
270.0
  0
MTEXT
  5
21AC
330
18
100
AcDbEntity
  8
0
  6
ByBlock
 62
     6
100
AcDbMText
 10
-116.4357984447015
 20
234.852633939992
 30
0.0
 40
2.5
 41
0.0
 71
     5
 72
     1
  1
55
  7
STYLE3
 11
0.0000000000000001
 21
1.0
 31
0.0
 73
     1
 44
1.0
  0
DIMENSION
  5
21DA
330
18
100
AcDbEntity
  8
寸法線
100
AcDbDimension
  2
*D46
 10
-120.7560605082556
 20
138.8081162981867
 30
0.0
 11
-122.6310605082556
 21
243.3081162981868
 31
0.0
 70
    32
 71
     5
 42
-1.0
  3
STYLE3
100
AcDbAlignedDimension
 13
-116.0644635987437
 23
347.8081162981867
 33
0.0
 14
-115.8956904170484
 24
138.8081162981867
 34
0.0
 50
90.0
100
AcDbRotatedDimension
1001
ACAD
1000
DSTYLE
1002
{
1070
   271
1070
     2
1002
}
  0
POINT
  5
21EB
330
18
100
AcDbEntity
  8
DEFPOINTS
  6
ByBlock
 62
     0
100
AcDbPoint
 10
-89.48693164056534
 20
210.3081162981868
 30
0.0
  0
LINE
  5
220D
330
18
100
AcDbEntity
  8
0
  6
ByBlock
 62
     2
100
AcDbLine
 10
-90.73693164056534
 20
211.5581162981868
 30
0.0
 11
-90.73693164056534
 21
224.6013041772916
 31
0.0
  0
LINE
  5
220E
330
18
100
AcDbEntity
  8
0
  6
ByBlock
 62
     2
100
AcDbLine
 10
-65.73693164056533
 20
211.5581162981868
 30
0.0
 11
-65.73693164056533
 21
224.6013041772916
 31
0.0
  0
LINE
  5
220F
330
18
100
AcDbEntity
  8
0
  6
ByBlock
 62
     2
100
AcDbLine
 10
-88.23693164056534
 20
223.3513041772916
 30
0.0
 11
-68.23693164056533
 21
223.3513041772916
 31
0.0
  0
INSERT
  5
2210
330
18
100
AcDbEntity
  8
0
  6
ByBlock
 62
     2
100
AcDbBlockReference
  2
_OPEN
 10
-90.73693164056534
 20
223.3513041772916
 30
0.0
 41
2.5
 42
2.5
 43
2.5
 50
180.0
  0
INSERT
  5
2211
330
18
100
AcDbEntity
  8
0
  6
ByBlock
 62
     2
100
AcDbBlockReference
  2
_OPEN
 10
-65.73693164056533
 20
223.3513041772916
 30
0.0
 41
2.5
 42
2.5
 43
2.5
  0
MTEXT
  5
2212
330
18
100
AcDbEntity
  8
0
  6
ByBlock
 62
     6
100
AcDbMText
 10
-92.62883199112422
 20
241.4634809219011
 30
0.0
 40
2.5
 41
0.0
 71
     5
 72
     1
  1
\A1;2-φ25
  7
STYLE3
 73
     1
 44
1.0
  0
POINT
  5
2213
330
18
100
AcDbEntity
  8
DEFPOINTS
  6
ByBlock
 62
     0
100
AcDbPoint
 10
-90.73693164056534
 20
211.5581162981868
 30
0.0
  0
POINT
  5
2214
330
18
100
AcDbEntity
  8
DEFPOINTS
  6
ByBlock
 62
     0
100
AcDbPoint
 10
-65.73693164056533
 20
211.5581162981868
 30
0.0
  0
POINT
  5
2215
330
18
100
AcDbEntity
  8
DEFPOINTS
  6
ByBlock
 62
     0
100
AcDbPoint
 10
-65.73693164056533
 20
223.3513041772916
 30
0.0
  0
LINE
  5
2216
330
18
100
AcDbEntity
  8
寸法線
100
AcDbLine
 10
-78.23693164056533
 20
223.3513041772916
 30
0.0
 11
-86.66513784256062
 21
239.8221634968303
 31
0.0
  0
LINE
  5
2217
330
18
100
AcDbEntity
  8
寸法線
100
AcDbLine
 10
-86.66513784256062
 20
239.8221634968303
 30
0.0
 11
-98.82193314948427
 21
239.8221634968303
 31
0.0
  0
DIMENSION
  5
2226
330
18
100
AcDbEntity
  8
寸法線
100
AcDbDimension
  2
*D47
 10
-49.34478284822285
 20
210.3081162981868
 30
0.0
 11
-51.21978284822285
 21
218.5521639172344
 31
0.0
 70
    32
 71
     5
 42
-1.0
  3
STYLE3
100
AcDbAlignedDimension
 13
-51.36182925290518
 23
206.8081162981868
 33
0.0
 14
-66.98693164056533
 24
210.3081162981868
 34
0.0
 50
90.0
100
AcDbRotatedDimension
1001
ACAD
1000
DSTYLE
1002
{
1070
   271
1070
     2
1002
}
  0
LINE
  5
222A
330
18
100
AcDbEntity
  8
中心線
 48
0.7
100
AcDbLine
 10
-74.5369316405653
 20
271.5058668320569
 30
0.0
 11
-74.5369316405653
 21
250.7424109333961
 31
0.0
  0
LINE
  5
222C
330
18
100
AcDbEntity
  8
外形線
100
AcDbLine
 10
-74.95489132157013
 20
252.6081162981869
 30
0.0
 11
-74.23693164056395
 21
252.6081162981869
 31
0.0
  0
LINE
  5
2244
330
18
100
AcDbEntity
  8
外形線
100
AcDbLine
 10
-49.83693164056532
 20
264.8081162981867
 30
0.0
 11
-62.83693164056532
 21
264.8081162981867
 31
0.0
  0
LINE
  5
2247
330
18
100
AcDbEntity
  8
外形線
100
AcDbLine
 10
-49.83693164056532
 20
264.8081162981867
 30
0.0
 11
-49.83693164056532
 21
261.8081162981868
 31
0.0
  0
LINE
  5
22F4
330
18
100
AcDbEntity
  8
外形線
100
AcDbLine
 10
-175.3825256914657
 20
264.8081162981867
 30
0.0
 11
-182.3825256914657
 21
264.8081162981867
 31
0.0
  0
TEXT
  5
2340
330
18
100
AcDbEntity
  8
文字
100
AcDbText
 10
12.31000171480119
 20
421.7953373803887
 30
0.0
 40
5.0
  1
Model No.K-4 Dial Sheet Gauge
  7
STYLE3
100
AcDbText
  0
LINE
  5
2341
330
18
100
AcDbEntity
  8
外形線
100
AcDbLine
 10
11.16016471480119
 20
418.1899433803888
 30
0.0
 11
131.1601647148012
 21
418.1899433803888
 31
0.0
  0
LINE
  5
2342
330
18
100
AcDbEntity
  8
外形線
100
AcDbLine
 10
11.16016471480119
 20
417.1899433803887
 30
0.0
 11
131.1601647148012
 21
417.1899433803887
 31
0.0
  0
TEXT
  5
2343
330
18
100
AcDbEntity
  8
0
  6
Continuous
100
AcDbText
 10
390.1071914589626
 20
64.97546811045111
 30
0.0
 40
3.5
  1
仕様及び外観は予告なく変更される場合がございますのでご了承下さい。
  7
STYLE3
100
AcDbText
  0
TEXT
  5
2344
330
18
100
AcDbEntity
  8
0
  6
Continuous
100
AcDbText
 10
389.8156974589626
 20
61.04632011045111
 30
0.0
 40
2.1
  1
Design and specifications are subject to change without notice for future improvement.
  7
STYLE3
100
AcDbText
  0
TEXT
  5
2345
330
18
100
AcDbEntity
  8
0
  6
Continuous
100
AcDbText
 10
491.7299594589626
 20
55.06933211045112
 30
0.0
 40
3.0
  1
株式会社　尾崎製作所
  7
STYLE3
100
AcDbText
  0
TEXT
  5
2346
330
18
100
AcDbEntity
  8
0
  6
Continuous
100
AcDbText
 10
492.6044384589626
 20
51.28169311045112
 30
0.0
 40
2.1
  1
OZAKI MFG. CO., LTD.
  7
STYLE3
100
AcDbText
  0
LINE
  5
2347
330
18
100
AcDbEntity
  8
外形線
100
AcDbLine
 10
388.3582294589627
 20
59.14833011045111
 30
0.0
 11
529.1496474589627
 21
59.14833011045111
 31
0.0
  0
LINE
  5
2348
330
18
100
AcDbEntity
  8
外形線
100
AcDbLine
 10
388.3582294589627
 20
69.92853511045111
 30
0.0
 11
529.1496474589627
 21
69.92853511045111
 31
0.0
  0
TEXT
  5
2349
330
18
100
AcDbEntity
  8
0
  6
Continuous
100
AcDbText
 10
442.8675374589626
 20
51.5730501104511
 30
0.0
 40
2.1
  1
Scale
  7
STYLE3
100
AcDbText
  0
TEXT
  5
234A
330
18
100
AcDbEntity
  8
0
  6
Continuous
100
AcDbText
 10
442.4043224589627
 20
54.49257211045111
 30
0.0
 40
3.0
  1
尺 度
  7
STYLE3
100
AcDbText
  0
LINE
  5
234B
330
18
100
AcDbEntity
  8
外形線
100
AcDbLine
 10
388.3582294589627
 20
49.53355211045111
 30
0.0
 11
388.3582294589627
 21
69.92853511045111
 31
0.0
  0
TEXT
  5
234C
330
18
100
AcDbEntity
  8
0
  6
Continuous
100
AcDbText
 10
389.5242054589626
 20
51.28169211045111
 30
0.0
 40
2.1
  1
3RD Angle Projection
  7
STYLE3
100
AcDbText
  0
TEXT
  5
234D
330
18
100
AcDbEntity
  8
0
  6
Continuous
100
AcDbText
 10
392.1476484589626
 20
54.7779751104511
 30
0.0
 40
3.0
  1
三　　角　　法
  7
STYLE3
100
AcDbText
  0
LINE
  5
234E
330
18
100
AcDbEntity
  8
外形線
100
AcDbLine
 10
423.6289574589626
 20
59.14833011045111
 30
0.0
 11
423.6289574589626
 21
49.53355211045111
 31
0.0
  0
LINE
  5
234F
330
18
100
AcDbEntity
  8
外形線
100
AcDbLine
 10
441.1185744589626
 20
59.14833011045111
 30
0.0
 11
441.1185744589626
 21
49.53355211045111
 31
0.0
  0
TEXT
  5
2350
330
18
100
AcDbEntity
  8
0
  6
Continuous
100
AcDbText
 10
425.2581474589626
 20
51.28169311045112
 30
0.0
 40
2.1
  1
Unit
  7
STYLE3
100
AcDbText
  0
TEXT
  5
2351
330
18
100
AcDbEntity
  8
0
  6
Continuous
100
AcDbText
 10
425.0864264589626
 20
54.78393011045111
 30
0.0
 40
3.0
  1
単位
  7
STYLE3
100
AcDbText
  0
TEXT
  5
2352
330
18
100
AcDbEntity
  8
0
  6
Continuous
100
AcDbText
 10
433.1284744589626
 20
53.02983611045111
 30
0.0
 40
2.399999999999999
  1
mm
  7
STYLE3
100
AcDbText
  0
TEXT
  5
2353
330
18
100
AcDbEntity
  8
0
  6
Continuous
100
AcDbText
 10
471.3254054589627
 20
53.02983411045111
 30
0.0
 40
2.1
  1
2010.06.16
  7
STYLE3
100
AcDbText
  0
LINE
  5
2354
330
18
100
AcDbEntity
  8
外形線
100
AcDbLine
 10
460.6486474589626
 20
59.14833011045111
 30
0.0
 11
460.6486474589626
 21
49.53355211045111
 31
0.0
  0
TEXT
  5
2355
330
18
100
AcDbEntity
  8
0
  6
Continuous
100
AcDbText
 10
452.4868264589626
 20
53.32119311045111
 30
0.0
 40
2.399999999999999
  1
1/1
  7
STYLE3
100
AcDbText
  0
TEXT
  5
2356
330
18
100
AcDbEntity
  8
0
  6
Continuous
100
AcDbText
 10
462.5805984589626
 20
51.28169411045111
 30
0.0
 40
2.1
  1
Date
  7
STYLE3
100
AcDbText
  0
TEXT
  5
2357
330
18
100
AcDbEntity
  8
0
  6
Continuous
100
AcDbText
 10
462.1972374589626
 20
54.61477711045112
 30
0.0
 40
3.0
  1
日 付
  7
STYLE3
100
AcDbText
  0
LINE
  5
2358
330
18
100
AcDbEntity
  8
外形線
100
AcDbLine
 10
490.3809964589626
 20
59.14833011045111
 30
0.0
 11
490.3809964589626
 21
49.53355211045111
 31
0.0
  0
ENDSEC
  0
SECTION
  2
OBJECTS
  0
DICTIONARY
  5
C
330
0
100
AcDbDictionary
281
     1
  3
ACAD_COLOR
350
2232
  3
ACAD_GROUP
350
D
  3
ACAD_LAYOUT
350
2235
  3
ACAD_MATERIAL
350
2231
  3
ACAD_MLINESTYLE
350
1B
  3
ACAD_PLOTSETTINGS
350
2236
  3
ACAD_PLOTSTYLENAME
350
222F
  3
ACAD_TABLESTYLE
350
2233
  3
ACDBVARIABLEDICTIONARY
350
7CB
  0
DICTIONARY
  5
2245
330
18
100
AcDbDictionary
280
     1
281
     1
  3
ACAD_SORTENTS
360
2246
  0
DICTIONARY
  5
2232
102
{ACAD_REACTORS
330
C
102
}
330
C
100
AcDbDictionary
281
     1
  0
DICTIONARY
  5
D
102
{ACAD_REACTORS
330
C
102
}
330
C
100
AcDbDictionary
281
     1
  0
DICTIONARY
  5
2235
102
{ACAD_REACTORS
330
C
102
}
330
C
100
AcDbDictionary
281
     1
  3
Model
350
2237
  3
レイアウト1
350
2238
  0
DICTIONARY
  5
2231
102
{ACAD_REACTORS
330
C
102
}
330
C
100
AcDbDictionary
281
     1
  0
DICTIONARY
  5
1B
102
{ACAD_REACTORS
330
C
102
}
330
C
100
AcDbDictionary
281
     1
  3
STANDARD
350
1C
  0
DICTIONARY
  5
2236
102
{ACAD_REACTORS
330
C
102
}
330
C
100
AcDbDictionary
281
     1
  0
ACDBDICTIONARYWDFLT
  5
222F
102
{ACAD_REACTORS
330
C
102
}
330
C
100
AcDbDictionary
281
     1
  3
Normal
350
2230
100
AcDbDictionaryWithDefault
340
2230
  0
DICTIONARY
  5
2233
102
{ACAD_REACTORS
330
C
102
}
330
C
100
AcDbDictionary
281
     1
  3
Standard
350
2234
  0
DICTIONARY
  5
7CB
102
{ACAD_REACTORS
330
C
102
}
330
C
100
AcDbDictionary
281
     1
  3
CTABLESTYLE
350
2254
  3
SORTENTS
350
7CC
  0
SORTENTSTABLE
  5
2246
102
{ACAD_REACTORS
330
2245
102
}
330
2245
100
AcDbSortentsTable
330
18
331
1AB
  5
1AB
331
1479
  5
1479
331
1B3
  5
1B3
331
1BB
  5
1BB
331
184
  5
184
331
12B2
  5
12B2
331
1489
  5
1489
331
1C3
  5
1C3
331
18C
  5
18C
331
5C8
  5
5C8
331
12EA
  5
12EA
331
193B
  5
193B
331
19AA
  5
19AA
331
C36
  5
C36
331
1F11
  5
1F13
331
1EDA
  5
1EDC
331
1E9B
  5
1E9D
331
19F1
  5
19F2
331
194B
  5
194B
331
1E64
  5
1E66
331
2027
  5
2029
331
1F19
  5
1F1D
331
1EA3
  5
1EA5
331
1953
  5
1953
331
19F9
  5
19FA
331
1E6C
  5
1E6E
331
1EE2
  5
1EE4
331
202F
  5
2031
331
1EAB
  5
1EAD
331
1E74
  5
1E76
331
1C7E
  5
1C90
331
1E35
  5
1E37
331
1EEA
  5
1EEC
331
1F88
  5
1F8A
331
1EB3
  5
1EB5
331
1E7C
  5
1E7E
331
1E3D
  5
1E3F
331
1EF2
  5
1EF4
331
2037
  5
2039
331
2076
  5
20CD
331
671
  5
671
331
5EB
  5
5EB
331
20F2
  5
20F4
331
203F
  5
2041
331
679
  5
679
331
AA4
  5
AA4
331
220F
  5
2211
331
63A
  5
63A
331
5FB
  5
5FB
331
2161
  5
2172
331
94E
  5
94E
331
8A7
  5
8A7
331
652
  5
652
331
603
  5
603
331
2217
  5
222A
331
A7D
  5
A7D
331
194
  5
194
331
19C
  5
19C
331
12FA
  5
12FA
331
1AD8
  5
1AD9
331
195B
  5
195B
331
1A01
  5
1A02
331
B09
  5
B09
331
1AE0
  5
1AE2
331
1963
  5
1963
331
B21
  5
B21
331
1EFA
  5
1EFC
331
1EBB
  5
1EBD
331
196B
  5
196B
331
1E45
  5
1E47
331
1E84
  5
1E86
331
1FF8
  5
2013
331
1F39
  5
1F3B
331
1EC3
  5
1EC5
331
199B
  5
199B
331
1E4D
  5
1E4F
331
1E8C
  5
1E8E
331
1F02
  5
1F04
331
2018
  5
201A
331
1F41
  5
1F46
331
1ECB
  5
1ECD
331
1E94
  5
1E96
331
1E55
  5
1E57
331
1F0A
  5
1F0C
331
204F
  5
2051
331
1F49
  5
1F4B
331
1E5D
  5
1E5F
331
1ED3
  5
1ED5
331
6A1
  5
6A1
331
60B
  5
60B
331
65A
  5
65A
331
205F
  5
2061
331
8B7
  5
8B7
331
613
  5
613
331
662
  5
662
331
A85
  5
A85
331
A8D
  5
A8D
331
760
  5
760
331
6C1
  5
6C1
331
66A
  5
66A
331
2191
  5
2193
331
623
  5
623
331
2199
  5
219B
331
8FF
  5
8FF
331
1AC
  5
1AC
331
126B
  5
126B
331
569
  5
569
331
1B4
  5
1B4
331
12AB
  5
12AB
331
185
  5
185
331
1BC
  5
1BC
331
148A
  5
148A
331
12B3
  5
12B3
331
5C9
  5
5C9
331
1C4
  5
1C4
331
18D
  5
18D
331
1934
  5
1934
331
19AB
  5
19AB
331
193C
  5
193C
331
2020
  5
2022
331
1F12
  5
1F14
331
1E9C
  5
1E9E
331
194C
  5
194C
331
19F2
  5
19F5
331
1E65
  5
1E67
331
1EDB
  5
1EDD
331
1EE3
  5
1EE5
331
19FA
  5
19FB
331
1954
  5
1954
331
1E6D
  5
1E6F
331
1EA4
  5
1EA6
331
2028
  5
202A
331
206F
  5
2071
331
1F22
  5
1F24
331
1EEB
  5
1EED
331
1EAC
  5
1EAE
331
1E36
  5
1E39
331
1E75
  5
1E77
331
1F89
  5
1FF6
331
2030
  5
2033
331
1EB4
  5
1EB6
331
1E3E
  5
1E40
331
1E7D
  5
1E7F
331
1EF3
  5
1EF5
331
2038
  5
203A
331
2077
  5
20CE
331
768
  5
768
331
672
  5
672
331
5EC
  5
5EC
331
20F3
  5
20F5
331
AA5
  5
AA5
331
6D9
  5
6D9
331
67A
  5
67A
331
2247
  5
1E31
331
20FB
  5
2145
331
5FC
  5
5FC
331
2210
  5
2212
331
8A8
  5
8A8
331
653
  5
653
331
604
  5
604
331
A7E
  5
A7E
331
195
  5
195
331
19D
  5
19D
331
12FB
  5
12FB
331
1AD9
  5
1ADA
331
1A02
  5
1A03
331
195C
  5
195C
331
1964
  5
1964
331
1A0A
  5
1A0B
331
B22
  5
B22
331
1EBC
  5
1EBE
331
1E85
  5
1E87
331
1E46
  5
1E48
331
1EFB
  5
1EFD
331
2040
  5
204A
331
1F3A
  5
1F3C
331
1EC4
  5
1EC6
331
1E8D
  5
1E8F
331
1E4E
  5
1E50
331
1F03
  5
1F05
331
199C
  5
199C
331
1A2A
  5
1A4D
331
C20
  5
C20
331
1F0B
  5
1F0D
331
1ECC
  5
1ECE
331
1C38
  5
1C7E
331
1E56
  5
1E58
331
1E95
  5
1E97
331
2019
  5
201B
331
2050
  5
2052
331
1E5E
  5
1E60
331
1ED4
  5
1ED6
331
1F4A
  5
1F7E
331
8B0
  5
8B0
331
65B
  5
65B
331
60C
  5
60C
331
2172
  5
2174
331
8B8
  5
8B8
331
663
  5
663
331
614
  5
614
331
A86
  5
A86
331
A8E
  5
A8E
331
761
  5
761
331
6C2
  5
6C2
331
61C
  5
61C
331
66B
  5
66B
331
2192
  5
2194
331
219A
  5
219C
331
1AD
  5
1AD
331
147B
  5
147B
331
126C
  5
126C
331
56A
  5
56A
331
1B5
  5
1B5
331
12AC
  5
12AC
331
5C2
  5
5C2
331
1BD
  5
1BD
331
186
  5
186
331
148B
  5
148B
331
18E
  5
18E
331
5CA
  5
5CA
331
1493
  5
1493
331
19A4
  5
19A4
331
1A52
  5
1A53
331
2021
  5
2023
331
1EDC
  5
1EDE
331
1E9D
  5
1E9F
331
1E66
  5
1E68
331
1F13
  5
1F15
331
2060
  5
206D
331
194D
  5
194D
331
1B21
  5
1BDA
331
2029
  5
202B
331
1EA5
  5
1EA7
331
1E6E
  5
1E70
331
1EE4
  5
1EE6
331
1F82
  5
1F84
331
19C4
  5
19F0
331
19FB
  5
19FC
331
1F23
  5
1F25
331
1EAD
  5
1EAF
331
1E76
  5
1E78
331
1E37
  5
1E3A
331
1EEC
  5
1EEE
331
1F8A
  5
1FF7
331
2031
  5
2034
331
2070
  5
2072
331
1C90
  5
1C91
331
1EF4
  5
1EF6
331
1E7E
  5
1E80
331
1E3F
  5
1E41
331
1EB5
  5
1EB7
331
2039
  5
203D
331
20F4
  5
20F6
331
5ED
  5
5ED
331
AA6
  5
AA6
331
2211
  5
2213
331
5FD
  5
5FD
331
8A9
  5
8A9
331
654
  5
654
331
605
  5
605
331
A7F
  5
A7F
331
196
  5
196
331
19E
  5
19E
331
12FC
  5
12FC
331
26D
  5
26D
331
1364
  5
1364
331
1ADA
  5
1ADB
331
195D
  5
195D
331
1A03
  5
1A04
331
B23
  5
B23
331
1AE2
  5
1AE3
331
1965
  5
1965
331
1A0B
  5
1A0C
331
1EFC
  5
1EFE
331
1EBD
  5
1EBF
331
1E47
  5
1E49
331
1E86
  5
1E88
331
2041
  5
204B
331
2012
  5
2014
331
1F3B
  5
1F3D
331
1EC5
  5
1EC7
331
1E4F
  5
1E51
331
1E8E
  5
1E90
331
1F04
  5
1F06
331
199D
  5
199D
331
201A
  5
201C
331
1ECD
  5
1ECF
331
1E96
  5
1E98
331
1E57
  5
1E59
331
1F0C
  5
1F0E
331
2051
  5
2053
331
1F4B
  5
1F7F
331
1E5F
  5
1E61
331
1ED5
  5
1ED7
331
2173
  5
2175
331
8B1
  5
8B1
331
60D
  5
60D
331
65C
  5
65C
331
20CD
  5
20CF
331
21DA
  5
21EB
331
A87
  5
A87
331
615
  5
615
331
8C1
  5
8C1
331
2193
  5
2195
331
6C3
  5
6C3
331
66C
  5
66C
331
762
  5
762
331
A8F
  5
A8F
331
219B
  5
219D
331
1AE
  5
1AE
331
126D
  5
126D
331
1B6
  5
1B6
331
12AD
  5
12AD
331
5C3
  5
5C3
331
187
  5
187
331
1BE
  5
1BE
331
12B5
  5
12B5
331
5CB
  5
5CB
331
1C6
  5
1C6
331
18F
  5
18F
331
19A5
  5
19A5
331
1A53
  5
1A54
331
2022
  5
2024
331
1F14
  5
1F16
331
1E9E
  5
1EA0
331
1E67
  5
1E69
331
1EDD
  5
1EDF
331
2061
  5
206F
331
AEC
  5
AEC
331
101B
  5
101B
331
1F1C
  5
1F22
331
1EE5
  5
1EE7
331
1E6F
  5
1E71
331
1EA6
  5
1EA8
331
1F83
  5
1F85
331
202A
  5
202C
331
1AD3
  5
1AD5
331
19FC
  5
19FD
331
1956
  5
1956
331
1BDA
  5
1BDB
331
1EED
  5
1EEF
331
1EAE
  5
1EB0
331
1E77
  5
1E79
331
1F24
  5
1F26
331
2071
  5
2073
331
1C91
  5
1C92
331
203A
  5
203E
331
1EB6
  5
1EB8
331
1E7F
  5
1E81
331
1EF5
  5
1EF7
331
21AB
  5
21DA
331
2154
  5
2170
331
20F5
  5
20F7
331
6D3
  5
6D3
331
5EE
  5
5EE
331
5F6
  5
5F6
331
AA7
  5
AA7
331
2212
  5
2214
331
5FE
  5
5FE
331
8A2
  5
8A2
331
8AA
  5
8AA
331
655
  5
655
331
606
  5
606
331
197
  5
197
331
19F
  5
19F
331
1A7
  5
1A7
331
1365
  5
1365
331
1A04
  5
1A05
331
1ADB
  5
1ADC
331
1E40
  5
1E42
331
1AE3
  5
1B15
331
1966
  5
1966
331
1A0C
  5
1A0D
331
1EBE
  5
1EC0
331
1E87
  5
1E89
331
1E48
  5
1E4A
331
1EFD
  5
1EFF
331
204A
  5
204C
331
1F3C
  5
1F3E
331
1F05
  5
1F07
331
1E8F
  5
1E91
331
1E50
  5
1E52
331
1EC6
  5
1EC8
331
2013
  5
2015
331
2052
  5
205C
331
1F0D
  5
1F0F
331
1ECE
  5
1ED0
331
1E58
  5
1E5A
331
1E97
  5
1E99
331
201B
  5
201D
331
1ED6
  5
1ED8
331
2174
  5
218E
331
65D
  5
65D
331
60E
  5
60E
331
222A
  5
2244
331
20CE
  5
20D6
331
665
  5
665
331
616
  5
616
331
A88
  5
A88
331
A90
  5
A90
331
2194
  5
2196
331
763
  5
763
331
2145
  5
2161
331
6C4
  5
6C4
331
20D6
  5
20EF
331
66D
  5
66D
331
219C
  5
21AB
331
1AF
  5
1AF
331
1B7
  5
1B7
331
5C4
  5
5C4
331
1BF
  5
1BF
331
188
  5
188
331
12AE
  5
12AE
331
5CC
  5
5CC
331
1C7
  5
1C7
331
C32
  5
C32
331
19A6
  5
19A6
331
1E60
  5
1E62
331
19AE
  5
19AE
331
1A54
  5
1A55
331
2023
  5
2025
331
1EDE
  5
1EE0
331
1E9F
  5
1EA1
331
1E68
  5
1E6A
331
1F15
  5
1F17
331
AED
  5
AED
331
19F5
  5
19F6
331
19B6
  5
19C4
331
194F
  5
194F
331
101C
  5
101C
331
1F1D
  5
1F23
331
1EA7
  5
1EA9
331
1E31
  5
1E35
331
1E70
  5
1E72
331
1EE6
  5
1EE8
331
1F84
  5
1F88
331
202B
  5
202D
331
1957
  5
1957
331
19FD
  5
19FE
331
1BDB
  5
1BDC
331
2072
  5
2074
331
1F25
  5
1F27
331
1EAF
  5
1EB1
331
1E78
  5
1E7A
331
1E39
  5
1E3C
331
1EEE
  5
1EF0
331
2033
  5
2036
331
1C92
  5
1C94
331
1EF6
  5
1EF8
331
1EB7
  5
1EB9
331
21EB
  5
220E
331
6D4
  5
6D4
331
20F6
  5
20F8
331
21AC
  5
21E5
331
67D
  5
67D
331
5F7
  5
5F7
331
8A3
  5
8A3
331
2213
  5
2215
331
656
  5
656
331
607
  5
607
331
A79
  5
A79
331
190
  5
190
331
198
  5
198
331
14A5
  5
14A5
331
5DC
  5
5DC
331
1A0
  5
1A0
331
12F6
  5
12F6
331
1366
  5
1366
331
1ADC
  5
1ADD
331
195F
  5
195F
331
1A05
  5
1A06
331
1E80
  5
1E82
331
1E41
  5
1E43
331
1A0D
  5
1A0F
331
1967
  5
1967
331
1EFE
  5
1F00
331
1EBF
  5
1EC1
331
1E49
  5
1E4B
331
1E88
  5
1E8A
331
C0B
  5
C0B
331
204B
  5
204D
331
2014
  5
2016
331
1F3D
  5
1F41
331
1EC7
  5
1EC9
331
1E90
  5
1E92
331
1E51
  5
1E53
331
1F06
  5
1F08
331
199F
  5
199F
331
1C2B
  5
1C38
331
201C
  5
201E
331
1F45
  5
1F47
331
1F0E
  5
1F10
331
1E59
  5
1E5B
331
1ECF
  5
1ED1
331
2053
  5
205D
331
1ED7
  5
1ED9
331
A81
  5
A81
331
95A
  5
95A
331
60F
  5
60F
331
65E
  5
65E
331
2136
  5
2154
331
2175
  5
218F
331
6BD
  5
6BD
331
666
  5
666
331
8BB
  5
8BB
331
A89
  5
A89
331
617
  5
617
331
20CF
  5
20D7
331
A91
  5
A91
331
764
  5
764
331
66E
  5
66E
331
6C5
  5
6C5
331
2195
  5
2197
331
20D7
  5
20F0
331
A99
  5
A99
331
219D
  5
21AC
331
627
  5
627
331
20EF
  5
20F1
331
1A8
  5
1A8
331
565
  5
565
331
1B0
  5
1B0
331
56D
  5
56D
331
1B8
  5
1B8
331
1486
  5
1486
331
5C5
  5
5C5
331
1C0
  5
1C0
331
189
  5
189
331
12AF
  5
12AF
331
C33
  5
C33
331
19A7
  5
19A7
331
1A4D
  5
1A52
331
1E98
  5
1E9A
331
1E61
  5
1E63
331
19AF
  5
19AF
331
1A55
  5
1A56
331
1F16
  5
1F18
331
1EA0
  5
1EA2
331
1E69
  5
1E6B
331
1EDF
  5
1EE1
331
2024
  5
2026
331
AEE
  5
AEE
331
1950
  5
1950
331
19F6
  5
19F7
331
1EE7
  5
1EE9
331
1EA8
  5
1EAA
331
1E71
  5
1E73
331
1F85
  5
1F89
331
202C
  5
202E
331
1AD5
  5
1AD7
331
19FE
  5
19FF
331
1BDC
  5
1BDD
331
2034
  5
2037
331
1EEF
  5
1EF1
331
1EB0
  5
1EB2
331
1E3A
  5
1E3D
331
1E79
  5
1E7B
331
1F26
  5
1F28
331
2073
  5
2075
331
1EF7
  5
1EF9
331
AA1
  5
AA1
331
913
  5
913
331
5F0
  5
5F0
331
20F7
  5
20F9
331
AA9
  5
AA9
331
5F8
  5
5F8
331
637
  5
637
331
600
  5
600
331
8A4
  5
8A4
331
2214
  5
2216
331
8AC
  5
8AC
331
657
  5
657
331
735
  5
735
331
A7A
  5
A7A
331
1C8
  5
1C8
331
191
  5
191
331
199
  5
199
331
12F7
  5
12F7
331
55E
  5
55E
331
1367
  5
1367
331
1958
  5
1958
331
1ADD
  5
1ADE
331
1960
  5
1960
331
1A06
  5
1A07
331
1EB8
  5
1EBA
331
1E42
  5
1E44
331
1E81
  5
1E83
331
BE4
  5
BE4
331
1968
  5
1968
331
1F36
  5
1F38
331
1EC0
  5
1EC2
331
1E89
  5
1E8B
331
1E4A
  5
1E4C
331
1EFF
  5
1F01
331
1F3E
  5
1F45
331
1F07
  5
1F09
331
1E91
  5
1E93
331
1E52
  5
1E54
331
1EC8
  5
1ECA
331
2015
  5
2017
331
204C
  5
204F
331
201D
  5
201F
331
1F0F
  5
1F11
331
1E5A
  5
1E5C
331
1ED0
  5
1ED2
331
1F46
  5
1F49
331
205C
  5
205E
331
608
  5
608
331
8B4
  5
8B4
331
610
  5
610
331
A82
  5
A82
331
A8A
  5
A8A
331
A23
  5
A23
331
745
  5
745
331
8BC
  5
8BC
331
667
  5
667
331
618
  5
618
331
6BE
  5
6BE
331
218E
  5
2190
331
222C
  5
2247
331
765
  5
765
331
6C6
  5
6C6
331
66F
  5
66F
331
2196
  5
2198
331
21E5
  5
220D
331
A9A
  5
A9A
331
1A9
  5
1A9
331
1B1
  5
1B1
331
56E
  5
56E
331
1B9
  5
1B9
331
12A8
  5
12A8
331
1487
  5
1487
331
5C6
  5
5C6
331
1C1
  5
1C1
331
18A
  5
18A
331
12B0
  5
12B0
331
5CE
  5
5CE
331
19A0
  5
19A0
331
1ED8
  5
1EDA
331
1E99
  5
1E9B
331
19B0
  5
19B0
331
1A56
  5
1A57
331
1B15
  5
1B21
331
1E62
  5
1E64
331
1F7E
  5
1F82
331
1F17
  5
1F19
331
1EA1
  5
1EA3
331
AEF
  5
AEF
331
19F7
  5
19F8
331
1951
  5
1951
331
1A5E
  5
1A5F
331
1E6A
  5
1E6C
331
1EE0
  5
1EE2
331
2025
  5
2027
331
202D
  5
202F
331
1EA9
  5
1EAB
331
19FF
  5
1A00
331
1BDD
  5
1C1E
331
1E72
  5
1E74
331
1EE8
  5
1EEA
331
2074
  5
2076
331
1F27
  5
1F36
331
1EB1
  5
1EB3
331
1E7A
  5
1E7C
331
1EF0
  5
1EF2
331
628
  5
628
331
20F0
  5
20F2
331
1FF6
  5
1FF8
331
203D
  5
203F
331
AA2
  5
AA2
331
914
  5
914
331
2244
  5
19B6
331
20F8
  5
20FB
331
AAA
  5
AAA
331
67F
  5
67F
331
638
  5
638
331
5F9
  5
5F9
331
220D
  5
220F
331
8A5
  5
8A5
331
601
  5
601
331
2215
  5
2217
331
A7B
  5
A7B
331
736
  5
736
331
8AD
  5
8AD
331
192
  5
192
331
1C9
  5
1C9
331
5D6
  5
5D6
331
19A
  5
19A
331
14A7
  5
14A7
331
5E6
  5
5E6
331
1959
  5
1959
331
1ADE
  5
1AE0
331
1961
  5
1961
331
1A07
  5
1A08
331
1EF8
  5
1EFA
331
1EB9
  5
1EBB
331
1A0F
  5
1A2A
331
1969
  5
1969
331
1E43
  5
1E45
331
1E82
  5
1E84
331
1F00
  5
1F02
331
1EC1
  5
1EC3
331
1999
  5
1999
331
1E4B
  5
1E4D
331
1E8A
  5
1E8C
331
1F37
  5
1F39
331
204D
  5
2050
331
2016
  5
2018
331
1EC9
  5
1ECB
331
1E92
  5
1E94
331
1E53
  5
1E55
331
1F08
  5
1F0A
331
201E
  5
2020
331
1F47
  5
1F4A
331
1E5B
  5
1E5D
331
1ED1
  5
1ED3
331
609
  5
609
331
658
  5
658
331
205D
  5
205F
331
8B5
  5
8B5
331
611
  5
611
331
660
  5
660
331
A83
  5
A83
331
8BD
  5
8BD
331
A8B
  5
A8B
331
6BF
  5
6BF
331
619
  5
619
331
218F
  5
2191
331
766
  5
766
331
6C7
  5
6C7
331
2197
  5
2199
331
A9B
  5
A9B
331
1AA
  5
1AA
331
1B2
  5
1B2
331
1478
  5
1478
331
1BA
  5
1BA
331
12A9
  5
12A9
331
1488
  5
1488
331
5C7
  5
5C7
331
1C2
  5
1C2
331
18B
  5
18B
331
12B1
  5
12B1
331
5CF
  5
5CF
331
1F10
  5
1F12
331
1E9A
  5
1E9C
331
1A57
  5
1A5E
331
19F0
  5
19F1
331
19B1
  5
19B1
331
1E63
  5
1E65
331
1ED9
  5
1EDB
331
1F18
  5
1F1C
331
1EA2
  5
1EA4
331
AF0
  5
AF0
331
1952
  5
1952
331
19F8
  5
19F9
331
1A5F
  5
1AD3
331
1E6B
  5
1E6D
331
1EE1
  5
1EE3
331
1F7F
  5
1F83
331
2026
  5
2028
331
206D
  5
2070
331
1EE9
  5
1EEB
331
1EAA
  5
1EAC
331
1AD7
  5
1AD8
331
1E34
  5
1E36
331
1E73
  5
1E75
331
202E
  5
2030
331
2036
  5
2038
331
1F28
  5
1F37
331
1EB2
  5
1EB4
331
1E3C
  5
1E3E
331
1E7B
  5
1E7D
331
1EF1
  5
1EF3
331
2075
  5
2077
331
670
  5
670
331
5EA
  5
5EA
331
20F1
  5
20F3
331
1FF7
  5
2012
331
203E
  5
2040
331
6D7
  5
6D7
331
20F9
  5
2136
331
5FA
  5
5FA
331
220E
  5
2210
331
8A6
  5
8A6
331
602
  5
602
331
72F
  5
72F
331
2216
  5
2226
331
A7C
  5
A7C
331
1CA
  5
1CA
331
193
  5
193
331
5D7
  5
5D7
331
19B
  5
19B
331
540
  5
540
331
14A8
  5
14A8
331
5E7
  5
5E7
331
1A00
  5
1A01
331
195A
  5
195A
331
BC6
  5
BC6
331
1A08
  5
1A0A
331
1EBA
  5
1EBC
331
1C1E
  5
1C2B
331
1E44
  5
1E46
331
1E83
  5
1E85
331
1EF9
  5
1EFB
331
1F38
  5
1F3A
331
1EC2
  5
1EC4
331
1E8B
  5
1E8D
331
199A
  5
199A
331
1E4C
  5
1E4E
331
1F01
  5
1F03
331
1F09
  5
1F0B
331
1ECA
  5
1ECC
331
1E54
  5
1E56
331
1E93
  5
1E95
331
2017
  5
2019
331
1E5C
  5
1E5E
331
1ED2
  5
1ED4
331
201F
  5
2021
331
6A0
  5
6A0
331
659
  5
659
331
60A
  5
60A
331
2170
  5
2173
331
205E
  5
2060
331
A84
  5
A84
331
8B6
  5
8B6
331
661
  5
661
331
2226
  5
222C
331
A8C
  5
A8C
331
8BE
  5
8BE
331
6C0
  5
6C0
331
669
  5
669
331
2190
  5
2192
331
767
  5
767
331
622
  5
622
331
6C8
  5
6C8
331
2198
  5
219A
331
A9C
  5
A9C
  0
LAYOUT
  5
2237
102
{ACAD_REACTORS
330
2235
102
}
330
2235
100
AcDbPlotSettings
  1

  2
Mytalk FAX
  4

  6

 40
0.0
 41
0.0
 42
0.0
 43
0.0
 44
0.0
 45
0.0
 46
0.0
 47
0.0
 48
0.0
 49
0.0
140
0.0
141
0.0
142
1.0
143
1.0
 70
  1712
 72
     0
 73
     0
 74
     0
  7
AutoCAD LT 98.ctb
 75
     0
147
1.0
 76
     0
 77
     2
 78
   300
148
0.0
149
0.0
100
AcDbLayout
  1
Model
 70
     1
 71
     0
 10
0.0
 20
0.0
 11
12.0
 21
9.0
 12
0.0
 22
0.0
 32
0.0
 14
0.0
 24
0.0
 34
0.0
 15
0.0
 25
0.0
 35
0.0
146
0.0
 13
0.0
 23
0.0
 33
0.0
 16
1.0
 26
0.0
 36
0.0
 17
0.0
 27
1.0
 37
0.0
 76
     0
330
18
  0
LAYOUT
  5
2238
102
{ACAD_REACTORS
330
2235
102
}
330
2235
100
AcDbPlotSettings
  1

  2
Mytalk FAX
  4

  6

 40
0.0
 41
0.0
 42
0.0
 43
0.0
 44
0.0
 45
0.0
 46
0.0
 47
0.0
 48
0.0
 49
0.0
140
0.0
141
0.0
142
1.0
143
1.0
 70
   688
 72
     0
 73
     0
 74
     5
  7
AutoCAD LT 98.ctb
 75
    16
147
1.0
 76
     0
 77
     2
 78
   300
148
0.0
149
0.0
100
AcDbLayout
  1
レイアウト1
 70
     1
 71
     1
 10
0.0
 20
0.0
 11
420.0
 21
297.0
 12
0.0
 22
0.0
 32
0.0
 14
1.000000000000000E+20
 24
1.000000000000000E+20
 34
1.000000000000000E+20
 15
-1.000000000000000E+20
 25
-1.000000000000000E+20
 35
-1.000000000000000E+20
146
0.0
 13
0.0
 23
0.0
 33
0.0
 16
1.0
 26
0.0
 36
0.0
 17
0.0
 27
1.0
 37
0.0
 76
     0
330
15
  0
MLINESTYLE
  5
1C
102
{ACAD_REACTORS
330
1B
102
}
330
1B
100
AcDbMlineStyle
  2
STANDARD
 70
     0
  3

 62
   256
 51
90.0
 52
90.0
 71
     2
 49
0.5
 62
   256
  6
BYLAYER
 49
-0.5
 62
   256
  6
BYLAYER
  0
ACDBPLACEHOLDER
  5
2230
102
{ACAD_REACTORS
330
222F
102
}
330
222F
  0
ACAD_PROXY_OBJECT
  5
2234
102
{ACAD_REACTORS
330
2233
102
}
330
2233
100
AcDbProxyObject
 90
      499
 91
      504
 95
  2555929
 70
     0
 93
     1849
310
4214DD185B99185C992420000000000000F83F0000000000003E0FC00000000000004901028000000C1008070000C3001FDFF8000000C1003FBFF000000182007F7FE00000030400FEFFC00000060801FDFF8000000C1003FBFF000000182000000000000000C2020B0000001820100E000186003FBFF000000182007F7FE0
310
0000030400FEFFC00000060801FDFF8000000C1003FBFF000000182007F7FE0000003040000000000000012404160000003040201C00030C007F7FE00000030400FEFFC00000060801FDFF8000000C1003FBFF000000182007F7FE00000030400FEFFC000000608000
340
F
340
F
340
F
 94
        0
  0
DICTIONARYVAR
  5
2254
102
{ACAD_REACTORS
330
7CB
102
}
330
7CB
100
DictionaryVariables
280
     0
  1
STANDARD
  0
DICTIONARYVAR
  5
7CC
102
{ACAD_REACTORS
330
7CB
102
}
330
7CB
100
DictionaryVariables
280
     0
  1
96
  0
ENDSEC
  0
EOF
