  0
SECTION
  2
HEADER
  9
$ACADVER
  1
AC1018
  9
$ACADMAINTVER
 70
     0
  9
$DWGCODEPAGE
  3
ANSI_932
  9
$INSBASE
 10
0.0
 20
0.0
 30
0.0
  9
$EXTMIN
 10
694.2351861991997
 20
176.0372691480684
 30
-0.0000000000000892
  9
$EXTMAX
 10
1072.629202753992
 20
459.3736432292476
 30
0.0000000000004614
  9
$LIMMIN
 10
0.0
 20
0.0
  9
$LIMMAX
 10
420.0
 20
297.0
  9
$ORTHOMODE
 70
     0
  9
$REGENMODE
 70
     1
  9
$FILLMODE
 70
     1
  9
$QTEXTMODE
 70
     0
  9
$MIRRTEXT
 70
     1
  9
$LTSCALE
 40
1.0
  9
$ATTMODE
 70
     1
  9
$TEXTSIZE
 40
2.5
  9
$TRACEWID
 40
1.0
  9
$TEXTSTYLE
  7
STYLE3
  9
$CLAYER
  8
寸法線
  9
$CELTYPE
  6
BYLAYER
  9
$CECOLOR
 62
   256
  9
$CELTSCALE
 40
1.0
  9
$DISPSILH
 70
     0
  9
$DIMSCALE
 40
1.0
  9
$DIMASZ
 40
2.5
  9
$DIMEXO
 40
0.0
  9
$DIMDLI
 40
3.75
  9
$DIMRND
 40
0.0
  9
$DIMDLE
 40
0.0
  9
$DIMEXE
 40
1.25
  9
$DIMTP
 40
0.0
  9
$DIMTM
 40
0.0
  9
$DIMTXT
 40
2.5
  9
$DIMCEN
 40
2.5
  9
$DIMTSZ
 40
0.0
  9
$DIMTOL
 70
     0
  9
$DIMLIM
 70
     0
  9
$DIMTIH
 70
     0
  9
$DIMTOH
 70
     0
  9
$DIMSE1
 70
     0
  9
$DIMSE2
 70
     0
  9
$DIMTAD
 70
     1
  9
$DIMZIN
 70
     8
  9
$DIMBLK
  1

  9
$DIMASO
 70
     1
  9
$DIMSHO
 70
     1
  9
$DIMPOST
  1

  9
$DIMAPOST
  1

  9
$DIMALT
 70
     0
  9
$DIMALTD
 70
     4
  9
$DIMALTF
 40
0.0394
  9
$DIMLFAC
 40
1.0
  9
$DIMTOFL
 70
     1
  9
$DIMTVP
 40
0.0
  9
$DIMTIX
 70
     0
  9
$DIMSOXD
 70
     0
  9
$DIMSAH
 70
     1
  9
$DIMBLK1
  1
OPEN
  9
$DIMBLK2
  1
OPEN
  9
$DIMSTYLE
  2
STYLE3
  9
$DIMCLRD
 70
     2
  9
$DIMCLRE
 70
     2
  9
$DIMCLRT
 70
     6
  9
$DIMTFAC
 40
1.0
  9
$DIMGAP
 40
0.625
  9
$DIMJUST
 70
     0
  9
$DIMSD1
 70
     0
  9
$DIMSD2
 70
     0
  9
$DIMTOLJ
 70
     1
  9
$DIMTZIN
 70
     0
  9
$DIMALTZ
 70
     0
  9
$DIMALTTZ
 70
     0
  9
$DIMUPT
 70
     0
  9
$DIMDEC
 70
     2
  9
$DIMTDEC
 70
     4
  9
$DIMALTU
 70
     8
  9
$DIMALTTD
 70
     4
  9
$DIMTXSTY
  7
STYLE3
  9
$DIMAUNIT
 70
     0
  9
$DIMADEC
 70
     0
  9
$DIMALTRND
 40
0.0
  9
$DIMAZIN
 70
     0
  9
$DIMDSEP
 70
    46
  9
$DIMATFIT
 70
     3
  9
$DIMFRAC
 70
     0
  9
$DIMLDRBLK
  1

  9
$DIMLUNIT
 70
     2
  9
$DIMLWD
 70
    -2
  9
$DIMLWE
 70
    -2
  9
$DIMTMOVE
 70
     0
  9
$LUNITS
 70
     2
  9
$LUPREC
 70
     4
  9
$SKETCHINC
 40
1.0
  9
$FILLETRAD
 40
1.5
  9
$AUNITS
 70
     0
  9
$AUPREC
 70
     0
  9
$MENU
  1
.
  9
$ELEVATION
 40
0.0
  9
$PELEVATION
 40
0.0
  9
$THICKNESS
 40
0.0
  9
$LIMCHECK
 70
     0
  9
$CHAMFERA
 40
10.0
  9
$CHAMFERB
 40
10.0
  9
$CHAMFERC
 40
20.0
  9
$CHAMFERD
 40
0.0
  9
$SKPOLY
 70
     0
  9
$TDCREATE
 40
2450870.396624306
  9
$TDUCREATE
 40
2450870.021624306
  9
$TDUPDATE
 40
2455376.445094861
  9
$TDUUPDATE
 40
2455376.070094861
  9
$TDINDWG
 40
0.9572736111
  9
$TDUSRTIMER
 40
0.9572736111
  9
$USRTIMER
 70
     1
  9
$ANGBASE
 50
0.0
  9
$ANGDIR
 70
     0
  9
$PDMODE
 70
     0
  9
$PDSIZE
 40
0.0
  9
$PLINEWID
 40
0.0
  9
$SPLFRAME
 70
     0
  9
$SPLINETYPE
 70
     6
  9
$SPLINESEGS
 70
     8
  9
$HANDSEED
  5
15A8
  9
$SURFTAB1
 70
     6
  9
$SURFTAB2
 70
     6
  9
$SURFTYPE
 70
     6
  9
$SURFU
 70
     6
  9
$SURFV
 70
     6
  9
$UCSBASE
  2

  9
$UCSNAME
  2

  9
$UCSORG
 10
0.0
 20
0.0
 30
0.0
  9
$UCSXDIR
 10
1.0
 20
0.0
 30
0.0
  9
$UCSYDIR
 10
0.0
 20
1.0
 30
0.0
  9
$UCSORTHOREF
  2

  9
$UCSORTHOVIEW
 70
     0
  9
$UCSORGTOP
 10
0.0
 20
0.0
 30
0.0
  9
$UCSORGBOTTOM
 10
0.0
 20
0.0
 30
0.0
  9
$UCSORGLEFT
 10
0.0
 20
0.0
 30
0.0
  9
$UCSORGRIGHT
 10
0.0
 20
0.0
 30
0.0
  9
$UCSORGFRONT
 10
0.0
 20
0.0
 30
0.0
  9
$UCSORGBACK
 10
0.0
 20
0.0
 30
0.0
  9
$PUCSBASE
  2

  9
$PUCSNAME
  2

  9
$PUCSORG
 10
0.0
 20
0.0
 30
0.0
  9
$PUCSXDIR
 10
1.0
 20
0.0
 30
0.0
  9
$PUCSYDIR
 10
0.0
 20
1.0
 30
0.0
  9
$PUCSORTHOREF
  2

  9
$PUCSORTHOVIEW
 70
     0
  9
$PUCSORGTOP
 10
0.0
 20
0.0
 30
0.0
  9
$PUCSORGBOTTOM
 10
0.0
 20
0.0
 30
0.0
  9
$PUCSORGLEFT
 10
0.0
 20
0.0
 30
0.0
  9
$PUCSORGRIGHT
 10
0.0
 20
0.0
 30
0.0
  9
$PUCSORGFRONT
 10
0.0
 20
0.0
 30
0.0
  9
$PUCSORGBACK
 10
0.0
 20
0.0
 30
0.0
  9
$USERI1
 70
     0
  9
$USERI2
 70
     0
  9
$USERI3
 70
     0
  9
$USERI4
 70
     0
  9
$USERI5
 70
     0
  9
$USERR1
 40
0.0
  9
$USERR2
 40
0.0
  9
$USERR3
 40
0.0
  9
$USERR4
 40
0.0
  9
$USERR5
 40
0.0
  9
$WORLDVIEW
 70
     1
  9
$SHADEDGE
 70
     3
  9
$SHADEDIF
 70
    70
  9
$TILEMODE
 70
     1
  9
$MAXACTVP
 70
    48
  9
$PINSBASE
 10
0.0
 20
0.0
 30
0.0
  9
$PLIMCHECK
 70
     0
  9
$PEXTMIN
 10
1.000000000000000E+20
 20
1.000000000000000E+20
 30
1.000000000000000E+20
  9
$PEXTMAX
 10
-1.000000000000000E+20
 20
-1.000000000000000E+20
 30
-1.000000000000000E+20
  9
$PLIMMIN
 10
0.0
 20
0.0
  9
$PLIMMAX
 10
420.0
 20
297.0
  9
$UNITMODE
 70
     0
  9
$VISRETAIN
 70
     1
  9
$PLINEGEN
 70
     0
  9
$PSLTSCALE
 70
     1
  9
$TREEDEPTH
 70
  3020
  9
$CMLSTYLE
  2
STANDARD
  9
$CMLJUST
 70
     0
  9
$CMLSCALE
 40
20.0
  9
$PROXYGRAPHICS
 70
     1
  9
$MEASUREMENT
 70
     0
  9
$CELWEIGHT
370
    -1
  9
$ENDCAPS
280
     0
  9
$JOINSTYLE
280
     0
  9
$LWDISPLAY
290
     0
  9
$INSUNITS
 70
     0
  9
$HYPERLINKBASE
  1

  9
$STYLESHEET
  1
AutoCad LT 98.ctb
  9
$XEDIT
290
     1
  9
$CEPSNTYPE
380
     0
  9
$PSTYLEMODE
290
     1
  9
$FINGERPRINTGUID
  2
{E1826B89-1D9A-4B45-836C-5F6C2326CB15}
  9
$VERSIONGUID
  2
{90CA26F3-7296-4F14-A0CD-BA46363A1D0A}
  9
$EXTNAMES
290
     1
  9
$PSVPSCALE
 40
0.0
  9
$OLESTARTUP
290
     0
  9
$SORTENTS
280
   127
  9
$INDEXCTL
280
     0
  9
$HIDETEXT
280
     0
  9
$XCLIPFRAME
290
     0
  9
$HALOGAP
280
     0
  9
$OBSCOLOR
 70
   257
  9
$OBSLTYPE
280
     0
  9
$INTERSECTIONDISPLAY
280
     0
  9
$INTERSECTIONCOLOR
 70
   257
  9
$DIMASSOC
280
     1
  9
$PROJECTNAME
  1

  0
ENDSEC
  0
SECTION
  2
CLASSES
  0
CLASS
  1
HATCH
  2
AcDbHatch
  3
ObjectDBX Classes
 90
        0
 91
       19
280
     0
281
     1
  0
CLASS
  1
LWPOLYLINE
  2
AcDbPolyline
  3
ObjectDBX Classes
 90
        0
 91
        4
280
     0
281
     1
  0
CLASS
  1
ACDBDICTIONARYWDFLT
  2
AcDbDictionaryWithDefault
  3
ObjectDBX Classes
 90
        0
 91
        1
280
     0
281
     0
  0
CLASS
  1
TABLESTYLE
  2
AcDbTableStyle
  3
ObjectDBX Classes
 90
     2047
 91
        1
280
     0
281
     0
  0
CLASS
  1
DICTIONARYVAR
  2
AcDbDictionaryVar
  3
ObjectDBX Classes
 90
        0
 91
        1
280
     0
281
     0
  0
CLASS
  1
SORTENTSTABLE
  2
AcDbSortentsTable
  3
ObjectDBX Classes
 90
        0
 91
        3
280
     0
281
     0
  0
ENDSEC
  0
SECTION
  2
TABLES
  0
TABLE
  2
VPORT
  5
8
330
0
100
AcDbSymbolTable
 70
     3
  0
VPORT
  5
15A7
330
8
100
AcDbSymbolTableRecord
100
AcDbViewportTableRecord
  2
*Active
 70
     0
 10
0.0
 20
0.0
 11
1.0
 21
1.0
 12
883.432194476596
 22
317.705456188658
 13
0.0
 23
0.0
 14
10.0
 24
10.0
 15
10.0
 25
10.0
 16
0.0
 26
0.0
 36
1.0
 17
0.0
 27
0.0
 37
0.0
 40
285.4910233137357
 41
1.530456852791878
 42
50.0
 43
0.0
 44
0.0
 50
0.0
 51
0.0
 71
     0
 72
   100
 73
     1
 74
     1
 75
     0
 76
     0
 77
     0
 78
     0
281
     0
 65
     1
110
0.0
120
0.0
130
0.0
111
1.0
121
0.0
131
0.0
112
0.0
122
1.0
132
0.0
 79
     0
146
0.0
  0
ENDTAB
  0
TABLE
  2
LTYPE
  5
5
330
0
100
AcDbSymbolTable
 70
    12
  0
LTYPE
  5
12
330
5
100
AcDbSymbolTableRecord
100
AcDbLinetypeTableRecord
  2
BYBLOCK
 70
     0
  3

 72
    65
 73
     0
 40
0.0
  0
LTYPE
  5
13
330
5
100
AcDbSymbolTableRecord
100
AcDbLinetypeTableRecord
  2
BYLAYER
 70
     0
  3

 72
    65
 73
     0
 40
0.0
  0
LTYPE
  5
14
330
5
100
AcDbSymbolTableRecord
100
AcDbLinetypeTableRecord
  2
CONTINUOUS
 70
     0
  3
Solid line
 72
    65
 73
     0
 40
0.0
  0
LTYPE
  5
22
330
5
100
AcDbSymbolTableRecord
100
AcDbLinetypeTableRecord
  2
CENTER2
 70
     0
  3
Center (.5x) ___ _ ___ _ ___ _ ___ _ ___ _ ___
 72
    65
 73
     4
 40
28.575
 49
19.05
 74
     0
 49
-3.174999999999999
 74
     0
 49
3.174999999999999
 74
     0
 49
-3.174999999999999
 74
     0
  0
LTYPE
  5
23
330
5
100
AcDbSymbolTableRecord
100
AcDbLinetypeTableRecord
  2
HIDDEN2
 70
     0
  3
Hidden (.5x) _ _ _ _ _ _ _ _ _ _ _ _ _ _ _ _ _
 72
    65
 73
     2
 40
4.762499999999999
 49
3.174999999999999
 74
     0
 49
-1.587499999999999
 74
     0
  0
LTYPE
  5
24
330
5
100
AcDbSymbolTableRecord
100
AcDbLinetypeTableRecord
  2
PHANTOM2
 70
     0
  3
Phantom (.5x) ___ _ _ ___ _ _ ___ _ _ ___ _ _
 72
    65
 73
     6
 40
31.75
 49
15.875
 74
     0
 49
-3.174999999999999
 74
     0
 49
3.174999999999999
 74
     0
 49
-3.174999999999999
 74
     0
 49
3.174999999999999
 74
     0
 49
-3.174999999999999
 74
     0
  0
ENDTAB
  0
TABLE
  2
LAYER
  5
2
102
{ACAD_XDICTIONARY
360
14D6
102
}
330
0
100
AcDbSymbolTable
 70
    17
  0
LAYER
  5
E
330
2
100
AcDbSymbolTableRecord
100
AcDbLayerTableRecord
  2
0
 70
     0
 62
     7
  6
CONTINUOUS
370
    -3
390
FB5
  0
LAYER
  5
25
330
2
100
AcDbSymbolTableRecord
100
AcDbLayerTableRecord
  2
外形線
 70
     0
 62
     7
  6
CONTINUOUS
370
    -3
390
FB5
  0
LAYER
  5
26
330
2
100
AcDbSymbolTableRecord
100
AcDbLayerTableRecord
  2
寸法線
 70
     0
 62
     2
  6
CONTINUOUS
370
    -3
390
FB5
  0
LAYER
  5
27
330
2
100
AcDbSymbolTableRecord
100
AcDbLayerTableRecord
  2
中心線
 70
     0
 62
     4
  6
CENTER2
370
    -3
390
FB5
  0
LAYER
  5
28
330
2
100
AcDbSymbolTableRecord
100
AcDbLayerTableRecord
  2
隠れ線
 70
     0
 62
     6
  6
HIDDEN2
370
    -3
390
FB5
  0
LAYER
  5
29
330
2
100
AcDbSymbolTableRecord
100
AcDbLayerTableRecord
  2
想像線
 70
     0
 62
     1
  6
PHANTOM2
370
    -3
390
FB5
  0
LAYER
  5
2A
330
2
100
AcDbSymbolTableRecord
100
AcDbLayerTableRecord
  2
ﾊｯﾁﾝｸ
 70
     0
 62
     6
  6
CONTINUOUS
370
    -3
390
FB5
  0
LAYER
  5
2B
330
2
100
AcDbSymbolTableRecord
100
AcDbLayerTableRecord
  2
文字
 70
     0
 62
     6
  6
CONTINUOUS
370
    -3
390
FB5
  0
LAYER
  5
2C
330
2
100
AcDbSymbolTableRecord
100
AcDbLayerTableRecord
  2
目盛
 70
     0
 62
    72
  6
CONTINUOUS
370
    -3
390
FB5
  0
LAYER
  5
2D
330
2
100
AcDbSymbolTableRecord
100
AcDbLayerTableRecord
  2
針
 70
     0
 62
     5
  6
CONTINUOUS
370
    -3
390
FB5
  0
LAYER
  5
53
330
2
100
AcDbSymbolTableRecord
100
AcDbLayerTableRecord
  2
DEFPOINTS
 70
     0
 62
     7
  6
CONTINUOUS
290
     0
370
    -3
390
FB5
  0
LAYER
  5
A5
330
2
100
AcDbSymbolTableRecord
100
AcDbLayerTableRecord
  2
C
 70
     0
 62
     7
  6
CONTINUOUS
370
    -3
390
FB5
  0
LAYER
  5
2E3
330
2
100
AcDbSymbolTableRecord
100
AcDbLayerTableRecord
  2
握り
 70
     0
 62
     3
  6
CONTINUOUS
370
    -3
390
FB5
  0
LAYER
  5
3A3
330
2
100
AcDbSymbolTableRecord
100
AcDbLayerTableRecord
  2
ROGO
 70
     0
 62
     6
  6
CONTINUOUS
370
    -3
390
FB5
  0
LAYER
  5
FD9
330
2
100
AcDbSymbolTableRecord
100
AcDbLayerTableRecord
  2
隠れ線2
 70
     0
 62
     1
  6
HIDDEN2
370
    -3
390
FB5
  0
ENDTAB
  0
TABLE
  2
STYLE
  5
3
330
0
100
AcDbSymbolTable
 70
     7
  0
STYLE
  5
F
330
3
100
AcDbSymbolTableRecord
100
AcDbTextStyleTableRecord
  2
STANDARD
 70
     0
 40
0.0
 41
1.0
 50
0.0
 71
     0
 42
2.5
  3
txt
  4

  0
STYLE
  5
3F
330
3
100
AcDbSymbolTableRecord
100
AcDbTextStyleTableRecord
  2
STYLE3
 70
     0
 40
0.0
 41
1.0
 50
0.0
 71
     0
 42
2.5
  3
romans.shx
  4
bigfont.shx
  0
ENDTAB
  0
TABLE
  2
VIEW
  5
6
330
0
100
AcDbSymbolTable
 70
     0
  0
ENDTAB
  0
TABLE
  2
UCS
  5
7
330
0
100
AcDbSymbolTable
 70
     0
  0
ENDTAB
  0
TABLE
  2
APPID
  5
9
330
0
100
AcDbSymbolTable
 70
     2
  0
APPID
  5
10
330
9
100
AcDbSymbolTableRecord
100
AcDbRegAppTableRecord
  2
ACAD
 70
     0
  0
APPID
  5
FDE
330
9
100
AcDbSymbolTableRecord
100
AcDbRegAppTableRecord
  2
ACAD_PSEXT
 70
     0
  0
ENDTAB
  0
TABLE
  2
DIMSTYLE
  5
A
330
0
100
AcDbSymbolTable
 70
     8
100
AcDbDimStyleTable
 71
     1
340
8F
  0
DIMSTYLE
105
1D
330
A
100
AcDbSymbolTableRecord
100
AcDbDimStyleTableRecord
  2
STANDARD
 70
     0
 41
2.5
 42
0.625
 43
3.75
 44
1.25
 73
     0
 74
     0
 77
     1
 78
     8
140
2.5
141
2.5
143
0.0394
147
0.625
171
     4
172
     1
273
     8
274
     4
277
     6
340
F
  0
DIMSTYLE
105
8F
102
{ACAD_REACTORS
330
1124
330
1426
330
145E
330
151B
102
}
330
A
100
AcDbSymbolTableRecord
100
AcDbDimStyleTableRecord
  2
STYLE3
 70
     0
 41
2.5
 42
0.0
 43
3.75
 44
1.25
 73
     0
 74
     0
 77
     1
 78
     8
140
2.5
141
2.5
143
0.0394
147
0.625
171
     4
172
     1
173
     1
176
     2
177
     2
178
     6
271
     1
273
     8
274
     4
340
3F
341
45
343
45
344
45
  0
ENDTAB
  0
TABLE
  2
BLOCK_RECORD
  5
1
330
0
100
AcDbSymbolTable
 70
    12
  0
BLOCK_RECORD
  5
18
102
{ACAD_XDICTIONARY
360
FD2
102
}
330
1
100
AcDbSymbolTableRecord
100
AcDbBlockTableRecord
  2
*MODEL_SPACE
340
FBC
  0
BLOCK_RECORD
  5
15
330
1
100
AcDbSymbolTableRecord
100
AcDbBlockTableRecord
  2
*PAPER_SPACE
340
FBD
  0
BLOCK_RECORD
  5
45
330
1
100
AcDbSymbolTableRecord
100
AcDbBlockTableRecord
  2
_OPEN
340
0
102
{BLKREFS
331
12F5
331
12FA
331
12FB
331
1301
331
130B
331
130C
331
1310
331
1311
331
136E
331
136F
331
13F7
331
13F8
331
14A5
331
14A6
331
14BA
331
14BB
331
1515
331
1516
331
153A
331
153B
102
}
  0
BLOCK_RECORD
  5
B9D
330
1
100
AcDbSymbolTableRecord
100
AcDbBlockTableRecord
  2
ﾀｲﾔﾙ止めﾈｼ
340
0
102
{BLKREFS
331
12EF
102
}
  0
BLOCK_RECORD
  5
1382
330
1
100
AcDbSymbolTableRecord
100
AcDbBlockTableRecord
  2
*D6
340
0
  0
BLOCK_RECORD
  5
1427
330
1
100
AcDbSymbolTableRecord
100
AcDbBlockTableRecord
  2
*D7
340
0
  0
BLOCK_RECORD
  5
145F
330
1
100
AcDbSymbolTableRecord
100
AcDbBlockTableRecord
  2
*D8
340
0
  0
BLOCK_RECORD
  5
151C
330
1
100
AcDbSymbolTableRecord
100
AcDbBlockTableRecord
  2
*D9
340
0
  0
ENDTAB
  0
ENDSEC
  0
SECTION
  2
BLOCKS
  0
BLOCK
  5
19
330
18
100
AcDbEntity
  8
0
100
AcDbBlockBegin
  2
*MODEL_SPACE
 70
     0
 10
0.0
 20
0.0
 30
0.0
  3
*MODEL_SPACE
  1

  0
ENDBLK
  5
1A
330
18
100
AcDbEntity
  8
0
100
AcDbBlockEnd
  0
BLOCK
  5
16
330
15
100
AcDbEntity
 67
     1
  8
0
100
AcDbBlockBegin
  2
*PAPER_SPACE
 70
     0
 10
0.0
 20
0.0
 30
0.0
  3
*PAPER_SPACE
  1

  0
ENDBLK
  5
17
330
15
100
AcDbEntity
 67
     1
  8
0
100
AcDbBlockEnd
  0
BLOCK
  5
46
330
45
100
AcDbEntity
  8
0
100
AcDbBlockBegin
  2
_OPEN
 70
     0
 10
0.0
 20
0.0
 30
0.0
  3
_OPEN
  1

  0
LINE
  5
47
330
45
100
AcDbEntity
  8
0
  6
ByBlock
 62
     0
100
AcDbLine
 10
-1.0
 20
0.1666666666666666
 30
0.0
 11
0.0
 21
0.0
 31
0.0
  0
LINE
  5
48
330
45
100
AcDbEntity
  8
0
  6
ByBlock
 62
     0
100
AcDbLine
 10
0.0
 20
0.0
 30
0.0
 11
-1.0
 21
-0.1666666666666666
 31
0.0
  0
LINE
  5
49
330
45
100
AcDbEntity
  8
0
  6
ByBlock
 62
     0
100
AcDbLine
 10
0.0
 20
0.0
 30
0.0
 11
-1.0
 21
0.0
 31
0.0
  0
ENDBLK
  5
4A
330
45
100
AcDbEntity
  8
0
100
AcDbBlockEnd
  0
BLOCK
  5
BAB
330
B9D
100
AcDbEntity
  8
0
100
AcDbBlockBegin
  2
ﾀｲﾔﾙ止めﾈｼ
 70
     0
 10
0.0
 20
0.0
 30
0.0
  3
ﾀｲﾔﾙ止めﾈｼ
  1

  0
LINE
  5
B9E
330
B9D
100
AcDbEntity
  8
外形線
100
AcDbLine
 10
-4.999999999999829
 20
-30.19999999999999
 30
0.0
 11
-4.999999999999886
 21
6.5
 31
0.0
  0
LINE
  5
B9F
330
B9D
100
AcDbEntity
  8
外形線
 48
0.25
100
AcDbLine
 10
-1.642741340052737
 20
-25.64274134005291
 30
0.0
 11
1.801734516973169
 21
-22.19826548302677
 31
0.0
  0
LINE
  5
BA0
330
B9D
100
AcDbEntity
  8
中心線
 48
0.25
100
AcDbLine
 10
0.0000000000001705
 20
-28.37379302256636
 30
0.0
 11
0.0000000000001137
 21
-19.6603147655361
 31
0.0
  0
LINE
  5
BA1
330
B9D
100
AcDbEntity
  8
外形線
 48
0.25
100
AcDbLine
 10
-1.916702099067322
 20
-22.08329790093251
 30
0.0
 11
1.642774912611571
 21
-25.64277491261135
 31
0.0
  0
CIRCLE
  5
BA2
330
B9D
100
AcDbEntity
  8
外形線
100
AcDbCircle
 10
0.0000000000001705
 20
-23.99999999999995
 30
0.0
 40
3.5
  0
LINE
  5
BA3
330
B9D
100
AcDbEntity
  8
外形線
100
AcDbLine
 10
-4.999999999999829
 20
-30.19999999999999
 30
0.0
 11
4.999999999999943
 21
-30.20000000000005
 31
0.0
  0
LINE
  5
BA4
330
B9D
100
AcDbEntity
  8
中心線
 48
0.25
100
AcDbLine
 10
-4.155868862818124
 20
-23.99999999999995
 30
0.0
 11
4.241184169063899
 21
-24.00000000000006
 31
0.0
  0
LINE
  5
BA5
330
B9D
100
AcDbEntity
  8
外形線
100
AcDbLine
 10
-5.0
 20
-23.99999999999995
 30
0.0
 11
-4.954730944691505
 21
-24.0
 31
0.0
  0
LINE
  5
BA6
330
B9D
100
AcDbEntity
  8
外形線
 48
0.25
100
AcDbLine
 10
-1.642741340052907
 20
-1.642741340052907
 30
0.0
 11
1.801734516972999
 21
1.801734516973169
 31
0.0
  0
LINE
  5
BA7
330
B9D
100
AcDbEntity
  8
中心線
 48
0.25
100
AcDbLine
 10
-4.169724129124233
 20
0.0000000000000568
 30
0.0
 11
4.377789820496218
 21
0.0000000000001137
 31
0.0
  0
CIRCLE
  5
BA8
330
B9D
100
AcDbEntity
  8
外形線
100
AcDbCircle
 10
0.0
 20
0.0
 30
0.0
 40
3.5
  0
LINE
  5
BA9
330
B9D
100
AcDbEntity
  8
外形線
 48
0.25
100
AcDbLine
 10
-1.916702099067492
 20
1.916702099067435
 30
0.0
 11
1.642774912611457
 21
-1.642774912611344
 31
0.0
  0
LINE
  5
BAA
330
B9D
100
AcDbEntity
  8
中心線
 48
0.25
100
AcDbLine
 10
0.0
 20
-4.300056073036728
 30
0.0
 11
0.0
 21
4.265453201853063
 31
0.0
  0
ENDBLK
  5
BAC
330
B9D
100
AcDbEntity
  8
0
100
AcDbBlockEnd
  0
BLOCK
  5
138C
330
1382
100
AcDbEntity
  8
0
100
AcDbBlockBegin
  2
*D6
 70
     1
 10
0.0
 20
0.0
 30
0.0
  3
*D6
  1

  0
LINE
  5
14A2
330
1382
100
AcDbEntity
  8
文字
 62
     2
370
    -2
100
AcDbLine
 10
1045.958682626406
 20
329.3205714555577
 30
0.0
 11
1065.047412964598
 21
329.3205714555577
 31
0.0
  0
LINE
  5
14A3
330
1382
100
AcDbEntity
  8
文字
 62
     2
370
    -2
100
AcDbLine
 10
1045.958682626406
 20
299.3205714555577
 30
0.0
 11
1065.047412964598
 21
299.3205714555577
 31
0.0
  0
LINE
  5
14A4
330
1382
100
AcDbEntity
  8
文字
 62
     2
370
    -2
100
AcDbLine
 10
1063.797412964598
 20
326.8205714555577
 30
0.0
 11
1063.797412964598
 21
301.8205714555577
 31
0.0
  0
INSERT
  5
14A5
330
1382
100
AcDbEntity
  8
文字
 62
     2
370
    -2
100
AcDbBlockReference
  2
_OPEN
 10
1063.797412964598
 20
329.3205714555577
 30
0.0
 41
2.5
 42
2.5
 43
2.5
 50
90.0
  0
INSERT
  5
14A6
330
1382
100
AcDbEntity
  8
文字
 62
     2
370
    -2
100
AcDbBlockReference
  2
_OPEN
 10
1063.797412964598
 20
299.3205714555577
 30
0.0
 41
2.5
 42
2.5
 43
2.5
 50
270.0
  0
MTEXT
  5
14A7
330
1382
100
AcDbEntity
  8
文字
 62
     6
100
AcDbMText
 10
1061.922412964598
 20
314.3205714555579
 30
0.0
 40
2.5
 41
0.0
 71
     5
 72
     1
  1
\A1;30
  7
STYLE3
 11
0.0000000000000001
 21
1.0
 31
0.0
 73
     1
 44
1.0
  0
POINT
  5
14A8
330
1382
100
AcDbEntity
  8
DEFPOINTS
 62
     0
100
AcDbPoint
 10
1045.958682626406
 20
329.3205714555577
 30
0.0
  0
POINT
  5
14A9
330
1382
100
AcDbEntity
  8
DEFPOINTS
 62
     0
100
AcDbPoint
 10
1045.958682626406
 20
299.3205714555577
 30
0.0
  0
POINT
  5
14AA
330
1382
100
AcDbEntity
  8
DEFPOINTS
 62
     0
100
AcDbPoint
 10
1063.797412964598
 20
299.3205714555577
 30
0.0
  0
ENDBLK
  5
138D
330
1382
100
AcDbEntity
  8
0
100
AcDbBlockEnd
  0
BLOCK
  5
1433
330
1427
100
AcDbEntity
  8
0
100
AcDbBlockBegin
  2
*D7
 70
     1
 10
0.0
 20
0.0
 30
0.0
  3
*D7
  1

  0
LINE
  5
1510
330
1427
100
AcDbEntity
  8
寸法線
 62
     2
370
    -2
100
AcDbLine
 10
732.8264136959062
 20
335.9647088022059
 30
0.0
 11
732.8264136959062
 21
346.5276213587426
 31
0.0
  0
LINE
  5
1511
330
1427
100
AcDbEntity
  8
寸法線
 62
     2
370
    -2
100
AcDbLine
 10
735.8264136959064
 20
336.6534594488617
 30
0.0
 11
735.8264136959064
 21
346.5276213587426
 31
0.0
  0
LINE
  5
1512
330
1427
100
AcDbEntity
  8
寸法線
 62
     2
370
    -2
100
AcDbLine
 10
730.3264136959062
 20
345.2776213587426
 30
0.0
 11
727.8264136959062
 21
345.2776213587426
 31
0.0
  0
LINE
  5
1513
330
1427
100
AcDbEntity
  8
寸法線
 62
     2
370
    -2
100
AcDbLine
 10
738.3264136959065
 20
345.2776213587426
 30
0.0
 11
740.8264136959064
 21
345.2776213587426
 31
0.0
  0
LINE
  5
1514
330
1427
100
AcDbEntity
  8
寸法線
 62
     2
370
    -2
100
AcDbLine
 10
732.8264136959062
 20
345.2776213587426
 30
0.0
 11
735.8264136959064
 21
345.2776213587426
 31
0.0
  0
INSERT
  5
1515
330
1427
100
AcDbEntity
  8
寸法線
 62
     2
370
    -2
100
AcDbBlockReference
  2
_OPEN
 10
732.8264136959062
 20
345.2776213587426
 30
0.0
 41
2.5
 42
2.5
 43
2.5
  0
INSERT
  5
1516
330
1427
100
AcDbEntity
  8
寸法線
 62
     2
370
    -2
100
AcDbBlockReference
  2
_OPEN
 10
735.8264136959064
 20
345.2776213587426
 30
0.0
 41
2.5
 42
2.5
 43
2.5
 50
180.0
  0
MTEXT
  5
1517
330
1427
100
AcDbEntity
  8
寸法線
 62
     6
100
AcDbMText
 10
734.3264136959064
 20
347.1526213587426
 30
0.0
 40
2.5
 41
0.0
 71
     5
 72
     1
  1
\A1;3
  7
STYLE3
 73
     1
 44
1.0
  0
POINT
  5
1518
330
1427
100
AcDbEntity
  8
DEFPOINTS
 62
     0
100
AcDbPoint
 10
732.8264136959062
 20
335.9647088022059
 30
0.0
  0
POINT
  5
1519
330
1427
100
AcDbEntity
  8
DEFPOINTS
 62
     0
100
AcDbPoint
 10
735.8264136959064
 20
336.6534594488617
 30
0.0
  0
POINT
  5
151A
330
1427
100
AcDbEntity
  8
DEFPOINTS
 62
     0
100
AcDbPoint
 10
735.8264136959064
 20
345.2776213587426
 30
0.0
  0
ENDBLK
  5
1434
330
1427
100
AcDbEntity
  8
0
100
AcDbBlockEnd
  0
BLOCK
  5
1469
330
145F
100
AcDbEntity
  8
0
100
AcDbBlockBegin
  2
*D8
 70
     1
 10
0.0
 20
0.0
 30
0.0
  3
*D8
  1

  0
LINE
  5
14B6
330
145F
100
AcDbEntity
  8
寸法線
 62
     2
370
    -2
100
AcDbLine
 10
729.3264136959062
 20
319.3205714555578
 30
0.0
 11
729.3264136959062
 21
326.8012049900838
 31
0.0
  0
LINE
  5
14B7
330
145F
100
AcDbEntity
  8
寸法線
 62
     2
370
    -2
100
AcDbLine
 10
739.3264136959062
 20
319.3205714555578
 30
0.0
 11
739.3264136959062
 21
326.8012049900838
 31
0.0
  0
LINE
  5
14B8
330
145F
100
AcDbEntity
  8
寸法線
 62
     2
370
    -2
100
AcDbLine
 10
731.8264136959062
 20
325.5512049900838
 30
0.0
 11
736.8264136959062
 21
325.5512049900838
 31
0.0
  0
LINE
  5
14B9
330
145F
100
AcDbEntity
  8
寸法線
 62
     2
370
    -2
100
AcDbLine
 10
739.3264136959062
 20
325.5512049900838
 30
0.0
 11
749.38593750543
 21
325.5512049900838
 31
0.0
  0
INSERT
  5
14BA
330
145F
100
AcDbEntity
  8
寸法線
 62
     2
370
    -2
100
AcDbBlockReference
  2
_OPEN
 10
729.3264136959062
 20
325.5512049900838
 30
0.0
 41
2.5
 42
2.5
 43
2.5
 50
180.0
  0
INSERT
  5
14BB
330
145F
100
AcDbEntity
  8
寸法線
 62
     2
370
    -2
100
AcDbBlockReference
  2
_OPEN
 10
739.3264136959062
 20
325.5512049900838
 30
0.0
 41
2.5
 42
2.5
 43
2.5
  0
MTEXT
  5
14BC
330
145F
100
AcDbEntity
  8
寸法線
 62
     6
100
AcDbMText
 10
745.6061756006682
 20
327.4262049900837
 30
0.0
 40
2.5
 41
0.0
 71
     5
 72
     1
  1
\A1;%%C10
  7
STYLE3
 73
     1
 44
1.0
  0
POINT
  5
14BD
330
145F
100
AcDbEntity
  8
DEFPOINTS
 62
     0
100
AcDbPoint
 10
729.3264136959062
 20
319.3205714555578
 30
0.0
  0
POINT
  5
14BE
330
145F
100
AcDbEntity
  8
DEFPOINTS
 62
     0
100
AcDbPoint
 10
739.3264136959062
 20
319.3205714555578
 30
0.0
  0
POINT
  5
14BF
330
145F
100
AcDbEntity
  8
DEFPOINTS
 62
     0
100
AcDbPoint
 10
739.3264136959062
 20
325.5512049900838
 30
0.0
  0
ENDBLK
  5
146A
330
145F
100
AcDbEntity
  8
0
100
AcDbBlockEnd
  0
BLOCK
  5
1528
330
151C
100
AcDbEntity
  8
0
100
AcDbBlockBegin
  2
*D9
 70
     1
 10
0.0
 20
0.0
 30
0.0
  3
*D9
  1

  0
LINE
  5
1535
330
151C
100
AcDbEntity
  8
寸法線
 62
     2
370
    -2
100
AcDbLine
 10
732.8264136959063
 20
299.275039429386
 30
0.0
 11
732.8264136959063
 21
286.3823660936574
 31
0.0
  0
LINE
  5
1536
330
151C
100
AcDbEntity
  8
寸法線
 62
     2
370
    -2
100
AcDbLine
 10
735.762478105954
 20
299.275039429386
 30
0.0
 11
735.762478105954
 21
286.3823660936574
 31
0.0
  0
LINE
  5
1537
330
151C
100
AcDbEntity
  8
寸法線
 62
     2
370
    -2
100
AcDbLine
 10
730.3264136959064
 20
287.6323660936574
 30
0.0
 11
727.8264136959063
 21
287.6323660936574
 31
0.0
  0
LINE
  5
1538
330
151C
100
AcDbEntity
  8
寸法線
 62
     2
370
    -2
100
AcDbLine
 10
738.2624781059539
 20
287.6323660936574
 30
0.0
 11
740.7624781059539
 21
287.6323660936574
 31
0.0
  0
LINE
  5
1539
330
151C
100
AcDbEntity
  8
寸法線
 62
     2
370
    -2
100
AcDbLine
 10
732.8264136959063
 20
287.6323660936574
 30
0.0
 11
735.762478105954
 21
287.6323660936574
 31
0.0
  0
INSERT
  5
153A
330
151C
100
AcDbEntity
  8
寸法線
 62
     2
370
    -2
100
AcDbBlockReference
  2
_OPEN
 10
732.8264136959063
 20
287.6323660936574
 30
0.0
 41
2.5
 42
2.5
 43
2.5
  0
INSERT
  5
153B
330
151C
100
AcDbEntity
  8
寸法線
 62
     2
370
    -2
100
AcDbBlockReference
  2
_OPEN
 10
735.762478105954
 20
287.6323660936574
 30
0.0
 41
2.5
 42
2.5
 43
2.5
 50
180.0
  0
MTEXT
  5
153C
330
151C
100
AcDbEntity
  8
寸法線
 62
     6
100
AcDbMText
 10
734.2944459009302
 20
289.5073660936574
 30
0.0
 40
2.5
 41
0.0
 71
     5
 72
     1
  1
\A1;3
  7
STYLE3
 73
     1
 44
1.0
  0
POINT
  5
153D
330
151C
100
AcDbEntity
  8
DEFPOINTS
 62
     0
100
AcDbPoint
 10
732.8264136959063
 20
299.275039429386
 30
0.0
  0
POINT
  5
153E
330
151C
100
AcDbEntity
  8
DEFPOINTS
 62
     0
100
AcDbPoint
 10
735.762478105954
 20
299.275039429386
 30
0.0
  0
POINT
  5
153F
330
151C
100
AcDbEntity
  8
DEFPOINTS
 62
     0
100
AcDbPoint
 10
735.762478105954
 20
287.6323660936574
 30
0.0
  0
ENDBLK
  5
1529
330
151C
100
AcDbEntity
  8
0
100
AcDbBlockEnd
  0
ENDSEC
  0
SECTION
  2
ENTITIES
  0
LWPOLYLINE
  5
101A
330
18
100
AcDbEntity
  8
C
100
AcDbPolyline
 90
        5
 70
     0
 43
0.8
 10
694.6673127908895
 20
458.9717683211813
 10
1072.167312790889
 20
458.9717683211813
 10
1072.167312790889
 20
176.4717683211813
 10
694.6673127908895
 20
176.4717683211813
 10
694.6673127908895
 20
458.9717683211813
  0
LINE
  5
103B
330
18
100
AcDbEntity
  8
中心線
 48
0.5
100
AcDbLine
 10
729.2276774563283
 20
314.3205714555577
 30
0.0
 11
1057.595557595956
 21
314.3205714555577
 31
0.0
  0
LINE
  5
103C
330
18
100
AcDbEntity
  8
中心線
 48
0.5
100
AcDbLine
 10
880.9586826264057
 20
331.578896425907
 30
0.0
 11
880.9586826264057
 21
297.0622464852084
 31
0.0
  0
ARC
  5
103D
330
18
100
AcDbEntity
  8
外形線
100
AcDbCircle
 10
858.0836826264057
 20
331.3205714555577
 30
0.0
 40
16.0
100
AcDbArc
 50
324.6054792046247
 51
57.38015806070773
  0
CIRCLE
  5
103E
330
18
100
AcDbEntity
  8
隠れ線2
100
AcDbCircle
 10
895.9586826264056
 20
314.3205714555577
 30
0.0
 40
2.85
  0
LINE
  5
1040
330
18
100
AcDbEntity
  8
外形線
100
AcDbLine
 10
917.9515869792219
 20
302.2169240021951
 30
0.0
 11
950.9586826264056
 21
302.5705714555578
 31
0.0
  0
LINE
  5
1041
330
18
100
AcDbEntity
  8
外形線
100
AcDbLine
 10
871.0586607949082
 20
321.9520567458451
 30
0.0
 11
871.1266136464551
 21
322.0533199532928
 31
0.0
  0
ARC
  5
1042
330
18
100
AcDbEntity
  8
外形線
100
AcDbCircle
 10
782.7291336252141
 20
329.2501204567493
 30
0.0
 40
18.18867687982839
100
AcDbArc
 50
96.53625336628079
 51
173.4637466337193
  0
ARC
  5
1043
330
18
100
AcDbEntity
  8
外形線
100
AcDbCircle
 10
761.1626826264057
 20
321.3205714555578
 30
0.0
 40
2.0
100
AcDbArc
 50
180.0
 51
0.0
  0
ARC
  5
1044
330
18
100
AcDbEntity
  8
外形線
100
AcDbCircle
 10
780.4586826264056
 20
335.3205714555577
 30
0.0
 40
22.0
100
AcDbArc
 50
94.13752850822293
 51
185.7574687843951
  0
LINE
  5
1045
330
18
100
AcDbEntity
  8
外形線
100
AcDbLine
 10
764.6586826264056
 20
331.3205714555577
 30
0.0
 11
763.1626826264057
 21
321.3205714555578
 31
0.0
  0
LINE
  5
1046
330
18
100
AcDbEntity
  8
外形線
100
AcDbLine
 10
758.5696627309184
 20
333.1135807408132
 30
0.0
 11
759.1626826264057
 21
321.3205714555578
 31
0.0
  0
LINE
  5
1047
330
18
100
AcDbEntity
  8
外形線
100
AcDbLine
 10
780.6586826264056
 20
347.3205714555577
 30
0.0
 11
858.0836826264057
 21
347.3205714555577
 31
0.0
  0
ARC
  5
1048
330
18
100
AcDbEntity
  8
外形線
100
AcDbCircle
 10
856.4586826264056
 20
391.8205714555577
 30
0.0
 40
28.5
100
AcDbArc
 50
270.0000000000005
 51
348.0042581918061
  0
LINE
  5
1049
330
18
100
AcDbEntity
  8
外形線
100
AcDbLine
 10
778.6213414688435
 20
357.2437139645761
 30
0.0
 11
856.4586826264056
 21
363.3205714555578
 31
0.0
  0
LINE
  5
104A
330
18
100
AcDbEntity
  8
外形線
100
AcDbLine
 10
927.6572870733785
 20
339.5837112453664
 30
0.0
 11
895.4008597530245
 21
408.7578428647772
 31
0.0
  0
LINE
  5
104B
330
18
100
AcDbEntity
  8
外形線
100
AcDbLine
 10
888.0583025030842
 20
400.3687515533567
 30
0.0
 11
897.3026419308579
 21
404.6794578231118
 31
0.0
  0
LINE
  5
104D
330
18
100
AcDbEntity
  8
外形線
100
AcDbLine
 10
928.8241762519897
 20
337.3224898590658
 30
0.0
 11
927.6572870733788
 21
339.583711245364
 31
0.0
  0
LINE
  5
104E
330
18
100
AcDbEntity
  8
外形線
100
AcDbLine
 10
888.0583025030842
 20
400.3687515533567
 30
0.0
 11
884.3363295490838
 21
385.8971601027571
 31
0.0
  0
ARC
  5
104F
330
18
100
AcDbEntity
  8
外形線
100
AcDbCircle
 10
880.9586826264055
 20
314.3205714555577
 30
0.0
 40
12.5
100
AcDbArc
 50
94.94482432863987
 51
210.7270497576839
  0
ARC
  5
1050
330
18
100
AcDbEntity
  8
外形線
100
AcDbCircle
 10
856.7476814388378
 20
299.2841807152374
 30
0.0
 40
16.0
100
AcDbArc
 50
265.224
 51
283.9058246077224
  0
ARC
  5
1051
330
18
100
AcDbEntity
  8
外形線
100
AcDbCircle
 10
778.893945288885
 20
305.7889015004471
 30
0.0
 40
16.0
100
AcDbArc
 50
166.8325022729782
 51
265.224
  0
ARC
  5
1052
330
18
100
AcDbEntity
  8
外形線
100
AcDbCircle
 10
781.6670516493115
 20
302.9481478832246
 30
0.0
 40
25.0
100
AcDbArc
 50
169.7149454422274
 51
265.2240000000005
  0
LINE
  5
1053
330
18
100
AcDbEntity
  8
外形線
100
AcDbLine
 10
777.5617784720741
 20
289.8444563369368
 30
0.0
 11
855.4155146220269
 21
283.3397355517271
 31
0.0
  0
LINE
  5
1054
330
18
100
AcDbEntity
  8
外形線
100
AcDbLine
 10
757.6180667908543
 20
310.8201063448654
 30
0.0
 11
757.0687605364781
 21
307.4117870183145
 31
0.0
  0
LINE
  5
1055
330
18
100
AcDbEntity
  8
外形線
100
AcDbLine
 10
763.5085853455072
 20
310.3757286565721
 30
0.0
 11
763.3146127576859
 21
309.4336782950289
 31
0.0
  0
ARC
  5
1056
330
18
100
AcDbEntity
  8
外形線
100
AcDbCircle
 10
879.5619853006652
 20
307.2121794728186
 30
0.0
 40
43.0
100
AcDbArc
 50
258.6293072659588
 51
299.4013682803823
  0
LINE
  5
1057
330
18
100
AcDbEntity
  8
外形線
100
AcDbLine
 10
779.5855409980443
 20
278.0349523152397
 30
0.0
 11
871.0842816989073
 21
265.0561770337739
 31
0.0
  0
ARC
  5
1058
330
18
100
AcDbEntity
  8
外形線
100
AcDbCircle
 10
919.4628402582395
 20
247.8840193997587
 30
0.0
 40
28.0
100
AcDbArc
 50
51.76686490659151
 51
121.1908224978073
  0
ARC
  5
1059
330
18
100
AcDbEntity
  8
外形線
100
AcDbCircle
 10
933.6976450151768
 20
299.3776183954773
 30
0.0
 40
16.0
100
AcDbArc
 50
110.1357473120894
 51
241.5461927731112
  0
ARC
  5
105A
330
18
100
AcDbEntity
  8
外形線
100
AcDbCircle
 10
908.3886174465236
 20
232.7535281613198
 30
0.0
 40
47.0
100
AcDbArc
 50
16.7513940251044
 51
47.38367091070331
  0
ARC
  5
105B
330
18
100
AcDbEntity
  8
外形線
100
AcDbCircle
 10
908.1081721688249
 20
238.1405829639199
 30
0.0
 40
50.0
100
AcDbArc
 50
10.47326220046948
 51
61.3183698770555
  0
LINE
  5
105C
330
18
100
AcDbEntity
  8
外形線
100
AcDbLine
 10
904.9619204680167
 20
271.8365417144864
 30
0.0
 11
900.671741334666
 21
269.7504897060053
 31
0.0
  0
LINE
  5
105D
330
18
100
AcDbEntity
  8
外形線
100
AcDbLine
 10
936.7909977037058
 20
269.8779949281875
 30
0.0
 11
940.2116466244637
 21
267.3410232128551
 31
0.0
  0
LINE
  5
105E
330
18
100
AcDbEntity
  8
外形線
100
AcDbLine
 10
926.0744435933757
 20
285.3103940749992
 30
0.0
 11
932.1052845034472
 21
282.0055872338333
 31
0.0
  0
LINE
  5
105F
330
18
100
AcDbEntity
  8
外形線
100
AcDbLine
 10
928.189716433509
 20
314.3996929106448
 30
0.0
 11
946.8950306646446
 21
321.924870102622
 31
0.0
  0
LINE
  5
1060
330
18
100
AcDbEntity
  8
外形線
100
AcDbLine
 10
946.8950306646446
 20
321.924870102622
 30
0.0
 11
942.1735306895495
 21
334.7409626517668
 31
0.0
  0
LINE
  5
1061
330
18
100
AcDbEntity
  8
外形線
100
AcDbLine
 10
879.8812280033295
 20
326.7740485417056
 30
0.0
 11
934.9474541476189
 21
333.8167789455989
 31
0.0
  0
LINE
  5
1062
330
18
100
AcDbEntity
  8
外形線
100
AcDbLine
 10
870.7826250343511
 20
307.0612428445091
 30
0.0
 11
870.8155406892869
 21
307.0107618699225
 31
0.0
  0
CIRCLE
  5
1063
330
18
100
AcDbEntity
  8
隠れ線2
100
AcDbCircle
 10
895.9065999671965
 20
313.0716650647975
 30
0.0
 40
1.274999999999999
  0
ARC
  5
1064
330
18
100
AcDbEntity
  8
外形線
100
AcDbCircle
 10
955.3030641080496
 20
246.896518313435
 30
0.0
 40
2.0
100
AcDbArc
 50
196.1946337773435
 51
11.43943619923583
  0
ARC
  5
1065
330
18
100
AcDbEntity
  8
握り
100
AcDbCircle
 10
1045.958682626406
 20
327.8205714555578
 30
0.0
 40
1.5
100
AcDbArc
 50
27.81813928465427
 51
152.1818607153457
  0
ARC
  5
1066
330
18
100
AcDbEntity
  8
握り
100
AcDbCircle
 10
1035.958682626406
 20
327.8205714555578
 30
0.0
 40
1.5
100
AcDbArc
 50
27.81813928465427
 51
152.1818607153457
  0
ARC
  5
1067
330
18
100
AcDbEntity
  8
握り
100
AcDbCircle
 10
1025.958682626406
 20
327.8205714555578
 30
0.0
 40
1.5
100
AcDbArc
 50
27.81813928465427
 51
152.1818607153457
  0
ARC
  5
1068
330
18
100
AcDbEntity
  8
握り
100
AcDbCircle
 10
1015.958682626405
 20
327.8205714555578
 30
0.0
 40
1.5
100
AcDbArc
 50
27.81813928465427
 51
152.1818607153457
  0
ARC
  5
1069
330
18
100
AcDbEntity
  8
握り
100
AcDbCircle
 10
1005.958682626405
 20
327.8205714555578
 30
0.0
 40
1.5
100
AcDbArc
 50
27.81813928465427
 51
152.1818607153457
  0
ARC
  5
106A
330
18
100
AcDbEntity
  8
握り
100
AcDbCircle
 10
995.9586826264056
 20
327.8205714555578
 30
0.0
 40
1.5
100
AcDbArc
 50
27.81813928465427
 51
152.1818607153457
  0
ARC
  5
106B
330
18
100
AcDbEntity
  8
握り
100
AcDbCircle
 10
985.9586826264056
 20
327.8205714555578
 30
0.0
 40
1.5
100
AcDbArc
 50
27.81813928465427
 51
152.1818607153457
  0
ARC
  5
106C
330
18
100
AcDbEntity
  8
握り
100
AcDbCircle
 10
975.9586826264056
 20
327.8205714555578
 30
0.0
 40
1.5
100
AcDbArc
 50
27.81813928465427
 51
152.1818607153457
  0
ARC
  5
106D
330
18
100
AcDbEntity
  8
握り
100
AcDbCircle
 10
965.9586826264057
 20
327.8205714555578
 30
0.0
 40
1.5
100
AcDbArc
 50
27.81813928465427
 51
152.1818607153457
  0
ARC
  5
106E
330
18
100
AcDbEntity
  8
握り
100
AcDbCircle
 10
955.9586826264057
 20
327.8205714555578
 30
0.0
 40
1.5
100
AcDbArc
 50
27.81813928465427
 51
152.1818607153457
  0
ARC
  5
106F
330
18
100
AcDbEntity
  8
握り
100
AcDbCircle
 10
951.4586826264057
 20
328.0205714555578
 30
0.0
 40
0.5
100
AcDbArc
 50
90.0
 51
180.0
  0
ARC
  5
1070
330
18
100
AcDbEntity
  8
握り
100
AcDbCircle
 10
1050.458682626405
 20
328.0205714555577
 30
0.0
 40
0.5
100
AcDbArc
 50
0.0
 51
90.0
  0
LINE
  5
1071
330
18
100
AcDbEntity
  8
握り
100
AcDbLine
 10
987.2853325425479
 20
307.6672714555577
 30
0.0
 11
994.6320327102633
 21
307.6672714555577
 31
0.0
  0
LINE
  5
1072
330
18
100
AcDbEntity
  8
握り
100
AcDbLine
 10
987.2853325425479
 20
320.9738714555578
 30
0.0
 11
994.6320327102638
 21
320.9738714555578
 31
0.0
  0
LINE
  5
1073
330
18
100
AcDbEntity
  8
握り
100
AcDbLine
 10
977.2853325425478
 20
310.3205714555577
 30
0.0
 11
1024.632032710263
 21
310.3205714555577
 31
0.0
  0
LINE
  5
1074
330
18
100
AcDbEntity
  8
握り
100
AcDbLine
 10
977.2853325425478
 20
318.3205714555577
 30
0.0
 11
1024.632032710263
 21
318.3205714555577
 31
0.0
  0
LINE
  5
1075
330
18
100
AcDbEntity
  8
握り
100
AcDbLine
 10
987.2853325425479
 20
300.1205714555577
 30
0.0
 11
994.6320327102634
 21
300.1205714555577
 31
0.0
  0
LINE
  5
1076
330
18
100
AcDbEntity
  8
握り
100
AcDbLine
 10
987.2853325425479
 20
328.5205714555578
 30
0.0
 11
994.6320327102634
 21
328.5205714555578
 31
0.0
  0
LINE
  5
1077
330
18
100
AcDbEntity
  8
握り
100
AcDbLine
 10
987.2853325425477
 20
307.6672714555578
 30
0.0
 11
987.2853325425479
 21
300.1205714555577
 31
0.0
  0
LINE
  5
1078
330
18
100
AcDbEntity
  8
握り
100
AcDbLine
 10
984.6320327102635
 20
307.6672714555578
 30
0.0
 11
984.6320327102635
 21
300.1205714555577
 31
0.0
  0
LINE
  5
1079
330
18
100
AcDbEntity
  8
握り
100
AcDbLine
 10
977.2853325425478
 20
307.6672714555578
 30
0.0
 11
977.2853325425478
 21
300.1205714555577
 31
0.0
  0
LINE
  5
107A
330
18
100
AcDbEntity
  8
握り
100
AcDbLine
 10
974.6320327102635
 20
328.5205714555578
 30
0.0
 11
974.6320327102635
 21
300.1205714555577
 31
0.0
  0
LINE
  5
107B
330
18
100
AcDbEntity
  8
握り
100
AcDbLine
 10
967.2853325425478
 20
328.5205714555578
 30
0.0
 11
967.2853325425478
 21
300.1205714555577
 31
0.0
  0
LINE
  5
107C
330
18
100
AcDbEntity
  8
握り
100
AcDbLine
 10
964.6320327102635
 20
328.5205714555578
 30
0.0
 11
964.6320327102635
 21
300.1205714555577
 31
0.0
  0
LINE
  5
107D
330
18
100
AcDbEntity
  8
握り
100
AcDbLine
 10
954.6320327102634
 20
328.5205714555578
 30
0.0
 11
954.6320327102634
 21
300.1205714555577
 31
0.0
  0
LINE
  5
107E
330
18
100
AcDbEntity
  8
握り
100
AcDbLine
 10
957.2853325425478
 20
328.5205714555578
 30
0.0
 11
957.2853325425478
 21
300.1205714555577
 31
0.0
  0
LINE
  5
107F
330
18
100
AcDbEntity
  8
握り
100
AcDbLine
 10
950.9586826264056
 20
328.0205714555578
 30
0.0
 11
950.9586826264056
 21
300.6205714555577
 31
0.0
  0
LINE
  5
1080
330
18
100
AcDbEntity
  8
握り
100
AcDbLine
 10
951.4586826264057
 20
300.1205714555577
 30
0.0
 11
954.6320327102636
 21
300.1205714555578
 31
0.0
  0
ARC
  5
1081
330
18
100
AcDbEntity
  8
握り
100
AcDbCircle
 10
951.4586826264057
 20
300.6205714555577
 30
0.0
 40
0.5
100
AcDbArc
 50
180.0
 51
270.0
  0
LINE
  5
1082
330
18
100
AcDbEntity
  8
握り
100
AcDbLine
 10
967.2853325425478
 20
300.1205714555578
 30
0.0
 11
974.6320327102635
 21
300.1205714555577
 31
0.0
  0
LINE
  5
1083
330
18
100
AcDbEntity
  8
握り
100
AcDbLine
 10
957.2853325425478
 20
300.1205714555578
 30
0.0
 11
964.6320327102635
 21
300.1205714555578
 31
0.0
  0
ARC
  5
1084
330
18
100
AcDbEntity
  8
握り
100
AcDbCircle
 10
955.9586826264057
 20
300.8205714555578
 30
0.0
 40
1.5
100
AcDbArc
 50
207.8181392846543
 51
332.1818607153458
  0
ARC
  5
1085
330
18
100
AcDbEntity
  8
握り
100
AcDbCircle
 10
965.9586826264057
 20
300.8205714555578
 30
0.0
 40
1.5
100
AcDbArc
 50
207.8181392846543
 51
332.1818607153458
  0
LINE
  5
1086
330
18
100
AcDbEntity
  8
握り
100
AcDbLine
 10
977.2853325425478
 20
300.1205714555577
 30
0.0
 11
984.6320327102635
 21
300.1205714555577
 31
0.0
  0
ARC
  5
1087
330
18
100
AcDbEntity
  8
握り
100
AcDbCircle
 10
975.9586826264056
 20
300.8205714555578
 30
0.0
 40
1.5
100
AcDbArc
 50
207.8181392846543
 51
332.1818607153458
  0
ARC
  5
1088
330
18
100
AcDbEntity
  8
握り
100
AcDbCircle
 10
985.9586826264056
 20
300.8205714555578
 30
0.0
 40
1.5
100
AcDbArc
 50
207.8181392846543
 51
332.1818607153458
  0
LINE
  5
1089
330
18
100
AcDbEntity
  8
握り
100
AcDbLine
 10
951.4586826264057
 20
328.5205714555578
 30
0.0
 11
954.6320327102634
 21
328.5205714555578
 31
0.0
  0
LINE
  5
108A
330
18
100
AcDbEntity
  8
握り
100
AcDbLine
 10
977.2853325425478
 20
318.3205714555577
 30
0.0
 11
977.2853325425478
 21
310.3205714555577
 31
0.0
  0
LINE
  5
108B
330
18
100
AcDbEntity
  8
握り
100
AcDbLine
 10
977.2853325425478
 20
307.6672714555578
 30
0.0
 11
984.6320327102636
 21
307.6672714555577
 31
0.0
  0
LINE
  5
108C
330
18
100
AcDbEntity
  8
握り
100
AcDbLine
 10
967.2853325425478
 20
328.5205714555578
 30
0.0
 11
974.6320327102635
 21
328.5205714555578
 31
0.0
  0
LINE
  5
108D
330
18
100
AcDbEntity
  8
握り
100
AcDbLine
 10
957.2853325425478
 20
328.5205714555578
 30
0.0
 11
964.6320327102635
 21
328.5205714555578
 31
0.0
  0
LINE
  5
108E
330
18
100
AcDbEntity
  8
握り
100
AcDbLine
 10
987.2853325425479
 20
328.5205714555578
 30
0.0
 11
987.2853325425479
 21
320.9738714555578
 31
0.0
  0
LINE
  5
108F
330
18
100
AcDbEntity
  8
握り
100
AcDbLine
 10
984.6320327102635
 20
328.5205714555578
 30
0.0
 11
984.6320327102636
 21
320.9738714555578
 31
0.0
  0
LINE
  5
1090
330
18
100
AcDbEntity
  8
握り
100
AcDbLine
 10
977.2853325425478
 20
328.5205714555578
 30
0.0
 11
977.2853325425478
 21
320.9738714555578
 31
0.0
  0
LINE
  5
1091
330
18
100
AcDbEntity
  8
握り
100
AcDbLine
 10
977.2853325425479
 20
320.9738714555578
 30
0.0
 11
984.6320327102636
 21
320.9738714555578
 31
0.0
  0
LINE
  5
1092
330
18
100
AcDbEntity
  8
握り
100
AcDbLine
 10
977.2853325425478
 20
328.5205714555578
 30
0.0
 11
984.6320327102635
 21
328.5205714555578
 31
0.0
  0
LINE
  5
1093
330
18
100
AcDbEntity
  8
握り
100
AcDbLine
 10
1017.285332542548
 20
307.6672714555578
 30
0.0
 11
1017.285332542548
 21
300.1205714555577
 31
0.0
  0
LINE
  5
1094
330
18
100
AcDbEntity
  8
握り
100
AcDbLine
 10
1014.632032710263
 20
307.6672714555578
 30
0.0
 11
1014.632032710263
 21
300.1205714555577
 31
0.0
  0
LINE
  5
1095
330
18
100
AcDbEntity
  8
握り
100
AcDbLine
 10
1007.285332542548
 20
307.6672714555578
 30
0.0
 11
1007.285332542548
 21
300.1205714555577
 31
0.0
  0
LINE
  5
1096
330
18
100
AcDbEntity
  8
握り
100
AcDbLine
 10
1004.632032710263
 20
307.6672714555577
 30
0.0
 11
1004.632032710263
 21
300.1205714555577
 31
0.0
  0
LINE
  5
1097
330
18
100
AcDbEntity
  8
握り
100
AcDbLine
 10
997.2853325425477
 20
307.6672714555578
 30
0.0
 11
997.2853325425479
 21
300.1205714555577
 31
0.0
  0
LINE
  5
1098
330
18
100
AcDbEntity
  8
握り
100
AcDbLine
 10
994.6320327102634
 20
307.6672714555578
 30
0.0
 11
994.6320327102634
 21
300.1205714555577
 31
0.0
  0
LINE
  5
1099
330
18
100
AcDbEntity
  8
握り
100
AcDbLine
 10
1024.632032710263
 20
307.6672714555578
 30
0.0
 11
1024.632032710263
 21
300.1205714555577
 31
0.0
  0
LINE
  5
109A
330
18
100
AcDbEntity
  8
握り
100
AcDbLine
 10
1047.285332542548
 20
328.5205714555578
 30
0.0
 11
1047.285332542548
 21
300.1205714555577
 31
0.0
  0
LINE
  5
109B
330
18
100
AcDbEntity
  8
握り
100
AcDbLine
 10
1044.632032710263
 20
328.5205714555578
 30
0.0
 11
1044.632032710263
 21
300.1205714555577
 31
0.0
  0
LINE
  5
109C
330
18
100
AcDbEntity
  8
握り
100
AcDbLine
 10
1037.285332542548
 20
328.5205714555578
 30
0.0
 11
1037.285332542548
 21
300.1205714555577
 31
0.0
  0
LINE
  5
109D
330
18
100
AcDbEntity
  8
握り
100
AcDbLine
 10
1034.632032710263
 20
328.5205714555578
 30
0.0
 11
1034.632032710263
 21
300.1205714555577
 31
0.0
  0
LINE
  5
109E
330
18
100
AcDbEntity
  8
握り
100
AcDbLine
 10
1027.285332542548
 20
328.5205714555578
 30
0.0
 11
1027.285332542548
 21
300.1205714555577
 31
0.0
  0
LINE
  5
109F
330
18
100
AcDbEntity
  8
握り
100
AcDbLine
 10
1050.958682626406
 20
328.0205714555577
 30
0.0
 11
1050.958682626406
 21
300.6205714555577
 31
0.0
  0
LINE
  5
10A0
330
18
100
AcDbEntity
  8
握り
100
AcDbLine
 10
1017.285332542548
 20
300.1205714555577
 30
0.0
 11
1024.632032710263
 21
300.1205714555577
 31
0.0
  0
ARC
  5
10A1
330
18
100
AcDbEntity
  8
握り
100
AcDbCircle
 10
1005.958682626405
 20
300.8205714555578
 30
0.0
 40
1.5
100
AcDbArc
 50
207.8181392846543
 51
332.1818607153458
  0
ARC
  5
10A2
330
18
100
AcDbEntity
  8
握り
100
AcDbCircle
 10
995.9586826264056
 20
300.8205714555578
 30
0.0
 40
1.5
100
AcDbArc
 50
207.8181392846543
 51
332.1818607153458
  0
LINE
  5
10A3
330
18
100
AcDbEntity
  8
握り
100
AcDbLine
 10
997.2853325425479
 20
300.1205714555577
 30
0.0
 11
1004.632032710263
 21
300.1205714555577
 31
0.0
  0
LINE
  5
10A4
330
18
100
AcDbEntity
  8
握り
100
AcDbLine
 10
1007.285332542548
 20
300.1205714555577
 30
0.0
 11
1014.632032710263
 21
300.1205714555577
 31
0.0
  0
ARC
  5
10A5
330
18
100
AcDbEntity
  8
握り
100
AcDbCircle
 10
1015.958682626405
 20
300.8205714555578
 30
0.0
 40
1.5
100
AcDbArc
 50
207.8181392846543
 51
332.1818607153458
  0
LINE
  5
10A6
330
18
100
AcDbEntity
  8
握り
100
AcDbLine
 10
1037.285332542548
 20
300.1205714555577
 30
0.0
 11
1044.632032710263
 21
300.1205714555577
 31
0.0
  0
LINE
  5
10A7
330
18
100
AcDbEntity
  8
握り
100
AcDbLine
 10
1027.285332542547
 20
300.1205714555577
 30
0.0
 11
1034.632032710263
 21
300.1205714555577
 31
0.0
  0
ARC
  5
10A8
330
18
100
AcDbEntity
  8
握り
100
AcDbCircle
 10
1025.958682626406
 20
300.8205714555578
 30
0.0
 40
1.5
100
AcDbArc
 50
207.8181392846543
 51
332.1818607153458
  0
ARC
  5
10A9
330
18
100
AcDbEntity
  8
握り
100
AcDbCircle
 10
1035.958682626406
 20
300.8205714555578
 30
0.0
 40
1.5
100
AcDbArc
 50
207.8181392846543
 51
332.1818607153458
  0
LINE
  5
10AA
330
18
100
AcDbEntity
  8
握り
100
AcDbLine
 10
1047.285332542548
 20
300.1205714555577
 30
0.0
 11
1050.458682626405
 21
300.1205714555577
 31
0.0
  0
ARC
  5
10AB
330
18
100
AcDbEntity
  8
握り
100
AcDbCircle
 10
1045.958682626406
 20
300.8205714555578
 30
0.0
 40
1.5
100
AcDbArc
 50
207.8181392846543
 51
332.1818607153458
  0
ARC
  5
10AC
330
18
100
AcDbEntity
  8
握り
100
AcDbCircle
 10
1050.458682626405
 20
300.6205714555577
 30
0.0
 40
0.5
100
AcDbArc
 50
270.0
 51
0.0
  0
LINE
  5
10AD
330
18
100
AcDbEntity
  8
握り
100
AcDbLine
 10
1017.285332542548
 20
307.6672714555578
 30
0.0
 11
1024.632032710263
 21
307.6672714555578
 31
0.0
  0
LINE
  5
10AE
330
18
100
AcDbEntity
  8
握り
100
AcDbLine
 10
1017.285332542548
 20
320.9738714555578
 30
0.0
 11
1024.632032710263
 21
320.9738714555578
 31
0.0
  0
LINE
  5
10AF
330
18
100
AcDbEntity
  8
握り
100
AcDbLine
 10
1017.285332542548
 20
328.5205714555577
 30
0.0
 11
1024.632032710263
 21
328.5205714555577
 31
0.0
  0
LINE
  5
10B0
330
18
100
AcDbEntity
  8
握り
100
AcDbLine
 10
997.2853325425475
 20
307.6672714555577
 30
0.0
 11
1004.632032710263
 21
307.6672714555577
 31
0.0
  0
LINE
  5
10B1
330
18
100
AcDbEntity
  8
握り
100
AcDbLine
 10
1007.285332542548
 20
307.6672714555578
 30
0.0
 11
1014.632032710263
 21
307.6672714555578
 31
0.0
  0
LINE
  5
10B2
330
18
100
AcDbEntity
  8
握り
100
AcDbLine
 10
1004.632032710263
 20
328.5205714555578
 30
0.0
 11
1004.632032710263
 21
320.9738714555578
 31
0.0
  0
LINE
  5
10B3
330
18
100
AcDbEntity
  8
握り
100
AcDbLine
 10
997.2853325425479
 20
328.5205714555578
 30
0.0
 11
997.2853325425479
 21
320.9738714555578
 31
0.0
  0
LINE
  5
10B4
330
18
100
AcDbEntity
  8
握り
100
AcDbLine
 10
994.6320327102634
 20
328.5205714555578
 30
0.0
 11
994.6320327102636
 21
320.9738714555578
 31
0.0
  0
LINE
  5
10B5
330
18
100
AcDbEntity
  8
握り
100
AcDbLine
 10
997.2853325425479
 20
320.9738714555578
 30
0.0
 11
1004.632032710263
 21
320.9738714555578
 31
0.0
  0
LINE
  5
10B6
330
18
100
AcDbEntity
  8
握り
100
AcDbLine
 10
997.2853325425479
 20
328.5205714555578
 30
0.0
 11
1004.632032710263
 21
328.5205714555578
 31
0.0
  0
LINE
  5
10B7
330
18
100
AcDbEntity
  8
握り
100
AcDbLine
 10
1017.285332542548
 20
328.5205714555578
 30
0.0
 11
1017.285332542548
 21
320.9738714555578
 31
0.0
  0
LINE
  5
10B8
330
18
100
AcDbEntity
  8
握り
100
AcDbLine
 10
1014.632032710263
 20
328.5205714555578
 30
0.0
 11
1014.632032710263
 21
320.9738714555578
 31
0.0
  0
LINE
  5
10B9
330
18
100
AcDbEntity
  8
握り
100
AcDbLine
 10
1007.285332542548
 20
328.5205714555578
 30
0.0
 11
1007.285332542548
 21
320.9738714555578
 31
0.0
  0
LINE
  5
10BA
330
18
100
AcDbEntity
  8
握り
100
AcDbLine
 10
1007.285332542548
 20
320.9738714555578
 30
0.0
 11
1014.632032710263
 21
320.9738714555578
 31
0.0
  0
LINE
  5
10BB
330
18
100
AcDbEntity
  8
握り
100
AcDbLine
 10
1007.285332542548
 20
328.5205714555578
 30
0.0
 11
1014.632032710263
 21
328.5205714555577
 31
0.0
  0
LINE
  5
10BC
330
18
100
AcDbEntity
  8
握り
100
AcDbLine
 10
1024.632032710263
 20
318.3205714555577
 30
0.0
 11
1024.632032710263
 21
310.3205714555577
 31
0.0
  0
LINE
  5
10BD
330
18
100
AcDbEntity
  8
握り
100
AcDbLine
 10
1037.285332542548
 20
328.5205714555577
 30
0.0
 11
1044.632032710263
 21
328.5205714555577
 31
0.0
  0
LINE
  5
10BE
330
18
100
AcDbEntity
  8
握り
100
AcDbLine
 10
1024.632032710263
 20
328.5205714555578
 30
0.0
 11
1024.632032710263
 21
320.9738714555578
 31
0.0
  0
LINE
  5
10BF
330
18
100
AcDbEntity
  8
握り
100
AcDbLine
 10
1027.285332542547
 20
328.5205714555577
 30
0.0
 11
1034.632032710263
 21
328.5205714555577
 31
0.0
  0
LINE
  5
10C0
330
18
100
AcDbEntity
  8
握り
100
AcDbLine
 10
1047.285332542548
 20
328.5205714555577
 30
0.0
 11
1050.458682626405
 21
328.5205714555577
 31
0.0
  0
TEXT
  5
10C1
330
18
100
AcDbEntity
  8
文字
100
AcDbText
 10
1007.102771304485
 20
312.8897189660935
 30
0.0
 40
3.0
  1
LA-10
  7
STYLE3
100
AcDbText
  0
LINE
  5
10C2
102
{ACAD_REACTORS
330
1100
102
}
330
18
100
AcDbEntity
  8
ROGO
 62
     4
100
AcDbLine
 10
981.8864792658491
 20
315.8924177460186
 30
0.0
 11
984.1900482843993
 21
315.8924177460186
 31
0.0
  0
LINE
  5
10C3
102
{ACAD_REACTORS
330
10FF
330
1100
102
}
330
18
100
AcDbEntity
  8
ROGO
 62
     4
100
AcDbLine
 10
980.436121351431
 20
312.96116233901
 30
0.0
 11
1000.277803161465
 21
312.96116233901
 31
0.0
  0
LINE
  5
10C4
102
{ACAD_REACTORS
330
1100
102
}
330
18
100
AcDbEntity
  8
ROGO
 62
     4
100
AcDbLine
 10
981.8864792658491
 20
315.8924177460186
 30
0.0
 11
980.436121351431
 21
312.96116233901
 31
0.0
  0
SPLINE
  5
10C5
102
{ACAD_REACTORS
330
1100
102
}
330
18
100
AcDbEntity
  8
ROGO
 62
     4
100
AcDbSpline
210
0.0
220
0.0
230
1.0
 70
     8
 71
     3
 72
    18
 73
    14
 74
     0
 42
0.0000000001
 43
0.0000000001
 40
0.1087402787915014
 40
0.1087402787915014
 40
0.1087402787915014
 40
0.1087402787915014
 40
0.5992371417938475
 40
1.083176791562496
 40
1.448211145705696
 40
1.714037220764907
 40
2.164002567013297
 40
2.740236056362883
 40
3.395137510199602
 40
4.071816045172726
 40
4.784906178399433
 40
5.506895915094292
 40
6.060470601257719
 40
6.060470601257719
 40
6.060470601257719
 40
6.060470601257719
 10
984.1900482843993
 20
315.8924177460186
 30
0.0
 10
984.2638476238793
 20
315.8653715248076
 30
0.0
 10
984.4089732636659
 20
315.8081916800715
 30
0.0
 10
984.5860950287331
 20
315.6776883803695
 30
0.0
 10
984.6826895914828
 20
315.5270329844084
 30
0.0
 10
984.7756027465443
 20
315.3785890668329
 30
0.0
 10
984.7886057729885
 20
315.1656211608951
 30
0.0
 10
984.7673059372068
 20
314.8963781100784
 30
0.0
 10
984.6297961216695
 20
314.6154507707631
 30
0.0
 10
984.4090847801247
 20
314.3697407267604
 30
0.0
 10
984.1350562471347
 20
314.1730776119866
 30
0.0
 10
983.8460837069815
 20
314.0187021312789
 30
0.0
 10
983.6395260540477
 20
314.0171639589809
 30
0.0
 10
983.5498833156268
 20
314.0164964166507
 30
0.0
  0
LINE
  5
10C6
102
{ACAD_REACTORS
330
1100
102
}
330
18
100
AcDbEntity
  8
ROGO
 62
     4
100
AcDbLine
 10
983.5498833160684
 20
314.0164964166507
 30
0.0
 11
982.2761572182381
 21
314.0164964166507
 31
0.0
  0
LINE
  5
10C7
102
{ACAD_REACTORS
330
1100
102
}
330
18
100
AcDbEntity
  8
ROGO
 62
     4
100
AcDbLine
 10
982.7966747734775
 20
315.1669935871424
 30
0.0
 11
982.5709636358238
 21
314.6681054658775
 31
0.0
  0
SPLINE
  5
10C8
102
{ACAD_REACTORS
330
1100
102
}
330
18
100
AcDbEntity
  8
ROGO
 62
     4
100
AcDbSpline
210
0.0
220
0.0
230
1.0
 70
     8
 71
     3
 72
    15
 73
    11
 74
     9
 42
0.0000000001
 43
0.0000000001
 44
0.0000000001
 40
0.0
 40
0.0
 40
0.0
 40
0.0
 40
0.2199578613106558
 40
0.3202465475123651
 40
0.4340808827708152
 40
0.5116301246390283
 40
0.634275054953107
 40
0.7077360179240892
 40
0.8337709579493377
 40
0.875782631437913
 40
0.875782631437913
 40
0.875782631437913
 40
0.875782631437913
 10
983.3766562007594
 20
315.1669935871423
 30
0.0
 10
983.4592681079868
 20
315.1673719937743
 30
0.0
 10
983.5795465009269
 20
315.1679229330168
 30
0.0
 10
983.645319010019
 20
315.0191382131175
 30
0.0
 10
983.6158366354002
 20
314.9233440636355
 30
0.0
 10
983.5787748876512
 20
314.8249933289958
 30
0.0
 10
983.5132783854477
 20
314.7581625214681
 30
0.0
 10
983.4253724860264
 20
314.693793187701
 30
0.0
 10
983.3422972102326
 20
314.6860009916162
 30
0.0
 10
983.2882660688431
 20
314.6716845723958
 30
0.0
 10
983.2747582770297
 20
314.6681054658774
 30
0.0
 11
983.3766562007594
 21
315.1669935871423
 31
0.0
 11
983.590642016372
 21
315.1160865005139
 31
0.0
 11
983.6314013030506
 21
315.0244540765062
 31
0.0
 11
983.611021952678
 21
314.912458817847
 31
0.0
 11
983.5804526341524
 21
314.8411888965673
 31
0.0
 11
983.4989340607952
 21
314.7495564725595
 31
0.0
 11
983.437795423744
 21
314.7088308032568
 31
0.0
 11
983.3155175637083
 21
314.6782868832032
 31
0.0
 11
983.2747582770297
 21
314.6681054658774
 31
0.0
  0
LINE
  5
10C9
102
{ACAD_REACTORS
330
1100
102
}
330
18
100
AcDbEntity
  8
ROGO
 62
     4
100
AcDbLine
 10
983.3766562007594
 20
315.1669935871424
 30
0.0
 11
982.7966747734775
 21
315.1669935871424
 31
0.0
  0
LINE
  5
10CA
102
{ACAD_REACTORS
330
1100
102
}
330
18
100
AcDbEntity
  8
ROGO
 62
     4
100
AcDbLine
 10
983.2747582770299
 20
314.6681054658774
 30
0.0
 11
982.570963635824
 21
314.6681054658775
 31
0.0
  0
LINE
  5
10CB
102
{ACAD_REACTORS
330
1100
102
}
330
18
100
AcDbEntity
  8
ROGO
 62
     4
100
AcDbLine
 10
982.2761572182381
 20
314.0164964166507
 30
0.0
 11
981.7986941456259
 21
312.96116233901
 31
0.0
  0
LINE
  5
10CC
102
{ACAD_REACTORS
330
10FB
102
}
330
18
100
AcDbEntity
  8
ROGO
 62
     4
100
AcDbLine
 10
985.5509397032644
 20
315.8924177460186
 30
0.0
 11
984.6227512757501
 21
314.0164964166507
 31
0.0
  0
LINE
  5
10CD
102
{ACAD_REACTORS
330
10FB
102
}
330
18
100
AcDbEntity
  8
ROGO
 62
     4
100
AcDbLine
 10
988.0882013439558
 20
315.8924177460186
 30
0.0
 11
987.8755810643349
 21
315.4627001307441
 31
0.0
  0
LINE
  5
10CE
102
{ACAD_REACTORS
330
10FB
102
}
330
18
100
AcDbEntity
  8
ROGO
 62
     4
100
AcDbLine
 10
984.6227512757499
 20
314.0164964166507
 30
0.0
 11
987.1600129164413
 21
314.0164964166507
 31
0.0
  0
LINE
  5
10CF
102
{ACAD_REACTORS
330
10FB
102
}
330
18
100
AcDbEntity
  8
ROGO
 62
     4
100
AcDbLine
 10
986.5420604611664
 20
315.4627001307441
 30
0.0
 11
986.3758178239141
 21
315.1267143547668
 31
0.0
  0
LINE
  5
10D0
102
{ACAD_REACTORS
330
10FB
102
}
330
18
100
AcDbEntity
  8
ROGO
 62
     4
100
AcDbLine
 10
986.5420604611664
 20
315.4627001307441
 30
0.0
 11
987.8755810643349
 21
315.4627001307441
 31
0.0
  0
LINE
  5
10D1
102
{ACAD_REACTORS
330
10FB
102
}
330
18
100
AcDbEntity
  8
ROGO
 62
     4
100
AcDbLine
 10
986.3758178239141
 20
315.1267143547668
 30
0.0
 11
987.7093384270828
 21
315.1267143547668
 31
0.0
  0
LINE
  5
10D2
102
{ACAD_REACTORS
330
10FB
102
}
330
18
100
AcDbEntity
  8
ROGO
 62
     4
100
AcDbLine
 10
986.0391018978567
 20
314.4461924166507
 30
0.0
 11
987.3726225010253
 21
314.4461924166507
 31
0.0
  0
LINE
  5
10D3
102
{ACAD_REACTORS
330
10FB
102
}
330
18
100
AcDbEntity
  8
ROGO
 62
     4
100
AcDbLine
 10
986.2053515730231
 20
314.7821924166507
 30
0.0
 11
987.5388721761916
 21
314.7821924166508
 31
0.0
  0
LINE
  5
10D4
102
{ACAD_REACTORS
330
10FB
102
}
330
18
100
AcDbEntity
  8
ROGO
 62
     4
100
AcDbLine
 10
987.7093384270828
 20
315.1267143547668
 30
0.0
 11
987.5388721761916
 21
314.7821924166507
 31
0.0
  0
LINE
  5
10D5
102
{ACAD_REACTORS
330
10FB
102
}
330
18
100
AcDbEntity
  8
ROGO
 62
     4
100
AcDbLine
 10
987.3726225010253
 20
314.4461924166507
 30
0.0
 11
987.1600129164413
 21
314.0164964166507
 31
0.0
  0
LINE
  5
10D6
102
{ACAD_REACTORS
330
10FB
102
}
330
18
100
AcDbEntity
  8
ROGO
 62
     4
100
AcDbLine
 10
986.2053515730231
 20
314.7821924166507
 30
0.0
 11
986.0391018978567
 21
314.4461924166507
 31
0.0
  0
LINE
  5
10D7
102
{ACAD_REACTORS
330
1104
102
}
330
18
100
AcDbEntity
  8
ROGO
 62
     4
100
AcDbLine
 10
988.8231931513811
 20
315.8924177460186
 30
0.0
 11
987.470429822668
 21
314.0164964166507
 31
0.0
  0
LINE
  5
10D8
102
{ACAD_REACTORS
330
1104
102
}
330
18
100
AcDbEntity
  8
ROGO
 62
     4
100
AcDbLine
 10
989.5005186608548
 20
315.3909763503731
 30
0.0
 11
989.0385661804073
 21
314.7503716763462
 31
0.0
  0
LINE
  5
10D9
102
{ACAD_REACTORS
330
1104
102
}
330
18
100
AcDbEntity
  8
ROGO
 62
     4
100
AcDbLine
 10
988.7669122359143
 20
314.3736602310661
 30
0.0
 11
989.9524507913206
 21
314.3736602310661
 31
0.0
  0
LINE
  5
10DA
102
{ACAD_REACTORS
330
1104
102
}
330
18
100
AcDbEntity
  8
ROGO
 62
     4
100
AcDbLine
 10
989.0385661804074
 20
314.7503716763462
 30
0.0
 11
989.7851006404625
 21
314.7503716763462
 31
0.0
  0
LINE
  5
10DB
102
{ACAD_REACTORS
330
1104
102
}
330
18
100
AcDbEntity
  8
ROGO
 62
     4
100
AcDbLine
 10
988.7669122359143
 20
314.3736602310661
 30
0.0
 11
988.5093544679417
 21
314.0164964166508
 31
0.0
  0
LINE
  5
10DC
102
{ACAD_REACTORS
330
1104
102
}
330
18
100
AcDbEntity
  8
ROGO
 62
     4
100
AcDbLine
 10
987.470429822668
 20
314.0164964166507
 30
0.0
 11
988.5093544679417
 21
314.0164964166507
 31
0.0
  0
LINE
  5
10DD
102
{ACAD_REACTORS
330
1104
102
}
330
18
100
AcDbEntity
  8
ROGO
 62
     4
100
AcDbLine
 10
988.8231931513811
 20
315.8924177460186
 30
0.0
 11
990.3237695553402
 21
315.8924177460186
 31
0.0
  0
LINE
  5
10DE
102
{ACAD_REACTORS
330
1104
102
}
330
18
100
AcDbEntity
  8
ROGO
 62
     4
100
AcDbLine
 10
991.1571281416021
 20
314.0164964166508
 30
0.0
 11
990.1111171099904
 21
314.0164964166507
 31
0.0
  0
LINE
  5
10DF
102
{ACAD_REACTORS
330
10FC
102
}
330
18
100
AcDbEntity
  8
ROGO
 62
     4
100
AcDbLine
 10
991.6708701630389
 20
314.0164964166507
 30
0.0
 11
993.2866258987598
 21
314.0164964166507
 31
0.0
  0
LINE
  5
10E0
102
{ACAD_REACTORS
330
10FC
102
}
330
18
100
AcDbEntity
  8
ROGO
 62
     4
100
AcDbLine
 10
994.2220208602014
 20
315.8924177460186
 30
0.0
 11
993.8739932880006
 21
315.1944533857088
 31
0.0
  0
LINE
  5
10E1
102
{ACAD_REACTORS
330
10FC
102
}
330
18
100
AcDbEntity
  8
ROGO
 62
     4
100
AcDbLine
 10
992.700040540356
 20
315.1944533857088
 30
0.0
 11
993.8739932880006
 21
315.1944533857088
 31
0.0
  0
LINE
  5
10E2
102
{ACAD_REACTORS
330
10FC
102
}
330
18
100
AcDbEntity
  8
ROGO
 62
     4
100
AcDbLine
 10
992.4351054699121
 20
314.7144533857087
 30
0.0
 11
993.6346497854438
 21
314.7144533857087
 31
0.0
  0
SPLINE
  5
10E3
102
{ACAD_REACTORS
330
10FC
102
}
330
18
100
AcDbEntity
  8
ROGO
 62
     4
100
AcDbSpline
210
0.0
220
0.0
230
1.0
 70
     8
 71
     3
 72
    26
 73
    22
 74
    20
 42
0.0000000001
 43
0.0000000001
 44
0.0000000001
 40
0.0
 40
0.0
 40
0.0
 40
0.0
 40
0.3403136209417982
 40
0.5681272389515159
 40
0.7323994099697078
 40
0.8550561247337057
 40
1.014148321321447
 40
1.13027011535643
 40
1.339959009791999
 40
1.510642755247373
 40
1.626735051276186
 40
1.740569491433665
 40
1.944197174100541
 40
2.088186249714737
 40
2.16573549158295
 40
2.275891898886404
 40
2.355438312276705
 40
2.470674802865115
 40
2.535888688806235
 40
2.677801419664453
 40
2.742600005358966
 40
2.742600005358966
 40
2.742600005358966
 40
2.742600005358966
 10
992.3433975143355
 20
315.8924177460186
 30
0.0
 10
992.2278898132516
 20
315.885526358497
 30
0.0
 10
992.0350586503003
 20
315.8740217206446
 30
0.0
 10
991.8233312064263
 20
315.7453995722754
 30
0.0
 10
991.6682072858403
 20
315.6706243075006
 30
0.0
 10
991.5575730938057
 20
315.5689737054725
 30
0.0
 10
991.4764777825665
 20
315.4639760590135
 30
0.0
 10
991.3742419187125
 20
315.33887213312
 30
0.0
 10
991.2908714931331
 20
315.193193673885
 30
0.0
 10
991.2484160037998
 20
315.0326306152231
 30
0.0
 10
991.2108093342945
 20
314.9046609258533
 30
0.0
 10
991.1829195986189
 20
314.7620554074355
 30
0.0
 10
991.1900155369227
 20
314.6079912815464
 30
0.0
 10
991.2001772453292
 20
314.4649044086839
 30
0.0
 10
991.245546802364
 20
314.3627618045031
 30
0.0
 10
991.2972146914922
 20
314.2900433088895
 30
0.0
 10
991.3604813141422
 20
314.2099519478914
 30
0.0
 10
991.4297088345959
 20
314.1569076988483
 30
0.0
 10
991.4869656447535
 20
314.0608144772188
 30
0.0
 10
991.5871917594143
 20
314.04855228911
 30
0.0
 10
991.6508994652369
 20
314.0241468750001
 30
0.0
 10
991.670870163039
 20
314.0164964166507
 30
0.0
 11
992.3433975143355
 21
315.8924177460186
 31
0.0
 11
992.007133838687
 21
315.840071771599
 31
0.0
 11
991.8033374052942
 21
315.7382579302656
 31
0.0
 11
991.6606801948859
 21
315.6568069235835
 31
0.0
 11
991.5689722393091
 21
315.575355584978
 31
0.0
 11
991.4670743155793
 21
315.4531789089932
 31
0.0
 11
991.3957457103753
 21
315.3615464849855
 31
0.0
 11
991.2938472007121
 21
315.1782813050466
 31
0.0
 11
991.242898531814
 21
315.0153789597591
 31
0.0
 11
991.2123292132884
 21
314.9033837010999
 31
0.0
 11
991.1919492769824
 21
314.7913884424408
 31
0.0
 11
991.1919492769824
 21
314.5877607597739
 31
0.0
 11
991.2123292132884
 21
314.4452212491378
 31
0.0
 11
991.242898531814
 21
314.3739513278581
 31
0.0
 11
991.304037168865
 21
314.2823189038502
 31
0.0
 11
991.3549864236967
 21
314.2212303998961
 31
0.0
 11
991.4365044111203
 21
314.139779393214
 31
0.0
 11
991.4772636977989
 21
314.0888723065856
 31
0.0
 11
991.6097315259877
 21
314.0379655518807
 31
0.0
 11
991.670870163039
 21
314.0164964166507
 31
0.0
  0
SPLINE
  5
10E4
102
{ACAD_REACTORS
330
10FC
102
}
330
18
100
AcDbEntity
  8
ROGO
 62
     4
100
AcDbSpline
210
0.0
220
0.0
230
1.0
 70
     8
 71
     3
 72
    16
 73
    12
 74
    10
 42
0.0000000001
 43
0.0000000001
 44
0.0000000001
 40
0.0
 40
0.0
 40
0.0
 40
0.0
 40
0.1794152893756658
 40
0.2670467197814556
 40
0.3102605435414121
 40
0.3558008766977565
 40
0.4210145035340276
 40
0.4803947587045229
 40
0.5423269814405317
 40
0.646160827944346
 40
0.7489346372632694
 40
0.7489346372632694
 40
0.7489346372632694
 40
0.7489346372632694
 10
992.7000405403562
 20
315.1944533857088
 30
0.0
 10
992.6392823866112
 20
315.1851903952744
 30
0.0
 10
992.5488482563091
 20
315.1714031020093
 30
0.0
 10
992.4670686114653
 20
315.1066672349013
 30
0.0
 10
992.4209505698591
 20
315.0681537030206
 30
0.0
 10
992.4052610066429
 20
315.0171508541889
 30
0.0
 10
992.3631237668415
 20
314.9779884955665
 30
0.0
 10
992.3283906955886
 20
314.9241668088292
 30
0.0
 10
992.3200972255001
 20
314.8502418503162
 30
0.0
 10
992.3261848224255
 20
314.7464994372628
 30
0.0
 10
992.3989229860955
 20
314.7250988029782
 30
0.0
 10
992.4351054699123
 20
314.7144533857087
 30
0.0
 11
992.7000405403562
 21
315.1944533857088
 31
0.0
 11
992.5268140114223
 21
315.1477370530695
 31
0.0
 11
992.4554854062181
 21
315.0968302983645
 31
0.0
 11
992.4249160876925
 21
315.0662860463874
 31
0.0
 11
992.4045361513867
 21
315.0255603770847
 31
0.0
 11
992.3637768647081
 21
314.9746536223797
 31
0.0
 11
992.3332075461823
 21
314.9237465357513
 31
0.0
 11
992.3230175780293
 21
314.8626583637205
 31
0.0
 11
992.3433975143353
 21
314.7608441904639
 31
0.0
 11
992.4351054699123
 21
314.7144533857087
 31
0.0
  0
LINE
  5
10E5
102
{ACAD_REACTORS
330
10FC
102
}
330
18
100
AcDbEntity
  8
ROGO
 62
     4
100
AcDbLine
 10
993.6346497854438
 20
314.7144533857087
 30
0.0
 11
993.2866258987598
 21
314.0164964166507
 31
0.0
  0
LINE
  5
10E6
102
{ACAD_REACTORS
330
10FC
102
}
330
18
100
AcDbEntity
  8
ROGO
 62
     4
100
AcDbLine
 10
992.343397514336
 20
315.8924177460186
 30
0.0
 11
994.2220208602016
 21
315.8924177460186
 31
0.0
  0
LINE
  5
10E7
102
{ACAD_REACTORS
330
10FD
102
}
330
18
100
AcDbEntity
  8
ROGO
 62
     4
100
AcDbLine
 10
997.7152555500786
 20
314.0164964166507
 30
0.0
 11
999.3310112857995
 21
314.0164964166507
 31
0.0
  0
LINE
  5
10E8
102
{ACAD_REACTORS
330
10FD
102
}
330
18
100
AcDbEntity
  8
ROGO
 62
     4
100
AcDbLine
 10
998.3877829013758
 20
315.8924177460186
 30
0.0
 11
1000.266406247241
 21
315.8924177460186
 31
0.0
  0
SPLINE
  5
10E9
102
{ACAD_REACTORS
330
10FD
102
}
330
18
100
AcDbEntity
  8
ROGO
 62
     4
100
AcDbSpline
210
0.0
220
0.0
230
1.0
 70
     8
 71
     3
 72
    16
 73
    12
 74
    10
 42
0.0000000001
 43
0.0000000001
 44
0.0000000001
 40
0.0
 40
0.0
 40
0.0
 40
0.0
 40
0.1794152893756658
 40
0.2670467197815217
 40
0.3102605435413978
 40
0.3558008766977931
 40
0.4210145035340376
 40
0.4803947587045328
 40
0.5423269814405045
 40
0.6461608279444525
 40
0.7489346372632488
 40
0.7489346372632488
 40
0.7489346372632488
 40
0.7489346372632488
 10
998.744425927396
 20
315.1944533857088
 30
0.0
 10
998.683667773651
 20
315.1851903952745
 30
0.0
 10
998.5932336433487
 20
315.1714031020095
 30
0.0
 10
998.5114539985051
 20
315.1066672349013
 30
0.0
 10
998.4653359568987
 20
315.0681537030205
 30
0.0
 10
998.4496463936824
 20
315.017150854189
 30
0.0
 10
998.4075091538814
 20
314.9779884955664
 30
0.0
 10
998.3727760826281
 20
314.9241668088292
 30
0.0
 10
998.3644826125402
 20
314.8502418503162
 30
0.0
 10
998.3705702094653
 20
314.7464994372628
 30
0.0
 10
998.4433083731351
 20
314.7250988029781
 30
0.0
 10
998.479490856952
 20
314.7144533857087
 30
0.0
 11
998.744425927396
 21
315.1944533857088
 31
0.0
 11
998.5711993984621
 21
315.1477370530695
 31
0.0
 11
998.4998707932579
 21
315.0968302983644
 31
0.0
 11
998.4693014747325
 21
315.0662860463874
 31
0.0
 11
998.4489215384263
 21
315.0255603770847
 31
0.0
 11
998.4081622517479
 21
314.9746536223797
 31
0.0
 11
998.3775929332223
 21
314.9237465357513
 31
0.0
 11
998.3674029650691
 21
314.8626583637205
 31
0.0
 11
998.3877829013751
 21
314.7608441904637
 31
0.0
 11
998.479490856952
 21
314.7144533857087
 31
0.0
  0
SPLINE
  5
10EA
102
{ACAD_REACTORS
330
10FD
102
}
330
18
100
AcDbEntity
  8
ROGO
 62
     4
100
AcDbSpline
210
0.0
220
0.0
230
1.0
 70
     8
 71
     3
 72
    26
 73
    22
 74
    20
 42
0.0000000001
 43
0.0000000001
 44
0.0000000001
 40
0.0
 40
0.0
 40
0.0
 40
0.0
 40
0.3403136209416859
 40
0.5681272389515052
 40
0.7323994099695983
 40
0.8550561247335963
 40
1.014148321321381
 40
1.13027011535639
 40
1.339959009792003
 40
1.510642755247356
 40
1.626735051276114
 40
1.740569491433573
 40
1.94419717410045
 40
2.088186249714629
 40
2.165735491582895
 40
2.275891898886364
 40
2.355438312276665
 40
2.470674802864995
 40
2.535888688806186
 40
2.677801419664424
 40
2.74260000535881
 40
2.74260000535881
 40
2.74260000535881
 40
2.74260000535881
 10
998.3877829013751
 20
315.8924177460186
 30
0.0
 10
998.2722752002914
 20
315.885526358497
 30
0.0
 10
998.0794440373399
 20
315.8740217206445
 30
0.0
 10
997.8677165934664
 20
315.7453995722756
 30
0.0
 10
997.7125926728799
 20
315.6706243075005
 30
0.0
 10
997.6019584808456
 20
315.5689737054727
 30
0.0
 10
997.5208631696061
 20
315.4639760590134
 30
0.0
 10
997.4186273057528
 20
315.3388721331201
 30
0.0
 10
997.3352568801727
 20
315.1931936738848
 30
0.0
 10
997.2928013908399
 20
315.0326306152231
 30
0.0
 10
997.2551947213341
 20
314.9046609258531
 30
0.0
 10
997.2273049856585
 20
314.7620554074355
 30
0.0
 10
997.2344009239632
 20
314.6079912815466
 30
0.0
 10
997.244562632369
 20
314.4649044086839
 30
0.0
 10
997.2899321894034
 20
314.362761804503
 30
0.0
 10
997.341600078532
 20
314.2900433088896
 30
0.0
 10
997.4048667011819
 20
314.2099519478914
 30
0.0
 10
997.4740942216355
 20
314.1569076988482
 30
0.0
 10
997.5313510317933
 20
314.0608144772189
 30
0.0
 10
997.6315771464539
 20
314.0485522891099
 30
0.0
 10
997.6952848522767
 20
314.024146875
 30
0.0
 10
997.7152555500786
 20
314.0164964166507
 30
0.0
 11
998.3877829013751
 21
315.8924177460186
 31
0.0
 11
998.051519225727
 21
315.840071771599
 31
0.0
 11
997.847722792334
 21
315.7382579302656
 31
0.0
 11
997.7050655819256
 21
315.6568069235835
 31
0.0
 11
997.6133576263489
 21
315.575355584978
 31
0.0
 11
997.5114597026193
 21
315.4531789089932
 31
0.0
 11
997.4401310974149
 21
315.3615464849855
 31
0.0
 11
997.3382325877519
 21
315.1782813050465
 31
0.0
 11
997.2872839188536
 21
315.015378959759
 31
0.0
 11
997.2567146003282
 21
314.9033837010999
 31
0.0
 11
997.2363346640221
 21
314.7913884424408
 31
0.0
 11
997.2363346640221
 21
314.5877607597739
 31
0.0
 11
997.2567146003282
 21
314.4452212491378
 31
0.0
 11
997.2872839188536
 21
314.373951327858
 31
0.0
 11
997.3484225559047
 21
314.2823189038502
 31
0.0
 11
997.3993718107365
 21
314.2212303998961
 31
0.0
 11
997.4808897981601
 21
314.139779393214
 31
0.0
 11
997.5216490848389
 21
314.0888723065856
 31
0.0
 11
997.6541169130275
 21
314.0379655518806
 31
0.0
 11
997.7152555500786
 21
314.0164964166507
 31
0.0
  0
LINE
  5
10EB
102
{ACAD_REACTORS
330
10FD
102
}
330
18
100
AcDbEntity
  8
ROGO
 62
     4
100
AcDbLine
 10
999.6790351724836
 20
314.7144533857087
 30
0.0
 11
999.3310112857995
 21
314.0164964166507
 31
0.0
  0
LINE
  5
10EC
102
{ACAD_REACTORS
330
10FD
102
}
330
18
100
AcDbEntity
  8
ROGO
 62
     4
100
AcDbLine
 10
998.4794908569519
 20
314.7144533857087
 30
0.0
 11
999.6790351724836
 21
314.7144533857087
 31
0.0
  0
LINE
  5
10ED
102
{ACAD_REACTORS
330
10FD
102
}
330
18
100
AcDbEntity
  8
ROGO
 62
     4
100
AcDbLine
 10
998.7444259273958
 20
315.1944533857088
 30
0.0
 11
999.9183786750405
 21
315.1944533857088
 31
0.0
  0
LINE
  5
10EE
102
{ACAD_REACTORS
330
10FD
102
}
330
18
100
AcDbEntity
  8
ROGO
 62
     4
100
AcDbLine
 10
1000.266406247241
 20
315.8924177460186
 30
0.0
 11
999.9183786750405
 21
315.1944533857088
 31
0.0
  0
LINE
  5
10EF
102
{ACAD_REACTORS
330
10FF
102
}
330
18
100
AcDbEntity
  8
ROGO
 62
     4
100
AcDbLine
 10
1000.659302145987
 20
315.8924177460186
 30
0.0
 11
1001.739421778136
 21
315.8924177460186
 31
0.0
  0
LINE
  5
10F0
102
{ACAD_REACTORS
330
10FF
102
}
330
18
100
AcDbEntity
  8
ROGO
 62
     4
100
AcDbLine
 10
1000.659302145987
 20
315.8924177460186
 30
0.0
 11
999.1976835293161
 21
312.96116233901
 31
0.0
  0
LINE
  5
10F1
102
{ACAD_REACTORS
330
10FF
102
}
330
18
100
AcDbEntity
  8
ROGO
 62
     4
100
AcDbLine
 10
1001.739421778136
 20
315.8924177460186
 30
0.0
 11
1001.579842768249
 21
315.5723843048448
 31
0.0
  0
LINE
  5
10F2
102
{ACAD_REACTORS
330
10FF
102
}
330
18
100
AcDbEntity
  8
ROGO
 62
     4
100
AcDbLine
 10
1001.579842768249
 20
315.5723843048448
 30
0.0
 11
1002.085575744076
 21
315.8924177460186
 31
0.0
  0
LINE
  5
10F3
102
{ACAD_REACTORS
330
10FF
102
}
330
18
100
AcDbEntity
  8
ROGO
 62
     4
100
AcDbLine
 10
1000.659302145987
 20
313.7262531420379
 30
0.0
 11
1001.04080113051
 21
312.96116233901
 31
0.0
  0
LINE
  5
10F4
102
{ACAD_REACTORS
330
10FF
102
}
330
18
100
AcDbEntity
  8
ROGO
 62
     4
100
AcDbLine
 10
1001.390087822174
 20
314.4267900425143
 30
0.0
 11
1002.12089713051
 21
312.96116233901
 31
0.0
  0
LINE
  5
10F5
102
{ACAD_REACTORS
330
10FF
102
}
330
18
100
AcDbEntity
  8
ROGO
 62
     4
100
AcDbLine
 10
1000.659302145987
 20
313.7262531420379
 30
0.0
 11
1000.277803161465
 21
312.96116233901
 31
0.0
  0
LINE
  5
10F6
102
{ACAD_REACTORS
330
10FF
102
}
330
18
100
AcDbEntity
  8
ROGO
 62
     4
100
AcDbLine
 10
1001.390087822174
 20
314.4267900425143
 30
0.0
 11
1003.165671744076
 21
315.8924177460186
 31
0.0
  0
LINE
  5
10F7
102
{ACAD_REACTORS
330
10FF
102
}
330
18
100
AcDbEntity
  8
ROGO
 62
     4
100
AcDbLine
 10
1002.085575744076
 20
315.8924177460186
 30
0.0
 11
1003.165671744076
 21
315.8924177460186
 31
0.0
  0
LINE
  5
10F8
102
{ACAD_REACTORS
330
10FF
102
}
330
18
100
AcDbEntity
  8
ROGO
 62
     4
100
AcDbLine
 10
1001.04080113051
 20
312.96116233901
 30
0.0
 11
1002.12089713051
 21
312.96116233901
 31
0.0
  0
LINE
  5
10F9
102
{ACAD_REACTORS
330
10FB
102
}
330
18
100
AcDbEntity
  8
ROGO
 62
     4
100
AcDbLine
 10
985.5509397032644
 20
315.8924177460186
 30
0.0
 11
988.0882013439558
 21
315.8924177460186
 31
0.0
  0
LINE
  5
10FA
330
18
100
AcDbEntity
  8
ROGO
 62
     4
100
AcDbLine
 10
981.9112478434908
 20
313.2549769194261
 30
0.0
 11
999.344188968439
 21
313.2549769194261
 31
0.0
  0
HATCH
  5
10FB
330
18
100
AcDbEntity
  8
ROGO
 62
     4
100
AcDbHatch
 10
0.0
 20
0.0
 30
0.0
210
0.0
220
0.0
230
1.0
  2
SOLID
 70
     1
 71
     1
 91
        1
 92
        1
 93
       12
 72
     1
 10
985.5509397032644
 20
315.8924177460186
 11
988.0882013439558
 21
315.8924177460186
 72
     1
 10
988.0882013439558
 20
315.8924177460186
 11
987.8755810643349
 21
315.4627001307441
 72
     1
 10
987.8755810643349
 20
315.4627001307441
 11
986.5420604611664
 21
315.4627001307441
 72
     1
 10
986.5420604611664
 20
315.4627001307441
 11
986.3758178239141
 21
315.1267143547668
 72
     1
 10
986.3758178239141
 20
315.1267143547668
 11
987.7093384270828
 21
315.1267143547668
 72
     1
 10
987.7093384270828
 20
315.1267143547668
 11
987.5388721761916
 21
314.7821924166507
 72
     1
 10
987.5388721761916
 20
314.7821924166508
 11
986.2053515730231
 21
314.7821924166507
 72
     1
 10
986.2053515730231
 20
314.7821924166507
 11
986.0391018978567
 21
314.4461924166507
 72
     1
 10
986.0391018978567
 20
314.4461924166507
 11
987.3726225010253
 21
314.4461924166507
 72
     1
 10
987.3726225010253
 20
314.4461924166507
 11
987.1600129164413
 21
314.0164964166507
 72
     1
 10
987.1600129164413
 20
314.0164964166507
 11
984.6227512757499
 21
314.0164964166507
 72
     1
 10
984.6227512757501
 20
314.0164964166507
 11
985.5509397032644
 21
315.8924177460186
 97
       12
330
10F9
330
10CD
330
10D0
330
10CF
330
10D1
330
10D4
330
10D3
330
10D6
330
10D2
330
10D5
330
10CE
330
10CC
 75
     0
 76
     1
 98
        1
 10
881.7650411622516
 20
186.1808519630024
450
        0
451
        0
460
0.0
461
0.0
452
        0
462
0.0
453
        0
470

  0
HATCH
  5
10FC
330
18
100
AcDbEntity
  8
ROGO
 62
     4
100
AcDbHatch
 10
0.0
 20
0.0
 30
0.0
210
0.0
220
0.0
230
1.0
  2
SOLID
 70
     1
 71
     1
 91
        1
 92
        5
 93
        8
 72
     1
 10
993.8739932880009
 20
315.1944533857088
 11
994.2220208602014
 21
315.8924177460186
 72
     1
 10
994.2220208602014
 20
315.8924177460186
 11
992.3433975143355
 21
315.8924177460186
 72
     4
 94
        3
 73
     0
 74
     0
 95
       26
 96
       22
 40
0.0
 40
0.0
 40
0.0
 40
0.0
 40
0.3403136209417982
 40
0.5681272389515159
 40
0.7323994099697078
 40
0.8550561247337057
 40
1.014148321321447
 40
1.13027011535643
 40
1.339959009791999
 40
1.510642755247373
 40
1.626735051276186
 40
1.740569491433665
 40
1.944197174100541
 40
2.088186249714737
 40
2.16573549158295
 40
2.275891898886404
 40
2.355438312276705
 40
2.470674802865115
 40
2.535888688806235
 40
2.677801419664453
 40
2.742600005358966
 40
2.742600005358966
 40
2.742600005358966
 40
2.742600005358966
 10
992.3433975143355
 20
315.8924177460186
 10
992.2278898132516
 20
315.885526358497
 10
992.0350586503001
 20
315.8740217206446
 10
991.8233312064266
 20
315.7453995722754
 10
991.6682072858401
 20
315.6706243075006
 10
991.5575730938058
 20
315.5689737054725
 10
991.4764777825665
 20
315.4639760590135
 10
991.3742419187128
 20
315.33887213312
 10
991.2908714931329
 20
315.193193673885
 10
991.2484160037998
 20
315.0326306152231
 10
991.2108093342945
 20
314.9046609258533
 10
991.1829195986189
 20
314.7620554074355
 10
991.1900155369229
 20
314.6079912815464
 10
991.2001772453294
 20
314.4649044086839
 10
991.2455468023638
 20
314.3627618045031
 10
991.2972146914922
 20
314.2900433088895
 10
991.3604813141422
 20
314.2099519478914
 10
991.4297088345957
 20
314.1569076988483
 10
991.4869656447535
 20
314.0608144772188
 10
991.5871917594143
 20
314.04855228911
 10
991.6508994652369
 20
314.0241468750001
 10
991.670870163039
 20
314.0164964166507
 72
     1
 10
991.670870163039
 20
314.0164964166507
 11
993.28662589876
 21
314.0164964166508
 72
     1
 10
993.28662589876
 20
314.0164964166508
 11
993.6346497854438
 21
314.7144533857087
 72
     1
 10
993.6346497854438
 20
314.7144533857087
 11
992.4351054699121
 21
314.7144533857087
 72
     4
 94
        3
 73
     0
 74
     0
 95
       16
 96
       12
 40
0.0
 40
0.0
 40
0.0
 40
0.0
 40
0.1027738093189234
 40
0.2066076558227377
 40
0.2685398785587465
 40
0.3279201337292418
 40
0.3931337605655129
 40
0.4386740937218573
 40
0.4818879174818138
 40
0.5695193478876036
 40
0.7489346372632694
 40
0.7489346372632694
 40
0.7489346372632694
 40
0.7489346372632694
 10
992.4351054699123
 20
314.7144533857087
 10
992.3989229860955
 20
314.7250988029782
 10
992.3261848224253
 20
314.7464994372628
 10
992.3200972255003
 20
314.8502418503162
 10
992.3283906955886
 20
314.9241668088292
 10
992.3631237668415
 20
314.9779884955665
 10
992.4052610066429
 20
315.0171508541889
 10
992.4209505698591
 20
315.0681537030206
 10
992.4670686114652
 20
315.1066672349013
 10
992.5488482563093
 20
315.1714031020093
 10
992.6392823866112
 20
315.1851903952744
 10
992.7000405403562
 20
315.1944533857088
 72
     1
 10
992.7000405403562
 20
315.1944533857087
 11
993.8739932880009
 21
315.1944533857088
 97
        8
330
10E6
330
10E3
330
10DF
330
10E5
330
10E2
330
10E4
330
10E1
330
10E0
 75
     0
 76
     1
 47
0.0514683685270805
 98
        1
 10
993.0004216532024
 20
315.4748156655229
450
        0
451
        0
460
0.0
461
0.0
452
        0
462
0.0
453
        0
470

  0
HATCH
  5
10FD
330
18
100
AcDbEntity
  8
ROGO
 62
     4
100
AcDbHatch
 10
0.0
 20
0.0
 30
0.0
210
0.0
220
0.0
230
1.0
  2
SOLID
 70
     1
 71
     1
 91
        1
 92
        5
 93
        8
 72
     4
 94
        3
 73
     0
 74
     0
 95
       26
 96
       22
 40
0.0
 40
0.0
 40
0.0
 40
0.0
 40
0.3403136209416859
 40
0.5681272389515052
 40
0.7323994099695983
 40
0.8550561247335963
 40
1.014148321321381
 40
1.13027011535639
 40
1.339959009792003
 40
1.510642755247356
 40
1.626735051276114
 40
1.740569491433573
 40
1.94419717410045
 40
2.088186249714629
 40
2.165735491582895
 40
2.275891898886364
 40
2.355438312276665
 40
2.470674802864995
 40
2.535888688806186
 40
2.677801419664424
 40
2.74260000535881
 40
2.74260000535881
 40
2.74260000535881
 40
2.74260000535881
 10
998.3877829013751
 20
315.8924177460186
 10
998.2722752002914
 20
315.885526358497
 10
998.0794440373401
 20
315.8740217206445
 10
997.8677165934662
 20
315.7453995722756
 10
997.7125926728801
 20
315.6706243075005
 10
997.6019584808456
 20
315.5689737054727
 10
997.5208631696061
 20
315.4639760590134
 10
997.4186273057526
 20
315.3388721331201
 10
997.3352568801727
 20
315.1931936738848
 10
997.2928013908397
 20
315.0326306152231
 10
997.2551947213341
 20
314.9046609258531
 10
997.2273049856589
 20
314.7620554074355
 10
997.234400923963
 20
314.6079912815466
 10
997.2445626323692
 20
314.4649044086839
 10
997.2899321894034
 20
314.362761804503
 10
997.341600078532
 20
314.2900433088896
 10
997.4048667011819
 20
314.2099519478914
 10
997.4740942216353
 20
314.1569076988482
 10
997.5313510317937
 20
314.0608144772189
 10
997.6315771464539
 20
314.0485522891099
 10
997.6952848522767
 20
314.024146875
 10
997.7152555500786
 20
314.0164964166507
 72
     1
 10
997.7152555500788
 20
314.0164964166507
 11
999.3310112857997
 21
314.0164964166507
 72
     1
 10
999.3310112857997
 20
314.0164964166507
 11
999.6790351724838
 21
314.7144533857087
 72
     1
 10
999.6790351724838
 20
314.7144533857087
 11
998.479490856952
 21
314.7144533857087
 72
     4
 94
        3
 73
     0
 74
     0
 95
       16
 96
       12
 40
0.0
 40
0.0
 40
0.0
 40
0.0
 40
0.1027738093187964
 40
0.2066076558227444
 40
0.268539878558716
 40
0.3279201337292112
 40
0.3931337605654557
 40
0.4386740937218511
 40
0.4818879174817272
 40
0.569519347887583
 40
0.7489346372632488
 40
0.7489346372632488
 40
0.7489346372632488
 40
0.7489346372632488
 10
998.479490856952
 20
314.7144533857087
 10
998.4433083731351
 20
314.7250988029781
 10
998.3705702094654
 20
314.7464994372628
 10
998.3644826125397
 20
314.8502418503162
 10
998.3727760826283
 20
314.9241668088292
 10
998.4075091538814
 20
314.9779884955664
 10
998.4496463936824
 20
315.017150854189
 10
998.4653359568987
 20
315.0681537030205
 10
998.5114539985049
 20
315.1066672349013
 10
998.593233643349
 20
315.1714031020095
 10
998.683667773651
 20
315.1851903952745
 10
998.744425927396
 20
315.1944533857088
 72
     1
 10
998.744425927396
 20
315.1944533857088
 11
999.9183786750405
 21
315.1944533857088
 72
     1
 10
999.9183786750405
 20
315.1944533857088
 11
1000.266406247241
 21
315.8924177460186
 72
     1
 10
1000.266406247241
 20
315.8924177460186
 11
998.3877829013751
 21
315.8924177460186
 97
        8
330
10E8
330
10EA
330
10E7
330
10EB
330
10EC
330
10E9
330
10ED
330
10EE
 75
     0
 76
     1
 47
0.0514683685270805
 98
        1
 10
998.7119506580679
 20
315.5489301700484
450
        0
451
        0
460
0.0
461
0.0
452
        0
462
0.0
453
        0
470

  0
HATCH
  5
10FE
330
18
100
AcDbEntity
  8
ROGO
 62
     4
100
AcDbHatch
 10
0.0
 20
0.0
 30
0.0
210
0.0
220
0.0
230
1.0
  2
SOLID
 70
     1
 71
     0
 91
        1
 92
        7
 72
     0
 73
     1
 93
        4
 10
981.9316241962287
 20
313.2549769194261
 10
981.7986941456258
 20
312.96116233901
 10
999.1976835293161
 20
312.96116233901
 10
999.3441889684392
 20
313.2549769194261
 97
        0
 75
     0
 76
     1
 47
0.0514683685270805
 98
        1
 10
992.9262459974976
 20
313.1772676848478
450
        0
451
        0
460
0.0
461
0.0
452
        0
462
0.0
453
        0
470

  0
HATCH
  5
10FF
330
18
100
AcDbEntity
  8
ROGO
 62
     4
100
AcDbHatch
 10
0.0
 20
0.0
 30
0.0
210
0.0
220
0.0
230
1.0
  2
SOLID
 70
     1
 71
     1
 91
        1
 92
        7
 72
     0
 73
     1
 93
       11
 10
999.1976835293161
 20
312.96116233901
 10
1000.277803161465
 20
312.96116233901
 10
1000.659302145987
 20
313.7262531420378
 10
1001.04080113051
 20
312.96116233901
 10
1002.12089713051
 20
312.9611623390101
 10
1001.390087822174
 20
314.4267900425144
 10
1003.165671744076
 20
315.8924177460186
 10
1002.085575744076
 20
315.8924177460186
 10
1001.579842768249
 20
315.5723843048449
 10
1001.739421778136
 20
315.8924177460186
 10
1000.659302145987
 20
315.8924177460186
 97
       11
330
10F7
330
10F2
330
10F1
330
10EF
330
10F0
330
10C3
330
10F5
330
10F3
330
10F8
330
10F4
330
10F6
 75
     0
 76
     1
 47
0.0514683685270805
 98
        1
 10
1000.566343222553
 20
314.6348520553879
450
        0
451
        0
460
0.0
461
0.0
452
        0
462
0.0
453
        0
470

  0
HATCH
  5
1100
330
18
100
AcDbEntity
  8
ROGO
 62
     4
100
AcDbHatch
 10
0.0
 20
0.0
 30
0.0
210
0.0
220
0.0
230
1.0
  2
SOLID
 70
     1
 71
     1
 91
        2
 92
        5
 93
        6
 72
     1
 10
980.4361213514308
 20
312.96116233901
 11
981.7986941456258
 21
312.96116233901
 72
     1
 10
981.7986941456258
 20
312.96116233901
 11
982.2761572182381
 21
314.0164964166507
 72
     1
 10
982.2761572182381
 20
314.0164964166507
 11
983.5498833156272
 21
314.0164964166508
 72
     4
 94
        3
 73
     0
 74
     0
 95
       18
 96
       14
 40
0.108740278791501
 40
0.108740278791501
 40
0.108740278791501
 40
0.108740278791501
 40
0.6623149649549278
 40
1.384304701649787
 40
2.097394834876493
 40
2.774073369849618
 40
3.428974823686337
 40
4.005208313035923
 40
4.455173659284313
 40
4.720999734343524
 40
5.086034088486724
 40
5.569973738255373
 40
6.060470601257719
 40
6.060470601257719
 40
6.060470601257719
 40
6.060470601257719
 10
983.5498833156268
 20
314.0164964166507
 10
983.6395260540477
 20
314.0171639589809
 10
983.8460837069815
 20
314.0187021312789
 10
984.1350562471347
 20
314.1730776119866
 10
984.4090847801247
 20
314.3697407267604
 10
984.6297961216695
 20
314.6154507707631
 10
984.7673059372068
 20
314.8963781100784
 10
984.7886057729885
 20
315.1656211608951
 10
984.7756027465443
 20
315.3785890668329
 10
984.6826895914828
 20
315.5270329844084
 10
984.5860950287331
 20
315.6776883803695
 10
984.4089732636659
 20
315.8081916800715
 10
984.2638476238793
 20
315.8653715248076
 10
984.1900482843993
 20
315.8924177460186
 72
     1
 10
984.1900482843994
 20
315.8924177460186
 11
981.8864792658491
 21
315.8924177460186
 72
     1
 10
981.8864792658491
 20
315.8924177460186
 11
980.4361213514308
 21
312.96116233901
 97
        6
330
10C5
330
10C2
330
10C4
330
10C3
330
10CB
330
10C6
 92
       20
 93
        4
 72
     1
 10
982.570963635824
 20
314.6681054658775
 11
982.7966747734775
 21
315.1669935871423
 72
     1
 10
982.7966747734775
 20
315.1669935871423
 11
983.3766562007596
 21
315.1669935871424
 72
     4
 94
        3
 73
     0
 74
     0
 95
       15
 96
       11
 40
0.0
 40
0.0
 40
0.0
 40
0.0
 40
0.2199578613106558
 40
0.3202465475123651
 40
0.4340808827708152
 40
0.5116301246390283
 40
0.634275054953107
 40
0.7077360179240892
 40
0.8337709579493377
 40
0.875782631437913
 40
0.875782631437913
 40
0.875782631437913
 40
0.875782631437913
 10
983.3766562007594
 20
315.1669935871423
 10
983.4592681079868
 20
315.1673719937743
 10
983.5795465009269
 20
315.1679229330168
 10
983.6453190100192
 20
315.0191382131175
 10
983.6158366354
 20
314.9233440636355
 10
983.5787748876512
 20
314.8249933289958
 10
983.5132783854479
 20
314.7581625214681
 10
983.4253724860262
 20
314.693793187701
 10
983.3422972102326
 20
314.6860009916162
 10
983.2882660688429
 20
314.6716845723958
 10
983.2747582770297
 20
314.6681054658774
 72
     1
 10
983.2747582770297
 20
314.6681054658774
 11
982.570963635824
 21
314.6681054658775
 97
        4
330
10C7
330
10C9
330
10C8
330
10CA
 75
     0
 76
     1
 47
0.0514683685270805
 98
        2
 10
981.8987914848589
 20
314.9807195218914
 10
981.8987914848589
 20
314.9807195218914
450
        0
451
        0
460
0.0
461
0.0
452
        0
462
0.0
453
        0
470

  0
LINE
  5
1101
102
{ACAD_REACTORS
330
1104
102
}
330
18
100
AcDbEntity
  8
ROGO
 62
     4
100
AcDbLine
 10
990.3237695553402
 20
315.8924177460186
 30
0.0
 11
991.1571281416021
 21
314.0164964166507
 31
0.0
  0
LINE
  5
1102
102
{ACAD_REACTORS
330
1104
102
}
330
18
100
AcDbEntity
  8
ROGO
 62
     4
100
AcDbLine
 10
989.500518660855
 20
315.3909763503732
 30
0.0
 11
989.7851006404625
 21
314.7503716763462
 31
0.0
  0
LINE
  5
1103
102
{ACAD_REACTORS
330
1104
102
}
330
18
100
AcDbEntity
  8
ROGO
 62
     4
100
AcDbLine
 10
989.9524507913206
 20
314.3736602310661
 30
0.0
 11
990.1111171099904
 21
314.0164964166507
 31
0.0
  0
HATCH
  5
1104
330
18
100
AcDbEntity
  8
ROGO
 62
     4
100
AcDbHatch
 10
0.0
 20
0.0
 30
0.0
210
0.0
220
0.0
230
1.0
  2
SOLID
 70
     1
 71
     1
 91
        2
 92
        7
 72
     0
 73
     1
 93
        8
 10
990.3237695553405
 20
315.8924177460186
 10
988.8231931513811
 20
315.8924177460186
 10
987.4704298226678
 20
314.0164964166507
 10
988.5093544679417
 20
314.0164964166507
 10
988.7669122359143
 20
314.3736602310661
 10
989.9524507913204
 20
314.3736602310661
 10
990.1111171099906
 20
314.0164964166509
 10
991.1571281416021
 20
314.0164964166509
 97
        8
330
10DD
330
10D7
330
10DC
330
10DB
330
10D9
330
1103
330
10DE
330
1101
 92
       22
 72
     0
 73
     1
 93
        3
 10
989.7851006404627
 20
314.7503716763462
 10
989.0385661804073
 20
314.7503716763462
 10
989.500518660855
 20
315.3909763503731
 97
        3
330
10DA
330
10D8
330
1102
 75
     0
 76
     1
 47
0.0128389261915577
 98
        2
 10
990.2062625660605
 20
315.4423578648628
 10
990.2062625660605
 20
315.4423578648628
450
        0
451
        0
460
0.0
461
0.0
452
        0
462
0.0
453
        0
470

  0
SPLINE
  5
1105
102
{ACAD_REACTORS
330
110C
102
}
330
18
100
AcDbEntity
  8
ROGO
 62
     4
100
AcDbSpline
210
0.0
220
0.0
230
1.0
 70
     8
 71
     3
 72
    38
 73
    34
 74
    32
 42
0.0000000001
 43
0.0000000001
 44
0.0000000001
 40
0.0
 40
0.0
 40
0.0
 40
0.0
 40
0.2582400211805774
 40
0.3393418442955424
 40
0.443552172800835
 40
0.530394283206717
 40
0.6036667919818254
 40
0.7009894053152177
 40
0.7507174249931042
 40
0.8067242281503032
 40
0.8892677166883521
 40
0.9827715778106668
 40
1.043426616793024
 40
1.109318337455068
 40
1.182564491755753
 40
1.293719242428883
 40
1.399327847180614
 40
1.448424760475743
 40
1.50441322219426
 40
1.570741059842362
 40
1.617957956886697
 40
1.657539314700464
 40
1.714052551848318
 40
1.776150918813051
 40
1.838248940024221
 40
1.892584795022379
 40
2.017023561310864
 40
2.066120474605993
 40
2.164314359515976
 40
2.251113385583432
 40
2.417283613623161
 40
2.622320469312984
 40
2.918423525691272
 40
2.918423525691272
 40
2.918423525691272
 40
2.918423525691272
 10
995.2637713174054
 20
315.9002423448362
 30
0.0
 10
995.1776921779398
 20
315.8941614604063
 30
0.0
 10
995.0645793699097
 20
315.8861708378531
 30
0.0
 10
994.9209525520393
 20
315.8468213718462
 30
0.0
 10
994.8426600456949
 20
315.7999434869064
 30
0.0
 10
994.7611810438132
 20
315.765485994477
 30
0.0
 10
994.6917126061206
 20
315.7144612812639
 30
0.0
 10
994.6214467479833
 20
315.6881687381304
 30
0.0
 10
994.5722444431607
 20
315.6407585833124
 30
0.0
 10
994.5152967886853
 20
315.611798414491
 30
0.0
 10
994.4699483603489
 20
315.5469771373276
 30
0.0
 10
994.4192616795897
 20
315.4863715921012
 30
0.0
 10
994.3604587532934
 20
315.4421322469905
 30
0.0
 10
994.3121984024942
 20
315.39566799133
 30
0.0
 10
994.2679262411738
 20
315.3239596839244
 30
0.0
 10
994.2417239946436
 20
315.2286805772306
 30
0.0
 10
994.1678642597732
 20
315.1685247853948
 30
0.0
 10
994.156743296226
 20
315.0961995744288
 30
0.0
 10
994.1158892245178
 20
315.0535289170136
 30
0.0
 10
994.0981244452951
 20
314.9984472284637
 30
0.0
 10
994.091358762261
 20
314.947982672291
 30
0.0
 10
994.0832383293431
 20
314.9008522702508
 30
0.0
 10
994.0619968147258
 20
314.8512731691965
 30
0.0
 10
994.0689301183841
 20
314.7900299135752
 30
0.0
 10
994.0669550283248
 20
314.7307260363946
 30
0.0
 10
994.068117371143
 20
314.650663955521
 30
0.0
 10
994.0639223149347
 20
314.5727136742074
 30
0.0
 10
994.0973762442418
 20
314.4878852796812
 30
0.0
 10
994.1171731693886
 20
314.412272501586
 30
0.0
 10
994.1713902693084
 20
314.3075774412269
 30
0.0
 10
994.2649136304764
 20
314.1867819787855
 30
0.0
 10
994.4427561247875
 20
314.0401591740816
 30
0.0
 10
994.6137568827294
 20
314.0252849730569
 30
0.0
 10
994.7147942294867
 20
314.0164964166507
 30
0.0
 11
995.2637713174054
 21
315.9002423448362
 31
0.0
 11
995.007404693195
 21
315.8691929884771
 31
0.0
 11
994.9297178558692
 21
315.845906489838
 31
0.0
 11
994.8364940172863
 21
315.7993328010528
 31
0.0
 11
994.7588071799604
 21
315.7605216242342
 31
0.0
 11
994.6966579542385
 21
315.7217101016621
 31
0.0
 11
994.6112026162841
 21
315.6751367586305
 31
0.0
 11
994.5723588924474
 21
315.6440877480248
 31
0.0
 11
994.5257466679825
 21
315.6130383916657
 31
0.0
 11
994.471365942889
 21
315.5509403704546
 31
0.0
 11
994.4092167171671
 21
315.4810801830303
 31
0.0
 11
994.362604492702
 21
315.4422686604582
 31
0.0
 11
994.3159928785844
 21
315.3956953174266
 31
0.0
 11
994.2771491547476
 21
315.3335972962154
 31
0.0
 11
994.23053754063
 21
315.2326877524321
 31
0.0
 11
994.1683877045608
 21
315.1473028868283
 31
0.0
 11
994.1528507033039
 21
315.1007291980432
 31
0.0
 11
994.121776090443
 21
315.0541558550115
 31
0.0
 11
994.0984699782106
 21
314.9920574880468
 31
0.0
 11
994.0907008672349
 21
314.9454841450151
 31
0.0
 11
994.0829323666063
 21
314.906672622443
 31
0.0
 11
994.0673953653496
 21
314.8523371131984
 31
0.0
 11
994.0673953653496
 21
314.7902387462336
 31
0.0
 11
994.0673953653496
 21
314.7281407250225
 31
0.0
 11
994.0673953653496
 21
314.6738048700243
 31
0.0
 11
994.0751638659781
 21
314.5496088276019
 31
0.0
 11
994.0907008672349
 21
314.5030351388168
 31
0.0
 11
994.121776090443
 21
314.409888107
 31
0.0
 11
994.1606192039325
 21
314.3322654076092
 31
0.0
 11
994.2616121534909
 21
314.2003071989738
 31
0.0
 11
994.4247543287714
 21
314.0761108107979
 31
0.0
 11
994.7147942294867
 21
314.0164964166507
 31
0.0
  0
SPLINE
  5
1106
102
{ACAD_REACTORS
330
110C
102
}
330
18
100
AcDbEntity
  8
ROGO
 62
     4
100
AcDbSpline
210
0.0
220
0.0
230
1.0
 70
     8
 71
     3
 72
    25
 73
    21
 74
     0
 42
0.0000000001
 43
0.0000000001
 40
0.0
 40
0.0
 40
0.0
 40
0.0
 40
0.4087168505087288
 40
0.6887487002771746
 40
0.9415836120477687
 40
1.17452070575514
 40
1.41154617586699
 40
1.599156012919487
 40
1.80099909059943
 40
2.178735911501585
 40
2.521686161369157
 40
2.762704659361267
 40
3.06256558063785
 40
3.222432137207705
 40
3.399493810628493
 40
3.567459719866414
 40
3.743172740007509
 40
3.995988754699505
 40
4.17170091132118
 40
4.337226830236035
 40
4.337226830236035
 40
4.337226830236035
 40
4.337226830236035
 10
996.3358482076703
 20
315.9002423448362
 30
0.0
 10
996.406162565421
 20
315.8979832170417
 30
0.0
 10
996.5246527193047
 20
315.8941762506045
 30
0.0
 10
996.6518665173348
 20
315.794743837211
 30
0.0
 10
996.7492068327054
 20
315.7123067481895
 30
0.0
 10
996.8183001967918
 20
315.6126441677122
 30
0.0
 10
996.8788624662812
 20
315.5210097338876
 30
0.0
 10
996.918768410237
 20
315.4242648557933
 30
0.0
 10
996.973048378344
 20
315.3081798621692
 30
0.0
 10
996.9955176035542
 20
315.1528753872677
 30
0.0
 10
996.9803369702161
 20
314.9923538829169
 30
0.0
 10
996.9407226052197
 20
314.8500663347691
 30
0.0
 10
996.8991703213626
 20
314.7409066702774
 30
0.0
 10
996.8501960086236
 20
314.6458764102909
 30
0.0
 10
996.7918123696177
 20
314.584344309578
 30
0.0
 10
996.7513081474191
 20
314.5061068433672
 30
0.0
 10
996.673504717823
 20
314.4421127964052
 30
0.0
 10
996.6104330609564
 20
314.363153124328
 30
0.0
 10
996.5388598657568
 20
314.29538119813
 30
0.0
 10
996.498506581037
 20
314.2535667363847
 30
0.0
 10
996.4772313561887
 20
314.2359856736052
 30
0.0
  0
LINE
  5
1107
102
{ACAD_REACTORS
330
110C
102
}
330
18
100
AcDbEntity
  8
ROGO
 62
     4
100
AcDbLine
 10
995.2637713174054
 20
315.9002423448362
 30
0.0
 11
996.3358482076703
 21
315.9002423448362
 31
0.0
  0
LINE
  5
1108
102
{ACAD_REACTORS
330
110C
102
}
330
18
100
AcDbEntity
  8
ROGO
 62
     4
100
AcDbLine
 10
994.7147942294867
 20
314.0164964166507
 30
0.0
 11
995.7868711197514
 21
314.0164964166507
 31
0.0
  0
SPLINE
  5
1109
102
{ACAD_REACTORS
330
110C
102
}
330
18
100
AcDbEntity
  8
ROGO
 62
     4
100
AcDbSpline
210
0.0
220
0.0
230
1.0
 70
     8
 71
     3
 72
    11
 73
     7
 74
     0
 42
0.0000000001
 43
0.0000000001
 40
0.1647869275458134
 40
0.1647869275458134
 40
0.1647869275458134
 40
0.1647869275458134
 40
0.2895635144633836
 40
0.5387013147903714
 40
0.7953622617455423
 40
0.8850764140209602
 40
0.8850764140209602
 40
0.8850764140209602
 40
0.8850764140209602
 10
996.1440389177772
 20
314.0583199122344
 30
0.0
 10
996.1240695709189
 20
314.0527614369252
 30
0.0
 10
996.0621538402987
 20
314.042864880091
 30
0.0
 10
995.9582984586727
 20
314.029275745272
 30
0.0
 10
995.8595891128208
 20
314.015094987294
 30
0.0
 10
995.8018309773514
 20
314.0162081085893
 30
0.0
 10
995.7868711197516
 20
314.0164964166507
 30
0.0
  0
SPLINE
  5
110A
102
{ACAD_REACTORS
330
110C
102
}
330
18
100
AcDbEntity
  8
ROGO
 62
     4
100
AcDbSpline
210
0.0
220
0.0
230
1.0
 70
     8
 71
     3
 72
     9
 73
     5
 74
     3
 42
0.0000000001
 43
0.0000000001
 44
0.0000000001
 40
0.0
 40
0.0
 40
0.0
 40
0.0
 40
0.1622561919360204
 40
0.3804197703110171
 40
0.3804197703110171
 40
0.3804197703110171
 40
0.3804197703110171
 10
996.1440389177772
 20
314.0583199122344
 30
0.0
 10
996.1961603010886
 20
314.074266111839
 30
0.0
 10
996.3183621377705
 20
314.1116529722018
 30
0.0
 10
996.4193288481089
 20
314.1906705690224
 30
0.0
 10
996.4772313561887
 20
314.2359856736052
 30
0.0
 11
996.1440389177772
 21
314.0583199122344
 31
0.0
 11
996.2965400095267
 21
314.1137319040483
 31
0.0
 11
996.4772313561887
 21
314.2359856736052
 31
0.0
  0
ELLIPSE
  5
110B
330
18
100
AcDbEntity
  8
ROGO
 62
     4
100
AcDbEllipse
 10
995.5101404525922
 20
314.9321052130948
 30
0.0
 11
0.2546924415247531
 21
0.2239701316915159
 31
0.0
210
0.0
220
0.0
230
1.0
 40
0.6788083417438792
 41
0.0
 42
6.283185307179586
  0
HATCH
  5
110C
330
18
100
AcDbEntity
  8
ROGO
 62
     4
100
AcDbHatch
 10
0.0
 20
0.0
 30
0.0
210
0.0
220
0.0
230
1.0
  2
SOLID
 70
     1
 71
     1
 91
        1
 92
        5
 93
        6
 72
     4
 94
        3
 73
     0
 74
     0
 95
       38
 96
       34
 40
0.0
 40
0.0
 40
0.0
 40
0.0
 40
0.2582400211805774
 40
0.3393418442955424
 40
0.443552172800835
 40
0.530394283206717
 40
0.6036667919818254
 40
0.7009894053152177
 40
0.7507174249931042
 40
0.8067242281503032
 40
0.8892677166883521
 40
0.9827715778106668
 40
1.043426616793024
 40
1.109318337455068
 40
1.182564491755753
 40
1.293719242428883
 40
1.399327847180614
 40
1.448424760475743
 40
1.50441322219426
 40
1.570741059842362
 40
1.617957956886697
 40
1.657539314700464
 40
1.714052551848318
 40
1.776150918813051
 40
1.838248940024221
 40
1.892584795022379
 40
2.017023561310864
 40
2.066120474605993
 40
2.164314359515976
 40
2.251113385583432
 40
2.417283613623161
 40
2.622320469312984
 40
2.918423525691272
 40
2.918423525691272
 40
2.918423525691272
 40
2.918423525691272
 10
995.2637713174054
 20
315.9002423448362
 10
995.1776921779401
 20
315.8941614604063
 10
995.0645793699099
 20
315.8861708378531
 10
994.9209525520393
 20
315.8468213718462
 10
994.8426600456951
 20
315.7999434869064
 10
994.7611810438131
 20
315.765485994477
 10
994.6917126061206
 20
315.7144612812639
 10
994.6214467479833
 20
315.6881687381304
 10
994.5722444431609
 20
315.6407585833124
 10
994.5152967886853
 20
315.611798414491
 10
994.4699483603489
 20
315.5469771373276
 10
994.4192616795895
 20
315.4863715921012
 10
994.3604587532934
 20
315.4421322469905
 10
994.3121984024942
 20
315.39566799133
 10
994.267926241174
 20
315.3239596839244
 10
994.2417239946436
 20
315.2286805772306
 10
994.1678642597734
 20
315.1685247853948
 10
994.1567432962258
 20
315.0961995744288
 10
994.1158892245178
 20
315.0535289170136
 10
994.0981244452952
 20
314.9984472284637
 10
994.091358762261
 20
314.947982672291
 10
994.0832383293432
 20
314.9008522702508
 10
994.0619968147254
 20
314.8512731691965
 10
994.0689301183844
 20
314.7900299135752
 10
994.0669550283244
 20
314.7307260363946
 10
994.0681173711432
 20
314.650663955521
 10
994.0639223149345
 20
314.5727136742074
 10
994.0973762442419
 20
314.4878852796812
 10
994.1171731693886
 20
314.412272501586
 10
994.1713902693084
 20
314.3075774412269
 10
994.2649136304767
 20
314.1867819787855
 10
994.4427561247875
 20
314.0401591740816
 10
994.6137568827293
 20
314.0252849730569
 10
994.7147942294867
 20
314.0164964166507
 72
     1
 10
994.7147942294865
 20
314.0164964166507
 11
995.7868711197518
 21
314.0164964166507
 72
     4
 94
        3
 73
     0
 74
     0
 95
       11
 96
        7
 40
0.1647869275458135
 40
0.1647869275458135
 40
0.1647869275458135
 40
0.1647869275458135
 40
0.2545010798212315
 40
0.5111620267764023
 40
0.7602998271033902
 40
0.8850764140209603
 40
0.8850764140209603
 40
0.8850764140209603
 40
0.8850764140209603
 10
995.7868711197516
 20
314.0164964166507
 10
995.8018309773514
 20
314.0162081085893
 10
995.8595891128208
 20
314.015094987294
 10
995.9582984586727
 20
314.029275745272
 10
996.0621538402987
 20
314.042864880091
 10
996.1240695709189
 20
314.0527614369252
 10
996.1440389177772
 20
314.0583199122344
 72
     4
 94
        3
 73
     0
 74
     0
 95
        9
 96
        5
 40
0.0
 40
0.0
 40
0.0
 40
0.0
 40
0.1622561919360204
 40
0.3804197703110171
 40
0.3804197703110171
 40
0.3804197703110171
 40
0.3804197703110171
 10
996.1440389177772
 20
314.0583199122344
 10
996.1961603010886
 20
314.074266111839
 10
996.3183621377705
 20
314.1116529722018
 10
996.4193288481089
 20
314.1906705690224
 10
996.4772313561887
 20
314.2359856736052
 72
     4
 94
        3
 73
     0
 74
     0
 95
       25
 96
       21
 40
0.0
 40
0.0
 40
0.0
 40
0.0
 40
0.165525918914855
 40
0.3412380755365305
 40
0.5940540902285263
 40
0.7697671103696209
 40
0.9377330196075423
 40
1.11479469302833
 40
1.274661249598185
 40
1.574522170874768
 40
1.815540668866877
 40
2.15849091873445
 40
2.536227739636605
 40
2.738070817316548
 40
2.925680654369045
 40
3.162706124480894
 40
3.395643218188267
 40
3.648478129958861
 40
3.928509979727306
 40
4.337226830236035
 40
4.337226830236035
 40
4.337226830236035
 40
4.337226830236035
 10
996.4772313561887
 20
314.2359856736052
 10
996.498506581037
 20
314.2535667363847
 10
996.5388598657568
 20
314.29538119813
 10
996.6104330609564
 20
314.363153124328
 10
996.673504717823
 20
314.4421127964052
 10
996.7513081474191
 20
314.5061068433672
 10
996.7918123696177
 20
314.584344309578
 10
996.8501960086236
 20
314.6458764102909
 10
996.8991703213626
 20
314.7409066702774
 10
996.9407226052197
 20
314.8500663347691
 10
996.9803369702161
 20
314.9923538829169
 10
996.9955176035542
 20
315.1528753872677
 10
996.973048378344
 20
315.3081798621692
 10
996.918768410237
 20
315.4242648557933
 10
996.8788624662812
 20
315.5210097338876
 10
996.8183001967918
 20
315.6126441677122
 10
996.7492068327054
 20
315.7123067481895
 10
996.6518665173348
 20
315.794743837211
 10
996.5246527193047
 20
315.8941762506045
 10
996.406162565421
 20
315.8979832170417
 10
996.3358482076703
 20
315.9002423448362
 72
     1
 10
996.3358482076703
 20
315.9002423448362
 11
995.2637713174054
 21
315.9002423448362
 97
        6
330
1106
330
1107
330
1105
330
1108
330
1109
330
110A
 75
     0
 76
     1
 47
0.088756267210375
 98
        1
 10
995.5850422751188
 20
315.3799441707004
450
        0
451
        0
460
0.0
461
0.0
452
        0
462
0.0
453
        0
470

  0
DIMENSION
  5
1124
330
18
100
AcDbEntity
  8
文字
100
AcDbDimension
  2
*D6
 10
1063.797412964598
 20
299.3205714555577
 30
0.0
 11
1061.922412964598
 21
314.3205714555579
 31
0.0
 70
    32
 71
     5
 42
30.0
  3
STYLE3
100
AcDbAlignedDimension
 13
1045.958682626406
 23
329.3205714555577
 33
0.0
 14
1045.958682626406
 24
299.3205714555577
 34
0.0
 50
90.0
100
AcDbRotatedDimension
1001
ACAD
1000
DSTYLE
1002
{
1070
   271
1070
     2
1002
}
  0
CIRCLE
  5
1125
330
18
100
AcDbEntity
  8
外形線
100
AcDbCircle
 10
880.9586826264057
 20
314.3205714555577
 30
0.0
 40
9.0
  0
CIRCLE
  5
1126
330
18
100
AcDbEntity
  8
外形線
100
AcDbCircle
 10
880.9586826264057
 20
314.3205714555577
 30
0.0
 40
10.0
  0
LINE
  5
1127
330
18
100
AcDbEntity
  8
中心線
 48
0.5
100
AcDbLine
 10
864.9586826264055
 20
357.8375213364288
 30
0.0
 11
864.9586826264057
 21
272.8036060421574
 31
0.0
  0
CIRCLE
  5
1128
330
18
100
AcDbEntity
  8
外形線
100
AcDbCircle
 10
864.9586826264057
 20
354.3205714555577
 30
0.0
 40
2.0
  0
CIRCLE
  5
1129
330
18
100
AcDbEntity
  8
外形線
100
AcDbCircle
 10
864.9586826264057
 20
354.3205714555577
 30
0.0
 40
1.25
  0
CIRCLE
  5
112A
330
18
100
AcDbEntity
  8
外形線
100
AcDbCircle
 10
864.9586826264057
 20
276.3205714555577
 30
0.0
 40
1.25
  0
CIRCLE
  5
112B
330
18
100
AcDbEntity
  8
外形線
100
AcDbCircle
 10
864.9586826264057
 20
276.3205714555577
 30
0.0
 40
2.0
  0
LINE
  5
112C
330
18
100
AcDbEntity
  8
外形線
100
AcDbLine
 10
866.7086826264057
 20
350.3205714555577
 30
0.0
 11
866.7086826264057
 21
280.3205714555577
 31
0.0
  0
LINE
  5
112D
330
18
100
AcDbEntity
  8
外形線
100
AcDbLine
 10
863.2086826264057
 20
350.3205714555577
 30
0.0
 11
863.2086826264055
 21
280.3205714555577
 31
0.0
  0
LINE
  5
112E
330
18
100
AcDbEntity
  8
中心線
 48
0.5
100
AcDbLine
 10
861.4521697005201
 20
354.3205714555577
 30
0.0
 11
868.4861005273207
 21
354.3205714555577
 31
0.0
  0
LINE
  5
112F
330
18
100
AcDbEntity
  8
外形線
100
AcDbLine
 10
863.2086826264057
 20
350.3205714555577
 30
0.0
 11
866.7086826264057
 21
350.3205714555577
 31
0.0
  0
LINE
  5
1130
330
18
100
AcDbEntity
  8
中心線
 48
0.5
100
AcDbLine
 10
861.4417172130053
 20
276.3205714555577
 30
0.0
 11
868.4756480398059
 21
276.3205714555577
 31
0.0
  0
LINE
  5
1131
330
18
100
AcDbEntity
  8
外形線
100
AcDbLine
 10
863.2086826264055
 20
280.3205714555577
 30
0.0
 11
866.7086826264057
 21
280.3205714555577
 31
0.0
  0
LINE
  5
1132
330
18
100
AcDbEntity
  8
想像線
100
AcDbLine
 10
866.4086826264057
 20
350.3205714555577
 30
0.0
 11
866.4086826264057
 21
280.3205714555577
 31
0.0
  0
LINE
  5
1133
330
18
100
AcDbEntity
  8
想像線
100
AcDbLine
 10
863.5086826264057
 20
350.3205714555577
 30
0.0
 11
863.5086826264055
 21
280.3205714555577
 31
0.0
  0
ARC
  5
1134
330
18
100
AcDbEntity
  8
隠れ線2
 48
0.3
100
AcDbCircle
 10
858.0836826264057
 20
331.3205714555577
 30
0.0
 40
16.0
100
AcDbArc
 50
57.38015806070773
 51
71.31817539227753
  0
ARC
  5
1135
330
18
100
AcDbEntity
  8
外形線
100
AcDbCircle
 10
858.0836826264057
 20
331.3205714555577
 30
0.0
 40
16.0
100
AcDbArc
 50
71.31817539227753
 51
90.0
  0
ARC
  5
1136
330
18
100
AcDbEntity
  8
外形線
100
AcDbCircle
 10
854.9054569762688
 20
305.1662052253768
 30
0.0
 40
22.15553769693308
100
AcDbArc
 50
284.8746773266731
 51
292.0100836096397
  0
ARC
  5
1137
330
18
100
AcDbEntity
  8
隠れ線2
 48
0.3
100
AcDbCircle
 10
856.7183750962842
 20
299.2796255335321
 30
0.0
 40
16.02716890949977
100
AcDbArc
 50
293.8884063330728
 51
308.5601407253579
  0
ARC
  5
1138
330
18
100
AcDbEntity
  8
隠れ線2
100
AcDbCircle
 10
880.6908562289258
 20
314.3177018870133
 30
0.0
 40
12.5
100
AcDbArc
 50
224.9274919620066
 51
271.2277197262187
  0
LINE
  5
1139
330
18
100
AcDbEntity
  8
隠れ線2
100
AcDbLine
 10
880.9586826264057
 20
301.8205714555577
 30
0.0
 11
881.9683663784971
 21
301.8313894957588
 31
0.0
  0
LINE
  5
113A
330
18
100
AcDbEntity
  8
隠れ線2
100
AcDbLine
 10
882.7785060025568
 20
301.8400695631594
 30
0.0
 11
917.9515869792219
 21
302.2169240021951
 31
0.0
  0
LINE
  5
113B
330
18
100
AcDbEntity
  8
中心線
 48
0.5
100
AcDbLine
 10
979.9484520945888
 20
422.8053405160778
 30
0.0
 11
892.9765121453673
 21
382.2496588731581
 31
0.0
  0
ARC
  5
113C
330
18
100
AcDbEntity
  8
外形線
  6
Continuous
100
AcDbCircle
 10
829.3839590363651
 20
352.5959643568035
 30
0.0
 40
105.6666666666664
100
AcDbArc
 50
11.31445317473815
 51
38.68554682526195
  0
LINE
  5
113D
330
18
100
AcDbEntity
  8
外形線
  6
Continuous
100
AcDbLine
 10
895.2200862539321
 20
410.3286136762027
 30
0.0
 11
915.9283810792262
 21
365.9195321114069
 31
0.0
  0
LINE
  5
113E
330
18
100
AcDbEntity
  8
外形線
  6
Continuous
100
AcDbLine
 10
911.8661019619432
 20
418.6424672380979
 30
0.0
 11
932.9970150489783
 21
373.3270778862656
 31
0.0
  0
LINE
  5
113F
330
18
100
AcDbEntity
  8
外形線
  6
Continuous
100
AcDbLine
 10
910.1868670510622
 20
419.4041562258604
 30
0.0
 11
932.5011112709713
 21
371.5511050703254
 31
0.0
  0
LINE
  5
1140
330
18
100
AcDbEntity
  8
外形線
  6
Continuous
100
AcDbLine
 10
906.7428974603231
 20
417.7982068312457
 30
0.0
 11
929.057141680232
 21
369.9451556757108
 31
0.0
  0
LINE
  5
1141
330
18
100
AcDbEntity
  8
外形線
  6
Continuous
100
AcDbLine
 10
905.9751013462051
 20
415.8954485367833
 30
0.0
 11
927.10601443324
 21
370.580059184951
 31
0.0
  0
LINE
  5
1142
330
18
100
AcDbEntity
  8
中心線
 48
0.5
100
AcDbLine
 10
941.776282067487
 20
325.9181032372128
 30
0.0
 11
892.6250353317769
 21
431.3232920136154
 31
0.0
  0
LINE
  5
1143
330
18
100
AcDbEntity
  8
外形線
100
AcDbLine
 10
938.0469946265996
 20
341.4874310288515
 30
0.0
 11
939.1035402809515
 21
339.22166156126
 31
0.0
  0
LINE
  5
1144
330
18
100
AcDbEntity
  8
外形線
100
AcDbLine
 10
932.2466247895656
 20
338.7826741537111
 30
0.0
 11
933.303170443917
 21
336.5169046861193
 31
0.0
  0
LINE
  5
1145
330
18
100
AcDbEntity
  8
想像線
 48
0.6
100
AcDbLine
 10
932.6335158175345
 20
369.8474416540216
 30
0.0
 11
951.2287193341256
 21
329.969899024409
 31
0.0
  0
LINE
  5
1146
330
18
100
AcDbEntity
  8
外形線
100
AcDbLine
 10
944.9043522633457
 20
322.9669182326424
 30
0.0
 11
945.2097122719584
 21
323.624013621257
 31
0.0
  0
ARC
  5
1147
330
18
100
AcDbEntity
  8
外形線
100
AcDbCircle
 10
936.7568969434755
 20
336.47538790479
 30
0.0
 40
1.5
100
AcDbArc
 50
39.54636944608501
 51
110.0747988826753
  0
LINE
  5
1148
330
18
100
AcDbEntity
  8
外形線
100
AcDbLine
 10
939.1035402809515
 20
339.22166156126
 30
0.0
 11
933.3031704439168
 21
336.5169046861193
 31
0.0
  0
LINE
  5
1149
330
18
100
AcDbEntity
  8
外形線
100
AcDbLine
 10
938.2289464081658
 20
337.5457011175953
 30
0.0
 11
936.5877194820621
 21
336.9459044120177
 31
0.0
  0
LINE
  5
114A
330
18
100
AcDbEntity
  8
外形線
100
AcDbLine
 10
939.7176968037941
 20
330.0312255004381
 30
0.0
 11
938.3559739668154
 21
330.6640342287186
 31
0.0
  0
LINE
  5
114B
330
18
100
AcDbEntity
  8
外形線
100
AcDbLine
 10
939.2885024806165
 20
331.0168695747011
 30
0.0
 11
938.6880209685923
 21
329.7247107412902
 31
0.0
  0
LINE
  5
114C
330
18
100
AcDbEntity
  8
外形線
100
AcDbLine
 10
941.7772108688161
 20
324.3957661743515
 30
0.0
 11
940.4154880318369
 21
325.0285749026319
 31
0.0
  0
LINE
  5
114D
330
18
100
AcDbEntity
  8
外形線
100
AcDbLine
 10
941.3480165456382
 20
325.3814102486147
 30
0.0
 11
940.747535033614
 21
324.0892514152034
 31
0.0
  0
LINE
  5
114E
330
18
100
AcDbEntity
  8
中心線
100
AcDbLine
 10
939.184452189696
 20
324.0473053888207
 30
0.0
 11
942.5878781958997
 21
325.3011412004698
 31
0.0
  0
CIRCLE
  5
114F
330
18
100
AcDbEntity
  8
外形線
100
AcDbCircle
 10
941.0475512456041
 20
324.7348476421091
 30
0.0
 40
1.25
  0
LINE
  5
1150
330
18
100
AcDbEntity
  8
中心線
100
AcDbLine
 10
937.1217414716245
 20
329.6816086333365
 30
0.0
 11
940.6535984238074
 21
330.9827589213693
 31
0.0
  0
CIRCLE
  5
1151
330
18
100
AcDbEntity
  8
外形線
100
AcDbCircle
 10
938.9880371805825
 20
330.3703069681962
 30
0.0
 40
1.25
  0
LINE
  5
1152
330
18
100
AcDbEntity
  8
想像線
100
AcDbLine
 10
916.6982150659348
 20
358.7164521173053
 30
0.0
 11
915.7585224451491
 21
359.0584722606312
 31
0.0
  0
LINE
  5
1153
330
18
100
AcDbEntity
  8
想像線
100
AcDbLine
 10
916.3993788272048
 20
359.3573084993612
 30
0.0
 11
916.0573586838792
 21
358.4176158785752
 31
0.0
  0
ARC
  5
1154
330
18
100
AcDbEntity
  8
外形線
100
AcDbCircle
 10
936.9885922757907
 20
335.8413987306052
 30
0.0
 40
0.375
100
AcDbArc
 50
61.88546370738407
 51
109.359231535417
  0
LINE
  5
1155
330
18
100
AcDbEntity
  8
外形線
100
AcDbLine
 10
941.4859080625413
 20
333.7319495811254
 30
0.0
 11
940.7814756467805
 21
333.4745103229976
 31
0.0
  0
LINE
  5
1156
330
18
100
AcDbEntity
  8
外形線
100
AcDbLine
 10
938.2289464081658
 20
337.5457011175953
 30
0.0
 11
941.4859080625413
 21
333.7319495811254
 31
0.0
  0
LINE
  5
1157
330
18
100
AcDbEntity
  8
外形線
100
AcDbLine
 10
937.1653056509472
 20
336.1721514827339
 30
0.0
 11
940.7814756467805
 21
333.4745103229976
 31
0.0
  0
LINE
  5
1158
330
18
100
AcDbEntity
  8
外形線
100
AcDbLine
 10
926.8947053023698
 20
371.0332130784694
 30
0.0
 11
915.9283810792262
 21
365.9195321114069
 31
0.0
  0
LINE
  5
1159
330
18
100
AcDbEntity
  8
想像線
 48
0.5
100
AcDbLine
 10
932.6335158175345
 20
369.8474416540216
 30
0.0
 11
912.6947445027282
 21
360.5498398957263
 31
0.0
  0
LINE
  5
115A
330
18
100
AcDbEntity
  8
外形線
100
AcDbLine
 10
938.0469946266
 20
341.4874310288516
 30
0.0
 11
932.2466247895654
 21
338.7826741537111
 31
0.0
  0
LINE
  5
115B
330
18
100
AcDbEntity
  8
外形線
  6
CENTER2
100
AcDbLine
 10
927.10601443324
 20
370.580059184951
 30
0.0
 11
928.4654761137952
 21
371.2139865775621
 31
0.0
  0
LINE
  5
115C
330
18
100
AcDbEntity
  8
外形線
  6
Continuous
100
AcDbLine
 10
932.1207548354047
 20
372.3667820786584
 30
0.0
 11
932.9970150489783
 21
373.3270778862656
 31
0.0
  0
LINE
  5
115D
330
18
100
AcDbEntity
  8
外形線
  6
Continuous
100
AcDbLine
 10
932.0784930092305
 20
372.4574128573621
 30
0.0
 11
928.6345234184912
 21
370.8514634627476
 31
0.0
  0
LINE
  5
115E
330
18
100
AcDbEntity
  8
外形線
  6
Continuous
100
AcDbLine
 10
932.5011112709713
 20
371.5511050703254
 30
0.0
 11
929.057141680232
 21
369.9451556757108
 31
0.0
  0
LINE
  5
115F
330
18
100
AcDbEntity
  8
外形線
  6
Continuous
100
AcDbLine
 10
930.3880199622676
 20
376.0826440055088
 30
0.0
 11
926.9440503715284
 21
374.4766946108941
 31
0.0
  0
LINE
  5
1160
330
18
100
AcDbEntity
  8
外形線
  6
Continuous
100
AcDbLine
 10
931.233256485749
 20
374.2700284314354
 30
0.0
 11
927.7892868950099
 21
372.6640790368209
 31
0.0
  0
LINE
  5
1161
330
18
100
AcDbEntity
  8
外形線
  6
Continuous
100
AcDbLine
 10
931.6558747474898
 20
373.3637206443987
 30
0.0
 11
928.2119051567505
 21
371.7577712497841
 31
0.0
  0
LINE
  5
1162
330
18
100
AcDbEntity
  8
外形線
  6
Continuous
100
AcDbLine
 10
930.8106382240085
 20
375.1763362184721
 30
0.0
 11
927.3666686332692
 21
373.5703868238575
 31
0.0
  0
LINE
  5
1163
330
18
100
AcDbEntity
  8
外形線
100
AcDbLine
 10
932.3085114040109
 20
350.9542061131403
 30
0.0
 11
936.9594252821569
 21
340.9802891147633
 31
0.0
  0
LINE
  5
1164
330
18
100
AcDbEntity
  8
外形線
100
AcDbLine
 10
925.4634818143845
 20
370.3658226054906
 30
0.0
 11
934.1211269780844
 21
351.7994426366218
 31
0.0
  0
LINE
  5
1165
330
18
100
AcDbEntity
  8
外形線
100
AcDbLine
 10
928.6832802558651
 20
349.2637330661779
 30
0.0
 11
933.3341941340114
 21
339.2898160678009
 31
0.0
  0
LINE
  5
1166
330
18
100
AcDbEntity
  8
外形線
100
AcDbLine
 10
918.2130195180914
 20
366.9848765115649
 30
0.0
 11
926.8706646817916
 21
348.4184965426964
 31
0.0
  0
LINE
  5
1167
330
18
100
AcDbEntity
  8
外形線
100
AcDbLine
 10
915.2944536866151
 20
367.2789937919619
 30
0.0
 11
914.841299793097
 21
367.0676846610916
 31
0.0
  0
LINE
  5
1168
330
18
100
AcDbEntity
  8
外形線
  6
Continuous
100
AcDbLine
 10
908.8990379782755
 20
396.5906046145883
 30
0.0
 11
912.343007569015
 21
398.1965540092028
 31
0.0
  0
LINE
  5
1169
330
18
100
AcDbEntity
  8
外形線
  6
Continuous
100
AcDbLine
 10
918.745256093759
 20
392.059065679405
 30
0.0
 11
922.1892256844981
 21
393.6650150740198
 31
0.0
  0
LINE
  5
116A
330
18
100
AcDbEntity
  8
外形線
  6
Continuous
100
AcDbLine
 10
918.3226378320183
 20
392.9653734664417
 30
0.0
 11
921.7666074227574
 21
394.5713228610564
 31
0.0
  0
LINE
  5
116B
330
18
100
AcDbEntity
  8
外形線
  6
Continuous
100
AcDbLine
 10
917.9000195702776
 20
393.8716812534783
 30
0.0
 11
921.3439891610168
 21
395.4776306480931
 31
0.0
  0
LINE
  5
116C
330
18
100
AcDbEntity
  8
外形線
  6
Continuous
100
AcDbLine
 10
917.4774013085366
 20
394.777989040515
 30
0.0
 11
920.9213708992759
 21
396.3839384351296
 31
0.0
  0
LINE
  5
116D
330
18
100
AcDbEntity
  8
外形線
  6
Continuous
100
AcDbLine
 10
909.3216562400163
 20
395.6842968275518
 30
0.0
 11
912.7656258307554
 21
397.2902462221662
 31
0.0
  0
ARC
  5
116E
330
18
100
AcDbEntity
  8
外形線
  6
Continuous
100
AcDbCircle
 10
897.0495765238371
 20
421.8348328071628
 30
0.0
 40
7.344999999999885
100
AcDbArc
 50
84.75198538337821
 51
145.2480146166212
  0
LINE
  5
116F
330
18
100
AcDbEntity
  8
外形線
  6
Continuous
100
AcDbLine
 10
911.877340098025
 20
415.7789250777138
 30
0.0
 11
908.4333705072857
 21
414.1729756830992
 31
0.0
  0
LINE
  5
1170
330
18
100
AcDbEntity
  8
外形線
  6
Continuous
100
AcDbLine
 10
911.454721836284
 20
416.6852328647506
 30
0.0
 11
908.0107522455451
 21
415.0792834701359
 31
0.0
  0
LINE
  5
1171
330
18
100
AcDbEntity
  8
外形線
  6
Continuous
100
AcDbLine
 10
912.2999583597657
 20
414.8726172906771
 30
0.0
 11
908.8559887690264
 21
413.2666678960625
 31
0.0
  0
LINE
  5
1172
330
18
100
AcDbEntity
  8
外形線
100
AcDbLine
 10
895.854013646543
 20
408.9691519956476
 30
0.0
 11
895.4008597530245
 21
408.7578428647774
 31
0.0
  0
POINT
  5
1173
330
18
100
AcDbEntity
  8
DEFPOINTS
  6
ByBlock
 62
     0
100
AcDbPoint
 10
895.4008597530245
 20
408.7578428647774
 30
0.0
  0
LINE
  5
1174
330
18
100
AcDbEntity
  8
外形線
  6
Continuous
100
AcDbLine
 10
891.0147248410568
 20
426.0216681474693
 30
0.0
 11
897.7214024651281
 21
429.1490432843507
 31
0.0
  0
LINE
  5
1175
330
18
100
AcDbEntity
  8
外形線
100
AcDbLine
 10
906.1864104770755
 20
415.442294643265
 30
0.0
 11
895.2200862539321
 21
410.3286136762027
 31
0.0
  0
LINE
  5
1176
330
18
100
AcDbEntity
  8
外形線
  6
Continuous
100
AcDbLine
 10
896.0255607767049
 20
414.5660353309891
 30
0.0
 11
903.276023072998
 21
417.9469814249147
 31
0.0
  0
LINE
  5
1177
330
18
100
AcDbEntity
  8
外形線
  6
Continuous
100
AcDbLine
 10
893.4898512062607
 20
420.0038820532088
 30
0.0
 11
900.7403135025539
 21
423.3848281471345
 31
0.0
  0
LINE
  5
1178
330
18
100
AcDbEntity
  8
外形線
  6
Continuous
100
AcDbLine
 10
900.7403135025539
 20
423.3848281471345
 30
0.0
 11
903.276023072998
 21
417.9469814249147
 31
0.0
  0
HATCH
  5
1179
330
18
100
AcDbEntity
  8
ﾊｯﾁﾝｸ
  6
Continuous
100
AcDbHatch
 10
0.0
 20
0.0
 30
0.0
210
0.0
220
0.0
230
1.0
  2
ANSI37
 70
     0
 71
     0
 91
        1
 92
        7
 72
     0
 73
     1
 93
        4
 10
897.1150823544071
 20
421.6943551001718
 10
900.7403135025539
 20
423.3848281471345
 10
903.276023072998
 20
417.9469814249147
 10
899.6507919248513
 20
416.256508377952
 97
        0
 75
     0
 76
     1
 52
24.99999999999996
 41
10.0
 77
     0
 78
     2
 53
160.0000000000001
 43
1137.110960837047
 44
362.4514599021828
 45
0.4275251791570851
 46
1.174615775982385
 79
     0
 53
70.00000000000006
 43
1137.110960837047
 44
362.4514599021828
 45
1.174615775982385
 46
-0.4275251791570851
 79
     0
 47
0.1856754751158765
 98
        1
 10
899.6381476578651
 20
420.4170180855656
  0
LINE
  5
117A
330
18
100
AcDbEntity
  8
外形線
  6
CENTER2
100
AcDbLine
 10
905.9751013462051
 20
415.8954485367833
 30
0.0
 11
907.3345630267599
 21
416.5293759293945
 31
0.0
  0
LINE
  5
117B
330
18
100
AcDbEntity
  8
外形線
  6
Continuous
100
AcDbLine
 10
910.5672234866288
 20
418.5884792175273
 30
0.0
 11
911.8661019619432
 21
418.6424672380979
 31
0.0
  0
LINE
  5
117C
330
18
100
AcDbEntity
  8
外形線
  6
Continuous
100
AcDbLine
 10
911.0321035745435
 20
417.5915406517872
 30
0.0
 11
907.5881339838044
 21
415.9855912571726
 31
0.0
  0
LINE
  5
117D
330
18
100
AcDbEntity
  8
外形線
  6
Continuous
100
AcDbLine
 10
910.6094853128029
 20
418.4978484388238
 30
0.0
 11
907.1655157220636
 21
416.8918990442091
 31
0.0
  0
LINE
  5
117E
330
18
100
AcDbEntity
  8
外形線
  6
Continuous
100
AcDbLine
 10
910.1868670510622
 20
419.4041562258604
 30
0.0
 11
906.7428974603231
 21
417.7982068312457
 31
0.0
  0
LINE
  5
117F
330
18
100
AcDbEntity
  8
外形線
  6
Continuous
100
AcDbLine
 10
903.004130736887
 20
417.8201959463925
 30
0.0
 11
904.4832946529796
 21
414.6481186917643
 31
0.0
  0
LINE
  5
1180
330
18
100
AcDbEntity
  8
外形線
  6
Continuous
100
AcDbLine
 10
897.7214024651281
 20
429.1490432843507
 30
0.0
 11
900.4684211664427
 21
423.2580426686123
 31
0.0
  0
LINE
  5
1181
330
18
100
AcDbEntity
  8
外形線
  6
Continuous
100
AcDbLine
 10
893.4898512062607
 20
420.0038820532088
 30
0.0
 11
896.0255607767049
 21
414.5660353309891
 31
0.0
  0
LINE
  5
1182
330
18
100
AcDbEntity
  8
外形線
  6
Continuous
100
AcDbLine
 10
896.2974531128157
 20
414.6928208095111
 30
0.0
 11
897.7766170289081
 21
411.5207435548831
 31
0.0
  0
LINE
  5
1183
330
18
100
AcDbEntity
  8
外形線
  6
Continuous
100
AcDbLine
 10
891.0147248410568
 20
426.0216681474693
 30
0.0
 11
893.7617435423716
 21
420.1306675317311
 31
0.0
  0
LINE
  5
1184
330
18
100
AcDbEntity
  8
外形線
  6
Continuous
100
AcDbLine
 10
919.1678743554998
 20
391.1527578923683
 30
0.0
 11
922.6118439462389
 21
392.7587072869832
 31
0.0
  0
LINE
  5
1185
330
18
100
AcDbEntity
  8
外形線
100
AcDbLine
 10
941.4859080625415
 20
333.7319495811254
 30
0.0
 11
945.2097122719584
 21
323.624013621257
 31
0.0
  0
LINE
  5
1186
330
18
100
AcDbEntity
  8
外形線
100
AcDbLine
 10
940.7814756467807
 20
333.4745103229976
 30
0.0
 11
944.6826099797139
 21
322.8852274846527
 31
0.0
  0
LINE
  5
1187
330
18
100
AcDbEntity
  8
外形線
100
AcDbLine
 10
942.1160647588932
 20
321.9397019159416
 30
0.0
 11
944.9043522633457
 21
322.9669182326424
 31
0.0
  0
LINE
  5
1188
330
18
100
AcDbEntity
  8
外形線
100
AcDbLine
 10
945.2097122719584
 20
323.624013621257
 30
0.0
 11
941.9394081993935
 21
322.4192204646877
 31
0.0
  0
LINE
  5
1189
330
18
100
AcDbEntity
  8
外形線
100
AcDbLine
 10
934.9452999174118
 20
331.3223632679868
 30
0.0
 11
938.6691041268289
 21
321.2144273081185
 31
0.0
  0
LINE
  5
118A
330
18
100
AcDbEntity
  8
外形線
100
AcDbLine
 10
935.6483852051393
 20
331.5834591855753
 30
0.0
 11
939.5495195380727
 21
320.9941763472305
 31
0.0
  0
LINE
  5
118B
330
18
100
AcDbEntity
  8
外形線
100
AcDbLine
 10
938.6691041268287
 20
321.2144273081185
 30
0.0
 11
941.9394081993937
 21
322.4192204646878
 31
0.0
  0
LINE
  5
118C
330
18
100
AcDbEntity
  8
外形線
100
AcDbLine
 10
939.3277772544411
 20
320.9124855992408
 30
0.0
 11
938.6691041268287
 21
321.2144273081185
 31
0.0
  0
LINE
  5
118D
330
18
100
AcDbEntity
  8
外形線
100
AcDbLine
 10
942.1160647588937
 20
321.9397019159418
 30
0.0
 11
939.3277772544411
 21
320.9124855992409
 31
0.0
  0
LINE
  5
118E
330
18
100
AcDbEntity
  8
外形線
100
AcDbLine
 10
934.9496311718883
 20
336.337588212118
 30
0.0
 11
934.9452999174118
 21
331.3223632679868
 31
0.0
  0
LINE
  5
118F
330
18
100
AcDbEntity
  8
外形線
100
AcDbLine
 10
934.9452999174118
 20
331.3223632679868
 30
0.0
 11
935.6483852051395
 21
331.5834591855754
 31
0.0
  0
LINE
  5
1190
330
18
100
AcDbEntity
  8
外形線
100
AcDbLine
 10
936.6501573920549
 20
335.982368794898
 30
0.0
 11
935.6483852051395
 21
331.5834591855754
 31
0.0
  0
ARC
  5
1191
330
18
100
AcDbEntity
  8
外形線
100
AcDbCircle
 10
936.7642274549778
 20
336.4780884946728
 30
0.0
 40
1.5
100
AcDbArc
 50
110.3732011173246
 51
180.9016305539149
  0
LINE
  5
1192
330
18
100
AcDbEntity
  8
外形線
100
AcDbLine
 10
934.9496311718883
 20
336.337588212118
 30
0.0
 11
936.5877194820624
 21
336.9459044120179
 31
0.0
  0
ARC
  5
1193
330
18
100
AcDbEntity
  8
外形線
100
AcDbCircle
 10
936.9992137808072
 20
335.8453117357182
 30
0.0
 40
0.375
100
AcDbArc
 50
111.0887684645829
 51
158.5625362926158
  0
LINE
  5
1194
330
18
100
AcDbEntity
  8
想像線
 48
0.5
100
AcDbLine
 10
951.2287193341256
 20
329.969899024409
 30
0.0
 11
931.2899480193189
 21
320.6722972661138
 31
0.0
  0
LINE
  5
1195
330
18
100
AcDbEntity
  8
想像線
 48
0.6
100
AcDbLine
 10
912.6947445027282
 20
360.5498398957263
 30
0.0
 11
931.2899480193189
 21
320.6722972661138
 31
0.0
  0
LINE
  5
1196
330
18
100
AcDbEntity
  8
中心線
 48
0.3
100
AcDbLine
 10
915.5123216391713
 20
360.4230301854358
 30
0.0
 11
921.4543828751827
 21
347.6802387427178
 31
0.0
  0
LINE
  5
1197
330
18
100
AcDbEntity
  8
中心線
 48
0.5
100
AcDbLine
 10
917.8853430091047
 20
359.66012197277
 30
0.0
 11
914.5109315728753
 21
358.0866080782906
 31
0.0
  0
LINE
  5
1198
330
18
100
AcDbEntity
  8
中心線
 48
0.5
100
AcDbLine
 10
922.1115256265116
 20
350.5970441024036
 30
0.0
 11
918.7371141902824
 21
349.0235302079241
 31
0.0
  0
CIRCLE
  5
1199
330
18
100
AcDbEntity
  8
想像線
100
AcDbCircle
 10
916.2283687555419
 20
358.8874621889681
 30
0.0
 40
0.9
  0
CIRCLE
  5
119A
330
18
100
AcDbEntity
  8
想像線
100
AcDbCircle
 10
920.4545513729488
 20
349.8243843186016
 30
0.0
 40
0.9
  0
LINE
  5
119B
330
18
100
AcDbEntity
  8
想像線
100
AcDbLine
 10
920.9243976833418
 20
349.6533742469388
 30
0.0
 11
919.984705062556
 21
349.9953943902647
 31
0.0
  0
LINE
  5
119C
330
18
100
AcDbEntity
  8
想像線
100
AcDbLine
 10
920.6255614446117
 20
350.2942306289948
 30
0.0
 11
920.2835413012861
 21
349.3545380082088
 31
0.0
  0
LINE
  5
119F
330
18
100
AcDbEntity
  8
隠れ線
 62
     4
 48
0.4
100
AcDbLine
 10
934.9474541476189
 20
333.8167789455989
 30
0.0
 11
940.7767657081999
 21
334.5623224962662
 31
0.0
  0
LINE
  5
11A0
330
18
100
AcDbEntity
  8
外形線
100
AcDbLine
 10
940.7767657081999
 20
334.5623224962662
 30
0.0
 11
942.1735306895495
 21
334.7409626517668
 31
0.0
  0
LINE
  5
11A1
330
18
100
AcDbEntity
  8
外形線
100
AcDbLine
 10
928.8241762519897
 20
337.3224898590659
 30
0.0
 11
930.1911268914919
 21
334.6735853386426
 31
0.0
  0
LINE
  5
11A2
330
18
100
AcDbEntity
  8
外形線
100
AcDbLine
 10
934.1211269780844
 20
351.7994426366218
 30
0.0
 11
926.8706646817916
 21
348.4184965426964
 31
0.0
  0
HATCH
  5
11A3
330
18
100
AcDbEntity
  8
ROGO
 62
     4
100
AcDbHatch
 10
0.0
 20
0.0
 30
0.0
210
0.0
220
0.0
230
1.0
  2
SOLID
 70
     1
 71
     1
 91
        1
 92
        7
 72
     0
 73
     1
 93
       11
 10
957.2427252569514
 20
420.8363948380986
 10
957.9278024384821
 20
421.1562883844935
 10
957.9431791044406
 20
421.7545418508925
 10
958.4117418861035
 20
421.382261618333
 10
959.0968040786961
 20
421.7021481657139
 10
958.1992131118228
 20
422.4152977946824
 10
958.8913282838539
 20
423.8707531786952
 10
958.2062660912612
 20
423.5508666313138
 10
957.9802823372776
 20
423.1981017044482
 10
957.9867143154176
 20
423.448347969059
 10
957.3016371338869
 20
423.128454422664
 97
       11
330
12DF
330
12B7
330
12B8
330
11A6
330
1230
330
1234
330
125D
330
125E
330
11A8
330
11A7
330
11A5
 75
     0
 76
     1
 47
0.0514683685270805
 98
        1
 10
957.6151238081941
 20
422.3032990490501
450
        0
451
        0
460
0.0
461
0.0
452
        0
462
0.0
453
        0
470

  0
LINE
  5
11A4
330
18
100
AcDbEntity
  8
目盛
100
AcDbLine
 10
971.3026320279283
 20
394.6422183755616
 30
0.0
 11
969.2554884205458
 21
396.8352078991919
 31
0.0
  0
LINE
  5
11A5
102
{ACAD_REACTORS
330
11A3
102
}
330
18
100
AcDbEntity
  8
ROGO
 62
     4
100
AcDbLine
 10
958.1992131118228
 20
422.4152977946825
 30
0.0
 11
958.8913282838541
 21
423.8707531786952
 31
0.0
  0
LINE
  5
11A6
102
{ACAD_REACTORS
330
11A3
102
}
330
18
100
AcDbEntity
  8
ROGO
 62
     4
100
AcDbLine
 10
957.3016371338869
 20
423.128454422664
 30
0.0
 11
957.9867143154178
 21
423.448347969059
 31
0.0
  0
LINE
  5
11A7
102
{ACAD_REACTORS
330
11A3
102
}
330
18
100
AcDbEntity
  8
ROGO
 62
     4
100
AcDbLine
 10
958.1992131118228
 20
422.4152977946825
 30
0.0
 11
959.0968040786963
 21
421.7021481657141
 31
0.0
  0
LINE
  5
11A8
102
{ACAD_REACTORS
330
11A3
102
}
330
18
100
AcDbEntity
  8
ROGO
 62
     4
100
AcDbLine
 10
958.4117418861035
 20
421.3822616183329
 30
0.0
 11
959.0968040786963
 21
421.7021481657141
 31
0.0
  0
LINE
  5
11A9
330
18
100
AcDbEntity
  8
目盛
100
AcDbLine
 10
952.7929168509416
 20
434.2822287705591
 30
0.0
 11
953.1600839188181
 21
431.3047821557113
 31
0.0
  0
CIRCLE
  5
11AA
330
18
100
AcDbEntity
  8
外形線
100
AcDbCircle
 10
955.6078643713288
 20
411.4551380567279
 30
0.0
 40
15.5
  0
CIRCLE
  5
11AB
330
18
100
AcDbEntity
  8
外形線
100
AcDbCircle
 10
955.6078643713288
 20
411.4551380567279
 30
0.0
 40
23.0
  0
LINE
  5
11AC
330
18
100
AcDbEntity
  8
目盛
100
AcDbLine
 10
939.8136037616565
 20
394.7356484773852
 30
0.0
 11
941.1870177277149
 21
396.1895171364586
 31
0.0
  0
LINE
  5
11AD
330
18
100
AcDbEntity
  8
中心線
 48
0.2
100
AcDbLine
 10
955.3969299233385
 20
405.4805893316888
 30
0.0
 11
956.9256962039364
 21
402.2066161411251
 31
0.0
  0
LINE
  5
11AE
330
18
100
AcDbEntity
  8
中心線
 48
0.2
100
AcDbLine
 10
955.0344953711755
 20
405.3113522335147
 30
0.0
 11
956.5632616517735
 21
402.0373790429509
 31
0.0
  0
HATCH
  5
11AF
330
18
100
AcDbEntity
  8
ﾊｯﾁﾝｸ
100
AcDbHatch
 10
0.0
 20
0.0
 30
0.0
210
0.0
220
0.0
230
1.0
  2
SOLID
 70
     1
 71
     0
 91
        3
 92
        7
 72
     1
 73
     1
 93
        5
 10
955.3969299233385
 20
405.4805893316888
 42
0.0105298176880202
 10
955.2139304138581
 20
405.3997875755547
 42
0.0
 10
955.4254767865757
 20
404.9467443853508
 42
0.0
 10
956.7370642974244
 20
402.1378766060871
 42
-0.0437283108272093
 10
956.9256962039364
 20
402.2066161411251
 42
0.0
 97
        0
 92
        7
 72
     1
 73
     1
 93
        4
 10
955.2139304138584
 20
405.3997875755547
 42
0.0105298176880232
 10
955.0344953711755
 20
405.3113522335147
 42
0.0
 10
956.5632616517735
 20
402.0373790429509
 42
-0.0437283108272093
 10
956.7370642974244
 20
402.1378766060871
 42
0.0
 97
        0
 92
      137
 93
        4
 72
     1
 10
955.510585206216
 20
403.3616666845319
 11
956.5676859833583
 21
403.8552748875394
 72
     1
 10
956.5676859833583
 20
403.8552748875394
 11
955.9330468652058
 21
405.2144044581509
 72
     1
 10
955.933046865206
 20
405.214404458151
 11
954.8759460880637
 21
404.7207962551435
 72
     1
 10
954.8759460880635
 20
404.7207962551436
 11
955.510585206216
 21
403.3616666845321
 97
        0
 75
     0
 76
     1
 47
0.0128177587452554
 98
        3
 10
956.6459635292016
 20
402.6844416861031
 10
956.0664503621046
 20
403.7435922170198
 10
955.9254123111859
 20
403.6211498701605
450
        0
451
        0
460
0.0
461
0.0
452
        0
462
0.0
453
        0
470

  0
LINE
  5
11B0
330
18
100
AcDbEntity
  8
中心線
 48
0.5
100
AcDbLine
 10
944.3214452456757
 20
435.6258920194593
 30
0.0
 11
967.0608356135135
 21
386.9276996411298
 31
0.0
  0
CIRCLE
  5
11B1
330
18
100
AcDbEntity
  8
外形線
100
AcDbCircle
 10
957.2236209546746
 20
401.0958772686182
 30
0.0
 40
4.75
  0
LINE
  5
11B2
330
18
100
AcDbEntity
  8
中心線
 48
0.2
100
AcDbLine
 10
953.8967549399627
 20
408.2206224170426
 30
0.0
 11
960.5349083495067
 21
394.0044949595506
 31
0.0
  0
LINE
  5
11B3
330
18
100
AcDbEntity
  8
目盛
100
AcDbLine
 10
944.4677774792639
 20
391.3330490986392
 30
0.0
 11
945.9208322912722
 21
393.9576693975203
 31
0.0
  0
LINE
  5
11B4
330
18
100
AcDbEntity
  8
目盛
100
AcDbLine
 10
943.8412243512541
 20
391.6928967203315
 30
0.0
 11
944.864410439956
 21
393.4113524887138
 31
0.0
  0
LINE
  5
11B5
330
18
100
AcDbEntity
  8
目盛
100
AcDbLine
 10
943.226283476341
 20
392.0722472882986
 30
0.0
 11
944.3029426846006
 21
393.7577160507706
 31
0.0
  0
LINE
  5
11B6
330
18
100
AcDbEntity
  8
目盛
100
AcDbLine
 10
945.1053245280764
 20
390.9930595493794
 30
0.0
 11
946.0185888622723
 21
392.7723707239315
 31
0.0
  0
LINE
  5
11B7
330
18
100
AcDbEntity
  8
目盛
100
AcDbLine
 10
942.6235617269243
 20
392.4707264293291
 30
0.0
 11
943.75263152209
 21
394.1215448317117
 31
0.0
  0
LINE
  5
11B8
330
18
100
AcDbEntity
  8
目盛
100
AcDbLine
 10
941.4571422131686
 20
393.3234789378675
 30
0.0
 11
943.3028885816241
 21
395.6884779533713
 31
0.0
  0
LINE
  5
11B9
330
18
100
AcDbEntity
  8
目盛
100
AcDbLine
 10
940.3465691349211
 20
394.2477888213809
 30
0.0
 11
941.6736382859131
 21
395.7440800592372
 31
0.0
  0
LINE
  5
11BA
330
18
100
AcDbEntity
  8
目盛
100
AcDbLine
 10
942.0336539166045
 20
392.8879408926204
 30
0.0
 11
943.2140200431025
 21
394.5024797764556
 31
0.0
  0
LINE
  5
11BB
330
18
100
AcDbEntity
  8
目盛
100
AcDbLine
 10
940.8945955640659
 20
393.7769107416033
 30
0.0
 11
942.1740102429584
 21
395.3141478994404
 31
0.0
  0
LINE
  5
11BC
330
18
100
AcDbEntity
  8
目盛
100
AcDbLine
 10
959.8505821210629
 20
388.8498434093211
 30
0.0
 11
959.4816501428249
 21
390.8155212047477
 31
0.0
  0
LINE
  5
11BD
330
18
100
AcDbEntity
  8
中心線
 48
0.2
100
AcDbLine
 10
950.9179164902889
 20
398.1514584235425
 30
0.0
 11
964.0815280516369
 21
404.2981445185539
 31
0.0
  0
LINE
  5
11BE
330
18
100
AcDbEntity
  8
目盛
100
AcDbLine
 10
949.1255645528951
 20
389.3875194932324
 30
0.0
 11
949.6892427979762
 21
391.3064428465799
 31
0.0
  0
LINE
  5
11BF
330
18
100
AcDbEntity
  8
目盛
100
AcDbLine
 10
949.8219238266729
 20
389.1947945729965
 30
0.0
 11
950.3250490914256
 21
391.1304766150601
 31
0.0
  0
LINE
  5
11C0
330
18
100
AcDbEntity
  8
目盛
100
AcDbLine
 10
950.523993125223
 20
389.0240379242552
 30
0.0
 11
950.9660688857538
 21
390.9745683705572
 31
0.0
  0
LINE
  5
11C1
330
18
100
AcDbEntity
  8
目盛
100
AcDbLine
 10
951.2310795909099
 20
388.8754180632052
 30
0.0
 11
951.8019645622691
 21
391.8205989319257
 31
0.0
  0
TEXT
  5
11C2
330
18
100
AcDbEntity
  8
文字
100
AcDbText
 10
956.3910817873173
 20
392.2179904908543
 30
0.0
 40
2.0
  1
.1
 50
25.0300000000002
  7
STYLE3
100
AcDbText
  0
LINE
  5
11C3
330
18
100
AcDbEntity
  8
目盛
100
AcDbLine
 10
953.3754432804846
 20
388.5637358263455
 30
0.0
 11
953.5695668536018
 21
390.554292542031
 31
0.0
  0
LINE
  5
11C4
330
18
100
AcDbEntity
  8
目盛
100
AcDbLine
 10
952.6575085251122
 20
388.6451533925354
 30
0.0
 11
952.9140612073922
 21
390.6286303198565
 31
0.0
  0
LINE
  5
11C5
330
18
100
AcDbEntity
  8
目盛
100
AcDbLine
 10
951.9424854147592
 20
388.7490816597061
 30
0.0
 11
952.2612140196784
 21
390.7235213464037
 31
0.0
  0
LINE
  5
11C6
330
18
100
AcDbEntity
  8
目盛
100
AcDbLine
 10
959.1384391319079
 20
388.7277307725708
 30
0.0
 11
958.8314326309879
 21
390.7040270581496
 31
0.0
  0
LINE
  5
11C7
330
18
100
AcDbEntity
  8
目盛
100
AcDbLine
 10
956.9839323505343
 20
388.4963393748151
 30
0.0
 11
956.8642742653862
 21
390.4927566515033
 31
0.0
  0
LINE
  5
11C8
330
18
100
AcDbEntity
  8
目盛
100
AcDbLine
 10
956.2621000499328
 20
388.4644448162699
 30
0.0
 11
956.2052099909237
 21
390.4636355328316
 31
0.0
  0
LINE
  5
11C9
330
18
100
AcDbEntity
  8
目盛
100
AcDbLine
 10
954.8172114923596
 20
388.4687318995016
 30
0.0
 11
954.9203401287469
 21
391.4669587895746
 31
0.0
  0
LINE
  5
11CA
330
18
100
AcDbEntity
  8
目盛
100
AcDbLine
 10
955.5396220977041
 20
388.4552392962533
 30
0.0
 11
955.5455562084539
 21
390.4552304928165
 31
0.0
  0
LINE
  5
11CB
330
18
100
AcDbEntity
  8
目盛
100
AcDbLine
 10
954.0955811659506
 20
388.5049093104448
 30
0.0
 11
954.2270840533749
 21
390.5005813753389
 31
0.0
  0
LINE
  5
11CC
330
18
100
AcDbEntity
  8
目盛
100
AcDbLine
 10
957.7044066381745
 20
388.5508914958098
 30
0.0
 11
957.5220986149703
 21
390.5425651098026
 31
0.0
  0
LINE
  5
11CD
330
18
100
AcDbEntity
  8
目盛
100
AcDbLine
 10
958.4228118917163
 20
388.6280473428971
 30
0.0
 11
958.0556448238398
 21
391.6054939577446
 31
0.0
  0
TEXT
  5
11CE
330
18
100
AcDbEntity
  8
文字
100
AcDbText
 10
950.5613103282913
 20
392.371878545716
 30
0.0
 40
2.0
  1
.2
 50
25.0300000000002
  7
STYLE3
100
AcDbText
  0
LINE
  5
11CF
330
18
100
AcDbEntity
  8
目盛
100
AcDbLine
 10
947.7527186564696
 20
389.8380918709436
 30
0.0
 11
948.777302880147
 21
392.6577065908286
 31
0.0
  0
LINE
  5
11D0
330
18
100
AcDbEntity
  8
目盛
100
AcDbLine
 10
946.4108734315061
 20
390.3739768540612
 30
0.0
 11
947.2106117740993
 21
392.2071213064671
 31
0.0
  0
LINE
  5
11D1
330
18
100
AcDbEntity
  8
目盛
100
AcDbLine
 10
948.435602526421
 20
389.6020224887345
 30
0.0
 11
949.0592774694565
 21
391.5022934076905
 31
0.0
  0
LINE
  5
11D2
330
18
100
AcDbEntity
  8
目盛
100
AcDbLine
 10
947.0775868669763
 20
390.0954946678807
 30
0.0
 11
947.8193501282245
 21
391.9528549625629
 31
0.0
  0
LINE
  5
11D3
330
18
100
AcDbEntity
  8
目盛
100
AcDbLine
 10
945.7532363157278
 20
390.6732636011895
 30
0.0
 11
946.6101604944755
 21
392.4803831190624
 31
0.0
  0
TEXT
  5
11D4
330
18
100
AcDbEntity
  8
文字
100
AcDbText
 10
945.8017137437741
 20
394.1704505571541
 30
0.0
 40
2.0
  1
.3
 50
25.0300000000002
  7
STYLE3
100
AcDbText
  0
LINE
  5
11D5
330
18
100
AcDbEntity
  8
目盛
100
AcDbLine
 10
956.3197197500228
 20
396.4326742264776
 30
0.0
 11
956.4148672452493
 21
396.9235377045978
 31
0.0
  0
LINE
  5
11D6
330
18
100
AcDbEntity
  8
目盛
100
AcDbLine
 10
953.7513875422598
 20
397.8545665569293
 30
0.0
 11
954.1168857961981
 21
398.1957571581596
 31
0.0
  0
TEXT
  5
11D7
330
18
100
AcDbEntity
  8
文字
100
AcDbText
 10
954.677782600347
 20
398.4423282998961
 30
0.0
 40
0.7
  1
6
 50
25.0300000000002
  7
STYLE3
100
AcDbText
  0
LINE
  5
11D8
330
18
100
AcDbEntity
  8
目盛
100
AcDbLine
 10
952.5093304811662
 20
400.514529411147
 30
0.0
 11
953.0055715836411
 21
400.5757239224599
 31
0.0
  0
TEXT
  5
11D9
330
18
100
AcDbEntity
  8
文字
100
AcDbText
 10
953.8483059865988
 20
400.3938178054386
 30
0.0
 40
0.7
  1
4
 50
25.0300000000002
  7
STYLE3
100
AcDbText
  0
TEXT
  5
11DA
330
18
100
AcDbEntity
  8
文字
100
AcDbText
 10
966.7171160427951
 20
396.621979167417
 30
0.0
 40
2.0
  1
.9
 50
25.0300000000002
  7
STYLE3
100
AcDbText
  0
TEXT
  5
11DB
330
18
100
AcDbEntity
  8
文字
100
AcDbText
 10
962.986562195944
 20
393.4449635309817
 30
0.0
 40
2.0
  1
0
 50
25.0300000000002
  7
STYLE3
100
AcDbText
  0
LINE
  5
11DC
330
18
100
AcDbEntity
  8
目盛
100
AcDbLine
 10
963.3345944004206
 20
389.7918593792624
 30
0.0
 11
962.6627048326735
 21
391.6756227425204
 31
0.0
  0
LINE
  5
11DD
330
18
100
AcDbEntity
  8
目盛
100
AcDbLine
 10
964.0112417529614
 20
390.045251354976
 30
0.0
 11
963.2805132849936
 21
391.9069806333891
 31
0.0
  0
LINE
  5
11DE
330
18
100
AcDbEntity
  8
目盛
100
AcDbLine
 10
961.9590989408454
 20
389.3494415184377
 30
0.0
 11
961.1306770404738
 21
392.2327932408234
 31
0.0
  0
LINE
  5
11DF
330
18
100
AcDbEntity
  8
目盛
100
AcDbLine
 10
960.5585380600272
 20
388.9942647427174
 30
0.0
 11
960.1280446957927
 21
390.9473841613271
 31
0.0
  0
LINE
  5
11E0
330
18
100
AcDbEntity
  8
目盛
100
AcDbLine
 10
961.2616082817641
 20
389.1608522463413
 30
0.0
 11
960.769978376509
 21
391.0994857950704
 31
0.0
  0
LINE
  5
11E1
330
18
100
AcDbEntity
  8
目盛
100
AcDbLine
 10
962.6503216982012
 20
389.5598464441647
 30
0.0
 11
962.03793410456
 21
391.4637848452573
 31
0.0
  0
LINE
  5
11E2
330
18
100
AcDbEntity
  8
目盛
100
AcDbLine
 10
965.9887955925302
 20
390.9310968615665
 30
0.0
 11
965.0861059211216
 21
392.7157960959285
 31
0.0
  0
LINE
  5
11E3
330
18
100
AcDbEntity
  8
目盛
100
AcDbLine
 10
964.6795959865782
 20
390.3197723040166
 30
0.0
 11
963.8907497591651
 21
392.1576301955568
 31
0.0
  0
LINE
  5
11E4
330
18
100
AcDbEntity
  8
目盛
100
AcDbLine
 10
964.0697192800296
 20
393.333410448575
 30
0.0
 11
965.3389975163348
 21
390.615151307352
 31
0.0
  0
LINE
  5
11E5
330
18
100
AcDbEntity
  8
目盛
100
AcDbLine
 10
968.4792832980139
 20
392.3940107339861
 30
0.0
 11
966.8004025684464
 21
394.8802447326046
 31
0.0
  0
LINE
  5
11E6
330
18
100
AcDbEntity
  8
目盛
100
AcDbLine
 10
967.8742075516742
 20
391.9991152107815
 30
0.0
 11
966.8075690142529
 21
393.6909432843421
 31
0.0
  0
LINE
  5
11E7
330
18
100
AcDbEntity
  8
目盛
100
AcDbLine
 10
969.0716565078586
 20
392.807717288581
 30
0.0
 11
967.9008919742472
 21
394.4292321379851
 31
0.0
  0
LINE
  5
11E8
330
18
100
AcDbEntity
  8
目盛
100
AcDbLine
 10
967.2570264055487
 20
391.6234204331711
 30
0.0
 11
966.2440557938774
 21
393.3479176178283
 31
0.0
  0
LINE
  5
11E9
330
18
100
AcDbEntity
  8
目盛
100
AcDbLine
 10
970.7667810380105
 20
394.1575299708508
 30
0.0
 11
969.4486143713426
 21
395.6616698044054
 31
0.0
  0
LINE
  5
11EA
330
18
100
AcDbEntity
  8
目盛
100
AcDbLine
 10
969.6507425803673
 20
393.2398265961433
 30
0.0
 11
968.4296227361031
 21
394.8237667231507
 31
0.0
  0
LINE
  5
11EB
330
18
100
AcDbEntity
  8
目盛
100
AcDbLine
 10
970.2159700275016
 20
393.6899122169564
 30
0.0
 11
968.9456999704431
 21
395.2347144638929
 31
0.0
  0
LINE
  5
11EC
330
18
100
AcDbEntity
  8
目盛
100
AcDbLine
 10
966.628348942916
 20
391.2672971665434
 30
0.0
 11
965.6700459366911
 21
393.0227615917769
 31
0.0
  0
LINE
  5
11ED
330
18
100
AcDbEntity
  8
目盛
100
AcDbLine
 10
961.3792697612366
 20
398.7952071496051
 30
0.0
 11
960.9418330447564
 21
399.0373829516064
 31
0.0
  0
TEXT
  5
11EE
330
18
100
AcDbEntity
  8
文字
100
AcDbText
 10
959.5569985488506
 20
402.940004642119
 30
0.0
 40
0.7
  1
6
 50
25.0300000000002
  7
STYLE3
100
AcDbText
  0
TEXT
  5
11EF
330
18
100
AcDbEntity
  8
文字
100
AcDbText
 10
958.4678291458695
 20
397.6446824107229
 30
0.0
 40
0.7
  1
0
 50
25.0300000000002
  7
STYLE3
100
AcDbText
  0
TEXT
  5
11F0
330
18
100
AcDbEntity
  8
文字
100
AcDbText
 10
956.4819146373725
 20
397.3597554676937
 30
0.0
 40
0.7
  1
8
 50
25.0300000000002
  7
STYLE3
100
AcDbText
  0
CIRCLE
  5
11F1
330
18
100
AcDbEntity
  8
外形線
100
AcDbCircle
 10
957.2236209546746
 20
401.0958772686182
 30
0.0
 40
1.149999999999999
  0
LINE
  5
11F2
330
18
100
AcDbEntity
  8
目盛
100
AcDbLine
 10
959.2333114954911
 20
396.7919669616819
 30
0.0
 11
959.0217651227737
 21
397.2450101518857
 31
0.0
  0
TEXT
  5
11F3
330
18
100
AcDbEntity
  8
文字
100
AcDbText
 10
959.905343084643
 20
399.0601568287112
 30
0.0
 40
0.7
  1
2
 50
25.0300000000002
  7
STYLE3
100
AcDbText
  0
TEXT
  5
11F4
330
18
100
AcDbEntity
  8
文字
100
AcDbText
 10
960.4941377267625
 20
400.9408612182763
 30
0.0
 40
0.7
  1
4
 50
25.0300000000002
  7
STYLE3
100
AcDbText
  0
LINE
  5
11F5
330
18
100
AcDbEntity
  8
目盛
100
AcDbLine
 10
961.9379114281832
 20
401.6772251260899
 30
0.0
 11
961.4416703257086
 21
401.616030614777
 31
0.0
  0
LINE
  5
11F6
330
18
100
AcDbEntity
  8
目盛
100
AcDbLine
 10
960.6958543670893
 20
404.3371879803073
 30
0.0
 11
960.3303561131513
 21
403.995997379077
 31
0.0
  0
TEXT
  5
11F7
330
18
100
AcDbEntity
  8
文字
100
AcDbText
 10
936.7902776139283
 20
407.810398965329
 30
0.0
 40
2.0
  1
.6
 50
25.0300000000002
  7
STYLE3
100
AcDbText
  0
LINE
  5
11F8
330
18
100
AcDbEntity
  8
目盛
100
AcDbLine
 10
932.901807974307
 20
415.1205170132975
 30
0.0
 11
934.8762476610046
 21
414.8017884083784
 31
0.0
  0
LINE
  5
11F9
330
18
100
AcDbEntity
  8
目盛
100
AcDbLine
 10
933.1767642388561
 20
416.5390093028339
 30
0.0
 11
935.1272946851581
 21
416.0969335423029
 31
0.0
  0
LINE
  5
11FA
330
18
100
AcDbEntity
  8
目盛
100
AcDbLine
 10
932.7978797071365
 20
414.4054939029443
 30
0.0
 11
934.7813566344575
 21
414.1489412206649
 31
0.0
  0
LINE
  5
11FB
330
18
100
AcDbEntity
  8
目盛
100
AcDbLine
 10
933.028144377806
 20
415.8319228371468
 30
0.0
 11
935.9733252465264
 21
415.261037865788
 31
0.0
  0
TEXT
  5
11FC
330
18
100
AcDbEntity
  8
文字
100
AcDbText
 10
941.1028164897565
 20
398.1051720604524
 30
0.0
 40
2.0
  1
.4
 50
25.0300000000002
  7
STYLE3
100
AcDbText
  0
TEXT
  5
11FD
330
18
100
AcDbEntity
  8
文字
100
AcDbText
 10
938.0241490178741
 20
402.2472744189319
 30
0.0
 40
2.0
  1
.5
 50
25.0300000000002
  7
STYLE3
100
AcDbText
  0
LINE
  5
11FE
330
18
100
AcDbEntity
  8
目盛
100
AcDbLine
 10
932.6214582141023
 20
412.2457909356971
 30
0.0
 11
935.6196851041755
 21
412.14266229931
 31
0.0
  0
LINE
  5
11FF
330
18
100
AcDbEntity
  8
目盛
100
AcDbLine
 10
932.6079656108541
 20
411.523380330353
 30
0.0
 11
934.607956807417
 21
411.5174462196029
 31
0.0
  0
LINE
  5
1200
330
18
100
AcDbEntity
  8
目盛
100
AcDbLine
 10
936.546737048587
 20
398.5837191300429
 30
0.0
 11
939.0329710472055
 21
400.2625998596105
 31
0.0
  0
LINE
  5
1201
330
18
100
AcDbEntity
  8
目盛
100
AcDbLine
 10
935.7761467477718
 20
399.8059760225081
 30
0.0
 11
937.5006439324293
 21
400.8189466341794
 31
0.0
  0
LINE
  5
1202
330
18
100
AcDbEntity
  8
目盛
100
AcDbLine
 10
935.4200234811441
 20
400.4346534851407
 30
0.0
 11
937.1754879063777
 21
401.3929564913655
 31
0.0
  0
LINE
  5
1203
330
18
100
AcDbEntity
  8
目盛
100
AcDbLine
 10
936.1518415253824
 20
399.1887948763828
 30
0.0
 11
937.843669598943
 21
400.255433413804
 31
0.0
  0
LINE
  5
1204
330
18
100
AcDbEntity
  8
目盛
100
AcDbLine
 10
935.0838231761672
 20
401.0742068355265
 30
0.0
 11
936.8685224105293
 21
401.9768965069353
 31
0.0
  0
LINE
  5
1205
330
18
100
AcDbEntity
  8
目盛
100
AcDbLine
 10
939.2962254167489
 20
395.2400082510361
 30
0.0
 11
940.7146288041037
 21
396.6500195384875
 31
0.0
  0
LINE
  5
1206
330
18
100
AcDbEntity
  8
目盛
100
AcDbLine
 10
938.3102562854517
 20
396.2962213900461
 30
0.0
 11
939.8143961190065
 21
397.6143880567142
 31
0.0
  0
LINE
  5
1207
330
18
100
AcDbEntity
  8
目盛
100
AcDbLine
 10
938.7949446901622
 20
395.7603704001287
 30
0.0
 11
940.9879342137926
 21
397.8075140075112
 31
0.0
  0
LINE
  5
1208
330
18
100
AcDbEntity
  8
目盛
100
AcDbLine
 10
937.392552910744
 20
397.4122598476894
 30
0.0
 11
938.9764930377515
 21
398.6333796919538
 31
0.0
  0
LINE
  5
1209
330
18
100
AcDbEntity
  8
目盛
100
AcDbLine
 10
937.842638531557
 20
396.8470324005554
 30
0.0
 11
939.3874407784938
 21
398.1173024576141
 31
0.0
  0
LINE
  5
120A
330
18
100
AcDbEntity
  8
目盛
100
AcDbLine
 10
936.9604436031819
 20
397.9913459201983
 30
0.0
 11
938.581958452586
 21
399.1621104538098
 31
0.0
  0
LINE
  5
120B
330
18
100
AcDbEntity
  8
目盛
100
AcDbLine
 10
934.4724986186175
 20
402.3834064414785
 30
0.0
 11
936.3103565101576
 21
403.1722526688915
 31
0.0
  0
LINE
  5
120C
330
18
100
AcDbEntity
  8
目盛
100
AcDbLine
 10
934.7678776219527
 20
401.7240049117224
 30
0.0
 11
937.4861367631758
 21
402.9932831480275
 31
0.0
  0
LINE
  5
120D
330
18
100
AcDbEntity
  8
目盛
100
AcDbLine
 10
932.6490656894161
 20
410.0790700775225
 30
0.0
 11
934.6454829661039
 21
410.1987281626708
 31
0.0
  0
LINE
  5
120E
330
18
100
AcDbEntity
  8
目盛
100
AcDbLine
 10
932.7036178104107
 20
409.3585957898823
 30
0.0
 11
934.6952914244036
 21
409.5409038130862
 31
0.0
  0
LINE
  5
120F
330
18
100
AcDbEntity
  8
目盛
100
AcDbLine
 10
932.7807736574978
 20
408.6401905363404
 30
0.0
 11
935.7582202723454
 21
409.0073576042171
 31
0.0
  0
LINE
  5
1210
330
18
100
AcDbEntity
  8
目盛
100
AcDbLine
 10
932.6171711308708
 20
410.8009023781238
 30
0.0
 11
934.6163618474324
 21
410.857792437133
 31
0.0
  0
LINE
  5
1211
330
18
100
AcDbEntity
  8
目盛
100
AcDbLine
 10
933.3135785609421
 20
405.8013941462927
 30
0.0
 11
935.2522121096713
 21
406.293024051548
 31
0.0
  0
LINE
  5
1212
330
18
100
AcDbEntity
  8
目盛
100
AcDbLine
 10
933.7125727587656
 20
404.4126807298558
 30
0.0
 11
935.6165111598581
 21
405.0250683234969
 31
0.0
  0
LINE
  5
1213
330
18
100
AcDbEntity
  8
目盛
100
AcDbLine
 10
933.1469910573185
 20
406.5044643680292
 30
0.0
 11
935.1001104759282
 21
406.9349577322639
 31
0.0
  0
LINE
  5
1214
330
18
100
AcDbEntity
  8
目盛
100
AcDbLine
 10
933.0025697239218
 20
407.2124203069944
 30
0.0
 11
934.9682475193485
 21
407.5813522852319
 31
0.0
  0
LINE
  5
1215
330
18
100
AcDbEntity
  8
目盛
100
AcDbLine
 10
933.9445856938633
 20
403.7284080276361
 30
0.0
 11
935.8283490571212
 21
404.4002975953831
 31
0.0
  0
LINE
  5
1216
330
18
100
AcDbEntity
  8
目盛
100
AcDbLine
 10
933.5021678330386
 20
405.1039034872112
 30
0.0
 11
936.3855195554242
 21
405.932325387583
 31
0.0
  0
LINE
  5
1217
330
18
100
AcDbEntity
  8
目盛
100
AcDbLine
 10
934.1979776695765
 20
403.0517606750953
 30
0.0
 11
936.0597069479897
 21
403.7824891430635
 31
0.0
  0
LINE
  5
1218
330
18
100
AcDbEntity
  8
目盛
100
AcDbLine
 10
932.8804570871715
 20
407.9245632961488
 30
0.0
 11
934.8567533727505
 21
408.2315697970688
 31
0.0
  0
LINE
  5
1219
330
18
100
AcDbEntity
  8
目盛
100
AcDbLine
 10
932.6576356250454
 20
412.9674212621061
 30
0.0
 11
934.6533076899397
 21
412.8359183746821
 31
0.0
  0
LINE
  5
121A
330
18
100
AcDbEntity
  8
目盛
100
AcDbLine
 10
932.7164621409465
 20
413.6875591475719
 30
0.0
 11
934.707018856632
 21
413.4934355744551
 31
0.0
  0
HATCH
  5
121B
330
18
100
AcDbEntity
  8
ROGO
 62
     4
100
AcDbHatch
 10
0.0
 20
0.0
 30
0.0
210
0.0
220
0.0
230
1.0
  2
SOLID
 70
     1
 71
     0
 91
        1
 92
        5
 93
        8
 72
     1
 10
953.2046965339239
 20
420.676192754698
 11
953.2187241039549
 21
421.2219575140255
 72
     1
 10
953.2187241039547
 20
421.2219575140255
 11
952.027187584631
 21
420.6655751776968
 72
     4
 94
        3
 73
     0
 74
     0
 95
       26
 96
       22
 40
0.0
 40
0.0
 40
0.0
 40
0.0
 40
0.238219534659281
 40
0.3976890672662749
 40
0.5126795869788686
 40
0.5985392873135566
 40
0.7099038249249679
 40
0.7911890807496903
 40
0.9379713068542402
 40
1.057449928672913
 40
1.138714535892936
 40
1.218398644003361
 40
1.360938021870216
 40
1.461730374800175
 40
1.516014844107798
 40
1.593124329220232
 40
1.64880681859359
 40
1.729472362005599
 40
1.775122082164092
 40
1.874460993765106
 40
1.919820003751069
 40
1.919820003751069
 40
1.919820003751069
 40
1.919820003751069
 10
952.027187584631
 20
420.6655751776969
 10
951.9559666035286
 20
420.6269949137747
 10
951.8370686903709
 20
420.5625881505089
 10
951.7408717116074
 20
420.4183019648511
 10
951.6646285518501
 20
420.3249327067379
 10
951.6245630002238
 20
420.2276937816647
 10
951.6042240700565
 20
420.1370803389507
 10
951.5764312978081
 20
420.0274531879558
 10
951.5666975822929
 20
419.910363704901
 10
951.5873228895454
 20
419.7959510777675
 10
951.6013705988553
 20
419.7036471865841
 10
951.6259159943123
 20
419.604938182592
 10
951.6760450572464
 20
419.5093229662806
 10
951.7248675396709
 20
419.4215781611549
 10
951.7838947124515
 20
419.3702300167116
 10
951.8382022794686
 20
419.3394097661188
 10
951.9020500487183
 20
419.3073483364972
 10
951.9616681739909
 20
419.294207229547
 10
952.0264433465696
 20
419.2502165566926
 10
952.0936444387706
 20
419.2721225949565
 10
952.1412797455331
 20
419.2755111933366
 10
952.1562121670319
 20
419.2765734302097
 72
     1
 10
952.1562121670319
 20
419.2765734302096
 11
953.1810221533733
 21
419.7551036013344
 72
     1
 10
953.1810221533733
 20
419.7551036013344
 11
953.1950495748558
 21
420.300862581162
 72
     1
 10
953.1950495748558
 20
420.300862581162
 11
952.4342260379571
 21
419.9455996327515
 72
     4
 94
        3
 73
     0
 74
     0
 95
       16
 96
       12
 40
0.0
 40
0.0
 40
0.0
 40
0.0
 40
0.0719416665235911
 40
0.1446253590761808
 40
0.1879779149914913
 40
0.2295440936106429
 40
0.275193632395999
 40
0.3070718656053438
 40
0.3373215422373688
 40
0.3986635435215936
 40
0.5242542460843276
 40
0.5242542460843276
 40
0.5242542460843276
 40
0.5242542460843276
 10
952.4342260379571
 20
419.9455996327515
 10
952.4081241197269
 20
419.9416356175822
 10
952.3556510609409
 20
419.933666701307
 10
952.3210650752274
 20
419.9976634799167
 10
952.3044313158749
 20
420.0470073934934
 10
952.3105210341999
 20
420.0914310789513
 10
952.3256485026848
 20
420.1287497871225
 10
952.3204945176301
 20
420.1657455760677
 10
952.3383390110453
 20
420.2038317329425
 10
952.3710361136974
 20
420.2691113963206
 10
952.4243115947189
 20
420.3046395485048
 10
952.460104716806
 20
420.3285091309896
 72
     1
 10
952.4601047168067
 20
420.3285091309901
 11
953.2046965339239
 21
420.676192754698
 97
        0
 75
     0
 76
     1
 47
0.0514683685270805
 98
        1
 10
952.5675911088249
 20
420.5952941901113
450
        0
451
        0
460
0.0
461
0.0
452
        0
462
0.0
453
        0
470

  0
HATCH
  5
121C
330
18
100
AcDbEntity
  8
ROGO
 62
     4
100
AcDbHatch
 10
0.0
 20
0.0
 30
0.0
210
0.0
220
0.0
230
1.0
  2
SOLID
 70
     1
 71
     1
 91
        1
 92
        1
 93
       12
 72
     1
 10
947.7190001261574
 20
418.6538874412205
 11
949.3282848774704
 21
419.4053353366335
 72
     1
 10
949.3282848774702
 20
419.4053353366333
 11
949.320695523702
 21
419.0698117731105
 72
     1
 10
949.320695523702
 20
419.0698117731105
 11
948.4748961241352
 21
418.6748697479486
 72
     1
 10
948.4748961241352
 20
418.6748697479486
 11
948.4689621925852
 21
418.4125320153496
 72
     1
 10
948.4689621925852
 20
418.4125320153496
 11
949.3147615921518
 21
418.8074740405115
 72
     1
 10
949.3147615921518
 20
418.8074740405115
 11
949.3086769012377
 21
418.5384712715312
 72
     1
 10
949.3086769012377
 20
418.5384712715312
 11
948.4628775016709
 21
418.1435292463689
 72
     1
 10
948.4628775016709
 20
418.1435292463689
 11
948.4569433189065
 21
417.8811804076513
 72
     1
 10
948.4569433189065
 20
417.8811804076515
 11
949.3027427184733
 21
418.2761224328136
 72
     1
 10
949.3027427184733
 20
418.2761224328136
 11
949.295153746458
 21
417.9406157464994
 72
     1
 10
949.295153746458
 20
417.9406157464994
 11
947.6858689951452
 21
417.1891678510864
 72
     1
 10
947.6858689951452
 20
417.1891678510864
 11
947.7190001261574
 21
418.6538874412205
 97
       12
330
1281
330
1226
330
124E
330
124D
330
124F
330
124C
330
1252
330
1254
330
1251
330
1253
330
1250
330
1225
 75
     0
 76
     1
 98
        1
 10
920.3077234609585
 20
305.6452267192698
450
        0
451
        0
460
0.0
461
0.0
452
        0
462
0.0
453
        0
470

  0
HATCH
  5
121D
330
18
100
AcDbEntity
  8
ROGO
 62
     4
100
AcDbHatch
 10
0.0
 20
0.0
 30
0.0
210
0.0
220
0.0
230
1.0
  2
SOLID
 70
     1
 71
     1
 91
        2
 92
        7
 72
     0
 73
     1
 93
        8
 10
950.7462174136358
 20
420.0674322211468
 10
949.7944611239637
 20
419.6230141278066
 10
949.4920389181444
 20
418.0325503452587
 10
950.1509877480907
 20
418.3402433815868
 10
950.2085670649325
 20
418.6430578452701
 10
950.9605073018839
 20
418.9941727788281
 10
951.1669224683153
 20
418.8146292892186
 10
951.8303659129646
 20
419.1244210646027
 97
        8
330
1280
330
1227
330
1256
330
1255
330
1248
330
1257
330
1258
330
1229
 92
       22
 72
     0
 73
     1
 93
        3
 10
950.3725712691606
 20
419.5055697309394
 10
950.7427950014337
 20
419.183542711424
 10
950.2692977067011
 20
418.9624453914372
 97
        3
330
124A
330
1249
330
124B
 75
     0
 76
     1
 47
0.0128389261915577
 98
        2
 10
950.8049793253332
 20
419.7471755827772
 10
950.8049793253332
 20
419.7471755827772
450
        0
451
        0
460
0.0
461
0.0
452
        0
462
0.0
453
        0
470

  0
HATCH
  5
121E
330
18
100
AcDbEntity
  8
ROGO
 62
     4
100
AcDbHatch
 10
0.0
 20
0.0
 30
0.0
210
0.0
220
0.0
230
1.0
  2
SOLID
 70
     1
 71
     1
 91
        2
 92
        5
 93
        6
 72
     1
 10
945.3430080817643
 20
415.2798782427547
 11
946.2072341375581
 21
415.6834245078004
 72
     1
 10
946.2072341375581
 20
415.6834245078004
 11
946.197517154045
 21
416.4941890055364
 72
     1
 10
946.197517154045
 20
416.4941890055364
 11
947.0053912624949
 21
416.8714219955702
 72
     4
 94
        3
 73
     0
 74
     0
 95
       18
 96
       14
 40
0.108740278791501
 40
0.108740278791501
 40
0.108740278791501
 40
0.108740278791501
 40
0.6623149649549278
 40
1.384304701649787
 40
2.097394834876493
 40
2.774073369849618
 40
3.428974823686337
 40
4.005208313035923
 40
4.455173659284313
 40
4.720999734343524
 40
5.086034088486724
 40
5.569973738255373
 40
6.060470601257719
 40
6.060470601257719
 40
6.060470601257719
 40
6.060470601257719
 10
947.0053912624949
 20
416.8714219955701
 10
947.062050404943
 20
416.8983944258944
 10
947.1926062055292
 20
416.9605451589023
 10
947.3301694614178
 20
417.1440429530374
 10
947.4457302105189
 20
417.3499362309601
 10
947.5129479929531
 20
417.5711473552503
 10
947.5169642091936
 20
417.7900540442428
 10
947.4507335058763
 20
417.9671325313965
 10
947.379412577052
 20
418.0983586144103
 10
947.2765175547575
 20
418.1649931054856
 10
947.1706325987829
 20
418.2319399460529
 10
947.0196407659306
 20
418.2622557760728
 10
946.9106586457245
 20
418.2555415672978
 10
946.8558405002646
 20
418.2508391405679
 72
     1
 10
946.8558405002646
 20
418.250839140568
 11
945.3947777404382
 21
417.5686028023176
 72
     1
 10
945.3947777404382
 20
417.5686028023176
 11
945.3430080817643
 21
415.2798782427547
 97
        6
330
1228
330
1266
330
1224
330
1234
330
1237
330
123C
 92
       20
 93
        4
 72
     1
 10
946.1915174668158
 20
416.9947901845467
 11
946.1869239568061
 21
417.3780629183975
 72
     1
 10
946.1869239568061
 20
417.3780629183975
 11
946.5547832473106
 21
417.5498330724567
 72
     4
 94
        3
 73
     0
 74
     0
 95
       15
 96
       11
 40
0.0
 40
0.0
 40
0.0
 40
0.0
 40
0.153970502917273
 40
0.2241725832586109
 40
0.3038566179395596
 40
0.3581410872475286
 40
0.443992538467009
 40
0.495415212546822
 40
0.5836396705644898
 40
0.6130478420063835
 40
0.6130478420063835
 40
0.6130478420063835
 40
0.6130478420063835
 10
946.5547832473108
 20
417.5498330724567
 10
946.607068643339
 20
417.5745398298678
 10
946.6831933040515
 20
417.6105115096886
 10
946.7689750212718
 20
417.5356227538814
 10
946.7786463833895
 20
417.4661326667897
 10
946.7842676196148
 20
417.3927762943536
 10
946.7625187184724
 20
417.3309903887556
 10
946.7258274204187
 20
417.2641288212775
 10
946.6754438324006
 20
417.2345825567957
 10
946.6454140366479
 20
417.2095000893011
 10
946.6379065841161
 20
417.2032294694258
 72
     1
 10
946.6379065841159
 20
417.2032294694256
 11
946.1915174668158
 21
416.9947901845467
 97
        4
330
1238
330
1239
330
123B
330
123A
 75
     0
 76
     1
 47
0.0514683685270805
 98
        2
 10
945.6725999274665
 20
416.9939951089516
 10
945.6725999274665
 20
416.9939951089516
450
        0
451
        0
460
0.0
461
0.0
452
        0
462
0.0
453
        0
470

  0
HATCH
  5
121F
330
18
100
AcDbEntity
  8
ROGO
 62
     4
100
AcDbHatch
 10
0.0
 20
0.0
 30
0.0
210
0.0
220
0.0
230
1.0
  2
SOLID
 70
     1
 71
     0
 91
        1
 92
        5
 93
        8
 72
     4
 94
        3
 73
     0
 74
     0
 95
       26
 96
       22
 40
0.0
 40
0.0
 40
0.0
 40
0.0
 40
0.2382195346592964
 40
0.3976890672662121
 40
0.5126795869788441
 40
0.5985392873137183
 40
0.7099038249254707
 40
0.7911890807496897
 40
0.9379713068546891
 40
1.057449928673475
 40
1.13871453589317
 40
1.218398644003498
 40
1.360938021870501
 40
1.461730374800461
 40
1.516014844108037
 40
1.593124329220539
 40
1.648806818593769
 40
1.729472362005405
 40
1.775122082164331
 40
1.874460993765232
 40
1.919820003751161
 40
1.919820003751161
 40
1.919820003751161
 40
1.919820003751161
 10
955.8609022786233
 20
422.4557101032061
 10
955.7896812975208
 20
422.4171298392842
 10
955.6707833843626
 20
422.3527230760184
 10
955.5745864056003
 20
422.2084368903601
 10
955.4983432458421
 20
422.1150676322471
 10
955.458277694216
 20
422.0178287071736
 10
955.4379387640494
 20
421.9272152644598
 10
955.4101459917998
 20
421.8175881134645
 10
955.4004122762853
 20
421.7004986304098
 10
955.4210375835378
 20
421.5860860032763
 10
955.4350852928472
 20
421.4937821120928
 10
955.4596306883043
 20
421.3950731081007
 10
955.5097597512386
 20
421.2994578917896
 10
955.5585822336633
 20
421.2117130866637
 10
955.6176094064435
 20
421.1603649422205
 10
955.6719169734607
 20
421.1295446916279
 10
955.7357647427105
 20
421.0974832620062
 10
955.7953828679828
 20
421.0843421550555
 10
955.8601580405619
 20
421.040351482202
 10
955.9273591327627
 20
421.0622575204657
 10
955.9749944395253
 20
421.0656461188454
 10
955.9899268610241
 20
421.0667083557184
 72
     1
 10
955.9899268610239
 20
421.0667083557184
 11
957.0147368473655
 21
421.5452385268434
 72
     1
 10
957.0147368473655
 20
421.5452385268434
 11
957.0287642688482
 21
422.090997506671
 72
     1
 10
957.0287642688482
 20
422.090997506671
 11
956.2679407319491
 21
421.7357345582605
 72
     4
 94
        3
 73
     0
 74
     0
 95
       16
 96
       12
 40
0.0
 40
0.0
 40
0.0
 40
0.0
 40
0.0719416665232502
 40
0.1446253590759868
 40
0.187977914991054
 40
0.22954409361042
 40
0.2751936323958162
 40
0.307071865605046
 40
0.3373215422371777
 40
0.3986635435213123
 40
0.5242542460840829
 40
0.5242542460840829
 40
0.5242542460840829
 40
0.5242542460840829
 10
956.2679407319492
 20
421.7357345582605
 10
956.241838813719
 20
421.7317705430914
 10
956.1893657549333
 20
421.7238016268162
 10
956.1547797692199
 20
421.7877984054258
 10
956.1381460098672
 20
421.8371423190023
 10
956.1442357281919
 20
421.8815660044604
 10
956.1593631966772
 20
421.9188847126316
 10
956.1542092116225
 20
421.9558805015766
 10
956.1720537050376
 20
421.9939666584516
 10
956.2047508076892
 20
422.0592463218298
 10
956.2580262887108
 20
422.0947744740141
 10
956.293819410798
 20
422.1186440564988
 72
     1
 10
956.293819410798
 20
422.1186440564988
 11
957.0384112279159
 21
422.466327680207
 72
     1
 10
957.0384112279159
 20
422.466327680207
 11
957.0524387979467
 21
423.0120924395346
 72
     1
 10
957.0524387979467
 20
423.0120924395346
 11
955.8609022786226
 21
422.4557101032057
 97
        0
 75
     0
 76
     1
 47
0.0514683685270805
 98
        1
 10
956.168238042216
 20
422.3338566314204
450
        0
451
        0
460
0.0
461
0.0
452
        0
462
0.0
453
        0
470

  0
HATCH
  5
1220
330
18
100
AcDbEntity
  8
ROGO
 62
     4
100
AcDbHatch
 10
0.0
 20
0.0
 30
0.0
210
0.0
220
0.0
230
1.0
  2
SOLID
 70
     1
 71
     1
 91
        1
 92
        5
 93
        6
 72
     4
 94
        3
 73
     0
 74
     0
 95
       38
 96
       34
 40
0.0
 40
0.0
 40
0.0
 40
0.0
 40
0.1807680148265611
 40
0.2375392910068832
 40
0.3104865209605143
 40
0.3712759982446423
 40
0.4225667543871423
 40
0.4906925837206997
 40
0.5255021974952227
 40
0.564706959705423
 40
0.6224874016817051
 40
0.6879401044675216
 40
0.7303986317548591
 40
0.7765228362186156
 40
0.8277951442290474
 40
0.9056034696997762
 40
0.9795294930263015
 40
1.013897332332847
 40
1.053089255535846
 40
1.099518741889471
 40
1.132570569820454
 40
1.160277520290285
 40
1.199836786293583
 40
1.243305643169021
 40
1.286774258016722
 40
1.324809356515632
 40
1.411916492917427
 40
1.446284332224177
 40
1.515020051661026
 40
1.57577936990834
 40
1.692098529536001
 40
1.835624328518888
 40
2.042896467983883
 40
2.042896467983883
 40
2.042896467983883
 40
2.042896467983883
 10
953.8771478629966
 20
421.5354502904179
 10
953.8243522125236
 20
421.5060998042153
 10
953.7549757722631
 20
421.4675316222836
 10
953.6755328913127
 20
421.4000365863415
 10
953.6397586348597
 20
421.3471163031624
 10
953.5982848256846
 20
421.301130055726
 10
953.5693354722003
 20
421.248192982914
 10
953.5325555452358
 20
421.2107063798655
 10
953.5153896932301
 20
421.1660639962039
 10
953.487847033484
 20
421.1308298083885
 10
953.4782821066645
 20
421.0762856211775
 10
953.4640827854541
 20
421.0228343029593
 10
953.4398885561882
 20
420.9773596712328
 10
953.4230400062314
 20
420.9335962077513
 10
953.4161974098045
 20
420.8750026020642
 10
953.4277966898857
 20
420.8068106451308
 10
953.3987664153928
 20
420.7467815419487
 10
953.4131330183177
 20
420.6976148806178
 10
953.3998584476632
 20
420.6584510265961
 10
953.4049042144923
 20
420.6182535846833
 10
953.4155588405493
 20
420.5842421537676
 10
953.424366742815
 20
420.5519442156131
 10
953.4255776804361
 20
420.5142071603447
 10
953.4481133048592
 20
420.4774163858133
 10
953.4644243114655
 20
420.4392173286273
 10
953.4888731194843
 20
420.3887813610504
 10
953.5092985001481
 20
420.3380981507838
 10
953.5556401997807
 20
420.2942027340742
 10
953.5905904592674
 20
420.2521076929706
 10
953.6559852267075
 20
420.2017609583275
 10
953.7510787760592
 20
420.1528435109421
 10
953.907301770916
 20
420.1125171708834
 10
954.020166007967
 20
420.1537274793101
 10
954.0868528647543
 20
420.1780769633277
 72
     1
 10
954.0868528647536
 20
420.1780769633276
 11
954.7668288530672
 21
420.4955885317014
 72
     4
 94
        3
 73
     0
 74
     0
 95
       11
 96
        7
 40
0.1647869275458135
 40
0.1647869275458135
 40
0.1647869275458135
 40
0.1647869275458135
 40
0.2545010798212315
 40
0.5111620267764023
 40
0.7602998271033902
 40
0.8850764140209603
 40
0.8850764140209603
 40
0.8850764140209603
 40
0.8850764140209603
 10
954.7668288530674
 20
420.4955885317015
 10
954.7764026860587
 20
420.4998362543522
 10
954.8133660554745
 20
420.5162361791953
 10
954.8717736481236
 20
420.5544647190582
 10
954.9336203858489
 20
420.5938420910234
 10
954.9699600730416
 20
420.6184563532931
 10
954.9809796148863
 20
420.6278960944854
 72
     4
 94
        3
 73
     0
 74
     0
 95
        9
 96
        5
 40
0.0
 40
0.0
 40
0.0
 40
0.0
 40
0.1135793343549105
 40
0.2662938392176031
 40
0.2662938392176031
 40
0.2662938392176031
 40
0.2662938392176031
 10
954.9809796148863
 20
420.6278960944854
 10
955.0093154428097
 20
420.6534466638949
 10
955.0757505601485
 20
420.7133515687869
 10
955.1163875125435
 20
420.7933721044632
 10
955.139692039912
 20
420.8392623756035
 72
     4
 94
        3
 73
     0
 74
     0
 95
       25
 96
       21
 40
0.0
 40
0.0
 40
0.0
 40
0.0
 40
0.165525918914855
 40
0.3412380755365305
 40
0.5940540902285263
 40
0.7697671103696209
 40
0.9377330196075423
 40
1.11479469302833
 40
1.274661249598185
 40
1.574522170874768
 40
1.815540668866877
 40
2.15849091873445
 40
2.536227739636605
 40
2.738070817316548
 40
2.925680654369045
 40
3.162706124480894
 40
3.395643218188267
 40
3.648478129958861
 40
3.928509979727306
 40
4.337226830236035
 40
4.337226830236035
 40
4.337226830236035
 40
4.337226830236035
 10
955.139692039912
 20
420.8392623756035
 10
955.1479791798611
 20
420.8567143239831
 10
955.1611896962507
 20
420.8951868114008
 10
955.1865140771885
 20
420.9593693346721
 10
955.2031328505757
 20
421.0281299454252
 10
955.2335276981954
 20
421.0917614861333
 10
955.236046731991
 20
421.1533803477334
 10
955.2548535162941
 20
421.209698912504
 10
955.25777135721
 20
421.2844773230171
 10
955.2517970646462
 20
421.3660193116164
 10
955.2347823096894
 20
421.4679990635625
 10
955.1968699464847
 20
421.5743074788466
 10
955.1366228675611
 20
421.6661563711863
 10
955.0678149266202
 20
421.7237086708613
 10
955.0138517247432
 20
421.7732513815809
 10
954.9483005665297
 20
421.8134350604985
 10
954.8749608168531
 20
421.8561840644915
 10
954.788806729014
 20
421.8796418641233
 10
954.6786716532196
 20
421.9050316484598
 10
954.60239054305
 20
421.8723536296079
 10
954.5571238513101
 20
421.8529618587915
 72
     1
 10
954.5571238513101
 20
421.8529618587916
 11
953.8771478629966
 21
421.5354502904179
 97
        6
330
122F
330
1284
330
1223
330
125F
330
1260
330
1261
 75
     0
 76
     1
 47
0.088756267210375
 98
        1
 10
954.2350113984978
 20
421.3005949159522
450
        0
451
        0
460
0.0
461
0.0
452
        0
462
0.0
453
        0
470

  0
LINE
  5
1221
330
18
100
AcDbEntity
  8
ROGO
 62
     4
100
AcDbLine
 10
957.0524387979469
 20
423.0120924395347
 30
0.0
 11
957.0384112279159
 21
422.4663276802071
 31
0.0
  0
LINE
  5
1222
330
18
100
AcDbEntity
  8
ROGO
 62
     4
100
AcDbLine
 10
953.2187241039546
 20
421.2219575140254
 30
0.0
 11
953.2046965339239
 21
420.676192754698
 31
0.0
  0
SPLINE
  5
1223
102
{ACAD_REACTORS
330
1220
102
}
330
18
100
AcDbEntity
  8
ROGO
 62
     4
100
AcDbSpline
210
0.0
220
0.0
230
1.0
 70
     8
 71
     3
 72
    38
 73
    34
 74
    32
 42
0.0000000001
 43
0.0000000001
 44
0.0000000001
 40
0.0
 40
0.0
 40
0.0
 40
0.0
 40
0.1807680148264646
 40
0.2375392910068292
 40
0.3104865209604602
 40
0.3712759982445882
 40
0.4225667543870883
 40
0.4906925837206793
 40
0.5255021974951771
 40
0.5647069597053479
 40
0.6224874016816617
 40
0.687940104467462
 40
0.7303986317547753
 40
0.7765228362185706
 40
0.8277951442289953
 40
0.9056034696997246
 40
0.9795294930262604
 40
1.0138973323328
 40
1.05308925553579
 40
1.099518741889415
 40
1.132570569820398
 40
1.160277520290229
 40
1.199836786293517
 40
1.243305643168956
 40
1.286774258016657
 40
1.324809356515591
 40
1.411916492917358
 40
1.446284332224148
 40
1.515020051660997
 40
1.575779369908266
 40
1.692098529536028
 40
1.83562432851886
 40
2.042896467983799
 40
2.042896467983799
 40
2.042896467983799
 40
2.042896467983799
 10
953.8771478629966
 20
421.5354502904179
 30
0.0
 10
953.8243522125238
 20
421.5060998042153
 30
0.0
 10
953.7549757722635
 20
421.4675316222835
 30
0.0
 10
953.6755328913123
 20
421.4000365863417
 30
0.0
 10
953.6397586348599
 20
421.3471163031624
 30
0.0
 10
953.5982848256846
 20
421.3011300557258
 30
0.0
 10
953.5693354722004
 20
421.2481929829141
 30
0.0
 10
953.5325555452354
 20
421.2107063798654
 30
0.0
 10
953.5153896932303
 20
421.1660639962039
 30
0.0
 10
953.487847033484
 20
421.1308298083882
 30
0.0
 10
953.4782821066643
 20
421.0762856211776
 30
0.0
 10
953.4640827854541
 20
421.0228343029592
 30
0.0
 10
953.4398885561882
 20
420.9773596712328
 30
0.0
 10
953.4230400062313
 20
420.9335962077513
 30
0.0
 10
953.4161974098047
 20
420.8750026020643
 30
0.0
 10
953.4277966898853
 20
420.8068106451306
 30
0.0
 10
953.3987664153928
 20
420.7467815419487
 30
0.0
 10
953.4131330183171
 20
420.6976148806177
 30
0.0
 10
953.3998584476638
 20
420.6584510265961
 30
0.0
 10
953.4049042144923
 20
420.6182535846833
 30
0.0
 10
953.4155588405493
 20
420.5842421537676
 30
0.0
 10
953.4243667428151
 20
420.5519442156131
 30
0.0
 10
953.4255776804359
 20
420.5142071603447
 30
0.0
 10
953.448113304859
 20
420.4774163858133
 30
0.0
 10
953.4644243114655
 20
420.4392173286272
 30
0.0
 10
953.4888731194847
 20
420.3887813610506
 30
0.0
 10
953.5092985001476
 20
420.3380981507835
 30
0.0
 10
953.5556401997808
 20
420.2942027340744
 30
0.0
 10
953.5905904592672
 20
420.2521076929706
 30
0.0
 10
953.6559852267075
 20
420.2017609583275
 30
0.0
 10
953.7510787760595
 20
420.1528435109421
 30
0.0
 10
953.9073017709158
 20
420.1125171708832
 30
0.0
 10
954.0201660079668
 20
420.1537274793101
 30
0.0
 10
954.0868528647543
 20
420.1780769633277
 30
0.0
 11
953.8771478629966
 21
421.5354502904179
 31
0.0
 11
953.7237403785832
 21
421.4398301099629
 31
0.0
 11
953.6813633329654
 21
421.4020522883761
 31
0.0
 11
953.636028630534
 21
421.3449028079465
 31
0.0
 11
953.5982494500151
 21
421.2972782967385
 31
0.0
 11
953.5703252646772
 21
421.2542552617586
 31
0.0
 11
953.5299177126766
 21
421.1994067580077
 31
0.0
 11
953.5144763020817
 21
421.1682094496308
 31
0.0
 11
953.4941077410564
 21
421.1347111645744
 31
0.0
 11
953.4780074525981
 21
421.0792191814909
 31
0.0
 11
953.459278792658
 21
421.0165032058641
 31
0.0
 11
953.4412091129821
 21
420.9780816856468
 31
0.0
 11
953.4254385993742
 21
420.9347373303284
 31
0.0
 11
953.4191928165776
 21
420.883846862007
 31
0.0
 11
953.419514779617
 21
420.8060392026645
 31
0.0
 11
953.4053835976571
 21
420.733476356653
 31
0.0
 11
953.4093225848923
 21
420.6993349923252
 31
0.0
 11
953.4034065769468
 21
420.6605921517693
 31
0.0
 11
953.4070157893314
 21
420.6143031596759
 31
0.0
 11
953.4158815398782
 21
420.5824625912637
 31
0.0
 11
953.4224488985952
 21
420.5555452194785
 31
0.0
 11
953.4286866647798
 21
420.5164808392869
 31
0.0
 11
953.447078022776
 21
420.4770943001001
 31
0.0
 11
953.4654692783725
 21
420.4377079802116
 31
0.0
 11
953.4815616526191
 21
420.4032448954841
 31
0.0
 11
953.5232714166424
 21
420.3267730130879
 31
0.0
 11
953.5469194152016
 21
420.3018346782845
 31
0.0
 11
953.5942160841576
 21
420.2519585895028
 31
0.0
 11
953.6418418561268
 21
420.2142295476621
 31
0.0
 11
953.7449790839472
 21
420.1604442417319
 31
0.0
 11
953.8852363297039
 21
420.1299883722414
 31
0.0
 11
954.0868528647543
 21
420.1780769633277
 31
0.0
  0
LINE
  5
1224
102
{ACAD_REACTORS
330
121E
102
}
330
18
100
AcDbEntity
  8
ROGO
 62
     4
100
AcDbLine
 10
945.3947777404382
 20
417.5686028023177
 30
0.0
 11
945.3430080817645
 21
415.2798782427547
 31
0.0
  0
LINE
  5
1225
102
{ACAD_REACTORS
330
121C
102
}
330
18
100
AcDbEntity
  8
ROGO
 62
     4
100
AcDbLine
 10
947.7190001261574
 20
418.6538874412205
 30
0.0
 11
947.6858689951452
 21
417.1891678510864
 31
0.0
  0
LINE
  5
1226
102
{ACAD_REACTORS
330
121C
102
}
330
18
100
AcDbEntity
  8
ROGO
 62
     4
100
AcDbLine
 10
949.3282848774702
 20
419.4053353366333
 30
0.0
 11
949.320695523702
 21
419.0698117731105
 31
0.0
  0
LINE
  5
1227
102
{ACAD_REACTORS
330
121D
102
}
330
18
100
AcDbEntity
  8
ROGO
 62
     4
100
AcDbLine
 10
949.7944611239638
 20
419.6230141278067
 30
0.0
 11
949.4920389181443
 21
418.0325503452587
 31
0.0
  0
SPLINE
  5
1228
102
{ACAD_REACTORS
330
121E
102
}
330
18
100
AcDbEntity
  8
ROGO
 62
     4
100
AcDbSpline
210
0.0
220
0.0
230
1.0
 70
     8
 71
     3
 72
    18
 73
    14
 74
     0
 42
0.0000000001
 43
0.0000000001
 40
0.1087402787915014
 40
0.1087402787915014
 40
0.1087402787915014
 40
0.1087402787915014
 40
0.5992371417938475
 40
1.083176791562496
 40
1.448211145705696
 40
1.714037220764907
 40
2.164002567013297
 40
2.740236056362883
 40
3.395137510199602
 40
4.071816045172726
 40
4.784906178399433
 40
5.506895915094292
 40
6.060470601257719
 40
6.060470601257719
 40
6.060470601257719
 40
6.060470601257719
 10
946.8558405002646
 20
418.2508391405679
 30
0.0
 10
946.9106586457245
 20
418.2555415672978
 30
0.0
 10
947.0196407659306
 20
418.2622557760728
 30
0.0
 10
947.1706325987829
 20
418.2319399460529
 30
0.0
 10
947.2765175547575
 20
418.1649931054856
 30
0.0
 10
947.379412577052
 20
418.0983586144103
 30
0.0
 10
947.4507335058763
 20
417.9671325313965
 30
0.0
 10
947.5169642091936
 20
417.7900540442428
 30
0.0
 10
947.5129479929531
 20
417.5711473552503
 30
0.0
 10
947.4457302105189
 20
417.3499362309601
 30
0.0
 10
947.3301694614178
 20
417.1440429530374
 30
0.0
 10
947.1926062055292
 20
416.9605451589023
 30
0.0
 10
947.062050404943
 20
416.8983944258944
 30
0.0
 10
947.0053912624949
 20
416.8714219955701
 30
0.0
  0
LINE
  5
1229
102
{ACAD_REACTORS
330
121D
102
}
330
18
100
AcDbEntity
  8
ROGO
 62
     4
100
AcDbLine
 10
950.7462174136358
 20
420.0674322211469
 30
0.0
 11
951.8303659129646
 21
419.1244210646027
 31
0.0
  0
SPLINE
  5
122A
330
18
100
AcDbEntity
  8
ROGO
 62
     4
100
AcDbSpline
210
0.0
220
0.0
230
1.0
 70
     8
 71
     3
 72
    26
 73
    22
 74
    20
 42
0.0000000001
 43
0.0000000001
 44
0.0000000001
 40
0.0
 40
0.0
 40
0.0
 40
0.0
 40
0.2382195346592338
 40
0.3976890672662278
 40
0.5126795869788215
 40
0.5985392873134869
 40
0.7099038249249272
 40
0.7911890807496369
 40
0.9379713068541867
 40
1.057449928672868
 40
1.138714535892871
 40
1.218398644003295
 40
1.360938021870198
 40
1.461730374800096
 40
1.516014844107762
 40
1.593124329220195
 40
1.648806818593553
 40
1.729472362005562
 40
1.775122082164055
 40
1.874460993765126
 40
1.919820003751032
 40
1.919820003751032
 40
1.919820003751032
 40
1.919820003751032
 10
952.027187584631
 20
420.6655751776969
 30
0.0
 10
951.9559666035284
 20
420.6269949137747
 30
0.0
 10
951.8370686903708
 20
420.5625881505089
 30
0.0
 10
951.7408717116078
 20
420.4183019648511
 30
0.0
 10
951.6646285518497
 20
420.3249327067379
 30
0.0
 10
951.6245630002241
 20
420.2276937816647
 30
0.0
 10
951.6042240700567
 20
420.1370803389509
 30
0.0
 10
951.5764312978079
 20
420.0274531879556
 30
0.0
 10
951.5666975822931
 20
419.910363704901
 30
0.0
 10
951.5873228895456
 20
419.7959510777675
 30
0.0
 10
951.601370598855
 20
419.703647186584
 30
0.0
 10
951.6259159943121
 20
419.6049381825919
 30
0.0
 10
951.6760450572464
 20
419.5093229662807
 30
0.0
 10
951.7248675396711
 20
419.4215781611547
 30
0.0
 10
951.7838947124515
 20
419.3702300167116
 30
0.0
 10
951.8382022794684
 20
419.3394097661189
 30
0.0
 10
951.9020500487185
 20
419.3073483364971
 30
0.0
 10
951.9616681739909
 20
419.2942072295469
 30
0.0
 10
952.0264433465698
 20
419.2502165566928
 30
0.0
 10
952.0936444387706
 20
419.2721225949563
 30
0.0
 10
952.1412797455331
 20
419.2755111933366
 30
0.0
 10
952.1562121670319
 20
419.2765734302097
 30
0.0
 11
952.027187584631
 21
420.6655751776969
 31
0.0
 11
951.8294118703403
 21
420.5327846903491
 31
0.0
 11
951.7303055378262
 21
420.4078508411109
 31
0.0
 11
951.6639466400587
 21
420.3139396260679
 31
0.0
 11
951.6299029387214
 21
420.2351175825723
 31
0.0
 11
951.6014575597923
 21
420.1274471564795
 31
0.0
 11
951.5833549550873
 21
420.0482033017186
 31
0.0
 11
951.5730014765207
 21
419.9017866790907
 31
0.0
 11
951.5889327103826
 21
419.7833749530694
 31
0.0
 11
951.6027128671836
 21
419.70328722826
 31
0.0
 11
951.6229557463027
 21
419.6262172410384
 31
0.0
 11
951.6832631230171
 21
419.4970642520813
 31
0.0
 11
951.7384045139429
 21
419.4126928978437
 31
0.0
 11
951.7789010748279
 21
419.3765427641717
 31
0.0
 11
951.8448172049627
 21
419.3365310598547
 31
0.0
 11
951.8952245750861
 21
419.3128744189253
 31
0.0
 11
951.971051142825
 21
419.2853560338187
 31
0.0
 11
952.0119800403296
 21
419.2651391522687
 31
0.0
 11
952.1110759418313
 21
419.2720833342697
 31
0.0
 11
952.1562121670319
 21
419.2765734302097
 31
0.0
  0
LINE
  5
122B
330
18
100
AcDbEntity
  8
針
  6
Continuous
100
AcDbLine
 10
945.8767312263232
 20
432.2951248061041
 30
0.0
 11
955.4625640627969
 21
412.9480840772995
 31
0.0
  0
LINE
  5
122C
330
18
100
AcDbEntity
  8
針
  6
Continuous
100
AcDbLine
 10
945.8767312263235
 20
432.2951248061031
 30
0.0
 11
954.5564776823892
 21
412.5249913318645
 31
0.0
  0
HATCH
  5
122D
330
18
100
AcDbEntity
  8
ﾊｯﾁﾝｸ
  6
Continuous
100
AcDbHatch
 10
0.0
 20
0.0
 30
0.0
210
0.0
220
0.0
230
1.0
  2
SOLID
 70
     1
 71
     0
 91
        1
 92
        1
 93
        3
 72
     1
 10
945.8767312263232
 20
432.2951248061041
 11
955.4625640627969
 21
412.9480840772997
 72
     2
 10
955.607864371329
 20
411.455138056728
 40
1.499999999999999
 50
-624.4412206344873
 51
-585.4987793655085
 73
     1
 72
     1
 10
954.5564776823892
 20
412.5249913318645
 11
945.8767312263235
 21
432.2951248061032
 97
        0
 75
     0
 76
     1
 98
        1
 10
743.3942761776752
 20
328.0961603141676
450
        0
451
        0
460
0.0
461
0.0
452
        0
462
0.0
453
        0
470

  0
SPLINE
  5
122E
330
18
100
AcDbEntity
  8
ROGO
 62
     4
100
AcDbSpline
210
0.0
220
0.0
230
1.0
 70
     8
 71
     3
 72
    26
 73
    22
 74
    20
 42
0.0000000001
 43
0.0000000001
 44
0.0000000001
 40
0.0
 40
0.0
 40
0.0
 40
0.0
 40
0.2382195346592964
 40
0.3976890672662827
 40
0.5126795869789148
 40
0.5985392873137439
 40
0.7099038249255108
 40
0.7911890807497171
 40
0.9379713068547205
 40
1.057449928673514
 40
1.138714535893199
 40
1.218398644003513
 40
1.360938021870564
 40
1.461730374800462
 40
1.51601484410808
 40
1.593124329220582
 40
1.648806818593812
 40
1.729472362005395
 40
1.775122082164372
 40
1.874460993765216
 40
1.919820003751201
 40
1.919820003751201
 40
1.919820003751201
 40
1.919820003751201
 10
955.8609022786233
 20
422.4557101032061
 30
0.0
 10
955.789681297521
 20
422.4171298392841
 30
0.0
 10
955.6707833843629
 20
422.3527230760185
 30
0.0
 10
955.5745864056
 20
422.20843689036
 30
0.0
 10
955.4983432458421
 20
422.1150676322471
 30
0.0
 10
955.4582776942162
 20
422.0178287071736
 30
0.0
 10
955.4379387640492
 20
421.9272152644596
 30
0.0
 10
955.4101459918001
 20
421.8175881134645
 30
0.0
 10
955.4004122762851
 20
421.7004986304098
 30
0.0
 10
955.421037583538
 20
421.5860860032763
 30
0.0
 10
955.4350852928472
 20
421.4937821120928
 30
0.0
 10
955.4596306883043
 20
421.3950731081008
 30
0.0
 10
955.5097597512387
 20
421.2994578917896
 30
0.0
 10
955.5585822336631
 20
421.2117130866638
 30
0.0
 10
955.6176094064435
 20
421.1603649422203
 30
0.0
 10
955.6719169734607
 20
421.129544691628
 30
0.0
 10
955.7357647427105
 20
421.0974832620063
 30
0.0
 10
955.7953828679828
 20
421.0843421550555
 30
0.0
 10
955.8601580405619
 20
421.0403514822021
 30
0.0
 10
955.9273591327624
 20
421.0622575204655
 30
0.0
 10
955.9749944395253
 20
421.0656461188454
 30
0.0
 10
955.9899268610241
 20
421.0667083557184
 30
0.0
 11
955.8609022786233
 21
422.4557101032061
 31
0.0
 11
955.6631265643325
 21
422.3229196158585
 31
0.0
 11
955.5640202318185
 21
422.19798576662
 31
0.0
 11
955.4976613340508
 21
422.1040745515771
 31
0.0
 11
955.4636176327138
 21
422.0252525080813
 31
0.0
 11
955.4351722537848
 21
421.9175820819882
 31
0.0
 11
955.4170696490796
 21
421.8383382272278
 31
0.0
 11
955.4067161705129
 21
421.6919216045993
 31
0.0
 11
955.4226474043748
 21
421.573509878578
 31
0.0
 11
955.4364275611758
 21
421.4934221537688
 31
0.0
 11
955.4566704402947
 21
421.4163521665474
 31
0.0
 11
955.5169778170093
 21
421.2871991775903
 31
0.0
 11
955.5721192079351
 21
421.2028278233526
 31
0.0
 11
955.6126157688201
 21
421.1666776896806
 31
0.0
 11
955.678531898955
 21
421.1266659853636
 31
0.0
 11
955.7289392690783
 21
421.1030093444343
 31
0.0
 11
955.8047658368169
 21
421.0754909593277
 31
0.0
 11
955.845694734322
 21
421.0552740777778
 31
0.0
 11
955.9447906358235
 21
421.0622182597787
 31
0.0
 11
955.9899268610241
 21
421.0667083557184
 31
0.0
  0
SPLINE
  5
122F
102
{ACAD_REACTORS
330
1220
102
}
330
18
100
AcDbEntity
  8
ROGO
 62
     4
100
AcDbSpline
210
0.0
220
0.0
230
1.0
 70
     8
 71
     3
 72
    25
 73
    21
 74
     0
 42
0.0000000001
 43
0.0000000001
 40
0.0
 40
0.0
 40
0.0
 40
0.0
 40
0.4087168505087288
 40
0.6887487002771746
 40
0.9415836120477687
 40
1.17452070575514
 40
1.41154617586699
 40
1.599156012919487
 40
1.80099909059943
 40
2.178735911501585
 40
2.521686161369157
 40
2.762704659361267
 40
3.06256558063785
 40
3.222432137207705
 40
3.399493810628493
 40
3.567459719866414
 40
3.743172740007509
 40
3.995988754699505
 40
4.17170091132118
 40
4.337226830236035
 40
4.337226830236035
 40
4.337226830236035
 40
4.337226830236035
 10
954.5571238513101
 20
421.8529618587915
 30
0.0
 10
954.60239054305
 20
421.8723536296079
 30
0.0
 10
954.6786716532196
 20
421.9050316484598
 30
0.0
 10
954.788806729014
 20
421.8796418641233
 30
0.0
 10
954.8749608168531
 20
421.8561840644915
 30
0.0
 10
954.9483005665297
 20
421.8134350604985
 30
0.0
 10
955.0138517247432
 20
421.7732513815809
 30
0.0
 10
955.0678149266202
 20
421.7237086708613
 30
0.0
 10
955.1366228675611
 20
421.6661563711863
 30
0.0
 10
955.1968699464847
 20
421.5743074788466
 30
0.0
 10
955.2347823096894
 20
421.4679990635625
 30
0.0
 10
955.2517970646462
 20
421.3660193116164
 30
0.0
 10
955.25777135721
 20
421.2844773230171
 30
0.0
 10
955.2548535162941
 20
421.209698912504
 30
0.0
 10
955.236046731991
 20
421.1533803477334
 30
0.0
 10
955.2335276981954
 20
421.0917614861333
 30
0.0
 10
955.2031328505757
 20
421.0281299454252
 30
0.0
 10
955.1865140771885
 20
420.9593693346721
 30
0.0
 10
955.1611896962507
 20
420.8951868114008
 30
0.0
 10
955.1479791798611
 20
420.8567143239831
 30
0.0
 10
955.139692039912
 20
420.8392623756035
 30
0.0
  0
LINE
  5
1230
102
{ACAD_REACTORS
330
11A3
102
}
330
18
100
AcDbEntity
  8
ROGO
 62
     4
100
AcDbLine
 10
957.3016371338869
 20
423.128454422664
 30
0.0
 11
957.2427252569518
 21
420.8363948380989
 31
0.0
  0
TEXT
  5
1231
330
18
100
AcDbEntity
  8
文字
100
AcDbText
 10
937.0122880205162
 20
413.2108162580908
 30
0.0
 40
2.0
  1
.7
 50
25.0300000000002
  7
STYLE3
100
AcDbText
  0
HATCH
  5
1232
330
18
100
AcDbEntity
  8
ROGO
 62
     4
100
AcDbHatch
 10
0.0
 20
0.0
 30
0.0
210
0.0
220
0.0
230
1.0
  2
SOLID
 70
     1
 71
     0
 91
        1
 92
        7
 72
     0
 73
     1
 93
        4
 10
946.204528841203
 20
415.9091486986191
 10
946.2072341375582
 20
415.6834245078004
 10
957.2427252569518
 20
420.8363948380988
 10
957.2486302928492
 20
421.0661395827968
 97
        0
 75
     0
 76
     1
 47
0.0514683685270805
 98
        1
 10
953.2009975408895
 20
419.1160821093038
450
        0
451
        0
460
0.0
461
0.0
452
        0
462
0.0
453
        0
470

  0
LINE
  5
1233
330
18
100
AcDbEntity
  8
ROGO
 62
     4
100
AcDbLine
 10
946.1916049262141
 20
415.9031139377037
 30
0.0
 11
957.2486302928492
 21
421.0661395827968
 31
0.0
  0
LINE
  5
1234
102
{ACAD_REACTORS
330
11A3
330
121E
102
}
330
18
100
AcDbEntity
  8
ROGO
 62
     4
100
AcDbLine
 10
945.3430080817645
 20
415.2798782427547
 30
0.0
 11
957.9278024384823
 21
421.1562883844936
 31
0.0
  0
TEXT
  5
1235
330
18
100
AcDbEntity
  8
文字
100
AcDbText
 10
960.8899929507042
 20
413.5011653686729
 30
0.0
 40
1.0
  1
0.01mm
 50
25.0300000000002
  7
STYLE3
100
AcDbText
  0
LINE
  5
1236
330
18
100
AcDbEntity
  8
目盛
100
AcDbLine
 10
953.0679721481128
 20
403.3965473876317
 30
0.0
 11
953.505408864593
 21
403.1543715856304
 31
0.0
  0
LINE
  5
1237
102
{ACAD_REACTORS
330
121E
102
}
330
18
100
AcDbEntity
  8
ROGO
 62
     4
100
AcDbLine
 10
946.197517154045
 20
416.4941890055364
 30
0.0
 11
946.2072341375582
 21
415.6834245078004
 31
0.0
  0
LINE
  5
1238
102
{ACAD_REACTORS
330
121E
102
}
330
18
100
AcDbEntity
  8
ROGO
 62
     4
100
AcDbLine
 10
946.1869239568061
 20
417.3780629183976
 30
0.0
 11
946.1915174668158
 21
416.9947901845467
 31
0.0
  0
LINE
  5
1239
102
{ACAD_REACTORS
330
121E
102
}
330
18
100
AcDbEntity
  8
ROGO
 62
     4
100
AcDbLine
 10
946.5547832473108
 20
417.5498330724567
 30
0.0
 11
946.1869239568061
 21
417.3780629183976
 31
0.0
  0
LINE
  5
123A
102
{ACAD_REACTORS
330
121E
102
}
330
18
100
AcDbEntity
  8
ROGO
 62
     4
100
AcDbLine
 10
946.6379065841163
 20
417.2032294694258
 30
0.0
 11
946.1915174668158
 21
416.9947901845467
 31
0.0
  0
SPLINE
  5
123B
102
{ACAD_REACTORS
330
121E
102
}
330
18
100
AcDbEntity
  8
ROGO
 62
     4
100
AcDbSpline
210
0.0
220
0.0
230
1.0
 70
     8
 71
     3
 72
    15
 73
    11
 74
     9
 42
0.0000000001
 43
0.0000000001
 44
0.0000000001
 40
0.0
 40
0.0
 40
0.0
 40
0.0
 40
0.1539705029173286
 40
0.2241725832586236
 40
0.3038566179395579
 40
0.3581410872475287
 40
0.4439925384670253
 40
0.4954152125468383
 40
0.583639670564462
 40
0.6130478420063998
 40
0.6130478420063998
 40
0.6130478420063998
 40
0.6130478420063998
 10
946.5547832473108
 20
417.5498330724567
 30
0.0
 10
946.6070686433388
 20
417.5745398298678
 30
0.0
 10
946.6831933040515
 20
417.6105115096885
 30
0.0
 10
946.768975021272
 20
417.5356227538816
 30
0.0
 10
946.7786463833892
 20
417.4661326667896
 30
0.0
 10
946.7842676196154
 20
417.3927762943538
 30
0.0
 10
946.7625187184724
 20
417.3309903887557
 30
0.0
 10
946.7258274204182
 20
417.2641288212774
 30
0.0
 10
946.6754438324008
 20
417.2345825567957
 30
0.0
 10
946.6454140366479
 20
417.2095000893012
 30
0.0
 10
946.6379065841161
 20
417.2032294694258
 30
0.0
 11
946.5547832473108
 21
417.5498330724567
 31
0.0
 11
946.7055828838301
 21
417.5809198123029
 31
0.0
 11
946.7585731976955
 21
417.5348724592768
 31
0.0
 11
946.7788164484488
 21
417.4578026455884
 31
0.0
 11
946.7805351888896
 21
417.4035453922544
 31
0.0
 11
946.755969490232
 21
417.3212836263728
 31
0.0
 11
946.7292531844526
 21
417.2773458247094
 31
0.0
 11
946.6607432096243
 21
417.2217586108781
 31
0.0
 11
946.6379065841161
 21
417.2032294694258
 31
0.0
  0
LINE
  5
123C
102
{ACAD_REACTORS
330
121E
102
}
330
18
100
AcDbEntity
  8
ROGO
 62
     4
100
AcDbLine
 10
947.0053912627749
 20
416.8714219957008
 30
0.0
 11
946.197517154045
 21
416.4941890055364
 31
0.0
  0
CIRCLE
  5
123D
330
18
100
AcDbEntity
  8
外形線
100
AcDbCircle
 10
955.6078643713288
 20
411.4551380567279
 30
0.0
 40
1.5
  0
LINE
  5
123E
330
18
100
AcDbEntity
  8
目盛
100
AcDbLine
 10
955.2139304138581
 20
405.3997875755547
 30
0.0
 11
955.4254767865757
 21
404.9467443853508
 31
0.0
  0
TEXT
  5
123F
330
18
100
AcDbEntity
  8
文字
100
AcDbText
 10
957.6306341376804
 20
403.9077906545335
 30
0.0
 40
0.7
  1
8
 50
25.0300000000002
  7
STYLE3
100
AcDbText
  0
TEXT
  5
1240
330
18
100
AcDbEntity
  8
文字
100
AcDbText
 10
955.6390585650634
 20
403.7456955141533
 30
0.0
 40
0.7
  1
0
 50
25.0300000000002
  7
STYLE3
100
AcDbText
  0
LINE
  5
1241
330
18
100
AcDbEntity
  8
目盛
100
AcDbLine
 10
958.1275221593264
 20
405.759080310759
 30
0.0
 11
958.0323746640999
 21
405.268216832639
 31
0.0
  0
POINT
  5
1242
330
18
100
AcDbEntity
  8
DEFPOINTS
  6
ByBlock
 62
     0
100
AcDbPoint
 10
955.607864371329
 20
411.455138056728
 30
0.0
  0
POINT
  5
1243
330
18
100
AcDbEntity
  8
DEFPOINTS
  6
ByBlock
 62
     0
100
AcDbPoint
 10
955.607864371329
 20
411.455138056728
 30
0.0
  0
TEXT
  5
1244
330
18
100
AcDbEntity
  8
文字
100
AcDbText
 10
954.3370249919403
 20
402.3032464656663
 30
0.0
 40
0.7
  1
2
 50
25.0300000000002
  7
STYLE3
100
AcDbText
  0
SPLINE
  5
1245
330
18
100
AcDbEntity
  8
ROGO
 62
     4
100
AcDbSpline
210
0.0
220
0.0
230
1.0
 70
     8
 71
     3
 72
    16
 73
    12
 74
    10
 42
0.0000000001
 43
0.0000000001
 44
0.0000000001
 40
0.0
 40
0.0
 40
0.0
 40
0.0
 40
0.1255907025627775
 40
0.1869327038469464
 40
0.2171823804789907
 40
0.2490606136883371
 40
0.2947101524736664
 40
0.3362763310928179
 40
0.379628887008098
 40
0.4523125795607215
 40
0.5242542460843125
 40
0.5242542460843125
 40
0.5242542460843125
 40
0.5242542460843125
 10
952.460104716806
 20
420.3285091309896
 30
0.0
 10
952.4243115947188
 20
420.3046395485048
 30
0.0
 10
952.371036113697
 20
420.2691113963205
 30
0.0
 10
952.3383390110454
 20
420.2038317329425
 30
0.0
 10
952.3204945176301
 20
420.1657455760677
 30
0.0
 10
952.3256485026847
 20
420.1287497871225
 30
0.0
 10
952.3105210341999
 20
420.0914310789513
 30
0.0
 10
952.3044313158752
 20
420.0470073934935
 30
0.0
 10
952.3210650752274
 20
419.9976634799166
 30
0.0
 10
952.3556510609409
 20
419.9336667013071
 30
0.0
 10
952.4081241197265
 20
419.9416356175822
 30
0.0
 10
952.4342260379571
 20
419.9455996327515
 30
0.0
 11
952.460104716806
 21
420.3285091309896
 31
0.0
 11
952.3640697167946
 21
420.2475751866709
 31
0.0
 11
952.3339055974247
 21
420.1941620139118
 31
0.0
 11
952.3235628232011
 21
420.1657354425796
 31
0.0
 11
952.3226981499613
 21
420.1338689383355
 31
0.0
 11
952.3119229408136
 21
420.0895093254073
 31
0.0
 11
952.3076109239221
 21
420.0481674130746
 31
0.0
 11
952.3192400036625
 21
420.0064036894765
 31
0.0
 11
952.3623199782278
 21
419.9478628067146
 31
0.0
 11
952.4342260379571
 21
419.9455996327515
 31
0.0
  0
LINE
  5
1246
330
18
100
AcDbEntity
  8
ROGO
 62
     4
100
AcDbLine
 10
952.4342260379569
 20
419.9455996327514
 30
0.0
 11
953.1950495748558
 21
420.300862581162
 31
0.0
  0
LINE
  5
1247
330
18
100
AcDbEntity
  8
ROGO
 62
     4
100
AcDbLine
 10
952.1562121670317
 20
419.2765734302095
 30
0.0
 11
953.1810221533733
 21
419.7551036013344
 31
0.0
  0
LINE
  5
1248
102
{ACAD_REACTORS
330
121D
102
}
330
18
100
AcDbEntity
  8
ROGO
 62
     4
100
AcDbLine
 10
950.2085670649327
 20
418.6430578452702
 30
0.0
 11
950.9605073018841
 21
418.9941727788283
 31
0.0
  0
LINE
  5
1249
102
{ACAD_REACTORS
330
121D
102
}
330
18
100
AcDbEntity
  8
ROGO
 62
     4
100
AcDbLine
 10
950.3725712691604
 20
419.5055697309394
 30
0.0
 11
950.2692977067011
 21
418.9624453914371
 31
0.0
  0
LINE
  5
124A
102
{ACAD_REACTORS
330
121D
102
}
330
18
100
AcDbEntity
  8
ROGO
 62
     4
100
AcDbLine
 10
950.269297706701
 20
418.9624453914372
 30
0.0
 11
950.7427950014337
 21
419.183542711424
 31
0.0
  0
LINE
  5
124B
102
{ACAD_REACTORS
330
121D
102
}
330
18
100
AcDbEntity
  8
ROGO
 62
     4
100
AcDbLine
 10
950.3725712691604
 20
419.5055697309394
 30
0.0
 11
950.7427950014339
 21
419.1835427114238
 31
0.0
  0
LINE
  5
124C
102
{ACAD_REACTORS
330
121C
102
}
330
18
100
AcDbEntity
  8
ROGO
 62
     4
100
AcDbLine
 10
949.3147615921518
 20
418.8074740405115
 30
0.0
 11
949.3086769012377
 21
418.5384712715312
 31
0.0
  0
LINE
  5
124D
102
{ACAD_REACTORS
330
121C
102
}
330
18
100
AcDbEntity
  8
ROGO
 62
     4
100
AcDbLine
 10
948.4748961241352
 20
418.6748697479486
 30
0.0
 11
948.4689621925852
 21
418.4125320153496
 31
0.0
  0
LINE
  5
124E
102
{ACAD_REACTORS
330
121C
102
}
330
18
100
AcDbEntity
  8
ROGO
 62
     4
100
AcDbLine
 10
948.4748961241352
 20
418.6748697479486
 30
0.0
 11
949.320695523702
 21
419.0698117731105
 31
0.0
  0
LINE
  5
124F
102
{ACAD_REACTORS
330
121C
102
}
330
18
100
AcDbEntity
  8
ROGO
 62
     4
100
AcDbLine
 10
948.4689621925852
 20
418.4125320153496
 30
0.0
 11
949.3147615921518
 21
418.8074740405115
 31
0.0
  0
LINE
  5
1250
102
{ACAD_REACTORS
330
121C
102
}
330
18
100
AcDbEntity
  8
ROGO
 62
     4
100
AcDbLine
 10
947.6858689951452
 20
417.1891678510864
 30
0.0
 11
949.295153746458
 21
417.9406157464994
 31
0.0
  0
LINE
  5
1251
102
{ACAD_REACTORS
330
121C
102
}
330
18
100
AcDbEntity
  8
ROGO
 62
     4
100
AcDbLine
 10
948.4569433189065
 20
417.8811804076515
 30
0.0
 11
949.3027427184733
 21
418.2761224328136
 31
0.0
  0
LINE
  5
1252
102
{ACAD_REACTORS
330
121C
102
}
330
18
100
AcDbEntity
  8
ROGO
 62
     4
100
AcDbLine
 10
948.4628775016709
 20
418.1435292463689
 30
0.0
 11
949.3086769012377
 21
418.5384712715312
 31
0.0
  0
LINE
  5
1253
102
{ACAD_REACTORS
330
121C
102
}
330
18
100
AcDbEntity
  8
ROGO
 62
     4
100
AcDbLine
 10
949.3027427184733
 20
418.2761224328136
 30
0.0
 11
949.295153746458
 21
417.9406157464994
 31
0.0
  0
LINE
  5
1254
102
{ACAD_REACTORS
330
121C
102
}
330
18
100
AcDbEntity
  8
ROGO
 62
     4
100
AcDbLine
 10
948.4628775016709
 20
418.1435292463689
 30
0.0
 11
948.4569433189065
 21
417.8811804076513
 31
0.0
  0
LINE
  5
1255
102
{ACAD_REACTORS
330
121D
102
}
330
18
100
AcDbEntity
  8
ROGO
 62
     4
100
AcDbLine
 10
950.2085670649327
 20
418.6430578452702
 30
0.0
 11
950.1509877480907
 21
418.3402433815871
 31
0.0
  0
LINE
  5
1256
102
{ACAD_REACTORS
330
121D
102
}
330
18
100
AcDbEntity
  8
ROGO
 62
     4
100
AcDbLine
 10
949.4920389181443
 20
418.0325503452587
 30
0.0
 11
950.1509877480909
 21
418.340243381587
 31
0.0
  0
LINE
  5
1257
102
{ACAD_REACTORS
330
121D
102
}
330
18
100
AcDbEntity
  8
ROGO
 62
     4
100
AcDbLine
 10
950.9605073018841
 20
418.9941727788283
 30
0.0
 11
951.1669224683153
 21
418.8146292892187
 31
0.0
  0
LINE
  5
1258
102
{ACAD_REACTORS
330
121D
102
}
330
18
100
AcDbEntity
  8
ROGO
 62
     4
100
AcDbLine
 10
951.8303659129646
 20
419.1244210646027
 30
0.0
 11
951.1669224683153
 21
418.8146292892187
 31
0.0
  0
SPLINE
  5
1259
330
18
100
AcDbEntity
  8
ROGO
 62
     4
100
AcDbSpline
210
0.0
220
0.0
230
1.0
 70
     8
 71
     3
 72
    16
 73
    12
 74
    10
 42
0.0000000001
 43
0.0000000001
 44
0.0000000001
 40
0.0
 40
0.0
 40
0.0
 40
0.0
 40
0.1255907025627272
 40
0.1869327038468896
 40
0.2171823804790409
 40
0.2490606136882706
 40
0.2947101524736535
 40
0.3362763310930194
 40
0.3796288870080866
 40
0.4523125795608232
 40
0.5242542460840733
 40
0.5242542460840733
 40
0.5242542460840733
 40
0.5242542460840733
 10
956.293819410798
 20
422.1186440564988
 30
0.0
 10
956.2580262887108
 20
422.094774474014
 30
0.0
 10
956.2047508076892
 20
422.0592463218297
 30
0.0
 10
956.1720537050376
 20
421.9939666584516
 30
0.0
 10
956.1542092116221
 20
421.9558805015766
 30
0.0
 10
956.1593631966772
 20
421.9188847126316
 30
0.0
 10
956.1442357281917
 20
421.8815660044604
 30
0.0
 10
956.1381460098672
 20
421.8371423190024
 30
0.0
 10
956.1547797692197
 20
421.7877984054257
 30
0.0
 10
956.1893657549335
 20
421.7238016268161
 30
0.0
 10
956.241838813719
 20
421.7317705430913
 30
0.0
 10
956.2679407319492
 20
421.7357345582605
 30
0.0
 11
956.293819410798
 21
422.1186440564988
 31
0.0
 11
956.1977844107866
 21
422.0377101121799
 31
0.0
 11
956.1676202914169
 21
421.9842969394208
 31
0.0
 11
956.1572775171933
 21
421.9558703680886
 31
0.0
 11
956.1564128439536
 21
421.9240038638446
 31
0.0
 11
956.1456376348058
 21
421.8796442509164
 31
0.0
 11
956.1413256179143
 21
421.8383023385834
 31
0.0
 11
956.1529546976549
 21
421.7965386149857
 31
0.0
 11
956.1960346722203
 21
421.7379977322237
 31
0.0
 11
956.2679407319492
 21
421.7357345582605
 31
0.0
  0
LINE
  5
125A
330
18
100
AcDbEntity
  8
ROGO
 62
     4
100
AcDbLine
 10
957.0287642688482
 20
422.090997506671
 30
0.0
 11
957.0147368473655
 21
421.5452385268434
 31
0.0
  0
LINE
  5
125B
330
18
100
AcDbEntity
  8
ROGO
 62
     4
100
AcDbLine
 10
956.2679407319492
 20
421.7357345582607
 30
0.0
 11
957.0287642688482
 21
422.090997506671
 31
0.0
  0
LINE
  5
125C
330
18
100
AcDbEntity
  8
ROGO
 62
     4
100
AcDbLine
 10
956.293819410798
 20
422.1186440564988
 30
0.0
 11
957.0384112279159
 21
422.4663276802071
 31
0.0
  0
LINE
  5
125D
102
{ACAD_REACTORS
330
11A3
102
}
330
18
100
AcDbEntity
  8
ROGO
 62
     4
100
AcDbLine
 10
957.9431791044406
 20
421.7545418508924
 30
0.0
 11
957.9278024384823
 21
421.1562883844936
 31
0.0
  0
LINE
  5
125E
102
{ACAD_REACTORS
330
11A3
102
}
330
18
100
AcDbEntity
  8
ROGO
 62
     4
100
AcDbLine
 10
957.9431791044406
 20
421.7545418508924
 30
0.0
 11
958.4117418861035
 21
421.3822616183329
 31
0.0
  0
LINE
  5
125F
102
{ACAD_REACTORS
330
1220
102
}
330
18
100
AcDbEntity
  8
ROGO
 62
     4
100
AcDbLine
 10
954.0868528647541
 20
420.1780769633279
 30
0.0
 11
954.7668288530674
 21
420.4955885317014
 31
0.0
  0
SPLINE
  5
1260
102
{ACAD_REACTORS
330
1220
102
}
330
18
100
AcDbEntity
  8
ROGO
 62
     4
100
AcDbSpline
210
0.0
220
0.0
230
1.0
 70
     8
 71
     3
 72
    11
 73
     7
 74
     0
 42
0.0000000001
 43
0.0000000001
 40
0.1647869275458134
 40
0.1647869275458134
 40
0.1647869275458134
 40
0.1647869275458134
 40
0.2895635144633836
 40
0.5387013147903714
 40
0.7953622617455423
 40
0.8850764140209602
 40
0.8850764140209602
 40
0.8850764140209602
 40
0.8850764140209602
 10
954.9809796148863
 20
420.6278960944854
 30
0.0
 10
954.9699600730416
 20
420.6184563532931
 30
0.0
 10
954.9336203858489
 20
420.5938420910234
 30
0.0
 10
954.8717736481236
 20
420.5544647190582
 30
0.0
 10
954.8133660554745
 20
420.5162361791953
 30
0.0
 10
954.7764026860587
 20
420.4998362543522
 30
0.0
 10
954.7668288530674
 20
420.4955885317015
 30
0.0
  0
SPLINE
  5
1261
102
{ACAD_REACTORS
330
1220
102
}
330
18
100
AcDbEntity
  8
ROGO
 62
     4
100
AcDbSpline
210
0.0
220
0.0
230
1.0
 70
     8
 71
     3
 72
     9
 73
     5
 74
     3
 42
0.0000000001
 43
0.0000000001
 44
0.0000000001
 40
0.0
 40
0.0
 40
0.0
 40
0.0
 40
0.1135793343548301
 40
0.266293839217581
 40
0.266293839217581
 40
0.266293839217581
 40
0.266293839217581
 10
954.9809796148863
 20
420.6278960944854
 30
0.0
 10
955.0093154428097
 20
420.6534466638949
 30
0.0
 10
955.0757505601488
 20
420.7133515687871
 30
0.0
 10
955.1163875125435
 20
420.7933721044632
 30
0.0
 10
955.139692039912
 20
420.8392623756035
 30
0.0
 11
954.9809796148863
 21
420.6278960944854
 31
0.0
 11
955.0612939402254
 21
420.7082072041641
 31
0.0
 11
955.139692039912
 21
420.8392623756035
 31
0.0
  0
ELLIPSE
  5
1262
330
18
100
AcDbEntity
  8
ROGO
 62
     4
100
AcDbEllipse
 10
954.3201383234771
 20
420.9943650774688
 30
0.0
 11
0.0952092501818807
 21
0.2174863671890353
 31
0.0
210
0.0
220
0.0
230
1.0
 40
0.678808341743879
 41
0.0
 42
6.283185307179586
  0
LINE
  5
1263
330
18
100
AcDbEntity
  8
ROGO
 62
     4
100
AcDbLine
 10
953.1950495748558
 20
420.300862581162
 30
0.0
 11
953.1810221533733
 21
419.7551036013344
 31
0.0
  0
LINE
  5
1264
330
18
100
AcDbEntity
  8
ROGO
 62
     4
100
AcDbLine
 10
952.460104716806
 20
420.3285091309898
 30
0.0
 11
953.2046965339239
 21
420.676192754698
 31
0.0
  0
LINE
  5
1265
330
18
100
AcDbEntity
  8
ROGO
 62
     4
100
AcDbLine
 10
955.9899268610241
 20
421.0667083557184
 30
0.0
 11
957.0147368473655
 21
421.5452385268434
 31
0.0
  0
LINE
  5
1266
102
{ACAD_REACTORS
330
121E
102
}
330
18
100
AcDbEntity
  8
ROGO
 62
     4
100
AcDbLine
 10
945.3947777404382
 20
417.5686028023177
 30
0.0
 11
946.8558405002646
 21
418.2508391405679
 31
0.0
  0
TEXT
  5
1267
330
18
100
AcDbEntity
  8
文字
100
AcDbText
 10
942.2356429386695
 20
422.8679308209623
 30
0.0
 40
2.0
  1
.9
 50
25.0300000000002
  7
STYLE3
100
AcDbText
  0
LINE
  5
1268
330
18
100
AcDbEntity
  8
目盛
100
AcDbLine
 10
940.9997587151565
 20
429.2203638964998
 30
0.0
 11
942.2700287722145
 21
427.6755616495632
 31
0.0
  0
LINE
  5
1269
330
18
100
AcDbEntity
  8
目盛
100
AcDbLine
 10
935.8456230349325
 20
423.2217780768027
 30
0.0
 11
937.564078803315
 21
422.1985919881005
 31
0.0
  0
LINE
  5
126A
330
18
100
AcDbEntity
  8
目盛
100
AcDbLine
 10
936.6234527439301
 20
424.4394407011323
 30
0.0
 11
938.2742711463126
 21
423.3103709059667
 31
0.0
  0
LINE
  5
126B
330
18
100
AcDbEntity
  8
目盛
100
AcDbLine
 10
936.2249736028994
 20
423.8367189517158
 30
0.0
 11
937.9104423653714
 21
422.7600597434561
 31
0.0
  0
LINE
  5
126C
330
18
100
AcDbEntity
  8
目盛
100
AcDbLine
 10
937.040667207221
 20
425.0293485114523
 30
0.0
 11
938.6552060910567
 21
423.8489823849546
 31
0.0
  0
LINE
  5
126D
330
18
100
AcDbEntity
  8
目盛
100
AcDbLine
 10
937.4762052524683
 20
425.6058602148881
 30
0.0
 11
939.8412042679719
 21
423.7601138464324
 31
0.0
  0
TEXT
  5
126E
330
18
100
AcDbEntity
  8
文字
100
AcDbText
 10
938.557205429841
 20
418.6831252827565
 30
0.0
 40
2.0
  1
.8
 50
25.0300000000002
  7
STYLE3
100
AcDbText
  0
LINE
  5
126F
330
18
100
AcDbEntity
  8
目盛
100
AcDbLine
 10
934.5267031686622
 20
420.6521289965507
 30
0.0
 11
936.3598476210681
 21
419.8523906539575
 31
0.0
  0
LINE
  5
1270
330
18
100
AcDbEntity
  8
目盛
100
AcDbLine
 10
935.1457858639802
 20
421.9576778999804
 30
0.0
 11
936.9250970385323
 21
421.0444135657844
 31
0.0
  0
LINE
  5
1271
330
18
100
AcDbEntity
  8
目盛
100
AcDbLine
 10
935.4857754132403
 20
422.5952249487933
 30
0.0
 11
938.1103957121213
 21
421.1421701367848
 31
0.0
  0
LINE
  5
1272
330
18
100
AcDbEntity
  8
目盛
100
AcDbLine
 10
934.2482209824817
 20
419.9854155610808
 30
0.0
 11
936.1055812771638
 21
419.2436522998327
 31
0.0
  0
LINE
  5
1273
330
18
100
AcDbEntity
  8
目盛
100
AcDbLine
 10
934.8259899157906
 20
421.3097661123292
 30
0.0
 11
936.6331094336633
 21
420.4528419335811
 31
0.0
  0
LINE
  5
1274
330
18
100
AcDbEntity
  8
目盛
100
AcDbLine
 10
933.9908181855445
 20
419.3102837715871
 30
0.0
 11
936.8104329054295
 21
418.2856995479098
 31
0.0
  0
LINE
  5
1275
330
18
100
AcDbEntity
  8
目盛
100
AcDbLine
 10
933.5402458078331
 20
417.9374378751614
 30
0.0
 11
935.4591691611807
 21
417.3737596300803
 31
0.0
  0
LINE
  5
1276
330
18
100
AcDbEntity
  8
目盛
100
AcDbLine
 10
933.7547488033353
 20
418.6273999016358
 30
0.0
 11
935.6550197222913
 21
418.0037249586002
 31
0.0
  0
LINE
  5
1277
330
18
100
AcDbEntity
  8
目盛
100
AcDbLine
 10
933.3475208875976
 20
417.2410786013839
 30
0.0
 11
935.283202929661
 21
416.7379533366311
 31
0.0
  0
LINE
  5
1278
330
18
100
AcDbEntity
  8
目盛
100
AcDbLine
 10
938.4005151359817
 20
426.7164332931355
 30
0.0
 11
939.8968063738381
 21
425.3893641421436
 31
0.0
  0
LINE
  5
1279
330
18
100
AcDbEntity
  8
目盛
100
AcDbLine
 10
938.8883747919861
 20
427.2493986664003
 30
0.0
 11
940.3422434510593
 21
425.875984700342
 31
0.0
  0
LINE
  5
127A
330
18
100
AcDbEntity
  8
目盛
100
AcDbLine
 10
937.9296370562039
 20
426.1684068639908
 30
0.0
 11
939.466874214041
 21
424.8889921850986
 31
0.0
  0
LINE
  5
127B
330
18
100
AcDbEntity
  8
目盛
100
AcDbLine
 10
939.3927345656368
 20
427.7667770113077
 30
0.0
 11
940.8027458530886
 21
426.3483736239528
 31
0.0
  0
LINE
  5
127C
330
18
100
AcDbEntity
  8
目盛
100
AcDbLine
 10
939.9130967147295
 20
428.2680577378948
 30
0.0
 11
941.9602403221118
 21
426.0750682142642
 31
0.0
  0
LINE
  5
127D
330
18
100
AcDbEntity
  8
目盛
100
AcDbLine
 10
940.4489477046469
 20
428.752746142605
 30
0.0
 11
941.767114371315
 21
427.2486063090504
 31
0.0
  0
TEXT
  5
127E
330
18
100
AcDbEntity
  8
文字
100
AcDbText
 10
947.5589776256926
 20
426.3720157918368
 30
0.0
 40
2.0
  1
0
 50
25.0300000000002
  7
STYLE3
100
AcDbText
  0
LINE
  5
127F
330
18
100
AcDbEntity
  8
ROGO
 62
     4
100
AcDbLine
 10
952.0271875846313
 20
420.665575177697
 30
0.0
 11
953.2187241039546
 21
421.2219575140255
 31
0.0
  0
LINE
  5
1280
102
{ACAD_REACTORS
330
121D
102
}
330
18
100
AcDbEntity
  8
ROGO
 62
     4
100
AcDbLine
 10
949.7944611239638
 20
419.6230141278067
 30
0.0
 11
950.7462174136358
 21
420.0674322211469
 31
0.0
  0
LINE
  5
1281
102
{ACAD_REACTORS
330
121C
102
}
330
18
100
AcDbEntity
  8
ROGO
 62
     4
100
AcDbLine
 10
947.7190001261574
 20
418.6538874412205
 30
0.0
 11
949.3282848774704
 21
419.4053353366335
 31
0.0
  0
LINE
  5
1282
330
18
100
AcDbEntity
  8
ROGO
 62
     4
100
AcDbLine
 10
955.8609022786235
 20
422.455710103206
 30
0.0
 11
957.0524387979469
 21
423.0120924395347
 31
0.0
  0
TEXT
  5
1283
330
18
100
AcDbEntity
  8
文字
100
AcDbText
 10
952.1270928477118
 20
427.6505297858352
 30
0.0
 40
2.0
  1
.1
 50
25.0300000000002
  7
STYLE3
100
AcDbText
  0
LINE
  5
1284
102
{ACAD_REACTORS
330
1220
102
}
330
18
100
AcDbEntity
  8
ROGO
 62
     4
100
AcDbLine
 10
953.8771478629968
 20
421.5354502904177
 30
0.0
 11
954.5571238513101
 21
421.8529618587915
 31
0.0
  0
LINE
  5
1285
330
18
100
AcDbEntity
  8
目盛
100
AcDbLine
 10
946.5361327560795
 20
432.5905038094393
 30
0.0
 11
947.3249789834925
 21
430.7526459178991
 31
0.0
  0
LINE
  5
1286
330
18
100
AcDbEntity
  8
目盛
100
AcDbLine
 10
945.8767312263232
 20
432.2951248061041
 30
0.0
 11
947.1460094626284
 21
429.5768656648811
 31
0.0
  0
LINE
  5
1287
330
18
100
AcDbEntity
  8
目盛
100
AcDbLine
 10
941.5649861622902
 20
429.6704495173128
 30
0.0
 11
942.7861060065547
 21
428.0865093903053
 31
0.0
  0
LINE
  5
1288
330
18
100
AcDbEntity
  8
目盛
100
AcDbLine
 10
942.7364454446438
 20
430.5162653794698
 30
0.0
 11
944.4153261742116
 21
428.0300313808512
 31
0.0
  0
LINE
  5
1289
330
18
100
AcDbEntity
  8
目盛
100
AcDbLine
 10
943.9587023371091
 20
431.2868556802847
 30
0.0
 11
944.9716729487803
 21
429.5623584956275
 31
0.0
  0
LINE
  5
128A
330
18
100
AcDbEntity
  8
目盛
100
AcDbLine
 10
945.2269331501273
 20
431.9791792518894
 30
0.0
 11
946.1296228215362
 21
430.1944800175274
 31
0.0
  0
LINE
  5
128B
330
18
100
AcDbEntity
  8
目盛
100
AcDbLine
 10
943.3415211909837
 20
430.9111609026747
 30
0.0
 11
944.408159728405
 21
429.219332829114
 31
0.0
  0
LINE
  5
128C
330
18
100
AcDbEntity
  8
目盛
100
AcDbLine
 10
942.1440722347991
 20
430.102558824875
 30
0.0
 11
943.3148367684104
 21
428.4810439754711
 31
0.0
  0
LINE
  5
128D
330
18
100
AcDbEntity
  8
目盛
100
AcDbLine
 10
944.5873797997418
 20
431.6429789469125
 30
0.0
 11
945.5456828059666
 21
429.8875145216792
 31
0.0
  0
LINE
  5
128E
330
18
100
AcDbEntity
  8
目盛
100
AcDbLine
 10
950.6571906826305
 20
433.9160113707383
 30
0.0
 11
951.087684046865
 21
431.9628919521287
 31
0.0
  0
LINE
  5
128F
330
18
100
AcDbEntity
  8
目盛
100
AcDbLine
 10
952.07728961075
 20
434.1825453408851
 30
0.0
 11
952.3842961116699
 21
432.2062490553062
 31
0.0
  0
LINE
  5
1290
330
18
100
AcDbEntity
  8
目盛
100
AcDbLine
 10
951.3651466215952
 20
434.0604327041351
 30
0.0
 11
951.7340785998328
 21
432.0947549087084
 31
0.0
  0
LINE
  5
1291
330
18
100
AcDbEntity
  8
目盛
100
AcDbLine
 10
947.2044869896963
 20
432.8650247584802
 30
0.0
 11
947.9352154576645
 21
431.003295480067
 31
0.0
  0
LINE
  5
1292
330
18
100
AcDbEntity
  8
目盛
100
AcDbLine
 10
947.8811343422371
 20
433.1184167341935
 30
0.0
 11
948.5530239099844
 21
431.2346533709355
 31
0.0
  0
LINE
  5
1293
330
18
100
AcDbEntity
  8
目盛
100
AcDbLine
 10
949.2566298018124
 20
433.5608345950181
 30
0.0
 11
950.085051702184
 21
430.6774828726324
 31
0.0
  0
LINE
  5
1294
330
18
100
AcDbEntity
  8
目盛
100
AcDbLine
 10
949.9541204608936
 20
433.7494238671149
 30
0.0
 11
950.4457503661489
 21
431.8107903183858
 31
0.0
  0
LINE
  5
1295
330
18
100
AcDbEntity
  8
目盛
100
AcDbLine
 10
948.5654070444567
 20
433.3504296692913
 30
0.0
 11
949.1777946380979
 21
431.4464912681989
 31
0.0
  0
LINE
  5
1296
330
18
100
AcDbEntity
  8
目盛
100
AcDbLine
 10
978.5666630532416
 20
412.8312060359333
 30
0.0
 11
976.5702457765538
 21
412.7115479507851
 31
0.0
  0
LINE
  5
1297
330
18
100
AcDbEntity
  8
目盛
100
AcDbLine
 10
978.4992666017112
 20
409.2227169658837
 30
0.0
 11
976.5087098860258
 21
409.4168405390006
 31
0.0
  0
LINE
  5
1298
330
18
100
AcDbEntity
  8
目盛
100
AcDbLine
 10
978.4178490355214
 20
408.5047822105117
 30
0.0
 11
976.4343721082003
 21
408.7613348927913
 31
0.0
  0
LINE
  5
1299
330
18
100
AcDbEntity
  8
目盛
100
AcDbLine
 10
978.5985576117868
 20
412.1093737353318
 30
0.0
 11
976.5993668952251
 21
412.0524836763228
 31
0.0
  0
LINE
  5
129A
330
18
100
AcDbEntity
  8
目盛
100
AcDbLine
 10
978.5942705285552
 20
410.6644851777588
 30
0.0
 11
975.5960436384823
 21
410.7676138141458
 31
0.0
  0
LINE
  5
129B
330
18
100
AcDbEntity
  8
目盛
100
AcDbLine
 10
978.6077631318036
 20
411.3868957831031
 30
0.0
 11
976.6077719352407
 21
411.3928298938531
 31
0.0
  0
LINE
  5
129C
330
18
100
AcDbEntity
  8
目盛
100
AcDbLine
 10
978.5580931176124
 20
409.9428548513499
 30
0.0
 11
976.562421052718
 21
410.0743577387738
 31
0.0
  0
LINE
  5
129D
330
18
100
AcDbEntity
  8
目盛
100
AcDbLine
 10
976.6890255739953
 20
402.2581471169051
 30
0.0
 11
974.8558811215897
 21
403.0578854594984
 31
0.0
  0
LINE
  5
129E
330
18
100
AcDbEntity
  8
目盛
100
AcDbLine
 10
976.0699428786775
 20
400.9525982134755
 30
0.0
 11
974.2906317041253
 21
401.8658625476714
 31
0.0
  0
LINE
  5
129F
330
18
100
AcDbEntity
  8
目盛
100
AcDbLine
 10
976.3897388268672
 20
401.6005100011271
 30
0.0
 11
974.5826193089946
 21
402.457434179875
 31
0.0
  0
LINE
  5
12A0
330
18
100
AcDbEntity
  8
目盛
100
AcDbLine
 10
975.7299533294176
 20
400.315051164663
 30
0.0
 11
973.1053330305364
 21
401.7681059766712
 31
0.0
  0
LINE
  5
12A1
330
18
100
AcDbEntity
  8
目盛
100
AcDbLine
 10
975.3701057077252
 20
399.6884980366531
 30
0.0
 11
973.6516499393429
 21
400.7116841253552
 31
0.0
  0
LINE
  5
12A2
330
18
100
AcDbEntity
  8
目盛
100
AcDbLine
 10
974.9907551397583
 20
399.0735571617403
 30
0.0
 11
973.3052863772865
 21
400.1502163700001
 31
0.0
  0
LINE
  5
12A3
330
18
100
AcDbEntity
  8
目盛
100
AcDbLine
 10
973.7395234901894
 20
397.3044158985679
 30
0.0
 11
971.3745244746856
 21
399.1501622670234
 31
0.0
  0
LINE
  5
12A4
330
18
100
AcDbEntity
  8
目盛
100
AcDbLine
 10
971.8229941770207
 20
395.143499102148
 30
0.0
 11
970.4129828895691
 21
396.5619024895029
 31
0.0
  0
LINE
  5
12A5
330
18
100
AcDbEntity
  8
目盛
100
AcDbLine
 10
972.3273539506717
 20
395.6608774470556
 30
0.0
 11
970.8734852915984
 21
397.0342914131141
 31
0.0
  0
LINE
  5
12A6
330
18
100
AcDbEntity
  8
目盛
100
AcDbLine
 10
972.8152136066761
 20
396.19384282032
 30
0.0
 11
971.3189223688196
 21
397.5209119713121
 31
0.0
  0
LINE
  5
12A7
330
18
100
AcDbEntity
  8
目盛
100
AcDbLine
 10
973.2860916864536
 20
396.7418692494651
 30
0.0
 11
971.7488545286167
 21
398.0212839283575
 31
0.0
  0
LINE
  5
12A8
330
18
100
AcDbEntity
  8
目盛
100
AcDbLine
 10
974.1750615354366
 20
397.8809276020036
 30
0.0
 11
972.5605226516011
 21
399.0612937285015
 31
0.0
  0
LINE
  5
12A9
330
18
100
AcDbEntity
  8
目盛
100
AcDbLine
 10
974.5922759987276
 20
398.4708354123235
 30
0.0
 11
972.9414575963451
 21
399.5999052074891
 31
0.0
  0
TEXT
  5
12AA
330
18
100
AcDbEntity
  8
文字
100
AcDbText
 10
971.8421390289986
 20
406.4319113584856
 30
0.0
 40
2.0
  1
.7
 50
25.0300000000002
  7
STYLE3
100
AcDbText
  0
TEXT
  5
12AB
330
18
100
AcDbEntity
  8
文字
100
AcDbText
 10
970.4139884536951
 20
401.5198139205986
 30
0.0
 40
2.0
  1
.8
 50
25.0300000000002
  7
STYLE3
100
AcDbText
  0
LINE
  5
12AC
330
18
100
AcDbEntity
  8
目盛
100
AcDbLine
 10
978.3139207683506
 20
407.7897591001583
 30
0.0
 11
976.3394810816532
 21
408.1084877050773
 31
0.0
  0
LINE
  5
12AD
330
18
100
AcDbEntity
  8
目盛
100
AcDbLine
 10
978.0389645038015
 20
406.371266810622
 30
0.0
 11
976.0884340574994
 21
406.8133425711529
 31
0.0
  0
LINE
  5
12AE
330
18
100
AcDbEntity
  8
目盛
100
AcDbLine
 10
977.6754829348245
 20
404.9728382382942
 30
0.0
 11
975.7565595814769
 21
405.5365164833754
 31
0.0
  0
LINE
  5
12AF
330
18
100
AcDbEntity
  8
目盛
100
AcDbLine
 10
977.224910557113
 20
403.5999923418688
 30
0.0
 11
974.4052958372282
 21
404.6245765655461
 31
0.0
  0
LINE
  5
12B0
330
18
100
AcDbEntity
  8
目盛
100
AcDbLine
 10
976.9675077601764
 20
402.9248605523752
 30
0.0
 11
975.1101474654939
 21
403.6666238136235
 31
0.0
  0
LINE
  5
12B1
330
18
100
AcDbEntity
  8
目盛
100
AcDbLine
 10
977.4609799393225
 20
404.2828762118203
 30
0.0
 11
975.5607090203666
 21
404.9065511548556
 31
0.0
  0
LINE
  5
12B2
330
18
100
AcDbEntity
  8
目盛
100
AcDbLine
 10
977.8682078550604
 20
405.6691975120722
 30
0.0
 11
975.9325258129971
 21
406.172322776825
 31
0.0
  0
LINE
  5
12B3
330
18
100
AcDbEntity
  8
目盛
100
AcDbLine
 10
978.1875843648517
 20
407.0783532763091
 30
0.0
 11
975.2424034961315
 21
407.6492382476683
 31
0.0
  0
LINE
  5
12B4
330
18
100
AcDbEntity
  8
目盛
100
AcDbLine
 10
969.7585865294891
 20
429.5867971755882
 30
0.0
 11
967.9128401610334
 21
427.2217981600846
 31
0.0
  0
LINE
  5
12B5
330
18
100
AcDbEntity
  8
目盛
100
AcDbLine
 10
970.3211331785919
 20
429.1333653718527
 30
0.0
 11
969.0417184996993
 21
427.596128214016
 31
0.0
  0
TEXT
  5
12B6
330
18
100
AcDbEntity
  8
文字
100
AcDbText
 10
963.4282992115904
 20
425.4451553739362
 30
0.0
 40
2.0
  1
.3
 50
25.0300000000002
  7
STYLE3
100
AcDbText
  0
LINE
  5
12B7
102
{ACAD_REACTORS
330
11A3
102
}
330
18
100
AcDbEntity
  8
ROGO
 62
     4
100
AcDbLine
 10
957.9802823372775
 20
423.1981017044482
 30
0.0
 11
958.206266091261
 21
423.5508666313136
 31
0.0
  0
LINE
  5
12B8
102
{ACAD_REACTORS
330
11A3
102
}
330
18
100
AcDbEntity
  8
ROGO
 62
     4
100
AcDbLine
 10
957.9867143154178
 20
423.448347969059
 30
0.0
 11
957.9802823372775
 21
423.1981017044482
 31
0.0
  0
LINE
  5
12B9
330
18
100
AcDbEntity
  8
目盛
100
AcDbLine
 10
972.4207840524954
 20
427.1499057133273
 30
0.0
 11
970.2277945288653
 21
425.1027621059449
 31
0.0
  0
LINE
  5
12BA
330
18
100
AcDbEntity
  8
目盛
100
AcDbLine
 10
970.8691596077366
 20
428.6624872920749
 30
0.0
 11
969.5420904567445
 21
427.1661960542185
 31
0.0
  0
LINE
  5
12BB
330
18
100
AcDbEntity
  8
目盛
100
AcDbLine
 10
978.4349550851597
 20
414.2700855771155
 30
0.0
 11
975.4575084703121
 21
413.9029185092388
 31
0.0
  0
TEXT
  5
12BC
330
18
100
AcDbEntity
  8
文字
100
AcDbText
 10
970.7225155635773
 20
417.301109793401
 30
0.0
 40
2.0
  1
.5
 50
25.0300000000002
  7
STYLE3
100
AcDbText
  0
TEXT
  5
12BD
330
18
100
AcDbEntity
  8
文字
100
AcDbText
 10
971.9896157188422
 20
412.1361497108637
 30
0.0
 40
2.0
  1
.6
 50
25.0300000000002
  7
STYLE3
100
AcDbText
  0
TEXT
  5
12BE
330
18
100
AcDbEntity
  8
文字
100
AcDbText
 10
967.847007396676
 20
422.1461522172062
 30
0.0
 40
2.0
  1
.4
 50
25.0300000000002
  7
STYLE3
100
AcDbText
  0
LINE
  5
12BF
330
18
100
AcDbEntity
  8
目盛
100
AcDbLine
 10
976.7432301240402
 20
420.5268696719772
 30
0.0
 11
974.9053722325001
 21
419.7380234445643
 31
0.0
  0
LINE
  5
12C0
330
18
100
AcDbEntity
  8
目盛
100
AcDbLine
 10
977.0177510730809
 20
419.8585154383605
 30
0.0
 11
975.1560217946678
 21
419.1277869703927
 31
0.0
  0
LINE
  5
12C1
330
18
100
AcDbEntity
  8
目盛
100
AcDbLine
 10
976.1319055664904
 20
421.8360692779294
 30
0.0
 11
974.3472063321284
 21
420.9333796065204
 31
0.0
  0
LINE
  5
12C2
330
18
100
AcDbEntity
  8
目盛
100
AcDbLine
 10
973.7295919794821
 20
419.9169929654288
 30
0.0
 11
976.447851120705
 21
421.1862712017338
 31
0.0
  0
LINE
  5
12C3
330
18
100
AcDbEntity
  8
目盛
100
AcDbLine
 10
977.2711430487944
 20
419.1818680858197
 30
0.0
 11
975.3873796855364
 21
418.5099785180726
 31
0.0
  0
LINE
  5
12C4
330
18
100
AcDbEntity
  8
目盛
100
AcDbLine
 10
977.503155983892
 20
418.4975953836004
 30
0.0
 11
975.5992175827996
 21
417.8852077899593
 31
0.0
  0
LINE
  5
12C5
330
18
100
AcDbEntity
  8
目盛
100
AcDbLine
 10
978.335271655486
 20
414.9857128173069
 30
0.0
 11
976.358975369907
 21
414.6787063163868
 31
0.0
  0
LINE
  5
12C6
330
18
100
AcDbEntity
  8
目盛
100
AcDbLine
 10
978.5121109322471
 20
413.5516803235735
 30
0.0
 11
976.5204373182539
 21
413.3693723003696
 31
0.0
  0
LINE
  5
12C7
330
18
100
AcDbEntity
  8
目盛
100
AcDbLine
 10
978.213159018736
 20
415.6978558064618
 30
0.0
 11
976.2474812233094
 21
415.328923828224
 31
0.0
  0
LINE
  5
12C8
330
18
100
AcDbEntity
  8
目盛
100
AcDbLine
 10
977.7135609096189
 20
417.8063726262445
 30
0.0
 11
974.8302091872334
 21
416.9779507258726
 31
0.0
  0
LINE
  5
12C9
330
18
100
AcDbEntity
  8
目盛
100
AcDbLine
 10
978.0687376853393
 20
416.4058117454265
 30
0.0
 11
976.1156182667297
 21
415.9753183811918
 31
0.0
  0
LINE
  5
12CA
330
18
100
AcDbEntity
  8
目盛
100
AcDbLine
 10
977.9021501817158
 20
417.1088819671633
 30
0.0
 11
975.9635166329864
 21
416.6172520619081
 31
0.0
  0
LINE
  5
12CB
330
18
100
AcDbEntity
  8
目盛
100
AcDbLine
 10
973.8231758319139
 20
425.4980162657663
 30
0.0
 11
972.2392357049063
 21
424.276896421502
 31
0.0
  0
LINE
  5
12CC
330
18
100
AcDbEntity
  8
目盛
100
AcDbLine
 10
974.6689916940708
 20
424.3265569834129
 30
0.0
 11
972.1827576954522
 21
422.647676253845
 31
0.0
  0
LINE
  5
12CD
330
18
100
AcDbEntity
  8
目盛
100
AcDbLine
 10
975.4395819948856
 20
423.1043000909477
 30
0.0
 11
973.7150848102285
 21
422.0913294792764
 31
0.0
  0
LINE
  5
12CE
330
18
100
AcDbEntity
  8
目盛
100
AcDbLine
 10
975.7957052615132
 20
422.4756226283153
 30
0.0
 11
974.0402408362799
 21
421.5173196220903
 31
0.0
  0
LINE
  5
12CF
330
18
100
AcDbEntity
  8
目盛
100
AcDbLine
 10
974.255285139476
 20
424.9189301932576
 30
0.0
 11
972.6337702900718
 21
423.7481656596464
 31
0.0
  0
LINE
  5
12D0
330
18
100
AcDbEntity
  8
目盛
100
AcDbLine
 10
975.0638872172755
 20
423.7214812370734
 30
0.0
 11
973.3720591437146
 21
422.6548426996521
 31
0.0
  0
LINE
  5
12D1
330
18
100
AcDbEntity
  8
目盛
100
AcDbLine
 10
972.9054724572058
 20
426.6140547234096
 30
0.0
 11
971.4013326236512
 21
425.2958880567416
 31
0.0
  0
LINE
  5
12D2
330
18
100
AcDbEntity
  8
目盛
100
AcDbLine
 10
973.3730902111009
 20
426.0632437129006
 30
0.0
 11
971.8282879641641
 21
424.7929736558423
 31
0.0
  0
LINE
  5
12D3
330
18
100
AcDbEntity
  8
目盛
100
AcDbLine
 10
971.9195033259087
 20
427.6702678624197
 30
0.0
 11
970.5010999385539
 21
426.2602565749682
 31
0.0
  0
LINE
  5
12D4
330
18
100
AcDbEntity
  8
目盛
100
AcDbLine
 10
971.4021249810011
 20
428.1746276360707
 30
0.0
 11
970.0287110149426
 21
426.7207589769975
 31
0.0
  0
LINE
  5
12D5
330
18
100
AcDbEntity
  8
目盛
100
AcDbLine
 10
968.5921670157334
 20
430.4395496841266
 30
0.0
 11
967.4630972205678
 21
428.788731281744
 31
0.0
  0
LINE
  5
12D6
330
18
100
AcDbEntity
  8
目盛
100
AcDbLine
 10
969.1820748260532
 20
430.0223352208359
 30
0.0
 11
968.0017086995556
 21
428.4077963370003
 31
0.0
  0
LINE
  5
12D7
330
18
100
AcDbEntity
  8
目盛
100
AcDbLine
 10
967.989445266317
 20
430.8380288251574
 30
0.0
 11
966.9127860580568
 21
429.1525600626853
 31
0.0
  0
LINE
  5
12D8
330
18
100
AcDbEntity
  8
目盛
100
AcDbLine
 10
956.3985172502983
 20
434.4415442139544
 30
0.0
 11
956.295388613911
 21
431.4433173238812
 31
0.0
  0
LINE
  5
12D9
330
18
100
AcDbEntity
  8
目盛
100
AcDbLine
 10
957.8402854621732
 20
434.3465402871102
 30
0.0
 11
957.6461618890563
 21
432.3559835714248
 31
0.0
  0
LINE
  5
12DA
330
18
100
AcDbEntity
  8
目盛
100
AcDbLine
 10
959.2732433278985
 20
434.1611944537499
 30
0.0
 11
958.9545147229793
 21
432.1867547670522
 31
0.0
  0
LINE
  5
12DB
330
18
100
AcDbEntity
  8
目盛
100
AcDbLine
 10
957.1201475767075
 20
434.4053668030113
 30
0.0
 11
956.988644689283
 21
432.4096947381171
 31
0.0
  0
LINE
  5
12DC
330
18
100
AcDbEntity
  8
目盛
100
AcDbLine
 10
958.5582202175455
 20
434.2651227209207
 30
0.0
 11
958.3016675352657
 21
432.2816457935992
 31
0.0
  0
LINE
  5
12DD
330
18
100
AcDbEntity
  8
目盛
100
AcDbLine
 10
959.984649151748
 20
434.0348580502508
 30
0.0
 11
959.4137641803888
 21
431.0896771815303
 31
0.0
  0
LINE
  5
12DE
330
18
100
AcDbEntity
  8
目盛
100
AcDbLine
 10
960.6917356174349
 20
433.8862381892005
 30
0.0
 11
960.2496598569038
 21
431.9357077428986
 31
0.0
  0
LINE
  5
12DF
102
{ACAD_REACTORS
330
11A3
102
}
330
18
100
AcDbEntity
  8
ROGO
 62
     4
100
AcDbLine
 10
958.206266091261
 20
423.5508666313136
 30
0.0
 11
958.8913282838541
 21
423.8707531786952
 31
0.0
  0
TEXT
  5
12E0
330
18
100
AcDbEntity
  8
文字
100
AcDbText
 10
958.2761573804411
 20
427.5444889513649
 30
0.0
 40
2.0
  1
.2
 50
25.0300000000002
  7
STYLE3
100
AcDbText
  0
LINE
  5
12E1
330
18
100
AcDbEntity
  8
目盛
100
AcDbLine
 10
963.4630100861881
 20
433.0721842425121
 30
0.0
 11
962.4384258625108
 21
430.2525695226272
 31
0.0
  0
LINE
  5
12E2
330
18
100
AcDbEntity
  8
目盛
100
AcDbLine
 10
964.8048553111516
 20
432.5362992593945
 30
0.0
 11
964.0051169685584
 21
430.7031548069886
 31
0.0
  0
LINE
  5
12E3
330
18
100
AcDbEntity
  8
目盛
100
AcDbLine
 10
966.1104042145812
 20
431.9172165640764
 30
0.0
 11
965.1971398803855
 21
430.1379053895242
 31
0.0
  0
LINE
  5
12E4
330
18
100
AcDbEntity
  8
目盛
100
AcDbLine
 10
965.4624924269299
 20
432.2370125122664
 30
0.0
 11
964.6055682481819
 21
430.4298929943934
 31
0.0
  0
LINE
  5
12E5
330
18
100
AcDbEntity
  8
目盛
100
AcDbLine
 10
966.747951263394
 20
431.5772270148167
 30
0.0
 11
965.2948964513855
 21
428.9526067159355
 31
0.0
  0
LINE
  5
12E6
330
18
100
AcDbEntity
  8
目盛
100
AcDbLine
 10
962.0901641897626
 20
433.5227566202235
 30
0.0
 11
961.5264859446813
 21
431.6038332668759
 31
0.0
  0
LINE
  5
12E7
330
18
100
AcDbEntity
  8
目盛
100
AcDbLine
 10
962.7801262162368
 20
433.3082536247213
 30
0.0
 11
962.1564512732014
 21
431.4079827057655
 31
0.0
  0
LINE
  5
12E8
330
18
100
AcDbEntity
  8
目盛
100
AcDbLine
 10
964.1381418756814
 20
432.8147814455753
 30
0.0
 11
963.3963786144336
 21
430.957421150893
 31
0.0
  0
LINE
  5
12E9
330
18
100
AcDbEntity
  8
目盛
100
AcDbLine
 10
961.3938049159848
 20
433.7154815404594
 30
0.0
 11
960.890679651232
 21
431.7797994983958
 31
0.0
  0
LINE
  5
12EA
330
18
100
AcDbEntity
  8
目盛
100
AcDbLine
 10
967.3745043914037
 20
431.2173793931243
 30
0.0
 11
966.3513183027014
 21
429.4989236247419
 31
0.0
  0
LINE
  5
12EB
330
18
100
AcDbEntity
  8
目盛
100
AcDbLine
 10
955.6761066449542
 20
434.4550368172028
 30
0.0
 11
955.670172534204
 21
432.4550456206397
 31
0.0
  0
LINE
  5
12EC
330
18
100
AcDbEntity
  8
目盛
100
AcDbLine
 10
953.5113221044834
 20
434.3593846176459
 30
0.0
 11
953.6936301276874
 21
432.3677110036531
 31
0.0
  0
LINE
  5
12ED
330
18
100
AcDbEntity
  8
目盛
100
AcDbLine
 10
954.2317963921234
 20
434.413936738641
 30
0.0
 11
954.3514544772719
 21
432.4175194619527
 31
0.0
  0
LINE
  5
12EE
330
18
100
AcDbEntity
  8
目盛
100
AcDbLine
 10
954.9536286927249
 20
434.4458312971859
 30
0.0
 11
955.0105187517342
 21
432.4466405806242
 31
0.0
  0
INSERT
  5
12EF
330
18
100
AcDbEntity
  8
外形線
100
AcDbBlockReference
  2
ﾀｲﾔﾙ止めﾈｼ
 10
895.5181216969892
 20
396.6753658986701
 30
0.0
 50
25.00000000000001
  0
ARC
  5
12F0
330
18
100
AcDbEntity
  8
中心線
 48
0.3
100
AcDbCircle
 10
880.9586826264057
 20
314.3205714555577
 30
0.0
 40
15.0
100
AcDbArc
 50
339.4895673314717
 51
19.44478465908092
  0
ARC
  5
12F1
330
18
100
AcDbEntity
  8
寸法線
100
AcDbCircle
 10
880.9586826264066
 20
314.3205714555579
 30
0.0
 40
120.0000000000009
100
AcDbArc
 50
174.5022730521822
 51
206.4143665402696
  0
ARC
  5
12F2
330
18
100
AcDbEntity
  8
寸法線
100
AcDbCircle
 10
880.9586826264053
 20
314.3205714555577
 30
0.0
 40
60.00000000000024
100
AcDbArc
 50
344.1797978200272
 51
32.17514270093965
  0
LINE
  5
12F3
330
18
100
AcDbEntity
  8
0
  6
ByBlock
 62
     2
100
AcDbLine
 10
880.9586826264057
 20
314.3205714555577
 30
0.0
 11
938.9384914437107
 21
298.8822499953484
 31
0.0
  0
MTEXT
  5
12F4
330
18
100
AcDbEntity
  8
0
  6
ByBlock
 62
     6
100
AcDbMText
 10
911.05165606103
 20
308.2480264651682
 30
0.0
 40
2.5
 41
0.0
 71
     5
 72
     1
  1
\A1;R60
  7
STYLE3
 11
0.9663301469550834
 21
-0.2573053576701571
 31
0.0
 73
     1
 44
1.0
  0
INSERT
  5
12F5
330
18
100
AcDbEntity
  8
0
  6
ByBlock
 62
     2
100
AcDbBlockReference
  2
_OPEN
 10
938.9384914437107
 20
298.8822499953484
 30
0.0
 41
2.5
 42
2.5
 43
2.5
 50
345.0897685242911
  0
POINT
  5
12F6
330
18
100
AcDbEntity
  8
DEFPOINTS
  6
ByBlock
 62
     0
100
AcDbPoint
 10
938.9384914437107
 20
298.8822499953484
 30
0.0
  0
POINT
  5
12F7
330
18
100
AcDbEntity
  8
DEFPOINTS
  6
ByBlock
 62
     0
100
AcDbPoint
 10
880.9586826264057
 20
314.3205714555579
 30
0.0
  0
LINE
  5
12F8
330
18
100
AcDbEntity
  8
0
  6
ByBlock
 62
     2
100
AcDbLine
 10
950.9586826264056
 20
300.6205714555577
 30
0.0
 11
950.9586826264056
 21
233.405010243879
 31
0.0
  0
LINE
  5
12F9
330
18
100
AcDbEntity
  8
0
  6
ByBlock
 62
     2
100
AcDbLine
 10
883.4586826264056
 20
234.655010243879
 30
0.0
 11
948.4586826264056
 21
234.655010243879
 31
0.0
  0
INSERT
  5
12FA
330
18
100
AcDbEntity
  8
0
  6
ByBlock
 62
     2
100
AcDbBlockReference
  2
_OPEN
 10
880.9586826264057
 20
234.655010243879
 30
0.0
 41
2.5
 42
2.5
 43
2.5
 50
180.0
  0
INSERT
  5
12FB
330
18
100
AcDbEntity
  8
0
  6
ByBlock
 62
     2
100
AcDbBlockReference
  2
_OPEN
 10
950.9586826264056
 20
234.655010243879
 30
0.0
 41
2.5
 42
2.5
 43
2.5
  0
MTEXT
  5
12FC
330
18
100
AcDbEntity
  8
0
  6
ByBlock
 62
     6
100
AcDbMText
 10
915.9586826264057
 20
236.530010243879
 30
0.0
 40
2.5
 41
0.0
 71
     5
 72
     1
  1
\A1;70
  7
STYLE3
 73
     1
 44
1.0
  0
POINT
  5
12FD
330
18
100
AcDbEntity
  8
DEFPOINTS
  6
ByBlock
 62
     0
100
AcDbPoint
 10
950.9586826264056
 20
300.6205714555577
 30
0.0
  0
POINT
  5
12FE
330
18
100
AcDbEntity
  8
DEFPOINTS
  6
ByBlock
 62
     0
100
AcDbPoint
 10
950.9586826264056
 20
234.655010243879
 30
0.0
  0
LINE
  5
12FF
330
18
100
AcDbEntity
  8
0
  6
ByBlock
 62
     2
100
AcDbLine
 10
880.9586826264057
 20
314.3205714555576
 30
0.0
 11
772.7978987260508
 21
262.3470702644629
 31
0.0
  0
MTEXT
  5
1300
330
18
100
AcDbEntity
  8
0
  6
ByBlock
 62
     6
100
AcDbMText
 10
824.327155382546
 20
289.1881838134102
 30
0.0
 40
2.5
 41
0.0
 71
     5
 72
     1
  1
\A1;R120
  7
STYLE3
 11
0.9013398658362907
 21
0.4331125099257899
 31
0.0
 73
     1
 44
1.0
  0
INSERT
  5
1301
330
18
100
AcDbEntity
  8
0
  6
ByBlock
 62
     2
100
AcDbBlockReference
  2
_OPEN
 10
772.7978987260508
 20
262.3470702644629
 30
0.0
 41
2.5
 42
2.5
 43
2.5
 50
205.6652506358873
  0
POINT
  5
1302
330
18
100
AcDbEntity
  8
DEFPOINTS
  6
ByBlock
 62
     0
100
AcDbPoint
 10
772.7978987260508
 20
262.3470702644629
 30
0.0
  0
POINT
  5
1303
330
18
100
AcDbEntity
  8
DEFPOINTS
  6
ByBlock
 62
     0
100
AcDbPoint
 10
880.9586826264057
 20
314.3205714555577
 30
0.0
  0
LINE
  5
1304
330
18
100
AcDbEntity
  8
寸法線
 48
0.5
100
AcDbLine
 10
760.9586826264056
 20
379.172808265329
 30
0.0
 11
760.9586826264056
 21
222.5378080482597
 31
0.0
  0
LINE
  5
1305
330
18
100
AcDbEntity
  8
想像線
  6
PHANTOM2
100
AcDbLine
 10
860.9586826264056
 20
379.1728082653291
 30
0.0
 11
860.9586826264056
 21
264.3248962661068
 31
0.0
  0
POINT
  5
1306
330
18
100
AcDbEntity
  8
DEFPOINTS
  6
ByBlock
 62
     0
100
AcDbPoint
 10
760.9586826264056
 20
351.6730667839831
 30
0.0
  0
POINT
  5
1308
330
18
100
AcDbEntity
  8
DEFPOINTS
  6
ByBlock
 62
     0
100
AcDbPoint
 10
760.9586826264056
 20
268.8665834227202
 30
0.0
  0
POINT
  5
1309
330
18
100
AcDbEntity
  8
DEFPOINTS
  6
ByBlock
 62
     0
100
AcDbPoint
 10
860.9586826264056
 20
268.8665834227202
 30
0.0
  0
LINE
  5
130A
330
18
100
AcDbEntity
  8
0
  6
ByBlock
 62
     2
100
AcDbLine
 10
763.4586826264056
 20
224.207214633984
 30
0.0
 11
1048.458682626406
 21
224.207214633984
 31
0.0
  0
INSERT
  5
130B
330
18
100
AcDbEntity
  8
0
  6
ByBlock
 62
     2
100
AcDbBlockReference
  2
_OPEN
 10
760.9586826264056
 20
224.207214633984
 30
0.0
 41
2.5
 42
2.5
 43
2.5
 50
180.0
  0
INSERT
  5
130C
330
18
100
AcDbEntity
  8
0
  6
ByBlock
 62
     2
100
AcDbBlockReference
  2
_OPEN
 10
1050.958682626406
 20
224.207214633984
 30
0.0
 41
2.5
 42
2.5
 43
2.5
  0
MTEXT
  5
130D
330
18
100
AcDbEntity
  8
0
  6
ByBlock
 62
     6
100
AcDbMText
 10
905.9586826264057
 20
226.082214633984
 30
0.0
 40
2.5
 41
0.0
 71
     5
 72
     1
  1
\A1;290
  7
STYLE3
 73
     1
 44
1.0
  0
LINE
  5
130E
330
18
100
AcDbEntity
  8
0
  6
ByBlock
 62
     2
100
AcDbLine
 10
1050.958682626406
 20
300.6205714555577
 30
0.0
 11
1050.958682626405
 21
222.9572146339842
 31
0.0
  0
LINE
  5
130F
330
18
100
AcDbEntity
  8
0
  6
ByBlock
 62
     2
100
AcDbLine
 10
953.4586826264057
 20
234.655010243879
 30
0.0
 11
1048.458682626406
 21
234.655010243879
 31
0.0
  0
INSERT
  5
1310
330
18
100
AcDbEntity
  8
0
  6
ByBlock
 62
     2
100
AcDbBlockReference
  2
_OPEN
 10
950.9586826264056
 20
234.655010243879
 30
0.0
 41
2.5
 42
2.5
 43
2.5
 50
180.0
  0
INSERT
  5
1311
330
18
100
AcDbEntity
  8
0
  6
ByBlock
 62
     2
100
AcDbBlockReference
  2
_OPEN
 10
1050.958682626406
 20
234.655010243879
 30
0.0
 41
2.5
 42
2.5
 43
2.5
  0
MTEXT
  5
1312
330
18
100
AcDbEntity
  8
0
  6
ByBlock
 62
     6
100
AcDbMText
 10
1000.958682626405
 20
236.530010243879
 30
0.0
 40
2.5
 41
0.0
 71
     5
 72
     1
  1
\A1;100
  7
STYLE3
 73
     1
 44
1.0
  0
POINT
  5
1313
330
18
100
AcDbEntity
  8
DEFPOINTS
  6
ByBlock
 62
     0
100
AcDbPoint
 10
950.9586826264056
 20
300.6205714555577
 30
0.0
  0
POINT
  5
1314
330
18
100
AcDbEntity
  8
DEFPOINTS
  6
ByBlock
 62
     0
100
AcDbPoint
 10
1050.958682626406
 20
300.6205714555577
 30
0.0
  0
POINT
  5
1315
330
18
100
AcDbEntity
  8
DEFPOINTS
  6
ByBlock
 62
     0
100
AcDbPoint
 10
1050.958682626406
 20
234.655010243879
 30
0.0
  0
LINE
  5
1316
330
18
100
AcDbEntity
  8
外形線
 48
0.5
100
AcDbLine
 10
765.9424822183016
 20
319.3252908285046
 30
0.0
 11
765.9522560372149
 21
316.8253099340848
 31
0.0
  0
LINE
  5
1317
330
18
100
AcDbEntity
  8
外形線
 48
0.5
100
AcDbLine
 10
755.9425586406226
 20
319.2861955528519
 30
0.0
 11
755.9523324595358
 21
316.7862146584321
 31
0.0
  0
LINE
  5
1318
330
18
100
AcDbEntity
  8
外形線
100
AcDbLine
 10
765.9522560372149
 20
316.8253099340848
 30
0.0
 11
755.9523324595358
 21
316.7862146584321
 31
0.0
  0
LINE
  5
1319
330
18
100
AcDbEntity
  8
外形線
 48
0.5
100
AcDbLine
 10
764.952263679447
 20
316.8214004065195
 30
0.0
 11
764.973657145804
 21
311.3493062708528
 31
0.0
  0
LINE
  5
131A
330
18
100
AcDbEntity
  8
外形線
 48
0.5
100
AcDbLine
 10
756.9523248173037
 20
316.7901241859974
 30
0.0
 11
756.9737182836608
 21
311.3180300503307
 31
0.0
  0
LINE
  5
131B
330
18
100
AcDbEntity
  8
外形線
 48
0.5
100
AcDbLine
 10
762.9522789639111
 20
316.8135813513889
 30
0.0
 11
762.9783041190973
 21
310.1567779751217
 31
0.0
  0
LINE
  5
131C
330
18
100
AcDbEntity
  8
外形線
 48
0.5
100
AcDbLine
 10
758.9523095328396
 20
316.7979432411279
 30
0.0
 11
758.9783346880258
 21
310.1411398648606
 31
0.0
  0
CIRCLE
  5
131D
330
18
100
AcDbEntity
  8
外形線
100
AcDbCircle
 10
760.9679323586365
 20
312.8057928651868
 30
0.0
 40
2.0
  0
LINE
  5
131E
330
18
100
AcDbEntity
  8
外形線
100
AcDbLine
 10
765.9424822183016
 20
319.3252908285046
 30
0.0
 11
755.9425586406226
 21
319.2861955528519
 31
0.0
  0
LINE
  5
131F
330
18
100
AcDbEntity
  8
隠れ線2
 48
0.3
100
AcDbLine
 10
764.4004510459325
 20
314.70717783179
 30
0.0
 11
763.5085853455072
 21
310.3757286565721
 31
0.0
  0
LINE
  5
1320
330
18
100
AcDbEntity
  8
隠れ線2
 48
0.3
100
AcDbLine
 10
758.3575662921664
 20
315.4085311483631
 30
0.0
 11
757.6180667908543
 21
310.8201063448654
 31
0.0
  0
LINE
  5
1321
330
18
100
AcDbEntity
  8
隠れ線2
 48
0.3
100
AcDbLine
 10
763.5042587501352
 20
315.905379563741
 30
0.0
 11
759.4280870780013
 21
316.2459458603763
 31
0.0
  0
ARC
  5
1322
330
18
100
AcDbEntity
  8
隠れ線2
 48
0.3
100
AcDbCircle
 10
759.3448266519507
 20
315.249418037657
 30
0.0
 40
1.0
100
AcDbArc
 50
85.22399999999997
 51
170.8445782441571
  0
ARC
  5
1323
330
18
100
AcDbEntity
  8
隠れ線2
 48
0.3
100
AcDbCircle
 10
763.4209983240846
 20
314.9088517410216
 30
0.0
 40
1.0
100
AcDbArc
 50
348.3651382201864
 51
85.22399999999997
  0
LINE
  5
1325
330
18
100
AcDbEntity
  8
外形線
100
AcDbLine
 10
759.9056251380419
 20
311.7434856445924
 30
0.0
 11
762.0491085008296
 21
313.8381749374031
 31
0.0
  0
LINE
  5
1326
330
18
100
AcDbEntity
  8
想像線
 48
0.3
100
AcDbLine
 10
767.0242139771792
 20
298.5660033820528
 30
0.0
 11
757.0345778945518
 21
298.1108430403374
 31
0.0
  0
LINE
  5
1327
330
18
100
AcDbEntity
  8
想像線
 48
0.5
100
AcDbLine
 10
767.0242139771792
 20
298.5660033820528
 30
0.0
 11
767.138004062608
 21
296.0685943613959
 31
0.0
  0
LINE
  5
1328
330
18
100
AcDbEntity
  8
想像線
 48
0.5
100
AcDbLine
 10
757.0345778945518
 20
298.1108430403374
 30
0.0
 11
757.1483679799808
 21
295.6134340196806
 31
0.0
  0
POINT
  5
132A
330
18
100
AcDbEntity
  8
DEFPOINTS
  6
ByBlock
 62
     0
100
AcDbPoint
 10
761.1626826264057
 20
319.3205714555579
 30
0.0
  0
POINT
  5
132B
330
18
100
AcDbEntity
  8
DEFPOINTS
  6
ByBlock
 62
     0
100
AcDbPoint
 10
762.0293959358656
 20
298.3384232111951
 30
0.0
  0
POINT
  5
1330
330
18
100
AcDbEntity
  8
DEFPOINTS
  6
ByBlock
 62
     0
100
AcDbPoint
 10
761.1626826264057
 20
319.3205714555578
 30
0.0
  0
POINT
  5
1331
330
18
100
AcDbEntity
  8
DEFPOINTS
  6
ByBlock
 62
     0
100
AcDbPoint
 10
762.0277424578841
 20
298.3383478733553
 30
0.0
  0
LINE
  5
1335
330
18
100
AcDbEntity
  8
中心線
100
AcDbLine
 10
756.1382267637703
 20
313.2093173191559
 30
0.0
 11
765.8866151061906
 21
312.3948343231042
 31
0.0
  0
LINE
  5
1336
330
18
100
AcDbEntity
  8
外形線
100
AcDbLine
 10
739.3264136959062
 20
316.8205714555577
 30
0.0
 11
729.3264136959062
 21
316.8205714555577
 31
0.0
  0
LINE
  5
1337
330
18
100
AcDbEntity
  8
外形線
100
AcDbLine
 10
739.3264136959062
 20
319.3205714555578
 30
0.0
 11
729.3264136959062
 21
319.3205714555578
 31
0.0
  0
LINE
  5
1338
330
18
100
AcDbEntity
  8
外形線
 48
0.5
100
AcDbLine
 10
739.3264136959062
 20
319.3205714555578
 30
0.0
 11
739.3264136959062
 21
316.8205714555577
 31
0.0
  0
LINE
  5
1339
330
18
100
AcDbEntity
  8
外形線
 48
0.5
100
AcDbLine
 10
729.3264136959062
 20
319.3205714555578
 30
0.0
 11
729.3264136959062
 21
316.8205714555577
 31
0.0
  0
LINE
  5
133A
330
18
100
AcDbEntity
  8
外形線
 48
0.5
100
AcDbLine
 10
730.3264136959062
 20
316.8205714555577
 30
0.0
 11
730.3264136959062
 21
309.8205714555577
 31
0.0
  0
LINE
  5
133B
330
18
100
AcDbEntity
  8
外形線
 48
0.5
100
AcDbLine
 10
738.3264136959062
 20
316.8205714555577
 30
0.0
 11
738.3264136959062
 21
309.8205714555578
 31
0.0
  0
LINE
  5
133C
330
18
100
AcDbEntity
  8
外形線
100
AcDbLine
 10
738.3264136959062
 20
309.8205714555578
 30
0.0
 11
735.8264136959062
 21
309.8205714555577
 31
0.0
  0
LINE
  5
133D
330
18
100
AcDbEntity
  8
外形線
100
AcDbLine
 10
735.8264136959062
 20
316.1205714555578
 30
0.0
 11
732.8264136959062
 21
316.1205714555578
 31
0.0
  0
LINE
  5
133E
330
18
100
AcDbEntity
  8
外形線
 48
0.5
100
AcDbLine
 10
735.8264136959062
 20
316.8205714555577
 30
0.0
 11
735.826413695906
 21
299.2935813889602
 31
0.0
  0
LINE
  5
133F
330
18
100
AcDbEntity
  8
外形線
 48
0.5
100
AcDbLine
 10
732.8264136959062
 20
316.8205714555577
 30
0.0
 11
732.8264136959062
 21
298.5963019206781
 31
0.0
  0
LINE
  5
1340
330
18
100
AcDbEntity
  8
外形線
100
AcDbLine
 10
732.8264136959062
 20
309.8205714555577
 30
0.0
 11
730.3264136959062
 21
309.8205714555577
 31
0.0
  0
LINE
  5
1342
330
18
100
AcDbEntity
  8
中心線
 48
0.4
100
AcDbLine
 10
734.3264136959062
 20
338.9760116930885
 30
0.0
 11
734.3264136959062
 21
294.1673009350902
 31
0.0
  0
LINE
  5
1343
330
18
100
AcDbEntity
  8
外形線
100
AcDbLine
 10
735.8264136959062
 20
319.3205714555578
 30
0.0
 11
732.8264136959062
 21
319.3205714555578
 31
0.0
  0
LINE
  5
1344
330
18
100
AcDbEntity
  8
外形線
100
AcDbLine
 10
735.8264136959062
 20
336.6534594488582
 30
0.0
 11
735.8264136959062
 21
319.3205714555578
 31
0.0
  0
LINE
  5
1345
330
18
100
AcDbEntity
  8
外形線
100
AcDbLine
 10
732.8264136959062
 20
335.9647088022059
 30
0.0
 11
732.8264136959062
 21
319.3205714555578
 31
0.0
  0
ARC
  5
1347
330
18
100
AcDbEntity
  8
外形線
100
AcDbCircle
 10
760.9562037759408
 20
315.8057699384905
 30
0.0
 40
6.0
100
AcDbArc
 50
228.4136851042215
 51
312.0343148957784
  0
POINT
  5
1351
330
18
100
AcDbEntity
  8
DEFPOINTS
  6
ByBlock
 62
     0
100
AcDbPoint
 10
729.3264136959062
 20
319.3205714555578
 30
0.0
  0
POINT
  5
1352
330
18
100
AcDbEntity
  8
DEFPOINTS
  6
ByBlock
 62
     0
100
AcDbPoint
 10
739.3264136959062
 20
319.3205714555578
 30
0.0
  0
POINT
  5
1353
330
18
100
AcDbEntity
  8
DEFPOINTS
  6
ByBlock
 62
     0
100
AcDbPoint
 10
739.3264136959062
 20
311.7982550854953
 30
0.0
  0
LINE
  5
135D
330
18
100
AcDbEntity
  8
隠れ線2
 48
0.3
100
AcDbLine
 10
760.1626826264057
 20
324.3205714555577
 30
0.0
 11
762.1626826264057
 21
324.3205714555578
 31
0.0
  0
LINE
  5
135E
330
18
100
AcDbEntity
  8
隠れ線2
 48
0.3
100
AcDbLine
 10
762.1626826264057
 20
324.3205714555578
 30
0.0
 11
762.1626826264057
 21
319.5885206479888
 31
0.0
  0
LINE
  5
135F
330
18
100
AcDbEntity
  8
隠れ線2
 48
0.3
100
AcDbLine
 10
760.1626826264057
 20
324.3205714555577
 30
0.0
 11
760.1626826264057
 21
319.5885206479888
 31
0.0
  0
LINE
  5
1365
330
18
100
AcDbEntity
  8
中心線
 48
0.4
100
AcDbLine
 10
741.284516135208
 20
312.8205714555577
 30
0.0
 11
728.2581174428545
 21
312.8205714555577
 31
0.0
  0
LINE
  5
1366
330
18
100
AcDbEntity
  8
外形線
 48
0.5
100
AcDbLine
 10
740.3264136959062
 20
314.8205714555576
 30
0.0
 11
740.3264136959062
 21
313.1705714555577
 31
0.0
  0
LINE
  5
1367
330
18
100
AcDbEntity
  8
外形線
100
AcDbLine
 10
740.3264136959062
 20
314.8205714555576
 30
0.0
 11
738.3264136959062
 21
314.8205714555576
 31
0.0
  0
LINE
  5
1368
330
18
100
AcDbEntity
  8
外形線
100
AcDbLine
 10
740.3264136959062
 20
310.8205714555576
 30
0.0
 11
738.3264136959062
 21
310.8205714555576
 31
0.0
  0
LINE
  5
1369
330
18
100
AcDbEntity
  8
外形線
 48
0.4
100
AcDbLine
 10
740.3264136959062
 20
313.1705714555577
 30
0.0
 11
739.6264136959062
 21
313.1705714555577
 31
0.0
  0
LINE
  5
136A
330
18
100
AcDbEntity
  8
外形線
 48
0.4
100
AcDbLine
 10
740.3264136959062
 20
312.4705714555576
 30
0.0
 11
739.6264136959062
 21
312.4705714555576
 31
0.0
  0
LINE
  5
136B
330
18
100
AcDbEntity
  8
外形線
 48
0.5
100
AcDbLine
 10
739.6264136959062
 20
313.1705714555577
 30
0.0
 11
739.6264136959062
 21
312.4705714555576
 31
0.0
  0
LINE
  5
136C
330
18
100
AcDbEntity
  8
外形線
 48
0.5
100
AcDbLine
 10
740.3264136959062
 20
312.4705714555576
 30
0.0
 11
740.3264136959062
 21
310.8205714555576
 31
0.0
  0
LINE
  5
136D
330
18
100
AcDbEntity
  8
0
  6
ByBlock
 62
     2
100
AcDbLine
 10
763.4586826264056
 20
377.922808265329
 30
0.0
 11
858.4586826264056
 21
377.922808265329
 31
0.0
  0
INSERT
  5
136E
330
18
100
AcDbEntity
  8
0
  6
ByBlock
 62
     2
100
AcDbBlockReference
  2
_OPEN
 10
760.9586826264056
 20
377.922808265329
 30
0.0
 41
2.5
 42
2.5
 43
2.5
 50
180.0
  0
INSERT
  5
136F
330
18
100
AcDbEntity
  8
0
  6
ByBlock
 62
     2
100
AcDbBlockReference
  2
_OPEN
 10
860.9586826264056
 20
377.922808265329
 30
0.0
 41
2.5
 42
2.5
 43
2.5
  0
MTEXT
  5
1370
330
18
100
AcDbEntity
  8
0
  6
ByBlock
 62
     6
100
AcDbMText
 10
810.7002270160972
 20
379.797808265329
 30
0.0
 40
2.5
 41
0.0
 71
     5
 72
     1
  1
\A1;100
  7
STYLE3
 73
     1
 44
1.0
  0
POINT
  5
1371
330
18
100
AcDbEntity
  8
DEFPOINTS
  6
ByBlock
 62
     0
100
AcDbPoint
 10
760.9586826264056
 20
351.2195832943656
 30
0.0
  0
POINT
  5
1372
330
18
100
AcDbEntity
  8
DEFPOINTS
  6
ByBlock
 62
     0
100
AcDbPoint
 10
860.9586826264056
 20
377.922808265329
 30
0.0
  0
LINE
  5
1373
330
18
100
AcDbEntity
  8
想像線
 48
0.6
100
AcDbLine
 10
917.3169142166152
 20
362.705193030604
 30
0.0
 11
935.912117733206
 21
322.8276504009914
 31
0.0
  0
POINT
  5
1376
330
18
100
AcDbEntity
  8
DEFPOINTS
  6
ByBlock
 62
     0
100
AcDbPoint
 10
762.1037730483667
 20
319.5558196832982
 30
0.0
  0
POINT
  5
1377
330
18
100
AcDbEntity
  8
DEFPOINTS
  6
ByBlock
 62
     0
100
AcDbPoint
 10
761.1626826264056
 20
321.3205714555577
 30
0.0
  0
LINE
  5
1378
330
18
100
AcDbEntity
  8
隠れ線2
100
AcDbLine
 10
950.9586826264055
 20
326.0705714555578
 30
0.0
 11
1039.458682626406
 21
326.0705714555578
 31
0.0
  0
LINE
  5
1379
330
18
100
AcDbEntity
  8
隠れ線2
100
AcDbLine
 10
950.9586826264055
 20
302.5705714555578
 30
0.0
 11
1039.458682626406
 21
302.5705714555578
 31
0.0
  0
LINE
  5
137A
330
18
100
AcDbEntity
  8
隠れ線2
100
AcDbLine
 10
1040.958682626406
 20
324.5705714555578
 30
0.0
 11
1040.958682626406
 21
304.0705714555577
 31
0.0
  0
ARC
  5
137B
330
18
100
AcDbEntity
  8
隠れ線2
100
AcDbCircle
 10
1039.458682626406
 20
324.5705714555578
 30
0.0
 40
1.5
100
AcDbArc
 50
0.0
 51
90.0
  0
ARC
  5
137C
330
18
100
AcDbEntity
  8
隠れ線2
100
AcDbCircle
 10
1039.458682626406
 20
304.0705714555577
 30
0.0
 40
1.5
100
AcDbArc
 50
270.0
 51
359.9999999999997
  0
LINE
  5
13F4
330
18
100
AcDbEntity
  8
寸法線
 62
     2
100
AcDbLine
 10
755.9425586406227
 20
319.286195552852
 30
0.0
 11
746.6609573882585
 21
318.761840356072
 31
0.0
  0
LINE
  5
13F5
330
18
100
AcDbEntity
  8
寸法線
 62
     2
100
AcDbLine
 10
757.1385722667104
 20
298.1155813624921
 30
0.0
 11
747.8569710143459
 21
297.5912261657121
 31
0.0
  0
LINE
  5
13F6
330
18
100
AcDbEntity
  8
寸法線
 62
     2
100
AcDbLine
 10
748.0499776833105
 20
316.3363254375581
 30
0.0
 11
748.9639707721257
 21
300.1577513528622
 31
0.0
  0
INSERT
  5
13F7
330
18
100
AcDbEntity
  8
寸法線
 62
     2
100
AcDbBlockReference
  2
_OPEN
 10
747.9089674146743
 20
318.83234549039
 30
0.0
 41
2.5
 42
2.5
 43
2.5
 50
93.23343333903324
  0
INSERT
  5
13F8
330
18
100
AcDbEntity
  8
寸法線
 62
     2
100
AcDbBlockReference
  2
_OPEN
 10
749.1049810407619
 20
297.6617313000302
 30
0.0
 41
2.5
 42
2.5
 43
2.5
 50
273.2334333390332
  0
MTEXT
  5
13F9
330
18
100
AcDbEntity
  8
寸法線
 62
     6
100
AcDbMText
 10
746.6349591880942
 20
308.141280693733
 30
0.0
 40
2.5
 41
0.0
 71
     5
 72
     1
  1
\A1;21～23
  7
STYLE3
 11
-0.0564041074544551
 21
0.9984080211327762
 31
0.0
 73
     1
 44
1.0
  0
SPLINE
  5
1425
330
18
100
AcDbEntity
  8
寸法線
100
AcDbSpline
210
0.0
220
0.0
230
1.0
 70
     8
 71
     3
 72
    10
 73
     6
 74
     0
 42
0.0000000001
 43
0.0000000001
 40
2.420623453072171
 40
2.420623453072238
 40
2.420623453072238
 40
2.420623453072238
 40
3.991254720440898
 40
4.982687581210817
 40
5.613602684338768
 40
5.613602684338768
 40
5.613602684338768
 40
5.613602684338768
 10
732.8264136959061
 20
335.9647088022058
 30
0.0
 10
733.3206851989818
 20
336.0725489427287
 30
0.0
 10
734.1735012760018
 20
337.8987985301919
 30
0.0
 10
735.2450738445831
 20
336.3366851523781
 30
0.0
 10
735.6763694681665
 20
336.5376859382838
 30
0.0
 10
735.8264136959063
 20
336.6534594488617
 30
0.0
  0
DIMENSION
  5
1426
330
18
100
AcDbEntity
  8
寸法線
100
AcDbDimension
  2
*D7
 10
735.8264136959064
 20
345.2776213587426
 30
0.0
 11
734.3264136959064
 21
345.2776213587426
 31
0.0
 70
   160
 71
     5
 42
3.000000000000227
  3
STYLE3
100
AcDbAlignedDimension
 13
732.8264136959062
 23
335.9647088022059
 33
0.0
 14
735.8264136959064
 24
336.6534594488617
 34
0.0
100
AcDbRotatedDimension
1001
ACAD
1000
DSTYLE
1002
{
1070
   271
1070
     2
1070
   341
1005
0
1002
}
  0
SPLINE
  5
144B
330
18
100
AcDbEntity
  8
寸法線
100
AcDbSpline
210
0.0
220
0.0
230
1.0
 70
     8
 71
     3
 72
    10
 73
     6
 74
     0
 42
0.0000000001
 43
0.0000000001
 40
1.641304702023859
 40
1.641304702023859
 40
1.641304702023859
 40
1.641304702023859
 40
1.9884997856487
 40
3.440548906879464
 40
5.375019814319788
 40
5.375019814319788
 40
5.375019814319788
 40
5.375019814319788
 10
732.8264136959062
 20
298.5963019206781
 30
0.0
 10
732.9275459792234
 20
298.6101340375881
 30
0.0
 10
733.4602680523238
 20
298.5763781258005
 30
0.0
 10
734.6782080622154
 20
297.1326118940711
 30
0.0
 10
735.3591956460758
 20
299.2080810552691
 30
0.0
 10
735.8264136959059
 20
299.2935813889601
 30
0.0
  0
LINE
  5
145B
330
18
100
AcDbEntity
  8
外形線
100
AcDbLine
 10
945.3677376336699
 20
326.0705714555578
 30
0.0
 11
950.9586826264056
 21
326.0705714555576
 31
0.0
  0
ARC
  5
145C
330
18
100
AcDbEntity
  8
外形線
100
AcDbCircle
 10
944.7422848229699
 20
342.6552740771599
 30
0.0
 40
16.59649216748503
100
AcDbArc
 50
208.7459143374911
 51
214.248949331672
  0
ARC
  5
145D
330
18
100
AcDbEntity
  8
隠れ線2
100
AcDbCircle
 10
944.7422848229699
 20
342.6552740771599
 30
0.0
 40
16.59649216748503
100
AcDbArc
 50
214.248949331672
 51
272.1597512217251
  0
DIMENSION
  5
145E
330
18
100
AcDbEntity
  8
寸法線
100
AcDbDimension
  2
*D8
 10
739.3264136959062
 20
325.5512049900838
 30
0.0
 11
745.6061756006682
 21
325.5512049900838
 31
0.0
 70
   160
  1
%%C<>
 71
     5
 42
10.0
  3
STYLE3
100
AcDbAlignedDimension
 13
729.3264136959062
 23
319.3205714555578
 33
0.0
 14
739.3264136959062
 24
319.3205714555578
 34
0.0
100
AcDbRotatedDimension
1001
ACAD
1000
DSTYLE
1002
{
1070
   271
1070
     2
1070
   341
1005
0
1002
}
  0
ARC
  5
14D0
330
18
100
AcDbEntity
  8
外形線
100
AcDbCircle
 10
856.7183750962842
 20
299.2796255335321
 30
0.0
 40
16.02716890949977
100
AcDbArc
 50
308.5601407253579
 51
32.45613141065786
  0
LINE
  5
14E8
330
18
100
AcDbEntity
  8
寸法線
100
AcDbLine
 10
880.9586826264057
 20
297.0622464852084
 30
0.0
 11
880.9586826264057
 21
233.0824014981716
 31
0.0
  0
DIMENSION
  5
151B
330
18
100
AcDbEntity
  8
寸法線
100
AcDbDimension
  2
*D9
 10
735.762478105954
 20
287.6323660936574
 30
0.0
 11
734.2944459009302
 21
289.5073660936574
 31
0.0
 70
    32
  1
3
 71
     5
 42
2.936064410047606
  3
STYLE3
100
AcDbAlignedDimension
 13
732.8264136959063
 23
299.275039429386
 33
0.0
 14
735.762478105954
 24
299.275039429386
 34
0.0
100
AcDbRotatedDimension
1001
ACAD
1000
DSTYLE
1002
{
1070
   271
1070
     2
1070
   341
1005
0
1002
}
  0
TEXT
  5
1571
330
18
100
AcDbEntity
  8
文字
100
AcDbText
 10
730.5146717559198
 20
443.2141340559395
 30
0.0
 40
4.0
  1
Model No.LA-10 Outside Dial Caliper Gauge
  7
STYLE3
100
AcDbText
  0
LINE
  5
1572
330
18
100
AcDbEntity
  8
外形線
100
AcDbLine
 10
729.2117217559198
 20
439.2907040559397
 30
0.0
 11
861.0
 21
439.2907040559397
 31
0.0
  0
LINE
  5
1573
330
18
100
AcDbEntity
  8
外形線
100
AcDbLine
 10
729.2117217559198
 20
440.2907040559395
 30
0.0
 11
861.0
 21
440.2907040559395
 31
0.0
  0
TEXT
  5
1590
330
18
100
AcDbEntity
  8
0
  6
Continuous
100
AcDbText
 10
1035.286719327566
 20
179.0083784206256
 30
0.0
 40
2.1
  1
OZAKI MFG. CO., LTD.
  7
STYLE3
100
AcDbText
  0
TEXT
  5
1591
330
18
100
AcDbEntity
  8
0
  6
Continuous
100
AcDbText
 10
1034.412241327566
 20
182.7960174206256
 30
0.0
 40
3.0
  1
株式会社　尾崎製作所
  7
STYLE3
100
AcDbText
  0
TEXT
  5
1592
330
18
100
AcDbEntity
  8
0
  6
Continuous
100
AcDbText
 10
1014.007686327566
 20
180.7565194206256
 30
0.0
 40
2.1
  1
2010.06.28
  7
STYLE3
100
AcDbText
  0
TEXT
  5
1593
330
18
100
AcDbEntity
  8
0
  6
Continuous
100
AcDbText
 10
1004.879518327566
 20
182.3414624206256
 30
0.0
 40
3.0
  1
日 付
  7
STYLE3
100
AcDbText
  0
TEXT
  5
1594
330
18
100
AcDbEntity
  8
0
  6
Continuous
100
AcDbText
 10
1005.262879327566
 20
179.0083794206256
 30
0.0
 40
2.1
  1
Date
  7
STYLE3
100
AcDbText
  0
TEXT
  5
1595
330
18
100
AcDbEntity
  8
0
  6
Continuous
100
AcDbText
 10
995.1691073275661
 20
181.0478784206256
 30
0.0
 40
2.399999999999999
  1
1/1
  7
STYLE3
100
AcDbText
  0
TEXT
  5
1596
330
18
100
AcDbEntity
  8
0
  6
Continuous
100
AcDbText
 10
985.549818327566
 20
179.2997354206256
 30
0.0
 40
2.1
  1
Scale
  7
STYLE3
100
AcDbText
  0
TEXT
  5
1597
330
18
100
AcDbEntity
  8
0
  6
Continuous
100
AcDbText
 10
975.810755327566
 20
180.7565214206256
 30
0.0
 40
2.399999999999999
  1
mm
  7
STYLE3
100
AcDbText
  0
TEXT
  5
1598
330
18
100
AcDbEntity
  8
0
  6
Continuous
100
AcDbText
 10
985.0866033275661
 20
182.2192574206256
 30
0.0
 40
3.0
  1
尺 度
  7
STYLE3
100
AcDbText
  0
TEXT
  5
1599
330
18
100
AcDbEntity
  8
0
  6
Continuous
100
AcDbText
 10
967.940428327566
 20
179.0083784206256
 30
0.0
 40
2.1
  1
Unit
  7
STYLE3
100
AcDbText
  0
TEXT
  5
159A
330
18
100
AcDbEntity
  8
0
  6
Continuous
100
AcDbText
 10
967.7687073275661
 20
182.5106154206256
 30
0.0
 40
3.0
  1
単位
  7
STYLE3
100
AcDbText
  0
LINE
  5
159B
330
18
100
AcDbEntity
  8
外形線
100
AcDbLine
 10
966.3112383275661
 20
186.8750154206256
 30
0.0
 11
966.3112383275661
 21
177.2602374206256
 31
0.0
  0
LINE
  5
159C
330
18
100
AcDbEntity
  8
外形線
100
AcDbLine
 10
983.8008563275661
 20
186.8750154206256
 30
0.0
 11
983.8008563275661
 21
177.2602374206256
 31
0.0
  0
LINE
  5
159D
330
18
100
AcDbEntity
  8
外形線
100
AcDbLine
 10
1003.330928327566
 20
186.8750154206256
 30
0.0
 11
1003.330928327566
 21
177.2602374206256
 31
0.0
  0
LINE
  5
159E
330
18
100
AcDbEntity
  8
外形線
100
AcDbLine
 10
1033.063277327566
 20
186.8750154206256
 30
0.0
 11
1033.063277327566
 21
177.2602374206256
 31
0.0
  0
LINE
  5
159F
330
18
100
AcDbEntity
  8
外形線
100
AcDbLine
 10
931.040511327566
 20
177.2602374206256
 30
0.0
 11
931.040511327566
 21
197.6552204206256
 31
0.0
  0
TEXT
  5
15A0
330
18
100
AcDbEntity
  8
0
  6
Continuous
100
AcDbText
 10
934.829929327566
 20
182.5046604206256
 30
0.0
 40
3.0
  1
三　　角　　法
  7
STYLE3
100
AcDbText
  0
TEXT
  5
15A1
330
18
100
AcDbEntity
  8
0
  6
Continuous
100
AcDbText
 10
932.2064863275661
 20
179.0083774206256
 30
0.0
 40
2.1
  1
3RD Angle Projection
  7
STYLE3
100
AcDbText
  0
TEXT
  5
15A2
330
18
100
AcDbEntity
  8
0
  6
Continuous
100
AcDbText
 10
932.789472327566
 20
192.7021534206256
 30
0.0
 40
3.5
  1
仕様及び外観は予告なく変更される場合がございますのでご了承下さい。
  7
STYLE3
100
AcDbText
  0
TEXT
  5
15A3
330
18
100
AcDbEntity
  8
0
  6
Continuous
100
AcDbText
 10
932.4979783275662
 20
188.7730054206256
 30
0.0
 40
2.1
  1
Design and specifications are subject to change without notice for future improvement.
  7
STYLE3
100
AcDbText
  0
LINE
  5
15A4
330
18
100
AcDbEntity
  8
外形線
100
AcDbLine
 10
931.040511327566
 20
186.8750154206256
 30
0.0
 11
1071.831928327566
 21
186.8750154206256
 31
0.0
  0
LINE
  5
15A5
330
18
100
AcDbEntity
  8
外形線
100
AcDbLine
 10
931.040511327566
 20
197.6552204206256
 30
0.0
 11
1071.831928327566
 21
197.6552204206256
 31
0.0
  0
ENDSEC
  0
SECTION
  2
OBJECTS
  0
DICTIONARY
  5
C
330
0
100
AcDbDictionary
281
     1
  3
ACAD_COLOR
350
FB7
  3
ACAD_GROUP
350
D
  3
ACAD_LAYOUT
350
FBA
  3
ACAD_MATERIAL
350
FB6
  3
ACAD_MLINESTYLE
350
1B
  3
ACAD_PLOTSETTINGS
350
FBB
  3
ACAD_PLOTSTYLENAME
350
FB4
  3
ACAD_TABLESTYLE
350
FB8
  3
AcDbVariableDictionary
350
FC6
  0
DICTIONARY
  5
14D6
330
2
100
AcDbDictionary
280
     1
281
     1
  3
ACAD_LAYERSTATES
360
14D7
  0
DICTIONARY
  5
FD2
330
18
100
AcDbDictionary
280
     1
281
     1
  3
ACAD_SORTENTS
360
FD3
  0
DICTIONARY
  5
FB7
102
{ACAD_REACTORS
330
C
102
}
330
C
100
AcDbDictionary
281
     1
  0
DICTIONARY
  5
D
102
{ACAD_REACTORS
330
C
102
}
330
C
100
AcDbDictionary
281
     1
  0
DICTIONARY
  5
FBA
102
{ACAD_REACTORS
330
C
102
}
330
C
100
AcDbDictionary
281
     1
  3
Model
350
FBC
  3
レイアウト1
350
FBD
  0
DICTIONARY
  5
FB6
102
{ACAD_REACTORS
330
C
102
}
330
C
100
AcDbDictionary
281
     1
  0
DICTIONARY
  5
1B
102
{ACAD_REACTORS
330
C
102
}
330
C
100
AcDbDictionary
281
     1
  3
STANDARD
350
1C
  0
DICTIONARY
  5
FBB
102
{ACAD_REACTORS
330
C
102
}
330
C
100
AcDbDictionary
281
     1
  0
ACDBDICTIONARYWDFLT
  5
FB4
102
{ACAD_REACTORS
330
C
102
}
330
C
100
AcDbDictionary
281
     1
  3
Normal
350
FB5
100
AcDbDictionaryWithDefault
340
FB5
  0
DICTIONARY
  5
FB8
102
{ACAD_REACTORS
330
C
102
}
330
C
100
AcDbDictionary
281
     1
  3
Standard
350
FB9
  0
DICTIONARY
  5
FC6
102
{ACAD_REACTORS
330
C
102
}
330
C
100
AcDbDictionary
281
     1
  3
CTABLESTYLE
350
FC7
  0
DICTIONARY
  5
14D7
102
{ACAD_REACTORS
330
14D6
102
}
330
14D6
100
AcDbDictionary
281
     1
  0
SORTENTSTABLE
  5
FD3
102
{ACAD_REACTORS
330
FD2
102
}
330
FD2
100
AcDbSortentsTable
330
18
331
1370
  5
1372
331
1378
  5
137A
331
1380
  5
13C5
331
1020
  5
1020
331
1153
  5
1155
331
10DD
  5
10DE
331
1114
  5
1115
331
1067
  5
1068
331
109E
  5
109F
331
1028
  5
1028
331
115B
  5
115D
331
10E5
  5
10E6
331
111C
  5
111D
331
106F
  5
1070
331
10A6
  5
10A7
331
1030
  5
1030
331
1163
  5
1165
331
10ED
  5
10EE
331
1124
  5
1125
331
1077
  5
1078
331
10AE
  5
10AF
331
1038
  5
1038
331
112C
  5
112D
331
1188
  5
118A
331
10B6
  5
10B7
331
1331
  5
1336
331
12BB
  5
12BD
331
12F2
  5
12F4
331
1245
  5
1247
331
127C
  5
127E
331
11CF
  5
11D1
331
1206
  5
1208
331
1190
  5
1192
331
1339
  5
133B
331
12C3
  5
12C5
331
12FA
  5
12FC
331
124D
  5
124F
331
1284
  5
1286
331
11D7
  5
11D9
331
120E
  5
1210
331
1198
  5
119A
331
12CB
  5
12CD
331
1302
  5
1304
331
1255
  5
1257
331
128C
  5
128E
331
11DF
  5
11E1
331
1216
  5
1218
331
11A0
  5
11A2
331
130A
  5
130C
331
1294
  5
1296
331
121E
  5
1220
331
1351
  5
1353
331
13F8
  5
1425
331
149F
  5
14A0
331
1369
  5
136B
331
1040
  5
1041
331
1001
  5
1001
331
1134
  5
1135
331
10BE
  5
10BF
331
10F5
  5
10F6
331
1048
  5
1049
331
107F
  5
1080
331
1009
  5
1009
331
113C
  5
113E
331
10C6
  5
10C7
331
10FD
  5
10FE
331
1050
  5
1051
331
1087
  5
1088
331
1011
  5
1011
331
1144
  5
1146
331
10CE
  5
10CF
331
1105
  5
1106
331
108F
  5
1090
331
1019
  5
1019
331
1058
  5
1059
331
11A8
  5
11AA
331
114C
  5
114E
331
1169
  5
116B
331
1097
  5
1098
331
10D6
  5
10D7
331
1312
  5
1314
331
129C
  5
129E
331
12D3
  5
12D5
331
1226
  5
1228
331
125D
  5
125F
331
11B0
  5
11B2
331
11E7
  5
11E9
331
1171
  5
1173
331
131A
  5
131C
331
12A4
  5
12A6
331
12DB
  5
12DD
331
122E
  5
1230
331
1265
  5
1267
331
11B8
  5
11BA
331
11EF
  5
11F1
331
1179
  5
117B
331
1322
  5
1325
331
12AC
  5
12AE
331
12E3
  5
12E5
331
1236
  5
1238
331
126D
  5
126F
331
11F7
  5
11F9
331
1181
  5
1183
331
11C0
  5
11C2
331
12EB
  5
12ED
331
132A
  5
1330
331
1275
  5
1277
331
12B4
  5
12B6
331
11FF
  5
1201
331
123E
  5
1240
331
1371
  5
1373
331
1379
  5
137B
331
1458
  5
145A
331
1381
  5
13F4
331
1060
  5
1061
331
1021
  5
1021
331
1154
  5
1156
331
10DE
  5
10DF
331
1115
  5
1116
331
1068
  5
1069
331
109F
  5
10A0
331
1029
  5
1029
331
115C
  5
115E
331
10E6
  5
10E7
331
111D
  5
111E
331
1070
  5
1071
331
10A7
  5
10A8
331
1031
  5
1031
331
1164
  5
1166
331
10EE
  5
10EF
331
1125
  5
1126
331
10AF
  5
10B0
331
1039
  5
1039
331
11C8
  5
11CA
331
112D
  5
112E
331
1189
  5
118B
331
10B7
  5
10B8
331
12BC
  5
12BE
331
12F3
  5
12F5
331
1246
  5
1248
331
127D
  5
127F
331
11D0
  5
11D2
331
1207
  5
1209
331
1191
  5
1193
331
133A
  5
133C
331
12C4
  5
12C6
331
12FB
  5
12FD
331
124E
  5
1250
331
1285
  5
1287
331
11D8
  5
11DA
331
120F
  5
1211
331
1199
  5
119B
331
1342
  5
1344
331
12CC
  5
12CE
331
1303
  5
1305
331
1256
  5
1258
331
128D
  5
128F
331
1217
  5
1219
331
11A1
  5
11A3
331
130B
  5
130D
331
1295
  5
1297
331
121F
  5
1221
331
1352
  5
1354
331
13F9
  5
1426
331
14A0
  5
14D0
331
136A
  5
136C
331
1041
  5
1042
331
1078
  5
1079
331
1002
  5
1002
331
1135
  5
1136
331
10BF
  5
10C0
331
10F6
  5
10F7
331
1049
  5
104A
331
1080
  5
1081
331
100A
  5
100A
331
113D
  5
113F
331
10C7
  5
10C8
331
10FE
  5
10FF
331
1051
  5
1052
331
1088
  5
1089
331
1012
  5
1012
331
1145
  5
1147
331
10CF
  5
10D0
331
1106
  5
1107
331
1090
  5
1091
331
101A
  5
101A
331
1059
  5
105A
331
11A9
  5
11AB
331
11E0
  5
11E2
331
110E
  5
110F
331
114D
  5
114F
331
116A
  5
116C
331
10D7
  5
10D8
331
1313
  5
1315
331
129D
  5
129F
331
12D4
  5
12D6
331
1227
  5
1229
331
125E
  5
1260
331
11B1
  5
11B3
331
11E8
  5
11EA
331
1172
  5
1174
331
131B
  5
131D
331
12A5
  5
12A7
331
12DC
  5
12DE
331
122F
  5
1231
331
1266
  5
1268
331
11B9
  5
11BB
331
11F0
  5
11F2
331
117A
  5
117C
331
1323
  5
1326
331
12AD
  5
12AF
331
12E4
  5
12E6
331
1237
  5
1239
331
126E
  5
1270
331
11F8
  5
11FA
331
1182
  5
1184
331
11C1
  5
11C3
331
12EC
  5
12EE
331
132B
  5
1331
331
1276
  5
1278
331
12B5
  5
12B7
331
123F
  5
1241
331
1372
  5
1374
331
137A
  5
137C
331
1459
  5
145B
331
14D0
  5
1139
331
1061
  5
1062
331
1098
  5
1099
331
1022
  5
1022
331
1155
  5
1157
331
10DF
  5
10E0
331
1116
  5
1117
331
1069
  5
106A
331
10A0
  5
10A1
331
102A
  5
102A
331
115D
  5
115F
331
10E7
  5
10E8
331
111E
  5
111F
331
1071
  5
1072
331
10A8
  5
10A9
331
1032
  5
1032
331
1165
  5
1167
331
10EF
  5
10F0
331
1126
  5
1127
331
10B0
  5
10B1
331
103A
  5
103A
331
11C9
  5
11CB
331
1200
  5
1202
331
112E
  5
112F
331
118A
  5
118C
331
12BD
  5
12BF
331
12F4
  5
12F6
331
1247
  5
1249
331
127E
  5
1280
331
11D1
  5
11D3
331
1208
  5
120A
331
1192
  5
1194
331
133B
  5
133D
331
12C5
  5
12C7
331
12FC
  5
12FE
331
124F
  5
1251
331
1286
  5
1288
331
11D9
  5
11DB
331
1210
  5
1212
331
119A
  5
119C
331
12CD
  5
12CF
331
1304
  5
1306
331
1257
  5
1259
331
128E
  5
1290
331
1218
  5
121A
331
11A2
  5
11A4
331
1343
  5
1345
331
130C
  5
130E
331
1296
  5
1298
331
1353
  5
1356
331
1363
  5
1365
331
136B
  5
136D
331
10B8
  5
10B9
331
1042
  5
1043
331
1079
  5
107A
331
1003
  5
1003
331
1136
  5
1137
331
10C0
  5
10C1
331
10F7
  5
10F8
331
104A
  5
104B
331
1081
  5
1082
331
100B
  5
100B
331
113E
  5
1140
331
10C8
  5
10C9
331
10FF
  5
1100
331
1052
  5
1053
331
1089
  5
108A
331
1013
  5
1013
331
1146
  5
1148
331
1107
  5
1108
331
1091
  5
1092
331
10D0
  5
10D1
331
101B
  5
101B
331
105A
  5
105B
331
1220
  5
1222
331
11AA
  5
11AC
331
11E1
  5
11E3
331
110F
  5
1110
331
114E
  5
1150
331
116B
  5
116D
331
1314
  5
1316
331
129E
  5
12A0
331
12D5
  5
12D7
331
1228
  5
122A
331
125F
  5
1261
331
11B2
  5
11B4
331
11E9
  5
11EB
331
1173
  5
1175
331
131C
  5
131E
331
12A6
  5
12A8
331
12DD
  5
12DF
331
1230
  5
1232
331
1267
  5
1269
331
11BA
  5
11BC
331
11F1
  5
11F3
331
117B
  5
117D
331
12AE
  5
12B0
331
12E5
  5
12E7
331
126F
  5
1271
331
11F9
  5
11FB
331
1238
  5
123A
331
1183
  5
1185
331
11C2
  5
11C4
331
12ED
  5
12EF
331
1277
  5
1279
331
12B6
  5
12B8
331
1373
  5
1376
331
137B
  5
137D
331
145A
  5
145C
331
10D8
  5
10D9
331
1062
  5
1063
331
1099
  5
109A
331
1023
  5
1023
331
1156
  5
1158
331
10E0
  5
10E1
331
1117
  5
1118
331
106A
  5
106B
331
10A1
  5
10A2
331
102B
  5
102B
331
115E
  5
1160
331
10E8
  5
10E9
331
111F
  5
1120
331
1072
  5
1073
331
10A9
  5
10AA
331
1033
  5
1033
331
1166
  5
1168
331
1127
  5
1128
331
10B1
  5
10B2
331
103B
  5
103B
331
1240
  5
1242
331
11CA
  5
11CC
331
1201
  5
1203
331
112F
  5
1130
331
118B
  5
118D
331
12BE
  5
12C0
331
12F5
  5
12F7
331
1248
  5
124A
331
127F
  5
1281
331
11D2
  5
11D4
331
1209
  5
120B
331
1193
  5
1195
331
133C
  5
133E
331
12C6
  5
12C8
331
12FD
  5
12FF
331
1250
  5
1252
331
1287
  5
1289
331
11DA
  5
11DC
331
1211
  5
1213
331
119B
  5
119D
331
12CE
  5
12D0
331
1305
  5
1307
331
128F
  5
1291
331
1219
  5
121B
331
11A3
  5
11A5
331
1344
  5
1347
331
130D
  5
130F
331
1297
  5
1299
331
1354
  5
1357
331
1364
  5
1366
331
136C
  5
136E
331
10B9
  5
10BA
331
10F0
  5
10F1
331
1043
  5
1044
331
107A
  5
107B
331
1004
  5
1004
331
1137
  5
1138
331
10C1
  5
10C2
331
10F8
  5
10F9
331
104B
  5
104C
331
1082
  5
1083
331
100C
  5
100C
331
113F
  5
1141
331
10C9
  5
10CA
331
1100
  5
1101
331
1053
  5
1054
331
108A
  5
108B
331
1014
  5
1014
331
1147
  5
1149
331
1108
  5
1109
331
1092
  5
1093
331
10D1
  5
10D2
331
101C
  5
101C
331
105B
  5
105C
331
1221
  5
1223
331
1258
  5
125A
331
11AB
  5
11AD
331
11E2
  5
11E4
331
114F
  5
1151
331
116C
  5
116E
331
1315
  5
1317
331
129F
  5
12A1
331
12D6
  5
12D8
331
1229
  5
122B
331
1260
  5
1262
331
11B3
  5
11B5
331
11EA
  5
11EC
331
1174
  5
1176
331
131D
  5
131F
331
12A7
  5
12A9
331
12DE
  5
12E0
331
1231
  5
1233
331
1268
  5
126A
331
11BB
  5
11BD
331
11F2
  5
11F4
331
117C
  5
117E
331
12AF
  5
12B1
331
12E6
  5
12E8
331
1270
  5
1272
331
11FA
  5
11FC
331
1239
  5
123B
331
1184
  5
1186
331
11C3
  5
11C5
331
1325
  5
1327
331
12B7
  5
12B9
331
12EE
  5
12F0
331
144B
  5
1458
331
137C
  5
137E
331
145B
  5
1040
331
10D9
  5
10DA
331
1110
  5
1111
331
1063
  5
1064
331
109A
  5
109B
331
1024
  5
1024
331
1157
  5
1159
331
10E1
  5
10E2
331
1118
  5
1119
331
106B
  5
106C
331
10A2
  5
10A3
331
102C
  5
102C
331
115F
  5
1161
331
10E9
  5
10EA
331
1120
  5
1121
331
1073
  5
1074
331
10AA
  5
10AB
331
1034
  5
1034
331
1167
  5
1169
331
1128
  5
1129
331
10B2
  5
10B3
331
103C
  5
103C
331
1241
  5
1243
331
1278
  5
127A
331
11CB
  5
11CD
331
1202
  5
1204
331
118C
  5
118E
331
1335
  5
1337
331
12BF
  5
12C1
331
12F6
  5
12F8
331
1249
  5
124B
331
1280
  5
1282
331
11D3
  5
11D5
331
120A
  5
120C
331
1194
  5
1196
331
133D
  5
133F
331
12C7
  5
12C9
331
12FE
  5
1300
331
1251
  5
1253
331
1288
  5
128A
331
11DB
  5
11DD
331
1212
  5
1214
331
119C
  5
11A0
331
1306
  5
1308
331
1345
  5
1349
331
1290
  5
1292
331
121A
  5
121C
331
11A4
  5
11A6
331
12CF
  5
12D1
331
130E
  5
1310
331
13F4
  5
13F6
331
135D
  5
135F
331
1365
  5
1367
331
136D
  5
136F
331
1130
  5
1131
331
10BA
  5
10BB
331
10F1
  5
10F2
331
1044
  5
1045
331
107B
  5
107C
331
1005
  5
1005
331
1138
  5
113A
331
10C2
  5
10C3
331
10F9
  5
10FA
331
1083
  5
1084
331
100D
  5
100D
331
1140
  5
1142
331
10CA
  5
10CB
331
1101
  5
1102
331
1054
  5
1055
331
108B
  5
108C
331
1015
  5
1015
331
1109
  5
110A
331
1148
  5
114A
331
1093
  5
1094
331
10D2
  5
10D3
331
101D
  5
101D
331
105C
  5
105D
331
1298
  5
129A
331
1222
  5
1224
331
1259
  5
125B
331
11AC
  5
11AE
331
11E3
  5
11E5
331
116D
  5
116F
331
1316
  5
1318
331
12A0
  5
12A2
331
12D7
  5
12D9
331
122A
  5
122C
331
1261
  5
1263
331
11B4
  5
11B6
331
11EB
  5
11ED
331
1175
  5
1177
331
131E
  5
1320
331
12A8
  5
12AA
331
12DF
  5
12E1
331
1232
  5
1234
331
1269
  5
126B
331
11BC
  5
11BE
331
11F3
  5
11F5
331
117D
  5
117F
331
12E7
  5
12E9
331
1271
  5
1273
331
12B0
  5
12B2
331
11FB
  5
11FD
331
123A
  5
123C
331
1185
  5
1187
331
11C4
  5
11C6
331
1326
  5
1328
331
12EF
  5
12F1
331
137D
  5
137F
331
145C
  5
145D
331
1150
  5
1152
331
10DA
  5
10DB
331
1111
  5
1112
331
1064
  5
1065
331
109B
  5
109C
331
1025
  5
1025
331
1158
  5
115A
331
10E2
  5
10E3
331
1119
  5
111A
331
106C
  5
106D
331
10A3
  5
10A4
331
102D
  5
102D
331
1160
  5
1162
331
10EA
  5
10EB
331
1121
  5
1122
331
1074
  5
1075
331
10AB
  5
10AC
331
FFE
  5
FFE
331
1035
  5
1035
331
1129
  5
112A
331
10B3
  5
10B4
331
103D
  5
103D
331
12B8
  5
12BA
331
1242
  5
1244
331
1279
  5
127B
331
11CC
  5
11CE
331
1203
  5
1205
331
118D
  5
118F
331
1336
  5
1338
331
12C0
  5
12C2
331
12F7
  5
12F9
331
124A
  5
124C
331
1281
  5
1283
331
11D4
  5
11D6
331
120B
  5
120D
331
1195
  5
1197
331
133E
  5
1340
331
12C8
  5
12CA
331
12FF
  5
1301
331
1252
  5
1254
331
1289
  5
128B
331
11DC
  5
11DE
331
1213
  5
1215
331
1291
  5
1293
331
121B
  5
121D
331
11A5
  5
11A7
331
130F
  5
1311
331
13F5
  5
13F7
331
1356
  5
1358
331
135E
  5
1360
331
149C
  5
149D
331
1366
  5
1368
331
1425
  5
144B
331
136E
  5
1370
331
1131
  5
1132
331
10BB
  5
10BC
331
10F2
  5
10F3
331
1045
  5
1046
331
107C
  5
107D
331
1006
  5
1006
331
1139
  5
113B
331
10C3
  5
10C4
331
10FA
  5
10FB
331
104D
  5
104E
331
1084
  5
1085
331
100E
  5
100E
331
1141
  5
1143
331
10CB
  5
10CC
331
1102
  5
1103
331
1055
  5
1056
331
108C
  5
108D
331
1016
  5
1016
331
110A
  5
110B
331
1149
  5
114B
331
1094
  5
1095
331
10D3
  5
10D4
331
101E
  5
101E
331
105D
  5
105E
331
1299
  5
129B
331
12D0
  5
12D2
331
1223
  5
1225
331
125A
  5
125C
331
11AD
  5
11AF
331
11E4
  5
11E6
331
116E
  5
1170
331
1317
  5
1319
331
12A1
  5
12A3
331
12D8
  5
12DA
331
122B
  5
122D
331
1262
  5
1264
331
11B5
  5
11B7
331
11EC
  5
11EE
331
1176
  5
1178
331
131F
  5
1321
331
12A9
  5
12AB
331
12E0
  5
12E2
331
1233
  5
1235
331
126A
  5
126C
331
11BD
  5
11BF
331
11F4
  5
11F6
331
117E
  5
1180
331
12E8
  5
12EA
331
1272
  5
1274
331
12B1
  5
12B3
331
11FC
  5
11FE
331
123B
  5
123D
331
1186
  5
1188
331
11C5
  5
11C7
331
1327
  5
132A
331
1376
  5
1378
331
137E
  5
1380
331
145D
  5
145E
331
1151
  5
1153
331
10DB
  5
10DC
331
1112
  5
1113
331
1065
  5
1066
331
109C
  5
109D
331
1026
  5
1026
331
1159
  5
115B
331
10E3
  5
10E4
331
111A
  5
111B
331
106D
  5
106E
331
10A4
  5
10A5
331
102E
  5
102E
331
1161
  5
1163
331
10EB
  5
10EC
331
1122
  5
1123
331
1075
  5
1076
331
10AC
  5
10AD
331
FFF
  5
FFF
331
1036
  5
1036
331
112A
  5
112B
331
10B4
  5
10B5
331
103E
  5
103E
331
12B9
  5
12BB
331
12F0
  5
12F2
331
1243
  5
1245
331
127A
  5
127C
331
11CD
  5
11CF
331
1204
  5
1206
331
118E
  5
1190
331
1337
  5
1339
331
12C1
  5
12C3
331
12F8
  5
12FA
331
124B
  5
124D
331
1282
  5
1284
331
11D5
  5
11D7
331
120C
  5
120E
331
1196
  5
1198
331
133F
  5
1342
331
12C9
  5
12CB
331
1300
  5
1302
331
1253
  5
1255
331
128A
  5
128C
331
11DD
  5
11DF
331
1214
  5
1216
331
1308
  5
130A
331
1292
  5
1294
331
121C
  5
121E
331
11A6
  5
11A8
331
1347
  5
1352
331
13F6
  5
13F8
331
1357
  5
135D
331
135F
  5
1363
331
149D
  5
149E
331
1367
  5
1369
331
1426
  5
1456
331
136F
  5
1371
331
1132
  5
1133
331
10BC
  5
10BD
331
10F3
  5
10F4
331
1046
  5
1047
331
107D
  5
107E
331
1007
  5
1007
331
113A
  5
113C
331
10C4
  5
10C5
331
10FB
  5
10FC
331
104E
  5
104F
331
1085
  5
1086
331
100F
  5
100F
331
1142
  5
1144
331
10CC
  5
10CD
331
1103
  5
1104
331
1056
  5
1057
331
108D
  5
108E
331
1017
  5
1017
331
110B
  5
110C
331
114A
  5
114C
331
1095
  5
1096
331
10D4
  5
10D5
331
101F
  5
101F
331
105E
  5
105F
331
1310
  5
1312
331
129A
  5
129C
331
12D1
  5
12D3
331
1224
  5
1226
331
125B
  5
125D
331
11AE
  5
11B0
331
11E5
  5
11E7
331
116F
  5
1171
331
1318
  5
131A
331
12A2
  5
12A4
331
12D9
  5
12DB
331
122C
  5
122E
331
1263
  5
1265
331
11B6
  5
11B8
331
11ED
  5
11EF
331
1177
  5
1179
331
1320
  5
1322
331
12AA
  5
12AC
331
12E1
  5
12E3
331
1234
  5
1236
331
126B
  5
126D
331
11BE
  5
11C0
331
11F5
  5
11F7
331
117F
  5
1181
331
12E9
  5
12EB
331
1328
  5
132B
331
1273
  5
1275
331
12B2
  5
12B4
331
11FD
  5
11FF
331
123C
  5
123E
331
1187
  5
1189
331
11C6
  5
11C8
331
1377
  5
1379
331
1456
  5
1459
331
137F
  5
1381
331
145E
  5
149C
331
1152
  5
1154
331
10DC
  5
10DD
331
1113
  5
1114
331
1066
  5
1067
331
109D
  5
109E
331
1027
  5
1027
331
115A
  5
115C
331
10E4
  5
10E5
331
111B
  5
111C
331
106E
  5
106F
331
10A5
  5
10A6
331
102F
  5
102F
331
1162
  5
1164
331
10EC
  5
10ED
331
1076
  5
1077
331
10AD
  5
10AE
331
1037
  5
1037
331
112B
  5
112C
331
10B5
  5
10B6
331
1330
  5
1335
331
12BA
  5
12BC
331
12F1
  5
12F3
331
1244
  5
1246
331
127B
  5
127D
331
11CE
  5
11D0
331
1205
  5
1207
331
118F
  5
1191
331
1338
  5
133A
331
12C2
  5
12C4
331
12F9
  5
12FB
331
124C
  5
124E
331
1283
  5
1285
331
11D6
  5
11D8
331
120D
  5
120F
331
1197
  5
1199
331
1340
  5
1343
331
12CA
  5
12CC
331
1301
  5
1303
331
1254
  5
1256
331
128B
  5
128D
331
11DE
  5
11E0
331
1215
  5
1217
331
119F
  5
11A1
331
1309
  5
130B
331
1293
  5
1295
331
121D
  5
121F
331
11A7
  5
11A9
331
13F7
  5
13F9
331
1358
  5
135E
331
1360
  5
1364
331
149E
  5
149F
331
1368
  5
136A
331
1000
  5
1000
331
1133
  5
1134
331
10BD
  5
10BE
331
10F4
  5
10F5
331
1047
  5
1048
331
107E
  5
107F
331
1008
  5
1008
331
113B
  5
113D
331
10C5
  5
10C6
331
10FC
  5
10FD
331
104F
  5
1050
331
1086
  5
1087
331
1010
  5
1010
331
1143
  5
1145
331
10CD
  5
10CE
331
1104
  5
1105
331
1057
  5
1058
331
108E
  5
108F
331
1018
  5
1018
331
110C
  5
110D
331
114B
  5
114D
331
1168
  5
116A
331
1096
  5
1097
331
10D5
  5
10D6
331
105F
  5
1060
331
1311
  5
1313
331
129B
  5
129D
331
12D2
  5
12D4
331
1225
  5
1227
331
125C
  5
125E
331
11AF
  5
11B1
331
11E6
  5
11E8
331
1170
  5
1172
331
1319
  5
131B
331
12A3
  5
12A5
331
12DA
  5
12DC
331
122D
  5
122F
331
1264
  5
1266
331
11B7
  5
11B9
331
11EE
  5
11F0
331
1178
  5
117A
331
1321
  5
1323
331
12AB
  5
12AD
331
12E2
  5
12E4
331
1235
  5
1237
331
126C
  5
126E
331
11BF
  5
11C1
331
11F6
  5
11F8
331
1180
  5
1182
331
12EA
  5
12EC
331
1274
  5
1276
331
12B3
  5
12B5
331
11FE
  5
1200
331
123D
  5
123F
331
11C7
  5
11C9
  0
LAYOUT
  5
FBC
102
{ACAD_REACTORS
330
FBA
102
}
330
FBA
100
AcDbPlotSettings
  1

  2
A4 EPSON LP-6100.pc3
  4
A4
  6

 40
5.873749732971191
 41
5.873747825622558
 42
5.873748779296875
 43
5.873748779296875
 44
209.9733276367187
 45
297.0106506347656
 46
0.8
 47
25.0
 48
0.0
 49
0.0
140
0.0
141
0.0
142
1.0
143
1.0
 70
 28336
 72
     1
 73
     1
 74
     1
  7
AutoCAD LT 98.ctb
 75
    16
147
1.0
 76
     1
 77
     2
 78
   300
148
-255.8054097575227
149
-153.9390401790926
100
AcDbLayout
  1
Model
 70
     1
 71
     0
 10
0.0
 20
0.0
 11
12.0
 21
9.0
 12
0.0
 22
0.0
 32
0.0
 14
0.0
 24
0.0
 34
0.0
 15
0.0
 25
0.0
 35
0.0
146
0.0
 13
0.0
 23
0.0
 33
0.0
 16
1.0
 26
0.0
 36
0.0
 17
0.0
 27
1.0
 37
0.0
 76
     0
330
18
1001
ACAD_PSEXT
1000
A4 EPSON LP-6100.pc3
1000
EPSON LP-6100
1000
\\SATO-MATE2
1000

1070
     0
  0
LAYOUT
  5
FBD
102
{ACAD_REACTORS
330
FBA
102
}
330
FBA
100
AcDbPlotSettings
  1

  2
Mytalk FAX
  4

  6

 40
0.0
 41
0.0
 42
0.0
 43
0.0
 44
0.0
 45
0.0
 46
0.0
 47
0.0
 48
0.0
 49
0.0
140
0.0
141
0.0
142
1.0
143
1.0
 70
   688
 72
     0
 73
     0
 74
     5
  7
AutoCAD LT 98.ctb
 75
    16
147
1.0
 76
     0
 77
     2
 78
   300
148
0.0
149
0.0
100
AcDbLayout
  1
レイアウト1
 70
     1
 71
     1
 10
0.0
 20
0.0
 11
420.0
 21
297.0
 12
0.0
 22
0.0
 32
0.0
 14
1.000000000000000E+20
 24
1.000000000000000E+20
 34
1.000000000000000E+20
 15
-1.000000000000000E+20
 25
-1.000000000000000E+20
 35
-1.000000000000000E+20
146
0.0
 13
0.0
 23
0.0
 33
0.0
 16
1.0
 26
0.0
 36
0.0
 17
0.0
 27
1.0
 37
0.0
 76
     0
330
15
  0
MLINESTYLE
  5
1C
102
{ACAD_REACTORS
330
1B
102
}
330
1B
100
AcDbMlineStyle
  2
STANDARD
 70
     0
  3

 62
   256
 51
90.0
 52
90.0
 71
     2
 49
0.5
 62
   256
  6
BYLAYER
 49
-0.5
 62
   256
  6
BYLAYER
  0
ACDBPLACEHOLDER
  5
FB5
102
{ACAD_REACTORS
330
FB4
102
}
330
FB4
  0
ACAD_PROXY_OBJECT
  5
FB9
102
{ACAD_REACTORS
330
FB8
102
}
330
FB8
100
AcDbProxyObject
 90
      499
 91
      503
 95
  2555929
 70
     0
 93
     1841
310
4214DD185B99185C9928B81E85EB51B8AE3F2E07A17AD46E2B8FC02B5E8DC0F42B1CFD028000000C1008070000C3001FDFF8000000C1003FBFF000000182007F7FE00000030400FEFFC00000060801FDFF8000000C1003FBFF00000018200000000000000681FA0B0000001820100E000186003FBFF000000182007F7FE000
310
00030400FEFFC00000060801FDFF8000000C1003FBFF000000182007F7FE000000304000AD7A3703D0AC73F4160000003040201C00030C007F7FE00000030400FEFFC00000060801FDFF8000000C1003FBFF000000182007F7FE00000030400FEFFC000000608000
340
F
340
F
340
F
 94
        0
  0
DICTIONARYVAR
  5
FC7
102
{ACAD_REACTORS
330
FC6
102
}
330
FC6
100
DictionaryVariables
280
     0
  1
STANDARD
  0
ENDSEC
  0
EOF
