  0
SECTION
  2
HEADER
  9
$ACADVER
  1
AC1018
  9
$ACADMAINTVER
 70
     0
  9
$DWGCODEPAGE
  3
ANSI_932
  9
$INSBASE
 10
0.0
 20
0.0
 30
0.0
  9
$EXTMIN
 10
255.8254975629365
 20
176.068913485172
 30
-0.0000152557620687
  9
$EXTMAX
 10
634.1739686069445
 20
459.3998087158752
 30
0.0000610416757212
  9
$LIMMIN
 10
0.0
 20
0.0
  9
$LIMMAX
 10
420.0
 20
297.0
  9
$ORTHOMODE
 70
     0
  9
$REGENMODE
 70
     1
  9
$FILLMODE
 70
     1
  9
$QTEXTMODE
 70
     0
  9
$MIRRTEXT
 70
     1
  9
$LTSCALE
 40
1.0
  9
$ATTMODE
 70
     1
  9
$TEXTSIZE
 40
5.0
  9
$TRACEWID
 40
1.0
  9
$TEXTSTYLE
  7
STYLE3
  9
$CLAYER
  8
外形線
  9
$CELTYPE
  6
BYLAYER
  9
$CECOLOR
 62
   256
  9
$CELTSCALE
 40
1.0
  9
$DISPSILH
 70
     0
  9
$DIMSCALE
 40
1.0
  9
$DIMASZ
 40
2.5
  9
$DIMEXO
 40
0.0
  9
$DIMDLI
 40
3.75
  9
$DIMRND
 40
0.0
  9
$DIMDLE
 40
0.0
  9
$DIMEXE
 40
1.25
  9
$DIMTP
 40
0.0
  9
$DIMTM
 40
0.0
  9
$DIMTXT
 40
2.5
  9
$DIMCEN
 40
2.5
  9
$DIMTSZ
 40
0.0
  9
$DIMTOL
 70
     0
  9
$DIMLIM
 70
     0
  9
$DIMTIH
 70
     0
  9
$DIMTOH
 70
     0
  9
$DIMSE1
 70
     0
  9
$DIMSE2
 70
     0
  9
$DIMTAD
 70
     1
  9
$DIMZIN
 70
     8
  9
$DIMBLK
  1

  9
$DIMASO
 70
     1
  9
$DIMSHO
 70
     1
  9
$DIMPOST
  1

  9
$DIMAPOST
  1

  9
$DIMALT
 70
     0
  9
$DIMALTD
 70
     4
  9
$DIMALTF
 40
0.0394
  9
$DIMLFAC
 40
1.0
  9
$DIMTOFL
 70
     1
  9
$DIMTVP
 40
0.0
  9
$DIMTIX
 70
     0
  9
$DIMSOXD
 70
     0
  9
$DIMSAH
 70
     1
  9
$DIMBLK1
  1
OPEN
  9
$DIMBLK2
  1
OPEN
  9
$DIMSTYLE
  2
STYLE3
  9
$DIMCLRD
 70
     2
  9
$DIMCLRE
 70
     2
  9
$DIMCLRT
 70
     6
  9
$DIMTFAC
 40
1.0
  9
$DIMGAP
 40
0.625
  9
$DIMJUST
 70
     0
  9
$DIMSD1
 70
     0
  9
$DIMSD2
 70
     0
  9
$DIMTOLJ
 70
     1
  9
$DIMTZIN
 70
     0
  9
$DIMALTZ
 70
     0
  9
$DIMALTTZ
 70
     0
  9
$DIMUPT
 70
     0
  9
$DIMDEC
 70
     2
  9
$DIMTDEC
 70
     4
  9
$DIMALTU
 70
     8
  9
$DIMALTTD
 70
     4
  9
$DIMTXSTY
  7
STYLE3
  9
$DIMAUNIT
 70
     0
  9
$DIMADEC
 70
     0
  9
$DIMALTRND
 40
0.0
  9
$DIMAZIN
 70
     0
  9
$DIMDSEP
 70
    46
  9
$DIMATFIT
 70
     3
  9
$DIMFRAC
 70
     0
  9
$DIMLDRBLK
  1

  9
$DIMLUNIT
 70
     2
  9
$DIMLWD
 70
    -2
  9
$DIMLWE
 70
    -2
  9
$DIMTMOVE
 70
     0
  9
$LUNITS
 70
     2
  9
$LUPREC
 70
     4
  9
$SKETCHINC
 40
1.0
  9
$FILLETRAD
 40
1.5
  9
$AUNITS
 70
     0
  9
$AUPREC
 70
     0
  9
$MENU
  1
.
  9
$ELEVATION
 40
0.0
  9
$PELEVATION
 40
0.0
  9
$THICKNESS
 40
0.0
  9
$LIMCHECK
 70
     0
  9
$CHAMFERA
 40
10.0
  9
$CHAMFERB
 40
10.0
  9
$CHAMFERC
 40
20.0
  9
$CHAMFERD
 40
0.0
  9
$SKPOLY
 70
     0
  9
$TDCREATE
 40
2450885.430637384
  9
$TDUCREATE
 40
2450885.055637384
  9
$TDUPDATE
 40
2455376.463238762
  9
$TDUUPDATE
 40
2455376.088238762
  9
$TDINDWG
 40
0.1515058449
  9
$TDUSRTIMER
 40
0.1515058449
  9
$USRTIMER
 70
     1
  9
$ANGBASE
 50
0.0
  9
$ANGDIR
 70
     0
  9
$PDMODE
 70
     0
  9
$PDSIZE
 40
0.0
  9
$PLINEWID
 40
0.0
  9
$SPLFRAME
 70
     0
  9
$SPLINETYPE
 70
     6
  9
$SPLINESEGS
 70
     8
  9
$HANDSEED
  5
937
  9
$SURFTAB1
 70
     6
  9
$SURFTAB2
 70
     6
  9
$SURFTYPE
 70
     6
  9
$SURFU
 70
     6
  9
$SURFV
 70
     6
  9
$UCSBASE
  2

  9
$UCSNAME
  2

  9
$UCSORG
 10
0.0
 20
0.0
 30
0.0
  9
$UCSXDIR
 10
1.0
 20
0.0
 30
0.0
  9
$UCSYDIR
 10
0.0
 20
1.0
 30
0.0
  9
$UCSORTHOREF
  2

  9
$UCSORTHOVIEW
 70
     0
  9
$UCSORGTOP
 10
0.0
 20
0.0
 30
0.0
  9
$UCSORGBOTTOM
 10
0.0
 20
0.0
 30
0.0
  9
$UCSORGLEFT
 10
0.0
 20
0.0
 30
0.0
  9
$UCSORGRIGHT
 10
0.0
 20
0.0
 30
0.0
  9
$UCSORGFRONT
 10
0.0
 20
0.0
 30
0.0
  9
$UCSORGBACK
 10
0.0
 20
0.0
 30
0.0
  9
$PUCSBASE
  2

  9
$PUCSNAME
  2

  9
$PUCSORG
 10
0.0
 20
0.0
 30
0.0
  9
$PUCSXDIR
 10
1.0
 20
0.0
 30
0.0
  9
$PUCSYDIR
 10
0.0
 20
1.0
 30
0.0
  9
$PUCSORTHOREF
  2

  9
$PUCSORTHOVIEW
 70
     0
  9
$PUCSORGTOP
 10
0.0
 20
0.0
 30
0.0
  9
$PUCSORGBOTTOM
 10
0.0
 20
0.0
 30
0.0
  9
$PUCSORGLEFT
 10
0.0
 20
0.0
 30
0.0
  9
$PUCSORGRIGHT
 10
0.0
 20
0.0
 30
0.0
  9
$PUCSORGFRONT
 10
0.0
 20
0.0
 30
0.0
  9
$PUCSORGBACK
 10
0.0
 20
0.0
 30
0.0
  9
$USERI1
 70
     0
  9
$USERI2
 70
     0
  9
$USERI3
 70
     0
  9
$USERI4
 70
     0
  9
$USERI5
 70
     0
  9
$USERR1
 40
0.0
  9
$USERR2
 40
0.0
  9
$USERR3
 40
0.0
  9
$USERR4
 40
0.0
  9
$USERR5
 40
0.0
  9
$WORLDVIEW
 70
     1
  9
$SHADEDGE
 70
     3
  9
$SHADEDIF
 70
    70
  9
$TILEMODE
 70
     1
  9
$MAXACTVP
 70
    48
  9
$PINSBASE
 10
0.0
 20
0.0
 30
0.0
  9
$PLIMCHECK
 70
     0
  9
$PEXTMIN
 10
1.000000000000000E+20
 20
1.000000000000000E+20
 30
1.000000000000000E+20
  9
$PEXTMAX
 10
-1.000000000000000E+20
 20
-1.000000000000000E+20
 30
-1.000000000000000E+20
  9
$PLIMMIN
 10
0.0
 20
0.0
  9
$PLIMMAX
 10
420.0
 20
297.0
  9
$UNITMODE
 70
     0
  9
$VISRETAIN
 70
     1
  9
$PLINEGEN
 70
     0
  9
$PSLTSCALE
 70
     1
  9
$TREEDEPTH
 70
  3020
  9
$CMLSTYLE
  2
STANDARD
  9
$CMLJUST
 70
     0
  9
$CMLSCALE
 40
20.0
  9
$PROXYGRAPHICS
 70
     1
  9
$MEASUREMENT
 70
     0
  9
$CELWEIGHT
370
    -1
  9
$ENDCAPS
280
     0
  9
$JOINSTYLE
280
     0
  9
$LWDISPLAY
290
     0
  9
$INSUNITS
 70
     0
  9
$HYPERLINKBASE
  1

  9
$STYLESHEET
  1

  9
$XEDIT
290
     1
  9
$CEPSNTYPE
380
     0
  9
$PSTYLEMODE
290
     1
  9
$FINGERPRINTGUID
  2
{20CC732E-5528-4F54-AB96-FE28299298FA}
  9
$VERSIONGUID
  2
{0CFEBD53-E0B4-4AA1-93C7-7BB91C6EA0F1}
  9
$EXTNAMES
290
     1
  9
$PSVPSCALE
 40
0.0
  9
$OLESTARTUP
290
     0
  9
$SORTENTS
280
   127
  9
$INDEXCTL
280
     0
  9
$HIDETEXT
280
     0
  9
$XCLIPFRAME
290
     0
  9
$HALOGAP
280
     0
  9
$OBSCOLOR
 70
   257
  9
$OBSLTYPE
280
     0
  9
$INTERSECTIONDISPLAY
280
     0
  9
$INTERSECTIONCOLOR
 70
   257
  9
$DIMASSOC
280
     1
  9
$PROJECTNAME
  1

  0
ENDSEC
  0
SECTION
  2
CLASSES
  0
CLASS
  1
HATCH
  2
AcDbHatch
  3
ObjectDBX Classes
 90
        0
 91
       19
280
     0
281
     1
  0
CLASS
  1
LWPOLYLINE
  2
AcDbPolyline
  3
ObjectDBX Classes
 90
        0
 91
        2
280
     0
281
     1
  0
CLASS
  1
ACDBDICTIONARYWDFLT
  2
AcDbDictionaryWithDefault
  3
ObjectDBX Classes
 90
        0
 91
        1
280
     0
281
     0
  0
CLASS
  1
TABLESTYLE
  2
AcDbTableStyle
  3
ObjectDBX Classes
 90
     2047
 91
        1
280
     0
281
     0
  0
CLASS
  1
SORTENTSTABLE
  2
AcDbSortentsTable
  3
ObjectDBX Classes
 90
        0
 91
        1
280
     0
281
     0
  0
CLASS
  1
DICTIONARYVAR
  2
AcDbDictionaryVar
  3
ObjectDBX Classes
 90
        0
 91
        1
280
     0
281
     0
  0
ENDSEC
  0
SECTION
  2
TABLES
  0
TABLE
  2
VPORT
  5
8
330
0
100
AcDbSymbolTable
 70
     2
  0
VPORT
  5
936
330
8
100
AcDbSymbolTableRecord
100
AcDbViewportTableRecord
  2
*Active
 70
     0
 10
0.0
 20
0.0
 11
1.0
 21
1.0
 12
444.9997330849405
 22
317.7343611005237
 13
0.0
 23
0.0
 14
10.0
 24
10.0
 15
10.0
 25
10.0
 16
0.0
 26
0.0
 36
1.0
 17
0.0
 27
0.0
 37
0.0
 40
285.4855027989975
 41
1.530456852791878
 42
50.0
 43
0.0
 44
0.0
 50
0.0
 51
0.0
 71
     0
 72
   100
 73
     1
 74
     1
 75
     0
 76
     0
 77
     0
 78
     0
281
     0
 65
     1
110
0.0
120
0.0
130
0.0
111
1.0
121
0.0
131
0.0
112
0.0
122
1.0
132
0.0
 79
     0
146
0.0
  0
ENDTAB
  0
TABLE
  2
LTYPE
  5
5
330
0
100
AcDbSymbolTable
 70
    13
  0
LTYPE
  5
12
330
5
100
AcDbSymbolTableRecord
100
AcDbLinetypeTableRecord
  2
BYBLOCK
 70
     0
  3

 72
    65
 73
     0
 40
0.0
  0
LTYPE
  5
13
330
5
100
AcDbSymbolTableRecord
100
AcDbLinetypeTableRecord
  2
BYLAYER
 70
     0
  3

 72
    65
 73
     0
 40
0.0
  0
LTYPE
  5
14
330
5
100
AcDbSymbolTableRecord
100
AcDbLinetypeTableRecord
  2
CONTINUOUS
 70
     0
  3
Solid line
 72
    65
 73
     0
 40
0.0
  0
LTYPE
  5
22
330
5
100
AcDbSymbolTableRecord
100
AcDbLinetypeTableRecord
  2
CENTER2
 70
     0
  3
Center (.5x) ___ _ ___ _ ___ _ ___ _ ___ _ ___
 72
    65
 73
     4
 40
28.575
 49
19.05
 74
     0
 49
-3.174999999999999
 74
     0
 49
3.174999999999999
 74
     0
 49
-3.174999999999999
 74
     0
  0
LTYPE
  5
23
330
5
100
AcDbSymbolTableRecord
100
AcDbLinetypeTableRecord
  2
HIDDEN2
 70
     0
  3
Hidden (.5x) _ _ _ _ _ _ _ _ _ _ _ _ _ _ _ _ _
 72
    65
 73
     2
 40
4.762499999999999
 49
3.174999999999999
 74
     0
 49
-1.587499999999999
 74
     0
  0
LTYPE
  5
24
330
5
100
AcDbSymbolTableRecord
100
AcDbLinetypeTableRecord
  2
PHANTOM2
 70
     0
  3
Phantom (.5x) ___ _ _ ___ _ _ ___ _ _ ___ _ _
 72
    65
 73
     6
 40
31.75
 49
15.875
 74
     0
 49
-3.174999999999999
 74
     0
 49
3.174999999999999
 74
     0
 49
-3.174999999999999
 74
     0
 49
3.174999999999999
 74
     0
 49
-3.174999999999999
 74
     0
  0
ENDTAB
  0
TABLE
  2
LAYER
  5
2
330
0
100
AcDbSymbolTable
 70
    16
  0
LAYER
  5
E
330
2
100
AcDbSymbolTableRecord
100
AcDbLayerTableRecord
  2
0
 70
     0
 62
     7
  6
CONTINUOUS
370
    -3
390
8C7
  0
LAYER
  5
25
330
2
100
AcDbSymbolTableRecord
100
AcDbLayerTableRecord
  2
外形線
 70
     0
 62
     7
  6
CONTINUOUS
370
    -3
390
8C7
  0
LAYER
  5
26
330
2
100
AcDbSymbolTableRecord
100
AcDbLayerTableRecord
  2
寸法線
 70
     0
 62
     2
  6
CONTINUOUS
370
    -3
390
8C7
  0
LAYER
  5
27
330
2
100
AcDbSymbolTableRecord
100
AcDbLayerTableRecord
  2
中心線
 70
     0
 62
     4
  6
CENTER2
370
    -3
390
8C7
  0
LAYER
  5
28
330
2
100
AcDbSymbolTableRecord
100
AcDbLayerTableRecord
  2
隠れ線
 70
     0
 62
     6
  6
HIDDEN2
370
    -3
390
8C7
  0
LAYER
  5
29
330
2
100
AcDbSymbolTableRecord
100
AcDbLayerTableRecord
  2
想像線
 70
     0
 62
     1
  6
PHANTOM2
370
    -3
390
8C7
  0
LAYER
  5
2A
330
2
100
AcDbSymbolTableRecord
100
AcDbLayerTableRecord
  2
ﾊｯﾁﾝｸ
 70
     0
 62
     6
  6
CONTINUOUS
370
    -3
390
8C7
  0
LAYER
  5
2B
330
2
100
AcDbSymbolTableRecord
100
AcDbLayerTableRecord
  2
文字
 70
     0
 62
     6
  6
CONTINUOUS
370
    -3
390
8C7
  0
LAYER
  5
2C
330
2
100
AcDbSymbolTableRecord
100
AcDbLayerTableRecord
  2
目盛
 70
     0
 62
    72
  6
CONTINUOUS
370
    -3
390
8C7
  0
LAYER
  5
2D
330
2
100
AcDbSymbolTableRecord
100
AcDbLayerTableRecord
  2
針
 70
     0
 62
     5
  6
CONTINUOUS
370
    -3
390
8C7
  0
LAYER
  5
53
330
2
100
AcDbSymbolTableRecord
100
AcDbLayerTableRecord
  2
DEFPOINTS
 70
     0
 62
     7
  6
CONTINUOUS
290
     0
370
    -3
390
8C7
  0
LAYER
  5
A5
330
2
100
AcDbSymbolTableRecord
100
AcDbLayerTableRecord
  2
C
 70
     0
 62
     7
  6
CONTINUOUS
370
    -3
390
8C7
  0
LAYER
  5
279
330
2
100
AcDbSymbolTableRecord
100
AcDbLayerTableRecord
  2
握り
 70
     0
 62
     3
  6
CONTINUOUS
370
    -3
390
8C7
  0
LAYER
  5
35F
330
2
100
AcDbSymbolTableRecord
100
AcDbLayerTableRecord
  2
ROGO
 70
     0
 62
     6
  6
CONTINUOUS
370
    -3
390
8C7
  0
LAYER
  5
8D5
330
2
100
AcDbSymbolTableRecord
100
AcDbLayerTableRecord
  2
隠れ線2
 70
     0
 62
     1
  6
HIDDEN2
370
    -3
390
8C7
  0
ENDTAB
  0
TABLE
  2
STYLE
  5
3
330
0
100
AcDbSymbolTable
 70
     6
  0
STYLE
  5
F
330
3
100
AcDbSymbolTableRecord
100
AcDbTextStyleTableRecord
  2
STANDARD
 70
     0
 40
0.0
 41
1.0
 50
0.0
 71
     0
 42
2.5
  3
txt
  4

  0
STYLE
  5
3F
330
3
100
AcDbSymbolTableRecord
100
AcDbTextStyleTableRecord
  2
STYLE3
 70
     0
 40
0.0
 41
1.0
 50
0.0
 71
     0
 42
5.0
  3
romans.shx
  4
bigfont.shx
  0
ENDTAB
  0
TABLE
  2
VIEW
  5
6
330
0
100
AcDbSymbolTable
 70
     0
  0
ENDTAB
  0
TABLE
  2
UCS
  5
7
330
0
100
AcDbSymbolTable
 70
     0
  0
ENDTAB
  0
TABLE
  2
APPID
  5
9
330
0
100
AcDbSymbolTable
 70
     2
  0
APPID
  5
10
330
9
100
AcDbSymbolTableRecord
100
AcDbRegAppTableRecord
  2
ACAD
 70
     0
  0
APPID
  5
8DA
330
9
100
AcDbSymbolTableRecord
100
AcDbRegAppTableRecord
  2
ACAD_PSEXT
 70
     0
  0
ENDTAB
  0
TABLE
  2
DIMSTYLE
  5
A
330
0
100
AcDbSymbolTable
 70
     8
100
AcDbDimStyleTable
 71
     0
  0
DIMSTYLE
105
1D
330
A
100
AcDbSymbolTableRecord
100
AcDbDimStyleTableRecord
  2
STANDARD
 70
     0
 41
2.5
 42
0.625
 43
3.75
 44
1.25
 73
     0
 74
     0
 77
     1
 78
     8
140
2.5
141
2.5
143
0.0394
147
0.625
171
     4
172
     1
273
     8
274
     4
277
     6
340
F
  0
DIMSTYLE
105
8F
102
{ACAD_REACTORS
330
40C
330
6F8
330
7A6
330
7F3
330
802
102
}
330
A
100
AcDbSymbolTableRecord
100
AcDbDimStyleTableRecord
  2
STYLE3
 70
     0
 41
2.5
 42
0.0
 43
3.75
 44
1.25
 73
     0
 74
     0
 77
     1
 78
     8
140
2.5
141
2.5
143
0.0394
147
0.625
171
     4
172
     1
173
     1
176
     2
177
     2
178
     6
271
     1
273
     8
274
     4
340
3F
341
45
343
45
344
45
  0
ENDTAB
  0
TABLE
  2
BLOCK_RECORD
  5
1
330
0
100
AcDbSymbolTable
 70
    10
  0
BLOCK_RECORD
  5
18
102
{ACAD_XDICTIONARY
360
8E6
102
}
330
1
100
AcDbSymbolTableRecord
100
AcDbBlockTableRecord
  2
*MODEL_SPACE
340
8CE
  0
BLOCK_RECORD
  5
15
330
1
100
AcDbSymbolTableRecord
100
AcDbBlockTableRecord
  2
*PAPER_SPACE
340
8CF
  0
BLOCK_RECORD
  5
45
330
1
100
AcDbSymbolTableRecord
100
AcDbBlockTableRecord
  2
_OPEN
340
0
102
{BLKREFS
331
704
331
705
331
71D
331
71E
331
782
331
783
331
7D0
331
7DE
331
863
331
864
331
86D
331
86E
331
878
331
879
331
885
331
886
331
892
331
893
102
}
  0
BLOCK_RECORD
  5
400
330
1
100
AcDbSymbolTableRecord
100
AcDbBlockTableRecord
  2
*D4
340
0
  0
BLOCK_RECORD
  5
6ED
330
1
100
AcDbSymbolTableRecord
100
AcDbBlockTableRecord
  2
*D5
340
0
  0
BLOCK_RECORD
  5
79A
330
1
100
AcDbSymbolTableRecord
100
AcDbBlockTableRecord
  2
*D6
340
0
  0
BLOCK_RECORD
  5
7E5
330
1
100
AcDbSymbolTableRecord
100
AcDbBlockTableRecord
  2
*D7
340
0
  0
BLOCK_RECORD
  5
7F4
330
1
100
AcDbSymbolTableRecord
100
AcDbBlockTableRecord
  2
*D8
340
0
  0
ENDTAB
  0
ENDSEC
  0
SECTION
  2
BLOCKS
  0
BLOCK
  5
19
330
18
100
AcDbEntity
  8
0
100
AcDbBlockBegin
  2
*MODEL_SPACE
 70
     0
 10
0.0
 20
0.0
 30
0.0
  3
*MODEL_SPACE
  1

  0
ENDBLK
  5
1A
330
18
100
AcDbEntity
  8
0
100
AcDbBlockEnd
  0
BLOCK
  5
16
330
15
100
AcDbEntity
 67
     1
  8
0
100
AcDbBlockBegin
  2
*PAPER_SPACE
 70
     0
 10
0.0
 20
0.0
 30
0.0
  3
*PAPER_SPACE
  1

  0
ENDBLK
  5
17
330
15
100
AcDbEntity
 67
     1
  8
0
100
AcDbBlockEnd
  0
BLOCK
  5
46
330
45
100
AcDbEntity
  8
0
100
AcDbBlockBegin
  2
_OPEN
 70
     0
 10
0.0
 20
0.0
 30
0.0
  3
_OPEN
  1

  0
LINE
  5
47
330
45
100
AcDbEntity
  8
0
  6
ByBlock
 62
     0
100
AcDbLine
 10
-1.0
 20
0.1666666666666666
 30
0.0
 11
0.0
 21
0.0
 31
0.0
  0
LINE
  5
48
330
45
100
AcDbEntity
  8
0
  6
ByBlock
 62
     0
100
AcDbLine
 10
0.0
 20
0.0
 30
0.0
 11
-1.0
 21
-0.1666666666666666
 31
0.0
  0
LINE
  5
49
330
45
100
AcDbEntity
  8
0
  6
ByBlock
 62
     0
100
AcDbLine
 10
0.0
 20
0.0
 30
0.0
 11
-1.0
 21
0.0
 31
0.0
  0
ENDBLK
  5
4A
330
45
100
AcDbEntity
  8
0
100
AcDbBlockEnd
  0
BLOCK
  5
85F
330
400
100
AcDbEntity
  8
0
100
AcDbBlockBegin
  2
*D4
 70
     1
 10
0.0
 20
0.0
 30
0.0
  3
*D4
  1

  0
LINE
  5
860
330
400
100
AcDbEntity
  8
0
  6
ByBlock
 62
     2
100
AcDbLine
 10
585.4270083855407
 20
351.7320748196298
 30
0.0
 11
608.0373128760357
 21
351.7320748196298
 31
0.0
  0
LINE
  5
861
330
400
100
AcDbEntity
  8
0
  6
ByBlock
 62
     2
100
AcDbLine
 10
585.4270083855407
 20
321.7320748196298
 30
0.0
 11
608.0373128760357
 21
321.7320748196298
 31
0.0
  0
LINE
  5
862
330
400
100
AcDbEntity
  8
0
  6
ByBlock
 62
     2
100
AcDbLine
 10
606.7873128760358
 20
349.2320748196298
 30
0.0
 11
606.7873128760358
 21
324.2320748196298
 31
0.0
  0
INSERT
  5
863
330
400
100
AcDbEntity
  8
0
  6
ByBlock
 62
     2
100
AcDbBlockReference
  2
_OPEN
 10
606.7873128760358
 20
351.7320748196298
 30
0.0
 41
2.5
 42
2.5
 43
2.5
 50
90.0
  0
INSERT
  5
864
330
400
100
AcDbEntity
  8
0
  6
ByBlock
 62
     2
100
AcDbBlockReference
  2
_OPEN
 10
606.7873128760358
 20
321.7320748196298
 30
0.0
 41
2.5
 42
2.5
 43
2.5
 50
270.0
  0
MTEXT
  5
865
330
400
100
AcDbEntity
  8
0
  6
ByBlock
 62
     6
100
AcDbMText
 10
604.9123128760357
 20
336.7320748196298
 30
0.0
 40
2.5
 41
0.0
 71
     5
 72
     1
  1
\A1;30
  7
STYLE3
 11
0.0000000000000001
 21
1.0
 31
0.0
 73
     1
 44
1.0
  0
POINT
  5
866
330
400
100
AcDbEntity
  8
DEFPOINTS
  6
ByBlock
 62
     0
100
AcDbPoint
 10
585.4270083855407
 20
351.7320748196298
 30
0.0
  0
POINT
  5
867
330
400
100
AcDbEntity
  8
DEFPOINTS
  6
ByBlock
 62
     0
100
AcDbPoint
 10
585.4270083855407
 20
321.7320748196298
 30
0.0
  0
POINT
  5
868
330
400
100
AcDbEntity
  8
DEFPOINTS
  6
ByBlock
 62
     0
100
AcDbPoint
 10
606.7873128760358
 20
321.7320748196298
 30
0.0
  0
ENDBLK
  5
869
330
400
100
AcDbEntity
  8
0
100
AcDbBlockEnd
  0
BLOCK
  5
86A
330
6ED
100
AcDbEntity
  8
0
100
AcDbBlockBegin
  2
*D5
 70
     1
 10
0.0
 20
0.0
 30
0.0
  3
*D5
  1

  0
LINE
  5
86B
330
6ED
100
AcDbEntity
  8
0
  6
ByBlock
 62
     2
100
AcDbLine
 10
590.4270083855407
 20
323.0320748196298
 30
0.0
 11
590.4270083855407
 21
257.371173749216
 31
0.0
  0
LINE
  5
86C
330
6ED
100
AcDbEntity
  8
0
  6
ByBlock
 62
     2
100
AcDbLine
 10
492.9270083855406
 20
258.621173749216
 30
0.0
 11
587.9270083855407
 21
258.621173749216
 31
0.0
  0
INSERT
  5
86D
330
6ED
100
AcDbEntity
  8
0
  6
ByBlock
 62
     2
100
AcDbBlockReference
  2
_OPEN
 10
490.4270083855407
 20
258.621173749216
 30
0.0
 41
2.5
 42
2.5
 43
2.5
 50
180.0
  0
INSERT
  5
86E
330
6ED
100
AcDbEntity
  8
0
  6
ByBlock
 62
     2
100
AcDbBlockReference
  2
_OPEN
 10
590.4270083855407
 20
258.621173749216
 30
0.0
 41
2.5
 42
2.5
 43
2.5
  0
MTEXT
  5
86F
330
6ED
100
AcDbEntity
  8
0
  6
ByBlock
 62
     6
100
AcDbMText
 10
540.4270083855407
 20
260.496173749216
 30
0.0
 40
2.5
 41
0.0
 71
     5
 72
     1
  1
\A1;100
  7
STYLE3
 73
     1
 44
1.0
  0
POINT
  5
870
330
6ED
100
AcDbEntity
  8
DEFPOINTS
  6
ByBlock
 62
     0
100
AcDbPoint
 10
490.4270083855407
 20
323.0320748196298
 30
0.0
  0
POINT
  5
871
330
6ED
100
AcDbEntity
  8
DEFPOINTS
  6
ByBlock
 62
     0
100
AcDbPoint
 10
590.4270083855407
 20
323.0320748196298
 30
0.0
  0
POINT
  5
872
330
6ED
100
AcDbEntity
  8
DEFPOINTS
  6
ByBlock
 62
     0
100
AcDbPoint
 10
590.4270083855407
 20
258.621173749216
 30
0.0
  0
ENDBLK
  5
873
330
6ED
100
AcDbEntity
  8
0
100
AcDbBlockEnd
  0
BLOCK
  5
874
330
79A
100
AcDbEntity
  8
0
100
AcDbBlockBegin
  2
*D6
 70
     1
 10
0.0
 20
0.0
 30
0.0
  3
*D6
  1

  0
LINE
  5
875
330
79A
100
AcDbEntity
  8
0
  6
ByBlock
 62
     2
100
AcDbLine
 10
300.4270083855407
 20
245.5817494929541
 30
0.0
 11
300.4270083855407
 21
238.0823941276653
 31
0.0
  0
LINE
  5
876
330
79A
100
AcDbEntity
  8
0
  6
ByBlock
 62
     2
100
AcDbLine
 10
590.4270083855407
 20
257.371173749216
 30
0.0
 11
590.4270083855407
 21
238.0823941276653
 31
0.0
  0
LINE
  5
877
330
79A
100
AcDbEntity
  8
0
  6
ByBlock
 62
     2
100
AcDbLine
 10
302.9270083855407
 20
239.3323941276653
 30
0.0
 11
587.9270083855407
 21
239.3323941276653
 31
0.0
  0
INSERT
  5
878
330
79A
100
AcDbEntity
  8
0
  6
ByBlock
 62
     2
100
AcDbBlockReference
  2
_OPEN
 10
300.4270083855407
 20
239.3323941276653
 30
0.0
 41
2.5
 42
2.5
 43
2.5
 50
180.0
  0
INSERT
  5
879
330
79A
100
AcDbEntity
  8
0
  6
ByBlock
 62
     2
100
AcDbBlockReference
  2
_OPEN
 10
590.4270083855407
 20
239.3323941276653
 30
0.0
 41
2.5
 42
2.5
 43
2.5
  0
MTEXT
  5
87A
330
79A
100
AcDbEntity
  8
0
  6
ByBlock
 62
     6
100
AcDbMText
 10
445.4270083855407
 20
241.2073941276653
 30
0.0
 40
2.5
 41
0.0
 71
     5
 72
     1
  1
\A1;290
  7
STYLE3
 73
     1
 44
1.0
  0
POINT
  5
87B
330
79A
100
AcDbEntity
  8
DEFPOINTS
  6
ByBlock
 62
     0
100
AcDbPoint
 10
300.4270083855407
 20
245.5817494929541
 30
0.0
  0
POINT
  5
87C
330
79A
100
AcDbEntity
  8
DEFPOINTS
  6
ByBlock
 62
     0
100
AcDbPoint
 10
590.4270083855407
 20
257.371173749216
 30
0.0
  0
POINT
  5
87D
330
79A
100
AcDbEntity
  8
DEFPOINTS
  6
ByBlock
 62
     0
100
AcDbPoint
 10
590.4270083855407
 20
239.3323941276653
 30
0.0
  0
ENDBLK
  5
87E
330
79A
100
AcDbEntity
  8
0
100
AcDbBlockEnd
  0
BLOCK
  5
87F
330
7E5
100
AcDbEntity
  8
0
100
AcDbBlockBegin
  2
*D7
 70
     1
 10
0.0
 20
0.0
 30
0.0
  3
*D7
  1

  0
LINE
  5
880
330
7E5
100
AcDbEntity
  8
0
  6
ByBlock
 62
     2
100
AcDbLine
 10
355.860395718655
 20
361.7320748196297
 30
0.0
 11
355.860395718655
 21
372.9678907727932
 31
0.0
  0
LINE
  5
881
330
7E5
100
AcDbEntity
  8
0
  6
ByBlock
 62
     2
100
AcDbLine
 10
358.8603957186549
 20
361.7320748196297
 30
0.0
 11
358.8603957186549
 21
372.9678907727932
 31
0.0
  0
LINE
  5
882
330
7E5
100
AcDbEntity
  8
0
  6
ByBlock
 62
     2
100
AcDbLine
 10
353.360395718655
 20
371.7178907727932
 30
0.0
 11
350.8603957186549
 21
371.7178907727932
 31
0.0
  0
LINE
  5
883
330
7E5
100
AcDbEntity
  8
0
  6
ByBlock
 62
     2
100
AcDbLine
 10
361.3603957186549
 20
371.7178907727932
 30
0.0
 11
369.8723004805597
 21
371.7178907727932
 31
0.0
  0
LINE
  5
884
330
7E5
100
AcDbEntity
  8
0
  6
ByBlock
 62
     2
100
AcDbLine
 10
355.860395718655
 20
371.7178907727932
 30
0.0
 11
358.8603957186549
 21
371.7178907727932
 31
0.0
  0
INSERT
  5
885
330
7E5
100
AcDbEntity
  8
0
  6
ByBlock
 62
     2
100
AcDbBlockReference
  2
_OPEN
 10
355.860395718655
 20
371.7178907727932
 30
0.0
 41
2.5
 42
2.5
 43
2.5
  0
INSERT
  5
886
330
7E5
100
AcDbEntity
  8
0
  6
ByBlock
 62
     2
100
AcDbBlockReference
  2
_OPEN
 10
358.8603957186549
 20
371.7178907727932
 30
0.0
 41
2.5
 42
2.5
 43
2.5
 50
180.0
  0
MTEXT
  5
887
330
7E5
100
AcDbEntity
  8
0
  6
ByBlock
 62
     6
100
AcDbMText
 10
366.8663480996073
 20
374.2476526775551
 30
0.0
 40
2.5
 41
0.0
 71
     5
 72
     1
  1
\A1;(3)
  7
STYLE3
 73
     1
 44
1.0
  0
POINT
  5
888
330
7E5
100
AcDbEntity
  8
DEFPOINTS
  6
ByBlock
 62
     0
100
AcDbPoint
 10
355.860395718655
 20
361.7320748196297
 30
0.0
  0
POINT
  5
889
330
7E5
100
AcDbEntity
  8
DEFPOINTS
  6
ByBlock
 62
     0
100
AcDbPoint
 10
358.8603957186549
 20
361.7320748196297
 30
0.0
  0
POINT
  5
88A
330
7E5
100
AcDbEntity
  8
DEFPOINTS
  6
ByBlock
 62
     0
100
AcDbPoint
 10
358.8603957186549
 20
371.7178907727932
 30
0.0
  0
ENDBLK
  5
88B
330
7E5
100
AcDbEntity
  8
0
100
AcDbBlockEnd
  0
BLOCK
  5
88C
330
7F4
100
AcDbEntity
  8
0
100
AcDbBlockBegin
  2
*D8
 70
     1
 10
0.0
 20
0.0
 30
0.0
  3
*D8
  1

  0
LINE
  5
88D
330
7F4
100
AcDbEntity
  8
0
  6
ByBlock
 62
     2
100
AcDbLine
 10
355.860395718655
 20
311.7320748196298
 30
0.0
 11
355.860395718655
 21
300.7250821258117
 31
0.0
  0
LINE
  5
88E
330
7F4
100
AcDbEntity
  8
0
  6
ByBlock
 62
     2
100
AcDbLine
 10
358.860395718655
 20
311.7320748196298
 30
0.0
 11
358.860395718655
 21
300.7250821258117
 31
0.0
  0
LINE
  5
88F
330
7F4
100
AcDbEntity
  8
0
  6
ByBlock
 62
     2
100
AcDbLine
 10
353.360395718655
 20
301.9750821258118
 30
0.0
 11
350.8603957186549
 21
301.9750821258118
 31
0.0
  0
LINE
  5
890
330
7F4
100
AcDbEntity
  8
0
  6
ByBlock
 62
     2
100
AcDbLine
 10
361.3603957186549
 20
301.9750821258118
 30
0.0
 11
369.8723004805597
 21
301.9750821258118
 31
0.0
  0
LINE
  5
891
330
7F4
100
AcDbEntity
  8
0
  6
ByBlock
 62
     2
100
AcDbLine
 10
355.860395718655
 20
301.9750821258118
 30
0.0
 11
358.860395718655
 21
301.9750821258118
 31
0.0
  0
INSERT
  5
892
330
7F4
100
AcDbEntity
  8
0
  6
ByBlock
 62
     2
100
AcDbBlockReference
  2
_OPEN
 10
355.860395718655
 20
301.9750821258118
 30
0.0
 41
2.5
 42
2.5
 43
2.5
  0
INSERT
  5
893
330
7F4
100
AcDbEntity
  8
0
  6
ByBlock
 62
     2
100
AcDbBlockReference
  2
_OPEN
 10
358.860395718655
 20
301.9750821258118
 30
0.0
 41
2.5
 42
2.5
 43
2.5
 50
180.0
  0
MTEXT
  5
894
330
7F4
100
AcDbEntity
  8
0
  6
ByBlock
 62
     6
100
AcDbMText
 10
366.8663480996073
 20
304.5048440305737
 30
0.0
 40
2.5
 41
0.0
 71
     5
 72
     1
  1
\A1;(3)
  7
STYLE3
 73
     1
 44
1.0
  0
POINT
  5
895
330
7F4
100
AcDbEntity
  8
DEFPOINTS
  6
ByBlock
 62
     0
100
AcDbPoint
 10
355.860395718655
 20
311.7320748196298
 30
0.0
  0
POINT
  5
896
330
7F4
100
AcDbEntity
  8
DEFPOINTS
  6
ByBlock
 62
     0
100
AcDbPoint
 10
358.860395718655
 20
311.7320748196298
 30
0.0
  0
POINT
  5
897
330
7F4
100
AcDbEntity
  8
DEFPOINTS
  6
ByBlock
 62
     0
100
AcDbPoint
 10
358.860395718655
 20
301.9750821258118
 30
0.0
  0
ENDBLK
  5
898
330
7F4
100
AcDbEntity
  8
0
100
AcDbBlockEnd
  0
ENDSEC
  0
SECTION
  2
ENTITIES
  0
LWPOLYLINE
  5
1A0
330
18
100
AcDbEntity
  8
C
100
AcDbPolyline
 90
        5
 70
     0
 43
0.8
 10
256.2352605185929
 20
458.9717683211813
 10
633.7352605185929
 20
458.9717683211813
 10
633.7352605185929
 20
176.4717683211813
 10
256.2352605185929
 20
176.4717683211813
 10
256.2352605185929
 20
458.9717683211813
  0
LINE
  5
1EC
330
18
100
AcDbEntity
  8
中心線
 48
0.5
100
AcDbLine
 10
285.5863469913976
 20
336.7320748196298
 30
0.0
 11
598.7352686128071
 21
336.7320748196298
 31
0.0
  0
ARC
  5
1EF
330
18
100
AcDbEntity
  8
外形線
100
AcDbCircle
 10
450.4270083855407
 20
336.7320748196298
 30
0.0
 40
12.0
100
AcDbArc
 50
180.0
 51
271.0709179711291
  0
LINE
  5
1F3
330
18
100
AcDbEntity
  8
中心線
 48
0.5
100
AcDbLine
 10
465.4270083855407
 20
428.1378689794633
 30
0.0
 11
465.4270083855407
 21
318.4979795820746
 31
0.0
  0
ARC
  5
1F6
330
18
100
AcDbEntity
  8
外形線
100
AcDbCircle
 10
490.3810083855407
 20
359.4820748196298
 30
0.0
 40
11.0
100
AcDbArc
 50
163.4766346779028
 51
270.2396012308549
  0
LINE
  5
1F8
330
18
100
AcDbEntity
  8
外形線
100
AcDbLine
 10
483.4270083855406
 20
324.9820748196297
 30
0.0
 11
490.4270083855407
 21
324.9820748196297
 31
0.0
  0
ARC
  5
207
330
18
100
AcDbEntity
  8
外形線
100
AcDbCircle
 10
433.4270083855407
 20
371.7320748196298
 30
0.0
 40
10.0
100
AcDbArc
 50
270.0
 51
351.74527319898
  0
ARC
  5
20B
330
18
100
AcDbEntity
  8
外形線
100
AcDbCircle
 10
427.4270083855407
 20
336.7320748196298
 30
0.0
 40
11.0
100
AcDbArc
 50
0.0
 51
75.52248781407067
  0
LINE
  5
210
330
18
100
AcDbEntity
  8
外形線
100
AcDbLine
 10
450.4270083855407
 20
324.7320748196298
 30
0.0
 11
483.4270083855406
 21
324.9820748196297
 31
0.0
  0
LINE
  5
212
330
18
100
AcDbEntity
  8
寸法線
 48
0.5
100
AcDbLine
 10
300.4270083855407
 20
390.0486951173641
 30
0.0
 11
300.4270083855407
 21
238.0823941276653
 31
0.0
  0
ARC
  5
213
330
18
100
AcDbEntity
  8
外形線
100
AcDbCircle
 10
300.4270083855407
 20
338.7320748196298
 30
0.0
 40
2.0
100
AcDbArc
 50
180.0
 51
0.0
  0
ARC
  5
216
330
18
100
AcDbEntity
  8
外形線
100
AcDbCircle
 10
311.4270083855407
 20
345.7320748196297
 30
0.0
 40
8.0
100
AcDbArc
 50
84.07812773167229
 51
172.9061760222899
  0
ARC
  5
218
330
18
100
AcDbEntity
  8
外形線
100
AcDbCircle
 10
311.4270083855407
 20
347.7320748196297
 30
0.0
 40
14.0
100
AcDbArc
 50
90.0
 51
192.6803834918197
  0
LINE
  5
219
330
18
100
AcDbEntity
  8
外形線
100
AcDbLine
 10
297.7684718001748
 20
344.6589040879225
 30
0.0
 11
298.4270083855407
 21
338.7320748196298
 31
0.0
  0
LINE
  5
21B
330
18
100
AcDbEntity
  8
外形線
100
AcDbLine
 10
311.4270083855407
 20
361.7320748196298
 30
0.0
 11
433.4270083855407
 21
361.7320748196298
 31
0.0
  0
LINE
  5
21C
330
18
100
AcDbEntity
  8
外形線
100
AcDbLine
 10
312.2523863873196
 20
353.6893828540205
 30
0.0
 11
426.6770083855408
 21
347.7708679230781
 31
0.0
  0
ARC
  5
225
330
18
100
AcDbEntity
  8
中心線
 48
0.5
100
AcDbCircle
 10
450.4270083855407
 20
336.7320748196298
 30
0.0
 40
12.0
100
AcDbArc
 50
294.4628017260683
 51
3.687503905504904
  0
ARC
  5
229
330
18
100
AcDbEntity
  8
隠れ線
 62
     4
 48
0.5
100
AcDbCircle
 10
450.4270083855407
 20
336.7320748196298
 30
0.0
 40
10.35
100
AcDbArc
 50
314.9999999999998
 51
345.0000000000003
  0
ARC
  5
22A
330
18
100
AcDbEntity
  8
隠れ線
 62
     4
 48
0.5
100
AcDbCircle
 10
450.4270083855407
 20
336.7320748196298
 30
0.0
 40
13.65
100
AcDbArc
 50
315.0
 51
342.2472098380534
  0
ARC
  5
22B
330
18
100
AcDbEntity
  8
隠れ線
 62
     4
 48
0.5
100
AcDbCircle
 10
462.0181183010095
 20
333.6262462783996
 30
0.0
 40
1.649999999999999
100
AcDbArc
 50
31.364573562949
 51
164.9999999999995
  0
ARC
  5
22C
330
18
100
AcDbEntity
  8
隠れ線
 62
     4
 48
0.5
100
AcDbCircle
 10
458.9122897597793
 20
328.2467934453912
 30
0.0
 40
1.649999999999999
100
AcDbArc
 50
135.0000000000014
 51
315.0
  0
ARC
  5
236
330
18
100
AcDbEntity
  8
外形線
100
AcDbCircle
 10
450.4270083855407
 20
336.7320748196298
 30
0.0
 40
12.0
100
AcDbArc
 50
14.4775121859296
 51
180.0
  0
LINE
  5
237
330
18
100
AcDbEntity
  8
外形線
 48
0.5
100
AcDbLine
 10
473.4270083855407
 20
339.7320748196297
 30
0.0
 11
473.4270083855407
 21
324.7320748196297
 31
0.0
  0
LINE
  5
239
330
18
100
AcDbEntity
  8
外形線
 48
0.5
100
AcDbLine
 10
462.045958424163
 20
339.7320748196297
 30
0.0
 11
463.4270083855406
 21
339.7320748196297
 31
0.0
  0
ARC
  5
242
330
18
100
AcDbEntity
  8
外形線
100
AcDbCircle
 10
497.1947631886682
 20
312.0005010407185
 30
0.0
 40
27.0
100
AcDbArc
 50
151.677029413698
 51
220.26537759268
  0
ARC
  5
245
330
18
100
AcDbEntity
  8
外形線
100
AcDbCircle
 10
486.4270083855407
 20
272.2320748196298
 30
0.0
 40
3.0
100
AcDbArc
 50
208.8996674644362
 51
25.90269817866433
  0
ARC
  5
24B
330
18
100
AcDbEntity
  8
外形線
100
AcDbCircle
 10
397.6270083855408
 20
233.1940748196298
 30
0.0
 40
100.0
100
AcDbArc
 50
23.79624455090764
 51
37.84703416932746
  0
ARC
  5
24E
330
18
100
AcDbEntity
  8
外形線
100
AcDbCircle
 10
397.1970083855407
 20
220.7840748196298
 30
0.0
 40
100.0
100
AcDbArc
 50
29.99878802776886
 51
56.84537140521009
  0
ARC
  5
251
330
18
100
AcDbEntity
  8
外形線
100
AcDbCircle
 10
427.4270083855407
 20
266.7320748196297
 30
0.0
 40
45.0
100
AcDbArc
 50
57.07392355222693
 51
90.0
  0
ARC
  5
254
330
18
100
AcDbEntity
  8
想像線
 48
0.1
100
AcDbCircle
 10
322.7030080974596
 20
257.86505877606
 30
0.0
 40
2.0
100
AcDbArc
 50
28.12087136924171
 51
208.1208713692368
  0
ARC
  5
256
330
18
100
AcDbEntity
  8
外形線
100
AcDbCircle
 10
427.4270083855407
 20
336.7320748196298
 30
0.0
 40
11.0
100
AcDbArc
 50
284.4775121859299
 51
0.0
  0
ARC
  5
25A
330
18
100
AcDbEntity
  8
外形線
100
AcDbCircle
 10
311.4270083855407
 20
327.7320748196298
 30
0.0
 40
8.0
100
AcDbArc
 50
187.0938239777585
 51
275.9218722683276
  0
ARC
  5
25B
330
18
100
AcDbEntity
  8
外形線
100
AcDbCircle
 10
311.4270083855407
 20
325.7320748196298
 30
0.0
 40
14.0
100
AcDbArc
 50
167.3196165081802
 51
270.0
  0
LINE
  5
25C
330
18
100
AcDbEntity
  8
想像線
 48
0.1
100
AcDbLine
 10
320.9390976373412
 20
256.9223924041738
 30
0.0
 11
322.3640030370312
 21
253.3563878778028
 31
0.0
  0
LINE
  5
25D
330
18
100
AcDbEntity
  8
想像線
 48
0.1
100
AcDbLine
 10
324.466918557578
 20
258.8077251479461
 30
0.0
 11
326.5516089998113
 21
255.9646674552576
 31
0.0
  0
LINE
  5
25E
330
18
100
AcDbEntity
  8
外形線
100
AcDbLine
 10
312.2523863873196
 20
319.774766785239
 30
0.0
 11
426.6770083855408
 21
325.6932817161815
 31
0.0
  0
LINE
  5
25F
330
18
100
AcDbEntity
  8
外形線
100
AcDbLine
 10
311.4270083855407
 20
311.7320748196298
 30
0.0
 11
427.4270083855407
 21
311.7320748196298
 31
0.0
  0
ARC
  5
300
330
18
100
AcDbEntity
  8
握り
100
AcDbCircle
 10
585.4270083855407
 20
350.2320748196297
 30
0.0
 40
1.5
100
AcDbArc
 50
27.81813928465427
 51
152.1818607153457
  0
ARC
  5
301
330
18
100
AcDbEntity
  8
握り
100
AcDbCircle
 10
575.4270083855407
 20
350.2320748196297
 30
0.0
 40
1.5
100
AcDbArc
 50
27.81813928465427
 51
152.1818607153457
  0
ARC
  5
302
330
18
100
AcDbEntity
  8
握り
100
AcDbCircle
 10
565.4270083855407
 20
350.2320748196297
 30
0.0
 40
1.5
100
AcDbArc
 50
27.81813928465427
 51
152.1818607153457
  0
ARC
  5
303
330
18
100
AcDbEntity
  8
握り
100
AcDbCircle
 10
555.4270083855406
 20
350.2320748196297
 30
0.0
 40
1.5
100
AcDbArc
 50
27.81813928465427
 51
152.1818607153457
  0
ARC
  5
304
330
18
100
AcDbEntity
  8
握り
100
AcDbCircle
 10
545.4270083855407
 20
350.2320748196297
 30
0.0
 40
1.5
100
AcDbArc
 50
27.81813928465427
 51
152.1818607153457
  0
ARC
  5
305
330
18
100
AcDbEntity
  8
握り
100
AcDbCircle
 10
535.4270083855407
 20
350.2320748196297
 30
0.0
 40
1.5
100
AcDbArc
 50
27.81813928465427
 51
152.1818607153457
  0
ARC
  5
306
330
18
100
AcDbEntity
  8
握り
100
AcDbCircle
 10
525.4270083855407
 20
350.2320748196297
 30
0.0
 40
1.5
100
AcDbArc
 50
27.81813928465427
 51
152.1818607153457
  0
ARC
  5
307
330
18
100
AcDbEntity
  8
握り
100
AcDbCircle
 10
515.4270083855407
 20
350.2320748196297
 30
0.0
 40
1.5
100
AcDbArc
 50
27.81813928465427
 51
152.1818607153457
  0
ARC
  5
308
330
18
100
AcDbEntity
  8
握り
100
AcDbCircle
 10
505.4270083855406
 20
350.2320748196297
 30
0.0
 40
1.5
100
AcDbArc
 50
27.81813928465427
 51
152.1818607153457
  0
ARC
  5
309
330
18
100
AcDbEntity
  8
握り
100
AcDbCircle
 10
495.4270083855407
 20
350.2320748196297
 30
0.0
 40
1.5
100
AcDbArc
 50
27.81813928465427
 51
152.1818607153457
  0
ARC
  5
30A
330
18
100
AcDbEntity
  8
握り
100
AcDbCircle
 10
490.9270083855407
 20
350.4320748196298
 30
0.0
 40
0.5
100
AcDbArc
 50
90.0
 51
180.0
  0
ARC
  5
30B
330
18
100
AcDbEntity
  8
握り
100
AcDbCircle
 10
589.9270083855407
 20
350.4320748196298
 30
0.0
 40
0.5
100
AcDbArc
 50
0.0
 51
90.0
  0
LINE
  5
30C
330
18
100
AcDbEntity
  8
握り
100
AcDbLine
 10
526.7536583016829
 20
330.0787748196297
 30
0.0
 11
534.1003584693983
 21
330.0787748196297
 31
0.0
  0
LINE
  5
30D
330
18
100
AcDbEntity
  8
握り
100
AcDbLine
 10
526.753658301683
 20
343.3853748196298
 30
0.0
 11
534.1003584693988
 21
343.3853748196298
 31
0.0
  0
LINE
  5
30E
330
18
100
AcDbEntity
  8
握り
100
AcDbLine
 10
516.7536583016828
 20
332.7320748196298
 30
0.0
 11
564.1003584693984
 21
332.7320748196298
 31
0.0
  0
LINE
  5
30F
330
18
100
AcDbEntity
  8
握り
100
AcDbLine
 10
516.7536583016828
 20
340.7320748196298
 30
0.0
 11
564.1003584693986
 21
340.7320748196298
 31
0.0
  0
LINE
  5
310
330
18
100
AcDbEntity
  8
握り
100
AcDbLine
 10
526.7536583016829
 20
322.5320748196298
 30
0.0
 11
534.1003584693985
 21
322.5320748196298
 31
0.0
  0
LINE
  5
311
330
18
100
AcDbEntity
  8
握り
100
AcDbLine
 10
526.7536583016829
 20
350.9320748196298
 30
0.0
 11
534.1003584693985
 21
350.9320748196298
 31
0.0
  0
LINE
  5
312
330
18
100
AcDbEntity
  8
握り
100
AcDbLine
 10
526.7536583016827
 20
330.0787748196297
 30
0.0
 11
526.7536583016829
 21
322.5320748196298
 31
0.0
  0
LINE
  5
313
330
18
100
AcDbEntity
  8
握り
100
AcDbLine
 10
524.1003584693985
 20
330.0787748196297
 30
0.0
 11
524.1003584693985
 21
322.5320748196298
 31
0.0
  0
LINE
  5
314
330
18
100
AcDbEntity
  8
握り
100
AcDbLine
 10
516.7536583016828
 20
330.0787748196297
 30
0.0
 11
516.7536583016828
 21
322.5320748196298
 31
0.0
  0
LINE
  5
315
330
18
100
AcDbEntity
  8
握り
100
AcDbLine
 10
514.1003584693985
 20
350.9320748196298
 30
0.0
 11
514.1003584693985
 21
322.5320748196298
 31
0.0
  0
LINE
  5
316
330
18
100
AcDbEntity
  8
握り
100
AcDbLine
 10
506.7536583016829
 20
350.9320748196298
 30
0.0
 11
506.7536583016829
 21
322.5320748196298
 31
0.0
  0
LINE
  5
317
330
18
100
AcDbEntity
  8
握り
100
AcDbLine
 10
504.1003584693985
 20
350.9320748196298
 30
0.0
 11
504.1003584693985
 21
322.5320748196298
 31
0.0
  0
LINE
  5
318
330
18
100
AcDbEntity
  8
握り
100
AcDbLine
 10
494.1003584693985
 20
350.9320748196298
 30
0.0
 11
494.1003584693985
 21
322.5320748196298
 31
0.0
  0
LINE
  5
319
330
18
100
AcDbEntity
  8
握り
100
AcDbLine
 10
496.7536583016829
 20
350.9320748196298
 30
0.0
 11
496.7536583016829
 21
322.5320748196298
 31
0.0
  0
LINE
  5
31A
330
18
100
AcDbEntity
  8
握り
100
AcDbLine
 10
490.4270083855407
 20
350.4320748196298
 30
0.0
 11
490.4270083855407
 21
323.0320748196298
 31
0.0
  0
LINE
  5
31B
330
18
100
AcDbEntity
  8
握り
100
AcDbLine
 10
490.9270083855407
 20
322.5320748196298
 30
0.0
 11
494.1003584693986
 21
322.5320748196298
 31
0.0
  0
ARC
  5
31C
330
18
100
AcDbEntity
  8
握り
100
AcDbCircle
 10
490.9270083855407
 20
323.0320748196298
 30
0.0
 40
0.5
100
AcDbArc
 50
180.0
 51
270.0
  0
LINE
  5
31D
330
18
100
AcDbEntity
  8
握り
100
AcDbLine
 10
506.7536583016829
 20
322.5320748196298
 30
0.0
 11
514.1003584693985
 21
322.5320748196298
 31
0.0
  0
LINE
  5
31E
330
18
100
AcDbEntity
  8
握り
100
AcDbLine
 10
496.7536583016829
 20
322.5320748196298
 30
0.0
 11
504.1003584693986
 21
322.5320748196298
 31
0.0
  0
ARC
  5
31F
330
18
100
AcDbEntity
  8
握り
100
AcDbCircle
 10
495.4270083855407
 20
323.2320748196297
 30
0.0
 40
1.5
100
AcDbArc
 50
207.8181392846543
 51
332.1818607153458
  0
ARC
  5
320
330
18
100
AcDbEntity
  8
握り
100
AcDbCircle
 10
505.4270083855406
 20
323.2320748196297
 30
0.0
 40
1.5
100
AcDbArc
 50
207.8181392846543
 51
332.1818607153458
  0
LINE
  5
321
330
18
100
AcDbEntity
  8
握り
100
AcDbLine
 10
516.7536583016828
 20
322.5320748196298
 30
0.0
 11
524.1003584693985
 21
322.5320748196298
 31
0.0
  0
ARC
  5
322
330
18
100
AcDbEntity
  8
握り
100
AcDbCircle
 10
515.4270083855407
 20
323.2320748196297
 30
0.0
 40
1.5
100
AcDbArc
 50
207.8181392846543
 51
332.1818607153458
  0
ARC
  5
323
330
18
100
AcDbEntity
  8
握り
100
AcDbCircle
 10
525.4270083855407
 20
323.2320748196297
 30
0.0
 40
1.5
100
AcDbArc
 50
207.8181392846543
 51
332.1818607153458
  0
LINE
  5
324
330
18
100
AcDbEntity
  8
握り
100
AcDbLine
 10
490.9270083855407
 20
350.9320748196298
 30
0.0
 11
494.1003584693985
 21
350.9320748196298
 31
0.0
  0
LINE
  5
326
330
18
100
AcDbEntity
  8
握り
100
AcDbLine
 10
516.7536583016828
 20
340.7320748196298
 30
0.0
 11
516.7536583016828
 21
332.7320748196298
 31
0.0
  0
LINE
  5
327
330
18
100
AcDbEntity
  8
握り
100
AcDbLine
 10
516.7536583016828
 20
330.0787748196297
 30
0.0
 11
524.1003584693986
 21
330.0787748196297
 31
0.0
  0
LINE
  5
328
330
18
100
AcDbEntity
  8
握り
100
AcDbLine
 10
506.7536583016829
 20
350.9320748196298
 30
0.0
 11
514.1003584693985
 21
350.9320748196298
 31
0.0
  0
LINE
  5
329
330
18
100
AcDbEntity
  8
握り
100
AcDbLine
 10
496.7536583016829
 20
350.9320748196298
 30
0.0
 11
504.1003584693986
 21
350.9320748196298
 31
0.0
  0
LINE
  5
32A
330
18
100
AcDbEntity
  8
握り
100
AcDbLine
 10
526.7536583016829
 20
350.9320748196298
 30
0.0
 11
526.753658301683
 21
343.3853748196298
 31
0.0
  0
LINE
  5
32B
330
18
100
AcDbEntity
  8
握り
100
AcDbLine
 10
524.1003584693985
 20
350.9320748196298
 30
0.0
 11
524.1003584693986
 21
343.3853748196298
 31
0.0
  0
LINE
  5
32C
330
18
100
AcDbEntity
  8
握り
100
AcDbLine
 10
516.7536583016828
 20
350.9320748196298
 30
0.0
 11
516.7536583016828
 21
343.3853748196298
 31
0.0
  0
LINE
  5
32D
330
18
100
AcDbEntity
  8
握り
100
AcDbLine
 10
516.753658301683
 20
343.3853748196298
 30
0.0
 11
524.1003584693987
 21
343.3853748196298
 31
0.0
  0
LINE
  5
32E
330
18
100
AcDbEntity
  8
握り
100
AcDbLine
 10
516.7536583016828
 20
350.9320748196298
 30
0.0
 11
524.1003584693985
 21
350.9320748196298
 31
0.0
  0
LINE
  5
32F
330
18
100
AcDbEntity
  8
握り
100
AcDbLine
 10
556.7536583016829
 20
330.0787748196297
 30
0.0
 11
556.7536583016829
 21
322.5320748196298
 31
0.0
  0
LINE
  5
330
330
18
100
AcDbEntity
  8
握り
100
AcDbLine
 10
554.1003584693986
 20
330.0787748196297
 30
0.0
 11
554.1003584693985
 21
322.5320748196298
 31
0.0
  0
LINE
  5
331
330
18
100
AcDbEntity
  8
握り
100
AcDbLine
 10
546.7536583016829
 20
330.0787748196297
 30
0.0
 11
546.7536583016829
 21
322.5320748196298
 31
0.0
  0
LINE
  5
332
330
18
100
AcDbEntity
  8
握り
100
AcDbLine
 10
544.1003584693985
 20
330.0787748196297
 30
0.0
 11
544.1003584693985
 21
322.5320748196298
 31
0.0
  0
LINE
  5
333
330
18
100
AcDbEntity
  8
握り
100
AcDbLine
 10
536.7536583016828
 20
330.0787748196297
 30
0.0
 11
536.7536583016828
 21
322.5320748196298
 31
0.0
  0
LINE
  5
334
330
18
100
AcDbEntity
  8
握り
100
AcDbLine
 10
534.1003584693984
 20
330.0787748196297
 30
0.0
 11
534.1003584693985
 21
322.5320748196298
 31
0.0
  0
LINE
  5
335
330
18
100
AcDbEntity
  8
握り
100
AcDbLine
 10
564.1003584693984
 20
330.0787748196297
 30
0.0
 11
564.1003584693985
 21
322.5320748196298
 31
0.0
  0
LINE
  5
336
330
18
100
AcDbEntity
  8
握り
100
AcDbLine
 10
586.7536583016828
 20
350.9320748196298
 30
0.0
 11
586.7536583016828
 21
322.5320748196298
 31
0.0
  0
LINE
  5
337
330
18
100
AcDbEntity
  8
握り
100
AcDbLine
 10
584.1003584693985
 20
350.9320748196298
 30
0.0
 11
584.1003584693985
 21
322.5320748196298
 31
0.0
  0
LINE
  5
338
330
18
100
AcDbEntity
  8
握り
100
AcDbLine
 10
576.7536583016829
 20
350.9320748196298
 30
0.0
 11
576.7536583016829
 21
322.5320748196298
 31
0.0
  0
LINE
  5
339
330
18
100
AcDbEntity
  8
握り
100
AcDbLine
 10
574.1003584693985
 20
350.9320748196298
 30
0.0
 11
574.1003584693985
 21
322.5320748196298
 31
0.0
  0
LINE
  5
33A
330
18
100
AcDbEntity
  8
握り
100
AcDbLine
 10
566.7536583016828
 20
350.9320748196298
 30
0.0
 11
566.7536583016828
 21
322.5320748196298
 31
0.0
  0
LINE
  5
33B
330
18
100
AcDbEntity
  8
握り
100
AcDbLine
 10
590.4270083855407
 20
350.4320748196298
 30
0.0
 11
590.4270083855407
 21
323.0320748196298
 31
0.0
  0
LINE
  5
33C
330
18
100
AcDbEntity
  8
握り
100
AcDbLine
 10
556.7536583016829
 20
322.5320748196298
 30
0.0
 11
564.1003584693984
 21
322.5320748196298
 31
0.0
  0
ARC
  5
33D
330
18
100
AcDbEntity
  8
握り
100
AcDbCircle
 10
545.4270083855407
 20
323.2320748196297
 30
0.0
 40
1.5
100
AcDbArc
 50
207.8181392846543
 51
332.1818607153458
  0
ARC
  5
33E
330
18
100
AcDbEntity
  8
握り
100
AcDbCircle
 10
535.4270083855407
 20
323.2320748196297
 30
0.0
 40
1.5
100
AcDbArc
 50
207.8181392846543
 51
332.1818607153458
  0
LINE
  5
33F
330
18
100
AcDbEntity
  8
握り
100
AcDbLine
 10
536.7536583016829
 20
322.5320748196298
 30
0.0
 11
544.1003584693985
 21
322.5320748196298
 31
0.0
  0
LINE
  5
340
330
18
100
AcDbEntity
  8
握り
100
AcDbLine
 10
546.7536583016829
 20
322.5320748196298
 30
0.0
 11
554.1003584693985
 21
322.5320748196298
 31
0.0
  0
ARC
  5
341
330
18
100
AcDbEntity
  8
握り
100
AcDbCircle
 10
555.4270083855406
 20
323.2320748196297
 30
0.0
 40
1.5
100
AcDbArc
 50
207.8181392846543
 51
332.1818607153458
  0
LINE
  5
342
330
18
100
AcDbEntity
  8
握り
100
AcDbLine
 10
576.753658301683
 20
322.5320748196298
 30
0.0
 11
584.1003584693985
 21
322.5320748196297
 31
0.0
  0
LINE
  5
343
330
18
100
AcDbEntity
  8
握り
100
AcDbLine
 10
566.7536583016827
 20
322.5320748196298
 30
0.0
 11
574.1003584693986
 21
322.5320748196298
 31
0.0
  0
ARC
  5
344
330
18
100
AcDbEntity
  8
握り
100
AcDbCircle
 10
565.4270083855407
 20
323.2320748196297
 30
0.0
 40
1.5
100
AcDbArc
 50
207.8181392846543
 51
332.1818607153458
  0
ARC
  5
345
330
18
100
AcDbEntity
  8
握り
100
AcDbCircle
 10
575.4270083855407
 20
323.2320748196297
 30
0.0
 40
1.5
100
AcDbArc
 50
207.8181392846543
 51
332.1818607153458
  0
LINE
  5
346
330
18
100
AcDbEntity
  8
握り
100
AcDbLine
 10
586.7536583016828
 20
322.5320748196297
 30
0.0
 11
589.9270083855407
 21
322.5320748196298
 31
0.0
  0
ARC
  5
347
330
18
100
AcDbEntity
  8
握り
100
AcDbCircle
 10
585.4270083855407
 20
323.2320748196297
 30
0.0
 40
1.5
100
AcDbArc
 50
207.8181392846543
 51
332.1818607153458
  0
ARC
  5
348
330
18
100
AcDbEntity
  8
握り
100
AcDbCircle
 10
589.9270083855407
 20
323.0320748196298
 30
0.0
 40
0.5
100
AcDbArc
 50
270.0
 51
0.0
  0
LINE
  5
349
330
18
100
AcDbEntity
  8
握り
100
AcDbLine
 10
556.7536583016829
 20
330.0787748196297
 30
0.0
 11
564.1003584693984
 21
330.0787748196297
 31
0.0
  0
LINE
  5
34A
330
18
100
AcDbEntity
  8
握り
100
AcDbLine
 10
556.7536583016829
 20
343.3853748196298
 30
0.0
 11
564.1003584693984
 21
343.3853748196298
 31
0.0
  0
LINE
  5
34B
330
18
100
AcDbEntity
  8
握り
100
AcDbLine
 10
556.7536583016829
 20
350.9320748196298
 30
0.0
 11
564.1003584693984
 21
350.9320748196298
 31
0.0
  0
LINE
  5
34C
330
18
100
AcDbEntity
  8
握り
100
AcDbLine
 10
536.7536583016827
 20
330.0787748196297
 30
0.0
 11
544.1003584693985
 21
330.0787748196297
 31
0.0
  0
LINE
  5
34D
330
18
100
AcDbEntity
  8
握り
100
AcDbLine
 10
546.7536583016829
 20
330.0787748196297
 30
0.0
 11
554.1003584693985
 21
330.0787748196297
 31
0.0
  0
LINE
  5
34E
330
18
100
AcDbEntity
  8
握り
100
AcDbLine
 10
544.1003584693985
 20
350.9320748196298
 30
0.0
 11
544.1003584693986
 21
343.3853748196298
 31
0.0
  0
LINE
  5
34F
330
18
100
AcDbEntity
  8
握り
100
AcDbLine
 10
536.7536583016828
 20
350.9320748196298
 30
0.0
 11
536.7536583016829
 21
343.3853748196298
 31
0.0
  0
LINE
  5
350
330
18
100
AcDbEntity
  8
握り
100
AcDbLine
 10
534.1003584693985
 20
350.9320748196298
 30
0.0
 11
534.1003584693986
 21
343.3853748196298
 31
0.0
  0
LINE
  5
351
330
18
100
AcDbEntity
  8
握り
100
AcDbLine
 10
536.7536583016828
 20
343.3853748196298
 30
0.0
 11
544.1003584693986
 21
343.3853748196298
 31
0.0
  0
LINE
  5
352
330
18
100
AcDbEntity
  8
握り
100
AcDbLine
 10
536.7536583016829
 20
350.9320748196298
 30
0.0
 11
544.1003584693985
 21
350.9320748196298
 31
0.0
  0
LINE
  5
353
330
18
100
AcDbEntity
  8
握り
100
AcDbLine
 10
556.7536583016829
 20
350.9320748196298
 30
0.0
 11
556.7536583016829
 21
343.3853748196298
 31
0.0
  0
LINE
  5
354
330
18
100
AcDbEntity
  8
握り
100
AcDbLine
 10
554.1003584693985
 20
350.9320748196298
 30
0.0
 11
554.1003584693986
 21
343.3853748196298
 31
0.0
  0
LINE
  5
355
330
18
100
AcDbEntity
  8
握り
100
AcDbLine
 10
546.7536583016829
 20
350.9320748196298
 30
0.0
 11
546.753658301683
 21
343.3853748196298
 31
0.0
  0
LINE
  5
356
330
18
100
AcDbEntity
  8
握り
100
AcDbLine
 10
546.753658301683
 20
343.3853748196298
 30
0.0
 11
554.1003584693985
 21
343.3853748196298
 31
0.0
  0
LINE
  5
357
330
18
100
AcDbEntity
  8
握り
100
AcDbLine
 10
546.7536583016829
 20
350.9320748196298
 30
0.0
 11
554.1003584693985
 21
350.9320748196298
 31
0.0
  0
LINE
  5
358
330
18
100
AcDbEntity
  8
握り
100
AcDbLine
 10
564.1003584693986
 20
340.7320748196298
 30
0.0
 11
564.1003584693984
 21
332.7320748196298
 31
0.0
  0
LINE
  5
359
330
18
100
AcDbEntity
  8
握り
100
AcDbLine
 10
576.753658301683
 20
350.9320748196298
 30
0.0
 11
584.1003584693985
 21
350.9320748196298
 31
0.0
  0
LINE
  5
35A
330
18
100
AcDbEntity
  8
握り
100
AcDbLine
 10
564.1003584693985
 20
350.9320748196298
 30
0.0
 11
564.1003584693985
 21
343.3853748196298
 31
0.0
  0
LINE
  5
35B
330
18
100
AcDbEntity
  8
握り
100
AcDbLine
 10
566.7536583016827
 20
350.9320748196298
 30
0.0
 11
574.1003584693986
 21
350.9320748196298
 31
0.0
  0
LINE
  5
35C
330
18
100
AcDbEntity
  8
握り
100
AcDbLine
 10
586.7536583016828
 20
350.9320748196298
 30
0.0
 11
589.9270083855407
 21
350.9320748196298
 31
0.0
  0
TEXT
  5
3B4
330
18
100
AcDbEntity
  8
文字
100
AcDbText
 10
547.2023447173318
 20
334.4414656680906
 30
0.0
 40
3.0
  1
LA-20
  7
STYLE3
100
AcDbText
  0
LINE
  5
3B5
102
{ACAD_REACTORS
330
3F3
102
}
330
18
100
AcDbEntity
  8
ROGO
 62
     4
100
AcDbLine
 10
521.3548050249841
 20
337.4441644480157
 30
0.0
 11
523.6583740435342
 21
337.4441644480157
 31
0.0
  0
LINE
  5
3B6
102
{ACAD_REACTORS
330
3F1
330
3F2
330
3F3
102
}
330
18
100
AcDbEntity
  8
ROGO
 62
     4
100
AcDbLine
 10
519.904447110566
 20
334.5129090410072
 30
0.0
 11
539.7461289205999
 21
334.5129090410072
 31
0.0
  0
LINE
  5
3B7
102
{ACAD_REACTORS
330
3F3
102
}
330
18
100
AcDbEntity
  8
ROGO
 62
     4
100
AcDbLine
 10
521.3548050249841
 20
337.4441644480157
 30
0.0
 11
519.904447110566
 21
334.5129090410071
 31
0.0
  0
SPLINE
  5
3B8
102
{ACAD_REACTORS
330
3F3
102
}
330
18
100
AcDbEntity
  8
ROGO
 62
     4
100
AcDbSpline
210
0.0
220
0.0
230
1.0
 70
     8
 71
     3
 72
    18
 73
    14
 74
     0
 42
0.0000000001
 43
0.0000000001
 40
0.1087402787915014
 40
0.1087402787915014
 40
0.1087402787915014
 40
0.1087402787915014
 40
0.5992371417938475
 40
1.083176791562496
 40
1.448211145705696
 40
1.714037220764907
 40
2.164002567013297
 40
2.740236056362883
 40
3.395137510199602
 40
4.071816045172726
 40
4.784906178399433
 40
5.506895915094292
 40
6.060470601257719
 40
6.060470601257719
 40
6.060470601257719
 40
6.060470601257719
 10
523.6583740435342
 20
337.4441644480158
 30
0.0
 10
523.7321733830143
 20
337.4171182268047
 30
0.0
 10
523.8772990228008
 20
337.3599383820687
 30
0.0
 10
524.0544207878683
 20
337.2294350823667
 30
0.0
 10
524.1510153506178
 20
337.0787796864056
 30
0.0
 10
524.2439285056794
 20
336.9303357688301
 30
0.0
 10
524.2569315321235
 20
336.7173678628923
 30
0.0
 10
524.2356316963419
 20
336.4481248120755
 30
0.0
 10
524.0981218808046
 20
336.1671974727602
 30
0.0
 10
523.8774105392598
 20
335.9214874287576
 30
0.0
 10
523.6033820062698
 20
335.7248243139837
 30
0.0
 10
523.3144094661165
 20
335.5704488332761
 30
0.0
 10
523.1078518131828
 20
335.5689106609781
 30
0.0
 10
523.0182090747619
 20
335.5682431186478
 30
0.0
  0
LINE
  5
3B9
102
{ACAD_REACTORS
330
3F3
102
}
330
18
100
AcDbEntity
  8
ROGO
 62
     4
100
AcDbLine
 10
523.0182090752034
 20
335.5682431186479
 30
0.0
 11
521.7444829773731
 21
335.5682431186479
 31
0.0
  0
LINE
  5
3BA
102
{ACAD_REACTORS
330
3F3
102
}
330
18
100
AcDbEntity
  8
ROGO
 62
     4
100
AcDbLine
 10
522.2650005326125
 20
336.7187402891395
 30
0.0
 11
522.0392893949589
 21
336.2198521678747
 31
0.0
  0
SPLINE
  5
3BB
102
{ACAD_REACTORS
330
3F3
102
}
330
18
100
AcDbEntity
  8
ROGO
 62
     4
100
AcDbSpline
210
0.0
220
0.0
230
1.0
 70
     8
 71
     3
 72
    15
 73
    11
 74
     9
 42
0.0000000001
 43
0.0000000001
 44
0.0000000001
 40
0.0
 40
0.0
 40
0.0
 40
0.0
 40
0.2199578613106558
 40
0.3202465475123651
 40
0.4340808827708152
 40
0.5116301246390283
 40
0.634275054953107
 40
0.7077360179240892
 40
0.8337709579493377
 40
0.875782631437913
 40
0.875782631437913
 40
0.875782631437913
 40
0.875782631437913
 10
522.8449819598945
 20
336.7187402891394
 30
0.0
 10
522.927593867122
 20
336.7191186957715
 30
0.0
 10
523.0478722600622
 20
336.719669635014
 30
0.0
 10
523.113644769154
 20
336.5708849151146
 30
0.0
 10
523.084162394535
 20
336.4750907656327
 30
0.0
 10
523.0471006467864
 20
336.3767400309929
 30
0.0
 10
522.9816041445831
 20
336.3099092234654
 30
0.0
 10
522.8936982451613
 20
336.2455398896981
 30
0.0
 10
522.8106229693675
 20
336.2377476936134
 30
0.0
 10
522.7565918279781
 20
336.223431274393
 30
0.0
 10
522.7430840361647
 20
336.2198521678746
 30
0.0
 11
522.8449819598945
 21
336.7187402891394
 31
0.0
 11
523.058967775507
 21
336.667833202511
 31
0.0
 11
523.0997270621855
 21
336.5762007785033
 31
0.0
 11
523.0793477118131
 21
336.4642055198442
 31
0.0
 11
523.0487783932875
 21
336.3929355985645
 31
0.0
 11
522.9672598199303
 21
336.3013031745567
 31
0.0
 11
522.9061211828791
 21
336.260577505254
 31
0.0
 11
522.7838433228433
 21
336.2300335852003
 31
0.0
 11
522.7430840361647
 21
336.2198521678746
 31
0.0
  0
LINE
  5
3BC
102
{ACAD_REACTORS
330
3F3
102
}
330
18
100
AcDbEntity
  8
ROGO
 62
     4
100
AcDbLine
 10
522.8449819598945
 20
336.7187402891395
 30
0.0
 11
522.2650005326125
 21
336.7187402891395
 31
0.0
  0
LINE
  5
3BD
102
{ACAD_REACTORS
330
3F3
102
}
330
18
100
AcDbEntity
  8
ROGO
 62
     4
100
AcDbLine
 10
522.7430840361648
 20
336.2198521678746
 30
0.0
 11
522.039289394959
 21
336.2198521678747
 31
0.0
  0
LINE
  5
3BE
102
{ACAD_REACTORS
330
3F1
330
3F3
102
}
330
18
100
AcDbEntity
  8
ROGO
 62
     4
100
AcDbLine
 10
521.7444829773731
 20
335.5682431186479
 30
0.0
 11
521.267019904761
 21
334.5129090410072
 31
0.0
  0
LINE
  5
3BF
102
{ACAD_REACTORS
330
3EE
102
}
330
18
100
AcDbEntity
  8
ROGO
 62
     4
100
AcDbLine
 10
525.0192654623994
 20
337.4441644480157
 30
0.0
 11
524.091077034885
 21
335.5682431186479
 31
0.0
  0
LINE
  5
3C0
102
{ACAD_REACTORS
330
3EE
102
}
330
18
100
AcDbEntity
  8
ROGO
 62
     4
100
AcDbLine
 10
527.5565271030908
 20
337.4441644480157
 30
0.0
 11
527.34390682347
 21
337.0144468327413
 31
0.0
  0
LINE
  5
3C1
102
{ACAD_REACTORS
330
3EE
102
}
330
18
100
AcDbEntity
  8
ROGO
 62
     4
100
AcDbLine
 10
524.091077034885
 20
335.5682431186479
 30
0.0
 11
526.6283386755763
 21
335.5682431186479
 31
0.0
  0
LINE
  5
3C2
102
{ACAD_REACTORS
330
3EE
102
}
330
18
100
AcDbEntity
  8
ROGO
 62
     4
100
AcDbLine
 10
526.0103862203014
 20
337.0144468327413
 30
0.0
 11
525.8441435830492
 21
336.6784610567639
 31
0.0
  0
LINE
  5
3C3
102
{ACAD_REACTORS
330
3EE
102
}
330
18
100
AcDbEntity
  8
ROGO
 62
     4
100
AcDbLine
 10
526.0103862203014
 20
337.0144468327413
 30
0.0
 11
527.34390682347
 21
337.0144468327413
 31
0.0
  0
LINE
  5
3C4
102
{ACAD_REACTORS
330
3EE
102
}
330
18
100
AcDbEntity
  8
ROGO
 62
     4
100
AcDbLine
 10
525.8441435830492
 20
336.6784610567639
 30
0.0
 11
527.1776641862178
 21
336.6784610567639
 31
0.0
  0
LINE
  5
3C5
102
{ACAD_REACTORS
330
3EE
102
}
330
18
100
AcDbEntity
  8
ROGO
 62
     4
100
AcDbLine
 10
525.5074276569918
 20
335.9979391186479
 30
0.0
 11
526.8409482601604
 21
335.9979391186479
 31
0.0
  0
LINE
  5
3C6
102
{ACAD_REACTORS
330
3EE
102
}
330
18
100
AcDbEntity
  8
ROGO
 62
     4
100
AcDbLine
 10
525.6736773321581
 20
336.3339391186479
 30
0.0
 11
527.0071979353266
 21
336.3339391186479
 31
0.0
  0
LINE
  5
3C7
102
{ACAD_REACTORS
330
3EE
102
}
330
18
100
AcDbEntity
  8
ROGO
 62
     4
100
AcDbLine
 10
527.1776641862178
 20
336.6784610567639
 30
0.0
 11
527.0071979353266
 21
336.3339391186479
 31
0.0
  0
LINE
  5
3C8
102
{ACAD_REACTORS
330
3EE
102
}
330
18
100
AcDbEntity
  8
ROGO
 62
     4
100
AcDbLine
 10
526.8409482601604
 20
335.9979391186479
 30
0.0
 11
526.6283386755763
 21
335.5682431186479
 31
0.0
  0
LINE
  5
3C9
102
{ACAD_REACTORS
330
3EE
102
}
330
18
100
AcDbEntity
  8
ROGO
 62
     4
100
AcDbLine
 10
525.6736773321581
 20
336.3339391186479
 30
0.0
 11
525.5074276569918
 21
335.9979391186479
 31
0.0
  0
LINE
  5
3CA
102
{ACAD_REACTORS
330
3F7
102
}
330
18
100
AcDbEntity
  8
ROGO
 62
     4
100
AcDbLine
 10
528.291518910516
 20
337.4441644480157
 30
0.0
 11
526.9387555818029
 21
335.5682431186479
 31
0.0
  0
LINE
  5
3CB
102
{ACAD_REACTORS
330
3F7
102
}
330
18
100
AcDbEntity
  8
ROGO
 62
     4
100
AcDbLine
 10
528.9688444199899
 20
336.9427230523703
 30
0.0
 11
528.5068919395423
 21
336.3021183783434
 31
0.0
  0
LINE
  5
3CC
102
{ACAD_REACTORS
330
3F7
102
}
330
18
100
AcDbEntity
  8
ROGO
 62
     4
100
AcDbLine
 10
528.2352379950493
 20
335.9254069330633
 30
0.0
 11
529.4207765504555
 21
335.9254069330633
 31
0.0
  0
LINE
  5
3CD
102
{ACAD_REACTORS
330
3F7
102
}
330
18
100
AcDbEntity
  8
ROGO
 62
     4
100
AcDbLine
 10
528.5068919395424
 20
336.3021183783434
 30
0.0
 11
529.2534263995976
 21
336.3021183783434
 31
0.0
  0
LINE
  5
3CE
102
{ACAD_REACTORS
330
3F7
102
}
330
18
100
AcDbEntity
  8
ROGO
 62
     4
100
AcDbLine
 10
528.2352379950493
 20
335.9254069330633
 30
0.0
 11
527.9776802270767
 21
335.568243118648
 31
0.0
  0
LINE
  5
3CF
102
{ACAD_REACTORS
330
3F7
102
}
330
18
100
AcDbEntity
  8
ROGO
 62
     4
100
AcDbLine
 10
526.9387555818029
 20
335.5682431186479
 30
0.0
 11
527.9776802270767
 21
335.5682431186479
 31
0.0
  0
LINE
  5
3D0
102
{ACAD_REACTORS
330
3F7
102
}
330
18
100
AcDbEntity
  8
ROGO
 62
     4
100
AcDbLine
 10
528.291518910516
 20
337.4441644480157
 30
0.0
 11
529.7920953144751
 21
337.4441644480157
 31
0.0
  0
LINE
  5
3D1
102
{ACAD_REACTORS
330
3F7
102
}
330
18
100
AcDbEntity
  8
ROGO
 62
     4
100
AcDbLine
 10
530.6254539007372
 20
335.568243118648
 30
0.0
 11
529.5794428691254
 21
335.5682431186479
 31
0.0
  0
LINE
  5
3D2
102
{ACAD_REACTORS
330
3EF
102
}
330
18
100
AcDbEntity
  8
ROGO
 62
     4
100
AcDbLine
 10
531.1391959221739
 20
335.5682431186479
 30
0.0
 11
532.7549516578947
 21
335.5682431186479
 31
0.0
  0
LINE
  5
3D3
102
{ACAD_REACTORS
330
3EF
102
}
330
18
100
AcDbEntity
  8
ROGO
 62
     4
100
AcDbLine
 10
533.6903466193365
 20
337.4441644480157
 30
0.0
 11
533.3423190471356
 21
336.7462000877059
 31
0.0
  0
LINE
  5
3D4
102
{ACAD_REACTORS
330
3EF
102
}
330
18
100
AcDbEntity
  8
ROGO
 62
     4
100
AcDbLine
 10
532.1683662994911
 20
336.7462000877059
 30
0.0
 11
533.3423190471356
 21
336.746200087706
 31
0.0
  0
LINE
  5
3D5
102
{ACAD_REACTORS
330
3EF
102
}
330
18
100
AcDbEntity
  8
ROGO
 62
     4
100
AcDbLine
 10
531.9034312290471
 20
336.2662000877059
 30
0.0
 11
533.1029755445789
 21
336.2662000877059
 31
0.0
  0
SPLINE
  5
3D6
102
{ACAD_REACTORS
330
3EF
102
}
330
18
100
AcDbEntity
  8
ROGO
 62
     4
100
AcDbSpline
210
0.0
220
0.0
230
1.0
 70
     8
 71
     3
 72
    26
 73
    22
 74
    20
 42
0.0000000001
 43
0.0000000001
 44
0.0000000001
 40
0.0
 40
0.0
 40
0.0
 40
0.0
 40
0.3403136209417982
 40
0.5681272389515159
 40
0.7323994099697078
 40
0.8550561247337057
 40
1.014148321321447
 40
1.13027011535643
 40
1.339959009791999
 40
1.510642755247373
 40
1.626735051276186
 40
1.740569491433665
 40
1.944197174100541
 40
2.088186249714737
 40
2.16573549158295
 40
2.275891898886404
 40
2.355438312276705
 40
2.470674802865115
 40
2.535888688806235
 40
2.677801419664453
 40
2.742600005358966
 40
2.742600005358966
 40
2.742600005358966
 40
2.742600005358966
 10
531.8117232734705
 20
337.4441644480157
 30
0.0
 10
531.6962155723866
 20
337.4372730604942
 30
0.0
 10
531.5033844094353
 20
337.4257684226417
 30
0.0
 10
531.2916569655613
 20
337.2971462742727
 30
0.0
 10
531.1365330449753
 20
337.2223710094977
 30
0.0
 10
531.0258988529408
 20
337.1207204074698
 30
0.0
 10
530.9448035417014
 20
337.0157227610107
 30
0.0
 10
530.8425676778476
 20
336.8906188351171
 30
0.0
 10
530.7591972522681
 20
336.7449403758822
 30
0.0
 10
530.7167417629348
 20
336.5843773172202
 30
0.0
 10
530.6791350934296
 20
336.4564076278505
 30
0.0
 10
530.6512453577539
 20
336.3138021094327
 30
0.0
 10
530.6583412960581
 20
336.1597379835436
 30
0.0
 10
530.6685030044643
 20
336.016651110681
 30
0.0
 10
530.7138725614988
 20
335.9145085065002
 30
0.0
 10
530.7655404506273
 20
335.8417900108868
 30
0.0
 10
530.8288070732771
 20
335.7616986498886
 30
0.0
 10
530.8980345937308
 20
335.7086544008454
 30
0.0
 10
530.9552914038886
 20
335.612561179216
 30
0.0
 10
531.0555175185493
 20
335.6002989911072
 30
0.0
 10
531.1192252243719
 20
335.5758935769971
 30
0.0
 10
531.139195922174
 20
335.5682431186478
 30
0.0
 11
531.8117232734705
 21
337.4441644480157
 31
0.0
 11
531.4754595978221
 21
337.3918184735961
 31
0.0
 11
531.2716631644293
 21
337.2900046322627
 31
0.0
 11
531.1290059540209
 21
337.2085536255806
 31
0.0
 11
531.0372979984442
 21
337.1271022869752
 31
0.0
 11
530.9354000747145
 21
337.0049256109904
 31
0.0
 11
530.8640714695103
 21
336.9132931869826
 31
0.0
 11
530.7621729598471
 21
336.7300280070438
 31
0.0
 11
530.7112242909489
 21
336.5671256617562
 31
0.0
 11
530.6806549724234
 21
336.4551304030971
 31
0.0
 11
530.6602750361173
 21
336.343135144438
 31
0.0
 11
530.6602750361173
 21
336.1395074617711
 31
0.0
 11
530.6806549724234
 21
335.9969679511349
 31
0.0
 11
530.7112242909489
 21
335.9256980298552
 31
0.0
 11
530.7723629279999
 21
335.8340656058474
 31
0.0
 11
530.8233121828317
 21
335.7729771018933
 31
0.0
 11
530.9048301702554
 21
335.6915260952112
 31
0.0
 11
530.945589456934
 21
335.6406190085828
 31
0.0
 11
531.0780572851228
 21
335.5897122538778
 31
0.0
 11
531.139195922174
 21
335.5682431186478
 31
0.0
  0
SPLINE
  5
3D7
102
{ACAD_REACTORS
330
3EF
102
}
330
18
100
AcDbEntity
  8
ROGO
 62
     4
100
AcDbSpline
210
0.0
220
0.0
230
1.0
 70
     8
 71
     3
 72
    16
 73
    12
 74
    10
 42
0.0000000001
 43
0.0000000001
 44
0.0000000001
 40
0.0
 40
0.0
 40
0.0
 40
0.0
 40
0.1794152893756658
 40
0.2670467197814556
 40
0.3102605435414121
 40
0.3558008766977565
 40
0.4210145035340276
 40
0.4803947587045229
 40
0.5423269814405317
 40
0.646160827944346
 40
0.7489346372632694
 40
0.7489346372632694
 40
0.7489346372632694
 40
0.7489346372632694
 10
532.1683662994912
 20
336.7462000877059
 30
0.0
 10
532.1076081457463
 20
336.7369370972716
 30
0.0
 10
532.0171740154444
 20
336.7231498040065
 30
0.0
 10
531.9353943706
 20
336.6584139368986
 30
0.0
 10
531.8892763289941
 20
336.6199004050177
 30
0.0
 10
531.8735867657778
 20
336.5688975561861
 30
0.0
 10
531.8314495259767
 20
336.5297351975637
 30
0.0
 10
531.7967164547233
 20
336.4759135108264
 30
0.0
 10
531.7884229846352
 20
336.4019885523133
 30
0.0
 10
531.7945105815604
 20
336.2982461392601
 30
0.0
 10
531.8672487452305
 20
336.2768455049753
 30
0.0
 10
531.9034312290473
 20
336.2662000877059
 30
0.0
 11
532.1683662994912
 21
336.7462000877059
 31
0.0
 11
531.9951397705573
 21
336.6994837550667
 31
0.0
 11
531.9238111653532
 21
336.6485770003617
 31
0.0
 11
531.8932418468277
 21
336.6180327483846
 31
0.0
 11
531.8728619105216
 21
336.5773070790818
 31
0.0
 11
531.8321026238431
 21
336.5264003243769
 31
0.0
 11
531.8015333053174
 21
336.4754932377485
 31
0.0
 11
531.7913433371644
 21
336.4144050657177
 31
0.0
 11
531.8117232734704
 21
336.312590892461
 31
0.0
 11
531.9034312290473
 21
336.2662000877059
 31
0.0
  0
LINE
  5
3D8
102
{ACAD_REACTORS
330
3EF
102
}
330
18
100
AcDbEntity
  8
ROGO
 62
     4
100
AcDbLine
 10
533.1029755445788
 20
336.2662000877059
 30
0.0
 11
532.7549516578947
 21
335.5682431186478
 31
0.0
  0
LINE
  5
3D9
102
{ACAD_REACTORS
330
3EF
102
}
330
18
100
AcDbEntity
  8
ROGO
 62
     4
100
AcDbLine
 10
531.8117232734711
 20
337.4441644480158
 30
0.0
 11
533.6903466193366
 21
337.4441644480158
 31
0.0
  0
LINE
  5
3DA
102
{ACAD_REACTORS
330
3F0
102
}
330
18
100
AcDbEntity
  8
ROGO
 62
     4
100
AcDbLine
 10
537.1835813092137
 20
335.5682431186478
 30
0.0
 11
538.7993370449346
 21
335.5682431186478
 31
0.0
  0
LINE
  5
3DB
102
{ACAD_REACTORS
330
3F0
102
}
330
18
100
AcDbEntity
  8
ROGO
 62
     4
100
AcDbLine
 10
537.8561086605108
 20
337.4441644480157
 30
0.0
 11
539.7347320063764
 21
337.4441644480157
 31
0.0
  0
SPLINE
  5
3DC
102
{ACAD_REACTORS
330
3F0
102
}
330
18
100
AcDbEntity
  8
ROGO
 62
     4
100
AcDbSpline
210
0.0
220
0.0
230
1.0
 70
     8
 71
     3
 72
    16
 73
    12
 74
    10
 42
0.0000000001
 43
0.0000000001
 44
0.0000000001
 40
0.0
 40
0.0
 40
0.0
 40
0.0
 40
0.1794152893756658
 40
0.2670467197815217
 40
0.3102605435413978
 40
0.3558008766977931
 40
0.4210145035340376
 40
0.4803947587045328
 40
0.5423269814405045
 40
0.6461608279444525
 40
0.7489346372632488
 40
0.7489346372632488
 40
0.7489346372632488
 40
0.7489346372632488
 10
538.2127516865311
 20
336.7462000877059
 30
0.0
 10
538.1519935327861
 20
336.7369370972716
 30
0.0
 10
538.0615594024841
 20
336.7231498040065
 30
0.0
 10
537.9797797576399
 20
336.6584139368983
 30
0.0
 10
537.9336617160338
 20
336.6199004050177
 30
0.0
 10
537.9179721528175
 20
336.5688975561861
 30
0.0
 10
537.8758349130164
 20
336.5297351975637
 30
0.0
 10
537.8411018417635
 20
336.4759135108263
 30
0.0
 10
537.8328083716748
 20
336.4019885523133
 30
0.0
 10
537.8388959686003
 20
336.29824613926
 30
0.0
 10
537.9116341322702
 20
336.2768455049752
 30
0.0
 10
537.947816616087
 20
336.2662000877059
 30
0.0
 11
538.2127516865311
 21
336.7462000877059
 31
0.0
 11
538.0395251575971
 21
336.6994837550667
 31
0.0
 11
537.9681965523929
 21
336.6485770003616
 31
0.0
 11
537.9376272338674
 21
336.6180327483846
 31
0.0
 11
537.9172472975613
 21
336.5773070790818
 31
0.0
 11
537.8764880108828
 21
336.5264003243768
 31
0.0
 11
537.8459186923572
 21
336.4754932377484
 31
0.0
 11
537.8357287242041
 21
336.4144050657177
 31
0.0
 11
537.8561086605102
 21
336.3125908924609
 31
0.0
 11
537.947816616087
 21
336.2662000877059
 31
0.0
  0
SPLINE
  5
3DD
102
{ACAD_REACTORS
330
3F0
102
}
330
18
100
AcDbEntity
  8
ROGO
 62
     4
100
AcDbSpline
210
0.0
220
0.0
230
1.0
 70
     8
 71
     3
 72
    26
 73
    22
 74
    20
 42
0.0000000001
 43
0.0000000001
 44
0.0000000001
 40
0.0
 40
0.0
 40
0.0
 40
0.0
 40
0.3403136209416859
 40
0.5681272389515052
 40
0.7323994099695983
 40
0.8550561247335963
 40
1.014148321321381
 40
1.13027011535639
 40
1.339959009792003
 40
1.510642755247356
 40
1.626735051276114
 40
1.740569491433573
 40
1.94419717410045
 40
2.088186249714629
 40
2.165735491582895
 40
2.275891898886364
 40
2.355438312276665
 40
2.470674802864995
 40
2.535888688806186
 40
2.677801419664424
 40
2.74260000535881
 40
2.74260000535881
 40
2.74260000535881
 40
2.74260000535881
 10
537.8561086605102
 20
337.4441644480157
 30
0.0
 10
537.7406009594265
 20
337.4372730604941
 30
0.0
 10
537.547769796475
 20
337.4257684226416
 30
0.0
 10
537.3360423526012
 20
337.2971462742727
 30
0.0
 10
537.180918432015
 20
337.2223710094977
 30
0.0
 10
537.0702842399806
 20
337.1207204074698
 30
0.0
 10
536.9891889287413
 20
337.0157227610106
 30
0.0
 10
536.8869530648876
 20
336.8906188351173
 30
0.0
 10
536.8035826393077
 20
336.744940375882
 30
0.0
 10
536.7611271499747
 20
336.5843773172203
 30
0.0
 10
536.7235204804691
 20
336.4564076278504
 30
0.0
 10
536.6956307447936
 20
336.3138021094326
 30
0.0
 10
536.702726683098
 20
336.1597379835438
 30
0.0
 10
536.7128883915042
 20
336.016651110681
 30
0.0
 10
536.7582579485384
 20
335.9145085065001
 30
0.0
 10
536.8099258376672
 20
335.8417900108868
 30
0.0
 10
536.873192460317
 20
335.7616986498886
 30
0.0
 10
536.9424199807704
 20
335.7086544008454
 30
0.0
 10
536.9996767909286
 20
335.612561179216
 30
0.0
 10
537.0999029055889
 20
335.6002989911071
 30
0.0
 10
537.1636106114117
 20
335.5758935769971
 30
0.0
 10
537.1835813092137
 20
335.5682431186478
 30
0.0
 11
537.8561086605102
 21
337.4441644480157
 31
0.0
 11
537.5198449848619
 21
337.3918184735961
 31
0.0
 11
537.3160485514691
 21
337.2900046322627
 31
0.0
 11
537.1733913410607
 21
337.2085536255806
 31
0.0
 11
537.0816833854839
 21
337.1271022869752
 31
0.0
 11
536.9797854617543
 21
337.0049256109903
 31
0.0
 11
536.90845685655
 21
336.9132931869826
 31
0.0
 11
536.8065583468869
 21
336.7300280070436
 31
0.0
 11
536.7556096779886
 21
336.5671256617562
 31
0.0
 11
536.7250403594631
 21
336.4551304030971
 31
0.0
 11
536.7046604231571
 21
336.343135144438
 31
0.0
 11
536.7046604231571
 21
336.1395074617711
 31
0.0
 11
536.7250403594631
 21
335.9969679511349
 31
0.0
 11
536.7556096779886
 21
335.9256980298551
 31
0.0
 11
536.8167483150398
 21
335.8340656058474
 31
0.0
 11
536.8676975698715
 21
335.7729771018933
 31
0.0
 11
536.9492155572951
 21
335.6915260952112
 31
0.0
 11
536.9899748439738
 21
335.6406190085828
 31
0.0
 11
537.1224426721625
 21
335.5897122538777
 31
0.0
 11
537.1835813092137
 21
335.5682431186478
 31
0.0
  0
LINE
  5
3DE
102
{ACAD_REACTORS
330
3F0
102
}
330
18
100
AcDbEntity
  8
ROGO
 62
     4
100
AcDbLine
 10
539.1473609316186
 20
336.2662000877059
 30
0.0
 11
538.7993370449346
 21
335.5682431186478
 31
0.0
  0
LINE
  5
3DF
102
{ACAD_REACTORS
330
3F0
102
}
330
18
100
AcDbEntity
  8
ROGO
 62
     4
100
AcDbLine
 10
537.9478166160869
 20
336.2662000877059
 30
0.0
 11
539.1473609316186
 21
336.2662000877059
 31
0.0
  0
LINE
  5
3E0
102
{ACAD_REACTORS
330
3F0
102
}
330
18
100
AcDbEntity
  8
ROGO
 62
     4
100
AcDbLine
 10
538.2127516865309
 20
336.7462000877059
 30
0.0
 11
539.3867044341755
 21
336.7462000877059
 31
0.0
  0
LINE
  5
3E1
102
{ACAD_REACTORS
330
3F0
102
}
330
18
100
AcDbEntity
  8
ROGO
 62
     4
100
AcDbLine
 10
539.7347320063764
 20
337.4441644480157
 30
0.0
 11
539.3867044341755
 21
336.7462000877059
 31
0.0
  0
LINE
  5
3E2
102
{ACAD_REACTORS
330
3F2
102
}
330
18
100
AcDbEntity
  8
ROGO
 62
     4
100
AcDbLine
 10
540.1276279051224
 20
337.4441644480157
 30
0.0
 11
541.2077475372711
 21
337.4441644480157
 31
0.0
  0
LINE
  5
3E3
102
{ACAD_REACTORS
330
3F1
330
3F2
102
}
330
18
100
AcDbEntity
  8
ROGO
 62
     4
100
AcDbLine
 10
540.1276279051224
 20
337.4441644480157
 30
0.0
 11
538.6660092884511
 21
334.5129090410072
 31
0.0
  0
LINE
  5
3E4
102
{ACAD_REACTORS
330
3F2
102
}
330
18
100
AcDbEntity
  8
ROGO
 62
     4
100
AcDbLine
 10
541.2077475372711
 20
337.4441644480157
 30
0.0
 11
541.0481685273841
 21
337.124131006842
 31
0.0
  0
LINE
  5
3E5
102
{ACAD_REACTORS
330
3F2
102
}
330
18
100
AcDbEntity
  8
ROGO
 62
     4
100
AcDbLine
 10
541.0481685273841
 20
337.124131006842
 30
0.0
 11
541.553901503211
 21
337.4441644480157
 31
0.0
  0
LINE
  5
3E6
102
{ACAD_REACTORS
330
3F2
102
}
330
18
100
AcDbEntity
  8
ROGO
 62
     4
100
AcDbLine
 10
540.1276279051224
 20
335.2779998440351
 30
0.0
 11
540.5091268896447
 21
334.5129090410072
 31
0.0
  0
LINE
  5
3E7
102
{ACAD_REACTORS
330
3F2
102
}
330
18
100
AcDbEntity
  8
ROGO
 62
     4
100
AcDbLine
 10
540.8584135813091
 20
335.9785367445114
 30
0.0
 11
541.5892228896447
 21
334.5129090410072
 31
0.0
  0
LINE
  5
3E8
102
{ACAD_REACTORS
330
3F2
102
}
330
18
100
AcDbEntity
  8
ROGO
 62
     4
100
AcDbLine
 10
540.1276279051224
 20
335.2779998440351
 30
0.0
 11
539.7461289205999
 21
334.5129090410072
 31
0.0
  0
LINE
  5
3E9
102
{ACAD_REACTORS
330
3F2
102
}
330
18
100
AcDbEntity
  8
ROGO
 62
     4
100
AcDbLine
 10
540.8584135813091
 20
335.9785367445114
 30
0.0
 11
542.6339975032109
 21
337.4441644480157
 31
0.0
  0
LINE
  5
3EA
102
{ACAD_REACTORS
330
3F2
102
}
330
18
100
AcDbEntity
  8
ROGO
 62
     4
100
AcDbLine
 10
541.553901503211
 20
337.4441644480157
 30
0.0
 11
542.6339975032109
 21
337.4441644480157
 31
0.0
  0
LINE
  5
3EB
102
{ACAD_REACTORS
330
3F2
102
}
330
18
100
AcDbEntity
  8
ROGO
 62
     4
100
AcDbLine
 10
540.5091268896447
 20
334.5129090410072
 30
0.0
 11
541.5892228896447
 21
334.5129090410072
 31
0.0
  0
LINE
  5
3EC
102
{ACAD_REACTORS
330
3EE
102
}
330
18
100
AcDbEntity
  8
ROGO
 62
     4
100
AcDbLine
 10
525.0192654623994
 20
337.4441644480157
 30
0.0
 11
527.5565271030908
 21
337.4441644480158
 31
0.0
  0
LINE
  5
3ED
102
{ACAD_REACTORS
330
3F1
102
}
330
18
100
AcDbEntity
  8
ROGO
 62
     4
100
AcDbLine
 10
521.3795736026257
 20
334.8067236214232
 30
0.0
 11
538.8125147275741
 21
334.8067236214232
 31
0.0
  0
HATCH
  5
3EE
330
18
100
AcDbEntity
  8
ROGO
 62
     4
100
AcDbHatch
 10
0.0
 20
0.0
 30
0.0
210
0.0
220
0.0
230
1.0
  2
SOLID
 70
     1
 71
     1
 91
        1
 92
        1
 93
       12
 72
     1
 10
525.0192654623994
 20
337.4441644480157
 11
527.5565271030907
 21
337.4441644480158
 72
     1
 10
527.5565271030908
 20
337.4441644480157
 11
527.34390682347
 21
337.0144468327413
 72
     1
 10
527.34390682347
 20
337.0144468327413
 11
526.0103862203014
 21
337.0144468327413
 72
     1
 10
526.0103862203014
 20
337.0144468327413
 11
525.8441435830493
 21
336.6784610567639
 72
     1
 10
525.8441435830493
 20
336.6784610567639
 11
527.1776641862178
 21
336.6784610567639
 72
     1
 10
527.1776641862178
 20
336.6784610567639
 11
527.0071979353266
 21
336.3339391186479
 72
     1
 10
527.0071979353266
 20
336.3339391186479
 11
525.6736773321581
 21
336.3339391186479
 72
     1
 10
525.6736773321581
 20
336.3339391186479
 11
525.5074276569919
 21
335.9979391186479
 72
     1
 10
525.5074276569919
 20
335.9979391186479
 11
526.8409482601604
 21
335.9979391186479
 72
     1
 10
526.8409482601604
 20
335.9979391186479
 11
526.6283386755763
 21
335.5682431186478
 72
     1
 10
526.6283386755763
 20
335.5682431186479
 11
524.091077034885
 21
335.5682431186479
 72
     1
 10
524.091077034885
 20
335.5682431186479
 11
525.0192654623995
 21
337.4441644480157
 97
       12
330
3EC
330
3C0
330
3C3
330
3C2
330
3C4
330
3C7
330
3C6
330
3C9
330
3C5
330
3C8
330
3C1
330
3BF
 75
     0
 76
     1
 98
        1
 10
421.2333669213866
 20
207.7325986649996
450
        0
451
        0
460
0.0
461
0.0
452
        0
462
0.0
453
        0
470

  0
HATCH
  5
3EF
330
18
100
AcDbEntity
  8
ROGO
 62
     4
100
AcDbHatch
 10
0.0
 20
0.0
 30
0.0
210
0.0
220
0.0
230
1.0
  2
SOLID
 70
     1
 71
     1
 91
        1
 92
        5
 93
        8
 72
     1
 10
533.3423190471357
 20
336.7462000877059
 11
533.6903466193366
 21
337.4441644480157
 72
     1
 10
533.6903466193366
 20
337.4441644480158
 11
531.8117232734709
 21
337.4441644480159
 72
     4
 94
        3
 73
     0
 74
     0
 95
       26
 96
       22
 40
0.0
 40
0.0
 40
0.0
 40
0.0
 40
0.7089867102952115
 40
1.183598414482279
 40
1.525832104103439
 40
1.781366926528389
 40
2.112809002752968
 40
2.354729406992515
 40
2.791581270399936
 40
3.147172406765291
 40
3.389031356825354
 40
3.626186440486682
 40
4.050410779375985
 40
4.350388020238963
 40
4.511948940797758
 40
4.741441456013356
 40
4.907163150576407
 40
5.147239172635527
 40
5.28310143501293
 40
5.578752957634333
 40
5.713750011164293
 40
5.713750011164293
 40
5.713750011164293
 40
5.713750011164293
 10
531.8117232734705
 20
337.4441644480157
 10
531.6962155723866
 20
337.4372730604942
 10
531.5033844094354
 20
337.4257684226417
 10
531.2916569655613
 20
337.2971462742726
 10
531.1365330449754
 20
337.2223710094978
 10
531.0258988529408
 20
337.1207204074698
 10
530.9448035417013
 20
337.0157227610107
 10
530.8425676778479
 20
336.8906188351173
 10
530.7591972522679
 20
336.7449403758822
 10
530.7167417629349
 20
336.5843773172203
 10
530.6791350934295
 20
336.4564076278504
 10
530.6512453577538
 20
336.3138021094326
 10
530.6583412960581
 20
336.1597379835436
 10
530.6685030044644
 20
336.0166511106811
 10
530.7138725614987
 20
335.9145085065001
 10
530.7655404506273
 20
335.8417900108868
 10
530.8288070732771
 20
335.7616986498887
 10
530.8980345937308
 20
335.7086544008454
 10
530.9552914038887
 20
335.612561179216
 10
531.0555175185493
 20
335.6002989911071
 10
531.1192252243719
 20
335.5758935769971
 10
531.139195922174
 20
335.5682431186478
 72
     1
 10
531.1391959221739
 20
335.5682431186479
 11
532.7549516578947
 21
335.5682431186479
 72
     1
 10
532.7549516578947
 20
335.5682431186479
 11
533.1029755445788
 21
336.2662000877059
 72
     1
 10
533.1029755445788
 20
336.2662000877059
 11
531.9034312290471
 21
336.2662000877059
 72
     4
 94
        3
 73
     0
 74
     0
 95
       16
 96
       12
 40
0.0
 40
0.0
 40
0.0
 40
0.0
 40
0.2141121027475241
 40
0.4304326162973471
 40
0.5594580803306056
 40
0.6831669452691567
 40
0.8190286678446897
 40
0.9139043619204622
 40
1.003933161420314
 40
1.186498641432482
 40
1.560280494298353
 40
1.560280494298353
 40
1.560280494298353
 40
1.560280494298353
 10
531.9034312290473
 20
336.2662000877059
 10
531.8672487452305
 20
336.2768455049753
 10
531.7945105815604
 20
336.29824613926
 10
531.7884229846352
 20
336.4019885523134
 10
531.7967164547235
 20
336.4759135108264
 10
531.8314495259767
 20
336.5297351975637
 10
531.8735867657776
 20
336.568897556186
 10
531.8892763289941
 20
336.6199004050178
 10
531.9353943706
 20
336.6584139368985
 10
532.0171740154444
 20
336.7231498040065
 10
532.1076081457463
 20
336.7369370972716
 10
532.1683662994912
 20
336.7462000877059
 72
     1
 10
532.1683662994912
 20
336.7462000877059
 11
533.3423190471357
 21
336.746200087706
 97
        8
330
3D9
330
3D6
330
3D2
330
3D8
330
3D5
330
3D7
330
3D4
330
3D3
 75
     0
 76
     1
 47
0.0514683685270805
 98
        1
 10
532.4687474123375
 20
337.0265623675201
450
        0
451
        0
460
0.0
461
0.0
452
        0
462
0.0
453
        0
470

  0
HATCH
  5
3F0
330
18
100
AcDbEntity
  8
ROGO
 62
     4
100
AcDbHatch
 10
0.0
 20
0.0
 30
0.0
210
0.0
220
0.0
230
1.0
  2
SOLID
 70
     1
 71
     1
 91
        1
 92
        5
 93
        8
 72
     4
 94
        3
 73
     0
 74
     0
 95
       26
 96
       22
 40
0.0
 40
0.0
 40
0.0
 40
0.0
 40
0.7089867102952115
 40
1.183598414482279
 40
1.525832104103439
 40
1.781366926528389
 40
2.112809002752968
 40
2.354729406992515
 40
2.791581270399936
 40
3.147172406765291
 40
3.389031356825354
 40
3.626186440486682
 40
4.050410779375985
 40
4.350388020238963
 40
4.511948940797758
 40
4.741441456013356
 40
4.907163150576407
 40
5.147239172635527
 40
5.28310143501293
 40
5.578752957634333
 40
5.713750011164293
 40
5.713750011164293
 40
5.713750011164293
 40
5.713750011164293
 10
537.8561086605102
 20
337.4441644480157
 10
537.7406009594265
 20
337.4372730604942
 10
537.547769796475
 20
337.4257684226417
 10
537.3360423526012
 20
337.2971462742726
 10
537.1809184320152
 20
337.2223710094977
 10
537.0702842399805
 20
337.1207204074697
 10
536.989188928741
 20
337.0157227610107
 10
536.8869530648877
 20
336.8906188351173
 10
536.8035826393077
 20
336.744940375882
 10
536.7611271499746
 20
336.5843773172203
 10
536.7235204804693
 20
336.4564076278504
 10
536.6956307447936
 20
336.3138021094326
 10
536.7027266830977
 20
336.1597379835436
 10
536.7128883915042
 20
336.016651110681
 10
536.7582579485384
 20
335.9145085065001
 10
536.8099258376672
 20
335.8417900108868
 10
536.873192460317
 20
335.7616986498886
 10
536.9424199807705
 20
335.7086544008454
 10
536.9996767909285
 20
335.612561179216
 10
537.0999029055891
 20
335.6002989911071
 10
537.1636106114117
 20
335.5758935769971
 10
537.1835813092137
 20
335.5682431186478
 72
     1
 10
537.1835813092136
 20
335.5682431186479
 11
538.7993370449346
 21
335.5682431186478
 72
     1
 10
538.7993370449346
 20
335.5682431186478
 11
539.1473609316186
 21
336.2662000877059
 72
     1
 10
539.1473609316186
 20
336.2662000877059
 11
537.9478166160869
 21
336.2662000877059
 72
     4
 94
        3
 73
     0
 74
     0
 95
       16
 96
       12
 40
0.0
 40
0.0
 40
0.0
 40
0.0
 40
0.2141121027475241
 40
0.4304326162973471
 40
0.5594580803306056
 40
0.6831669452691567
 40
0.8190286678446897
 40
0.9139043619204622
 40
1.003933161420314
 40
1.186498641432482
 40
1.560280494298353
 40
1.560280494298353
 40
1.560280494298353
 40
1.560280494298353
 10
537.947816616087
 20
336.2662000877059
 10
537.9116341322704
 20
336.2768455049752
 10
537.8388959686002
 20
336.29824613926
 10
537.832808371675
 20
336.4019885523132
 10
537.8411018417633
 20
336.4759135108264
 10
537.8758349130165
 20
336.5297351975637
 10
537.9179721528173
 20
336.568897556186
 10
537.9336617160338
 20
336.6199004050178
 10
537.9797797576399
 20
336.6584139368983
 10
538.0615594024841
 20
336.7231498040065
 10
538.1519935327861
 20
336.7369370972716
 10
538.2127516865311
 20
336.7462000877059
 72
     1
 10
538.2127516865311
 20
336.7462000877059
 11
539.3867044341756
 21
336.7462000877059
 72
     1
 10
539.3867044341755
 20
336.7462000877059
 11
539.7347320063763
 21
337.4441644480157
 72
     1
 10
539.7347320063764
 20
337.4441644480157
 11
537.8561086605103
 21
337.4441644480157
 97
        8
330
3DB
330
3DD
330
3DA
330
3DE
330
3DF
330
3DC
330
3E0
330
3E1
 75
     0
 76
     1
 47
0.0514683685270805
 98
        1
 10
538.1802764172029
 20
337.1006768720456
450
        0
451
        0
460
0.0
461
0.0
452
        0
462
0.0
453
        0
470

  0
HATCH
  5
3F1
330
18
100
AcDbEntity
  8
ROGO
 62
     4
100
AcDbHatch
 10
0.0
 20
0.0
 30
0.0
210
0.0
220
0.0
230
1.0
  2
SOLID
 70
     1
 71
     1
 91
        1
 92
        7
 72
     0
 73
     1
 93
        4
 10
521.3999499553639
 20
334.8067236214232
 10
521.267019904761
 20
334.5129090410072
 10
538.6660092884511
 20
334.5129090410072
 10
538.8125147275741
 20
334.8067236214232
 97
        4
330
3ED
330
3BE
330
3B6
330
3E3
 75
     0
 76
     1
 47
0.0514683685270805
 98
        1
 10
532.3945717566328
 20
334.7290143868449
450
        0
451
        0
460
0.0
461
0.0
452
        0
462
0.0
453
        0
470

  0
HATCH
  5
3F2
330
18
100
AcDbEntity
  8
ROGO
 62
     4
100
AcDbHatch
 10
0.0
 20
0.0
 30
0.0
210
0.0
220
0.0
230
1.0
  2
SOLID
 70
     1
 71
     1
 91
        1
 92
        7
 72
     0
 73
     1
 93
       11
 10
538.6660092884511
 20
334.5129090410072
 10
539.7461289205999
 20
334.5129090410072
 10
540.1276279051224
 20
335.2779998440351
 10
540.5091268896447
 20
334.5129090410072
 10
541.5892228896447
 20
334.5129090410072
 10
540.8584135813091
 20
335.9785367445114
 10
542.6339975032109
 20
337.4441644480157
 10
541.553901503211
 20
337.4441644480157
 10
541.0481685273841
 20
337.124131006842
 10
541.2077475372711
 20
337.4441644480157
 10
540.1276279051224
 20
337.4441644480157
 97
       11
330
3EA
330
3E5
330
3E4
330
3E2
330
3E3
330
3B6
330
3E8
330
3E6
330
3EB
330
3E7
330
3E9
 75
     0
 76
     1
 47
0.0514683685270805
 98
        1
 10
540.0346689816882
 20
336.186598757385
450
        0
451
        0
460
0.0
461
0.0
452
        0
462
0.0
453
        0
470

  0
HATCH
  5
3F3
330
18
100
AcDbEntity
  8
ROGO
 62
     4
100
AcDbHatch
 10
0.0
 20
0.0
 30
0.0
210
0.0
220
0.0
230
1.0
  2
SOLID
 70
     1
 71
     1
 91
        2
 92
        5
 93
        6
 72
     1
 10
519.904447110566
 20
334.5129090410072
 11
521.267019904761
 21
334.5129090410072
 72
     1
 10
521.267019904761
 20
334.5129090410072
 11
521.7444829773731
 21
335.568243118648
 72
     1
 10
521.7444829773731
 20
335.568243118648
 11
523.0182090747623
 21
335.568243118648
 72
     4
 94
        3
 73
     0
 74
     0
 95
       18
 96
       14
 40
0.108740278791501
 40
0.108740278791501
 40
0.108740278791501
 40
0.108740278791501
 40
0.6623149649549278
 40
1.384304701649787
 40
2.097394834876493
 40
2.774073369849618
 40
3.428974823686337
 40
4.005208313035923
 40
4.455173659284313
 40
4.720999734343524
 40
5.086034088486724
 40
5.569973738255373
 40
6.060470601257719
 40
6.060470601257719
 40
6.060470601257719
 40
6.060470601257719
 10
523.0182090747619
 20
335.5682431186478
 10
523.1078518131828
 20
335.5689106609781
 10
523.3144094661165
 20
335.5704488332761
 10
523.6033820062698
 20
335.7248243139837
 10
523.8774105392598
 20
335.9214874287576
 10
524.0981218808046
 20
336.1671974727602
 10
524.2356316963419
 20
336.4481248120755
 10
524.2569315321235
 20
336.7173678628923
 10
524.2439285056794
 20
336.9303357688301
 10
524.1510153506178
 20
337.0787796864056
 10
524.0544207878683
 20
337.2294350823667
 10
523.8772990228008
 20
337.3599383820687
 10
523.7321733830143
 20
337.4171182268047
 10
523.6583740435342
 20
337.4441644480158
 72
     1
 10
523.6583740435344
 20
337.4441644480157
 11
521.3548050249841
 21
337.4441644480157
 72
     1
 10
521.3548050249841
 20
337.4441644480157
 11
519.904447110566
 21
334.5129090410072
 97
        6
330
3B8
330
3B5
330
3B7
330
3B6
330
3BE
330
3B9
 92
       20
 93
        4
 72
     1
 10
522.039289394959
 20
336.2198521678747
 11
522.2650005326125
 21
336.7187402891395
 72
     1
 10
522.2650005326125
 20
336.7187402891395
 11
522.8449819598941
 21
336.7187402891395
 72
     4
 94
        3
 73
     0
 74
     0
 95
       15
 96
       11
 40
0.0
 40
0.0
 40
0.0
 40
0.0
 40
0.458245544397197
 40
0.6671803073175111
 40
0.9043351724393449
 40
1.065896092998139
 40
1.321406364485703
 40
1.474450037341961
 40
1.737022829061231
 40
1.824547148828933
 40
1.824547148828933
 40
1.824547148828933
 40
1.824547148828933
 10
522.8449819598945
 20
336.7187402891394
 10
522.9275938671219
 20
336.7191186957716
 10
523.047872260062
 20
336.7196696350139
 10
523.1136447691543
 20
336.5708849151147
 10
523.084162394535
 20
336.4750907656327
 10
523.0471006467864
 20
336.376740030993
 10
522.9816041445831
 20
336.3099092234653
 10
522.8936982451613
 20
336.2455398896982
 10
522.8106229693675
 20
336.2377476936132
 10
522.756591827978
 20
336.223431274393
 10
522.7430840361647
 20
336.2198521678746
 72
     1
 10
522.7430840361646
 20
336.2198521678746
 11
522.0392893949589
 21
336.2198521678747
 97
        4
330
3BA
330
3BC
330
3BB
330
3BD
 75
     0
 76
     1
 47
0.0514683685270805
 98
        2
 10
521.367117243994
 20
336.5324662238886
 10
521.367117243994
 20
336.5324662238886
450
        0
451
        0
460
0.0
461
0.0
452
        0
462
0.0
453
        0
470

  0
LINE
  5
3F4
102
{ACAD_REACTORS
330
3F7
102
}
330
18
100
AcDbEntity
  8
ROGO
 62
     4
100
AcDbLine
 10
529.7920953144751
 20
337.4441644480157
 30
0.0
 11
530.6254539007372
 21
335.5682431186479
 31
0.0
  0
LINE
  5
3F5
102
{ACAD_REACTORS
330
3F7
102
}
330
18
100
AcDbEntity
  8
ROGO
 62
     4
100
AcDbLine
 10
528.9688444199899
 20
336.9427230523704
 30
0.0
 11
529.2534263995976
 21
336.3021183783434
 31
0.0
  0
LINE
  5
3F6
102
{ACAD_REACTORS
330
3F7
102
}
330
18
100
AcDbEntity
  8
ROGO
 62
     4
100
AcDbLine
 10
529.4207765504555
 20
335.9254069330633
 30
0.0
 11
529.5794428691254
 21
335.5682431186479
 31
0.0
  0
HATCH
  5
3F7
330
18
100
AcDbEntity
  8
ROGO
 62
     4
100
AcDbHatch
 10
0.0
 20
0.0
 30
0.0
210
0.0
220
0.0
230
1.0
  2
SOLID
 70
     1
 71
     1
 91
        2
 92
        7
 72
     0
 73
     1
 93
        8
 10
529.7920953144751
 20
337.4441644480157
 10
528.291518910516
 20
337.4441644480157
 10
526.9387555818029
 20
335.5682431186479
 10
527.9776802270767
 20
335.5682431186479
 10
528.2352379950493
 20
335.9254069330633
 10
529.4207765504555
 20
335.9254069330633
 10
529.5794428691254
 20
335.5682431186479
 10
530.6254539007372
 20
335.568243118648
 97
        8
330
3D0
330
3CA
330
3CF
330
3CE
330
3CC
330
3F6
330
3D1
330
3F4
 92
       22
 72
     0
 73
     1
 93
        3
 10
529.2534263995976
 20
336.3021183783434
 10
528.5068919395424
 20
336.3021183783434
 10
528.9688444199899
 20
336.9427230523704
 97
        3
330
3CD
330
3CB
330
3F5
 75
     0
 76
     1
 47
0.0128389261915577
 98
        2
 10
529.6745883251956
 20
336.99410456686
 10
529.6745883251956
 20
336.99410456686
450
        0
451
        0
460
0.0
461
0.0
452
        0
462
0.0
453
        0
470

  0
SPLINE
  5
3F8
102
{ACAD_REACTORS
330
3FF
102
}
330
18
100
AcDbEntity
  8
ROGO
 62
     4
100
AcDbSpline
210
0.0
220
0.0
230
1.0
 70
     8
 71
     3
 72
    38
 73
    34
 74
    32
 42
0.0000000001
 43
0.0000000001
 44
0.0000000001
 40
0.0
 40
0.0
 40
0.0
 40
0.0
 40
0.2582400211805774
 40
0.3393418442955424
 40
0.443552172800835
 40
0.530394283206717
 40
0.6036667919818254
 40
0.7009894053152177
 40
0.7507174249931042
 40
0.8067242281503032
 40
0.8892677166883521
 40
0.9827715778106668
 40
1.043426616793024
 40
1.109318337455068
 40
1.182564491755753
 40
1.293719242428883
 40
1.399327847180614
 40
1.448424760475743
 40
1.50441322219426
 40
1.570741059842362
 40
1.617957956886697
 40
1.657539314700464
 40
1.714052551848318
 40
1.776150918813051
 40
1.838248940024221
 40
1.892584795022379
 40
2.017023561310864
 40
2.066120474605993
 40
2.164314359515976
 40
2.251113385583432
 40
2.417283613623161
 40
2.622320469312984
 40
2.918423525691272
 40
2.918423525691272
 40
2.918423525691272
 40
2.918423525691272
 10
534.7320970765405
 20
337.4519890468333
 30
0.0
 10
534.6460179370751
 20
337.4459081624034
 30
0.0
 10
534.5329051290449
 20
337.4379175398503
 30
0.0
 10
534.3892783111743
 20
337.3985680738434
 30
0.0
 10
534.31098580483
 20
337.3516901889034
 30
0.0
 10
534.2295068029482
 20
337.3172326964742
 30
0.0
 10
534.1600383652556
 20
337.266207983261
 30
0.0
 10
534.0897725071183
 20
337.2399154401276
 30
0.0
 10
534.0405702022959
 20
337.1925052853095
 30
0.0
 10
533.9836225478202
 20
337.1635451164882
 30
0.0
 10
533.938274119484
 20
337.0987238393248
 30
0.0
 10
533.8875874387245
 20
337.0381182940984
 30
0.0
 10
533.8287845124285
 20
336.9938789489877
 30
0.0
 10
533.7805241616293
 20
336.9474146933271
 30
0.0
 10
533.736252000309
 20
336.8757063859217
 30
0.0
 10
533.7100497537786
 20
336.7804272792279
 30
0.0
 10
533.6361900189082
 20
336.7202714873919
 30
0.0
 10
533.6250690553611
 20
336.6479462764261
 30
0.0
 10
533.5842149836528
 20
336.6052756190107
 30
0.0
 10
533.5664502044301
 20
336.5501939304609
 30
0.0
 10
533.559684521396
 20
336.4997293742882
 30
0.0
 10
533.5515640884783
 20
336.4525989722479
 30
0.0
 10
533.5303225738604
 20
336.4030198711937
 30
0.0
 10
533.5372558775195
 20
336.3417766155724
 30
0.0
 10
533.5352807874594
 20
336.2824727383917
 30
0.0
 10
533.5364431302783
 20
336.2024106575181
 30
0.0
 10
533.5322480740695
 20
336.1244603762046
 30
0.0
 10
533.5657020033769
 20
336.0396319816782
 30
0.0
 10
533.5854989285238
 20
335.9640192035832
 30
0.0
 10
533.6397160284432
 20
335.8593241432241
 30
0.0
 10
533.7332393896117
 20
335.7385286807827
 30
0.0
 10
533.9110818839223
 20
335.5919058760787
 30
0.0
 10
534.0820826418642
 20
335.577031675054
 30
0.0
 10
534.1831199886217
 20
335.5682431186478
 30
0.0
 11
534.7320970765405
 21
337.4519890468333
 31
0.0
 11
534.4757304523301
 21
337.4209396904742
 31
0.0
 11
534.3980436150042
 21
337.3976531918352
 31
0.0
 11
534.3048197764213
 21
337.35107950305
 31
0.0
 11
534.2271329390954
 21
337.3122683262314
 31
0.0
 11
534.1649837133735
 21
337.2734568036593
 31
0.0
 11
534.0795283754191
 21
337.2268834606276
 31
0.0
 11
534.0406846515825
 21
337.195834450022
 31
0.0
 11
533.9940724271175
 21
337.1647850936629
 31
0.0
 11
533.939691702024
 21
337.1026870724517
 31
0.0
 11
533.8775424763022
 21
337.0328268850275
 31
0.0
 11
533.830930251837
 21
336.9940153624554
 31
0.0
 11
533.7843186377194
 21
336.9474420194237
 31
0.0
 11
533.7454749138827
 21
336.8853439982125
 31
0.0
 11
533.6988632997651
 21
336.7844344544292
 31
0.0
 11
533.6367134636958
 21
336.6990495888255
 31
0.0
 11
533.621176462439
 21
336.6524759000403
 31
0.0
 11
533.5901018495781
 21
336.6059025570086
 31
0.0
 11
533.5667957373456
 21
336.543804190044
 31
0.0
 11
533.5590266263699
 21
336.4972308470123
 31
0.0
 11
533.5512581257415
 21
336.4584193244402
 31
0.0
 11
533.5357211244846
 21
336.4040838151955
 31
0.0
 11
533.5357211244846
 21
336.3419854482308
 31
0.0
 11
533.5357211244846
 21
336.2798874270196
 31
0.0
 11
533.5357211244846
 21
336.2255515720215
 31
0.0
 11
533.5434896251131
 21
336.1013555295991
 31
0.0
 11
533.5590266263699
 21
336.0547818408139
 31
0.0
 11
533.5901018495781
 21
335.9616348089971
 31
0.0
 11
533.6289449630675
 21
335.8840121096064
 31
0.0
 11
533.7299379126259
 21
335.752053900971
 31
0.0
 11
533.8930800879063
 21
335.6278575127951
 31
0.0
 11
534.1831199886217
 21
335.5682431186478
 31
0.0
  0
SPLINE
  5
3F9
102
{ACAD_REACTORS
330
3FF
102
}
330
18
100
AcDbEntity
  8
ROGO
 62
     4
100
AcDbSpline
210
0.0
220
0.0
230
1.0
 70
     8
 71
     3
 72
    25
 73
    21
 74
     0
 42
0.0000000001
 43
0.0000000001
 40
0.0
 40
0.0
 40
0.0
 40
0.0
 40
0.4087168505087288
 40
0.6887487002771746
 40
0.9415836120477687
 40
1.17452070575514
 40
1.41154617586699
 40
1.599156012919487
 40
1.80099909059943
 40
2.178735911501585
 40
2.521686161369157
 40
2.762704659361267
 40
3.06256558063785
 40
3.222432137207705
 40
3.399493810628493
 40
3.567459719866414
 40
3.743172740007509
 40
3.995988754699505
 40
4.17170091132118
 40
4.337226830236035
 40
4.337226830236035
 40
4.337226830236035
 40
4.337226830236035
 10
535.8041739668053
 20
337.4519890468333
 30
0.0
 10
535.874488324556
 20
337.4497299190389
 30
0.0
 10
535.9929784784397
 20
337.4459229526017
 30
0.0
 10
536.1201922764698
 20
337.3464905392081
 30
0.0
 10
536.2175325918403
 20
337.2640534501867
 30
0.0
 10
536.2866259559269
 20
337.1643908697093
 30
0.0
 10
536.3471882254161
 20
337.0727564358848
 30
0.0
 10
536.3870941693721
 20
336.9760115577904
 30
0.0
 10
536.4413741374789
 20
336.8599265641663
 30
0.0
 10
536.4638433626892
 20
336.7046220892648
 30
0.0
 10
536.4486627293512
 20
336.5441005849141
 30
0.0
 10
536.4090483643548
 20
336.4018130367663
 30
0.0
 10
536.3674960804977
 20
336.2926533722746
 30
0.0
 10
536.3185217677586
 20
336.1976231122881
 30
0.0
 10
536.2601381287527
 20
336.1360910115751
 30
0.0
 10
536.219633906554
 20
336.0578535453644
 30
0.0
 10
536.141830476958
 20
335.9938594984023
 30
0.0
 10
536.0787588200914
 20
335.9148998263251
 30
0.0
 10
536.0071856248919
 20
335.8471279001272
 30
0.0
 10
535.9668323401721
 20
335.8053134383819
 30
0.0
 10
535.9455571153238
 20
335.7877323756023
 30
0.0
  0
LINE
  5
3FA
102
{ACAD_REACTORS
330
3FF
102
}
330
18
100
AcDbEntity
  8
ROGO
 62
     4
100
AcDbLine
 10
534.7320970765405
 20
337.4519890468333
 30
0.0
 11
535.8041739668053
 21
337.4519890468333
 31
0.0
  0
LINE
  5
3FB
102
{ACAD_REACTORS
330
3FF
102
}
330
18
100
AcDbEntity
  8
ROGO
 62
     4
100
AcDbLine
 10
534.1831199886217
 20
335.5682431186478
 30
0.0
 11
535.2551968788865
 21
335.5682431186478
 31
0.0
  0
SPLINE
  5
3FC
102
{ACAD_REACTORS
330
3FF
102
}
330
18
100
AcDbEntity
  8
ROGO
 62
     4
100
AcDbSpline
210
0.0
220
0.0
230
1.0
 70
     8
 71
     3
 72
    11
 73
     7
 74
     0
 42
0.0000000001
 43
0.0000000001
 40
0.1647869275458134
 40
0.1647869275458134
 40
0.1647869275458134
 40
0.1647869275458134
 40
0.2895635144633836
 40
0.5387013147903714
 40
0.7953622617455423
 40
0.8850764140209602
 40
0.8850764140209602
 40
0.8850764140209602
 40
0.8850764140209602
 10
535.6123646769122
 20
335.6100666142316
 30
0.0
 10
535.5923953300539
 20
335.6045081389224
 30
0.0
 10
535.5304795994337
 20
335.5946115820882
 30
0.0
 10
535.4266242178077
 20
335.5810224472691
 30
0.0
 10
535.3279148719558
 20
335.5668416892911
 30
0.0
 10
535.2701567364865
 20
335.5679548105864
 30
0.0
 10
535.2551968788866
 20
335.5682431186478
 30
0.0
  0
SPLINE
  5
3FD
102
{ACAD_REACTORS
330
3FF
102
}
330
18
100
AcDbEntity
  8
ROGO
 62
     4
100
AcDbSpline
210
0.0
220
0.0
230
1.0
 70
     8
 71
     3
 72
     9
 73
     5
 74
     3
 42
0.0000000001
 43
0.0000000001
 44
0.0000000001
 40
0.0
 40
0.0
 40
0.0
 40
0.0
 40
0.1622561919360204
 40
0.3804197703110171
 40
0.3804197703110171
 40
0.3804197703110171
 40
0.3804197703110171
 10
535.6123646769122
 20
335.6100666142316
 30
0.0
 10
535.6644860602236
 20
335.6260128138361
 30
0.0
 10
535.7866878969056
 20
335.6633996741989
 30
0.0
 10
535.8876546072439
 20
335.7424172710196
 30
0.0
 10
535.9455571153238
 20
335.7877323756023
 30
0.0
 11
535.6123646769122
 21
335.6100666142316
 31
0.0
 11
535.7648657686618
 21
335.6654786060455
 31
0.0
 11
535.9455571153238
 21
335.7877323756023
 31
0.0
  0
ELLIPSE
  5
3FE
102
{ACAD_REACTORS
330
3FF
102
}
330
18
100
AcDbEntity
  8
ROGO
 62
     4
100
AcDbEllipse
 10
534.9784662117273
 20
336.4838519150919
 30
0.0
 11
0.2546924415247531
 21
0.2239701316915159
 31
0.0
210
0.0
220
0.0
230
1.0
 40
0.6788083417438792
 41
0.0
 42
6.283185307179586
  0
HATCH
  5
3FF
330
18
100
AcDbEntity
  8
ROGO
 62
     4
100
AcDbHatch
 10
0.0
 20
0.0
 30
0.0
210
0.0
220
0.0
230
1.0
  2
SOLID
 70
     1
 71
     1
 91
        2
 92
        5
 93
        6
 72
     4
 94
        3
 73
     0
 74
     0
 95
       25
 96
       21
 40
0.0
 40
0.0
 40
0.0
 40
0.0
 40
0.165525918914855
 40
0.3412380755365305
 40
0.5940540902285263
 40
0.7697671103696209
 40
0.9377330196075423
 40
1.11479469302833
 40
1.274661249598185
 40
1.574522170874768
 40
1.815540668866877
 40
2.15849091873445
 40
2.536227739636605
 40
2.738070817316548
 40
2.925680654369045
 40
3.162706124480894
 40
3.395643218188267
 40
3.648478129958861
 40
3.928509979727306
 40
4.337226830236035
 40
4.337226830236035
 40
4.337226830236035
 40
4.337226830236035
 10
535.9455571153238
 20
335.7877323756023
 10
535.9668323401721
 20
335.8053134383819
 10
536.0071856248919
 20
335.8471279001272
 10
536.0787588200914
 20
335.9148998263251
 10
536.141830476958
 20
335.9938594984023
 10
536.219633906554
 20
336.0578535453644
 10
536.2601381287527
 20
336.1360910115751
 10
536.3185217677586
 20
336.1976231122881
 10
536.3674960804977
 20
336.2926533722746
 10
536.4090483643548
 20
336.4018130367663
 10
536.4486627293512
 20
336.5441005849141
 10
536.4638433626892
 20
336.7046220892648
 10
536.4413741374789
 20
336.8599265641663
 10
536.3870941693721
 20
336.9760115577904
 10
536.3471882254161
 20
337.0727564358848
 10
536.2866259559269
 20
337.1643908697093
 10
536.2175325918403
 20
337.2640534501867
 10
536.1201922764698
 20
337.3464905392081
 10
535.9929784784397
 20
337.4459229526017
 10
535.874488324556
 20
337.4497299190389
 10
535.8041739668053
 20
337.4519890468333
 72
     1
 10
535.8041739668052
 20
337.4519890468333
 11
534.7320970765406
 21
337.4519890468333
 72
     4
 94
        3
 73
     0
 74
     0
 95
       38
 96
       34
 40
0.0
 40
0.0
 40
0.0
 40
0.0
 40
0.5164800423611548
 40
0.6786836885910848
 40
0.88710434560167
 40
1.060788566413433
 40
1.20733358396365
 40
1.401978810630435
 40
1.501434849986208
 40
1.613448456300606
 40
1.778535433376704
 40
1.965543155621333
 40
2.086853233586049
 40
2.218636674910137
 40
2.365128983511507
 40
2.587438484857767
 40
2.798655694361229
 40
2.896849520951487
 40
3.008826444388521
 40
3.141482119684725
 40
3.235915913773394
 40
3.315078629400928
 40
3.428105103696636
 40
3.552301837626102
 40
3.676497880048442
 40
3.785169590044758
 40
4.034047122621728
 40
4.132240949211986
 40
4.328628719031952
 40
4.502226771166864
 40
4.834567227246322
 40
5.244640938625969
 40
5.836847051382449
 40
5.836847051382449
 40
5.836847051382449
 40
5.836847051382449
 10
534.7320970765405
 20
337.4519890468333
 10
534.6460179370752
 20
337.4459081624035
 10
534.5329051290451
 20
337.4379175398504
 10
534.3892783111742
 20
337.3985680738433
 10
534.31098580483
 20
337.3516901889035
 10
534.2295068029483
 20
337.3172326964742
 10
534.1600383652554
 20
337.266207983261
 10
534.0897725071185
 20
337.2399154401275
 10
534.0405702022958
 20
337.1925052853095
 10
533.9836225478202
 20
337.1635451164882
 10
533.9382741194842
 20
337.0987238393248
 10
533.8875874387245
 20
337.0381182940984
 10
533.8287845124285
 20
336.9938789489877
 10
533.7805241616293
 20
336.9474146933271
 10
533.7362520003089
 20
336.8757063859216
 10
533.7100497537788
 20
336.7804272792278
 10
533.6361900189083
 20
336.7202714873919
 10
533.625069055361
 20
336.647946276426
 10
533.5842149836529
 20
336.6052756190108
 10
533.5664502044301
 20
336.5501939304607
 10
533.559684521396
 20
336.4997293742883
 10
533.5515640884783
 20
336.4525989722479
 10
533.5303225738605
 20
336.4030198711938
 10
533.5372558775195
 20
336.3417766155724
 10
533.5352807874594
 20
336.2824727383917
 10
533.5364431302783
 20
336.2024106575181
 10
533.5322480740696
 20
336.1244603762046
 10
533.5657020033769
 20
336.0396319816783
 10
533.5854989285238
 20
335.9640192035832
 10
533.6397160284433
 20
335.8593241432241
 10
533.7332393896118
 20
335.7385286807827
 10
533.9110818839223
 20
335.5919058760787
 10
534.0820826418642
 20
335.5770316750541
 10
534.1831199886217
 20
335.5682431186478
 72
     1
 10
534.1831199886216
 20
335.5682431186478
 11
535.2551968788868
 21
335.5682431186478
 72
     4
 94
        3
 73
     0
 74
     0
 95
       11
 96
        7
 40
0.1647869275458135
 40
0.1647869275458135
 40
0.1647869275458135
 40
0.1647869275458135
 40
0.2545010798212315
 40
0.5111620267764023
 40
0.7602998271033902
 40
0.8850764140209603
 40
0.8850764140209603
 40
0.8850764140209603
 40
0.8850764140209603
 10
535.2551968788866
 20
335.5682431186478
 10
535.2701567364865
 20
335.5679548105864
 10
535.3279148719558
 20
335.5668416892911
 10
535.4266242178077
 20
335.5810224472691
 10
535.5304795994337
 20
335.5946115820882
 10
535.5923953300539
 20
335.6045081389224
 10
535.6123646769122
 20
335.6100666142316
 72
     4
 94
        3
 73
     0
 74
     0
 95
        9
 96
        5
 40
0.0
 40
0.0
 40
0.0
 40
0.0
 40
0.324512383872031
 40
0.7608395406220559
 40
0.7608395406220559
 40
0.7608395406220559
 40
0.7608395406220559
 10
535.6123646769122
 20
335.6100666142316
 10
535.6644860602237
 20
335.6260128138362
 10
535.7866878969057
 20
335.663399674199
 10
535.887654607244
 20
335.7424172710196
 10
535.9455571153238
 20
335.7877323756023
 97
        6
330
3F9
330
3FA
330
3F8
330
3FB
330
3FC
330
3FD
 92
       20
 93
        1
 72
     3
 10
534.9784662117273
 20
336.4838519150919
 11
0.2546924415247531
 21
0.2239701316915159
 40
0.6788083417438792
 50
0.0
 51
360.0
 73
     1
 97
        1
330
3FE
 75
     0
 76
     1
 47
0.088756267210375
 98
        2
 10
535.0533680342539
 20
336.9316908726976
 10
535.0533680342539
 20
336.9316908726976
450
        0
451
        0
460
0.0
461
0.0
452
        0
462
0.0
453
        0
470

  0
DIMENSION
  5
40C
330
18
100
AcDbEntity
  8
文字
100
AcDbDimension
  2
*D4
 10
606.7873128760358
 20
321.7320748196298
 30
0.0
 11
604.9123128760357
 21
336.7320748196298
 31
0.0
 70
    32
 71
     5
 42
-1.0
  3
STYLE3
100
AcDbAlignedDimension
 13
585.4270083855407
 23
351.7320748196298
 33
0.0
 14
585.4270083855407
 24
321.7320748196298
 34
0.0
 50
90.0
100
AcDbRotatedDimension
1001
ACAD
1000
DSTYLE
1002
{
1070
   271
1070
     2
1002
}
  0
CIRCLE
  5
417
330
18
100
AcDbEntity
  8
外形線
100
AcDbCircle
 10
450.4270083855407
 20
336.7320748196298
 30
0.0
 40
10.0
  0
CIRCLE
  5
418
330
18
100
AcDbEntity
  8
外形線
100
AcDbCircle
 10
450.4270083855407
 20
336.7320748196298
 30
0.0
 40
9.0
  0
CIRCLE
  5
42F
330
18
100
AcDbEntity
  8
隠れ線
 62
     4
 48
0.5
100
AcDbCircle
 10
458.8186152502195
 20
328.1255066709284
 30
0.0
 40
1.5
  0
LINE
  5
522
330
18
100
AcDbEntity
  8
中心線
 48
0.5
100
AcDbLine
 10
434.8664343210111
 20
384.7320748196298
 30
0.0
 11
497.0303229997588
 21
384.7320748196298
 31
0.0
  0
TEXT
  5
524
330
18
100
AcDbEntity
  8
文字
100
AcDbText
 10
471.0816522952867
 20
384.2409804416238
 30
0.0
 40
1.0
  1
0.1mm
  7
STYLE3
100
AcDbText
  0
HATCH
  5
525
330
18
100
AcDbEntity
  8
ROGO
 62
     4
100
AcDbHatch
 10
0.0
 20
0.0
 30
0.0
210
0.0
220
0.0
230
1.0
  2
SOLID
 70
     1
 71
     1
 91
        1
 92
        7
 72
     0
 73
     1
 93
       11
 10
470.8774752551258
 20
392.0451626758303
 10
471.63355899763
 20
392.0451626758303
 10
471.9006082867956
 20
392.5807262379497
 10
472.1676575759614
 20
392.0451626758303
 10
472.9237247759613
 20
392.0451626758303
 10
472.4121582601265
 20
393.0711020682833
 10
473.6550670054576
 20
394.0970414607363
 10
472.8989998054577
 20
394.0970414607363
 10
472.5449867223788
 20
393.8730180519146
 10
472.6566920292999
 20
394.0970414607363
 10
471.9006082867957
 20
394.0970414607363
 97
       11
330
5FA
330
5FD
330
5FE
330
527
330
5B9
330
581
330
5B8
330
526
330
5F9
330
5FC
330
5FB
 75
     0
 76
     1
 47
0.0514683685270805
 98
        1
 10
471.8355370403918
 20
393.2167454772947
450
        0
451
        0
460
0.0
461
0.0
452
        0
462
0.0
453
        0
470

  0
LINE
  5
526
102
{ACAD_REACTORS
330
525
102
}
330
18
100
AcDbEntity
  8
ROGO
 62
     4
100
AcDbLine
 10
471.9006082867957
 20
392.5807262379498
 30
0.0
 11
472.1676575759614
 21
392.0451626758303
 31
0.0
  0
LINE
  5
527
102
{ACAD_REACTORS
330
525
102
}
330
18
100
AcDbEntity
  8
ROGO
 62
     4
100
AcDbLine
 10
471.9006082867957
 20
394.0970414607363
 30
0.0
 11
472.6566920292999
 21
394.0970414607363
 31
0.0
  0
LINE
  5
528
330
18
100
AcDbEntity
  8
目盛
100
AcDbLine
 10
472.5343992561646
 20
406.6063746944181
 30
0.0
 11
471.6073482730398
 21
403.7532051455327
 31
0.0
  0
LINE
  5
529
330
18
100
AcDbEntity
  8
目盛
100
AcDbLine
 10
472.5343992561645
 20
362.8577749448413
 30
0.0
 11
471.6073482730398
 21
365.7109444937267
 31
0.0
  0
CIRCLE
  5
52A
330
18
100
AcDbEntity
  8
外形線
100
AcDbCircle
 10
465.4270083855407
 20
384.7320748196298
 30
0.0
 40
23.0
  0
CIRCLE
  5
52B
330
18
100
AcDbEntity
  8
外形線
100
AcDbCircle
 10
465.4270083855407
 20
384.7320748196298
 30
0.0
 40
15.5
  0
LINE
  5
52C
330
18
100
AcDbEntity
  8
中心線
 48
0.2
100
AcDbLine
 10
462.2270083855407
 20
382.5213108268376
 30
0.0
 11
462.2270083855407
 21
366.831716804802
 31
0.0
  0
LINE
  5
52D
330
18
100
AcDbEntity
  8
目盛
100
AcDbLine
 10
451.9079475828138
 20
366.1246839490059
 30
0.0
 11
453.6713033396913
 21
368.5517349321307
 31
0.0
  0
LINE
  5
52E
330
18
100
AcDbEntity
  8
目盛
100
AcDbLine
 10
450.7662566213209
 20
367.0102702357866
 30
0.0
 11
452.0411046008182
 21
368.5512967213381
 31
0.0
  0
LINE
  5
52F
330
18
100
AcDbEntity
  8
目盛
100
AcDbLine
 10
449.6824249491808
 20
367.9657963889372
 30
0.0
 11
451.0515191610382
 21
369.42373364378
 31
0.0
  0
LINE
  5
530
330
18
100
AcDbEntity
  8
目盛
100
AcDbLine
 10
453.1029921010237
 20
365.3125325330834
 30
0.0
 11
454.1746456909818
 21
367.0011883840874
 31
0.0
  0
LINE
  5
531
330
18
100
AcDbEntity
  8
目盛
100
AcDbLine
 10
458.3196175149169
 20
362.8577749448412
 30
0.0
 11
459.2466684980418
 21
365.7109444937267
 31
0.0
  0
LINE
  5
532
330
18
100
AcDbEntity
  8
目盛
100
AcDbLine
 10
456.9601436737932
 20
363.3472156442
 30
0.0
 11
457.6963927791624
 21
365.2067686159764
 31
0.0
  0
LINE
  5
533
330
18
100
AcDbEntity
  8
目盛
100
AcDbLine
 10
455.6340846795442
 20
363.9210526129113
 30
0.0
 11
456.4856432626743
 21
365.7307067178434
 31
0.0
  0
LINE
  5
534
330
18
100
AcDbEntity
  8
目盛
100
AcDbLine
 10
454.3466738812013
 20
364.5770211786209
 30
0.0
 11
455.3101812294047
 21
366.3296345387086
 31
0.0
  0
TEXT
  5
535
330
18
100
AcDbEntity
  8
文字
100
AcDbText
 10
464.2963419694956
 20
365.3313151367174
 30
0.0
 40
2.0
  1
5
  7
STYLE3
100
AcDbText
  0
LINE
  5
536
330
18
100
AcDbEntity
  8
目盛
100
AcDbLine
 10
465.4270083855407
 20
364.7320748196297
 30
0.0
 11
465.4270083855407
 21
361.7320748196298
 31
0.0
  0
LINE
  5
537
330
18
100
AcDbEntity
  8
目盛
100
AcDbLine
 10
463.9828264363665
 20
361.7774600657795
 30
0.0
 11
464.1084074754251
 21
363.773513522636
 31
0.0
  0
LINE
  5
538
330
18
100
AcDbEntity
  8
目盛
100
AcDbLine
 10
462.5443440135618
 20
361.9134366893967
 30
0.0
 11
462.7950104806904
 21
363.8976660920257
 31
0.0
  0
LINE
  5
539
330
18
100
AcDbEntity
  8
目盛
100
AcDbLine
 10
461.1172381500691
 20
362.1394680528699
 30
0.0
 11
461.4920007792406
 21
364.1040425543273
 31
0.0
  0
LINE
  5
53A
330
18
100
AcDbEntity
  8
目盛
100
AcDbLine
 10
459.7071409807492
 20
362.4546621136712
 30
0.0
 11
460.2045207550788
 21
364.3918284359285
 31
0.0
  0
LINE
  5
53B
330
18
100
AcDbEntity
  8
目盛
100
AcDbLine
 10
471.1468757903323
 20
362.4546621136712
 30
0.0
 11
470.6494960160027
 21
364.3918284359285
 31
0.0
  0
LINE
  5
53C
330
18
100
AcDbEntity
  8
目盛
100
AcDbLine
 10
469.7367786210124
 20
362.13946805287
 30
0.0
 11
469.362015991841
 21
364.1040425543274
 31
0.0
  0
LINE
  5
53D
330
18
100
AcDbEntity
  8
目盛
100
AcDbLine
 10
468.3096727575197
 20
361.9134366893967
 30
0.0
 11
468.059006290391
 21
363.8976660920258
 31
0.0
  0
LINE
  5
53E
330
18
100
AcDbEntity
  8
目盛
100
AcDbLine
 10
466.871190334715
 20
361.7774600657795
 30
0.0
 11
466.7456092956562
 21
363.773513522636
 31
0.0
  0
LINE
  5
53F
330
18
100
AcDbEntity
  8
外形線
  6
Continuous
100
AcDbLine
 10
461.7270083855408
 20
412.7320748196296
 30
0.0
 11
461.7270083855408
 21
410.8715086314015
 31
0.0
  0
LINE
  5
540
330
18
100
AcDbEntity
  8
外形線
  6
Continuous
100
AcDbLine
 10
469.1270083855407
 20
412.7320748196296
 30
0.0
 11
469.1270083855407
 21
410.8715086314015
 31
0.0
  0
TEXT
  5
541
330
18
100
AcDbEntity
  8
文字
100
AcDbText
 10
447.0040313006724
 20
389.7991003915792
 30
0.0
 40
2.0
  1
8
  7
STYLE3
100
AcDbText
  0
TEXT
  5
542
330
18
100
AcDbEntity
  8
文字
100
AcDbText
 10
446.8983489458307
 20
377.6496487196353
 30
0.0
 40
2.0
  1
7
  7
STYLE3
100
AcDbText
  0
LINE
  5
543
330
18
100
AcDbEntity
  8
目盛
100
AcDbLine
 10
446.8196175149169
 20
371.2130140169028
 30
0.0
 11
449.2466684980417
 21
372.9763697737803
 31
0.0
  0
LINE
  5
544
330
18
100
AcDbEntity
  8
目盛
100
AcDbLine
 10
446.0074660989944
 20
372.4080585351128
 30
0.0
 11
447.6961219499984
 21
373.4797121250708
 31
0.0
  0
LINE
  5
545
330
18
100
AcDbEntity
  8
目盛
100
AcDbLine
 10
446.0074660989944
 20
397.0560911041467
 30
0.0
 11
447.6961219499984
 21
395.9844375141887
 31
0.0
  0
LINE
  5
546
330
18
100
AcDbEntity
  8
目盛
100
AcDbLine
 10
446.8196175149168
 20
398.2511356223566
 30
0.0
 11
449.2466684980417
 21
396.4877798654792
 31
0.0
  0
LINE
  5
547
330
18
100
AcDbEntity
  8
目盛
100
AcDbLine
 10
443.1495956795822
 20
379.0122074148381
 30
0.0
 11
445.0867620018395
 21
379.5095871891678
 31
0.0
  0
LINE
  5
548
330
18
100
AcDbEntity
  8
目盛
100
AcDbLine
 10
445.2719547445319
 20
373.6517403152903
 30
0.0
 11
447.0245681046196
 21
374.6152476634937
 31
0.0
  0
LINE
  5
549
330
18
100
AcDbEntity
  8
目盛
100
AcDbLine
 10
444.6159861788223
 20
374.9391511136331
 30
0.0
 11
446.4256402837542
 21
375.7907096967632
 31
0.0
  0
LINE
  5
54A
330
18
100
AcDbEntity
  8
目盛
100
AcDbLine
 10
444.0421492101109
 20
376.2652101078821
 30
0.0
 11
445.9017021818874
 21
377.0014592132515
 31
0.0
  0
LINE
  5
54B
330
18
100
AcDbEntity
  8
目盛
100
AcDbLine
 10
443.5527085107523
 20
377.624683949006
 30
0.0
 11
446.4058780596375
 21
378.5517349321308
 31
0.0
  0
LINE
  5
54C
330
18
100
AcDbEntity
  8
目盛
100
AcDbLine
 10
442.4270083855407
 20
384.7320748196298
 30
0.0
 11
445.4270083855408
 21
384.7320748196298
 31
0.0
  0
LINE
  5
54D
330
18
100
AcDbEntity
  8
目盛
100
AcDbLine
 10
442.8344016187808
 20
380.4223045841581
 30
0.0
 11
444.7989761202381
 21
380.7970672133296
 31
0.0
  0
LINE
  5
54E
330
18
100
AcDbEntity
  8
目盛
100
AcDbLine
 10
442.6083702553078
 20
381.8494104476508
 30
0.0
 11
444.5925996579368
 21
382.1000769147794
 31
0.0
  0
LINE
  5
54F
330
18
100
AcDbEntity
  8
目盛
100
AcDbLine
 10
442.4723936316904
 20
383.2878928704555
 30
0.0
 11
444.4684470885469
 21
383.4134739095142
 31
0.0
  0
LINE
  5
550
330
18
100
AcDbEntity
  8
目盛
100
AcDbLine
 10
442.4723936316904
 20
386.176256768804
 30
0.0
 11
444.4684470885469
 21
386.0506757297454
 31
0.0
  0
LINE
  5
551
330
18
100
AcDbEntity
  8
目盛
100
AcDbLine
 10
442.6083702553078
 20
387.6147391916088
 30
0.0
 11
444.5925996579366
 21
387.3640727244802
 31
0.0
  0
LINE
  5
552
330
18
100
AcDbEntity
  8
目盛
100
AcDbLine
 10
442.8344016187808
 20
389.0418450551014
 30
0.0
 11
444.7989761202382
 21
388.6670824259299
 31
0.0
  0
LINE
  5
553
330
18
100
AcDbEntity
  8
目盛
100
AcDbLine
 10
443.1495956795822
 20
390.4519422244214
 30
0.0
 11
445.0867620018395
 21
389.9545624500917
 31
0.0
  0
LINE
  5
554
330
18
100
AcDbEntity
  8
目盛
100
AcDbLine
 10
443.5527085107521
 20
391.8394656902536
 30
0.0
 11
446.4058780596375
 21
390.9124147071287
 31
0.0
  0
LINE
  5
555
330
18
100
AcDbEntity
  8
目盛
100
AcDbLine
 10
444.0421492101108
 20
393.1989395313773
 30
0.0
 11
445.9017021818874
 21
392.462690426008
 31
0.0
  0
LINE
  5
556
330
18
100
AcDbEntity
  8
目盛
100
AcDbLine
 10
444.6159861788223
 20
394.5249985256264
 30
0.0
 11
446.4256402837542
 21
393.6734399424963
 31
0.0
  0
LINE
  5
557
330
18
100
AcDbEntity
  8
目盛
100
AcDbLine
 10
445.2719547445319
 20
395.8124093239693
 30
0.0
 11
447.0245681046196
 21
394.8489019757658
 31
0.0
  0
HATCH
  5
558
330
18
100
AcDbEntity
  8
針
  6
Continuous
100
AcDbHatch
 10
0.0
 20
0.0
 30
0.0
210
0.0
220
0.0
230
1.0
  2
SOLID
 70
     1
 71
     0
 91
        1
 92
        1
 93
        3
 72
     1
 10
465.4270083855407
 20
407.7320748196298
 11
465.9270083855408
 21
386.1462883820029
 72
     2
 10
465.4270083855407
 20
384.7320748196298
 40
1.5
 50
70.52877936551252
 51
109.4712206344913
 73
     1
 72
     1
 10
464.9270083855407
 20
386.1462883820029
 11
465.4270083855407
 21
407.7320748196288
 97
        0
 75
     0
 76
     1
 98
        1
 10
237.8745876360746
 20
398.9876700498624
450
        0
451
        0
460
0.0
461
0.0
452
        0
462
0.0
453
        0
470

  0
LINE
  5
559
330
18
100
AcDbEntity
  8
針
  6
Continuous
100
AcDbLine
 10
465.4270083855407
 20
407.7320748196288
 30
0.0
 11
464.9270083855407
 21
386.1462883820029
 31
0.0
  0
LINE
  5
55A
330
18
100
AcDbEntity
  8
針
  6
Continuous
100
AcDbLine
 10
465.4270083855407
 20
407.7320748196298
 30
0.0
 11
465.9270083855407
 21
386.1462883820029
 31
0.0
  0
LINE
  5
55B
330
18
100
AcDbEntity
  8
目盛
100
AcDbLine
 10
459.4350284371514
 20
370.8152726848348
 30
0.0
 11
459.7289210632975
 21
371.2197811820223
 31
0.0
  0
LINE
  5
55C
330
18
100
AcDbEntity
  8
目盛
100
AcDbLine
 10
459.4350284371514
 20
378.5009341313968
 30
0.0
 11
459.7289210632977
 21
378.0964256342094
 31
0.0
  0
LINE
  5
55D
330
18
100
AcDbEntity
  8
中心線
 48
0.2
100
AcDbLine
 10
455.2677331986109
 20
374.6581034081158
 30
0.0
 11
469.7957206465911
 21
374.6581034081158
 31
0.0
  0
CIRCLE
  5
55E
330
18
100
AcDbEntity
  8
外形線
100
AcDbCircle
 10
462.2270083855407
 20
374.6581034081158
 30
0.0
 40
4.75
  0
TEXT
  5
55F
330
18
100
AcDbEntity
  8
文字
100
AcDbText
 10
453.2772054123766
 20
369.0146199056103
 30
0.0
 40
2.0
  1
6
  7
STYLE3
100
AcDbText
  0
LINE
  5
560
330
18
100
AcDbEntity
  8
目盛
100
AcDbLine
 10
448.6607299548484
 20
368.9874913832698
 30
0.0
 11
450.1186672096912
 21
370.3565855951272
 31
0.0
  0
LINE
  5
561
330
18
100
AcDbEntity
  8
目盛
100
AcDbLine
 10
447.7052038016975
 20
370.0713230554099
 30
0.0
 11
449.2462302872491
 21
371.3461710349073
 31
0.0
  0
TEXT
  5
562
330
18
100
AcDbEntity
  8
文字
100
AcDbText
 10
458.3990057206174
 20
375.3727697156618
 30
0.0
 40
0.7
  1
20
  7
STYLE3
100
AcDbText
  0
TEXT
  5
563
330
18
100
AcDbEntity
  8
文字
100
AcDbText
 10
458.3697627165839
 20
373.1511240004249
 30
0.0
 40
0.7
  1
30
  7
STYLE3
100
AcDbText
  0
LINE
  5
564
330
18
100
AcDbEntity
  8
目盛
100
AcDbLine
 10
457.7094899331386
 20
373.1902726848348
 30
0.0
 11
458.1850181912862
 21
373.3447811820223
 31
0.0
  0
LINE
  5
565
330
18
100
AcDbEntity
  8
目盛
100
AcDbLine
 10
457.7094899331386
 20
376.1259341313968
 30
0.0
 11
458.1850181912863
 21
375.9714256342093
 31
0.0
  0
HATCH
  5
566
330
18
100
AcDbEntity
  8
針
100
AcDbHatch
 10
0.0
 20
0.0
 30
0.0
210
0.0
220
0.0
230
1.0
  2
SOLID
 70
     1
 71
     0
 91
        3
 92
        7
 72
     1
 73
     1
 93
        5
 10
462.4270083855407
 20
379.4038910139827
 42
0.0105298176880202
 10
462.2270083855407
 20
379.4081034081159
 42
0.0
 10
462.2270083855407
 20
378.9081034081158
 42
0.0
 10
462.2270083855407
 20
375.8081034081158
 42
-0.0437283108272093
 10
462.4270083855407
 20
375.7905785734064
 42
0.0
 97
        0
 92
        7
 72
     1
 73
     1
 93
        4
 10
462.2270083855408
 20
379.4081034081159
 42
0.0105298176880232
 10
462.0270083855407
 20
379.4038910139827
 42
0.0
 10
462.0270083855407
 20
375.7905785734064
 42
-0.0437283108272093
 10
462.2270083855407
 20
375.8081034081158
 42
0.0
 97
        0
 92
      137
 93
        4
 72
     1
 10
461.6334890892675
 20
377.4358773365907
 11
462.8001557559342
 21
377.4358773365907
 72
     1
 10
462.8001557559342
 20
377.4358773365907
 11
462.8001557559342
 21
378.9358773365907
 72
     1
 10
462.8001557559342
 20
378.9358773365907
 11
461.6334890892675
 21
378.9358773365907
 72
     1
 10
461.6334890892675
 20
378.9358773365907
 11
461.6334890892675
 21
377.4358773365907
 97
        0
 75
     0
 76
     1
 47
0.0128177587452554
 98
        3
 10
462.375710940472
 20
376.3418826572632
 10
462.2987408584534
 20
377.5467523450113
 10
462.1191437327063
 20
377.495481178311
450
        0
451
        0
460
0.0
461
0.0
452
        0
462
0.0
453
        0
470

  0
LINE
  5
567
330
18
100
AcDbEntity
  8
針
 48
0.2
100
AcDbLine
 10
462.0270083855407
 20
379.4038910139827
 30
0.0
 11
462.0270083855407
 21
375.7905785734064
 31
0.0
  0
LINE
  5
568
330
18
100
AcDbEntity
  8
針
 48
0.2
100
AcDbLine
 10
462.4270083855407
 20
379.4038910139827
 30
0.0
 11
462.4270083855407
 21
375.7905785734064
 31
0.0
  0
LINE
  5
569
330
18
100
AcDbEntity
  8
目盛
100
AcDbLine
 10
462.2270083855407
 20
379.4081034081159
 30
0.0
 11
462.2270083855407
 21
378.9081034081158
 31
0.0
  0
TEXT
  5
56A
330
18
100
AcDbEntity
  8
文字
100
AcDbText
 10
464.8284257577175
 20
373.0396025168955
 30
0.0
 40
0.7
  1
70
  7
STYLE3
100
AcDbText
  0
TEXT
  5
56B
330
18
100
AcDbEntity
  8
文字
100
AcDbText
 10
464.7443069063614
 20
375.2196414824555
 30
0.0
 40
0.7
  1
80
  7
STYLE3
100
AcDbText
  0
TEXT
  5
56C
330
18
100
AcDbEntity
  8
文字
100
AcDbText
 10
459.6974427717452
 20
377.1543396255452
 30
0.0
 40
0.7
  1
10
  7
STYLE3
100
AcDbText
  0
TEXT
  5
56D
330
18
100
AcDbEntity
  8
文字
100
AcDbText
 10
459.6674104891339
 20
371.3541350409172
 30
0.0
 40
0.7
  1
40
  7
STYLE3
100
AcDbText
  0
TEXT
  5
56E
330
18
100
AcDbEntity
  8
文字
100
AcDbText
 10
461.5647512585701
 20
370.7558087940249
 30
0.0
 40
0.7
  1
50
  7
STYLE3
100
AcDbText
  0
TEXT
  5
56F
330
18
100
AcDbEntity
  8
文字
100
AcDbText
 10
463.6359101401046
 20
371.4354827776063
 30
0.0
 40
0.7
  1
60
  7
STYLE3
100
AcDbText
  0
TEXT
  5
570
330
18
100
AcDbEntity
  8
文字
100
AcDbText
 10
463.638596075903
 20
377.1037337137713
 30
0.0
 40
0.7
  1
90
  7
STYLE3
100
AcDbText
  0
TEXT
  5
571
330
18
100
AcDbEntity
  8
文字
100
AcDbText
 10
461.8929841559164
 20
377.7064754328687
 30
0.0
 40
0.7
  1
0
  7
STYLE3
100
AcDbText
  0
CIRCLE
  5
572
330
18
100
AcDbEntity
  8
外形線
100
AcDbCircle
 10
462.2270083855407
 20
374.6581034081158
 30
0.0
 40
1.149999999999999
  0
LINE
  5
573
330
18
100
AcDbEntity
  8
目盛
100
AcDbLine
 10
465.0189883339299
 20
378.5009341313968
 30
0.0
 11
464.7250957077837
 21
378.0964256342094
 31
0.0
  0
LINE
  5
574
330
18
100
AcDbEntity
  8
目盛
100
AcDbLine
 10
465.01898833393
 20
370.8152726848348
 30
0.0
 11
464.7250957077837
 21
371.2197811820224
 31
0.0
  0
LINE
  5
575
330
18
100
AcDbEntity
  8
目盛
100
AcDbLine
 10
462.2270083855407
 20
369.9081034081158
 30
0.0
 11
462.2270083855407
 21
370.4081034081158
 31
0.0
  0
LINE
  5
576
330
18
100
AcDbEntity
  8
目盛
100
AcDbLine
 10
466.7445268379426
 20
376.1259341313968
 30
0.0
 11
466.2689985797951
 21
375.9714256342093
 31
0.0
  0
LINE
  5
577
330
18
100
AcDbEntity
  8
目盛
100
AcDbLine
 10
466.7445268379426
 20
373.1902726848348
 30
0.0
 11
466.2689985797951
 21
373.3447811820223
 31
0.0
  0
CIRCLE
  5
578
330
18
100
AcDbEntity
  8
外形線
100
AcDbCircle
 10
465.4270083855407
 20
384.7320748196298
 30
0.0
 40
1.5
  0
POINT
  5
579
330
18
100
AcDbEntity
  8
DEFPOINTS
  6
ByBlock
 62
     0
100
AcDbPoint
 10
465.4270083855407
 20
384.7320748196298
 30
0.0
  0
POINT
  5
57A
330
18
100
AcDbEntity
  8
DEFPOINTS
  6
ByBlock
 62
     0
100
AcDbPoint
 10
465.4270083855407
 20
384.7320748196298
 30
0.0
  0
HATCH
  5
57B
330
18
100
AcDbEntity
  8
ROGO
 62
     4
100
AcDbHatch
 10
0.0
 20
0.0
 30
0.0
210
0.0
220
0.0
230
1.0
  2
SOLID
 70
     1
 71
     1
 91
        2
 92
        5
 93
        6
 72
     1
 10
457.7443817306062
 20
392.0451626758303
 11
458.6981826865428
 21
392.0451626758302
 72
     1
 10
458.6981826865428
 20
392.0451626758302
 11
459.0324068373712
 21
392.7838965301788
 72
     1
 10
459.0324068373712
 20
392.7838965301788
 11
459.9240151055437
 21
392.7838965301788
 72
     4
 94
        3
 73
     0
 74
     0
 95
       18
 96
       14
 40
0.108740278791501
 40
0.108740278791501
 40
0.108740278791501
 40
0.108740278791501
 40
0.6623149649549278
 40
1.384304701649787
 40
2.097394834876493
 40
2.774073369849618
 40
3.428974823686337
 40
4.005208313035923
 40
4.455173659284313
 40
4.720999734343524
 40
5.086034088486724
 40
5.569973738255373
 40
6.060470601257719
 40
6.060470601257719
 40
6.060470601257719
 40
6.060470601257719
 10
459.9240151055433
 20
392.7838965301788
 10
459.986765022438
 20
392.7843638098099
 10
460.1313553794916
 20
392.7854405304185
 10
460.3336361575989
 20
392.8935033669139
 10
460.5254561306919
 20
393.0311675472556
 10
460.6799540697733
 20
393.2031645780575
 10
460.7762109406494
 20
393.3998137155782
 10
460.7911208256965
 20
393.5882838511499
 10
460.7820187071856
 20
393.7373613853063
 10
460.7169794986425
 20
393.8412721276092
 10
460.6493633047178
 20
393.9467309047819
 10
460.5253780691706
 20
394.0380832145733
 10
460.4237901213202
 20
394.0781091058886
 10
460.3721305836841
 20
394.0970414607363
 72
     1
 10
460.3721305836842
 20
394.0970414607363
 11
458.7596322706989
 21
394.0970414607363
 72
     1
 10
458.7596322706989
 20
394.0970414607363
 11
457.7443817306062
 21
392.0451626758303
 97
        6
330
5AE
330
582
330
589
330
581
330
587
330
580
 92
       20
 93
        4
 72
     1
 10
459.2387713296814
 20
393.2400228646375
 11
459.3967691260387
 21
393.5892445495229
 72
     1
 10
459.3967691260387
 20
393.5892445495229
 11
459.8027561251361
 21
393.5892445495229
 72
     4
 94
        3
 73
     0
 74
     0
 95
       15
 96
       11
 40
0.0
 40
0.0
 40
0.0
 40
0.0
 40
0.4399157226213117
 40
0.6404930950247764
 40
0.8681617655417579
 40
1.023260249278236
 40
1.268550109906271
 40
1.415472035848321
 40
1.667541915898791
 40
1.751565262875804
 40
1.751565262875804
 40
1.751565262875804
 40
1.751565262875804
 10
459.8027561251362
 20
393.5892445495229
 10
459.8605844601954
 20
393.5895094341653
 10
459.9447793352535
 20
393.589895091635
 10
459.9908200916181
 20
393.4857457877055
 10
459.9701824293846
 20
393.4186898830681
 10
459.9442392059605
 20
393.3498443688204
 10
459.8983916544182
 20
393.303062803551
 10
459.836857524823
 20
393.2580042699139
 10
459.7787048317672
 20
393.2525497326545
 10
459.7408830327947
 20
393.2425282392003
 10
459.7314275785254
 20
393.2400228646375
 72
     1
 10
459.7314275785252
 20
393.2400228646375
 11
459.2387713296814
 21
393.2400228646375
 97
        4
330
588
330
57F
330
5AD
330
57E
 75
     0
 76
     1
 47
0.0514683685270805
 98
        2
 10
458.7682508240058
 20
393.4588527038473
 10
458.7682508240058
 20
393.4588527038473
450
        0
451
        0
460
0.0
461
0.0
452
        0
462
0.0
453
        0
470

  0
HATCH
  5
57C
330
18
100
AcDbEntity
  8
ROGO
 62
     4
100
AcDbHatch
 10
0.0
 20
0.0
 30
0.0
210
0.0
220
0.0
230
1.0
  2
SOLID
 70
     1
 71
     1
 91
        1
 92
        7
 72
     0
 73
     1
 93
        4
 10
458.7912337219647
 20
392.2508328821215
 10
458.6981826865428
 20
392.0451626758303
 10
470.8774752551258
 20
392.0451626758302
 10
470.9800290625119
 20
392.2508328821215
 97
        4
330
57D
330
587
330
581
330
5B9
 75
     0
 76
     1
 47
0.0514683685270805
 98
        1
 10
466.487468982853
 20
392.1964364179168
450
        0
451
        0
460
0.0
461
0.0
452
        0
462
0.0
453
        0
470

  0
LINE
  5
57D
102
{ACAD_REACTORS
330
57C
102
}
330
18
100
AcDbEntity
  8
ROGO
 62
     4
100
AcDbLine
 10
458.776970275048
 20
392.2508328821215
 30
0.0
 11
470.9800290625119
 21
392.2508328821215
 31
0.0
  0
LINE
  5
57E
102
{ACAD_REACTORS
330
57B
102
}
330
18
100
AcDbEntity
  8
ROGO
 62
     4
100
AcDbLine
 10
459.7314275785254
 20
393.2400228646375
 30
0.0
 11
459.2387713296814
 21
393.2400228646375
 31
0.0
  0
LINE
  5
57F
102
{ACAD_REACTORS
330
57B
102
}
330
18
100
AcDbEntity
  8
ROGO
 62
     4
100
AcDbLine
 10
459.8027561251362
 20
393.5892445495229
 30
0.0
 11
459.3967691260387
 21
393.5892445495229
 31
0.0
  0
LINE
  5
580
102
{ACAD_REACTORS
330
57B
102
}
330
18
100
AcDbEntity
  8
ROGO
 62
     4
100
AcDbLine
 10
459.9240151058524
 20
392.7838965301788
 30
0.0
 11
459.0324068373712
 21
392.7838965301788
 31
0.0
  0
LINE
  5
581
102
{ACAD_REACTORS
330
57C
330
525
330
57B
102
}
330
18
100
AcDbEntity
  8
ROGO
 62
     4
100
AcDbLine
 10
457.7443817306062
 20
392.0451626758303
 30
0.0
 11
471.63355899763
 21
392.0451626758303
 31
0.0
  0
LINE
  5
582
102
{ACAD_REACTORS
330
57B
102
}
330
18
100
AcDbEntity
  8
ROGO
 62
     4
100
AcDbLine
 10
458.7596322706989
 20
394.0970414607363
 30
0.0
 11
460.3721305836841
 21
394.0970414607363
 31
0.0
  0
TEXT
  5
583
330
18
100
AcDbEntity
  8
文字
100
AcDbText
 10
453.710084348808
 20
398.7494681482871
 30
0.0
 40
2.0
  1
9
  7
STYLE3
100
AcDbText
  0
LINE
  5
584
330
18
100
AcDbEntity
  8
目盛
100
AcDbLine
 10
449.6824249491809
 20
401.4983532503222
 30
0.0
 11
451.0515191610383
 21
400.0404159954794
 31
0.0
  0
LINE
  5
585
330
18
100
AcDbEntity
  8
目盛
100
AcDbLine
 10
447.7052038016976
 20
399.3928265838496
 30
0.0
 11
449.2462302872491
 21
398.1179786043522
 31
0.0
  0
LINE
  5
586
330
18
100
AcDbEntity
  8
目盛
100
AcDbLine
 10
448.6607299548482
 20
400.4766582559896
 30
0.0
 11
450.1186672096911
 21
399.1075640441323
 31
0.0
  0
LINE
  5
587
102
{ACAD_REACTORS
330
57C
330
57B
102
}
330
18
100
AcDbEntity
  8
ROGO
 62
     4
100
AcDbLine
 10
459.0324068373712
 20
392.7838965301788
 30
0.0
 11
458.6981826865428
 21
392.0451626758303
 31
0.0
  0
LINE
  5
588
102
{ACAD_REACTORS
330
57B
102
}
330
18
100
AcDbEntity
  8
ROGO
 62
     4
100
AcDbLine
 10
459.3967691260387
 20
393.5892445495229
 30
0.0
 11
459.2387713296814
 21
393.2400228646375
 31
0.0
  0
LINE
  5
589
102
{ACAD_REACTORS
330
57B
102
}
330
18
100
AcDbEntity
  8
ROGO
 62
     4
100
AcDbLine
 10
458.7596322706989
 20
394.0970414607363
 30
0.0
 11
457.7443817306062
 21
392.0451626758302
 31
0.0
  0
LINE
  5
58A
330
18
100
AcDbEntity
  8
目盛
100
AcDbLine
 10
451.9079475828138
 20
403.3394656902535
 30
0.0
 11
453.6713033396913
 21
400.9124147071287
 31
0.0
  0
LINE
  5
58B
330
18
100
AcDbEntity
  8
目盛
100
AcDbLine
 10
453.1029921010237
 20
404.151617106176
 30
0.0
 11
454.1746456909818
 21
402.462961255172
 31
0.0
  0
LINE
  5
58C
330
18
100
AcDbEntity
  8
目盛
100
AcDbLine
 10
450.7662566213209
 20
402.453879403473
 30
0.0
 11
452.0411046008182
 21
400.9128529179213
 31
0.0
  0
LINE
  5
58D
330
18
100
AcDbEntity
  8
目盛
100
AcDbLine
 10
454.3466738812012
 20
404.8871284606386
 30
0.0
 11
455.3101812294046
 21
403.1345151005509
 31
0.0
  0
LINE
  5
58E
330
18
100
AcDbEntity
  8
目盛
100
AcDbLine
 10
455.6340846795439
 20
405.5430970263481
 30
0.0
 11
456.4856432626741
 21
403.7334429214161
 31
0.0
  0
LINE
  5
58F
330
18
100
AcDbEntity
  8
目盛
100
AcDbLine
 10
456.9601436737932
 20
406.1169339950595
 30
0.0
 11
457.6963927791624
 21
404.257381023283
 31
0.0
  0
LINE
  5
590
330
18
100
AcDbEntity
  8
目盛
100
AcDbLine
 10
458.3196175149169
 20
406.6063746944183
 30
0.0
 11
459.2466684980417
 21
403.7532051455328
 31
0.0
  0
HATCH
  5
591
330
18
100
AcDbEntity
  8
ROGO
 62
     4
100
AcDbHatch
 10
0.0
 20
0.0
 30
0.0
210
0.0
220
0.0
230
1.0
  2
SOLID
 70
     1
 71
     1
 91
        1
 92
        5
 93
        8
 72
     1
 10
467.150892086205
 20
393.6084664085194
 11
467.3945113867457
 21
394.0970414607363
 72
     1
 10
467.3945113867457
 20
394.0970414607363
 11
466.0794750446395
 21
394.0970414607363
 72
     4
 94
        3
 73
     0
 74
     0
 95
       26
 96
       22
 40
0.0
 40
0.0
 40
0.0
 40
0.0
 40
0.6806272418834842
 40
1.136254477903046
 40
1.46479881993938
 40
1.710112249467339
 40
2.028296642642858
 40
2.26054023071286
 40
2.679918019583943
 40
3.021285510494669
 40
3.253470102552404
 40
3.481138982867296
 40
3.88839434820105
 40
4.176372499429433
 40
4.331470983165859
 40
4.55178379777286
 40
4.710876624553383
 40
4.941349605730123
 40
5.071777377612479
 40
5.355602839328967
 40
5.485200010717811
 40
5.485200010717811
 40
5.485200010717811
 40
5.485200010717811
 10
466.0794750446394
 20
394.0970414607363
 10
465.9986196538808
 20
394.0922174894712
 10
465.8636378398148
 20
394.0841642429745
 10
465.7154286291031
 20
393.994128739116
 10
465.6068418846929
 20
393.9417860537737
 10
465.5293979502686
 20
393.870630632354
 10
465.472631232401
 20
393.7971322798328
 10
465.4010661277036
 20
393.7095595317073
 10
465.3427068297976
 20
393.6075846102428
 10
465.3129879872644
 20
393.4951904691795
 10
465.2866633186107
 20
393.4056116866205
 10
465.2671405036378
 20
393.3057878237281
 10
465.2721076604506
 20
393.1979429356058
 10
465.2792208563352
 20
393.097782124602
 10
465.3109795462592
 20
393.0262823016753
 10
465.3471470686492
 20
392.975379354746
 10
465.3914337045041
 20
392.9193154020473
 10
465.4398929688215
 20
392.882184427717
 10
465.4799727359321
 20
392.8149191725765
 10
465.5501310161946
 20
392.8063356409003
 10
465.5947264102705
 20
392.7892518510233
 10
465.6087058987319
 20
392.7838965301788
 72
     1
 10
465.6087058987319
 20
392.7838965301788
 11
466.7397349137364
 21
392.7838965301788
 72
     1
 10
466.7397349137364
 20
392.7838965301788
 11
466.9833516344152
 21
393.2724664085194
 72
     1
 10
466.9833516344152
 20
393.2724664085194
 11
466.1436706135432
 21
393.2724664085194
 72
     4
 94
        3
 73
     0
 74
     0
 95
       16
 96
       12
 40
0.0
 40
0.0
 40
0.0
 40
0.0
 40
0.2055476186376435
 40
0.413215311645417
 40
0.5370797571173976
 40
0.655840267458388
 40
0.7862675211309036
 40
0.8773481874435923
 40
0.9637758349635053
 40
1.139038695775164
 40
1.497869274526411
 40
1.497869274526411
 40
1.497869274526411
 40
1.497869274526411
 10
466.1436706135432
 20
393.2724664085194
 10
466.1183428748715
 20
393.279918200608
 10
466.0674261603023
 20
393.2948986446072
 10
466.0631648424547
 20
393.3675183337446
 10
466.0689702715165
 20
393.4192658047038
 10
466.0932834213937
 20
393.4569409854199
 10
466.1227794892544
 20
393.4843546364555
 10
466.1337621835059
 20
393.5200566306377
 10
466.16604481263
 20
393.5470161029542
 10
466.2232905640212
 20
393.5923312099299
 10
466.2865944552325
 20
393.6019823152154
 10
466.329125162854
 20
393.6084664085194
 72
     1
 10
466.329125162854
 20
393.6084664085194
 11
467.150892086205
 21
393.6084664085194
 97
        8
330
5C2
330
592
330
593
330
5C3
330
5C5
330
5C4
330
5C6
330
5C7
 75
     0
 76
     1
 47
0.0514683685270805
 98
        1
 10
466.5393919418463
 20
393.8047200043893
450
        0
451
        0
460
0.0
461
0.0
452
        0
462
0.0
453
        0
470

  0
SPLINE
  5
592
102
{ACAD_REACTORS
330
591
102
}
330
18
100
AcDbEntity
  8
ROGO
 62
     4
100
AcDbSpline
210
0.0
220
0.0
230
1.0
 70
     8
 71
     3
 72
    26
 73
    22
 74
    20
 42
0.0000000001
 43
0.0000000001
 44
0.0000000001
 40
0.0
 40
0.0
 40
0.0
 40
0.0
 40
0.2382195346591896
 40
0.397689067266058
 40
0.5126795869787669
 40
0.5985392873135731
 40
0.7099038249249733
 40
0.7911890807494741
 40
0.9379713068543702
 40
1.057449928673087
 40
1.138714535893316
 40
1.218398644003506
 40
1.36093802187036
 40
1.461730374800257
 40
1.516014844108008
 40
1.593124329220501
 40
1.648806818593631
 40
1.729472362005518
 40
1.775122082164342
 40
1.874460993765092
 40
1.919820003751207
 40
1.919820003751207
 40
1.919820003751207
 40
1.919820003751207
 10
466.0794750446394
 20
394.0970414607363
 30
0.0
 10
465.9986196538807
 20
394.0922174894712
 30
0.0
 10
465.8636378398148
 20
394.0841642429745
 30
0.0
 10
465.715428629103
 20
393.9941287391161
 30
0.0
 10
465.6068418846929
 20
393.9417860537737
 30
0.0
 10
465.5293979502686
 20
393.870630632354
 30
0.0
 10
465.4726312324012
 20
393.7971322798327
 30
0.0
 10
465.4010661277035
 20
393.7095595317073
 30
0.0
 10
465.3427068297977
 20
393.6075846102428
 30
0.0
 10
465.3129879872644
 20
393.4951904691794
 30
0.0
 10
465.2866633186106
 20
393.4056116866205
 30
0.0
 10
465.2671405036378
 20
393.3057878237281
 30
0.0
 10
465.2721076604507
 20
393.1979429356059
 30
0.0
 10
465.2792208563352
 20
393.097782124602
 30
0.0
 10
465.3109795462592
 20
393.0262823016754
 30
0.0
 10
465.3471470686492
 20
392.975379354746
 30
0.0
 10
465.3914337045041
 20
392.9193154020472
 30
0.0
 10
465.4398929688215
 20
392.8821844277171
 30
0.0
 10
465.479972735932
 20
392.8149191725763
 30
0.0
 10
465.5501310161946
 20
392.8063356409004
 30
0.0
 10
465.5947264102704
 20
392.7892518510232
 30
0.0
 10
465.6087058987319
 20
392.7838965301788
 30
0.0
 11
466.0794750446394
 21
394.0970414607363
 31
0.0
 11
465.8440904716855
 21
394.0603992786425
 31
0.0
 11
465.7014329683105
 21
393.9891295897091
 31
0.0
 11
465.6015729210247
 21
393.9321138850317
 31
0.0
 11
465.5373773521209
 21
393.8750979480079
 31
0.0
 11
465.4660488055102
 21
393.7895742748185
 31
0.0
 11
465.4161187818672
 21
393.7254315780131
 31
0.0
 11
465.344789825103
 21
393.5971459520559
 31
0.0
 11
465.3091257568743
 21
393.4831143103547
 31
0.0
 11
465.2877272339065
 21
393.4047176292932
 31
0.0
 11
465.2734612784922
 21
393.3263209482319
 31
0.0
 11
465.2734612784922
 21
393.183781570365
 31
0.0
 11
465.2877272339065
 21
393.0840039129197
 31
0.0
 11
465.3091257568743
 21
393.0341149680239
 31
0.0
 11
465.3519228028101
 21
392.9699722712184
 31
0.0
 11
465.3875872811922
 21
392.9272103184506
 31
0.0
 11
465.4446498723888
 21
392.8701946137731
 31
0.0
 11
465.4731813730639
 21
392.8345596531332
 31
0.0
 11
465.565908852796
 21
392.7989249248397
 31
0.0
 11
465.6087058987319
 21
392.7838965301788
 31
0.0
  0
LINE
  5
593
102
{ACAD_REACTORS
330
591
102
}
330
18
100
AcDbEntity
  8
ROGO
 62
     4
100
AcDbLine
 10
465.6087058987318
 20
392.7838965301788
 30
0.0
 11
466.7397349137364
 21
392.7838965301788
 31
0.0
  0
HATCH
  5
594
330
18
100
AcDbEntity
  8
ROGO
 62
     4
100
AcDbHatch
 10
0.0
 20
0.0
 30
0.0
210
0.0
220
0.0
230
1.0
  2
SOLID
 70
     1
 71
     1
 91
        2
 92
        7
 72
     0
 73
     1
 93
        8
 10
464.6657354733427
 20
394.0970414607363
 10
463.6153319905712
 20
394.0970414607362
 10
462.6683976604722
 20
392.7838965301787
 10
463.3956449121638
 20
392.7838965301788
 10
463.5759353497446
 20
393.0339112002696
 10
464.4058123385289
 20
393.0339112002696
 10
464.5168787615979
 20
392.7838965301788
 10
465.249086483726
 20
392.7838965301788
 97
        8
330
59B
330
5A1
330
59C
330
59D
330
59F
330
595
330
59A
330
597
 92
       22
 72
     0
 73
     1
 93
        3
 10
464.2886672329283
 20
393.2976092119657
 10
463.7660931108897
 20
393.2976092119657
 10
464.089459847203
 20
393.7460324837847
 97
        3
330
59E
330
5A0
330
596
 75
     0
 76
     1
 47
0.0128389261915577
 98
        2
 10
464.5834805808469
 20
393.7819995439272
 10
464.5834805808469
 20
393.7819995439272
450
        0
451
        0
460
0.0
461
0.0
452
        0
462
0.0
453
        0
470

  0
LINE
  5
595
102
{ACAD_REACTORS
330
594
102
}
330
18
100
AcDbEntity
  8
ROGO
 62
     4
100
AcDbLine
 10
464.405812338529
 20
393.0339112002696
 30
0.0
 11
464.5168787615979
 21
392.7838965301788
 31
0.0
  0
LINE
  5
596
102
{ACAD_REACTORS
330
594
102
}
330
18
100
AcDbEntity
  8
ROGO
 62
     4
100
AcDbLine
 10
464.089459847203
 20
393.7460324837845
 30
0.0
 11
464.2886672329284
 21
393.2976092119656
 31
0.0
  0
LINE
  5
597
102
{ACAD_REACTORS
330
594
102
}
330
18
100
AcDbEntity
  8
ROGO
 62
     4
100
AcDbLine
 10
464.6657354733427
 20
394.0970414607363
 30
0.0
 11
465.249086483726
 21
392.7838965301788
 31
0.0
  0
HATCH
  5
598
330
18
100
AcDbEntity
  8
ROGO
 62
     4
100
AcDbHatch
 10
0.0
 20
0.0
 30
0.0
210
0.0
220
0.0
230
1.0
  2
SOLID
 70
     1
 71
     1
 91
        1
 92
        1
 93
       12
 72
     1
 10
461.3247545768897
 20
394.0970414607363
 11
463.1008377253736
 21
394.0970414607363
 72
     1
 10
463.1008377253736
 20
394.0970414607363
 11
462.9520035296391
 21
393.7962391300442
 72
     1
 10
462.9520035296391
 20
393.7962391300442
 11
462.018539107421
 21
393.7962391300442
 72
     1
 10
462.018539107421
 20
393.7962391300442
 11
461.9021692613446
 21
393.56104908686
 72
     1
 10
461.9021692613446
 20
393.56104908686
 11
462.8356336835625
 21
393.56104908686
 72
     1
 10
462.8356336835625
 20
393.56104908686
 11
462.7163073079386
 21
393.3198837301788
 72
     1
 10
462.7163073079386
 20
393.3198837301788
 11
461.7828428857207
 21
393.3198837301788
 72
     1
 10
461.7828428857207
 20
393.3198837301788
 11
461.6664681131044
 21
393.0846837301788
 72
     1
 10
461.6664681131044
 20
393.0846837301788
 11
462.5999325353223
 21
393.0846837301788
 72
     1
 10
462.5999325353223
 20
393.0846837301788
 11
462.4511058261135
 21
392.7838965301788
 72
     1
 10
462.4511058261135
 20
392.7838965301788
 11
460.6750226776296
 21
392.7838965301788
 72
     1
 10
460.6750226776296
 20
392.7838965301788
 11
461.3247545768897
 21
394.0970414607363
 97
       12
330
599
330
5AB
330
5A8
330
5A9
330
5A7
330
5A4
330
5A5
330
5A2
330
5A6
330
5A3
330
5AA
330
5AC
 75
     0
 76
     1
 98
        1
 10
388.6746255981807
 20
303.298945412625
450
        0
451
        0
460
0.0
461
0.0
452
        0
462
0.0
453
        0
470

  0
LINE
  5
599
102
{ACAD_REACTORS
330
598
102
}
330
18
100
AcDbEntity
  8
ROGO
 62
     4
100
AcDbLine
 10
461.3247545768897
 20
394.0970414607363
 30
0.0
 11
463.1008377253736
 21
394.0970414607363
 31
0.0
  0
LINE
  5
59A
102
{ACAD_REACTORS
330
594
102
}
330
18
100
AcDbEntity
  8
ROGO
 62
     4
100
AcDbLine
 10
465.249086483726
 20
392.7838965301788
 30
0.0
 11
464.5168787615979
 21
392.7838965301788
 31
0.0
  0
LINE
  5
59B
102
{ACAD_REACTORS
330
594
102
}
330
18
100
AcDbEntity
  8
ROGO
 62
     4
100
AcDbLine
 10
463.6153319905712
 20
394.0970414607363
 30
0.0
 11
464.6657354733427
 21
394.0970414607363
 31
0.0
  0
LINE
  5
59C
102
{ACAD_REACTORS
330
594
102
}
330
18
100
AcDbEntity
  8
ROGO
 62
     4
100
AcDbLine
 10
462.6683976604722
 20
392.7838965301788
 30
0.0
 11
463.3956449121637
 21
392.7838965301788
 31
0.0
  0
LINE
  5
59D
102
{ACAD_REACTORS
330
594
102
}
330
18
100
AcDbEntity
  8
ROGO
 62
     4
100
AcDbLine
 10
463.5759353497446
 20
393.0339112002696
 30
0.0
 11
463.3956449121638
 21
392.7838965301788
 31
0.0
  0
LINE
  5
59E
102
{ACAD_REACTORS
330
594
102
}
330
18
100
AcDbEntity
  8
ROGO
 62
     4
100
AcDbLine
 10
463.7660931108897
 20
393.2976092119657
 30
0.0
 11
464.2886672329284
 21
393.2976092119657
 31
0.0
  0
LINE
  5
59F
102
{ACAD_REACTORS
330
594
102
}
330
18
100
AcDbEntity
  8
ROGO
 62
     4
100
AcDbLine
 10
463.5759353497446
 20
393.0339112002696
 30
0.0
 11
464.405812338529
 21
393.0339112002696
 31
0.0
  0
LINE
  5
5A0
102
{ACAD_REACTORS
330
594
102
}
330
18
100
AcDbEntity
  8
ROGO
 62
     4
100
AcDbLine
 10
464.0894598472029
 20
393.7460324837845
 30
0.0
 11
463.7660931108897
 21
393.2976092119656
 31
0.0
  0
LINE
  5
5A1
102
{ACAD_REACTORS
330
594
102
}
330
18
100
AcDbEntity
  8
ROGO
 62
     4
100
AcDbLine
 10
463.6153319905712
 20
394.0970414607363
 30
0.0
 11
462.6683976604722
 21
392.7838965301788
 31
0.0
  0
LINE
  5
5A2
102
{ACAD_REACTORS
330
598
102
}
330
18
100
AcDbEntity
  8
ROGO
 62
     4
100
AcDbLine
 10
461.7828428857207
 20
393.3198837301788
 30
0.0
 11
461.6664681131044
 21
393.0846837301788
 31
0.0
  0
LINE
  5
5A3
102
{ACAD_REACTORS
330
598
102
}
330
18
100
AcDbEntity
  8
ROGO
 62
     4
100
AcDbLine
 10
462.5999325353223
 20
393.0846837301788
 30
0.0
 11
462.4511058261135
 21
392.7838965301788
 31
0.0
  0
LINE
  5
5A4
102
{ACAD_REACTORS
330
598
102
}
330
18
100
AcDbEntity
  8
ROGO
 62
     4
100
AcDbLine
 10
462.8356336835625
 20
393.56104908686
 30
0.0
 11
462.7163073079386
 21
393.3198837301788
 31
0.0
  0
LINE
  5
5A5
102
{ACAD_REACTORS
330
598
102
}
330
18
100
AcDbEntity
  8
ROGO
 62
     4
100
AcDbLine
 10
461.7828428857207
 20
393.3198837301788
 30
0.0
 11
462.7163073079386
 21
393.3198837301788
 31
0.0
  0
LINE
  5
5A6
102
{ACAD_REACTORS
330
598
102
}
330
18
100
AcDbEntity
  8
ROGO
 62
     4
100
AcDbLine
 10
461.6664681131044
 20
393.0846837301788
 30
0.0
 11
462.5999325353223
 21
393.0846837301788
 31
0.0
  0
LINE
  5
5A7
102
{ACAD_REACTORS
330
598
102
}
330
18
100
AcDbEntity
  8
ROGO
 62
     4
100
AcDbLine
 10
461.9021692613446
 20
393.56104908686
 30
0.0
 11
462.8356336835625
 21
393.56104908686
 31
0.0
  0
LINE
  5
5A8
102
{ACAD_REACTORS
330
598
102
}
330
18
100
AcDbEntity
  8
ROGO
 62
     4
100
AcDbLine
 10
462.018539107421
 20
393.7962391300442
 30
0.0
 11
462.9520035296391
 21
393.7962391300442
 31
0.0
  0
LINE
  5
5A9
102
{ACAD_REACTORS
330
598
102
}
330
18
100
AcDbEntity
  8
ROGO
 62
     4
100
AcDbLine
 10
462.018539107421
 20
393.7962391300442
 30
0.0
 11
461.9021692613446
 21
393.56104908686
 31
0.0
  0
LINE
  5
5AA
102
{ACAD_REACTORS
330
598
102
}
330
18
100
AcDbEntity
  8
ROGO
 62
     4
100
AcDbLine
 10
460.6750226776296
 20
392.7838965301788
 30
0.0
 11
462.4511058261135
 21
392.7838965301788
 31
0.0
  0
LINE
  5
5AB
102
{ACAD_REACTORS
330
598
102
}
330
18
100
AcDbEntity
  8
ROGO
 62
     4
100
AcDbLine
 10
463.1008377253736
 20
394.0970414607363
 30
0.0
 11
462.9520035296391
 21
393.7962391300442
 31
0.0
  0
LINE
  5
5AC
102
{ACAD_REACTORS
330
598
102
}
330
18
100
AcDbEntity
  8
ROGO
 62
     4
100
AcDbLine
 10
461.3247545768897
 20
394.0970414607363
 30
0.0
 11
460.6750226776296
 21
392.7838965301788
 31
0.0
  0
SPLINE
  5
5AD
102
{ACAD_REACTORS
330
57B
102
}
330
18
100
AcDbEntity
  8
ROGO
 62
     4
100
AcDbSpline
210
0.0
220
0.0
230
1.0
 70
     8
 71
     3
 72
    15
 73
    11
 74
     9
 42
0.0000000001
 43
0.0000000001
 44
0.0000000001
 40
0.0
 40
0.0
 40
0.0
 40
0.0
 40
0.1539705029175028
 40
0.2241725832587281
 40
0.3038566179396687
 40
0.3581410872474193
 40
0.443992538467216
 40
0.4954152125469665
 40
0.5836396705646186
 40
0.6130478420065743
 40
0.6130478420065743
 40
0.6130478420065743
 40
0.6130478420065743
 10
459.8027561251362
 20
393.5892445495229
 30
0.0
 10
459.8605844601954
 20
393.5895094341654
 30
0.0
 10
459.9447793352536
 20
393.5898950916351
 30
0.0
 10
459.990820091618
 20
393.4857457877055
 30
0.0
 10
459.9701824293846
 20
393.4186898830682
 30
0.0
 10
459.9442392059605
 20
393.3498443688202
 30
0.0
 10
459.8983916544182
 20
393.303062803551
 30
0.0
 10
459.8368575248231
 20
393.2580042699141
 30
0.0
 10
459.7787048317671
 20
393.2525497326544
 30
0.0
 10
459.7408830327947
 20
393.2425282392004
 30
0.0
 10
459.7314275785254
 20
393.2400228646375
 30
0.0
 11
459.8027561251362
 21
393.5892445495229
 31
0.0
 11
459.952546196065
 21
393.553609588883
 31
0.0
 11
459.98107769674
 21
393.4894668920776
 31
0.0
 11
459.9668121514792
 21
393.4110702110162
 31
0.0
 11
459.9454136285113
 21
393.3611812661204
 31
0.0
 11
459.8883506271612
 21
393.297038569315
 31
0.0
 11
459.8455535812254
 21
393.2685306008031
 31
0.0
 11
459.7599590792004
 21
393.2471498567655
 31
0.0
 11
459.7314275785254
 21
393.2400228646375
 31
0.0
  0
SPLINE
  5
5AE
102
{ACAD_REACTORS
330
57B
102
}
330
18
100
AcDbEntity
  8
ROGO
 62
     4
100
AcDbSpline
210
0.0
220
0.0
230
1.0
 70
     8
 71
     3
 72
    18
 73
    14
 74
     0
 42
0.0000000001
 43
0.0000000001
 40
0.1087402787915014
 40
0.1087402787915014
 40
0.1087402787915014
 40
0.1087402787915014
 40
0.5992371417938475
 40
1.083176791562496
 40
1.448211145705696
 40
1.714037220764907
 40
2.164002567013297
 40
2.740236056362883
 40
3.395137510199602
 40
4.071816045172726
 40
4.784906178399433
 40
5.506895915094292
 40
6.060470601257719
 40
6.060470601257719
 40
6.060470601257719
 40
6.060470601257719
 10
460.3721305836841
 20
394.0970414607363
 30
0.0
 10
460.4237901213202
 20
394.0781091058886
 30
0.0
 10
460.5253780691706
 20
394.0380832145733
 30
0.0
 10
460.6493633047178
 20
393.9467309047819
 30
0.0
 10
460.7169794986425
 20
393.8412721276092
 30
0.0
 10
460.7820187071856
 20
393.7373613853063
 30
0.0
 10
460.7911208256965
 20
393.5882838511499
 30
0.0
 10
460.7762109406494
 20
393.3998137155782
 30
0.0
 10
460.6799540697733
 20
393.2031645780575
 30
0.0
 10
460.5254561306919
 20
393.0311675472556
 30
0.0
 10
460.3336361575989
 20
392.8935033669139
 30
0.0
 10
460.1313553794916
 20
392.7854405304185
 30
0.0
 10
459.986765022438
 20
392.7843638098099
 30
0.0
 10
459.9240151055433
 20
392.7838965301788
 30
0.0
  0
HATCH
  5
5AF
330
18
100
AcDbEntity
  8
ROGO
 62
     4
100
AcDbHatch
 10
0.0
 20
0.0
 30
0.0
210
0.0
220
0.0
230
1.0
  2
SOLID
 70
     1
 71
     1
 91
        2
 92
        5
 93
        6
 72
     4
 94
        3
 73
     0
 74
     0
 95
       38
 96
       34
 40
0.0
 40
0.0
 40
0.0
 40
0.0
 40
0.5164800423611548
 40
0.6786836885910848
 40
0.88710434560167
 40
1.060788566413433
 40
1.20733358396365
 40
1.401978810630435
 40
1.501434849986208
 40
1.613448456300606
 40
1.778535433376704
 40
1.965543155621333
 40
2.086853233586049
 40
2.218636674910137
 40
2.365128983511507
 40
2.587438484857767
 40
2.798655694361229
 40
2.896849520951487
 40
3.008826444388521
 40
3.141482119684725
 40
3.235915913773394
 40
3.315078629400928
 40
3.428105103696636
 40
3.552301837626102
 40
3.676497880048442
 40
3.785169590044758
 40
4.034047122621728
 40
4.132240949211986
 40
4.328628719031952
 40
4.502226771166864
 40
4.834567227246322
 40
5.244640938625969
 40
5.836847051382449
 40
5.836847051382449
 40
5.836847051382449
 40
5.836847051382449
 10
468.1237367067884
 20
394.1025186799086
 10
468.0634813091627
 20
394.0982620608077
 10
467.9843023435416
 20
394.0926686250205
 10
467.8837635710321
 20
394.0651239988156
 10
467.8289588165911
 20
394.0323094793577
 10
467.7719235152738
 20
394.0081892346572
 10
467.7232956088889
 20
393.9724719354079
 10
467.6741095081929
 20
393.9540671552146
 10
467.6396678948171
 20
393.9208800468419
 10
467.5998045366842
 20
393.900607928667
 10
467.5680606368489
 20
393.8552330346525
 10
467.5325799603172
 20
393.8128091529941
 10
467.4914179119101
 20
393.7818416114166
 10
467.4576356663506
 20
393.7493166324543
 10
467.4266451534263
 20
393.6991208172704
 10
467.4083035808552
 20
393.6324254425847
 10
467.3566017664459
 20
393.5903163882997
 10
467.3488170919627
 20
393.5396887406234
 10
467.320219241767
 20
393.5098192804328
 10
467.3077838963112
 20
393.4712620984478
 10
467.3030479181873
 20
393.4359369091271
 10
467.2973636151448
 20
393.4029456276988
 10
467.2824945549124
 20
393.3682402569609
 10
467.2873478674738
 20
393.325369978026
 10
467.2859653044317
 20
393.2838572639994
 10
467.2867789444048
 20
393.227813807388
 10
467.2838424050588
 20
393.1732486104685
 10
467.3072601555739
 20
393.1138687343001
 10
467.3211180031767
 20
393.0609397896335
 10
467.3590699731203
 20
392.9876532473821
 10
467.4245363259383
 20
392.9030964236732
 10
467.5490260719557
 20
392.8004604603803
 10
467.6687266025151
 20
392.790048519663
 10
467.7394527452453
 20
392.7838965301788
 72
     1
 10
467.7394527452454
 20
392.7838965301788
 11
468.4899065684314
 21
392.7838965301788
 72
     4
 94
        3
 73
     0
 74
     0
 95
       11
 96
        7
 40
0.1647869275458135
 40
0.1647869275458135
 40
0.1647869275458135
 40
0.1647869275458135
 40
0.2545010798212315
 40
0.5111620267764023
 40
0.7602998271033902
 40
0.8850764140209603
 40
0.8850764140209603
 40
0.8850764140209603
 40
0.8850764140209603
 10
468.4899065684306
 20
392.7838965301788
 10
468.5003784687506
 20
392.7836947145358
 10
468.5408091635792
 20
392.782915529629
 10
468.6099057056755
 20
392.7928420602136
 10
468.6826044728136
 20
392.802354454587
 10
468.7259454842478
 20
392.8092820443709
 10
468.7399240270487
 20
392.8131729770874
 72
     4
 94
        3
 73
     0
 74
     0
 95
        9
 96
        5
 40
0.0
 40
0.0
 40
0.0
 40
0.0
 40
0.3245123838720408
 40
0.7608395406220814
 40
0.7608395406220814
 40
0.7608395406220814
 40
0.7608395406220814
 10
468.7399240270487
 20
392.8131729770874
 10
468.7764089953667
 20
392.8243353168106
 10
468.8619502810441
 20
392.8505061190646
 10
468.9326269782808
 20
392.905818436839
 10
468.9731587339367
 20
392.9375390100469
 72
     4
 94
        3
 73
     0
 74
     0
 95
       25
 96
       21
 40
0.0
 40
0.0
 40
0.0
 40
0.0
 40
0.165525918914855
 40
0.3412380755365305
 40
0.5940540902285263
 40
0.7697671103696209
 40
0.9377330196075423
 40
1.11479469302833
 40
1.274661249598185
 40
1.574522170874768
 40
1.815540668866877
 40
2.15849091873445
 40
2.536227739636605
 40
2.738070817316548
 40
2.925680654369045
 40
3.162706124480894
 40
3.395643218188267
 40
3.648478129958861
 40
3.928509979727306
 40
4.337226830236035
 40
4.337226830236035
 40
4.337226830236035
 40
4.337226830236035
 10
468.9731587339367
 20
392.9375390100469
 10
468.9880513913305
 20
392.9498457539926
 10
469.0162986906344
 20
392.9791158772143
 10
469.0663999272741
 20
393.0265562255529
 10
469.1105500870807
 20
393.0818279960069
 10
469.165012487798
 20
393.1266238288803
 10
469.1933654433369
 20
393.1813900552278
 10
469.234233990641
 20
393.2244625257269
 10
469.2685160095584
 20
393.2909837077175
 10
469.2976026082584
 20
393.3673954728616
 10
469.3253326637559
 20
393.4669967565651
 10
469.3359591070926
 20
393.5793618096107
 10
469.3202306494454
 20
393.6880749420417
 10
469.2822346717705
 20
393.7693344375785
 10
469.2543005110014
 20
393.8370558522446
 10
469.211906922359
 20
393.9011999559218
 10
469.1635415674983
 20
393.970963762256
 10
469.095403346739
 20
394.028669724571
 10
469.0063536881178
 20
394.0982724139465
 10
468.9234105803993
 20
394.1009372904525
 10
468.8741905299738
 20
394.1025186799086
 72
     1
 10
468.8741905299736
 20
394.1025186799086
 11
468.1237367067883
 21
394.1025186799086
 97
        6
330
5B5
330
5B4
330
5B6
330
5B3
330
5B2
330
5B1
 92
       20
 93
        1
 72
     3
 10
468.2961951014191
 20
393.4248226876896
 11
0.1782847090673272
 21
0.1567790921840611
 40
0.6788083417438792
 50
0.0
 51
360.0
 73
     1
 97
        1
330
5B0
 75
     0
 76
     1
 47
0.088756267210375
 98
        2
 10
468.3486263771878
 20
393.7383099580136
 10
468.3486263771878
 20
393.7383099580136
450
        0
451
        0
460
0.0
461
0.0
452
        0
462
0.0
453
        0
470

  0
ELLIPSE
  5
5B0
102
{ACAD_REACTORS
330
5AF
102
}
330
18
100
AcDbEntity
  8
ROGO
 62
     4
100
AcDbEllipse
 10
468.2961951014191
 20
393.4248226876896
 30
0.0
 11
0.1782847090673272
 21
0.1567790921840611
 31
0.0
210
0.0
220
0.0
230
0.9999999999999998
 40
0.6788083417438792
 41
0.0
 42
6.283185307179586
  0
SPLINE
  5
5B1
102
{ACAD_REACTORS
330
5AF
102
}
330
18
100
AcDbEntity
  8
ROGO
 62
     4
100
AcDbSpline
210
0.0
220
0.0
230
1.0
 70
     8
 71
     3
 72
     9
 73
     5
 74
     3
 42
0.0000000001
 43
0.0000000001
 44
0.0000000001
 40
0.0
 40
0.0
 40
0.0
 40
0.0
 40
0.1135793343552172
 40
0.2662938392177403
 40
0.2662938392177403
 40
0.2662938392177403
 40
0.2662938392177403
 10
468.7399240270487
 20
392.8131729770874
 30
0.0
 10
468.7764089953667
 20
392.8243353168106
 30
0.0
 10
468.861950281044
 20
392.8505061190646
 30
0.0
 10
468.9326269782809
 20
392.9058184368391
 30
0.0
 10
468.9731587339367
 20
392.9375390100469
 30
0.0
 11
468.7399240270487
 21
392.8131729770874
 31
0.0
 11
468.8466747912733
 21
392.8519613713571
 31
0.0
 11
468.9731587339367
 21
392.9375390100469
 31
0.0
  0
SPLINE
  5
5B2
102
{ACAD_REACTORS
330
5AF
102
}
330
18
100
AcDbEntity
  8
ROGO
 62
     4
100
AcDbSpline
210
0.0
220
0.0
230
1.0
 70
     8
 71
     3
 72
    11
 73
     7
 74
     0
 42
0.0000000001
 43
0.0000000001
 40
0.1647869275458134
 40
0.1647869275458134
 40
0.1647869275458134
 40
0.1647869275458134
 40
0.2895635144633836
 40
0.5387013147903714
 40
0.7953622617455423
 40
0.8850764140209602
 40
0.8850764140209602
 40
0.8850764140209602
 40
0.8850764140209602
 10
468.7399240270487
 20
392.8131729770874
 30
0.0
 10
468.7259454842478
 20
392.8092820443709
 30
0.0
 10
468.6826044728136
 20
392.802354454587
 30
0.0
 10
468.6099057056755
 20
392.7928420602136
 30
0.0
 10
468.5408091635792
 20
392.782915529629
 30
0.0
 10
468.5003784687506
 20
392.7836947145358
 30
0.0
 10
468.4899065684306
 20
392.7838965301788
 30
0.0
  0
LINE
  5
5B3
102
{ACAD_REACTORS
330
5AF
102
}
330
18
100
AcDbEntity
  8
ROGO
 62
     4
100
AcDbLine
 10
467.7394527452453
 20
392.7838965301788
 30
0.0
 11
468.4899065684306
 21
392.7838965301788
 31
0.0
  0
LINE
  5
5B4
102
{ACAD_REACTORS
330
5AF
102
}
330
18
100
AcDbEntity
  8
ROGO
 62
     4
100
AcDbLine
 10
468.1237367067884
 20
394.1025186799086
 30
0.0
 11
468.8741905299738
 21
394.1025186799086
 31
0.0
  0
SPLINE
  5
5B5
102
{ACAD_REACTORS
330
5AF
102
}
330
18
100
AcDbEntity
  8
ROGO
 62
     4
100
AcDbSpline
210
0.0
220
0.0
230
1.0
 70
     8
 71
     3
 72
    25
 73
    21
 74
     0
 42
0.0000000001
 43
0.0000000001
 40
0.0
 40
0.0
 40
0.0
 40
0.0
 40
0.4087168505087288
 40
0.6887487002771746
 40
0.9415836120477687
 40
1.17452070575514
 40
1.41154617586699
 40
1.599156012919487
 40
1.80099909059943
 40
2.178735911501585
 40
2.521686161369157
 40
2.762704659361267
 40
3.06256558063785
 40
3.222432137207705
 40
3.399493810628493
 40
3.567459719866414
 40
3.743172740007509
 40
3.995988754699505
 40
4.17170091132118
 40
4.337226830236035
 40
4.337226830236035
 40
4.337226830236035
 40
4.337226830236035
 10
468.8741905299738
 20
394.1025186799086
 30
0.0
 10
468.9234105803993
 20
394.1009372904525
 30
0.0
 10
469.0063536881178
 20
394.0982724139465
 30
0.0
 10
469.095403346739
 20
394.028669724571
 30
0.0
 10
469.1635415674983
 20
393.970963762256
 30
0.0
 10
469.211906922359
 20
393.9011999559218
 30
0.0
 10
469.2543005110014
 20
393.8370558522446
 30
0.0
 10
469.2822346717705
 20
393.7693344375785
 30
0.0
 10
469.3202306494454
 20
393.6880749420417
 30
0.0
 10
469.3359591070926
 20
393.5793618096107
 30
0.0
 10
469.3253326637559
 20
393.4669967565651
 30
0.0
 10
469.2976026082584
 20
393.3673954728616
 30
0.0
 10
469.2685160095584
 20
393.2909837077175
 30
0.0
 10
469.234233990641
 20
393.2244625257269
 30
0.0
 10
469.1933654433369
 20
393.1813900552278
 30
0.0
 10
469.165012487798
 20
393.1266238288803
 30
0.0
 10
469.1105500870807
 20
393.0818279960069
 30
0.0
 10
469.0663999272741
 20
393.0265562255529
 30
0.0
 10
469.0162986906344
 20
392.9791158772143
 30
0.0
 10
468.9880513913305
 20
392.9498457539926
 30
0.0
 10
468.9731587339367
 20
392.9375390100469
 30
0.0
  0
SPLINE
  5
5B6
102
{ACAD_REACTORS
330
5AF
102
}
330
18
100
AcDbEntity
  8
ROGO
 62
     4
100
AcDbSpline
210
0.0
220
0.0
230
1.0
 70
     8
 71
     3
 72
    38
 73
    34
 74
    32
 42
0.0000000001
 43
0.0000000001
 44
0.0000000001
 40
0.0
 40
0.0
 40
0.0
 40
0.0
 40
0.1807680148264315
 40
0.2375392910068956
 40
0.3104865209606157
 40
0.3712759982447458
 40
0.422566754387306
 40
0.490692583720658
 40
0.5255021974951946
 40
0.5647069597052371
 40
0.622487401681883
 40
0.6879401044674746
 40
0.7303986317551266
 40
0.7765228362185534
 40
0.8277951442290254
 40
0.9056034697002209
 40
0.9795294930264187
 40
1.013897332332996
 40
1.053089255536027
 40
1.099518741889647
 40
1.132570569820733
 40
1.160277520290299
 40
1.19983678629386
 40
1.243305643169139
 40
1.286774258016964
 40
1.324809356515675
 40
1.411916492917645
 40
1.446284332224223
 40
1.5150200516612
 40
1.575779369908399
 40
1.69209852953623
 40
1.835624328519098
 40
2.042896467983898
 40
2.042896467983898
 40
2.042896467983898
 40
2.042896467983898
 10
468.1237367067884
 20
394.1025186799086
 30
0.0
 10
468.0634813091628
 20
394.0982620608076
 30
0.0
 10
467.9843023435416
 20
394.0926686250204
 30
0.0
 10
467.8837635710321
 20
394.0651239988158
 30
0.0
 10
467.8289588165911
 20
394.0323094793577
 30
0.0
 10
467.7719235152739
 20
394.0081892346571
 30
0.0
 10
467.7232956088887
 20
393.9724719354078
 30
0.0
 10
467.674109508193
 20
393.9540671552145
 30
0.0
 10
467.6396678948172
 20
393.920880046842
 30
0.0
 10
467.5998045366841
 20
393.9006079286669
 30
0.0
 10
467.5680606368489
 20
393.8552330346525
 30
0.0
 10
467.5325799603172
 20
393.8128091529942
 30
0.0
 10
467.49141791191
 20
393.7818416114167
 30
0.0
 10
467.4576356663506
 20
393.7493166324543
 30
0.0
 10
467.4266451534263
 20
393.6991208172703
 30
0.0
 10
467.4083035808551
 20
393.6324254425848
 30
0.0
 10
467.356601766446
 20
393.5903163882997
 30
0.0
 10
467.3488170919626
 20
393.5396887406235
 30
0.0
 10
467.3202192417671
 20
393.5098192804328
 30
0.0
 10
467.3077838963112
 20
393.4712620984478
 30
0.0
 10
467.3030479181873
 20
393.435936909127
 30
0.0
 10
467.2973636151449
 20
393.4029456276988
 30
0.0
 10
467.2824945549125
 20
393.3682402569611
 30
0.0
 10
467.2873478674738
 20
393.3253699780259
 30
0.0
 10
467.2859653044316
 20
393.2838572639994
 30
0.0
 10
467.2867789444049
 20
393.227813807388
 30
0.0
 10
467.2838424050589
 20
393.1732486104686
 30
0.0
 10
467.3072601555738
 20
393.1138687343001
 30
0.0
 10
467.3211180031768
 20
393.0609397896336
 30
0.0
 10
467.3590699731203
 20
392.9876532473821
 30
0.0
 10
467.4245363259383
 20
392.9030964236732
 30
0.0
 10
467.5490260719558
 20
392.8004604603803
 30
0.0
 10
467.6687266025151
 20
392.790048519663
 30
0.0
 10
467.7394527452453
 20
392.7838965301788
 30
0.0
 11
468.1237367067884
 21
394.1025186799086
 31
0.0
 11
467.9442800698411
 21
394.0807841304572
 31
0.0
 11
467.889899283713
 21
394.0644835814099
 31
0.0
 11
467.824642596705
 21
394.0318819992602
 31
0.0
 11
467.7702618105768
 21
394.0047141754872
 31
0.0
 11
467.7267573525715
 21
393.9775461096867
 31
0.0
 11
467.6669386160035
 21
393.9449447695646
 31
0.0
 11
467.6397480093178
 21
393.9232104621407
 31
0.0
 11
467.6071194521923
 21
393.9014759126893
 31
0.0
 11
467.5690529446269
 21
393.8580072978414
 31
0.0
 11
467.5255484866216
 21
393.8091051666445
 31
0.0
 11
467.492919929496
 21
393.781937100844
 31
0.0
 11
467.4602917996136
 21
393.7493357607219
 31
0.0
 11
467.433101192928
 21
393.7058671458741
 31
0.0
 11
467.4004730630456
 21
393.6352304652258
 31
0.0
 11
467.3569681777971
 21
393.5754610593031
 31
0.0
 11
467.3460922769174
 21
393.5428594771535
 31
0.0
 11
467.3243400479147
 21
393.5102581370313
 31
0.0
 11
467.308025769352
 21
393.466789280156
 31
0.0
 11
467.302587391669
 21
393.4341879400339
 31
0.0
 11
467.2971494412291
 21
393.4070198742334
 31
0.0
 11
467.2862735403493
 21
393.3689850177621
 31
0.0
 11
467.2862735403493
 21
393.3255161608868
 31
0.0
 11
467.2862735403493
 21
393.282047546039
 31
0.0
 11
467.2862735403493
 21
393.2440124475403
 31
0.0
 11
467.2917114907892
 21
393.1570752178446
 31
0.0
 11
467.302587391669
 21
393.124473635695
 31
0.0
 11
467.3243400479147
 21
393.0592707134232
 31
0.0
 11
467.3515302273573
 21
393.0049348238497
 31
0.0
 11
467.4222252920482
 21
392.9125640778049
 31
0.0
 11
467.5364248147444
 21
392.8256266060818
 31
0.0
 11
467.7394527452453
 21
392.7838965301788
 31
0.0
  0
HATCH
  5
5B7
330
18
100
AcDbEntity
  8
ROGO
 62
     4
100
AcDbHatch
 10
0.0
 20
0.0
 30
0.0
210
0.0
220
0.0
230
1.0
  2
SOLID
 70
     1
 71
     1
 91
        1
 92
        5
 93
        8
 72
     4
 94
        3
 73
     0
 74
     0
 95
       26
 96
       22
 40
0.0
 40
0.0
 40
0.0
 40
0.0
 40
0.680627241883428
 40
1.136254477903041
 40
1.464798819939375
 40
1.710112249467291
 40
2.028296642642898
 40
2.260540230712845
 40
2.679918019584077
 40
3.021285510494803
 40
3.253470102552373
 40
3.481138982867256
 40
3.888394348201009
 40
4.176372499429384
 40
4.331470983165915
 40
4.5517837977729
 40
4.710876624553423
 40
4.941349605730163
 40
5.071777377612483
 40
5.355602839329045
 40
5.485200010717817
 40
5.485200010717817
 40
5.485200010717817
 40
5.485200010717817
 10
470.3105448155672
 20
394.0970414607363
 10
470.2296894248085
 20
394.0922174894711
 10
470.0947076107427
 20
394.0841642429745
 10
469.9464984000309
 20
393.994128739116
 10
469.8379116556207
 20
393.9417860537737
 10
469.7604677211964
 20
393.8706306323541
 10
469.7037010033289
 20
393.7971322798327
 10
469.6321358986314
 20
393.7095595317073
 10
469.5737766007255
 20
393.6075846102427
 10
469.5440577581924
 20
393.4951904691794
 10
469.5177330895385
 20
393.4056116866205
 10
469.4982102745656
 20
393.3057878237281
 10
469.5031774313786
 20
393.1979429356058
 10
469.510290627263
 20
393.097782124602
 10
469.542049317187
 20
393.0262823016753
 10
469.5782168395771
 20
392.975379354746
 10
469.6225034754319
 20
392.9193154020473
 10
469.6709627397495
 20
392.882184427717
 10
469.71104250686
 20
392.8149191725763
 10
469.7812007871224
 20
392.8063356409002
 10
469.8257961811982
 20
392.7892518510233
 10
469.8397756696597
 20
392.7838965301788
 72
     1
 10
469.8397756696598
 20
392.7838965301788
 11
470.9708046846642
 21
392.7838965301788
 72
     1
 10
470.9708046846642
 20
392.7838965301788
 11
471.2144214053431
 21
393.2724664085194
 72
     1
 10
471.2144214053431
 20
393.2724664085194
 11
470.374740384471
 21
393.2724664085195
 72
     4
 94
        3
 73
     0
 74
     0
 95
       16
 96
       12
 40
0.0
 40
0.0
 40
0.0
 40
0.0
 40
0.2055476186376692
 40
0.4132153116455541
 40
0.5370797571174224
 40
0.6558402674583835
 40
0.7862675211309879
 40
0.877348187443702
 40
0.9637758349634946
 40
1.139038695775252
 40
1.497869274526499
 40
1.497869274526499
 40
1.497869274526499
 40
1.497869274526499
 10
470.374740384471
 20
393.2724664085193
 10
470.3494126457993
 20
393.2799182006079
 10
470.2984959312302
 20
393.2948986446072
 10
470.2942346133825
 20
393.3675183337446
 10
470.3000400424444
 20
393.4192658047037
 10
470.3243531923216
 20
393.4569409854198
 10
470.3538492601823
 20
393.4843546364555
 10
470.3648319544338
 20
393.5200566306377
 10
470.397114583558
 20
393.5470161029541
 10
470.454360334949
 20
393.59233120993
 10
470.5176642261603
 20
393.6019823152154
 10
470.5601949337817
 20
393.6084664085194
 72
     1
 10
470.5601949337817
 20
393.6084664085194
 11
471.381961857133
 21
393.6084664085194
 72
     1
 10
471.381961857133
 20
393.6084664085194
 11
471.6255811576735
 21
394.0970414607363
 72
     1
 10
471.6255811576735
 20
394.0970414607363
 11
470.3105448155673
 21
394.0970414607363
 97
        8
330
5C0
330
5BE
330
5C1
330
5BD
330
5BC
330
5BF
330
5BB
330
5BA
 75
     0
 76
     1
 47
0.0514683685270805
 98
        1
 10
470.5374622452521
 20
393.8566001575572
450
        0
451
        0
460
0.0
461
0.0
452
        0
462
0.0
453
        0
470

  0
LINE
  5
5B8
102
{ACAD_REACTORS
330
525
102
}
330
18
100
AcDbEntity
  8
ROGO
 62
     4
100
AcDbLine
 10
471.9006082867957
 20
392.5807262379498
 30
0.0
 11
471.63355899763
 21
392.0451626758303
 31
0.0
  0
LINE
  5
5B9
102
{ACAD_REACTORS
330
57C
330
525
102
}
330
18
100
AcDbEntity
  8
ROGO
 62
     4
100
AcDbLine
 10
471.9006082867957
 20
394.0970414607363
 30
0.0
 11
470.8774752551258
 21
392.0451626758303
 31
0.0
  0
LINE
  5
5BA
102
{ACAD_REACTORS
330
5B7
102
}
330
18
100
AcDbEntity
  8
ROGO
 62
     4
100
AcDbLine
 10
471.6255811576735
 20
394.0970414607363
 30
0.0
 11
471.381961857133
 21
393.6084664085194
 31
0.0
  0
LINE
  5
5BB
102
{ACAD_REACTORS
330
5B7
102
}
330
18
100
AcDbEntity
  8
ROGO
 62
     4
100
AcDbLine
 10
470.5601949337817
 20
393.6084664085194
 30
0.0
 11
471.381961857133
 21
393.6084664085194
 31
0.0
  0
LINE
  5
5BC
102
{ACAD_REACTORS
330
5B7
102
}
330
18
100
AcDbEntity
  8
ROGO
 62
     4
100
AcDbLine
 10
470.374740384471
 20
393.2724664085194
 30
0.0
 11
471.2144214053431
 21
393.2724664085194
 31
0.0
  0
LINE
  5
5BD
102
{ACAD_REACTORS
330
5B7
102
}
330
18
100
AcDbEntity
  8
ROGO
 62
     4
100
AcDbLine
 10
471.2144214053431
 20
393.2724664085194
 30
0.0
 11
470.9708046846643
 21
392.7838965301788
 31
0.0
  0
SPLINE
  5
5BE
102
{ACAD_REACTORS
330
5B7
102
}
330
18
100
AcDbEntity
  8
ROGO
 62
     4
100
AcDbSpline
210
0.0
220
0.0
230
1.0
 70
     8
 71
     3
 72
    26
 73
    22
 74
    20
 42
0.0000000001
 43
0.0000000001
 44
0.0000000001
 40
0.0
 40
0.0
 40
0.0
 40
0.0
 40
0.2382195346591896
 40
0.397689067266058
 40
0.5126795869787176
 40
0.5985392873135238
 40
0.7099038249250041
 40
0.7911890807494602
 40
0.9379713068544059
 40
1.057449928673177
 40
1.138714535893296
 40
1.218398644003487
 40
1.36093802187034
 40
1.461730374800238
 40
1.51601484410804
 40
1.593124329220486
 40
1.648806818593696
 40
1.729472362005543
 40
1.775122082164332
 40
1.874460993765135
 40
1.919820003751196
 40
1.919820003751196
 40
1.919820003751196
 40
1.919820003751196
 10
470.3105448155672
 20
394.0970414607363
 30
0.0
 10
470.2296894248085
 20
394.0922174894712
 30
0.0
 10
470.0947076107426
 20
394.0841642429745
 30
0.0
 10
469.9464984000309
 20
393.9941287391162
 30
0.0
 10
469.8379116556207
 20
393.9417860537736
 30
0.0
 10
469.7604677211964
 20
393.870630632354
 30
0.0
 10
469.703701003329
 20
393.7971322798328
 30
0.0
 10
469.6321358986311
 20
393.7095595317072
 30
0.0
 10
469.5737766007255
 20
393.6075846102427
 30
0.0
 10
469.5440577581922
 20
393.4951904691793
 30
0.0
 10
469.5177330895386
 20
393.4056116866205
 30
0.0
 10
469.4982102745655
 20
393.305787823728
 30
0.0
 10
469.5031774313787
 20
393.1979429356059
 30
0.0
 10
469.5102906272629
 20
393.0977821246021
 30
0.0
 10
469.542049317187
 20
393.0262823016753
 30
0.0
 10
469.5782168395771
 20
392.9753793547461
 30
0.0
 10
469.6225034754319
 20
392.9193154020472
 30
0.0
 10
469.6709627397495
 20
392.882184427717
 30
0.0
 10
469.7110425068599
 20
392.8149191725765
 30
0.0
 10
469.7812007871227
 20
392.8063356409004
 30
0.0
 10
469.8257961811981
 20
392.7892518510232
 30
0.0
 10
469.8397756696597
 20
392.7838965301788
 30
0.0
 11
470.3105448155672
 21
394.0970414607363
 31
0.0
 11
470.0751602426134
 21
394.0603992786425
 31
0.0
 11
469.9325027392384
 21
393.9891295897091
 31
0.0
 11
469.8326426919526
 21
393.9321138850317
 31
0.0
 11
469.7684471230489
 21
393.8750979480079
 31
0.0
 11
469.6971185764381
 21
393.7895742748184
 31
0.0
 11
469.6471885527951
 21
393.7254315780131
 31
0.0
 11
469.5758595960309
 21
393.5971459520558
 31
0.0
 11
469.5401955278021
 21
393.4831143103545
 31
0.0
 11
469.5187970048343
 21
393.4047176292932
 31
0.0
 11
469.50453104942
 21
393.3263209482319
 31
0.0
 11
469.50453104942
 21
393.183781570365
 31
0.0
 11
469.5187970048343
 21
393.0840039129197
 31
0.0
 11
469.5401955278021
 21
393.0341149680239
 31
0.0
 11
469.5829925737379
 21
392.9699722712184
 31
0.0
 11
469.6186570521201
 21
392.9272103184505
 31
0.0
 11
469.6757196433167
 21
392.8701946137731
 31
0.0
 11
469.7042511439917
 21
392.8345596531332
 31
0.0
 11
469.7969786237239
 21
392.7989249248397
 31
0.0
 11
469.8397756696597
 21
392.7838965301788
 31
0.0
  0
SPLINE
  5
5BF
102
{ACAD_REACTORS
330
5B7
102
}
330
18
100
AcDbEntity
  8
ROGO
 62
     4
100
AcDbSpline
210
0.0
220
0.0
230
1.0
 70
     8
 71
     3
 72
    16
 73
    12
 74
    10
 42
0.0000000001
 43
0.0000000001
 44
0.0000000001
 40
0.0
 40
0.0
 40
0.0
 40
0.0
 40
0.1255907025629163
 40
0.1869327038470616
 40
0.217182380479003
 40
0.2490606136884339
 40
0.2947101524738157
 40
0.3362763310931585
 40
0.3796288870082937
 40
0.4523125795610796
 40
0.5242542460842448
 40
0.5242542460842448
 40
0.5242542460842448
 40
0.5242542460842448
 10
470.5601949337817
 20
393.6084664085194
 30
0.0
 10
470.5176642261603
 20
393.6019823152154
 30
0.0
 10
470.4543603349488
 20
393.5923312099299
 30
0.0
 10
470.397114583558
 20
393.5470161029542
 30
0.0
 10
470.3648319544338
 20
393.5200566306377
 30
0.0
 10
470.3538492601822
 20
393.4843546364555
 30
0.0
 10
470.3243531923216
 20
393.4569409854198
 30
0.0
 10
470.3000400424443
 20
393.4192658047037
 30
0.0
 10
470.2942346133827
 20
393.3675183337446
 30
0.0
 10
470.2984959312302
 20
393.2948986446072
 30
0.0
 10
470.3494126457992
 20
393.2799182006079
 30
0.0
 10
470.374740384471
 20
393.2724664085193
 30
0.0
 11
470.5601949337817
 21
393.6084664085194
 31
0.0
 11
470.438936363528
 21
393.575764975672
 31
0.0
 11
470.3890063398851
 21
393.5401302473784
 31
0.0
 11
470.3676078169173
 21
393.5187492709944
 31
0.0
 11
470.353341861503
 21
393.4902413024826
 31
0.0
 11
470.3248103608281
 21
393.454606574189
 31
0.0
 11
470.3034118378601
 21
393.4189716135492
 31
0.0
 11
470.2962788601531
 21
393.3762098931277
 31
0.0
 11
470.3105448155672
 21
393.3049399718479
 31
0.0
 11
470.374740384471
 21
393.2724664085193
 31
0.0
  0
LINE
  5
5C0
102
{ACAD_REACTORS
330
5B7
102
}
330
18
100
AcDbEntity
  8
ROGO
 62
     4
100
AcDbLine
 10
470.3105448155675
 20
394.0970414607363
 30
0.0
 11
471.6255811576735
 21
394.0970414607363
 31
0.0
  0
LINE
  5
5C1
102
{ACAD_REACTORS
330
5B7
102
}
330
18
100
AcDbEntity
  8
ROGO
 62
     4
100
AcDbLine
 10
469.8397756696596
 20
392.7838965301788
 30
0.0
 11
470.9708046846643
 21
392.7838965301788
 31
0.0
  0
LINE
  5
5C2
102
{ACAD_REACTORS
330
591
102
}
330
18
100
AcDbEntity
  8
ROGO
 62
     4
100
AcDbLine
 10
466.0794750446398
 20
394.0970414607363
 30
0.0
 11
467.3945113867457
 21
394.0970414607363
 31
0.0
  0
LINE
  5
5C3
102
{ACAD_REACTORS
330
591
102
}
330
18
100
AcDbEntity
  8
ROGO
 62
     4
100
AcDbLine
 10
466.9833516344152
 20
393.2724664085194
 30
0.0
 11
466.7397349137364
 21
392.7838965301788
 31
0.0
  0
SPLINE
  5
5C4
102
{ACAD_REACTORS
330
591
102
}
330
18
100
AcDbEntity
  8
ROGO
 62
     4
100
AcDbSpline
210
0.0
220
0.0
230
1.0
 70
     8
 71
     3
 72
    16
 73
    12
 74
    10
 42
0.0000000001
 43
0.0000000001
 44
0.0000000001
 40
0.0
 40
0.0
 40
0.0
 40
0.0
 40
0.1255907025629711
 40
0.1869327038470372
 40
0.2171823804790188
 40
0.2490606136884497
 40
0.2947101524738226
 40
0.3362763310931653
 40
0.3796288870083566
 40
0.452312579561098
 40
0.5242542460842631
 40
0.5242542460842631
 40
0.5242542460842631
 40
0.5242542460842631
 10
466.329125162854
 20
393.6084664085194
 30
0.0
 10
466.2865944552326
 20
393.6019823152154
 30
0.0
 10
466.2232905640213
 20
393.5923312099299
 30
0.0
 10
466.1660448126299
 20
393.5470161029542
 30
0.0
 10
466.1337621835061
 20
393.5200566306377
 30
0.0
 10
466.1227794892543
 20
393.4843546364555
 30
0.0
 10
466.0932834213939
 20
393.4569409854199
 30
0.0
 10
466.0689702715164
 20
393.4192658047036
 30
0.0
 10
466.0631648424548
 20
393.3675183337448
 30
0.0
 10
466.0674261603024
 20
393.2948986446073
 30
0.0
 10
466.1183428748714
 20
393.279918200608
 30
0.0
 10
466.1436706135432
 20
393.2724664085194
 30
0.0
 11
466.329125162854
 21
393.6084664085194
 31
0.0
 11
466.2078665926002
 21
393.575764975672
 31
0.0
 11
466.1579365689573
 21
393.5401302473784
 31
0.0
 11
466.1365380459894
 21
393.5187492709944
 31
0.0
 11
466.1222720905752
 21
393.4902413024826
 31
0.0
 11
466.0937405899002
 21
393.4546065741891
 31
0.0
 11
466.0723420669322
 21
393.4189716135492
 31
0.0
 11
466.0652090892251
 21
393.3762098931277
 31
0.0
 11
466.0794750446394
 21
393.304939971848
 31
0.0
 11
466.1436706135432
 21
393.2724664085194
 31
0.0
  0
LINE
  5
5C5
102
{ACAD_REACTORS
330
591
102
}
330
18
100
AcDbEntity
  8
ROGO
 62
     4
100
AcDbLine
 10
466.1436706135431
 20
393.2724664085194
 30
0.0
 11
466.9833516344152
 21
393.2724664085194
 31
0.0
  0
LINE
  5
5C6
102
{ACAD_REACTORS
330
591
102
}
330
18
100
AcDbEntity
  8
ROGO
 62
     4
100
AcDbLine
 10
466.3291251628539
 20
393.6084664085194
 30
0.0
 11
467.150892086205
 21
393.6084664085194
 31
0.0
  0
LINE
  5
5C7
102
{ACAD_REACTORS
330
591
102
}
330
18
100
AcDbEntity
  8
ROGO
 62
     4
100
AcDbLine
 10
467.3945113867457
 20
394.0970414607363
 30
0.0
 11
467.150892086205
 21
393.6084664085194
 31
0.0
  0
TEXT
  5
5C8
330
18
100
AcDbEntity
  8
文字
100
AcDbText
 10
464.445244482142
 20
401.6534801645248
 30
0.0
 40
2.0
  1
0
  7
STYLE3
100
AcDbText
  0
LINE
  5
5C9
330
18
100
AcDbEntity
  8
目盛
100
AcDbLine
 10
465.4270083855407
 20
407.7320748196298
 30
0.0
 11
465.4270083855407
 21
404.7320748196297
 31
0.0
  0
LINE
  5
5CA
330
18
100
AcDbEntity
  8
目盛
100
AcDbLine
 10
459.707140980749
 20
407.0094875255882
 30
0.0
 11
460.2045207550788
 21
405.0723212033309
 31
0.0
  0
LINE
  5
5CB
330
18
100
AcDbEntity
  8
目盛
100
AcDbLine
 10
461.1172381500691
 20
407.3246815863895
 30
0.0
 11
461.4920007792405
 21
405.3601070849322
 31
0.0
  0
LINE
  5
5CC
330
18
100
AcDbEntity
  8
目盛
100
AcDbLine
 10
462.5443440135618
 20
407.5507129498627
 30
0.0
 11
462.7950104806903
 21
405.5664835472337
 31
0.0
  0
LINE
  5
5CD
330
18
100
AcDbEntity
  8
目盛
100
AcDbLine
 10
463.9828264363665
 20
407.6866895734799
 30
0.0
 11
464.1084074754251
 21
405.6906361166234
 31
0.0
  0
LINE
  5
5CE
330
18
100
AcDbEntity
  8
目盛
100
AcDbLine
 10
466.8711903347151
 20
407.6866895734799
 30
0.0
 11
466.7456092956564
 21
405.6906361166234
 31
0.0
  0
LINE
  5
5CF
330
18
100
AcDbEntity
  8
目盛
100
AcDbLine
 10
468.30967275752
 20
407.5507129498627
 30
0.0
 11
468.0590062903913
 21
405.5664835472337
 31
0.0
  0
LINE
  5
5D0
330
18
100
AcDbEntity
  8
目盛
100
AcDbLine
 10
469.7367786210125
 20
407.3246815863895
 30
0.0
 11
469.3620159918411
 21
405.3601070849321
 31
0.0
  0
LINE
  5
5D1
330
18
100
AcDbEntity
  8
目盛
100
AcDbLine
 10
471.1468757903325
 20
407.0094875255882
 30
0.0
 11
470.6494960160028
 21
405.0723212033309
 31
0.0
  0
LINE
  5
5D2
330
18
100
AcDbEntity
  8
外形線
  6
Continuous
100
AcDbLine
 10
461.7270083855408
 20
425.2320748196296
 30
0.0
 11
461.7270083855408
 21
418.7320748196296
 31
0.0
  0
LINE
  5
5D3
330
18
100
AcDbEntity
  8
外形線
  6
Continuous
100
AcDbLine
 10
469.1270083855407
 20
425.2320748196296
 30
0.0
 11
469.1270083855407
 21
418.7320748196296
 31
0.0
  0
LINE
  5
5D4
330
18
100
AcDbEntity
  8
外形線
  6
Continuous
100
AcDbLine
 10
461.4270083855407
 20
412.7320748196296
 30
0.0
 11
469.4270083855407
 21
412.7320748196296
 31
0.0
  0
LINE
  5
5D5
330
18
100
AcDbEntity
  8
外形線
  6
Continuous
100
AcDbLine
 10
461.4270083855408
 20
418.7320748196296
 30
0.0
 11
469.4270083855407
 21
418.7320748196296
 31
0.0
  0
HATCH
  5
5D6
330
18
100
AcDbEntity
  8
ﾊｯﾁﾝｸ
  6
Continuous
100
AcDbHatch
 10
0.0
 20
0.0
 30
0.0
210
0.0
220
0.0
230
1.0
  2
ANSI37
 70
     0
 71
     0
 91
        1
 92
        7
 72
     0
 73
     1
 93
        4
 10
465.4270083855408
 20
418.7320748196296
 10
461.4270083855408
 20
418.7320748196296
 10
461.4270083855408
 20
412.7320748196296
 10
465.4270083855408
 20
412.7320748196296
 97
        0
 75
     0
 76
     1
 52
0.0
 41
10.0
 77
     0
 78
     2
 53
45.0
 43
272.9540042490826
 44
263.6131365858303
 45
-0.8838834764831842
 46
0.8838834764831844
 79
     0
 53
135.0
 43
272.9540042490826
 44
263.6131365858303
 45
-0.8838834764831844
 46
-0.8838834764831842
 79
     0
 47
0.1856754751158765
 98
        1
 10
463.6801606025847
 20
416.5081208638161
  0
LINE
  5
5D7
330
18
100
AcDbEntity
  8
外形線
  6
Continuous
100
AcDbLine
 10
461.4270083855408
 20
418.7320748196296
 30
0.0
 11
461.4270083855408
 21
412.7320748196296
 31
0.0
  0
LINE
  5
5D8
330
18
100
AcDbEntity
  8
外形線
  6
Continuous
100
AcDbLine
 10
469.4270083855407
 20
418.7320748196296
 30
0.0
 11
469.4270083855407
 21
412.7320748196296
 31
0.0
  0
ARC
  5
5D9
330
18
100
AcDbEntity
  8
外形線
  6
Continuous
100
AcDbCircle
 10
465.4270083855407
 20
418.8870748196298
 30
0.0
 40
7.344999999999885
100
AcDbArc
 50
59.75198538337817
 51
120.2480146166212
  0
LINE
  5
5DA
330
18
100
AcDbEntity
  8
外形線
  6
Continuous
100
AcDbLine
 10
461.7270083855408
 20
425.2320748196296
 30
0.0
 11
469.1270083855407
 21
425.2320748196296
 31
0.0
  0
POINT
  5
5DB
330
18
100
AcDbEntity
  8
DEFPOINTS
  6
ByBlock
 62
     0
100
AcDbPoint
 10
465.4270083855407
 20
426.2320748196297
 30
0.0
  0
LINE
  5
5DC
330
18
100
AcDbEntity
  8
目盛
100
AcDbLine
 10
481.1715918219006
 20
367.9657963889373
 30
0.0
 11
479.8024976100432
 21
369.4237336437802
 31
0.0
  0
LINE
  5
5DD
330
18
100
AcDbEntity
  8
目盛
100
AcDbLine
 10
480.0877601497606
 20
367.0102702357866
 30
0.0
 11
478.8129121702633
 21
368.5512967213382
 31
0.0
  0
LINE
  5
5DE
330
18
100
AcDbEntity
  8
目盛
100
AcDbLine
 10
478.9460691882677
 20
366.124683949006
 30
0.0
 11
477.1827134313901
 21
368.5517349321308
 31
0.0
  0
LINE
  5
5DF
330
18
100
AcDbEntity
  8
目盛
100
AcDbLine
 10
477.7510246700576
 20
365.3125325330835
 30
0.0
 11
476.6793710800997
 21
367.0011883840875
 31
0.0
  0
LINE
  5
5E0
330
18
100
AcDbEntity
  8
目盛
100
AcDbLine
 10
476.5073428898801
 20
364.577021178621
 30
0.0
 11
475.5438355416767
 21
366.3296345387087
 31
0.0
  0
LINE
  5
5E1
330
18
100
AcDbEntity
  8
目盛
100
AcDbLine
 10
475.2199320915373
 20
363.9210526129113
 30
0.0
 11
474.3683735084072
 21
365.7307067178434
 31
0.0
  0
LINE
  5
5E2
330
18
100
AcDbEntity
  8
目盛
100
AcDbLine
 10
473.8938730972883
 20
363.3472156442
 30
0.0
 11
473.157623991919
 21
365.2067686159765
 31
0.0
  0
TEXT
  5
5E3
330
18
100
AcDbEntity
  8
文字
100
AcDbText
 10
481.5185362374576
 20
389.4004850504099
 30
0.0
 40
2.0
  1
2
  7
STYLE3
100
AcDbText
  0
LINE
  5
5E4
330
18
100
AcDbEntity
  8
目盛
100
AcDbLine
 10
485.5820620265496
 20
373.6517403152904
 30
0.0
 11
483.8294486664619
 21
374.6152476634938
 31
0.0
  0
LINE
  5
5E5
330
18
100
AcDbEntity
  8
目盛
100
AcDbLine
 10
484.8465506720871
 20
372.4080585351129
 30
0.0
 11
483.1578948210831
 21
373.4797121250709
 31
0.0
  0
TEXT
  5
5E6
330
18
100
AcDbEntity
  8
文字
100
AcDbText
 10
481.6542098643231
 20
377.904783143644
 30
0.0
 40
2.0
  1
3
  7
STYLE3
100
AcDbText
  0
TEXT
  5
5E7
330
18
100
AcDbEntity
  8
文字
100
AcDbText
 10
474.7139591166996
 20
368.8065604060983
 30
0.0
 40
2.0
  1
4
  7
STYLE3
100
AcDbText
  0
LINE
  5
5E8
330
18
100
AcDbEntity
  8
目盛
100
AcDbLine
 10
484.0343992561645
 20
371.2130140169029
 30
0.0
 11
481.6073482730398
 21
372.9763697737804
 31
0.0
  0
LINE
  5
5E9
330
18
100
AcDbEntity
  8
目盛
100
AcDbLine
 10
483.1488129693839
 20
370.0713230554099
 30
0.0
 11
481.6077864838322
 21
371.3461710349073
 31
0.0
  0
LINE
  5
5EA
330
18
100
AcDbEntity
  8
目盛
100
AcDbLine
 10
482.1932868162331
 20
368.98749138327
 30
0.0
 11
480.7353495613903
 21
370.3565855951274
 31
0.0
  0
LINE
  5
5EB
330
18
100
AcDbEntity
  8
目盛
100
AcDbLine
 10
487.7044210914992
 20
379.0122074148381
 30
0.0
 11
485.767254769242
 21
379.5095871891678
 31
0.0
  0
LINE
  5
5EC
330
18
100
AcDbEntity
  8
目盛
100
AcDbLine
 10
487.3013082603292
 20
377.624683949006
 30
0.0
 11
484.4481387114437
 21
378.5517349321308
 31
0.0
  0
LINE
  5
5ED
330
18
100
AcDbEntity
  8
目盛
100
AcDbLine
 10
486.8118675609705
 20
376.2652101078822
 30
0.0
 11
484.9523145891939
 21
377.0014592132516
 31
0.0
  0
LINE
  5
5EE
330
18
100
AcDbEntity
  8
目盛
100
AcDbLine
 10
486.2380305922592
 20
374.9391511136332
 30
0.0
 11
484.428376487327
 21
375.7907096967632
 31
0.0
  0
LINE
  5
5EF
330
18
100
AcDbEntity
  8
目盛
100
AcDbLine
 10
485.4270083855407
 20
384.7320748196298
 30
0.0
 11
488.4270083855407
 21
384.7320748196298
 31
0.0
  0
LINE
  5
5F0
330
18
100
AcDbEntity
  8
目盛
100
AcDbLine
 10
488.0196151523005
 20
389.0418450551014
 30
0.0
 11
486.0550406508432
 21
388.6670824259299
 31
0.0
  0
LINE
  5
5F1
330
18
100
AcDbEntity
  8
目盛
100
AcDbLine
 10
488.2456465157737
 20
387.6147391916088
 30
0.0
 11
486.2614171131446
 21
387.3640727244802
 31
0.0
  0
LINE
  5
5F2
330
18
100
AcDbEntity
  8
目盛
100
AcDbLine
 10
488.3816231393908
 20
386.1762567688039
 30
0.0
 11
486.3855696825344
 21
386.0506757297453
 31
0.0
  0
LINE
  5
5F3
330
18
100
AcDbEntity
  8
目盛
100
AcDbLine
 10
488.3816231393908
 20
383.2878928704555
 30
0.0
 11
486.3855696825344
 21
383.4134739095142
 31
0.0
  0
LINE
  5
5F4
330
18
100
AcDbEntity
  8
目盛
100
AcDbLine
 10
488.2456465157737
 20
381.8494104476508
 30
0.0
 11
486.2614171131447
 21
382.1000769147794
 31
0.0
  0
LINE
  5
5F5
330
18
100
AcDbEntity
  8
目盛
100
AcDbLine
 10
488.0196151523005
 20
380.4223045841581
 30
0.0
 11
486.0550406508432
 21
380.7970672133296
 31
0.0
  0
LINE
  5
5F6
330
18
100
AcDbEntity
  8
目盛
100
AcDbLine
 10
484.8465506720871
 20
397.0560911041466
 30
0.0
 11
483.1578948210831
 21
395.9844375141886
 31
0.0
  0
LINE
  5
5F7
330
18
100
AcDbEntity
  8
目盛
100
AcDbLine
 10
485.5820620265496
 20
395.8124093239692
 30
0.0
 11
483.8294486664619
 21
394.8489019757657
 31
0.0
  0
LINE
  5
5F8
330
18
100
AcDbEntity
  8
目盛
100
AcDbLine
 10
481.1715918219006
 20
401.4983532503221
 30
0.0
 11
479.8024976100432
 21
400.0404159954793
 31
0.0
  0
LINE
  5
5F9
102
{ACAD_REACTORS
330
525
102
}
330
18
100
AcDbEntity
  8
ROGO
 62
     4
100
AcDbLine
 10
472.1676575759614
 20
392.0451626758303
 30
0.0
 11
472.9237247759614
 21
392.0451626758303
 31
0.0
  0
LINE
  5
5FA
102
{ACAD_REACTORS
330
525
102
}
330
18
100
AcDbEntity
  8
ROGO
 62
     4
100
AcDbLine
 10
472.8989998054577
 20
394.0970414607363
 30
0.0
 11
473.6550670054577
 21
394.0970414607363
 31
0.0
  0
LINE
  5
5FB
102
{ACAD_REACTORS
330
525
102
}
330
18
100
AcDbEntity
  8
ROGO
 62
     4
100
AcDbLine
 10
472.4121582601265
 20
393.0711020682833
 30
0.0
 11
473.6550670054577
 21
394.0970414607363
 31
0.0
  0
LINE
  5
5FC
102
{ACAD_REACTORS
330
525
102
}
330
18
100
AcDbEntity
  8
ROGO
 62
     4
100
AcDbLine
 10
472.4121582601265
 20
393.0711020682833
 30
0.0
 11
472.9237247759614
 21
392.0451626758303
 31
0.0
  0
LINE
  5
5FD
102
{ACAD_REACTORS
330
525
102
}
330
18
100
AcDbEntity
  8
ROGO
 62
     4
100
AcDbLine
 10
472.5449867223789
 20
393.8730180519146
 30
0.0
 11
472.8989998054577
 21
394.0970414607363
 31
0.0
  0
LINE
  5
5FE
102
{ACAD_REACTORS
330
525
102
}
330
18
100
AcDbEntity
  8
ROGO
 62
     4
100
AcDbLine
 10
472.6566920292999
 20
394.0970414607363
 30
0.0
 11
472.5449867223789
 21
393.8730180519146
 31
0.0
  0
TEXT
  5
5FF
330
18
100
AcDbEntity
  8
文字
100
AcDbText
 10
474.8662056912845
 20
398.4926141679409
 30
0.0
 40
2.0
  1
1
  7
STYLE3
100
AcDbText
  0
LINE
  5
600
330
18
100
AcDbEntity
  8
目盛
100
AcDbLine
 10
482.1932868162331
 20
400.4766582559895
 30
0.0
 11
480.7353495613903
 21
399.1075640441322
 31
0.0
  0
LINE
  5
601
330
18
100
AcDbEntity
  8
目盛
100
AcDbLine
 10
483.1488129693839
 20
399.3928265838496
 30
0.0
 11
481.6077864838322
 21
398.1179786043522
 31
0.0
  0
LINE
  5
602
330
18
100
AcDbEntity
  8
目盛
100
AcDbLine
 10
484.0343992561645
 20
398.2511356223566
 30
0.0
 11
481.6073482730397
 21
396.4877798654792
 31
0.0
  0
LINE
  5
603
330
18
100
AcDbEntity
  8
目盛
100
AcDbLine
 10
478.9460691882677
 20
403.3394656902534
 30
0.0
 11
477.1827134313902
 21
400.9124147071286
 31
0.0
  0
LINE
  5
604
330
18
100
AcDbEntity
  8
目盛
100
AcDbLine
 10
473.8938730972884
 20
406.1169339950594
 30
0.0
 11
473.157623991919
 21
404.2573810232829
 31
0.0
  0
LINE
  5
605
330
18
100
AcDbEntity
  8
目盛
100
AcDbLine
 10
475.2199320915376
 20
405.5430970263481
 30
0.0
 11
474.3683735084074
 21
403.733442921416
 31
0.0
  0
LINE
  5
606
330
18
100
AcDbEntity
  8
目盛
100
AcDbLine
 10
476.5073428898803
 20
404.8871284606384
 30
0.0
 11
475.5438355416768
 21
403.1345151005508
 31
0.0
  0
LINE
  5
607
330
18
100
AcDbEntity
  8
目盛
100
AcDbLine
 10
477.7510246700578
 20
404.151617106176
 30
0.0
 11
476.6793710800997
 21
402.4629612551719
 31
0.0
  0
LINE
  5
608
330
18
100
AcDbEntity
  8
目盛
100
AcDbLine
 10
480.0877601497606
 20
402.4538794034728
 30
0.0
 11
478.8129121702632
 21
400.9128529179212
 31
0.0
  0
LINE
  5
609
330
18
100
AcDbEntity
  8
目盛
100
AcDbLine
 10
486.2380305922592
 20
394.5249985256264
 30
0.0
 11
484.4283764873272
 21
393.6734399424963
 31
0.0
  0
LINE
  5
60A
330
18
100
AcDbEntity
  8
目盛
100
AcDbLine
 10
486.8118675609705
 20
393.1989395313773
 30
0.0
 11
484.9523145891939
 21
392.462690426008
 31
0.0
  0
LINE
  5
60B
330
18
100
AcDbEntity
  8
目盛
100
AcDbLine
 10
487.3013082603292
 20
391.8394656902535
 30
0.0
 11
484.4481387114437
 21
390.9124147071287
 31
0.0
  0
LINE
  5
60C
330
18
100
AcDbEntity
  8
目盛
100
AcDbLine
 10
487.7044210914993
 20
390.4519422244214
 30
0.0
 11
485.767254769242
 21
389.9545624500916
 31
0.0
  0
CIRCLE
  5
60D
330
18
100
AcDbEntity
  8
外形線
100
AcDbCircle
 10
465.4270083855407
 20
384.7320748196298
 30
0.0
 40
26.4
  0
LINE
  5
644
330
18
100
AcDbEntity
  8
外形線
 48
0.5
100
AcDbLine
 10
462.4270083855406
 20
355.2320748196299
 30
0.0
 11
468.4270083855407
 21
355.2320748196298
 31
0.0
  0
LINE
  5
645
330
18
100
AcDbEntity
  8
外形線
 48
0.5
100
AcDbLine
 10
463.6770083855407
 20
345.2320748196298
 30
0.0
 11
467.1770083855408
 21
345.2320748196298
 31
0.0
  0
LINE
  5
646
330
18
100
AcDbEntity
  8
外形線
 48
0.5
100
AcDbLine
 10
469.4270083855407
 20
356.2320748196298
 30
0.0
 11
469.4270083855406
 21
358.6368645311496
 31
0.0
  0
LINE
  5
647
330
18
100
AcDbEntity
  8
外形線
 48
0.5
100
AcDbLine
 10
461.4270083855406
 20
356.2320748196299
 30
0.0
 11
461.4270083855406
 21
358.6368645311496
 31
0.0
  0
LINE
  5
648
330
18
100
AcDbEntity
  8
外形線
 48
0.5
100
AcDbLine
 10
461.4270083855406
 20
356.2320748196297
 30
0.0
 11
469.4270083855406
 21
356.2320748196298
 31
0.0
  0
LINE
  5
649
330
18
100
AcDbEntity
  8
外形線
 48
0.5
100
AcDbLine
 10
461.4270083855406
 20
356.2320748196299
 30
0.0
 11
462.4270083855406
 21
355.2320748196299
 31
0.0
  0
LINE
  5
64A
330
18
100
AcDbEntity
  8
外形線
 48
0.5
100
AcDbLine
 10
468.4270083855407
 20
355.2320748196298
 30
0.0
 11
469.4270083855407
 21
356.2320748196298
 31
0.0
  0
LINE
  5
64B
330
18
100
AcDbEntity
  8
外形線
 48
0.5
100
AcDbLine
 10
467.1770083855407
 20
344.168181105195
 30
0.0
 11
467.1770083855406
 21
355.2320748196299
 31
0.0
  0
LINE
  5
64C
330
18
100
AcDbEntity
  8
外形線
 48
0.5
100
AcDbLine
 10
463.6770083855407
 20
344.1681811051954
 30
0.0
 11
463.6770083855407
 21
355.2320748196299
 31
0.0
  0
ARC
  5
64D
330
18
100
AcDbEntity
  8
外形線
100
AcDbCircle
 10
465.4270083855407
 20
341.8320748196297
 30
0.0
 40
0.6
100
AcDbArc
 50
201.3119739705772
 51
338.6880260293593
  0
LINE
  5
64E
330
18
100
AcDbEntity
  8
外形線
100
AcDbLine
 10
465.9859775614036
 20
341.614007260293
 30
0.0
 11
467.1770083855407
 21
344.168181105195
 31
0.0
  0
LINE
  5
64F
330
18
100
AcDbEntity
  8
外形線
100
AcDbLine
 10
464.8680392096777
 20
341.614007260293
 30
0.0
 11
463.6770083855406
 21
344.1681811051954
 31
0.0
  0
LINE
  5
650
330
18
100
AcDbEntity
  8
外形線
100
AcDbLine
 10
463.6770083855407
 20
344.1681811051954
 30
0.0
 11
467.1770083855407
 21
344.168181105195
 31
0.0
  0
LINE
  5
651
330
18
100
AcDbEntity
  8
外形線
 48
0.5
100
AcDbLine
 10
473.4270083855407
 20
325.7320748196297
 30
0.0
 11
473.4270083855407
 21
341.2320748196297
 31
0.0
  0
LINE
  5
652
330
18
100
AcDbEntity
  8
外形線
 48
0.5
100
AcDbLine
 10
463.4270083855406
 20
325.7320748196297
 30
0.0
 11
463.4270083855406
 21
341.2320748196297
 31
0.0
  0
LINE
  5
653
330
18
100
AcDbEntity
  8
外形線
100
AcDbLine
 10
463.4270083855406
 20
341.2320748196297
 30
0.0
 11
473.4270083855407
 21
341.2320748196297
 31
0.0
  0
LINE
  5
654
330
18
100
AcDbEntity
  8
外形線
100
AcDbLine
 10
463.4270083855406
 20
325.7320748196297
 30
0.0
 11
473.4270083855407
 21
325.7320748196297
 31
0.0
  0
LINE
  5
655
330
18
100
AcDbEntity
  8
中心線
100
AcDbLine
 10
466.0479202413905
 20
328.7320748196297
 30
0.0
 11
470.9302112067139
 21
328.7320748196297
 31
0.0
  0
LINE
  5
656
330
18
100
AcDbEntity
  8
中心線
100
AcDbLine
 10
466.0479202413905
 20
334.7320748196297
 30
0.0
 11
470.9302112067139
 21
334.7320748196297
 31
0.0
  0
LINE
  5
657
330
18
100
AcDbEntity
  8
中心線
 48
0.5
100
AcDbLine
 10
468.4270083855407
 20
326.0083544463906
 30
0.0
 11
468.4270083855407
 21
337.3649696322275
 31
0.0
  0
CIRCLE
  5
658
330
18
100
AcDbEntity
  8
外形線
100
AcDbCircle
 10
468.4270083855407
 20
334.7320748196297
 30
0.0
 40
1.8
  0
CIRCLE
  5
659
330
18
100
AcDbEntity
  8
外形線
100
AcDbCircle
 10
468.4270083855407
 20
328.7320748196297
 30
0.0
 40
1.8
  0
LINE
  5
65A
330
18
100
AcDbEntity
  8
想像線
 48
0.5
100
AcDbLine
 10
474.4270083855407
 20
359.3320748196297
 30
0.0
 11
452.4270083855407
 21
359.3320748196298
 31
0.0
  0
LINE
  5
65B
330
18
100
AcDbEntity
  8
想像線
100
AcDbLine
 10
456.1657827299098
 20
350.9933004752607
 30
0.0
 11
454.6881782081085
 21
352.470904997062
 31
0.0
  0
LINE
  5
65C
330
18
100
AcDbEntity
  8
想像線
100
AcDbLine
 10
456.176195076259
 20
352.4812615103479
 30
0.0
 11
454.6506957497244
 21
350.9557621838134
 31
0.0
  0
CIRCLE
  5
65D
330
18
100
AcDbEntity
  8
想像線
100
AcDbCircle
 10
455.4270083855406
 20
351.7320748196297
 30
0.0
 40
1.5
  0
LINE
  5
65E
330
18
100
AcDbEntity
  8
想像線
 48
0.5
100
AcDbLine
 10
452.4270083855407
 20
359.3320748196298
 30
0.0
 11
452.4270083855404
 21
349.3320748196297
 31
0.0
  0
LINE
  5
65F
330
18
100
AcDbEntity
  8
中心線
100
AcDbLine
 10
455.4270083855406
 20
349.0878280050049
 30
0.0
 11
455.4270083855406
 21
359.5029623966328
 31
0.0
  0
LINE
  5
660
330
18
100
AcDbEntity
  8
想像線
 48
0.5
100
AcDbLine
 10
458.4270083855407
 20
349.3320748196297
 30
0.0
 11
452.4270083855404
 21
349.3320748196297
 31
0.0
  0
LINE
  5
661
330
18
100
AcDbEntity
  8
想像線
100
AcDbLine
 10
456.1657827299098
 20
355.9933004752608
 30
0.0
 11
454.6881782081085
 21
357.4709049970621
 31
0.0
  0
LINE
  5
662
330
18
100
AcDbEntity
  8
想像線
100
AcDbLine
 10
456.1761950762587
 20
357.481261510348
 30
0.0
 11
454.6506957497244
 21
355.9557621838134
 31
0.0
  0
CIRCLE
  5
663
330
18
100
AcDbEntity
  8
想像線
100
AcDbCircle
 10
455.4270083855406
 20
356.7320748196298
 30
0.0
 40
1.5
  0
LINE
  5
664
330
18
100
AcDbEntity
  8
中心線
100
AcDbLine
 10
458.6443168887768
 20
356.7320748196297
 30
0.0
 11
452.3584766939451
 21
356.7320748196297
 31
0.0
  0
LINE
  5
665
330
18
100
AcDbEntity
  8
中心線
100
AcDbLine
 10
458.6279413109099
 20
351.7320748196297
 30
0.0
 11
452.2290386246271
 21
351.7320748196297
 31
0.0
  0
LINE
  5
666
330
18
100
AcDbEntity
  8
想像線
 48
0.5
100
AcDbLine
 10
458.4270083855407
 20
359.3320748196297
 30
0.0
 11
458.4270083855405
 21
324.3320748196297
 31
0.0
  0
LINE
  5
667
330
18
100
AcDbEntity
  8
想像線
 48
0.5
100
AcDbLine
 10
474.4270083855407
 20
324.3320748196297
 30
0.0
 11
458.4270083855405
 21
324.3320748196297
 31
0.0
  0
LINE
  5
668
330
18
100
AcDbEntity
  8
想像線
 48
0.5
100
AcDbLine
 10
474.4270083855407
 20
359.3320748196297
 30
0.0
 11
474.4270083855407
 21
324.3320748196297
 31
0.0
  0
LINE
  5
669
330
18
100
AcDbEntity
  8
想像線
100
AcDbLine
 10
469.16578272991
 20
333.9933004752609
 30
0.0
 11
467.6881782081086
 21
335.4709049970621
 31
0.0
  0
LINE
  5
66A
330
18
100
AcDbEntity
  8
想像線
100
AcDbLine
 10
469.1761950762589
 20
335.481261510348
 30
0.0
 11
467.6506957497245
 21
333.9557621838133
 31
0.0
  0
LINE
  5
66B
330
18
100
AcDbEntity
  8
想像線
100
AcDbLine
 10
469.1657827299097
 20
327.9933004752607
 30
0.0
 11
467.6881782081084
 21
329.470904997062
 31
0.0
  0
LINE
  5
66C
330
18
100
AcDbEntity
  8
想像線
100
AcDbLine
 10
469.1761950762589
 20
329.481261510348
 30
0.0
 11
467.6506957497243
 21
327.9557621838133
 31
0.0
  0
POINT
  5
66D
330
18
100
AcDbEntity
  8
DEFPOINTS
  6
ByBlock
 62
     0
100
AcDbPoint
 10
463.6070476161517
 20
344.3935387677028
 30
0.0
  0
LINE
  5
672
330
18
100
AcDbEntity
  8
中心線
 48
0.5
100
AcDbLine
 10
428.4270083855406
 20
359.8826551229221
 30
0.0
 11
428.4270083855408
 21
313.3496105918719
 31
0.0
  0
ARC
  5
692
330
18
100
AcDbEntity
  8
隠れ線2
100
AcDbCircle
 10
433.4270083855407
 20
371.7320748196298
 30
0.0
 40
10.0
100
AcDbArc
 50
351.74527319898
 51
14.78887065944338
  0
ARC
  5
693
330
18
100
AcDbEntity
  8
隠れ線2
100
AcDbCircle
 10
490.3810083855407
 20
359.4820748196298
 30
0.0
 40
11.0
100
AcDbArc
 50
134.1521134463541
 51
163.4766346779028
  0
ARC
  5
694
330
18
100
AcDbEntity
  8
隠れ線2
100
AcDbCircle
 10
465.4270083855407
 20
384.7320748196298
 30
0.0
 40
24.5
100
AcDbArc
 50
314.9490276219478
 51
202.1601497195092
  0
ARC
  5
699
330
18
100
AcDbEntity
  8
寸法線
100
AcDbCircle
 10
450.4270083855407
 20
336.7320748196298
 30
0.0
 40
150.0
100
AcDbArc
 50
164.910605735358
 51
217.6615373085804
  0
ARC
  5
69D
330
18
100
AcDbEntity
  8
寸法線
100
AcDbCircle
 10
450.4270083855407
 20
336.7320748196298
 30
0.0
 40
15.0
100
AcDbArc
 50
320.4016897431227
 51
50.35862467208359
  0
LINE
  5
6A9
330
18
100
AcDbEntity
  8
中心線
 48
0.5
100
AcDbLine
 10
450.4270083855407
 20
352.4242552065923
 30
0.0
 11
450.4270083855407
 21
257.371173749216
 31
0.0
  0
POINT
  5
6B7
330
18
100
AcDbEntity
  8
DEFPOINTS
  6
ByBlock
 62
     0
100
AcDbPoint
 10
462.7617809394705
 20
345.2674943197376
 30
0.0
  0
POINT
  5
6B8
330
18
100
AcDbEntity
  8
DEFPOINTS
  6
ByBlock
 62
     0
100
AcDbPoint
 10
450.4270083855407
 20
336.7320748196298
 30
0.0
  0
DIMENSION
  5
6F8
330
18
100
AcDbEntity
  8
寸法線
100
AcDbDimension
  2
*D5
 10
590.4270083855407
 20
258.621173749216
 30
0.0
 11
540.4270083855407
 21
260.496173749216
 31
0.0
 70
    32
 71
     5
 42
-1.0
  3
STYLE3
100
AcDbAlignedDimension
 13
490.4270083855407
 23
323.0320748196298
 33
0.0
 14
590.4270083855407
 24
323.0320748196298
 34
0.0
100
AcDbRotatedDimension
1001
ACAD
1000
DSTYLE
1002
{
1070
    75
1070
     1
1070
   271
1070
     2
1070
   279
1070
     1
1002
}
  0
LINE
  5
702
330
18
100
AcDbEntity
  8
0
  6
ByBlock
 62
     2
100
AcDbLine
 10
490.4270083855407
 20
323.0320748196298
 30
0.0
 11
490.4270083855407
 21
257.371173749216
 31
0.0
  0
LINE
  5
703
330
18
100
AcDbEntity
  8
0
  6
ByBlock
 62
     2
100
AcDbLine
 10
452.9270083855407
 20
258.621173749216
 30
0.0
 11
487.9270083855407
 21
258.621173749216
 31
0.0
  0
INSERT
  5
704
330
18
100
AcDbEntity
  8
0
  6
ByBlock
 62
     2
100
AcDbBlockReference
  2
_OPEN
 10
450.4270083855407
 20
258.621173749216
 30
0.0
 41
2.5
 42
2.5
 43
2.5
 50
180.0
  0
INSERT
  5
705
330
18
100
AcDbEntity
  8
0
  6
ByBlock
 62
     2
100
AcDbBlockReference
  2
_OPEN
 10
490.4270083855407
 20
258.621173749216
 30
0.0
 41
2.5
 42
2.5
 43
2.5
  0
MTEXT
  5
706
330
18
100
AcDbEntity
  8
0
  6
ByBlock
 62
     6
100
AcDbMText
 10
470.4270083855407
 20
260.496173749216
 30
0.0
 40
2.5
 41
0.0
 71
     5
 72
     1
  1
\A1;40
  7
STYLE3
 73
     1
 44
1.0
  0
POINT
  5
708
330
18
100
AcDbEntity
  8
DEFPOINTS
  6
ByBlock
 62
     0
100
AcDbPoint
 10
490.4270083855407
 20
323.0320748196298
 30
0.0
  0
POINT
  5
709
330
18
100
AcDbEntity
  8
DEFPOINTS
  6
ByBlock
 62
     0
100
AcDbPoint
 10
490.4270083855407
 20
258.621173749216
 30
0.0
  0
LINE
  5
70B
330
18
100
AcDbEntity
  8
想像線
 48
0.5
100
AcDbLine
 10
425.4270083855406
 20
390.0486951173641
 30
0.0
 11
425.4270083855407
 21
303.7722994813948
 31
0.0
  0
LINE
  5
71A
330
18
100
AcDbEntity
  8
0
  6
ByBlock
 62
     2
100
AcDbLine
 10
300.4270083855407
 20
372.6566823459886
 30
0.0
 11
300.4270083855407
 21
390.0486951173641
 31
0.0
  0
LINE
  5
71C
330
18
100
AcDbEntity
  8
0
  6
ByBlock
 62
     2
100
AcDbLine
 10
302.9270083855407
 20
388.7986951173642
 30
0.0
 11
422.9270083855407
 21
388.7986951173642
 31
0.0
  0
INSERT
  5
71D
330
18
100
AcDbEntity
  8
0
  6
ByBlock
 62
     2
100
AcDbBlockReference
  2
_OPEN
 10
300.4270083855407
 20
388.7986951173642
 30
0.0
 41
2.5
 42
2.5
 43
2.5
 50
180.0
  0
INSERT
  5
71E
330
18
100
AcDbEntity
  8
0
  6
ByBlock
 62
     2
100
AcDbBlockReference
  2
_OPEN
 10
425.4270083855407
 20
388.7986951173642
 30
0.0
 41
2.5
 42
2.5
 43
2.5
  0
MTEXT
  5
71F
330
18
100
AcDbEntity
  8
0
  6
ByBlock
 62
     6
100
AcDbMText
 10
362.9270083855407
 20
390.6736951173641
 30
0.0
 40
2.5
 41
0.0
 71
     5
 72
     1
  1
\A1;125
  7
STYLE3
 73
     1
 44
1.0
  0
POINT
  5
720
330
18
100
AcDbEntity
  8
DEFPOINTS
  6
ByBlock
 62
     0
100
AcDbPoint
 10
300.4270083855407
 20
372.6566823459886
 30
0.0
  0
POINT
  5
731
330
18
100
AcDbEntity
  8
DEFPOINTS
  6
ByBlock
 62
     0
100
AcDbPoint
 10
450.4270083855407
 20
336.7320748196298
 30
0.0
  0
POINT
  5
742
330
18
100
AcDbEntity
  8
DEFPOINTS
  6
ByBlock
 62
     0
100
AcDbPoint
 10
450.4270083855407
 20
336.7320748196298
 30
0.0
  0
POINT
  5
757
330
18
100
AcDbEntity
  8
想像線
  6
ByBlock
 48
0.1
100
AcDbPoint
 10
321.7603417255734
 20
259.6289692361784
 30
0.0
  0
POINT
  5
76E
330
18
100
AcDbEntity
  8
想像線
  6
ByBlock
 48
0.1
100
AcDbPoint
 10
321.7603417255734
 20
259.6289692361785
 30
0.0
  0
POINT
  5
76F
330
18
100
AcDbEntity
  8
想像線
  6
ByBlock
 48
0.1
100
AcDbPoint
 10
321.7630745003049
 20
259.6244090711737
 30
0.0
  0
LINE
  5
77F
330
18
100
AcDbEntity
  8
0
  6
ByBlock
 62
     2
100
AcDbLine
 10
300.4270083855406
 20
336.7320748196299
 30
0.0
 11
272.3441122904552
 21
328.961936651829
 31
0.0
  0
LINE
  5
780
330
18
100
AcDbEntity
  8
0
  6
ByBlock
 62
     2
100
AcDbLine
 10
321.7603417255735
 20
259.6289692361783
 30
0.0
 11
293.6774456304881
 21
251.8588310683774
 31
0.0
  0
LINE
  5
781
330
18
100
AcDbEntity
  8
0
  6
ByBlock
 62
     2
100
AcDbLine
 10
274.215514981779
 20
326.8857979361101
 30
0.0
 11
294.2155149882691
 21
254.6016364508676
 31
0.0
  0
INSERT
  5
782
330
18
100
AcDbEntity
  8
0
  6
ByBlock
 62
     2
100
AcDbBlockReference
  2
_OPEN
 10
273.5488483150076
 20
329.2952699852147
 30
0.0
 41
2.5
 42
2.5
 43
2.5
 50
105.4660099559098
  0
INSERT
  5
783
330
18
100
AcDbEntity
  8
0
  6
ByBlock
 62
     2
100
AcDbBlockReference
  2
_OPEN
 10
294.8821816550404
 20
252.1921644017631
 30
0.0
 41
2.5
 42
2.5
 43
2.5
 50
285.4660099559098
  0
POINT
  5
785
330
18
100
AcDbEntity
  8
想像線
  6
ByBlock
 48
0.1
100
AcDbPoint
 10
321.7603417255734
 20
259.6289692361785
 30
0.0
  0
POINT
  5
786
330
18
100
AcDbEntity
  8
想像線
  6
ByBlock
 48
0.1
100
AcDbPoint
 10
321.7603417255735
 20
259.6289692361783
 30
0.0
  0
POINT
  5
787
330
18
100
AcDbEntity
  8
DEFPOINTS
  6
ByBlock
 62
     0
100
AcDbPoint
 10
294.8821816550404
 20
252.1921644017631
 30
0.0
  0
MTEXT
  5
789
330
18
100
AcDbEntity
  8
0
  6
ByBlock
 62
     6
100
AcDbMText
 10
282.5879430845085
 20
290.0065879174821
 30
0.0
 40
2.5
 41
0.0
 71
     5
 72
     1
  1
\A1;80
  7
STYLE3
 11
-0.2666666667085394
 21
0.9637888196418117
 31
0.0
 73
     1
 44
1.0
  0
DIMENSION
  5
7A6
330
18
100
AcDbEntity
  8
寸法線
100
AcDbDimension
  2
*D6
 10
590.4270083855407
 20
239.3323941276653
 30
0.0
 11
445.4270083855407
 21
241.2073941276653
 31
0.0
 70
    32
 71
     5
 42
-1.0
  3
STYLE3
100
AcDbAlignedDimension
 13
300.4270083855407
 23
245.5817494929541
 33
0.0
 14
590.4270083855407
 24
257.371173749216
 34
0.0
100
AcDbRotatedDimension
1001
ACAD
1000
DSTYLE
1002
{
1070
   271
1070
     2
1002
}
  0
POINT
  5
7B6
330
18
100
AcDbEntity
  8
DEFPOINTS
  6
ByBlock
 62
     0
100
AcDbPoint
 10
450.4270083855407
 20
336.7320748196297
 30
0.0
  0
POINT
  5
7C4
330
18
100
AcDbEntity
  8
DEFPOINTS
  6
ByBlock
 62
     0
100
AcDbPoint
 10
450.4270083855407
 20
336.7320748196296
 30
0.0
  0
LINE
  5
7CE
330
18
100
AcDbEntity
  8
0
  6
ByBlock
 62
     2
100
AcDbLine
 10
450.4270083855407
 20
336.7320748196298
 30
0.0
 11
314.2613437031922
 21
273.812191145117
 31
0.0
  0
MTEXT
  5
7CF
330
18
100
AcDbEntity
  8
0
  6
ByBlock
 62
     6
100
AcDbMText
 10
347.6763051555324
 20
291.4845760745499
 30
0.0
 40
2.5
 41
0.0
 71
     5
 72
     1
  1
\A1;R150
  7
STYLE3
 11
0.9077710978823235
 21
0.4194658911634186
 31
0.0
 73
     1
 44
1.0
  0
INSERT
  5
7D0
330
18
100
AcDbEntity
  8
0
  6
ByBlock
 62
     2
100
AcDbBlockReference
  2
_OPEN
 10
314.2613437031922
 20
273.812191145117
 30
0.0
 41
2.5
 42
2.5
 43
2.5
 50
204.8008715616081
  0
POINT
  5
7D1
330
18
100
AcDbEntity
  8
DEFPOINTS
  6
ByBlock
 62
     0
100
AcDbPoint
 10
314.2613437031922
 20
273.812191145117
 30
0.0
  0
POINT
  5
7D2
330
18
100
AcDbEntity
  8
DEFPOINTS
  6
ByBlock
 62
     0
100
AcDbPoint
 10
450.4270083855407
 20
336.7320748196298
 30
0.0
  0
LINE
  5
7DC
330
18
100
AcDbEntity
  8
0
  6
ByBlock
 62
     2
100
AcDbLine
 10
450.4270083855407
 20
336.7320748196298
 30
0.0
 11
460.8782701942664
 21
347.491774007129
 31
0.0
  0
MTEXT
  5
7DD
330
18
100
AcDbEntity
  8
0
  6
ByBlock
 62
     6
100
AcDbMText
 10
452.5315302158533
 20
341.5897678673058
 30
0.0
 40
2.5
 41
0.0
 71
     5
 72
     1
  1
\A1;R15
  7
STYLE3
 11
0.6967507872483799
 21
0.7173132791666156
 31
0.0
 73
     1
 44
1.0
  0
INSERT
  5
7DE
330
18
100
AcDbEntity
  8
0
  6
ByBlock
 62
     2
100
AcDbBlockReference
  2
_OPEN
 10
460.8782701942664
 20
347.491774007129
 30
0.0
 41
2.5
 42
2.5
 43
2.5
 50
45.83310296973666
  0
POINT
  5
7DF
330
18
100
AcDbEntity
  8
DEFPOINTS
  6
ByBlock
 62
     0
100
AcDbPoint
 10
460.8782701942664
 20
347.491774007129
 30
0.0
  0
POINT
  5
7E0
330
18
100
AcDbEntity
  8
DEFPOINTS
  6
ByBlock
 62
     0
100
AcDbPoint
 10
450.4270083855407
 20
336.7320748196298
 30
0.0
  0
LINE
  5
7E1
330
18
100
AcDbEntity
  8
想像線
 48
0.3
100
AcDbLine
 10
355.860395718655
 20
361.7320748196297
 30
0.0
 11
355.8603957186549
 21
351.4337961644687
 31
0.0
  0
LINE
  5
7E2
330
18
100
AcDbEntity
  8
想像線
 48
0.3
100
AcDbLine
 10
358.8603957186549
 20
361.7320748196297
 30
0.0
 11
358.8603957186549
 21
351.2786237506755
 31
0.0
  0
LINE
  5
7E3
330
18
100
AcDbEntity
  8
想像線
 48
0.3
100
AcDbLine
 10
358.8603957186549
 20
322.185525888584
 30
0.0
 11
358.860395718655
 21
311.7320748196298
 31
0.0
  0
LINE
  5
7E4
330
18
100
AcDbEntity
  8
想像線
 48
0.3
100
AcDbLine
 10
355.8603957186549
 20
322.0303534747909
 30
0.0
 11
355.860395718655
 21
311.7320748196298
 31
0.0
  0
DIMENSION
  5
7F3
330
18
100
AcDbEntity
  8
寸法線
100
AcDbDimension
  2
*D7
 10
358.8603957186549
 20
371.7178907727932
 30
0.0
 11
366.8663480996073
 21
374.2476526775551
 31
0.0
 70
    32
  1
(3)
 71
     5
 42
-1.0
  3
STYLE3
100
AcDbAlignedDimension
 13
355.860395718655
 23
361.7320748196297
 33
0.0
 14
358.8603957186549
 24
361.7320748196297
 34
0.0
100
AcDbRotatedDimension
1001
ACAD
1000
DSTYLE
1002
{
1070
   271
1070
     2
1002
}
  0
DIMENSION
  5
802
330
18
100
AcDbEntity
  8
寸法線
100
AcDbDimension
  2
*D8
 10
358.860395718655
 20
301.9750821258118
 30
0.0
 11
366.8663480996073
 21
304.5048440305737
 31
0.0
 70
    32
  1
(3)
 71
     5
 42
-1.0
  3
STYLE3
100
AcDbAlignedDimension
 13
355.860395718655
 23
311.7320748196298
 33
0.0
 14
358.860395718655
 24
311.7320748196298
 34
0.0
100
AcDbRotatedDimension
1001
ACAD
1000
DSTYLE
1002
{
1070
   271
1070
     2
1002
}
  0
ARC
  5
82B
330
18
100
AcDbEntity
  8
外形線
100
AcDbCircle
 10
300.4270083855408
 20
334.7320748196299
 30
0.0
 40
2.0
100
AcDbArc
 50
0.0000000000001688
 51
180.0000000000002
  0
LINE
  5
82D
330
18
100
AcDbEntity
  8
外形線
100
AcDbLine
 10
297.7684718001749
 20
328.8052455513371
 30
0.0
 11
298.4270083855408
 21
334.7320748196298
 31
0.0
  0
LINE
  5
82E
330
18
100
AcDbEntity
  8
外形線
100
AcDbLine
 10
303.4882463426502
 20
346.7200309048686
 30
0.0
 11
302.4270083855407
 21
338.7320748196298
 31
0.0
  0
LINE
  5
82F
330
18
100
AcDbEntity
  8
外形線
100
AcDbLine
 10
303.4882463426502
 20
326.7441187343909
 30
0.0
 11
302.4270083855407
 21
334.7320748196298
 31
0.0
  0
LINE
  5
831
330
18
100
AcDbEntity
  8
隠れ線
 62
     1
 48
0.3
100
AcDbLine
 10
301.4270083855407
 20
341.7320748196297
 30
0.0
 11
301.4270083855407
 21
337.0000240120609
 31
0.0
  0
LINE
  5
832
330
18
100
AcDbEntity
  8
隠れ線
 62
     1
 48
0.3
100
AcDbLine
 10
299.4270083855407
 20
341.7320748196297
 30
0.0
 11
299.4270083855407
 21
337.0000240120609
 31
0.0
  0
LINE
  5
833
330
18
100
AcDbEntity
  8
隠れ線
 62
     1
 48
0.3
100
AcDbLine
 10
299.4270083855407
 20
341.7320748196297
 30
0.0
 11
301.4270083855407
 21
341.7320748196297
 31
0.0
  0
LINE
  5
834
330
18
100
AcDbEntity
  8
隠れ線
 62
     1
 48
0.3
100
AcDbLine
 10
299.4270083855407
 20
331.7320748196298
 30
0.0
 11
301.4270083855407
 21
331.7320748196298
 31
0.0
  0
LINE
  5
836
330
18
100
AcDbEntity
  8
隠れ線
 62
     1
 48
0.3
100
AcDbLine
 10
301.4270083855407
 20
336.4641256271988
 30
0.0
 11
301.4270083855407
 21
331.7320748196298
 31
0.0
  0
LINE
  5
837
330
18
100
AcDbEntity
  8
隠れ線
 62
     1
 48
0.3
100
AcDbLine
 10
299.4270083855407
 20
336.4641256271987
 30
0.0
 11
299.4270083855407
 21
331.7320748196298
 31
0.0
  0
CIRCLE
  5
848
330
18
100
AcDbEntity
  8
外形線
100
AcDbCircle
 10
428.4270083855408
 20
356.7320748196298
 30
0.0
 40
2.0
  0
CIRCLE
  5
849
330
18
100
AcDbEntity
  8
外形線
100
AcDbCircle
 10
428.4270083855407
 20
316.7320748196297
 30
0.0
 40
2.0
  0
CIRCLE
  5
84A
330
18
100
AcDbEntity
  8
外形線
100
AcDbCircle
 10
428.4270083855408
 20
356.7320748196298
 30
0.0
 40
1.25
  0
CIRCLE
  5
84B
330
18
100
AcDbEntity
  8
外形線
100
AcDbCircle
 10
428.4270083855407
 20
316.7320748196297
 30
0.0
 40
1.25
  0
LINE
  5
84E
330
18
100
AcDbEntity
  8
中心線
 48
0.5
100
AcDbLine
 10
425.1939916344076
 20
356.7320748196298
 30
0.0
 11
431.8227285732131
 21
356.7320748196298
 31
0.0
  0
LINE
  5
84F
330
18
100
AcDbEntity
  8
中心線
 48
0.5
100
AcDbLine
 10
425.1939916344075
 20
316.7320748196297
 30
0.0
 11
431.822728573213
 21
316.7320748196297
 31
0.0
  0
LINE
  5
850
330
18
100
AcDbEntity
  8
外形線
 48
0.5
100
AcDbLine
 10
430.1770083855406
 20
352.7320748196298
 30
0.0
 11
430.1770083855408
 21
320.7320748196297
 31
0.0
  0
LINE
  5
851
330
18
100
AcDbEntity
  8
外形線
 48
0.5
100
AcDbLine
 10
426.6770083855408
 20
352.7320748196298
 30
0.0
 11
426.6770083855408
 21
320.7320748196297
 31
0.0
  0
LINE
  5
852
330
18
100
AcDbEntity
  8
外形線
 48
0.5
100
AcDbLine
 10
426.6770083855408
 20
352.7320748196298
 30
0.0
 11
430.1770083855406
 21
352.7320748196298
 31
0.0
  0
LINE
  5
853
330
18
100
AcDbEntity
  8
外形線
 48
0.5
100
AcDbLine
 10
426.6770083855408
 20
320.7320748196297
 30
0.0
 11
430.1770083855408
 21
320.7320748196297
 31
0.0
  0
LINE
  5
854
330
18
100
AcDbEntity
  8
想像線
 48
0.5
100
AcDbLine
 10
429.8770083855406
 20
353.9397325584124
 30
0.0
 11
429.8770083855408
 21
319.7652151771281
 31
0.0
  0
LINE
  5
855
330
18
100
AcDbEntity
  8
想像線
 48
0.5
100
AcDbLine
 10
426.9770083855408
 20
353.9397332181097
 30
0.0
 11
426.9770083855408
 21
319.7652151771281
 31
0.0
  0
LINE
  5
89C
330
18
100
AcDbEntity
  8
隠れ線
 62
     4
 48
0.2
100
AcDbLine
 10
426.6770083855408
 20
347.7708679230781
 30
0.0
 11
427.0271740811756
 21
347.7527559043382
 31
0.0
  0
ARC
  5
89D
330
18
100
AcDbEntity
  8
隠れ線
 62
     4
 48
0.2
100
AcDbCircle
 10
427.4270083855406
 20
336.7320748196298
 30
0.0
 40
11.0
100
AcDbArc
 50
75.52248781407039
 51
90.0
  0
ARC
  5
8A2
330
18
100
AcDbEntity
  8
隠れ線
 62
     4
 48
0.2
100
AcDbCircle
 10
427.4270083855407
 20
336.7320748196298
 30
0.0
 40
11.0
100
AcDbArc
 50
270.0
 51
284.4775121859299
  0
LINE
  5
8A3
330
18
100
AcDbEntity
  8
隠れ線
 62
     4
 48
0.2
100
AcDbLine
 10
426.6770083855408
 20
325.6932817161815
 30
0.0
 11
427.0270431910924
 21
325.7113869647445
 31
0.0
  0
LINE
  5
8B7
330
18
100
AcDbEntity
  8
隠れ線2
100
AcDbLine
 10
490.4270083855406
 20
348.4820748196298
 30
0.0
 11
578.9270083855406
 21
348.4820748196298
 31
0.0
  0
LINE
  5
8B8
330
18
100
AcDbEntity
  8
隠れ線2
100
AcDbLine
 10
490.4270083855407
 20
324.9820748196297
 30
0.0
 11
578.9270083855407
 21
324.9820748196297
 31
0.0
  0
LINE
  5
8B9
330
18
100
AcDbEntity
  8
隠れ線2
100
AcDbLine
 10
580.4270083855405
 20
346.9820748196298
 30
0.0
 11
580.4270083855406
 21
326.4820748196297
 31
0.0
  0
ARC
  5
8BA
330
18
100
AcDbEntity
  8
隠れ線2
100
AcDbCircle
 10
578.9270083855406
 20
346.9820748196298
 30
0.0
 40
1.5
100
AcDbArc
 50
0.0
 51
90.0
  0
ARC
  5
8BB
330
18
100
AcDbEntity
  8
隠れ線2
100
AcDbCircle
 10
578.9270083855407
 20
326.4820748196297
 30
0.0
 40
1.5
100
AcDbArc
 50
270.0
 51
0.0000000000002672
  0
TEXT
  5
91D
330
18
100
AcDbEntity
  8
文字
100
AcDbText
 10
302.9080128063072
 20
445.1485369950527
 30
0.0
 40
4.0
  1
Model No.LA-20 Outside Dial Caliper Gauge
  7
STYLE3
100
AcDbText
  0
LINE
  5
91E
330
18
100
AcDbEntity
  8
外形線
100
AcDbLine
 10
302.3752428063072
 20
442.6438199950527
 30
0.0
 11
432.3752428063071
 21
442.6438199950527
 31
0.0
  0
LINE
  5
91F
330
18
100
AcDbEntity
  8
外形線
100
AcDbLine
 10
302.3752428063072
 20
441.6438199950527
 30
0.0
 11
432.3752428063071
 21
441.6438199950527
 31
0.0
  0
LINE
  5
920
330
18
100
AcDbEntity
  8
外形線
100
AcDbLine
 10
594.3994218287944
 20
186.9811869971514
 30
0.0
 11
594.3994218287944
 21
177.3664089971514
 31
0.0
  0
TEXT
  5
921
330
18
100
AcDbEntity
  8
0
  6
Continuous
100
AcDbText
 10
566.5990238287943
 20
179.1145519971514
 30
0.0
 40
2.1
  1
Date
  7
STYLE3
100
AcDbText
  0
LINE
  5
922
330
18
100
AcDbEntity
  8
外形線
100
AcDbLine
 10
564.6670728287943
 20
186.9811869971514
 30
0.0
 11
564.6670728287943
 21
177.3664089971514
 31
0.0
  0
TEXT
  5
923
330
18
100
AcDbEntity
  8
0
  6
Continuous
100
AcDbText
 10
566.2156628287943
 20
182.4476349971514
 30
0.0
 40
3.0
  1
日 付
  7
STYLE3
100
AcDbText
  0
TEXT
  5
924
330
18
100
AcDbEntity
  8
0
  6
Continuous
100
AcDbText
 10
575.3438308287943
 20
180.8626919971515
 30
0.0
 40
2.1
  1
2010.06.28
  7
STYLE3
100
AcDbText
  0
TEXT
  5
925
330
18
100
AcDbEntity
  8
0
  6
Continuous
100
AcDbText
 10
556.5052518287943
 20
181.1540499971514
 30
0.0
 40
2.399999999999999
  1
1/1
  7
STYLE3
100
AcDbText
  0
LINE
  5
926
330
18
100
AcDbEntity
  8
外形線
100
AcDbLine
 10
545.1370008287944
 20
186.9811869971514
 30
0.0
 11
545.1370008287944
 21
177.3664089971514
 31
0.0
  0
TEXT
  5
927
330
18
100
AcDbEntity
  8
0
  6
Continuous
100
AcDbText
 10
546.4227478287942
 20
182.3254299971514
 30
0.0
 40
3.0
  1
尺 度
  7
STYLE3
100
AcDbText
  0
TEXT
  5
928
330
18
100
AcDbEntity
  8
0
  6
Continuous
100
AcDbText
 10
546.8859628287943
 20
179.4059079971514
 30
0.0
 40
2.1
  1
Scale
  7
STYLE3
100
AcDbText
  0
TEXT
  5
929
330
18
100
AcDbEntity
  8
0
  6
Continuous
100
AcDbText
 10
529.2765728287943
 20
179.1145509971514
 30
0.0
 40
2.1
  1
Unit
  7
STYLE3
100
AcDbText
  0
LINE
  5
92A
330
18
100
AcDbEntity
  8
外形線
100
AcDbLine
 10
527.6473828287944
 20
186.9811869971514
 30
0.0
 11
527.6473828287944
 21
177.3664089971514
 31
0.0
  0
TEXT
  5
92B
330
18
100
AcDbEntity
  8
0
  6
Continuous
100
AcDbText
 10
529.1048518287944
 20
182.6167869971514
 30
0.0
 40
3.0
  1
単位
  7
STYLE3
100
AcDbText
  0
TEXT
  5
92C
330
18
100
AcDbEntity
  8
0
  6
Continuous
100
AcDbText
 10
537.1468998287943
 20
180.8626929971515
 30
0.0
 40
2.399999999999999
  1
mm
  7
STYLE3
100
AcDbText
  0
TEXT
  5
92D
330
18
100
AcDbEntity
  8
0
  6
Continuous
100
AcDbText
 10
595.7483858287942
 20
182.9021899971514
 30
0.0
 40
3.0
  1
株式会社　尾崎製作所
  7
STYLE3
100
AcDbText
  0
TEXT
  5
92E
330
18
100
AcDbEntity
  8
0
  6
Continuous
100
AcDbText
 10
596.6228638287943
 20
179.1145499971514
 30
0.0
 40
2.1
  1
OZAKI MFG. CO., LTD.
  7
STYLE3
100
AcDbText
  0
LINE
  5
92F
330
18
100
AcDbEntity
  8
外形線
100
AcDbLine
 10
492.3766548287943
 20
177.3664089971514
 30
0.0
 11
492.3766548287943
 21
197.7613929971514
 31
0.0
  0
LINE
  5
930
330
18
100
AcDbEntity
  8
外形線
100
AcDbLine
 10
492.3766548287943
 20
197.7613929971514
 30
0.0
 11
633.1680728287944
 21
197.7613929971514
 31
0.0
  0
LINE
  5
931
330
18
100
AcDbEntity
  8
外形線
100
AcDbLine
 10
492.3766548287943
 20
186.9811869971514
 30
0.0
 11
633.1680728287944
 21
186.9811869971514
 31
0.0
  0
TEXT
  5
932
330
18
100
AcDbEntity
  8
0
  6
Continuous
100
AcDbText
 10
493.8341228287943
 20
188.8791779971514
 30
0.0
 40
2.1
  1
Design and specifications are subject to change without notice for future improvement.
  7
STYLE3
100
AcDbText
  0
TEXT
  5
933
330
18
100
AcDbEntity
  8
0
  6
Continuous
100
AcDbText
 10
494.1256168287943
 20
192.8083259971514
 30
0.0
 40
3.5
  1
仕様及び外観は予告なく変更される場合がございますのでご了承下さい。
  7
STYLE3
100
AcDbText
  0
TEXT
  5
934
330
18
100
AcDbEntity
  8
0
  6
Continuous
100
AcDbText
 10
493.5426308287943
 20
179.1145499971514
 30
0.0
 40
2.1
  1
3RD Angle Projection
  7
STYLE3
100
AcDbText
  0
TEXT
  5
935
330
18
100
AcDbEntity
  8
0
  6
Continuous
100
AcDbText
 10
496.1660738287942
 20
182.6108329971514
 30
0.0
 40
3.0
  1
三　　角　　法
  7
STYLE3
100
AcDbText
  0
ENDSEC
  0
SECTION
  2
OBJECTS
  0
DICTIONARY
  5
C
330
0
100
AcDbDictionary
281
     1
  3
ACAD_COLOR
350
8C9
  3
ACAD_GROUP
350
D
  3
ACAD_LAYOUT
350
8CC
  3
ACAD_MATERIAL
350
8C8
  3
ACAD_MLINESTYLE
350
1B
  3
ACAD_PLOTSETTINGS
350
8CD
  3
ACAD_PLOTSTYLENAME
350
8C6
  3
ACAD_TABLESTYLE
350
8CA
  3
AcDbVariableDictionary
350
8EB
  0
DICTIONARY
  5
8E6
330
18
100
AcDbDictionary
280
     1
281
     1
  3
ACAD_SORTENTS
360
8E7
  0
DICTIONARY
  5
8C9
102
{ACAD_REACTORS
330
C
102
}
330
C
100
AcDbDictionary
281
     1
  0
DICTIONARY
  5
D
102
{ACAD_REACTORS
330
C
102
}
330
C
100
AcDbDictionary
281
     1
  0
DICTIONARY
  5
8CC
102
{ACAD_REACTORS
330
C
102
}
330
C
100
AcDbDictionary
281
     1
  3
Model
350
8CE
  3
レイアウト1
350
8CF
  0
DICTIONARY
  5
8C8
102
{ACAD_REACTORS
330
C
102
}
330
C
100
AcDbDictionary
281
     1
  0
DICTIONARY
  5
1B
102
{ACAD_REACTORS
330
C
102
}
330
C
100
AcDbDictionary
281
     1
  3
STANDARD
350
1C
  0
DICTIONARY
  5
8CD
102
{ACAD_REACTORS
330
C
102
}
330
C
100
AcDbDictionary
281
     1
  0
ACDBDICTIONARYWDFLT
  5
8C6
102
{ACAD_REACTORS
330
C
102
}
330
C
100
AcDbDictionary
281
     1
  3
Normal
350
8C7
100
AcDbDictionaryWithDefault
340
8C7
  0
DICTIONARY
  5
8CA
102
{ACAD_REACTORS
330
C
102
}
330
C
100
AcDbDictionary
281
     1
  3
Standard
350
8CB
  0
DICTIONARY
  5
8EB
102
{ACAD_REACTORS
330
C
102
}
330
C
100
AcDbDictionary
281
     1
  3
CTABLESTYLE
350
8EC
  0
SORTENTSTABLE
  5
8E7
102
{ACAD_REACTORS
330
8E6
102
}
330
8E6
100
AcDbSortentsTable
330
18
331
1C2
  5
1C2
331
5E4
  5
5E4
331
64B
  5
64B
331
52F
  5
52F
331
56E
  5
56E
331
5A5
  5
5A5
331
3CD
  5
3CD
331
40C
  5
40C
331
307
  5
307
331
18B
  5
18B
331
1CA
  5
1CA
331
5AD
  5
5AD
331
5EC
  5
5EC
331
537
  5
537
331
576
  5
576
331
653
  5
653
331
219
  5
219
331
346
  5
346
331
34E
  5
34E
331
3D5
  5
3D5
331
193
  5
193
331
731
  5
731
331
30F
  5
30F
331
5B5
  5
5B5
331
5F4
  5
5F4
331
53F
  5
53F
331
57E
  5
57E
331
65B
  5
65B
331
41C
  5
41C
331
317
  5
317
331
229
  5
229
331
356
  5
356
331
663
  5
663
331
19B
  5
19B
331
3DD
  5
3DD
331
586
  5
586
331
5BD
  5
5BD
331
547
  5
547
331
5FC
  5
5FC
331
31F
  5
31F
331
3E5
  5
3E5
331
850
  5
850
331
7E1
  5
7E1
331
604
  5
604
331
66B
  5
66B
331
54F
  5
54F
331
58E
  5
58E
331
5C5
  5
5C5
331
278
  5
278
331
3ED
  5
3ED
331
327
  5
327
331
702
  5
702
331
1AB
  5
1AB
331
60C
  5
60C
331
239
  5
239
331
3B6
  5
3B6
331
557
  5
557
331
596
  5
596
331
5CD
  5
5CD
331
3BE
  5
3BE
331
3F5
  5
3F5
331
2F8
  5
2F8
331
32F
  5
32F
331
1B3
  5
1B3
331
5D5
  5
5D5
331
644
  5
644
331
55F
  5
55F
331
59E
  5
59E
331
693
  5
693
331
7D0
  5
7D0
331
524
  5
524
331
3C6
  5
3C6
331
3FD
  5
3FD
331
5DD
  5
5DD
331
1BB
  5
1BB
331
567
  5
567
331
781
  5
781
331
337
  5
337
331
33F
  5
33F
331
831
  5
831
331
8B7
  5
8B7
331
849
  5
849
331
528
  5
528
331
789
  5
789
331
212
  5
212
331
251
  5
251
331
71A
  5
71A
331
64C
  5
64C
331
184
  5
184
331
5A6
  5
5A6
331
5E5
  5
5E5
331
1C3
  5
1C3
331
300
  5
300
331
530
  5
530
331
56F
  5
56F
331
308
  5
308
331
347
  5
347
331
654
  5
654
331
18C
  5
18C
331
3CE
  5
3CE
331
577
  5
577
331
5AE
  5
5AE
331
538
  5
538
331
5ED
  5
5ED
331
3D6
  5
3D6
331
310
  5
310
331
34F
  5
34F
331
5F5
  5
5F5
331
65C
  5
65C
331
540
  5
540
331
57F
  5
57F
331
5B6
  5
5B6
331
194
  5
194
331
3DE
  5
3DE
331
41D
  5
41D
331
318
  5
318
331
742
  5
742
331
19C
  5
19C
331
1F3
  5
1F3
331
5BE
  5
5BE
331
5FD
  5
5FD
331
587
  5
587
331
664
  5
664
331
22A
  5
22A
331
357
  5
357
331
3E6
  5
3E6
331
425
  5
425
331
851
  5
851
331
7E2
  5
7E2
331
802
  5
802
331
548
  5
548
331
320
  5
320
331
5C6
  5
5C6
331
605
  5
605
331
550
  5
550
331
58F
  5
58F
331
66C
  5
66C
331
328
  5
328
331
3B7
  5
3B7
331
703
  5
703
331
1AC
  5
1AC
331
3EE
  5
3EE
331
597
  5
597
331
5CE
  5
5CE
331
558
  5
558
331
60D
  5
60D
331
330
  5
330
331
3BF
  5
3BF
331
7D1
  5
7D1
331
20B
  5
20B
331
242
  5
242
331
70B
  5
70B
331
645
  5
645
331
694
  5
694
331
560
  5
560
331
59F
  5
59F
331
5D6
  5
5D6
331
1B4
  5
1B4
331
2F9
  5
2F9
331
3F6
  5
3F6
331
3FE
  5
3FE
331
525
  5
525
331
1BC
  5
1BC
331
782
  5
782
331
338
  5
338
331
3C7
  5
3C7
331
5DE
  5
5DE
331
8B8
  5
8B8
331
832
  5
832
331
842
  5
842
331
84A
  5
84A
331
568
  5
568
331
529
  5
529
331
301
  5
301
331
1C4
  5
1C4
331
213
  5
213
331
340
  5
340
331
5E6
  5
5E6
331
64D
  5
64D
331
531
  5
531
331
570
  5
570
331
5A7
  5
5A7
331
185
  5
185
331
3CF
  5
3CF
331
25A
  5
25A
331
309
  5
309
331
18D
  5
18D
331
5AF
  5
5AF
331
5EE
  5
5EE
331
539
  5
539
331
578
  5
578
331
655
  5
655
331
21B
  5
21B
331
348
  5
348
331
350
  5
350
331
3D7
  5
3D7
331
65D
  5
65D
331
195
  5
195
331
5B7
  5
5B7
331
5F6
  5
5F6
331
1EC
  5
1EC
331
311
  5
311
331
541
  5
541
331
580
  5
580
331
41E
  5
41E
331
319
  5
319
331
22B
  5
22B
331
358
  5
358
331
665
  5
665
331
19D
  5
19D
331
3DF
  5
3DF
331
5BF
  5
5BF
331
5FE
  5
5FE
331
3E7
  5
3E7
331
426
  5
426
331
852
  5
852
331
7E3
  5
7E3
331
7F3
  5
7F3
331
588
  5
588
331
549
  5
549
331
321
  5
321
331
606
  5
606
331
66D
  5
66D
331
551
  5
551
331
590
  5
590
331
5C7
  5
5C7
331
3EF
  5
3EF
331
704
  5
704
331
5CF
  5
5CF
331
1AD
  5
1AD
331
329
  5
329
331
559
  5
559
331
598
  5
598
331
3B8
  5
3B8
331
3C0
  5
3C0
331
3F7
  5
3F7
331
7D2
  5
7D2
331
1B5
  5
1B5
331
5D7
  5
5D7
331
561
  5
561
331
646
  5
646
331
331
  5
331
331
526
  5
526
331
339
  5
339
331
24B
  5
24B
331
3FF
  5
3FF
331
69D
  5
69D
331
5DF
  5
5DF
331
1BD
  5
1BD
331
783
  5
783
331
82B
  5
82B
331
833
  5
833
331
8B9
  5
8B9
331
843
  5
843
331
84B
  5
84B
331
5A0
  5
5A0
331
52A
  5
52A
331
569
  5
569
331
341
  5
341
331
3C8
  5
3C8
331
64E
  5
64E
331
186
  5
186
331
571
  5
571
331
5A8
  5
5A8
331
532
  5
532
331
5E7
  5
5E7
331
71C
  5
71C
331
302
  5
302
331
30A
  5
30A
331
349
  5
349
331
21C
  5
21C
331
656
  5
656
331
18E
  5
18E
331
25B
  5
25B
331
3D0
  5
3D0
331
579
  5
579
331
5B0
  5
5B0
331
53A
  5
53A
331
5EF
  5
5EF
331
3D8
  5
3D8
331
417
  5
417
331
312
  5
312
331
351
  5
351
331
5F7
  5
5F7
331
65E
  5
65E
331
542
  5
542
331
581
  5
581
331
5B8
  5
5B8
331
196
  5
196
331
3E0
  5
3E0
331
41F
  5
41F
331
31A
  5
31A
331
19E
  5
19E
331
5FF
  5
5FF
331
666
  5
666
331
22C
  5
22C
331
359
  5
359
331
427
  5
427
331
7DC
  5
7DC
331
853
  5
853
331
7E4
  5
7E4
331
8A2
  5
8A2
331
5C0
  5
5C0
331
54A
  5
54A
331
589
  5
589
331
3E8
  5
3E8
331
5C8
  5
5C8
331
607
  5
607
331
322
  5
322
331
552
  5
552
331
591
  5
591
331
42F
  5
42F
331
32A
  5
32A
331
3B9
  5
3B9
331
705
  5
705
331
599
  5
599
331
5D0
  5
5D0
331
1AE
  5
1AE
331
3F0
  5
3F0
331
55A
  5
55A
331
3F8
  5
3F8
331
332
  5
332
331
3C1
  5
3C1
331
647
  5
647
331
562
  5
562
331
5D8
  5
5D8
331
1B6
  5
1B6
331
1BE
  5
1BE
331
33A
  5
33A
331
527
  5
527
331
8BA
  5
8BA
331
834
  5
834
331
844
  5
844
331
5E0
  5
5E0
331
56A
  5
56A
331
5A1
  5
5A1
331
52B
  5
52B
331
3C9
  5
3C9
331
254
  5
254
331
71D
  5
71D
331
187
  5
187
331
1C6
  5
1C6
331
303
  5
303
331
5E8
  5
5E8
331
64F
  5
64F
331
342
  5
342
331
533
  5
533
331
572
  5
572
331
5A9
  5
5A9
331
34A
  5
34A
331
3D1
  5
3D1
331
18F
  5
18F
331
25C
  5
25C
331
30B
  5
30B
331
5B1
  5
5B1
331
5F0
  5
5F0
331
53B
  5
53B
331
57A
  5
57A
331
657
  5
657
331
352
  5
352
331
3D9
  5
3D9
331
225
  5
225
331
65F
  5
65F
331
197
  5
197
331
582
  5
582
331
5B9
  5
5B9
331
543
  5
543
331
5F8
  5
5F8
331
313
  5
313
331
418
  5
418
331
420
  5
420
331
1F6
  5
1F6
331
31B
  5
31B
331
35A
  5
35A
331
667
  5
667
331
19F
  5
19F
331
3E1
  5
3E1
331
7DD
  5
7DD
331
854
  5
854
331
8A3
  5
8A3
331
58A
  5
58A
331
5C1
  5
5C1
331
54B
  5
54B
331
600
  5
600
331
3E9
  5
3E9
331
323
  5
323
331
428
  5
428
331
7C4
  5
7C4
331
608
  5
608
331
553
  5
553
331
592
  5
592
331
5C9
  5
5C9
331
1A7
  5
1A7
331
3F1
  5
3F1
331
706
  5
706
331
5D1
  5
5D1
331
1AF
  5
1AF
331
32B
  5
32B
331
55B
  5
55B
331
59A
  5
59A
331
3BA
  5
3BA
331
3C2
  5
3C2
331
3F9
  5
3F9
331
245
  5
245
331
5D9
  5
5D9
331
1B7
  5
1B7
331
563
  5
563
331
333
  5
333
331
33B
  5
33B
331
1BF
  5
1BF
331
785
  5
785
331
82D
  5
82D
331
8BB
  5
8BB
331
845
  5
845
331
5A2
  5
5A2
331
5E1
  5
5E1
331
52C
  5
52C
331
56B
  5
56B
331
648
  5
648
331
343
  5
343
331
3CA
  5
3CA
331
216
  5
216
331
71E
  5
71E
331
650
  5
650
331
188
  5
188
331
573
  5
573
331
5AA
  5
5AA
331
534
  5
534
331
5E9
  5
5E9
331
1C7
  5
1C7
331
304
  5
304
331
30C
  5
30C
331
34B
  5
34B
331
6B7
  5
6B7
331
5F1
  5
5F1
331
658
  5
658
331
57B
  5
57B
331
5B2
  5
5B2
331
190
  5
190
331
25D
  5
25D
331
3D2
  5
3D2
331
53C
  5
53C
331
3DA
  5
3DA
331
419
  5
419
331
198
  5
198
331
1EF
  5
1EF
331
314
  5
314
331
5F9
  5
5F9
331
660
  5
660
331
353
  5
353
331
544
  5
544
331
583
  5
583
331
5BA
  5
5BA
331
35B
  5
35B
331
3E2
  5
3E2
331
31C
  5
31C
331
421
  5
421
331
7DE
  5
7DE
331
855
  5
855
331
8E3
  5
8E3
331
89C
  5
89C
331
1A0
  5
1A0
331
5C2
  5
5C2
331
601
  5
601
331
54C
  5
54C
331
58B
  5
58B
331
668
  5
668
331
3EA
  5
3EA
331
236
  5
236
331
1A8
  5
1A8
331
593
  5
593
331
5CA
  5
5CA
331
554
  5
554
331
609
  5
609
331
324
  5
324
331
429
  5
429
331
32C
  5
32C
331
3BB
  5
3BB
331
76E
  5
76E
331
207
  5
207
331
59B
  5
59B
331
5D2
  5
5D2
331
2F5
  5
2F5
331
3F2
  5
3F2
331
55C
  5
55C
331
3FA
  5
3FA
331
334
  5
334
331
3C3
  5
3C3
331
564
  5
564
331
5DA
  5
5DA
331
1B8
  5
1B8
331
33C
  5
33C
331
786
  5
786
331
24E
  5
24E
331
82E
  5
82E
331
836
  5
836
331
846
  5
846
331
84E
  5
84E
331
1C0
  5
1C0
331
5E2
  5
5E2
331
649
  5
649
331
52D
  5
52D
331
56C
  5
56C
331
5A3
  5
5A3
331
3CB
  5
3CB
331
256
  5
256
331
71F
  5
71F
331
189
  5
189
331
1C8
  5
1C8
331
305
  5
305
331
5EA
  5
5EA
331
651
  5
651
331
344
  5
344
331
535
  5
535
331
574
  5
574
331
5AB
  5
5AB
331
34C
  5
34C
331
3D3
  5
3D3
331
6B8
  5
6B8
331
191
  5
191
331
25E
  5
25E
331
30D
  5
30D
331
5B3
  5
5B3
331
5F2
  5
5F2
331
53D
  5
53D
331
57C
  5
57C
331
659
  5
659
331
354
  5
354
331
3DB
  5
3DB
331
7A6
  5
7A6
331
661
  5
661
331
199
  5
199
331
584
  5
584
331
5BB
  5
5BB
331
545
  5
545
331
5FA
  5
5FA
331
315
  5
315
331
422
  5
422
331
31D
  5
31D
331
7B6
  5
7B6
331
35C
  5
35C
331
3E3
  5
3E3
331
7DF
  5
7DF
331
89D
  5
89D
331
8E4
  5
8E4
331
1F8
  5
1F8
331
602
  5
602
331
669
  5
669
331
58C
  5
58C
331
5C3
  5
5C3
331
6F8
  5
6F8
331
54D
  5
54D
331
3EB
  5
3EB
331
42A
  5
42A
331
1A9
  5
1A9
331
60A
  5
60A
331
757
  5
757
331
237
  5
237
331
3B4
  5
3B4
331
555
  5
555
331
594
  5
594
331
5CB
  5
5CB
331
3BC
  5
3BC
331
3F3
  5
3F3
331
2F6
  5
2F6
331
32D
  5
32D
331
5D3
  5
5D3
331
708
  5
708
331
76F
  5
76F
331
55D
  5
55D
331
59C
  5
59C
331
7CE
  5
7CE
331
3C4
  5
3C4
331
3FB
  5
3FB
331
699
  5
699
331
5DB
  5
5DB
331
1B9
  5
1B9
331
565
  5
565
331
77F
  5
77F
331
335
  5
335
331
522
  5
522
331
787
  5
787
331
33D
  5
33D
331
82F
  5
82F
331
837
  5
837
331
84F
  5
84F
331
210
  5
210
331
6A9
  5
6A9
331
1C1
  5
1C1
331
5A4
  5
5A4
331
5E3
  5
5E3
331
52E
  5
52E
331
56D
  5
56D
331
64A
  5
64A
331
306
  5
306
331
218
  5
218
331
345
  5
345
331
3CC
  5
3CC
331
720
  5
720
331
652
  5
652
331
18A
  5
18A
331
575
  5
575
331
5AC
  5
5AC
331
536
  5
536
331
5EB
  5
5EB
331
1C9
  5
1C9
331
30E
  5
30E
331
34D
  5
34D
331
5F3
  5
5F3
331
65A
  5
65A
331
53E
  5
53E
331
57D
  5
57D
331
5B4
  5
5B4
331
192
  5
192
331
25F
  5
25F
331
3D4
  5
3D4
331
3DC
  5
3DC
331
41B
  5
41B
331
19A
  5
19A
331
316
  5
316
331
5FB
  5
5FB
331
662
  5
662
331
355
  5
355
331
546
  5
546
331
585
  5
585
331
5BC
  5
5BC
331
3E4
  5
3E4
331
31E
  5
31E
331
7E0
  5
7E0
331
8E5
  5
8E5
331
5C4
  5
5C4
331
603
  5
603
331
54E
  5
54E
331
58D
  5
58D
331
66A
  5
66A
331
42B
  5
42B
331
3B5
  5
3B5
331
3EC
  5
3EC
331
672
  5
672
331
1AA
  5
1AA
331
595
  5
595
331
5CC
  5
5CC
331
556
  5
556
331
60B
  5
60B
331
326
  5
326
331
32E
  5
32E
331
3BD
  5
3BD
331
7CF
  5
7CF
331
692
  5
692
331
59D
  5
59D
331
5D4
  5
5D4
331
709
  5
709
331
2F7
  5
2F7
331
3F4
  5
3F4
331
55E
  5
55E
331
3FC
  5
3FC
331
1BA
  5
1BA
331
780
  5
780
331
336
  5
336
331
3C5
  5
3C5
331
566
  5
566
331
5DC
  5
5DC
331
33E
  5
33E
331
848
  5
848
  0
LAYOUT
  5
8CE
102
{ACAD_REACTORS
330
8CC
102
}
330
8CC
100
AcDbPlotSettings
  1

  2
WIDR Printer
  4

  6

 40
0.0
 41
0.0
 42
0.0
 43
0.0
 44
0.0
 45
0.0
 46
0.0
 47
0.0
 48
0.0
 49
0.0
140
0.0
141
0.0
142
1.0
143
1.0
 70
  1712
 72
     0
 73
     0
 74
     0
  7
AutoCad LT 98.ctb
 75
     0
147
1.0
 76
     0
 77
     2
 78
   300
148
0.0
149
0.0
100
AcDbLayout
  1
Model
 70
     1
 71
     0
 10
0.0
 20
0.0
 11
12.0
 21
9.0
 12
0.0
 22
0.0
 32
0.0
 14
0.0
 24
0.0
 34
0.0
 15
0.0
 25
0.0
 35
0.0
146
0.0
 13
0.0
 23
0.0
 33
0.0
 16
1.0
 26
0.0
 36
0.0
 17
0.0
 27
1.0
 37
0.0
 76
     0
330
18
  0
LAYOUT
  5
8CF
102
{ACAD_REACTORS
330
8CC
102
}
330
8CC
100
AcDbPlotSettings
  1

  2
WIDR Printer
  4

  6

 40
0.0
 41
0.0
 42
0.0
 43
0.0
 44
0.0
 45
0.0
 46
0.0
 47
0.0
 48
0.0
 49
0.0
140
0.0
141
0.0
142
1.0
143
1.0
 70
   688
 72
     0
 73
     0
 74
     5
  7
AutoCad LT 98.ctb
 75
    16
147
1.0
 76
     0
 77
     2
 78
   300
148
0.0
149
0.0
100
AcDbLayout
  1
レイアウト1
 70
     1
 71
     1
 10
0.0
 20
0.0
 11
420.0
 21
297.0
 12
0.0
 22
0.0
 32
0.0
 14
1.000000000000000E+20
 24
1.000000000000000E+20
 34
1.000000000000000E+20
 15
-1.000000000000000E+20
 25
-1.000000000000000E+20
 35
-1.000000000000000E+20
146
0.0
 13
0.0
 23
0.0
 33
0.0
 16
1.0
 26
0.0
 36
0.0
 17
0.0
 27
1.0
 37
0.0
 76
     0
330
15
  0
MLINESTYLE
  5
1C
102
{ACAD_REACTORS
330
1B
102
}
330
1B
100
AcDbMlineStyle
  2
STANDARD
 70
     0
  3

 62
   256
 51
90.0
 52
90.0
 71
     2
 49
0.5
 62
   256
  6
BYLAYER
 49
-0.5
 62
   256
  6
BYLAYER
  0
ACDBPLACEHOLDER
  5
8C7
102
{ACAD_REACTORS
330
8C6
102
}
330
8C6
  0
ACAD_PROXY_OBJECT
  5
8CB
102
{ACAD_REACTORS
330
8CA
102
}
330
8CA
100
AcDbProxyObject
 90
      499
 91
      503
 95
  2555929
 70
     0
 93
     1841
310
4214DD185B99185C9928B81E85EB51B8AE3F2E07A17AD46E2B8FC02B5E8DC0F42B1CFD028000000C1008070000C3001FDFF8000000C1003FBFF000000182007F7FE00000030400FEFFC00000060801FDFF8000000C1003FBFF00000018200000000000000681FA0B0000001820100E000186003FBFF000000182007F7FE000
310
00030400FEFFC00000060801FDFF8000000C1003FBFF000000182007F7FE000000304000AD7A3703D0AC73F4160000003040201C00030C007F7FE00000030400FEFFC00000060801FDFF8000000C1003FBFF000000182007F7FE00000030400FEFFC000000608000
340
F
340
F
340
F
 94
        0
  0
DICTIONARYVAR
  5
8EC
102
{ACAD_REACTORS
330
8EB
102
}
330
8EB
100
DictionaryVariables
280
     0
  1
STANDARD
  0
ENDSEC
  0
EOF
