  0
SECTION
  2
HEADER
  9
$ACADVER
  1
AC1018
  9
$ACADMAINTVER
 70
     0
  9
$DWGCODEPAGE
  3
ANSI_932
  9
$INSBASE
 10
0.0
 20
0.0
 30
0.0
  9
$EXTMIN
 10
27.46117819863071
 20
10.10847289449952
 30
-0.000045764259152
  9
$EXTMAX
 10
565.4258914859683
 20
377.9173072819879
 30
1.000045782886598
  9
$LIMMIN
 10
0.0
 20
0.0
  9
$LIMMAX
 10
420.0
 20
297.0
  9
$ORTHOMODE
 70
     0
  9
$REGENMODE
 70
     1
  9
$FILLMODE
 70
     1
  9
$QTEXTMODE
 70
     0
  9
$MIRRTEXT
 70
     1
  9
$LTSCALE
 40
1.0
  9
$ATTMODE
 70
     1
  9
$TEXTSIZE
 40
5.0
  9
$TRACEWID
 40
1.0
  9
$TEXTSTYLE
  7
STYLE3
  9
$CLAYER
  8
外形線
  9
$CELTYPE
  6
BYLAYER
  9
$CECOLOR
 62
   256
  9
$CELTSCALE
 40
1.0
  9
$DISPSILH
 70
     0
  9
$DIMSCALE
 40
1.0
  9
$DIMASZ
 40
2.5
  9
$DIMEXO
 40
0.0
  9
$DIMDLI
 40
3.75
  9
$DIMRND
 40
0.0
  9
$DIMDLE
 40
0.0
  9
$DIMEXE
 40
1.25
  9
$DIMTP
 40
0.0
  9
$DIMTM
 40
0.0
  9
$DIMTXT
 40
2.5
  9
$DIMCEN
 40
2.5
  9
$DIMTSZ
 40
0.0
  9
$DIMTOL
 70
     0
  9
$DIMLIM
 70
     0
  9
$DIMTIH
 70
     0
  9
$DIMTOH
 70
     0
  9
$DIMSE1
 70
     0
  9
$DIMSE2
 70
     0
  9
$DIMTAD
 70
     1
  9
$DIMZIN
 70
     8
  9
$DIMBLK
  1

  9
$DIMASO
 70
     1
  9
$DIMSHO
 70
     1
  9
$DIMPOST
  1

  9
$DIMAPOST
  1

  9
$DIMALT
 70
     0
  9
$DIMALTD
 70
     4
  9
$DIMALTF
 40
0.0394
  9
$DIMLFAC
 40
1.0
  9
$DIMTOFL
 70
     1
  9
$DIMTVP
 40
0.0
  9
$DIMTIX
 70
     0
  9
$DIMSOXD
 70
     0
  9
$DIMSAH
 70
     1
  9
$DIMBLK1
  1
OPEN
  9
$DIMBLK2
  1
OPEN
  9
$DIMSTYLE
  2
STYLE3
  9
$DIMCLRD
 70
     2
  9
$DIMCLRE
 70
     2
  9
$DIMCLRT
 70
     6
  9
$DIMTFAC
 40
1.0
  9
$DIMGAP
 40
0.625
  9
$DIMJUST
 70
     0
  9
$DIMSD1
 70
     0
  9
$DIMSD2
 70
     0
  9
$DIMTOLJ
 70
     1
  9
$DIMTZIN
 70
     0
  9
$DIMALTZ
 70
     0
  9
$DIMALTTZ
 70
     0
  9
$DIMUPT
 70
     0
  9
$DIMDEC
 70
     2
  9
$DIMTDEC
 70
     4
  9
$DIMALTU
 70
     8
  9
$DIMALTTD
 70
     4
  9
$DIMTXSTY
  7
STYLE3
  9
$DIMAUNIT
 70
     0
  9
$DIMADEC
 70
     0
  9
$DIMALTRND
 40
0.0
  9
$DIMAZIN
 70
     0
  9
$DIMDSEP
 70
    46
  9
$DIMATFIT
 70
     3
  9
$DIMFRAC
 70
     0
  9
$DIMLDRBLK
  1

  9
$DIMLUNIT
 70
     2
  9
$DIMLWD
 70
    -2
  9
$DIMLWE
 70
    -2
  9
$DIMTMOVE
 70
     0
  9
$LUNITS
 70
     2
  9
$LUPREC
 70
     4
  9
$SKETCHINC
 40
1.0
  9
$FILLETRAD
 40
1.5
  9
$AUNITS
 70
     0
  9
$AUPREC
 70
     0
  9
$MENU
  1
.
  9
$ELEVATION
 40
0.0
  9
$PELEVATION
 40
0.0
  9
$THICKNESS
 40
0.0
  9
$LIMCHECK
 70
     0
  9
$CHAMFERA
 40
10.0
  9
$CHAMFERB
 40
10.0
  9
$CHAMFERC
 40
20.0
  9
$CHAMFERD
 40
0.0
  9
$SKPOLY
 70
     0
  9
$TDCREATE
 40
2450889.675315278
  9
$TDUCREATE
 40
2450889.300315278
  9
$TDUPDATE
 40
2455376.469174977
  9
$TDUUPDATE
 40
2455376.094174977
  9
$TDINDWG
 40
0.9106989699
  9
$TDUSRTIMER
 40
0.9106989699
  9
$USRTIMER
 70
     1
  9
$ANGBASE
 50
0.0
  9
$ANGDIR
 70
     0
  9
$PDMODE
 70
     0
  9
$PDSIZE
 40
0.0
  9
$PLINEWID
 40
0.0
  9
$SPLFRAME
 70
     0
  9
$SPLINETYPE
 70
     6
  9
$SPLINESEGS
 70
     8
  9
$HANDSEED
  5
F0A
  9
$SURFTAB1
 70
     6
  9
$SURFTAB2
 70
     6
  9
$SURFTYPE
 70
     6
  9
$SURFU
 70
     6
  9
$SURFV
 70
     6
  9
$UCSBASE
  2

  9
$UCSNAME
  2

  9
$UCSORG
 10
0.0
 20
0.0
 30
0.0
  9
$UCSXDIR
 10
1.0
 20
0.0
 30
0.0
  9
$UCSYDIR
 10
0.0
 20
1.0
 30
0.0
  9
$UCSORTHOREF
  2

  9
$UCSORTHOVIEW
 70
     0
  9
$UCSORGTOP
 10
0.0
 20
0.0
 30
0.0
  9
$UCSORGBOTTOM
 10
0.0
 20
0.0
 30
0.0
  9
$UCSORGLEFT
 10
0.0
 20
0.0
 30
0.0
  9
$UCSORGRIGHT
 10
0.0
 20
0.0
 30
0.0
  9
$UCSORGFRONT
 10
0.0
 20
0.0
 30
0.0
  9
$UCSORGBACK
 10
0.0
 20
0.0
 30
0.0
  9
$PUCSBASE
  2

  9
$PUCSNAME
  2

  9
$PUCSORG
 10
0.0
 20
0.0
 30
0.0
  9
$PUCSXDIR
 10
1.0
 20
0.0
 30
0.0
  9
$PUCSYDIR
 10
0.0
 20
1.0
 30
0.0
  9
$PUCSORTHOREF
  2

  9
$PUCSORTHOVIEW
 70
     0
  9
$PUCSORGTOP
 10
0.0
 20
0.0
 30
0.0
  9
$PUCSORGBOTTOM
 10
0.0
 20
0.0
 30
0.0
  9
$PUCSORGLEFT
 10
0.0
 20
0.0
 30
0.0
  9
$PUCSORGRIGHT
 10
0.0
 20
0.0
 30
0.0
  9
$PUCSORGFRONT
 10
0.0
 20
0.0
 30
0.0
  9
$PUCSORGBACK
 10
0.0
 20
0.0
 30
0.0
  9
$USERI1
 70
     0
  9
$USERI2
 70
     0
  9
$USERI3
 70
     0
  9
$USERI4
 70
     0
  9
$USERI5
 70
     0
  9
$USERR1
 40
0.0
  9
$USERR2
 40
0.0
  9
$USERR3
 40
0.0
  9
$USERR4
 40
0.0
  9
$USERR5
 40
0.0
  9
$WORLDVIEW
 70
     1
  9
$SHADEDGE
 70
     3
  9
$SHADEDIF
 70
    70
  9
$TILEMODE
 70
     1
  9
$MAXACTVP
 70
    48
  9
$PINSBASE
 10
0.0
 20
0.0
 30
0.0
  9
$PLIMCHECK
 70
     0
  9
$PEXTMIN
 10
1.000000000000000E+20
 20
1.000000000000000E+20
 30
1.000000000000000E+20
  9
$PEXTMAX
 10
-1.000000000000000E+20
 20
-1.000000000000000E+20
 30
-1.000000000000000E+20
  9
$PLIMMIN
 10
0.0
 20
0.0
  9
$PLIMMAX
 10
420.0
 20
297.0
  9
$UNITMODE
 70
     0
  9
$VISRETAIN
 70
     1
  9
$PLINEGEN
 70
     0
  9
$PSLTSCALE
 70
     1
  9
$TREEDEPTH
 70
  3020
  9
$CMLSTYLE
  2
STANDARD
  9
$CMLJUST
 70
     0
  9
$CMLSCALE
 40
20.0
  9
$PROXYGRAPHICS
 70
     1
  9
$MEASUREMENT
 70
     1
  9
$CELWEIGHT
370
    -1
  9
$ENDCAPS
280
     0
  9
$JOINSTYLE
280
     0
  9
$LWDISPLAY
290
     0
  9
$INSUNITS
 70
     0
  9
$HYPERLINKBASE
  1

  9
$STYLESHEET
  1
AutoCAD LT 98.ctb
  9
$XEDIT
290
     1
  9
$CEPSNTYPE
380
     0
  9
$PSTYLEMODE
290
     1
  9
$FINGERPRINTGUID
  2
{C15EAEC8-13CE-4593-8018-ED99EE17C3BA}
  9
$VERSIONGUID
  2
{E1FE6911-FD48-4338-B235-419F37389B1C}
  9
$EXTNAMES
290
     1
  9
$PSVPSCALE
 40
0.0
  9
$OLESTARTUP
290
     0
  9
$SORTENTS
280
   127
  9
$INDEXCTL
280
     0
  9
$HIDETEXT
280
     0
  9
$XCLIPFRAME
290
     0
  9
$HALOGAP
280
     0
  9
$OBSCOLOR
 70
   257
  9
$OBSLTYPE
280
     0
  9
$INTERSECTIONDISPLAY
280
     0
  9
$INTERSECTIONCOLOR
 70
   257
  9
$DIMASSOC
280
     1
  9
$PROJECTNAME
  1

  0
ENDSEC
  0
SECTION
  2
CLASSES
  0
CLASS
  1
HATCH
  2
AcDbHatch
  3
ObjectDBX Classes
 90
        0
 91
       19
280
     0
281
     1
  0
CLASS
  1
LWPOLYLINE
  2
AcDbPolyline
  3
ObjectDBX Classes
 90
        0
 91
        1
280
     0
281
     1
  0
CLASS
  1
ACDBDICTIONARYWDFLT
  2
AcDbDictionaryWithDefault
  3
ObjectDBX Classes
 90
        0
 91
        1
280
     0
281
     0
  0
CLASS
  1
TABLESTYLE
  2
AcDbTableStyle
  3
ObjectDBX Classes
 90
     2047
 91
        1
280
     0
281
     0
  0
CLASS
  1
DICTIONARYVAR
  2
AcDbDictionaryVar
  3
ObjectDBX Classes
 90
        0
 91
        1
280
     0
281
     0
  0
CLASS
  1
SORTENTSTABLE
  2
AcDbSortentsTable
  3
ObjectDBX Classes
 90
        0
 91
        1
280
     0
281
     0
  0
ENDSEC
  0
SECTION
  2
TABLES
  0
TABLE
  2
VPORT
  5
8
330
0
100
AcDbSymbolTable
 70
     2
  0
VPORT
  5
F09
330
8
100
AcDbSymbolTableRecord
100
AcDbViewportTableRecord
  2
*Active
 70
     0
 10
0.0
 20
0.0
 11
1.0
 21
1.0
 12
296.4435348422995
 22
194.0128900882437
 13
0.0
 23
0.0
 14
10.0
 24
10.0
 15
10.0
 25
10.0
 16
0.0
 26
0.0
 36
1.0
 17
0.0
 27
0.0
 37
0.0
 40
370.6058597440472
 41
1.530456852791878
 42
50.0
 43
0.0
 44
0.0
 50
0.0
 51
0.0
 71
     0
 72
   100
 73
     1
 74
     1
 75
     0
 76
     0
 77
     0
 78
     0
281
     0
 65
     1
110
0.0
120
0.0
130
0.0
111
1.0
121
0.0
131
0.0
112
0.0
122
1.0
132
0.0
 79
     0
146
0.0
  0
ENDTAB
  0
TABLE
  2
LTYPE
  5
5
330
0
100
AcDbSymbolTable
 70
    13
  0
LTYPE
  5
12
330
5
100
AcDbSymbolTableRecord
100
AcDbLinetypeTableRecord
  2
BYBLOCK
 70
     0
  3

 72
    65
 73
     0
 40
0.0
  0
LTYPE
  5
13
330
5
100
AcDbSymbolTableRecord
100
AcDbLinetypeTableRecord
  2
BYLAYER
 70
     0
  3

 72
    65
 73
     0
 40
0.0
  0
LTYPE
  5
14
330
5
100
AcDbSymbolTableRecord
100
AcDbLinetypeTableRecord
  2
CONTINUOUS
 70
     0
  3
Solid line
 72
    65
 73
     0
 40
0.0
  0
LTYPE
  5
22
330
5
100
AcDbSymbolTableRecord
100
AcDbLinetypeTableRecord
  2
CENTER2
 70
     0
  3
Center (.5x) ___ _ ___ _ ___ _ ___ _ ___ _ ___
 72
    65
 73
     4
 40
28.575
 49
19.05
 74
     0
 49
-3.174999999999999
 74
     0
 49
3.174999999999999
 74
     0
 49
-3.174999999999999
 74
     0
  0
LTYPE
  5
23
330
5
100
AcDbSymbolTableRecord
100
AcDbLinetypeTableRecord
  2
HIDDEN2
 70
     0
  3
Hidden (.5x) _ _ _ _ _ _ _ _ _ _ _ _ _ _ _ _ _
 72
    65
 73
     2
 40
4.762499999999999
 49
3.174999999999999
 74
     0
 49
-1.587499999999999
 74
     0
  0
LTYPE
  5
24
330
5
100
AcDbSymbolTableRecord
100
AcDbLinetypeTableRecord
  2
PHANTOM2
 70
     0
  3
Phantom (.5x) ___ _ _ ___ _ _ ___ _ _ ___ _ _
 72
    65
 73
     6
 40
31.75
 49
15.875
 74
     0
 49
-3.174999999999999
 74
     0
 49
3.174999999999999
 74
     0
 49
-3.174999999999999
 74
     0
 49
3.174999999999999
 74
     0
 49
-3.174999999999999
 74
     0
  0
ENDTAB
  0
TABLE
  2
LAYER
  5
2
330
0
100
AcDbSymbolTable
 70
    16
  0
LAYER
  5
E
330
2
100
AcDbSymbolTableRecord
100
AcDbLayerTableRecord
  2
0
 70
     0
 62
     7
  6
CONTINUOUS
370
    -3
390
CAA
  0
LAYER
  5
25
330
2
100
AcDbSymbolTableRecord
100
AcDbLayerTableRecord
  2
外形線
 70
     0
 62
     7
  6
CONTINUOUS
370
    -3
390
CAA
  0
LAYER
  5
26
330
2
100
AcDbSymbolTableRecord
100
AcDbLayerTableRecord
  2
寸法線
 70
     0
 62
     2
  6
CONTINUOUS
370
    -3
390
CAA
  0
LAYER
  5
27
330
2
100
AcDbSymbolTableRecord
100
AcDbLayerTableRecord
  2
中心線
 70
     0
 62
     4
  6
CENTER2
370
    -3
390
CAA
  0
LAYER
  5
28
330
2
100
AcDbSymbolTableRecord
100
AcDbLayerTableRecord
  2
隠れ線
 70
     0
 62
     6
  6
HIDDEN2
370
    -3
390
CAA
  0
LAYER
  5
29
330
2
100
AcDbSymbolTableRecord
100
AcDbLayerTableRecord
  2
想像線
 70
     0
 62
     1
  6
PHANTOM2
370
    -3
390
CAA
  0
LAYER
  5
2A
330
2
100
AcDbSymbolTableRecord
100
AcDbLayerTableRecord
  2
ﾊｯﾁﾝｸ
 70
     0
 62
     6
  6
CONTINUOUS
370
    -3
390
CAA
  0
LAYER
  5
2B
330
2
100
AcDbSymbolTableRecord
100
AcDbLayerTableRecord
  2
文字
 70
     0
 62
     6
  6
CONTINUOUS
370
    -3
390
CAA
  0
LAYER
  5
2C
330
2
100
AcDbSymbolTableRecord
100
AcDbLayerTableRecord
  2
目盛
 70
     0
 62
    72
  6
CONTINUOUS
370
    -3
390
CAA
  0
LAYER
  5
2D
330
2
100
AcDbSymbolTableRecord
100
AcDbLayerTableRecord
  2
針
 70
     0
 62
     5
  6
CONTINUOUS
370
    -3
390
CAA
  0
LAYER
  5
53
330
2
100
AcDbSymbolTableRecord
100
AcDbLayerTableRecord
  2
DEFPOINTS
 70
     0
 62
     7
  6
CONTINUOUS
290
     0
370
    -3
390
CAA
  0
LAYER
  5
A5
330
2
100
AcDbSymbolTableRecord
100
AcDbLayerTableRecord
  2
C
 70
     0
 62
     7
  6
CONTINUOUS
370
    -3
390
CAA
  0
LAYER
  5
2DF
330
2
100
AcDbSymbolTableRecord
100
AcDbLayerTableRecord
  2
握り
 70
     0
 62
     3
  6
CONTINUOUS
370
    -3
390
CAA
  0
LAYER
  5
39F
330
2
100
AcDbSymbolTableRecord
100
AcDbLayerTableRecord
  2
ROGO
 70
     0
 62
     6
  6
CONTINUOUS
370
    -3
390
CAA
  0
LAYER
  5
E69
330
2
100
AcDbSymbolTableRecord
100
AcDbLayerTableRecord
  2
隠れ線2
 70
     0
 62
     1
  6
HIDDEN2
370
    -3
390
CAA
  0
ENDTAB
  0
TABLE
  2
STYLE
  5
3
330
0
100
AcDbSymbolTable
 70
     6
  0
STYLE
  5
F
330
3
100
AcDbSymbolTableRecord
100
AcDbTextStyleTableRecord
  2
STANDARD
 70
     0
 40
0.0
 41
1.0
 50
0.0
 71
     0
 42
2.5
  3
txt
  4

  0
STYLE
  5
3F
330
3
100
AcDbSymbolTableRecord
100
AcDbTextStyleTableRecord
  2
STYLE3
 70
     0
 40
0.0
 41
1.0
 50
0.0
 71
     0
 42
5.0
  3
romans.shx
  4
bigfont.shx
  0
ENDTAB
  0
TABLE
  2
VIEW
  5
6
330
0
100
AcDbSymbolTable
 70
     0
  0
ENDTAB
  0
TABLE
  2
UCS
  5
7
330
0
100
AcDbSymbolTable
 70
     0
  0
ENDTAB
  0
TABLE
  2
APPID
  5
9
330
0
100
AcDbSymbolTable
 70
     2
  0
APPID
  5
10
330
9
100
AcDbSymbolTableRecord
100
AcDbRegAppTableRecord
  2
ACAD
 70
     0
  0
APPID
  5
E6E
330
9
100
AcDbSymbolTableRecord
100
AcDbRegAppTableRecord
  2
ACAD_PSEXT
 70
     0
  0
ENDTAB
  0
TABLE
  2
DIMSTYLE
  5
A
330
0
100
AcDbSymbolTable
 70
     8
100
AcDbDimStyleTable
 71
     1
340
8F
  0
DIMSTYLE
105
1D
330
A
100
AcDbSymbolTableRecord
100
AcDbDimStyleTableRecord
  2
STANDARD
 70
     0
 41
2.5
 42
0.625
 43
3.75
 44
1.25
 73
     0
 74
     0
 77
     1
 78
     8
140
2.5
141
2.5
143
0.0394
147
0.625
171
     4
172
     1
273
     8
274
     4
277
     6
340
F
  0
DIMSTYLE
105
8F
102
{ACAD_REACTORS
330
A1A
330
A33
330
A93
330
AAF
330
BC1
102
}
330
A
100
AcDbSymbolTableRecord
100
AcDbDimStyleTableRecord
  2
STYLE3
 70
     0
 41
2.5
 42
0.0
 43
3.75
 44
1.25
 73
     0
 74
     0
 77
     1
 78
     8
140
2.5
141
2.5
143
0.0394
147
0.625
171
     4
172
     1
173
     1
176
     2
177
     2
178
     6
271
     1
273
     8
274
     4
340
3F
341
45
343
45
344
45
  0
ENDTAB
  0
TABLE
  2
BLOCK_RECORD
  5
1
330
0
100
AcDbSymbolTable
 70
    10
  0
BLOCK_RECORD
  5
18
102
{ACAD_XDICTIONARY
360
E01
102
}
330
1
100
AcDbSymbolTableRecord
100
AcDbBlockTableRecord
  2
*MODEL_SPACE
340
CB1
  0
BLOCK_RECORD
  5
15
330
1
100
AcDbSymbolTableRecord
100
AcDbBlockTableRecord
  2
*PAPER_SPACE
340
CB2
  0
BLOCK_RECORD
  5
45
330
1
100
AcDbSymbolTableRecord
100
AcDbBlockTableRecord
  2
_OPEN
340
0
102
{BLKREFS
331
9F4
331
B70
331
B71
331
B88
331
B89
331
B9B
331
C5A
331
C5B
331
BA3
331
BA4
331
CBE
331
CBF
331
CC9
331
CCA
331
E50
331
E51
331
E5A
331
E5B
102
}
  0
BLOCK_RECORD
  5
A0E
330
1
100
AcDbSymbolTableRecord
100
AcDbBlockTableRecord
  2
*D2
340
0
  0
BLOCK_RECORD
  5
A28
330
1
100
AcDbSymbolTableRecord
100
AcDbBlockTableRecord
  2
*D3
340
0
  0
BLOCK_RECORD
  5
A85
330
1
100
AcDbSymbolTableRecord
100
AcDbBlockTableRecord
  2
*D6
340
0
  0
BLOCK_RECORD
  5
AA1
330
1
100
AcDbSymbolTableRecord
100
AcDbBlockTableRecord
  2
*D7
340
0
  0
BLOCK_RECORD
  5
BB5
330
1
100
AcDbSymbolTableRecord
100
AcDbBlockTableRecord
  2
*D8
340
0
  0
ENDTAB
  0
ENDSEC
  0
SECTION
  2
BLOCKS
  0
BLOCK
  5
19
330
18
100
AcDbEntity
  8
0
100
AcDbBlockBegin
  2
*MODEL_SPACE
 70
     0
 10
0.0
 20
0.0
 30
0.0
  3
*MODEL_SPACE
  1

  0
ENDBLK
  5
1A
330
18
100
AcDbEntity
  8
0
100
AcDbBlockEnd
  0
BLOCK
  5
16
330
15
100
AcDbEntity
 67
     1
  8
0
100
AcDbBlockBegin
  2
*PAPER_SPACE
 70
     0
 10
0.0
 20
0.0
 30
0.0
  3
*PAPER_SPACE
  1

  0
ENDBLK
  5
17
330
15
100
AcDbEntity
 67
     1
  8
0
100
AcDbBlockEnd
  0
BLOCK
  5
46
330
45
100
AcDbEntity
  8
0
100
AcDbBlockBegin
  2
_OPEN
 70
     0
 10
0.0
 20
0.0
 30
0.0
  3
_OPEN
  1

  0
LINE
  5
47
330
45
100
AcDbEntity
  8
0
  6
ByBlock
 62
     0
100
AcDbLine
 10
-1.0
 20
0.1666666666666666
 30
0.0
 11
0.0
 21
0.0
 31
0.0
  0
LINE
  5
48
330
45
100
AcDbEntity
  8
0
  6
ByBlock
 62
     0
100
AcDbLine
 10
0.0
 20
0.0
 30
0.0
 11
-1.0
 21
-0.1666666666666666
 31
0.0
  0
LINE
  5
49
330
45
100
AcDbEntity
  8
0
  6
ByBlock
 62
     0
100
AcDbLine
 10
0.0
 20
0.0
 30
0.0
 11
-1.0
 21
0.0
 31
0.0
  0
ENDBLK
  5
4A
330
45
100
AcDbEntity
  8
0
100
AcDbBlockEnd
  0
BLOCK
  5
A0F
330
A0E
100
AcDbEntity
  8
0
100
AcDbBlockBegin
  2
*D2
 70
     1
 10
0.0
 20
0.0
 30
0.0
  3
*D2
  1

  0
LINE
  5
E4D
330
A0E
100
AcDbEntity
  8
外形線
 62
     2
370
    -2
100
AcDbLine
 10
492.2108251996917
 20
204.9020709364857
 30
0.0
 11
509.8051471683561
 21
204.9020709364857
 31
0.0
  0
LINE
  5
E4E
330
A0E
100
AcDbEntity
  8
外形線
 62
     2
370
    -2
100
AcDbLine
 10
492.2108251996917
 20
174.9020709364857
 30
0.0
 11
509.8051471683561
 21
174.9020709364857
 31
0.0
  0
LINE
  5
E4F
330
A0E
100
AcDbEntity
  8
外形線
 62
     2
370
    -2
100
AcDbLine
 10
508.5551471683561
 20
202.4020709364857
 30
0.0
 11
508.5551471683561
 21
177.4020709364857
 31
0.0
  0
INSERT
  5
E50
330
A0E
100
AcDbEntity
  8
外形線
 62
     2
370
    -2
100
AcDbBlockReference
  2
_OPEN
 10
508.5551471683561
 20
204.9020709364857
 30
0.0
 41
2.5
 42
2.5
 43
2.5
 50
90.0
  0
INSERT
  5
E51
330
A0E
100
AcDbEntity
  8
外形線
 62
     2
370
    -2
100
AcDbBlockReference
  2
_OPEN
 10
508.5551471683561
 20
174.9020709364857
 30
0.0
 41
2.5
 42
2.5
 43
2.5
 50
270.0
  0
MTEXT
  5
E52
330
A0E
100
AcDbEntity
  8
外形線
 62
     6
100
AcDbMText
 10
506.680147168356
 20
189.9020709364858
 30
0.0
 40
2.5
 41
0.0
 71
     5
 72
     1
  1
\A1;30
  7
STYLE3
 11
0.0000000000000001
 21
1.0
 31
0.0
 73
     1
 44
1.0
  0
POINT
  5
E53
330
A0E
100
AcDbEntity
  8
DEFPOINTS
 62
     0
100
AcDbPoint
 10
492.2108251996917
 20
204.9020709364857
 30
0.0
  0
POINT
  5
E54
330
A0E
100
AcDbEntity
  8
DEFPOINTS
 62
     0
100
AcDbPoint
 10
492.2108251996917
 20
174.9020709364857
 30
0.0
  0
POINT
  5
E55
330
A0E
100
AcDbEntity
  8
DEFPOINTS
 62
     0
100
AcDbPoint
 10
508.5551471683561
 20
174.9020709364857
 30
0.0
  0
ENDBLK
  5
A19
330
A0E
100
AcDbEntity
  8
0
100
AcDbBlockEnd
  0
BLOCK
  5
BA0
330
A28
100
AcDbEntity
  8
0
100
AcDbBlockBegin
  2
*D3
 70
     1
 10
0.0
 20
0.0
 30
0.0
  3
*D3
  1

  0
LINE
  5
BA1
330
A28
100
AcDbEntity
  8
0
  6
ByBlock
 62
     2
100
AcDbLine
 10
497.2108251996917
 20
176.2020709364857
 30
0.0
 11
497.2108251996917
 21
99.69741322991673
 31
0.0
  0
LINE
  5
BA2
330
A28
100
AcDbEntity
  8
0
  6
ByBlock
 62
     2
100
AcDbLine
 10
399.7108251996917
 20
100.9474132299167
 30
0.0
 11
494.7108251996917
 21
100.9474132299167
 31
0.0
  0
INSERT
  5
BA3
330
A28
100
AcDbEntity
  8
0
  6
ByBlock
 62
     2
100
AcDbBlockReference
  2
_OPEN
 10
397.2108251996917
 20
100.9474132299167
 30
0.0
 41
2.5
 42
2.5
 43
2.5
 50
180.0
  0
INSERT
  5
BA4
330
A28
100
AcDbEntity
  8
0
  6
ByBlock
 62
     2
100
AcDbBlockReference
  2
_OPEN
 10
497.2108251996917
 20
100.9474132299167
 30
0.0
 41
2.5
 42
2.5
 43
2.5
  0
MTEXT
  5
BA5
330
A28
100
AcDbEntity
  8
0
  6
ByBlock
 62
     6
100
AcDbMText
 10
447.2108251996917
 20
102.8224132299167
 30
0.0
 40
2.5
 41
0.0
 71
     5
 72
     1
  1
\A1;100
  7
STYLE3
 73
     1
 44
1.0
  0
POINT
  5
BA6
330
A28
100
AcDbEntity
  8
DEFPOINTS
  6
ByBlock
 62
     0
100
AcDbPoint
 10
397.2108251996917
 20
176.2020709364857
 30
0.0
  0
POINT
  5
BA7
330
A28
100
AcDbEntity
  8
DEFPOINTS
  6
ByBlock
 62
     0
100
AcDbPoint
 10
497.2108251996917
 20
176.2020709364857
 30
0.0
  0
POINT
  5
BA8
330
A28
100
AcDbEntity
  8
DEFPOINTS
  6
ByBlock
 62
     0
100
AcDbPoint
 10
497.2108251996917
 20
100.9474132299167
 30
0.0
  0
ENDBLK
  5
BA9
330
A28
100
AcDbEntity
  8
0
100
AcDbBlockEnd
  0
BLOCK
  5
A94
330
A85
100
AcDbEntity
  8
0
100
AcDbBlockBegin
  2
*D6
 70
     1
 10
0.0
 20
0.0
 30
0.0
  3
*D6
  1

  0
LINE
  5
CB9
330
A85
100
AcDbEntity
  8
寸法線
 62
     2
370
    -2
100
AcDbLine
 10
192.1961041617603
 20
272.4373734278805
 30
0.0
 11
192.1961041617603
 21
283.2491259379889
 31
0.0
  0
LINE
  5
CBA
330
A85
100
AcDbEntity
  8
寸法線
 62
     2
370
    -2
100
AcDbLine
 10
196.1961041617603
 20
272.700782880881
 30
0.0
 11
196.1961041617603
 21
283.2491259379889
 31
0.0
  0
LINE
  5
CBB
330
A85
100
AcDbEntity
  8
寸法線
 62
     2
370
    -2
100
AcDbLine
 10
189.6961041617603
 20
281.9991259379889
 30
0.0
 11
187.1961041617603
 21
281.9991259379889
 31
0.0
  0
LINE
  5
CBC
330
A85
100
AcDbEntity
  8
寸法線
 62
     2
370
    -2
100
AcDbLine
 10
198.6961041617603
 20
281.9991259379889
 30
0.0
 11
201.1961041617603
 21
281.9991259379889
 31
0.0
  0
LINE
  5
CBD
330
A85
100
AcDbEntity
  8
寸法線
 62
     2
370
    -2
100
AcDbLine
 10
192.1961041617603
 20
281.9991259379889
 30
0.0
 11
196.1961041617603
 21
281.9991259379889
 31
0.0
  0
INSERT
  5
CBE
330
A85
100
AcDbEntity
  8
寸法線
 62
     2
370
    -2
100
AcDbBlockReference
  2
_OPEN
 10
192.1961041617603
 20
281.9991259379889
 30
0.0
 41
2.5
 42
2.5
 43
2.5
  0
INSERT
  5
CBF
330
A85
100
AcDbEntity
  8
寸法線
 62
     2
370
    -2
100
AcDbBlockReference
  2
_OPEN
 10
196.1961041617603
 20
281.9991259379889
 30
0.0
 41
2.5
 42
2.5
 43
2.5
 50
180.0
  0
MTEXT
  5
CC0
330
A85
100
AcDbEntity
  8
寸法線
 62
     6
100
AcDbMText
 10
194.1961041617603
 20
283.8741259379889
 30
0.0
 40
2.5
 41
0.0
 71
     5
 72
     1
  1
\A1;3
  7
STYLE3
 73
     1
 44
1.0
  0
POINT
  5
CC1
330
A85
100
AcDbEntity
  8
DEFPOINTS
 62
     0
100
AcDbPoint
 10
192.1961041617603
 20
272.4373734278805
 30
0.0
  0
POINT
  5
CC2
330
A85
100
AcDbEntity
  8
DEFPOINTS
 62
     0
100
AcDbPoint
 10
196.1961041617603
 20
272.700782880881
 30
0.0
  0
POINT
  5
CC3
330
A85
100
AcDbEntity
  8
DEFPOINTS
 62
     0
100
AcDbPoint
 10
196.1961041617603
 20
281.9991259379889
 30
0.0
  0
ENDBLK
  5
AA0
330
A85
100
AcDbEntity
  8
0
100
AcDbBlockEnd
  0
BLOCK
  5
AB0
330
AA1
100
AcDbEntity
  8
0
100
AcDbBlockBegin
  2
*D7
 70
     1
 10
0.0
 20
0.0
 30
0.0
  3
*D7
  1

  0
LINE
  5
CC4
330
AA1
100
AcDbEntity
  8
寸法線
 62
     2
370
    -2
100
AcDbLine
 10
192.1961041617603
 20
164.163858150054
 30
0.0
 11
192.1961041617603
 21
148.8760599513946
 31
0.0
  0
LINE
  5
CC5
330
AA1
100
AcDbEntity
  8
寸法線
 62
     2
370
    -2
100
AcDbLine
 10
196.1961041617603
 20
163.9522960344329
 30
0.0
 11
196.1961041617603
 21
148.8760599513946
 31
0.0
  0
LINE
  5
CC6
330
AA1
100
AcDbEntity
  8
寸法線
 62
     2
370
    -2
100
AcDbLine
 10
189.6961041617603
 20
150.1260599513946
 30
0.0
 11
187.1961041617603
 21
150.1260599513946
 31
0.0
  0
LINE
  5
CC7
330
AA1
100
AcDbEntity
  8
寸法線
 62
     2
370
    -2
100
AcDbLine
 10
198.6961041617603
 20
150.1260599513946
 30
0.0
 11
201.1961041617603
 21
150.1260599513946
 31
0.0
  0
LINE
  5
CC8
330
AA1
100
AcDbEntity
  8
寸法線
 62
     2
370
    -2
100
AcDbLine
 10
192.1961041617603
 20
150.1260599513946
 30
0.0
 11
196.1961041617603
 21
150.1260599513946
 31
0.0
  0
INSERT
  5
CC9
330
AA1
100
AcDbEntity
  8
寸法線
 62
     2
370
    -2
100
AcDbBlockReference
  2
_OPEN
 10
192.1961041617603
 20
150.1260599513946
 30
0.0
 41
2.5
 42
2.5
 43
2.5
  0
INSERT
  5
CCA
330
AA1
100
AcDbEntity
  8
寸法線
 62
     2
370
    -2
100
AcDbBlockReference
  2
_OPEN
 10
196.1961041617603
 20
150.1260599513946
 30
0.0
 41
2.5
 42
2.5
 43
2.5
 50
180.0
  0
MTEXT
  5
CCB
330
AA1
100
AcDbEntity
  8
寸法線
 62
     6
100
AcDbMText
 10
194.1961041617603
 20
152.0010599513946
 30
0.0
 40
2.5
 41
0.0
 71
     5
 72
     1
  1
\A1;3
  7
STYLE3
 73
     1
 44
1.0
  0
POINT
  5
CCC
330
AA1
100
AcDbEntity
  8
DEFPOINTS
 62
     0
100
AcDbPoint
 10
192.1961041617603
 20
164.163858150054
 30
0.0
  0
POINT
  5
CCD
330
AA1
100
AcDbEntity
  8
DEFPOINTS
 62
     0
100
AcDbPoint
 10
196.1961041617603
 20
163.9522960344329
 30
0.0
  0
POINT
  5
CCE
330
AA1
100
AcDbEntity
  8
DEFPOINTS
 62
     0
100
AcDbPoint
 10
196.1961041617603
 20
150.1260599513946
 30
0.0
  0
ENDBLK
  5
ABC
330
AA1
100
AcDbEntity
  8
0
100
AcDbBlockEnd
  0
BLOCK
  5
BB6
330
BB5
100
AcDbEntity
  8
0
100
AcDbBlockBegin
  2
*D8
 70
     1
 10
0.0
 20
0.0
 30
0.0
  3
*D8
  1

  0
LINE
  5
E57
330
BB5
100
AcDbEntity
  8
寸法線
 62
     2
370
    -2
100
AcDbLine
 10
89.21082519969173
 20
97.72914795126149
 30
0.0
 11
89.21082519969173
 21
86.62082825714184
 31
0.0
  0
LINE
  5
E58
330
BB5
100
AcDbEntity
  8
寸法線
 62
     2
370
    -2
100
AcDbLine
 10
497.2108251996917
 20
99.69741322991673
 30
0.0
 11
497.2108251996917
 21
86.62082825714184
 31
0.0
  0
LINE
  5
E59
330
BB5
100
AcDbEntity
  8
寸法線
 62
     2
370
    -2
100
AcDbLine
 10
91.71082519969173
 20
87.87082825714184
 30
0.0
 11
494.7108251996917
 21
87.87082825714184
 31
0.0
  0
INSERT
  5
E5A
330
BB5
100
AcDbEntity
  8
寸法線
 62
     2
370
    -2
100
AcDbBlockReference
  2
_OPEN
 10
89.21082519969173
 20
87.87082825714184
 30
0.0
 41
2.5
 42
2.5
 43
2.5
 50
180.0
  0
INSERT
  5
E5B
330
BB5
100
AcDbEntity
  8
寸法線
 62
     2
370
    -2
100
AcDbBlockReference
  2
_OPEN
 10
497.2108251996917
 20
87.87082825714184
 30
0.0
 41
2.5
 42
2.5
 43
2.5
  0
MTEXT
  5
E5C
330
BB5
100
AcDbEntity
  8
寸法線
 62
     6
100
AcDbMText
 10
293.2108251996917
 20
89.74582825714184
 30
0.0
 40
2.5
 41
0.0
 71
     5
 72
     1
  1
\A1;408
  7
STYLE3
 73
     1
 44
1.0
  0
POINT
  5
E5D
330
BB5
100
AcDbEntity
  8
DEFPOINTS
 62
     0
100
AcDbPoint
 10
89.21082519969173
 20
97.72914795126149
 30
0.0
  0
POINT
  5
E5E
330
BB5
100
AcDbEntity
  8
DEFPOINTS
 62
     0
100
AcDbPoint
 10
497.2108251996917
 20
99.69741322991673
 30
0.0
  0
POINT
  5
E5F
330
BB5
100
AcDbEntity
  8
DEFPOINTS
 62
     0
100
AcDbPoint
 10
497.2108251996917
 20
87.87082825714184
 30
0.0
  0
ENDBLK
  5
BC0
330
BB5
100
AcDbEntity
  8
0
100
AcDbBlockEnd
  0
ENDSEC
  0
SECTION
  2
ENTITIES
  0
LWPOLYLINE
  5
1A0
330
18
100
AcDbEntity
  8
C
100
AcDbPolyline
 90
        5
 70
     0
 43
0.8
 38
1.0
 10
27.86477845022023
 20
377.5
 10
565.0
 20
377.5
 10
565.0
 20
10.52176990924897
 10
27.86477845022023
 20
10.52176990924897
 10
27.86477845022023
 20
377.5
  0
LINE
  5
21C
330
18
100
AcDbEntity
  8
中心線
 48
0.5
100
AcDbLine
 10
89.21082519969173
 20
189.9020709364857
 30
0.0
 11
500.4903240023936
 21
189.9020709364857
 31
0.0
  0
LINE
  5
21D
330
18
100
AcDbEntity
  8
中心線
 48
0.5
100
AcDbLine
 10
349.2108251996917
 20
216.5287077794753
 30
0.0
 11
349.2108251996918
 21
156.1238179755109
 31
0.0
  0
ARC
  5
21F
330
18
100
AcDbEntity
  8
隠れ線2
100
AcDbCircle
 10
349.2108251996917
 20
189.9020709364857
 30
0.0
 40
21.0
100
AcDbArc
 50
168.0959513960799
 51
280.9059365434927
  0
CIRCLE
  5
220
330
18
100
AcDbEntity
  8
隠れ線
 62
     4
 48
0.5
100
AcDbCircle
 10
368.6978251996917
 20
185.4020709364857
 30
0.0
 40
4.5
  0
LINE
  5
221
330
18
100
AcDbEntity
  8
中心線
 48
0.5
100
AcDbLine
 10
380.1849107203574
 20
174.8569246549247
 30
0.0
 11
348.3549380466933
 21
293.6479998765703
 31
0.0
  0
LINE
  5
222
330
18
100
AcDbEntity
  8
外形線
100
AcDbLine
 10
387.5825706506979
 20
208.9723061547946
 30
0.0
 11
381.357064639577
 21
232.2062108911236
 31
0.0
  0
LINE
  5
223
330
18
100
AcDbEntity
  8
中心線
 48
0.5
100
AcDbLine
 10
327.4299841218387
 20
241.8688194603723
 30
0.0
 11
389.8627913643289
 21
258.5976397422052
 31
0.0
  0
ARC
  5
225
330
18
100
AcDbEntity
  8
隠れ線2
100
AcDbCircle
 10
359.8741698579157
 20
250.5622128274392
 30
0.0
 40
25.0
100
AcDbArc
 50
332.8594746783395
 51
77.6621836450017
  0
ARC
  5
226
330
18
100
AcDbEntity
  8
外形線
100
AcDbCircle
 10
397.2168251996917
 20
211.6520709364857
 30
0.0
 40
10.0
100
AcDbArc
 50
194.4561090755285
 51
270.0
  0
ARC
  5
229
330
18
100
AcDbEntity
  8
外形線
100
AcDbCircle
 10
391.0518251996917
 20
234.6580709364857
 30
0.0
 40
10.0
100
AcDbArc
 50
179.1824978487601
 51
195.8071737189866
  0
LINE
  5
22B
330
18
100
AcDbEntity
  8
外形線
100
AcDbLine
 10
396.2108251996917
 20
178.1520709364857
 30
0.0
 11
397.2108251996917
 21
178.1520709364857
 31
0.0
  0
ARC
  5
22C
330
18
100
AcDbEntity
  8
外形線
100
AcDbCircle
 10
396.2108251996917
 20
143.1520709364857
 30
0.0
 40
35.0
100
AcDbArc
 50
90.0
 51
106.8429931230916
  0
LINE
  5
22D
330
18
100
AcDbEntity
  8
隠れ線2
100
AcDbLine
 10
378.9610533784231
 20
175.0564770992347
 30
0.0
 11
354.2074916816129
 21
169.5051759750352
 31
0.0
  0
ARC
  5
22E
330
18
100
AcDbEntity
  8
外形線
100
AcDbCircle
 10
307.6108251996917
 20
233.9020709364857
 30
0.0
 40
25.0
100
AcDbArc
 50
10.87708521460495
 51
66.590242552983
  0
ARC
  5
22F
330
18
100
AcDbEntity
  8
外形線
100
AcDbCircle
 10
294.2108251996917
 20
220.6270709364857
 30
0.0
 40
42.0
100
AcDbArc
 50
331.2186849242065
 51
25.36571207254437
  0
LINE
  5
231
330
18
100
AcDbEntity
  8
外形線
100
AcDbLine
 10
331.0223022710891
 20
200.4054202664245
 30
0.0
 11
330.9930341772266
 21
200.3477442159729
 31
0.0
  0
ARC
  5
236
330
18
100
AcDbEntity
  8
外形線
100
AcDbCircle
 10
89.21082519969173
 20
191.9020709364857
 30
0.0
 40
2.0
100
AcDbArc
 50
179.9999999999894
 51
0.0
  0
ARC
  5
238
330
18
100
AcDbEntity
  8
外形線
100
AcDbCircle
 10
142.2108251996917
 20
206.9020709364857
 30
0.0
 40
50.0
100
AcDbArc
 50
90.00000000000259
 51
180.0
  0
ARC
  5
23B
330
18
100
AcDbEntity
  8
外形線
100
AcDbCircle
 10
138.5108251996917
 20
216.9020709364857
 30
0.0
 40
52.0
100
AcDbArc
 50
90.00000000000035
 51
183.2077255423098
  0
LINE
  5
23C
330
18
100
AcDbEntity
  8
外形線
100
AcDbLine
 10
86.59229732554507
 20
213.9923521560096
 30
0.0
 11
87.21082519969172
 21
191.9020709364857
 31
0.0
  0
LINE
  5
23D
330
18
100
AcDbEntity
  8
外形線
100
AcDbLine
 10
92.21082519969172
 20
206.9020709364857
 30
0.0
 11
91.21082519969172
 21
191.9020709364857
 31
0.0
  0
LINE
  5
23E
330
18
100
AcDbEntity
  8
外形線
100
AcDbLine
 10
138.5108251996917
 20
268.9020709364857
 30
0.0
 11
317.6313016582792
 21
280.6975776177734
 31
0.0
  0
LINE
  5
23F
330
18
100
AcDbEntity
  8
外形線
100
AcDbLine
 10
142.2108251996917
 20
256.9020709364857
 30
0.0
 11
307.6108251996917
 21
258.9020709364857
 31
0.0
  0
CIRCLE
  5
244
330
18
100
AcDbEntity
  8
外形線
100
AcDbCircle
 10
314.9108251996918
 20
261.9020709364856
 30
0.0
 40
1.05
  0
LINE
  5
246
330
18
100
AcDbEntity
  8
寸法線
100
AcDbLine
 10
89.21082519969173
 20
283.1164956804323
 30
0.0
 11
89.21082519969173
 21
97.72914795126149
 31
0.0
  0
LINE
  5
247
330
18
100
AcDbEntity
  8
外形線
100
AcDbLine
 10
339.1255105522764
 20
280.2103325940463
 30
0.0
 11
348.280416136527
 21
278.3758775454777
 31
0.0
  0
ARC
  5
248
330
18
100
AcDbEntity
  8
外形線
100
AcDbCircle
 10
326.8108251996917
 20
211.3020709364857
 30
0.0
 40
70.0
100
AcDbArc
 50
79.86756187611742
 51
97.53524525601298
  0
ARC
  5
24D
330
18
100
AcDbEntity
  8
外形線
100
AcDbCircle
 10
349.2108251996917
 20
189.9020709364857
 30
0.0
 40
21.0
100
AcDbArc
 50
6.786789298261895
 51
167.2303865897971
  0
ARC
  5
253
330
18
100
AcDbEntity
  8
外形線
100
AcDbCircle
 10
311.2108251996917
 20
198.6770709364857
 30
0.0
 40
18.0
100
AcDbArc
 50
270.0000000000029
 51
272.7684138467898
  0
LINE
  5
284
330
18
100
AcDbEntity
  8
外形線
100
AcDbLine
 10
370.0636736247067
 20
192.3837462906268
 30
0.0
 11
374.0289618651872
 21
193.4462420724202
 31
0.0
  0
LINE
  5
288
330
18
100
AcDbEntity
  8
外形線
100
AcDbLine
 10
382.8486076466503
 20
180.2752569451756
 30
0.0
 11
378.9650571236714
 21
194.7688648106941
 31
0.0
  0
ARC
  5
28E
330
18
100
AcDbEntity
  8
外形線
100
AcDbCircle
 10
388.9108251996918
 20
171.7020709364857
 30
0.0
 40
10.5
100
AcDbArc
 50
125.2646551803119
 51
128.2669947756623
  0
ARC
  5
291
330
18
100
AcDbEntity
  8
外形線
100
AcDbCircle
 10
400.7826197416985
 20
124.2020709364857
 30
0.0
 40
2.0
100
AcDbArc
 50
180.0000000000089
 51
0.0000000000130276
  0
ARC
  5
297
330
18
100
AcDbEntity
  8
外形線
100
AcDbCircle
 10
350.4906949509015
 20
115.9020709364857
 30
0.0
 40
49.0
100
AcDbArc
 50
9.752223762562756
 51
43.65156680458365
  0
ARC
  5
29A
330
18
100
AcDbEntity
  8
外形線
100
AcDbCircle
 10
362.9108251996918
 20
127.4020709364857
 30
0.0
 40
40.0
100
AcDbArc
 50
355.4114342642141
 51
51.19608290981935
  0
LINE
  5
29C
330
18
100
AcDbEntity
  8
外形線
100
AcDbLine
 10
383.1207011848174
 20
162.942820746408
 30
0.0
 11
387.9771088082309
 21
158.5738759220216
 31
0.0
  0
ARC
  5
2A8
330
18
100
AcDbEntity
  8
外形線
100
AcDbCircle
 10
363.1906949509014
 20
123.1310709364857
 30
0.0
 40
35.0
100
AcDbArc
 50
49.44979327422267
 51
103.6764519638973
  0
ARC
  5
2B4
330
18
100
AcDbEntity
  8
外形線
100
AcDbCircle
 10
346.5108251996917
 20
186.0020709364857
 30
0.0
 40
30.0
100
AcDbArc
 50
263.9448338860212
 51
284.2011613110114
  0
LINE
  5
2B6
330
18
100
AcDbEntity
  8
外形線
100
AcDbLine
 10
353.8706362564744
 20
156.9188596074653
 30
0.0
 11
354.9153359582732
 21
157.1386941045803
 31
0.0
  0
ARC
  5
2BA
330
18
100
AcDbEntity
  8
外形線
100
AcDbCircle
 10
89.21082519969173
 20
187.9020709364857
 30
0.0
 40
2.0
100
AcDbArc
 50
15.58429692993002
 51
186.3327758066873
  0
ARC
  5
2BD
330
18
100
AcDbEntity
  8
外形線
100
AcDbCircle
 10
102.1108251996917
 20
189.2020709364857
 30
0.0
 40
11.0
100
AcDbArc
 50
183.9758100949511
 51
271.3562929928102
  0
ARC
  5
2C0
330
18
100
AcDbEntity
  8
外形線
100
AcDbCircle
 10
102.6108251996917
 20
183.9020709364857
 30
0.0
 40
15.0
100
AcDbArc
 50
191.4606937843367
 51
270.0
  0
LINE
  5
2C2
330
18
100
AcDbEntity
  8
外形線
100
AcDbLine
 10
102.3711904438327
 20
178.2051527345691
 30
0.0
 11
311.2108251996917
 21
180.6770709364857
 31
0.0
  0
LINE
  5
2C3
330
18
100
AcDbEntity
  8
外形線
100
AcDbLine
 10
102.6108251996917
 20
168.9020709364857
 30
0.0
 11
343.3462460844589
 21
156.169447199653
 31
0.0
  0
ARC
  5
2C6
330
18
100
AcDbEntity
  8
外形線
100
AcDbCircle
 10
109.5034821947772
 20
186.5306070280015
 30
0.0
 40
22.31015602562545
100
AcDbArc
 50
177.0431137780508
 51
194.5608962662293
  0
CIRCLE
  5
2CB
330
18
100
AcDbEntity
  8
外形線
100
AcDbCircle
 10
314.7108251996917
 20
175.1020709364857
 30
0.0
 40
1.05
  0
CIRCLE
  5
2D1
330
18
100
AcDbEntity
  8
外形線
100
AcDbCircle
 10
349.2108251996917
 20
189.9020709364857
 30
0.0
 40
10.0
  0
CIRCLE
  5
2D2
330
18
100
AcDbEntity
  8
外形線
100
AcDbCircle
 10
349.2108251996917
 20
189.9020709364857
 30
0.0
 40
9.0
  0
ARC
  5
341
330
18
100
AcDbEntity
  8
握り
100
AcDbCircle
 10
492.2108251996917
 20
203.4020709364857
 30
0.0
 40
1.5
100
AcDbArc
 50
27.81813928465427
 51
152.1818607153457
  0
ARC
  5
342
330
18
100
AcDbEntity
  8
握り
100
AcDbCircle
 10
482.2108251996917
 20
203.4020709364857
 30
0.0
 40
1.5
100
AcDbArc
 50
27.81813928465427
 51
152.1818607153457
  0
ARC
  5
343
330
18
100
AcDbEntity
  8
握り
100
AcDbCircle
 10
472.2108251996917
 20
203.4020709364857
 30
0.0
 40
1.5
100
AcDbArc
 50
27.81813928465427
 51
152.1818607153457
  0
ARC
  5
344
330
18
100
AcDbEntity
  8
握り
100
AcDbCircle
 10
462.2108251996917
 20
203.4020709364857
 30
0.0
 40
1.5
100
AcDbArc
 50
27.81813928465427
 51
152.1818607153457
  0
ARC
  5
345
330
18
100
AcDbEntity
  8
握り
100
AcDbCircle
 10
452.2108251996917
 20
203.4020709364857
 30
0.0
 40
1.5
100
AcDbArc
 50
27.81813928465427
 51
152.1818607153457
  0
ARC
  5
346
330
18
100
AcDbEntity
  8
握り
100
AcDbCircle
 10
442.2108251996917
 20
203.4020709364857
 30
0.0
 40
1.5
100
AcDbArc
 50
27.81813928465427
 51
152.1818607153457
  0
ARC
  5
347
330
18
100
AcDbEntity
  8
握り
100
AcDbCircle
 10
432.2108251996917
 20
203.4020709364857
 30
0.0
 40
1.5
100
AcDbArc
 50
27.81813928465427
 51
152.1818607153457
  0
ARC
  5
348
330
18
100
AcDbEntity
  8
握り
100
AcDbCircle
 10
422.2108251996917
 20
203.4020709364857
 30
0.0
 40
1.5
100
AcDbArc
 50
27.81813928465427
 51
152.1818607153457
  0
ARC
  5
349
330
18
100
AcDbEntity
  8
握り
100
AcDbCircle
 10
412.2108251996917
 20
203.4020709364857
 30
0.0
 40
1.5
100
AcDbArc
 50
27.81813928465427
 51
152.1818607153457
  0
ARC
  5
34A
330
18
100
AcDbEntity
  8
握り
100
AcDbCircle
 10
402.2108251996916
 20
203.4020709364857
 30
0.0
 40
1.5
100
AcDbArc
 50
27.81813928465427
 51
152.1818607153457
  0
ARC
  5
34B
330
18
100
AcDbEntity
  8
握り
100
AcDbCircle
 10
397.7108251996917
 20
203.6020709364857
 30
0.0
 40
0.5
100
AcDbArc
 50
90.0
 51
180.0
  0
ARC
  5
34C
330
18
100
AcDbEntity
  8
握り
100
AcDbCircle
 10
496.7108251996917
 20
203.6020709364857
 30
0.0
 40
0.5
100
AcDbArc
 50
0.0
 51
90.0
  0
LINE
  5
34D
330
18
100
AcDbEntity
  8
握り
100
AcDbLine
 10
433.5374751158338
 20
183.2487709364857
 30
0.0
 11
440.8841752835493
 21
183.2487709364857
 31
0.0
  0
LINE
  5
34E
330
18
100
AcDbEntity
  8
握り
100
AcDbLine
 10
433.5374751158339
 20
196.5553709364857
 30
0.0
 11
440.8841752835497
 21
196.5553709364857
 31
0.0
  0
LINE
  5
34F
330
18
100
AcDbEntity
  8
握り
100
AcDbLine
 10
423.5374751158339
 20
185.9020709364857
 30
0.0
 11
470.8841752835494
 21
185.9020709364857
 31
0.0
  0
LINE
  5
350
330
18
100
AcDbEntity
  8
握り
100
AcDbLine
 10
423.5374751158339
 20
193.9020709364857
 30
0.0
 11
470.8841752835496
 21
193.9020709364857
 31
0.0
  0
LINE
  5
351
330
18
100
AcDbEntity
  8
握り
100
AcDbLine
 10
433.5374751158338
 20
175.7020709364857
 30
0.0
 11
440.8841752835495
 21
175.7020709364857
 31
0.0
  0
LINE
  5
352
330
18
100
AcDbEntity
  8
握り
100
AcDbLine
 10
433.5374751158338
 20
204.1020709364857
 30
0.0
 11
440.8841752835495
 21
204.1020709364857
 31
0.0
  0
LINE
  5
353
330
18
100
AcDbEntity
  8
握り
100
AcDbLine
 10
433.5374751158338
 20
183.2487709364857
 30
0.0
 11
433.5374751158338
 21
175.7020709364857
 31
0.0
  0
LINE
  5
354
330
18
100
AcDbEntity
  8
握り
100
AcDbLine
 10
430.8841752835495
 20
183.2487709364857
 30
0.0
 11
430.8841752835495
 21
175.7020709364857
 31
0.0
  0
LINE
  5
355
330
18
100
AcDbEntity
  8
握り
100
AcDbLine
 10
423.5374751158339
 20
183.2487709364857
 30
0.0
 11
423.5374751158339
 21
175.7020709364857
 31
0.0
  0
LINE
  5
356
330
18
100
AcDbEntity
  8
握り
100
AcDbLine
 10
420.8841752835495
 20
204.1020709364857
 30
0.0
 11
420.8841752835495
 21
175.7020709364857
 31
0.0
  0
LINE
  5
357
330
18
100
AcDbEntity
  8
握り
100
AcDbLine
 10
413.5374751158338
 20
204.1020709364857
 30
0.0
 11
413.5374751158338
 21
175.7020709364857
 31
0.0
  0
LINE
  5
358
330
18
100
AcDbEntity
  8
握り
100
AcDbLine
 10
410.8841752835495
 20
204.1020709364857
 30
0.0
 11
410.8841752835495
 21
175.7020709364857
 31
0.0
  0
LINE
  5
359
330
18
100
AcDbEntity
  8
握り
100
AcDbLine
 10
400.8841752835495
 20
204.1020709364857
 30
0.0
 11
400.8841752835495
 21
175.7020709364857
 31
0.0
  0
LINE
  5
35A
330
18
100
AcDbEntity
  8
握り
100
AcDbLine
 10
403.5374751158339
 20
204.1020709364857
 30
0.0
 11
403.5374751158339
 21
175.7020709364857
 31
0.0
  0
LINE
  5
35B
330
18
100
AcDbEntity
  8
握り
100
AcDbLine
 10
397.2108251996917
 20
203.6020709364857
 30
0.0
 11
397.2108251996917
 21
176.2020709364857
 31
0.0
  0
LINE
  5
35C
330
18
100
AcDbEntity
  8
握り
100
AcDbLine
 10
397.7108251996917
 20
175.7020709364857
 30
0.0
 11
400.8841752835496
 21
175.7020709364858
 31
0.0
  0
ARC
  5
35D
330
18
100
AcDbEntity
  8
握り
100
AcDbCircle
 10
397.7108251996917
 20
176.2020709364857
 30
0.0
 40
0.5
100
AcDbArc
 50
180.0
 51
270.0
  0
LINE
  5
35E
330
18
100
AcDbEntity
  8
握り
100
AcDbLine
 10
413.5374751158338
 20
175.7020709364857
 30
0.0
 11
420.8841752835495
 21
175.7020709364857
 31
0.0
  0
LINE
  5
35F
330
18
100
AcDbEntity
  8
握り
100
AcDbLine
 10
403.5374751158339
 20
175.7020709364858
 30
0.0
 11
410.8841752835497
 21
175.7020709364857
 31
0.0
  0
ARC
  5
360
330
18
100
AcDbEntity
  8
握り
100
AcDbCircle
 10
402.2108251996916
 20
176.4020709364857
 30
0.0
 40
1.5
100
AcDbArc
 50
207.8181392846543
 51
332.1818607153458
  0
ARC
  5
361
330
18
100
AcDbEntity
  8
握り
100
AcDbCircle
 10
412.2108251996917
 20
176.4020709364857
 30
0.0
 40
1.5
100
AcDbArc
 50
207.8181392846543
 51
332.1818607153458
  0
LINE
  5
362
330
18
100
AcDbEntity
  8
握り
100
AcDbLine
 10
423.5374751158339
 20
175.7020709364857
 30
0.0
 11
430.8841752835495
 21
175.7020709364857
 31
0.0
  0
ARC
  5
363
330
18
100
AcDbEntity
  8
握り
100
AcDbCircle
 10
422.2108251996917
 20
176.4020709364857
 30
0.0
 40
1.5
100
AcDbArc
 50
207.8181392846543
 51
332.1818607153458
  0
ARC
  5
364
330
18
100
AcDbEntity
  8
握り
100
AcDbCircle
 10
432.2108251996917
 20
176.4020709364857
 30
0.0
 40
1.5
100
AcDbArc
 50
207.8181392846543
 51
332.1818607153458
  0
LINE
  5
365
330
18
100
AcDbEntity
  8
握り
100
AcDbLine
 10
397.7108251996917
 20
204.1020709364857
 30
0.0
 11
400.8841752835495
 21
204.1020709364857
 31
0.0
  0
LINE
  5
367
330
18
100
AcDbEntity
  8
握り
100
AcDbLine
 10
423.5374751158339
 20
193.9020709364857
 30
0.0
 11
423.5374751158339
 21
185.9020709364857
 31
0.0
  0
LINE
  5
368
330
18
100
AcDbEntity
  8
握り
100
AcDbLine
 10
423.5374751158339
 20
183.2487709364857
 30
0.0
 11
430.8841752835497
 21
183.2487709364857
 31
0.0
  0
LINE
  5
369
330
18
100
AcDbEntity
  8
握り
100
AcDbLine
 10
413.5374751158338
 20
204.1020709364857
 30
0.0
 11
420.8841752835495
 21
204.1020709364857
 31
0.0
  0
LINE
  5
36A
330
18
100
AcDbEntity
  8
握り
100
AcDbLine
 10
403.5374751158339
 20
204.1020709364857
 30
0.0
 11
410.8841752835497
 21
204.1020709364857
 31
0.0
  0
LINE
  5
36B
330
18
100
AcDbEntity
  8
握り
100
AcDbLine
 10
433.5374751158338
 20
204.1020709364857
 30
0.0
 11
433.5374751158339
 21
196.5553709364857
 31
0.0
  0
LINE
  5
36C
330
18
100
AcDbEntity
  8
握り
100
AcDbLine
 10
430.8841752835495
 20
204.1020709364857
 30
0.0
 11
430.8841752835497
 21
196.5553709364857
 31
0.0
  0
LINE
  5
36D
330
18
100
AcDbEntity
  8
握り
100
AcDbLine
 10
423.5374751158339
 20
204.1020709364857
 30
0.0
 11
423.5374751158339
 21
196.5553709364857
 31
0.0
  0
LINE
  5
36E
330
18
100
AcDbEntity
  8
握り
100
AcDbLine
 10
423.537475115834
 20
196.5553709364857
 30
0.0
 11
430.8841752835498
 21
196.5553709364857
 31
0.0
  0
LINE
  5
36F
330
18
100
AcDbEntity
  8
握り
100
AcDbLine
 10
423.5374751158339
 20
204.1020709364857
 30
0.0
 11
430.8841752835495
 21
204.1020709364857
 31
0.0
  0
LINE
  5
370
330
18
100
AcDbEntity
  8
握り
100
AcDbLine
 10
463.5374751158338
 20
183.2487709364857
 30
0.0
 11
463.5374751158338
 21
175.7020709364857
 31
0.0
  0
LINE
  5
371
330
18
100
AcDbEntity
  8
握り
100
AcDbLine
 10
460.8841752835497
 20
183.2487709364857
 30
0.0
 11
460.8841752835495
 21
175.7020709364857
 31
0.0
  0
LINE
  5
372
330
18
100
AcDbEntity
  8
握り
100
AcDbLine
 10
453.5374751158339
 20
183.2487709364857
 30
0.0
 11
453.5374751158339
 21
175.7020709364857
 31
0.0
  0
LINE
  5
373
330
18
100
AcDbEntity
  8
握り
100
AcDbLine
 10
450.8841752835495
 20
183.2487709364857
 30
0.0
 11
450.8841752835495
 21
175.7020709364857
 31
0.0
  0
LINE
  5
374
330
18
100
AcDbEntity
  8
握り
100
AcDbLine
 10
443.5374751158337
 20
183.2487709364857
 30
0.0
 11
443.5374751158339
 21
175.7020709364857
 31
0.0
  0
LINE
  5
375
330
18
100
AcDbEntity
  8
握り
100
AcDbLine
 10
440.8841752835494
 20
183.2487709364857
 30
0.0
 11
440.8841752835495
 21
175.7020709364857
 31
0.0
  0
LINE
  5
376
330
18
100
AcDbEntity
  8
握り
100
AcDbLine
 10
470.8841752835494
 20
183.2487709364857
 30
0.0
 11
470.8841752835495
 21
175.7020709364857
 31
0.0
  0
LINE
  5
377
330
18
100
AcDbEntity
  8
握り
100
AcDbLine
 10
493.5374751158339
 20
204.1020709364857
 30
0.0
 11
493.5374751158339
 21
175.7020709364857
 31
0.0
  0
LINE
  5
378
330
18
100
AcDbEntity
  8
握り
100
AcDbLine
 10
490.8841752835495
 20
204.1020709364857
 30
0.0
 11
490.8841752835495
 21
175.7020709364857
 31
0.0
  0
LINE
  5
379
330
18
100
AcDbEntity
  8
握り
100
AcDbLine
 10
483.5374751158338
 20
204.1020709364857
 30
0.0
 11
483.5374751158338
 21
175.7020709364857
 31
0.0
  0
LINE
  5
37A
330
18
100
AcDbEntity
  8
握り
100
AcDbLine
 10
480.8841752835495
 20
204.1020709364857
 30
0.0
 11
480.8841752835495
 21
175.7020709364857
 31
0.0
  0
LINE
  5
37B
330
18
100
AcDbEntity
  8
握り
100
AcDbLine
 10
473.5374751158339
 20
204.1020709364857
 30
0.0
 11
473.5374751158339
 21
175.7020709364857
 31
0.0
  0
LINE
  5
37C
330
18
100
AcDbEntity
  8
握り
100
AcDbLine
 10
497.2108251996917
 20
203.6020709364857
 30
0.0
 11
497.2108251996917
 21
176.2020709364857
 31
0.0
  0
LINE
  5
37D
330
18
100
AcDbEntity
  8
握り
100
AcDbLine
 10
463.537475115834
 20
175.7020709364857
 30
0.0
 11
470.8841752835494
 21
175.7020709364857
 31
0.0
  0
ARC
  5
37E
330
18
100
AcDbEntity
  8
握り
100
AcDbCircle
 10
452.2108251996917
 20
176.4020709364857
 30
0.0
 40
1.5
100
AcDbArc
 50
207.8181392846543
 51
332.1818607153458
  0
ARC
  5
37F
330
18
100
AcDbEntity
  8
握り
100
AcDbCircle
 10
442.2108251996917
 20
176.4020709364857
 30
0.0
 40
1.5
100
AcDbArc
 50
207.8181392846543
 51
332.1818607153458
  0
LINE
  5
380
330
18
100
AcDbEntity
  8
握り
100
AcDbLine
 10
443.537475115834
 20
175.7020709364857
 30
0.0
 11
450.8841752835495
 21
175.7020709364857
 31
0.0
  0
LINE
  5
381
330
18
100
AcDbEntity
  8
握り
100
AcDbLine
 10
453.5374751158339
 20
175.7020709364857
 30
0.0
 11
460.8841752835495
 21
175.7020709364857
 31
0.0
  0
ARC
  5
382
330
18
100
AcDbEntity
  8
握り
100
AcDbCircle
 10
462.2108251996917
 20
176.4020709364857
 30
0.0
 40
1.5
100
AcDbArc
 50
207.8181392846543
 51
332.1818607153458
  0
LINE
  5
383
330
18
100
AcDbEntity
  8
握り
100
AcDbLine
 10
483.5374751158339
 20
175.7020709364857
 30
0.0
 11
490.8841752835495
 21
175.7020709364856
 31
0.0
  0
LINE
  5
384
330
18
100
AcDbEntity
  8
握り
100
AcDbLine
 10
473.5374751158338
 20
175.7020709364857
 30
0.0
 11
480.8841752835497
 21
175.7020709364857
 31
0.0
  0
ARC
  5
385
330
18
100
AcDbEntity
  8
握り
100
AcDbCircle
 10
472.2108251996917
 20
176.4020709364857
 30
0.0
 40
1.5
100
AcDbArc
 50
207.8181392846543
 51
332.1818607153458
  0
ARC
  5
386
330
18
100
AcDbEntity
  8
握り
100
AcDbCircle
 10
482.2108251996917
 20
176.4020709364857
 30
0.0
 40
1.5
100
AcDbArc
 50
207.8181392846543
 51
332.1818607153458
  0
LINE
  5
387
330
18
100
AcDbEntity
  8
握り
100
AcDbLine
 10
493.5374751158339
 20
175.7020709364856
 30
0.0
 11
496.7108251996917
 21
175.7020709364857
 31
0.0
  0
ARC
  5
388
330
18
100
AcDbEntity
  8
握り
100
AcDbCircle
 10
492.2108251996917
 20
176.4020709364857
 30
0.0
 40
1.5
100
AcDbArc
 50
207.8181392846543
 51
332.1818607153458
  0
ARC
  5
389
330
18
100
AcDbEntity
  8
握り
100
AcDbCircle
 10
496.7108251996917
 20
176.2020709364857
 30
0.0
 40
0.5
100
AcDbArc
 50
270.0
 51
0.0
  0
LINE
  5
38A
330
18
100
AcDbEntity
  8
握り
100
AcDbLine
 10
463.5374751158338
 20
183.2487709364857
 30
0.0
 11
470.8841752835494
 21
183.2487709364857
 31
0.0
  0
LINE
  5
38B
330
18
100
AcDbEntity
  8
握り
100
AcDbLine
 10
463.537475115834
 20
196.5553709364857
 30
0.0
 11
470.8841752835494
 21
196.5553709364857
 31
0.0
  0
LINE
  5
38C
330
18
100
AcDbEntity
  8
握り
100
AcDbLine
 10
463.537475115834
 20
204.1020709364857
 30
0.0
 11
470.8841752835494
 21
204.1020709364857
 31
0.0
  0
LINE
  5
38D
330
18
100
AcDbEntity
  8
握り
100
AcDbLine
 10
443.5374751158336
 20
183.2487709364857
 30
0.0
 11
450.8841752835495
 21
183.2487709364857
 31
0.0
  0
LINE
  5
38E
330
18
100
AcDbEntity
  8
握り
100
AcDbLine
 10
453.5374751158339
 20
183.2487709364857
 30
0.0
 11
460.8841752835495
 21
183.2487709364857
 31
0.0
  0
LINE
  5
38F
330
18
100
AcDbEntity
  8
握り
100
AcDbLine
 10
450.8841752835495
 20
204.1020709364857
 30
0.0
 11
450.8841752835496
 21
196.5553709364857
 31
0.0
  0
LINE
  5
390
330
18
100
AcDbEntity
  8
握り
100
AcDbLine
 10
443.5374751158339
 20
204.1020709364857
 30
0.0
 11
443.537475115834
 21
196.5553709364857
 31
0.0
  0
LINE
  5
391
330
18
100
AcDbEntity
  8
握り
100
AcDbLine
 10
440.8841752835495
 20
204.1020709364857
 30
0.0
 11
440.8841752835496
 21
196.5553709364857
 31
0.0
  0
LINE
  5
392
330
18
100
AcDbEntity
  8
握り
100
AcDbLine
 10
443.5374751158339
 20
196.5553709364857
 30
0.0
 11
450.8841752835496
 21
196.5553709364857
 31
0.0
  0
LINE
  5
393
330
18
100
AcDbEntity
  8
握り
100
AcDbLine
 10
443.537475115834
 20
204.1020709364857
 30
0.0
 11
450.8841752835495
 21
204.1020709364858
 31
0.0
  0
LINE
  5
394
330
18
100
AcDbEntity
  8
握り
100
AcDbLine
 10
463.5374751158338
 20
204.1020709364857
 30
0.0
 11
463.537475115834
 21
196.5553709364857
 31
0.0
  0
LINE
  5
395
330
18
100
AcDbEntity
  8
握り
100
AcDbLine
 10
460.8841752835495
 20
204.1020709364857
 30
0.0
 11
460.8841752835497
 21
196.5553709364857
 31
0.0
  0
LINE
  5
396
330
18
100
AcDbEntity
  8
握り
100
AcDbLine
 10
453.5374751158339
 20
204.1020709364857
 30
0.0
 11
453.5374751158339
 21
196.5553709364857
 31
0.0
  0
LINE
  5
397
330
18
100
AcDbEntity
  8
握り
100
AcDbLine
 10
453.5374751158339
 20
196.5553709364857
 30
0.0
 11
460.8841752835495
 21
196.5553709364857
 31
0.0
  0
LINE
  5
398
330
18
100
AcDbEntity
  8
握り
100
AcDbLine
 10
453.5374751158339
 20
204.1020709364858
 30
0.0
 11
460.8841752835495
 21
204.1020709364857
 31
0.0
  0
LINE
  5
399
330
18
100
AcDbEntity
  8
握り
100
AcDbLine
 10
470.8841752835496
 20
193.9020709364857
 30
0.0
 11
470.8841752835494
 21
185.9020709364857
 31
0.0
  0
LINE
  5
39A
330
18
100
AcDbEntity
  8
握り
100
AcDbLine
 10
483.5374751158339
 20
204.1020709364857
 30
0.0
 11
490.8841752835495
 21
204.1020709364857
 31
0.0
  0
LINE
  5
39B
330
18
100
AcDbEntity
  8
握り
100
AcDbLine
 10
470.8841752835495
 20
204.1020709364857
 30
0.0
 11
470.8841752835495
 21
196.5553709364857
 31
0.0
  0
LINE
  5
39C
330
18
100
AcDbEntity
  8
握り
100
AcDbLine
 10
473.5374751158338
 20
204.1020709364857
 30
0.0
 11
480.8841752835497
 21
204.1020709364857
 31
0.0
  0
LINE
  5
39D
330
18
100
AcDbEntity
  8
握り
100
AcDbLine
 10
493.5374751158339
 20
204.1020709364857
 30
0.0
 11
496.7108251996917
 21
204.1020709364857
 31
0.0
  0
TEXT
  5
3F0
330
18
100
AcDbEntity
  8
文字
100
AcDbText
 10
453.9861615314828
 20
187.6114617849466
 30
0.0
 40
3.0
  1
LA-21
  7
STYLE3
100
AcDbText
  0
LINE
  5
3F1
102
{ACAD_REACTORS
330
42F
102
}
330
18
100
AcDbEntity
  8
ROGO
 62
     4
100
AcDbLine
 10
428.1386218391351
 20
190.6141605648716
 30
0.0
 11
430.4421908576853
 21
190.6141605648716
 31
0.0
  0
LINE
  5
3F2
102
{ACAD_REACTORS
330
42D
330
42E
330
42F
102
}
330
18
100
AcDbEntity
  8
ROGO
 62
     4
100
AcDbLine
 10
426.688263924717
 20
187.6829051578631
 30
0.0
 11
446.5299457347509
 21
187.6829051578631
 31
0.0
  0
LINE
  5
3F3
102
{ACAD_REACTORS
330
42F
102
}
330
18
100
AcDbEntity
  8
ROGO
 62
     4
100
AcDbLine
 10
428.1386218391351
 20
190.6141605648716
 30
0.0
 11
426.688263924717
 21
187.682905157863
 31
0.0
  0
SPLINE
  5
3F4
102
{ACAD_REACTORS
330
42F
102
}
330
18
100
AcDbEntity
  8
ROGO
 62
     4
100
AcDbSpline
210
0.0
220
0.0
230
1.0
 70
     8
 71
     3
 72
    18
 73
    14
 74
     0
 42
0.0000000001
 43
0.0000000001
 40
0.1087402787915014
 40
0.1087402787915014
 40
0.1087402787915014
 40
0.1087402787915014
 40
0.5992371417938475
 40
1.083176791562496
 40
1.448211145705696
 40
1.714037220764907
 40
2.164002567013297
 40
2.740236056362883
 40
3.395137510199602
 40
4.071816045172726
 40
4.784906178399433
 40
5.506895915094292
 40
6.060470601257719
 40
6.060470601257719
 40
6.060470601257719
 40
6.060470601257719
 10
430.4421908576853
 20
190.6141605648717
 30
0.0
 10
430.5159901971653
 20
190.5871143436607
 30
0.0
 10
430.6611158369519
 20
190.5299344989246
 30
0.0
 10
430.8382376020192
 20
190.3994311992226
 30
0.0
 10
430.9348321647688
 20
190.2487758032615
 30
0.0
 10
431.0277453198303
 20
190.100331885686
 30
0.0
 10
431.0407483462745
 20
189.8873639797482
 30
0.0
 10
431.0194485104928
 20
189.6181209289315
 30
0.0
 10
430.8819386949555
 20
189.3371935896161
 30
0.0
 10
430.6612273534108
 20
189.0914835456135
 30
0.0
 10
430.3871988204208
 20
188.8948204308396
 30
0.0
 10
430.0982262802675
 20
188.740444950132
 30
0.0
 10
429.8916686273338
 20
188.738906777834
 30
0.0
 10
429.8020258889128
 20
188.7382392355038
 30
0.0
  0
LINE
  5
3F5
102
{ACAD_REACTORS
330
42F
102
}
330
18
100
AcDbEntity
  8
ROGO
 62
     4
100
AcDbLine
 10
429.8020258893544
 20
188.7382392355038
 30
0.0
 11
428.528299791524
 21
188.7382392355038
 31
0.0
  0
LINE
  5
3F6
102
{ACAD_REACTORS
330
42F
102
}
330
18
100
AcDbEntity
  8
ROGO
 62
     4
100
AcDbLine
 10
429.0488173467634
 20
189.8887364059955
 30
0.0
 11
428.8231062091099
 21
189.3898482847306
 31
0.0
  0
SPLINE
  5
3F7
102
{ACAD_REACTORS
330
42F
102
}
330
18
100
AcDbEntity
  8
ROGO
 62
     4
100
AcDbSpline
210
0.0
220
0.0
230
1.0
 70
     8
 71
     3
 72
    15
 73
    11
 74
     9
 42
0.0000000001
 43
0.0000000001
 44
0.0000000001
 40
0.0
 40
0.0
 40
0.0
 40
0.0
 40
0.2199578613106558
 40
0.3202465475123651
 40
0.4340808827708152
 40
0.5116301246390283
 40
0.634275054953107
 40
0.7077360179240892
 40
0.8337709579493377
 40
0.875782631437913
 40
0.875782631437913
 40
0.875782631437913
 40
0.875782631437913
 10
429.6287987740455
 20
189.8887364059953
 30
0.0
 10
429.7114106812728
 20
189.8891148126274
 30
0.0
 10
429.831689074213
 20
189.8896657518698
 30
0.0
 10
429.8974615833052
 20
189.7408810319706
 30
0.0
 10
429.8679792086861
 20
189.6450868824886
 30
0.0
 10
429.8309174609373
 20
189.5467361478489
 30
0.0
 10
429.7654209587341
 20
189.4799053403212
 30
0.0
 10
429.6775150593123
 20
189.4155360065541
 30
0.0
 10
429.5944397835184
 20
189.4077438104692
 30
0.0
 10
429.540408642129
 20
189.3934273912489
 30
0.0
 10
429.5269008503157
 20
189.3898482847305
 30
0.0
 11
429.6287987740455
 21
189.8887364059953
 31
0.0
 11
429.8427845896581
 21
189.8378293193669
 31
0.0
 11
429.8835438763366
 21
189.7461968953592
 31
0.0
 11
429.863164525964
 21
189.6342016367001
 31
0.0
 11
429.8325952074385
 21
189.5629317154204
 31
0.0
 11
429.7510766340812
 21
189.4712992914126
 31
0.0
 11
429.6899379970301
 21
189.4305736221099
 31
0.0
 11
429.5676601369944
 21
189.4000297020562
 31
0.0
 11
429.5269008503157
 21
189.3898482847305
 31
0.0
  0
LINE
  5
3F8
102
{ACAD_REACTORS
330
42F
102
}
330
18
100
AcDbEntity
  8
ROGO
 62
     4
100
AcDbLine
 10
429.6287987740455
 20
189.8887364059955
 30
0.0
 11
429.0488173467634
 21
189.8887364059955
 31
0.0
  0
LINE
  5
3F9
102
{ACAD_REACTORS
330
42F
102
}
330
18
100
AcDbEntity
  8
ROGO
 62
     4
100
AcDbLine
 10
429.5269008503159
 20
189.3898482847305
 30
0.0
 11
428.82310620911
 21
189.3898482847306
 31
0.0
  0
LINE
  5
3FA
102
{ACAD_REACTORS
330
42D
330
42F
102
}
330
18
100
AcDbEntity
  8
ROGO
 62
     4
100
AcDbLine
 10
428.528299791524
 20
188.7382392355038
 30
0.0
 11
428.050836718912
 21
187.6829051578631
 31
0.0
  0
LINE
  5
3FB
102
{ACAD_REACTORS
330
42A
102
}
330
18
100
AcDbEntity
  8
ROGO
 62
     4
100
AcDbLine
 10
431.8030822765503
 20
190.6141605648716
 30
0.0
 11
430.874893849036
 21
188.7382392355038
 31
0.0
  0
LINE
  5
3FC
102
{ACAD_REACTORS
330
42A
102
}
330
18
100
AcDbEntity
  8
ROGO
 62
     4
100
AcDbLine
 10
434.3403439172418
 20
190.6141605648716
 30
0.0
 11
434.1277236376209
 21
190.1844429495972
 31
0.0
  0
LINE
  5
3FD
102
{ACAD_REACTORS
330
42A
102
}
330
18
100
AcDbEntity
  8
ROGO
 62
     4
100
AcDbLine
 10
430.8748938490359
 20
188.7382392355038
 30
0.0
 11
433.4121554897274
 21
188.7382392355038
 31
0.0
  0
LINE
  5
3FE
102
{ACAD_REACTORS
330
42A
102
}
330
18
100
AcDbEntity
  8
ROGO
 62
     4
100
AcDbLine
 10
432.7942030344525
 20
190.1844429495972
 30
0.0
 11
432.6279603972002
 21
189.8484571736198
 31
0.0
  0
LINE
  5
3FF
102
{ACAD_REACTORS
330
42A
102
}
330
18
100
AcDbEntity
  8
ROGO
 62
     4
100
AcDbLine
 10
432.7942030344525
 20
190.1844429495972
 30
0.0
 11
434.1277236376209
 21
190.1844429495972
 31
0.0
  0
LINE
  5
400
102
{ACAD_REACTORS
330
42A
102
}
330
18
100
AcDbEntity
  8
ROGO
 62
     4
100
AcDbLine
 10
432.6279603972002
 20
189.8484571736198
 30
0.0
 11
433.9614810003688
 21
189.8484571736198
 31
0.0
  0
LINE
  5
401
102
{ACAD_REACTORS
330
42A
102
}
330
18
100
AcDbEntity
  8
ROGO
 62
     4
100
AcDbLine
 10
432.2912444711428
 20
189.1679352355038
 30
0.0
 11
433.6247650743114
 21
189.1679352355038
 31
0.0
  0
LINE
  5
402
102
{ACAD_REACTORS
330
42A
102
}
330
18
100
AcDbEntity
  8
ROGO
 62
     4
100
AcDbLine
 10
432.4574941463091
 20
189.5039352355038
 30
0.0
 11
433.7910147494776
 21
189.5039352355039
 31
0.0
  0
LINE
  5
403
102
{ACAD_REACTORS
330
42A
102
}
330
18
100
AcDbEntity
  8
ROGO
 62
     4
100
AcDbLine
 10
433.9614810003688
 20
189.8484571736198
 30
0.0
 11
433.7910147494776
 21
189.5039352355038
 31
0.0
  0
LINE
  5
404
102
{ACAD_REACTORS
330
42A
102
}
330
18
100
AcDbEntity
  8
ROGO
 62
     4
100
AcDbLine
 10
433.6247650743114
 20
189.1679352355038
 30
0.0
 11
433.4121554897274
 21
188.7382392355038
 31
0.0
  0
LINE
  5
405
102
{ACAD_REACTORS
330
42A
102
}
330
18
100
AcDbEntity
  8
ROGO
 62
     4
100
AcDbLine
 10
432.4574941463091
 20
189.5039352355038
 30
0.0
 11
432.2912444711428
 21
189.1679352355038
 31
0.0
  0
LINE
  5
406
102
{ACAD_REACTORS
330
433
102
}
330
18
100
AcDbEntity
  8
ROGO
 62
     4
100
AcDbLine
 10
435.075335724667
 20
190.6141605648716
 30
0.0
 11
433.722572395954
 21
188.7382392355038
 31
0.0
  0
LINE
  5
407
102
{ACAD_REACTORS
330
433
102
}
330
18
100
AcDbEntity
  8
ROGO
 62
     4
100
AcDbLine
 10
435.7526612341408
 20
190.1127191692262
 30
0.0
 11
435.2907087536933
 21
189.4721144951993
 31
0.0
  0
LINE
  5
408
102
{ACAD_REACTORS
330
433
102
}
330
18
100
AcDbEntity
  8
ROGO
 62
     4
100
AcDbLine
 10
435.0190548092004
 20
189.0954030499192
 30
0.0
 11
436.2045933646065
 21
189.0954030499192
 31
0.0
  0
LINE
  5
409
102
{ACAD_REACTORS
330
433
102
}
330
18
100
AcDbEntity
  8
ROGO
 62
     4
100
AcDbLine
 10
435.2907087536935
 20
189.4721144951993
 30
0.0
 11
436.0372432137486
 21
189.4721144951993
 31
0.0
  0
LINE
  5
40A
102
{ACAD_REACTORS
330
433
102
}
330
18
100
AcDbEntity
  8
ROGO
 62
     4
100
AcDbLine
 10
435.0190548092004
 20
189.0954030499192
 30
0.0
 11
434.7614970412276
 21
188.7382392355039
 31
0.0
  0
LINE
  5
40B
102
{ACAD_REACTORS
330
433
102
}
330
18
100
AcDbEntity
  8
ROGO
 62
     4
100
AcDbLine
 10
433.722572395954
 20
188.7382392355038
 30
0.0
 11
434.7614970412276
 21
188.7382392355038
 31
0.0
  0
LINE
  5
40C
102
{ACAD_REACTORS
330
433
102
}
330
18
100
AcDbEntity
  8
ROGO
 62
     4
100
AcDbLine
 10
435.075335724667
 20
190.6141605648716
 30
0.0
 11
436.5759121286262
 21
190.6141605648716
 31
0.0
  0
LINE
  5
40D
102
{ACAD_REACTORS
330
433
102
}
330
18
100
AcDbEntity
  8
ROGO
 62
     4
100
AcDbLine
 10
437.4092707148881
 20
188.7382392355039
 30
0.0
 11
436.3632596832765
 21
188.7382392355038
 31
0.0
  0
LINE
  5
40E
102
{ACAD_REACTORS
330
42B
102
}
330
18
100
AcDbEntity
  8
ROGO
 62
     4
100
AcDbLine
 10
437.9230127363249
 20
188.7382392355038
 30
0.0
 11
439.5387684720458
 21
188.7382392355038
 31
0.0
  0
LINE
  5
40F
102
{ACAD_REACTORS
330
42B
102
}
330
18
100
AcDbEntity
  8
ROGO
 62
     4
100
AcDbLine
 10
440.4741634334875
 20
190.6141605648716
 30
0.0
 11
440.1261358612867
 21
189.9161962045618
 31
0.0
  0
LINE
  5
410
102
{ACAD_REACTORS
330
42B
102
}
330
18
100
AcDbEntity
  8
ROGO
 62
     4
100
AcDbLine
 10
438.9521831136421
 20
189.9161962045618
 30
0.0
 11
440.1261358612867
 21
189.9161962045619
 31
0.0
  0
LINE
  5
411
102
{ACAD_REACTORS
330
42B
102
}
330
18
100
AcDbEntity
  8
ROGO
 62
     4
100
AcDbLine
 10
438.6872480431982
 20
189.4361962045618
 30
0.0
 11
439.88679235873
 21
189.4361962045618
 31
0.0
  0
SPLINE
  5
412
102
{ACAD_REACTORS
330
42B
102
}
330
18
100
AcDbEntity
  8
ROGO
 62
     4
100
AcDbSpline
210
0.0
220
0.0
230
1.0
 70
     8
 71
     3
 72
    26
 73
    22
 74
    20
 42
0.0000000001
 43
0.0000000001
 44
0.0000000001
 40
0.0
 40
0.0
 40
0.0
 40
0.0
 40
0.3403136209417982
 40
0.5681272389515159
 40
0.7323994099697078
 40
0.8550561247337057
 40
1.014148321321447
 40
1.13027011535643
 40
1.339959009791999
 40
1.510642755247373
 40
1.626735051276186
 40
1.740569491433665
 40
1.944197174100541
 40
2.088186249714737
 40
2.16573549158295
 40
2.275891898886404
 40
2.355438312276705
 40
2.470674802865115
 40
2.535888688806235
 40
2.677801419664453
 40
2.742600005358966
 40
2.742600005358966
 40
2.742600005358966
 40
2.742600005358966
 10
438.5955400876215
 20
190.6141605648716
 30
0.0
 10
438.4800323865377
 20
190.6072691773501
 30
0.0
 10
438.2872012235863
 20
190.5957645394977
 30
0.0
 10
438.0754737797124
 20
190.4671423911285
 30
0.0
 10
437.9203498591262
 20
190.3923671263536
 30
0.0
 10
437.8097156670918
 20
190.2907165243257
 30
0.0
 10
437.7286203558524
 20
190.1857188778666
 30
0.0
 10
437.6263844919988
 20
190.060614951973
 30
0.0
 10
437.5430140664189
 20
189.9149364927381
 30
0.0
 10
437.500558577086
 20
189.7543734340762
 30
0.0
 10
437.4629519075805
 20
189.6264037447063
 30
0.0
 10
437.435062171905
 20
189.4837982262886
 30
0.0
 10
437.4421581102089
 20
189.3297341003995
 30
0.0
 10
437.4523198186154
 20
189.186647227537
 30
0.0
 10
437.4976893756499
 20
189.0845046233561
 30
0.0
 10
437.5493572647783
 20
189.0117861277427
 30
0.0
 10
437.6126238874282
 20
188.9316947667445
 30
0.0
 10
437.6818514078818
 20
188.8786505177013
 30
0.0
 10
437.7391082180397
 20
188.7825572960719
 30
0.0
 10
437.8393343327003
 20
188.7702951079631
 30
0.0
 10
437.9030420385229
 20
188.7458896938531
 30
0.0
 10
437.923012736325
 20
188.7382392355038
 30
0.0
 11
438.5955400876215
 21
190.6141605648716
 31
0.0
 11
438.2592764119731
 21
190.561814590452
 31
0.0
 11
438.0554799785803
 21
190.4600007491186
 31
0.0
 11
437.9128227681719
 21
190.3785497424365
 31
0.0
 11
437.8211148125951
 21
190.2970984038311
 31
0.0
 11
437.7192168888655
 21
190.1749217278463
 31
0.0
 11
437.6478882836614
 21
190.0832893038385
 31
0.0
 11
437.5459897739981
 21
189.9000241238997
 31
0.0
 11
437.4950411050999
 21
189.7371217786121
 31
0.0
 11
437.4644717865744
 21
189.625126519953
 31
0.0
 11
437.4440918502683
 21
189.5131312612939
 31
0.0
 11
437.4440918502683
 21
189.309503578627
 31
0.0
 11
437.4644717865744
 21
189.1669640679909
 31
0.0
 11
437.4950411050999
 21
189.0956941467111
 31
0.0
 11
437.556179742151
 21
189.0040617227033
 31
0.0
 11
437.6071289969827
 21
188.9429732187492
 31
0.0
 11
437.6886469844064
 21
188.8615222120671
 31
0.0
 11
437.729406271085
 21
188.8106151254387
 31
0.0
 11
437.8618740992737
 21
188.7597083707337
 31
0.0
 11
437.923012736325
 21
188.7382392355038
 31
0.0
  0
SPLINE
  5
413
102
{ACAD_REACTORS
330
42B
102
}
330
18
100
AcDbEntity
  8
ROGO
 62
     4
100
AcDbSpline
210
0.0
220
0.0
230
1.0
 70
     8
 71
     3
 72
    16
 73
    12
 74
    10
 42
0.0000000001
 43
0.0000000001
 44
0.0000000001
 40
0.0
 40
0.0
 40
0.0
 40
0.0
 40
0.1794152893756658
 40
0.2670467197814556
 40
0.3102605435414121
 40
0.3558008766977565
 40
0.4210145035340276
 40
0.4803947587045229
 40
0.5423269814405317
 40
0.646160827944346
 40
0.7489346372632694
 40
0.7489346372632694
 40
0.7489346372632694
 40
0.7489346372632694
 10
438.9521831136423
 20
189.9161962045618
 30
0.0
 10
438.8914249598973
 20
189.9069332141275
 30
0.0
 10
438.8009908295952
 20
189.8931459208625
 30
0.0
 10
438.7192111847512
 20
189.8284100537544
 30
0.0
 10
438.673093143145
 20
189.7898965218737
 30
0.0
 10
438.6574035799289
 20
189.738893673042
 30
0.0
 10
438.6152663401276
 20
189.6997313144196
 30
0.0
 10
438.5805332688745
 20
189.6459096276823
 30
0.0
 10
438.5722397987862
 20
189.5719846691692
 30
0.0
 10
438.5783273957114
 20
189.468242256116
 30
0.0
 10
438.6510655593816
 20
189.4468416218312
 30
0.0
 10
438.6872480431983
 20
189.4361962045618
 30
0.0
 11
438.9521831136423
 21
189.9161962045618
 31
0.0
 11
438.7789565847083
 21
189.8694798719226
 31
0.0
 11
438.7076279795041
 21
189.8185731172176
 31
0.0
 11
438.6770586609786
 21
189.7880288652405
 31
0.0
 11
438.6566787246727
 21
189.7473031959377
 31
0.0
 11
438.615919437994
 21
189.6963964412328
 31
0.0
 11
438.5853501194684
 21
189.6454893546044
 31
0.0
 11
438.5751601513154
 21
189.5844011825736
 31
0.0
 11
438.5955400876214
 21
189.4825870093169
 31
0.0
 11
438.6872480431983
 21
189.4361962045618
 31
0.0
  0
LINE
  5
414
102
{ACAD_REACTORS
330
42B
102
}
330
18
100
AcDbEntity
  8
ROGO
 62
     4
100
AcDbLine
 10
439.8867923587298
 20
189.4361962045618
 30
0.0
 11
439.5387684720458
 21
188.7382392355038
 31
0.0
  0
LINE
  5
415
102
{ACAD_REACTORS
330
42B
102
}
330
18
100
AcDbEntity
  8
ROGO
 62
     4
100
AcDbLine
 10
438.5955400876221
 20
190.6141605648717
 30
0.0
 11
440.4741634334876
 21
190.6141605648717
 31
0.0
  0
LINE
  5
416
102
{ACAD_REACTORS
330
42C
102
}
330
18
100
AcDbEntity
  8
ROGO
 62
     4
100
AcDbLine
 10
443.9673981233648
 20
188.7382392355038
 30
0.0
 11
445.5831538590856
 21
188.7382392355038
 31
0.0
  0
LINE
  5
417
102
{ACAD_REACTORS
330
42C
102
}
330
18
100
AcDbEntity
  8
ROGO
 62
     4
100
AcDbLine
 10
444.6399254746618
 20
190.6141605648716
 30
0.0
 11
446.5185488205275
 21
190.6141605648716
 31
0.0
  0
SPLINE
  5
418
102
{ACAD_REACTORS
330
42C
102
}
330
18
100
AcDbEntity
  8
ROGO
 62
     4
100
AcDbSpline
210
0.0
220
0.0
230
1.0
 70
     8
 71
     3
 72
    16
 73
    12
 74
    10
 42
0.0000000001
 43
0.0000000001
 44
0.0000000001
 40
0.0
 40
0.0
 40
0.0
 40
0.0
 40
0.1794152893756658
 40
0.2670467197815217
 40
0.3102605435413978
 40
0.3558008766977931
 40
0.4210145035340376
 40
0.4803947587045328
 40
0.5423269814405045
 40
0.6461608279444525
 40
0.7489346372632488
 40
0.7489346372632488
 40
0.7489346372632488
 40
0.7489346372632488
 10
444.996568500682
 20
189.9161962045618
 30
0.0
 10
444.9358103469371
 20
189.9069332141276
 30
0.0
 10
444.845376216635
 20
189.8931459208626
 30
0.0
 10
444.763596571791
 20
189.8284100537543
 30
0.0
 10
444.7174785301847
 20
189.7898965218736
 30
0.0
 10
444.7017889669685
 20
189.738893673042
 30
0.0
 10
444.6596517271674
 20
189.6997313144195
 30
0.0
 10
444.6249186559142
 20
189.6459096276823
 30
0.0
 10
444.6166251858261
 20
189.5719846691692
 30
0.0
 10
444.6227127827513
 20
189.4682422561159
 30
0.0
 10
444.6954509464212
 20
189.4468416218311
 30
0.0
 10
444.731633430238
 20
189.4361962045618
 30
0.0
 11
444.996568500682
 21
189.9161962045618
 31
0.0
 11
444.8233419717481
 21
189.8694798719226
 31
0.0
 11
444.752013366544
 21
189.8185731172175
 31
0.0
 11
444.7214440480185
 21
189.7880288652405
 31
0.0
 11
444.7010641117124
 21
189.7473031959377
 31
0.0
 11
444.6603048250339
 21
189.6963964412327
 31
0.0
 11
444.6297355065082
 21
189.6454893546043
 31
0.0
 11
444.6195455383551
 21
189.5844011825736
 31
0.0
 11
444.6399254746612
 21
189.4825870093168
 31
0.0
 11
444.731633430238
 21
189.4361962045618
 31
0.0
  0
SPLINE
  5
419
102
{ACAD_REACTORS
330
42C
102
}
330
18
100
AcDbEntity
  8
ROGO
 62
     4
100
AcDbSpline
210
0.0
220
0.0
230
1.0
 70
     8
 71
     3
 72
    26
 73
    22
 74
    20
 42
0.0000000001
 43
0.0000000001
 44
0.0000000001
 40
0.0
 40
0.0
 40
0.0
 40
0.0
 40
0.3403136209416859
 40
0.5681272389515052
 40
0.7323994099695983
 40
0.8550561247335963
 40
1.014148321321381
 40
1.13027011535639
 40
1.339959009792003
 40
1.510642755247356
 40
1.626735051276114
 40
1.740569491433573
 40
1.94419717410045
 40
2.088186249714629
 40
2.165735491582895
 40
2.275891898886364
 40
2.355438312276665
 40
2.470674802864995
 40
2.535888688806186
 40
2.677801419664424
 40
2.74260000535881
 40
2.74260000535881
 40
2.74260000535881
 40
2.74260000535881
 10
444.6399254746612
 20
190.6141605648716
 30
0.0
 10
444.5244177735775
 20
190.60726917735
 30
0.0
 10
444.3315866106259
 20
190.5957645394976
 30
0.0
 10
444.1198591667523
 20
190.4671423911286
 30
0.0
 10
443.964735246166
 20
190.3923671263536
 30
0.0
 10
443.8541010541317
 20
190.2907165243257
 30
0.0
 10
443.7730057428923
 20
190.1857188778665
 30
0.0
 10
443.6707698790386
 20
190.0606149519732
 30
0.0
 10
443.5873994534587
 20
189.9149364927379
 30
0.0
 10
443.5449439641257
 20
189.7543734340762
 30
0.0
 10
443.5073372946202
 20
189.6264037447063
 30
0.0
 10
443.4794475589447
 20
189.4837982262885
 30
0.0
 10
443.486543497249
 20
189.3297341003996
 30
0.0
 10
443.4967052056552
 20
189.1866472275369
 30
0.0
 10
443.5420747626895
 20
189.0845046233561
 30
0.0
 10
443.5937426518182
 20
189.0117861277427
 30
0.0
 10
443.657009274468
 20
188.9316947667446
 30
0.0
 10
443.7262367949214
 20
188.8786505177012
 30
0.0
 10
443.7834936050795
 20
188.7825572960719
 30
0.0
 10
443.88371971974
 20
188.770295107963
 30
0.0
 10
443.9474274255627
 20
188.745889693853
 30
0.0
 10
443.9673981233648
 20
188.7382392355038
 30
0.0
 11
444.6399254746612
 21
190.6141605648716
 31
0.0
 11
444.3036617990129
 21
190.561814590452
 31
0.0
 11
444.09986536562
 21
190.4600007491186
 31
0.0
 11
443.9572081552118
 21
190.3785497424365
 31
0.0
 11
443.865500199635
 21
190.2970984038311
 31
0.0
 11
443.7636022759053
 21
190.1749217278462
 31
0.0
 11
443.692273670701
 21
190.0832893038385
 31
0.0
 11
443.5903751610379
 21
189.9000241238996
 31
0.0
 11
443.5394264921397
 21
189.7371217786121
 31
0.0
 11
443.5088571736141
 21
189.625126519953
 31
0.0
 11
443.4884772373082
 21
189.5131312612939
 31
0.0
 11
443.4884772373082
 21
189.309503578627
 31
0.0
 11
443.5088571736141
 21
189.1669640679909
 31
0.0
 11
443.5394264921397
 21
189.0956941467111
 31
0.0
 11
443.6005651291908
 21
189.0040617227033
 31
0.0
 11
443.6515143840225
 21
188.9429732187492
 31
0.0
 11
443.7330323714461
 21
188.8615222120671
 31
0.0
 11
443.7737916581248
 21
188.8106151254387
 31
0.0
 11
443.9062594863136
 21
188.7597083707337
 31
0.0
 11
443.9673981233648
 21
188.7382392355038
 31
0.0
  0
LINE
  5
41A
102
{ACAD_REACTORS
330
42C
102
}
330
18
100
AcDbEntity
  8
ROGO
 62
     4
100
AcDbLine
 10
445.9311777457696
 20
189.4361962045618
 30
0.0
 11
445.5831538590856
 21
188.7382392355038
 31
0.0
  0
LINE
  5
41B
102
{ACAD_REACTORS
330
42C
102
}
330
18
100
AcDbEntity
  8
ROGO
 62
     4
100
AcDbLine
 10
444.7316334302379
 20
189.4361962045618
 30
0.0
 11
445.9311777457696
 21
189.4361962045618
 31
0.0
  0
LINE
  5
41C
102
{ACAD_REACTORS
330
42C
102
}
330
18
100
AcDbEntity
  8
ROGO
 62
     4
100
AcDbLine
 10
444.9965685006819
 20
189.9161962045618
 30
0.0
 11
446.1705212483265
 21
189.9161962045618
 31
0.0
  0
LINE
  5
41D
102
{ACAD_REACTORS
330
42C
102
}
330
18
100
AcDbEntity
  8
ROGO
 62
     4
100
AcDbLine
 10
446.5185488205275
 20
190.6141605648716
 30
0.0
 11
446.1705212483265
 21
189.9161962045618
 31
0.0
  0
LINE
  5
41E
102
{ACAD_REACTORS
330
42E
102
}
330
18
100
AcDbEntity
  8
ROGO
 62
     4
100
AcDbLine
 10
446.9114447192733
 20
190.6141605648716
 30
0.0
 11
447.9915643514222
 21
190.6141605648716
 31
0.0
  0
LINE
  5
41F
102
{ACAD_REACTORS
330
42D
330
42E
102
}
330
18
100
AcDbEntity
  8
ROGO
 62
     4
100
AcDbLine
 10
446.9114447192733
 20
190.6141605648716
 30
0.0
 11
445.4498261026022
 21
187.6829051578631
 31
0.0
  0
LINE
  5
420
102
{ACAD_REACTORS
330
42E
102
}
330
18
100
AcDbEntity
  8
ROGO
 62
     4
100
AcDbLine
 10
447.9915643514222
 20
190.6141605648716
 30
0.0
 11
447.831985341535
 21
190.2941271236979
 31
0.0
  0
LINE
  5
421
102
{ACAD_REACTORS
330
42E
102
}
330
18
100
AcDbEntity
  8
ROGO
 62
     4
100
AcDbLine
 10
447.831985341535
 20
190.2941271236979
 30
0.0
 11
448.337718317362
 21
190.6141605648716
 31
0.0
  0
LINE
  5
422
102
{ACAD_REACTORS
330
42E
102
}
330
18
100
AcDbEntity
  8
ROGO
 62
     4
100
AcDbLine
 10
446.9114447192733
 20
188.447995960891
 30
0.0
 11
447.2929437037958
 21
187.6829051578631
 31
0.0
  0
LINE
  5
423
102
{ACAD_REACTORS
330
42E
102
}
330
18
100
AcDbEntity
  8
ROGO
 62
     4
100
AcDbLine
 10
447.6422303954601
 20
189.1485328613673
 30
0.0
 11
448.3730397037957
 21
187.6829051578631
 31
0.0
  0
LINE
  5
424
102
{ACAD_REACTORS
330
42E
102
}
330
18
100
AcDbEntity
  8
ROGO
 62
     4
100
AcDbLine
 10
446.9114447192733
 20
188.447995960891
 30
0.0
 11
446.5299457347509
 21
187.6829051578631
 31
0.0
  0
LINE
  5
425
102
{ACAD_REACTORS
330
42E
102
}
330
18
100
AcDbEntity
  8
ROGO
 62
     4
100
AcDbLine
 10
447.6422303954601
 20
189.1485328613673
 30
0.0
 11
449.4178143173619
 21
190.6141605648716
 31
0.0
  0
LINE
  5
426
102
{ACAD_REACTORS
330
42E
102
}
330
18
100
AcDbEntity
  8
ROGO
 62
     4
100
AcDbLine
 10
448.337718317362
 20
190.6141605648716
 30
0.0
 11
449.4178143173619
 21
190.6141605648716
 31
0.0
  0
LINE
  5
427
102
{ACAD_REACTORS
330
42E
102
}
330
18
100
AcDbEntity
  8
ROGO
 62
     4
100
AcDbLine
 10
447.2929437037958
 20
187.6829051578631
 30
0.0
 11
448.3730397037957
 21
187.6829051578631
 31
0.0
  0
LINE
  5
428
102
{ACAD_REACTORS
330
42A
102
}
330
18
100
AcDbEntity
  8
ROGO
 62
     4
100
AcDbLine
 10
431.8030822765503
 20
190.6141605648716
 30
0.0
 11
434.3403439172418
 21
190.6141605648717
 31
0.0
  0
LINE
  5
429
102
{ACAD_REACTORS
330
42D
102
}
330
18
100
AcDbEntity
  8
ROGO
 62
     4
100
AcDbLine
 10
428.1633904167768
 20
187.9767197382792
 30
0.0
 11
445.5963315417251
 21
187.9767197382792
 31
0.0
  0
HATCH
  5
42A
330
18
100
AcDbEntity
  8
ROGO
 62
     4
100
AcDbHatch
 10
0.0
 20
0.0
 30
0.0
210
0.0
220
0.0
230
1.0
  2
SOLID
 70
     1
 71
     1
 91
        1
 92
        1
 93
       12
 72
     1
 10
431.8030822765503
 20
190.6141605648716
 11
434.3403439172418
 21
190.6141605648717
 72
     1
 10
434.3403439172418
 20
190.6141605648716
 11
434.1277236376209
 21
190.1844429495972
 72
     1
 10
434.1277236376209
 20
190.1844429495972
 11
432.7942030344525
 21
190.1844429495972
 72
     1
 10
432.7942030344525
 20
190.1844429495972
 11
432.6279603972002
 21
189.8484571736198
 72
     1
 10
432.6279603972002
 20
189.8484571736198
 11
433.9614810003688
 21
189.8484571736198
 72
     1
 10
433.9614810003688
 20
189.8484571736198
 11
433.7910147494776
 21
189.5039352355038
 72
     1
 10
433.7910147494776
 20
189.5039352355039
 11
432.4574941463091
 21
189.5039352355038
 72
     1
 10
432.4574941463091
 20
189.5039352355038
 11
432.2912444711428
 21
189.1679352355038
 72
     1
 10
432.2912444711428
 20
189.1679352355038
 11
433.6247650743114
 21
189.1679352355038
 72
     1
 10
433.6247650743114
 20
189.1679352355038
 11
433.4121554897274
 21
188.7382392355038
 72
     1
 10
433.4121554897274
 20
188.7382392355038
 11
430.8748938490359
 21
188.7382392355038
 72
     1
 10
430.874893849036
 20
188.7382392355038
 11
431.8030822765503
 21
190.6141605648716
 97
       12
330
428
330
3FC
330
3FF
330
3FE
330
400
330
403
330
402
330
405
330
401
330
404
330
3FD
330
3FB
 75
     0
 76
     1
 98
        1
 10
328.0171837355376
 20
60.9025947818555
450
        0
451
        0
460
0.0
461
0.0
452
        0
462
0.0
453
        0
470

  0
HATCH
  5
42B
330
18
100
AcDbEntity
  8
ROGO
 62
     4
100
AcDbHatch
 10
0.0
 20
0.0
 30
0.0
210
0.0
220
0.0
230
1.0
  2
SOLID
 70
     1
 71
     1
 91
        1
 92
        5
 93
        8
 72
     1
 10
440.1261358612868
 20
189.9161962045619
 11
440.4741634334876
 21
190.6141605648717
 72
     1
 10
440.4741634334876
 20
190.6141605648717
 11
438.5955400876216
 21
190.6141605648717
 72
     4
 94
        3
 73
     0
 74
     0
 95
       26
 96
       22
 40
0.0
 40
0.0
 40
0.0
 40
0.0
 40
0.3403136209417982
 40
0.5681272389515159
 40
0.7323994099697078
 40
0.8550561247337057
 40
1.014148321321447
 40
1.13027011535643
 40
1.339959009791999
 40
1.510642755247373
 40
1.626735051276186
 40
1.740569491433665
 40
1.944197174100541
 40
2.088186249714737
 40
2.16573549158295
 40
2.275891898886404
 40
2.355438312276705
 40
2.470674802865115
 40
2.535888688806235
 40
2.677801419664453
 40
2.742600005358966
 40
2.742600005358966
 40
2.742600005358966
 40
2.742600005358966
 10
438.5955400876215
 20
190.6141605648716
 10
438.4800323865377
 20
190.6072691773501
 10
438.2872012235863
 20
190.5957645394977
 10
438.0754737797124
 20
190.4671423911285
 10
437.9203498591264
 20
190.3923671263537
 10
437.8097156670917
 20
190.2907165243256
 10
437.7286203558524
 20
190.1857188778666
 10
437.6263844919989
 20
190.0606149519731
 10
437.5430140664189
 20
189.9149364927381
 10
437.500558577086
 20
189.7543734340762
 10
437.4629519075805
 20
189.6264037447063
 10
437.4350621719049
 20
189.4837982262886
 10
437.442158110209
 20
189.3297341003995
 10
437.4523198186154
 20
189.186647227537
 10
437.4976893756498
 20
189.0845046233561
 10
437.5493572647783
 20
189.0117861277427
 10
437.6126238874282
 20
188.9316947667445
 10
437.6818514078817
 20
188.8786505177014
 10
437.7391082180397
 20
188.7825572960719
 10
437.8393343327004
 20
188.7702951079631
 10
437.9030420385229
 20
188.7458896938531
 10
437.923012736325
 20
188.7382392355038
 72
     1
 10
437.923012736325
 20
188.7382392355038
 11
439.5387684720458
 21
188.7382392355038
 72
     1
 10
439.5387684720458
 20
188.7382392355038
 11
439.8867923587298
 21
189.4361962045618
 72
     1
 10
439.8867923587298
 20
189.4361962045618
 11
438.6872480431983
 21
189.4361962045618
 72
     4
 94
        3
 73
     0
 74
     0
 95
       16
 96
       12
 40
0.0
 40
0.0
 40
0.0
 40
0.0
 40
0.1027738093189234
 40
0.2066076558227377
 40
0.2685398785587465
 40
0.3279201337292418
 40
0.3931337605655129
 40
0.4386740937218573
 40
0.4818879174818138
 40
0.5695193478876036
 40
0.7489346372632694
 40
0.7489346372632694
 40
0.7489346372632694
 40
0.7489346372632694
 10
438.6872480431983
 20
189.4361962045618
 10
438.6510655593815
 20
189.4468416218312
 10
438.5783273957114
 20
189.4682422561159
 10
438.5722397987863
 20
189.5719846691692
 10
438.5805332688745
 20
189.6459096276823
 10
438.6152663401277
 20
189.6997313144196
 10
438.6574035799287
 20
189.7388936730419
 10
438.6730931431451
 20
189.7898965218737
 10
438.719211184751
 20
189.8284100537544
 10
438.8009908295954
 20
189.8931459208625
 10
438.8914249598973
 20
189.9069332141275
 10
438.9521831136423
 20
189.9161962045618
 72
     1
 10
438.9521831136423
 20
189.9161962045618
 11
440.1261358612868
 21
189.9161962045619
 97
        8
330
415
330
412
330
40E
330
414
330
411
330
413
330
410
330
40F
 75
     0
 76
     1
 47
0.0514683685270805
 98
        1
 10
439.2525642264884
 20
190.196558484376
450
        0
451
        0
460
0.0
461
0.0
452
        0
462
0.0
453
        0
470

  0
HATCH
  5
42C
330
18
100
AcDbEntity
  8
ROGO
 62
     4
100
AcDbHatch
 10
0.0
 20
0.0
 30
0.0
210
0.0
220
0.0
230
1.0
  2
SOLID
 70
     1
 71
     1
 91
        1
 92
        5
 93
        8
 72
     4
 94
        3
 73
     0
 74
     0
 95
       26
 96
       22
 40
0.0
 40
0.0
 40
0.0
 40
0.0
 40
0.3403136209416859
 40
0.5681272389515052
 40
0.7323994099695983
 40
0.8550561247335963
 40
1.014148321321381
 40
1.13027011535639
 40
1.339959009792003
 40
1.510642755247356
 40
1.626735051276114
 40
1.740569491433573
 40
1.94419717410045
 40
2.088186249714629
 40
2.165735491582895
 40
2.275891898886364
 40
2.355438312276665
 40
2.470674802864995
 40
2.535888688806186
 40
2.677801419664424
 40
2.74260000535881
 40
2.74260000535881
 40
2.74260000535881
 40
2.74260000535881
 10
444.6399254746612
 20
190.6141605648716
 10
444.5244177735775
 20
190.60726917735
 10
444.3315866106261
 20
190.5957645394976
 10
444.1198591667522
 20
190.4671423911286
 10
443.9647352461662
 20
190.3923671263536
 10
443.8541010541316
 20
190.2907165243256
 10
443.7730057428923
 20
190.1857188778665
 10
443.6707698790386
 20
190.0606149519731
 10
443.5873994534587
 20
189.914936492738
 10
443.5449439641256
 20
189.7543734340762
 10
443.5073372946202
 20
189.6264037447063
 10
443.4794475589447
 20
189.4837982262885
 10
443.4865434972489
 20
189.3297341003995
 10
443.4967052056552
 20
189.186647227537
 10
443.5420747626895
 20
189.084504623356
 10
443.5937426518181
 20
189.0117861277427
 10
443.657009274468
 20
188.9316947667446
 10
443.7262367949214
 20
188.8786505177013
 10
443.7834936050795
 20
188.7825572960719
 10
443.8837197197401
 20
188.770295107963
 10
443.9474274255626
 20
188.745889693853
 10
443.9673981233648
 20
188.7382392355038
 72
     1
 10
443.9673981233647
 20
188.7382392355037
 11
445.5831538590858
 21
188.7382392355038
 72
     1
 10
445.5831538590858
 20
188.7382392355038
 11
445.9311777457697
 21
189.4361962045618
 72
     1
 10
445.9311777457697
 20
189.4361962045618
 11
444.7316334302379
 21
189.4361962045618
 72
     4
 94
        3
 73
     0
 74
     0
 95
       16
 96
       12
 40
0.0
 40
0.0
 40
0.0
 40
0.0
 40
0.1027738093187964
 40
0.2066076558227444
 40
0.268539878558716
 40
0.3279201337292112
 40
0.3931337605654557
 40
0.4386740937218511
 40
0.4818879174817272
 40
0.569519347887583
 40
0.7489346372632488
 40
0.7489346372632488
 40
0.7489346372632488
 40
0.7489346372632488
 10
444.731633430238
 20
189.4361962045618
 10
444.6954509464212
 20
189.4468416218311
 10
444.6227127827512
 20
189.4682422561159
 10
444.6166251858259
 20
189.5719846691692
 10
444.6249186559144
 20
189.6459096276823
 10
444.6596517271675
 20
189.6997313144195
 10
444.7017889669684
 20
189.738893673042
 10
444.7174785301848
 20
189.7898965218736
 10
444.763596571791
 20
189.8284100537542
 10
444.8453762166351
 20
189.8931459208626
 10
444.9358103469371
 20
189.9069332141275
 10
444.996568500682
 20
189.9161962045618
 72
     1
 10
444.996568500682
 20
189.9161962045618
 11
446.1705212483265
 21
189.9161962045619
 72
     1
 10
446.1705212483265
 20
189.9161962045619
 11
446.5185488205275
 21
190.6141605648716
 72
     1
 10
446.5185488205275
 20
190.6141605648716
 11
444.6399254746612
 21
190.6141605648716
 97
        8
330
417
330
419
330
416
330
41A
330
41B
330
418
330
41C
330
41D
 75
     0
 76
     1
 47
0.0514683685270805
 98
        1
 10
444.9640932313538
 20
190.2706729889015
450
        0
451
        0
460
0.0
461
0.0
452
        0
462
0.0
453
        0
470

  0
HATCH
  5
42D
330
18
100
AcDbEntity
  8
ROGO
 62
     4
100
AcDbHatch
 10
0.0
 20
0.0
 30
0.0
210
0.0
220
0.0
230
1.0
  2
SOLID
 70
     1
 71
     1
 91
        1
 92
        7
 72
     0
 73
     1
 93
        4
 10
428.1837667695149
 20
187.9767197382792
 10
428.0508367189121
 20
187.6829051578631
 10
445.4498261026022
 20
187.6829051578631
 10
445.5963315417252
 20
187.9767197382792
 97
        4
330
429
330
3FA
330
3F2
330
41F
 75
     0
 76
     1
 47
0.0514683685270805
 98
        1
 10
439.1783885707837
 20
187.8990105037009
450
        0
451
        0
460
0.0
461
0.0
452
        0
462
0.0
453
        0
470

  0
HATCH
  5
42E
330
18
100
AcDbEntity
  8
ROGO
 62
     4
100
AcDbHatch
 10
0.0
 20
0.0
 30
0.0
210
0.0
220
0.0
230
1.0
  2
SOLID
 70
     1
 71
     1
 91
        1
 92
        7
 72
     0
 73
     1
 93
       11
 10
445.4498261026021
 20
187.6829051578631
 10
446.529945734751
 20
187.6829051578631
 10
446.9114447192734
 20
188.4479959608912
 10
447.2929437037958
 20
187.6829051578631
 10
448.3730397037957
 20
187.6829051578631
 10
447.6422303954601
 20
189.1485328613674
 10
449.4178143173619
 20
190.6141605648716
 10
448.3377183173621
 20
190.6141605648716
 10
447.8319853415351
 20
190.2941271236979
 10
447.9915643514221
 20
190.6141605648716
 10
446.9114447192733
 20
190.6141605648716
 97
       11
330
426
330
421
330
420
330
41E
330
41F
330
3F2
330
424
330
422
330
427
330
423
330
425
 75
     0
 76
     1
 47
0.0514683685270805
 98
        1
 10
446.8184857958392
 20
189.3565948742409
450
        0
451
        0
460
0.0
461
0.0
452
        0
462
0.0
453
        0
470

  0
HATCH
  5
42F
330
18
100
AcDbEntity
  8
ROGO
 62
     4
100
AcDbHatch
 10
0.0
 20
0.0
 30
0.0
210
0.0
220
0.0
230
1.0
  2
SOLID
 70
     1
 71
     1
 91
        2
 92
        5
 93
        6
 72
     1
 10
426.688263924717
 20
187.6829051578631
 11
428.050836718912
 21
187.6829051578631
 72
     1
 10
428.050836718912
 20
187.6829051578631
 11
428.528299791524
 21
188.7382392355038
 72
     1
 10
428.528299791524
 20
188.7382392355038
 11
429.802025888913
 21
188.7382392355038
 72
     4
 94
        3
 73
     0
 74
     0
 95
       18
 96
       14
 40
0.108740278791501
 40
0.108740278791501
 40
0.108740278791501
 40
0.108740278791501
 40
0.6623149649549278
 40
1.384304701649787
 40
2.097394834876493
 40
2.774073369849618
 40
3.428974823686337
 40
4.005208313035923
 40
4.455173659284313
 40
4.720999734343524
 40
5.086034088486724
 40
5.569973738255373
 40
6.060470601257719
 40
6.060470601257719
 40
6.060470601257719
 40
6.060470601257719
 10
429.8020258889128
 20
188.7382392355038
 10
429.8916686273338
 20
188.738906777834
 10
430.0982262802675
 20
188.740444950132
 10
430.3871988204208
 20
188.8948204308396
 10
430.6612273534108
 20
189.0914835456135
 10
430.8819386949555
 20
189.3371935896161
 10
431.0194485104928
 20
189.6181209289315
 10
431.0407483462745
 20
189.8873639797482
 10
431.0277453198303
 20
190.100331885686
 10
430.9348321647688
 20
190.2487758032615
 10
430.8382376020192
 20
190.3994311992226
 10
430.6611158369519
 20
190.5299344989246
 10
430.5159901971653
 20
190.5871143436607
 10
430.4421908576853
 20
190.6141605648717
 72
     1
 10
430.4421908576854
 20
190.6141605648717
 11
428.1386218391351
 21
190.6141605648716
 72
     1
 10
428.1386218391351
 20
190.6141605648716
 11
426.688263924717
 21
187.6829051578631
 97
        6
330
3F4
330
3F1
330
3F3
330
3F2
330
3FA
330
3F5
 92
       20
 93
        4
 72
     1
 10
428.8231062091099
 20
189.3898482847306
 11
429.0488173467634
 21
189.8887364059955
 72
     1
 10
429.0488173467634
 20
189.8887364059955
 11
429.6287987740454
 21
189.8887364059955
 72
     4
 94
        3
 73
     0
 74
     0
 95
       15
 96
       11
 40
0.0
 40
0.0
 40
0.0
 40
0.0
 40
0.2199578613106558
 40
0.3202465475123651
 40
0.4340808827708152
 40
0.5116301246390283
 40
0.634275054953107
 40
0.7077360179240892
 40
0.8337709579493377
 40
0.875782631437913
 40
0.875782631437913
 40
0.875782631437913
 40
0.875782631437913
 10
429.6287987740455
 20
189.8887364059953
 10
429.7114106812729
 20
189.8891148126274
 10
429.8316890742131
 20
189.8896657518698
 10
429.8974615833053
 20
189.7408810319707
 10
429.867979208686
 20
189.6450868824885
 10
429.8309174609374
 20
189.5467361478489
 10
429.7654209587341
 20
189.4799053403212
 10
429.6775150593123
 20
189.4155360065541
 10
429.5944397835184
 20
189.4077438104692
 10
429.540408642129
 20
189.3934273912488
 10
429.5269008503157
 20
189.3898482847305
 72
     1
 10
429.5269008503157
 20
189.3898482847305
 11
428.8231062091099
 21
189.3898482847306
 97
        4
330
3F6
330
3F8
330
3F7
330
3F9
 75
     0
 76
     1
 47
0.0514683685270805
 98
        2
 10
428.1509340581449
 20
189.7024623407445
 10
428.1509340581449
 20
189.7024623407445
450
        0
451
        0
460
0.0
461
0.0
452
        0
462
0.0
453
        0
470

  0
LINE
  5
430
102
{ACAD_REACTORS
330
433
102
}
330
18
100
AcDbEntity
  8
ROGO
 62
     4
100
AcDbLine
 10
436.5759121286262
 20
190.6141605648716
 30
0.0
 11
437.4092707148881
 21
188.7382392355038
 31
0.0
  0
LINE
  5
431
102
{ACAD_REACTORS
330
433
102
}
330
18
100
AcDbEntity
  8
ROGO
 62
     4
100
AcDbLine
 10
435.7526612341409
 20
190.1127191692263
 30
0.0
 11
436.0372432137486
 21
189.4721144951993
 31
0.0
  0
LINE
  5
432
102
{ACAD_REACTORS
330
433
102
}
330
18
100
AcDbEntity
  8
ROGO
 62
     4
100
AcDbLine
 10
436.2045933646065
 20
189.0954030499192
 30
0.0
 11
436.3632596832765
 21
188.7382392355038
 31
0.0
  0
HATCH
  5
433
330
18
100
AcDbEntity
  8
ROGO
 62
     4
100
AcDbHatch
 10
0.0
 20
0.0
 30
0.0
210
0.0
220
0.0
230
1.0
  2
SOLID
 70
     1
 71
     1
 91
        2
 92
        7
 72
     0
 73
     1
 93
        8
 10
436.5759121286262
 20
190.6141605648716
 10
435.075335724667
 20
190.6141605648716
 10
433.722572395954
 20
188.7382392355038
 10
434.7614970412276
 20
188.7382392355038
 10
435.0190548092004
 20
189.0954030499192
 10
436.2045933646066
 20
189.0954030499192
 10
436.3632596832765
 20
188.7382392355038
 10
437.4092707148881
 20
188.7382392355039
 97
        8
330
40C
330
406
330
40B
330
40A
330
408
330
432
330
40D
330
430
 92
       22
 72
     0
 73
     1
 93
        3
 10
436.0372432137486
 20
189.4721144951993
 10
435.2907087536933
 20
189.4721144951993
 10
435.752661234141
 20
190.1127191692263
 97
        3
330
409
330
407
330
431
 75
     0
 76
     1
 47
0.0128389261915577
 98
        2
 10
436.4584051393466
 20
190.1641006837159
 10
436.4584051393466
 20
190.1641006837159
450
        0
451
        0
460
0.0
461
0.0
452
        0
462
0.0
453
        0
470

  0
SPLINE
  5
434
102
{ACAD_REACTORS
330
43B
102
}
330
18
100
AcDbEntity
  8
ROGO
 62
     4
100
AcDbSpline
210
0.0
220
0.0
230
1.0
 70
     8
 71
     3
 72
    38
 73
    34
 74
    32
 42
0.0000000001
 43
0.0000000001
 44
0.0000000001
 40
0.0
 40
0.0
 40
0.0
 40
0.0
 40
0.2582400211805774
 40
0.3393418442955424
 40
0.443552172800835
 40
0.530394283206717
 40
0.6036667919818254
 40
0.7009894053152177
 40
0.7507174249931042
 40
0.8067242281503032
 40
0.8892677166883521
 40
0.9827715778106668
 40
1.043426616793024
 40
1.109318337455068
 40
1.182564491755753
 40
1.293719242428883
 40
1.399327847180614
 40
1.448424760475743
 40
1.50441322219426
 40
1.570741059842362
 40
1.617957956886697
 40
1.657539314700464
 40
1.714052551848318
 40
1.776150918813051
 40
1.838248940024221
 40
1.892584795022379
 40
2.017023561310864
 40
2.066120474605993
 40
2.164314359515976
 40
2.251113385583432
 40
2.417283613623161
 40
2.622320469312984
 40
2.918423525691272
 40
2.918423525691272
 40
2.918423525691272
 40
2.918423525691272
 10
441.5159138906915
 20
190.6219851636892
 30
0.0
 10
441.4298347512263
 20
190.6159042792594
 30
0.0
 10
441.3167219431961
 20
190.6079136567064
 30
0.0
 10
441.1730951253253
 20
190.5685641906992
 30
0.0
 10
441.0948026189811
 20
190.5216863057594
 30
0.0
 10
441.0133236170993
 20
190.4872288133301
 30
0.0
 10
440.9438551794064
 20
190.436204100117
 30
0.0
 10
440.8735893212694
 20
190.4099115569835
 30
0.0
 10
440.8243870164469
 20
190.3625014021654
 30
0.0
 10
440.7674393619712
 20
190.3335412333441
 30
0.0
 10
440.7220909336352
 20
190.2687199561806
 30
0.0
 10
440.6714042528754
 20
190.2081144109543
 30
0.0
 10
440.6126013265796
 20
190.1638750658436
 30
0.0
 10
440.5643409757804
 20
190.117410810183
 30
0.0
 10
440.5200688144599
 20
190.0457025027776
 30
0.0
 10
440.4938665679297
 20
189.9504233960838
 30
0.0
 10
440.4200068330593
 20
189.8902676042478
 30
0.0
 10
440.4088858695121
 20
189.817942393282
 30
0.0
 10
440.3680317978038
 20
189.7752717358667
 30
0.0
 10
440.3502670185812
 20
189.7201900473167
 30
0.0
 10
440.343501335547
 20
189.6697254911442
 30
0.0
 10
440.3353809026293
 20
189.6225950891038
 30
0.0
 10
440.3141393880115
 20
189.5730159880497
 30
0.0
 10
440.3210726916705
 20
189.5117727324283
 30
0.0
 10
440.3190976016104
 20
189.4524688552476
 30
0.0
 10
440.3202599444292
 20
189.3724067743741
 30
0.0
 10
440.3160648882207
 20
189.2944564930605
 30
0.0
 10
440.3495188175279
 20
189.2096280985343
 30
0.0
 10
440.3693157426746
 20
189.1340153204392
 30
0.0
 10
440.4235328425945
 20
189.02932026008
 30
0.0
 10
440.5170562037626
 20
188.9085247976387
 30
0.0
 10
440.6948986980736
 20
188.7619019929346
 30
0.0
 10
440.8658994560154
 20
188.7470277919099
 30
0.0
 10
440.9669368027728
 20
188.7382392355038
 30
0.0
 11
441.5159138906915
 21
190.6219851636892
 31
0.0
 11
441.2595472664811
 21
190.5909358073301
 31
0.0
 11
441.1818604291552
 21
190.5676493086911
 31
0.0
 11
441.0886365905724
 21
190.5210756199059
 31
0.0
 11
441.0109497532464
 21
190.4822644430873
 31
0.0
 11
440.9488005275245
 21
190.4434529205152
 31
0.0
 11
440.8633451895702
 21
190.3968795774835
 31
0.0
 11
440.8245014657335
 21
190.3658305668779
 31
0.0
 11
440.7778892412685
 21
190.3347812105188
 31
0.0
 11
440.7235085161751
 21
190.2726831893076
 31
0.0
 11
440.6613592904532
 21
190.2028230018834
 31
0.0
 11
440.6147470659881
 21
190.1640114793113
 31
0.0
 11
440.5681354518703
 21
190.1174381362796
 31
0.0
 11
440.5292917280337
 21
190.0553401150684
 31
0.0
 11
440.4826801139161
 21
189.9544305712852
 31
0.0
 11
440.4205302778469
 21
189.8690457056814
 31
0.0
 11
440.40499327659
 21
189.8224720168962
 31
0.0
 11
440.3739186637291
 21
189.7758986738645
 31
0.0
 11
440.3506125514966
 21
189.7138003068999
 31
0.0
 11
440.3428434405209
 21
189.6672269638682
 31
0.0
 11
440.3350749398924
 21
189.6284154412961
 31
0.0
 11
440.3195379386357
 21
189.5740799320514
 31
0.0
 11
440.3195379386357
 21
189.5119815650867
 31
0.0
 11
440.3195379386357
 21
189.4498835438755
 31
0.0
 11
440.3195379386357
 21
189.3955476888774
 31
0.0
 11
440.3273064392641
 21
189.271351646455
 31
0.0
 11
440.3428434405209
 21
189.2247779576698
 31
0.0
 11
440.3739186637291
 21
189.1316309258531
 31
0.0
 11
440.4127617772185
 21
189.0540082264623
 31
0.0
 11
440.5137547267769
 21
188.9220500178269
 31
0.0
 11
440.6768969020573
 21
188.797853629651
 31
0.0
 11
440.9669368027728
 21
188.7382392355038
 31
0.0
  0
SPLINE
  5
435
102
{ACAD_REACTORS
330
43B
102
}
330
18
100
AcDbEntity
  8
ROGO
 62
     4
100
AcDbSpline
210
0.0
220
0.0
230
1.0
 70
     8
 71
     3
 72
    25
 73
    21
 74
     0
 42
0.0000000001
 43
0.0000000001
 40
0.0
 40
0.0
 40
0.0
 40
0.0
 40
0.4087168505087288
 40
0.6887487002771746
 40
0.9415836120477687
 40
1.17452070575514
 40
1.41154617586699
 40
1.599156012919487
 40
1.80099909059943
 40
2.178735911501585
 40
2.521686161369157
 40
2.762704659361267
 40
3.06256558063785
 40
3.222432137207705
 40
3.399493810628493
 40
3.567459719866414
 40
3.743172740007509
 40
3.995988754699505
 40
4.17170091132118
 40
4.337226830236035
 40
4.337226830236035
 40
4.337226830236035
 40
4.337226830236035
 10
442.5879907809563
 20
190.6219851636892
 30
0.0
 10
442.658305138707
 20
190.6197260358948
 30
0.0
 10
442.7767952925908
 20
190.6159190694576
 30
0.0
 10
442.9040090906209
 20
190.5164866560641
 30
0.0
 10
443.0013494059913
 20
190.4340495670426
 30
0.0
 10
443.070442770078
 20
190.3343869865653
 30
0.0
 10
443.1310050395672
 20
190.2427525527407
 30
0.0
 10
443.1709109835232
 20
190.1460076746464
 30
0.0
 10
443.22519095163
 20
190.0299226810222
 30
0.0
 10
443.2476601768403
 20
189.8746182061207
 30
0.0
 10
443.2324795435022
 20
189.71409670177
 30
0.0
 10
443.1928651785058
 20
189.5718091536222
 30
0.0
 10
443.1513128946487
 20
189.4626494891305
 30
0.0
 10
443.1023385819096
 20
189.367619229144
 30
0.0
 10
443.0439549429037
 20
189.3060871284311
 30
0.0
 10
443.0034507207051
 20
189.2278496622203
 30
0.0
 10
442.925647291109
 20
189.1638556152583
 30
0.0
 10
442.8625756342425
 20
189.0848959431811
 30
0.0
 10
442.7910024390429
 20
189.0171240169831
 30
0.0
 10
442.7506491543231
 20
188.9753095552378
 30
0.0
 10
442.7293739294748
 20
188.9577284924582
 30
0.0
  0
LINE
  5
436
102
{ACAD_REACTORS
330
43B
102
}
330
18
100
AcDbEntity
  8
ROGO
 62
     4
100
AcDbLine
 10
441.5159138906915
 20
190.6219851636892
 30
0.0
 11
442.5879907809563
 21
190.6219851636892
 31
0.0
  0
LINE
  5
437
102
{ACAD_REACTORS
330
43B
102
}
330
18
100
AcDbEntity
  8
ROGO
 62
     4
100
AcDbLine
 10
440.9669368027728
 20
188.7382392355038
 30
0.0
 11
442.0390136930375
 21
188.7382392355038
 31
0.0
  0
SPLINE
  5
438
102
{ACAD_REACTORS
330
43B
102
}
330
18
100
AcDbEntity
  8
ROGO
 62
     4
100
AcDbSpline
210
0.0
220
0.0
230
1.0
 70
     8
 71
     3
 72
    11
 73
     7
 74
     0
 42
0.0000000001
 43
0.0000000001
 40
0.1647869275458134
 40
0.1647869275458134
 40
0.1647869275458134
 40
0.1647869275458134
 40
0.2895635144633836
 40
0.5387013147903714
 40
0.7953622617455423
 40
0.8850764140209602
 40
0.8850764140209602
 40
0.8850764140209602
 40
0.8850764140209602
 10
442.3961814910633
 20
188.7800627310875
 30
0.0
 10
442.3762121442049
 20
188.7745042557783
 30
0.0
 10
442.3142964135847
 20
188.7646076989441
 30
0.0
 10
442.2104410319588
 20
188.751018564125
 30
0.0
 10
442.1117316861068
 20
188.736837806147
 30
0.0
 10
442.0539735506374
 20
188.7379509274424
 30
0.0
 10
442.0390136930376
 20
188.7382392355038
 30
0.0
  0
SPLINE
  5
439
102
{ACAD_REACTORS
330
43B
102
}
330
18
100
AcDbEntity
  8
ROGO
 62
     4
100
AcDbSpline
210
0.0
220
0.0
230
1.0
 70
     8
 71
     3
 72
     9
 73
     5
 74
     3
 42
0.0000000001
 43
0.0000000001
 44
0.0000000001
 40
0.0
 40
0.0
 40
0.0
 40
0.0
 40
0.1622561919360204
 40
0.3804197703110171
 40
0.3804197703110171
 40
0.3804197703110171
 40
0.3804197703110171
 10
442.3961814910633
 20
188.7800627310875
 30
0.0
 10
442.4483028743747
 20
188.7960089306921
 30
0.0
 10
442.5705047110567
 20
188.8333957910549
 30
0.0
 10
442.6714714213949
 20
188.9124133878755
 30
0.0
 10
442.7293739294748
 20
188.9577284924582
 30
0.0
 11
442.3961814910633
 21
188.7800627310875
 31
0.0
 11
442.5486825828128
 21
188.8354747229014
 31
0.0
 11
442.7293739294748
 21
188.9577284924582
 31
0.0
  0
ELLIPSE
  5
43A
102
{ACAD_REACTORS
330
43B
102
}
330
18
100
AcDbEntity
  8
ROGO
 62
     4
100
AcDbEllipse
 10
441.7622830258783
 20
189.6538480319478
 30
0.0
 11
0.2546924415247531
 21
0.2239701316915159
 31
0.0
210
0.0
220
0.0
230
1.0
 40
0.6788083417438792
 41
0.0
 42
6.283185307179586
  0
HATCH
  5
43B
330
18
100
AcDbEntity
  8
ROGO
 62
     4
100
AcDbHatch
 10
0.0
 20
0.0
 30
0.0
210
0.0
220
0.0
230
1.0
  2
SOLID
 70
     1
 71
     1
 91
        2
 92
        5
 93
        6
 72
     4
 94
        3
 73
     0
 74
     0
 95
       38
 96
       34
 40
0.0
 40
0.0
 40
0.0
 40
0.0
 40
0.2582400211805774
 40
0.3393418442955424
 40
0.443552172800835
 40
0.530394283206717
 40
0.6036667919818254
 40
0.7009894053152177
 40
0.7507174249931042
 40
0.8067242281503032
 40
0.8892677166883521
 40
0.9827715778106668
 40
1.043426616793024
 40
1.109318337455068
 40
1.182564491755753
 40
1.293719242428883
 40
1.399327847180614
 40
1.448424760475743
 40
1.50441322219426
 40
1.570741059842362
 40
1.617957956886697
 40
1.657539314700464
 40
1.714052551848318
 40
1.776150918813051
 40
1.838248940024221
 40
1.892584795022379
 40
2.017023561310864
 40
2.066120474605993
 40
2.164314359515976
 40
2.251113385583432
 40
2.417283613623161
 40
2.622320469312984
 40
2.918423525691272
 40
2.918423525691272
 40
2.918423525691272
 40
2.918423525691272
 10
441.5159138906915
 20
190.6219851636892
 10
441.4298347512263
 20
190.6159042792594
 10
441.3167219431961
 20
190.6079136567064
 10
441.1730951253253
 20
190.5685641906992
 10
441.0948026189811
 20
190.5216863057594
 10
441.0133236170993
 20
190.4872288133301
 10
440.9438551794064
 20
190.4362041001169
 10
440.8735893212694
 20
190.4099115569835
 10
440.8243870164468
 20
190.3625014021654
 10
440.7674393619712
 20
190.3335412333441
 10
440.7220909336351
 20
190.2687199561806
 10
440.6714042528754
 20
190.2081144109542
 10
440.6126013265796
 20
190.1638750658436
 10
440.5643409757804
 20
190.117410810183
 10
440.5200688144599
 20
190.0457025027775
 10
440.4938665679297
 20
189.9504233960838
 10
440.4200068330593
 20
189.8902676042478
 10
440.408885869512
 20
189.8179423932819
 10
440.3680317978039
 20
189.7752717358667
 10
440.3502670185811
 20
189.7201900473167
 10
440.3435013355471
 20
189.6697254911442
 10
440.3353809026293
 20
189.6225950891038
 10
440.3141393880114
 20
189.5730159880497
 10
440.3210726916706
 20
189.5117727324284
 10
440.3190976016104
 20
189.4524688552476
 10
440.3202599444293
 20
189.3724067743741
 10
440.3160648882207
 20
189.2944564930606
 10
440.3495188175279
 20
189.2096280985342
 10
440.3693157426748
 20
189.1340153204392
 10
440.4235328425943
 20
189.0293202600799
 10
440.5170562037628
 20
188.9085247976387
 10
440.6948986980735
 20
188.7619019929346
 10
440.8658994560154
 20
188.7470277919099
 10
440.9669368027728
 20
188.7382392355038
 72
     1
 10
440.9669368027728
 20
188.7382392355038
 11
442.0390136930378
 21
188.7382392355038
 72
     4
 94
        3
 73
     0
 74
     0
 95
       11
 96
        7
 40
0.1647869275458135
 40
0.1647869275458135
 40
0.1647869275458135
 40
0.1647869275458135
 40
0.2545010798212315
 40
0.5111620267764023
 40
0.7602998271033902
 40
0.8850764140209603
 40
0.8850764140209603
 40
0.8850764140209603
 40
0.8850764140209603
 10
442.0390136930376
 20
188.7382392355038
 10
442.0539735506374
 20
188.7379509274424
 10
442.1117316861068
 20
188.736837806147
 10
442.2104410319588
 20
188.751018564125
 10
442.3142964135847
 20
188.7646076989441
 10
442.3762121442049
 20
188.7745042557783
 10
442.3961814910633
 20
188.7800627310875
 72
     4
 94
        3
 73
     0
 74
     0
 95
        9
 96
        5
 40
0.0
 40
0.0
 40
0.0
 40
0.0
 40
0.1622561919360204
 40
0.3804197703110171
 40
0.3804197703110171
 40
0.3804197703110171
 40
0.3804197703110171
 10
442.3961814910633
 20
188.7800627310875
 10
442.4483028743747
 20
188.7960089306921
 10
442.5705047110567
 20
188.8333957910549
 10
442.671471421395
 20
188.9124133878755
 10
442.7293739294748
 20
188.9577284924582
 72
     4
 94
        3
 73
     0
 74
     0
 95
       25
 96
       21
 40
0.0
 40
0.0
 40
0.0
 40
0.0
 40
0.165525918914855
 40
0.3412380755365305
 40
0.5940540902285263
 40
0.7697671103696209
 40
0.9377330196075423
 40
1.11479469302833
 40
1.274661249598185
 40
1.574522170874768
 40
1.815540668866877
 40
2.15849091873445
 40
2.536227739636605
 40
2.738070817316548
 40
2.925680654369045
 40
3.162706124480894
 40
3.395643218188267
 40
3.648478129958861
 40
3.928509979727306
 40
4.337226830236035
 40
4.337226830236035
 40
4.337226830236035
 40
4.337226830236035
 10
442.7293739294748
 20
188.9577284924582
 10
442.7506491543231
 20
188.9753095552378
 10
442.7910024390429
 20
189.0171240169831
 10
442.8625756342425
 20
189.0848959431811
 10
442.925647291109
 20
189.1638556152583
 10
443.0034507207051
 20
189.2278496622203
 10
443.0439549429037
 20
189.3060871284311
 10
443.1023385819096
 20
189.367619229144
 10
443.1513128946487
 20
189.4626494891305
 10
443.1928651785058
 20
189.5718091536222
 10
443.2324795435022
 20
189.71409670177
 10
443.2476601768403
 20
189.8746182061207
 10
443.22519095163
 20
190.0299226810222
 10
443.1709109835232
 20
190.1460076746464
 10
443.1310050395672
 20
190.2427525527407
 10
443.070442770078
 20
190.3343869865653
 10
443.0013494059913
 20
190.4340495670426
 10
442.9040090906209
 20
190.5164866560641
 10
442.7767952925908
 20
190.6159190694576
 10
442.658305138707
 20
190.6197260358948
 10
442.5879907809563
 20
190.6219851636892
 72
     1
 10
442.5879907809565
 20
190.6219851636892
 11
441.5159138906915
 21
190.6219851636892
 97
        6
330
435
330
436
330
434
330
437
330
438
330
439
 92
       20
 93
        1
 72
     3
 10
441.7622830258783
 20
189.6538480319478
 11
0.2546924415247531
 21
0.2239701316915159
 40
0.6788083417438792
 50
0.0
 51
360.0
 73
     1
 97
        1
330
43A
 75
     0
 76
     1
 47
0.088756267210375
 98
        2
 10
441.8371848484049
 20
190.1016869895535
 10
441.8371848484049
 20
190.1016869895535
450
        0
451
        0
460
0.0
461
0.0
452
        0
462
0.0
453
        0
470

  0
LINE
  5
865
330
18
100
AcDbEntity
  8
想像線
 48
0.6
100
AcDbLine
 10
362.6342701642525
 20
208.4817770717179
 30
0.0
 11
371.6929367428406
 21
174.6743731516005
 31
0.0
  0
LINE
  5
866
330
18
100
AcDbEntity
  8
想像線
 48
0.5
100
AcDbLine
 10
362.6342701642525
 20
208.4817770717179
 30
0.0
 11
378.0890833848776
 21
212.6228817933582
 31
0.0
  0
LINE
  5
86E
330
18
100
AcDbEntity
  8
想像線
 48
0.5
100
AcDbLine
 10
378.0890833848776
 20
212.6228817933582
 30
0.0
 11
383.884638342612
 21
214.1757960639734
 31
0.0
  0
LINE
  5
86F
330
18
100
AcDbEntity
  8
中心線
100
AcDbLine
 10
379.6340770006097
 20
210.3451435159386
 30
0.0
 11
383.8122886668312
 21
211.464691957709
 31
0.0
  0
LINE
  5
870
330
18
100
AcDbEntity
  8
外形線
100
AcDbLine
 10
362.7434926669999
 20
224.3186043366606
 30
0.0
 11
367.6372393915386
 21
206.0548929213065
 31
0.0
  0
LINE
  5
871
330
18
100
AcDbEntity
  8
外形線
100
AcDbLine
 10
370.4725490956211
 20
226.3829994917293
 30
0.0
 11
375.364646001851
 21
208.1254452821266
 31
0.0
  0
LINE
  5
873
330
18
100
AcDbEntity
  8
外形線
100
AcDbLine
 10
373.4327943492733
 20
207.6078071919217
 30
0.0
 11
376.2367167775218
 21
197.1434262292155
 31
0.0
  0
LINE
  5
874
330
18
100
AcDbEntity
  8
外形線
100
AcDbLine
 10
369.5690910441172
 20
206.5725310115116
 30
0.0
 11
372.3730134723658
 21
196.1081500488055
 31
0.0
  0
LINE
  5
877
330
18
100
AcDbEntity
  8
外形線
100
AcDbLine
 10
371.2578438380235
 20
195.8093412458598
 30
0.0
 11
377.4397691262735
 21
197.465783134516
 31
0.0
  0
LINE
  5
878
330
18
100
AcDbEntity
  8
外形線
100
AcDbLine
 10
371.2578438380236
 20
195.8093412458599
 30
0.0
 11
371.90489145078
 21
193.3945266801373
 31
0.0
  0
LINE
  5
879
330
18
100
AcDbEntity
  8
外形線
100
AcDbLine
 10
377.4397691262735
 20
197.4657831345159
 30
0.0
 11
378.0868167390301
 21
195.0509685687933
 31
0.0
  0
LINE
  5
87A
330
18
100
AcDbEntity
  8
外形線
100
AcDbLine
 10
371.90489145078
 20
193.3945266801373
 30
0.0
 11
378.0868167390301
 21
195.0509685687934
 31
0.0
  0
ARC
  5
87B
330
18
100
AcDbEntity
  8
外形線
100
AcDbCircle
 10
375.3677188146921
 20
192.7696847354913
 30
0.0
 40
1.5
100
AcDbArc
 50
105.1492011173289
 51
175.677630553915
  0
LINE
  5
87E
330
18
100
AcDbEntity
  8
隠れ線
 62
     4
 48
0.3
100
AcDbLine
 10
374.0289618651872
 20
193.4462420724201
 30
0.0
 11
376.1812917229174
 21
194.0229571196443
 31
0.0
  0
LINE
  5
87F
330
18
100
AcDbEntity
  8
外形線
100
AcDbLine
 10
375.2089874157201
 20
192.2864101313783
 30
0.0
 11
373.8108567222763
 21
187.9969831498901
 31
0.0
  0
LINE
  5
880
330
18
100
AcDbEntity
  8
外形線
100
AcDbLine
 10
373.5478672221895
 20
192.7949865390974
 30
0.0
 11
373.0869190946501
 21
187.800987457828
 31
0.0
  0
LINE
  5
882
330
18
100
AcDbEntity
  8
外形線
100
AcDbLine
 10
373.0869190946501
 20
187.800987457828
 30
0.0
 11
373.8108567222763
 21
187.9969831498901
 31
0.0
  0
LINE
  5
883
330
18
100
AcDbEntity
  8
外形線
100
AcDbLine
 10
373.5478672221895
 20
192.7949865390974
 30
0.0
 11
375.2345385063275
 21
193.2516285107265
 31
0.0
  0
ARC
  5
884
330
18
100
AcDbEntity
  8
外形線
100
AcDbCircle
 10
375.5441149375479
 20
192.1181408706276
 30
0.0
 40
0.375
100
AcDbArc
 50
63.59511636733778
 51
153.3385362926159
  0
CIRCLE
  5
887
330
18
100
AcDbEntity
  8
外形線
100
AcDbCircle
 10
378.6343136823922
 20
180.7040576083868
 30
0.0
 40
1.25
  0
LINE
  5
888
330
18
100
AcDbEntity
  8
外形線
100
AcDbLine
 10
378.0159417091494
 20
181.0589360430142
 30
0.0
 11
379.2517614109386
 21
180.3497095899575
 31
0.0
  0
LINE
  5
889
330
18
100
AcDbEntity
  8
外形線
100
AcDbLine
 10
378.2338258374551
 20
180.0062117130919
 30
0.0
 11
378.9812338439208
 21
181.3085623737087
 31
0.0
  0
LINE
  5
88A
330
18
100
AcDbEntity
  8
中心線
100
AcDbLine
 10
382.2356376200533
 20
181.6678937493873
 30
0.0
 11
374.9395665780248
 21
179.7129174057554
 31
0.0
  0
LINE
  5
88B
330
18
100
AcDbEntity
  8
外形線
100
AcDbLine
 10
376.4479761726536
 20
186.8504370640242
 30
0.0
 11
377.6837958744424
 21
186.1412106109676
 31
0.0
  0
LINE
  5
88C
330
18
100
AcDbEntity
  8
外形線
100
AcDbLine
 10
376.6658603009592
 20
185.7977127341019
 30
0.0
 11
377.4132683074246
 21
187.1000633947188
 31
0.0
  0
CIRCLE
  5
88D
330
18
100
AcDbEntity
  8
外形線
100
AcDbCircle
 10
377.0663481458963
 20
186.495558629397
 30
0.0
 40
1.25
  0
LINE
  5
88E
330
18
100
AcDbEntity
  8
中心線
100
AcDbLine
 10
380.6274993029584
 20
187.4486514684646
 30
0.0
 11
373.244845804442
 21
185.4704754255384
 31
0.0
  0
LINE
  5
892
330
18
100
AcDbEntity
  8
外形線
100
AcDbLine
 10
376.5225459401353
 20
177.0243243296338
 30
0.0
 11
375.8749311012723
 21
177.3959849970019
 31
0.0
  0
LINE
  5
897
330
18
100
AcDbEntity
  8
想像線
 48
0.3
100
AcDbLine
 10
386.4728287936376
 20
204.5165378010826
 30
0.0
 11
383.884638342612
 21
214.1757960639734
 31
0.0
  0
LINE
  5
898
330
18
100
AcDbEntity
  8
中心線
100
AcDbLine
 10
380.7336062185839
 20
205.4633805798987
 30
0.0
 11
385.351629890955
 21
206.7007762935383
 31
0.0
  0
CIRCLE
  5
899
330
18
100
AcDbEntity
  8
想像線
100
AcDbCircle
 10
382.9538856065241
 20
206.0583026488688
 30
0.0
 40
1.5
  0
LINE
  5
89A
330
18
100
AcDbEntity
  8
想像線
100
AcDbLine
 10
382.0363230493523
 20
206.5880576382503
 30
0.0
 11
383.9046705258368
 21
205.5093667197622
 31
0.0
  0
LINE
  5
89B
330
18
100
AcDbEntity
  8
想像線
100
AcDbLine
 10
382.4314932578542
 20
205.1534925594871
 30
0.0
 11
383.4763174351317
 21
206.9631811195083
 31
0.0
  0
LINE
  5
89C
330
18
100
AcDbEntity
  8
想像線
 48
0.5
100
AcDbLine
 10
380.6772738359031
 20
202.9636235304674
 30
0.0
 11
386.4728287936377
 21
204.5165378010826
 31
0.0
  0
CIRCLE
  5
89D
330
18
100
AcDbEntity
  8
想像線
100
AcDbCircle
 10
381.6597903810115
 20
210.8879317803141
 30
0.0
 40
1.5
  0
LINE
  5
89E
330
18
100
AcDbEntity
  8
想像線
100
AcDbLine
 10
380.7422278238396
 20
211.4176867696957
 30
0.0
 11
382.6105753003241
 21
210.3389958512076
 31
0.0
  0
LINE
  5
89F
330
18
100
AcDbEntity
  8
想像線
100
AcDbLine
 10
381.1373980323414
 20
209.9831216909326
 30
0.0
 11
382.1822222096191
 21
211.7928102509537
 31
0.0
  0
LINE
  5
8A1
330
18
100
AcDbEntity
  8
想像線
 48
0.5
100
AcDbLine
 10
378.0890833848776
 20
212.6228817933582
 30
0.0
 11
387.147749963466
 21
178.8154778732409
 31
0.0
  0
LINE
  5
8B0
330
18
100
AcDbEntity
  8
想像線
 48
0.5
100
AcDbLine
 10
371.692936742841
 20
174.6743731516005
 30
0.0
 11
387.147749963466
 21
178.8154778732409
 31
0.0
  0
LINE
  5
8B1
330
18
100
AcDbEntity
  8
外形線
100
AcDbLine
 10
373.8108567222763
 20
187.9969831498901
 30
0.0
 11
376.7356701613528
 21
177.0814307925965
 31
0.0
  0
LINE
  5
8B2
330
18
100
AcDbEntity
  8
外形線
100
AcDbLine
 10
373.0869190946501
 20
187.800987457828
 30
0.0
 11
375.8749311012723
 21
177.3959849970019
 31
0.0
  0
LINE
  5
8B3
330
18
100
AcDbEntity
  8
外形線
100
AcDbLine
 10
375.8749311012723
 20
177.3959849970019
 30
0.0
 11
376.5993730262408
 21
177.5900986257604
 31
0.0
  0
LINE
  5
8B4
330
18
100
AcDbEntity
  8
外形線
100
AcDbLine
 10
376.5225459401353
 20
177.0243243296338
 30
0.0
 11
379.3776446895342
 21
177.7893457338464
 31
0.0
  0
LINE
  5
8D2
330
18
100
AcDbEntity
  8
外形線
100
AcDbLine
 10
379.8197520009499
 20
189.6050445978447
 30
0.0
 11
382.6077640075722
 21
179.2000421370186
 31
0.0
  0
LINE
  5
8D3
330
18
100
AcDbEntity
  8
外形線
100
AcDbLine
 10
379.0948057786392
 20
189.4128130323897
 30
0.0
 11
382.0196192177157
 21
178.4972606750961
 31
0.0
  0
LINE
  5
8D4
330
18
100
AcDbEntity
  8
外形線
100
AcDbLine
 10
382.2327434389331
 20
178.5543671380589
 30
0.0
 11
379.377644689534
 21
177.7893457338463
 31
0.0
  0
LINE
  5
8D5
330
18
100
AcDbEntity
  8
外形線
100
AcDbLine
 10
382.6077640075721
 20
179.2000421370186
 30
0.0
 11
381.8833220826037
 21
179.00592850826
 31
0.0
  0
LINE
  5
8D6
330
18
100
AcDbEntity
  8
外形線
100
AcDbLine
 10
382.2327434389331
 20
178.5543671380589
 30
0.0
 11
382.6077640075721
 21
179.2000421370186
 31
0.0
  0
LINE
  5
8D7
330
18
100
AcDbEntity
  8
外形線
100
AcDbLine
 10
375.7108817590414
 20
192.4540185674891
 30
0.0
 11
379.0948057786392
 21
189.4128130323897
 31
0.0
  0
LINE
  5
8D8
330
18
100
AcDbEntity
  8
外形線
100
AcDbLine
 10
376.9235596720394
 20
193.6995006049304
 30
0.0
 11
379.8197520009499
 21
189.6050445978447
 31
0.0
  0
LINE
  5
8D9
330
18
100
AcDbEntity
  8
外形線
100
AcDbLine
 10
379.8197520009499
 20
189.6050445978447
 30
0.0
 11
379.0948057786392
 21
189.4128130323897
 31
0.0
  0
ARC
  5
8DA
330
18
100
AcDbEntity
  8
外形線
100
AcDbCircle
 10
375.3601728636175
 20
192.7676628039947
 30
0.0
 40
1.5
100
AcDbArc
 50
34.32236944608501
 51
104.850798882671
  0
LINE
  5
8DB
330
18
100
AcDbEntity
  8
外形線
100
AcDbLine
 10
376.9235596720394
 20
193.6995006049304
 30
0.0
 11
375.2345385063275
 21
193.2516285107265
 31
0.0
  0
LINE
  5
8DD
330
18
100
AcDbEntity
  8
中心線
100
AcDbLine
 10
383.7425841520586
 20
203.1148396050786
 30
0.0
 11
380.843268185199
 21
213.9352341005943
 31
0.0
  0
LINE
  5
8E2
330
18
100
AcDbEntity
  8
外形線
100
AcDbLine
 10
376.1812917229172
 20
194.0229571196444
 30
0.0
 11
378.9650571236714
 21
194.7688648106941
 31
0.0
  0
TEXT
  5
8E3
330
18
100
AcDbEntity
  8
文字
100
AcDbText
 10
365.4632410267782
 20
251.5513816216931
 30
0.0
 40
1.0
  1
0.1mm
 50
15.0
  7
STYLE3
100
AcDbText
  0
HATCH
  5
8E4
330
18
100
AcDbEntity
  8
ROGO
 62
     4
100
AcDbHatch
 10
0.0
 20
0.0
 30
0.0
210
0.0
220
0.0
230
1.0
  2
SOLID
 70
     1
 71
     1
 91
        1
 92
        7
 72
     0
 73
     1
 93
       11
 10
363.2461501568882
 20
259.0367978882132
 10
363.9764709706104
 20
259.2324867604657
 10
364.0958067261681
 20
259.8189188787535
 10
364.4923705812049
 20
259.3707216445
 10
365.2226754160949
 20
259.5664062352373
 10
364.4630074526976
 20
260.4249844334802
 10
365.3980324556458
 20
261.7376542434741
 10
364.6677276207557
 20
261.5419696527367
 10
364.3837587657174
 20
261.2339543283464
 10
364.4336762818542
 20
261.4792557854906
 10
363.7033554681321
 20
261.2835669132381
 97
       11
330
9B9
330
9BC
330
9BD
330
8E6
330
978
330
940
330
977
330
8E5
330
9B8
330
9BB
330
9BA
 75
     0
 76
     1
 47
0.0514683685270805
 98
        1
 10
363.8683388365237
 20
260.4164246101956
450
        0
451
        0
460
0.0
461
0.0
452
        0
462
0.0
453
        0
470

  0
LINE
  5
8E5
102
{ACAD_REACTORS
330
8E4
102
}
330
18
100
AcDbEntity
  8
ROGO
 62
     4
100
AcDbLine
 10
364.0958067261681
 20
259.8189188787535
 30
0.0
 11
364.4923705812049
 21
259.3707216445
 31
0.0
  0
LINE
  5
8E6
102
{ACAD_REACTORS
330
8E4
102
}
330
18
100
AcDbEntity
  8
ROGO
 62
     4
100
AcDbLine
 10
363.7033554681321
 20
261.2835669132381
 30
0.0
 11
364.4336762818542
 21
261.4792557854906
 31
0.0
  0
LINE
  5
8E7
330
18
100
AcDbEntity
  8
目盛
100
AcDbLine
 10
361.0778968515036
 20
273.5306921267944
 30
0.0
 11
360.9208889827747
 21
270.5348035225307
 31
0.0
  0
LINE
  5
8E8
330
18
100
AcDbEntity
  8
目盛
100
AcDbLine
 10
372.4008676632614
 20
231.2727897646945
 30
0.0
 11
370.7669505582164
 21
233.7888014685308
 31
0.0
  0
CIRCLE
  5
8E9
330
18
100
AcDbEntity
  8
外形線
100
AcDbCircle
 10
359.8741698579158
 20
250.5622128274393
 30
0.0
 40
23.0
  0
CIRCLE
  5
8EA
330
18
100
AcDbEntity
  8
外形線
100
AcDbCircle
 10
359.8741698579158
 20
250.5622128274393
 30
0.0
 40
15.5
  0
LINE
  5
8EB
330
18
100
AcDbEntity
  8
中心線
 48
0.5
100
AcDbLine
 10
357.3553950393522
 20
247.5985578466433
 30
0.0
 11
361.4161607821817
 21
232.4435737767686
 31
0.0
  0
LINE
  5
8EC
330
18
100
AcDbEntity
  8
目盛
100
AcDbLine
 10
351.6317070183739
 20
229.0898630180036
 30
0.0
 11
352.7068108670098
 21
231.8906042974951
 31
0.0
  0
LINE
  5
8ED
330
18
100
AcDbEntity
  8
目盛
100
AcDbLine
 10
350.2997116359265
 20
229.6497823193566
 30
0.0
 11
351.1322732204472
 21
231.4682545374507
 31
0.0
  0
LINE
  5
8EE
330
18
100
AcDbEntity
  8
目盛
100
AcDbLine
 10
349.0055022659275
 20
230.2922334299444
 30
0.0
 11
349.9506037956656
 21
232.0548403340743
 31
0.0
  0
LINE
  5
8EF
330
18
100
AcDbEntity
  8
目盛
100
AcDbLine
 10
352.9962316360257
 20
228.6146852715648
 30
0.0
 11
353.5943132205379
 21
230.5231659285974
 31
0.0
  0
LINE
  5
8F0
330
18
100
AcDbEntity
  8
目盛
100
AcDbLine
 10
358.670442864328
 20
227.593733528084
 30
0.0
 11
358.8274507330569
 21
230.5896221323477
 31
0.0
  0
LINE
  5
8F1
330
18
100
AcDbEntity
  8
目盛
100
AcDbLine
 10
357.2306153965799
 20
227.7146392186301
 30
0.0
 11
357.4604896975655
 21
229.7013847498309
 31
0.0
  0
LINE
  5
8F2
330
18
100
AcDbEntity
  8
目盛
100
AcDbLine
 10
355.8012208305654
 20
227.9257138441467
 30
0.0
 11
356.1553903112046
 21
229.8941050600852
 31
0.0
  0
LINE
  5
8F3
330
18
100
AcDbEntity
  8
目盛
100
AcDbLine
 10
354.3879003336085
 20
228.2261243895176
 30
0.0
 11
354.8649672487656
 21
230.1683929493369
 31
0.0
  0
TEXT
  5
8F4
330
18
100
AcDbEntity
  8
文字
100
AcDbText
 10
363.8033160611349
 20
231.5298799979562
 30
0.0
 40
2.0
  1
5
 50
15.0
  7
STYLE3
100
AcDbText
  0
LINE
  5
8F5
330
18
100
AcDbEntity
  8
目盛
100
AcDbLine
 10
365.0505507599662
 20
231.2436963016579
 30
0.0
 11
365.8270078952738
 21
228.3459188227907
 31
0.0
  0
LINE
  5
8F6
330
18
100
AcDbEntity
  8
目盛
100
AcDbLine
 10
364.4202886866357
 20
228.0159758111397
 30
0.0
 11
364.0249740058774
 21
229.9765181603831
 31
0.0
  0
LINE
  5
8F7
330
18
100
AcDbEntity
  8
目盛
100
AcDbLine
 10
362.9956280239048
 20
227.775012496596
 30
0.0
 11
362.7241968790362
 21
229.7565081775389
 31
0.0
  0
LINE
  5
8F8
330
18
100
AcDbEntity
  8
目盛
100
AcDbLine
 10
361.5586483918513
 20
227.6239798512767
 30
0.0
 11
361.4121719975961
 21
229.6186088057257
 31
0.0
  0
LINE
  5
8F9
330
18
100
AcDbEntity
  8
目盛
100
AcDbLine
 10
360.1150208925895
 20
227.5634739320325
 30
0.0
 11
360.0940773243569
 21
229.5633642707635
 31
0.0
  0
LINE
  5
8FA
330
18
100
AcDbEntity
  8
目盛
100
AcDbLine
 10
371.1649561910639
 20
230.5242951716749
 30
0.0
 11
370.1831486838337
 21
232.2667227939153
 31
0.0
  0
LINE
  5
8FB
330
18
100
AcDbEntity
  8
目盛
100
AcDbLine
 10
369.8844851434793
 20
229.8548810851889
 30
0.0
 11
369.0140229447347
 21
231.6555186279932
 31
0.0
  0
LINE
  5
8FC
330
18
100
AcDbEntity
  8
目盛
100
AcDbLine
 10
368.5645079547405
 20
229.2671893768094
 30
0.0
 11
367.8088263811035
 21
231.1189305464294
 31
0.0
  0
LINE
  5
8FD
330
18
100
AcDbEntity
  8
目盛
100
AcDbLine
 10
367.2102339717714
 20
228.7635393972188
 30
0.0
 11
366.5723153531752
 21
230.6590762172379
 31
0.0
  0
LINE
  5
8FE
330
18
100
AcDbEntity
  8
外形線
  6
Continuous
100
AcDbLine
 10
349.0533110377757
 20
276.6505054966537
 30
0.0
 11
349.5348610019629
 21
274.853336563924
 31
0.0
  0
LINE
  5
8FF
330
18
100
AcDbEntity
  8
外形線
  6
Continuous
100
AcDbLine
 10
356.2011621523148
 20
278.5657664304123
 30
0.0
 11
356.682712116502
 21
276.7685974976827
 31
0.0
  0
TEXT
  5
900
330
18
100
AcDbEntity
  8
文字
100
AcDbText
 10
340.7674977744678
 20
250.6883663528011
 30
0.0
 40
2.0
  1
8
 50
15.0
  7
STYLE3
100
AcDbText
  0
TEXT
  5
901
330
18
100
AcDbEntity
  8
文字
100
AcDbText
 10
343.8099259387948
 20
238.9255446014553
 30
0.0
 40
2.0
  1
7
 50
15.0
  7
STYLE3
100
AcDbText
  0
LINE
  5
902
330
18
100
AcDbEntity
  8
目盛
100
AcDbLine
 10
345.3998008637695
 20
232.6878557139289
 30
0.0
 11
347.2877620369189
 21
235.0192935982998
 31
0.0
  0
LINE
  5
903
330
18
100
AcDbEntity
  8
目盛
100
AcDbLine
 10
344.3060225552145
 20
233.6319798236853
 30
0.0
 11
345.65977449458
 21
235.1041739979248
 31
0.0
  0
LINE
  5
904
330
18
100
AcDbEntity
  8
目盛
100
AcDbLine
 10
337.9266423020413
 20
257.4401510493292
 30
0.0
 11
339.835122959074
 21
256.8420694648171
 31
0.0
  0
LINE
  5
905
330
18
100
AcDbEntity
  8
目盛
100
AcDbLine
 10
338.40182004848
 20
258.8046756669811
 30
0.0
 11
341.2025613279717
 21
257.7295718183452
 31
0.0
  0
LINE
  5
906
330
18
100
AcDbEntity
  8
目盛
100
AcDbLine
 10
339.8362522021514
 20
239.271426494291
 30
0.0
 11
341.5786798243918
 21
240.2532340015213
 31
0.0
  0
LINE
  5
907
330
18
100
AcDbEntity
  8
目盛
100
AcDbLine
 10
343.2736846116534
 20
234.6429198284198
 30
0.0
 11
344.7172050678501
 21
236.0272061761606
 31
0.0
  0
LINE
  5
908
330
18
100
AcDbEntity
  8
目盛
100
AcDbLine
 10
342.306861199319
 20
235.7166860097884
 30
0.0
 11
343.8344532565882
 21
237.0076013852362
 31
0.0
  0
LINE
  5
909
330
18
100
AcDbEntity
  8
目盛
100
AcDbLine
 10
341.4093679285201
 20
236.84904070323
 30
0.0
 11
343.0150028789023
 21
238.0414904531612
 31
0.0
  0
LINE
  5
90A
330
18
100
AcDbEntity
  8
目盛
100
AcDbLine
 10
340.5847467951711
 20
238.0355150220936
 30
0.0
 11
343.1007584990072
 21
239.6694321271386
 31
0.0
  0
LINE
  5
90B
330
18
100
AcDbEntity
  8
目盛
100
AcDbLine
 10
337.6578758532672
 20
244.6093747900813
 30
0.0
 11
340.5556533321344
 21
245.3858319253888
 31
0.0
  0
LINE
  5
90C
330
18
100
AcDbEntity
  8
目盛
100
AcDbLine
 10
339.1668381156653
 20
240.5518975418757
 30
0.0
 11
340.9674756584696
 21
241.4223597406203
 31
0.0
  0
LINE
  5
90D
330
18
100
AcDbEntity
  8
目盛
100
AcDbLine
 10
338.5791464072859
 20
241.8718747306145
 30
0.0
 11
340.4308875769059
 21
242.6275563042514
 31
0.0
  0
LINE
  5
90E
330
18
100
AcDbEntity
  8
目盛
100
AcDbLine
 10
338.0754964276952
 20
243.2261487135836
 30
0.0
 11
339.9710332477144
 21
243.8640673321797
 31
0.0
  0
LINE
  5
90F
330
18
100
AcDbEntity
  8
目盛
100
AcDbLine
 10
337.3279328416161
 20
246.0160939987193
 30
0.0
 11
339.2884751908595
 21
246.4114086794776
 31
0.0
  0
LINE
  5
910
330
18
100
AcDbEntity
  8
目盛
100
AcDbLine
 10
337.0869695270725
 20
247.4407546614502
 30
0.0
 11
339.0684652080154
 21
247.7121858063188
 31
0.0
  0
LINE
  5
911
330
18
100
AcDbEntity
  8
目盛
100
AcDbLine
 10
336.9359368817531
 20
248.8777342935037
 30
0.0
 11
338.9305658362021
 21
249.0242106877589
 31
0.0
  0
LINE
  5
912
330
18
100
AcDbEntity
  8
目盛
100
AcDbLine
 10
336.8754309625089
 20
250.3213617927656
 30
0.0
 11
338.87532130124
 21
250.3423053609981
 31
0.0
  0
LINE
  5
913
330
18
100
AcDbEntity
  8
目盛
100
AcDbLine
 10
336.9056905585604
 20
251.7659398210269
 30
0.0
 11
339.9015791628242
 21
251.6089319522981
 31
0.0
  0
LINE
  5
914
330
18
100
AcDbEntity
  8
目盛
100
AcDbLine
 10
337.0265962491065
 20
253.2057672887751
 30
0.0
 11
339.0133417803074
 21
252.9758929877894
 31
0.0
  0
LINE
  5
915
330
18
100
AcDbEntity
  8
目盛
100
AcDbLine
 10
337.2376708746232
 20
254.6351618547896
 30
0.0
 11
339.2060620905616
 21
254.2809923741504
 31
0.0
  0
LINE
  5
916
330
18
100
AcDbEntity
  8
目盛
100
AcDbLine
 10
337.5380814199941
 20
256.0484823517466
 30
0.0
 11
339.4803499798134
 21
255.5714154365894
 31
0.0
  0
HATCH
  5
917
330
18
100
AcDbEntity
  8
ﾊｯﾁﾝｸ
  6
Continuous
100
AcDbHatch
 10
0.0
 20
0.0
 30
0.0
210
0.0
220
0.0
230
1.0
  2
SOLID
 70
     1
 71
     0
 91
        1
 92
        1
 93
        3
 72
     1
 10
353.9213318205578
 20
272.7785068320878
 11
359.9911073672759
 21
252.057647753775
 72
     2
 10
359.8741698579158
 20
250.5622128274393
 40
1.5
 50
85.52877936551253
 51
124.4712206344912
 73
     1
 72
     1
 10
359.0251815409867
 20
251.7988287086724
 11
353.921331820558
 21
272.7785068320869
 97
        0
 75
     0
 76
     1
 98
        1
 10
136.385790276553
 20
205.4371601803004
450
        0
451
        0
460
0.0
461
0.0
452
        0
462
0.0
453
        0
470

  0
LINE
  5
918
330
18
100
AcDbEntity
  8
針
  6
Continuous
100
AcDbLine
 10
353.921331820558
 20
272.7785068320869
 30
0.0
 11
359.0251815409867
 21
251.7988287086724
 31
0.0
  0
LINE
  5
919
330
18
100
AcDbEntity
  8
針
  6
Continuous
100
AcDbLine
 10
353.9213318205578
 20
272.7785068320878
 30
0.0
 11
359.9911073672758
 21
252.0576477537749
 31
0.0
  0
LINE
  5
91A
330
18
100
AcDbEntity
  8
目盛
100
AcDbLine
 10
357.6882951145686
 20
235.5687756975704
 30
0.0
 11
357.8674790893412
 21
236.035565910819
 31
0.0
  0
LINE
  5
91B
330
18
100
AcDbEntity
  8
目盛
100
AcDbLine
 10
355.6990995579882
 20
242.9925545809188
 30
0.0
 11
356.0876725387168
 21
242.6778943853939
 31
0.0
  0
LINE
  5
91C
330
18
100
AcDbEntity
  8
中心線
 48
0.5
100
AcDbLine
 10
352.6683992396007
 20
238.2020897649453
 30
0.0
 11
366.7013575196082
 21
241.9622096034929
 31
0.0
  0
CIRCLE
  5
91D
330
18
100
AcDbEntity
  8
外形線
100
AcDbCircle
 10
359.3905428749089
 20
240.0032827234322
 30
0.0
 40
4.75
  0
TEXT
  5
91E
330
18
100
AcDbEntity
  8
文字
100
AcDbText
 10
352.2063380541013
 20
232.2357167987558
 30
0.0
 40
2.0
  1
6
 50
15.0
  7
STYLE3
100
AcDbText
  0
LINE
  5
91F
330
18
100
AcDbEntity
  8
目盛
100
AcDbLine
 10
347.7541865614922
 20
231.0146808887413
 30
0.0
 11
348.8080981524856
 21
232.7144662747151
 31
0.0
  0
LINE
  5
920
330
18
100
AcDbEntity
  8
目盛
100
AcDbLine
 10
346.5507028940341
 20
231.8142735256825
 30
0.0
 11
347.7092652387195
 21
233.4445291171396
 31
0.0
  0
TEXT
  5
921
330
18
100
AcDbEntity
  8
文字
100
AcDbText
 10
355.50800698647
 20
239.7028373726841
 30
0.0
 40
0.7
  1
20
 50
15.0
  7
STYLE3
100
AcDbText
  0
TEXT
  5
922
330
18
100
AcDbEntity
  8
文字
100
AcDbText
 10
356.0547646362095
 20
237.5493237530924
 30
0.0
 40
0.7
  1
30
 50
15.0
  7
STYLE3
100
AcDbText
  0
LINE
  5
923
330
18
100
AcDbEntity
  8
目盛
100
AcDbLine
 10
355.406857677168
 20
237.4162473071107
 30
0.0
 11
355.8261929611407
 21
237.6885668246182
 31
0.0
  0
LINE
  5
924
330
18
100
AcDbEntity
  8
目盛
100
AcDbLine
 10
354.6470525848245
 20
240.2518785155861
 30
0.0
 11
355.1463673522019
 21
240.2257105374646
 31
0.0
  0
HATCH
  5
925
330
18
100
AcDbEntity
  8
ﾊｯﾁﾝｸ
100
AcDbHatch
 10
0.0
 20
0.0
 30
0.0
210
0.0
220
0.0
230
1.0
  2
SOLID
 70
     1
 71
     0
 91
        3
 92
        7
 72
     1
 73
     1
 93
        5
 10
358.3554278237568
 20
244.639125347042
 42
0.0105298176880202
 10
358.1611524106719
 20
244.5914303983052
 42
0.0
 10
358.2905619332231
 20
244.1084674851607
 42
0.0
 10
359.092900973041
 20
241.1140974236645
 42
-0.0437283108272093
 10
359.2906218992838
 20
241.1489335422378
 42
0.0
 97
        0
 92
        7
 72
     1
 73
     1
 93
        4
 10
358.1611524106719
 20
244.5914303983052
 42
0.0105298176880232
 10
357.9690574932412
 20
244.535597729001
 42
0.0
 10
358.9042515687682
 20
241.0454059241968
 42
-0.0437283108272093
 10
359.092900973041
 20
241.1140974236645
 42
0.0
 97
        0
 92
      137
 93
        4
 72
     1
 10
358.0983064625591
 20
242.5327922030271
 11
359.2252199265629
 21
242.8347477556467
 72
     1
 10
359.225219926563
 20
242.8347477556467
 11
358.8369913589092
 21
244.2836364950803
 72
     1
 10
358.8369913589092
 20
244.2836364950803
 11
357.7100778949053
 21
243.9816809424607
 72
     1
 10
357.7100778949053
 20
243.9816809424607
 11
358.0983064625591
 21
242.5327922030271
 97
        0
 75
     0
 76
     1
 47
0.0128177587452554
 98
        3
 10
359.0983843757244
 20
241.6681756392248
 10
358.7121937635951
 20
242.812069064804
 10
358.5519862159154
 20
242.7160617641553
450
        0
451
        0
460
0.0
461
0.0
452
        0
462
0.0
453
        0
470

  0
LINE
  5
926
330
18
100
AcDbEntity
  8
中心線
 48
0.2
100
AcDbLine
 10
357.9690574932412
 20
244.535597729001
 30
0.0
 11
358.9042515687682
 21
241.0454059241968
 31
0.0
  0
LINE
  5
927
330
18
100
AcDbEntity
  8
中心線
 48
0.2
100
AcDbLine
 10
358.3554278237568
 20
244.639125347042
 30
0.0
 11
359.2906218992838
 21
241.1489335422378
 31
0.0
  0
LINE
  5
928
330
18
100
AcDbEntity
  8
目盛
100
AcDbLine
 10
358.1611524106719
 20
244.5914303983052
 30
0.0
 11
358.2905619332231
 21
244.1084674851607
 31
0.0
  0
TEXT
  5
929
330
18
100
AcDbEntity
  8
文字
100
AcDbText
 10
362.3222179548147
 20
239.1132272729105
 30
0.0
 40
0.7
  1
70
 50
15.0
  7
STYLE3
100
AcDbText
  0
TEXT
  5
92A
330
18
100
AcDbEntity
  8
文字
100
AcDbText
 10
361.6767297804595
 20
241.1972116512782
 30
0.0
 40
0.7
  1
80
 50
15.0
  7
STYLE3
100
AcDbText
  0
TEXT
  5
92B
330
18
100
AcDbEntity
  8
文字
100
AcDbText
 10
356.3010966451056
 20
241.7597619976785
 30
0.0
 40
0.7
  1
10
 50
15.0
  7
STYLE3
100
AcDbText
  0
TEXT
  5
92C
330
18
100
AcDbEntity
  8
文字
100
AcDbText
 10
357.7732910997016
 20
236.1494216649184
 30
0.0
 40
0.7
  1
40
 50
15.0
  7
STYLE3
100
AcDbText
  0
TEXT
  5
92D
330
18
100
AcDbEntity
  8
文字
100
AcDbText
 10
359.7608397780516
 20
236.0625508166781
 30
0.0
 40
0.7
  1
50
 50
15.0
  7
STYLE3
100
AcDbText
  0
TEXT
  5
92E
330
18
100
AcDbEntity
  8
文字
100
AcDbText
 10
361.5855130606622
 20
237.2551208348506
 30
0.0
 40
0.7
  1
60
 50
15.0
  7
STYLE3
100
AcDbText
  0
TEXT
  5
92F
330
18
100
AcDbEntity
  8
文字
100
AcDbText
 10
360.121056180718
 20
242.7309259753181
 30
0.0
 40
0.7
  1
90
 50
15.0
  7
STYLE3
100
AcDbText
  0
TEXT
  5
930
330
18
100
AcDbEntity
  8
文字
100
AcDbText
 10
358.2512382417493
 20
242.8539139132991
 30
0.0
 40
0.7
  1
0
 50
15.0
  7
STYLE3
100
AcDbText
  0
CIRCLE
  5
931
330
18
100
AcDbEntity
  8
外形線
100
AcDbCircle
 10
359.3905428749089
 20
240.0032827234322
 30
0.0
 40
1.149999999999999
  0
LINE
  5
932
330
18
100
AcDbEntity
  8
目盛
100
AcDbLine
 10
361.092790635249
 20
244.4377897492938
 30
0.0
 11
360.9136066604764
 21
243.9709995360452
 31
0.0
  0
LINE
  5
933
330
18
100
AcDbEntity
  8
目盛
100
AcDbLine
 10
363.0819861918295
 20
237.0140108659454
 30
0.0
 11
362.693413211101
 21
237.3286710614704
 31
0.0
  0
LINE
  5
934
330
18
100
AcDbEntity
  8
目盛
100
AcDbLine
 10
360.6199333391458
 20
235.4151350485591
 30
0.0
 11
360.4905238165945
 21
235.8980979617036
 31
0.0
  0
LINE
  5
935
330
18
100
AcDbEntity
  8
目盛
100
AcDbLine
 10
363.3742280726495
 20
242.5903181397535
 30
0.0
 11
362.9548927886769
 21
242.3179986222459
 31
0.0
  0
LINE
  5
936
330
18
100
AcDbEntity
  8
目盛
100
AcDbLine
 10
364.134033164993
 20
239.7546869312781
 30
0.0
 11
363.6347183976158
 21
239.7808549093996
 31
0.0
  0
CIRCLE
  5
937
330
18
100
AcDbEntity
  8
外形線
100
AcDbCircle
 10
359.8741698579158
 20
250.5622128274393
 30
0.0
 40
1.5
  0
POINT
  5
938
330
18
100
AcDbEntity
  8
DEFPOINTS
  6
ByBlock
 62
     0
100
AcDbPoint
 10
359.8741698579157
 20
250.5622128274392
 30
0.0
  0
POINT
  5
939
330
18
100
AcDbEntity
  8
DEFPOINTS
  6
ByBlock
 62
     0
100
AcDbPoint
 10
359.8741698579157
 20
250.5622128274392
 30
0.0
  0
HATCH
  5
93A
330
18
100
AcDbEntity
  8
ROGO
 62
     4
100
AcDbHatch
 10
0.0
 20
0.0
 30
0.0
210
0.0
220
0.0
230
1.0
  2
SOLID
 70
     1
 71
     1
 91
        2
 92
        5
 93
        6
 72
     1
 10
350.5605559424852
 20
255.637703162955
 11
351.4818569189634
 21
255.8845650155884
 72
     1
 10
351.4818569189634
 20
255.8845650155884
 11
351.6134942672507
 21
256.6846306998252
 72
     1
 10
351.6134942672507
 20
256.6846306998252
 11
352.4747217204111
 21
256.915395900399
 72
     4
 94
        3
 73
     0
 74
     0
 95
       18
 96
       14
 40
0.108740278791501
 40
0.108740278791501
 40
0.108740278791501
 40
0.108740278791501
 40
0.6623149649549278
 40
1.384304701649787
 40
2.097394834876493
 40
2.774073369849618
 40
3.428974823686337
 40
4.005208313035923
 40
4.455173659284313
 40
4.720999734343524
 40
5.086034088486724
 40
5.569973738255373
 40
6.060470601257719
 40
6.060470601257719
 40
6.060470601257719
 40
6.060470601257719
 10
352.4747217204111
 20
256.915395900399
 10
352.5352125448693
 20
256.9320881314338
 10
352.6745974291799
 20
256.970550901821
 10
352.8420169367627
 20
257.1272857042862
 10
352.9916706910705
 20
257.3099057537007
 10
353.096388133265
 20
257.5160291368606
 10
353.1384685888087
 20
257.7308907289141
 10
353.1040907713236
 20
257.9167978625575
 10
353.0567146949434
 20
258.0584399012973
 10
352.9669975645916
 20
258.1419765850672
 10
352.8743905965987
 20
258.2263415828021
 10
352.7309863379171
 20
258.2824913978496
 10
352.622500452479
 20
258.2948605443347
 10
352.567701116899
 20
258.2997773226332
 72
     1
 10
352.5677011168991
 20
258.2997773226331
 11
351.0101473515391
 21
257.8824320490369
 72
     1
 10
351.0101473515391
 20
257.8824320490369
 11
350.5605559424852
 21
255.637703162955
 97
        6
330
96D
330
941
330
948
330
940
330
946
330
93F
 92
       20
 93
        4
 72
     1
 10
351.6947728776714
 20
257.1786259671723
 11
351.7570018066587
 21
257.5568410504848
 72
     1
 10
351.7570018066587
 20
257.5568410504848
 11
352.1491551342244
 21
257.6619182179152
 72
     4
 94
        3
 73
     0
 74
     0
 95
       15
 96
       11
 40
0.0
 40
0.0
 40
0.0
 40
0.0
 40
0.1539705029175028
 40
0.2241725832587281
 40
0.3038566179396687
 40
0.3581410872474193
 40
0.443992538467216
 40
0.4954152125469665
 40
0.5836396705646186
 40
0.6130478420065743
 40
0.6130478420065743
 40
0.6130478420065743
 40
0.6130478420065743
 10
352.1491551342244
 20
257.6619182179152
 10
352.2049444593592
 20
257.6771411512922
 10
352.286170648121
 20
257.6993049049673
 10
352.3575984271466
 20
257.6106206271099
 10
352.3550193214077
 20
257.540508176983
 10
352.3477786221425
 20
257.4672939164334
 10
352.315601248087
 20
257.410240174835
 10
352.2678258497624
 20
257.3507907688373
 10
352.2130663997966
 20
257.3304710659411
 10
352.1791271007386
 20
257.3110020447016
 10
352.1706422719125
 20
257.3061347870619
 72
     1
 10
352.1706422719125
 20
257.3061347870618
 11
351.6947728776714
 21
257.1786259671723
 97
        4
330
947
330
93E
330
96C
330
93D
 75
     0
 76
     1
 47
0.0514683685270805
 98
        2
 10
351.1836476394166
 20
257.2682196924476
 10
351.1836476394166
 20
257.2682196924476
450
        0
451
        0
460
0.0
461
0.0
452
        0
462
0.0
453
        0
470

  0
HATCH
  5
93B
330
18
100
AcDbEntity
  8
ROGO
 62
     4
100
AcDbHatch
 10
0.0
 20
0.0
 30
0.0
210
0.0
220
0.0
230
1.0
  2
SOLID
 70
     1
 71
     1
 91
        1
 92
        7
 72
     0
 73
     1
 93
        4
 10
351.5185059508421
 20
256.107310559677
 10
351.4818569189634
 20
255.8845650155884
 10
363.2461501568883
 20
259.0367978882132
 10
363.2919781616284
 20
259.2620029306675
 97
        4
330
93C
330
946
330
940
330
978
 75
     0
 76
     1
 47
0.0514683685270805
 98
        1
 10
358.9665771954531
 20
258.0466998711502
450
        0
451
        0
460
0.0
461
0.0
452
        0
462
0.0
453
        0
470

  0
LINE
  5
93C
102
{ACAD_REACTORS
330
93B
102
}
330
18
100
AcDbEntity
  8
ROGO
 62
     4
100
AcDbLine
 10
351.5047285190933
 20
256.1036189079661
 30
0.0
 11
363.2919781616285
 21
259.2620029306675
 31
0.0
  0
LINE
  5
93D
102
{ACAD_REACTORS
330
93A
102
}
330
18
100
AcDbEntity
  8
ROGO
 62
     4
100
AcDbLine
 10
352.1706422719126
 20
257.3061347870619
 30
0.0
 11
351.6947728776714
 21
257.1786259671723
 31
0.0
  0
LINE
  5
93E
102
{ACAD_REACTORS
330
93A
102
}
330
18
100
AcDbEntity
  8
ROGO
 62
     4
100
AcDbLine
 10
352.1491551342245
 20
257.6619182179152
 30
0.0
 11
351.7570018066586
 21
257.5568410504847
 31
0.0
  0
LINE
  5
93F
102
{ACAD_REACTORS
330
93A
102
}
330
18
100
AcDbEntity
  8
ROGO
 62
     4
100
AcDbLine
 10
352.4747217207096
 20
256.915395900479
 30
0.0
 11
351.6134942672507
 21
256.6846306998252
 31
0.0
  0
LINE
  5
940
102
{ACAD_REACTORS
330
93B
330
8E4
330
93A
102
}
330
18
100
AcDbEntity
  8
ROGO
 62
     4
100
AcDbLine
 10
350.5605559424851
 20
255.637703162955
 30
0.0
 11
363.9764709706104
 21
259.2324867604657
 31
0.0
  0
LINE
  5
941
102
{ACAD_REACTORS
330
93A
102
}
330
18
100
AcDbEntity
  8
ROGO
 62
     4
100
AcDbLine
 10
351.0101473515391
 20
257.8824320490369
 30
0.0
 11
352.567701116899
 21
258.2997773226331
 31
0.0
  0
TEXT
  5
942
330
18
100
AcDbEntity
  8
文字
100
AcDbText
 10
344.9285219700189
 20
261.0694119701156
 30
0.0
 40
2.0
  1
9
 50
15.0
  7
STYLE3
100
AcDbText
  0
LINE
  5
943
330
18
100
AcDbEntity
  8
目盛
100
AcDbLine
 10
340.3266379192179
 20
262.6821961238629
 30
0.0
 11
342.0264233051917
 21
261.6282845328695
 31
0.0
  0
LINE
  5
944
330
18
100
AcDbEntity
  8
目盛
100
AcDbLine
 10
338.9617393498332
 20
260.1366710494285
 30
0.0
 11
340.7802115679273
 21
259.3041094649076
 31
0.0
  0
LINE
  5
945
330
18
100
AcDbEntity
  8
目盛
100
AcDbLine
 10
339.6041904604209
 20
261.4308804194275
 30
0.0
 11
341.3667973645508
 21
260.4857788896894
 31
0.0
  0
LINE
  5
946
102
{ACAD_REACTORS
330
93B
330
93A
102
}
330
18
100
AcDbEntity
  8
ROGO
 62
     4
100
AcDbLine
 10
351.6134942672507
 20
256.6846306998252
 30
0.0
 11
351.4818569189634
 21
255.8845650155883
 31
0.0
  0
LINE
  5
947
102
{ACAD_REACTORS
330
93A
102
}
330
18
100
AcDbEntity
  8
ROGO
 62
     4
100
AcDbLine
 10
351.7570018066586
 20
257.5568410504847
 30
0.0
 11
351.6947728776714
 21
257.1786259671723
 31
0.0
  0
LINE
  5
948
102
{ACAD_REACTORS
330
93A
102
}
330
18
100
AcDbEntity
  8
ROGO
 62
     4
100
AcDbLine
 10
351.0101473515391
 20
257.8824320490369
 30
0.0
 11
350.5605559424851
 21
255.6377031629549
 31
0.0
  0
LINE
  5
949
330
18
100
AcDbEntity
  8
目盛
100
AcDbLine
 10
341.9998127444054
 20
265.0365818215855
 30
0.0
 11
344.3312506287763
 21
263.148620648436
 31
0.0
  0
LINE
  5
94A
330
18
100
AcDbEntity
  8
目盛
100
AcDbLine
 10
342.9439368541618
 20
266.1303601301404
 30
0.0
 11
344.4161310284013
 21
264.7766081907751
 31
0.0
  0
LINE
  5
94B
330
18
100
AcDbEntity
  8
目盛
100
AcDbLine
 10
341.126230556159
 20
263.8856797913209
 30
0.0
 11
342.756486147616
 21
262.7271174466355
 31
0.0
  0
LINE
  5
94C
330
18
100
AcDbEntity
  8
目盛
100
AcDbLine
 10
343.9548768588963
 20
267.1626980737016
 30
0.0
 11
345.3391632066372
 21
265.7191776175048
 31
0.0
  0
LINE
  5
94D
330
18
100
AcDbEntity
  8
目盛
100
AcDbLine
 10
345.0286430402648
 20
268.1295214860359
 30
0.0
 11
346.3195584157127
 21
266.6019294287667
 31
0.0
  0
LINE
  5
94E
330
18
100
AcDbEntity
  8
目盛
100
AcDbLine
 10
346.1609977337066
 20
269.0270147568349
 30
0.0
 11
347.3534474836378
 21
267.4213798064526
 31
0.0
  0
LINE
  5
94F
330
18
100
AcDbEntity
  8
目盛
100
AcDbLine
 10
347.3474720525701
 20
269.851635890184
 30
0.0
 11
348.9813891576151
 21
267.3356241863477
 31
0.0
  0
HATCH
  5
950
330
18
100
AcDbEntity
  8
ROGO
 62
     4
100
AcDbHatch
 10
0.0
 20
0.0
 30
0.0
210
0.0
220
0.0
230
1.0
  2
SOLID
 70
     1
 71
     1
 91
        1
 92
        5
 93
        8
 72
     1
 10
359.2419344509137
 20
259.5823226406765
 11
359.3508000966127
 21
260.1173032164278
 72
     1
 10
359.3508000966127
 20
260.1173032164278
 11
358.0805725312637
 21
259.7769467660888
 72
     4
 94
        3
 73
     0
 74
     0
 95
       26
 96
       22
 40
0.0
 40
0.0
 40
0.0
 40
0.0
 40
0.2382195346591896
 40
0.397689067266058
 40
0.5126795869787669
 40
0.5985392873135731
 40
0.7099038249249733
 40
0.7911890807494741
 40
0.9379713068543702
 40
1.057449928673087
 40
1.138714535893316
 40
1.218398644003506
 40
1.36093802187036
 40
1.461730374800257
 40
1.516014844108008
 40
1.593124329220501
 40
1.648806818593631
 40
1.729472362005518
 40
1.775122082164342
 40
1.874460993765092
 40
1.919820003751207
 40
1.919820003751207
 40
1.919820003751207
 40
1.919820003751207
 10
358.0805725312635
 20
259.7769467660887
 10
358.0037207567715
 20
259.7513602526309
 10
357.8754226700541
 20
259.7086455496316
 10
357.7555664688676
 20
259.58331856478
 10
357.6642270118876
 20
259.5046550956914
 10
357.6078382937635
 20
259.415880271305
 10
357.5720286283178
 20
259.3301940067028
 10
357.5255675404762
 20
259.227082815549
 10
357.4955898392226
 20
259.1134781075157
 10
357.4959733859575
 20
258.9972219014931
 10
357.4937304035998
 20
258.9038821163283
 10
357.5007091292877
 20
258.8024067927515
 10
357.5334193452996
 20
258.6995222248642
 10
357.5662136903726
 20
258.6046153413
 10
357.6153957450741
 20
258.5437715695599
 10
357.6635055411407
 20
258.5039639420953
 10
357.7207935651746
 20
258.4612725470626
 10
357.7772118234216
 20
258.4379489605187
 10
357.8333354346896
 20
258.383349120418
 10
357.9033247109951
 20
258.3932163645948
 10
357.9508221640491
 20
258.3882568280523
 10
357.9657113720196
 20
258.3867021431952
 72
     1
 10
357.9657113720195
 20
258.3867021431952
 11
359.0582015078948
 21
258.6794339928419
 72
     1
 10
359.0582015078948
 20
258.6794339928419
 11
359.1670660007363
 21
259.2144089032951
 72
     1
 10
359.1670660007363
 20
259.2144089032951
 11
358.3559964168312
 21
258.9970834632822
 72
     4
 94
        3
 73
     0
 74
     0
 95
       16
 96
       12
 40
0.0
 40
0.0
 40
0.0
 40
0.0
 40
0.0719416665231651
 40
0.1446253590759065
 40
0.1879779149910977
 40
0.2295440936104405
 40
0.2751936323958134
 40
0.3070718656052443
 40
0.3373215422372259
 40
0.3986635435212919
 40
0.5242542460842631
 40
0.5242542460842631
 40
0.5242542460842631
 40
0.5242542460842631
 10
358.3559964168312
 20
258.9970834632823
 10
358.329603034214
 20
258.9977260405752
 10
358.2765440404108
 20
258.9990178228789
 10
358.2536325648496
 20
259.0680601458974
 10
358.2458469476929
 20
259.1195469201483
 10
358.2595805927808
 20
259.1622310564467
 10
358.2809764315175
 20
259.1963447540929
 10
358.2823445434949
 20
259.2336727627623
 10
358.3065495438249
 20
259.2680689725793
 10
358.3501162808228
 20
259.3266562954394
 10
358.4087652543942
 20
259.3523627999614
 10
358.4481685564588
 20
259.369633710278
 72
     1
 10
358.4481685564587
 20
259.3696337102779
 11
359.2419344509137
 21
259.5823226406765
 97
        8
330
981
330
951
330
952
330
982
330
984
330
983
330
985
330
986
 75
     0
 76
     1
 47
0.0514683685270805
 98
        1
 10
358.6004765004172
 20
259.6136211739864
450
        0
451
        0
460
0.0
461
0.0
452
        0
462
0.0
453
        0
470

  0
SPLINE
  5
951
102
{ACAD_REACTORS
330
950
102
}
330
18
100
AcDbEntity
  8
ROGO
 62
     4
100
AcDbSpline
210
0.0
220
0.0
230
1.0
 70
     8
 71
     3
 72
    26
 73
    22
 74
    20
 42
0.0000000001
 43
0.0000000001
 44
0.0000000001
 40
0.0
 40
0.0
 40
0.0
 40
0.0
 40
0.2382195346591815
 40
0.397689067266068
 40
0.5126795869787703
 40
0.5985392873135679
 40
0.7099038249249562
 40
0.791189080749439
 40
0.9379713068543329
 40
1.057449928673073
 40
1.138714535893329
 40
1.218398644003517
 40
1.360938021870299
 40
1.461730374800204
 40
1.516014844107981
 40
1.593124329220507
 40
1.648806818593624
 40
1.729472362005491
 40
1.775122082164309
 40
1.874460993765094
 40
1.919820003751196
 40
1.919820003751196
 40
1.919820003751196
 40
1.919820003751196
 10
358.0805725312635
 20
259.7769467660887
 30
0.0
 10
358.0037207567715
 20
259.7513602526309
 30
0.0
 10
357.8754226700541
 20
259.7086455496315
 30
0.0
 10
357.7555664688678
 20
259.58331856478
 30
0.0
 10
357.6642270118875
 20
259.5046550956914
 30
0.0
 10
357.6078382937635
 20
259.4158802713051
 30
0.0
 10
357.5720286283178
 20
259.3301940067028
 30
0.0
 10
357.5255675404762
 20
259.2270828155491
 30
0.0
 10
357.4955898392226
 20
259.1134781075157
 30
0.0
 10
357.4959733859576
 20
258.9972219014931
 30
0.0
 10
357.4937304035998
 20
258.9038821163283
 30
0.0
 10
357.5007091292877
 20
258.8024067927516
 30
0.0
 10
357.5334193452996
 20
258.6995222248642
 30
0.0
 10
357.5662136903727
 20
258.6046153413001
 30
0.0
 10
357.6153957450741
 20
258.5437715695598
 30
0.0
 10
357.6635055411407
 20
258.5039639420953
 30
0.0
 10
357.7207935651746
 20
258.4612725470626
 30
0.0
 10
357.7772118234216
 20
258.4379489605187
 30
0.0
 10
357.8333354346896
 20
258.383349120418
 30
0.0
 10
357.9033247109951
 20
258.3932163645948
 30
0.0
 10
357.950822164049
 20
258.3882568280523
 30
0.0
 10
357.9657113720196
 20
258.3867021431952
 30
0.0
 11
358.0805725312635
 21
259.7769467660887
 31
0.0
 11
357.8626921877174
 21
259.6806311256691
 31
0.0
 11
357.7433415737281
 21
259.5748674136964
 31
0.0
 11
357.6616409252807
 21
259.493948789962
 31
0.0
 11
357.6143895777193
 21
259.4222605880371
 31
0.0
 11
357.5676266478249
 21
259.3211898770221
 31
0.0
 11
357.5359993000184
 21
259.2463099485688
 31
0.0
 11
357.5003035817283
 21
259.1039342568371
 31
0.0
 11
357.4953682977721
 21
258.9845576090203
 31
0.0
 11
357.4949894659246
 21
258.9032938848065
 31
0.0
 11
357.5015001652848
 21
258.8238762049162
 31
0.0
 11
357.5383920709537
 21
258.6861937385716
 31
0.0
 11
357.5779962837477
 21
258.5935082233163
 31
0.0
 11
357.6115778788059
 21
258.5508575482763
 31
0.0
 11
357.6695180023016
 21
258.4999771514262
 31
0.0
 11
357.7150348508342
 21
258.4679029231042
 31
0.0
 11
357.7849098316264
 21
258.4275988668168
 31
0.0
 11
357.8216921514763
 21
258.400562633776
 31
0.0
 11
357.9204829653057
 21
258.3901417671635
 31
0.0
 11
357.9657113720196
 21
258.3867021431952
 31
0.0
  0
LINE
  5
952
102
{ACAD_REACTORS
330
950
102
}
330
18
100
AcDbEntity
  8
ROGO
 62
     4
100
AcDbLine
 10
357.9657113720195
 20
258.3867021431952
 30
0.0
 11
359.0582015078947
 21
258.6794339928419
 31
0.0
  0
HATCH
  5
953
330
18
100
AcDbEntity
  8
ROGO
 62
     4
100
AcDbHatch
 10
0.0
 20
0.0
 30
0.0
210
0.0
220
0.0
230
1.0
  2
SOLID
 70
     1
 71
     1
 91
        2
 92
        7
 72
     0
 73
     1
 93
        8
 10
356.7150049677012
 20
259.4110440402221
 10
355.7003931156682
 20
259.1391796138387
 10
355.125591707434
 20
257.6256943726618
 10
355.8280586099406
 20
257.813919811898
 10
355.9374972416585
 20
258.1020780375857
 10
356.7390968577683
 20
258.3168660073753
 10
356.9110873424186
 20
258.1041164861451
 10
357.6183456914304
 20
258.2936257896031
 97
        8
330
95A
330
960
330
95B
330
95C
330
95E
330
954
330
959
330
956
 92
       22
 72
     0
 73
     1
 93
        3
 10
356.5576933072627
 20
258.5412593428436
 10
356.0529254666351
 20
258.4060072075824
 10
356.2492132655891
 20
258.9228442968518
 97
        3
330
95D
330
95F
330
955
 75
     0
 76
     1
 47
0.0128389261915577
 98
        2
 10
356.7170916907768
 20
259.0854477836818
 10
356.7170916907768
 20
259.0854477836818
450
        0
451
        0
460
0.0
461
0.0
452
        0
462
0.0
453
        0
470

  0
LINE
  5
954
102
{ACAD_REACTORS
330
953
102
}
330
18
100
AcDbEntity
  8
ROGO
 62
     4
100
AcDbLine
 10
356.7390968577683
 20
258.3168660073753
 30
0.0
 11
356.9110873424186
 21
258.1041164861451
 31
0.0
  0
LINE
  5
955
102
{ACAD_REACTORS
330
953
102
}
330
18
100
AcDbEntity
  8
ROGO
 62
     4
100
AcDbLine
 10
356.2492132655891
 20
258.9228442968517
 30
0.0
 11
356.5576933072627
 21
258.5412593428436
 31
0.0
  0
LINE
  5
956
102
{ACAD_REACTORS
330
953
102
}
330
18
100
AcDbEntity
  8
ROGO
 62
     4
100
AcDbLine
 10
356.7150049677012
 20
259.4110440402221
 30
0.0
 11
357.6183456914304
 21
258.293625789603
 31
0.0
  0
HATCH
  5
957
330
18
100
AcDbEntity
  8
ROGO
 62
     4
100
AcDbHatch
 10
0.0
 20
0.0
 30
0.0
210
0.0
220
0.0
230
1.0
  2
SOLID
 70
     1
 71
     1
 91
        1
 92
        1
 93
       12
 72
     1
 10
353.4878652346788
 20
258.5463345548963
 11
355.2034298174362
 21
259.0060186994096
 72
     1
 10
355.2034298174362
 20
259.0060186994096
 11
355.1375203959357
 21
258.6769448351676
 72
     1
 10
355.1375203959357
 20
258.6769448351676
 11
354.2358630025933
 21
258.4353464647719
 72
     1
 10
354.2358630025933
 20
258.4353464647719
 11
354.1843300252613
 21
258.1780515955341
 72
     1
 10
354.1843300252613
 20
258.1780515955341
 11
355.0859874186036
 21
258.4196499659297
 72
     1
 10
355.0859874186036
 20
258.4196499659297
 11
355.033145177959
 21
258.1558181809106
 72
     1
 10
355.033145177959
 20
258.1558181809106
 11
354.1314877846168
 21
257.914219810515
 72
     1
 10
354.1314877846168
 20
257.914219810515
 11
354.0799526256262
 21
257.6569140486492
 72
     1
 10
354.0799526256263
 20
257.6569140486492
 11
354.9816100189686
 21
257.8985124190449
 72
     1
 10
354.9816100189686
 20
257.8985124190449
 11
354.9157039127852
 21
257.5694551075844
 72
     1
 10
354.9157039127852
 20
257.5694551075844
 11
353.2001393300278
 21
257.1097709630711
 72
     1
 10
353.2001393300278
 20
257.1097709630711
 11
353.4878652346788
 21
258.5463345548963
 97
       12
330
958
330
96A
330
967
330
968
330
966
330
963
330
964
330
961
330
965
330
962
330
969
330
96B
 75
     0
 76
     1
 98
        1
 10
306.8135058872111
 20
152.0388715953058
450
        0
451
        0
460
0.0
461
0.0
452
        0
462
0.0
453
        0
470

  0
LINE
  5
958
102
{ACAD_REACTORS
330
957
102
}
330
18
100
AcDbEntity
  8
ROGO
 62
     4
100
AcDbLine
 10
353.4878652346788
 20
258.5463345548963
 30
0.0
 11
355.2034298174362
 21
259.0060186994096
 31
0.0
  0
LINE
  5
959
102
{ACAD_REACTORS
330
953
102
}
330
18
100
AcDbEntity
  8
ROGO
 62
     4
100
AcDbLine
 10
357.6183456914304
 20
258.2936257896031
 30
0.0
 11
356.9110873424186
 21
258.1041164861451
 31
0.0
  0
LINE
  5
95A
102
{ACAD_REACTORS
330
953
102
}
330
18
100
AcDbEntity
  8
ROGO
 62
     4
100
AcDbLine
 10
355.7003931156683
 20
259.1391796138388
 30
0.0
 11
356.7150049677012
 21
259.4110440402221
 31
0.0
  0
LINE
  5
95B
102
{ACAD_REACTORS
330
953
102
}
330
18
100
AcDbEntity
  8
ROGO
 62
     4
100
AcDbLine
 10
355.1255917074339
 20
257.6256943726617
 30
0.0
 11
355.8280586099406
 21
257.813919811898
 31
0.0
  0
LINE
  5
95C
102
{ACAD_REACTORS
330
953
102
}
330
18
100
AcDbEntity
  8
ROGO
 62
     4
100
AcDbLine
 10
355.9374972416585
 20
258.1020780375857
 30
0.0
 11
355.8280586099406
 21
257.813919811898
 31
0.0
  0
LINE
  5
95D
102
{ACAD_REACTORS
330
953
102
}
330
18
100
AcDbEntity
  8
ROGO
 62
     4
100
AcDbLine
 10
356.0529254666352
 20
258.4060072075824
 30
0.0
 11
356.5576933072627
 21
258.5412593428437
 31
0.0
  0
LINE
  5
95E
102
{ACAD_REACTORS
330
953
102
}
330
18
100
AcDbEntity
  8
ROGO
 62
     4
100
AcDbLine
 10
355.9374972416585
 20
258.1020780375857
 30
0.0
 11
356.7390968577683
 21
258.3168660073753
 31
0.0
  0
LINE
  5
95F
102
{ACAD_REACTORS
330
953
102
}
330
18
100
AcDbEntity
  8
ROGO
 62
     4
100
AcDbLine
 10
356.249213265589
 20
258.9228442968517
 30
0.0
 11
356.0529254666352
 21
258.4060072075823
 31
0.0
  0
LINE
  5
960
102
{ACAD_REACTORS
330
953
102
}
330
18
100
AcDbEntity
  8
ROGO
 62
     4
100
AcDbLine
 10
355.7003931156683
 20
259.1391796138388
 30
0.0
 11
355.1255917074339
 21
257.6256943726617
 31
0.0
  0
LINE
  5
961
102
{ACAD_REACTORS
330
957
102
}
330
18
100
AcDbEntity
  8
ROGO
 62
     4
100
AcDbLine
 10
354.1314877846168
 20
257.914219810515
 30
0.0
 11
354.0799526256262
 21
257.6569140486492
 31
0.0
  0
LINE
  5
962
102
{ACAD_REACTORS
330
957
102
}
330
18
100
AcDbEntity
  8
ROGO
 62
     4
100
AcDbLine
 10
354.9816100189686
 20
257.8985124190449
 30
0.0
 11
354.9157039127852
 21
257.5694551075844
 31
0.0
  0
LINE
  5
963
102
{ACAD_REACTORS
330
957
102
}
330
18
100
AcDbEntity
  8
ROGO
 62
     4
100
AcDbLine
 10
355.0859874186036
 20
258.4196499659297
 30
0.0
 11
355.033145177959
 21
258.1558181809106
 31
0.0
  0
LINE
  5
964
102
{ACAD_REACTORS
330
957
102
}
330
18
100
AcDbEntity
  8
ROGO
 62
     4
100
AcDbLine
 10
354.1314877846168
 20
257.914219810515
 30
0.0
 11
355.033145177959
 21
258.1558181809106
 31
0.0
  0
LINE
  5
965
102
{ACAD_REACTORS
330
957
102
}
330
18
100
AcDbEntity
  8
ROGO
 62
     4
100
AcDbLine
 10
354.0799526256263
 20
257.6569140486492
 30
0.0
 11
354.9816100189686
 21
257.8985124190449
 31
0.0
  0
LINE
  5
966
102
{ACAD_REACTORS
330
957
102
}
330
18
100
AcDbEntity
  8
ROGO
 62
     4
100
AcDbLine
 10
354.1843300252613
 20
258.1780515955341
 30
0.0
 11
355.0859874186036
 21
258.4196499659297
 31
0.0
  0
LINE
  5
967
102
{ACAD_REACTORS
330
957
102
}
330
18
100
AcDbEntity
  8
ROGO
 62
     4
100
AcDbLine
 10
354.2358630025933
 20
258.4353464647719
 30
0.0
 11
355.1375203959357
 21
258.6769448351676
 31
0.0
  0
LINE
  5
968
102
{ACAD_REACTORS
330
957
102
}
330
18
100
AcDbEntity
  8
ROGO
 62
     4
100
AcDbLine
 10
354.2358630025933
 20
258.4353464647719
 30
0.0
 11
354.1843300252613
 21
258.1780515955341
 31
0.0
  0
LINE
  5
969
102
{ACAD_REACTORS
330
957
102
}
330
18
100
AcDbEntity
  8
ROGO
 62
     4
100
AcDbLine
 10
353.2001393300278
 20
257.1097709630711
 30
0.0
 11
354.9157039127852
 21
257.5694551075844
 31
0.0
  0
LINE
  5
96A
102
{ACAD_REACTORS
330
957
102
}
330
18
100
AcDbEntity
  8
ROGO
 62
     4
100
AcDbLine
 10
355.2034298174362
 20
259.0060186994096
 30
0.0
 11
355.1375203959357
 21
258.6769448351676
 31
0.0
  0
LINE
  5
96B
102
{ACAD_REACTORS
330
957
102
}
330
18
100
AcDbEntity
  8
ROGO
 62
     4
100
AcDbLine
 10
353.4878652346788
 20
258.5463345548963
 30
0.0
 11
353.2001393300278
 21
257.1097709630711
 31
0.0
  0
SPLINE
  5
96C
102
{ACAD_REACTORS
330
93A
102
}
330
18
100
AcDbEntity
  8
ROGO
 62
     4
100
AcDbSpline
210
0.0
220
0.0
230
1.0
 70
     8
 71
     3
 72
    15
 73
    11
 74
     9
 42
0.0000000001
 43
0.0000000001
 44
0.0000000001
 40
0.0
 40
0.0
 40
0.0
 40
0.0
 40
0.1539705029175106
 40
0.2241725832587665
 40
0.3038566179396829
 40
0.3581410872474589
 40
0.4439925384672677
 40
0.4954152125470064
 40
0.5836396705646667
 40
0.6130478420066345
 40
0.6130478420066345
 40
0.6130478420066345
 40
0.6130478420066345
 10
352.1491551342244
 20
257.6619182179152
 30
0.0
 10
352.2049444593593
 20
257.6771411512922
 30
0.0
 10
352.286170648121
 20
257.6993049049673
 30
0.0
 10
352.3575984271465
 20
257.6106206271099
 30
0.0
 10
352.3550193214077
 20
257.540508176983
 30
0.0
 10
352.3477786221425
 20
257.4672939164334
 30
0.0
 10
352.315601248087
 20
257.410240174835
 30
0.0
 10
352.2678258497623
 20
257.3507907688374
 30
0.0
 10
352.2130663997966
 20
257.330471065941
 30
0.0
 10
352.1791271007385
 20
257.3110020447016
 30
0.0
 10
352.1706422719125
 20
257.3061347870619
 30
0.0
 11
352.1491551342244
 21
257.6619182179152
 31
0.0
 11
352.3030642387413
 21
257.666266012238
 31
0.0
 11
352.3472249036436
 21
257.6116934205858
 31
0.0
 11
352.3537359991816
 21
257.532275846851
 31
0.0
 11
352.3459788222816
 21
257.4785484812486
 31
0.0
 11
352.3074615470895
 21
257.4018224023164
 31
0.0
 11
352.2735011803192
 21
257.3632091287134
 31
0.0
 11
352.1963569839803
 21
257.320403428582
 31
0.0
 11
352.1706422719125
 21
257.3061347870619
 31
0.0
  0
SPLINE
  5
96D
102
{ACAD_REACTORS
330
93A
102
}
330
18
100
AcDbEntity
  8
ROGO
 62
     4
100
AcDbSpline
210
0.0
220
0.0
230
1.0
 70
     8
 71
     3
 72
    18
 73
    14
 74
     0
 42
0.0000000001
 43
0.0000000001
 40
0.1087402787915014
 40
0.1087402787915014
 40
0.1087402787915014
 40
0.1087402787915014
 40
0.5992371417938475
 40
1.083176791562496
 40
1.448211145705696
 40
1.714037220764907
 40
2.164002567013297
 40
2.740236056362883
 40
3.395137510199602
 40
4.071816045172726
 40
4.784906178399433
 40
5.506895915094292
 40
6.060470601257719
 40
6.060470601257719
 40
6.060470601257719
 40
6.060470601257719
 10
352.567701116899
 20
258.2997773226332
 30
0.0
 10
352.622500452479
 20
258.2948605443347
 30
0.0
 10
352.7309863379171
 20
258.2824913978496
 30
0.0
 10
352.8743905965987
 20
258.2263415828021
 30
0.0
 10
352.9669975645916
 20
258.1419765850672
 30
0.0
 10
353.0567146949434
 20
258.0584399012973
 30
0.0
 10
353.1040907713236
 20
257.9167978625575
 30
0.0
 10
353.1384685888087
 20
257.7308907289141
 30
0.0
 10
353.096388133265
 20
257.5160291368606
 30
0.0
 10
352.9916706910705
 20
257.3099057537007
 30
0.0
 10
352.8420169367627
 20
257.1272857042862
 30
0.0
 10
352.6745974291799
 20
256.970550901821
 30
0.0
 10
352.5352125448693
 20
256.9320881314338
 30
0.0
 10
352.4747217204111
 20
256.915395900399
 30
0.0
  0
HATCH
  5
96E
330
18
100
AcDbEntity
  8
ROGO
 62
     4
100
AcDbHatch
 10
0.0
 20
0.0
 30
0.0
210
0.0
220
0.0
230
1.0
  2
SOLID
 70
     1
 71
     1
 91
        2
 92
        5
 93
        6
 72
     4
 94
        3
 73
     0
 74
     0
 95
       38
 96
       34
 40
0.0
 40
0.0
 40
0.0
 40
0.0
 40
0.1807680148264315
 40
0.2375392910068956
 40
0.3104865209606157
 40
0.3712759982447458
 40
0.422566754387306
 40
0.490692583720658
 40
0.5255021974951946
 40
0.5647069597052371
 40
0.622487401681883
 40
0.6879401044674746
 40
0.7303986317551266
 40
0.7765228362185534
 40
0.8277951442290254
 40
0.9056034697002209
 40
0.9795294930264187
 40
1.013897332332996
 40
1.053089255536027
 40
1.099518741889647
 40
1.132570569820733
 40
1.160277520290299
 40
1.19983678629386
 40
1.243305643169139
 40
1.286774258016964
 40
1.324809356515675
 40
1.411916492917645
 40
1.446284332224223
 40
1.5150200516612
 40
1.575779369908399
 40
1.69209852953623
 40
1.835624328519098
 40
2.042896467983898
 40
2.042896467983898
 40
2.042896467983898
 40
2.042896467983898
 10
360.0537600577899
 20
260.3113312048806
 10
359.9966595071411
 20
260.2916243820827
 10
359.921626187058
 20
260.2657285137238
 10
359.8316422639996
 20
260.2131010988004
 10
359.7871979588733
 20
260.1672201927672
 10
359.7383488670219
 20
260.1291600032505
 10
359.7006222336515
 20
260.0820739131645
 10
359.65787561633
 20
260.0515659610341
 10
359.6331970281698
 20
260.0105955304714
 10
359.5999387912949
 20
259.980696771686
 10
359.5810204253573
 20
259.9286520638492
 10
359.5577288321014
 20
259.8784906660843
 10
359.5259843360223
 20
259.8379247958348
 10
359.5017712765634
 20
259.7977645901184
 10
359.4848283727139
 20
259.7412582208984
 10
359.4843738072616
 20
259.672088287697
 10
359.4453323146779
 20
259.6180326504069
 10
359.4509162959727
 20
259.567115275976
 10
359.4310236790566
 20
259.530861924681
 10
359.4289913907451
 20
259.4904000425762
 10
359.4335596189306
 20
259.4550527685572
 10
359.4366077757735
 20
259.4217144318977
 10
359.4312277773966
 20
259.3843432220201
 10
359.4470113619999
 20
259.3441898421394
 10
359.456420189655
 20
259.3037338058954
 10
359.4717112194429
 20
259.2498105692808
 10
359.4829972524112
 20
259.1963446040503
 10
359.5209857052755
 20
259.1450490079242
 10
359.5480703770887
 20
259.0975102481963
 10
359.6036971179001
 20
259.0365435769367
 10
359.6888176752092
 20
258.97181189605
 10
359.8356296780083
 20
258.9048934855888
 10
359.9539463204501
 20
258.9258171001658
 10
360.0238547803509
 20
258.9381800073649
 72
     1
 10
360.0238547803509
 20
258.9381800073649
 11
360.7487375096028
 21
259.1324117492752
 72
     4
 94
        3
 73
     0
 74
     0
 95
       11
 96
        7
 40
0.1647869275458135
 40
0.1647869275458135
 40
0.1647869275458135
 40
0.1647869275458135
 40
0.2545010798212315
 40
0.5111620267764023
 40
0.7602998271033902
 40
0.8850764140209603
 40
0.8850764140209603
 40
0.8850764140209603
 40
0.8850764140209603
 10
360.748737509603
 20
259.1324117492753
 10
360.7589048223043
 20
259.1349271375749
 10
360.7981595425076
 20
259.1446387365783
 10
360.8623325018586
 20
259.1721105298807
 10
360.9300921297483
 20
259.2001146227666
 10
360.9701633398574
 20
259.218023639846
 10
360.9826585278723
 20
259.2253999053448
 72
     4
 94
        3
 73
     0
 74
     0
 95
        9
 96
        5
 40
0.0
 40
0.0
 40
0.0
 40
0.0
 40
0.1135793343552172
 40
0.2662938392177403
 40
0.2662938392177403
 40
0.2662938392177403
 40
0.2662938392177403
 10
360.9826585278723
 20
259.2253999053448
 10
361.0150112749338
 20
259.245624902226
 10
361.0908643099346
 20
259.2930436698937
 10
361.1448168758437
 20
259.3647637414338
 10
361.1757576569488
 20
259.4058938526151
 72
     4
 94
        3
 73
     0
 74
     0
 95
       25
 96
       21
 40
0.0
 40
0.0
 40
0.0
 40
0.0
 40
0.165525918914855
 40
0.3412380755365305
 40
0.5940540902285263
 40
0.7697671103696209
 40
0.9377330196075423
 40
1.11479469302833
 40
1.274661249598185
 40
1.574522170874768
 40
1.815540668866877
 40
2.15849091873445
 40
2.536227739636605
 40
2.738070817316548
 40
2.925680654369045
 40
3.162706124480894
 40
3.395643218188267
 40
3.648478129958861
 40
3.928509979727306
 40
4.337226830236035
 40
4.337226830236035
 40
4.337226830236035
 40
4.337226830236035
 10
361.1757576569488
 20
259.4058938526151
 10
361.1869576396311
 20
259.4216357577955
 10
361.2066667702094
 20
259.4572194647865
 10
361.2427823829524
 20
259.5160104766804
 10
361.2711227756943
 20
259.580825809429
 10
361.31213540042
 20
259.6381911678592
 10
361.3253477100196
 20
259.6984295651751
 10
361.3536757196587
 20
259.7506119352201
 10
361.3695726583064
 20
259.8237393023005
 10
361.3778913351004
 20
259.9050755653864
 10
361.3788978027308
 20
260.0084600841316
 10
361.3600799430592
 20
260.1197467167579
 10
361.3167503904841
 20
260.2206847146407
 10
361.2590175893126
 20
260.2893412773514
 10
361.2145076701131
 20
260.3475252479542
 10
361.1569568923115
 20
260.3985114261692
 10
361.092183345216
 20
260.4533802134865
 10
361.011431475964
 20
260.4914844235855
 10
360.9074016092789
 20
260.5356677112215
 10
360.8265949986283
 20
260.516774528325
 10
360.778642787042
 20
260.505562946791
 72
     1
 10
360.7786427870421
 20
260.505562946791
 11
360.05376005779
 21
260.3113312048807
 97
        6
330
974
330
973
330
975
330
972
330
971
330
970
 92
       20
 93
        1
 72
     3
 10
360.3957427047
 20
259.701362660642
 11
0.1316323899894454
 21
0.1975804523199256
 40
0.6788083417438794
 50
0.0
 51
360.0
 73
     1
 97
        1
330
96F
 75
     0
 76
     1
 47
0.088756267210375
 98
        2
 10
360.3652509521132
 20
260.0177383239887
 10
360.3652509521132
 20
260.0177383239887
450
        0
451
        0
460
0.0
461
0.0
452
        0
462
0.0
453
        0
470

  0
ELLIPSE
  5
96F
102
{ACAD_REACTORS
330
96E
102
}
330
18
100
AcDbEntity
  8
ROGO
 62
     4
100
AcDbEllipse
 10
360.3957427047
 20
259.701362660642
 30
0.0
 11
0.1316323899894454
 21
0.1975804523199256
 31
0.0
210
0.0
220
0.0
230
1.0
 40
0.6788083417438792
 41
0.0
 42
6.283185307179586
  0
SPLINE
  5
970
102
{ACAD_REACTORS
330
96E
102
}
330
18
100
AcDbEntity
  8
ROGO
 62
     4
100
AcDbSpline
210
0.0
220
0.0
230
1.0
 70
     8
 71
     3
 72
     9
 73
     5
 74
     3
 42
0.0000000001
 43
0.0000000001
 44
0.0000000001
 40
0.0
 40
0.0
 40
0.0
 40
0.0
 40
0.1135793343552436
 40
0.2662938392177736
 40
0.2662938392177736
 40
0.2662938392177736
 40
0.2662938392177736
 10
360.9826585278723
 20
259.2253999053448
 30
0.0
 10
361.0150112749337
 20
259.245624902226
 30
0.0
 10
361.0908643099346
 20
259.2930436698937
 30
0.0
 10
361.1448168758436
 20
259.3647637414337
 30
0.0
 10
361.1757576569488
 20
259.4058938526151
 30
0.0
 11
360.9826585278723
 21
259.2253999053448
 31
0.0
 11
361.0757326728471
 21
259.2904957479909
 31
0.0
 11
361.1757576569488
 21
259.4058938526151
 31
0.0
  0
SPLINE
  5
971
102
{ACAD_REACTORS
330
96E
102
}
330
18
100
AcDbEntity
  8
ROGO
 62
     4
100
AcDbSpline
210
0.0
220
0.0
230
1.0
 70
     8
 71
     3
 72
    11
 73
     7
 74
     0
 42
0.0000000001
 43
0.0000000001
 40
0.1647869275458134
 40
0.1647869275458134
 40
0.1647869275458134
 40
0.1647869275458134
 40
0.2895635144633836
 40
0.5387013147903714
 40
0.7953622617455423
 40
0.8850764140209602
 40
0.8850764140209602
 40
0.8850764140209602
 40
0.8850764140209602
 10
360.9826585278723
 20
259.2253999053448
 30
0.0
 10
360.9701633398574
 20
259.218023639846
 30
0.0
 10
360.9300921297483
 20
259.2001146227666
 30
0.0
 10
360.8623325018586
 20
259.1721105298807
 30
0.0
 10
360.7981595425076
 20
259.1446387365783
 30
0.0
 10
360.7589048223043
 20
259.1349271375749
 30
0.0
 10
360.748737509603
 20
259.1324117492753
 30
0.0
  0
LINE
  5
972
102
{ACAD_REACTORS
330
96E
102
}
330
18
100
AcDbEntity
  8
ROGO
 62
     4
100
AcDbLine
 10
360.0238547803509
 20
258.9381800073649
 30
0.0
 11
360.748737509603
 21
259.1324117492753
 31
0.0
  0
LINE
  5
973
102
{ACAD_REACTORS
330
96E
102
}
330
18
100
AcDbEntity
  8
ROGO
 62
     4
100
AcDbLine
 10
360.0537600577899
 20
260.3113312048806
 30
0.0
 11
360.778642787042
 21
260.505562946791
 31
0.0
  0
SPLINE
  5
974
102
{ACAD_REACTORS
330
96E
102
}
330
18
100
AcDbEntity
  8
ROGO
 62
     4
100
AcDbSpline
210
0.0
220
0.0
230
1.0
 70
     8
 71
     3
 72
    25
 73
    21
 74
     0
 42
0.0000000001
 43
0.0000000001
 40
0.0
 40
0.0
 40
0.0
 40
0.0
 40
0.4087168505087288
 40
0.6887487002771746
 40
0.9415836120477687
 40
1.17452070575514
 40
1.41154617586699
 40
1.599156012919487
 40
1.80099909059943
 40
2.178735911501585
 40
2.521686161369157
 40
2.762704659361267
 40
3.06256558063785
 40
3.222432137207705
 40
3.399493810628493
 40
3.567459719866414
 40
3.743172740007509
 40
3.995988754699505
 40
4.17170091132118
 40
4.337226830236035
 40
4.337226830236035
 40
4.337226830236035
 40
4.337226830236035
 10
360.778642787042
 20
260.505562946791
 30
0.0
 10
360.8265949986283
 20
260.516774528325
 30
0.0
 10
360.9074016092789
 20
260.5356677112215
 30
0.0
 10
361.011431475964
 20
260.4914844235855
 30
0.0
 10
361.092183345216
 20
260.4533802134865
 30
0.0
 10
361.1569568923115
 20
260.3985114261692
 30
0.0
 10
361.2145076701131
 20
260.3475252479542
 30
0.0
 10
361.2590175893126
 20
260.2893412773514
 30
0.0
 10
361.3167503904841
 20
260.2206847146407
 30
0.0
 10
361.3600799430592
 20
260.1197467167579
 30
0.0
 10
361.3788978027308
 20
260.0084600841316
 30
0.0
 10
361.3778913351004
 20
259.9050755653864
 30
0.0
 10
361.3695726583064
 20
259.8237393023005
 30
0.0
 10
361.3536757196587
 20
259.7506119352201
 30
0.0
 10
361.3253477100196
 20
259.6984295651751
 30
0.0
 10
361.31213540042
 20
259.6381911678592
 30
0.0
 10
361.2711227756943
 20
259.580825809429
 30
0.0
 10
361.2427823829524
 20
259.5160104766804
 30
0.0
 10
361.2066667702094
 20
259.4572194647865
 30
0.0
 10
361.1869576396311
 20
259.4216357577955
 30
0.0
 10
361.1757576569488
 20
259.4058938526151
 30
0.0
  0
SPLINE
  5
975
102
{ACAD_REACTORS
330
96E
102
}
330
18
100
AcDbEntity
  8
ROGO
 62
     4
100
AcDbSpline
210
0.0
220
0.0
230
1.0
 70
     8
 71
     3
 72
    38
 73
    34
 74
    32
 42
0.0000000001
 43
0.0000000001
 44
0.0000000001
 40
0.0
 40
0.0
 40
0.0
 40
0.0
 40
0.1807680148264224
 40
0.2375392910068928
 40
0.3104865209606387
 40
0.371275998244716
 40
0.4225667543872888
 40
0.4906925837206594
 40
0.5255021974951616
 40
0.5647069597051774
 40
0.6224874016818588
 40
0.6879401044674517
 40
0.7303986317550964
 40
0.7765228362185376
 40
0.8277951442290149
 40
0.9056034697001614
 40
0.9795294930264297
 40
1.013897332332995
 40
1.053089255535989
 40
1.099518741889622
 40
1.132570569820693
 40
1.160277520290237
 40
1.199836786293792
 40
1.243305643169102
 40
1.286774258016941
 40
1.324809356515646
 40
1.411916492917633
 40
1.446284332224198
 40
1.515020051661181
 40
1.575779369908381
 40
1.692098529536159
 40
1.835624328519035
 40
2.042896467983862
 40
2.042896467983862
 40
2.042896467983862
 40
2.042896467983862
 10
360.0537600577899
 20
260.3113312048806
 30
0.0
 10
359.996659507141
 20
260.2916243820826
 30
0.0
 10
359.921626187058
 20
260.2657285137237
 30
0.0
 10
359.8316422639997
 20
260.2131010988005
 30
0.0
 10
359.7871979588733
 20
260.1672201927672
 30
0.0
 10
359.7383488670219
 20
260.1291600032506
 30
0.0
 10
359.7006222336515
 20
260.0820739131644
 30
0.0
 10
359.6578756163301
 20
260.0515659610341
 30
0.0
 10
359.6331970281697
 20
260.0105955304714
 30
0.0
 10
359.5999387912949
 20
259.980696771686
 30
0.0
 10
359.5810204253574
 20
259.9286520638492
 30
0.0
 10
359.5577288321012
 20
259.8784906660843
 30
0.0
 10
359.5259843360225
 20
259.8379247958348
 30
0.0
 10
359.5017712765634
 20
259.7977645901184
 30
0.0
 10
359.484828372714
 20
259.7412582208984
 30
0.0
 10
359.4843738072617
 20
259.6720882876969
 30
0.0
 10
359.4453323146777
 20
259.6180326504068
 30
0.0
 10
359.4509162959727
 20
259.567115275976
 30
0.0
 10
359.4310236790566
 20
259.5308619246809
 30
0.0
 10
359.4289913907453
 20
259.4904000425763
 30
0.0
 10
359.4335596189306
 20
259.4550527685572
 30
0.0
 10
359.4366077757735
 20
259.4217144318977
 30
0.0
 10
359.4312277773965
 20
259.3843432220201
 30
0.0
 10
359.4470113619999
 20
259.3441898421393
 30
0.0
 10
359.456420189655
 20
259.3037338058955
 30
0.0
 10
359.4717112194429
 20
259.2498105692808
 30
0.0
 10
359.4829972524112
 20
259.1963446040503
 30
0.0
 10
359.5209857052754
 20
259.1450490079241
 30
0.0
 10
359.5480703770887
 20
259.0975102481963
 30
0.0
 10
359.6036971179001
 20
259.0365435769367
 30
0.0
 10
359.6888176752092
 20
258.9718118960501
 30
0.0
 10
359.8356296780081
 20
258.9048934855886
 30
0.0
 10
359.9539463204501
 20
258.9258171001657
 30
0.0
 10
360.0238547803509
 20
258.9381800073649
 30
0.0
 11
360.0537600577899
 21
260.3113312048806
 31
0.0
 11
359.8860435727983
 21
260.2438904468307
 31
0.0
 11
359.8377346595623
 21
260.2140705423857
 31
0.0
 11
359.783139450604
 21
260.1656901587915
 31
0.0
 11
359.7376431950354
 21
260.1253732730274
 31
0.0
 11
359.7026527283371
 21
260.0878711543418
 31
0.0
 11
359.6533101135095
 21
260.0408984496684
 31
0.0
 11
359.6326712569728
 21
260.012867273953
 31
0.0
 11
359.6067798063055
 21
259.9834284193168
 31
0.0
 11
359.5812608889183
 21
259.9315886244638
 31
0.0
 11
359.5518956122721
 21
259.8730930107015
 31
0.0
 11
359.5274104591177
 21
259.8384057822961
 31
0.0
 11
359.5043319535203
 21
259.7984705244809
 31
0.0
 11
359.489318349677
 21
259.7494456199082
 31
0.0
 11
359.4760841145947
 21
259.6727710443671
 31
0.0
 11
359.4495310829306
 21
259.6037783387071
 31
0.0
 11
359.4474636797476
 21
259.5694727382506
 31
0.0
 11
359.434890487694
 21
259.5323523707156
 31
0.0
 11
359.4303826727212
 21
259.4861422332214
 31
0.0
 11
359.4335674509835
 21
259.453244201107
 31
0.0
 11
359.4353464070593
 21
259.4255944195599
 31
0.0
 11
359.4346852387479
 21
259.3860406791147
 31
0.0
 11
359.445935806776
 21
259.3440529876195
 31
0.0
 11
359.4571863121629
 21
259.302065529905
 31
0.0
 11
359.4670305200367
 21
259.2653264459597
 31
0.0
 11
359.4947841875824
 21
259.1827589756707
 31
0.0
 11
359.5137274114871
 21
259.1540831557749
 31
0.0
 11
359.5516146220255
 21
259.0967319709211
 31
0.0
 11
359.5919414816247
 21
259.0512848681671
 31
0.0
 11
359.6841349786875
 21
258.9803588081056
 31
0.0
 11
359.8169443204248
 21
258.9259406703114
 31
0.0
 11
360.0238547803509
 21
258.9381800073649
 31
0.0
  0
HATCH
  5
976
330
18
100
AcDbEntity
  8
ROGO
 62
     4
100
AcDbHatch
 10
0.0
 20
0.0
 30
0.0
210
0.0
220
0.0
230
1.0
  2
SOLID
 70
     1
 71
     1
 91
        1
 92
        5
 93
        8
 72
     4
 94
        3
 73
     0
 74
     0
 95
       26
 96
       22
 40
0.0
 40
0.0
 40
0.0
 40
0.0
 40
0.2382195346591896
 40
0.397689067266058
 40
0.5126795869787176
 40
0.5985392873135238
 40
0.7099038249250041
 40
0.7911890807494602
 40
0.9379713068544059
 40
1.057449928673177
 40
1.138714535893296
 40
1.218398644003487
 40
1.36093802187034
 40
1.461730374800238
 40
1.51601484410804
 40
1.593124329220486
 40
1.648806818593696
 40
1.729472362005543
 40
1.775122082164332
 40
1.874460993765135
 40
1.919820003751196
 40
1.919820003751196
 40
1.919820003751196
 40
1.919820003751196
 10
362.1674720958337
 20
260.8720282039624
 10
362.0906203213417
 20
260.8464416905047
 10
361.9623222346243
 20
260.8037269875052
 10
361.8424660334378
 20
260.6784000026537
 10
361.7511265764578
 20
260.5997365335651
 10
361.6947378583337
 20
260.5109617091788
 10
361.658928192888
 20
260.4252754445765
 10
361.6124671050463
 20
260.3221642534227
 10
361.5824894037928
 20
260.2085595453893
 10
361.5828729505278
 20
260.0923033393668
 10
361.5806299681699
 20
259.998963554202
 10
361.5876086938579
 20
259.8974882306253
 10
361.6203189098698
 20
259.7946036627379
 10
361.6531132549428
 20
259.6996967791737
 10
361.7022953096443
 20
259.6388530074336
 10
361.7504051057109
 20
259.599045379969
 10
361.8076931297448
 20
259.5563539849362
 10
361.8641113879919
 20
259.5330303983924
 10
361.9202349992597
 20
259.4784305582916
 10
361.9902242755653
 20
259.4882978024684
 10
362.0377217286193
 20
259.483338265926
 10
362.0526109365897
 20
259.4817835810689
 72
     1
 10
362.0526109365897
 20
259.4817835810689
 11
363.1451010724648
 21
259.7745154307156
 72
     1
 10
363.1451010724648
 20
259.7745154307156
 11
363.2539655653065
 21
260.3094903411688
 72
     1
 10
363.2539655653065
 20
260.3094903411688
 11
362.4428959814013
 21
260.092164901156
 72
     4
 94
        3
 73
     0
 74
     0
 95
       16
 96
       12
 40
0.0
 40
0.0
 40
0.0
 40
0.0
 40
0.0719416665231652
 40
0.1446253590759511
 40
0.1879779149910863
 40
0.229544093610429
 40
0.2751936323958108
 40
0.3070718656052417
 40
0.3373215422371831
 40
0.3986635435213285
 40
0.5242542460842448
 40
0.5242542460842448
 40
0.5242542460842448
 40
0.5242542460842448
 10
362.4428959814013
 20
260.0921649011559
 10
362.4165025987841
 20
260.0928074784488
 10
362.363443604981
 20
260.0940992607525
 10
362.3405321294198
 20
260.1631415837711
 10
362.3327465122632
 20
260.214628358022
 10
362.346480157351
 20
260.2573124943203
 10
362.3678759960877
 20
260.2914261919666
 10
362.3692441080651
 20
260.328754200636
 10
362.3934491083951
 20
260.3631504104529
 10
362.4370158453929
 20
260.421737733313
 10
362.4956648189644
 20
260.4474442378351
 10
362.535068121029
 20
260.4647151481517
 72
     1
 10
362.535068121029
 20
260.4647151481517
 11
363.328834015484
 21
260.6774040785502
 72
     1
 10
363.328834015484
 20
260.6774040785502
 11
363.4376996611829
 21
261.2123846543014
 72
     1
 10
363.4376996611829
 20
261.2123846543014
 11
362.1674720958336
 21
260.8720282039624
 97
        8
330
97F
330
97D
330
980
330
97C
330
97B
330
97E
330
97A
330
979
 75
     0
 76
     1
 47
0.0514683685270805
 98
        1
 10
362.4488882900934
 20
260.6985102919833
450
        0
451
        0
460
0.0
461
0.0
452
        0
462
0.0
453
        0
470

  0
LINE
  5
977
102
{ACAD_REACTORS
330
8E4
102
}
330
18
100
AcDbEntity
  8
ROGO
 62
     4
100
AcDbLine
 10
364.0958067261681
 20
259.8189188787535
 30
0.0
 11
363.9764709706104
 21
259.2324867604657
 31
0.0
  0
LINE
  5
978
102
{ACAD_REACTORS
330
93B
330
8E4
102
}
330
18
100
AcDbEntity
  8
ROGO
 62
     4
100
AcDbLine
 10
363.7033554681321
 20
261.2835669132381
 30
0.0
 11
363.2461501568883
 21
259.0367978882132
 31
0.0
  0
LINE
  5
979
102
{ACAD_REACTORS
330
976
102
}
330
18
100
AcDbEntity
  8
ROGO
 62
     4
100
AcDbLine
 10
363.4376996611829
 20
261.2123846543014
 30
0.0
 11
363.328834015484
 21
260.6774040785502
 31
0.0
  0
LINE
  5
97A
102
{ACAD_REACTORS
330
976
102
}
330
18
100
AcDbEntity
  8
ROGO
 62
     4
100
AcDbLine
 10
362.5350681210289
 20
260.4647151481517
 30
0.0
 11
363.328834015484
 21
260.6774040785502
 31
0.0
  0
LINE
  5
97B
102
{ACAD_REACTORS
330
976
102
}
330
18
100
AcDbEntity
  8
ROGO
 62
     4
100
AcDbLine
 10
362.4428959814013
 20
260.092164901156
 30
0.0
 11
363.2539655653065
 21
260.3094903411689
 31
0.0
  0
LINE
  5
97C
102
{ACAD_REACTORS
330
976
102
}
330
18
100
AcDbEntity
  8
ROGO
 62
     4
100
AcDbLine
 10
363.2539655653065
 20
260.3094903411689
 30
0.0
 11
363.1451010724649
 21
259.7745154307156
 31
0.0
  0
SPLINE
  5
97D
102
{ACAD_REACTORS
330
976
102
}
330
18
100
AcDbEntity
  8
ROGO
 62
     4
100
AcDbSpline
210
0.0
220
0.0
230
1.0
 70
     8
 71
     3
 72
    26
 73
    22
 74
    20
 42
0.0000000001
 43
0.0000000001
 44
0.0000000001
 40
0.0
 40
0.0
 40
0.0
 40
0.0
 40
0.2382195346592045
 40
0.3976890672660534
 40
0.5126795869787152
 40
0.5985392873135128
 40
0.7099038249249765
 40
0.7911890807494593
 40
0.9379713068544084
 40
1.057449928673146
 40
1.138714535893289
 40
1.218398644003477
 40
1.360938021870314
 40
1.461730374800218
 40
1.51601484410804
 40
1.593124329220491
 40
1.648806818593688
 40
1.729472362005555
 40
1.775122082164339
 40
1.87446099376513
 40
1.919820003751176
 40
1.919820003751176
 40
1.919820003751176
 40
1.919820003751176
 10
362.1674720958337
 20
260.8720282039624
 30
0.0
 10
362.0906203213416
 20
260.8464416905047
 30
0.0
 10
361.9623222346243
 20
260.8037269875052
 30
0.0
 10
361.8424660334379
 20
260.6784000026537
 30
0.0
 10
361.7511265764577
 20
260.5997365335651
 30
0.0
 10
361.6947378583338
 20
260.5109617091788
 30
0.0
 10
361.6589281928879
 20
260.4252754445766
 30
0.0
 10
361.6124671050464
 20
260.3221642534226
 30
0.0
 10
361.5824894037928
 20
260.2085595453894
 30
0.0
 10
361.5828729505279
 20
260.0923033393668
 30
0.0
 10
361.5806299681699
 20
259.998963554202
 30
0.0
 10
361.587608693858
 20
259.8974882306253
 30
0.0
 10
361.6203189098697
 20
259.7946036627378
 30
0.0
 10
361.6531132549428
 20
259.6996967791737
 30
0.0
 10
361.7022953096443
 20
259.6388530074335
 30
0.0
 10
361.7504051057109
 20
259.599045379969
 30
0.0
 10
361.8076931297448
 20
259.5563539849362
 30
0.0
 10
361.8641113879919
 20
259.5330303983923
 30
0.0
 10
361.9202349992597
 20
259.4784305582917
 30
0.0
 10
361.9902242755652
 20
259.4882978024684
 30
0.0
 10
362.0377217286194
 20
259.483338265926
 30
0.0
 10
362.0526109365897
 20
259.4817835810689
 30
0.0
 11
362.1674720958337
 21
260.8720282039624
 31
0.0
 11
361.9495917522876
 21
260.7757125635427
 31
0.0
 11
361.8302411382982
 21
260.6699488515701
 31
0.0
 11
361.7485404898509
 21
260.5890302278357
 31
0.0
 11
361.7012891422896
 21
260.5173420259109
 31
0.0
 11
361.6545262123951
 21
260.4162713148958
 31
0.0
 11
361.6228988645886
 21
260.3413913864424
 31
0.0
 11
361.5872031462984
 21
260.1990156947108
 31
0.0
 11
361.5822678623424
 21
260.0796390468939
 31
0.0
 11
361.5818890304948
 21
259.9983753226803
 31
0.0
 11
361.5883997298549
 21
259.91895764279
 31
0.0
 11
361.6252916355239
 21
259.7812751764452
 31
0.0
 11
361.6648958483178
 21
259.68858966119
 31
0.0
 11
361.698477443376
 21
259.6459389861499
 31
0.0
 11
361.7564175668718
 21
259.5950585893
 31
0.0
 11
361.8019344154044
 21
259.5629843609779
 31
0.0
 11
361.8718093961966
 21
259.5226803046904
 31
0.0
 11
361.9085917160465
 21
259.4956440716497
 31
0.0
 11
362.0073825298759
 21
259.4852232050372
 31
0.0
 11
362.0526109365897
 21
259.4817835810689
 31
0.0
  0
SPLINE
  5
97E
102
{ACAD_REACTORS
330
976
102
}
330
18
100
AcDbEntity
  8
ROGO
 62
     4
100
AcDbSpline
210
0.0
220
0.0
230
1.0
 70
     8
 71
     3
 72
    16
 73
    12
 74
    10
 42
0.0000000001
 43
0.0000000001
 44
0.0000000001
 40
0.0
 40
0.0
 40
0.0
 40
0.0
 40
0.1255907025629065
 40
0.1869327038470911
 40
0.2171823804790266
 40
0.2490606136884504
 40
0.2947101524737869
 40
0.3362763310931722
 40
0.3796288870082908
 40
0.4523125795611069
 40
0.5242542460842712
 40
0.5242542460842712
 40
0.5242542460842712
 40
0.5242542460842712
 10
362.535068121029
 20
260.4647151481517
 30
0.0
 10
362.4956648189644
 20
260.4474442378351
 30
0.0
 10
362.437015845393
 20
260.421737733313
 30
0.0
 10
362.3934491083951
 20
260.3631504104529
 30
0.0
 10
362.369244108065
 20
260.328754200636
 30
0.0
 10
362.3678759960877
 20
260.2914261919665
 30
0.0
 10
362.3464801573509
 20
260.2573124943203
 30
0.0
 10
362.3327465122632
 20
260.214628358022
 30
0.0
 10
362.3405321294197
 20
260.1631415837711
 30
0.0
 10
362.363443604981
 20
260.0940992607525
 30
0.0
 10
362.4165025987841
 20
260.0928074784488
 30
0.0
 10
362.4428959814013
 20
260.0921649011559
 30
0.0
 11
362.535068121029
 21
260.4647151481517
 31
0.0
 11
362.4264050899851
 21
260.4017439622441
 31
0.0
 11
362.3873993369906
 21
260.3544006168313
 31
0.0
 11
362.3722637549025
 21
260.3282098342696
 31
0.0
 11
362.3658623053193
 21
260.2969809502712
 31
0.0
 11
362.347525938304
 21
260.2551759501397
 31
0.0
 11
362.3360795588098
 21
260.2152168760576
 31
0.0
 11
362.3402571790706
 21
260.1720660754471
 31
0.0
 11
362.3724830468121
 21
260.1069169188031
 31
0.0
 11
362.4428959814013
 21
260.0921649011559
 31
0.0
  0
LINE
  5
97F
102
{ACAD_REACTORS
330
976
102
}
330
18
100
AcDbEntity
  8
ROGO
 62
     4
100
AcDbLine
 10
362.1674720958341
 20
260.8720282039625
 30
0.0
 11
363.4376996611829
 21
261.2123846543014
 31
0.0
  0
LINE
  5
980
102
{ACAD_REACTORS
330
976
102
}
330
18
100
AcDbEntity
  8
ROGO
 62
     4
100
AcDbLine
 10
362.0526109365897
 20
259.4817835810689
 30
0.0
 11
363.145101072465
 21
259.7745154307156
 31
0.0
  0
LINE
  5
981
102
{ACAD_REACTORS
330
950
102
}
330
18
100
AcDbEntity
  8
ROGO
 62
     4
100
AcDbLine
 10
358.0805725312639
 20
259.7769467660889
 30
0.0
 11
359.3508000966127
 21
260.1173032164278
 31
0.0
  0
LINE
  5
982
102
{ACAD_REACTORS
330
950
102
}
330
18
100
AcDbEntity
  8
ROGO
 62
     4
100
AcDbLine
 10
359.1670660007363
 20
259.2144089032951
 30
0.0
 11
359.0582015078947
 21
258.6794339928419
 31
0.0
  0
SPLINE
  5
983
102
{ACAD_REACTORS
330
950
102
}
330
18
100
AcDbEntity
  8
ROGO
 62
     4
100
AcDbSpline
210
0.0
220
0.0
230
1.0
 70
     8
 71
     3
 72
    16
 73
    12
 74
    10
 42
0.0000000001
 43
0.0000000001
 44
0.0000000001
 40
0.0
 40
0.0
 40
0.0
 40
0.0
 40
0.1255907025629842
 40
0.1869327038470449
 40
0.2171823804790296
 40
0.2490606136884649
 40
0.2947101524738013
 40
0.3362763310931867
 40
0.3796288870083618
 40
0.4523125795611012
 40
0.5242542460842654
 40
0.5242542460842654
 40
0.5242542460842654
 40
0.5242542460842654
 10
358.4481685564588
 20
259.369633710278
 30
0.0
 10
358.4087652543942
 20
259.3523627999614
 30
0.0
 10
358.3501162808227
 20
259.3266562954393
 30
0.0
 10
358.3065495438249
 20
259.2680689725793
 30
0.0
 10
358.2823445434949
 20
259.2336727627623
 30
0.0
 10
358.2809764315174
 20
259.1963447540928
 30
0.0
 10
358.2595805927807
 20
259.1622310564466
 30
0.0
 10
358.2458469476928
 20
259.1195469201482
 30
0.0
 10
358.2536325648497
 20
259.0680601458974
 30
0.0
 10
358.2765440404107
 20
258.9990178228788
 30
0.0
 10
358.329603034214
 20
258.9977260405752
 30
0.0
 10
358.3559964168312
 20
258.9970834632823
 30
0.0
 11
358.4481685564588
 21
259.369633710278
 31
0.0
 11
358.3395055254149
 21
259.3066625243704
 31
0.0
 11
358.3004997724204
 21
259.2593191789577
 31
0.0
 11
358.2853641903323
 21
259.233128396396
 31
0.0
 11
358.2789627407491
 21
259.2018995123975
 31
0.0
 11
358.2606263737338
 21
259.160094512266
 31
0.0
 11
358.2491799942396
 21
259.120135438184
 31
0.0
 11
358.2533576145004
 21
259.0769846375734
 31
0.0
 11
358.2855834822419
 21
259.0118354809295
 31
0.0
 11
358.3559964168312
 21
258.9970834632823
 31
0.0
  0
LINE
  5
984
102
{ACAD_REACTORS
330
950
102
}
330
18
100
AcDbEntity
  8
ROGO
 62
     4
100
AcDbLine
 10
358.3559964168311
 20
258.9970834632822
 30
0.0
 11
359.1670660007363
 21
259.2144089032951
 31
0.0
  0
LINE
  5
985
102
{ACAD_REACTORS
330
950
102
}
330
18
100
AcDbEntity
  8
ROGO
 62
     4
100
AcDbLine
 10
358.4481685564588
 20
259.369633710278
 30
0.0
 11
359.2419344509137
 21
259.5823226406766
 31
0.0
  0
LINE
  5
986
102
{ACAD_REACTORS
330
950
102
}
330
18
100
AcDbEntity
  8
ROGO
 62
     4
100
AcDbLine
 10
359.3508000966127
 20
260.1173032164278
 30
0.0
 11
359.2419344509137
 21
259.5823226406766
 31
0.0
  0
TEXT
  5
987
330
18
100
AcDbEntity
  8
文字
100
AcDbText
 10
354.5462767751461
 20
266.6529360711855
 30
0.0
 40
2.0
  1
0
 50
15.0
  7
STYLE3
100
AcDbText
  0
LINE
  5
988
330
18
100
AcDbEntity
  8
目盛
100
AcDbLine
 10
353.9213318205578
 20
272.7785068320878
 30
0.0
 11
354.6977889558653
 21
269.8807293532206
 31
0.0
  0
LINE
  5
989
330
18
100
AcDbEntity
  8
目盛
100
AcDbLine
 10
348.5833835247675
 20
270.6001304832036
 30
0.0
 11
349.5651910319978
 21
268.8577028609632
 31
0.0
  0
LINE
  5
98A
330
18
100
AcDbEntity
  8
目盛
100
AcDbLine
 10
349.8638545723522
 20
271.2695445696897
 30
0.0
 11
350.7343167710969
 21
269.4689070268853
 31
0.0
  0
LINE
  5
98B
330
18
100
AcDbEntity
  8
目盛
100
AcDbLine
 10
351.183831761091
 20
271.8572362780691
 30
0.0
 11
351.9395133347279
 21
270.005495108449
 31
0.0
  0
LINE
  5
98C
330
18
100
AcDbEntity
  8
目盛
100
AcDbLine
 10
352.5381057440601
 20
272.3608862576597
 30
0.0
 11
353.1760243626563
 21
270.4653494376405
 31
0.0
  0
LINE
  5
98D
330
18
100
AcDbEntity
  8
目盛
100
AcDbLine
 10
355.3280510291961
 20
273.1084498437389
 30
0.0
 11
355.7233657099542
 21
271.1479074944954
 31
0.0
  0
LINE
  5
98E
330
18
100
AcDbEntity
  8
目盛
100
AcDbLine
 10
356.752711691927
 20
273.3494131582825
 30
0.0
 11
357.0241428367955
 21
271.3679174773396
 31
0.0
  0
LINE
  5
98F
330
18
100
AcDbEntity
  8
目盛
100
AcDbLine
 10
358.1896913239804
 20
273.5004458036018
 30
0.0
 11
358.3361677182357
 21
271.5058168491528
 31
0.0
  0
LINE
  5
990
330
18
100
AcDbEntity
  8
目盛
100
AcDbLine
 10
359.6333188232422
 20
273.560951722846
 30
0.0
 11
359.6542623914747
 21
271.561061384115
 31
0.0
  0
LINE
  5
991
330
18
100
AcDbEntity
  8
外形線
  6
Continuous
100
AcDbLine
 10
345.8180729739942
 20
288.7245783252671
 30
0.0
 11
347.5003967671606
 21
282.4460604543881
 31
0.0
  0
LINE
  5
992
330
18
100
AcDbEntity
  8
外形線
  6
Continuous
100
AcDbLine
 10
352.9659240885333
 20
290.6398392590257
 30
0.0
 11
354.6482478816997
 21
284.3613213881468
 31
0.0
  0
LINE
  5
993
330
18
100
AcDbEntity
  8
外形線
  6
Continuous
100
AcDbLine
 10
348.7635332898889
 20
276.572859783123
 30
0.0
 11
356.4909399002015
 21
278.6434121439431
 31
0.0
  0
LINE
  5
994
330
18
100
AcDbEntity
  8
外形線
  6
Continuous
100
AcDbLine
 10
347.2106190192739
 20
282.3684147408574
 30
0.0
 11
354.9380256295863
 21
284.4389671016775
 31
0.0
  0
HATCH
  5
995
330
18
100
AcDbEntity
  8
ﾊｯﾁﾝｸ
  6
Continuous
100
AcDbHatch
 10
0.0
 20
0.0
 30
0.0
210
0.0
220
0.0
230
1.0
  2
ANSI37
 70
     0
 71
     0
 91
        1
 92
        7
 72
     0
 73
     1
 93
        4
 10
351.0743223244302
 20
283.4036909212675
 10
347.2106190192739
 20
282.3684147408574
 10
348.763533289889
 20
276.572859783123
 10
352.6272365950453
 20
277.6081359635331
 97
        0
 75
     0
 76
     1
 52
15.0
 41
10.0
 77
     0
 78
     2
 53
60.0
 43
205.3074122365714
 44
83.75462319609027
 45
-1.082531754730548
 46
0.6250000000000001
 79
     0
 53
150.0
 43
205.3074122365714
 44
83.75462319609027
 45
-0.6250000000000001
 46
-1.082531754730548
 79
     0
 47
0.1856754751158765
 98
        1
 10
349.9625985754726
 20
280.8033988837453
  0
LINE
  5
996
330
18
100
AcDbEntity
  8
外形線
  6
Continuous
100
AcDbLine
 10
347.2106190192739
 20
282.3684147408574
 30
0.0
 11
348.763533289889
 21
276.572859783123
 31
0.0
  0
LINE
  5
997
330
18
100
AcDbEntity
  8
外形線
  6
Continuous
100
AcDbLine
 10
354.9380256295863
 20
284.4389671016775
 30
0.0
 11
356.4909399002015
 21
278.6434121439431
 31
0.0
  0
ARC
  5
998
330
18
100
AcDbEntity
  8
外形線
  6
Continuous
100
AcDbCircle
 10
351.0342053724392
 20
283.5534094243424
 30
0.0
 40
7.344999999999885
100
AcDbArc
 50
74.75198538337817
 51
135.2480146166212
  0
LINE
  5
999
330
18
100
AcDbEntity
  8
外形線
  6
Continuous
100
AcDbLine
 10
345.8180729739942
 20
288.7245783252671
 30
0.0
 11
352.9659240885333
 21
290.6398392590257
 31
0.0
  0
POINT
  5
99A
330
18
100
AcDbEntity
  8
DEFPOINTS
  6
ByBlock
 62
     0
100
AcDbPoint
 10
349.1331794861611
 20
290.6481346184356
 30
0.0
  0
LINE
  5
99B
330
18
100
AcDbEntity
  8
目盛
100
AcDbLine
 10
379.4217017966136
 20
238.4422295310157
 30
0.0
 11
377.7219164106398
 21
239.4961411220091
 31
0.0
  0
LINE
  5
99C
330
18
100
AcDbEntity
  8
目盛
100
AcDbLine
 10
378.6221091596725
 20
237.2387458635577
 30
0.0
 11
376.9918535682155
 21
238.397308208243
 31
0.0
  0
LINE
  5
99D
330
18
100
AcDbEntity
  8
目盛
100
AcDbLine
 10
377.7485269714262
 20
236.087843833293
 30
0.0
 11
375.4170890870551
 21
237.9758050064424
 31
0.0
  0
LINE
  5
99E
330
18
100
AcDbEntity
  8
目盛
100
AcDbLine
 10
376.8044028616696
 20
234.9940655247381
 30
0.0
 11
375.3322086874302
 21
236.3478174641034
 31
0.0
  0
LINE
  5
99F
330
18
100
AcDbEntity
  8
目盛
100
AcDbLine
 10
375.793462856935
 20
233.9617275811769
 30
0.0
 11
374.4091765091943
 21
235.4052480373737
 31
0.0
  0
LINE
  5
9A0
330
18
100
AcDbEntity
  8
目盛
100
AcDbLine
 10
374.7196966755665
 20
232.9949041688425
 30
0.0
 11
373.4287813001187
 21
234.5224962261118
 31
0.0
  0
LINE
  5
9A1
330
18
100
AcDbEntity
  8
目盛
100
AcDbLine
 10
373.5873419821249
 20
232.0974108980436
 30
0.0
 11
372.3948922321937
 21
233.7030458484258
 31
0.0
  0
TEXT
  5
9A2
330
18
100
AcDbEntity
  8
文字
100
AcDbText
 10
374.2091187164547
 20
259.2363447099357
 30
0.0
 40
2.0
  1
2
 50
15.0
  7
STYLE3
100
AcDbText
  0
LINE
  5
9A3
330
18
100
AcDbEntity
  8
目盛
100
AcDbLine
 10
382.2102582958374
 20
245.075943303132
 30
0.0
 11
380.2679897360182
 21
245.5530102182891
 31
0.0
  0
LINE
  5
9A4
330
18
100
AcDbEntity
  8
目盛
100
AcDbLine
 10
381.8216974137902
 20
243.6842746055493
 30
0.0
 11
379.9132167567575
 21
244.2823561900615
 31
0.0
  0
TEXT
  5
9A5
330
18
100
AcDbEntity
  8
文字
100
AcDbText
 10
377.3154759668829
 20
248.1674642654209
 30
0.0
 40
2.0
  1
3
 50
15.0
  7
STYLE3
100
AcDbText
  0
TEXT
  5
9A6
330
18
100
AcDbEntity
  8
文字
100
AcDbText
 10
372.966501849893
 20
237.5829868786231
 30
0.0
 40
2.0
  1
4
 50
15.0
  7
STYLE3
100
AcDbText
  0
LINE
  5
9A7
330
18
100
AcDbEntity
  8
目盛
100
AcDbLine
 10
381.3465196673513
 20
242.3197499878973
 30
0.0
 11
378.5457783878598
 21
243.3948538365334
 31
0.0
  0
LINE
  5
9A8
330
18
100
AcDbEntity
  8
目盛
100
AcDbLine
 10
380.7866003659983
 20
240.98775460545
 30
0.0
 11
378.9681281479042
 21
241.8203161899708
 31
0.0
  0
LINE
  5
9A9
330
18
100
AcDbEntity
  8
目盛
100
AcDbLine
 10
380.1441492554105
 20
239.693545235451
 30
0.0
 11
378.3815423512805
 21
240.6386467651891
 31
0.0
  0
LINE
  5
9AA
330
18
100
AcDbEntity
  8
目盛
100
AcDbLine
 10
382.8729087533225
 20
250.8030638621129
 30
0.0
 11
380.8730184145915
 21
250.7821202938804
 31
0.0
  0
LINE
  5
9AB
330
18
100
AcDbEntity
  8
目盛
100
AcDbLine
 10
382.8426491572709
 20
249.3584858338516
 30
0.0
 11
379.8467605530071
 21
249.5154937025803
 31
0.0
  0
LINE
  5
9AC
330
18
100
AcDbEntity
  8
目盛
100
AcDbLine
 10
382.7217434667248
 20
247.9186583661033
 30
0.0
 11
380.7349979355239
 21
248.148532667089
 31
0.0
  0
LINE
  5
9AD
330
18
100
AcDbEntity
  8
目盛
100
AcDbLine
 10
382.5106688412083
 20
246.4892638000889
 30
0.0
 11
380.5422776252697
 21
246.843433280728
 31
0.0
  0
LINE
  5
9AE
330
18
100
AcDbEntity
  8
目盛
100
AcDbLine
 10
379.1926863836971
 20
255.7385937294896
 30
0.0
 11
382.0904638625643
 21
256.5150508647972
 31
0.0
  0
LINE
  5
9AF
330
18
100
AcDbEntity
  8
目盛
100
AcDbLine
 10
380.5815016001662
 20
260.5725281130027
 30
0.0
 11
378.7808640573618
 21
259.7020659142581
 31
0.0
  0
LINE
  5
9B0
330
18
100
AcDbEntity
  8
目盛
100
AcDbLine
 10
381.1691933085457
 20
259.252550924264
 30
0.0
 11
379.3174521389255
 21
258.4968693506271
 31
0.0
  0
LINE
  5
9B1
330
18
100
AcDbEntity
  8
目盛
100
AcDbLine
 10
381.6728432881362
 20
257.8982769412947
 30
0.0
 11
379.777306468117
 21
257.2603583226986
 31
0.0
  0
LINE
  5
9B2
330
18
100
AcDbEntity
  8
目盛
100
AcDbLine
 10
382.4204068742152
 20
255.1083316561591
 30
0.0
 11
380.4598645249719
 21
254.7130169754009
 31
0.0
  0
LINE
  5
9B3
330
18
100
AcDbEntity
  8
目盛
100
AcDbLine
 10
382.661370188759
 20
253.6836709934283
 30
0.0
 11
380.6798745078161
 21
253.4122398485597
 31
0.0
  0
LINE
  5
9B4
330
18
100
AcDbEntity
  8
目盛
100
AcDbLine
 10
382.8124028340783
 20
252.2466913613747
 30
0.0
 11
380.8177738796293
 21
252.1002149671195
 31
0.0
  0
LINE
  5
9B5
330
18
100
AcDbEntity
  8
目盛
100
AcDbLine
 10
375.4423171606171
 20
267.4924458311931
 30
0.0
 11
374.0885652212516
 21
266.0202516569536
 31
0.0
  0
LINE
  5
9B6
330
18
100
AcDbEntity
  8
目盛
100
AcDbLine
 10
376.4746551041781
 20
266.4815058264586
 30
0.0
 11
375.0311346479814
 21
265.0972194787178
 31
0.0
  0
LINE
  5
9B7
330
18
100
AcDbEntity
  8
目盛
100
AcDbLine
 10
370.7428374499039
 20
270.832192224934
 30
0.0
 11
369.7977359201659
 21
269.069585320804
 31
0.0
  0
LINE
  5
9B8
102
{ACAD_REACTORS
330
8E4
102
}
330
18
100
AcDbEntity
  8
ROGO
 62
     4
100
AcDbLine
 10
364.4923705812049
 20
259.3707216445
 30
0.0
 11
365.2226754160949
 21
259.5664062352374
 31
0.0
  0
LINE
  5
9B9
102
{ACAD_REACTORS
330
8E4
102
}
330
18
100
AcDbEntity
  8
ROGO
 62
     4
100
AcDbLine
 10
364.6677276207557
 20
261.5419696527367
 30
0.0
 11
365.3980324556458
 21
261.737654243474
 31
0.0
  0
LINE
  5
9BA
102
{ACAD_REACTORS
330
8E4
102
}
330
18
100
AcDbEntity
  8
ROGO
 62
     4
100
AcDbLine
 10
364.4630074526976
 20
260.4249844334802
 30
0.0
 11
365.3980324556458
 21
261.737654243474
 31
0.0
  0
LINE
  5
9BB
102
{ACAD_REACTORS
330
8E4
102
}
330
18
100
AcDbEntity
  8
ROGO
 62
     4
100
AcDbLine
 10
364.4630074526976
 20
260.4249844334802
 30
0.0
 11
365.2226754160949
 21
259.5664062352374
 31
0.0
  0
LINE
  5
9BC
102
{ACAD_REACTORS
330
8E4
102
}
330
18
100
AcDbEntity
  8
ROGO
 62
     4
100
AcDbLine
 10
364.3837587657175
 20
261.2339543283464
 30
0.0
 11
364.6677276207557
 21
261.5419696527367
 31
0.0
  0
LINE
  5
9BD
102
{ACAD_REACTORS
330
8E4
102
}
330
18
100
AcDbEntity
  8
ROGO
 62
     4
100
AcDbLine
 10
364.4336762818542
 20
261.4792557854906
 30
0.0
 11
364.3837587657175
 21
261.2339543283464
 31
0.0
  0
TEXT
  5
9BE
330
18
100
AcDbEntity
  8
文字
100
AcDbText
 10
365.4302446607463
 20
266.2969172008468
 30
0.0
 40
2.0
  1
1
 50
15.0
  7
STYLE3
100
AcDbText
  0
LINE
  5
9BF
330
18
100
AcDbEntity
  8
目盛
100
AcDbLine
 10
371.9941531543393
 20
270.109744766137
 30
0.0
 11
370.940241563346
 21
268.4099593801633
 31
0.0
  0
LINE
  5
9C0
330
18
100
AcDbEntity
  8
目盛
100
AcDbLine
 10
373.1976368217973
 20
269.3101521291959
 30
0.0
 11
372.0390744771119
 21
267.6798965377388
 31
0.0
  0
LINE
  5
9C1
330
18
100
AcDbEntity
  8
目盛
100
AcDbLine
 10
374.3485388520619
 20
268.4365699409495
 30
0.0
 11
372.4605776789125
 21
266.1051320565786
 31
0.0
  0
LINE
  5
9C2
330
18
100
AcDbEntity
  8
目盛
100
AcDbLine
 10
368.1166326974578
 20
272.0345626368748
 30
0.0
 11
367.0415288488218
 21
269.2338213573833
 31
0.0
  0
LINE
  5
9C3
330
18
100
AcDbEntity
  8
目盛
100
AcDbLine
 10
362.5177243192518
 20
273.4097864362483
 30
0.0
 11
362.287850018266
 21
271.4230409050475
 31
0.0
  0
LINE
  5
9C4
330
18
100
AcDbEntity
  8
目盛
100
AcDbLine
 10
363.9471188852664
 20
273.1987118107318
 30
0.0
 11
363.5929494046271
 21
271.2303205947933
 31
0.0
  0
LINE
  5
9C5
330
18
100
AcDbEntity
  8
目盛
100
AcDbLine
 10
365.3604393822233
 20
272.8983012653608
 30
0.0
 11
364.8833724670661
 21
270.9560327055415
 31
0.0
  0
LINE
  5
9C6
330
18
100
AcDbEntity
  8
目盛
100
AcDbLine
 10
366.7521080798059
 20
272.5097403833136
 30
0.0
 11
366.1540264952937
 21
270.601259726281
 31
0.0
  0
LINE
  5
9C7
330
18
100
AcDbEntity
  8
目盛
100
AcDbLine
 10
369.448628079905
 20
271.4746433355217
 30
0.0
 11
368.6160664953842
 21
269.6561711174276
 31
0.0
  0
LINE
  5
9C8
330
18
100
AcDbEntity
  8
目盛
100
AcDbLine
 10
377.4414785165126
 20
265.4077396450901
 30
0.0
 11
375.9138864592433
 21
264.1168242696422
 31
0.0
  0
LINE
  5
9C9
330
18
100
AcDbEntity
  8
目盛
100
AcDbLine
 10
378.3389717873113
 20
264.2753849516483
 30
0.0
 11
376.7333368369291
 21
263.0829352017171
 31
0.0
  0
LINE
  5
9CA
330
18
100
AcDbEntity
  8
目盛
100
AcDbLine
 10
379.1635929206604
 20
263.0889106327848
 30
0.0
 11
376.6475812168242
 21
261.4549935277398
 31
0.0
  0
LINE
  5
9CB
330
18
100
AcDbEntity
  8
目盛
100
AcDbLine
 10
379.9120875136802
 20
261.8529991605874
 30
0.0
 11
378.1696598914398
 21
260.8711916533571
 31
0.0
  0
CIRCLE
  5
9CC
330
18
100
AcDbEntity
  8
外形線
100
AcDbCircle
 10
359.8741698579158
 20
250.5622128274393
 30
0.0
 40
26.4
  0
ARC
  5
9CE
330
18
100
AcDbEntity
  8
中心線
 48
0.5
100
AcDbCircle
 10
349.2108251996917
 20
189.9020709364857
 30
0.0
 40
19.99953999470984
100
AcDbArc
 50
321.8517302429962
 51
11.02507152952738
  0
ARC
  5
9D9
330
18
100
AcDbEntity
  8
寸法線
100
AcDbCircle
 10
349.2108251996917
 20
189.9020709364857
 30
0.0
 40
260.0
100
AcDbArc
 50
165.3612522073543
 51
200.9248369551379
  0
LINE
  5
9DD
330
18
100
AcDbEntity
  8
中心線
100
AcDbLine
 10
314.9108251996918
 20
264.9631455632614
 30
0.0
 11
314.7108251996917
 21
171.6512192619087
 31
0.0
  0
LINE
  5
9DE
330
18
100
AcDbEntity
  8
隠れ線2
100
AcDbLine
 10
356.4489524055049
 20
276.7390706488758
 30
0.0
 11
364.2336491531614
 21
275.1791773087542
 31
0.0
  0
ARC
  5
9DF
330
18
100
AcDbEntity
  8
隠れ線2
100
AcDbCircle
 10
391.0067045695849
 20
234.5696187921373
 30
0.0
 40
10.0
100
AcDbArc
 50
158.4336211762075
 51
179.1824978487601
  0
ARC
  5
9E6
330
18
100
AcDbEntity
  8
寸法線
100
AcDbCircle
 10
349.2108251996917
 20
189.9020709364857
 30
0.0
 40
26.0
100
AcDbArc
 50
324.977165005127
 51
59.91263414499453
  0
LINE
  5
9F2
330
18
100
AcDbEntity
  8
0
  6
ByBlock
 62
     2
100
AcDbLine
 10
349.2108251996918
 20
189.9020709364857
 30
0.0
 11
367.6019224168306
 21
208.2805241670965
 31
0.0
  0
MTEXT
  5
9F3
330
18
100
AcDbEntity
  8
0
  6
ByBlock
 62
     6
100
AcDbMText
 10
359.0194965749415
 20
202.3547378666041
 30
0.0
 40
2.5
 41
0.0
 71
     5
 72
     1
  1
\A1;R26
  7
STYLE3
 11
0.7073498929668791
 21
0.7068635857927221
 31
0.0
 73
     1
 44
1.0
  0
INSERT
  5
9F4
330
18
100
AcDbEntity
  8
0
  6
ByBlock
 62
     2
100
AcDbBlockReference
  2
_OPEN
 10
367.6019224168306
 20
208.2805241670965
 30
0.0
 41
2.5
 42
2.5
 43
2.5
 50
44.9802976368516
  0
POINT
  5
9F5
330
18
100
AcDbEntity
  8
DEFPOINTS
  6
ByBlock
 62
     0
100
AcDbPoint
 10
367.6019224168306
 20
208.2805241670965
 30
0.0
  0
POINT
  5
9F6
330
18
100
AcDbEntity
  8
DEFPOINTS
  6
ByBlock
 62
     0
100
AcDbPoint
 10
349.2108251996916
 20
189.9020709364857
 30
0.0
  0
CIRCLE
  5
9F7
330
18
100
AcDbEntity
  8
隠れ線
 62
     4
 48
0.5
100
AcDbCircle
 10
367.6666420523735
 20
182.5842757451313
 30
0.0
 40
1.5
  0
DIMENSION
  5
A1A
330
18
100
AcDbEntity
  8
外形線
100
AcDbDimension
  2
*D2
 10
508.5551471683561
 20
174.9020709364857
 30
0.0
 11
506.680147168356
 21
189.9020709364858
 31
0.0
 70
    32
 71
     5
 42
30.0
  3
STYLE3
100
AcDbAlignedDimension
 13
492.2108251996917
 23
204.9020709364857
 33
0.0
 14
492.2108251996917
 24
174.9020709364857
 34
0.0
 50
90.0
100
AcDbRotatedDimension
1001
ACAD
1000
DSTYLE
1002
{
1070
   271
1070
     2
1002
}
  0
DIMENSION
  5
A33
330
18
100
AcDbEntity
  8
外形線
100
AcDbDimension
  2
*D3
 10
497.2108251996917
 20
100.9474132299167
 30
0.0
 11
447.2108251996917
 21
102.8224132299167
 31
0.0
 70
    32
 71
     5
 42
-1.0
  3
STYLE3
100
AcDbAlignedDimension
 13
397.2108251996917
 23
176.2020709364857
 33
0.0
 14
497.2108251996917
 24
176.2020709364857
 34
0.0
100
AcDbRotatedDimension
1001
ACAD
1000
DSTYLE
1002
{
1070
    75
1070
     1
1070
   271
1070
     2
1070
   279
1070
     1
1002
}
  0
CIRCLE
  5
A5F
330
18
100
AcDbEntity
  8
外形線
100
AcDbCircle
 10
314.9108251996918
 20
261.9020709364856
 30
0.0
 40
1.85
  0
CIRCLE
  5
A60
330
18
100
AcDbEntity
  8
外形線
100
AcDbCircle
 10
314.7108251996917
 20
175.1020709364857
 30
0.0
 40
1.85
  0
LINE
  5
A61
330
18
100
AcDbEntity
  8
想像線
100
AcDbLine
 10
309.2108251996917
 20
296.7170664243468
 30
0.0
 11
309.2108251996917
 21
144.2944010711923
 31
0.0
  0
LINE
  5
A6F
330
18
100
AcDbEntity
  8
中心線
100
AcDbLine
 10
311.9885123680238
 20
261.9020709364856
 30
0.0
 11
318.0090444557182
 21
261.9020709364856
 31
0.0
  0
LINE
  5
A70
330
18
100
AcDbEntity
  8
中心線
100
AcDbLine
 10
311.452009401978
 20
175.1020709364857
 30
0.0
 11
318.3687802645891
 21
175.1020709364857
 31
0.0
  0
LINE
  5
A71
330
18
100
AcDbEntity
  8
外形線
100
AcDbLine
 10
317.5456969412307
 20
257.9020709364856
 30
0.0
 11
317.3768010602357
 21
179.1020709364857
 31
0.0
  0
LINE
  5
A72
330
18
100
AcDbEntity
  8
外形線
100
AcDbLine
 10
312.2456847672935
 20
257.9020709364856
 30
0.0
 11
312.0767888862986
 21
179.1020709364857
 31
0.0
  0
LINE
  5
A73
330
18
100
AcDbEntity
  8
外形線
100
AcDbLine
 10
312.2456847672935
 20
257.9020709364856
 30
0.0
 11
317.5456969412307
 21
257.9020709364856
 31
0.0
  0
LINE
  5
A74
330
18
100
AcDbEntity
  8
外形線
100
AcDbLine
 10
312.0767888862986
 20
179.1020709364857
 30
0.0
 11
317.3768010602357
 21
179.1020709364857
 31
0.0
  0
LINE
  5
A75
330
18
100
AcDbEntity
  8
想像線
100
AcDbLine
 10
317.2456976303199
 20
259.3720298309523
 30
0.0
 11
317.0768017493249
 21
177.3579009883691
 31
0.0
  0
LINE
  5
A76
330
18
100
AcDbEntity
  8
想像線
100
AcDbLine
 10
312.5456840782043
 20
259.5544085312881
 30
0.0
 11
312.3767881972093
 21
177.448447335391
 31
0.0
  0
ARC
  5
A79
330
18
100
AcDbEntity
  8
隠れ線
 62
     4
 48
0.3
100
AcDbCircle
 10
307.6108251996917
 20
233.9020709364857
 30
0.0
 40
25.0
100
AcDbArc
 50
66.590242552983
 51
73.73979529168739
  0
ARC
  5
A7A
330
18
100
AcDbEntity
  8
外形線
100
AcDbCircle
 10
307.6108251996917
 20
233.9020709364857
 30
0.0
 40
25.0
100
AcDbArc
 50
73.73979529168739
 51
91.38556196555787
  0
ARC
  5
A7D
330
18
100
AcDbEntity
  8
隠れ線
 62
     4
 48
0.5
100
AcDbCircle
 10
311.2108251996917
 20
198.6770709364856
 30
0.0
 40
18.0
100
AcDbArc
 50
272.7684138467898
 51
290.0519293792333
  0
ARC
  5
A7E
330
18
100
AcDbEntity
  8
外形線
100
AcDbCircle
 10
311.2108251996917
 20
198.6770709364857
 30
0.0
 40
18.0
100
AcDbArc
 50
290.0519293792331
 51
346.7251323108907
  0
LINE
  5
A80
330
18
100
AcDbEntity
  8
想像線
 48
0.3
100
AcDbLine
 10
192.1961041617603
 20
272.4373734278805
 30
0.0
 11
192.1961041617603
 21
257.506487852593
 31
0.0
  0
LINE
  5
A81
330
18
100
AcDbEntity
  8
想像線
 48
0.3
100
AcDbLine
 10
196.1961041617603
 20
272.700782880881
 30
0.0
 11
196.1961041617603
 21
257.5548554463052
 31
0.0
  0
LINE
  5
A83
330
18
100
AcDbEntity
  8
想像線
 48
0.3
100
AcDbLine
 10
192.1961041617603
 20
179.2683601064098
 30
0.0
 11
192.1961041617603
 21
164.163858150054
 31
0.0
  0
LINE
  5
A84
330
18
100
AcDbEntity
  8
想像線
 48
0.3
100
AcDbLine
 10
196.1961041617603
 20
179.3157058739851
 30
0.0
 11
196.1961041617603
 21
163.9522960344329
 31
0.0
  0
DIMENSION
  5
A93
330
18
100
AcDbEntity
  8
寸法線
100
AcDbDimension
  2
*D6
 10
196.1961041617603
 20
281.9991259379889
 30
0.0
 11
194.1961041617603
 21
283.8741259379889
 31
0.0
 70
    32
  1
3
 71
     5
 42
4.0
  3
STYLE3
100
AcDbAlignedDimension
 13
192.1961041617603
 23
272.4373734278805
 33
0.0
 14
196.1961041617603
 24
272.700782880881
 34
0.0
100
AcDbRotatedDimension
1001
ACAD
1000
DSTYLE
1002
{
1070
   271
1070
     2
1002
}
  0
DIMENSION
  5
AAF
330
18
100
AcDbEntity
  8
寸法線
100
AcDbDimension
  2
*D7
 10
196.1961041617603
 20
150.1260599513946
 30
0.0
 11
194.1961041617603
 21
152.0010599513946
 31
0.0
 70
    32
  1
3
 71
     5
 42
3.999999999999971
  3
STYLE3
100
AcDbAlignedDimension
 13
192.1961041617603
 23
164.163858150054
 33
0.0
 14
196.1961041617603
 24
163.9522960344329
 34
0.0
100
AcDbRotatedDimension
1001
ACAD
1000
DSTYLE
1002
{
1070
   271
1070
     2
1002
}
  0
POINT
  5
ACA
330
18
100
AcDbEntity
  8
DEFPOINTS
  6
ByBlock
 62
     0
100
AcDbPoint
 10
349.2108251996917
 20
189.9020709364857
 30
0.0
  0
POINT
  5
ADF
330
18
100
AcDbEntity
  8
DEFPOINTS
  6
ByBlock
 62
     0
100
AcDbPoint
 10
89.21082519969171
 20
189.9020709364857
 30
0.0
  0
ARC
  5
B67
330
18
100
AcDbEntity
  8
寸法線
100
AcDbCircle
 10
114.3217496704796
 20
112.580150842626
 30
0.0
 40
11.0
100
AcDbArc
 50
194.7587586849009
 51
225.1485252881631
  0
ARC
  5
B68
330
18
100
AcDbEntity
  8
寸法線
100
AcDbCircle
 10
122.0836757606527
 20
111.3389416612179
 30
0.0
 40
22.31015602562545
100
AcDbArc
 50
187.8260623680007
 51
203.5174230493436
  0
ARC
  5
B69
330
18
100
AcDbEntity
  8
寸法線
100
AcDbCircle
 10
101.8927409917625
 20
108.8896572083847
 30
0.0
 40
2.0
100
AcDbArc
 50
26.3672455198798
 51
197.1157243966371
  0
POINT
  5
B6A
330
18
100
AcDbEntity
  8
寸法線
  6
ByBlock
100
AcDbPoint
 10
101.5185630429299
 20
110.854343153417
 30
0.0
  0
LINE
  5
B6D
330
18
100
AcDbEntity
  8
0
  6
ByBlock
 62
     2
100
AcDbLine
 10
89.21082519969152
 20
189.9020709364856
 30
0.0
 11
63.91589813519335
 21
185.9636486717995
 31
0.0
  0
LINE
  5
B6E
330
18
100
AcDbEntity
  8
0
  6
ByBlock
 62
     2
100
AcDbLine
 10
101.5185630429302
 20
110.8543431534171
 30
0.0
 11
76.22363597843198
 21
106.915920888731
 31
0.0
  0
LINE
  5
B6F
330
18
100
AcDbEntity
  8
0
  6
ByBlock
 62
     2
100
AcDbLine
 10
65.53563269309069
 20
183.685719796274
 30
0.0
 11
77.07413834411403
 21
109.5784658603641
 31
0.0
  0
INSERT
  5
B70
330
18
100
AcDbEntity
  8
0
  6
ByBlock
 62
     2
100
AcDbBlockReference
  2
_OPEN
 10
65.15101659698306
 20
186.1559567198534
 30
0.0
 41
2.5
 42
2.5
 43
2.5
 50
98.84989960109813
  0
INSERT
  5
B71
330
18
100
AcDbEntity
  8
0
  6
ByBlock
 62
     2
100
AcDbBlockReference
  2
_OPEN
 10
77.45875444022167
 20
107.1082289367848
 30
0.0
 41
2.5
 42
2.5
 43
2.5
 50
278.8498996010981
  0
POINT
  5
B73
330
18
100
AcDbEntity
  8
DEFPOINTS
  6
ByBlock
 62
     0
100
AcDbPoint
 10
89.21082519969152
 20
189.9020709364856
 30
0.0
  0
POINT
  5
B74
330
18
100
AcDbEntity
  8
DEFPOINTS
  6
ByBlock
 62
     0
100
AcDbPoint
 10
101.5185630429302
 20
110.8543431534171
 30
0.0
  0
POINT
  5
B75
330
18
100
AcDbEntity
  8
DEFPOINTS
  6
ByBlock
 62
     0
100
AcDbPoint
 10
77.45875444022167
 20
107.1082289367848
 30
0.0
  0
MTEXT
  5
B77
330
18
100
AcDbEntity
  8
0
  6
ByBlock
 62
     6
100
AcDbMText
 10
69.49124416819589
 20
146.5349760245321
 30
0.0
 40
2.499999999999999
 41
0.0
 71
     5
 72
     1
  1
\A1;80
  7
STYLE3
 11
-0.153846438443056
 21
0.9880947694317519
 31
0.0
 73
     1
 44
1.0
  0
LINE
  5
B85
330
18
100
AcDbEntity
  8
0
  6
ByBlock
 62
     2
100
AcDbLine
 10
89.21082519969173
 20
283.1164956804323
 30
0.0
 11
89.21082519969173
 21
296.7170664243468
 31
0.0
  0
LINE
  5
B87
330
18
100
AcDbEntity
  8
0
  6
ByBlock
 62
     2
100
AcDbLine
 10
91.71082519969173
 20
295.4670664243469
 30
0.0
 11
306.7108251996917
 21
295.4670664243469
 31
0.0
  0
INSERT
  5
B88
330
18
100
AcDbEntity
  8
0
  6
ByBlock
 62
     2
100
AcDbBlockReference
  2
_OPEN
 10
89.21082519969173
 20
295.4670664243469
 30
0.0
 41
2.5
 42
2.5
 43
2.5
 50
180.0
  0
INSERT
  5
B89
330
18
100
AcDbEntity
  8
0
  6
ByBlock
 62
     2
100
AcDbBlockReference
  2
_OPEN
 10
309.2108251996917
 20
295.4670664243469
 30
0.0
 41
2.5
 42
2.5
 43
2.5
  0
MTEXT
  5
B8A
330
18
100
AcDbEntity
  8
0
  6
ByBlock
 62
     6
100
AcDbMText
 10
199.2108251996917
 20
297.3420664243469
 30
0.0
 40
2.5
 41
0.0
 71
     5
 72
     1
  1
\A1;220
  7
STYLE3
 73
     1
 44
1.0
  0
POINT
  5
B8B
330
18
100
AcDbEntity
  8
DEFPOINTS
  6
ByBlock
 62
     0
100
AcDbPoint
 10
89.21082519969173
 20
283.1164956804323
 30
0.0
  0
POINT
  5
B8D
330
18
100
AcDbEntity
  8
DEFPOINTS
  6
ByBlock
 62
     0
100
AcDbPoint
 10
309.2108251996917
 20
295.4670664243469
 30
0.0
  0
LINE
  5
B99
330
18
100
AcDbEntity
  8
0
  6
ByBlock
 62
     2
100
AcDbLine
 10
349.2108251996917
 20
189.9020709364856
 30
0.0
 11
105.4870402968905
 21
99.35530582224696
 31
0.0
  0
MTEXT
  5
B9A
330
18
100
AcDbEntity
  8
0
  6
ByBlock
 62
     6
100
AcDbMText
 10
191.607387243075
 20
133.3504238194387
 30
0.0
 40
2.5
 41
0.0
 71
     5
 72
     1
  1
\A1;R260
  7
STYLE3
 11
0.9373991727030814
 21
0.348256788900918
 31
0.0
 73
     1
 44
1.0
  0
INSERT
  5
B9B
330
18
100
AcDbEntity
  8
0
  6
ByBlock
 62
     2
100
AcDbBlockReference
  2
_OPEN
 10
105.4870402968905
 20
99.35530582224696
 30
0.0
 41
2.5
 42
2.5
 43
2.5
 50
200.3807295478641
  0
POINT
  5
B9C
330
18
100
AcDbEntity
  8
DEFPOINTS
  6
ByBlock
 62
     0
100
AcDbPoint
 10
105.4870402968905
 20
99.35530582224696
 30
0.0
  0
POINT
  5
B9D
330
18
100
AcDbEntity
  8
DEFPOINTS
  6
ByBlock
 62
     0
100
AcDbPoint
 10
349.2108251996917
 20
189.9020709364856
 30
0.0
  0
DIMENSION
  5
BC1
330
18
100
AcDbEntity
  8
寸法線
100
AcDbDimension
  2
*D8
 10
497.2108251996917
 20
87.87082825714184
 30
0.0
 11
293.2108251996917
 21
89.74582825714184
 31
0.0
 70
    32
 71
     5
 42
408.0
  3
STYLE3
100
AcDbAlignedDimension
 13
89.21082519969173
 23
97.72914795126149
 33
0.0
 14
497.2108251996917
 24
99.69741322991673
 34
0.0
100
AcDbRotatedDimension
1001
ACAD
1000
DSTYLE
1002
{
1070
   271
1070
     2
1002
}
  0
LINE
  5
BE3
330
18
100
AcDbEntity
  8
隠れ線
 62
     4
 48
0.3
100
AcDbLine
 10
88.21082519969172
 20
194.9020709364857
 30
0.0
 11
90.21082519969173
 21
194.9020709364857
 31
0.0
  0
LINE
  5
BE4
330
18
100
AcDbEntity
  8
隠れ線
 62
     4
 48
0.3
100
AcDbLine
 10
88.21082519969172
 20
184.9020709364857
 30
0.0
 11
90.21082519969171
 21
184.9020709364857
 31
0.0
  0
LINE
  5
BE6
330
18
100
AcDbEntity
  8
隠れ線
 62
     4
 48
0.3
100
AcDbLine
 10
90.21082519969173
 20
194.9020709364857
 30
0.0
 11
90.21082519969173
 21
190.1700201289168
 31
0.0
  0
LINE
  5
BE7
330
18
100
AcDbEntity
  8
隠れ線
 62
     4
 48
0.3
100
AcDbLine
 10
88.21082519969172
 20
194.9020709364857
 30
0.0
 11
88.21082519969172
 21
190.1700201289168
 31
0.0
  0
LINE
  5
BE8
330
18
100
AcDbEntity
  8
隠れ線
 62
     4
 48
0.3
100
AcDbLine
 10
90.21082519969171
 20
189.6341217440546
 30
0.0
 11
90.21082519969171
 21
184.9020709364857
 31
0.0
  0
LINE
  5
BE9
330
18
100
AcDbEntity
  8
隠れ線
 62
     4
 48
0.3
100
AcDbLine
 10
88.21082519969172
 20
189.6341217440545
 30
0.0
 11
88.21082519969172
 21
184.9020709364857
 31
0.0
  0
LINE
  5
C0F
330
18
100
AcDbEntity
  8
外形線
100
AcDbLine
 10
378.9610533784231
 20
175.0564770992347
 30
0.0
 11
386.0695730708158
 21
176.6506530745191
 31
0.0
  0
LINE
  5
C29
330
18
100
AcDbEntity
  8
外形線
 48
0.5
100
AcDbLine
 10
367.6372393915386
 20
206.0548929213065
 30
0.0
 11
375.364646001851
 21
208.1254452821266
 31
0.0
  0
LINE
  5
C57
330
18
100
AcDbEntity
  8
0
  6
ByBlock
 62
     2
100
AcDbLine
 10
349.2108251996917
 20
156.1238179755109
 30
0.0
 11
349.2108251996918
 21
99.69741322991673
 31
0.0
  0
LINE
  5
C58
330
18
100
AcDbEntity
  8
0
  6
ByBlock
 62
     2
100
AcDbLine
 10
397.2108251996917
 20
176.2020709364857
 30
0.0
 11
397.2108251996917
 21
99.69741322991673
 31
0.0
  0
LINE
  5
C59
330
18
100
AcDbEntity
  8
0
  6
ByBlock
 62
     2
100
AcDbLine
 10
351.7108251996918
 20
100.9474132299167
 30
0.0
 11
394.7108251996917
 21
100.9474132299167
 31
0.0
  0
INSERT
  5
C5A
330
18
100
AcDbEntity
  8
0
  6
ByBlock
 62
     2
100
AcDbBlockReference
  2
_OPEN
 10
349.2108251996918
 20
100.9474132299167
 30
0.0
 41
2.5
 42
2.5
 43
2.5
 50
180.0
  0
INSERT
  5
C5B
330
18
100
AcDbEntity
  8
0
  6
ByBlock
 62
     2
100
AcDbBlockReference
  2
_OPEN
 10
397.2108251996917
 20
100.9474132299167
 30
0.0
 41
2.5
 42
2.5
 43
2.5
  0
MTEXT
  5
C5C
330
18
100
AcDbEntity
  8
0
  6
ByBlock
 62
     6
100
AcDbMText
 10
373.2108251996917
 20
102.8224132299167
 30
0.0
 40
2.5
 41
0.0
 71
     5
 72
     1
  1
\A1;48
  7
STYLE3
 73
     1
 44
1.0
  0
POINT
  5
C5D
330
18
100
AcDbEntity
  8
DEFPOINTS
  6
ByBlock
 62
     0
100
AcDbPoint
 10
349.2108251996918
 20
103.6237453666971
 30
0.0
  0
POINT
  5
C5E
330
18
100
AcDbEntity
  8
DEFPOINTS
  6
ByBlock
 62
     0
100
AcDbPoint
 10
397.2108251996917
 20
176.2020709364857
 30
0.0
  0
POINT
  5
C5F
330
18
100
AcDbEntity
  8
DEFPOINTS
  6
ByBlock
 62
     0
100
AcDbPoint
 10
397.2108251996917
 20
100.9474132299167
 30
0.0
  0
ARC
  5
C62
330
18
100
AcDbEntity
  8
隠れ線
 62
     4
 48
0.3
100
AcDbCircle
 10
388.9108251996918
 20
171.7020709364857
 30
0.0
 40
10.5
100
AcDbArc
 50
128.2669947756624
 51
142.3472215038851
  0
ARC
  5
C63
330
18
100
AcDbEntity
  8
外形線
100
AcDbCircle
 10
388.9108251996918
 20
171.7020709364857
 30
0.0
 40
10.5
100
AcDbArc
 50
142.3472215038851
 51
236.5341145611683
  0
LINE
  5
C7F
330
18
100
AcDbEntity
  8
隠れ線2
100
AcDbLine
 10
397.2108251996917
 20
201.6520709364857
 30
0.0
 11
485.7108251996917
 21
201.6520709364857
 31
0.0
  0
LINE
  5
C80
330
18
100
AcDbEntity
  8
隠れ線2
100
AcDbLine
 10
397.2108251996917
 20
178.1520709364857
 30
0.0
 11
485.7108251996917
 21
178.1520709364857
 31
0.0
  0
LINE
  5
C81
330
18
100
AcDbEntity
  8
隠れ線2
100
AcDbLine
 10
487.2108251996918
 20
200.1520709364857
 30
0.0
 11
487.2108251996918
 21
179.6520709364857
 31
0.0
  0
ARC
  5
C82
330
18
100
AcDbEntity
  8
隠れ線2
100
AcDbCircle
 10
485.7108251996917
 20
200.1520709364857
 30
0.0
 40
1.5
100
AcDbArc
 50
0.0
 51
90.0
  0
ARC
  5
C83
330
18
100
AcDbEntity
  8
隠れ線2
100
AcDbCircle
 10
485.7108251996917
 20
179.6520709364857
 30
0.0
 40
1.5
100
AcDbArc
 50
270.0
 51
359.9999999999999
  0
TEXT
  5
EF0
330
18
100
AcDbEntity
  8
文字
100
AcDbText
 10
223.1984955574709
 20
355.4742914685651
 30
0.0
 40
4.0
  1
Model No.LA-21 Outside Dial Caliper Gauge
  7
STYLE3
100
AcDbText
  0
LINE
  5
EF1
330
18
100
AcDbEntity
  8
外形線
100
AcDbLine
 10
222.6657255574708
 20
352.9695744685651
 30
0.0
 11
352.6657255574708
 21
352.9695744685651
 31
0.0
  0
LINE
  5
EF2
330
18
100
AcDbEntity
  8
外形線
100
AcDbLine
 10
222.6657255574708
 20
351.9695744685651
 30
0.0
 11
352.6657255574708
 21
351.9695744685651
 31
0.0
  0
LINE
  5
EF3
330
18
100
AcDbEntity
  8
外形線
100
AcDbLine
 10
525.8176486943709
 20
20.69931968152262
 30
0.0
 11
525.8176486943709
 21
11.08454168152261
 31
0.0
  0
TEXT
  5
EF4
330
18
100
AcDbEntity
  8
0
  6
Continuous
100
AcDbText
 10
498.0172506943708
 20
12.83268368152261
 30
0.0
 40
2.1
  1
Date
  7
STYLE3
100
AcDbText
  0
LINE
  5
EF5
330
18
100
AcDbEntity
  8
外形線
100
AcDbLine
 10
496.0852996943708
 20
20.69931968152262
 30
0.0
 11
496.0852996943708
 21
11.08454168152261
 31
0.0
  0
TEXT
  5
EF6
330
18
100
AcDbEntity
  8
0
  6
Continuous
100
AcDbText
 10
497.6338896943708
 20
16.16576768152261
 30
0.0
 40
3.0
  1
日 付
  7
STYLE3
100
AcDbText
  0
TEXT
  5
EF7
330
18
100
AcDbEntity
  8
0
  6
Continuous
100
AcDbText
 10
506.7620576943708
 20
14.58082468152261
 30
0.0
 40
2.1
  1
2010.06.28
  7
STYLE3
100
AcDbText
  0
TEXT
  5
EF8
330
18
100
AcDbEntity
  8
0
  6
Continuous
100
AcDbText
 10
487.9234786943708
 20
14.87218268152261
 30
0.0
 40
2.399999999999999
  1
1/1
  7
STYLE3
100
AcDbText
  0
LINE
  5
EF9
330
18
100
AcDbEntity
  8
外形線
100
AcDbLine
 10
476.5552276943709
 20
20.69931968152262
 30
0.0
 11
476.5552276943709
 21
11.08454168152261
 31
0.0
  0
TEXT
  5
EFA
330
18
100
AcDbEntity
  8
0
  6
Continuous
100
AcDbText
 10
477.8409746943708
 20
16.04356168152262
 30
0.0
 40
3.0
  1
尺 度
  7
STYLE3
100
AcDbText
  0
TEXT
  5
EFB
330
18
100
AcDbEntity
  8
0
  6
Continuous
100
AcDbText
 10
478.3041896943709
 20
13.12404068152261
 30
0.0
 40
2.1
  1
Scale
  7
STYLE3
100
AcDbText
  0
TEXT
  5
EFC
330
18
100
AcDbEntity
  8
0
  6
Continuous
100
AcDbText
 10
460.6947996943708
 20
12.83268368152261
 30
0.0
 40
2.1
  1
Unit
  7
STYLE3
100
AcDbText
  0
LINE
  5
EFD
330
18
100
AcDbEntity
  8
外形線
100
AcDbLine
 10
459.0656096943708
 20
20.69931968152262
 30
0.0
 11
459.0656096943708
 21
11.08454168152261
 31
0.0
  0
TEXT
  5
EFE
330
18
100
AcDbEntity
  8
0
  6
Continuous
100
AcDbText
 10
460.5230786943708
 20
16.33491968152261
 30
0.0
 40
3.0
  1
単位
  7
STYLE3
100
AcDbText
  0
TEXT
  5
EFF
330
18
100
AcDbEntity
  8
0
  6
Continuous
100
AcDbText
 10
468.5651266943708
 20
14.58082568152261
 30
0.0
 40
2.399999999999999
  1
mm
  7
STYLE3
100
AcDbText
  0
TEXT
  5
F00
330
18
100
AcDbEntity
  8
0
  6
Continuous
100
AcDbText
 10
527.1666126943708
 20
16.62032168152261
 30
0.0
 40
3.0
  1
株式会社　尾崎製作所
  7
STYLE3
100
AcDbText
  0
TEXT
  5
F01
330
18
100
AcDbEntity
  8
0
  6
Continuous
100
AcDbText
 10
528.0410906943708
 20
12.83268268152261
 30
0.0
 40
2.1
  1
OZAKI MFG. CO., LTD.
  7
STYLE3
100
AcDbText
  0
LINE
  5
F02
330
18
100
AcDbEntity
  8
外形線
100
AcDbLine
 10
423.7948816943708
 20
11.08454168152261
 30
0.0
 11
423.7948816943708
 21
31.47952568152262
 31
0.0
  0
LINE
  5
F03
330
18
100
AcDbEntity
  8
外形線
100
AcDbLine
 10
423.7948816943708
 20
31.47952568152262
 30
0.0
 11
564.5862996943708
 21
31.47952568152262
 31
0.0
  0
LINE
  5
F04
330
18
100
AcDbEntity
  8
外形線
100
AcDbLine
 10
423.7948816943708
 20
20.69931968152262
 30
0.0
 11
564.5862996943708
 21
20.69931968152262
 31
0.0
  0
TEXT
  5
F05
330
18
100
AcDbEntity
  8
0
  6
Continuous
100
AcDbText
 10
425.2523496943708
 20
22.59730968152262
 30
0.0
 40
2.1
  1
Design and specifications are subject to change without notice for future improvement.
  7
STYLE3
100
AcDbText
  0
TEXT
  5
F06
330
18
100
AcDbEntity
  8
0
  6
Continuous
100
AcDbText
 10
425.5438436943708
 20
26.52645768152261
 30
0.0
 40
3.5
  1
仕様及び外観は予告なく変更される場合がございますのでご了承下さい。
  7
STYLE3
100
AcDbText
  0
TEXT
  5
F07
330
18
100
AcDbEntity
  8
0
  6
Continuous
100
AcDbText
 10
424.9608576943709
 20
12.83268268152261
 30
0.0
 40
2.1
  1
3RD Angle Projection
  7
STYLE3
100
AcDbText
  0
TEXT
  5
F08
330
18
100
AcDbEntity
  8
0
  6
Continuous
100
AcDbText
 10
427.5843006943708
 20
16.32896568152261
 30
0.0
 40
3.0
  1
三　　角　　法
  7
STYLE3
100
AcDbText
  0
ENDSEC
  0
SECTION
  2
OBJECTS
  0
DICTIONARY
  5
C
330
0
100
AcDbDictionary
281
     1
  3
ACAD_COLOR
350
CAC
  3
ACAD_GROUP
350
D
  3
ACAD_LAYOUT
350
CAF
  3
ACAD_MATERIAL
350
CAB
  3
ACAD_MLINESTYLE
350
1B
  3
ACAD_PLOTSETTINGS
350
CB0
  3
ACAD_PLOTSTYLENAME
350
CA9
  3
ACAD_TABLESTYLE
350
CAD
  3
AcDbVariableDictionary
350
CD2
  0
DICTIONARY
  5
E01
330
18
100
AcDbDictionary
280
     1
281
     1
  3
ACAD_SORTENTS
360
E02
  0
DICTIONARY
  5
CAC
102
{ACAD_REACTORS
330
C
102
}
330
C
100
AcDbDictionary
281
     1
  0
DICTIONARY
  5
D
102
{ACAD_REACTORS
330
C
102
}
330
C
100
AcDbDictionary
281
     1
  0
DICTIONARY
  5
CAF
102
{ACAD_REACTORS
330
C
102
}
330
C
100
AcDbDictionary
281
     1
  3
Model
350
CB1
  3
レイアウト1
350
CB2
  0
DICTIONARY
  5
CAB
102
{ACAD_REACTORS
330
C
102
}
330
C
100
AcDbDictionary
281
     1
  0
DICTIONARY
  5
1B
102
{ACAD_REACTORS
330
C
102
}
330
C
100
AcDbDictionary
281
     1
  3
STANDARD
350
1C
  0
DICTIONARY
  5
CB0
102
{ACAD_REACTORS
330
C
102
}
330
C
100
AcDbDictionary
281
     1
  0
ACDBDICTIONARYWDFLT
  5
CA9
102
{ACAD_REACTORS
330
C
102
}
330
C
100
AcDbDictionary
281
     1
  3
Normal
350
CAA
100
AcDbDictionaryWithDefault
340
CAA
  0
DICTIONARY
  5
CAD
102
{ACAD_REACTORS
330
C
102
}
330
C
100
AcDbDictionary
281
     1
  3
Standard
350
CAE
  0
DICTIONARY
  5
CD2
102
{ACAD_REACTORS
330
C
102
}
330
C
100
AcDbDictionary
281
     1
  3
CTABLESTYLE
350
CD3
  0
SORTENTSTABLE
  5
E02
102
{ACAD_REACTORS
330
E01
102
}
330
E01
100
AcDbSortentsTable
330
18
331
C5D
  5
C5E
331
BE6
  5
BE7
331
939
  5
939
331
902
  5
902
331
978
  5
978
331
38A
  5
38A
331
34B
  5
34B
331
1C6
  5
1C6
331
2B4
  5
2B4
331
411
  5
411
331
187
  5
187
331
9B7
  5
9B7
331
941
  5
941
331
90A
  5
90A
331
8B3
  5
8B3
331
980
  5
980
331
870
  5
870
331
419
  5
419
331
353
  5
353
331
392
  5
392
331
24D
  5
24D
331
18F
  5
18F
331
9BF
  5
9BF
331
988
  5
988
331
912
  5
912
331
8D3
  5
8D3
331
949
  5
949
331
A75
  5
A75
331
421
  5
421
331
35B
  5
35B
331
39A
  5
39A
331
878
  5
878
331
197
  5
197
331
990
  5
990
331
951
  5
951
331
8DB
  5
8DB
331
91A
  5
91A
331
9C7
  5
9C7
331
A7D
  5
A7D
331
429
  5
429
331
3F2
  5
3F2
331
363
  5
363
331
19F
  5
19F
331
226
  5
226
331
880
  5
880
331
BC7
  5
BC7
331
959
  5
959
331
8E3
  5
8E3
331
922
  5
922
331
998
  5
998
331
888
  5
888
331
3FA
  5
3FA
331
36B
  5
36B
331
22E
  5
22E
331
2D4
  5
2D4
331
431
  5
431
331
1A7
  5
1A7
331
9DF
  5
9DF
331
961
  5
961
331
92A
  5
92A
331
8EB
  5
8EB
331
9A0
  5
9A0
331
439
  5
439
331
373
  5
373
331
402
  5
402
331
236
  5
236
331
1AF
  5
1AF
331
2DC
  5
2DC
331
9A8
  5
9A8
331
932
  5
932
331
8F3
  5
8F3
331
969
  5
969
331
B74
  5
B74
331
898
  5
898
331
37B
  5
37B
331
23E
  5
23E
331
344
  5
344
331
40A
  5
40A
331
1B7
  5
1B7
331
8FB
  5
8FB
331
971
  5
971
331
9F7
  5
9F7
331
1BF
  5
1BF
331
383
  5
383
331
B88
  5
B88
331
C5E
  5
C5F
331
BE7
  5
BE8
331
BF7
  5
BF9
331
9B0
  5
9B0
331
979
  5
979
331
903
  5
903
331
93A
  5
93A
331
412
  5
412
331
38B
  5
38B
331
1C7
  5
1C7
331
246
  5
246
331
34C
  5
34C
331
188
  5
188
331
981
  5
981
331
942
  5
942
331
8B4
  5
8B4
331
90B
  5
90B
331
9B8
  5
9B8
331
41A
  5
41A
331
393
  5
393
331
2BD
  5
2BD
331
354
  5
354
331
871
  5
871
331
190
  5
190
331
9C0
  5
9C0
331
94A
  5
94A
331
913
  5
913
331
8D4
  5
8D4
331
989
  5
989
331
A76
  5
A76
331
879
  5
879
331
39B
  5
39B
331
35C
  5
35C
331
422
  5
422
331
21F
  5
21F
331
198
  5
198
331
9C8
  5
9C8
331
952
  5
952
331
91B
  5
91B
331
991
  5
991
331
A7E
  5
A7E
331
42A
  5
42A
331
364
  5
364
331
3F3
  5
3F3
331
C0F
  5
C29
331
BC8
  5
BC8
331
BD0
  5
BD1
331
C57
  5
C58
331
1A0
  5
1A0
331
999
  5
999
331
923
  5
923
331
8E4
  5
8E4
331
95A
  5
95A
331
432
  5
432
331
36C
  5
36C
331
3FB
  5
3FB
331
889
  5
889
331
2D5
  5
2D5
331
22F
  5
22F
331
1A8
  5
1A8
331
28E
  5
28E
331
9A1
  5
9A1
331
962
  5
962
331
8EC
  5
8EC
331
92B
  5
92B
331
B6D
  5
B6D
331
43A
  5
43A
331
403
  5
403
331
374
  5
374
331
96A
  5
96A
331
8F4
  5
8F4
331
933
  5
933
331
9A9
  5
9A9
331
A5F
  5
A5F
331
B75
  5
B75
331
40B
  5
40B
331
37C
  5
37C
331
899
  5
899
331
23F
  5
23F
331
1B8
  5
1B8
331
345
  5
345
331
972
  5
972
331
8FC
  5
8FC
331
B85
  5
B85
331
384
  5
384
331
B89
  5
B89
331
B99
  5
B99
331
BE8
  5
BE9
331
C5F
  5
C62
331
C7F
  5
C80
331
9B1
  5
9B1
331
93B
  5
93B
331
904
  5
904
331
97A
  5
97A
331
1C0
  5
1C0
331
38C
  5
38C
331
34D
  5
34D
331
A6F
  5
A6F
331
247
  5
247
331
9B9
  5
9B9
331
1C8
  5
1C8
331
982
  5
982
331
90C
  5
90C
331
943
  5
943
331
189
  5
189
331
2B6
  5
2B6
331
413
  5
413
331
41B
  5
41B
331
9C1
  5
9C1
331
355
  5
355
331
98A
  5
98A
331
914
  5
914
331
8D5
  5
8D5
331
94B
  5
94B
331
191
  5
191
331
394
  5
394
331
423
  5
423
331
39C
  5
39C
331
9C9
  5
9C9
331
220
  5
220
331
992
  5
992
331
953
  5
953
331
8DD
  5
8DD
331
91C
  5
91C
331
199
  5
199
331
2C6
  5
2C6
331
35D
  5
35D
331
87A
  5
87A
331
42B
  5
42B
331
3F4
  5
3F4
331
365
  5
365
331
882
  5
882
331
BC1
  5
BC1
331
BC9
  5
BC9
331
BD1
  5
BD2
331
9D9
  5
9D9
331
95B
  5
95B
331
924
  5
924
331
8E5
  5
8E5
331
99A
  5
99A
331
88A
  5
88A
331
3FC
  5
3FC
331
B6E
  5
B6E
331
36D
  5
36D
331
2D6
  5
2D6
331
963
  5
963
331
92C
  5
92C
331
8ED
  5
8ED
331
9A2
  5
9A2
331
1A9
  5
1A9
331
433
  5
433
331
892
  5
892
331
43B
  5
43B
331
375
  5
375
331
A60
  5
A60
331
9AA
  5
9AA
331
934
  5
934
331
8F5
  5
8F5
331
96B
  5
96B
331
238
  5
238
331
297
  5
297
331
404
  5
404
331
37D
  5
37D
331
AAF
  5
AAF
331
346
  5
346
331
8FD
  5
8FD
331
973
  5
973
331
1B9
  5
1B9
331
40C
  5
40C
331
89A
  5
89A
331
385
  5
385
331
B8A
  5
B8A
331
C58
  5
C59
331
B9A
  5
B9A
331
BE9
  5
BF4
331
BF9
  5
BFA
331
C80
  5
C81
331
97B
  5
97B
331
905
  5
905
331
93C
  5
93C
331
9B2
  5
9B2
331
1C1
  5
1C1
331
414
  5
414
331
38D
  5
38D
331
A70
  5
A70
331
248
  5
248
331
9BA
  5
9BA
331
983
  5
983
331
944
  5
944
331
90D
  5
90D
331
18A
  5
18A
331
1C9
  5
1C9
331
34E
  5
34E
331
873
  5
873
331
395
  5
395
331
9C2
  5
9C2
331
94C
  5
94C
331
915
  5
915
331
8D6
  5
8D6
331
98B
  5
98B
331
192
  5
192
331
356
  5
356
331
41C
  5
41C
331
87B
  5
87B
331
39D
  5
39D
331
ADF
  5
ADF
331
A80
  5
A80
331
35E
  5
35E
331
9CA
  5
9CA
331
221
  5
221
331
993
  5
993
331
91D
  5
91D
331
954
  5
954
331
19A
  5
19A
331
424
  5
424
331
883
  5
883
331
42C
  5
42C
331
B67
  5
B67
331
3F5
  5
3F5
331
C29
  5
C57
331
BCA
  5
BCA
331
BD2
  5
BD3
331
99B
  5
99B
331
925
  5
925
331
8E6
  5
8E6
331
95C
  5
95C
331
229
  5
229
331
288
  5
288
331
434
  5
434
331
3FD
  5
3FD
331
B6F
  5
B6F
331
231
  5
231
331
9A3
  5
9A3
331
964
  5
964
331
8EE
  5
8EE
331
92D
  5
92D
331
1AA
  5
1AA
331
36E
  5
36E
331
88B
  5
88B
331
405
  5
405
331
B77
  5
B77
331
9F2
  5
9F2
331
96C
  5
96C
331
935
  5
935
331
8F6
  5
8F6
331
9AB
  5
9AB
331
A61
  5
A61
331
376
  5
376
331
40D
  5
40D
331
B87
  5
B87
331
37E
  5
37E
331
2A8
  5
2A8
331
974
  5
974
331
8FE
  5
8FE
331
1BA
  5
1BA
331
347
  5
347
331
89B
  5
89B
331
386
  5
386
331
B8B
  5
B8B
331
C59
  5
C5A
331
B9B
  5
B9B
331
E00
  5
BCD
331
C81
  5
C82
331
BFA
  5
BFC
331
A1A
  5
A1A
331
9B3
  5
9B3
331
93D
  5
93D
331
906
  5
906
331
97C
  5
97C
331
1C2
  5
1C2
331
38E
  5
38E
331
A71
  5
A71
331
34F
  5
34F
331
9BB
  5
9BB
331
1CA
  5
1CA
331
984
  5
984
331
90E
  5
90E
331
945
  5
945
331
18B
  5
18B
331
415
  5
415
331
874
  5
874
331
41D
  5
41D
331
357
  5
357
331
9C3
  5
9C3
331
A79
  5
A79
331
2C0
  5
2C0
331
98C
  5
98C
331
916
  5
916
331
8D7
  5
8D7
331
94D
  5
94D
331
193
  5
193
331
396
  5
396
331
425
  5
425
331
A81
  5
A81
331
35F
  5
35F
331
9CB
  5
9CB
331
994
  5
994
331
955
  5
955
331
91E
  5
91E
331
19B
  5
19B
331
222
  5
222
331
884
  5
884
331
3F6
  5
3F6
331
367
  5
367
331
42D
  5
42D
331
BCB
  5
BCB
331
BD3
  5
BD4
331
95D
  5
95D
331
926
  5
926
331
8E7
  5
8E7
331
99C
  5
99C
331
B68
  5
B68
331
88C
  5
88C
331
3FE
  5
3FE
331
B70
  5
B70
331
291
  5
291
331
9A4
  5
9A4
331
92E
  5
92E
331
8EF
  5
8EF
331
965
  5
965
331
1AB
  5
1AB
331
36F
  5
36F
331
435
  5
435
331
9F3
  5
9F3
331
377
  5
377
331
9AC
  5
9AC
331
936
  5
936
331
8F7
  5
8F7
331
96D
  5
96D
331
1B3
  5
1B3
331
406
  5
406
331
40E
  5
40E
331
8FF
  5
8FF
331
975
  5
975
331
1BB
  5
1BB
331
37F
  5
37F
331
89C
  5
89C
331
865
  5
865
331
387
  5
387
331
C5A
  5
C5B
331
BE3
  5
BE4
331
E80
  5
E80
331
B9C
  5
B9C
331
C62
  5
C63
331
C82
  5
C83
331
348
  5
348
331
9B4
  5
9B4
331
1C3
  5
1C3
331
97D
  5
97D
331
93E
  5
93E
331
8B0
  5
8B0
331
907
  5
907
331
184
  5
184
331
416
  5
416
331
38F
  5
38F
331
9BC
  5
9BC
331
A72
  5
A72
331
985
  5
985
331
946
  5
946
331
90F
  5
90F
331
18C
  5
18C
331
350
  5
350
331
397
  5
397
331
A7A
  5
A7A
331
9C4
  5
9C4
331
A33
  5
A33
331
94E
  5
94E
331
917
  5
917
331
8D8
  5
8D8
331
98D
  5
98D
331
194
  5
194
331
358
  5
358
331
41E
  5
41E
331
360
  5
360
331
9CC
  5
9CC
331
223
  5
223
331
995
  5
995
331
91F
  5
91F
331
956
  5
956
331
19C
  5
19C
331
426
  5
426
331
42E
  5
42E
331
3F7
  5
3F7
331
BC4
  5
BC4
331
BCC
  5
BCC
331
BD4
  5
BD5
331
B69
  5
B69
331
368
  5
368
331
99D
  5
99D
331
927
  5
927
331
8E8
  5
8E8
331
95E
  5
95E
331
22B
  5
22B
331
2D1
  5
2D1
331
436
  5
436
331
3FF
  5
3FF
331
B71
  5
B71
331
9A5
  5
9A5
331
966
  5
966
331
8F0
  5
8F0
331
92F
  5
92F
331
1AC
  5
1AC
331
370
  5
370
331
88D
  5
88D
331
407
  5
407
331
341
  5
341
331
29A
  5
29A
331
9F4
  5
9F4
331
96E
  5
96E
331
937
  5
937
331
8F8
  5
8F8
331
9AD
  5
9AD
331
1B4
  5
1B4
331
23B
  5
23B
331
378
  5
378
331
40F
  5
40F
331
380
  5
380
331
976
  5
976
331
1BC
  5
1BC
331
89D
  5
89D
331
866
  5
866
331
B8D
  5
B8D
331
BE4
  5
BE6
331
C5B
  5
C5C
331
E81
  5
E81
331
B9D
  5
B9D
331
C63
  5
C7F
331
BF4
  5
BF5
331
BFC
  5
C0F
331
C83
  5
CE1
331
8A1
  5
8A1
331
900
  5
900
331
388
  5
388
331
349
  5
349
331
1C4
  5
1C4
331
185
  5
185
331
9B5
  5
9B5
331
93F
  5
93F
331
908
  5
908
331
8B1
  5
8B1
331
97E
  5
97E
331
86E
  5
86E
331
417
  5
417
331
351
  5
351
331
390
  5
390
331
2BA
  5
2BA
331
18D
  5
18D
331
9BD
  5
9BD
331
986
  5
986
331
910
  5
910
331
947
  5
947
331
A73
  5
A73
331
ACA
  5
ACA
331
41F
  5
41F
331
359
  5
359
331
2C2
  5
2C2
331
21C
  5
21C
331
253
  5
253
331
398
  5
398
331
195
  5
195
331
98E
  5
98E
331
94F
  5
94F
331
8D9
  5
8D9
331
918
  5
918
331
9C5
  5
9C5
331
427
  5
427
331
3F0
  5
3F0
331
361
  5
361
331
87E
  5
87E
331
19D
  5
19D
331
996
  5
996
331
957
  5
957
331
A83
  5
A83
331
42F
  5
42F
331
BCD
  5
BD0
331
BD5
  5
BD6
331
920
  5
920
331
3F8
  5
3F8
331
369
  5
369
331
2D2
  5
2D2
331
B6A
  5
B6A
331
A93
  5
A93
331
22C
  5
22C
331
9DD
  5
9DD
331
95F
  5
95F
331
928
  5
928
331
8E9
  5
8E9
331
99E
  5
99E
331
A44
  5
A44
331
88E
  5
88E
331
400
  5
400
331
371
  5
371
331
1AD
  5
1AD
331
437
  5
437
331
9A6
  5
9A6
331
930
  5
930
331
8F1
  5
8F1
331
967
  5
967
331
379
  5
379
331
23C
  5
23C
331
342
  5
342
331
408
  5
408
331
1B5
  5
1B5
331
9AE
  5
9AE
331
8F9
  5
8F9
331
96F
  5
96F
331
9F5
  5
9F5
331
89E
  5
89E
331
1BD
  5
1BD
331
381
  5
381
331
977
  5
977
331
C5C
  5
C5D
331
E82
  5
E82
331
E03
  5
E03
331
BF5
  5
BF7
331
901
  5
901
331
938
  5
938
331
410
  5
410
331
34A
  5
34A
331
244
  5
244
331
389
  5
389
331
186
  5
186
331
97F
  5
97F
331
940
  5
940
331
8B2
  5
8B2
331
909
  5
909
331
9B6
  5
9B6
331
418
  5
418
331
391
  5
391
331
352
  5
352
331
86F
  5
86F
331
18E
  5
18E
331
9BE
  5
9BE
331
948
  5
948
331
8D2
  5
8D2
331
911
  5
911
331
987
  5
987
331
A74
  5
A74
331
877
  5
877
331
399
  5
399
331
35A
  5
35A
331
21D
  5
21D
331
2C3
  5
2C3
331
420
  5
420
331
196
  5
196
331
9C6
  5
9C6
331
950
  5
950
331
919
  5
919
331
8DA
  5
8DA
331
98F
  5
98F
331
87F
  5
87F
331
428
  5
428
331
362
  5
362
331
2CB
  5
2CB
331
3F1
  5
3F1
331
284
  5
284
331
225
  5
225
331
A84
  5
A84
331
19E
  5
19E
331
997
  5
997
331
9CE
  5
9CE
331
887
  5
887
331
BC6
  5
BC6
331
BD6
  5
BE3
331
921
  5
921
331
8E2
  5
8E2
331
958
  5
958
331
430
  5
430
331
36A
  5
36A
331
22D
  5
22D
331
2D3
  5
2D3
331
3F9
  5
3F9
331
99F
  5
99F
331
960
  5
960
331
8EA
  5
8EA
331
929
  5
929
331
9DE
  5
9DE
331
438
  5
438
331
401
  5
401
331
372
  5
372
331
1AE
  5
1AE
331
9A7
  5
9A7
331
968
  5
968
331
8F2
  5
8F2
331
931
  5
931
331
9E6
  5
9E6
331
B73
  5
B73
331
409
  5
409
331
37A
  5
37A
331
29C
  5
29C
331
23D
  5
23D
331
343
  5
343
331
897
  5
897
331
1B6
  5
1B6
331
9F6
  5
9F6
331
970
  5
970
331
8FA
  5
8FA
331
9AF
  5
9AF
331
89F
  5
89F
331
382
  5
382
331
1BE
  5
1BE
  0
LAYOUT
  5
CB1
102
{ACAD_REACTORS
330
CAF
102
}
330
CAF
100
AcDbPlotSettings
  1

  2
Mytalk FAX
  4
A4
  6

 40
3.174999952316284
 41
6.635754585266113
 42
3.175003051757812
 43
3.17498779296875
 44
210.0579986572266
 45
296.9259948730469
 46
0.0
 47
0.0
 48
0.0
 49
0.0
140
0.0
141
0.0
142
1.0
143
2.285238572328152
 70
 11952
 72
     1
 73
     1
 74
     0
  7
AutoCAD LT 98.ctb
 75
     0
147
0.4375910734699448
 76
     0
 77
     2
 78
   300
148
45.56342353508472
149
1.966296342031967
100
AcDbLayout
  1
Model
 70
     1
 71
     0
 10
0.0
 20
0.0
 11
12.0
 21
9.0
 12
0.0
 22
0.0
 32
0.0
 14
0.0
 24
0.0
 34
0.0
 15
0.0
 25
0.0
 35
0.0
146
0.0
 13
0.0
 23
0.0
 33
0.0
 16
1.0
 26
0.0
 36
0.0
 17
0.0
 27
1.0
 37
0.0
 76
     0
330
18
1001
ACAD_PSEXT
1000
Mytalk FAX
1000
Mytalk FAX
1000
NULL
1000

1070
     0
  0
LAYOUT
  5
CB2
102
{ACAD_REACTORS
330
CAF
102
}
330
CAF
100
AcDbPlotSettings
  1

  2
Mytalk FAX
  4

  6

 40
0.0
 41
0.0
 42
0.0
 43
0.0
 44
0.0
 45
0.0
 46
0.0
 47
0.0
 48
0.0
 49
0.0
140
0.0
141
0.0
142
1.0
143
1.0
 70
   688
 72
     0
 73
     0
 74
     5
  7
AutoCAD LT 98.ctb
 75
    16
147
1.0
 76
     0
 77
     2
 78
   300
148
0.0
149
0.0
100
AcDbLayout
  1
レイアウト1
 70
     1
 71
     1
 10
0.0
 20
0.0
 11
420.0
 21
297.0
 12
0.0
 22
0.0
 32
0.0
 14
1.000000000000000E+20
 24
1.000000000000000E+20
 34
1.000000000000000E+20
 15
-1.000000000000000E+20
 25
-1.000000000000000E+20
 35
-1.000000000000000E+20
146
0.0
 13
0.0
 23
0.0
 33
0.0
 16
1.0
 26
0.0
 36
0.0
 17
0.0
 27
1.0
 37
0.0
 76
     0
330
15
  0
MLINESTYLE
  5
1C
102
{ACAD_REACTORS
330
1B
102
}
330
1B
100
AcDbMlineStyle
  2
STANDARD
 70
     0
  3

 62
   256
 51
90.0
 52
90.0
 71
     2
 49
0.5
 62
   256
  6
BYLAYER
 49
-0.5
 62
   256
  6
BYLAYER
  0
ACDBPLACEHOLDER
  5
CAA
102
{ACAD_REACTORS
330
CA9
102
}
330
CA9
  0
ACAD_PROXY_OBJECT
  5
CAE
102
{ACAD_REACTORS
330
CAD
102
}
330
CAD
100
AcDbProxyObject
 90
      499
 91
      503
 95
  2555929
 70
     0
 93
     1849
310
4214DD185B99185C992420000000000000F83F0000000000003E0FC00000000000004901028000000C1008070000C3001FDFF8000000C1003FBFF000000182007F7FE00000030400FEFFC00000060801FDFF8000000C1003FBFF000000182000000000000000C2020B0000001820100E000186003FBFF000000182007F7FE0
310
0000030400FEFFC00000060801FDFF8000000C1003FBFF000000182007F7FE0000003040000000000000012404160000003040201C00030C007F7FE00000030400FEFFC00000060801FDFF8000000C1003FBFF000000182007F7FE00000030400FEFFC000000608000
340
F
340
F
340
F
 94
        0
  0
DICTIONARYVAR
  5
CD3
102
{ACAD_REACTORS
330
CD2
102
}
330
CD2
100
DictionaryVariables
280
     0
  1
STANDARD
  0
ENDSEC
  0
EOF
