  0
SECTION
  2
HEADER
  9
$ACADVER
  1
AC1018
  9
$ACADMAINTVER
 70
     0
  9
$DWGCODEPAGE
  3
ANSI_932
  9
$INSBASE
 10
0.0
 20
0.0
 30
0.0
  9
$EXTMIN
 10
599.9256257866822
 20
-8.228445964765342
 30
-0.0000610172268338
  9
$EXTMAX
 10
1407.327850735096
 20
573.2665565401459
 30
1.000061048660924
  9
$LIMMIN
 10
0.0
 20
0.0
  9
$LIMMAX
 10
420.0
 20
297.0
  9
$ORTHOMODE
 70
     0
  9
$REGENMODE
 70
     1
  9
$FILLMODE
 70
     1
  9
$QTEXTMODE
 70
     0
  9
$MIRRTEXT
 70
     1
  9
$LTSCALE
 40
1.0
  9
$ATTMODE
 70
     1
  9
$TEXTSIZE
 40
2.5
  9
$TRACEWID
 40
1.0
  9
$TEXTSTYLE
  7
STYLE3
  9
$CLAYER
  8
寸法線
  9
$CELTYPE
  6
BYLAYER
  9
$CECOLOR
 62
   256
  9
$CELTSCALE
 40
1.0
  9
$DISPSILH
 70
     0
  9
$DIMSCALE
 40
1.0
  9
$DIMASZ
 40
2.5
  9
$DIMEXO
 40
0.0
  9
$DIMDLI
 40
3.75
  9
$DIMRND
 40
0.0
  9
$DIMDLE
 40
0.0
  9
$DIMEXE
 40
1.25
  9
$DIMTP
 40
0.0
  9
$DIMTM
 40
0.0
  9
$DIMTXT
 40
2.5
  9
$DIMCEN
 40
2.5
  9
$DIMTSZ
 40
0.0
  9
$DIMTOL
 70
     0
  9
$DIMLIM
 70
     0
  9
$DIMTIH
 70
     0
  9
$DIMTOH
 70
     0
  9
$DIMSE1
 70
     0
  9
$DIMSE2
 70
     0
  9
$DIMTAD
 70
     1
  9
$DIMZIN
 70
     8
  9
$DIMBLK
  1

  9
$DIMASO
 70
     1
  9
$DIMSHO
 70
     1
  9
$DIMPOST
  1

  9
$DIMAPOST
  1

  9
$DIMALT
 70
     0
  9
$DIMALTD
 70
     4
  9
$DIMALTF
 40
0.0394
  9
$DIMLFAC
 40
1.0
  9
$DIMTOFL
 70
     1
  9
$DIMTVP
 40
0.0
  9
$DIMTIX
 70
     0
  9
$DIMSOXD
 70
     0
  9
$DIMSAH
 70
     1
  9
$DIMBLK1
  1
OPEN
  9
$DIMBLK2
  1
OPEN
  9
$DIMSTYLE
  2
STYLE3
  9
$DIMCLRD
 70
     2
  9
$DIMCLRE
 70
     2
  9
$DIMCLRT
 70
     6
  9
$DIMTFAC
 40
1.0
  9
$DIMGAP
 40
0.625
  9
$DIMJUST
 70
     0
  9
$DIMSD1
 70
     0
  9
$DIMSD2
 70
     0
  9
$DIMTOLJ
 70
     1
  9
$DIMTZIN
 70
     0
  9
$DIMALTZ
 70
     0
  9
$DIMALTTZ
 70
     0
  9
$DIMUPT
 70
     0
  9
$DIMDEC
 70
     2
  9
$DIMTDEC
 70
     4
  9
$DIMALTU
 70
     8
  9
$DIMALTTD
 70
     4
  9
$DIMTXSTY
  7
STYLE3
  9
$DIMAUNIT
 70
     0
  9
$DIMADEC
 70
     0
  9
$DIMALTRND
 40
0.0
  9
$DIMAZIN
 70
     0
  9
$DIMDSEP
 70
    46
  9
$DIMATFIT
 70
     3
  9
$DIMFRAC
 70
     0
  9
$DIMLDRBLK
  1

  9
$DIMLUNIT
 70
     2
  9
$DIMLWD
 70
    -2
  9
$DIMLWE
 70
    -2
  9
$DIMTMOVE
 70
     0
  9
$LUNITS
 70
     2
  9
$LUPREC
 70
     4
  9
$SKETCHINC
 40
1.0
  9
$FILLETRAD
 40
1.0
  9
$AUNITS
 70
     0
  9
$AUPREC
 70
     0
  9
$MENU
  1
.
  9
$ELEVATION
 40
0.0
  9
$PELEVATION
 40
0.0
  9
$THICKNESS
 40
0.0
  9
$LIMCHECK
 70
     0
  9
$CHAMFERA
 40
10.0
  9
$CHAMFERB
 40
10.0
  9
$CHAMFERC
 40
20.0
  9
$CHAMFERD
 40
0.0
  9
$SKPOLY
 70
     0
  9
$TDCREATE
 40
2450903.398109954
  9
$TDUCREATE
 40
2450903.023109954
  9
$TDUPDATE
 40
2455376.484405220
  9
$TDUUPDATE
 40
2455376.109405220
  9
$TDINDWG
 40
3.0384873264
  9
$TDUSRTIMER
 40
3.0384873264
  9
$USRTIMER
 70
     1
  9
$ANGBASE
 50
0.0
  9
$ANGDIR
 70
     0
  9
$PDMODE
 70
     0
  9
$PDSIZE
 40
0.0
  9
$PLINEWID
 40
0.0
  9
$SPLFRAME
 70
     0
  9
$SPLINETYPE
 70
     6
  9
$SPLINESEGS
 70
     8
  9
$HANDSEED
  5
21AE
  9
$SURFTAB1
 70
     6
  9
$SURFTAB2
 70
     6
  9
$SURFTYPE
 70
     6
  9
$SURFU
 70
     6
  9
$SURFV
 70
     6
  9
$UCSBASE
  2

  9
$UCSNAME
  2

  9
$UCSORG
 10
0.0
 20
0.0
 30
0.0
  9
$UCSXDIR
 10
1.0
 20
0.0
 30
0.0
  9
$UCSYDIR
 10
0.0
 20
1.0
 30
0.0
  9
$UCSORTHOREF
  2

  9
$UCSORTHOVIEW
 70
     0
  9
$UCSORGTOP
 10
0.0
 20
0.0
 30
0.0
  9
$UCSORGBOTTOM
 10
0.0
 20
0.0
 30
0.0
  9
$UCSORGLEFT
 10
0.0
 20
0.0
 30
0.0
  9
$UCSORGRIGHT
 10
0.0
 20
0.0
 30
0.0
  9
$UCSORGFRONT
 10
0.0
 20
0.0
 30
0.0
  9
$UCSORGBACK
 10
0.0
 20
0.0
 30
0.0
  9
$PUCSBASE
  2

  9
$PUCSNAME
  2

  9
$PUCSORG
 10
0.0
 20
0.0
 30
0.0
  9
$PUCSXDIR
 10
1.0
 20
0.0
 30
0.0
  9
$PUCSYDIR
 10
0.0
 20
1.0
 30
0.0
  9
$PUCSORTHOREF
  2

  9
$PUCSORTHOVIEW
 70
     0
  9
$PUCSORGTOP
 10
0.0
 20
0.0
 30
0.0
  9
$PUCSORGBOTTOM
 10
0.0
 20
0.0
 30
0.0
  9
$PUCSORGLEFT
 10
0.0
 20
0.0
 30
0.0
  9
$PUCSORGRIGHT
 10
0.0
 20
0.0
 30
0.0
  9
$PUCSORGFRONT
 10
0.0
 20
0.0
 30
0.0
  9
$PUCSORGBACK
 10
0.0
 20
0.0
 30
0.0
  9
$USERI1
 70
     0
  9
$USERI2
 70
     0
  9
$USERI3
 70
     0
  9
$USERI4
 70
     0
  9
$USERI5
 70
     0
  9
$USERR1
 40
0.0
  9
$USERR2
 40
0.0
  9
$USERR3
 40
0.0
  9
$USERR4
 40
0.0
  9
$USERR5
 40
0.0
  9
$WORLDVIEW
 70
     1
  9
$SHADEDGE
 70
     3
  9
$SHADEDIF
 70
    70
  9
$TILEMODE
 70
     1
  9
$MAXACTVP
 70
    48
  9
$PINSBASE
 10
0.0
 20
0.0
 30
0.0
  9
$PLIMCHECK
 70
     0
  9
$PEXTMIN
 10
1.000000000000000E+20
 20
1.000000000000000E+20
 30
1.000000000000000E+20
  9
$PEXTMAX
 10
-1.000000000000000E+20
 20
-1.000000000000000E+20
 30
-1.000000000000000E+20
  9
$PLIMMIN
 10
0.0
 20
0.0
  9
$PLIMMAX
 10
420.0
 20
297.0
  9
$UNITMODE
 70
     0
  9
$VISRETAIN
 70
     1
  9
$PLINEGEN
 70
     0
  9
$PSLTSCALE
 70
     1
  9
$TREEDEPTH
 70
  3020
  9
$CMLSTYLE
  2
STANDARD
  9
$CMLJUST
 70
     0
  9
$CMLSCALE
 40
20.0
  9
$PROXYGRAPHICS
 70
     1
  9
$MEASUREMENT
 70
     1
  9
$CELWEIGHT
370
    -1
  9
$ENDCAPS
280
     0
  9
$JOINSTYLE
280
     0
  9
$LWDISPLAY
290
     0
  9
$INSUNITS
 70
     0
  9
$HYPERLINKBASE
  1

  9
$STYLESHEET
  1
AutoCAD LT 98.ctb
  9
$XEDIT
290
     1
  9
$CEPSNTYPE
380
     0
  9
$PSTYLEMODE
290
     1
  9
$FINGERPRINTGUID
  2
{AF286BF7-6AFF-4A36-86C7-2A4F2D502CFA}
  9
$VERSIONGUID
  2
{E79A0DA3-67BC-48E8-A2E2-200516B06589}
  9
$EXTNAMES
290
     1
  9
$PSVPSCALE
 40
0.0
  9
$OLESTARTUP
290
     0
  9
$SORTENTS
280
   127
  9
$INDEXCTL
280
     0
  9
$HIDETEXT
280
     0
  9
$XCLIPFRAME
290
     0
  9
$HALOGAP
280
     0
  9
$OBSCOLOR
 70
   257
  9
$OBSLTYPE
280
     0
  9
$INTERSECTIONDISPLAY
280
     0
  9
$INTERSECTIONCOLOR
 70
   257
  9
$DIMASSOC
280
     1
  9
$PROJECTNAME
  1

  0
ENDSEC
  0
SECTION
  2
CLASSES
  0
CLASS
  1
HATCH
  2
AcDbHatch
  3
ObjectDBX Classes
 90
        0
 91
       11
280
     0
281
     1
  0
CLASS
  1
RASTERVARIABLES
  2
AcDbRasterVariables
  3
ISM
 90
        0
 91
        1
280
     0
281
     0
  0
CLASS
  1
LWPOLYLINE
  2
AcDbPolyline
  3
ObjectDBX Classes
 90
        0
 91
        4
280
     0
281
     1
  0
CLASS
  1
ACDBDICTIONARYWDFLT
  2
AcDbDictionaryWithDefault
  3
ObjectDBX Classes
 90
        0
 91
        1
280
     0
281
     0
  0
CLASS
  1
TABLESTYLE
  2
AcDbTableStyle
  3
ObjectDBX Classes
 90
     2047
 91
        1
280
     0
281
     0
  0
CLASS
  1
DICTIONARYVAR
  2
AcDbDictionaryVar
  3
ObjectDBX Classes
 90
        0
 91
        1
280
     0
281
     0
  0
CLASS
  1
SORTENTSTABLE
  2
AcDbSortentsTable
  3
ObjectDBX Classes
 90
        0
 91
        2
280
     0
281
     0
  0
ENDSEC
  0
SECTION
  2
TABLES
  0
TABLE
  2
VPORT
  5
8
330
0
100
AcDbSymbolTable
 70
     2
  0
VPORT
  5
21AD
330
8
100
AcDbSymbolTableRecord
100
AcDbViewportTableRecord
  2
*Active
 70
     0
 10
0.0
 20
0.0
 11
1.0
 21
1.0
 12
1003.626738260889
 22
282.5190552876902
 13
0.0
 23
0.0
 14
10.0
 24
10.0
 15
10.0
 25
10.0
 16
0.0
 26
0.0
 36
1.0
 17
0.0
 27
0.0
 37
0.0
 40
585.9170177330854
 41
1.530456852791878
 42
50.0
 43
0.0
 44
0.0
 50
0.0
 51
0.0
 71
     0
 72
   100
 73
     1
 74
     1
 75
     0
 76
     0
 77
     0
 78
     0
281
     0
 65
     1
110
0.0
120
0.0
130
0.0
111
1.0
121
0.0
131
0.0
112
0.0
122
1.0
132
0.0
 79
     0
146
0.0
  0
ENDTAB
  0
TABLE
  2
LTYPE
  5
5
330
0
100
AcDbSymbolTable
 70
    13
  0
LTYPE
  5
12
330
5
100
AcDbSymbolTableRecord
100
AcDbLinetypeTableRecord
  2
BYBLOCK
 70
     0
  3

 72
    65
 73
     0
 40
0.0
  0
LTYPE
  5
13
330
5
100
AcDbSymbolTableRecord
100
AcDbLinetypeTableRecord
  2
BYLAYER
 70
     0
  3

 72
    65
 73
     0
 40
0.0
  0
LTYPE
  5
14
330
5
100
AcDbSymbolTableRecord
100
AcDbLinetypeTableRecord
  2
CONTINUOUS
 70
     0
  3
Solid line
 72
    65
 73
     0
 40
0.0
  0
LTYPE
  5
22
330
5
100
AcDbSymbolTableRecord
100
AcDbLinetypeTableRecord
  2
CENTER2
 70
     0
  3
Center (.5x) ___ _ ___ _ ___ _ ___ _ ___ _ ___
 72
    65
 73
     4
 40
28.575
 49
19.05
 74
     0
 49
-3.174999999999999
 74
     0
 49
3.174999999999999
 74
     0
 49
-3.174999999999999
 74
     0
  0
LTYPE
  5
23
330
5
100
AcDbSymbolTableRecord
100
AcDbLinetypeTableRecord
  2
HIDDEN2
 70
     0
  3
Hidden (.5x) _ _ _ _ _ _ _ _ _ _ _ _ _ _ _ _ _
 72
    65
 73
     2
 40
4.762499999999999
 49
3.174999999999999
 74
     0
 49
-1.587499999999999
 74
     0
  0
LTYPE
  5
24
330
5
100
AcDbSymbolTableRecord
100
AcDbLinetypeTableRecord
  2
PHANTOM2
 70
     0
  3
Phantom (.5x) ___ _ _ ___ _ _ ___ _ _ ___ _ _
 72
    65
 73
     6
 40
31.75
 49
15.875
 74
     0
 49
-3.174999999999999
 74
     0
 49
3.174999999999999
 74
     0
 49
-3.174999999999999
 74
     0
 49
3.174999999999999
 74
     0
 49
-3.174999999999999
 74
     0
  0
ENDTAB
  0
TABLE
  2
LAYER
  5
2
330
0
100
AcDbSymbolTable
 70
    17
  0
LAYER
  5
E
330
2
100
AcDbSymbolTableRecord
100
AcDbLayerTableRecord
  2
0
 70
     0
 62
     7
  6
CONTINUOUS
370
    -3
390
990
  0
LAYER
  5
25
330
2
100
AcDbSymbolTableRecord
100
AcDbLayerTableRecord
  2
外形線
 70
     0
 62
     7
  6
CONTINUOUS
370
    -3
390
990
  0
LAYER
  5
26
330
2
100
AcDbSymbolTableRecord
100
AcDbLayerTableRecord
  2
寸法線
 70
     0
 62
     2
  6
CONTINUOUS
370
    -3
390
990
  0
LAYER
  5
27
330
2
100
AcDbSymbolTableRecord
100
AcDbLayerTableRecord
  2
中心線
 70
     0
 62
     4
  6
CENTER2
370
    -3
390
990
  0
LAYER
  5
29
330
2
100
AcDbSymbolTableRecord
100
AcDbLayerTableRecord
  2
想像線
 70
     0
 62
     1
  6
PHANTOM2
370
    -3
390
990
  0
LAYER
  5
2A
330
2
100
AcDbSymbolTableRecord
100
AcDbLayerTableRecord
  2
ﾊｯﾁﾝｸ
 70
     0
 62
     6
  6
CONTINUOUS
370
    -3
390
990
  0
LAYER
  5
2B
330
2
100
AcDbSymbolTableRecord
100
AcDbLayerTableRecord
  2
文字
 70
     0
 62
     6
  6
CONTINUOUS
370
    -3
390
990
  0
LAYER
  5
2C
330
2
100
AcDbSymbolTableRecord
100
AcDbLayerTableRecord
  2
目盛
 70
     0
 62
    72
  6
CONTINUOUS
370
    -3
390
990
  0
LAYER
  5
2D
330
2
100
AcDbSymbolTableRecord
100
AcDbLayerTableRecord
  2
針
 70
     0
 62
     5
  6
CONTINUOUS
370
    -3
390
990
  0
LAYER
  5
53
330
2
100
AcDbSymbolTableRecord
100
AcDbLayerTableRecord
  2
DEFPOINTS
 70
     0
 62
     7
  6
CONTINUOUS
290
     0
370
    -3
390
990
  0
LAYER
  5
A5
330
2
100
AcDbSymbolTableRecord
100
AcDbLayerTableRecord
  2
C
 70
     0
 62
     7
  6
CONTINUOUS
370
    -3
390
990
  0
LAYER
  5
32B
330
2
100
AcDbSymbolTableRecord
100
AcDbLayerTableRecord
  2
ROGO
 70
     0
 62
     6
  6
CONTINUOUS
370
    -3
390
990
  0
LAYER
  5
CBC
330
2
100
AcDbSymbolTableRecord
100
AcDbLayerTableRecord
  2
隠れ線2
 70
     0
 62
     1
  6
HIDDEN2
370
    -3
390
990
  0
LAYER
  5
11B2
330
2
100
AcDbSymbolTableRecord
100
AcDbLayerTableRecord
  2
寸法図
 70
     0
 62
     2
  6
CONTINUOUS
370
    -3
390
990
  0
ENDTAB
  0
TABLE
  2
STYLE
  5
3
330
0
100
AcDbSymbolTable
 70
     6
  0
STYLE
  5
F
330
3
100
AcDbSymbolTableRecord
100
AcDbTextStyleTableRecord
  2
STANDARD
 70
     0
 40
0.0
 41
1.0
 50
0.0
 71
     0
 42
2.5
  3
txt
  4

  0
STYLE
  5
3F
330
3
100
AcDbSymbolTableRecord
100
AcDbTextStyleTableRecord
  2
STYLE3
 70
     0
 40
0.0
 41
1.0
 50
0.0
 71
     0
 42
2.5
  3
romans.shx
  4
bigfont.shx
  0
ENDTAB
  0
TABLE
  2
VIEW
  5
6
330
0
100
AcDbSymbolTable
 70
     0
  0
ENDTAB
  0
TABLE
  2
UCS
  5
7
330
0
100
AcDbSymbolTable
 70
     0
  0
ENDTAB
  0
TABLE
  2
APPID
  5
9
330
0
100
AcDbSymbolTable
 70
     2
  0
APPID
  5
10
330
9
100
AcDbSymbolTableRecord
100
AcDbRegAppTableRecord
  2
ACAD
 70
     0
  0
APPID
  5
AFA
330
9
100
AcDbSymbolTableRecord
100
AcDbRegAppTableRecord
  2
ACAD_PSEXT
 70
     0
  0
ENDTAB
  0
TABLE
  2
DIMSTYLE
  5
A
330
0
100
AcDbSymbolTable
 70
     6
100
AcDbDimStyleTable
 71
     1
340
8F
  0
DIMSTYLE
105
1D
330
A
100
AcDbSymbolTableRecord
100
AcDbDimStyleTableRecord
  2
STANDARD
 70
     0
 41
2.5
 42
0.625
 43
3.75
 44
1.25
 73
     0
 74
     0
 77
     1
 78
     8
140
2.5
141
2.5
143
0.0394
147
0.625
171
     4
172
     1
273
     8
274
     4
277
     6
340
F
  0
DIMSTYLE
105
8F
102
{ACAD_REACTORS
330
1C25
330
1C37
330
1C38
330
1C59
330
1C5A
330
1C5B
330
1C5C
330
1C5D
330
1C5F
330
1CEA
330
1D10
330
1D3C
330
1D3D
330
1D5D
330
1D60
102
}
330
A
100
AcDbSymbolTableRecord
100
AcDbDimStyleTableRecord
  2
STYLE3
 70
     0
 41
2.5
 42
0.0
 43
3.75
 44
1.25
 73
     0
 74
     0
 77
     1
 78
     8
140
2.5
141
2.5
143
0.0394
147
0.625
171
     4
172
     1
173
     1
176
     2
177
     2
178
     6
271
     1
273
     8
274
     4
340
3F
341
45
343
45
344
45
  0
ENDTAB
  0
TABLE
  2
BLOCK_RECORD
  5
1
330
0
100
AcDbSymbolTable
 70
    38
  0
BLOCK_RECORD
  5
18
102
{ACAD_XDICTIONARY
360
BE3
102
}
330
1
100
AcDbSymbolTableRecord
100
AcDbBlockTableRecord
  2
*MODEL_SPACE
340
997
  0
BLOCK_RECORD
  5
15
330
1
100
AcDbSymbolTableRecord
100
AcDbBlockTableRecord
  2
*PAPER_SPACE
340
998
  0
BLOCK_RECORD
  5
45
330
1
100
AcDbSymbolTableRecord
100
AcDbBlockTableRecord
  2
_OPEN
340
0
102
{BLKREFS
331
1C29
331
1C3E
331
1C3F
331
1C46
331
1C47
331
1C4B
331
1C4C
331
1C63
331
1E38
331
1E39
331
1E41
331
1E42
331
1E4A
331
1E4B
331
1E55
331
1E56
331
1E5E
331
1E5F
331
1E69
331
1E6A
331
1E74
331
1E75
331
1E7F
331
1E80
331
1E88
331
1E89
331
1E8F
331
1E90
331
1E9A
331
1E9B
331
1EA5
331
1EA6
331
1EB0
331
1EB1
331
1EBB
331
1EBC
331
1EC2
331
1EC3
331
1ECD
331
1ED3
331
1EEC
331
1EED
331
1EF8
331
1EF9
331
1F04
331
1F05
331
1F16
331
1F17
331
1F21
331
1F22
331
1F2D
331
1F2E
331
1F39
331
1F3A
331
2105
331
2106
331
210E
331
210F
331
2117
331
2118
331
2126
331
2127
331
212E
331
212F
331
2137
331
2138
331
2140
331
2141
331
214C
331
214D
102
}
  0
BLOCK_RECORD
  5
1D61
330
1
100
AcDbSymbolTableRecord
100
AcDbBlockTableRecord
  2
*D4
340
0
  0
BLOCK_RECORD
  5
1D79
330
1
100
AcDbSymbolTableRecord
100
AcDbBlockTableRecord
  2
*D6
340
0
  0
BLOCK_RECORD
  5
1D85
330
1
100
AcDbSymbolTableRecord
100
AcDbBlockTableRecord
  2
*D7
340
0
  0
BLOCK_RECORD
  5
1D93
330
1
100
AcDbSymbolTableRecord
100
AcDbBlockTableRecord
  2
*D8
340
0
  0
BLOCK_RECORD
  5
1D9F
330
1
100
AcDbSymbolTableRecord
100
AcDbBlockTableRecord
  2
*D9
340
0
  0
BLOCK_RECORD
  5
1DAD
330
1
100
AcDbSymbolTableRecord
100
AcDbBlockTableRecord
  2
*D10
340
0
  0
BLOCK_RECORD
  5
1DBB
330
1
100
AcDbSymbolTableRecord
100
AcDbBlockTableRecord
  2
*D11
340
0
  0
BLOCK_RECORD
  5
1DC9
330
1
100
AcDbSymbolTableRecord
100
AcDbBlockTableRecord
  2
*D12
340
0
  0
BLOCK_RECORD
  5
1DD5
330
1
100
AcDbSymbolTableRecord
100
AcDbBlockTableRecord
  2
*D13
340
0
  0
BLOCK_RECORD
  5
1DE1
330
1
100
AcDbSymbolTableRecord
100
AcDbBlockTableRecord
  2
*D14
340
0
  0
BLOCK_RECORD
  5
1DED
330
1
100
AcDbSymbolTableRecord
100
AcDbBlockTableRecord
  2
*D15
340
0
  0
BLOCK_RECORD
  5
1DFB
330
1
100
AcDbSymbolTableRecord
100
AcDbBlockTableRecord
  2
*D16
340
0
  0
BLOCK_RECORD
  5
1E09
330
1
100
AcDbSymbolTableRecord
100
AcDbBlockTableRecord
  2
*D17
340
0
  0
BLOCK_RECORD
  5
1E23
330
1
100
AcDbSymbolTableRecord
100
AcDbBlockTableRecord
  2
*D19
340
0
  0
BLOCK_RECORD
  5
1E2C
330
1
100
AcDbSymbolTableRecord
100
AcDbBlockTableRecord
  2
*D20
340
0
  0
ENDTAB
  0
ENDSEC
  0
SECTION
  2
BLOCKS
  0
BLOCK
  5
19
330
18
100
AcDbEntity
  8
0
100
AcDbBlockBegin
  2
*MODEL_SPACE
 70
     0
 10
0.0
 20
0.0
 30
0.0
  3
*MODEL_SPACE
  1

  0
ENDBLK
  5
1A
330
18
100
AcDbEntity
  8
0
100
AcDbBlockEnd
  0
BLOCK
  5
16
330
15
100
AcDbEntity
 67
     1
  8
0
100
AcDbBlockBegin
  2
*PAPER_SPACE
 70
     0
 10
0.0
 20
0.0
 30
0.0
  3
*PAPER_SPACE
  1

  0
ENDBLK
  5
17
330
15
100
AcDbEntity
 67
     1
  8
0
100
AcDbBlockEnd
  0
BLOCK
  5
46
330
45
100
AcDbEntity
  8
0
100
AcDbBlockBegin
  2
_OPEN
 70
     0
 10
0.0
 20
0.0
 30
0.0
  3
_OPEN
  1

  0
LINE
  5
47
330
45
100
AcDbEntity
  8
0
  6
ByBlock
 62
     0
100
AcDbLine
 10
-1.0
 20
0.1666666666666666
 30
0.0
 11
0.0
 21
0.0
 31
0.0
  0
LINE
  5
48
330
45
100
AcDbEntity
  8
0
  6
ByBlock
 62
     0
100
AcDbLine
 10
0.0
 20
0.0
 30
0.0
 11
-1.0
 21
-0.1666666666666666
 31
0.0
  0
LINE
  5
49
330
45
100
AcDbEntity
  8
0
  6
ByBlock
 62
     0
100
AcDbLine
 10
0.0
 20
0.0
 30
0.0
 11
-1.0
 21
0.0
 31
0.0
  0
ENDBLK
  5
4A
330
45
100
AcDbEntity
  8
0
100
AcDbBlockEnd
  0
BLOCK
  5
1D6B
330
1D61
100
AcDbEntity
  8
0
100
AcDbBlockBegin
  2
*D4
 70
     1
 10
0.0
 20
0.0
 30
0.0
  3
*D4
  1

  0
LINE
  5
1E35
330
1D61
100
AcDbEntity
  8
寸法線
 62
     2
370
    -2
100
AcDbLine
 10
750.7153762772747
 20
126.8353331147219
 30
0.0
 11
761.7943172530699
 21
126.8353331147219
 31
0.0
  0
LINE
  5
1E36
330
1D61
100
AcDbEntity
  8
寸法線
 62
     2
370
    -2
100
AcDbLine
 10
754.7255552138685
 20
226.8353331147219
 30
0.0
 11
761.7943172530699
 21
226.8353331147219
 31
0.0
  0
LINE
  5
1E37
330
1D61
100
AcDbEntity
  8
寸法線
 62
     2
370
    -2
100
AcDbLine
 10
760.5443172530699
 20
129.3353331147219
 30
0.0
 11
760.5443172530699
 21
224.3353331147219
 31
0.0
  0
INSERT
  5
1E38
330
1D61
100
AcDbEntity
  8
寸法線
 62
     2
370
    -2
100
AcDbBlockReference
  2
_OPEN
 10
760.5443172530699
 20
126.8353331147219
 30
0.0
 41
2.5
 42
2.5
 43
2.5
 50
270.0
  0
INSERT
  5
1E39
330
1D61
100
AcDbEntity
  8
寸法線
 62
     2
370
    -2
100
AcDbBlockReference
  2
_OPEN
 10
760.5443172530699
 20
226.8353331147219
 30
0.0
 41
2.5
 42
2.5
 43
2.5
 50
90.0
  0
MTEXT
  5
1E3A
330
1D61
100
AcDbEntity
  8
寸法線
 62
     6
100
AcDbMText
 10
758.6693172530699
 20
176.835333114722
 30
0.0
 40
2.5
 41
0.0
 71
     5
 72
     1
  1
\A1;100
  7
STYLE3
 11
0.0000000000000001
 21
1.0
 31
0.0
 73
     1
 44
1.0
  0
POINT
  5
1E3B
330
1D61
100
AcDbEntity
  8
DEFPOINTS
 62
     0
100
AcDbPoint
 10
750.7153762772747
 20
126.8353331147219
 30
0.0
  0
POINT
  5
1E3C
330
1D61
100
AcDbEntity
  8
DEFPOINTS
 62
     0
100
AcDbPoint
 10
754.7255552138685
 20
226.8353331147219
 30
0.0
  0
POINT
  5
1E3D
330
1D61
100
AcDbEntity
  8
DEFPOINTS
 62
     0
100
AcDbPoint
 10
760.5443172530699
 20
226.8353331147219
 30
0.0
  0
ENDBLK
  5
1D6C
330
1D61
100
AcDbEntity
  8
0
100
AcDbBlockEnd
  0
BLOCK
  5
1D83
330
1D79
100
AcDbEntity
  8
0
100
AcDbBlockBegin
  2
*D6
 70
     1
 10
0.0
 20
0.0
 30
0.0
  3
*D6
  1

  0
LINE
  5
1E47
330
1D79
100
AcDbEntity
  8
寸法線
 62
     2
370
    -2
100
AcDbLine
 10
1353.298649070798
 20
546.6795421470565
 30
0.0
 11
1361.836072055843
 21
554.1350227615559
 31
0.0
  0
LINE
  5
1E48
330
1D79
100
AcDbEntity
  8
寸法線
 62
     2
370
    -2
100
AcDbLine
 10
1366.453979658411
 20
531.6151046490743
 30
0.0
 11
1374.991402643455
 21
539.0705852635736
 31
0.0
  0
LINE
  5
1E49
330
1D79
100
AcDbEntity
  8
寸法線
 62
     2
370
    -2
100
AcDbLine
 10
1362.53896103567
 20
551.4297599125825
 30
0.0
 11
1372.40545897638
 21
540.1314317890958
 31
0.0
  0
INSERT
  5
1E4A
330
1D79
100
AcDbEntity
  8
寸法線
 62
     2
370
    -2
100
AcDbBlockReference
  2
_OPEN
 10
1360.894544712219
 20
553.3128145998302
 30
0.0
 41
2.5
 42
2.5
 43
2.5
 50
131.1297572561739
  0
INSERT
  5
1E4B
330
1D79
100
AcDbEntity
  8
寸法線
 62
     2
370
    -2
100
AcDbBlockReference
  2
_OPEN
 10
1374.049875299832
 20
538.2483771018479
 30
0.0
 41
2.5
 42
2.5
 43
2.5
 50
311.1297572561739
  0
MTEXT
  5
1E4C
330
1D79
100
AcDbEntity
  8
寸法線
 62
     6
100
AcDbMText
 10
1368.884501021461
 20
547.013908093428
 30
0.0
 40
2.5
 41
0.0
 71
     5
 72
     1
  1
\A1;20
  7
STYLE3
 11
0.6577665293806373
 21
-0.7532218748991238
 31
0.0
 73
     1
 44
1.0
  0
POINT
  5
1E4D
330
1D79
100
AcDbEntity
  8
DEFPOINTS
 62
     0
100
AcDbPoint
 10
1353.298649070798
 20
546.6795421470565
 30
0.0
  0
POINT
  5
1E4E
330
1D79
100
AcDbEntity
  8
DEFPOINTS
 62
     0
100
AcDbPoint
 10
1366.453979658411
 20
531.6151046490743
 30
0.0
  0
POINT
  5
1E4F
330
1D79
100
AcDbEntity
  8
DEFPOINTS
 62
     0
100
AcDbPoint
 10
1374.049875299832
 20
538.2483771018479
 30
0.0
  0
ENDBLK
  5
1D84
330
1D79
100
AcDbEntity
  8
0
100
AcDbBlockEnd
  0
BLOCK
  5
1D91
330
1D85
100
AcDbEntity
  8
0
100
AcDbBlockBegin
  2
*D7
 70
     1
 10
0.0
 20
0.0
 30
0.0
  3
*D7
  1

  0
LINE
  5
1E50
330
1D85
100
AcDbEntity
  8
寸法線
 62
     2
370
    -2
100
AcDbLine
 10
1348.685469653124
 20
525.3917973943946
 30
0.0
 11
1350.02469244705
 21
526.5613013063009
 31
0.0
  0
LINE
  5
1E51
330
1D85
100
AcDbEntity
  8
寸法線
 62
     2
370
    -2
100
AcDbLine
 10
1344.73887047684
 20
529.9111286437894
 30
0.0
 11
1346.078093270766
 21
531.0806325556957
 31
0.0
  0
LINE
  5
1E52
330
1D85
100
AcDbEntity
  8
寸法線
 62
     2
370
    -2
100
AcDbLine
 10
1350.727581426877
 20
523.8560384573272
 30
0.0
 11
1352.371997750329
 21
521.9729837700795
 31
0.0
  0
LINE
  5
1E53
330
1D85
100
AcDbEntity
  8
寸法線
 62
     2
370
    -2
100
AcDbLine
 10
1343.49214960369
 20
532.1414790812177
 30
0.0
 11
1341.847733280238
 21
534.0245337684655
 31
0.0
  0
LINE
  5
1E54
330
1D85
100
AcDbEntity
  8
寸法線
 62
     2
370
    -2
100
AcDbLine
 10
1349.083165103425
 20
525.7390931445751
 30
0.0
 11
1345.136565927141
 21
530.2584243939699
 31
0.0
  0
INSERT
  5
1E55
330
1D85
100
AcDbEntity
  8
寸法線
 62
     2
370
    -2
100
AcDbBlockReference
  2
_OPEN
 10
1349.083165103425
 20
525.7390931445751
 30
0.0
 41
2.5
 42
2.5
 43
2.5
 50
131.1297572561739
  0
INSERT
  5
1E56
330
1D85
100
AcDbEntity
  8
寸法線
 62
     2
370
    -2
100
AcDbBlockReference
  2
_OPEN
 10
1345.136565927141
 20
530.2584243939699
 30
0.0
 41
2.5
 42
2.5
 43
2.5
 50
311.1297572561739
  0
MTEXT
  5
1E57
330
1D85
100
AcDbEntity
  8
寸法線
 62
     6
100
AcDbMText
 10
1348.52215653072
 20
529.2320710118615
 30
0.0
 40
2.5
 41
0.0
 71
     5
 72
     1
  1
\A1;6
  7
STYLE3
 11
0.6577665293806373
 21
-0.7532218748991238
 31
0.0
 73
     1
 44
1.0
  0
POINT
  5
1E58
330
1D85
100
AcDbEntity
  8
DEFPOINTS
 62
     0
100
AcDbPoint
 10
1348.685469653124
 20
525.3917973943946
 30
0.0
  0
POINT
  5
1E59
330
1D85
100
AcDbEntity
  8
DEFPOINTS
 62
     0
100
AcDbPoint
 10
1344.73887047684
 20
529.9111286437894
 30
0.0
  0
POINT
  5
1E5A
330
1D85
100
AcDbEntity
  8
DEFPOINTS
 62
     0
100
AcDbPoint
 10
1345.136565927141
 20
530.2584243939699
 30
0.0
  0
ENDBLK
  5
1D92
330
1D85
100
AcDbEntity
  8
0
100
AcDbBlockEnd
  0
BLOCK
  5
1D9D
330
1D93
100
AcDbEntity
  8
0
100
AcDbBlockBegin
  2
*D8
 70
     1
 10
0.0
 20
0.0
 30
0.0
  3
*D8
  1

  0
LINE
  5
1E5B
330
1D93
100
AcDbEntity
  8
寸法線
 62
     2
370
    -2
100
AcDbLine
 10
652.559230255097
 20
555.4840729618945
 30
0.0
 11
640.7638190494562
 21
546.0457548892533
 31
0.0
  0
LINE
  5
1E5C
330
1D93
100
AcDbEntity
  8
寸法線
 62
     2
370
    -2
100
AcDbLine
 10
670.0529395228062
 20
533.6215448359693
 30
0.0
 11
658.2575283171648
 21
524.1832267633276
 31
0.0
  0
LINE
  5
1E5D
330
1D93
100
AcDbEntity
  8
寸法線
 62
     2
370
    -2
100
AcDbLine
 10
643.3017630968377
 20
544.8747126131756
 30
0.0
 11
657.6715957095983
 21
526.9162073668794
 31
0.0
  0
INSERT
  5
1E5E
330
1D93
100
AcDbEntity
  8
寸法線
 62
     2
370
    -2
100
AcDbBlockReference
  2
_OPEN
 10
641.7398247693637
 20
546.8267240529904
 30
0.0
 41
2.5
 42
2.5
 43
2.5
 50
128.665699245175
  0
INSERT
  5
1E5F
330
1D93
100
AcDbEntity
  8
寸法線
 62
     2
370
    -2
100
AcDbBlockReference
  2
_OPEN
 10
659.2335340370722
 20
524.9641959270646
 30
0.0
 41
2.5
 42
2.5
 43
2.5
 50
308.6656992451751
  0
MTEXT
  5
1E60
330
1D93
100
AcDbEntity
  8
寸法線
 62
     6
100
AcDbMText
 10
651.9506879830791
 20
537.0669137356328
 30
0.0
 40
2.5
 41
0.0
 71
     5
 72
     1
  1
\A1;28
  7
STYLE3
 11
0.6247753309895843
 21
-0.7808045759259198
 31
0.0
 73
     1
 44
1.0
  0
POINT
  5
1E61
330
1D93
100
AcDbEntity
  8
DEFPOINTS
 62
     0
100
AcDbPoint
 10
652.559230255097
 20
555.4840729618945
 30
0.0
  0
POINT
  5
1E62
330
1D93
100
AcDbEntity
  8
DEFPOINTS
 62
     0
100
AcDbPoint
 10
670.0529395228062
 20
533.6215448359693
 30
0.0
  0
POINT
  5
1E63
330
1D93
100
AcDbEntity
  8
DEFPOINTS
 62
     0
100
AcDbPoint
 10
659.2335340370722
 20
524.9641959270646
 30
0.0
  0
ENDBLK
  5
1D9E
330
1D93
100
AcDbEntity
  8
0
100
AcDbBlockEnd
  0
BLOCK
  5
1DAB
330
1D9F
100
AcDbEntity
  8
0
100
AcDbBlockBegin
  2
*D9
 70
     1
 10
0.0
 20
0.0
 30
0.0
  3
*D9
  1

  0
LINE
  5
1E64
330
1D9F
100
AcDbEntity
  8
寸法線
 62
     2
370
    -2
100
AcDbLine
 10
655.0583315790554
 20
552.3608546581908
 30
0.0
 11
648.780683594294
 21
547.3376776450895
 31
0.0
  0
LINE
  5
1E65
330
1D9F
100
AcDbEntity
  8
寸法線
 62
     2
370
    -2
100
AcDbLine
 10
648.0920179246578
 20
551.9095497733726
 30
0.0
 11
646.2815822703358
 21
550.460895948793
 31
0.0
  0
LINE
  5
1E66
330
1D9F
100
AcDbEntity
  8
寸法線
 62
     2
370
    -2
100
AcDbLine
 10
651.3186276416754
 20
546.1666353690116
 30
0.0
 11
652.8805659691494
 21
544.2146239291968
 31
0.0
  0
LINE
  5
1E67
330
1D9F
100
AcDbEntity
  8
寸法線
 62
     2
370
    -2
100
AcDbLine
 10
645.6956496627693
 20
553.1938765523447
 30
0.0
 11
644.1337113352954
 21
555.1458879921596
 31
0.0
  0
LINE
  5
1E68
330
1D9F
100
AcDbEntity
  8
寸法線
 62
     2
370
    -2
100
AcDbLine
 10
649.7566893142014
 20
548.1186468088265
 30
0.0
 11
647.2575879902433
 21
551.2418651125299
 31
0.0
  0
INSERT
  5
1E69
330
1D9F
100
AcDbEntity
  8
寸法線
 62
     2
370
    -2
100
AcDbBlockReference
  2
_OPEN
 10
649.7566893142014
 20
548.1186468088265
 30
0.0
 41
2.5
 42
2.5
 43
2.5
 50
128.665699245175
  0
INSERT
  5
1E6A
330
1D9F
100
AcDbEntity
  8
寸法線
 62
     2
370
    -2
100
AcDbBlockReference
  2
_OPEN
 10
647.2575879902433
 20
551.2418651125299
 30
0.0
 41
2.5
 42
2.5
 43
2.5
 50
308.6656992451751
  0
MTEXT
  5
1E6B
330
1D9F
100
AcDbEntity
  8
寸法線
 62
     6
100
AcDbMText
 10
649.9711472320836
 20
550.8517097062836
 30
0.0
 40
2.5
 41
0.0
 71
     5
 72
     1
  1
\A1;4
  7
STYLE3
 11
0.6247753309895843
 21
-0.7808045759259198
 31
0.0
 73
     1
 44
1.0
  0
POINT
  5
1E6C
330
1D9F
100
AcDbEntity
  8
DEFPOINTS
 62
     0
100
AcDbPoint
 10
655.0583315790554
 20
552.3608546581908
 30
0.0
  0
POINT
  5
1E6D
330
1D9F
100
AcDbEntity
  8
DEFPOINTS
 62
     0
100
AcDbPoint
 10
648.0920179246578
 20
551.9095497733726
 30
0.0
  0
POINT
  5
1E6E
330
1D9F
100
AcDbEntity
  8
DEFPOINTS
 62
     0
100
AcDbPoint
 10
647.2575879902433
 20
551.2418651125299
 30
0.0
  0
ENDBLK
  5
1DAC
330
1D9F
100
AcDbEntity
  8
0
100
AcDbBlockEnd
  0
BLOCK
  5
1DB9
330
1DAD
100
AcDbEntity
  8
0
100
AcDbBlockBegin
  2
*D10
 70
     1
 10
0.0
 20
0.0
 30
0.0
  3
*D10
  1

  0
LINE
  5
1E6F
330
1DAD
100
AcDbEntity
  8
寸法線
 62
     2
370
    -2
100
AcDbLine
 10
667.5538381988476
 20
536.744763139673
 30
0.0
 11
661.0702968165945
 21
531.556836687938
 31
0.0
  0
LINE
  5
1E70
330
1DAD
100
AcDbEntity
  8
寸法線
 62
     2
370
    -2
100
AcDbLine
 10
664.4491382408943
 20
529.1375588186554
 30
0.0
 11
665.5214095803678
 21
529.995556711708
 31
0.0
  0
LINE
  5
1E71
330
1DAD
100
AcDbEntity
  8
寸法線
 62
     2
370
    -2
100
AcDbLine
 10
660.484364209028
 20
534.2898172914898
 30
0.0
 11
658.9224258815541
 21
536.2418287313046
 31
0.0
  0
LINE
  5
1E72
330
1DAD
100
AcDbEntity
  8
寸法線
 62
     2
370
    -2
100
AcDbLine
 10
666.1073421879344
 20
527.2625761081562
 30
0.0
 11
667.6692805154084
 21
525.3105646683414
 31
0.0
  0
LINE
  5
1E73
330
1DAD
100
AcDbEntity
  8
寸法線
 62
     2
370
    -2
100
AcDbLine
 10
662.046302536502
 20
532.337805851675
 30
0.0
 11
664.5454038604604
 21
529.214587547971
 31
0.0
  0
INSERT
  5
1E74
330
1DAD
100
AcDbEntity
  8
寸法線
 62
     2
370
    -2
100
AcDbBlockReference
  2
_OPEN
 10
662.046302536502
 20
532.337805851675
 30
0.0
 41
2.5
 42
2.5
 43
2.5
 50
308.6656992451751
  0
INSERT
  5
1E75
330
1DAD
100
AcDbEntity
  8
寸法線
 62
     2
370
    -2
100
AcDbBlockReference
  2
_OPEN
 10
664.5454038604604
 20
529.214587547971
 30
0.0
 41
2.5
 42
2.5
 43
2.5
 50
128.665699245175
  0
MTEXT
  5
1E76
330
1DAD
100
AcDbEntity
  8
寸法線
 62
     6
100
AcDbMText
 10
664.7598617783422
 20
531.9476504454282
 30
0.0
 40
2.5
 41
0.0
 71
     5
 72
     1
  1
\A1;4
  7
STYLE3
 11
0.6247753309895843
 21
-0.7808045759259198
 31
0.0
 73
     1
 44
1.0
  0
POINT
  5
1E77
330
1DAD
100
AcDbEntity
  8
DEFPOINTS
 62
     0
100
AcDbPoint
 10
667.5538381988476
 20
536.744763139673
 30
0.0
  0
POINT
  5
1E78
330
1DAD
100
AcDbEntity
  8
DEFPOINTS
 62
     0
100
AcDbPoint
 10
664.4491382408943
 20
529.1375588186554
 30
0.0
  0
POINT
  5
1E79
330
1DAD
100
AcDbEntity
  8
DEFPOINTS
 62
     0
100
AcDbPoint
 10
664.5454038604604
 20
529.214587547971
 30
0.0
  0
ENDBLK
  5
1DBA
330
1DAD
100
AcDbEntity
  8
0
100
AcDbBlockEnd
  0
BLOCK
  5
1DC7
330
1DBB
100
AcDbEntity
  8
0
100
AcDbBlockBegin
  2
*D11
 70
     1
 10
0.0
 20
0.0
 30
0.0
  3
*D11
  1

  0
LINE
  5
1E7A
330
1DBB
100
AcDbEntity
  8
寸法線
 62
     2
370
    -2
100
AcDbLine
 10
666.4120456911998
 20
539.7722783453922
 30
0.0
 11
667.9643725182503
 21
537.8322787490994
 31
0.0
  0
LINE
  5
1E7B
330
1DBB
100
AcDbEntity
  8
寸法線
 62
     2
370
    -2
100
AcDbLine
 10
671.3934771214389
 20
543.1502534989014
 30
0.0
 11
672.6491999738059
 21
541.580930735037
 31
0.0
  0
LINE
  5
1E7C
330
1DBB
100
AcDbEntity
  8
寸法線
 62
     2
370
    -2
100
AcDbLine
 10
665.2313919146985
 20
537.2463461415328
 30
0.0
 11
663.2793804748837
 21
535.6844078140587
 31
0.0
  0
LINE
  5
1E7D
330
1DBB
100
AcDbEntity
  8
寸法線
 62
     2
370
    -2
100
AcDbLine
 10
673.8202422498836
 20
544.1188747824185
 30
0.0
 11
675.7722536896983
 21
545.6808131098925
 31
0.0
  0
LINE
  5
1E7E
330
1DBB
100
AcDbEntity
  8
寸法線
 62
     2
370
    -2
100
AcDbLine
 10
667.1834033545133
 20
538.8082844690067
 30
0.0
 11
671.8682308100689
 21
542.5569364549444
 31
0.0
  0
INSERT
  5
1E7F
330
1DBB
100
AcDbEntity
  8
寸法線
 62
     2
370
    -2
100
AcDbBlockReference
  2
_OPEN
 10
667.1834033545133
 20
538.8082844690067
 30
0.0
 41
2.5
 42
2.5
 43
2.5
 50
38.66569924517623
  0
INSERT
  5
1E80
330
1DBB
100
AcDbEntity
  8
寸法線
 62
     2
370
    -2
100
AcDbBlockReference
  2
_OPEN
 10
671.8682308100689
 20
542.5569364549444
 30
0.0
 41
2.5
 42
2.5
 43
2.5
 50
218.6656992451761
  0
MTEXT
  5
1E81
330
1DBB
100
AcDbEntity
  8
寸法線
 62
     6
100
AcDbMText
 10
668.3543633366856
 20
542.1466190418367
 30
0.0
 40
2.5
 41
0.0
 71
     5
 72
     1
  1
\A1;6
  7
STYLE3
 11
0.7808045759259081
 21
0.6247753309895993
 31
0.0
 73
     1
 44
1.0
  0
POINT
  5
1E82
330
1DBB
100
AcDbEntity
  8
DEFPOINTS
 62
     0
100
AcDbPoint
 10
666.4120456911998
 20
539.7722783453922
 30
0.0
  0
POINT
  5
1E83
330
1DBB
100
AcDbEntity
  8
DEFPOINTS
 62
     0
100
AcDbPoint
 10
671.3934771214389
 20
543.1502534989014
 30
0.0
  0
POINT
  5
1E84
330
1DBB
100
AcDbEntity
  8
DEFPOINTS
 62
     0
100
AcDbPoint
 10
671.8682308100689
 20
542.5569364549444
 30
0.0
  0
ENDBLK
  5
1DC8
330
1DBB
100
AcDbEntity
  8
0
100
AcDbBlockEnd
  0
BLOCK
  5
1DD3
330
1DC9
100
AcDbEntity
  8
0
100
AcDbBlockBegin
  2
*D12
 70
     1
 10
0.0
 20
0.0
 30
0.0
  3
*D12
  1

  0
LINE
  5
1E85
330
1DC9
100
AcDbEntity
  8
寸法線
 62
     2
370
    -2
100
AcDbLine
 10
653.6527516721399
 20
552.516883903127
 30
0.0
 11
659.3932388883772
 21
545.3427871291991
 31
0.0
  0
LINE
  5
1E86
330
1DC9
100
AcDbEntity
  8
寸法線
 62
     2
370
    -2
100
AcDbLine
 10
661.4607974313989
 20
558.7646372130235
 30
0.0
 11
667.2012846476364
 21
551.5905404390954
 31
0.0
  0
LINE
  5
1E87
330
1DC9
100
AcDbEntity
  8
寸法線
 62
     2
370
    -2
100
AcDbLine
 10
660.564281164455
 20
547.8807311765807
 30
0.0
 11
664.4683040440846
 21
551.0046078315289
 31
0.0
  0
INSERT
  5
1E88
330
1DC9
100
AcDbEntity
  8
寸法線
 62
     2
370
    -2
100
AcDbBlockReference
  2
_OPEN
 10
658.6122697246402
 20
546.3187928491066
 30
0.0
 41
2.5
 42
2.5
 43
2.5
 50
218.6656992451761
  0
INSERT
  5
1E89
330
1DC9
100
AcDbEntity
  8
寸法線
 62
     2
370
    -2
100
AcDbBlockReference
  2
_OPEN
 10
666.4203154838994
 20
552.5665461590029
 30
0.0
 41
2.5
 42
2.5
 43
2.5
 50
38.66569924517616
  0
MTEXT
  5
1E8A
330
1DC9
100
AcDbEntity
  8
寸法線
 62
     6
100
AcDbMText
 10
661.3448388586642
 20
550.9066780839158
 30
0.0
 40
2.5
 41
0.0
 71
     5
 72
     1
  1
\A1;10
  7
STYLE3
 11
0.7808045759259081
 21
0.6247753309895993
 31
0.0
 73
     1
 44
1.0
  0
POINT
  5
1E8B
330
1DC9
100
AcDbEntity
  8
DEFPOINTS
 62
     0
100
AcDbPoint
 10
653.6527516721399
 20
552.516883903127
 30
0.0
  0
POINT
  5
1E8C
330
1DC9
100
AcDbEntity
  8
DEFPOINTS
 62
     0
100
AcDbPoint
 10
661.4607974313989
 20
558.7646372130235
 30
0.0
  0
POINT
  5
1E8D
330
1DC9
100
AcDbEntity
  8
DEFPOINTS
 62
     0
100
AcDbPoint
 10
666.4203154838994
 20
552.5665461590029
 30
0.0
  0
ENDBLK
  5
1DD4
330
1DC9
100
AcDbEntity
  8
0
100
AcDbBlockEnd
  0
BLOCK
  5
1DDF
330
1DD5
100
AcDbEntity
  8
0
100
AcDbBlockBegin
  2
*D13
 70
     1
 10
0.0
 20
0.0
 30
0.0
  3
*D13
  1

  0
ARC
  5
1E8E
330
1DD5
100
AcDbEntity
  8
寸法線
 62
     2
370
    -2
100
AcDbCircle
 10
1325.219317253069
 20
180.1603331147219
 30
0.0
 40
44.53774860842499
100
AcDbArc
 50
122.4623181976014
 51
136.0218418054429
  0
INSERT
  5
1E8F
330
1DD5
100
AcDbEntity
  8
寸法線
 62
     2
370
    -2
100
AcDbBlockReference
  2
_OPEN
 10
1303.46010293886
 20
219.0209512716115
 30
0.0
 41
2.5
 42
2.5
 43
2.5
 50
30.85403909734119
  0
INSERT
  5
1E90
330
1DD5
100
AcDbEntity
  8
寸法線
 62
     2
370
    -2
100
AcDbBlockReference
  2
_OPEN
 10
1291.484965068106
 20
209.2396132600091
 30
0.0
 41
2.5
 42
2.5
 43
2.5
 50
227.6301209057032
  0
MTEXT
  5
1E91
330
1DD5
100
AcDbEntity
  8
寸法線
 62
     6
100
AcDbMText
 10
1295.85869239759
 20
216.106083092774
 30
0.0
 40
2.5
 41
0.0
 71
     5
 72
     1
  1
\A1;20°
  7
STYLE3
 11
0.7744800955728593
 21
0.6325982781840742
 31
0.0
 73
     1
 44
1.0
  0
POINT
  5
1E92
330
1DD5
100
AcDbEntity
  8
DEFPOINTS
 62
     0
100
AcDbPoint
 10
1299.097333125136
 20
216.2332176171735
 30
0.0
  0
POINT
  5
1E93
330
1DD5
100
AcDbEntity
  8
DEFPOINTS
 62
     0
100
AcDbPoint
 10
1268.69431725307
 20
228.8853331147218
 30
0.0
  0
POINT
  5
1E94
330
1DD5
100
AcDbEntity
  8
DEFPOINTS
 62
     0
100
AcDbPoint
 10
1285.39431725307
 20
251.2853331147218
 30
0.0
  0
POINT
  5
1E95
330
1DD5
100
AcDbEntity
  8
DEFPOINTS
 62
     0
100
AcDbPoint
 10
1325.219317253069
 20
180.1603331147219
 30
0.0
  0
POINT
  5
1E96
330
1DD5
100
AcDbEntity
  8
DEFPOINTS
 62
     0
100
AcDbPoint
 10
1325.219317253069
 20
180.1603331147219
 30
0.0
  0
ENDBLK
  5
1DE0
330
1DD5
100
AcDbEntity
  8
0
100
AcDbBlockEnd
  0
BLOCK
  5
1DEB
330
1DE1
100
AcDbEntity
  8
0
100
AcDbBlockBegin
  2
*D14
 70
     1
 10
0.0
 20
0.0
 30
0.0
  3
*D14
  1

  0
LINE
  5
1E97
330
1DE1
100
AcDbEntity
  8
寸法線
 62
     2
370
    -2
100
AcDbLine
 10
1225.21931725307
 20
244.032452706353
 30
0.0
 11
1225.21931725307
 21
268.4539720076407
 31
0.0
  0
LINE
  5
1E98
330
1DE1
100
AcDbEntity
  8
寸法線
 62
     2
370
    -2
100
AcDbLine
 10
625.2193172530699
 20
289.7347691105649
 30
0.0
 11
625.2193172530699
 21
265.9539720076407
 31
0.0
  0
LINE
  5
1E99
330
1DE1
100
AcDbEntity
  8
寸法線
 62
     2
370
    -2
100
AcDbLine
 10
1222.71931725307
 20
267.2039720076407
 30
0.0
 11
627.7193172530699
 21
267.2039720076407
 31
0.0
  0
INSERT
  5
1E9A
330
1DE1
100
AcDbEntity
  8
寸法線
 62
     2
370
    -2
100
AcDbBlockReference
  2
_OPEN
 10
1225.21931725307
 20
267.2039720076407
 30
0.0
 41
2.5
 42
2.5
 43
2.5
  0
INSERT
  5
1E9B
330
1DE1
100
AcDbEntity
  8
寸法線
 62
     2
370
    -2
100
AcDbBlockReference
  2
_OPEN
 10
625.2193172530699
 20
267.2039720076407
 30
0.0
 41
2.5
 42
2.5
 43
2.5
 50
180.0
  0
MTEXT
  5
1E9C
330
1DE1
100
AcDbEntity
  8
寸法線
 62
     6
100
AcDbMText
 10
925.2193172530699
 20
269.0789720076407
 30
0.0
 40
2.5
 41
0.0
 71
     5
 72
     1
  1
\A1;600
  7
STYLE3
 73
     1
 44
1.0
  0
POINT
  5
1E9D
330
1DE1
100
AcDbEntity
  8
DEFPOINTS
 62
     0
100
AcDbPoint
 10
1225.21931725307
 20
244.032452706353
 30
0.0
  0
POINT
  5
1E9E
330
1DE1
100
AcDbEntity
  8
DEFPOINTS
 62
     0
100
AcDbPoint
 10
625.2193172530699
 20
289.7347691105649
 30
0.0
  0
POINT
  5
1E9F
330
1DE1
100
AcDbEntity
  8
DEFPOINTS
 62
     0
100
AcDbPoint
 10
625.2193172530699
 20
267.2039720076407
 30
0.0
  0
ENDBLK
  5
1DEC
330
1DE1
100
AcDbEntity
  8
0
100
AcDbBlockEnd
  0
BLOCK
  5
1DF9
330
1DED
100
AcDbEntity
  8
0
100
AcDbBlockBegin
  2
*D15
 70
     1
 10
0.0
 20
0.0
 30
0.0
  3
*D15
  1

  0
LINE
  5
1EA0
330
1DED
100
AcDbEntity
  8
寸法線
 62
     2
370
    -2
100
AcDbLine
 10
686.9193817179469
 20
355.7757034178292
 30
0.0
 11
686.5475245255986
 21
347.2587734667836
 31
0.0
  0
LINE
  5
1EA1
330
1DED
100
AcDbEntity
  8
寸法線
 62
     2
370
    -2
100
AcDbLine
 10
691.9615992524113
 20
356.6335435411184
 30
0.0
 11
691.5427656335081
 21
347.040676529957
 31
0.0
  0
LINE
  5
1EA2
330
1DED
100
AcDbEntity
  8
寸法線
 62
     2
370
    -2
100
AcDbLine
 10
684.1044282058505
 20
348.6166322121743
 30
0.0
 11
681.6068076518959
 21
348.7256806805876
 31
0.0
  0
LINE
  5
1EA3
330
1DED
100
AcDbEntity
  8
寸法線
 62
     2
370
    -2
100
AcDbLine
 10
694.0949104216693
 20
348.1804383385208
 30
0.0
 11
696.592530975624
 21
348.0713898701075
 31
0.0
  0
LINE
  5
1EA4
330
1DED
100
AcDbEntity
  8
寸法線
 62
     2
370
    -2
100
AcDbLine
 10
686.6020487598052
 20
348.5075837437609
 30
0.0
 11
691.5972898677146
 21
348.2894868069343
 31
0.0
  0
INSERT
  5
1EA5
330
1DED
100
AcDbEntity
  8
寸法線
 62
     2
370
    -2
100
AcDbBlockReference
  2
_OPEN
 10
686.6020487598052
 20
348.5075837437609
 30
0.0
 41
2.5
 42
2.5
 43
2.5
 50
357.4999999999998
  0
INSERT
  5
1EA6
330
1DED
100
AcDbEntity
  8
寸法線
 62
     2
370
    -2
100
AcDbBlockReference
  2
_OPEN
 10
691.5972898677146
 20
348.2894868069343
 30
0.0
 41
2.5
 42
2.5
 43
2.5
 50
177.4999999999998
  0
MTEXT
  5
1EA7
330
1DED
100
AcDbEntity
  8
寸法線
 62
     6
100
AcDbMText
 10
689.1814556650699
 20
350.2717506908136
 30
0.0
 40
2.5
 41
0.0
 71
     5
 72
     1
  1
\A1;5
  7
STYLE3
 11
0.9990482215818577
 21
-0.0436193873653386
 31
0.0
 73
     1
 44
1.0
  0
POINT
  5
1EA8
330
1DED
100
AcDbEntity
  8
DEFPOINTS
 62
     0
100
AcDbPoint
 10
686.9193817179469
 20
355.7757034178292
 30
0.0
  0
POINT
  5
1EA9
330
1DED
100
AcDbEntity
  8
DEFPOINTS
 62
     0
100
AcDbPoint
 10
691.9615992524113
 20
356.6335435411184
 30
0.0
  0
POINT
  5
1EAA
330
1DED
100
AcDbEntity
  8
DEFPOINTS
 62
     0
100
AcDbPoint
 10
691.5972898677146
 20
348.2894868069343
 30
0.0
  0
ENDBLK
  5
1DFA
330
1DED
100
AcDbEntity
  8
0
100
AcDbBlockEnd
  0
BLOCK
  5
1E07
330
1DFB
100
AcDbEntity
  8
0
100
AcDbBlockBegin
  2
*D16
 70
     1
 10
0.0
 20
0.0
 30
0.0
  3
*D16
  1

  0
LINE
  5
1EAB
330
1DFB
100
AcDbEntity
  8
寸法線
 62
     2
370
    -2
100
AcDbLine
 10
875.2222587372951
 20
31.7364994334084
 30
0.0
 11
873.0844993378292
 21
31.90474474692664
 31
0.0
  0
LINE
  5
1EAC
330
1DFB
100
AcDbEntity
  8
寸法線
 62
     2
370
    -2
100
AcDbLine
 10
875.69242103795
 20
26.67848149717955
 30
0.0
 11
872.6917694118759
 21
26.91463790173751
 31
0.0
  0
LINE
  5
1EAD
330
1DFB
100
AcDbEntity
  8
寸法線
 62
     2
370
    -2
100
AcDbLine
 10
874.526793744315
 20
34.29896421159974
 30
0.0
 11
874.7229414836345
 21
36.79125754593257
 31
0.0
  0
LINE
  5
1EAE
330
1DFB
100
AcDbEntity
  8
寸法線
 62
     2
370
    -2
100
AcDbLine
 10
873.7417683397227
 20
24.32427069774494
 30
0.0
 11
873.5456206004032
 21
21.83197736341211
 31
0.0
  0
LINE
  5
1EAF
330
1DFB
100
AcDbEntity
  8
寸法線
 62
     2
370
    -2
100
AcDbLine
 10
874.3306460049955
 20
31.8066708772669
 30
0.0
 11
873.9379160790422
 21
26.81656403207777
 31
0.0
  0
INSERT
  5
1EB0
330
1DFB
100
AcDbEntity
  8
寸法線
 62
     2
370
    -2
100
AcDbBlockReference
  2
_OPEN
 10
874.3306460049955
 20
31.8066708772669
 30
0.0
 41
2.5
 42
2.5
 43
2.5
 50
265.5000000000029
  0
INSERT
  5
1EB1
330
1DFB
100
AcDbEntity
  8
寸法線
 62
     2
370
    -2
100
AcDbBlockReference
  2
_OPEN
 10
873.9379160790422
 20
26.81656403207777
 30
0.0
 41
2.5
 42
2.5
 43
2.5
 50
85.5000000000029
  0
MTEXT
  5
1EB2
330
1DFB
100
AcDbEntity
  8
寸法線
 62
     6
100
AcDbMText
 10
872.2650610412692
 20
29.45872825916195
 30
0.0
 40
2.5
 41
0.0
 71
     5
 72
     1
  1
\A1;5
  7
STYLE3
 11
0.0784590957277946
 21
0.9969173337331319
 31
0.0
 73
     1
 44
1.0
  0
POINT
  5
1EB3
330
1DFB
100
AcDbEntity
  8
DEFPOINTS
 62
     0
100
AcDbPoint
 10
875.2222587372951
 20
31.7364994334084
 30
0.0
  0
POINT
  5
1EB4
330
1DFB
100
AcDbEntity
  8
DEFPOINTS
 62
     0
100
AcDbPoint
 10
875.69242103795
 20
26.67848149717955
 30
0.0
  0
POINT
  5
1EB5
330
1DFB
100
AcDbEntity
  8
DEFPOINTS
 62
     0
100
AcDbPoint
 10
873.9379160790422
 20
26.81656403207777
 30
0.0
  0
ENDBLK
  5
1E08
330
1DFB
100
AcDbEntity
  8
0
100
AcDbBlockEnd
  0
BLOCK
  5
1E15
330
1E09
100
AcDbEntity
  8
0
100
AcDbBlockBegin
  2
*D17
 70
     1
 10
0.0
 20
0.0
 30
0.0
  3
*D17
  1

  0
LINE
  5
1EB6
330
1E09
100
AcDbEntity
  8
寸法線
 62
     2
370
    -2
100
AcDbLine
 10
922.7849895007654
 20
28.19418626906863
 30
0.0
 11
925.682857112022
 21
27.96611914191109
 31
0.0
  0
LINE
  5
1EB7
330
1E09
100
AcDbEntity
  8
寸法線
 62
     2
370
    -2
100
AcDbLine
 10
895.2735470654534
 20
25.01375478669748
 30
0.0
 11
925.2647368087515
 21
22.65339696420046
 31
0.0
  0
LINE
  5
1EB8
330
1E09
100
AcDbEntity
  8
寸法線
 62
     2
370
    -2
100
AcDbLine
 10
924.6328581841751
 20
30.55648634590367
 30
0.0
 11
924.8290059234946
 21
33.04877968023649
 31
0.0
  0
LINE
  5
1EB9
330
1E09
100
AcDbEntity
  8
寸法線
 62
     2
370
    -2
100
AcDbLine
 10
923.8224424022657
 20
20.25917749952737
 30
0.0
 11
923.1172445775694
 21
11.298789559426
 31
0.0
  0
LINE
  5
1EBA
330
1E09
100
AcDbEntity
  8
寸法線
 62
     2
370
    -2
100
AcDbLine
 10
924.4367104448556
 20
28.06419301157084
 30
0.0
 11
924.0185901415852
 21
22.7514708338602
 31
0.0
  0
INSERT
  5
1EBB
330
1E09
100
AcDbEntity
  8
寸法線
 62
     2
370
    -2
100
AcDbBlockReference
  2
_OPEN
 10
924.4367104448556
 20
28.06419301157084
 30
0.0
 41
2.5
 42
2.5
 43
2.5
 50
265.5000000000029
  0
INSERT
  5
1EBC
330
1E09
100
AcDbEntity
  8
寸法線
 62
     2
370
    -2
100
AcDbBlockReference
  2
_OPEN
 10
924.0185901415852
 20
22.7514708338602
 30
0.0
 41
2.5
 42
2.5
 43
2.5
 50
85.5000000000029
  0
MTEXT
  5
1EBD
330
1E09
100
AcDbEntity
  8
寸法線
 62
     6
100
AcDbMText
 10
921.502549619508
 20
14.67994766679987
 30
0.0
 40
2.5
 41
0.0
 71
     5
 72
     1
  1
\A1;5.5
  7
STYLE3
 11
0.0784590957277946
 21
0.9969173337331319
 31
0.0
 73
     1
 44
1.0
  0
POINT
  5
1EBE
330
1E09
100
AcDbEntity
  8
DEFPOINTS
 62
     0
100
AcDbPoint
 10
922.7849895007654
 20
28.19418626906863
 30
0.0
  0
POINT
  5
1EBF
330
1E09
100
AcDbEntity
  8
DEFPOINTS
 62
     0
100
AcDbPoint
 10
895.2735470654534
 20
25.01375478669748
 30
0.0
  0
POINT
  5
1EC0
330
1E09
100
AcDbEntity
  8
DEFPOINTS
 62
     0
100
AcDbPoint
 10
924.0185901415852
 20
22.7514708338602
 30
0.0
  0
ENDBLK
  5
1E16
330
1E09
100
AcDbEntity
  8
0
100
AcDbBlockEnd
  0
BLOCK
  5
1E2A
330
1E23
100
AcDbEntity
  8
0
100
AcDbBlockBegin
  2
*D19
 70
     1
 10
0.0
 20
0.0
 30
0.0
  3
*D19
  1

  0
LINE
  5
1ECA
330
1E23
100
AcDbEntity
  8
寸法線
 62
     2
370
    -2
100
AcDbLine
 10
1250.480058408776
 20
81.41474129004871
 30
0.0
 11
1246.680504152897
 21
74.60546450991796
 31
0.0
  0
MTEXT
  5
1ECB
330
1E23
100
AcDbEntity
  8
寸法線
 62
     6
100
AcDbMText
 10
1247.552024951061
 20
80.01529962855505
 30
0.0
 40
2.5
 41
0.0
 71
     5
 72
     1
  1
\A1;R6
  7
STYLE3
 11
0.4872710801431918
 21
0.8732507626427171
 31
0.0
 73
     1
 44
1.0
  0
LINE
  5
1ECC
330
1E23
100
AcDbEntity
  8
寸法線
 62
     2
370
    -2
100
AcDbLine
 10
1242.53869997168
 20
67.18283302745487
 30
0.0
 11
1245.462326452539
 21
72.42233760331112
 31
0.0
  0
INSERT
  5
1ECD
330
1E23
100
AcDbEntity
  8
寸法線
 62
     2
370
    -2
100
AcDbBlockReference
  2
_OPEN
 10
1245.462326452539
 20
72.42233760331112
 30
0.0
 41
2.5
 42
2.5
 43
2.5
 50
240.8386251467284
  0
POINT
  5
1ECE
330
1E23
100
AcDbEntity
  8
DEFPOINTS
 62
     0
100
AcDbPoint
 10
1245.462326452539
 20
72.42233760331112
 30
0.0
  0
POINT
  5
1ECF
330
1E23
100
AcDbEntity
  8
DEFPOINTS
 62
     0
100
AcDbPoint
 10
1242.53869997168
 20
67.18283302745487
 30
0.0
  0
ENDBLK
  5
1E2B
330
1E23
100
AcDbEntity
  8
0
100
AcDbBlockEnd
  0
BLOCK
  5
1E33
330
1E2C
100
AcDbEntity
  8
0
100
AcDbBlockBegin
  2
*D20
 70
     1
 10
0.0
 20
0.0
 30
0.0
  3
*D20
  1

  0
LINE
  5
1ED0
330
1E2C
100
AcDbEntity
  8
寸法線
 62
     2
370
    -2
100
AcDbLine
 10
1269.399346988528
 20
25.31029777441535
 30
0.0
 11
1276.895116943282
 21
46.10429384599138
 31
0.0
  0
MTEXT
  5
1ED1
330
1E2C
100
AcDbEntity
  8
寸法線
 62
     6
100
AcDbMText
 10
1269.34113048444
 20
30.67786152878694
 30
0.0
 40
2.5
 41
0.0
 71
     5
 72
     1
  1
\A1;R140
  7
STYLE3
 11
0.3391171951564125
 21
0.9407441352191613
 31
0.0
 73
     1
 44
1.0
  0
LINE
  5
1ED2
330
1E2C
100
AcDbEntity
  8
寸法線
 62
     2
370
    -2
100
AcDbLine
 10
1325.219317253071
 20
180.1603331147221
 30
0.0
 11
1277.742909931173
 21
48.45615418403929
 31
0.0
  0
INSERT
  5
1ED3
330
1E2C
100
AcDbEntity
  8
寸法線
 62
     2
370
    -2
100
AcDbBlockReference
  2
_OPEN
 10
1277.742909931173
 20
48.45615418403929
 30
0.0
 41
2.5
 42
2.5
 43
2.5
 50
70.17690203680878
  0
POINT
  5
1ED4
330
1E2C
100
AcDbEntity
  8
DEFPOINTS
 62
     0
100
AcDbPoint
 10
1277.742909931173
 20
48.45615418403929
 30
0.0
  0
POINT
  5
1ED5
330
1E2C
100
AcDbEntity
  8
DEFPOINTS
 62
     0
100
AcDbPoint
 10
1325.219317253071
 20
180.1603331147221
 30
0.0
  0
ENDBLK
  5
1E34
330
1E2C
100
AcDbEntity
  8
0
100
AcDbBlockEnd
  0
ENDSEC
  0
SECTION
  2
ENTITIES
  0
LINE
  5
19F6
330
18
100
AcDbEntity
  8
C
100
AcDbLine
 10
600.3408011468721
 20
19.0380055113556
 30
1.0
 11
600.3408011468721
 21
-6.886994488644404
 31
1.0
  0
LWPOLYLINE
  5
1A11
330
18
100
AcDbEntity
  8
C
100
AcDbPolyline
 90
        5
 70
     0
 43
0.8
 38
1.0
 10
600.3408011468721
 20
563.0600587962236
 10
1406.867791030729
 20
563.0600587962236
 10
1406.867791030729
 20
-6.886994488644404
 10
600.3408011468721
 20
-6.886994488644404
 10
600.3408011468721
 20
563.0600587962236
  0
LINE
  5
1A4B
330
18
100
AcDbEntity
  8
中心線
100
AcDbLine
 10
1374.008365848695
 20
180.1603331147219
 30
0.0
 11
610.2816229730457
 21
180.1603331147219
 31
0.0
  0
LINE
  5
1A4C
330
18
100
AcDbEntity
  8
中心線
 48
0.15
100
AcDbLine
 10
1332.997491846122
 20
191.2884230539005
 30
0.0
 11
1332.997491846122
 21
184.5885923616473
 31
0.0
  0
LINE
  5
1A4D
330
18
100
AcDbEntity
  8
中心線
100
AcDbLine
 10
1325.21931725307
 20
231.9249769985799
 30
0.0
 11
1325.21931725307
 21
-5.039666885278052
 31
0.0
  0
LINE
  5
1A4E
330
18
100
AcDbEntity
  8
寸法線
100
AcDbLine
 10
627.253383718345
 20
126.8353331147219
 30
0.0
 11
763.56931725307
 21
126.8353331147219
 31
0.0
  0
LINE
  5
1A4F
330
18
100
AcDbEntity
  8
中心線
100
AcDbLine
 10
763.5443172530699
 20
226.835333114722
 30
0.0
 11
611.5443172530699
 21
226.835333114722
 31
0.0
  0
ARC
  5
1A51
330
18
100
AcDbEntity
  8
0
100
AcDbCircle
 10
626.34431725307
 20
222.810333114722
 30
0.0
 40
4.0
100
AcDbArc
 50
354.6250000000004
 51
173.9062499999993
  0
ARC
  5
1A52
330
18
100
AcDbEntity
  8
0
100
AcDbCircle
 10
626.89431725307
 20
230.760333114722
 30
0.0
 40
4.0
100
AcDbArc
 50
169.9531250000008
 51
352.4843749999996
  0
LINE
  5
1A53
330
18
100
AcDbEntity
  8
0
100
AcDbLine
 10
611.6693172530699
 20
156.2353331147219
 30
0.0
 11
622.3693172530699
 21
223.4603331147219
 31
0.0
  0
LINE
  5
1A54
330
18
100
AcDbEntity
  8
0
100
AcDbLine
 10
628.09431725307
 20
151.0603331147219
 30
0.0
 11
630.31931725307
 21
222.685333114722
 31
0.0
  0
ARC
  5
1A55
330
18
100
AcDbEntity
  8
想像線
 48
0.5
100
AcDbCircle
 10
627.3943172530699
 20
122.8103331147219
 30
0.0
 40
4.0
100
AcDbArc
 50
2.140624999999863
 51
183.9218749999998
  0
LINE
  5
1A56
330
18
100
AcDbEntity
  8
想像線
 48
0.5
100
AcDbLine
 10
623.0414826402619
 20
101.3278877715199
 30
0.0
 11
623.3693172530699
 21
122.9103331147219
 31
0.0
  0
LINE
  5
1A57
330
18
100
AcDbEntity
  8
想像線
 48
0.5
100
AcDbLine
 10
633.443448873031
 20
104.8423789804745
 30
0.0
 11
631.3693172530699
 21
123.2853331147219
 31
0.0
  0
LINE
  5
1A58
330
18
100
AcDbEntity
  8
隠れ線2
100
AcDbLine
 10
643.6443172530699
 20
394.7853331147219
 30
0.0
 11
662.69431725307
 21
393.310333114722
 31
0.0
  0
LINE
  5
1A59
330
18
100
AcDbEntity
  8
0
100
AcDbLine
 10
643.6443172530699
 20
394.7853331147219
 30
0.0
 11
622.9193172530699
 21
231.2853331147219
 31
0.0
  0
LINE
  5
1A5A
330
18
100
AcDbEntity
  8
0
100
AcDbLine
 10
662.69431725307
 20
393.310333114722
 30
0.0
 11
630.81931725307
 21
230.0103331147219
 31
0.0
  0
LINE
  5
1A5B
330
18
100
AcDbEntity
  8
0
100
AcDbLine
 10
645.5443172530699
 20
430.5603331147219
 30
0.0
 11
667.6443172530699
 21
428.8603331147219
 31
0.0
  0
LINE
  5
1A5C
330
18
100
AcDbEntity
  8
0
100
AcDbLine
 10
643.6443172530699
 20
394.7853331147219
 30
0.0
 11
647.5164449368401
 21
473.052275264733
 31
0.0
  0
LINE
  5
1A5D
330
18
100
AcDbEntity
  8
0
100
AcDbLine
 10
662.69431725307
 20
393.310333114722
 30
0.0
 11
673.56931725307
 21
471.760333114722
 31
0.0
  0
LINE
  5
1A5E
330
18
100
AcDbEntity
  8
中心線
 48
0.2
100
AcDbLine
 10
650.986099072847
 20
422.7353331147218
 30
0.0
 11
661.1525354332931
 21
422.7353331147218
 31
0.0
  0
LINE
  5
1A5F
330
18
100
AcDbEntity
  8
中心線
 48
0.2
100
AcDbLine
 10
656.06931725307
 20
417.6521149344988
 30
0.0
 11
656.06931725307
 21
427.8185512949449
 31
0.0
  0
LINE
  5
1A60
330
18
100
AcDbEntity
  8
0
100
AcDbLine
 10
732.11931725307
 20
558.2103331147219
 30
0.0
 11
1222.19431725307
 21
539.410333114722
 31
0.0
  0
ARC
  5
1A61
330
18
100
AcDbEntity
  8
0
100
AcDbCircle
 10
735.19431725307
 20
464.8353331147219
 30
0.0
 40
62.025
100
AcDbArc
 50
80.87500000000089
 51
173.9843750000002
  0
LINE
  5
1A62
330
18
100
AcDbEntity
  8
0
100
AcDbLine
 10
745.0443172530699
 20
526.0853331147219
 30
0.0
 11
1222.89431725307
 21
492.385333114722
 31
0.0
  0
LINE
  5
1A63
330
18
100
AcDbEntity
  8
0
100
AcDbLine
 10
732.11931725307
 20
553.4103331147219
 30
0.0
 11
1222.86931725307
 21
534.5853331147219
 31
0.0
  0
LINE
  5
1A64
330
18
100
AcDbEntity
  8
0
100
AcDbLine
 10
780.1839734419139
 20
547.5636477090847
 30
0.0
 11
860.1063256840268
 21
544.4978539628642
 31
0.0
  0
ARC
  5
1A65
330
18
100
AcDbEntity
  8
0
100
AcDbCircle
 10
779.96931725307
 20
541.9677632641922
 30
0.0
 40
5.599999999999999
100
AcDbArc
 50
87.80323081136868
 51
180.0
  0
LINE
  5
1A66
330
18
100
AcDbEntity
  8
0
100
AcDbLine
 10
900.9350714643581
 20
542.9316774181574
 30
0.0
 11
968.719480131447
 21
540.3314909827872
 31
0.0
  0
LINE
  5
1A67
330
18
100
AcDbEntity
  8
0
100
AcDbLine
 10
1011.698808053926
 20
538.6828188520879
 30
0.0
 11
1076.098937889372
 21
536.2124521803561
 31
0.0
  0
LINE
  5
1A68
330
18
100
AcDbEntity
  8
0
100
AcDbLine
 10
1122.371945657325
 20
534.4374356317435
 30
0.0
 11
1201.587475370344
 21
531.3987553528896
 31
0.0
  0
LINE
  5
1A69
330
18
100
AcDbEntity
  8
0
100
AcDbLine
 10
745.0443172530699
 20
530.8853331147219
 30
0.0
 11
1223.26931725307
 21
497.1603331147218
 31
0.0
  0
LINE
  5
1A6A
330
18
100
AcDbEntity
  8
0
100
AcDbLine
 10
779.5753769081763
 20
532.4600955562783
 30
0.0
 11
860.7059743164857
 21
526.7386686179223
 31
0.0
  0
ARC
  5
1A6B
330
18
100
AcDbEntity
  8
0
100
AcDbCircle
 10
779.96931725307
 20
538.0462222111856
 30
0.0
 40
5.599999999999999
100
AcDbArc
 50
180.0000000000001
 51
265.9661112972961
  0
LINE
  5
1A6C
330
18
100
AcDbEntity
  8
0
100
AcDbLine
 10
899.9754904698415
 20
523.9693352868086
 30
0.0
 11
967.2433736281245
 21
519.2255235674024
 31
0.0
  0
LINE
  5
1A6D
330
18
100
AcDbEntity
  8
0
100
AcDbLine
 10
1010.786837228519
 20
516.1547863413617
 30
0.0
 11
1074.271430317509
 21
511.6777767707072
 31
0.0
  0
LINE
  5
1A6E
330
18
100
AcDbEntity
  8
0
100
AcDbLine
 10
1121.25634050573
 20
508.3643446078179
 30
0.0
 11
1199.868121244388
 21
502.8205476390036
 31
0.0
  0
LINE
  5
1A6F
330
18
100
AcDbEntity
  8
中心線
100
AcDbLine
 10
696.46931725307
 20
507.0103331147219
 30
0.0
 11
654.150400697361
 21
559.8978305173254
 31
0.0
  0
LINE
  5
1A70
330
18
100
AcDbEntity
  8
外形線
100
AcDbLine
 10
672.3946948993393
 20
541.8989950325262
 30
0.0
 11
661.1487389415263
 21
555.9534773991924
 31
0.0
  0
ARC
  5
1A71
330
18
100
AcDbEntity
  8
外形線
100
AcDbCircle
 10
673.1754994752653
 20
542.5237703635158
 30
0.0
 40
1.0
100
AcDbArc
 50
218.6656992451762
 51
308.6656992451806
  0
ARC
  5
1A72
330
18
100
AcDbEntity
  8
外形線
100
AcDbCircle
 10
661.9295435174522
 20
556.578252730182
 30
0.0
 40
1.0
100
AcDbArc
 50
128.6656992451821
 51
218.6656992451762
  0
LINE
  5
1A73
330
18
100
AcDbEntity
  8
外形線
100
AcDbLine
 10
667.7098674437841
 20
538.1503430465882
 30
0.0
 11
656.4639114859711
 21
552.2048254132546
 31
0.0
  0
ARC
  5
1A74
330
18
100
AcDbEntity
  8
外形線
100
AcDbCircle
 10
666.9290628678582
 20
537.5255677155987
 30
0.0
 40
1.0
100
AcDbArc
 50
308.6656992451817
 51
38.66569924517616
  0
ARC
  5
1A75
330
18
100
AcDbEntity
  8
外形線
100
AcDbCircle
 10
655.6831069100452
 20
551.580050082265
 30
0.0
 40
1.0
100
AcDbArc
 50
38.66569924517621
 51
128.6656992451834
  0
LINE
  5
1A76
330
18
100
AcDbEntity
  8
外形線
100
AcDbLine
 10
676.4554053751496
 20
540.0253273908017
 30
0.0
 11
675.2058547131704
 21
541.5869365426535
 31
0.0
  0
ARC
  5
1A77
330
18
100
AcDbEntity
  8
外形線
100
AcDbCircle
 10
674.4250501372444
 20
540.962161211664
 30
0.0
 40
1.0
100
AcDbArc
 50
38.66569924517549
 51
128.665699245182
  0
ARC
  5
1A78
330
18
100
AcDbEntity
  8
外形線
100
AcDbCircle
 10
675.6746007992237
 20
539.4005520598121
 30
0.0
 40
1.0
100
AcDbArc
 50
308.6656992451753
 51
38.66569924517593
  0
LINE
  5
1A79
330
18
100
AcDbEntity
  8
外形線
100
AcDbLine
 10
661.4607974313989
 20
558.7646372130235
 30
0.0
 11
660.2112467694198
 21
560.3262463648753
 31
0.0
  0
ARC
  5
1A7A
330
18
100
AcDbEntity
  8
外形線
100
AcDbCircle
 10
659.4304421934939
 20
559.7014710338856
 30
0.0
 40
1.0
100
AcDbArc
 50
38.66569924517577
 51
128.6656992451752
  0
LINE
  5
1A7B
330
18
100
AcDbEntity
  8
外形線
100
AcDbLine
 10
668.6473596158905
 20
533.7775740809056
 30
0.0
 11
667.3978089539113
 21
535.3391832327575
 31
0.0
  0
ARC
  5
1A7C
330
18
100
AcDbEntity
  8
外形線
100
AcDbCircle
 10
668.1786135298373
 20
535.963958563747
 30
0.0
 40
1.0
100
AcDbArc
 50
128.6656992451736
 51
218.6656992451759
  0
LINE
  5
1A7D
330
18
100
AcDbEntity
  8
外形線
100
AcDbLine
 10
653.6527516721398
 20
552.516883903127
 30
0.0
 11
652.4032010101607
 21
554.0784930549789
 31
0.0
  0
ARC
  5
1A7E
330
18
100
AcDbEntity
  8
0
100
AcDbCircle
 10
659.71931725307
 20
458.7103331147219
 30
0.0
 40
8.199999999999999
100
AcDbArc
 50
174.9218749999996
 51
5.062500000000206
  0
ARC
  5
1A7F
330
18
100
AcDbEntity
  8
0
100
AcDbCircle
 10
735.19431725307
 20
464.8353331147219
 30
0.0
 40
66.79999999999999
100
AcDbArc
 50
81.29687499999681
 51
176.9843749999999
  0
ARC
  5
1A80
330
18
100
AcDbEntity
  8
0
100
AcDbCircle
 10
742.19431725307
 20
463.5853331147219
 30
0.0
 40
95.15
100
AcDbArc
 50
96.04687499999847
 51
174.2899132136556
  0
ARC
  5
1A81
330
18
100
AcDbEntity
  8
0
100
AcDbCircle
 10
742.19431725307
 20
463.5853331147219
 30
0.0
 40
95.15
100
AcDbArc
 50
180.0454772590589
 51
180.046875
  0
ARC
  5
1A82
330
18
100
AcDbEntity
  8
0
100
AcDbCircle
 10
742.19431725307
 20
463.5853331147219
 30
0.0
 40
90.4
100
AcDbArc
 50
96.45312499999841
 51
175.7031249999996
  0
LINE
  5
1A83
330
18
100
AcDbEntity
  8
0
100
AcDbLine
 10
652.0443172530699
 20
470.3603331147219
 30
0.0
 11
651.5193172530699
 21
458.7103331147219
 31
0.0
  0
LINE
  5
1A84
330
18
100
AcDbEntity
  8
0
100
AcDbLine
 10
667.7693172530699
 20
457.760333114722
 30
0.0
 11
668.49431725307
 21
468.3353331147219
 31
0.0
  0
LINE
  5
1A85
330
18
100
AcDbEntity
  8
0
100
AcDbLine
 10
653.59431725307
 20
129.3603331147219
 30
0.0
 11
1203.44431725307
 21
93.93533311472197
 31
0.0
  0
LINE
  5
1A86
330
18
100
AcDbEntity
  8
0
100
AcDbLine
 10
645.96931725307
 20
108.1853331147219
 30
0.0
 11
1221.14431725307
 21
45.78533311472194
 31
0.0
  0
ARC
  5
1A87
330
18
100
AcDbEntity
  8
0
100
AcDbCircle
 10
651.5193172530699
 20
152.7603331147219
 30
0.0
 40
23.5
100
AcDbArc
 50
171.9843750000001
 51
275.2500000000007
  0
ARC
  5
1A88
330
18
100
AcDbEntity
  8
0
100
AcDbCircle
 10
653.44431725307
 20
149.7853331147219
 30
0.0
 40
42.275
100
AcDbArc
 50
170.0625000000011
 51
267.9531249999997
  0
LINE
  5
1A89
330
18
100
AcDbEntity
  8
0
100
AcDbLine
 10
947.2193172530699
 20
110.4353331147219
 30
0.0
 11
945.9193172530699
 21
75.63533311472196
 31
0.0
  0
LINE
  5
1A8A
330
18
100
AcDbEntity
  8
隠れ線2
100
AcDbLine
 10
1025.69431725307
 20
105.3853331147219
 30
0.0
 11
1024.24431725307
 21
67.13533311472196
 31
0.0
  0
LINE
  5
1A8B
330
18
100
AcDbEntity
  8
中心線
 48
0.25
100
AcDbLine
 10
1016.426617732017
 20
102.2496892874235
 30
0.0
 11
1016.01931725307
 21
91.68533311472197
 31
0.0
  0
LINE
  5
1A8C
330
18
100
AcDbEntity
  8
中心線
 48
0.25
100
AcDbLine
 10
1010.96456076349
 20
97.31859034587701
 30
0.0
 11
1021.482639801825
 21
96.64925804343745
 31
0.0
  0
LINE
  5
1A8D
330
18
100
AcDbEntity
  8
0
100
AcDbLine
 10
1072.49431725307
 20
97.56033311472197
 30
0.0
 11
1204.04431725307
 21
89.08533311472195
 31
0.0
  0
LINE
  5
1A8E
330
18
100
AcDbEntity
  8
0
100
AcDbLine
 10
1068.96931725307
 20
67.11033311472192
 30
0.0
 11
1222.41931725307
 21
50.43533311472197
 31
0.0
  0
ARC
  5
1A8F
330
18
100
AcDbEntity
  8
0
100
AcDbCircle
 10
1073.84431725307
 20
81.96033311472195
 30
0.0
 40
15.65
100
AcDbArc
 50
94.76562500000213
 51
252.1406249999972
  0
ARC
  5
1A90
330
18
100
AcDbEntity
  8
0
100
AcDbCircle
 10
1073.49431725307
 20
81.93533311472197
 30
0.0
 40
11.175
100
AcDbArc
 50
80.09374999999774
 51
271.9374999999975
  0
ARC
  5
1A91
330
18
100
AcDbEntity
  8
0
100
AcDbCircle
 10
1129.59431725307
 20
77.53533311472193
 30
0.0
 40
12.775
100
AcDbArc
 50
256.2812500000031
 51
93.70312500000155
  0
LINE
  5
1A92
330
18
100
AcDbEntity
  8
0
100
AcDbLine
 10
1075.41931725307
 20
92.96033311472195
 30
0.0
 11
1128.785707697593
 21
90.28471645615423
 31
0.0
  0
LINE
  5
1A93
330
18
100
AcDbEntity
  8
0
100
AcDbLine
 10
1073.86931725307
 20
70.78533311472194
 30
0.0
 11
1128.31931725307
 21
64.93533311472197
 31
0.0
  0
ARC
  5
1A94
330
18
100
AcDbEntity
  8
隠れ線2
100
AcDbCircle
 10
1163.59431725307
 20
65.86033311472192
 30
0.0
 40
10.375
100
AcDbArc
 50
293.7812500000019
 51
86.54203045388875
  0
ARC
  5
1A95
330
18
100
AcDbEntity
  8
隠れ線2
100
AcDbCircle
 10
1158.56931725307
 20
88.73533311472192
 30
0.0
 40
12.05
100
AcDbArc
 50
214.9227065510998
 51
266.6131712310124
  0
ARC
  5
1A96
330
18
100
AcDbEntity
  8
隠れ線2
100
AcDbCircle
 10
1156.888470864221
 20
87.56176785573856
 30
0.0
 40
10.0
100
AcDbArc
 50
191.4369737681978
 51
214.9227065510998
  0
ARC
  5
1A97
330
18
100
AcDbEntity
  8
隠れ線2
100
AcDbCircle
 10
1131.91931725307
 20
82.51033311472196
 30
0.0
 40
15.475
100
AcDbArc
 50
11.43697376819782
 51
42.70312500000178
  0
ARC
  5
1A98
330
18
100
AcDbEntity
  8
0
100
AcDbCircle
 10
1202.06931725307
 20
181.3603331147219
 30
0.0
 40
87.45
100
AcDbArc
 50
270.3906249999997
 51
0.0781249999999423
  0
ARC
  5
1A99
330
18
100
AcDbEntity
  8
0
100
AcDbCircle
 10
1202.06931725307
 20
181.3603331147219
 30
0.0
 40
92.3
100
AcDbArc
 50
271.2187499999971
 51
320.0937499999987
  0
ARC
  5
1A9A
330
18
100
AcDbEntity
  8
0
100
AcDbCircle
 10
1325.21931725307
 20
180.1603331147219
 30
0.0
 40
35.725
100
AcDbArc
 50
331.6874999999985
 51
180.9999999999999
  0
LINE
  5
1A9B
330
18
100
AcDbEntity
  8
0
100
AcDbLine
 10
1356.66931725307
 20
163.2103331147219
 30
0.0
 11
1344.073398016141
 21
126.4604414084764
 31
0.0
  0
ARC
  5
1A9C
330
18
100
AcDbEntity
  8
0
100
AcDbCircle
 10
1230.390456200589
 20
165.6565335849629
 30
0.0
 40
120.2503426263137
100
AcDbArc
 50
261.6860215060396
 51
340.9766111504202
  0
CIRCLE
  5
1A9D
330
18
100
AcDbEntity
  8
0
100
AcDbCircle
 10
1325.21931725307
 20
180.1603331147219
 30
0.0
 40
17.5
  0
CIRCLE
  5
1A9E
330
18
100
AcDbEntity
  8
0
100
AcDbCircle
 10
1325.21931725307
 20
180.1603331147219
 30
0.0
 40
16.5
  0
CIRCLE
  5
1A9F
330
18
100
AcDbEntity
  8
0
100
AcDbCircle
 10
1325.21931725307
 20
180.1603331147219
 30
0.0
 40
31.5
  0
ARC
  5
1AA0
330
18
100
AcDbEntity
  8
0
100
AcDbCircle
 10
1230.36931725307
 20
165.7603331147219
 30
0.0
 40
115.6
100
AcDbArc
 50
261.5156249999968
 51
317.1249999999989
  0
ARC
  5
1AA1
330
18
100
AcDbEntity
  8
0
100
AcDbCircle
 10
1291.74431725307
 20
101.935333114722
 30
0.0
 40
27.65
100
AcDbArc
 50
327.5312500000026
 51
133.0625000000019
  0
ARC
  5
1AA2
330
18
100
AcDbEntity
  8
0
100
AcDbCircle
 10
1314.84431725307
 20
16.73533311472192
 30
0.0
 40
16.5
100
AcDbArc
 50
259.3437500000019
 51
309.0468750000037
  0
ARC
  5
1AA3
330
18
100
AcDbEntity
  8
隠れ線2
100
AcDbCircle
 10
1314.84431725307
 20
16.73533311472192
 30
0.0
 40
12.5
100
AcDbArc
 50
258.6875000000004
 51
311.2812500000018
  0
LINE
  5
1AA4
330
18
100
AcDbEntity
  8
0
100
AcDbLine
 10
1360.71931725307
 20
184.1603331147219
 30
0.0
 11
1366.89431725307
 21
168.3103331147219
 31
0.0
  0
ARC
  5
1AA5
330
18
100
AcDbEntity
  8
0
100
AcDbCircle
 10
1249.34431725307
 20
110.6353331147219
 30
0.0
 40
130.95
100
AcDbArc
 50
304.3750000000011
 51
26.18750000000161
  0
ARC
  5
1AA6
330
18
100
AcDbEntity
  8
隠れ線2
100
AcDbCircle
 10
1249.34431725307
 20
110.6353331147219
 30
0.0
 40
127.0
100
AcDbArc
 50
304.250000000001
 51
12.3750000000009
  0
ARC
  5
1AA7
330
18
100
AcDbEntity
  8
0
100
AcDbCircle
 10
1333.86931725307
 20
193.3603331147219
 30
0.0
 40
194.1
100
AcDbArc
 50
228.7438717037231
 51
264.2187499999984
  0
ARC
  5
1AA8
330
18
100
AcDbEntity
  8
隠れ線2
100
AcDbCircle
 10
1333.86931725307
 20
193.3603331147219
 30
0.0
 40
190.1
100
AcDbArc
 50
230.5001460455113
 51
264.1874999999973
  0
ARC
  5
1AA9
330
18
100
AcDbEntity
  8
隠れ線2
100
AcDbCircle
 10
1206.86931725307
 20
64.41033311472193
 30
0.0
 40
13.15
100
AcDbArc
 50
84.20312499999976
 51
229.9999999999963
  0
ARC
  5
1AAA
330
18
100
AcDbEntity
  8
隠れ線2
100
AcDbCircle
 10
1206.86931725307
 20
64.41033311472193
 30
0.0
 40
9.199999999999999
100
AcDbArc
 50
101.1406249999976
 51
233.6250000000001
  0
ARC
  5
1AAB
330
18
100
AcDbEntity
  8
隠れ線2
100
AcDbCircle
 10
1205.04431725307
 20
163.5353331147219
 30
0.0
 40
86.09999999999999
100
AcDbArc
 50
270.031249999998
 51
308.9881189406017
  0
ARC
  5
1AAC
330
18
100
AcDbEntity
  8
0
100
AcDbCircle
 10
1205.04431725307
 20
163.5353331147219
 30
0.0
 40
86.09999999999999
100
AcDbArc
 50
308.9881189406017
 51
331.7786015295546
  0
ARC
  5
1AAD
330
18
100
AcDbEntity
  8
隠れ線2
100
AcDbCircle
 10
1205.04431725307
 20
163.5353331147219
 30
0.0
 40
86.09999999999999
100
AcDbArc
 50
331.7786015295546
 51
11.23437500000054
  0
ARC
  5
1AAE
330
18
100
AcDbEntity
  8
隠れ線2
100
AcDbCircle
 10
1205.04431725307
 20
163.5353331147219
 30
0.0
 40
90.09999999999999
100
AcDbArc
 50
270.0468750000002
 51
306.5744594573703
  0
ARC
  5
1AAF
330
18
100
AcDbEntity
  8
隠れ線2
100
AcDbCircle
 10
1205.04431725307
 20
163.5353331147219
 30
0.0
 40
90.09999999999999
100
AcDbArc
 50
306.5744594573703
 51
334.5658927946677
  0
ARC
  5
1AB0
330
18
100
AcDbEntity
  8
隠れ線2
100
AcDbCircle
 10
1205.04431725307
 20
163.5353331147219
 30
0.0
 40
90.09999999999999
100
AcDbArc
 50
334.5658927946677
 51
339.4843750000019
  0
ARC
  5
1AB1
330
18
100
AcDbEntity
  8
隠れ線2
100
AcDbCircle
 10
1297.94431725307
 20
126.3853331147219
 30
0.0
 40
10.175
100
AcDbArc
 50
61.2187499999997
 51
146.8281249999983
  0
ARC
  5
1AB2
330
18
100
AcDbEntity
  8
隠れ線2
100
AcDbCircle
 10
1363.66931725307
 20
134.4103331147219
 30
0.0
 40
10.225
100
AcDbArc
 50
19.84375000000137
 51
58.75780940075841
  0
ARC
  5
1AB3
330
18
100
AcDbEntity
  8
隠れ線2
100
AcDbCircle
 10
1325.74431725307
 20
172.6103331147219
 30
0.0
 40
43.775
100
AcDbArc
 50
238.4374999999993
 51
298.6349291296065
  0
ARC
  5
1AB4
330
18
100
AcDbEntity
  8
隠れ線2
100
AcDbCircle
 10
1325.74431725307
 20
172.6103331147219
 30
0.0
 40
43.775
100
AcDbArc
 50
298.6349291296065
 51
315.0256675614173
  0
ARC
  5
1AB5
330
18
100
AcDbEntity
  8
隠れ線2
100
AcDbCircle
 10
1363.786015017109
 20
134.6027041932869
 30
0.0
 40
10.0
100
AcDbArc
 50
58.75780940075841
 51
135.0256675614172
  0
ARC
  5
1AB6
330
18
100
AcDbEntity
  8
隠れ線2
100
AcDbCircle
 10
1325.74431725307
 20
172.6103331147219
 30
0.0
 40
47.8
100
AcDbArc
 50
246.5312499999982
 51
293.5955120260288
  0
ARC
  5
1AB7
330
18
100
AcDbEntity
  8
0
100
AcDbCircle
 10
1325.74431725307
 20
172.6103331147219
 30
0.0
 40
47.8
100
AcDbArc
 50
293.5955120260288
 51
301.4687499999971
  0
ARC
  5
1AB8
330
18
100
AcDbEntity
  8
0
100
AcDbCircle
 10
1355.24431725307
 20
121.9603331147219
 30
0.0
 40
10.875
100
AcDbArc
 50
16.84374999999856
 51
114.7499999999971
  0
ARC
  5
1AB9
330
18
100
AcDbEntity
  8
隠れ線2
100
AcDbCircle
 10
1304.44431725307
 20
121.0103331147219
 30
0.0
 40
8.074999999999999
100
AcDbArc
 50
73.62499999999764
 51
145.9687499999973
  0
ARC
  5
1ABA
330
18
100
AcDbEntity
  8
隠れ線2
100
AcDbCircle
 10
1203.06931725307
 20
162.5853331147219
 30
0.0
 40
101.675
100
AcDbArc
 50
296.1354655929893
 51
305.5907629816884
  0
ARC
  5
1ABB
330
18
100
AcDbEntity
  8
0
100
AcDbCircle
 10
1203.06931725307
 20
162.5853331147219
 30
0.0
 40
101.675
100
AcDbArc
 50
305.5907629816884
 51
338.0851410492104
  0
ARC
  5
1ABC
330
18
100
AcDbEntity
  8
隠れ線2
100
AcDbCircle
 10
1203.06931725307
 20
162.5853331147219
 30
0.0
 40
101.675
100
AcDbArc
 50
338.0851410492104
 51
338.6406249999986
  0
ARC
  5
1ABD
330
18
100
AcDbEntity
  8
0
100
AcDbCircle
 10
1331.79431725307
 20
37.86033311472193
 30
0.0
 40
8.474999999999999
100
AcDbArc
 50
264.2343750000029
 51
264.3027623870496
  0
ARC
  5
1ABE
330
18
100
AcDbEntity
  8
0
100
AcDbCircle
 10
1331.79431725307
 20
37.86033311472193
 30
0.0
 40
8.474999999999999
100
AcDbArc
 50
282.5053216873952
 51
335.4062499999992
  0
ARC
  5
1ABF
330
18
100
AcDbEntity
  8
隠れ線2
100
AcDbCircle
 10
1324.21931725307
 20
165.2103331147219
 30
0.0
 40
135.95
100
AcDbArc
 50
235.4999999999971
 51
239.541575327679
  0
ARC
  5
1AC0
330
18
100
AcDbEntity
  8
0
100
AcDbCircle
 10
1324.21931725307
 20
165.2103331147219
 30
0.0
 40
135.95
100
AcDbArc
 50
239.541575327679
 51
273.9690337361334
  0
ARC
  5
1AC1
330
18
100
AcDbEntity
  8
0
100
AcDbCircle
 10
1248.11931725307
 20
109.8103331147219
 30
0.0
 40
118.525
100
AcDbArc
 50
320.4374999999984
 51
7.421875000000724
  0
ARC
  5
1AC2
330
18
100
AcDbEntity
  8
0
100
AcDbCircle
 10
1281.018439565681
 20
91.93533455100208
 30
0.0
 40
22.2993901429528
100
AcDbArc
 50
133.9202532283907
 51
317.8606878052367
  0
ARC
  5
1AC3
330
18
100
AcDbEntity
  8
0
100
AcDbCircle
 10
1291.49431725307
 20
102.4853331147219
 30
0.0
 40
22.925
100
AcDbArc
 50
307.0292832203985
 51
141.2968750000004
  0
LINE
  5
1AC4
330
18
100
AcDbEntity
  8
0
100
AcDbLine
 10
1274.64431725307
 20
117.9603331147219
 30
0.0
 11
1264.19431725307
 21
106.5103331147219
 31
0.0
  0
LINE
  5
1AC5
330
18
100
AcDbEntity
  8
0
100
AcDbLine
 10
1297.55378675243
 20
76.97388093976188
 30
0.0
 11
1305.300282234315
 21
84.18366772775129
 31
0.0
  0
LINE
  5
1AC6
330
18
100
AcDbEntity
  8
中心線
100
AcDbLine
 10
1268.69431725307
 20
228.8853331147219
 30
0.0
 11
1325.21931725307
 21
180.1603331147219
 31
0.0
  0
LINE
  5
1AC7
330
18
100
AcDbEntity
  8
中心線
100
AcDbLine
 10
1285.39431725307
 20
251.2853331147219
 30
0.0
 11
1325.21931725307
 21
180.1603331147219
 31
0.0
  0
LINE
  5
1AC8
330
18
100
AcDbEntity
  8
0
100
AcDbLine
 10
1300.111855080515
 20
244.2768705154663
 30
0.0
 11
1346.91931725307
 21
208.560333114722
 31
0.0
  0
ARC
  5
1AC9
330
18
100
AcDbEntity
  8
0
100
AcDbCircle
 10
1300.71847530265
 20
245.0718622802644
 30
0.0
 40
1.0
100
AcDbArc
 50
139.9882954717565
 51
232.6544778174627
  0
LINE
  5
1ACA
330
18
100
AcDbEntity
  8
0
100
AcDbLine
 10
1289.49431725307
 20
180.3103331147219
 30
0.0
 11
1282.315667289833
 21
243.3688338709282
 31
0.0
  0
LINE
  5
1ACB
330
18
100
AcDbEntity
  8
中心線
 48
0.3
100
AcDbLine
 10
1152.864771845654
 20
86.71033311472195
 30
0.0
 11
1164.373862660485
 21
86.71033311472195
 31
0.0
  0
LINE
  5
1ACC
330
18
100
AcDbEntity
  8
中心線
 48
0.3
100
AcDbLine
 10
1158.61931725307
 20
80.95578770730629
 30
0.0
 11
1158.61931725307
 21
92.46487852213761
 31
0.0
  0
LINE
  5
1ACD
330
18
100
AcDbEntity
  8
0
100
AcDbLine
 10
1290.206344506703
 20
252.7686764306965
 30
0.0
 11
1291.81931725307
 21
416.9103331147219
 31
0.0
  0
LINE
  5
1ACE
330
18
100
AcDbEntity
  8
隠れ線2
100
AcDbLine
 10
1294.999599632511
 20
253.727238716595
 30
0.0
 11
1295.124216311841
 21
266.0594347748954
 31
0.0
  0
LINE
  5
1ACF
330
18
100
AcDbEntity
  8
隠れ線2
100
AcDbLine
 10
1295.409239274711
 20
294.2656033083423
 30
0.0
 11
1295.8092763157
 21
333.8536845075025
 31
0.0
  0
LINE
  5
1AD0
330
18
100
AcDbEntity
  8
0
100
AcDbLine
 10
1295.8092763157
 20
333.8536845075025
 30
0.0
 11
1296.76931725307
 21
428.8603331147219
 31
0.0
  0
LINE
  5
1AD1
330
18
100
AcDbEntity
  8
0
100
AcDbLine
 10
1360.61931725307
 20
184.1603331147219
 30
0.0
 11
1340.74431725307
 21
446.260333114722
 31
0.0
  0
LINE
  5
1AD2
330
18
100
AcDbEntity
  8
隠れ線2
100
AcDbLine
 10
1351.84431725307
 20
237.510333114722
 30
0.0
 11
1344.789398779347
 21
330.7231617028445
 31
0.0
  0
LINE
  5
1AD3
330
18
100
AcDbEntity
  8
0
100
AcDbLine
 10
1344.789398779347
 20
330.7231617028443
 30
0.0
 11
1336.19431725307
 21
444.2853331147219
 31
0.0
  0
ARC
  5
1AD4
330
18
100
AcDbEntity
  8
隠れ線2
100
AcDbCircle
 10
1325.427829226123
 20
201.3762854967202
 30
0.0
 40
28.82982443680266
100
AcDbArc
 50
66.43300993033038
 51
102.0892197779831
  0
ARC
  5
1AD5
330
18
100
AcDbEntity
  8
隠れ線2
100
AcDbCircle
 10
1307.99431725307
 20
239.560333114722
 30
0.0
 40
13.2
100
AcDbArc
 50
173.4843750000004
 51
297.3906249999968
  0
ARC
  5
1AD6
330
18
100
AcDbEntity
  8
隠れ線2
100
AcDbCircle
 10
1341.21931725307
 20
237.560333114722
 30
0.0
 40
10.65
100
AcDbArc
 50
246.3941230293412
 51
10.26562499999999
  0
ARC
  5
1AD7
330
18
100
AcDbEntity
  8
0
100
AcDbCircle
 10
1320.34431725307
 20
332.9853331147219
 30
0.0
 40
24.55
100
AcDbArc
 50
177.9687500000001
 51
354.6874999999999
  0
ARC
  5
1AD8
330
18
100
AcDbEntity
  8
0
100
AcDbCircle
 10
1320.344795293467
 20
332.9858484908572
 30
0.0
 40
20.52547804686765
100
AcDbArc
 50
180.0014386450513
 51
8.655262673558411
  0
LINE
  5
1AD9
330
18
100
AcDbEntity
  8
0
100
AcDbLine
 10
1299.79431725307
 20
332.9853331147219
 30
0.0
 11
1300.39431725307
 21
393.510333114722
 31
0.0
  0
LINE
  5
1ADA
330
18
100
AcDbEntity
  8
0
100
AcDbLine
 10
1340.636522874112
 20
336.0747060216198
 30
0.0
 11
1336.442828167719
 21
391.7284845352356
 31
0.0
  0
ARC
  5
1ADB
330
18
100
AcDbEntity
  8
0
100
AcDbCircle
 10
1318.39431725307
 20
391.9603331147219
 30
0.0
 40
18.05
100
AcDbArc
 50
359.2640271245713
 51
183.7968750000002
  0
ARC
  5
1ADC
330
18
100
AcDbEntity
  8
0
100
AcDbCircle
 10
1227.34431725307
 20
423.9353331147219
 30
0.0
 40
110.75
100
AcDbArc
 50
10.15624999999952
 51
92.32812500000019
  0
ARC
  5
1ADD
330
18
100
AcDbEntity
  8
0
100
AcDbCircle
 10
1222.89431725307
 20
423.1853331147219
 30
0.0
 40
69.22499999999999
100
AcDbArc
 50
354.8125000000005
 51
90.0
  0
ARC
  5
1ADE
330
18
100
AcDbEntity
  8
0
100
AcDbCircle
 10
1222.89431725307
 20
423.1853331147219
 30
0.0
 40
74.0
100
AcDbArc
 50
3.453124999999868
 51
89.70312500000281
  0
ARC
  5
1ADF
330
18
100
AcDbEntity
  8
0
100
AcDbCircle
 10
1227.34431725307
 20
423.9353331147219
 30
0.0
 40
115.6
100
AcDbArc
 50
10.70312499999989
 51
92.56249999999921
  0
LINE
  5
1AE0
330
18
100
AcDbEntity
  8
中心線
100
AcDbLine
 10
1272.91931725307
 20
463.2103331147219
 30
0.0
 11
1364.425459317871
 21
543.119958005843
 31
0.0
  0
LINE
  5
1AE1
330
18
100
AcDbEntity
  8
外形線
100
AcDbLine
 10
1328.707851457185
 20
507.9459304806201
 30
0.0
 11
1358.83672645315
 21
534.2565916558457
 31
0.0
  0
LINE
  5
1AE2
330
18
100
AcDbEntity
  8
外形線
100
AcDbLine
 10
1324.761252280902
 20
512.4652617300149
 30
0.0
 11
1354.890127276866
 21
538.7759229052404
 31
0.0
  0
ARC
  5
1AE3
330
18
100
AcDbEntity
  8
外形線
100
AcDbCircle
 10
1324.103485751521
 20
513.2184836049141
 30
0.0
 40
1.0
100
AcDbArc
 50
221.1297572561775
 51
311.129757256174
  0
LINE
  5
1AE4
330
18
100
AcDbEntity
  8
外形線
100
AcDbLine
 10
1330.299329663253
 20
500.0423112388038
 30
0.0
 11
1331.805773413051
 21
501.357844297565
 31
0.0
  0
ARC
  5
1AE5
330
18
100
AcDbEntity
  8
外形線
100
AcDbCircle
 10
1329.641563133873
 20
500.7955331137028
 30
0.0
 40
1.0
100
AcDbArc
 50
221.1297572561726
 51
311.129757256174
  0
LINE
  5
1AE6
330
18
100
AcDbEntity
  8
外形線
100
AcDbLine
 10
1364.947535908613
 20
530.2995715903133
 30
0.0
 11
1366.453979658411
 21
531.6151046490745
 31
0.0
  0
ARC
  5
1AE7
330
18
100
AcDbEntity
  8
外形線
100
AcDbCircle
 10
1364.289769379232
 20
531.0527934652125
 30
0.0
 40
1.0
100
AcDbArc
 50
221.1297572561728
 51
311.1297572561741
  0
LINE
  5
1AE8
330
18
100
AcDbEntity
  8
外形線
100
AcDbLine
 10
1317.143999075641
 20
515.1067487367862
 30
0.0
 11
1318.650442825439
 21
516.4222817955474
 31
0.0
  0
ARC
  5
1AE9
330
18
100
AcDbEntity
  8
外形線
100
AcDbCircle
 10
1317.801765605021
 20
514.3535268618871
 30
0.0
 40
1.0
100
AcDbArc
 50
131.1297572561739
 51
221.1297572561725
  0
LINE
  5
1AEA
330
18
100
AcDbEntity
  8
外形線
100
AcDbLine
 10
1351.792205321
 20
545.3640090882957
 30
0.0
 11
1353.298649070798
 21
546.6795421470567
 31
0.0
  0
ARC
  5
1AEB
330
18
100
AcDbEntity
  8
外形線
100
AcDbCircle
 10
1352.449971850381
 20
544.6107872133965
 30
0.0
 40
1.0
100
AcDbArc
 50
131.1297572561739
 51
221.1297572561726
  0
LINE
  5
1AEC
330
18
100
AcDbEntity
  8
中心線
100
AcDbLine
 10
1304.188221331856
 20
287.3004352990589
 30
0.0
 11
1152.951175996636
 21
78.89978428206848
 31
0.0
  0
LINE
  5
1AED
330
18
100
AcDbEntity
  8
隠れ線2
100
AcDbLine
 10
1300.825287741757
 20
274.5791013666482
 30
0.0
 11
1290.277846906688
 21
260.0450066829053
 31
0.0
  0
LINE
  5
1AEE
330
18
100
AcDbEntity
  8
0
100
AcDbLine
 10
1290.277846906688
 20
260.0450066829053
 30
0.0
 11
1171.23733066538
 21
96.01032174774715
 31
0.0
  0
LINE
  5
1AEF
330
18
100
AcDbEntity
  8
隠れ線2
100
AcDbLine
 10
1171.23733066538
 20
96.01032174774715
 30
0.0
 11
1165.800737047736
 21
88.51883944114204
 31
0.0
  0
LINE
  5
1AF0
330
18
100
AcDbEntity
  8
隠れ線2
100
AcDbLine
 10
1293.136559154273
 20
280.1588372661333
 30
0.0
 11
1290.438971829479
 21
276.4416332344346
 31
0.0
  0
LINE
  5
1AF1
330
18
100
AcDbEntity
  8
0
100
AcDbLine
 10
1290.438971829479
 20
276.4416332344346
 30
0.0
 11
1160.023660333656
 21
96.73278109393491
 31
0.0
  0
LINE
  5
1AF2
330
18
100
AcDbEntity
  8
隠れ線2
100
AcDbLine
 10
1160.023660333656
 20
96.73278109393493
 30
0.0
 11
1158.112008460251
 21
94.09857534062712
 31
0.0
  0
LINE
  5
1AF3
330
18
100
AcDbEntity
  8
中心線
100
AcDbLine
 10
1300.728411570165
 20
275.8076801978909
 30
0.0
 11
1163.500587632676
 21
86.7113659791841
 31
0.0
  0
LINE
  5
1AF4
330
18
100
AcDbEntity
  8
中心線
100
AcDbLine
 10
1294.334626744783
 20
280.4476711037785
 30
0.0
 11
1157.106802807294
 21
91.35135688507169
 31
0.0
  0
LINE
  5
1AF5
330
18
100
AcDbEntity
  8
0
100
AcDbLine
 10
628.99431725307
 20
177.1603331147219
 30
0.0
 11
615.1443172530699
 21
178.0603331147219
 31
0.0
  0
LINE
  5
1AF7
330
18
100
AcDbEntity
  8
隠れ線2
100
AcDbLine
 10
1157.857440664776
 20
76.70637922325491
 30
0.0
 11
1164.220099089916
 21
76.21644348940765
 31
0.0
  0
LINE
  5
1AFB
330
18
100
AcDbEntity
  8
0
100
AcDbLine
 10
774.36931725307
 20
541.9677632641922
 30
0.0
 11
774.36931725307
 21
538.0462222111856
 31
0.0
  0
ARC
  5
1AFC
330
18
100
AcDbEntity
  8
外形線
100
AcDbCircle
 10
860.4786655549366
 20
535.6223128621982
 30
0.0
 40
8.886551880900267
100
AcDbArc
 50
271.4657263569186
 51
92.65225838288309
  0
ARC
  5
1AFD
330
18
100
AcDbEntity
  8
外形線
100
AcDbCircle
 10
900.4887095504443
 20
533.4488147137061
 30
0.0
 40
9.493362103578856
100
AcDbArc
 50
87.30505526009208
 51
266.9010315817983
  0
ARC
  5
1AFE
330
18
100
AcDbEntity
  8
外形線
100
AcDbCircle
 10
967.9021593316267
 20
529.7840510789412
 30
0.0
 40
10.57905959029731
100
AcDbArc
 50
266.4297319375837
 51
85.56900653991686
  0
ARC
  5
1AFF
330
18
100
AcDbEntity
  8
外形線
100
AcDbCircle
 10
1011.411239691138
 20
527.4119848048938
 30
0.0
 40
11.27450201484161
100
AcDbArc
 50
88.53845070069212
 51
266.8252310172574
  0
ARC
  5
1B00
330
18
100
AcDbEntity
  8
外形線
100
AcDbCircle
 10
1075.450472541073
 20
523.9253540091543
 30
0.0
 40
12.30419801436384
100
AcDbArc
 50
264.5012298553384
 51
86.97895393302708
  0
ARC
  5
1B01
330
18
100
AcDbEntity
  8
外形線
100
AcDbCircle
 10
1121.807323980621
 20
521.401181892785
 30
0.0
 40
13.04847535861234
100
AcDbArc
 50
87.51997515839155
 51
267.5799152193509
  0
ARC
  5
1B02
330
18
100
AcDbEntity
  8
外形線
100
AcDbCircle
 10
1200.759792883209
 20
517.1077266024565
 30
0.0
 40
14.31497680910482
100
AcDbArc
 50
266.4287670567518
 51
86.68534733189408
  0
CIRCLE
  5
1B03
330
18
100
AcDbEntity
  8
外形線
100
AcDbCircle
 10
656.06931725307
 20
422.7353331147218
 30
0.0
 40
2.0
  0
CIRCLE
  5
1B04
330
18
100
AcDbEntity
  8
外形線
100
AcDbCircle
 10
659.24431725307
 20
402.4353331147219
 30
0.0
 40
2.0
  0
CIRCLE
  5
1B05
330
18
100
AcDbEntity
  8
外形線
100
AcDbCircle
 10
649.31931725307
 20
403.2103331147219
 30
0.0
 40
2.0
  0
CIRCLE
  5
1B06
330
18
100
AcDbEntity
  8
外形線
100
AcDbCircle
 10
956.3719566778331
 20
100.8548379668206
 30
0.0
 40
2.0
  0
CIRCLE
  5
1B07
330
18
100
AcDbEntity
  8
外形線
100
AcDbCircle
 10
955.7078262956313
 20
83.56097466687002
 30
0.0
 40
2.0
  0
CIRCLE
  5
1B08
330
18
100
AcDbEntity
  8
外形線
100
AcDbCircle
 10
985.5835199079162
 20
80.32521968362436
 30
0.0
 40
2.0
  0
CIRCLE
  5
1B09
330
18
100
AcDbEntity
  8
外形線
100
AcDbCircle
 10
986.2912071149619
 20
98.91548691414229
 30
0.0
 40
2.0
  0
CIRCLE
  5
1B0A
330
18
100
AcDbEntity
  8
外形線
100
AcDbCircle
 10
1016.223600282658
 20
96.98392419465724
 30
0.0
 40
2.0
  0
CIRCLE
  5
1B0B
330
18
100
AcDbEntity
  8
外形線
100
AcDbCircle
 10
1015.511138259668
 20
77.08018101252768
 30
0.0
 40
2.0
  0
LINE
  5
1B0C
330
18
100
AcDbEntity
  8
中心線
 48
0.25
100
AcDbLine
 10
1015.714155709027
 20
82.34594610529399
 30
0.0
 11
1015.30685523008
 21
71.78158993259242
 31
0.0
  0
LINE
  5
1B0D
330
18
100
AcDbEntity
  8
中心線
 48
0.25
100
AcDbLine
 10
1010.2520987405
 20
77.41484716374746
 30
0.0
 11
1020.770177778836
 21
76.74551486130791
 31
0.0
  0
LINE
  5
1B0E
330
18
100
AcDbEntity
  8
中心線
 48
0.25
100
AcDbLine
 10
985.7865373572758
 20
85.59098477639066
 30
0.0
 11
985.3792368783283
 21
75.02662860368909
 31
0.0
  0
LINE
  5
1B0F
330
18
100
AcDbEntity
  8
中心線
 48
0.25
100
AcDbLine
 10
980.3244803887485
 20
80.65988583484413
 30
0.0
 11
990.8425594270839
 21
79.99055353240457
 31
0.0
  0
LINE
  5
1B10
330
18
100
AcDbEntity
  8
中心線
 48
0.25
100
AcDbLine
 10
986.4942245643216
 20
104.1812520069086
 30
0.0
 11
986.0869240853743
 21
93.61689583420703
 31
0.0
  0
LINE
  5
1B11
330
18
100
AcDbEntity
  8
中心線
 48
0.25
100
AcDbLine
 10
981.0321675957942
 20
99.25015306536208
 30
0.0
 11
991.5502466341298
 21
98.58082076292252
 31
0.0
  0
LINE
  5
1B12
330
18
100
AcDbEntity
  8
中心線
 48
0.25
100
AcDbLine
 10
955.9108437449909
 20
88.82673975963632
 30
0.0
 11
955.5035432660435
 21
78.26238358693476
 31
0.0
  0
LINE
  5
1B13
330
18
100
AcDbEntity
  8
中心線
 48
0.25
100
AcDbLine
 10
950.4487867764636
 20
83.8956408180898
 30
0.0
 11
960.9668658147992
 21
83.22630851565024
 31
0.0
  0
LINE
  5
1B14
330
18
100
AcDbEntity
  8
中心線
 48
0.25
100
AcDbLine
 10
956.5749741271927
 20
106.1206030595869
 30
0.0
 11
956.1676736482453
 21
95.55624688688537
 31
0.0
  0
LINE
  5
1B15
330
18
100
AcDbEntity
  8
中心線
 48
0.25
100
AcDbLine
 10
951.1129171586654
 20
101.1895041180404
 30
0.0
 11
961.630996197001
 21
100.5201718156008
 31
0.0
  0
LINE
  5
1B16
330
18
100
AcDbEntity
  8
中心線
100
AcDbLine
 10
1260.959147588577
 20
212.4839731059826
 30
0.0
 11
1347.026316639878
 21
315.0122880290011
 31
0.0
  0
LINE
  5
1B17
330
18
100
AcDbEntity
  8
0
100
AcDbLine
 10
1283.520471806977
 20
243.2487232442082
 30
0.0
 11
1293.16463309382
 21
254.7374199968154
 31
0.0
  0
LINE
  5
1B18
330
18
100
AcDbEntity
  8
中心線
 48
0.2
100
AcDbLine
 10
1287.097782180842
 20
239.7335014518302
 30
0.0
 11
1295.317621630992
 21
249.5254615807769
 31
0.0
  0
LINE
  5
1B19
330
18
100
AcDbEntity
  8
0
100
AcDbLine
 10
1282.315667289833
 20
243.3688338709282
 30
0.0
 11
1292.65980014737
 21
255.691378261705
 31
0.0
  0
LINE
  5
1B1A
330
18
100
AcDbEntity
  8
0
100
AcDbLine
 10
1299.95256218581
 20
245.7148063660539
 30
0.0
 11
1301.850757549456
 21
247.9760492322311
 31
0.0
  0
LINE
  5
1B1B
330
18
100
AcDbEntity
  8
0
100
AcDbLine
 10
1291.179602975382
 20
236.8192823863132
 30
0.0
 11
1300.823764262225
 21
248.3079791389203
 31
0.0
  0
LINE
  5
1B1C
330
18
100
AcDbEntity
  8
0
100
AcDbLine
 10
1300.823764262225
 20
248.3079791389203
 30
0.0
 11
1293.16463309382
 21
254.7374199968154
 31
0.0
  0
LINE
  5
1B1D
330
18
100
AcDbEntity
  8
中心線
100
AcDbLine
 10
1341.818641546171
 20
259.5920085054265
 30
0.0
 11
1292.808404662627
 21
300.7335443462078
 31
0.0
  0
LINE
  5
1B1E
330
18
100
AcDbEntity
  8
0
100
AcDbLine
 10
1291.179602975382
 20
236.8192823863131
 30
0.0
 11
1283.520471806977
 21
243.2487232442081
 31
0.0
  0
LINE
  5
1B1F
330
18
100
AcDbEntity
  8
中心線
 48
0.2
100
AcDbLine
 10
1291.8771103625
 20
240.1506546980755
 30
0.0
 11
1286.680628934596
 21
244.5128296334887
 31
0.0
  0
LINE
  5
1B20
330
18
100
AcDbEntity
  8
中心線
 48
0.2
100
AcDbLine
 10
1295.734774877237
 20
244.7461333991184
 30
0.0
 11
1290.538293449334
 21
249.1083083345317
 31
0.0
  0
LINE
  5
1B21
330
18
100
AcDbEntity
  8
外形線
100
AcDbLine
 10
1301.850757549456
 20
247.9760492322311
 30
0.0
 11
1295.782703246808
 21
253.0698641054258
 31
0.0
  0
LINE
  5
1B22
330
18
100
AcDbEntity
  8
外形線
100
AcDbLine
 10
1294.909218733011
 20
253.8031087644172
 30
0.0
 11
1292.65980014737
 21
255.691378261705
 31
0.0
  0
CIRCLE
  5
1B23
330
18
100
AcDbEntity
  8
外形線
100
AcDbCircle
 10
1289.278869648548
 20
242.3317421657821
 30
0.0
 40
1.75
  0
LINE
  5
1B24
330
18
100
AcDbEntity
  8
外形線
100
AcDbLine
 10
1287.973677661036
 20
242.3317421657821
 30
0.0
 11
1290.58406163606
 21
242.3317421657821
 31
0.0
  0
LINE
  5
1B25
330
18
100
AcDbEntity
  8
外形線
100
AcDbLine
 10
1289.278869648548
 20
241.0265501782699
 30
0.0
 11
1289.278869648548
 21
243.6369341532943
 31
0.0
  0
CIRCLE
  5
1B26
330
18
100
AcDbEntity
  8
外形線
100
AcDbCircle
 10
1293.136534163285
 20
246.927220866825
 30
0.0
 40
1.75
  0
LINE
  5
1B27
330
18
100
AcDbEntity
  8
外形線
100
AcDbLine
 10
1291.831342175773
 20
246.9272208668249
 30
0.0
 11
1294.441726150798
 21
246.9272208668249
 31
0.0
  0
LINE
  5
1B28
330
18
100
AcDbEntity
  8
外形線
100
AcDbLine
 10
1293.136534163285
 20
245.6220288793127
 30
0.0
 11
1293.136534163285
 21
248.2324128543372
 31
0.0
  0
LINE
  5
1B29
330
18
100
AcDbEntity
  8
隠れ線2
100
AcDbLine
 10
1294.999599632511
 20
253.7272387165949
 30
0.0
 11
1294.879576748133
 21
241.0581920827733
 31
0.0
  0
SPLINE
  5
1B2A
330
18
100
AcDbEntity
  8
隠れ線2
100
AcDbSpline
210
0.0
220
0.0
230
1.0
 70
     8
 71
     3
 72
     9
 73
     5
 74
     3
 42
0.0000000001
 43
0.0000000001
 44
0.0000000001
 40
0.0
 40
0.0
 40
0.0
 40
0.0
 40
2.803128620776123
 40
5.604175876888641
 40
5.604175876888641
 40
5.604175876888641
 40
5.604175876888641
 10
1314.067036787331
 20
227.8401762276234
 30
0.0
 10
1314.930946390413
 20
228.2006765786723
 30
0.0
 10
1316.658124130858
 20
228.9214096039013
 30
0.0
 10
1318.479511392924
 20
229.3516838642797
 30
0.0
 10
1319.389866796609
 20
229.5667410935467
 30
0.0
 11
1314.067036787331
 21
227.8401762276234
 31
0.0
 11
1316.68233547472
 21
228.8490086420292
 31
0.0
 11
1319.389866796609
 21
229.5667410935467
 31
0.0
  0
LINE
  5
1B2B
330
18
100
AcDbEntity
  8
隠れ線2
100
AcDbLine
 10
1290.206344506703
 20
252.7686764306965
 30
0.0
 11
1289.49431725307
 21
180.1603331147219
 31
0.0
  0
LINE
  5
1B2C
330
18
100
AcDbEntity
  8
外形線
 48
0.5
100
AcDbLine
 10
1296.315661632586
 20
259.25941149764
 30
0.0
 11
1300.9119282913
 21
255.4026858395206
 31
0.0
  0
LINE
  5
1B2D
330
18
100
AcDbEntity
  8
外形線
 48
0.5
100
AcDbLine
 10
1296.315559098475
 20
257.3144406562544
 30
0.0
 11
1298.996714649391
 21
255.0646840223515
 31
0.0
  0
LINE
  5
1B2E
330
18
100
AcDbEntity
  8
外形線
 48
0.5
100
AcDbLine
 10
1302.320760344106
 20
255.525942672953
 30
0.0
 11
1303.866529374572
 21
257.3681184683325
 31
0.0
  0
LINE
  5
1B2F
330
18
100
AcDbEntity
  8
外形線
 48
0.5
100
AcDbLine
 10
1296.192404799153
 20
260.6682435504454
 30
0.0
 11
1297.73817382962
 21
262.5104193458248
 31
0.0
  0
LINE
  5
1B30
330
18
100
AcDbEntity
  8
外形線
 48
0.5
100
AcDbLine
 10
1296.192404799153
 20
260.6682435504453
 30
0.0
 11
1302.320760344106
 21
255.525942672953
 31
0.0
  0
LINE
  5
1B31
330
18
100
AcDbEntity
  8
外形線
 48
0.5
100
AcDbLine
 10
1296.192404799153
 20
260.6682435504454
 30
0.0
 11
1296.315661632586
 21
259.25941149764
 31
0.0
  0
LINE
  5
1B32
330
18
100
AcDbEntity
  8
外形線
 48
0.5
100
AcDbLine
 10
1300.9119282913
 20
255.4026858395206
 30
0.0
 11
1302.320760344106
 21
255.525942672953
 31
0.0
  0
LINE
  5
1B33
330
18
100
AcDbEntity
  8
外形線
 48
0.5
100
AcDbLine
 10
1298.312856951729
 20
254.2496941543396
 30
0.0
 11
1299.954468196006
 21
256.2060902523492
 31
0.0
  0
LINE
  5
1B34
330
18
100
AcDbEntity
  8
外形線
 48
0.5
100
AcDbLine
 10
1295.631701400813
 20
256.4994507882428
 30
0.0
 11
1297.273312645089
 21
258.4558468862521
 31
0.0
  0
ARC
  5
1B35
330
18
100
AcDbEntity
  8
外形線
100
AcDbCircle
 10
1295.470659000999
 20
253.5850112326985
 30
0.0
 40
0.6
100
AcDbArc
 50
161.3119739705767
 51
298.688026029358
  0
LINE
  5
1B36
330
18
100
AcDbEntity
  8
外形線
100
AcDbLine
 10
1295.758683106827
 20
253.0586633302026
 30
0.0
 11
1298.312856951729
 21
254.2496941543396
 31
0.0
  0
LINE
  5
1B37
330
18
100
AcDbEntity
  8
外形線
100
AcDbLine
 10
1294.902292644738
 20
253.7772602510854
 30
0.0
 11
1295.631701400813
 21
256.4994507882429
 31
0.0
  0
LINE
  5
1B38
330
18
100
AcDbEntity
  8
外形線
100
AcDbLine
 10
1295.631701400813
 20
256.4994507882429
 30
0.0
 11
1298.312856951729
 21
254.2496941543396
 31
0.0
  0
LINE
  5
1B39
330
18
100
AcDbEntity
  8
目盛
100
AcDbLine
 10
1310.32253103877
 20
258.112870603935
 30
0.0
 11
1310.953829112665
 21
260.010622627224
 31
0.0
  0
LINE
  5
1B3A
330
18
100
AcDbEntity
  8
目盛
100
AcDbLine
 10
1303.933824496669
 20
261.4244615325724
 30
0.0
 11
1305.120662269876
 21
263.0342491272843
 31
0.0
  0
LINE
  5
1B3B
330
18
100
AcDbEntity
  8
目盛
100
AcDbLine
 10
1305.123170052051
 20
260.6039869913577
 30
0.0
 11
1306.206586472616
 21
262.2851201983491
 31
0.0
  0
LINE
  5
1B3C
330
18
100
AcDbEntity
  8
目盛
100
AcDbLine
 10
1306.361686728363
 20
259.8598110945528
 30
0.0
 11
1307.33740604664
 21
261.6056552490924
 31
0.0
  0
LINE
  5
1B3D
330
18
100
AcDbEntity
  8
目盛
100
AcDbLine
 10
1307.644486666108
 20
259.1948707644409
 30
0.0
 11
1308.508658163712
 21
260.998535817251
 31
0.0
  0
LINE
  5
1B3E
330
18
100
AcDbEntity
  8
目盛
100
AcDbLine
 10
1298.881141384472
 20
266.5481905581407
 30
0.0
 11
1300.507342906566
 21
267.7124364984554
 31
0.0
  0
LINE
  5
1B3F
330
18
100
AcDbEntity
  8
目盛
100
AcDbLine
 10
1299.758735648358
 20
265.4003449104668
 30
0.0
 11
1301.308624625766
 21
266.6644035157965
 31
0.0
  0
LINE
  5
1B40
330
18
100
AcDbEntity
  8
目盛
100
AcDbLine
 10
1300.706672004988
 20
264.3098688737435
 30
0.0
 11
1302.174131733993
 21
265.6687514822666
 31
0.0
  0
LINE
  5
1B41
330
18
100
AcDbEntity
  8
目盛
100
AcDbLine
 10
1301.721209382633
 20
263.2810660586966
 30
0.0
 11
1303.100448470105
 21
264.7294097815716
 31
0.0
  0
LINE
  5
1B42
330
18
100
AcDbEntity
  8
目盛
100
AcDbLine
 10
1304.726706694823
 20
264.6161300093788
 30
0.0
 11
1302.798343865763
 21
262.3179966800219
 31
0.0
  0
LINE
  5
1B43
330
18
100
AcDbEntity
  8
目盛
100
AcDbLine
 10
1297.350541712622
 20
268.997662063142
 30
0.0
 11
1299.109838858355
 21
269.9489104812826
 31
0.0
  0
LINE
  5
1B44
330
18
100
AcDbEntity
  8
目盛
100
AcDbLine
 10
1298.077352676956
 20
267.7488757943947
 30
0.0
 11
1300.621496965425
 21
269.3386335870942
 31
0.0
  0
CIRCLE
  5
1B45
330
18
100
AcDbEntity
  8
外形線
100
AcDbCircle
 10
1317.582458888554
 20
279.9370188717584
 30
0.0
 40
23.0
  0
LINE
  5
1B46
330
18
100
AcDbEntity
  8
目盛
100
AcDbLine
 10
1308.966507239988
 20
258.6117902167223
 30
0.0
 11
1310.090327020235
 21
261.3933417804226
 31
0.0
  0
LINE
  5
1B47
330
18
100
AcDbEntity
  8
外形線
  6
Continuous
100
AcDbLine
 10
1342.501415390372
 20
303.4113794990574
 30
0.0
 11
1338.644689732253
 21
298.8151128403436
 31
0.0
  0
LINE
  5
1B48
330
18
100
AcDbEntity
  8
外形線
  6
Continuous
100
AcDbLine
 10
1336.37305984542
 20
308.5536803765497
 30
0.0
 11
1332.516334187301
 21
303.9574137178358
 31
0.0
  0
HATCH
  5
1B49
330
18
100
AcDbEntity
  8
ﾊｯﾁﾝｸ
  6
Continuous
100
AcDbHatch
 10
0.0
 20
0.0
 30
0.0
210
0.0
220
0.0
230
1.0
  2
ANSI37
 70
     0
 71
     0
 91
        1
 92
        7
 72
     0
 73
     1
 93
        4
 10
1339.437237617896
 20
305.9825299378035
 10
1336.37305984542
 20
308.5536803765497
 10
1332.516334187301
 20
303.9574137178358
 10
1335.580511959777
 20
301.3862632790897
 97
        0
 75
     0
 76
     1
 52
-40.00000000000002
 41
10.0
 77
     0
 78
     2
 53
4.999999999999976
 43
1092.285830824328
 44
310.873791539347
 45
-0.1089446784345722
 46
1.245243372614682
 79
     0
 53
94.99999999999992
 43
1092.285830824328
 44
310.873791539347
 45
-1.245243372614682
 46
-0.1089446784345722
 79
     0
 47
0.1856754751158765
 98
        1
 10
1336.669544533477
 20
305.4017344790927
  0
LINE
  5
1B4A
330
18
100
AcDbEntity
  8
外形線
  6
Continuous
100
AcDbLine
 10
1332.516334187301
 20
303.9574137178359
 30
0.0
 11
1338.644689732253
 21
298.8151128403436
 31
0.0
  0
LINE
  5
1B4B
102
{ACAD_REACTORS
330
1B51
102
}
330
18
100
AcDbEntity
  8
ROGO
 62
     4
100
AcDbLine
 10
1319.117837874174
 20
289.159589684562
 30
0.0
 11
1320.478396500587
 21
288.0179454429435
 31
0.0
  0
LINE
  5
1B4C
102
{ACAD_REACTORS
330
1B51
102
}
330
18
100
AcDbEntity
  8
ROGO
 62
     4
100
AcDbLine
 10
1320.797752449406
 20
289.0714933932413
 30
0.0
 11
1321.512827682895
 21
288.4714740285564
 31
0.0
  0
LINE
  5
1B4D
102
{ACAD_REACTORS
330
1B51
102
}
330
18
100
AcDbEntity
  8
ROGO
 62
     4
100
AcDbLine
 10
1320.557430729792
 20
288.9661284627822
 30
0.0
 11
1321.272505963281
 21
288.3661090980973
 31
0.0
  0
LINE
  5
1B4E
102
{ACAD_REACTORS
330
1B51
102
}
330
18
100
AcDbEntity
  8
ROGO
 62
     4
100
AcDbLine
 10
1320.070671425987
 20
288.7527172060799
 30
0.0
 11
1320.785746659476
 21
288.152697841395
 31
0.0
  0
LINE
  5
1B4F
102
{ACAD_REACTORS
330
1B51
102
}
330
18
100
AcDbEntity
  8
ROGO
 62
     4
100
AcDbLine
 10
1320.311003319667
 20
288.8580865971836
 30
0.0
 11
1321.026078553157
 21
288.2580672324987
 31
0.0
  0
LINE
  5
1B50
102
{ACAD_REACTORS
330
1B51
102
}
330
18
100
AcDbEntity
  8
ROGO
 62
     4
100
AcDbLine
 10
1320.459634676204
 20
289.747877447163
 30
0.0
 11
1321.820193302617
 21
288.6062332055445
 31
0.0
  0
HATCH
  5
1B51
330
18
100
AcDbEntity
  8
ROGO
 62
     4
100
AcDbHatch
 10
0.0
 20
0.0
 30
0.0
210
0.0
220
0.0
230
1.0
  2
SOLID
 70
     1
 71
     1
 91
        1
 92
        1
 93
       12
 72
     1
 10
1320.459634676204
 20
289.747877447163
 11
1321.820193302617
 21
288.6062332055445
 72
     1
 10
1321.820193302617
 20
288.6062332055445
 11
1321.512827682895
 21
288.4714740285564
 72
     1
 10
1321.512827682895
 20
288.4714740285564
 11
1320.797752449406
 21
289.0714933932413
 72
     1
 10
1320.797752449406
 20
289.0714933932413
 11
1320.557430729792
 21
288.9661284627822
 72
     1
 10
1320.557430729792
 20
288.9661284627822
 11
1321.272505963281
 21
288.3661090980973
 72
     1
 10
1321.272505963281
 20
288.3661090980973
 11
1321.026078553157
 21
288.2580672324987
 72
     1
 10
1321.026078553157
 20
288.2580672324987
 11
1320.311003319667
 21
288.8580865971836
 72
     1
 10
1320.311003319667
 20
288.8580865971836
 11
1320.070671425987
 21
288.7527172060799
 72
     1
 10
1320.070671425987
 20
288.7527172060799
 11
1320.785746659476
 21
288.152697841395
 72
     1
 10
1320.785746659476
 20
288.152697841395
 11
1320.478396500587
 21
288.0179454429435
 72
     1
 10
1320.478396500587
 20
288.0179454429435
 11
1319.117837874174
 21
289.159589684562
 72
     1
 10
1319.117837874174
 20
289.159589684562
 11
1320.459634676204
 21
289.747877447163
 97
       12
330
1B50
330
1BB8
330
1B4C
330
1B7E
330
1B4D
330
1BB9
330
1B4F
330
1B7F
330
1B4E
330
1BBA
330
1B4B
330
1B7D
 75
     0
 76
     1
 98
        1
 10
1206.442515957333
 20
266.8911032733672
450
        0
451
        0
460
0.0
461
0.0
452
        0
462
0.0
453
        0
470

  0
LINE
  5
1B52
102
{ACAD_REACTORS
330
1BE1
330
1B7A
102
}
330
18
100
AcDbEntity
  8
ROGO
 62
     4
100
AcDbLine
 10
1316.397987693498
 20
290.4774664096811
 30
0.0
 11
1327.037714758396
 21
281.5496753536983
 31
0.0
  0
LINE
  5
1B53
330
18
100
AcDbEntity
  8
ROGO
 62
     4
100
AcDbLine
 10
1317.321198670282
 20
289.9712838060542
 30
0.0
 11
1326.669284043473
 21
282.127308817196
 31
0.0
  0
HATCH
  5
1B54
330
18
100
AcDbEntity
  8
ROGO
 62
     4
100
AcDbHatch
 10
0.0
 20
0.0
 30
0.0
210
0.0
220
0.0
230
1.0
  2
SOLID
 70
     1
 71
     0
 91
        1
 92
        7
 72
     0
 73
     1
 93
        4
 10
1317.332125104532
 20
289.9621154391048
 10
1317.128641615635
 20
289.8643749730979
 10
1326.458521008918
 20
282.0356766152654
 10
1326.669284043473
 20
282.127308817196
 97
        0
 75
     0
 76
     1
 47
0.0514683685270805
 98
        1
 10
1323.19281798587
 20
284.9734006630437
450
        0
451
        0
460
0.0
461
0.0
452
        0
462
0.0
453
        0
470

  0
CIRCLE
  5
1B55
330
18
100
AcDbEntity
  8
外形線
100
AcDbCircle
 10
1317.582458888554
 20
279.9370188717584
 30
0.0
 40
15.5
  0
LINE
  5
1B56
330
18
100
AcDbEntity
  8
目盛
100
AcDbLine
 10
1296.257230233518
 20
288.5529705203243
 30
0.0
 11
1299.038781797218
 21
287.4291507400767
 31
0.0
  0
LINE
  5
1B57
330
18
100
AcDbEntity
  8
目盛
100
AcDbLine
 10
1295.75831062073
 20
287.1969467215417
 30
0.0
 11
1297.656062644019
 21
286.5656486476476
 31
0.0
  0
LINE
  5
1B58
330
18
100
AcDbEntity
  8
目盛
100
AcDbLine
 10
1295.345520950651
 20
285.8122713042816
 30
0.0
 11
1297.27916772786
 21
285.30137978841
 31
0.0
  0
LINE
  5
1B59
330
18
100
AcDbEntity
  8
目盛
100
AcDbLine
 10
1295.020490315522
 20
284.4044089498177
 30
0.0
 11
1296.982400626221
 21
284.0159402473778
 31
0.0
  0
LINE
  5
1B5A
330
18
100
AcDbEntity
  8
目盛
100
AcDbLine
 10
1298.249427008153
 20
292.3963077082614
 30
0.0
 11
1299.930560215144
 21
291.312891287696
 31
0.0
  0
LINE
  5
1B5B
330
18
100
AcDbEntity
  8
目盛
100
AcDbLine
 10
1297.505251111348
 20
291.1577910319493
 30
0.0
 11
1299.251095265888
 21
290.1820717136719
 31
0.0
  0
LINE
  5
1B5C
330
18
100
AcDbEntity
  8
目盛
100
AcDbLine
 10
1296.840310781236
 20
289.874991094204
 30
0.0
 11
1298.643975834046
 21
289.0108195966
 31
0.0
  0
LINE
  5
1B5D
330
18
100
AcDbEntity
  8
目盛
100
AcDbLine
 10
1303.045784927262
 20
297.7607421119545
 30
0.0
 11
1304.309843532592
 21
296.2108531345462
 31
0.0
  0
LINE
  5
1B5E
330
18
100
AcDbEntity
  8
目盛
100
AcDbLine
 10
1301.955308890539
 20
296.8128057553246
 30
0.0
 11
1303.314191499062
 21
295.3453460263189
 31
0.0
  0
LINE
  5
1B5F
330
18
100
AcDbEntity
  8
目盛
100
AcDbLine
 10
1300.926506075492
 20
295.7982683776789
 30
0.0
 11
1302.374849798367
 21
294.4190292902075
 31
0.0
  0
LINE
  5
1B60
330
18
100
AcDbEntity
  8
目盛
100
AcDbLine
 10
1299.069901549368
 20
293.5856532636436
 30
0.0
 11
1300.67968914408
 21
292.3988154904362
 31
0.0
  0
LINE
  5
1B61
330
18
100
AcDbEntity
  8
目盛
100
AcDbLine
 10
1299.963436696817
 20
294.7211338945488
 30
0.0
 11
1302.261570026174
 21
292.7927710654892
 31
0.0
  0
LINE
  5
1B62
330
18
100
AcDbEntity
  8
目盛
100
AcDbLine
 10
1295.659073529316
 20
272.9825113844983
 30
0.0
 11
1297.565454864902
 21
273.5872511659991
 31
0.0
  0
LINE
  5
1B63
330
18
100
AcDbEntity
  8
目盛
100
AcDbLine
 10
1294.58301938233
 20
280.0975878586116
 30
0.0
 11
1296.582970643741
 21
280.0836253380156
 31
0.0
  0
LINE
  5
1B64
330
18
100
AcDbEntity
  8
目盛
100
AcDbLine
 10
1294.618321312368
 20
278.6531242569156
 30
0.0
 11
1296.615202840732
 21
278.7647672669019
 31
0.0
  0
LINE
  5
1B65
330
18
100
AcDbEntity
  8
目盛
100
AcDbLine
 10
1294.744252202103
 20
277.2137276007089
 30
0.0
 11
1296.730183218316
 21
277.4505355373219
 31
0.0
  0
LINE
  5
1B66
330
18
100
AcDbEntity
  8
目盛
100
AcDbLine
 10
1294.960315059846
 20
275.7850785309955
 30
0.0
 11
1296.927458001472
 21
276.1461168214967
 31
0.0
  0
LINE
  5
1B67
330
18
100
AcDbEntity
  8
目盛
100
AcDbLine
 10
1295.265657184206
 20
274.372815272966
 30
0.0
 11
1298.176544363034
 21
275.098580959765
 31
0.0
  0
LINE
  5
1B68
330
18
100
AcDbEntity
  8
目盛
100
AcDbLine
 10
1294.784501462768
 20
282.9789158476723
 30
0.0
 11
1296.766932543272
 21
282.7144030671579
 31
0.0
  0
LINE
  5
1B69
330
18
100
AcDbEntity
  8
目盛
100
AcDbLine
 10
1294.638485732578
 20
281.5414177678733
 30
0.0
 11
1297.631177883357
 21
281.332148346641
 31
0.0
  0
LINE
  5
1B6A
330
18
100
AcDbEntity
  8
目盛
100
AcDbLine
 10
1296.139011460597
 20
271.6196537598702
 30
0.0
 11
1298.003659063028
 21
272.3429029000345
 31
0.0
  0
LINE
  5
1B6B
330
18
100
AcDbEntity
  8
目盛
100
AcDbLine
 10
1296.703576882297
 20
270.2896209754963
 30
0.0
 11
1298.519131839363
 21
271.1285251403887
 31
0.0
  0
LINE
  5
1B6C
330
18
100
AcDbEntity
  8
目盛
100
AcDbLine
 10
1309.265093776666
 20
301.3804662997152
 30
0.0
 11
1309.98834291683
 21
299.5158186972842
 31
0.0
  0
LINE
  5
1B6D
330
18
100
AcDbEntity
  8
目盛
100
AcDbLine
 10
1307.935060992291
 20
300.8159008780153
 30
0.0
 11
1308.773965157184
 21
299.0003459209495
 31
0.0
  0
LINE
  5
1B6E
330
18
100
AcDbEntity
  8
目盛
100
AcDbLine
 10
1306.643102079937
 20
300.1689360476906
 30
0.0
 11
1307.594350498078
 21
298.4096389019574
 31
0.0
  0
LINE
  5
1B6F
330
18
100
AcDbEntity
  8
目盛
100
AcDbLine
 10
1305.39431581119
 20
299.4421250833563
 30
0.0
 11
1306.98407360389
 21
296.8979807948871
 31
0.0
  0
LINE
  5
1B70
330
18
100
AcDbEntity
  8
目盛
100
AcDbLine
 10
1304.193630574936
 20
298.63833637584
 30
0.0
 11
1305.357876515251
 21
297.012134853746
 31
0.0
  0
LINE
  5
1B71
330
18
100
AcDbEntity
  8
目盛
100
AcDbLine
 10
1320.624355864467
 20
302.7349762975439
 30
0.0
 11
1320.359843083953
 21
300.7525452170408
 31
0.0
  0
LINE
  5
1B72
330
18
100
AcDbEntity
  8
目盛
100
AcDbLine
 10
1319.186857784669
 20
302.8809920277343
 30
0.0
 11
1318.977588363436
 21
299.8882998769549
 31
0.0
  0
LINE
  5
1B73
330
18
100
AcDbEntity
  8
目盛
100
AcDbLine
 10
1310.627951401293
 20
301.8604042309962
 30
0.0
 11
1311.232691182795
 21
299.9540228954103
 31
0.0
  0
LINE
  5
1B74
330
18
100
AcDbEntity
  8
目盛
100
AcDbLine
 10
1314.859167617504
 20
302.7752255582088
 30
0.0
 11
1315.095975554117
 21
300.7892945419957
 31
0.0
  0
LINE
  5
1B75
330
18
100
AcDbEntity
  8
目盛
100
AcDbLine
 10
1316.298564273711
 20
302.901156447944
 30
0.0
 11
1316.410207283698
 21
300.9042749195801
 31
0.0
  0
LINE
  5
1B76
330
18
100
AcDbEntity
  8
目盛
100
AcDbLine
 10
1313.430518547791
 20
302.5591627004662
 30
0.0
 11
1313.791556838292
 21
300.5920197588396
 31
0.0
  0
LINE
  5
1B77
330
18
100
AcDbEntity
  8
目盛
100
AcDbLine
 10
1312.018255289761
 20
302.2538205761064
 30
0.0
 11
1312.74402097656
 21
299.3429333972784
 31
0.0
  0
LINE
  5
1B78
330
18
100
AcDbEntity
  8
目盛
100
AcDbLine
 10
1317.743027875407
 20
302.9364583779825
 30
0.0
 11
1317.729065354811
 21
300.9365071165718
 31
0.0
  0
LINE
  5
1B79
102
{ACAD_REACTORS
330
1B7A
102
}
330
18
100
AcDbEntity
  8
ROGO
 62
     4
100
AcDbLine
 10
1318.494636987626
 20
291.396706282913
 30
0.0
 11
1316.397987693498
 21
290.4774664096811
 31
0.0
  0
HATCH
  5
1B7A
330
18
100
AcDbEntity
  8
ROGO
 62
     4
100
AcDbHatch
 10
0.0
 20
0.0
 30
0.0
210
0.0
220
0.0
230
1.0
  2
SOLID
 70
     1
 71
     1
 91
        2
 92
        5
 93
        6
 72
     1
 10
1316.397987693498
 20
290.4774664096812
 11
1317.128641615635
 21
289.864374973098
 72
     1
 10
1317.128641615635
 20
289.864374973098
 11
1317.859521137564
 21
290.215442794155
 72
     1
 10
1317.859521137564
 20
290.215442794155
 11
1318.542532696837
 21
289.64232804668
 72
     4
 94
        3
 73
     0
 74
     0
 95
       18
 96
       14
 40
0.108740278791501
 40
0.108740278791501
 40
0.108740278791501
 40
0.108740278791501
 40
0.6623149649549278
 40
1.384304701649787
 40
2.097394834876493
 40
2.774073369849618
 40
3.428974823686337
 40
4.005208313035923
 40
4.455173659284313
 40
4.720999734343524
 40
5.086034088486724
 40
5.569973738255373
 40
6.060470601257719
 40
6.060470601257719
 40
6.060470601257719
 40
6.060470601257719
 10
1318.542532696837
 20
289.6423280466798
 10
1318.590902283537
 20
289.6023511345559
 10
1318.702357025753
 20
289.5102350604007
 10
1318.926774544139
 20
289.4629924179605
 10
1319.162205998027
 20
289.4451497963333
 10
1319.391115846036
 20
289.4775978050484
 10
1319.591256516136
 20
289.5663670601438
 10
1319.723824418666
 20
289.7011596708223
 10
1319.812676983199
 20
289.8212104164575
 10
1319.829646596575
 20
289.9426170605742
 10
1319.845637182253
 20
290.0668660224745
 10
1319.809379114384
 20
290.2165421249502
 10
1319.757286378449
 20
290.3125032107448
 10
1319.729882359827
 20
290.3602123466857
 72
     1
 10
1319.729882359827
 20
290.3602123466857
 11
1318.494636987626
 21
291.396706282913
 72
     1
 10
1318.494636987626
 20
291.396706282913
 11
1316.397987693498
 21
290.4774664096812
 97
        6
330
1B7B
330
1B82
330
1B79
330
1B52
330
1B81
330
1B83
 92
       20
 93
        4
 72
     4
 94
        3
 73
     0
 74
     0
 95
       15
 96
       11
 40
0.0
 40
0.0
 40
0.0
 40
0.0
 40
0.1539705029175028
 40
0.2241725832587281
 40
0.3038566179396687
 40
0.3581410872474193
 40
0.443992538467216
 40
0.4954152125469665
 40
0.5836396705646186
 40
0.6130478420065743
 40
0.6130478420065743
 40
0.6130478420065743
 40
0.6130478420065743
 10
1318.967310657037
 20
290.3372041918442
 10
1319.011779996331
 20
290.3002357679878
 10
1319.076524908351
 20
290.2464117762629
 10
1319.044848291798
 20
290.1370343530012
 10
1318.985936220667
 20
290.0989321834521
 10
1318.921809514986
 20
290.0628694424011
 10
1318.856617642379
 20
290.056502922352
 10
1318.780516697209
 20
290.0615394591211
 10
1318.732463040874
 20
290.0947408717296
 10
1318.697048170119
 20
290.111375346113
 10
1318.688194448192
 20
290.1155339666995
 72
     1
 10
1318.688194448192
 20
290.1155339666996
 11
1318.310797866398
 21
290.4322072992911
 72
     1
 10
1318.310797866398
 20
290.4322072992911
 11
1318.6563065724
 21
290.5981676045579
 72
     1
 10
1318.6563065724
 20
290.5981676045579
 11
1318.967310657037
 21
290.3372041918442
 97
        4
330
1B80
330
1B84
330
1B7C
330
1B85
 75
     0
 76
     1
 47
0.0514683685270805
 98
        2
 10
1318.091019356925
 20
290.902285432758
 10
1318.091019356925
 20
290.902285432758
450
        0
451
        0
460
0.0
461
0.0
452
        0
462
0.0
453
        0
470

  0
SPLINE
  5
1B7B
102
{ACAD_REACTORS
330
1B7A
102
}
330
18
100
AcDbEntity
  8
ROGO
 62
     4
100
AcDbSpline
210
0.0
220
0.0
230
1.0
 70
     8
 71
     3
 72
    18
 73
    14
 74
     0
 42
0.0000000001
 43
0.0000000001
 40
0.1087402787915014
 40
0.1087402787915014
 40
0.1087402787915014
 40
0.1087402787915014
 40
0.5992371417938475
 40
1.083176791562496
 40
1.448211145705696
 40
1.714037220764907
 40
2.164002567013297
 40
2.740236056362883
 40
3.395137510199602
 40
4.071816045172726
 40
4.784906178399433
 40
5.506895915094292
 40
6.060470601257719
 40
6.060470601257719
 40
6.060470601257719
 40
6.060470601257719
 10
1319.729882359827
 20
290.3602123466857
 30
0.0
 10
1319.757286378449
 20
290.3125032107448
 30
0.0
 10
1319.809379114384
 20
290.2165421249502
 30
0.0
 10
1319.845637182253
 20
290.0668660224745
 30
0.0
 10
1319.829646596575
 20
289.9426170605742
 30
0.0
 10
1319.812676983199
 20
289.8212104164575
 30
0.0
 10
1319.723824418666
 20
289.7011596708223
 30
0.0
 10
1319.591256516136
 20
289.5663670601438
 30
0.0
 10
1319.391115846036
 20
289.4775978050484
 30
0.0
 10
1319.162205998027
 20
289.4451497963333
 30
0.0
 10
1318.926774544139
 20
289.4629924179605
 30
0.0
 10
1318.702357025753
 20
289.5102350604007
 30
0.0
 10
1318.590902283537
 20
289.6023511345559
 30
0.0
 10
1318.542532696837
 20
289.6423280466798
 30
0.0
  0
SPLINE
  5
1B7C
102
{ACAD_REACTORS
330
1B7A
102
}
330
18
100
AcDbEntity
  8
ROGO
 62
     4
100
AcDbSpline
210
0.0
220
0.0
230
1.0
 70
     8
 71
     3
 72
    15
 73
    11
 74
     9
 42
0.0000000001
 43
0.0000000001
 44
0.0000000001
 40
0.0
 40
0.0
 40
0.0
 40
0.0
 40
0.153970502917494
 40
0.2241725832587803
 40
0.3038566179397292
 40
0.3581410872474866
 40
0.4439925384673162
 40
0.4954152125469142
 40
0.583639670564727
 40
0.6130478420066832
 40
0.6130478420066832
 40
0.6130478420066832
 40
0.6130478420066832
 10
1318.967310657037
 20
290.3372041918442
 30
0.0
 10
1319.011779996331
 20
290.3002357679877
 30
0.0
 10
1319.076524908351
 20
290.2464117762629
 30
0.0
 10
1319.044848291798
 20
290.1370343530013
 30
0.0
 10
1318.985936220668
 20
290.0989321834521
 30
0.0
 10
1318.921809514986
 20
290.062869442401
 30
0.0
 10
1318.85661764238
 20
290.0565029223521
 30
0.0
 10
1318.780516697209
 20
290.0615394591211
 30
0.0
 10
1318.732463040874
 20
290.0947408717296
 30
0.0
 10
1318.697048170119
 20
290.111375346113
 30
0.0
 10
1318.688194448192
 20
290.1155339666995
 30
0.0
 11
1318.967310657037
 21
290.3372041918442
 31
0.0
 11
1319.059150797336
 21
290.2136230266182
 31
0.0
 11
1319.039777064124
 21
290.146147175044
 31
0.0
 11
1318.978456607222
 21
290.0952615488971
 31
0.0
 11
1318.929996391972
 21
290.0707991053159
 31
0.0
 11
1318.845053466121
 21
290.0583423391008
 31
0.0
 11
1318.793944457964
 21
290.0640133790964
 31
0.0
 11
1318.714631987973
 21
290.1026538642956
 31
0.0
 11
1318.688194448192
 21
290.1155339666995
 31
0.0
  0
LINE
  5
1B7D
102
{ACAD_REACTORS
330
1B51
102
}
330
18
100
AcDbEntity
  8
ROGO
 62
     4
100
AcDbLine
 10
1320.459634676204
 20
289.747877447163
 30
0.0
 11
1319.117837874174
 21
289.159589684562
 31
0.0
  0
LINE
  5
1B7E
102
{ACAD_REACTORS
330
1B51
102
}
330
18
100
AcDbEntity
  8
ROGO
 62
     4
100
AcDbLine
 10
1320.797752449406
 20
289.0714933932413
 30
0.0
 11
1320.557430729792
 21
288.9661284627822
 31
0.0
  0
LINE
  5
1B7F
102
{ACAD_REACTORS
330
1B51
102
}
330
18
100
AcDbEntity
  8
ROGO
 62
     4
100
AcDbLine
 10
1320.311003319667
 20
288.8580865971836
 30
0.0
 11
1320.070671425987
 21
288.7527172060799
 31
0.0
  0
LINE
  5
1B80
102
{ACAD_REACTORS
330
1B7A
102
}
330
18
100
AcDbEntity
  8
ROGO
 62
     4
100
AcDbLine
 10
1318.6563065724
 20
290.5981676045578
 30
0.0
 11
1318.310797866398
 21
290.4322072992911
 31
0.0
  0
LINE
  5
1B81
102
{ACAD_REACTORS
330
1B7A
102
}
330
18
100
AcDbEntity
  8
ROGO
 62
     4
100
AcDbLine
 10
1317.859521137564
 20
290.215442794155
 30
0.0
 11
1317.128641615635
 21
289.8643749730979
 31
0.0
  0
LINE
  5
1B82
102
{ACAD_REACTORS
330
1B7A
102
}
330
18
100
AcDbEntity
  8
ROGO
 62
     4
100
AcDbLine
 10
1318.494636987626
 20
291.396706282913
 30
0.0
 11
1319.729882359827
 21
290.3602123466857
 31
0.0
  0
LINE
  5
1B83
102
{ACAD_REACTORS
330
1B7A
102
}
330
18
100
AcDbEntity
  8
ROGO
 62
     4
100
AcDbLine
 10
1318.542532697073
 20
289.6423280464811
 30
0.0
 11
1317.859521137564
 21
290.215442794155
 31
0.0
  0
LINE
  5
1B84
102
{ACAD_REACTORS
330
1B7A
102
}
330
18
100
AcDbEntity
  8
ROGO
 62
     4
100
AcDbLine
 10
1318.967310657037
 20
290.3372041918442
 30
0.0
 11
1318.6563065724
 21
290.5981676045578
 31
0.0
  0
LINE
  5
1B85
102
{ACAD_REACTORS
330
1B7A
102
}
330
18
100
AcDbEntity
  8
ROGO
 62
     4
100
AcDbLine
 10
1318.688194448192
 20
290.1155339666995
 30
0.0
 11
1318.310797866398
 21
290.4322072992911
 31
0.0
  0
LINE
  5
1B86
330
18
100
AcDbEntity
  8
目盛
100
AcDbLine
 10
1324.842386738337
 20
301.7611671395818
 30
0.0
 11
1324.211088664443
 21
299.8634151162928
 31
0.0
  0
LINE
  5
1B87
330
18
100
AcDbEntity
  8
目盛
100
AcDbLine
 10
1323.457711321077
 20
302.173956809661
 30
0.0
 11
1322.946819805205
 21
300.2403100324521
 31
0.0
  0
LINE
  5
1B88
330
18
100
AcDbEntity
  8
目盛
100
AcDbLine
 10
1322.049848966613
 20
302.4989874447899
 30
0.0
 11
1321.661380264173
 21
300.5370771340914
 31
0.0
  0
LINE
  5
1B89
330
18
100
AcDbEntity
  8
目盛
100
AcDbLine
 10
1328.803231048744
 20
300.014226648964
 30
0.0
 11
1327.827511730467
 21
298.2683824944244
 31
0.0
  0
LINE
  5
1B8A
330
18
100
AcDbEntity
  8
目盛
100
AcDbLine
 10
1327.520431111
 20
300.6791669790761
 30
0.0
 11
1326.656259613395
 21
298.8755019262658
 31
0.0
  0
LINE
  5
1B8B
330
18
100
AcDbEntity
  8
目盛
100
AcDbLine
 10
1326.19841053712
 20
301.2622475267945
 30
0.0
 11
1325.074590756872
 21
298.4806959630942
 31
0.0
  0
LINE
  5
1B8C
330
18
100
AcDbEntity
  8
外形線
  6
Continuous
100
AcDbLine
 10
1332.746147520237
 20
303.7645774349299
 30
0.0
 11
1331.550198627442
 21
302.3393010453827
 31
0.0
  0
LINE
  5
1B8D
330
18
100
AcDbEntity
  8
針
  6
Continuous
100
AcDbLine
 10
1332.366573911344
 20
297.5560410634949
 30
0.0
 11
1318.874520065457
 21
280.6989755077546
 31
0.0
  0
LINE
  5
1B8E
330
18
100
AcDbEntity
  8
針
  6
Continuous
100
AcDbLine
 10
1332.366573911343
 20
297.5560410634941
 30
0.0
 11
1318.108475622338
 21
281.3417631174411
 31
0.0
  0
HATCH
  5
1B8F
330
18
100
AcDbEntity
  8
針
 48
0.2
100
AcDbHatch
 10
0.0
 20
0.0
 30
0.0
210
0.0
220
0.0
230
1.0
  2
SOLID
 70
     1
 71
     0
 91
        1
 92
        1
 93
        3
 72
     1
 10
1332.366573911344
 20
297.5560410634949
 11
1318.874520065457
 21
280.6989755077546
 72
     2
 10
1317.582458888554
 20
279.9370188717584
 40
1.5
 50
30.5287793655125
 51
69.47122063449126
 73
     1
 72
     1
 10
1318.108475622338
 20
281.3417631174411
 11
1332.366573911343
 21
297.5560410634942
 97
        0
 75
     0
 76
     1
 98
        1
 10
1152.430511437854
 20
437.1253149931666
450
        0
451
        0
460
0.0
461
0.0
452
        0
462
0.0
453
        0
470

  0
LINE
  5
1B90
330
18
100
AcDbEntity
  8
目盛
100
AcDbLine
 10
1315.978059992439
 20
256.9930457157824
 30
0.0
 11
1316.187329413671
 21
259.985737866562
 31
0.0
  0
TEXT
  5
1B91
330
18
100
AcDbEntity
  8
文字
100
AcDbText
 10
1304.245750220839
 20
265.8019530872992
 30
0.0
 40
2.0
  1
5
 50
319.9999999999996
  7
STYLE3
100
AcDbText
  0
LINE
  5
1B92
330
18
100
AcDbEntity
  8
目盛
100
AcDbLine
 10
1311.707206456031
 20
257.7000809338559
 30
0.0
 11
1312.218097971902
 21
259.6337277110648
 31
0.0
  0
LINE
  5
1B93
330
18
100
AcDbEntity
  8
目盛
100
AcDbLine
 10
1313.115068810494
 20
257.3750502987271
 30
0.0
 11
1313.503537512934
 21
259.3369606094255
 31
0.0
  0
LINE
  5
1B94
330
18
100
AcDbEntity
  8
目盛
100
AcDbLine
 10
1314.54056191264
 20
257.139061445973
 30
0.0
 11
1314.805074693154
 21
259.121492526476
 31
0.0
  0
CIRCLE
  5
1B95
330
18
100
AcDbEntity
  8
外形線
100
AcDbCircle
 10
1317.582458888554
 20
279.9370188717584
 30
0.0
 40
1.5
  0
POINT
  5
1B96
330
18
100
AcDbEntity
  8
DEFPOINTS
  6
ByBlock
 62
     0
100
AcDbPoint
 10
1317.582458888554
 20
279.9370188717584
 30
0.0
  0
POINT
  5
1B97
330
18
100
AcDbEntity
  8
DEFPOINTS
  6
ByBlock
 62
     0
100
AcDbPoint
 10
1317.582458888554
 20
279.9370188717584
 30
0.0
  0
TEXT
  5
1B98
330
18
100
AcDbEntity
  8
文字
100
AcDbText
 10
1321.598498052062
 20
275.9260837100658
 30
0.0
 40
1.0
  1
0.1mm
 50
319.9999999999996
  7
STYLE3
100
AcDbText
  0
LINE
  5
1B99
330
18
100
AcDbEntity
  8
目盛
100
AcDbLine
 10
1328.52181569717
 20
259.7051016958263
 30
0.0
 11
1327.570567279029
 21
261.4643988415596
 31
0.0
  0
LINE
  5
1B9A
330
18
100
AcDbEntity
  8
目盛
100
AcDbLine
 10
1320.305750159603
 20
257.0988121853081
 30
0.0
 11
1320.06894222299
 21
259.0847432015212
 31
0.0
  0
LINE
  5
1B9B
330
18
100
AcDbEntity
  8
目盛
100
AcDbLine
 10
1321.734399229317
 20
257.3148750430505
 30
0.0
 11
1321.373360938816
 21
259.2820179846774
 31
0.0
  0
LINE
  5
1B9C
330
18
100
AcDbEntity
  8
目盛
100
AcDbLine
 10
1317.421889901701
 20
256.9375793655344
 30
0.0
 11
1317.435852422297
 21
258.937530626945
 31
0.0
  0
LINE
  5
1B9D
330
18
100
AcDbEntity
  8
目盛
100
AcDbLine
 10
1318.866353503396
 20
256.9728812955729
 30
0.0
 11
1318.75471049341
 21
258.9697628239369
 31
0.0
  0
LINE
  5
1B9E
330
18
100
AcDbEntity
  8
目盛
100
AcDbLine
 10
1323.146662487346
 20
257.6202171674105
 30
0.0
 11
1322.420896800547
 21
260.5311043462385
 31
0.0
  0
LINE
  5
1B9F
330
18
100
AcDbEntity
  8
目盛
100
AcDbLine
 10
1327.229856784816
 20
259.0581368655015
 30
0.0
 11
1326.390952619924
 21
260.8736918225674
 31
0.0
  0
LINE
  5
1BA0
330
18
100
AcDbEntity
  8
目盛
100
AcDbLine
 10
1324.536966375814
 20
258.0136335125207
 30
0.0
 11
1323.932226594313
 21
259.9200148481066
 31
0.0
  0
LINE
  5
1BA1
330
18
100
AcDbEntity
  8
目盛
100
AcDbLine
 10
1325.899824000442
 20
258.4935714438017
 30
0.0
 11
1325.176574860278
 21
260.3582190462327
 31
0.0
  0
LINE
  5
1BA2
330
18
100
AcDbEntity
  8
目盛
100
AcDbLine
 10
1332.119132849845
 20
262.1132956315623
 30
0.0
 11
1330.855074244516
 21
263.6631846089707
 31
0.0
  0
LINE
  5
1BA3
330
18
100
AcDbEntity
  8
目盛
100
AcDbLine
 10
1333.209608886569
 20
263.0612319881923
 30
0.0
 11
1331.850726278046
 21
264.5286917171981
 31
0.0
  0
LINE
  5
1BA4
330
18
100
AcDbEntity
  8
目盛
100
AcDbLine
 10
1334.238411701615
 20
264.075769365838
 30
0.0
 11
1332.790067978741
 21
265.4550084533093
 31
0.0
  0
LINE
  5
1BA5
330
18
100
AcDbEntity
  8
目盛
100
AcDbLine
 10
1336.09501622774
 20
266.2883844798733
 30
0.0
 11
1334.485228633028
 21
267.4752222530807
 31
0.0
  0
LINE
  5
1BA6
330
18
100
AcDbEntity
  8
目盛
100
AcDbLine
 10
1336.915490768954
 20
267.4777300352554
 30
0.0
 11
1335.234357561963
 21
268.561146455821
 31
0.0
  0
LINE
  5
1BA7
330
18
100
AcDbEntity
  8
目盛
100
AcDbLine
 10
1337.659666665759
 20
268.7162467115676
 30
0.0
 11
1335.91382251122
 21
269.691966029845
 31
0.0
  0
LINE
  5
1BA8
330
18
100
AcDbEntity
  8
目盛
100
AcDbLine
 10
1332.903347750933
 20
267.0812666780276
 30
0.0
 11
1335.20148108029
 21
265.152903848968
 31
0.0
  0
LINE
  5
1BA9
330
18
100
AcDbEntity
  8
目盛
100
AcDbLine
 10
1329.770601965918
 20
260.4319126601607
 30
0.0
 11
1328.180844173218
 21
262.97605694863
 31
0.0
  0
LINE
  5
1BAA
330
18
100
AcDbEntity
  8
目盛
100
AcDbLine
 10
1330.971287202171
 20
261.2357013676768
 30
0.0
 11
1329.807041261857
 21
262.8619028897708
 31
0.0
  0
LINE
  5
1BAB
330
18
100
AcDbEntity
  8
目盛
100
AcDbLine
 10
1339.899260592902
 20
285.5012224705506
 30
0.0
 11
1336.988373414074
 21
284.7754567837517
 31
0.0
  0
LINE
  5
1BAC
330
18
100
AcDbEntity
  8
目盛
100
AcDbLine
 10
1339.505844247791
 20
286.8915263590185
 30
0.0
 11
1337.599462912206
 21
286.2867865775176
 31
0.0
  0
TEXT
  5
1BAD
330
18
100
AcDbEntity
  8
文字
100
AcDbText
 10
1327.707253800083
 20
293.5306330787213
 30
0.0
 40
2.0
  1
0
 50
319.9999999999996
  7
STYLE3
100
AcDbText
  0
LINE
  5
1BAE
102
{ACAD_REACTORS
330
1BB2
102
}
330
18
100
AcDbEntity
  8
ROGO
 62
     4
100
AcDbLine
 10
1326.138445976276
 20
283.2686000154475
 30
0.0
 11
1327.004864468227
 21
282.5415885784065
 31
0.0
  0
LINE
  5
1BAF
102
{ACAD_REACTORS
330
1BB2
102
}
330
18
100
AcDbEntity
  8
ROGO
 62
     4
100
AcDbLine
 10
1327.343149355576
 20
283.9719228184986
 30
0.0
 11
1328.350525637946
 21
283.1266337515053
 31
0.0
  0
SPLINE
  5
1BB0
102
{ACAD_REACTORS
330
1BB2
102
}
330
18
100
AcDbEntity
  8
ROGO
 62
     4
100
AcDbSpline
210
0.0
220
0.0
230
1.0
 70
     8
 71
     3
 72
    16
 73
    12
 74
    10
 42
0.0000000001
 43
0.0000000001
 44
0.0000000001
 40
0.0
 40
0.0
 40
0.0
 40
0.0
 40
0.1255907025629268
 40
0.1869327038472331
 40
0.2171823804789181
 40
0.2490606136884002
 40
0.2947101524736785
 40
0.3362763310931625
 40
0.3796288870082776
 40
0.4523125795611071
 40
0.5242542460843027
 40
0.5242542460843027
 40
0.5242542460843027
 40
0.5242542460843027
 10
1327.220342451391
 20
283.4371806119563
 30
0.0
 10
1327.18359414432
 20
283.4595517202025
 30
0.0
 10
1327.128896939332
 20
283.4928495015443
 30
0.0
 10
1327.055916160291
 20
283.4949329753574
 30
0.0
 10
1327.013857016873
 20
283.495031695409
 30
0.0
 10
1326.98249498547
 20
283.4747419209435
 30
0.0
 10
1326.942278531369
 20
283.4727015528571
 30
0.0
 10
1326.899436438654
 20
283.4594688815198
 30
0.0
 10
1326.861726588816
 20
283.4235596768156
 30
0.0
 10
1326.818311911276
 20
283.3651906451778
 30
0.0
 10
1326.847687133744
 20
283.3209863260456
 30
0.0
 10
1326.862299387586
 20
283.2989975655253
 30
0.0
 11
1327.220342451391
 21
283.4371806119563
 31
0.0
 11
1327.106432921614
 21
283.490073367569
 31
0.0
 11
1327.045278742636
 21
283.4948699825267
 31
0.0
 11
1327.015143096323
 21
283.4922459098086
 31
0.0
 11
1326.985890171515
 21
283.4795775183261
 31
0.0
 11
1326.941128212148
 21
283.4706194278544
 31
0.0
 11
1326.901830281366
 21
283.4570761697049
 31
0.0
 11
1326.868879399375
 21
283.428903781088
 31
0.0
 11
1326.833996332904
 21
283.3651378745496
 31
0.0
 11
1326.862299387586
 21
283.2989975655253
 31
0.0
  0
LINE
  5
1BB1
102
{ACAD_REACTORS
330
1BB2
102
}
330
18
100
AcDbEntity
  8
ROGO
 62
     4
100
AcDbLine
 10
1326.862299387586
 20
283.2989975655254
 30
0.0
 11
1327.505532367617
 21
282.7592610092198
 31
0.0
  0
HATCH
  5
1BB2
330
18
100
AcDbEntity
  8
ROGO
 62
     4
100
AcDbHatch
 10
0.0
 20
0.0
 30
0.0
210
0.0
220
0.0
230
1.0
  2
SOLID
 70
     1
 71
     1
 91
        1
 92
        5
 93
        8
 72
     1
 10
1327.004864468227
 20
282.5415885784066
 11
1327.505532367617
 21
282.7592610092198
 72
     1
 10
1327.505532367617
 20
282.7592610092198
 11
1326.862299387586
 21
283.2989975655254
 72
     4
 94
        3
 73
     0
 74
     0
 95
       16
 96
       12
 40
0.0
 40
0.0
 40
0.0
 40
0.0
 40
0.0719416665231652
 40
0.1446253590759511
 40
0.1879779149910863
 40
0.229544093610429
 40
0.2751936323958108
 40
0.3070718656052417
 40
0.3373215422371831
 40
0.3986635435213285
 40
0.5242542460842448
 40
0.5242542460842448
 40
0.5242542460842448
 40
0.5242542460842448
 10
1326.862299387586
 20
283.2989975655253
 10
1326.847687133744
 20
283.3209863260456
 10
1326.818311911277
 20
283.3651906451777
 10
1326.861726588816
 20
283.4235596768157
 10
1326.899436438654
 20
283.4594688815197
 10
1326.942278531369
 20
283.4727015528572
 10
1326.982494985469
 20
283.4747419209434
 10
1327.013857016873
 20
283.495031695409
 10
1327.055916160291
 20
283.4949329753574
 10
1327.128896939332
 20
283.4928495015442
 10
1327.18359414432
 20
283.4595517202024
 10
1327.220342451391
 20
283.4371806119563
 72
     1
 10
1327.220342451391
 20
283.4371806119564
 11
1327.849852436563
 21
282.908959015576
 72
     1
 10
1327.849852436563
 20
282.908959015576
 11
1328.350525637946
 21
283.1266337515054
 72
     1
 10
1328.350525637946
 20
283.1266337515054
 11
1327.343149355576
 21
283.9719228184988
 72
     4
 94
        3
 73
     0
 74
     0
 95
       26
 96
       22
 40
0.0
 40
0.0
 40
0.0
 40
0.0
 40
0.2382195346591896
 40
0.397689067266058
 40
0.5126795869787176
 40
0.5985392873135238
 40
0.7099038249250041
 40
0.7911890807494602
 40
0.9379713068544059
 40
1.057449928673177
 40
1.138714535893296
 40
1.218398644003487
 40
1.36093802187034
 40
1.461730374800238
 40
1.51601484410804
 40
1.593124329220486
 40
1.648806818593696
 40
1.729472362005543
 40
1.775122082164332
 40
1.874460993765135
 40
1.919820003751196
 40
1.919820003751196
 40
1.919820003751196
 40
1.919820003751196
 10
1327.343149355576
 20
283.9719228184988
 10
1327.27810974383
 20
284.0202002854734
 10
1327.169531148177
 20
284.1007957783601
 10
1326.99812259958
 20
284.127091625233
 10
1326.881295097833
 20
284.1567930158715
 10
1326.776231778963
 20
284.1520648021885
 10
1326.685502119853
 20
284.1322507405489
 10
1326.574389391637
 20
284.1111672860644
 10
1326.464135359756
 20
284.0705625977429
 10
1326.369123844301
 20
284.0035665942967
 10
1326.291377846642
 20
283.9518664365358
 10
1326.2122569605
 20
283.8879459446472
 10
1326.146740665521
 20
283.8021391405277
 10
1326.087807561412
 20
283.72083923366
 10
1326.066176929077
 20
283.6456530992401
 10
1326.061163075042
 20
283.5834111443411
 10
1326.059051392199
 20
283.5119967641148
 10
1326.072306012112
 20
283.4524037728837
 10
1326.059771622421
 20
283.3751128202704
 10
1326.107998595346
 20
283.323440580258
 10
1326.131179400708
 20
283.2816882711942
 10
1326.138445976276
 20
283.2686000154474
 72
     1
 10
1326.138445976276
 20
283.2686000154476
 11
1327.004864468227
 21
282.5415885784066
 97
        8
330
1BAF
330
1BCB
330
1BAE
330
1BDA
330
1BB1
330
1BB0
330
1BDB
330
1BDC
 75
     0
 76
     1
 47
0.0514683685270805
 98
        1
 10
1327.362425501092
 20
283.6418743820788
450
        0
451
        0
460
0.0
461
0.0
452
        0
462
0.0
453
        0
470

  0
LINE
  5
1BB3
102
{ACAD_REACTORS
330
1BB7
102
}
330
18
100
AcDbEntity
  8
ROGO
 62
     4
100
AcDbLine
 10
1323.621111901118
 20
286.0186767899971
 30
0.0
 11
1324.264344881149
 21
285.4789402336916
 31
0.0
  0
SPLINE
  5
1BB4
102
{ACAD_REACTORS
330
1BB7
102
}
330
18
100
AcDbEntity
  8
ROGO
 62
     4
100
AcDbSpline
210
0.0
220
0.0
230
1.0
 70
     8
 71
     3
 72
    16
 73
    12
 74
    10
 42
0.0000000001
 43
0.0000000001
 44
0.0000000001
 40
0.0
 40
0.0
 40
0.0
 40
0.0
 40
0.1255907025629507
 40
0.1869327038470348
 40
0.2171823804789562
 40
0.2490606136882296
 40
0.2947101524736974
 40
0.3362763310930035
 40
0.3796288870082545
 40
0.4523125795610247
 40
0.5242542460842202
 40
0.5242542460842202
 40
0.5242542460842202
 40
0.5242542460842202
 10
1323.979154964923
 20
286.156859836428
 30
0.0
 10
1323.942406657852
 20
286.1792309446741
 30
0.0
 10
1323.887709452864
 20
286.2125287260158
 30
0.0
 10
1323.814728673823
 20
286.2146121998291
 30
0.0
 10
1323.772669530405
 20
286.2147109198808
 30
0.0
 10
1323.741307499002
 20
286.1944211454149
 30
0.0
 10
1323.701091044901
 20
286.192380777329
 30
0.0
 10
1323.658248952186
 20
286.1791481059912
 30
0.0
 10
1323.620539102348
 20
286.1432389012876
 30
0.0
 10
1323.577124424809
 20
286.0848698696494
 30
0.0
 10
1323.606499647276
 20
286.0406655505173
 30
0.0
 10
1323.621111901118
 20
286.018676789997
 30
0.0
 11
1323.979154964923
 21
286.156859836428
 31
0.0
 11
1323.865245435146
 21
286.2097525920407
 31
0.0
 11
1323.804091256168
 21
286.2145492069984
 31
0.0
 11
1323.773955609855
 21
286.2119251342802
 31
0.0
 11
1323.744702685047
 21
286.1992567427977
 31
0.0
 11
1323.69994072568
 21
286.1902986523262
 31
0.0
 11
1323.660642794898
 21
286.1767553941766
 31
0.0
 11
1323.627691912907
 21
286.1485830055598
 31
0.0
 11
1323.592808846436
 21
286.0848170990213
 31
0.0
 11
1323.621111901118
 21
286.018676789997
 31
0.0
  0
LINE
  5
1BB5
102
{ACAD_REACTORS
330
1BB7
102
}
330
18
100
AcDbEntity
  8
ROGO
 62
     4
100
AcDbLine
 10
1324.101961869108
 20
286.6916020429702
 30
0.0
 11
1325.109338151478
 21
285.8463129759771
 31
0.0
  0
LINE
  5
1BB6
102
{ACAD_REACTORS
330
1BB7
102
}
330
18
100
AcDbEntity
  8
ROGO
 62
     4
100
AcDbLine
 10
1322.897258489808
 20
285.9882792399192
 30
0.0
 11
1323.763676981759
 21
285.2612678028783
 31
0.0
  0
HATCH
  5
1BB7
330
18
100
AcDbEntity
  8
ROGO
 62
     4
100
AcDbHatch
 10
0.0
 20
0.0
 30
0.0
210
0.0
220
0.0
230
1.0
  2
SOLID
 70
     1
 71
     1
 91
        1
 92
        5
 93
        8
 72
     1
 10
1323.763676981759
 20
285.2612678028783
 11
1324.264344881149
 21
285.4789402336916
 72
     1
 10
1324.264344881149
 20
285.4789402336916
 11
1323.621111901118
 21
286.0186767899971
 72
     4
 94
        3
 73
     0
 74
     0
 95
       16
 96
       12
 40
0.0
 40
0.0
 40
0.0
 40
0.0
 40
0.0719416665231651
 40
0.1446253590759065
 40
0.1879779149910977
 40
0.2295440936104405
 40
0.2751936323958134
 40
0.3070718656052443
 40
0.3373215422372259
 40
0.3986635435212919
 40
0.5242542460842631
 40
0.5242542460842631
 40
0.5242542460842631
 40
0.5242542460842631
 10
1323.621111901118
 20
286.018676789997
 10
1323.606499647276
 20
286.0406655505173
 10
1323.577124424809
 20
286.0848698696494
 10
1323.620539102348
 20
286.1432389012875
 10
1323.658248952186
 20
286.1791481059914
 10
1323.701091044901
 20
286.192380777329
 10
1323.741307499002
 20
286.1944211454151
 10
1323.772669530405
 20
286.2147109198808
 10
1323.814728673823
 20
286.2146121998291
 10
1323.887709452864
 20
286.2125287260159
 10
1323.942406657852
 20
286.1792309446741
 10
1323.979154964923
 20
286.156859836428
 72
     1
 10
1323.979154964923
 20
286.156859836428
 11
1324.608664950095
 21
285.6286382400477
 72
     1
 10
1324.608664950095
 20
285.6286382400477
 11
1325.109338151478
 21
285.8463129759771
 72
     1
 10
1325.109338151478
 20
285.8463129759771
 11
1324.101961869108
 21
286.6916020429703
 72
     4
 94
        3
 73
     0
 74
     0
 95
       26
 96
       22
 40
0.0
 40
0.0
 40
0.0
 40
0.0
 40
0.2382195346591896
 40
0.397689067266058
 40
0.5126795869787669
 40
0.5985392873135731
 40
0.7099038249249733
 40
0.7911890807494741
 40
0.9379713068543702
 40
1.057449928673087
 40
1.138714535893316
 40
1.218398644003506
 40
1.36093802187036
 40
1.461730374800257
 40
1.516014844108008
 40
1.593124329220501
 40
1.648806818593631
 40
1.729472362005518
 40
1.775122082164342
 40
1.874460993765092
 40
1.919820003751207
 40
1.919820003751207
 40
1.919820003751207
 40
1.919820003751207
 10
1324.101961869108
 20
286.6916020429704
 10
1324.036922257362
 20
286.7398795099451
 10
1323.928343661709
 20
286.8204750028318
 10
1323.756935113112
 20
286.8467708497046
 10
1323.640107611365
 20
286.8764722403432
 10
1323.535044292495
 20
286.8717440266602
 10
1323.444314633385
 20
286.8519299650207
 10
1323.33320190517
 20
286.8308465105361
 10
1323.222947873288
 20
286.7902418222146
 10
1323.127936357833
 20
286.7232458187684
 10
1323.050190360174
 20
286.6715456610074
 10
1322.971069474031
 20
286.6076251691189
 10
1322.905553179053
 20
286.5218183649994
 10
1322.846620074944
 20
286.4405184581317
 10
1322.824989442609
 20
286.3653323237118
 10
1322.819975588575
 20
286.3030903688128
 10
1322.817863905731
 20
286.2316759885864
 10
1322.831118525644
 20
286.1720829973555
 10
1322.818584135953
 20
286.0947920447421
 10
1322.866811108879
 20
286.0431198047296
 10
1322.88999191424
 20
286.0013674956659
 10
1322.897258489808
 20
285.9882792399191
 72
     1
 10
1322.897258489808
 20
285.9882792399191
 11
1323.763676981759
 21
285.2612678028783
 97
        8
330
1BB5
330
1BC7
330
1BB6
330
1BCA
330
1BB3
330
1BB4
330
1BC9
330
1BC8
 75
     0
 76
     1
 47
0.0514683685270805
 98
        1
 10
1324.266378042324
 20
286.1720419327213
450
        0
451
        0
460
0.0
461
0.0
452
        0
462
0.0
453
        0
470

  0
LINE
  5
1BB8
102
{ACAD_REACTORS
330
1B51
102
}
330
18
100
AcDbEntity
  8
ROGO
 62
     4
100
AcDbLine
 10
1321.820193302617
 20
288.6062332055445
 30
0.0
 11
1321.512827682895
 21
288.4714740285564
 31
0.0
  0
LINE
  5
1BB9
102
{ACAD_REACTORS
330
1B51
102
}
330
18
100
AcDbEntity
  8
ROGO
 62
     4
100
AcDbLine
 10
1321.272505963281
 20
288.3661090980973
 30
0.0
 11
1321.026078553157
 21
288.2580672324987
 31
0.0
  0
LINE
  5
1BBA
102
{ACAD_REACTORS
330
1B51
102
}
330
18
100
AcDbEntity
  8
ROGO
 62
     4
100
AcDbLine
 10
1320.785746659476
 20
288.152697841395
 30
0.0
 11
1320.478396500587
 21
288.0179454429435
 31
0.0
  0
LINE
  5
1BBB
102
{ACAD_REACTORS
330
1BC6
102
}
330
18
100
AcDbEntity
  8
ROGO
 62
     4
100
AcDbLine
 10
1322.214318775488
 20
288.2755226666207
 30
0.0
 11
1320.644851702833
 21
287.8782729441317
 31
0.0
  0
LINE
  5
1BBC
102
{ACAD_REACTORS
330
1BC6
102
}
330
18
100
AcDbEntity
  8
ROGO
 62
     4
100
AcDbLine
 10
1322.351897564116
 20
287.7018706786918
 30
0.0
 11
1321.815943349653
 21
287.5662146546365
 31
0.0
  0
LINE
  5
1BBD
102
{ACAD_REACTORS
330
1BC6
102
}
330
18
100
AcDbEntity
  8
ROGO
 62
     4
100
AcDbLine
 10
1321.500772238795
 20
287.4864413108651
 30
0.0
 11
1322.136494894526
 21
286.9530066649105
 31
0.0
  0
LINE
  5
1BBE
102
{ACAD_REACTORS
330
1BC6
102
}
330
18
100
AcDbEntity
  8
ROGO
 62
     4
100
AcDbLine
 10
1321.815943349653
 20
287.5662146546366
 30
0.0
 11
1322.216258351959
 21
287.2303104838474
 31
0.0
  0
LINE
  5
1BBF
102
{ACAD_REACTORS
330
1BC6
102
}
330
18
100
AcDbEntity
  8
ROGO
 62
     4
100
AcDbLine
 10
1321.500772238795
 20
287.4864413108651
 30
0.0
 11
1321.201955418765
 21
287.4108074215658
 31
0.0
  0
LINE
  5
1BC0
102
{ACAD_REACTORS
330
1BC6
102
}
330
18
100
AcDbEntity
  8
ROGO
 62
     4
100
AcDbLine
 10
1320.644851702833
 20
287.8782729441317
 30
0.0
 11
1321.201955418765
 21
287.4108074215658
 31
0.0
  0
LINE
  5
1BC1
102
{ACAD_REACTORS
330
1BC6
102
}
330
18
100
AcDbEntity
  8
ROGO
 62
     4
100
AcDbLine
 10
1322.214318775488
 20
288.2755226666207
 30
0.0
 11
1323.018974526499
 21
287.6003363227235
 31
0.0
  0
LINE
  5
1BC2
102
{ACAD_REACTORS
330
1BC6
102
}
330
18
100
AcDbEntity
  8
ROGO
 62
     4
100
AcDbLine
 10
1322.621774035306
 20
286.2194381440876
 30
0.0
 11
1322.060870378561
 21
286.6900921955884
 31
0.0
  0
LINE
  5
1BC3
102
{ACAD_REACTORS
330
1BC6
102
}
330
18
100
AcDbEntity
  8
ROGO
 62
     4
100
AcDbLine
 10
1323.018974526499
 20
287.6003363227235
 30
0.0
 11
1322.621774035306
 21
286.2194381440876
 31
0.0
  0
LINE
  5
1BC4
102
{ACAD_REACTORS
330
1BC6
102
}
330
18
100
AcDbEntity
  8
ROGO
 62
     4
100
AcDbLine
 10
1322.351897564116
 20
287.7018706786916
 30
0.0
 11
1322.216258351959
 21
287.2303104838472
 31
0.0
  0
LINE
  5
1BC5
102
{ACAD_REACTORS
330
1BC6
102
}
330
18
100
AcDbEntity
  8
ROGO
 62
     4
100
AcDbLine
 10
1322.136494894526
 20
286.9530066649105
 30
0.0
 11
1322.060870378561
 21
286.6900921955884
 31
0.0
  0
HATCH
  5
1BC6
330
18
100
AcDbEntity
  8
ROGO
 62
     4
100
AcDbHatch
 10
0.0
 20
0.0
 30
0.0
210
0.0
220
0.0
230
1.0
  2
SOLID
 70
     1
 71
     1
 91
        2
 92
        7
 72
     0
 73
     1
 93
        8
 10
1322.621774035306
 20
286.2194381440877
 10
1323.018974526499
 20
287.6003363227236
 10
1322.214318775488
 20
288.2755226666207
 10
1320.644851702833
 20
287.8782729441317
 10
1321.201955418765
 20
287.4108074215658
 10
1321.500772238795
 20
287.4864413108651
 10
1322.136494894526
 20
286.9530066649105
 10
1322.060870378561
 20
286.6900921955884
 97
        8
330
1BC1
330
1BBB
330
1BC0
330
1BBF
330
1BBD
330
1BC5
330
1BC2
330
1BC3
 92
       22
 72
     0
 73
     1
 93
        3
 10
1322.216258351959
 20
287.2303104838474
 10
1321.815943349654
 20
287.5662146546366
 10
1322.351897564116
 20
287.7018706786918
 97
        3
330
1BBE
330
1BBC
330
1BC4
 75
     0
 76
     1
 47
0.0128389261915577
 98
        2
 10
1322.753458582526
 20
287.4118726387347
 10
1322.753458582526
 20
287.4118726387347
450
        0
451
        0
460
0.0
461
0.0
452
        0
462
0.0
453
        0
470

  0
SPLINE
  5
1BC7
102
{ACAD_REACTORS
330
1BB7
102
}
330
18
100
AcDbEntity
  8
ROGO
 62
     4
100
AcDbSpline
210
0.0
220
0.0
230
1.0
 70
     8
 71
     3
 72
    26
 73
    22
 74
    20
 42
0.0000000001
 43
0.0000000001
 44
0.0000000001
 40
0.0
 40
0.0
 40
0.0
 40
0.0
 40
0.2382195346591627
 40
0.3976890672662006
 40
0.5126795869788098
 40
0.5985392873136383
 40
0.7099038249250707
 40
0.791189080749589
 40
0.9379713068544063
 40
1.057449928673134
 40
1.138714535893408
 40
1.218398644003538
 40
1.360938021870399
 40
1.461730374800344
 40
1.516014844108059
 40
1.593124329220532
 40
1.648806818593677
 40
1.729472362005539
 40
1.775122082164458
 40
1.874460993765282
 40
1.919820003751328
 40
1.919820003751328
 40
1.919820003751328
 40
1.919820003751328
 10
1324.101961869108
 20
286.6916020429704
 30
0.0
 10
1324.036922257362
 20
286.7398795099451
 30
0.0
 10
1323.928343661709
 20
286.8204750028318
 30
0.0
 10
1323.756935113112
 20
286.8467708497045
 30
0.0
 10
1323.640107611364
 20
286.8764722403433
 30
0.0
 10
1323.535044292495
 20
286.8717440266601
 30
0.0
 10
1323.444314633385
 20
286.8519299650206
 30
0.0
 10
1323.33320190517
 20
286.830846510536
 30
0.0
 10
1323.222947873288
 20
286.7902418222145
 30
0.0
 10
1323.127936357833
 20
286.7232458187684
 30
0.0
 10
1323.050190360174
 20
286.6715456610075
 30
0.0
 10
1322.971069474031
 20
286.6076251691189
 30
0.0
 10
1322.905553179053
 20
286.5218183649995
 30
0.0
 10
1322.846620074944
 20
286.4405184581317
 30
0.0
 10
1322.824989442609
 20
286.3653323237118
 30
0.0
 10
1322.819975588574
 20
286.3030903688128
 30
0.0
 10
1322.817863905731
 20
286.2316759885865
 30
0.0
 10
1322.831118525644
 20
286.1720829973553
 30
0.0
 10
1322.818584135953
 20
286.094792044742
 30
0.0
 10
1322.866811108879
 20
286.0431198047298
 30
0.0
 10
1322.88999191424
 20
286.0013674956659
 30
0.0
 10
1322.897258489808
 20
285.9882792399191
 30
0.0
 11
1324.101961869108
 21
286.6916020429704
 31
0.0
 11
1323.898093684359
 21
286.8148347899999
 31
0.0
 11
1323.743000423637
 21
286.8519375164279
 31
0.0
 11
1323.6298542008
 21
286.8724497537873
 31
0.0
 11
1323.544028404094
 21
286.8700371283491
 31
0.0
 11
1323.434414009866
 21
286.8503712997256
 31
0.0
 11
1323.354935261951
 21
286.8333295438202
 31
0.0
 11
1323.217833700123
 21
286.7809064225435
 31
0.0
 11
1323.117215312439
 21
286.716477538247
 31
0.0
 11
1323.050430677602
 21
286.6701769017902
 31
0.0
 11
1322.989109906504
 21
286.6192915392849
 31
0.0
 11
1322.897487360519
 21
286.5101000409443
 31
0.0
 11
1322.844279874461
 21
286.4244959415302
 31
0.0
 11
1322.828604098432
 21
286.3725240870905
 31
0.0
 11
1322.820158406894
 21
286.2958785197772
 31
0.0
 11
1322.81999212897
 21
286.2401962786726
 31
0.0
 11
1322.827055621342
 21
286.1598405883361
 31
0.0
 11
1322.826006307717
 21
286.1142029296374
 31
0.0
 11
1322.874134116469
 21
286.0273010689969
 31
0.0
 11
1322.897258489808
 21
285.9882792399191
 31
0.0
  0
LINE
  5
1BC8
102
{ACAD_REACTORS
330
1BB7
102
}
330
18
100
AcDbEntity
  8
ROGO
 62
     4
100
AcDbLine
 10
1325.109338151478
 20
285.8463129759771
 30
0.0
 11
1324.608664950095
 21
285.6286382400477
 31
0.0
  0
LINE
  5
1BC9
102
{ACAD_REACTORS
330
1BB7
102
}
330
18
100
AcDbEntity
  8
ROGO
 62
     4
100
AcDbLine
 10
1323.979154964923
 20
286.1568598364281
 30
0.0
 11
1324.608664950095
 21
285.6286382400477
 31
0.0
  0
LINE
  5
1BCA
102
{ACAD_REACTORS
330
1BB7
102
}
330
18
100
AcDbEntity
  8
ROGO
 62
     4
100
AcDbLine
 10
1324.264344881149
 20
285.4789402336916
 30
0.0
 11
1323.763676981759
 21
285.2612678028783
 31
0.0
  0
SPLINE
  5
1BCB
102
{ACAD_REACTORS
330
1BB2
102
}
330
18
100
AcDbEntity
  8
ROGO
 62
     4
100
AcDbSpline
210
0.0
220
0.0
230
1.0
 70
     8
 71
     3
 72
    26
 73
    22
 74
    20
 42
0.0000000001
 43
0.0000000001
 44
0.0000000001
 40
0.0
 40
0.0
 40
0.0
 40
0.0
 40
0.2382195346591627
 40
0.3976890672661874
 40
0.5126795869785728
 40
0.5985392873134029
 40
0.7099038249250591
 40
0.7911890807495653
 40
0.9379713068543624
 40
1.057449928673121
 40
1.138714535893363
 40
1.218398644003529
 40
1.36093802187039
 40
1.461730374800287
 40
1.516014844108055
 40
1.593124329220529
 40
1.64880681859373
 40
1.729472362005593
 40
1.775122082164393
 40
1.874460993765206
 40
1.919820003751203
 40
1.919820003751203
 40
1.919820003751203
 40
1.919820003751203
 10
1327.343149355576
 20
283.9719228184988
 30
0.0
 10
1327.27810974383
 20
284.0202002854734
 30
0.0
 10
1327.169531148177
 20
284.1007957783603
 30
0.0
 10
1326.99812259958
 20
284.1270916252327
 30
0.0
 10
1326.881295097833
 20
284.1567930158717
 30
0.0
 10
1326.776231778963
 20
284.1520648021884
 30
0.0
 10
1326.685502119853
 20
284.1322507405489
 30
0.0
 10
1326.574389391637
 20
284.1111672860644
 30
0.0
 10
1326.464135359756
 20
284.0705625977429
 30
0.0
 10
1326.369123844301
 20
284.0035665942967
 30
0.0
 10
1326.291377846642
 20
283.9518664365359
 30
0.0
 10
1326.2122569605
 20
283.8879459446472
 30
0.0
 10
1326.14674066552
 20
283.8021391405277
 30
0.0
 10
1326.087807561413
 20
283.72083923366
 30
0.0
 10
1326.066176929076
 20
283.6456530992401
 30
0.0
 10
1326.061163075042
 20
283.5834111443411
 30
0.0
 10
1326.059051392199
 20
283.5119967641147
 30
0.0
 10
1326.072306012112
 20
283.4524037728837
 30
0.0
 10
1326.059771622421
 20
283.3751128202703
 30
0.0
 10
1326.107998595347
 20
283.3234405802579
 30
0.0
 10
1326.131179400708
 20
283.2816882711942
 30
0.0
 10
1326.138445976276
 20
283.2686000154474
 30
0.0
 11
1327.343149355576
 21
283.9719228184988
 31
0.0
 11
1327.139281170827
 21
284.0951555655282
 31
0.0
 11
1326.984187910104
 21
284.1322582919562
 31
0.0
 11
1326.871041687267
 21
284.1527705293156
 31
0.0
 11
1326.785215890562
 21
284.1503579038773
 31
0.0
 11
1326.675601496334
 21
284.1306920752538
 31
0.0
 11
1326.596122748419
 21
284.1136503193485
 31
0.0
 11
1326.459021186591
 21
284.0612271980718
 31
0.0
 11
1326.358402798907
 21
283.9967983137753
 31
0.0
 11
1326.29161816407
 21
283.9504976773186
 31
0.0
 11
1326.230297392972
 21
283.8996123148131
 31
0.0
 11
1326.138674846987
 21
283.7904208164726
 31
0.0
 11
1326.085467360928
 21
283.7048167170586
 31
0.0
 11
1326.069791584899
 21
283.6528448626188
 31
0.0
 11
1326.061345893362
 21
283.5761992953056
 31
0.0
 11
1326.061179615438
 21
283.5205170542008
 31
0.0
 11
1326.06824310781
 21
283.4401613638643
 31
0.0
 11
1326.067193794185
 21
283.3945237051657
 31
0.0
 11
1326.115321602937
 21
283.3076218445251
 31
0.0
 11
1326.138445976276
 21
283.2686000154474
 31
0.0
  0
SPLINE
  5
1BCC
102
{ACAD_REACTORS
330
1BD3
102
}
330
18
100
AcDbEntity
  8
ROGO
 62
     4
100
AcDbSpline
210
0.0
220
0.0
230
1.0
 70
     8
 71
     3
 72
    38
 73
    34
 74
    32
 42
0.0000000001
 43
0.0000000001
 44
0.0000000001
 40
0.0
 40
0.0
 40
0.0
 40
0.0
 40
0.1807680148265375
 40
0.2375392910069956
 40
0.3104865209606906
 40
0.3712759982447546
 40
0.4225667543871908
 40
0.4906925837207448
 40
0.5255021974951683
 40
0.5647069597052027
 40
0.6224874016818679
 40
0.6879401044675317
 40
0.7303986317551221
 40
0.7765228362185935
 40
0.8277951442289925
 40
0.9056034697002319
 40
0.9795294930263702
 40
1.013897332333055
 40
1.053089255536126
 40
1.099518741889691
 40
1.132570569820743
 40
1.160277520290326
 40
1.199836786293906
 40
1.243305643169133
 40
1.286774258016986
 40
1.324809356515646
 40
1.411916492917698
 40
1.44628433222426
 40
1.515020051661279
 40
1.575779369908503
 40
1.692098529536301
 40
1.835624328519264
 40
2.042896467983895
 40
2.042896467983895
 40
2.042896467983895
 40
2.042896467983895
 10
1325.671477844298
 20
285.3817717688946
 30
0.0
 10
1325.622583429761
 20
285.4172424324963
 30
0.0
 10
1325.558333431916
 20
285.4638528701425
 30
0.0
 10
1325.463610919479
 20
285.507377539563
 30
0.0
 10
1325.400535275357
 20
285.5174679763851
 30
0.0
 10
1325.341339505286
 20
285.535652381967
 30
0.0
 10
1325.281129730411
 20
285.5395487590634
 30
0.0
 10
1325.231620626626
 20
285.5570660955652
 30
0.0
 10
1325.183904558024
 20
285.553781937949
 30
0.0
 10
1325.140336787658
 20
285.563876267159
 30
0.0
 10
1325.086853129923
 20
285.5495216672395
 30
0.0
 10
1325.032403809342
 20
285.5398296276973
 30
0.0
 10
1324.980966298864
 20
285.5425655692604
 30
0.0
 10
1324.934180943895
 20
285.5393647987367
 30
0.0
 10
1324.878175585622
 20
285.5208328911728
 30
0.0
 10
1324.821254165403
 20
285.4815310056039
 30
0.0
 10
1324.754581099427
 20
285.4825068842646
 30
0.0
 10
1324.716074868163
 20
285.4487277483972
 30
0.0
 10
1324.674967925017
 20
285.4442287581686
 30
0.0
 10
1324.640657818888
 20
285.422685529148
 30
0.0
 10
1324.614323255159
 20
285.3986690922243
 30
0.0
 10
1324.58876243947
 20
285.3770501039802
 30
0.0
 10
1324.555063896205
 20
285.3600218952653
 30
0.0
 10
1324.5312252652
 20
285.3240617071318
 30
0.0
 10
1324.503482302244
 20
285.2931498176261
 30
0.0
 10
1324.46808154711
 20
285.2496950414222
 30
0.0
 10
1324.430758194961
 20
285.2097832466413
 30
0.0
 10
1324.410528583949
 20
285.1492429825914
 30
0.0
 10
1324.387122241273
 20
285.0997894059137
 30
0.0
 10
1324.369087455637
 20
285.0192536014234
 30
0.0
 10
1324.36488551283
 20
284.9123983560507
 30
0.0
 10
1324.39427706548
 20
284.7537541804332
 30
0.0
 10
1324.479280325268
 20
284.6688361531881
 30
0.0
 10
1324.529505271273
 20
284.6186615676016
 30
0.0
 11
1325.671477844298
 21
285.3817717688946
 31
0.0
 11
1325.520035385694
 21
285.4804746407694
 31
0.0
 11
1325.467899495709
 21
285.50294299128
 31
0.0
 11
1325.396954080188
 21
285.5199149202954
 31
0.0
 11
1325.337832840659
 21
285.5340584553906
 31
0.0
 11
1325.287043196278
 21
285.5412106361258
 31
0.0
 11
1325.220263648045
 21
285.55468730338
 31
0.0
 11
1325.185463891372
 21
285.5555156430303
 31
0.0
 11
1325.146498267409
 21
285.5598392444416
 31
0.0
 11
1325.089396543785
 21
285.5510090329944
 31
0.0
 11
1325.024636511459
 21
285.5415119537062
 31
0.0
 11
1324.98217829051
 21
285.5416732401118
 31
0.0
 11
1324.936227955435
 21
285.5376721222886
 31
0.0
 11
1324.887457655244
 21
285.5218510165117
 31
0.0
 11
1324.817058674548
 21
285.4887131374364
 31
0.0
 11
1324.745312965389
 21
285.4708915173594
 31
0.0
 11
1324.716025648895
 21
285.4529081508465
 31
0.0
 11
1324.678406737252
 21
285.4419161386936
 31
0.0
 11
1324.637968032209
 21
285.4191036785567
 31
0.0
 11
1324.612846255715
 21
285.3976253249092
 31
0.0
 11
1324.591217247923
 21
285.3803088262374
 31
0.0
 11
1324.558437490014
 21
285.3581633301224
 31
0.0
 11
1324.530496247408
 21
285.3248642538645
 31
0.0
 11
1324.502555160373
 21
285.2915653630101
 31
0.0
 11
1324.478106670325
 21
285.2624287871618
 31
0.0
 11
1324.426390207973
 21
285.1923355582883
 31
0.0
 11
1324.413765738344
 21
285.1603704031159
 31
0.0
 11
1324.388517609232
 21
285.0964397289221
 31
0.0
 11
1324.374420058522
 21
285.0373385122015
 31
0.0
 11
1324.36920084893
 21
284.9211365038379
 31
0.0
 11
1324.400800429057
 21
284.7811324985043
 31
0.0
 11
1324.529505271273
 21
284.6186615676016
 31
0.0
  0
SPLINE
  5
1BCD
102
{ACAD_REACTORS
330
1BD3
102
}
330
18
100
AcDbEntity
  8
ROGO
 62
     4
100
AcDbSpline
210
0.0
220
0.0
230
1.0
 70
     8
 71
     3
 72
    25
 73
    21
 74
     0
 42
0.0000000001
 43
0.0000000001
 40
0.0
 40
0.0
 40
0.0
 40
0.0
 40
0.4087168505087288
 40
0.6887487002771746
 40
0.9415836120477687
 40
1.17452070575514
 40
1.41154617586699
 40
1.599156012919487
 40
1.80099909059943
 40
2.178735911501585
 40
2.521686161369157
 40
2.762704659361267
 40
3.06256558063785
 40
3.222432137207705
 40
3.399493810628493
 40
3.567459719866414
 40
3.743172740007509
 40
3.995988754699505
 40
4.17170091132118
 40
4.337226830236035
 40
4.337226830236035
 40
4.337226830236035
 40
4.337226830236035
 10
1326.246358825366
 20
284.8993893497091
 30
0.0
 10
1326.283047073936
 20
284.8665398965421
 30
0.0
 10
1326.344872231099
 20
284.8111836807527
 30
0.0
 10
1326.368348480917
 20
284.700624910122
 30
0.0
 10
1326.383452708712
 20
284.6126211743056
 30
0.0
 10
1326.375659409727
 20
284.52809034729
 30
0.0
 10
1326.366903747652
 20
284.4517030395998
 30
0.0
 10
1326.344772070024
 20
284.3818696937852
 30
0.0
 10
1326.321646080682
 20
284.2951979651114
 30
0.0
 10
1326.263815323725
 20
284.2018088164233
 30
0.0
 10
1326.183448131998
 20
284.1225627380488
 30
0.0
 10
1326.098183206003
 20
284.06408826423
 30
0.0
 10
1326.02678504283
 20
284.0242499614047
 30
0.0
 10
1325.957764501175
 20
283.9953278365862
 30
0.0
 10
1325.898770927259
 20
283.9886022057419
 30
0.0
 10
1325.841848251497
 20
283.9648737708964
 30
0.0
 10
1325.771333425732
 20
283.9655659284235
 30
0.0
 10
1325.701984431935
 20
283.9516044714953
 30
0.0
 10
1325.633110589903
 20
283.9474675104129
 30
0.0
 10
1325.592657430697
 20
283.9432023091691
 30
0.0
 10
1325.573338370734
 20
283.9433476120047
 30
0.0
  0
LINE
  5
1BCE
102
{ACAD_REACTORS
330
1BD3
102
}
330
18
100
AcDbEntity
  8
ROGO
 62
     4
100
AcDbLine
 10
1325.671477844298
 20
285.3817717688946
 30
0.0
 11
1326.246358825366
 21
284.8993893497091
 31
0.0
  0
LINE
  5
1BCF
102
{ACAD_REACTORS
330
1BD3
102
}
330
18
100
AcDbEntity
  8
ROGO
 62
     4
100
AcDbLine
 10
1324.529505271273
 20
284.6186615676016
 30
0.0
 11
1325.104386252342
 21
284.1362791484162
 31
0.0
  0
SPLINE
  5
1BD0
102
{ACAD_REACTORS
330
1BD3
102
}
330
18
100
AcDbEntity
  8
ROGO
 62
     4
100
AcDbSpline
210
0.0
220
0.0
230
1.0
 70
     8
 71
     3
 72
    11
 73
     7
 74
     0
 42
0.0000000001
 43
0.0000000001
 40
0.1647869275458134
 40
0.1647869275458134
 40
0.1647869275458134
 40
0.1647869275458134
 40
0.2895635144633836
 40
0.5387013147903714
 40
0.7953622617455423
 40
0.8850764140209602
 40
0.8850764140209602
 40
0.8850764140209602
 40
0.8850764140209602
 10
1325.314729274527
 20
283.9979980832798
 30
0.0
 10
1325.301520046152
 20
284.0040026900076
 30
0.0
 10
1325.263865936305
 20
284.0265549134906
 30
0.0
 10
1325.202061000476
 20
284.0659978633961
 30
0.0
 10
1325.142749327497
 20
284.102808100934
 30
0.0
 10
1325.112278468796
 20
284.1293933408888
 30
0.0
 10
1325.104386252342
 20
284.1362791484162
 30
0.0
  0
SPLINE
  5
1BD1
102
{ACAD_REACTORS
330
1BD3
102
}
330
18
100
AcDbEntity
  8
ROGO
 62
     4
100
AcDbSpline
210
0.0
220
0.0
230
1.0
 70
     8
 71
     3
 72
     9
 73
     5
 74
     3
 42
0.0000000001
 43
0.0000000001
 44
0.0000000001
 40
0.0
 40
0.0
 40
0.0
 40
0.0
 40
0.1135793343551931
 40
0.2662938392177192
 40
0.2662938392177192
 40
0.2662938392177192
 40
0.2662938392177192
 10
1325.314729274527
 20
283.9979980832798
 30
0.0
 10
1325.349853395434
 20
283.9830968460224
 30
0.0
 10
1325.432204089408
 20
283.9481599651107
 30
0.0
 10
1325.521899653113
 20
283.9451015535006
 30
0.0
 10
1325.573338370734
 20
283.9433476120047
 30
0.0
 11
1325.314729274527
 21
283.9979980832798
 31
0.0
 11
1325.421437803497
 21
283.9590936485994
 31
0.0
 11
1325.573338370734
 21
283.9433476120047
 31
0.0
  0
ELLIPSE
  5
1BD2
102
{ACAD_REACTORS
330
1BD3
102
}
330
18
100
AcDbEntity
  8
ROGO
 62
     4
100
AcDbEllipse
 10
1325.367974052241
 20
284.7517724006761
 30
0.0
 11
0.2373496685879279
 21
0.0055005503797906
 31
0.0
210
0.0
220
0.0
230
0.9999999999999998
 40
0.6788083417438791
 41
0.0
 42
6.283185307179586
  0
HATCH
  5
1BD3
330
18
100
AcDbEntity
  8
ROGO
 62
     4
100
AcDbHatch
 10
0.0
 20
0.0
 30
0.0
210
0.0
220
0.0
230
1.0
  2
SOLID
 70
     1
 71
     1
 91
        2
 92
        5
 93
        6
 72
     1
 10
1324.529505271273
 20
284.6186615676016
 11
1325.104386252342
 21
284.1362791484161
 72
     4
 94
        3
 73
     0
 74
     0
 95
       11
 96
        7
 40
0.1647869275458135
 40
0.1647869275458135
 40
0.1647869275458135
 40
0.1647869275458135
 40
0.2545010798212315
 40
0.5111620267764023
 40
0.7602998271033902
 40
0.8850764140209603
 40
0.8850764140209603
 40
0.8850764140209603
 40
0.8850764140209603
 10
1325.104386252342
 20
284.1362791484162
 10
1325.112278468796
 20
284.1293933408888
 10
1325.142749327497
 20
284.102808100934
 10
1325.202061000476
 20
284.0659978633961
 10
1325.263865936305
 20
284.0265549134906
 10
1325.301520046152
 20
284.0040026900076
 10
1325.314729274527
 20
283.9979980832798
 72
     4
 94
        3
 73
     0
 74
     0
 95
        9
 96
        5
 40
0.0
 40
0.0
 40
0.0
 40
0.0
 40
0.1135793343552172
 40
0.2662938392177403
 40
0.2662938392177403
 40
0.2662938392177403
 40
0.2662938392177403
 10
1325.314729274527
 20
283.9979980832798
 10
1325.349853395434
 20
283.9830968460224
 10
1325.432204089409
 20
283.9481599651109
 10
1325.521899653113
 20
283.9451015535006
 10
1325.573338370734
 20
283.9433476120047
 72
     4
 94
        3
 73
     0
 74
     0
 95
       25
 96
       21
 40
0.0
 40
0.0
 40
0.0
 40
0.0
 40
0.165525918914855
 40
0.3412380755365305
 40
0.5940540902285263
 40
0.7697671103696209
 40
0.9377330196075423
 40
1.11479469302833
 40
1.274661249598185
 40
1.574522170874768
 40
1.815540668866877
 40
2.15849091873445
 40
2.536227739636605
 40
2.738070817316548
 40
2.925680654369045
 40
3.162706124480894
 40
3.395643218188267
 40
3.648478129958861
 40
3.928509979727306
 40
4.337226830236035
 40
4.337226830236035
 40
4.337226830236035
 40
4.337226830236035
 10
1325.573338370734
 20
283.9433476120047
 10
1325.592657430697
 20
283.9432023091691
 10
1325.633110589903
 20
283.9474675104129
 10
1325.701984431935
 20
283.9516044714953
 10
1325.771333425732
 20
283.9655659284235
 10
1325.841848251497
 20
283.9648737708964
 10
1325.898770927259
 20
283.9886022057419
 10
1325.957764501175
 20
283.9953278365862
 10
1326.02678504283
 20
284.0242499614047
 10
1326.098183206003
 20
284.06408826423
 10
1326.183448131998
 20
284.1225627380488
 10
1326.263815323725
 20
284.2018088164233
 10
1326.321646080682
 20
284.2951979651114
 10
1326.344772070024
 20
284.3818696937852
 10
1326.366903747652
 20
284.4517030395998
 10
1326.375659409727
 20
284.52809034729
 10
1326.383452708712
 20
284.6126211743056
 10
1326.368348480917
 20
284.700624910122
 10
1326.344872231099
 20
284.8111836807527
 10
1326.283047073936
 20
284.8665398965421
 10
1326.246358825366
 20
284.8993893497091
 72
     1
 10
1326.246358825366
 20
284.8993893497091
 11
1325.671477844298
 21
285.3817717688946
 72
     4
 94
        3
 73
     0
 74
     0
 95
       38
 96
       34
 40
0.0
 40
0.0
 40
0.0
 40
0.0
 40
0.1807680148264315
 40
0.2375392910068956
 40
0.3104865209606157
 40
0.3712759982447458
 40
0.422566754387306
 40
0.490692583720658
 40
0.5255021974951946
 40
0.5647069597052371
 40
0.622487401681883
 40
0.6879401044674746
 40
0.7303986317551266
 40
0.7765228362185534
 40
0.8277951442290254
 40
0.9056034697002209
 40
0.9795294930264187
 40
1.013897332332996
 40
1.053089255536027
 40
1.099518741889647
 40
1.132570569820733
 40
1.160277520290299
 40
1.19983678629386
 40
1.243305643169139
 40
1.286774258016964
 40
1.324809356515675
 40
1.411916492917645
 40
1.446284332224223
 40
1.5150200516612
 40
1.575779369908399
 40
1.69209852953623
 40
1.835624328519098
 40
2.042896467983898
 40
2.042896467983898
 40
2.042896467983898
 40
2.042896467983898
 10
1325.671477844298
 20
285.3817717688946
 10
1325.622583429761
 20
285.4172424324964
 10
1325.558333431916
 20
285.4638528701427
 10
1325.463610919479
 20
285.507377539563
 10
1325.400535275357
 20
285.5174679763851
 10
1325.341339505286
 20
285.5356523819671
 10
1325.28112973041
 20
285.5395487590632
 10
1325.231620626626
 20
285.5570660955653
 10
1325.183904558024
 20
285.553781937949
 10
1325.140336787657
 20
285.5638762671591
 10
1325.086853129922
 20
285.5495216672395
 10
1325.032403809342
 20
285.5398296276974
 10
1324.980966298864
 20
285.5425655692604
 10
1324.934180943895
 20
285.5393647987367
 10
1324.878175585621
 20
285.5208328911728
 10
1324.821254165404
 20
285.481531005604
 10
1324.754581099427
 20
285.4825068842645
 10
1324.716074868163
 20
285.4487277483972
 10
1324.674967925017
 20
285.4442287581686
 10
1324.640657818888
 20
285.422685529148
 10
1324.614323255158
 20
285.3986690922244
 10
1324.58876243947
 20
285.3770501039802
 10
1324.555063896205
 20
285.3600218952653
 10
1324.5312252652
 20
285.3240617071318
 10
1324.503482302243
 20
285.2931498176261
 10
1324.46808154711
 20
285.2496950414222
 10
1324.430758194962
 20
285.2097832466413
 10
1324.410528583948
 20
285.1492429825916
 10
1324.387122241273
 20
285.0997894059136
 10
1324.369087455637
 20
285.0192536014235
 10
1324.36488551283
 20
284.9123983560507
 10
1324.394277065479
 20
284.7537541804332
 10
1324.479280325267
 20
284.6688361531881
 10
1324.529505271273
 20
284.6186615676016
 97
        6
330
1BCD
330
1BCE
330
1BCC
330
1BCF
330
1BD0
330
1BD1
 92
       20
 93
        1
 72
     3
 10
1325.367974052241
 20
284.7517724006761
 11
0.237349668587928
 21
0.0055005503797906
 40
0.6788083417438792
 50
0.0
 51
360.0
 73
     1
 97
        1
330
1BD2
 75
     0
 76
     1
 47
0.088756267210375
 98
        2
 10
1325.609644472848
 20
284.9582154076722
 10
1325.609644472848
 20
284.9582154076722
450
        0
451
        0
460
0.0
461
0.0
452
        0
462
0.0
453
        0
470

  0
LINE
  5
1BD4
102
{ACAD_REACTORS
330
1BE1
102
}
330
18
100
AcDbEntity
  8
ROGO
 62
     4
100
AcDbLine
 10
1329.140402391394
 20
282.4638484590108
 30
0.0
 11
1328.910831690291
 21
282.3640393587795
 31
0.0
  0
LINE
  5
1BD5
102
{ACAD_REACTORS
330
1BE1
102
}
330
18
100
AcDbEntity
  8
ROGO
 62
     4
100
AcDbLine
 10
1328.910831690291
 20
282.3640393587795
 30
0.0
 11
1329.326020916845
 21
282.3080960227659
 31
0.0
  0
LINE
  5
1BD6
102
{ACAD_REACTORS
330
1BE1
102
}
330
18
100
AcDbEntity
  8
ROGO
 62
     4
100
AcDbLine
 10
1328.293617526606
 20
281.83511656542
 30
0.0
 11
1328.026039083589
 21
280.7203727769453
 31
0.0
  0
LINE
  5
1BD7
102
{ACAD_REACTORS
330
1BE1
102
}
330
18
100
AcDbEntity
  8
ROGO
 62
     4
100
AcDbLine
 10
1328.293617526606
 20
281.83511656542
 30
0.0
 11
1329.905201994029
 21
281.8221053945155
 31
0.0
  0
LINE
  5
1BD8
102
{ACAD_REACTORS
330
1BE1
102
}
330
18
100
AcDbEntity
  8
ROGO
 62
     4
100
AcDbLine
 10
1329.326020916845
 20
282.3080960227659
 30
0.0
 11
1329.905201994029
 21
281.8221053945155
 31
0.0
  0
LINE
  5
1BD9
102
{ACAD_REACTORS
330
1BE1
102
}
330
18
100
AcDbEntity
  8
ROGO
 62
     4
100
AcDbLine
 10
1327.446858006405
 20
281.2063634051957
 30
0.0
 11
1328.026039083589
 21
280.7203727769453
 31
0.0
  0
LINE
  5
1BDA
102
{ACAD_REACTORS
330
1BB2
102
}
330
18
100
AcDbEntity
  8
ROGO
 62
     4
100
AcDbLine
 10
1327.505532367617
 20
282.7592610092198
 30
0.0
 11
1327.004864468227
 21
282.5415885784065
 31
0.0
  0
LINE
  5
1BDB
102
{ACAD_REACTORS
330
1BB2
102
}
330
18
100
AcDbEntity
  8
ROGO
 62
     4
100
AcDbLine
 10
1327.220342451391
 20
283.4371806119563
 30
0.0
 11
1327.849852436563
 21
282.908959015576
 31
0.0
  0
LINE
  5
1BDC
102
{ACAD_REACTORS
330
1BB2
102
}
330
18
100
AcDbEntity
  8
ROGO
 62
     4
100
AcDbLine
 10
1328.350525637946
 20
283.1266337515053
 30
0.0
 11
1327.849852436563
 21
282.908959015576
 31
0.0
  0
LINE
  5
1BDD
102
{ACAD_REACTORS
330
1BE1
102
}
330
18
100
AcDbEntity
  8
ROGO
 62
     4
100
AcDbLine
 10
1328.561208641917
 20
282.949849720578
 30
0.0
 11
1326.458521008918
 21
282.0356766152654
 31
0.0
  0
LINE
  5
1BDE
102
{ACAD_REACTORS
330
1BE1
102
}
330
18
100
AcDbEntity
  8
ROGO
 62
     4
100
AcDbLine
 10
1327.586540004331
 20
281.7882848701457
 30
0.0
 11
1327.037714758396
 21
281.5496753536983
 31
0.0
  0
LINE
  5
1BDF
102
{ACAD_REACTORS
330
1BE1
102
}
330
18
100
AcDbEntity
  8
ROGO
 62
     4
100
AcDbLine
 10
1328.561208641917
 20
282.949849720578
 30
0.0
 11
1329.140402391394
 21
282.4638484590108
 31
0.0
  0
LINE
  5
1BE0
102
{ACAD_REACTORS
330
1BE1
102
}
330
18
100
AcDbEntity
  8
ROGO
 62
     4
100
AcDbLine
 10
1327.586540004331
 20
281.7882848701457
 30
0.0
 11
1327.446858006405
 21
281.2063634051957
 31
0.0
  0
HATCH
  5
1BE1
330
18
100
AcDbEntity
  8
ROGO
 62
     4
100
AcDbHatch
 10
0.0
 20
0.0
 30
0.0
210
0.0
220
0.0
230
1.0
  2
SOLID
 70
     1
 71
     1
 91
        1
 92
        7
 72
     0
 73
     1
 93
       11
 10
1328.026039083589
 20
280.7203727769453
 10
1328.293617526606
 20
281.83511656542
 10
1329.905201994029
 20
281.8221053945155
 10
1329.326020916845
 20
282.3080960227658
 10
1328.910831690291
 20
282.3640393587796
 10
1329.140402391394
 20
282.4638484590108
 10
1328.561208641917
 20
282.949849720578
 10
1326.458521008918
 20
282.0356766152654
 10
1327.037714758396
 20
281.5496753536983
 10
1327.586540004331
 20
281.7882848701458
 10
1327.446858006405
 20
281.2063634051957
 97
       11
330
1BD8
330
1BD5
330
1BD4
330
1BDF
330
1BDD
330
1B52
330
1BDE
330
1BE0
330
1BD9
330
1BD6
330
1BD7
 75
     0
 76
     1
 47
0.0514683685270805
 98
        1
 10
1327.945517824189
 20
282.3173308650979
450
        0
451
        0
460
0.0
461
0.0
452
        0
462
0.0
453
        0
470

  0
LINE
  5
1BE2
330
18
100
AcDbEntity
  8
目盛
100
AcDbLine
 10
1331.231093280439
 20
298.4495762109444
 30
0.0
 11
1330.044255507232
 21
296.8397886162326
 31
0.0
  0
LINE
  5
1BE3
330
18
100
AcDbEntity
  8
目盛
100
AcDbLine
 10
1330.041747725057
 20
299.2700507521592
 30
0.0
 11
1328.958331304491
 21
297.5889175451678
 31
0.0
  0
LINE
  5
1BE4
330
18
100
AcDbEntity
  8
目盛
100
AcDbLine
 10
1332.366573911344
 20
297.5560410634949
 30
0.0
 11
1330.438211082285
 21
295.2579077341379
 31
0.0
  0
LINE
  5
1BE5
330
18
100
AcDbEntity
  8
目盛
100
AcDbLine
 10
1335.40618212875
 20
294.4736928330499
 30
0.0
 11
1333.856293151342
 21
293.2096342277201
 31
0.0
  0
LINE
  5
1BE6
330
18
100
AcDbEntity
  8
目盛
100
AcDbLine
 10
1334.45824577212
 20
295.5641688697732
 30
0.0
 11
1332.990786043114
 21
294.2052862612501
 31
0.0
  0
LINE
  5
1BE7
330
18
100
AcDbEntity
  8
目盛
100
AcDbLine
 10
1333.443708394474
 20
296.59297168482
 30
0.0
 11
1332.064469307003
 21
295.1446279619451
 31
0.0
  0
LINE
  5
1BE8
330
18
100
AcDbEntity
  8
外形線
  6
Continuous
100
AcDbLine
 10
1338.414876399317
 20
299.0079491232496
 30
0.0
 11
1337.218927506522
 21
297.5826727337024
 31
0.0
  0
LINE
  5
1BE9
330
18
100
AcDbEntity
  8
目盛
100
AcDbLine
 10
1338.46134089481
 20
289.5844167680203
 30
0.0
 11
1336.645785937745
 21
288.745512603128
 31
0.0
  0
LINE
  5
1BEA
330
18
100
AcDbEntity
  8
目盛
100
AcDbLine
 10
1337.814376064486
 20
290.8763756803746
 30
0.0
 11
1336.055078918753
 21
289.9251272622341
 31
0.0
  0
LINE
  5
1BEB
330
18
100
AcDbEntity
  8
目盛
100
AcDbLine
 10
1336.283776392636
 20
293.3258471853759
 30
0.0
 11
1334.657574870541
 21
292.1616012450613
 31
0.0
  0
LINE
  5
1BEC
330
18
100
AcDbEntity
  8
目盛
100
AcDbLine
 10
1337.087565100152
 20
292.125161949122
 30
0.0
 11
1334.543420811682
 21
290.5354041564224
 31
0.0
  0
LINE
  5
1BED
330
18
100
AcDbEntity
  8
目盛
100
AcDbLine
 10
1339.025906316511
 20
288.2543839836463
 30
0.0
 11
1337.161258714079
 21
287.5311348434822
 31
0.0
  0
LINE
  5
1BEE
330
18
100
AcDbEntity
  8
目盛
100
AcDbLine
 10
1338.324606995871
 20
269.9990466493127
 30
0.0
 11
1336.520941943061
 21
270.8632181469167
 31
0.0
  0
LINE
  5
1BEF
330
18
100
AcDbEntity
  8
目盛
100
AcDbLine
 10
1338.90768754359
 20
271.3210672231924
 30
0.0
 11
1336.126135979889
 21
272.4448870034403
 31
0.0
  0
LINE
  5
1BF0
330
18
100
AcDbEntity
  8
目盛
100
AcDbLine
 10
1340.380416314339
 20
276.8951218958445
 30
0.0
 11
1338.397985233836
 21
277.1596346763588
 31
0.0
  0
LINE
  5
1BF1
330
18
100
AcDbEntity
  8
目盛
100
AcDbLine
 10
1339.406607156377
 20
272.6770910219751
 30
0.0
 11
1337.508855133088
 21
273.3083890958693
 31
0.0
  0
LINE
  5
1BF2
330
18
100
AcDbEntity
  8
目盛
100
AcDbLine
 10
1339.819396826456
 20
274.0617664392352
 30
0.0
 11
1337.885750049248
 21
274.5726579551068
 31
0.0
  0
LINE
  5
1BF3
330
18
100
AcDbEntity
  8
目盛
100
AcDbLine
 10
1340.144427461585
 20
275.469628793699
 30
0.0
 11
1338.182517150887
 21
275.858097496139
 31
0.0
  0
LINE
  5
1BF4
330
18
100
AcDbEntity
  8
目盛
100
AcDbLine
 10
1340.52643204453
 20
278.3326199756435
 30
0.0
 11
1337.53373989375
 21
278.5418893968759
 31
0.0
  0
LINE
  5
1BF5
330
18
100
AcDbEntity
  8
目盛
100
AcDbLine
 10
1340.581898394778
 20
279.7764498849053
 30
0.0
 11
1338.581947133367
 21
279.7904124055012
 31
0.0
  0
LINE
  5
1BF6
330
18
100
AcDbEntity
  8
目盛
100
AcDbLine
 10
1340.204602717262
 20
284.0889592125212
 30
0.0
 11
1338.237459775635
 21
283.7279209220201
 31
0.0
  0
LINE
  5
1BF7
330
18
100
AcDbEntity
  8
目盛
100
AcDbLine
 10
1340.546596464739
 20
281.2209134866011
 30
0.0
 11
1338.549714936375
 21
281.1092704766148
 31
0.0
  0
LINE
  5
1BF8
330
18
100
AcDbEntity
  8
目盛
100
AcDbLine
 10
1340.420665575004
 20
282.6603101428079
 30
0.0
 11
1338.434734558791
 21
282.4235022061949
 31
0.0
  0
LINE
  5
1BF9
330
18
100
AcDbEntity
  8
外形線
  6
Continuous
100
AcDbLine
 10
1340.780992641319
 20
313.3401329739171
 30
0.0
 11
1346.449721520399
 21
308.5835046622367
 31
0.0
  0
ARC
  5
1BFA
330
18
100
AcDbEntity
  8
外形線
  6
Continuous
100
AcDbCircle
 10
1339.536869697398
 20
306.1012668264873
 30
0.0
 40
7.344999999999885
100
AcDbArc
 50
19.75198538337786
 51
80.24801461661887
  0
LINE
  5
1BFB
330
18
100
AcDbEntity
  8
外形線
  6
Continuous
100
AcDbLine
 10
1336.37305984542
 20
308.5536803765497
 30
0.0
 11
1342.501415390372
 21
303.4113794990574
 31
0.0
  0
LINE
  5
1BFC
330
18
100
AcDbEntity
  8
外形線
  6
Continuous
100
AcDbLine
 10
1340.780992641319
 20
313.3401329739171
 30
0.0
 11
1336.602873178356
 21
308.3608440936437
 31
0.0
  0
LINE
  5
1BFD
330
18
100
AcDbEntity
  8
外形線
  6
Continuous
100
AcDbLine
 10
1346.449721520399
 20
308.5835046622367
 30
0.0
 11
1342.271602057436
 21
303.6042157819634
 31
0.0
  0
POINT
  5
1BFE
330
18
100
AcDbEntity
  8
DEFPOINTS
  6
ByBlock
 62
     0
100
AcDbPoint
 10
1344.258144690545
 20
311.727863261196
 30
0.0
  0
CIRCLE
  5
1BFF
330
18
100
AcDbEntity
  8
外形線
100
AcDbCircle
 10
1317.582458888554
 20
279.9370188717584
 30
0.0
 40
26.4
  0
LINE
  5
1C00
330
18
100
AcDbEntity
  8
中心線
 48
0.2
100
AcDbLine
 10
1313.713383438196
 20
280.3341744977621
 30
0.0
 11
1303.523807221492
 21
268.4037136055638
 31
0.0
  0
TEXT
  5
1C01
330
18
100
AcDbEntity
  8
文字
100
AcDbText
 10
1306.864287077649
 20
295.7547818567161
 30
0.0
 40
2.0
  1
2
 50
319.5000000000016
  7
STYLE3
100
AcDbText
  0
TEXT
  5
1C02
330
18
100
AcDbEntity
  8
文字
100
AcDbText
 10
1298.893487907943
 20
286.5849015256956
 30
0.0
 40
2.0
  1
3
 50
319.5000000000016
  7
STYLE3
100
AcDbText
  0
LINE
  5
1C03
330
18
100
AcDbEntity
  8
目盛
100
AcDbLine
 10
1303.987881604603
 20
273.2460791895002
 30
0.0
 11
1304.474066564802
 21
273.3628018714281
 31
0.0
  0
LINE
  5
1C04
330
18
100
AcDbEntity
  8
目盛
100
AcDbLine
 10
1308.979319431199
 20
279.0903020030481
 30
0.0
 11
1308.940089883335
 21
278.5918433361815
 31
0.0
  0
LINE
  5
1C05
330
18
100
AcDbEntity
  8
中心線
 48
0.2
100
AcDbLine
 10
1303.314764358098
 20
278.8746323557599
 30
0.0
 11
1314.361932681705
 21
269.4394592615038
 31
0.0
  0
CIRCLE
  5
1C06
330
18
100
AcDbEntity
  8
外形線
100
AcDbCircle
 10
1308.606638726492
 20
274.3549446678157
 30
0.0
 40
4.75
  0
TEXT
  5
1C07
330
18
100
AcDbEntity
  8
文字
100
AcDbText
 10
1298.136005808267
 20
275.8760382196062
 30
0.0
 40
2.0
  1
4
 50
319.5000000000016
  7
STYLE3
100
AcDbText
  0
TEXT
  5
1C08
330
18
100
AcDbEntity
  8
文字
100
AcDbText
 10
1306.159941302394
 20
277.3844700512242
 30
0.0
 40
0.7
  1
80
 50
319.5000000000016
  7
STYLE3
100
AcDbText
  0
TEXT
  5
1C09
330
18
100
AcDbEntity
  8
文字
100
AcDbText
 10
1304.694861273834
 20
275.7141092078052
 30
0.0
 40
0.7
  1
70
 50
319.5000000000016
  7
STYLE3
100
AcDbText
  0
LINE
  5
1C0A
330
18
100
AcDbEntity
  8
目盛
100
AcDbLine
 10
1304.218210947063
 20
276.17269097155
 30
0.0
 11
1304.680150713319
 21
275.9813492553674
 31
0.0
  0
LINE
  5
1C0B
330
18
100
AcDbEntity
  8
目盛
100
AcDbLine
 10
1306.124770544091
 20
278.4049854484978
 30
0.0
 11
1306.386019826449
 21
277.9786653663206
 31
0.0
  0
HATCH
  5
1C0C
330
18
100
AcDbEntity
  8
針
100
AcDbHatch
 10
0.0
 20
0.0
 30
0.0
210
0.0
220
0.0
230
1.0
  2
SOLID
 70
     1
 71
     0
 91
        3
 92
        7
 72
     1
 73
     1
 93
        5
 10
1311.847614567451
 20
277.8274906499904
 42
0.0105298176880202
 10
1311.69852794344
 20
277.9608732680682
 42
0.0
 10
1311.373065920603
 20
277.5813018364627
 42
0.0
 10
1309.355201379016
 20
275.2279589605085
 42
-0.0437283108272093
 10
1309.495622615349
 20
275.0844702981752
 42
0.0
 97
        0
 92
        7
 72
     1
 73
     1
 93
        4
 10
1311.69852794344
 20
277.9608732680682
 42
0.0105298176880232
 10
1311.543957422167
 20
278.0878602682596
 42
0.0
 10
1309.191965470065
 20
275.3448399164445
 42
-0.0437283108272093
 10
1309.355201379016
 20
275.2279589605085
 42
0.0
 97
        0
 92
      137
 93
        4
 72
     1
 10
1309.964192632037
 20
276.8500079027465
 11
1310.849859305783
 21
276.0905965161275
 72
     1
 10
1310.849859305783
 20
276.0905965161276
 11
1311.826245374293
 21
277.2293108109442
 72
     1
 10
1311.826245374293
 20
277.2293108109441
 11
1310.940578700547
 21
277.9887221975631
 72
     1
 10
1310.940578700547
 20
277.988722197563
 11
1309.964192632037
 21
276.8500079027464
 97
        0
 75
     0
 76
     1
 47
0.0128177587452554
 98
        3
 10
1309.815537610685
 20
275.536379599371
 10
1310.541384973898
 20
276.5011495011076
 10
1310.371671462379
 20
276.5791314485011
450
        0
451
        0
460
0.0
461
0.0
452
        0
462
0.0
453
        0
470

  0
LINE
  5
1C0D
330
18
100
AcDbEntity
  8
針
 48
0.2
100
AcDbLine
 10
1311.543957422167
 20
278.0878602682596
 30
0.0
 11
1309.191965470065
 21
275.3448399164445
 31
0.0
  0
LINE
  5
1C0E
330
18
100
AcDbEntity
  8
針
 48
0.2
100
AcDbLine
 10
1311.847614567451
 20
277.8274906499904
 30
0.0
 11
1309.495622615349
 21
275.0844702981752
 31
0.0
  0
LINE
  5
1C0F
330
18
100
AcDbEntity
  8
目盛
100
AcDbLine
 10
1311.69151695606
 20
277.9668730044159
 30
0.0
 11
1311.366792931895
 21
277.5866700216158
 31
0.0
  0
TEXT
  5
1C10
330
18
100
AcDbEntity
  8
文字
100
AcDbText
 10
1309.533639770287
 20
271.4347414995503
 30
0.0
 40
0.7
  1
30
 50
319.5000000000016
  7
STYLE3
100
AcDbText
  0
TEXT
  5
1C11
330
18
100
AcDbEntity
  8
文字
100
AcDbText
 10
1310.885497345363
 20
273.1470869580436
 30
0.0
 40
0.7
  1
20
 50
319.5000000000016
  7
STYLE3
100
AcDbText
  0
TEXT
  5
1C12
330
18
100
AcDbEntity
  8
文字
100
AcDbText
 10
1308.304317682966
 20
277.8959190300984
 30
0.0
 40
0.7
  1
90
 50
319.5000000000016
  7
STYLE3
100
AcDbText
  0
TEXT
  5
1C13
330
18
100
AcDbEntity
  8
文字
100
AcDbText
 10
1304.514549408705
 20
273.5049132695754
 30
0.0
 40
0.7
  1
60
 50
319.5000000000016
  7
STYLE3
100
AcDbText
  0
TEXT
  5
1C14
330
18
100
AcDbEntity
  8
文字
100
AcDbText
 10
1305.568716835251
 20
271.8177181623359
 30
0.0
 40
0.7
  1
50
 50
319.5000000000016
  7
STYLE3
100
AcDbText
  0
TEXT
  5
1C15
330
18
100
AcDbEntity
  8
文字
100
AcDbText
 10
1307.585051346613
 20
270.98943622072
 30
0.0
 40
0.7
  1
40
 50
319.5000000000016
  7
STYLE3
100
AcDbText
  0
TEXT
  5
1C16
330
18
100
AcDbEntity
  8
文字
100
AcDbText
 10
1311.268328256156
 20
275.2978636713357
 30
0.0
 40
0.7
  1
10
 50
319.5000000000016
  7
STYLE3
100
AcDbText
  0
TEXT
  5
1C17
330
18
100
AcDbEntity
  8
文字
100
AcDbText
 10
1310.310609294185
 20
276.908490737934
 30
0.0
 40
0.7
  1
0
 50
319.5000000000016
  7
STYLE3
100
AcDbText
  0
CIRCLE
  5
1C18
330
18
100
AcDbEntity
  8
外形線
100
AcDbCircle
 10
1308.606638726492
 20
274.3549446678157
 30
0.0
 40
1.149999999999999
  0
LINE
  5
1C19
330
18
100
AcDbEntity
  8
目盛
100
AcDbLine
 10
1313.225395848381
 20
275.4638101461313
 30
0.0
 11
1312.739210888182
 21
275.3470874642033
 31
0.0
  0
LINE
  5
1C1A
330
18
100
AcDbEntity
  8
目盛
100
AcDbLine
 10
1308.233958021785
 20
269.6195873325832
 30
0.0
 11
1308.273187569648
 21
270.11804599945
 31
0.0
  0
LINE
  5
1C1B
330
18
100
AcDbEntity
  8
目盛
100
AcDbLine
 10
1305.521760496923
 20
270.7430163312156
 30
0.0
 11
1305.846484521089
 21
271.1232193140155
 31
0.0
  0
LINE
  5
1C1C
330
18
100
AcDbEntity
  8
目盛
100
AcDbLine
 10
1312.99506650592
 20
272.5371983640816
 30
0.0
 11
1312.533126739665
 21
272.7285400802641
 31
0.0
  0
LINE
  5
1C1D
330
18
100
AcDbEntity
  8
目盛
100
AcDbLine
 10
1311.088506908892
 20
270.3049038871338
 30
0.0
 11
1310.827257626535
 21
270.7312239693108
 31
0.0
  0
TEXT
  5
1C1E
330
18
100
AcDbEntity
  8
文字
100
AcDbText
 10
1317.776408692513
 20
298.2054618291206
 30
0.0
 40
2.0
  1
1
 50
319.5000000000016
  7
STYLE3
100
AcDbText
  0
TEXT
  5
1C1F
330
18
100
AcDbEntity
  8
文字
100
AcDbText
 10
1332.850442575955
 20
273.0362945030337
 30
0.0
 40
2.0
  1
8
 50
319.5000000000016
  7
STYLE3
100
AcDbText
  0
TEXT
  5
1C20
330
18
100
AcDbEntity
  8
文字
100
AcDbText
 10
1325.487748443664
 20
264.2067812221916
 30
0.0
 40
2.0
  1
7
 50
319.5000000000016
  7
STYLE3
100
AcDbText
  0
TEXT
  5
1C21
330
18
100
AcDbEntity
  8
文字
100
AcDbText
 10
1314.301517372238
 20
261.7957706791701
 30
0.0
 40
2.0
  1
6
 50
319.5000000000016
  7
STYLE3
100
AcDbText
  0
TEXT
  5
1C22
330
18
100
AcDbEntity
  8
文字
100
AcDbText
 10
1333.696836254048
 20
284.2703468140694
 30
0.0
 40
2.0
  1
9
 50
319.5000000000016
  7
STYLE3
100
AcDbText
  0
ARC
  5
1C23
330
18
100
AcDbEntity
  8
寸法線
100
AcDbCircle
 10
1325.21931725307
 20
180.1603331147219
 30
0.0
 40
700.0
100
AcDbArc
 50
168.6869150468539
 51
190.1014102079044
  0
LINE
  5
1C24
330
18
100
AcDbEntity
  8
想像線
 48
0.5
100
AcDbLine
 10
618.9141209354861
 20
99.93338445329982
 30
0.0
 11
637.8956391661438
 21
106.3466314742429
 31
0.0
  0
DIMENSION
  5
1C25
330
18
100
AcDbEntity
  8
寸法線
100
AcDbDimension
  2
*D4
 10
760.5443172530699
 20
226.8353331147219
 30
0.0
 11
758.6693172530699
 21
176.835333114722
 31
0.0
 70
    32
 71
     5
 42
99.99999999999998
  3
STYLE3
100
AcDbAlignedDimension
 13
750.7153762772747
 23
126.8353331147219
 33
0.0
 14
754.7255552138685
 24
226.8353331147219
 34
0.0
 50
90.0
100
AcDbRotatedDimension
1001
ACAD
1000
DSTYLE
1002
{
1070
   271
1070
     2
1070
   341
1005
0
1002
}
  0
MTEXT
  5
1C27
330
18
100
AcDbEntity
  8
寸法線
 62
     6
100
AcDbMText
 10
664.3142937732116
 20
72.89163721223761
 30
0.0
 40
2.5
 41
0.0
 71
     5
 72
     1
  1
\A1;R700
  7
STYLE3
 11
0.9866837696362614
 21
0.1626503573201637
 31
0.0
 73
     1
 44
1.0
  0
LINE
  5
1C28
330
18
100
AcDbEntity
  8
寸法線
 62
     2
100
AcDbLine
 10
1325.21931725307
 20
180.1603331147219
 30
0.0
 11
634.5406785076869
 21
66.30508299060713
 31
0.0
  0
INSERT
  5
1C29
330
18
100
AcDbEntity
  8
寸法線
 62
     2
100
AcDbBlockReference
  2
_OPEN
 10
634.5406785076871
 20
66.30508299060713
 30
0.0
 41
2.499999999999942
 42
2.5
 43
2.5
 50
189.3607660532096
  0
LINE
  5
1C2A
330
18
100
AcDbEntity
  8
外形線
100
AcDbLine
 10
1317.048543730122
 20
513.6957603325064
 30
0.0
 11
1328.888341258974
 21
500.1377665843222
 31
0.0
  0
LINE
  5
1C2B
330
18
100
AcDbEntity
  8
外形線
100
AcDbLine
 10
1320.061431229718
 20
516.3268264500288
 30
0.0
 11
1323.350263876622
 21
512.5607170755334
 31
0.0
  0
ARC
  5
1C2C
330
18
100
AcDbEntity
  8
外形線
100
AcDbCircle
 10
1319.30820935482
 20
515.6690599206482
 30
0.0
 40
1.0
100
AcDbArc
 50
41.12975725617252
 51
131.1297572561739
  0
LINE
  5
1C2D
330
18
100
AcDbEntity
  8
外形線
100
AcDbLine
 10
1328.612396111667
 20
506.5349420763403
 30
0.0
 11
1331.90122875857
 21
502.7688327018449
 31
0.0
  0
ARC
  5
1C2E
330
18
100
AcDbEntity
  8
外形線
100
AcDbCircle
 10
1331.148006883671
 20
502.1110661724642
 30
0.0
 40
1.0
100
AcDbArc
 50
311.1297572561741
 51
41.12975725617286
  0
ARC
  5
1C2F
330
18
100
AcDbEntity
  8
外形線
100
AcDbCircle
 10
1329.365617986566
 20
507.1927086057209
 30
0.0
 40
1.0
100
AcDbArc
 50
131.129757256174
 51
221.1297572561727
  0
LINE
  5
1C30
330
18
100
AcDbEntity
  8
外形線
100
AcDbLine
 10
1354.709637475078
 20
546.5840868015382
 30
0.0
 11
1366.54943500393
 21
533.0260930533543
 31
0.0
  0
ARC
  5
1C31
330
18
100
AcDbEntity
  8
外形線
100
AcDbCircle
 10
1365.79621312903
 20
532.3683265239736
 30
0.0
 40
1.0
100
AcDbArc
 50
311.1297572561738
 51
41.1297572561727
  0
ARC
  5
1C32
330
18
100
AcDbEntity
  8
外形線
100
AcDbCircle
 10
1353.956415600179
 20
545.9263202721575
 30
0.0
 40
1.0
100
AcDbArc
 50
41.12975725617267
 51
131.129757256174
  0
LINE
  5
1C33
330
18
100
AcDbEntity
  8
外形線
100
AcDbLine
 10
1351.696749975482
 20
543.9530206840158
 30
0.0
 11
1354.985582622385
 21
540.1869113095203
 31
0.0
  0
ARC
  5
1C34
330
18
100
AcDbEntity
  8
外形線
100
AcDbCircle
 10
1354.232360747486
 20
539.5291447801396
 30
0.0
 40
1.0
100
AcDbArc
 50
311.129757256174
 51
41.12975725617247
  0
LINE
  5
1C35
330
18
100
AcDbEntity
  8
外形線
100
AcDbLine
 10
1360.24771485743
 20
534.1611363103271
 30
0.0
 11
1363.536547504333
 21
530.3950269358319
 31
0.0
  0
ARC
  5
1C36
330
18
100
AcDbEntity
  8
外形線
100
AcDbCircle
 10
1359.494492982531
 20
533.5033697809465
 30
0.0
 40
1.0
100
AcDbArc
 50
41.12975725617252
 51
131.129757256174
  0
DIMENSION
  5
1C37
330
18
100
AcDbEntity
  8
寸法線
100
AcDbDimension
  2
*D6
 10
1374.049875299832
 20
538.2483771018479
 30
0.0
 11
1368.884501021461
 21
547.013908093428
 31
0.0
 70
    32
 71
     5
 42
19.99999999999977
  3
STYLE3
100
AcDbAlignedDimension
 13
1353.298649070798
 23
546.6795421470567
 33
0.0
 14
1366.453979658411
 24
531.6151046490745
 34
0.0
 50
311.129757256174
100
AcDbRotatedDimension
1001
ACAD
1000
DSTYLE
1002
{
1070
   271
1070
     2
1070
   341
1005
0
1002
}
  0
DIMENSION
  5
1C38
330
18
100
AcDbEntity
  8
寸法線
100
AcDbDimension
  2
*D7
 10
1345.136565927141
 20
530.2584243939699
 30
0.0
 11
1348.52215653072
 21
529.2320710118615
 31
0.0
 70
    32
 71
     5
 42
6.000000000000113
  3
STYLE3
100
AcDbAlignedDimension
 13
1348.685469653124
 23
525.3917973943948
 33
0.0
 14
1344.73887047684
 24
529.9111286437896
 34
0.0
 50
311.129757256174
100
AcDbRotatedDimension
1001
ACAD
1000
DSTYLE
1002
{
1070
   271
1070
     2
1070
   341
1005
0
1002
}
  0
LINE
  5
1C39
330
18
100
AcDbEntity
  8
寸法線
 62
     2
100
AcDbLine
 10
1328.888341258974
 20
500.1377665843223
 30
0.0
 11
1334.002414001475
 21
494.28153753128
 31
0.0
  0
LINE
  5
1C3A
330
18
100
AcDbEntity
  8
寸法線
 62
     2
100
AcDbLine
 10
1331.90122875857
 20
502.768832701845
 30
0.0
 11
1337.015301501072
 21
496.9126036488026
 31
0.0
  0
LINE
  5
1C3B
330
18
100
AcDbEntity
  8
寸法線
 62
     2
100
AcDbLine
 10
1331.297151152502
 20
493.5786485514523
 30
0.0
 11
1329.414096465254
 21
491.9342322280007
 31
0.0
  0
LINE
  5
1C3C
330
18
100
AcDbEntity
  8
寸法線
 62
     2
100
AcDbLine
 10
1338.076148026594
 20
499.4985473158781
 30
0.0
 11
1339.959202713842
 21
501.1429636393297
 31
0.0
  0
LINE
  5
1C3D
330
18
100
AcDbEntity
  8
寸法線
 62
     2
100
AcDbLine
 10
1333.18020583975
 20
495.2230648749039
 30
0.0
 11
1336.193093339346
 21
497.8541309924265
 31
0.0
  0
INSERT
  5
1C3E
330
18
100
AcDbEntity
  8
寸法線
 62
     2
100
AcDbBlockReference
  2
_OPEN
 10
1333.18020583975
 20
495.2230648749039
 30
0.0
 41
2.499999999999957
 42
2.5
 43
2.5
 50
41.12975725617494
  0
INSERT
  5
1C3F
330
18
100
AcDbEntity
  8
寸法線
 62
     2
100
AcDbBlockReference
  2
_OPEN
 10
1336.193093339346
 20
497.8541309924265
 30
0.0
 41
2.500000000000042
 42
2.5
 43
2.5
 50
221.1297572561732
  0
MTEXT
  5
1C40
330
18
100
AcDbEntity
  8
寸法線
 62
     6
100
AcDbMText
 10
1333.462342243619
 20
498.0510114987427
 30
0.0
 40
2.5
 41
0.0
 71
     5
 72
     1
  1
\A1;4
  7
STYLE3
 11
0.7532218748991224
 21
0.6577665293806389
 31
0.0
 73
     1
 44
1.0
  0
LINE
  5
1C41
330
18
100
AcDbEntity
  8
寸法線
 62
     2
100
AcDbLine
 10
1366.54943500393
 20
533.0260930533547
 30
0.0
 11
1372.005832943414
 21
526.7778604319047
 31
0.0
  0
LINE
  5
1C42
330
18
100
AcDbEntity
  8
寸法線
 62
     2
100
AcDbLine
 10
1363.536547504333
 20
530.395026935832
 30
0.0
 11
1368.992945443818
 21
524.1467943143821
 31
0.0
  0
LINE
  5
1C43
330
18
100
AcDbEntity
  8
寸法線
 62
     2
100
AcDbLine
 10
1373.066679468936
 20
529.3638040989801
 30
0.0
 11
1374.949734156184
 21
531.0082204224317
 31
0.0
  0
LINE
  5
1C44
330
18
100
AcDbEntity
  8
寸法線
 62
     2
100
AcDbLine
 10
1366.287682594844
 20
523.4439053345544
 30
0.0
 11
1364.404627907596
 21
521.7994890111028
 31
0.0
  0
LINE
  5
1C45
330
18
100
AcDbEntity
  8
寸法線
 62
     2
100
AcDbLine
 10
1371.183624781688
 20
527.7193877755286
 30
0.0
 11
1368.170737282092
 21
525.088321658006
 31
0.0
  0
INSERT
  5
1C46
330
18
100
AcDbEntity
  8
寸法線
 62
     2
100
AcDbBlockReference
  2
_OPEN
 10
1371.183624781688
 20
527.7193877755286
 30
0.0
 41
2.500000000000042
 42
2.5
 43
2.5
 50
221.1297572561732
  0
INSERT
  5
1C47
330
18
100
AcDbEntity
  8
寸法線
 62
     2
100
AcDbBlockReference
  2
_OPEN
 10
1368.170737282092
 20
525.088321658006
 30
0.0
 41
2.499999999999957
 42
2.5
 43
2.5
 50
41.12975725617494
  0
LINE
  5
1C48
330
18
100
AcDbEntity
  8
寸法線
 62
     2
100
AcDbLine
 10
1334.002414001475
 20
494.28153753128
 30
0.0
 11
1339.425945755841
 21
488.0709406490632
 31
0.0
  0
LINE
  5
1C49
330
18
100
AcDbEntity
  8
寸法線
 62
     2
100
AcDbLine
 10
1372.005832943414
 20
526.7778604319048
 30
0.0
 11
1377.087039500797
 21
520.9592671180955
 31
0.0
  0
LINE
  5
1C4A
330
18
100
AcDbEntity
  8
寸法線
 62
     2
100
AcDbLine
 10
1340.486792281363
 20
490.6568843161387
 30
0.0
 11
1374.381776651824
 21
520.2563781382678
 31
0.0
  0
INSERT
  5
1C4B
330
18
100
AcDbEntity
  8
寸法線
 62
     2
100
AcDbBlockReference
  2
_OPEN
 10
1338.603737594115
 20
489.0124679926871
 30
0.0
 41
2.500000000000042
 42
2.5
 43
2.5
 50
221.1297572561732
  0
INSERT
  5
1C4C
330
18
100
AcDbEntity
  8
寸法線
 62
     2
100
AcDbBlockReference
  2
_OPEN
 10
1376.264831339072
 20
521.9007944617194
 30
0.0
 41
2.499999999999957
 42
2.5
 43
2.5
 50
41.12975725617494
  0
MTEXT
  5
1C4D
330
18
100
AcDbEntity
  8
寸法線
 62
     6
100
AcDbMText
 10
1356.810154569142
 20
507.364553036454
 30
0.0
 40
2.5
 41
0.0
 71
     5
 72
     1
  1
\A1;50
  7
STYLE3
 11
0.7532218748991224
 21
0.6577665293806389
 31
0.0
 73
     1
 44
1.0
  0
MTEXT
  5
1C4E
330
18
100
AcDbEntity
  8
寸法線
 62
     6
100
AcDbMText
 10
1368.59122030563
 20
527.5363924026699
 30
0.0
 40
2.5
 41
0.0
 71
     5
 72
     1
  1
\A1;4
  7
STYLE3
 11
0.7532218748991224
 21
0.6577665293806389
 31
0.0
 73
     1
 44
1.0
  0
LINE
  5
1C4F
330
18
100
AcDbEntity
  8
外形線
100
AcDbLine
 10
670.0529395228061
 20
533.6215448359693
 30
0.0
 11
676.2993761302133
 21
538.6197474838862
 31
0.0
  0
ARC
  5
1C50
330
18
100
AcDbEntity
  8
外形線
100
AcDbCircle
 10
669.4281641918164
 20
534.4023494118951
 30
0.0
 40
1.0
100
AcDbArc
 50
218.665699245176
 51
308.6656992451751
  0
LINE
  5
1C51
330
18
100
AcDbEntity
  8
外形線
100
AcDbLine
 10
667.5538381988477
 20
536.7447631396729
 30
0.0
 11
667.5538381988478
 21
536.7447631396728
 31
0.0
  0
LINE
  5
1C52
330
18
100
AcDbEntity
  8
外形線
100
AcDbLine
 10
673.8002748062549
 20
541.7429657875898
 30
0.0
 11
673.8002748062548
 21
541.7429657875898
 31
0.0
  0
LINE
  5
1C53
330
18
100
AcDbEntity
  8
外形線
100
AcDbLine
 10
652.5592302550969
 20
555.4840729618944
 30
0.0
 11
658.8056668625044
 21
560.4822756098116
 31
0.0
  0
ARC
  5
1C54
330
18
100
AcDbEntity
  8
外形線
100
AcDbCircle
 10
653.1840055860866
 20
554.7032683859685
 30
0.0
 40
1.0
100
AcDbArc
 50
128.665699245175
 51
218.665699245176
  0
LINE
  5
1C55
330
18
100
AcDbEntity
  8
外形線
100
AcDbLine
 10
655.0583315790554
 20
552.3608546581908
 30
0.0
 11
655.0583315790554
 21
552.3608546581908
 31
0.0
  0
ARC
  5
1C56
330
18
100
AcDbEntity
  8
外形線
100
AcDbCircle
 10
654.4335562480657
 20
553.1416592341166
 30
0.0
 40
1.0
100
AcDbArc
 50
218.6656992451764
 51
308.6656992451804
  0
LINE
  5
1C57
330
18
100
AcDbEntity
  8
外形線
100
AcDbLine
 10
661.3047681864625
 20
557.3590573061078
 30
0.0
 11
661.3047681864627
 21
557.359057306108
 31
0.0
  0
ARC
  5
1C58
330
18
100
AcDbEntity
  8
外形線
100
AcDbCircle
 10
660.679992855473
 20
558.1398618820339
 30
0.0
 40
1.0
100
AcDbArc
 50
308.6656992451752
 51
38.66569924517538
  0
DIMENSION
  5
1C59
330
18
100
AcDbEntity
  8
寸法線
100
AcDbDimension
  2
*D8
 10
659.2335340370722
 20
524.9641959270646
 30
0.0
 11
651.9506879830791
 21
537.0669137356328
 31
0.0
 70
    32
 71
     5
 42
28.00000000000011
  3
STYLE3
100
AcDbAlignedDimension
 13
652.5592302550969
 23
555.4840729618944
 33
0.0
 14
670.0529395228061
 24
533.6215448359691
 34
0.0
 50
308.6656992451751
100
AcDbRotatedDimension
1001
ACAD
1000
DSTYLE
1002
{
1070
   271
1070
     2
1070
   341
1005
0
1002
}
  0
DIMENSION
  5
1C5A
330
18
100
AcDbEntity
  8
寸法線
100
AcDbDimension
  2
*D9
 10
647.2575879902433
 20
551.2418651125299
 30
0.0
 11
649.9711472320836
 21
550.8517097062836
 31
0.0
 70
    32
 71
     5
 42
3.999999999999772
  3
STYLE3
100
AcDbAlignedDimension
 13
655.0583315790554
 23
552.3608546581908
 33
0.0
 14
648.0920179246577
 24
551.9095497733725
 34
0.0
 50
308.6656992451751
100
AcDbRotatedDimension
1001
ACAD
1000
DSTYLE
1002
{
1070
   271
1070
     2
1070
   341
1005
0
1002
}
  0
DIMENSION
  5
1C5B
330
18
100
AcDbEntity
  8
寸法線
100
AcDbDimension
  2
*D10
 10
664.5454038604604
 20
529.214587547971
 30
0.0
 11
664.7598617783422
 21
531.9476504454282
 31
0.0
 70
    32
 71
     5
 42
4.000000000000284
  3
STYLE3
100
AcDbAlignedDimension
 13
667.5538381988476
 23
536.7447631396729
 33
0.0
 14
664.4491382408943
 24
529.1375588186554
 34
0.0
 50
308.6656992451751
100
AcDbRotatedDimension
1001
ACAD
1000
DSTYLE
1002
{
1070
   271
1070
     2
1070
   341
1005
0
1002
}
  0
DIMENSION
  5
1C5C
330
18
100
AcDbEntity
  8
寸法線
100
AcDbDimension
  2
*D11
 10
671.8682308100689
 20
542.5569364549444
 30
0.0
 11
668.3543633366856
 21
542.1466190418367
 31
0.0
 70
    32
 71
     5
 42
6.000000000000113
  3
STYLE3
100
AcDbAlignedDimension
 13
666.4120456911998
 23
539.7722783453922
 33
0.0
 14
671.3934771214387
 24
543.1502534989014
 34
0.0
 50
38.66569924517616
100
AcDbRotatedDimension
1001
ACAD
1000
DSTYLE
1002
{
1070
   271
1070
     2
1070
   341
1005
0
1002
}
  0
DIMENSION
  5
1C5D
330
18
100
AcDbEntity
  8
寸法線
100
AcDbDimension
  2
*D12
 10
666.4203154838994
 20
552.5665461590029
 30
0.0
 11
661.3448388586642
 21
550.9066780839158
 31
0.0
 70
    32
 71
     5
 42
10.00000000000023
  3
STYLE3
100
AcDbAlignedDimension
 13
653.6527516721398
 23
552.516883903127
 33
0.0
 14
661.4607974313989
 24
558.7646372130235
 34
0.0
 50
38.66569924517616
100
AcDbRotatedDimension
1001
ACAD
1000
DSTYLE
1002
{
1070
   271
1070
     2
1070
   341
1005
0
1002
}
  0
LINE
  5
1C5E
330
18
100
AcDbEntity
  8
隠れ線2
100
AcDbLine
 10
1295.409239274711
 20
294.2656033083423
 30
0.0
 11
1295.124216311841
 21
266.0594347748955
 31
0.0
  0
DIMENSION
  5
1C5F
330
18
100
AcDbEntity
  8
寸法線
100
AcDbDimension
  2
*D13
 10
1325.21931725307
 20
180.1603331147219
 30
0.0
 11
1295.85869239759
 21
216.106083092774
 31
0.0
 70
    34
 71
     5
 42
0.3489373943209493
  3
STYLE3
100
AcDb2LineAngularDimension
 13
1285.39431725307
 23
251.2853331147219
 33
0.0
 14
1325.21931725307
 24
180.1603331147219
 34
0.0
 15
1268.69431725307
 25
228.8853331147219
 35
0.0
 16
1299.097333125136
 26
216.2332176171735
 36
0.0
1001
ACAD
1000
DSTYLE
1002
{
1070
   271
1070
     2
1070
   341
1005
0
1002
}
  0
ARC
  5
1C60
330
18
100
AcDbEntity
  8
中心線
100
AcDbCircle
 10
1325.21931725307
 20
180.1603331147219
 30
0.0
 40
70.0
100
AcDbArc
 50
105.6734138876896
 51
165.1988489448227
  0
MTEXT
  5
1C61
330
18
100
AcDbEntity
  8
寸法線
 62
     6
100
AcDbMText
 10
1274.971170851259
 20
200.5880928394435
 30
0.0
 40
2.5
 41
0.0
 71
     5
 72
     1
  1
\A1;R70
  7
STYLE3
 11
0.9389881706858554
 21
-0.343949437144518
 31
0.0
 73
     1
 44
1.0
  0
LINE
  5
1C62
330
18
100
AcDbEntity
  8
寸法線
 62
     2
100
AcDbLine
 10
1325.21931725307
 20
180.1603331147221
 30
0.0
 11
1259.49014530506
 21
204.2367937148385
 31
0.0
  0
INSERT
  5
1C63
330
18
100
AcDbEntity
  8
寸法線
 62
     2
100
AcDbBlockReference
  2
_OPEN
 10
1259.49014530506
 20
204.2367937148384
 30
0.0
 41
2.499999999999971
 42
2.5
 43
2.5
 50
159.8823213023692
  0
LINE
  5
1C64
330
18
100
AcDbEntity
  8
隠れ線2
100
AcDbLine
 10
1205.874686529683
 20
47.44191581935853
 30
0.0
 11
1198.416660185691
 21
54.33684868770772
 31
0.0
  0
LINE
  5
1C65
330
18
100
AcDbEntity
  8
隠れ線2
100
AcDbLine
 10
1213.038398949415
 20
46.66473382259015
 30
0.0
 11
1201.4130950667
 21
57.00292874794364
 31
0.0
  0
LINE
  5
1CE8
330
18
100
AcDbEntity
  8
寸法線
100
AcDbLine
 10
625.2193172530699
 20
161.6533133761292
 30
0.0
 11
625.2193172530699
 21
301.8614953215685
 31
0.0
  0
LINE
  5
1CE9
330
18
100
AcDbEntity
  8
想像線
100
AcDbLine
 10
1225.21931725307
 20
21.21135120559043
 30
0.0
 11
1225.21931725307
 21
244.032452706353
 31
0.0
  0
DIMENSION
  5
1CEA
330
18
100
AcDbEntity
  8
寸法線
100
AcDbDimension
  2
*D14
 10
625.2193172530699
 20
267.2039720076407
 30
0.0
 11
925.2193172530699
 21
269.0789720076407
 31
0.0
 70
    32
 71
     5
 42
600.0
  3
STYLE3
100
AcDbAlignedDimension
 13
1225.21931725307
 23
244.032452706353
 33
0.0
 14
625.2193172530699
 24
289.7347691105649
 34
0.0
100
AcDbRotatedDimension
1001
ACAD
1000
DSTYLE
1002
{
1070
   271
1070
     2
1070
   341
1005
0
1002
}
  0
CIRCLE
  5
1CF3
330
18
100
AcDbEntity
  8
寸法線
100
AcDbCircle
 10
1158.61931725307
 20
86.71033311472195
 30
0.0
 40
4.0
  0
CIRCLE
  5
1CF4
330
18
100
AcDbEntity
  8
外形線
100
AcDbCircle
 10
1158.61931725307
 20
86.71033311472195
 30
0.0
 40
3.280012030546737
  0
LINE
  5
1CF5
330
18
100
AcDbEntity
  8
隠れ線2
100
AcDbLine
 10
1158.112008460251
 20
94.09857534062709
 30
0.0
 11
1165.800737047736
 21
88.518839441142
 31
0.0
  0
LINE
  5
1CF6
330
18
100
AcDbEntity
  8
中心線
 48
0.3
100
AcDbLine
 10
1294.739771845654
 20
282.2103331147219
 30
0.0
 11
1306.248862660486
 21
282.2103331147219
 31
0.0
  0
LINE
  5
1CF7
330
18
100
AcDbEntity
  8
中心線
 48
0.3
100
AcDbLine
 10
1300.49431725307
 20
276.4557877073062
 30
0.0
 11
1300.49431725307
 21
287.9648785221375
 31
0.0
  0
CIRCLE
  5
1CF8
330
18
100
AcDbEntity
  8
隠れ線2
100
AcDbCircle
 10
1300.49431725307
 20
282.2103331147219
 30
0.0
 40
4.0
  0
CIRCLE
  5
1CF9
330
18
100
AcDbEntity
  8
隠れ線2
100
AcDbCircle
 10
1300.49431725307
 20
282.2103331147219
 30
0.0
 40
3.280012030546737
  0
LINE
  5
1CFA
330
18
100
AcDbEntity
  8
隠れ線2
100
AcDbLine
 10
1293.136559154273
 20
280.1588372661333
 30
0.0
 11
1300.825287741757
 21
274.5791013666482
 31
0.0
  0
CIRCLE
  5
1CFE
330
18
100
AcDbEntity
  8
隠れ線2
100
AcDbCircle
 10
1317.582458888554
 20
279.9370188717584
 30
0.0
 40
25.0
  0
LINE
  5
1CFF
330
18
100
AcDbEntity
  8
外形線
100
AcDbLine
 10
703.2807970609292
 20
487.502516837833
 30
0.0
 11
699.0988802896922
 21
391.7208755663707
 31
0.0
  0
LINE
  5
1D00
330
18
100
AcDbEntity
  8
隠れ線2
100
AcDbLine
 10
701.3670561271379
 20
487.2292558593427
 30
0.0
 11
699.6873420935509
 21
448.7574794456565
 31
0.0
  0
LINE
  5
1D01
330
18
100
AcDbEntity
  8
外形線
100
AcDbLine
 10
692.6041371145146
 20
485.9780082209919
 30
0.0
 11
686.9193817179469
 21
355.775703417829
 31
0.0
  0
LINE
  5
1D02
330
18
100
AcDbEntity
  8
隠れ線2
100
AcDbLine
 10
694.5178780483058
 20
486.2512691994823
 30
0.0
 11
692.8938141867943
 21
449.0540912797408
 31
0.0
  0
LINE
  5
1D03
330
18
100
AcDbEntity
  8
外形線
100
AcDbLine
 10
695.0628531657788
 20
427.6639360790458
 30
0.0
 11
691.9615992524112
 21
356.6335435411183
 31
0.0
  0
LINE
  5
1D04
330
18
100
AcDbEntity
  8
外形線
100
AcDbLine
 10
690.0676120578696
 20
427.8820330158724
 30
0.0
 11
695.0628531657788
 21
427.6639360790458
 31
0.0
  0
LINE
  5
1D05
330
18
100
AcDbEntity
  8
外形線
100
AcDbLine
 10
693.5042102488339
 20
391.9651441356165
 30
0.0
 11
699.0988802896922
 21
391.7208755663706
 31
0.0
  0
LINE
  5
1D06
330
18
100
AcDbEntity
  8
隠れ線2
100
AcDbLine
 10
690.9956225657888
 20
449.136968115735
 30
0.0
 11
692.8938141867941
 21
449.0540912797409
 31
0.0
  0
LINE
  5
1D07
330
18
100
AcDbEntity
  8
隠れ線2
100
AcDbLine
 10
699.6873420935507
 20
448.7574794456566
 30
0.0
 11
701.5855337145564
 21
448.6746026096624
 31
0.0
  0
LINE
  5
1D08
330
18
100
AcDbEntity
  8
中心線
 48
0.4
100
AcDbLine
 10
685.3241924211641
 20
421.6883491540545
 30
0.0
 11
705.4387398924987
 21
420.810129045278
 31
0.0
  0
LINE
  5
1D09
330
18
100
AcDbEntity
  8
隠れ線2
100
AcDbLine
 10
689.7014406525808
 20
419.4953289985996
 30
0.0
 11
700.2913518013484
 21
419.032963492527
 31
0.0
  0
LINE
  5
1D0A
330
18
100
AcDbEntity
  8
隠れ線2
100
AcDbLine
 10
689.8759182020421
 20
423.491521884927
 30
0.0
 11
700.4658293508098
 21
423.0291563788544
 31
0.0
  0
LINE
  5
1D0B
330
18
100
AcDbEntity
  8
中心線
 48
0.4
100
AcDbLine
 10
684.4437474643743
 20
401.5228442854458
 30
0.0
 11
704.558294935709
 21
400.6446241766691
 31
0.0
  0
LINE
  5
1D0C
330
18
100
AcDbEntity
  8
隠れ線2
100
AcDbLine
 10
688.8209956957912
 20
399.3298241299908
 30
0.0
 11
699.4109068445588
 21
398.8674586239183
 31
0.0
  0
LINE
  5
1D0D
330
18
100
AcDbEntity
  8
隠れ線2
100
AcDbLine
 10
688.9954732452525
 20
403.3260170163181
 30
0.0
 11
699.5853843940201
 21
402.8636515102457
 31
0.0
  0
LINE
  5
1D0E
330
18
100
AcDbEntity
  8
想像線
 48
0.3
100
AcDbLine
 10
683.0877372489185
 20
355.1238199278278
 30
0.0
 11
696.2271699362097
 21
357.3592515567439
 31
0.0
  0
LINE
  5
1D0F
330
18
100
AcDbEntity
  8
想像線
 48
0.45
100
AcDbLine
 10
688.1198610744282
 20
485.3377033412153
 30
0.0
 11
707.6892280149977
 21
488.1319918805857
 31
0.0
  0
DIMENSION
  5
1D10
330
18
100
AcDbEntity
  8
寸法線
100
AcDbDimension
  2
*D15
 10
691.5972898677146
 20
348.2894868069343
 30
0.0
 11
689.1814556650699
 21
350.2717506908136
 31
0.0
 70
    32
 71
     5
 42
5.000000000000227
  3
STYLE3
100
AcDbAlignedDimension
 13
686.9193817179469
 23
355.7757034178292
 33
0.0
 14
691.9615992524112
 24
356.6335435411184
 34
0.0
 50
357.4999999999998
100
AcDbRotatedDimension
1001
ACAD
1000
DSTYLE
1002
{
1070
   271
1070
     2
1070
   341
1005
0
1002
}
  0
LINE
  5
1D11
330
18
100
AcDbEntity
  8
中心線
 48
0.2
100
AcDbLine
 10
644.236099072847
 20
403.2103331147219
 30
0.0
 11
654.4025354332931
 21
403.2103331147219
 31
0.0
  0
LINE
  5
1D12
330
18
100
AcDbEntity
  8
中心線
 48
0.2
100
AcDbLine
 10
649.31931725307
 20
398.1271149344989
 30
0.0
 11
649.31931725307
 21
408.293551294945
 31
0.0
  0
LINE
  5
1D13
330
18
100
AcDbEntity
  8
中心線
 48
0.2
100
AcDbLine
 10
654.161099072847
 20
402.4353331147219
 30
0.0
 11
664.3275354332931
 21
402.4353331147219
 31
0.0
  0
LINE
  5
1D14
330
18
100
AcDbEntity
  8
中心線
 48
0.2
100
AcDbLine
 10
659.24431725307
 20
397.3521149344989
 30
0.0
 11
659.24431725307
 21
407.518551294945
 31
0.0
  0
LINE
  5
1D15
330
18
100
AcDbEntity
  8
中心線
100
AcDbLine
 10
864.8370574100171
 20
41.25948326929767
 30
0.0
 11
1148.570061913239
 21
18.92921153241672
 31
0.0
  0
LINE
  5
1D16
330
18
100
AcDbEntity
  8
隠れ線2
100
AcDbLine
 10
1054.993209211407
 20
22.783046864637
 30
0.0
 11
1056.616230916739
 21
22.65531228621398
 31
0.0
  0
ARC
  5
1D17
330
18
100
AcDbEntity
  8
隠れ線2
100
AcDbCircle
 10
1054.875520567815
 20
21.28767086403731
 30
0.0
 40
1.5
100
AcDbArc
 50
85.5000000000029
 51
175.4999999999997
  0
LINE
  5
1D18
330
18
100
AcDbEntity
  8
隠れ線2
100
AcDbLine
 10
1055.542422881502
 20
29.76146820076892
 30
0.0
 11
1057.165444586834
 21
29.6337336223459
 31
0.0
  0
ARC
  5
1D19
330
18
100
AcDbEntity
  8
隠れ線2
100
AcDbCircle
 10
1055.660111525094
 20
31.25684420136861
 30
0.0
 40
1.5
100
AcDbArc
 50
175.4999999999999
 51
265.5000000000029
  0
LINE
  5
1D1A
330
18
100
AcDbEntity
  8
外形線
100
AcDbLine
 10
914.9437851355207
 20
28.86090051738627
 30
0.0
 11
1052.040096385778
 21
17.20400958013707
 31
0.0
  0
LINE
  5
1D1B
330
18
100
AcDbEntity
  8
外形線
100
AcDbLine
 10
1052.040096385778
 20
17.20400958013706
 30
0.0
 11
1144.13901100079
 21
9.373113232047224
 31
0.0
  0
ARC
  5
1D1C
330
18
100
AcDbEntity
  8
外形線
100
AcDbCircle
 10
914.5201785248103
 20
23.87887708916331
 30
0.0
 40
5.0
100
AcDbArc
 50
85.14000000000084
 51
103.101761838681
  0
LINE
  5
1D1D
330
18
100
AcDbEntity
  8
外形線
100
AcDbLine
 10
853.3458127993892
 20
28.57854702541124
 30
0.0
 11
895.210924801311
 21
25.01888126758283
 31
0.0
  0
LINE
  5
1D1E
330
18
100
AcDbEntity
  8
外形線
100
AcDbLine
 10
853.0655751895173
 20
33.62041623096634
 30
0.0
 11
896.3905989463679
 21
29.93661852567695
 31
0.0
  0
ARC
  5
1D1F
330
18
100
AcDbEntity
  8
外形線
100
AcDbCircle
 10
896.8142055570782
 20
34.91864195389991
 30
0.0
 40
5.0
100
AcDbArc
 50
265.1400000000008
 51
283.1017618386811
  0
LINE
  5
1D20
330
18
100
AcDbEntity
  8
外形線
100
AcDbLine
 10
916.1234592805774
 20
33.77863777548041
 30
0.0
 11
1020.917367169492
 21
24.86832396755198
 31
0.0
  0
ARC
  5
1D21
330
18
100
AcDbEntity
  8
外形線
100
AcDbCircle
 10
915.2762460591565
 20
23.81459091903448
 30
0.0
 40
10.0
100
AcDbArc
 50
85.14000000000084
 51
103.101761838681
  0
LINE
  5
1D22
330
18
100
AcDbEntity
  8
外形線
100
AcDbLine
 10
944.892507738184
 20
43.59497023933527
 30
0.0
 11
1053.498421488206
 21
35.73378690349584
 31
0.0
  0
LINE
  5
1D23
330
18
100
AcDbEntity
  8
外形線
100
AcDbLine
 10
1053.498421488206
 20
35.73378690349583
 30
0.0
 11
1143.073664177616
 21
29.25009388145154
 31
0.0
  0
ARC
  5
1D24
330
18
100
AcDbEntity
  8
外形線
100
AcDbCircle
 10
944.7842170803596
 20
42.09888430148679
 30
0.0
 40
1.5
100
AcDbArc
 50
85.85999999999812
 51
175.4999999999997
  0
LINE
  5
1D25
330
18
100
AcDbEntity
  8
外形線
100
AcDbLine
 10
943.28884107976
 20
42.21657294507855
 30
0.0
 11
942.4485993530334
 21
31.54028953741391
 31
0.0
  0
LINE
  5
1D26
330
18
100
AcDbEntity
  8
外形線
100
AcDbLine
 10
1020.917367169492
 20
24.86832396755198
 30
0.0
 11
1020.525063947123
 21
19.88363890547078
 31
0.0
  0
LINE
  5
1D27
330
18
100
AcDbEntity
  8
隠れ線2
100
AcDbLine
 10
1054.423145050057
 20
34.65793718253567
 30
0.0
 11
1054.164735524494
 21
31.37453284496037
 31
0.0
  0
ARC
  5
1D28
330
18
100
AcDbEntity
  8
隠れ線2
100
AcDbCircle
 10
1053.426227716323
 20
34.73639627826351
 30
0.0
 40
1.0
100
AcDbArc
 50
355.4999999999998
 51
85.85999999999812
  0
LINE
  5
1D29
330
18
100
AcDbEntity
  8
隠れ線2
100
AcDbLine
 10
1053.380144567215
 20
21.40535950762908
 30
0.0
 11
1053.121735041653
 21
18.12195517005381
 31
0.0
  0
ARC
  5
1D2A
330
18
100
AcDbEntity
  8
隠れ線2
100
AcDbCircle
 10
1052.12481770792
 20
18.20041426578166
 30
0.0
 40
1.0
100
AcDbArc
 50
265.1400000000008
 51
355.4999999999998
  0
LINE
  5
1D2B
330
18
100
AcDbEntity
  8
隠れ線2
100
AcDbLine
 10
1058.083902824839
 20
28.55835719288491
 30
0.0
 11
1057.6916073462
 21
23.57377052421927
 31
0.0
  0
ARC
  5
1D2C
330
18
100
AcDbEntity
  8
隠れ線2
100
AcDbCircle
 10
1057.086985491106
 20
28.63681628861277
 30
0.0
 40
1.0
100
AcDbArc
 50
355.4999999999995
 51
85.5000000000029
  0
ARC
  5
1D2D
330
18
100
AcDbEntity
  8
隠れ線2
100
AcDbCircle
 10
1056.694690012467
 20
23.65222961994712
 30
0.0
 40
1.0
100
AcDbArc
 50
265.5000000000029
 51
355.4999999999997
  0
LINE
  5
1D2E
330
18
100
AcDbEntity
  8
外形線
100
AcDbLine
 10
897.9476118419757
 20
30.0487969673162
 30
0.0
 11
913.0094334893614
 21
33.5542808922019
 31
0.0
  0
LINE
  5
1D2F
330
18
100
AcDbEntity
  8
外形線
100
AcDbLine
 10
898.324950592527
 20
25.24323815086134
 30
0.0
 11
913.3867722399127
 21
28.74872207574703
 31
0.0
  0
ARC
  5
1D30
330
18
100
AcDbEntity
  8
外形線
100
AcDbCircle
 10
896.0581380227317
 20
34.98292812402876
 30
0.0
 40
10.0
100
AcDbArc
 50
265.1400000000008
 51
283.1017618386811
  0
LINE
  5
1D31
330
18
100
AcDbEntity
  8
想像線
100
AcDbLine
 10
852.8207988805986
 20
38.02428669913844
 30
0.0
 11
853.7092807416431
 21
22.03924694326519
 31
0.0
  0
LINE
  5
1D32
330
18
100
AcDbEntity
  8
想像線
100
AcDbLine
 10
1142.762051181737
 20
35.06409299842131
 30
0.0
 11
1144.539014903826
 21
1.909938172648246
 31
0.0
  0
LINE
  5
1D33
330
18
100
AcDbEntity
  8
中心線
 48
0.5
100
AcDbLine
 10
952.8449646075346
 20
47.18486792656294
 30
0.0
 11
950.7398848305786
 21
20.43729329457917
 31
0.0
  0
LINE
  5
1D34
330
18
100
AcDbEntity
  8
隠れ線2
100
AcDbLine
 10
954.5138088621754
 20
42.89855501245266
 30
0.0
 11
953.1533319304589
 21
25.6120565792203
 31
0.0
  0
LINE
  5
1D35
330
18
100
AcDbEntity
  8
隠れ線2
100
AcDbLine
 10
950.5241676091435
 20
43.18733580026963
 30
0.0
 11
949.1676345136259
 21
25.9509485572261
 31
0.0
  0
LINE
  5
1D36
330
18
100
AcDbEntity
  8
中心線
 48
0.5
100
AcDbLine
 10
982.8046481958974
 20
45.0163067751513
 30
0.0
 11
980.643919829499
 21
17.56164977243047
 31
0.0
  0
LINE
  5
1D37
330
18
100
AcDbEntity
  8
隠れ線2
100
AcDbLine
 10
984.4734924505383
 20
40.72999386104103
 30
0.0
 11
983.0833998022326
 21
23.06719206941695
 31
0.0
  0
LINE
  5
1D38
330
18
100
AcDbEntity
  8
隠れ線2
100
AcDbLine
 10
980.4838511975063
 20
41.018774648858
 30
0.0
 11
979.0977023853995
 21
23.40608404742276
 31
0.0
  0
LINE
  5
1D39
330
18
100
AcDbEntity
  8
中心線
 48
0.5
100
AcDbLine
 10
1012.81668890625
 20
42.84395587674813
 30
0.0
 11
1010.707122551372
 21
16.03937386712582
 31
0.0
  0
LINE
  5
1D3A
330
18
100
AcDbEntity
  8
隠れ線2
100
AcDbLine
 10
1014.485533160891
 20
38.55764296263784
 30
0.0
 11
1013.065773039986
 21
20.51788019016145
 31
0.0
  0
LINE
  5
1D3B
330
18
100
AcDbEntity
  8
隠れ線2
100
AcDbLine
 10
1010.495891907859
 20
38.8464237504548
 30
0.0
 11
1009.080075623153
 21
20.85677216816725
 31
0.0
  0
DIMENSION
  5
1D3C
330
18
100
AcDbEntity
  8
寸法線
100
AcDbDimension
  2
*D16
 10
873.9379160790422
 20
26.81656403207777
 30
0.0
 11
872.2650610412692
 21
29.45872825916195
 31
0.0
 70
    32
  1
5
 71
     5
 42
5.005537246004948
  3
STYLE3
100
AcDbAlignedDimension
 13
875.2222587372951
 23
31.73649943340841
 33
0.0
 14
875.69242103795
 24
26.67848149717955
 34
0.0
 50
85.5000000000029
100
AcDbRotatedDimension
1001
ACAD
1000
DSTYLE
1002
{
1070
   271
1070
     2
1070
   341
1005
0
1002
}
  0
DIMENSION
  5
1D3D
330
18
100
AcDbEntity
  8
寸法線
100
AcDbDimension
  2
*D17
 10
924.0185901415852
 20
22.7514708338602
 30
0.0
 11
921.502549619508
 21
14.67994766679987
 31
0.0
 70
    32
  1
5.5
 71
     5
 42
5.329150169168201
  3
STYLE3
100
AcDbAlignedDimension
 13
922.7849895007652
 23
28.19418626906863
 33
0.0
 14
895.2735470654534
 24
25.01375478669748
 34
0.0
 50
85.5000000000029
100
AcDbRotatedDimension
1001
ACAD
1000
DSTYLE
1002
{
1070
   271
1070
     2
1070
   341
1005
0
1002
}
  0
LINE
  5
1D3E
330
18
100
AcDbEntity
  8
隠れ線2
100
AcDbLine
 10
1057.165444586834
 20
29.63373362234589
 30
0.0
 11
1143.416926208609
 21
22.8455948025599
 31
0.0
  0
LINE
  5
1D3F
330
18
100
AcDbEntity
  8
隠れ線2
100
AcDbLine
 10
1056.616230916739
 20
22.65531228621398
 30
0.0
 11
1143.794859629337
 21
15.7942054079028
 31
0.0
  0
LINE
  5
1D40
330
18
100
AcDbEntity
  8
寸法図
100
AcDbLine
 10
1059.882097321132
 20
112.6168236295915
 30
0.0
 11
1049.735251408382
 21
112.6168236295915
 31
0.0
  0
TEXT
  5
1D41
330
18
100
AcDbEntity
  8
寸法図
 62
     6
100
AcDbText
 10
1050.121006576969
 20
113.2381913531405
 30
0.0
 40
2.5
  1
AC3A
  7
STYLE3
100
AcDbText
  0
LINE
  5
1D42
330
18
100
AcDbEntity
  8
寸法線
100
AcDbLine
 10
1049.735251408382
 20
112.6168236295915
 30
0.0
 11
1041.40206691866
 21
98.59897716513092
 31
0.0
  0
LINE
  5
1D43
330
18
100
AcDbEntity
  8
寸法図
100
AcDbLine
 10
1353.919415628249
 20
459.482505855169
 30
0.0
 11
1343.7725697155
 21
459.482505855169
 31
0.0
  0
TEXT
  5
1D44
330
18
100
AcDbEntity
  8
寸法図
 62
     6
100
AcDbText
 10
1344.158324884086
 20
460.103873578718
 30
0.0
 40
2.5
  1
AC3A
  7
STYLE3
100
AcDbText
  0
LINE
  5
1D45
330
18
100
AcDbEntity
  8
寸法線
100
AcDbLine
 10
1343.7725697155
 20
459.482505855169
 30
0.0
 11
1329.855385786474
 21
436.2047200315423
 31
0.0
  0
CIRCLE
  5
1D46
330
18
100
AcDbEntity
  8
外形線
100
AcDbCircle
 10
1332.997491846122
 20
187.9385077077739
 30
0.0
 40
1.5
  0
CIRCLE
  5
1D47
330
18
100
AcDbEntity
  8
外形線
100
AcDbCircle
 10
1317.441142660018
 20
172.3821585216699
 30
0.0
 40
1.5
  0
LINE
  5
1D48
330
18
100
AcDbEntity
  8
中心線
 48
0.15
100
AcDbLine
 10
1336.347407192248
 20
187.9385077077738
 30
0.0
 11
1329.647576499995
 21
187.9385077077739
 31
0.0
  0
LINE
  5
1D49
330
18
100
AcDbEntity
  8
中心線
 48
0.15
100
AcDbLine
 10
1317.441142660018
 20
175.7320738677965
 30
0.0
 11
1317.441142660018
 21
169.0322431755433
 31
0.0
  0
LINE
  5
1D4A
330
18
100
AcDbEntity
  8
中心線
 48
0.15
100
AcDbLine
 10
1320.791058006144
 20
172.3821585216698
 30
0.0
 11
1314.091227313891
 21
172.3821585216699
 31
0.0
  0
CIRCLE
  5
1D4B
330
18
100
AcDbEntity
  8
目盛
100
AcDbCircle
 10
1308.606638726492
 20
274.3549446678157
 30
0.0
 40
0.8703494721857635
  0
ARC
  5
1D50
330
18
100
AcDbEntity
  8
寸法線
100
AcDbCircle
 10
1325.21931725307
 20
180.1603331147219
 30
0.0
 40
140.0
100
AcDbArc
 50
229.2704882415853
 51
282.167816375047
  0
CIRCLE
  5
1D51
330
18
100
AcDbEntity
  8
想像線
 48
0.4
100
AcDbCircle
 10
1338.015289623496
 20
40.95275363331359
 30
0.0
 40
5.0
  0
CIRCLE
  5
1D52
330
18
100
AcDbEntity
  8
外形線
100
AcDbCircle
 10
1241.733678542654
 20
67.77640130454738
 30
0.0
 40
5.0
  0
LINE
  5
1D53
330
18
100
AcDbEntity
  8
寸法線
100
AcDbLine
 10
1343.015210412145
 20
40.98089803290668
 30
0.0
 11
1325.21931725307
 21
180.1603331147219
 31
0.0
  0
CIRCLE
  5
1D56
330
18
100
AcDbEntity
  8
寸法線
100
AcDbCircle
 10
1241.733678542654
 20
67.77640130454738
 30
0.0
 40
4.0
  0
CIRCLE
  5
1D57
330
18
100
AcDbEntity
  8
外形線
100
AcDbCircle
 10
1241.733678542654
 20
67.77640130454738
 30
0.0
 40
3.238916224694387
  0
ARC
  5
1D58
330
18
100
AcDbEntity
  8
隠れ線2
100
AcDbCircle
 10
1242.53869997168
 20
67.18283302745482
 30
0.0
 40
6.0
100
AcDbArc
 50
45.83091716652687
 51
224.3144504073605
  0
ARC
  5
1D59
330
18
100
AcDbEntity
  8
隠れ線2
100
AcDbCircle
 10
1247.416147034684
 20
72.20383991328962
 30
0.0
 40
1.0
100
AcDbArc
 50
225.8309171665271
 51
296.1354655929821
  0
LINE
  5
1D5A
330
18
100
AcDbEntity
  8
隠れ線2
100
AcDbLine
 10
1238.245600578145
 20
62.99125843105018
 30
0.0
 11
1243.225458356312
 21
56.31885692296129
 31
0.0
  0
LINE
  5
1D5B
330
18
100
AcDbEntity
  8
中心線
 48
0.35
100
AcDbLine
 10
1232.784119389383
 20
67.77640130454738
 30
0.0
 11
1250.683237695925
 21
67.77640130454738
 31
0.0
  0
LINE
  5
1D5C
330
18
100
AcDbEntity
  8
中心線
 48
0.35
100
AcDbLine
 10
1241.733678542654
 20
76.6357596040787
 30
0.0
 11
1241.733678542654
 21
58.82684215127646
 31
0.0
  0
DIMENSION
  5
1D5D
330
18
100
AcDbEntity
  8
寸法線
100
AcDbDimension
  2
*D19
 10
1242.53869997168
 20
67.18283302745487
 30
0.0
 11
1247.552024951061
 21
80.01529962855505
 31
0.0
 70
    36
 71
     5
 42
6.0
  3
STYLE3
100
AcDbRadialDimension
 15
1245.462326452539
 25
72.42233760331112
 35
0.0
 40
0.0
1001
ACAD
1000
DSTYLE
1002
{
1070
    79
1070
     2
1070
   179
1070
     3
1070
   271
1070
     3
1070
   272
1070
     3
1070
   288
1070
     1
1002
}
  0
LINE
  5
1D5E
330
18
100
AcDbEntity
  8
中心線
 48
0.35
100
AcDbLine
 10
1329.065730470225
 20
40.95275363331359
 30
0.0
 11
1346.964848776766
 21
40.95275363331359
 31
0.0
  0
LINE
  5
1D5F
330
18
100
AcDbEntity
  8
中心線
 48
0.35
100
AcDbLine
 10
1338.015289623496
 20
49.81211193284491
 30
0.0
 11
1338.015289623496
 21
32.00319448004268
 31
0.0
  0
DIMENSION
  5
1D60
330
18
100
AcDbEntity
  8
寸法線
100
AcDbDimension
  2
*D20
 10
1325.219317253071
 20
180.1603331147221
 30
0.0
 11
1271.105025737976
 21
30.0420167878687
 31
0.0
 70
   164
 71
     5
 42
140.0000000000002
  3
STYLE3
100
AcDbRadialDimension
 15
1277.742909931173
 25
48.45615418403929
 35
0.0
 40
0.0
1001
ACAD
1000
DSTYLE
1002
{
1070
    79
1070
     2
1070
   179
1070
     3
1070
   271
1070
     3
1070
   272
1070
     3
1070
   288
1070
     1
1002
}
  0
LINE
  5
2193
330
18
100
AcDbEntity
  8
外形線
100
AcDbLine
 10
887.6837493032736
 20
404.933407867198
 30
0.0
 11
1049.683749303273
 21
404.933407867198
 31
0.0
  0
LINE
  5
2194
330
18
100
AcDbEntity
  8
外形線
100
AcDbLine
 10
887.6837493032736
 20
405.9334078671981
 30
0.0
 11
1049.683749303273
 21
405.9334078671981
 31
0.0
  0
TEXT
  5
2195
330
18
100
AcDbEntity
  8
文字
100
AcDbText
 10
888.3044573032734
 20
408.4065208671981
 30
0.0
 40
5.0
  1
Model No.LA-24 Outside Dial Caliper Gauge
  7
STYLE3
100
AcDbText
  0
TEXT
  5
2196
330
18
100
AcDbEntity
  8
C
  6
Continuous
100
AcDbText
 10
602.3032542221767
 20
-4.490449093598009
 30
0.0
 40
2.1
  1
3RD Angle Projection
  7
STYLE3
100
AcDbText
  0
TEXT
  5
2197
330
18
100
AcDbEntity
  8
C
  6
Continuous
100
AcDbText
 10
604.9266972221767
 20
-0.994166093598011
 30
0.0
 40
3.0
  1
三　　角　　法
  7
STYLE3
100
AcDbText
  0
LINE
  5
2198
330
18
100
AcDbEntity
  8
C
100
AcDbLine
 10
601.1372782221767
 20
14.15639490640199
 30
0.0
 11
741.9286962221766
 21
14.15639490640199
 31
0.0
  0
LINE
  5
2199
330
18
100
AcDbEntity
  8
C
100
AcDbLine
 10
601.1372782221767
 20
3.376188906401992
 30
0.0
 11
741.9286962221766
 21
3.376188906401992
 31
0.0
  0
TEXT
  5
219A
330
18
100
AcDbEntity
  8
C
  6
Continuous
100
AcDbText
 10
602.5947462221767
 20
5.274178906401992
 30
0.0
 40
2.1
  1
Design and specifications are subject to change without notice for future improvement.
  7
STYLE3
100
AcDbText
  0
TEXT
  5
219B
330
18
100
AcDbEntity
  8
C
  6
Continuous
100
AcDbText
 10
602.8862402221766
 20
9.203326906401997
 30
0.0
 40
3.5
  1
仕様及び外観は予告なく変更される場合がございますのでご了承下さい。
  7
STYLE3
100
AcDbText
  0
LINE
  5
219C
330
18
100
AcDbEntity
  8
C
100
AcDbLine
 10
741.9826122221766
 20
-6.238589093598008
 30
0.0
 11
741.9826122221766
 21
14.15639490640199
 31
0.0
  0
TEXT
  5
219D
330
18
100
AcDbEntity
  8
C
  6
Continuous
100
AcDbText
 10
674.9762862221766
 20
-1.157364093598005
 30
0.0
 40
3.0
  1
日 付
  7
STYLE3
100
AcDbText
  0
TEXT
  5
219E
330
18
100
AcDbEntity
  8
C
  6
Continuous
100
AcDbText
 10
665.2658752221766
 20
-2.450948093598007
 30
0.0
 40
2.399999999999999
  1
1/1
  7
STYLE3
100
AcDbText
  0
TEXT
  5
219F
330
18
100
AcDbEntity
  8
C
  6
Continuous
100
AcDbText
 10
655.1833712221767
 20
-1.279569093598006
 30
0.0
 40
3.0
  1
尺 度
  7
STYLE3
100
AcDbText
  0
LINE
  5
21A0
330
18
100
AcDbEntity
  8
C
100
AcDbLine
 10
703.1600452221766
 20
3.376188906401992
 30
0.0
 11
703.1600452221766
 21
-6.238589093598008
 31
0.0
  0
LINE
  5
21A1
330
18
100
AcDbEntity
  8
C
100
AcDbLine
 10
673.4276962221766
 20
3.376188906401992
 30
0.0
 11
673.4276962221766
 21
-6.238589093598008
 31
0.0
  0
LINE
  5
21A2
330
18
100
AcDbEntity
  8
C
100
AcDbLine
 10
653.8976242221766
 20
3.376188906401992
 30
0.0
 11
653.8976242221766
 21
-6.238589093598008
 31
0.0
  0
LINE
  5
21A3
330
18
100
AcDbEntity
  8
C
100
AcDbLine
 10
636.4080062221766
 20
3.376188906401992
 30
0.0
 11
636.4080062221766
 21
-6.238589093598008
 31
0.0
  0
TEXT
  5
21A4
330
18
100
AcDbEntity
  8
C
  6
Continuous
100
AcDbText
 10
637.8654752221766
 20
-0.9882110935980108
 30
0.0
 40
3.0
  1
単位
  7
STYLE3
100
AcDbText
  0
TEXT
  5
21A5
330
18
100
AcDbEntity
  8
C
  6
Continuous
100
AcDbText
 10
704.5090082221767
 20
-0.7028090935980061
 30
0.0
 40
3.0
  1
株式会社　尾崎製作所
  7
STYLE3
100
AcDbText
  0
TEXT
  5
21A6
330
18
100
AcDbEntity
  8
C
  6
Continuous
100
AcDbText
 10
684.1044542221766
 20
-2.742306093598003
 30
0.0
 40
2.1
  1
2010.06.28
  7
STYLE3
100
AcDbText
  0
TEXT
  5
21A7
330
18
100
AcDbEntity
  8
C
  6
Continuous
100
AcDbText
 10
655.6465862221767
 20
-4.199091093598006
 30
0.0
 40
2.1
  1
Scale
  7
STYLE3
100
AcDbText
  0
TEXT
  5
21A8
330
18
100
AcDbEntity
  8
C
  6
Continuous
100
AcDbText
 10
638.0371962221767
 20
-4.490448093598004
 30
0.0
 40
2.1
  1
Unit
  7
STYLE3
100
AcDbText
  0
TEXT
  5
21A9
330
18
100
AcDbEntity
  8
C
  6
Continuous
100
AcDbText
 10
645.9075232221766
 20
-2.742305093598005
 30
0.0
 40
2.399999999999999
  1
mm
  7
STYLE3
100
AcDbText
  0
TEXT
  5
21AA
330
18
100
AcDbEntity
  8
C
  6
Continuous
100
AcDbText
 10
675.3596472221767
 20
-4.490447093598007
 30
0.0
 40
2.1
  1
Date
  7
STYLE3
100
AcDbText
  0
TEXT
  5
21AB
330
18
100
AcDbEntity
  8
C
  6
Continuous
100
AcDbText
 10
705.3834872221766
 20
-4.490448093598004
 30
0.0
 40
2.1
  1
OZAKI MFG. CO., LTD.
  7
STYLE3
100
AcDbText
  0
ENDSEC
  0
SECTION
  2
OBJECTS
  0
DICTIONARY
  5
C
330
0
100
AcDbDictionary
281
     1
  3
ACAD_COLOR
350
992
  3
ACAD_GROUP
350
D
  3
ACAD_IMAGE_VARS
350
680
  3
ACAD_LAYOUT
350
995
  3
ACAD_MATERIAL
350
991
  3
ACAD_MLINESTYLE
350
1B
  3
ACAD_PLOTSETTINGS
350
996
  3
ACAD_PLOTSTYLENAME
350
98F
  3
ACAD_TABLESTYLE
350
993
  3
AcDbVariableDictionary
350
99F
  0
DICTIONARY
  5
BE3
330
18
100
AcDbDictionary
280
     1
281
     1
  3
ACAD_SORTENTS
360
BE4
  0
DICTIONARY
  5
992
102
{ACAD_REACTORS
330
C
102
}
330
C
100
AcDbDictionary
281
     1
  0
DICTIONARY
  5
D
102
{ACAD_REACTORS
330
C
102
}
330
C
100
AcDbDictionary
281
     1
  0
RASTERVARIABLES
  5
680
102
{ACAD_REACTORS
330
C
102
}
330
C
100
AcDbRasterVariables
 90
        0
 70
     1
 71
     1
 72
     0
  0
DICTIONARY
  5
995
102
{ACAD_REACTORS
330
C
102
}
330
C
100
AcDbDictionary
281
     1
  3
Model
350
997
  3
レイアウト1
350
998
  0
DICTIONARY
  5
991
102
{ACAD_REACTORS
330
C
102
}
330
C
100
AcDbDictionary
281
     1
  0
DICTIONARY
  5
1B
102
{ACAD_REACTORS
330
C
102
}
330
C
100
AcDbDictionary
281
     1
  3
STANDARD
350
1C
  0
DICTIONARY
  5
996
102
{ACAD_REACTORS
330
C
102
}
330
C
100
AcDbDictionary
281
     1
  0
ACDBDICTIONARYWDFLT
  5
98F
102
{ACAD_REACTORS
330
C
102
}
330
C
100
AcDbDictionary
281
     1
  3
Normal
350
990
100
AcDbDictionaryWithDefault
340
990
  0
DICTIONARY
  5
993
102
{ACAD_REACTORS
330
C
102
}
330
C
100
AcDbDictionary
281
     1
  3
Standard
350
994
  0
DICTIONARY
  5
99F
102
{ACAD_REACTORS
330
C
102
}
330
C
100
AcDbDictionary
281
     1
  3
CTABLESTYLE
350
9A0
  0
SORTENTSTABLE
  5
BE4
102
{ACAD_REACTORS
330
BE3
102
}
330
BE3
100
AcDbSortentsTable
330
18
  0
LAYOUT
  5
997
102
{ACAD_REACTORS
330
995
102
}
330
995
100
AcDbPlotSettings
  1

  2
A4 EPSON LP-6100.pc3
  4
A4
  6

 40
5.873749732971191
 41
5.873747825622558
 42
5.873748779296875
 43
5.873748779296875
 44
209.9733276367187
 45
297.0106506347656
 46
0.0
 47
25.0
 48
0.0
 49
0.0
140
0.0
141
0.0
142
1.0
143
1.0
 70
 28336
 72
     1
 73
     1
 74
     1
  7
AutoCAD LT 98.ctb
 75
    16
147
1.0
 76
     1
 77
     2
 78
   300
148
0.4172655283673521
149
0.4115439190198913
100
AcDbLayout
  1
Model
 70
     1
 71
     0
 10
0.0
 20
0.0
 11
12.0
 21
9.0
 12
0.0
 22
0.0
 32
0.0
 14
0.0
 24
0.0
 34
0.0
 15
0.0
 25
0.0
 35
0.0
146
0.0
 13
0.0
 23
0.0
 33
0.0
 16
1.0
 26
0.0
 36
0.0
 17
0.0
 27
1.0
 37
0.0
 76
     0
330
18
1001
ACAD_PSEXT
1000
A4 EPSON LP-6100.pc3
1000
EPSON LP-6100
1000
\\SATO-MATE2
1000

1070
     0
  0
LAYOUT
  5
998
102
{ACAD_REACTORS
330
995
102
}
330
995
100
AcDbPlotSettings
  1

  2
Mytalk FAX
  4

  6

 40
0.0
 41
0.0
 42
0.0
 43
0.0
 44
0.0
 45
0.0
 46
0.0
 47
0.0
 48
0.0
 49
0.0
140
0.0
141
0.0
142
1.0
143
1.0
 70
   688
 72
     0
 73
     0
 74
     5
  7
AutoCAD LT 98.ctb
 75
    16
147
1.0
 76
     0
 77
     2
 78
   300
148
0.0
149
0.0
100
AcDbLayout
  1
レイアウト1
 70
     1
 71
     1
 10
0.0
 20
0.0
 11
420.0
 21
297.0
 12
0.0
 22
0.0
 32
0.0
 14
1.000000000000000E+20
 24
1.000000000000000E+20
 34
1.000000000000000E+20
 15
-1.000000000000000E+20
 25
-1.000000000000000E+20
 35
-1.000000000000000E+20
146
0.0
 13
0.0
 23
0.0
 33
0.0
 16
1.0
 26
0.0
 36
0.0
 17
0.0
 27
1.0
 37
0.0
 76
     0
330
15
  0
MLINESTYLE
  5
1C
102
{ACAD_REACTORS
330
1B
102
}
330
1B
100
AcDbMlineStyle
  2
STANDARD
 70
     0
  3

 62
   256
 51
90.0
 52
90.0
 71
     2
 49
0.5
 62
   256
  6
BYLAYER
 49
-0.5
 62
   256
  6
BYLAYER
  0
ACDBPLACEHOLDER
  5
990
102
{ACAD_REACTORS
330
98F
102
}
330
98F
  0
ACAD_PROXY_OBJECT
  5
994
102
{ACAD_REACTORS
330
993
102
}
330
993
100
AcDbProxyObject
 90
      499
 91
      504
 95
  2555929
 70
     0
 93
     1849
310
4214DD185B99185C992420000000000000F83F0000000000003E0FC00000000000004901028000000C1008070000C3001FDFF8000000C1003FBFF000000182007F7FE00000030400FEFFC00000060801FDFF8000000C1003FBFF000000182000000000000000C2020B0000001820100E000186003FBFF000000182007F7FE0
310
0000030400FEFFC00000060801FDFF8000000C1003FBFF000000182007F7FE0000003040000000000000012404160000003040201C00030C007F7FE00000030400FEFFC00000060801FDFF8000000C1003FBFF000000182007F7FE00000030400FEFFC000000608000
340
F
340
F
340
F
 94
        0
  0
DICTIONARYVAR
  5
9A0
102
{ACAD_REACTORS
330
99F
102
}
330
99F
100
DictionaryVariables
280
     0
  1
STANDARD
  0
ENDSEC
  0
EOF
