  0
SECTION
  2
HEADER
  9
$ACADVER
  1
AC1018
  9
$ACADMAINTVER
 70
     0
  9
$DWGCODEPAGE
  3
ANSI_932
  9
$INSBASE
 10
0.0
 20
0.0
 30
0.0
  9
$EXTMIN
 10
29.71672878866593
 20
23.89357600695223
 30
-0.0000152480782738
  9
$EXTMAX
 10
557.5225608083737
 20
402.2136287987684
 30
1.000015262048965
  9
$LIMMIN
 10
0.0
 20
0.0
  9
$LIMMAX
 10
420.0
 20
297.0
  9
$ORTHOMODE
 70
     0
  9
$REGENMODE
 70
     1
  9
$FILLMODE
 70
     1
  9
$QTEXTMODE
 70
     0
  9
$MIRRTEXT
 70
     1
  9
$LTSCALE
 40
1.0
  9
$ATTMODE
 70
     1
  9
$TEXTSIZE
 40
3.0
  9
$TRACEWID
 40
1.0
  9
$TEXTSTYLE
  7
STYLE3
  9
$CLAYER
  8
寸法線
  9
$CELTYPE
  6
BYLAYER
  9
$CECOLOR
 62
   256
  9
$CELTSCALE
 40
1.0
  9
$DISPSILH
 70
     0
  9
$DIMSCALE
 40
1.0
  9
$DIMASZ
 40
2.5
  9
$DIMEXO
 40
0.0
  9
$DIMDLI
 40
3.75
  9
$DIMRND
 40
0.0
  9
$DIMDLE
 40
0.0
  9
$DIMEXE
 40
1.25
  9
$DIMTP
 40
0.0
  9
$DIMTM
 40
0.0
  9
$DIMTXT
 40
2.5
  9
$DIMCEN
 40
2.5
  9
$DIMTSZ
 40
0.0
  9
$DIMTOL
 70
     0
  9
$DIMLIM
 70
     0
  9
$DIMTIH
 70
     0
  9
$DIMTOH
 70
     0
  9
$DIMSE1
 70
     0
  9
$DIMSE2
 70
     0
  9
$DIMTAD
 70
     1
  9
$DIMZIN
 70
     8
  9
$DIMBLK
  1

  9
$DIMASO
 70
     1
  9
$DIMSHO
 70
     1
  9
$DIMPOST
  1

  9
$DIMAPOST
  1

  9
$DIMALT
 70
     0
  9
$DIMALTD
 70
     4
  9
$DIMALTF
 40
0.0394
  9
$DIMLFAC
 40
1.0
  9
$DIMTOFL
 70
     1
  9
$DIMTVP
 40
0.0
  9
$DIMTIX
 70
     0
  9
$DIMSOXD
 70
     0
  9
$DIMSAH
 70
     1
  9
$DIMBLK1
  1
OPEN
  9
$DIMBLK2
  1
OPEN
  9
$DIMSTYLE
  2
STYLE3
  9
$DIMCLRD
 70
     2
  9
$DIMCLRE
 70
     2
  9
$DIMCLRT
 70
     6
  9
$DIMTFAC
 40
1.0
  9
$DIMGAP
 40
0.625
  9
$DIMJUST
 70
     0
  9
$DIMSD1
 70
     0
  9
$DIMSD2
 70
     0
  9
$DIMTOLJ
 70
     1
  9
$DIMTZIN
 70
     0
  9
$DIMALTZ
 70
     0
  9
$DIMALTTZ
 70
     0
  9
$DIMUPT
 70
     0
  9
$DIMDEC
 70
     2
  9
$DIMTDEC
 70
     4
  9
$DIMALTU
 70
     8
  9
$DIMALTTD
 70
     4
  9
$DIMTXSTY
  7
STYLE3
  9
$DIMAUNIT
 70
     0
  9
$DIMADEC
 70
     0
  9
$DIMALTRND
 40
0.0
  9
$DIMAZIN
 70
     0
  9
$DIMDSEP
 70
    46
  9
$DIMATFIT
 70
     3
  9
$DIMFRAC
 70
     0
  9
$DIMLDRBLK
  1

  9
$DIMLUNIT
 70
     2
  9
$DIMLWD
 70
    -2
  9
$DIMLWE
 70
    -2
  9
$DIMTMOVE
 70
     0
  9
$LUNITS
 70
     2
  9
$LUPREC
 70
     4
  9
$SKETCHINC
 40
1.0
  9
$FILLETRAD
 40
1.5
  9
$AUNITS
 70
     0
  9
$AUPREC
 70
     0
  9
$MENU
  1
.
  9
$ELEVATION
 40
0.0
  9
$PELEVATION
 40
0.0
  9
$THICKNESS
 40
0.0
  9
$LIMCHECK
 70
     0
  9
$CHAMFERA
 40
10.0
  9
$CHAMFERB
 40
10.0
  9
$CHAMFERC
 40
20.0
  9
$CHAMFERD
 40
0.0
  9
$SKPOLY
 70
     0
  9
$TDCREATE
 40
2450750.580414930
  9
$TDUCREATE
 40
2450750.205414931
  9
$TDUPDATE
 40
2455372.663026794
  9
$TDUUPDATE
 40
2455372.288026794
  9
$TDINDWG
 40
2.0033737847
  9
$TDUSRTIMER
 40
2.0033737847
  9
$USRTIMER
 70
     1
  9
$ANGBASE
 50
0.0
  9
$ANGDIR
 70
     0
  9
$PDMODE
 70
     0
  9
$PDSIZE
 40
0.0
  9
$PLINEWID
 40
0.0
  9
$SPLFRAME
 70
     0
  9
$SPLINETYPE
 70
     6
  9
$SPLINESEGS
 70
     8
  9
$HANDSEED
  5
1941
  9
$SURFTAB1
 70
     6
  9
$SURFTAB2
 70
     6
  9
$SURFTYPE
 70
     6
  9
$SURFU
 70
     6
  9
$SURFV
 70
     6
  9
$UCSBASE
  2

  9
$UCSNAME
  2

  9
$UCSORG
 10
0.0
 20
0.0
 30
0.0
  9
$UCSXDIR
 10
1.0
 20
0.0
 30
0.0
  9
$UCSYDIR
 10
0.0
 20
1.0
 30
0.0
  9
$UCSORTHOREF
  2

  9
$UCSORTHOVIEW
 70
     0
  9
$UCSORGTOP
 10
0.0
 20
0.0
 30
0.0
  9
$UCSORGBOTTOM
 10
0.0
 20
0.0
 30
0.0
  9
$UCSORGLEFT
 10
0.0
 20
0.0
 30
0.0
  9
$UCSORGRIGHT
 10
0.0
 20
0.0
 30
0.0
  9
$UCSORGFRONT
 10
0.0
 20
0.0
 30
0.0
  9
$UCSORGBACK
 10
0.0
 20
0.0
 30
0.0
  9
$PUCSBASE
  2

  9
$PUCSNAME
  2

  9
$PUCSORG
 10
0.0
 20
0.0
 30
0.0
  9
$PUCSXDIR
 10
1.0
 20
0.0
 30
0.0
  9
$PUCSYDIR
 10
0.0
 20
1.0
 30
0.0
  9
$PUCSORTHOREF
  2

  9
$PUCSORTHOVIEW
 70
     0
  9
$PUCSORGTOP
 10
0.0
 20
0.0
 30
0.0
  9
$PUCSORGBOTTOM
 10
0.0
 20
0.0
 30
0.0
  9
$PUCSORGLEFT
 10
0.0
 20
0.0
 30
0.0
  9
$PUCSORGRIGHT
 10
0.0
 20
0.0
 30
0.0
  9
$PUCSORGFRONT
 10
0.0
 20
0.0
 30
0.0
  9
$PUCSORGBACK
 10
0.0
 20
0.0
 30
0.0
  9
$USERI1
 70
     0
  9
$USERI2
 70
     0
  9
$USERI3
 70
     0
  9
$USERI4
 70
     0
  9
$USERI5
 70
     0
  9
$USERR1
 40
0.0
  9
$USERR2
 40
0.0
  9
$USERR3
 40
0.0
  9
$USERR4
 40
0.0
  9
$USERR5
 40
0.0
  9
$WORLDVIEW
 70
     1
  9
$SHADEDGE
 70
     3
  9
$SHADEDIF
 70
    70
  9
$TILEMODE
 70
     1
  9
$MAXACTVP
 70
    48
  9
$PINSBASE
 10
0.0
 20
0.0
 30
0.0
  9
$PLIMCHECK
 70
     0
  9
$PEXTMIN
 10
1.000000000000000E+20
 20
1.000000000000000E+20
 30
1.000000000000000E+20
  9
$PEXTMAX
 10
-1.000000000000000E+20
 20
-1.000000000000000E+20
 30
-1.000000000000000E+20
  9
$PLIMMIN
 10
0.0
 20
0.0
  9
$PLIMMAX
 10
420.0
 20
297.0
  9
$UNITMODE
 70
     0
  9
$VISRETAIN
 70
     1
  9
$PLINEGEN
 70
     0
  9
$PSLTSCALE
 70
     1
  9
$TREEDEPTH
 70
  3020
  9
$CMLSTYLE
  2
STANDARD
  9
$CMLJUST
 70
     0
  9
$CMLSCALE
 40
20.0
  9
$PROXYGRAPHICS
 70
     1
  9
$MEASUREMENT
 70
     1
  9
$CELWEIGHT
370
    -1
  9
$ENDCAPS
280
     0
  9
$JOINSTYLE
280
     0
  9
$LWDISPLAY
290
     0
  9
$INSUNITS
 70
     0
  9
$HYPERLINKBASE
  1

  9
$STYLESHEET
  1
AutoCAD LT 98.ctb
  9
$XEDIT
290
     1
  9
$CEPSNTYPE
380
     0
  9
$PSTYLEMODE
290
     1
  9
$FINGERPRINTGUID
  2
{2F5F4DF2-8FB4-4642-B9F3-D72C30E13BA3}
  9
$VERSIONGUID
  2
{82106ABE-0DEA-4880-9CAC-AFAF42B993AF}
  9
$EXTNAMES
290
     1
  9
$PSVPSCALE
 40
0.0
  9
$OLESTARTUP
290
     0
  9
$SORTENTS
280
   127
  9
$INDEXCTL
280
     0
  9
$HIDETEXT
280
     0
  9
$XCLIPFRAME
290
     0
  9
$HALOGAP
280
     0
  9
$OBSCOLOR
 70
   257
  9
$OBSLTYPE
280
     0
  9
$INTERSECTIONDISPLAY
280
     0
  9
$INTERSECTIONCOLOR
 70
   257
  9
$DIMASSOC
280
     1
  9
$PROJECTNAME
  1

  0
ENDSEC
  0
SECTION
  2
CLASSES
  0
CLASS
  1
HATCH
  2
AcDbHatch
  3
ObjectDBX Classes
 90
        0
 91
       19
280
     0
281
     1
  0
CLASS
  1
LWPOLYLINE
  2
AcDbPolyline
  3
ObjectDBX Classes
 90
        0
 91
        1
280
     0
281
     1
  0
CLASS
  1
IMAGEDEF
  2
AcDbRasterImageDef
  3
ISM
 90
        0
 91
        1
280
     0
281
     0
  0
CLASS
  1
ACDBDICTIONARYWDFLT
  2
AcDbDictionaryWithDefault
  3
ObjectDBX Classes
 90
        0
 91
        1
280
     0
281
     0
  0
CLASS
  1
TABLESTYLE
  2
AcDbTableStyle
  3
ObjectDBX Classes
 90
     2047
 91
        1
280
     0
281
     0
  0
CLASS
  1
SORTENTSTABLE
  2
AcDbSortentsTable
  3
ObjectDBX Classes
 90
        0
 91
        2
280
     0
281
     0
  0
CLASS
  1
DICTIONARYVAR
  2
AcDbDictionaryVar
  3
ObjectDBX Classes
 90
        0
 91
        1
280
     0
281
     0
  0
ENDSEC
  0
SECTION
  2
TABLES
  0
TABLE
  2
VPORT
  5
8
330
0
100
AcDbSymbolTable
 70
     2
  0
VPORT
  5
1940
330
8
100
AcDbSymbolTableRecord
100
AcDbViewportTableRecord
  2
*Active
 70
     0
 10
0.0
 20
0.0
 11
1.0
 21
1.0
 12
293.6196447985199
 22
213.0536024028604
 13
0.0
 23
0.0
 14
10.0
 24
10.0
 15
10.0
 25
10.0
 16
0.0
 26
0.0
 36
1.0
 17
0.0
 27
0.0
 37
0.0
 40
381.1970113681799
 41
1.530456852791878
 42
50.0
 43
0.0
 44
0.0
 50
0.0
 51
0.0
 71
     0
 72
   100
 73
     1
 74
     1
 75
     0
 76
     0
 77
     0
 78
     0
281
     0
 65
     1
110
0.0
120
0.0
130
0.0
111
1.0
121
0.0
131
0.0
112
0.0
122
1.0
132
0.0
 79
     0
146
0.0
  0
ENDTAB
  0
TABLE
  2
LTYPE
  5
5
330
0
100
AcDbSymbolTable
 70
    14
  0
LTYPE
  5
12
330
5
100
AcDbSymbolTableRecord
100
AcDbLinetypeTableRecord
  2
BYBLOCK
 70
     0
  3

 72
    65
 73
     0
 40
0.0
  0
LTYPE
  5
13
330
5
100
AcDbSymbolTableRecord
100
AcDbLinetypeTableRecord
  2
BYLAYER
 70
     0
  3

 72
    65
 73
     0
 40
0.0
  0
LTYPE
  5
14
330
5
100
AcDbSymbolTableRecord
100
AcDbLinetypeTableRecord
  2
CONTINUOUS
 70
     0
  3
Solid line
 72
    65
 73
     0
 40
0.0
  0
LTYPE
  5
22
330
5
100
AcDbSymbolTableRecord
100
AcDbLinetypeTableRecord
  2
CENTER2
 70
     0
  3
Center (.5x) ___ _ ___ _ ___ _ ___ _ ___ _ ___
 72
    65
 73
     4
 40
28.575
 49
19.05
 74
     0
 49
-3.174999999999999
 74
     0
 49
3.174999999999999
 74
     0
 49
-3.174999999999999
 74
     0
  0
LTYPE
  5
23
330
5
100
AcDbSymbolTableRecord
100
AcDbLinetypeTableRecord
  2
HIDDEN2
 70
     0
  3
Hidden (.5x) _ _ _ _ _ _ _ _ _ _ _ _ _ _ _ _ _
 72
    65
 73
     2
 40
4.762499999999999
 49
3.174999999999999
 74
     0
 49
-1.587499999999999
 74
     0
  0
LTYPE
  5
24
330
5
100
AcDbSymbolTableRecord
100
AcDbLinetypeTableRecord
  2
PHANTOM2
 70
     0
  3
Phantom (.5x) ___ _ _ ___ _ _ ___ _ _ ___ _ _
 72
    65
 73
     6
 40
31.75
 49
15.875
 74
     0
 49
-3.174999999999999
 74
     0
 49
3.174999999999999
 74
     0
 49
-3.174999999999999
 74
     0
 49
3.174999999999999
 74
     0
 49
-3.174999999999999
 74
     0
  0
ENDTAB
  0
TABLE
  2
LAYER
  5
2
330
0
100
AcDbSymbolTable
 70
    20
  0
LAYER
  5
E
330
2
100
AcDbSymbolTableRecord
100
AcDbLayerTableRecord
  2
0
 70
     0
 62
     7
  6
CONTINUOUS
370
    -3
390
17BD
  0
LAYER
  5
25
330
2
100
AcDbSymbolTableRecord
100
AcDbLayerTableRecord
  2
外形線
 70
     0
 62
     7
  6
CONTINUOUS
370
    -3
390
17BD
  0
LAYER
  5
26
330
2
100
AcDbSymbolTableRecord
100
AcDbLayerTableRecord
  2
寸法線
 70
     0
 62
     2
  6
CONTINUOUS
370
    -3
390
17BD
  0
LAYER
  5
27
330
2
100
AcDbSymbolTableRecord
100
AcDbLayerTableRecord
  2
中心線
 70
     0
 62
     4
  6
CENTER2
370
    -3
390
17BD
  0
LAYER
  5
28
330
2
100
AcDbSymbolTableRecord
100
AcDbLayerTableRecord
  2
隠れ線
 70
     0
 62
     6
  6
HIDDEN2
370
    -3
390
17BD
  0
LAYER
  5
29
330
2
100
AcDbSymbolTableRecord
100
AcDbLayerTableRecord
  2
想像線
 70
     0
 62
     1
  6
PHANTOM2
370
    -3
390
17BD
  0
LAYER
  5
2B
330
2
100
AcDbSymbolTableRecord
100
AcDbLayerTableRecord
  2
文字
 70
     0
 62
     6
  6
CONTINUOUS
370
    -3
390
17BD
  0
LAYER
  5
2C
330
2
100
AcDbSymbolTableRecord
100
AcDbLayerTableRecord
  2
目盛
 70
     0
 62
    72
  6
CONTINUOUS
370
    -3
390
17BD
  0
LAYER
  5
2D
330
2
100
AcDbSymbolTableRecord
100
AcDbLayerTableRecord
  2
針
 70
     0
 62
     5
  6
CONTINUOUS
370
    -3
390
17BD
  0
LAYER
  5
2E
330
2
100
AcDbSymbolTableRecord
100
AcDbLayerTableRecord
  2
補助線
 70
     0
 62
     3
  6
CONTINUOUS
370
    -3
390
17BD
  0
LAYER
  5
53
330
2
100
AcDbSymbolTableRecord
100
AcDbLayerTableRecord
  2
DEFPOINTS
 70
     0
 62
     7
  6
CONTINUOUS
290
     0
370
    -3
390
17BD
  0
LAYER
  5
A5
330
2
100
AcDbSymbolTableRecord
100
AcDbLayerTableRecord
  2
C
 70
     0
 62
     7
  6
CONTINUOUS
370
    -3
390
17BD
  0
LAYER
  5
276
330
2
100
AcDbSymbolTableRecord
100
AcDbLayerTableRecord
  2
握り
 70
     0
 62
     3
  6
CONTINUOUS
370
    -3
390
17BD
  0
LAYER
  5
AA4
330
2
100
AcDbSymbolTableRecord
100
AcDbLayerTableRecord
  2
ROGO
 70
     0
 62
     6
  6
CONTINUOUS
370
    -3
390
17BD
  0
LAYER
  5
17CB
330
2
100
AcDbSymbolTableRecord
100
AcDbLayerTableRecord
  2
隠れ線2
 70
     0
 62
     1
  6
HIDDEN2
370
    -3
390
17BD
  0
ENDTAB
  0
TABLE
  2
STYLE
  5
3
330
0
100
AcDbSymbolTable
 70
     6
  0
STYLE
  5
F
330
3
100
AcDbSymbolTableRecord
100
AcDbTextStyleTableRecord
  2
STANDARD
 70
     0
 40
0.0
 41
1.0
 50
0.0
 71
     0
 42
2.5
  3
txt
  4

  0
STYLE
  5
3F
330
3
100
AcDbSymbolTableRecord
100
AcDbTextStyleTableRecord
  2
STYLE3
 70
     0
 40
0.0
 41
1.0
 50
0.0
 71
     0
 42
3.0
  3
romans.shx
  4
bigfont.shx
  0
ENDTAB
  0
TABLE
  2
VIEW
  5
6
330
0
100
AcDbSymbolTable
 70
     0
  0
ENDTAB
  0
TABLE
  2
UCS
  5
7
330
0
100
AcDbSymbolTable
 70
     0
  0
ENDTAB
  0
TABLE
  2
APPID
  5
9
330
0
100
AcDbSymbolTable
 70
     2
  0
APPID
  5
10
330
9
100
AcDbSymbolTableRecord
100
AcDbRegAppTableRecord
  2
ACAD
 70
     0
  0
APPID
  5
17CC
330
9
100
AcDbSymbolTableRecord
100
AcDbRegAppTableRecord
  2
ACAD_PSEXT
 70
     0
  0
ENDTAB
  0
TABLE
  2
DIMSTYLE
  5
A
330
0
100
AcDbSymbolTable
 70
    12
100
AcDbDimStyleTable
 71
     1
340
8F
  0
DIMSTYLE
105
1D
330
A
100
AcDbSymbolTableRecord
100
AcDbDimStyleTableRecord
  2
STANDARD
 70
     0
 41
2.5
 42
0.625
 43
3.75
 44
1.25
 73
     0
 74
     0
 77
     1
 78
     8
140
2.5
141
2.5
143
0.0394
147
0.625
171
     4
172
     1
273
     8
274
     4
277
     6
340
F
  0
DIMSTYLE
105
8F
102
{ACAD_REACTORS
330
159E
330
15AB
330
1830
330
183F
102
}
330
A
100
AcDbSymbolTableRecord
100
AcDbDimStyleTableRecord
  2
STYLE3
 70
     0
 41
2.5
 42
0.0
 43
3.75
 44
1.25
 73
     0
 74
     0
 77
     1
 78
     8
140
2.5
141
2.5
143
0.0394
147
0.625
171
     4
172
     1
173
     1
176
     2
177
     2
178
     6
271
     1
273
     8
274
     4
340
3F
341
45
343
45
344
45
  0
ENDTAB
  0
TABLE
  2
BLOCK_RECORD
  5
1
330
0
100
AcDbSymbolTable
 70
     8
  0
BLOCK_RECORD
  5
18
102
{ACAD_XDICTIONARY
360
17F0
102
}
330
1
100
AcDbSymbolTableRecord
100
AcDbBlockTableRecord
  2
*MODEL_SPACE
340
17C4
  0
BLOCK_RECORD
  5
15
330
1
100
AcDbSymbolTableRecord
100
AcDbBlockTableRecord
  2
*PAPER_SPACE
340
17C5
  0
BLOCK_RECORD
  5
45
330
1
100
AcDbSymbolTableRecord
100
AcDbBlockTableRecord
  2
_OPEN
340
0
102
{BLKREFS
331
3D2
331
3D3
331
403
331
404
331
DF9
331
E07
331
15C6
331
15C7
331
160C
331
160D
331
15A4
331
15A5
331
17E9
331
17EA
331
1837
331
1838
331
1846
331
1847
102
}
  0
BLOCK_RECORD
  5
1592
330
1
100
AcDbSymbolTableRecord
100
AcDbBlockTableRecord
  2
*D1
340
0
  0
BLOCK_RECORD
  5
159F
330
1
100
AcDbSymbolTableRecord
100
AcDbBlockTableRecord
  2
*D2
340
0
  0
BLOCK_RECORD
  5
1831
330
1
100
AcDbSymbolTableRecord
100
AcDbBlockTableRecord
  2
*D4
340
0
  0
BLOCK_RECORD
  5
1840
330
1
100
AcDbSymbolTableRecord
100
AcDbBlockTableRecord
  2
*D5
340
0
  0
ENDTAB
  0
ENDSEC
  0
SECTION
  2
BLOCKS
  0
BLOCK
  5
19
330
18
100
AcDbEntity
  8
0
100
AcDbBlockBegin
  2
*MODEL_SPACE
 70
     0
 10
0.0
 20
0.0
 30
0.0
  3
*MODEL_SPACE
  1

  0
ENDBLK
  5
1A
330
18
100
AcDbEntity
  8
0
100
AcDbBlockEnd
  0
BLOCK
  5
16
330
15
100
AcDbEntity
 67
     1
  8
0
100
AcDbBlockBegin
  2
*PAPER_SPACE
 70
     0
 10
0.0
 20
0.0
 30
0.0
  3
*PAPER_SPACE
  1

  0
ENDBLK
  5
17
330
15
100
AcDbEntity
 67
     1
  8
0
100
AcDbBlockEnd
  0
BLOCK
  5
46
330
45
100
AcDbEntity
  8
0
100
AcDbBlockBegin
  2
_OPEN
 70
     0
 10
0.0
 20
0.0
 30
0.0
  3
_OPEN
  1

  0
LINE
  5
47
330
45
100
AcDbEntity
  8
0
  6
ByBlock
 62
     0
100
AcDbLine
 10
-1.0
 20
0.1666666666666666
 30
0.0
 11
0.0
 21
0.0
 31
0.0
  0
LINE
  5
48
330
45
100
AcDbEntity
  8
0
  6
ByBlock
 62
     0
100
AcDbLine
 10
0.0
 20
0.0
 30
0.0
 11
-1.0
 21
-0.1666666666666666
 31
0.0
  0
LINE
  5
49
330
45
100
AcDbEntity
  8
0
  6
ByBlock
 62
     0
100
AcDbLine
 10
0.0
 20
0.0
 30
0.0
 11
-1.0
 21
0.0
 31
0.0
  0
ENDBLK
  5
4A
330
45
100
AcDbEntity
  8
0
100
AcDbBlockEnd
  0
BLOCK
  5
1593
330
1592
100
AcDbEntity
  8
0
100
AcDbBlockBegin
  2
*D1
 70
     1
 10
0.0
 20
0.0
 30
0.0
  3
*D1
  1

  0
LINE
  5
17E6
330
1592
100
AcDbEntity
  8
外形線
 62
     2
370
    -2
100
AcDbLine
 10
516.6451879119863
 20
216.0852712206011
 30
0.0
 11
536.1651571288973
 21
216.0852712206011
 31
0.0
  0
LINE
  5
17E7
330
1592
100
AcDbEntity
  8
外形線
 62
     2
370
    -2
100
AcDbLine
 10
516.6451879119863
 20
186.0852712206011
 30
0.0
 11
536.1651571288973
 21
186.0852712206011
 31
0.0
  0
LINE
  5
17E8
330
1592
100
AcDbEntity
  8
外形線
 62
     2
370
    -2
100
AcDbLine
 10
534.9151571288973
 20
213.5852712206011
 30
0.0
 11
534.9151571288973
 21
188.5852712206011
 31
0.0
  0
INSERT
  5
17E9
330
1592
100
AcDbEntity
  8
外形線
 62
     2
370
    -2
100
AcDbBlockReference
  2
_OPEN
 10
534.9151571288973
 20
216.0852712206011
 30
0.0
 41
2.5
 42
2.5
 43
2.5
 50
90.0
  0
INSERT
  5
17EA
330
1592
100
AcDbEntity
  8
外形線
 62
     2
370
    -2
100
AcDbBlockReference
  2
_OPEN
 10
534.9151571288973
 20
186.0852712206011
 30
0.0
 41
2.5
 42
2.5
 43
2.5
 50
270.0
  0
MTEXT
  5
17EB
330
1592
100
AcDbEntity
  8
外形線
 62
     6
100
AcDbMText
 10
533.0401571288973
 20
201.0852712206012
 30
0.0
 40
2.5
 41
0.0
 71
     5
 72
     1
  1
\A1;30
  7
STYLE3
 11
0.0000000000000001
 21
1.0
 31
0.0
 73
     1
 44
1.0
  0
POINT
  5
17EC
330
1592
100
AcDbEntity
  8
DEFPOINTS
 62
     0
100
AcDbPoint
 10
516.6451879119863
 20
216.0852712206011
 30
0.0
  0
POINT
  5
17ED
330
1592
100
AcDbEntity
  8
DEFPOINTS
 62
     0
100
AcDbPoint
 10
516.6451879119863
 20
186.0852712206011
 30
0.0
  0
POINT
  5
17EE
330
1592
100
AcDbEntity
  8
DEFPOINTS
 62
     0
100
AcDbPoint
 10
534.9151571288973
 20
186.0852712206011
 30
0.0
  0
ENDBLK
  5
159D
330
1592
100
AcDbEntity
  8
0
100
AcDbBlockEnd
  0
BLOCK
  5
15A0
330
159F
100
AcDbEntity
  8
0
100
AcDbBlockBegin
  2
*D2
 70
     1
 10
0.0
 20
0.0
 30
0.0
  3
*D2
  1

  0
LINE
  5
15A1
330
159F
100
AcDbEntity
  8
0
  6
ByBlock
 62
     2
100
AcDbLine
 10
504.3838714797868
 20
180.3719251655739
 30
0.0
 11
504.3838714797868
 21
94.93027363596615
 31
0.0
  0
LINE
  5
15A2
330
159F
100
AcDbEntity
  8
0
  6
ByBlock
 62
     2
100
AcDbLine
 10
404.3838714797868
 20
180.3719251655739
 30
0.0
 11
404.3838714797868
 21
94.93027363596615
 31
0.0
  0
LINE
  5
15A3
330
159F
100
AcDbEntity
  8
0
  6
ByBlock
 62
     2
100
AcDbLine
 10
501.8838714797868
 20
96.18027363596617
 30
0.0
 11
406.8838714797868
 21
96.18027363596617
 31
0.0
  0
INSERT
  5
15A4
330
159F
100
AcDbEntity
  8
0
  6
ByBlock
 62
     2
100
AcDbBlockReference
  2
_OPEN
 10
504.3838714797868
 20
96.18027363596617
 30
0.0
 41
2.5
 42
2.5
 43
2.5
  0
INSERT
  5
15A5
330
159F
100
AcDbEntity
  8
0
  6
ByBlock
 62
     2
100
AcDbBlockReference
  2
_OPEN
 10
404.3838714797868
 20
96.18027363596617
 30
0.0
 41
2.5
 42
2.5
 43
2.5
 50
180.0
  0
MTEXT
  5
15A6
330
159F
100
AcDbEntity
  8
0
  6
ByBlock
 62
     6
100
AcDbMText
 10
454.3838714797868
 20
98.05527363596617
 30
0.0
 40
2.5
 41
0.0
 71
     5
 72
     1
  1
\A1;100
  7
STYLE3
 73
     1
 44
1.0
  0
POINT
  5
15A7
330
159F
100
AcDbEntity
  8
DEFPOINTS
  6
ByBlock
 62
     0
100
AcDbPoint
 10
504.3838714797868
 20
180.3719251655739
 30
0.0
  0
POINT
  5
15A8
330
159F
100
AcDbEntity
  8
DEFPOINTS
  6
ByBlock
 62
     0
100
AcDbPoint
 10
404.3838714797868
 20
180.3719251655739
 30
0.0
  0
POINT
  5
15A9
330
159F
100
AcDbEntity
  8
DEFPOINTS
  6
ByBlock
 62
     0
100
AcDbPoint
 10
404.3838714797868
 20
96.18027363596617
 30
0.0
  0
ENDBLK
  5
15AA
330
159F
100
AcDbEntity
  8
0
100
AcDbBlockEnd
  0
BLOCK
  5
183D
330
1831
100
AcDbEntity
  8
0
100
AcDbBlockBegin
  2
*D4
 70
     1
 10
0.0
 20
0.0
 30
0.0
  3
*D4
  1

  0
LINE
  5
1832
330
1831
100
AcDbEntity
  8
寸法線
 62
     2
370
    -2
100
AcDbLine
 10
213.2881566262719
 20
284.360303450181
 30
0.0
 11
213.2881566262719
 21
295.2455655902695
 31
0.0
  0
LINE
  5
1833
330
1831
100
AcDbEntity
  8
寸法線
 62
     2
370
    -2
100
AcDbLine
 10
216.2881566262718
 20
284.4708101987702
 30
0.0
 11
216.2881566262718
 21
295.2455655902695
 31
0.0
  0
LINE
  5
1834
330
1831
100
AcDbEntity
  8
寸法線
 62
     2
370
    -2
100
AcDbLine
 10
210.7881566262719
 20
293.9955655902695
 30
0.0
 11
208.2881566262719
 21
293.9955655902695
 31
0.0
  0
LINE
  5
1835
330
1831
100
AcDbEntity
  8
寸法線
 62
     2
370
    -2
100
AcDbLine
 10
218.7881566262719
 20
293.9955655902695
 30
0.0
 11
221.2881566262719
 21
293.9955655902695
 31
0.0
  0
LINE
  5
1836
330
1831
100
AcDbEntity
  8
寸法線
 62
     2
370
    -2
100
AcDbLine
 10
213.2881566262719
 20
293.9955655902695
 30
0.0
 11
216.2881566262718
 21
293.9955655902695
 31
0.0
  0
INSERT
  5
1837
330
1831
100
AcDbEntity
  8
寸法線
 62
     2
370
    -2
100
AcDbBlockReference
  2
_OPEN
 10
213.2881566262719
 20
293.9955655902695
 30
0.0
 41
2.5
 42
2.5
 43
2.5
  0
INSERT
  5
1838
330
1831
100
AcDbEntity
  8
寸法線
 62
     2
370
    -2
100
AcDbBlockReference
  2
_OPEN
 10
216.2881566262718
 20
293.9955655902695
 30
0.0
 41
2.5
 42
2.5
 43
2.5
 50
180.0
  0
MTEXT
  5
1839
330
1831
100
AcDbEntity
  8
寸法線
 62
     6
100
AcDbMText
 10
214.7881566262719
 20
295.8705655902695
 30
0.0
 40
2.5
 41
0.0
 71
     5
 72
     1
  1
\A1;3
  7
STYLE3
 73
     1
 44
1.0
  0
POINT
  5
183A
330
1831
100
AcDbEntity
  8
DEFPOINTS
 62
     0
100
AcDbPoint
 10
213.2881566262719
 20
284.360303450181
 30
0.0
  0
POINT
  5
183B
330
1831
100
AcDbEntity
  8
DEFPOINTS
 62
     0
100
AcDbPoint
 10
216.2881566262718
 20
284.4708101987702
 30
0.0
  0
POINT
  5
183C
330
1831
100
AcDbEntity
  8
DEFPOINTS
 62
     0
100
AcDbPoint
 10
216.2881566262718
 20
293.9955655902695
 30
0.0
  0
ENDBLK
  5
183E
330
1831
100
AcDbEntity
  8
0
100
AcDbBlockEnd
  0
BLOCK
  5
184C
330
1840
100
AcDbEntity
  8
0
100
AcDbBlockBegin
  2
*D5
 70
     1
 10
0.0
 20
0.0
 30
0.0
  3
*D5
  1

  0
LINE
  5
1841
330
1840
100
AcDbEntity
  8
寸法線
 62
     2
370
    -2
100
AcDbLine
 10
276.0218834489348
 20
129.5801720069078
 30
0.0
 11
276.0218834489348
 21
115.9774894295466
 31
0.0
  0
LINE
  5
1842
330
1840
100
AcDbEntity
  8
寸法線
 62
     2
370
    -2
100
AcDbLine
 10
279.0218834489348
 20
129.0520075779845
 30
0.0
 11
279.0218834489348
 21
115.9774894295466
 31
0.0
  0
LINE
  5
1843
330
1840
100
AcDbEntity
  8
寸法線
 62
     2
370
    -2
100
AcDbLine
 10
273.5218834489348
 20
117.2274894295466
 30
0.0
 11
271.0218834489348
 21
117.2274894295466
 31
0.0
  0
LINE
  5
1844
330
1840
100
AcDbEntity
  8
寸法線
 62
     2
370
    -2
100
AcDbLine
 10
281.5218834489348
 20
117.2274894295466
 30
0.0
 11
284.0218834489348
 21
117.2274894295466
 31
0.0
  0
LINE
  5
1845
330
1840
100
AcDbEntity
  8
寸法線
 62
     2
370
    -2
100
AcDbLine
 10
276.0218834489348
 20
117.2274894295466
 30
0.0
 11
279.0218834489348
 21
117.2274894295466
 31
0.0
  0
INSERT
  5
1846
330
1840
100
AcDbEntity
  8
寸法線
 62
     2
370
    -2
100
AcDbBlockReference
  2
_OPEN
 10
276.0218834489348
 20
117.2274894295466
 30
0.0
 41
2.5
 42
2.5
 43
2.5
  0
INSERT
  5
1847
330
1840
100
AcDbEntity
  8
寸法線
 62
     2
370
    -2
100
AcDbBlockReference
  2
_OPEN
 10
279.0218834489348
 20
117.2274894295466
 30
0.0
 41
2.5
 42
2.5
 43
2.5
 50
180.0
  0
MTEXT
  5
1848
330
1840
100
AcDbEntity
  8
寸法線
 62
     6
100
AcDbMText
 10
277.5218834489348
 20
119.1024894295466
 30
0.0
 40
2.5
 41
0.0
 71
     5
 72
     1
  1
\A1;3
  7
STYLE3
 73
     1
 44
1.0
  0
POINT
  5
1849
330
1840
100
AcDbEntity
  8
DEFPOINTS
 62
     0
100
AcDbPoint
 10
276.0218834489348
 20
129.5801720069078
 30
0.0
  0
POINT
  5
184A
330
1840
100
AcDbEntity
  8
DEFPOINTS
 62
     0
100
AcDbPoint
 10
279.0218834489348
 20
129.0520075779845
 30
0.0
  0
POINT
  5
184B
330
1840
100
AcDbEntity
  8
DEFPOINTS
 62
     0
100
AcDbPoint
 10
279.0218834489348
 20
117.2274894295466
 30
0.0
  0
ENDBLK
  5
184D
330
1840
100
AcDbEntity
  8
0
100
AcDbBlockEnd
  0
ENDSEC
  0
SECTION
  2
ENTITIES
  0
LWPOLYLINE
  5
1A0
330
18
100
AcDbEntity
  8
C
100
AcDbPolyline
 90
        5
 70
     0
 43
0.8
 38
1.0
 10
30.14162274178443
 20
401.8074895392905
 10
557.1140509633051
 20
401.8074895392905
 10
557.1140509633051
 20
24.3074895392906
 10
30.14162274178443
 20
24.3074895392906
 10
30.14162274178443
 20
401.8074895392905
  0
LINE
  5
1F8
330
18
100
AcDbEntity
  8
中心線
100
AcDbLine
 10
73.12805980957705
 20
201.0852712206012
 30
0.0
 11
527.2338803748937
 21
201.0852712206012
 31
0.0
  0
LINE
  5
1F9
330
18
100
AcDbEntity
  8
中心線
100
AcDbLine
 10
371.6451879119863
 20
301.1227706197568
 30
0.0
 11
371.6451879119863
 21
99.07058737574722
 31
0.0
  0
ARC
  5
1FA
330
18
100
AcDbEntity
  8
外形線
100
AcDbCircle
 10
371.6451879119863
 20
201.0852712206012
 30
0.0
 40
17.0
100
AcDbArc
 50
35.72382062540804
 51
207.1884438211932
  0
ARC
  5
1FE
330
18
100
AcDbEntity
  8
外形線
100
AcDbCircle
 10
325.1451879119863
 20
181.5852712206011
 30
0.0
 40
33.5
100
AcDbArc
 50
264.283092190981
 51
268.1419494565097
  0
ARC
  5
201
330
18
100
AcDbEntity
  8
外形線
100
AcDbCircle
 10
335.4151879119863
 20
176.4852712206011
 30
0.0
 40
56.5
100
AcDbArc
 50
259.0973893680056
 51
320.5174299663237
  0
ARC
  5
207
330
18
100
AcDbEntity
  8
外形線
100
AcDbCircle
 10
416.5951879119863
 20
179.6852712206011
 30
0.0
 40
16.0
100
AcDbArc
 50
150.6793029216307
 51
253.8627450686571
  0
ARC
  5
20A
330
18
100
AcDbEntity
  8
外形線
100
AcDbCircle
 10
399.1451879119864
 20
121.2352712206011
 30
0.0
 40
45.0
100
AcDbArc
 50
29.80338760130548
 51
73.54985452822806
  0
ARC
  5
212
330
18
100
AcDbEntity
  8
外形線
100
AcDbCircle
 10
406.1451879119863
 20
117.6552712206011
 30
0.0
 40
35.5
100
AcDbArc
 50
27.95079536769471
 51
140.6768993477658
  0
ARC
  5
218
330
18
100
AcDbEntity
  8
外形線
100
AcDbCircle
 10
439.6451879119863
 20
135.5852712206011
 30
0.0
 40
2.5
100
AcDbArc
 50
205.2308867843923
 51
16.89885684963095
  0
ARC
  5
219
330
18
100
AcDbEntity
  8
外形線
100
AcDbCircle
 10
395.6297454067064
 20
116.4981969585742
 30
0.0
 40
50.46029305926127
100
AcDbArc
 50
23.12016746608243
 51
32.48777040093165
  0
ARC
  5
21D
330
18
100
AcDbEntity
  8
外形線
100
AcDbCircle
 10
92.17518791198632
 20
218.3352712206012
 30
0.0
 40
2.75
100
AcDbArc
 50
357.7409512416191
 51
178.0589026910184
  0
ARC
  5
221
330
18
100
AcDbEntity
  8
外形線
100
AcDbCircle
 10
114.1451879119863
 20
191.3852712206012
 30
0.0
 40
20.0
100
AcDbArc
 50
176.3473663129123
 51
264.6810395497165
  0
ARC
  5
224
330
18
100
AcDbEntity
  8
外形線
100
AcDbCircle
 10
110.6451879119863
 20
185.5852712206011
 30
0.0
 40
26.5
100
AcDbArc
 50
168.0690119086504
 51
262.1003048519197
  0
LINE
  5
226
330
18
100
AcDbEntity
  8
外形線
100
AcDbLine
 10
105.1038388071333
 20
159.6711158205472
 30
0.0
 11
324.7287674661534
 21
121.0050908130458
 31
0.0
  0
LINE
  5
228
330
18
100
AcDbEntity
  8
外形線
100
AcDbLine
 10
112.2911861144806
 20
171.4713896970296
 30
0.0
 11
321.8081395725937
 21
148.2518929282564
 31
0.0
  0
LINE
  5
229
330
18
100
AcDbEntity
  8
外形線
100
AcDbLine
 10
89.42676592474152
 20
218.4284193823078
 30
0.0
 11
84.71765899421484
 21
191.0637056884142
 31
0.0
  0
LINE
  5
22A
330
18
100
AcDbEntity
  8
外形線
100
AcDbLine
 10
94.92473116705673
 20
218.2851524766343
 30
0.0
 11
94.18581539196475
 21
192.6594174472981
 31
0.0
  0
ARC
  5
23A
330
18
100
AcDbEntity
  8
外形線
100
AcDbCircle
 10
424.8651879119863
 20
226.8352712206012
 30
0.0
 40
14.0
100
AcDbArc
 50
151.1945067749025
 51
256.7029282527906
  0
ARC
  5
23D
330
18
100
AcDbEntity
  8
外形線
100
AcDbCircle
 10
379.6760490510431
 20
277.614410793981
 30
0.0
 40
4.0
100
AcDbArc
 50
228.4851461847995
 51
267.1327129607464
  0
ARC
  5
240
330
18
100
AcDbEntity
  8
外形線
100
AcDbCircle
 10
339.8472416105629
 20
234.087509759189
 30
0.0
 40
55.0
100
AcDbArc
 50
47.47282558333155
 51
95.60912611801184
  0
ARC
  5
24D
330
18
100
AcDbEntity
  8
外形線
100
AcDbCircle
 10
326.6151879119864
 20
227.0852712206012
 30
0.0
 40
35.0
100
AcDbArc
 50
329.5782000172724
 51
41.03776117464684
  0
LINE
  5
253
330
18
100
AcDbEntity
  8
外形線
100
AcDbLine
 10
421.6451879119863
 20
189.3352712206011
 30
0.0
 11
402.5391835575136
 21
187.3291407633815
 31
0.0
  0
ARC
  5
269
330
18
100
AcDbEntity
  8
外形線
100
AcDbCircle
 10
92.57518791198634
 20
223.8352712206012
 30
0.0
 40
2.75
100
AcDbArc
 50
176.7333827477927
 51
355.619793046516
  0
ARC
  5
26C
330
18
100
AcDbEntity
  8
外形線
100
AcDbCircle
 10
113.6451879119863
 20
255.7852712206011
 30
0.0
 40
25.0
100
AcDbArc
 50
86.67793990774589
 51
188.4922025193169
  0
ARC
  5
26F
330
18
100
AcDbEntity
  8
外形線
100
AcDbCircle
 10
119.1451879119863
 20
246.3852712206012
 30
0.0
 40
20.0
100
AcDbArc
 50
82.95963979442067
 51
166.2898935839157
  0
LINE
  5
270
330
18
100
AcDbEntity
  8
外形線
100
AcDbLine
 10
115.0938980492532
 20
280.7432607016908
 30
0.0
 11
334.4714635576283
 21
288.8241611942703
 31
0.0
  0
LINE
  5
271
330
18
100
AcDbEntity
  8
外形線
100
AcDbLine
 10
121.5965575311239
 20
266.2344723881638
 30
0.0
 11
326.6151879119864
 21
262.0852712206012
 31
0.0
  0
LINE
  5
272
330
18
100
AcDbEntity
  8
外形線
100
AcDbLine
 10
88.91928866601631
 20
252.0934008981033
 30
0.0
 11
89.82965614993981
 21
223.9919726679257
 31
0.0
  0
ARC
  5
2D8
330
18
100
AcDbEntity
  8
握り
100
AcDbCircle
 10
516.6451879119863
 20
214.5852712206011
 30
0.0
 40
1.5
100
AcDbArc
 50
27.81813928465427
 51
152.1818607153457
  0
ARC
  5
2D9
330
18
100
AcDbEntity
  8
握り
100
AcDbCircle
 10
506.6451879119863
 20
214.5852712206011
 30
0.0
 40
1.5
100
AcDbArc
 50
27.81813928465427
 51
152.1818607153457
  0
ARC
  5
2DA
330
18
100
AcDbEntity
  8
握り
100
AcDbCircle
 10
496.6451879119863
 20
214.5852712206011
 30
0.0
 40
1.5
100
AcDbArc
 50
27.81813928465427
 51
152.1818607153457
  0
ARC
  5
2DB
330
18
100
AcDbEntity
  8
握り
100
AcDbCircle
 10
486.6451879119862
 20
214.5852712206011
 30
0.0
 40
1.5
100
AcDbArc
 50
27.81813928465427
 51
152.1818607153457
  0
ARC
  5
2DC
330
18
100
AcDbEntity
  8
握り
100
AcDbCircle
 10
476.6451879119863
 20
214.5852712206011
 30
0.0
 40
1.5
100
AcDbArc
 50
27.81813928465427
 51
152.1818607153457
  0
ARC
  5
2DD
330
18
100
AcDbEntity
  8
握り
100
AcDbCircle
 10
466.6451879119862
 20
214.5852712206011
 30
0.0
 40
1.5
100
AcDbArc
 50
27.81813928465427
 51
152.1818607153457
  0
ARC
  5
2DE
330
18
100
AcDbEntity
  8
握り
100
AcDbCircle
 10
456.6451879119862
 20
214.5852712206011
 30
0.0
 40
1.5
100
AcDbArc
 50
27.81813928465427
 51
152.1818607153457
  0
ARC
  5
2DF
330
18
100
AcDbEntity
  8
握り
100
AcDbCircle
 10
446.6451879119863
 20
214.5852712206011
 30
0.0
 40
1.5
100
AcDbArc
 50
27.81813928465427
 51
152.1818607153457
  0
ARC
  5
2E0
330
18
100
AcDbEntity
  8
握り
100
AcDbCircle
 10
436.6451879119862
 20
214.5852712206011
 30
0.0
 40
1.5
100
AcDbArc
 50
27.81813928465427
 51
152.1818607153457
  0
ARC
  5
2E1
330
18
100
AcDbEntity
  8
握り
100
AcDbCircle
 10
426.6451879119863
 20
214.5852712206011
 30
0.0
 40
1.5
100
AcDbArc
 50
27.81813928465427
 51
152.1818607153457
  0
ARC
  5
2E2
330
18
100
AcDbEntity
  8
握り
100
AcDbCircle
 10
422.1451879119863
 20
214.7852712206011
 30
0.0
 40
0.5
100
AcDbArc
 50
90.0
 51
180.0
  0
ARC
  5
2E3
330
18
100
AcDbEntity
  8
握り
100
AcDbCircle
 10
521.1451879119863
 20
214.7852712206011
 30
0.0
 40
0.5
100
AcDbArc
 50
0.0
 51
90.0
  0
LINE
  5
2E4
330
18
100
AcDbEntity
  8
握り
100
AcDbLine
 10
457.9718378281284
 20
194.4319712206011
 30
0.0
 11
465.3185379958438
 21
194.4319712206011
 31
0.0
  0
LINE
  5
2E5
330
18
100
AcDbEntity
  8
握り
100
AcDbLine
 10
457.9718378281286
 20
207.7385712206011
 30
0.0
 11
465.3185379958443
 21
207.7385712206011
 31
0.0
  0
LINE
  5
2E6
330
18
100
AcDbEntity
  8
握り
100
AcDbLine
 10
447.9718378281284
 20
197.0852712206011
 30
0.0
 11
495.318537995844
 21
197.0852712206011
 31
0.0
  0
LINE
  5
2E7
330
18
100
AcDbEntity
  8
握り
100
AcDbLine
 10
447.9718378281284
 20
205.0852712206011
 30
0.0
 11
495.3185379958441
 21
205.0852712206011
 31
0.0
  0
LINE
  5
2E8
330
18
100
AcDbEntity
  8
握り
100
AcDbLine
 10
457.9718378281284
 20
186.8852712206011
 30
0.0
 11
465.3185379958441
 21
186.8852712206011
 31
0.0
  0
LINE
  5
2E9
330
18
100
AcDbEntity
  8
握り
100
AcDbLine
 10
457.9718378281284
 20
215.2852712206012
 30
0.0
 11
465.3185379958441
 21
215.2852712206012
 31
0.0
  0
LINE
  5
2EA
330
18
100
AcDbEntity
  8
握り
100
AcDbLine
 10
457.9718378281283
 20
194.4319712206011
 30
0.0
 11
457.9718378281284
 21
186.8852712206011
 31
0.0
  0
LINE
  5
2EB
330
18
100
AcDbEntity
  8
握り
100
AcDbLine
 10
455.3185379958441
 20
194.4319712206011
 30
0.0
 11
455.3185379958441
 21
186.8852712206011
 31
0.0
  0
LINE
  5
2EC
330
18
100
AcDbEntity
  8
握り
100
AcDbLine
 10
447.9718378281284
 20
194.4319712206011
 30
0.0
 11
447.9718378281284
 21
186.8852712206011
 31
0.0
  0
LINE
  5
2ED
330
18
100
AcDbEntity
  8
握り
100
AcDbLine
 10
445.3185379958441
 20
215.2852712206012
 30
0.0
 11
445.3185379958441
 21
186.8852712206011
 31
0.0
  0
LINE
  5
2EE
330
18
100
AcDbEntity
  8
握り
100
AcDbLine
 10
437.9718378281284
 20
215.2852712206012
 30
0.0
 11
437.9718378281284
 21
186.8852712206011
 31
0.0
  0
LINE
  5
2EF
330
18
100
AcDbEntity
  8
握り
100
AcDbLine
 10
435.3185379958441
 20
215.2852712206012
 30
0.0
 11
435.3185379958441
 21
186.8852712206011
 31
0.0
  0
LINE
  5
2F0
330
18
100
AcDbEntity
  8
握り
100
AcDbLine
 10
425.318537995844
 20
215.2852712206012
 30
0.0
 11
425.318537995844
 21
186.8852712206011
 31
0.0
  0
LINE
  5
2F1
330
18
100
AcDbEntity
  8
握り
100
AcDbLine
 10
427.9718378281284
 20
215.2852712206012
 30
0.0
 11
427.9718378281284
 21
186.8852712206011
 31
0.0
  0
LINE
  5
2F2
330
18
100
AcDbEntity
  8
握り
100
AcDbLine
 10
421.6451879119863
 20
214.7852712206011
 30
0.0
 11
421.6451879119863
 21
187.3852712206011
 31
0.0
  0
LINE
  5
2F3
330
18
100
AcDbEntity
  8
握り
100
AcDbLine
 10
422.1451879119863
 20
186.8852712206011
 30
0.0
 11
425.3185379958442
 21
186.8852712206012
 31
0.0
  0
ARC
  5
2F4
330
18
100
AcDbEntity
  8
握り
100
AcDbCircle
 10
422.1451879119863
 20
187.3852712206011
 30
0.0
 40
0.5
100
AcDbArc
 50
180.0
 51
270.0
  0
LINE
  5
2F5
330
18
100
AcDbEntity
  8
握り
100
AcDbLine
 10
437.9718378281284
 20
186.8852712206011
 30
0.0
 11
445.3185379958441
 21
186.8852712206011
 31
0.0
  0
LINE
  5
2F6
330
18
100
AcDbEntity
  8
握り
100
AcDbLine
 10
427.9718378281284
 20
186.8852712206012
 30
0.0
 11
435.3185379958442
 21
186.8852712206011
 31
0.0
  0
ARC
  5
2F7
330
18
100
AcDbEntity
  8
握り
100
AcDbCircle
 10
426.6451879119863
 20
187.5852712206011
 30
0.0
 40
1.5
100
AcDbArc
 50
207.8181392846543
 51
332.1818607153458
  0
ARC
  5
2F8
330
18
100
AcDbEntity
  8
握り
100
AcDbCircle
 10
436.6451879119862
 20
187.5852712206011
 30
0.0
 40
1.5
100
AcDbArc
 50
207.8181392846543
 51
332.1818607153458
  0
LINE
  5
2F9
330
18
100
AcDbEntity
  8
握り
100
AcDbLine
 10
447.9718378281284
 20
186.8852712206011
 30
0.0
 11
455.3185379958441
 21
186.8852712206011
 31
0.0
  0
ARC
  5
2FA
330
18
100
AcDbEntity
  8
握り
100
AcDbCircle
 10
446.6451879119863
 20
187.5852712206011
 30
0.0
 40
1.5
100
AcDbArc
 50
207.8181392846543
 51
332.1818607153458
  0
ARC
  5
2FB
330
18
100
AcDbEntity
  8
握り
100
AcDbCircle
 10
456.6451879119862
 20
187.5852712206011
 30
0.0
 40
1.5
100
AcDbArc
 50
207.8181392846543
 51
332.1818607153458
  0
LINE
  5
2FC
330
18
100
AcDbEntity
  8
握り
100
AcDbLine
 10
422.1451879119863
 20
215.2852712206012
 30
0.0
 11
425.318537995844
 21
215.2852712206012
 31
0.0
  0
LINE
  5
2FE
330
18
100
AcDbEntity
  8
握り
100
AcDbLine
 10
447.9718378281284
 20
205.0852712206011
 30
0.0
 11
447.9718378281284
 21
197.0852712206011
 31
0.0
  0
LINE
  5
2FF
330
18
100
AcDbEntity
  8
握り
100
AcDbLine
 10
447.9718378281284
 20
194.4319712206011
 30
0.0
 11
455.3185379958442
 21
194.4319712206011
 31
0.0
  0
LINE
  5
300
330
18
100
AcDbEntity
  8
握り
100
AcDbLine
 10
437.9718378281284
 20
215.2852712206012
 30
0.0
 11
445.3185379958441
 21
215.2852712206012
 31
0.0
  0
LINE
  5
301
330
18
100
AcDbEntity
  8
握り
100
AcDbLine
 10
427.9718378281284
 20
215.2852712206012
 30
0.0
 11
435.3185379958442
 21
215.2852712206012
 31
0.0
  0
LINE
  5
302
330
18
100
AcDbEntity
  8
握り
100
AcDbLine
 10
457.9718378281284
 20
215.2852712206012
 30
0.0
 11
457.9718378281286
 21
207.7385712206011
 31
0.0
  0
LINE
  5
303
330
18
100
AcDbEntity
  8
握り
100
AcDbLine
 10
455.3185379958441
 20
215.2852712206012
 30
0.0
 11
455.3185379958442
 21
207.7385712206011
 31
0.0
  0
LINE
  5
304
330
18
100
AcDbEntity
  8
握り
100
AcDbLine
 10
447.9718378281284
 20
215.2852712206012
 30
0.0
 11
447.9718378281284
 21
207.7385712206011
 31
0.0
  0
LINE
  5
305
330
18
100
AcDbEntity
  8
握り
100
AcDbLine
 10
447.9718378281285
 20
207.7385712206011
 30
0.0
 11
455.3185379958443
 21
207.7385712206011
 31
0.0
  0
LINE
  5
306
330
18
100
AcDbEntity
  8
握り
100
AcDbLine
 10
447.9718378281284
 20
215.2852712206012
 30
0.0
 11
455.3185379958441
 21
215.2852712206012
 31
0.0
  0
LINE
  5
307
330
18
100
AcDbEntity
  8
握り
100
AcDbLine
 10
487.9718378281284
 20
194.4319712206011
 30
0.0
 11
487.9718378281284
 21
186.8852712206011
 31
0.0
  0
LINE
  5
308
330
18
100
AcDbEntity
  8
握り
100
AcDbLine
 10
485.3185379958442
 20
194.4319712206011
 30
0.0
 11
485.3185379958441
 21
186.8852712206011
 31
0.0
  0
LINE
  5
309
330
18
100
AcDbEntity
  8
握り
100
AcDbLine
 10
477.9718378281284
 20
194.4319712206011
 30
0.0
 11
477.9718378281284
 21
186.8852712206011
 31
0.0
  0
LINE
  5
30A
330
18
100
AcDbEntity
  8
握り
100
AcDbLine
 10
475.318537995844
 20
194.4319712206011
 30
0.0
 11
475.318537995844
 21
186.8852712206011
 31
0.0
  0
LINE
  5
30B
330
18
100
AcDbEntity
  8
握り
100
AcDbLine
 10
467.9718378281283
 20
194.4319712206011
 30
0.0
 11
467.9718378281284
 21
186.8852712206011
 31
0.0
  0
LINE
  5
30C
330
18
100
AcDbEntity
  8
握り
100
AcDbLine
 10
465.318537995844
 20
194.4319712206011
 30
0.0
 11
465.3185379958441
 21
186.8852712206011
 31
0.0
  0
LINE
  5
30D
330
18
100
AcDbEntity
  8
握り
100
AcDbLine
 10
495.318537995844
 20
194.4319712206011
 30
0.0
 11
495.3185379958441
 21
186.8852712206011
 31
0.0
  0
LINE
  5
30E
330
18
100
AcDbEntity
  8
握り
100
AcDbLine
 10
517.9718378281283
 20
215.2852712206012
 30
0.0
 11
517.9718378281283
 21
186.8852712206011
 31
0.0
  0
LINE
  5
30F
330
18
100
AcDbEntity
  8
握り
100
AcDbLine
 10
515.318537995844
 20
215.2852712206012
 30
0.0
 11
515.318537995844
 21
186.8852712206011
 31
0.0
  0
LINE
  5
310
330
18
100
AcDbEntity
  8
握り
100
AcDbLine
 10
507.9718378281284
 20
215.2852712206012
 30
0.0
 11
507.9718378281284
 21
186.8852712206011
 31
0.0
  0
LINE
  5
311
330
18
100
AcDbEntity
  8
握り
100
AcDbLine
 10
505.318537995844
 20
215.2852712206012
 30
0.0
 11
505.318537995844
 21
186.8852712206011
 31
0.0
  0
LINE
  5
312
330
18
100
AcDbEntity
  8
握り
100
AcDbLine
 10
497.9718378281284
 20
215.2852712206012
 30
0.0
 11
497.9718378281284
 21
186.8852712206011
 31
0.0
  0
LINE
  5
313
330
18
100
AcDbEntity
  8
握り
100
AcDbLine
 10
521.6451879119863
 20
214.7852712206011
 30
0.0
 11
521.6451879119863
 21
187.3852712206011
 31
0.0
  0
LINE
  5
314
330
18
100
AcDbEntity
  8
握り
100
AcDbLine
 10
487.9718378281285
 20
186.8852712206011
 30
0.0
 11
495.318537995844
 21
186.8852712206011
 31
0.0
  0
ARC
  5
315
330
18
100
AcDbEntity
  8
握り
100
AcDbCircle
 10
476.6451879119863
 20
187.5852712206011
 30
0.0
 40
1.5
100
AcDbArc
 50
207.8181392846543
 51
332.1818607153458
  0
ARC
  5
316
330
18
100
AcDbEntity
  8
握り
100
AcDbCircle
 10
466.6451879119862
 20
187.5852712206011
 30
0.0
 40
1.5
100
AcDbArc
 50
207.8181392846543
 51
332.1818607153458
  0
LINE
  5
317
330
18
100
AcDbEntity
  8
握り
100
AcDbLine
 10
467.9718378281285
 20
186.8852712206011
 30
0.0
 11
475.318537995844
 21
186.8852712206011
 31
0.0
  0
LINE
  5
318
330
18
100
AcDbEntity
  8
握り
100
AcDbLine
 10
477.9718378281284
 20
186.8852712206011
 30
0.0
 11
485.3185379958441
 21
186.8852712206011
 31
0.0
  0
ARC
  5
319
330
18
100
AcDbEntity
  8
握り
100
AcDbCircle
 10
486.6451879119862
 20
187.5852712206011
 30
0.0
 40
1.5
100
AcDbArc
 50
207.8181392846543
 51
332.1818607153458
  0
LINE
  5
31A
330
18
100
AcDbEntity
  8
握り
100
AcDbLine
 10
507.9718378281286
 20
186.8852712206011
 30
0.0
 11
515.318537995844
 21
186.8852712206011
 31
0.0
  0
LINE
  5
31B
330
18
100
AcDbEntity
  8
握り
100
AcDbLine
 10
497.9718378281283
 20
186.8852712206011
 30
0.0
 11
505.3185379958442
 21
186.8852712206011
 31
0.0
  0
ARC
  5
31C
330
18
100
AcDbEntity
  8
握り
100
AcDbCircle
 10
496.6451879119863
 20
187.5852712206011
 30
0.0
 40
1.5
100
AcDbArc
 50
207.8181392846543
 51
332.1818607153458
  0
ARC
  5
31D
330
18
100
AcDbEntity
  8
握り
100
AcDbCircle
 10
506.6451879119863
 20
187.5852712206011
 30
0.0
 40
1.5
100
AcDbArc
 50
207.8181392846543
 51
332.1818607153458
  0
LINE
  5
31E
330
18
100
AcDbEntity
  8
握り
100
AcDbLine
 10
517.9718378281283
 20
186.8852712206011
 30
0.0
 11
521.1451879119863
 21
186.8852712206011
 31
0.0
  0
ARC
  5
31F
330
18
100
AcDbEntity
  8
握り
100
AcDbCircle
 10
516.6451879119863
 20
187.5852712206011
 30
0.0
 40
1.5
100
AcDbArc
 50
207.8181392846543
 51
332.1818607153458
  0
ARC
  5
320
330
18
100
AcDbEntity
  8
握り
100
AcDbCircle
 10
521.1451879119863
 20
187.3852712206011
 30
0.0
 40
0.5
100
AcDbArc
 50
270.0
 51
0.0
  0
LINE
  5
321
330
18
100
AcDbEntity
  8
握り
100
AcDbLine
 10
487.9718378281284
 20
194.4319712206011
 30
0.0
 11
495.318537995844
 21
194.4319712206011
 31
0.0
  0
LINE
  5
322
330
18
100
AcDbEntity
  8
握り
100
AcDbLine
 10
487.9718378281285
 20
207.7385712206011
 30
0.0
 11
495.318537995844
 21
207.7385712206011
 31
0.0
  0
LINE
  5
323
330
18
100
AcDbEntity
  8
握り
100
AcDbLine
 10
487.9718378281285
 20
215.2852712206011
 30
0.0
 11
495.318537995844
 21
215.2852712206011
 31
0.0
  0
LINE
  5
324
330
18
100
AcDbEntity
  8
握り
100
AcDbLine
 10
467.9718378281282
 20
194.4319712206011
 30
0.0
 11
475.318537995844
 21
194.4319712206011
 31
0.0
  0
LINE
  5
325
330
18
100
AcDbEntity
  8
握り
100
AcDbLine
 10
477.9718378281284
 20
194.4319712206011
 30
0.0
 11
485.3185379958441
 21
194.4319712206011
 31
0.0
  0
LINE
  5
326
330
18
100
AcDbEntity
  8
握り
100
AcDbLine
 10
475.318537995844
 20
215.2852712206012
 30
0.0
 11
475.3185379958442
 21
207.7385712206011
 31
0.0
  0
LINE
  5
327
330
18
100
AcDbEntity
  8
握り
100
AcDbLine
 10
467.9718378281284
 20
215.2852712206012
 30
0.0
 11
467.9718378281285
 21
207.7385712206011
 31
0.0
  0
LINE
  5
328
330
18
100
AcDbEntity
  8
握り
100
AcDbLine
 10
465.3185379958441
 20
215.2852712206012
 30
0.0
 11
465.3185379958442
 21
207.7385712206011
 31
0.0
  0
LINE
  5
329
330
18
100
AcDbEntity
  8
握り
100
AcDbLine
 10
467.9718378281284
 20
207.7385712206011
 30
0.0
 11
475.3185379958442
 21
207.7385712206011
 31
0.0
  0
LINE
  5
32A
330
18
100
AcDbEntity
  8
握り
100
AcDbLine
 10
467.9718378281285
 20
215.2852712206012
 30
0.0
 11
475.318537995844
 21
215.2852712206012
 31
0.0
  0
LINE
  5
32B
330
18
100
AcDbEntity
  8
握り
100
AcDbLine
 10
487.9718378281284
 20
215.2852712206012
 30
0.0
 11
487.9718378281285
 21
207.7385712206011
 31
0.0
  0
LINE
  5
32C
330
18
100
AcDbEntity
  8
握り
100
AcDbLine
 10
485.3185379958441
 20
215.2852712206012
 30
0.0
 11
485.3185379958442
 21
207.7385712206011
 31
0.0
  0
LINE
  5
32D
330
18
100
AcDbEntity
  8
握り
100
AcDbLine
 10
477.9718378281284
 20
215.2852712206012
 30
0.0
 11
477.9718378281286
 21
207.7385712206011
 31
0.0
  0
LINE
  5
32E
330
18
100
AcDbEntity
  8
握り
100
AcDbLine
 10
477.9718378281286
 20
207.7385712206011
 30
0.0
 11
485.3185379958441
 21
207.7385712206011
 31
0.0
  0
LINE
  5
32F
330
18
100
AcDbEntity
  8
握り
100
AcDbLine
 10
477.9718378281284
 20
215.2852712206012
 30
0.0
 11
485.3185379958441
 21
215.2852712206011
 31
0.0
  0
LINE
  5
330
330
18
100
AcDbEntity
  8
握り
100
AcDbLine
 10
495.3185379958441
 20
205.0852712206011
 30
0.0
 11
495.318537995844
 21
197.0852712206011
 31
0.0
  0
LINE
  5
331
330
18
100
AcDbEntity
  8
握り
100
AcDbLine
 10
507.9718378281286
 20
215.2852712206011
 30
0.0
 11
515.318537995844
 21
215.2852712206011
 31
0.0
  0
LINE
  5
332
330
18
100
AcDbEntity
  8
握り
100
AcDbLine
 10
495.3185379958441
 20
215.2852712206012
 30
0.0
 11
495.3185379958441
 21
207.7385712206012
 31
0.0
  0
LINE
  5
333
330
18
100
AcDbEntity
  8
握り
100
AcDbLine
 10
497.9718378281283
 20
215.2852712206011
 30
0.0
 11
505.3185379958442
 21
215.2852712206011
 31
0.0
  0
LINE
  5
334
330
18
100
AcDbEntity
  8
握り
100
AcDbLine
 10
517.9718378281283
 20
215.2852712206011
 30
0.0
 11
521.1451879119863
 21
215.2852712206011
 31
0.0
  0
ARC
  5
345
330
18
100
AcDbEntity
  8
隠れ線2
100
AcDbCircle
 10
371.6451879119863
 20
201.0852712206012
 30
0.0
 40
17.0
100
AcDbArc
 50
207.1884438211932
 51
270.0
  0
LINE
  5
34D
330
18
100
AcDbEntity
  8
隠れ線2
100
AcDbLine
 10
402.5391835575136
 20
187.3291407633815
 30
0.0
 11
401.504531493418
 21
187.2205022966514
 31
0.0
  0
ARC
  5
354
330
18
100
AcDbEntity
  8
寸法線
100
AcDbCircle
 10
371.6451879119863
 20
201.0852712206012
 30
0.0
 40
280.0
100
AcDbArc
 50
158.2633390484512
 51
198.9444393827879
  0
LINE
  5
3CF
330
18
100
AcDbEntity
  8
0
  6
ByBlock
 62
     2
100
AcDbLine
 10
98.10542207726548
 20
141.285634874833
 30
0.0
 11
63.25188981547067
 21
138.7760261683254
 31
0.0
  0
LINE
  5
3D0
330
18
100
AcDbEntity
  8
0
  6
ByBlock
 62
     2
100
AcDbLine
 10
92.35994216776839
 20
221.0790579952924
 30
0.0
 11
57.50640990597359
 21
218.5694492887848
 31
0.0
  0
LINE
  5
3D1
330
18
100
AcDbEntity
  8
0
  6
ByBlock
 62
     2
100
AcDbLine
 10
64.31911572846027
 20
141.3593435802288
 30
0.0
 11
58.9327282877026
 21
216.165678111251
 31
0.0
  0
INSERT
  5
3D2
330
18
100
AcDbEntity
  8
0
  6
ByBlock
 62
     2
100
AcDbBlockReference
  2
_OPEN
 10
64.49866196282997
 20
138.8657992855102
 30
0.0
 41
2.5
 42
2.5
 43
2.5
 50
274.1184421865906
  0
INSERT
  5
3D3
330
18
100
AcDbEntity
  8
0
  6
ByBlock
 62
     2
100
AcDbBlockReference
  2
_OPEN
 10
58.75318205333289
 20
218.6592224059696
 30
0.0
 41
2.5
 42
2.5
 43
2.5
 50
94.1184421865906
  0
MTEXT
  5
3D4
330
18
100
AcDbEntity
  8
0
  6
ByBlock
 62
     6
100
AcDbMText
 10
59.3202095506797
 20
178.629546425029
 30
0.0
 40
2.499999999999999
 41
0.0
 71
     5
 72
     1
  1
\A1;80
  7
STYLE3
 11
-0.1060461074912677
 21
0.9943612135868688
 31
0.0
 73
     1
 44
1.0
  0
POINT
  5
3D5
330
18
100
AcDbEntity
  8
DEFPOINTS
  6
ByBlock
 62
     0
100
AcDbPoint
 10
98.10542207726548
 20
141.285634874833
 30
0.0
  0
POINT
  5
3D6
330
18
100
AcDbEntity
  8
DEFPOINTS
  6
ByBlock
 62
     0
100
AcDbPoint
 10
92.35994216776839
 20
221.0790579952924
 30
0.0
  0
POINT
  5
3D7
330
18
100
AcDbEntity
  8
DEFPOINTS
  6
ByBlock
 62
     0
100
AcDbPoint
 10
58.75318205333289
 20
218.6592224059696
 30
0.0
  0
LINE
  5
400
330
18
100
AcDbEntity
  8
0
  6
ByBlock
 62
     2
100
AcDbLine
 10
92.57518791198634
 20
221.0852712206011
 30
0.0
 11
116.6104321540176
 21
221.0852712206011
 31
0.0
  0
LINE
  5
402
330
18
100
AcDbEntity
  8
0
  6
ByBlock
 62
     2
100
AcDbLine
 10
115.3604321540176
 20
218.5852712206012
 30
0.0
 11
115.3604321540176
 21
203.5852712206012
 31
0.0
  0
INSERT
  5
403
330
18
100
AcDbEntity
  8
0
  6
ByBlock
 62
     2
100
AcDbBlockReference
  2
_OPEN
 10
115.3604321540176
 20
221.0852712206011
 30
0.0
 41
2.5
 42
2.5
 43
2.5
 50
90.0
  0
INSERT
  5
404
330
18
100
AcDbEntity
  8
0
  6
ByBlock
 62
     2
100
AcDbBlockReference
  2
_OPEN
 10
115.3604321540176
 20
201.0852712206012
 30
0.0
 41
2.5
 42
2.5
 43
2.5
 50
270.0
  0
MTEXT
  5
405
330
18
100
AcDbEntity
  8
0
  6
ByBlock
 62
     6
100
AcDbMText
 10
113.4854321540176
 20
211.0852712206011
 30
0.0
 40
2.5
 41
0.0
 71
     5
 72
     1
  1
\A1;20
  7
STYLE3
 11
0.0000000000000001
 21
1.0
 31
0.0
 73
     1
 44
1.0
  0
POINT
  5
406
330
18
100
AcDbEntity
  8
DEFPOINTS
  6
ByBlock
 62
     0
100
AcDbPoint
 10
92.57518791198634
 20
221.0852712206011
 30
0.0
  0
MTEXT
  5
AFF
330
18
100
AcDbEntity
  8
DEFPOINTS
  6
Continuous
100
AcDbMText
 10
1248.754546438361
 20
182.6786849747625
 30
0.0
 40
1.0
 41
0.0
 71
     4
 72
     1
  1
\A1;
 73
     1
 44
1.0
  0
LINE
  5
B00
102
{ACAD_REACTORS
330
B3E
102
}
330
18
100
AcDbEntity
  8
ROGO
 62
     4
100
AcDbLine
 10
451.4809226930811
 20
202.2444109124605
 30
0.0
 11
453.7844917116313
 21
202.2444109124605
 31
0.0
  0
LINE
  5
B01
102
{ACAD_REACTORS
330
B3C
330
B3D
330
B3E
102
}
330
18
100
AcDbEntity
  8
ROGO
 62
     4
100
AcDbLine
 10
450.030564778663
 20
199.3131555054519
 30
0.0
 11
469.8722465886969
 21
199.3131555054519
 31
0.0
  0
LINE
  5
B02
102
{ACAD_REACTORS
330
B3E
102
}
330
18
100
AcDbEntity
  8
ROGO
 62
     4
100
AcDbLine
 10
451.4809226930811
 20
202.2444109124605
 30
0.0
 11
450.030564778663
 21
199.3131555054518
 31
0.0
  0
SPLINE
  5
B03
102
{ACAD_REACTORS
330
B3E
102
}
330
18
100
AcDbEntity
  8
ROGO
 62
     4
100
AcDbSpline
210
0.0
220
0.0
230
1.0
 70
     8
 71
     3
 72
    18
 73
    14
 74
     0
 42
0.0000000001
 43
0.0000000001
 40
0.1087402787915014
 40
0.1087402787915014
 40
0.1087402787915014
 40
0.1087402787915014
 40
0.5992371417938475
 40
1.083176791562496
 40
1.448211145705696
 40
1.714037220764907
 40
2.164002567013297
 40
2.740236056362883
 40
3.395137510199602
 40
4.071816045172726
 40
4.784906178399433
 40
5.506895915094292
 40
6.060470601257719
 40
6.060470601257719
 40
6.060470601257719
 40
6.060470601257719
 10
453.7844917116313
 20
202.2444109124605
 30
0.0
 10
453.8582910511114
 20
202.2173646912496
 30
0.0
 10
454.0034166908978
 20
202.1601848465134
 30
0.0
 10
454.1805384559652
 20
202.0296815468114
 30
0.0
 10
454.2771330187148
 20
201.8790261508503
 30
0.0
 10
454.3700461737762
 20
201.7305822332748
 30
0.0
 10
454.3830492002205
 20
201.5176143273371
 30
0.0
 10
454.3617493644389
 20
201.2483712765203
 30
0.0
 10
454.2242395489015
 20
200.967443937205
 30
0.0
 10
454.0035282073567
 20
200.7217338932024
 30
0.0
 10
453.7294996743667
 20
200.5250707784285
 30
0.0
 10
453.4405271342135
 20
200.3706952977208
 30
0.0
 10
453.2339694812797
 20
200.3691571254228
 30
0.0
 10
453.1443267428588
 20
200.3684895830927
 30
0.0
  0
LINE
  5
B04
102
{ACAD_REACTORS
330
B3E
102
}
330
18
100
AcDbEntity
  8
ROGO
 62
     4
100
AcDbLine
 10
453.1443267433004
 20
200.3684895830927
 30
0.0
 11
451.87060064547
 21
200.3684895830927
 31
0.0
  0
LINE
  5
B05
102
{ACAD_REACTORS
330
B3E
102
}
330
18
100
AcDbEntity
  8
ROGO
 62
     4
100
AcDbLine
 10
452.3911182007094
 20
201.5189867535842
 30
0.0
 11
452.1654070630559
 21
201.0200986323194
 31
0.0
  0
SPLINE
  5
B06
102
{ACAD_REACTORS
330
B3E
102
}
330
18
100
AcDbEntity
  8
ROGO
 62
     4
100
AcDbSpline
210
0.0
220
0.0
230
1.0
 70
     8
 71
     3
 72
    15
 73
    11
 74
     9
 42
0.0000000001
 43
0.0000000001
 44
0.0000000001
 40
0.0
 40
0.0
 40
0.0
 40
0.0
 40
0.2199578613106558
 40
0.3202465475123882
 40
0.4340808827709044
 40
0.5116301246391697
 40
0.6342750549531635
 40
0.7077360179242086
 40
0.8337709579494573
 40
0.8757826314379498
 40
0.8757826314379498
 40
0.8757826314379498
 40
0.8757826314379498
 10
452.9710996279915
 20
201.5189867535842
 30
0.0
 10
453.0537115352188
 20
201.5193651602163
 30
0.0
 10
453.1739899281588
 20
201.5199160994587
 30
0.0
 10
453.2397624372514
 20
201.3711313795595
 30
0.0
 10
453.210280062632
 20
201.2753372300774
 30
0.0
 10
453.1732183148835
 20
201.1769864954377
 30
0.0
 10
453.1077218126799
 20
201.1101556879101
 30
0.0
 10
453.0198159132585
 20
201.0457863541428
 30
0.0
 10
452.9367406374643
 20
201.0379941580579
 30
0.0
 10
452.882709496075
 20
201.0236777388377
 30
0.0
 10
452.8692017042618
 20
201.0200986323194
 30
0.0
 11
452.9710996279915
 21
201.5189867535842
 31
0.0
 11
453.185085443604
 21
201.4680796669558
 31
0.0
 11
453.2258447302826
 21
201.3764472429481
 31
0.0
 11
453.20546537991
 21
201.2644519842889
 31
0.0
 11
453.1748960613845
 21
201.1931820630092
 31
0.0
 11
453.0933774880272
 21
201.1015496390015
 31
0.0
 11
453.0322388509761
 21
201.0608239696987
 31
0.0
 11
452.9099609909403
 21
201.030280049645
 31
0.0
 11
452.8692017042618
 21
201.0200986323194
 31
0.0
  0
LINE
  5
B07
102
{ACAD_REACTORS
330
B3E
102
}
330
18
100
AcDbEntity
  8
ROGO
 62
     4
100
AcDbLine
 10
452.9710996279915
 20
201.5189867535842
 30
0.0
 11
452.3911182007094
 21
201.5189867535842
 31
0.0
  0
LINE
  5
B08
102
{ACAD_REACTORS
330
B3E
102
}
330
18
100
AcDbEntity
  8
ROGO
 62
     4
100
AcDbLine
 10
452.8692017042618
 20
201.0200986323194
 30
0.0
 11
452.1654070630559
 21
201.0200986323194
 31
0.0
  0
LINE
  5
B09
102
{ACAD_REACTORS
330
B3C
330
B3E
102
}
330
18
100
AcDbEntity
  8
ROGO
 62
     4
100
AcDbLine
 10
451.87060064547
 20
200.3684895830927
 30
0.0
 11
451.393137572858
 21
199.3131555054519
 31
0.0
  0
LINE
  5
B0A
102
{ACAD_REACTORS
330
B39
102
}
330
18
100
AcDbEntity
  8
ROGO
 62
     4
100
AcDbLine
 10
455.1453831304964
 20
202.2444109124605
 30
0.0
 11
454.217194702982
 21
200.3684895830927
 31
0.0
  0
LINE
  5
B0B
102
{ACAD_REACTORS
330
B39
102
}
330
18
100
AcDbEntity
  8
ROGO
 62
     4
100
AcDbLine
 10
457.6826447711877
 20
202.2444109124605
 30
0.0
 11
457.4700244915669
 21
201.814693297186
 31
0.0
  0
LINE
  5
B0C
102
{ACAD_REACTORS
330
B39
102
}
330
18
100
AcDbEntity
  8
ROGO
 62
     4
100
AcDbLine
 10
454.217194702982
 20
200.3684895830927
 30
0.0
 11
456.7544563436733
 21
200.3684895830927
 31
0.0
  0
LINE
  5
B0D
102
{ACAD_REACTORS
330
B39
102
}
330
18
100
AcDbEntity
  8
ROGO
 62
     4
100
AcDbLine
 10
456.1365038883984
 20
201.814693297186
 30
0.0
 11
455.9702612511462
 21
201.4787075212087
 31
0.0
  0
LINE
  5
B0E
102
{ACAD_REACTORS
330
B39
102
}
330
18
100
AcDbEntity
  8
ROGO
 62
     4
100
AcDbLine
 10
456.1365038883984
 20
201.814693297186
 30
0.0
 11
457.4700244915669
 21
201.814693297186
 31
0.0
  0
LINE
  5
B0F
102
{ACAD_REACTORS
330
B39
102
}
330
18
100
AcDbEntity
  8
ROGO
 62
     4
100
AcDbLine
 10
455.9702612511462
 20
201.4787075212087
 30
0.0
 11
457.3037818543148
 21
201.4787075212087
 31
0.0
  0
LINE
  5
B10
102
{ACAD_REACTORS
330
B39
102
}
330
18
100
AcDbEntity
  8
ROGO
 62
     4
100
AcDbLine
 10
455.6335453250888
 20
200.7981855830927
 30
0.0
 11
456.9670659282573
 21
200.7981855830927
 31
0.0
  0
LINE
  5
B11
102
{ACAD_REACTORS
330
B39
102
}
330
18
100
AcDbEntity
  8
ROGO
 62
     4
100
AcDbLine
 10
455.7997950002551
 20
201.1341855830926
 30
0.0
 11
457.1333156034236
 21
201.1341855830927
 31
0.0
  0
LINE
  5
B12
102
{ACAD_REACTORS
330
B39
102
}
330
18
100
AcDbEntity
  8
ROGO
 62
     4
100
AcDbLine
 10
457.3037818543148
 20
201.4787075212087
 30
0.0
 11
457.1333156034236
 21
201.1341855830926
 31
0.0
  0
LINE
  5
B13
102
{ACAD_REACTORS
330
B39
102
}
330
18
100
AcDbEntity
  8
ROGO
 62
     4
100
AcDbLine
 10
456.9670659282573
 20
200.7981855830927
 30
0.0
 11
456.7544563436733
 21
200.3684895830927
 31
0.0
  0
LINE
  5
B14
102
{ACAD_REACTORS
330
B39
102
}
330
18
100
AcDbEntity
  8
ROGO
 62
     4
100
AcDbLine
 10
455.7997950002551
 20
201.1341855830926
 30
0.0
 11
455.6335453250888
 21
200.7981855830927
 31
0.0
  0
LINE
  5
B15
102
{ACAD_REACTORS
330
B42
102
}
330
18
100
AcDbEntity
  8
ROGO
 62
     4
100
AcDbLine
 10
458.417636578613
 20
202.2444109124605
 30
0.0
 11
457.0648732498999
 21
200.3684895830927
 31
0.0
  0
LINE
  5
B16
102
{ACAD_REACTORS
330
B42
102
}
330
18
100
AcDbEntity
  8
ROGO
 62
     4
100
AcDbLine
 10
459.0949620880868
 20
201.7429695168151
 30
0.0
 11
458.6330096076393
 21
201.1023648427881
 31
0.0
  0
LINE
  5
B17
102
{ACAD_REACTORS
330
B42
102
}
330
18
100
AcDbEntity
  8
ROGO
 62
     4
100
AcDbLine
 10
458.3613556631463
 20
200.725653397508
 30
0.0
 11
459.5468942185525
 21
200.725653397508
 31
0.0
  0
LINE
  5
B18
102
{ACAD_REACTORS
330
B42
102
}
330
18
100
AcDbEntity
  8
ROGO
 62
     4
100
AcDbLine
 10
458.6330096076394
 20
201.1023648427882
 30
0.0
 11
459.3795440676946
 21
201.1023648427882
 31
0.0
  0
LINE
  5
B19
102
{ACAD_REACTORS
330
B42
102
}
330
18
100
AcDbEntity
  8
ROGO
 62
     4
100
AcDbLine
 10
458.3613556631463
 20
200.725653397508
 30
0.0
 11
458.1037978951736
 21
200.3684895830927
 31
0.0
  0
LINE
  5
B1A
102
{ACAD_REACTORS
330
B42
102
}
330
18
100
AcDbEntity
  8
ROGO
 62
     4
100
AcDbLine
 10
457.0648732498999
 20
200.3684895830927
 30
0.0
 11
458.1037978951736
 21
200.3684895830927
 31
0.0
  0
LINE
  5
B1B
102
{ACAD_REACTORS
330
B42
102
}
330
18
100
AcDbEntity
  8
ROGO
 62
     4
100
AcDbLine
 10
458.417636578613
 20
202.2444109124605
 30
0.0
 11
459.9182129825721
 21
202.2444109124605
 31
0.0
  0
LINE
  5
B1C
102
{ACAD_REACTORS
330
B42
102
}
330
18
100
AcDbEntity
  8
ROGO
 62
     4
100
AcDbLine
 10
460.7515715688341
 20
200.3684895830927
 30
0.0
 11
459.7055605372225
 21
200.3684895830927
 31
0.0
  0
LINE
  5
B1D
102
{ACAD_REACTORS
330
B3A
102
}
330
18
100
AcDbEntity
  8
ROGO
 62
     4
100
AcDbLine
 10
461.2653135902709
 20
200.3684895830927
 30
0.0
 11
462.8810693259918
 21
200.3684895830927
 31
0.0
  0
LINE
  5
B1E
102
{ACAD_REACTORS
330
B3A
102
}
330
18
100
AcDbEntity
  8
ROGO
 62
     4
100
AcDbLine
 10
463.8164642874335
 20
202.2444109124605
 30
0.0
 11
463.4684367152327
 21
201.5464465521506
 31
0.0
  0
LINE
  5
B1F
102
{ACAD_REACTORS
330
B3A
102
}
330
18
100
AcDbEntity
  8
ROGO
 62
     4
100
AcDbLine
 10
462.2944839675882
 20
201.5464465521506
 30
0.0
 11
463.4684367152327
 21
201.5464465521507
 31
0.0
  0
LINE
  5
B20
102
{ACAD_REACTORS
330
B3A
102
}
330
18
100
AcDbEntity
  8
ROGO
 62
     4
100
AcDbLine
 10
462.0295488971442
 20
201.0664465521507
 30
0.0
 11
463.2290932126759
 21
201.0664465521507
 31
0.0
  0
SPLINE
  5
B21
102
{ACAD_REACTORS
330
B3A
102
}
330
18
100
AcDbEntity
  8
ROGO
 62
     4
100
AcDbSpline
210
0.0
220
0.0
230
1.0
 70
     8
 71
     3
 72
    26
 73
    22
 74
    20
 42
0.0000000001
 43
0.0000000001
 44
0.0000000001
 40
0.0
 40
0.0
 40
0.0
 40
0.0
 40
0.3403136209417421
 40
0.568127238951536
 40
0.7323994099697279
 40
0.8550561247336879
 40
1.014148321321429
 40
1.130270115356448
 40
1.339959009791989
 40
1.510642755247325
 40
1.626735051276248
 40
1.740569491433661
 40
1.944197174100537
 40
2.088186249714725
 40
2.165735491582938
 40
2.275891898886454
 40
2.355438312276675
 40
2.470674802865045
 40
2.535888688806245
 40
2.677801419664516
 40
2.742600005358902
 40
2.742600005358902
 40
2.742600005358902
 40
2.742600005358902
 10
461.9378409415674
 20
202.2444109124605
 30
0.0
 10
461.8223332404836
 20
202.2375195249389
 30
0.0
 10
461.6295020775323
 20
202.2260148870865
 30
0.0
 10
461.4177746336585
 20
202.0973927387173
 30
0.0
 10
461.2626507130723
 20
202.0226174739424
 30
0.0
 10
461.1520165210377
 20
201.9209668719144
 30
0.0
 10
461.0709212097982
 20
201.8159692254554
 30
0.0
 10
460.9686853459448
 20
201.6908652995619
 30
0.0
 10
460.8853149203648
 20
201.5451868403269
 30
0.0
 10
460.8428594310319
 20
201.384623781665
 30
0.0
 10
460.8052527615265
 20
201.2566540922951
 30
0.0
 10
460.7773630258508
 20
201.1140485738773
 30
0.0
 10
460.7844589641551
 20
200.9599844479884
 30
0.0
 10
460.7946206725613
 20
200.8168975751257
 30
0.0
 10
460.8399902295957
 20
200.7147549709449
 30
0.0
 10
460.8916581187243
 20
200.6420364753315
 30
0.0
 10
460.9549247413742
 20
200.5619451143334
 30
0.0
 10
461.0241522618277
 20
200.5089008652902
 30
0.0
 10
461.0814090719858
 20
200.4128076436607
 30
0.0
 10
461.1816351866464
 20
200.4005454555519
 30
0.0
 10
461.2453428924688
 20
200.3761400414419
 30
0.0
 10
461.265313590271
 20
200.3684895830927
 30
0.0
 11
461.9378409415674
 21
202.2444109124605
 31
0.0
 11
461.6015772659191
 21
202.1920649380409
 31
0.0
 11
461.3977808325263
 21
202.0902510967074
 31
0.0
 11
461.2551236221179
 21
202.0088000900253
 31
0.0
 11
461.1634156665411
 21
201.9273487514199
 31
0.0
 11
461.0615177428114
 21
201.8051720754351
 31
0.0
 11
460.9901891376073
 21
201.7135396514273
 31
0.0
 11
460.8882906279441
 21
201.5302744714885
 31
0.0
 11
460.8373419590458
 21
201.367372126201
 31
0.0
 11
460.8067726405203
 21
201.2553768675418
 31
0.0
 11
460.7863927042143
 21
201.1433816088827
 31
0.0
 11
460.7863927042143
 21
200.9397539262158
 31
0.0
 11
460.8067726405203
 21
200.7972144155797
 31
0.0
 11
460.8373419590458
 21
200.7259444942999
 31
0.0
 11
460.898480596097
 21
200.6343120702922
 31
0.0
 11
460.9494298509287
 21
200.5732235663381
 31
0.0
 11
461.0309478383523
 21
200.491772559656
 31
0.0
 11
461.071707125031
 21
200.4408654730275
 31
0.0
 11
461.2041749532198
 21
200.3899587183225
 31
0.0
 11
461.265313590271
 21
200.3684895830927
 31
0.0
  0
SPLINE
  5
B22
102
{ACAD_REACTORS
330
B3A
102
}
330
18
100
AcDbEntity
  8
ROGO
 62
     4
100
AcDbSpline
210
0.0
220
0.0
230
1.0
 70
     8
 71
     3
 72
    16
 73
    12
 74
    10
 42
0.0000000001
 43
0.0000000001
 44
0.0000000001
 40
0.0
 40
0.0
 40
0.0
 40
0.0
 40
0.1794152893755814
 40
0.2670467197814505
 40
0.3102605435414069
 40
0.3558008766977259
 40
0.421014503534006
 40
0.4803947587045012
 40
0.5423269814404634
 40
0.6461608279444114
 40
0.7489346372631822
 40
0.7489346372631822
 40
0.7489346372631822
 40
0.7489346372631822
 10
462.2944839675882
 20
201.5464465521506
 30
0.0
 10
462.2337258138433
 20
201.5371835617163
 30
0.0
 10
462.1432916835412
 20
201.5233962684513
 30
0.0
 10
462.0615120386971
 20
201.4586604013433
 30
0.0
 10
462.0153939970909
 20
201.4201468694625
 30
0.0
 10
461.9997044338747
 20
201.3691440206309
 30
0.0
 10
461.9575671940735
 20
201.3299816620084
 30
0.0
 10
461.9228341228206
 20
201.2761599752712
 30
0.0
 10
461.9145406527323
 20
201.2022350167581
 30
0.0
 10
461.9206282496573
 20
201.0984926037048
 30
0.0
 10
461.9933664133274
 20
201.07709196942
 30
0.0
 10
462.0295488971442
 20
201.0664465521507
 30
0.0
 11
462.2944839675882
 21
201.5464465521506
 31
0.0
 11
462.1212574386543
 21
201.4997302195115
 31
0.0
 11
462.0499288334501
 21
201.4488234648064
 31
0.0
 11
462.0193595149246
 21
201.4182792128293
 31
0.0
 11
461.9989795786186
 21
201.3775535435266
 31
0.0
 11
461.95822029194
 21
201.3266467888216
 31
0.0
 11
461.9276509734143
 21
201.2757397021932
 31
0.0
 11
461.9174610052613
 21
201.2146515301625
 31
0.0
 11
461.9378409415674
 21
201.1128373569057
 31
0.0
 11
462.0295488971442
 21
201.0664465521507
 31
0.0
  0
LINE
  5
B23
102
{ACAD_REACTORS
330
B3A
102
}
330
18
100
AcDbEntity
  8
ROGO
 62
     4
100
AcDbLine
 10
463.2290932126758
 20
201.0664465521507
 30
0.0
 11
462.8810693259918
 21
200.3684895830927
 31
0.0
  0
LINE
  5
B24
102
{ACAD_REACTORS
330
B3A
102
}
330
18
100
AcDbEntity
  8
ROGO
 62
     4
100
AcDbLine
 10
461.937840941568
 20
202.2444109124605
 30
0.0
 11
463.8164642874336
 21
202.2444109124605
 31
0.0
  0
LINE
  5
B25
102
{ACAD_REACTORS
330
B3B
102
}
330
18
100
AcDbEntity
  8
ROGO
 62
     4
100
AcDbLine
 10
467.3096989773107
 20
200.3684895830927
 30
0.0
 11
468.9254547130316
 21
200.3684895830927
 31
0.0
  0
LINE
  5
B26
102
{ACAD_REACTORS
330
B3B
102
}
330
18
100
AcDbEntity
  8
ROGO
 62
     4
100
AcDbLine
 10
467.9822263286077
 20
202.2444109124605
 30
0.0
 11
469.8608496744734
 21
202.2444109124605
 31
0.0
  0
SPLINE
  5
B27
102
{ACAD_REACTORS
330
B3B
102
}
330
18
100
AcDbEntity
  8
ROGO
 62
     4
100
AcDbSpline
210
0.0
220
0.0
230
1.0
 70
     8
 71
     3
 72
    16
 73
    12
 74
    10
 42
0.0000000001
 43
0.0000000001
 44
0.0000000001
 40
0.0
 40
0.0
 40
0.0
 40
0.0
 40
0.1794152893756362
 40
0.2670467197814921
 40
0.3102605435414084
 40
0.3558008766977529
 40
0.4210145035340772
 40
0.4803947587045432
 40
0.5423269814404494
 40
0.6461608279443862
 40
0.7489346372632591
 40
0.7489346372632591
 40
0.7489346372632591
 40
0.7489346372632591
 10
468.338869354628
 20
201.5464465521506
 30
0.0
 10
468.2781112008831
 20
201.5371835617164
 30
0.0
 10
468.1876770705811
 20
201.5233962684515
 30
0.0
 10
468.1058974257369
 20
201.4586604013432
 30
0.0
 10
468.0597793841307
 20
201.4201468694625
 30
0.0
 10
468.0440898209144
 20
201.3691440206309
 30
0.0
 10
468.0019525811135
 20
201.3299816620084
 30
0.0
 10
467.9672195098603
 20
201.2761599752711
 30
0.0
 10
467.9589260397722
 20
201.2022350167581
 30
0.0
 10
467.9650136366972
 20
201.0984926037048
 30
0.0
 10
468.0377518003672
 20
201.07709196942
 30
0.0
 10
468.0739342841841
 20
201.0664465521506
 30
0.0
 11
468.338869354628
 21
201.5464465521506
 31
0.0
 11
468.1656428256941
 21
201.4997302195115
 31
0.0
 11
468.09431422049
 21
201.4488234648064
 31
0.0
 11
468.0637449019644
 21
201.4182792128293
 31
0.0
 11
468.0433649656584
 21
201.3775535435266
 31
0.0
 11
468.0026056789798
 21
201.3266467888215
 31
0.0
 11
467.9720363604542
 21
201.2757397021931
 31
0.0
 11
467.9618463923012
 21
201.2146515301625
 31
0.0
 11
467.9822263286072
 21
201.1128373569057
 31
0.0
 11
468.0739342841841
 21
201.0664465521506
 31
0.0
  0
SPLINE
  5
B28
102
{ACAD_REACTORS
330
B3B
102
}
330
18
100
AcDbEntity
  8
ROGO
 62
     4
100
AcDbSpline
210
0.0
220
0.0
230
1.0
 70
     8
 71
     3
 72
    26
 73
    22
 74
    20
 42
0.0000000001
 43
0.0000000001
 44
0.0000000001
 40
0.0
 40
0.0
 40
0.0
 40
0.0
 40
0.3403136209417421
 40
0.568127238951536
 40
0.7323994099697279
 40
0.8550561247336457
 40
1.014148321321467
 40
1.13027011535644
 40
1.339959009792031
 40
1.510642755247422
 40
1.626735051276235
 40
1.740569491433648
 40
1.944197174100525
 40
2.088186249714712
 40
2.165735491582978
 40
2.275891898886494
 40
2.355438312276751
 40
2.470674802865121
 40
2.535888688806286
 40
2.677801419664556
 40
2.742600005358942
 40
2.742600005358942
 40
2.742600005358942
 40
2.742600005358942
 10
467.9822263286072
 20
202.2444109124605
 30
0.0
 10
467.8667186275235
 20
202.2375195249389
 30
0.0
 10
467.6738874645721
 20
202.2260148870865
 30
0.0
 10
467.4621600206981
 20
202.0973927387172
 30
0.0
 10
467.3070361001122
 20
202.0226174739425
 30
0.0
 10
467.1964019080775
 20
201.9209668719144
 30
0.0
 10
467.1153065968381
 20
201.8159692254554
 30
0.0
 10
467.0130707329846
 20
201.690865299562
 30
0.0
 10
466.9297003074046
 20
201.5451868403268
 30
0.0
 10
466.8872448180716
 20
201.384623781665
 30
0.0
 10
466.8496381485661
 20
201.2566540922951
 30
0.0
 10
466.8217484128906
 20
201.1140485738773
 30
0.0
 10
466.8288443511949
 20
200.9599844479884
 30
0.0
 10
466.8390060596011
 20
200.8168975751257
 30
0.0
 10
466.8843756166354
 20
200.7147549709448
 30
0.0
 10
466.9360435057639
 20
200.6420364753315
 30
0.0
 10
466.9993101284139
 20
200.5619451143333
 30
0.0
 10
467.0685376488676
 20
200.5089008652901
 30
0.0
 10
467.1257944590254
 20
200.4128076436606
 30
0.0
 10
467.226020573686
 20
200.4005454555518
 30
0.0
 10
467.2897282795086
 20
200.3761400414419
 30
0.0
 10
467.3096989773107
 20
200.3684895830926
 30
0.0
 11
467.9822263286072
 21
202.2444109124605
 31
0.0
 11
467.6459626529589
 21
202.1920649380409
 31
0.0
 11
467.4421662195661
 21
202.0902510967074
 31
0.0
 11
467.2995090091577
 21
202.0088000900253
 31
0.0
 11
467.2078010535809
 21
201.9273487514199
 31
0.0
 11
467.1059031298512
 21
201.8051720754351
 31
0.0
 11
467.034574524647
 21
201.7135396514273
 31
0.0
 11
466.9326760149838
 21
201.5302744714885
 31
0.0
 11
466.8817273460856
 21
201.3673721262009
 31
0.0
 11
466.8511580275601
 21
201.2553768675418
 31
0.0
 11
466.8307780912541
 21
201.1433816088827
 31
0.0
 11
466.8307780912541
 21
200.9397539262158
 31
0.0
 11
466.8511580275601
 21
200.7972144155797
 31
0.0
 11
466.8817273460856
 21
200.7259444942999
 31
0.0
 11
466.9428659831368
 21
200.6343120702921
 31
0.0
 11
466.9938152379685
 21
200.573223566338
 31
0.0
 11
467.0753332253921
 21
200.491772559656
 31
0.0
 11
467.1160925120708
 21
200.4408654730275
 31
0.0
 11
467.2485603402596
 21
200.3899587183225
 31
0.0
 11
467.3096989773107
 21
200.3684895830926
 31
0.0
  0
LINE
  5
B29
102
{ACAD_REACTORS
330
B3B
102
}
330
18
100
AcDbEntity
  8
ROGO
 62
     4
100
AcDbLine
 10
469.2734785997156
 20
201.0664465521506
 30
0.0
 11
468.9254547130316
 21
200.3684895830926
 31
0.0
  0
LINE
  5
B2A
102
{ACAD_REACTORS
330
B3B
102
}
330
18
100
AcDbEntity
  8
ROGO
 62
     4
100
AcDbLine
 10
468.0739342841839
 20
201.0664465521506
 30
0.0
 11
469.2734785997156
 21
201.0664465521506
 31
0.0
  0
LINE
  5
B2B
102
{ACAD_REACTORS
330
B3B
102
}
330
18
100
AcDbEntity
  8
ROGO
 62
     4
100
AcDbLine
 10
468.3388693546279
 20
201.5464465521506
 30
0.0
 11
469.5128221022724
 21
201.5464465521506
 31
0.0
  0
LINE
  5
B2C
102
{ACAD_REACTORS
330
B3B
102
}
330
18
100
AcDbEntity
  8
ROGO
 62
     4
100
AcDbLine
 10
469.8608496744734
 20
202.2444109124605
 30
0.0
 11
469.5128221022724
 21
201.5464465521506
 31
0.0
  0
LINE
  5
B2D
102
{ACAD_REACTORS
330
B3D
102
}
330
18
100
AcDbEntity
  8
ROGO
 62
     4
100
AcDbLine
 10
470.2537455732193
 20
202.2444109124605
 30
0.0
 11
471.3338652053681
 21
202.2444109124604
 31
0.0
  0
LINE
  5
B2E
102
{ACAD_REACTORS
330
B3C
330
B3D
102
}
330
18
100
AcDbEntity
  8
ROGO
 62
     4
100
AcDbLine
 10
470.2537455732193
 20
202.2444109124605
 30
0.0
 11
468.7921269565481
 21
199.3131555054519
 31
0.0
  0
LINE
  5
B2F
102
{ACAD_REACTORS
330
B3D
102
}
330
18
100
AcDbEntity
  8
ROGO
 62
     4
100
AcDbLine
 10
471.3338652053681
 20
202.2444109124604
 30
0.0
 11
471.1742861954809
 21
201.9243774712867
 31
0.0
  0
LINE
  5
B30
102
{ACAD_REACTORS
330
B3D
102
}
330
18
100
AcDbEntity
  8
ROGO
 62
     4
100
AcDbLine
 10
471.1742861954809
 20
201.9243774712867
 30
0.0
 11
471.6800191713079
 21
202.2444109124605
 31
0.0
  0
LINE
  5
B31
102
{ACAD_REACTORS
330
B3D
102
}
330
18
100
AcDbEntity
  8
ROGO
 62
     4
100
AcDbLine
 10
470.2537455732193
 20
200.0782463084799
 30
0.0
 11
470.6352445577417
 21
199.3131555054519
 31
0.0
  0
LINE
  5
B32
102
{ACAD_REACTORS
330
B3D
102
}
330
18
100
AcDbEntity
  8
ROGO
 62
     4
100
AcDbLine
 10
470.9845312494061
 20
200.7787832089562
 30
0.0
 11
471.7153405577416
 21
199.3131555054519
 31
0.0
  0
LINE
  5
B33
102
{ACAD_REACTORS
330
B3D
102
}
330
18
100
AcDbEntity
  8
ROGO
 62
     4
100
AcDbLine
 10
470.2537455732193
 20
200.0782463084798
 30
0.0
 11
469.8722465886969
 21
199.3131555054519
 31
0.0
  0
LINE
  5
B34
102
{ACAD_REACTORS
330
B3D
102
}
330
18
100
AcDbEntity
  8
ROGO
 62
     4
100
AcDbLine
 10
470.9845312494061
 20
200.7787832089562
 30
0.0
 11
472.7601151713079
 21
202.2444109124605
 31
0.0
  0
LINE
  5
B35
102
{ACAD_REACTORS
330
B3D
102
}
330
18
100
AcDbEntity
  8
ROGO
 62
     4
100
AcDbLine
 10
471.6800191713079
 20
202.2444109124605
 30
0.0
 11
472.7601151713079
 21
202.2444109124605
 31
0.0
  0
LINE
  5
B36
102
{ACAD_REACTORS
330
B3D
102
}
330
18
100
AcDbEntity
  8
ROGO
 62
     4
100
AcDbLine
 10
470.6352445577417
 20
199.3131555054519
 30
0.0
 11
471.7153405577416
 21
199.3131555054519
 31
0.0
  0
LINE
  5
B37
102
{ACAD_REACTORS
330
B39
102
}
330
18
100
AcDbEntity
  8
ROGO
 62
     4
100
AcDbLine
 10
455.1453831304964
 20
202.2444109124605
 30
0.0
 11
457.6826447711877
 21
202.2444109124605
 31
0.0
  0
LINE
  5
B38
102
{ACAD_REACTORS
330
B3C
102
}
330
18
100
AcDbEntity
  8
ROGO
 62
     4
100
AcDbLine
 10
451.5056912707227
 20
199.606970085868
 30
0.0
 11
468.9386323956711
 21
199.606970085868
 31
0.0
  0
HATCH
  5
B39
330
18
100
AcDbEntity
  8
ROGO
 62
     4
100
AcDbHatch
 10
0.0
 20
0.0
 30
0.0
210
0.0
220
0.0
230
1.0
  2
SOLID
 70
     1
 71
     1
 91
        1
 92
        1
 93
       12
 72
     1
 10
455.1453831304964
 20
202.2444109124605
 11
457.6826447711877
 21
202.2444109124605
 72
     1
 10
457.6826447711877
 20
202.2444109124605
 11
457.4700244915669
 21
201.814693297186
 72
     1
 10
457.4700244915669
 20
201.814693297186
 11
456.1365038883984
 21
201.814693297186
 72
     1
 10
456.1365038883984
 20
201.814693297186
 11
455.9702612511462
 21
201.4787075212087
 72
     1
 10
455.9702612511462
 20
201.4787075212087
 11
457.3037818543148
 21
201.4787075212087
 72
     1
 10
457.3037818543148
 20
201.4787075212087
 11
457.1333156034236
 21
201.1341855830926
 72
     1
 10
457.1333156034236
 20
201.1341855830927
 11
455.7997950002551
 21
201.1341855830926
 72
     1
 10
455.7997950002551
 20
201.1341855830926
 11
455.6335453250888
 21
200.7981855830927
 72
     1
 10
455.6335453250888
 20
200.7981855830927
 11
456.9670659282573
 21
200.7981855830927
 72
     1
 10
456.9670659282573
 20
200.7981855830927
 11
456.7544563436733
 21
200.3684895830927
 72
     1
 10
456.7544563436733
 20
200.3684895830927
 11
454.217194702982
 21
200.3684895830927
 72
     1
 10
454.217194702982
 20
200.3684895830927
 11
455.1453831304964
 21
202.2444109124605
 97
       12
330
B37
330
B0B
330
B0E
330
B0D
330
B0F
330
B12
330
B11
330
B14
330
B10
330
B13
330
B0C
330
B0A
 75
     0
 76
     1
 98
        1
 10
351.3594845894836
 20
72.53284512944429
450
        0
451
        0
460
0.0
461
0.0
452
        0
462
0.0
453
        0
470

  0
HATCH
  5
B3A
330
18
100
AcDbEntity
  8
ROGO
 62
     4
100
AcDbHatch
 10
0.0
 20
0.0
 30
0.0
210
0.0
220
0.0
230
1.0
  2
SOLID
 70
     1
 71
     1
 91
        1
 92
        5
 93
        8
 72
     1
 10
463.4684367152328
 20
201.5464465521507
 11
463.8164642874335
 21
202.2444109124605
 72
     1
 10
463.8164642874335
 20
202.2444109124605
 11
461.9378409415677
 21
202.2444109124605
 72
     4
 94
        3
 73
     0
 74
     0
 95
       26
 96
       22
 40
0.0
 40
0.0
 40
0.0
 40
0.0
 40
0.3403136209417421
 40
0.568127238951536
 40
0.7323994099697279
 40
0.8550561247336879
 40
1.014148321321429
 40
1.130270115356448
 40
1.339959009791989
 40
1.510642755247325
 40
1.626735051276248
 40
1.740569491433661
 40
1.944197174100537
 40
2.088186249714725
 40
2.165735491582938
 40
2.275891898886454
 40
2.355438312276675
 40
2.470674802865045
 40
2.535888688806245
 40
2.677801419664516
 40
2.742600005358902
 40
2.742600005358902
 40
2.742600005358902
 40
2.742600005358902
 10
461.9378409415674
 20
202.2444109124605
 10
461.8223332404836
 20
202.2375195249389
 10
461.6295020775323
 20
202.2260148870865
 10
461.4177746336584
 20
202.0973927387173
 10
461.2626507130723
 20
202.0226174739425
 10
461.1520165210377
 20
201.9209668719144
 10
461.0709212097982
 20
201.8159692254554
 10
460.9686853459448
 20
201.690865299562
 10
460.885314920365
 20
201.5451868403269
 10
460.8428594310318
 20
201.384623781665
 10
460.8052527615265
 20
201.2566540922951
 10
460.7773630258508
 20
201.1140485738773
 10
460.784458964155
 20
200.9599844479883
 10
460.7946206725613
 20
200.8168975751257
 10
460.8399902295957
 20
200.7147549709449
 10
460.8916581187243
 20
200.6420364753315
 10
460.9549247413742
 20
200.5619451143334
 10
461.0241522618277
 20
200.5089008652902
 10
461.0814090719858
 20
200.4128076436607
 10
461.1816351866464
 20
200.4005454555519
 10
461.2453428924688
 20
200.3761400414419
 10
461.265313590271
 20
200.3684895830927
 72
     1
 10
461.265313590271
 20
200.3684895830926
 11
462.8810693259918
 21
200.3684895830927
 72
     1
 10
462.8810693259918
 20
200.3684895830927
 11
463.2290932126757
 21
201.0664465521507
 72
     1
 10
463.2290932126757
 20
201.0664465521507
 11
462.0295488971442
 21
201.0664465521507
 72
     4
 94
        3
 73
     0
 74
     0
 95
       16
 96
       12
 40
0.0
 40
0.0
 40
0.0
 40
0.0
 40
0.1027738093187708
 40
0.2066076558227188
 40
0.268539878558681
 40
0.3279201337291763
 40
0.3931337605654563
 40
0.4386740937217753
 40
0.4818879174817318
 40
0.5695193478876009
 40
0.7489346372631822
 40
0.7489346372631822
 40
0.7489346372631822
 40
0.7489346372631822
 10
462.0295488971442
 20
201.0664465521507
 10
461.9933664133274
 20
201.07709196942
 10
461.9206282496573
 20
201.0984926037048
 10
461.9145406527322
 20
201.2022350167581
 10
461.9228341228206
 20
201.2761599752712
 10
461.9575671940735
 20
201.3299816620084
 10
461.9997044338747
 20
201.3691440206309
 10
462.0153939970909
 20
201.4201468694625
 10
462.0615120386971
 20
201.4586604013432
 10
462.1432916835412
 20
201.5233962684514
 10
462.2337258138433
 20
201.5371835617163
 10
462.2944839675882
 20
201.5464465521506
 72
     1
 10
462.2944839675882
 20
201.5464465521506
 11
463.4684367152328
 21
201.5464465521507
 97
        8
330
B24
330
B21
330
B1D
330
B23
330
B20
330
B22
330
B1F
330
B1E
 75
     0
 76
     1
 47
0.0514683685270805
 98
        1
 10
462.5948650804345
 20
201.8268088319648
450
        0
451
        0
460
0.0
461
0.0
452
        0
462
0.0
453
        0
470

  0
HATCH
  5
B3B
330
18
100
AcDbEntity
  8
ROGO
 62
     4
100
AcDbHatch
 10
0.0
 20
0.0
 30
0.0
210
0.0
220
0.0
230
1.0
  2
SOLID
 70
     1
 71
     1
 91
        1
 92
        5
 93
        8
 72
     4
 94
        3
 73
     0
 74
     0
 95
       26
 96
       22
 40
0.0
 40
0.0
 40
0.0
 40
0.0
 40
0.3403136209417421
 40
0.568127238951536
 40
0.7323994099697279
 40
0.8550561247336457
 40
1.014148321321467
 40
1.13027011535644
 40
1.339959009792031
 40
1.510642755247422
 40
1.626735051276235
 40
1.740569491433648
 40
1.944197174100525
 40
2.088186249714712
 40
2.165735491582978
 40
2.275891898886494
 40
2.355438312276751
 40
2.470674802865121
 40
2.535888688806286
 40
2.677801419664556
 40
2.742600005358942
 40
2.742600005358942
 40
2.742600005358942
 40
2.742600005358942
 10
467.9822263286072
 20
202.2444109124605
 10
467.8667186275234
 20
202.2375195249389
 10
467.6738874645719
 20
202.2260148870865
 10
467.4621600206982
 20
202.0973927387172
 10
467.3070361001122
 20
202.0226174739425
 10
467.1964019080775
 20
201.9209668719144
 10
467.1153065968381
 20
201.8159692254554
 10
467.0130707329846
 20
201.690865299562
 10
466.9297003074046
 20
201.5451868403269
 10
466.8872448180716
 20
201.3846237816649
 10
466.8496381485661
 20
201.2566540922951
 10
466.8217484128906
 20
201.1140485738773
 10
466.8288443511949
 20
200.9599844479884
 10
466.8390060596011
 20
200.8168975751257
 10
466.8843756166354
 20
200.7147549709448
 10
466.936043505764
 20
200.6420364753314
 10
466.9993101284139
 20
200.5619451143333
 10
467.0685376488676
 20
200.5089008652902
 10
467.1257944590254
 20
200.4128076436606
 10
467.226020573686
 20
200.4005454555519
 10
467.2897282795086
 20
200.3761400414419
 10
467.3096989773107
 20
200.3684895830926
 72
     1
 10
467.3096989773106
 20
200.3684895830927
 11
468.9254547130315
 21
200.3684895830927
 72
     1
 10
468.9254547130315
 20
200.3684895830927
 11
469.2734785997155
 21
201.0664465521506
 72
     1
 10
469.2734785997155
 20
201.0664465521506
 11
468.073934284184
 21
201.0664465521506
 72
     4
 94
        3
 73
     0
 74
     0
 95
       16
 96
       12
 40
0.0
 40
0.0
 40
0.0
 40
0.0
 40
0.1027738093188728
 40
0.2066076558228097
 40
0.2685398785587159
 40
0.3279201337291818
 40
0.3931337605655062
 40
0.4386740937218506
 40
0.481887917481767
 40
0.5695193478876229
 40
0.7489346372632591
 40
0.7489346372632591
 40
0.7489346372632591
 40
0.7489346372632591
 10
468.0739342841841
 20
201.0664465521506
 10
468.0377518003672
 20
201.07709196942
 10
467.9650136366974
 20
201.0984926037048
 10
467.9589260397718
 20
201.202235016758
 10
467.9672195098604
 20
201.2761599752711
 10
468.0019525811134
 20
201.3299816620085
 10
468.0440898209144
 20
201.3691440206308
 10
468.0597793841307
 20
201.4201468694625
 10
468.1058974257369
 20
201.4586604013432
 10
468.1876770705811
 20
201.5233962684514
 10
468.2781112008831
 20
201.5371835617163
 10
468.338869354628
 20
201.5464465521506
 72
     1
 10
468.338869354628
 20
201.5464465521506
 11
469.5128221022724
 21
201.5464465521506
 72
     1
 10
469.5128221022724
 20
201.5464465521506
 11
469.8608496744733
 21
202.2444109124605
 72
     1
 10
469.8608496744733
 20
202.2444109124605
 11
467.9822263286073
 21
202.2444109124605
 97
        8
330
B26
330
B28
330
B25
330
B29
330
B2A
330
B27
330
B2B
330
B2C
 75
     0
 76
     1
 47
0.0514683685270805
 98
        1
 10
468.3063940852998
 20
201.9009233364903
450
        0
451
        0
460
0.0
461
0.0
452
        0
462
0.0
453
        0
470

  0
HATCH
  5
B3C
330
18
100
AcDbEntity
  8
ROGO
 62
     4
100
AcDbHatch
 10
0.0
 20
0.0
 30
0.0
210
0.0
220
0.0
230
1.0
  2
SOLID
 70
     1
 71
     1
 91
        1
 92
        7
 72
     0
 73
     1
 93
        4
 10
451.5260676234608
 20
199.606970085868
 10
451.3931375728581
 20
199.3131555054519
 10
468.7921269565479
 20
199.3131555054518
 10
468.938632395671
 20
199.606970085868
 97
        4
330
B38
330
B09
330
B01
330
B2E
 75
     0
 76
     1
 47
0.0514683685270805
 98
        1
 10
462.5206894247297
 20
199.5292608512897
450
        0
451
        0
460
0.0
461
0.0
452
        0
462
0.0
453
        0
470

  0
HATCH
  5
B3D
330
18
100
AcDbEntity
  8
ROGO
 62
     4
100
AcDbHatch
 10
0.0
 20
0.0
 30
0.0
210
0.0
220
0.0
230
1.0
  2
SOLID
 70
     1
 71
     1
 91
        1
 92
        7
 72
     0
 73
     1
 93
       11
 10
468.7921269565482
 20
199.3131555054519
 10
469.8722465886969
 20
199.3131555054519
 10
470.2537455732193
 20
200.0782463084798
 10
470.6352445577418
 20
199.3131555054519
 10
471.7153405577417
 20
199.3131555054519
 10
470.984531249406
 20
200.7787832089562
 10
472.760115171308
 20
202.2444109124605
 10
471.6800191713079
 20
202.2444109124605
 10
471.1742861954809
 20
201.9243774712867
 10
471.3338652053681
 20
202.2444109124605
 10
470.2537455732192
 20
202.2444109124605
 97
       11
330
B35
330
B30
330
B2F
330
B2D
330
B2E
330
B01
330
B33
330
B31
330
B36
330
B32
330
B34
 75
     0
 76
     1
 47
0.0514683685270805
 98
        1
 10
470.1607866497852
 20
200.9868452218297
450
        0
451
        0
460
0.0
461
0.0
452
        0
462
0.0
453
        0
470

  0
HATCH
  5
B3E
330
18
100
AcDbEntity
  8
ROGO
 62
     4
100
AcDbHatch
 10
0.0
 20
0.0
 30
0.0
210
0.0
220
0.0
230
1.0
  2
SOLID
 70
     1
 71
     1
 91
        2
 92
        5
 93
        6
 72
     1
 10
450.030564778663
 20
199.3131555054519
 11
451.3931375728579
 21
199.3131555054519
 72
     1
 10
451.3931375728579
 20
199.3131555054519
 11
451.87060064547
 21
200.3684895830927
 72
     1
 10
451.87060064547
 20
200.3684895830927
 11
453.1443267428588
 21
200.3684895830927
 72
     4
 94
        3
 73
     0
 74
     0
 95
       18
 96
       14
 40
0.108740278791501
 40
0.108740278791501
 40
0.108740278791501
 40
0.108740278791501
 40
0.6623149649549278
 40
1.384304701649787
 40
2.097394834876493
 40
2.774073369849618
 40
3.428974823686337
 40
4.005208313035923
 40
4.455173659284313
 40
4.720999734343524
 40
5.086034088486724
 40
5.569973738255373
 40
6.060470601257719
 40
6.060470601257719
 40
6.060470601257719
 40
6.060470601257719
 10
453.1443267428588
 20
200.3684895830927
 10
453.2339694812797
 20
200.3691571254228
 10
453.4405271342135
 20
200.3706952977208
 10
453.7294996743667
 20
200.5250707784285
 10
454.0035282073567
 20
200.7217338932024
 10
454.2242395489015
 20
200.967443937205
 10
454.3617493644389
 20
201.2483712765203
 10
454.3830492002205
 20
201.5176143273371
 10
454.3700461737762
 20
201.7305822332748
 10
454.2771330187148
 20
201.8790261508503
 10
454.1805384559652
 20
202.0296815468114
 10
454.0034166908978
 20
202.1601848465134
 10
453.8582910511114
 20
202.2173646912496
 10
453.7844917116313
 20
202.2444109124605
 72
     1
 10
453.7844917116315
 20
202.2444109124605
 11
451.4809226930811
 21
202.2444109124605
 72
     1
 10
451.4809226930811
 20
202.2444109124605
 11
450.030564778663
 21
199.3131555054519
 97
        6
330
B03
330
B00
330
B02
330
B01
330
B09
330
B04
 92
       20
 93
        4
 72
     1
 10
452.1654070630559
 20
201.0200986323194
 11
452.3911182007094
 21
201.5189867535842
 72
     1
 10
452.3911182007094
 20
201.5189867535842
 11
452.9710996279917
 21
201.5189867535842
 72
     4
 94
        3
 73
     0
 74
     0
 95
       15
 96
       11
 40
0.0
 40
0.0
 40
0.0
 40
0.0
 40
0.2199578613106558
 40
0.3202465475123882
 40
0.4340808827709044
 40
0.5116301246391697
 40
0.6342750549531635
 40
0.7077360179242086
 40
0.8337709579494573
 40
0.8757826314379498
 40
0.8757826314379498
 40
0.8757826314379498
 40
0.8757826314379498
 10
452.9710996279915
 20
201.5189867535842
 10
453.0537115352188
 20
201.5193651602163
 10
453.1739899281588
 20
201.5199160994586
 10
453.2397624372514
 20
201.3711313795595
 10
453.2102800626321
 20
201.2753372300774
 10
453.1732183148833
 20
201.1769864954377
 10
453.10772181268
 20
201.1101556879101
 10
453.0198159132583
 20
201.0457863541428
 10
452.9367406374644
 20
201.0379941580578
 10
452.882709496075
 20
201.0236777388377
 10
452.8692017042618
 20
201.0200986323194
 72
     1
 10
452.8692017042618
 20
201.0200986323193
 11
452.1654070630559
 21
201.0200986323194
 97
        4
330
B05
330
B07
330
B06
330
B08
 75
     0
 76
     1
 47
0.0514683685270805
 98
        2
 10
451.4932349120909
 20
201.3327126883334
 10
451.4932349120909
 20
201.3327126883334
450
        0
451
        0
460
0.0
461
0.0
452
        0
462
0.0
453
        0
470

  0
LINE
  5
B3F
102
{ACAD_REACTORS
330
B42
102
}
330
18
100
AcDbEntity
  8
ROGO
 62
     4
100
AcDbLine
 10
459.9182129825722
 20
202.2444109124605
 30
0.0
 11
460.7515715688341
 21
200.3684895830927
 31
0.0
  0
LINE
  5
B40
102
{ACAD_REACTORS
330
B42
102
}
330
18
100
AcDbEntity
  8
ROGO
 62
     4
100
AcDbLine
 10
459.0949620880869
 20
201.7429695168151
 30
0.0
 11
459.3795440676946
 21
201.1023648427881
 31
0.0
  0
LINE
  5
B41
102
{ACAD_REACTORS
330
B42
102
}
330
18
100
AcDbEntity
  8
ROGO
 62
     4
100
AcDbLine
 10
459.5468942185525
 20
200.725653397508
 30
0.0
 11
459.7055605372225
 21
200.3684895830927
 31
0.0
  0
HATCH
  5
B42
330
18
100
AcDbEntity
  8
ROGO
 62
     4
100
AcDbHatch
 10
0.0
 20
0.0
 30
0.0
210
0.0
220
0.0
230
1.0
  2
SOLID
 70
     1
 71
     1
 91
        2
 92
        7
 72
     0
 73
     1
 93
        8
 10
459.9182129825721
 20
202.2444109124605
 10
458.417636578613
 20
202.2444109124605
 10
457.0648732498999
 20
200.3684895830927
 10
458.1037978951735
 20
200.3684895830927
 10
458.3613556631465
 20
200.725653397508
 10
459.5468942185525
 20
200.725653397508
 10
459.7055605372225
 20
200.3684895830927
 10
460.751571568834
 20
200.3684895830927
 97
        8
330
B1B
330
B15
330
B1A
330
B19
330
B17
330
B41
330
B1C
330
B3F
 92
       22
 72
     0
 73
     1
 93
        3
 10
459.3795440676944
 20
201.1023648427881
 10
458.6330096076393
 20
201.1023648427881
 10
459.0949620880869
 20
201.7429695168151
 97
        3
330
B18
330
B16
330
B40
 75
     0
 76
     1
 47
0.0128389261915577
 98
        2
 10
459.8007059932926
 20
201.7943510313047
 10
459.8007059932926
 20
201.7943510313047
450
        0
451
        0
460
0.0
461
0.0
452
        0
462
0.0
453
        0
470

  0
SPLINE
  5
B43
102
{ACAD_REACTORS
330
B4A
102
}
330
18
100
AcDbEntity
  8
ROGO
 62
     4
100
AcDbSpline
210
0.0
220
0.0
230
1.0
 70
     8
 71
     3
 72
    38
 73
    34
 74
    32
 42
0.0000000001
 43
0.0000000001
 44
0.0000000001
 40
0.0
 40
0.0
 40
0.0
 40
0.0
 40
0.2582400211805774
 40
0.3393418442955424
 40
0.443552172800835
 40
0.530394283206717
 40
0.6036667919818254
 40
0.7009894053152177
 40
0.7507174249931042
 40
0.8067242281503032
 40
0.8892677166883521
 40
0.9827715778106668
 40
1.043426616793024
 40
1.109318337455068
 40
1.182564491755753
 40
1.293719242428883
 40
1.399327847180614
 40
1.448424760475743
 40
1.50441322219426
 40
1.570741059842362
 40
1.617957956886697
 40
1.657539314700464
 40
1.714052551848318
 40
1.776150918813051
 40
1.838248940024221
 40
1.892584795022379
 40
2.017023561310864
 40
2.066120474605993
 40
2.164314359515976
 40
2.251113385583432
 40
2.417283613623161
 40
2.622320469312984
 40
2.918423525691205
 40
2.918423525691205
 40
2.918423525691205
 40
2.918423525691205
 10
464.8582147446375
 20
202.252235511278
 30
0.0
 10
464.7721356051721
 20
202.2461546268482
 30
0.0
 10
464.659022797142
 20
202.2381640042952
 30
0.0
 10
464.5153959792713
 20
202.1988145382881
 30
0.0
 10
464.4371034729269
 20
202.1519366533482
 30
0.0
 10
464.3556244710453
 20
202.1174791609189
 30
0.0
 10
464.2861560333525
 20
202.0664544477058
 30
0.0
 10
464.2158901752152
 20
202.0401619045723
 30
0.0
 10
464.1666878703929
 20
201.9927517497542
 30
0.0
 10
464.1097402159172
 20
201.9637915809329
 30
0.0
 10
464.0643917875811
 20
201.8989703037695
 30
0.0
 10
464.0137051068214
 20
201.8383647585431
 30
0.0
 10
463.9549021805255
 20
201.7941254134324
 30
0.0
 10
463.9066418297264
 20
201.7476611577718
 30
0.0
 10
463.8623696684058
 20
201.6759528503664
 30
0.0
 10
463.8361674218757
 20
201.5806737436726
 30
0.0
 10
463.7623076870053
 20
201.5205179518366
 30
0.0
 10
463.751186723458
 20
201.4481927408708
 30
0.0
 10
463.7103326517498
 20
201.4055220834555
 30
0.0
 10
463.6925678725271
 20
201.3504403949055
 30
0.0
 10
463.6858021894929
 20
201.299975838733
 30
0.0
 10
463.6776817565753
 20
201.2528454366926
 30
0.0
 10
463.6564402419573
 20
201.2032663356385
 30
0.0
 10
463.6633735456165
 20
201.1420230800172
 30
0.0
 10
463.6613984555564
 20
201.0827192028365
 30
0.0
 10
463.6625607983751
 20
201.0026571219629
 30
0.0
 10
463.6583657421666
 20
200.9247068406494
 30
0.0
 10
463.691819671474
 20
200.839878446123
 30
0.0
 10
463.7116165966207
 20
200.764265668028
 30
0.0
 10
463.7658336965404
 20
200.6595706076688
 30
0.0
 10
463.8593570577087
 20
200.5387751452275
 30
0.0
 10
464.0371995520195
 20
200.3921523405235
 30
0.0
 10
464.2082003099613
 20
200.3772781394988
 30
0.0
 10
464.3092376567187
 20
200.3684895830927
 30
0.0
 11
464.8582147446375
 21
202.252235511278
 31
0.0
 11
464.6018481204271
 21
202.2211861549189
 31
0.0
 11
464.5241612831012
 21
202.1978996562799
 31
0.0
 11
464.4309374445183
 21
202.1513259674947
 31
0.0
 11
464.3532506071924
 21
202.1125147906761
 31
0.0
 11
464.2911013814705
 21
202.073703268104
 31
0.0
 11
464.2056460435161
 21
202.0271299250723
 31
0.0
 11
464.1668023196794
 21
201.9960809144667
 31
0.0
 11
464.1201900952145
 21
201.9650315581076
 31
0.0
 11
464.0658093701211
 21
201.9029335368965
 31
0.0
 11
464.0036601443991
 21
201.8330733494722
 31
0.0
 11
463.9570479199341
 21
201.7942618269001
 31
0.0
 11
463.9104363058163
 21
201.7476884838684
 31
0.0
 11
463.8715925819797
 21
201.6855904626573
 31
0.0
 11
463.8249809678621
 21
201.584680918874
 31
0.0
 11
463.7628311317928
 21
201.4992960532702
 31
0.0
 11
463.747294130536
 21
201.452722364485
 31
0.0
 11
463.7162195176751
 21
201.4061490214534
 31
0.0
 11
463.6929134054425
 21
201.3440506544887
 31
0.0
 11
463.6851442944669
 21
201.297477311457
 31
0.0
 11
463.6773757938384
 21
201.2586657888849
 31
0.0
 11
463.6618387925816
 21
201.2043302796402
 31
0.0
 11
463.6618387925816
 21
201.1422319126755
 31
0.0
 11
463.6618387925816
 21
201.0801338914644
 31
0.0
 11
463.6618387925816
 21
201.0257980364662
 31
0.0
 11
463.66960729321
 21
200.9016019940438
 31
0.0
 11
463.6851442944669
 21
200.8550283052587
 31
0.0
 11
463.7162195176751
 21
200.7618812734419
 31
0.0
 11
463.7550626311645
 21
200.6842585740511
 31
0.0
 11
463.8560555807229
 21
200.5523003654157
 31
0.0
 11
464.0191977560033
 21
200.4281039772398
 31
0.0
 11
464.3092376567187
 21
200.3684895830927
 31
0.0
  0
SPLINE
  5
B44
102
{ACAD_REACTORS
330
B4A
102
}
330
18
100
AcDbEntity
  8
ROGO
 62
     4
100
AcDbSpline
210
0.0
220
0.0
230
1.0
 70
     8
 71
     3
 72
    25
 73
    21
 74
     0
 42
0.0000000001
 43
0.0000000001
 40
0.0
 40
0.0
 40
0.0
 40
0.0
 40
0.4087168505087288
 40
0.6887487002771746
 40
0.9415836120477687
 40
1.17452070575514
 40
1.41154617586699
 40
1.599156012919487
 40
1.80099909059943
 40
2.178735911501585
 40
2.521686161369157
 40
2.762704659361267
 40
3.06256558063785
 40
3.222432137207705
 40
3.399493810628493
 40
3.567459719866414
 40
3.743172740007509
 40
3.995988754699505
 40
4.17170091132118
 40
4.337226830236035
 40
4.337226830236035
 40
4.337226830236035
 40
4.337226830236035
 10
465.9302916349023
 20
202.252235511278
 30
0.0
 10
466.000605992653
 20
202.2499763834836
 30
0.0
 10
466.1190961465367
 20
202.2461694170465
 30
0.0
 10
466.2463099445668
 20
202.1467370036528
 30
0.0
 10
466.3436502599373
 20
202.0642999146315
 30
0.0
 10
466.412743624024
 20
201.9646373341541
 30
0.0
 10
466.4733058935131
 20
201.8730029003295
 30
0.0
 10
466.5132118374692
 20
201.7762580222351
 30
0.0
 10
466.5674918055759
 20
201.660173028611
 30
0.0
 10
466.5899610307863
 20
201.5048685537096
 30
0.0
 10
466.5747803974482
 20
201.3443470493588
 30
0.0
 10
466.5351660324517
 20
201.202059501211
 30
0.0
 10
466.4936137485947
 20
201.0928998367194
 30
0.0
 10
466.4446394358556
 20
200.9978695767328
 30
0.0
 10
466.3862557968497
 20
200.9363374760199
 30
0.0
 10
466.3457515746511
 20
200.8581000098091
 30
0.0
 10
466.2679481450551
 20
200.7941059628471
 30
0.0
 10
466.2048764881884
 20
200.71514629077
 30
0.0
 10
466.1333032929888
 20
200.6473743645719
 30
0.0
 10
466.092950008269
 20
200.6055599028266
 30
0.0
 10
466.0716747834207
 20
200.5879788400471
 30
0.0
  0
LINE
  5
B45
102
{ACAD_REACTORS
330
B4A
102
}
330
18
100
AcDbEntity
  8
ROGO
 62
     4
100
AcDbLine
 10
464.8582147446375
 20
202.252235511278
 30
0.0
 11
465.9302916349023
 21
202.252235511278
 31
0.0
  0
LINE
  5
B46
102
{ACAD_REACTORS
330
B4A
102
}
330
18
100
AcDbEntity
  8
ROGO
 62
     4
100
AcDbLine
 10
464.3092376567187
 20
200.3684895830927
 30
0.0
 11
465.3813145469835
 21
200.3684895830927
 31
0.0
  0
SPLINE
  5
B47
102
{ACAD_REACTORS
330
B4A
102
}
330
18
100
AcDbEntity
  8
ROGO
 62
     4
100
AcDbSpline
210
0.0
220
0.0
230
1.0
 70
     8
 71
     3
 72
    11
 73
     7
 74
     0
 42
0.0000000001
 43
0.0000000001
 40
0.1647869275458134
 40
0.1647869275458134
 40
0.1647869275458134
 40
0.1647869275458134
 40
0.2895635144633836
 40
0.5387013147903714
 40
0.7953622617455423
 40
0.8850764140209602
 40
0.8850764140209602
 40
0.8850764140209602
 40
0.8850764140209602
 10
465.7384823450093
 20
200.4103130786763
 30
0.0
 10
465.7185129981509
 20
200.4047546033671
 30
0.0
 10
465.6565972675307
 20
200.3948580465329
 30
0.0
 10
465.5527418859048
 20
200.3812689117138
 30
0.0
 10
465.4540325400528
 20
200.3670881537358
 30
0.0
 10
465.3962744045834
 20
200.3682012750312
 30
0.0
 10
465.3813145469835
 20
200.3684895830927
 30
0.0
  0
SPLINE
  5
B48
102
{ACAD_REACTORS
330
B4A
102
}
330
18
100
AcDbEntity
  8
ROGO
 62
     4
100
AcDbSpline
210
0.0
220
0.0
230
1.0
 70
     8
 71
     3
 72
     9
 73
     5
 74
     3
 42
0.0000000001
 43
0.0000000001
 44
0.0000000001
 40
0.0
 40
0.0
 40
0.0
 40
0.0
 40
0.1622561919360204
 40
0.3804197703110171
 40
0.3804197703110171
 40
0.3804197703110171
 40
0.3804197703110171
 10
465.7384823450093
 20
200.4103130786763
 30
0.0
 10
465.7906037283206
 20
200.4262592782809
 30
0.0
 10
465.9128055650027
 20
200.4636461386437
 30
0.0
 10
466.0137722753409
 20
200.5426637354644
 30
0.0
 10
466.0716747834207
 20
200.5879788400471
 30
0.0
 11
465.7384823450093
 21
200.4103130786763
 31
0.0
 11
465.8909834367587
 21
200.4657250704902
 31
0.0
 11
466.0716747834207
 21
200.5879788400471
 31
0.0
  0
ELLIPSE
  5
B49
102
{ACAD_REACTORS
330
B4A
102
}
330
18
100
AcDbEntity
  8
ROGO
 62
     4
100
AcDbEllipse
 10
465.1045838798243
 20
201.2840983795366
 30
0.0
 11
0.2546924415247531
 21
0.2239701316915159
 31
0.0
210
0.0
220
0.0
230
1.0
 40
0.6788083417438792
 41
0.0
 42
6.283185307179586
  0
HATCH
  5
B4A
330
18
100
AcDbEntity
  8
ROGO
 62
     4
100
AcDbHatch
 10
0.0
 20
0.0
 30
0.0
210
0.0
220
0.0
230
1.0
  2
SOLID
 70
     1
 71
     1
 91
        2
 92
        5
 93
        6
 72
     4
 94
        3
 73
     0
 74
     0
 95
       38
 96
       34
 40
0.0
 40
0.0
 40
0.0
 40
0.0
 40
0.2582400211805774
 40
0.3393418442955424
 40
0.443552172800835
 40
0.530394283206717
 40
0.6036667919818254
 40
0.7009894053152177
 40
0.7507174249931042
 40
0.8067242281503032
 40
0.8892677166883521
 40
0.9827715778106668
 40
1.043426616793024
 40
1.109318337455068
 40
1.182564491755753
 40
1.293719242428883
 40
1.399327847180614
 40
1.448424760475743
 40
1.50441322219426
 40
1.570741059842362
 40
1.617957956886697
 40
1.657539314700464
 40
1.714052551848318
 40
1.776150918813051
 40
1.838248940024221
 40
1.892584795022379
 40
2.017023561310864
 40
2.066120474605993
 40
2.164314359515976
 40
2.251113385583432
 40
2.417283613623161
 40
2.622320469312984
 40
2.918423525691205
 40
2.918423525691205
 40
2.918423525691205
 40
2.918423525691205
 10
464.8582147446375
 20
202.252235511278
 10
464.7721356051721
 20
202.2461546268482
 10
464.659022797142
 20
202.2381640042952
 10
464.5153959792713
 20
202.198814538288
 10
464.4371034729269
 20
202.1519366533482
 10
464.3556244710453
 20
202.1174791609189
 10
464.2861560333525
 20
202.0664544477058
 10
464.2158901752154
 20
202.0401619045723
 10
464.1666878703928
 20
201.9927517497543
 10
464.1097402159172
 20
201.9637915809329
 10
464.064391787581
 20
201.8989703037695
 10
464.0137051068214
 20
201.8383647585431
 10
463.9549021805255
 20
201.7941254134324
 10
463.9066418297264
 20
201.7476611577718
 10
463.8623696684058
 20
201.6759528503664
 10
463.8361674218757
 20
201.5806737436725
 10
463.7623076870053
 20
201.5205179518366
 10
463.751186723458
 20
201.4481927408708
 10
463.7103326517499
 20
201.4055220834555
 10
463.6925678725271
 20
201.3504403949055
 10
463.6858021894929
 20
201.299975838733
 10
463.6776817565753
 20
201.2528454366926
 10
463.6564402419574
 20
201.2032663356385
 10
463.6633735456165
 20
201.1420230800171
 10
463.6613984555564
 20
201.0827192028365
 10
463.6625607983751
 20
201.0026571219628
 10
463.6583657421666
 20
200.9247068406494
 10
463.691819671474
 20
200.8398784461231
 10
463.7116165966207
 20
200.764265668028
 10
463.7658336965404
 20
200.6595706076688
 10
463.8593570577087
 20
200.5387751452275
 10
464.0371995520195
 20
200.3921523405235
 10
464.2082003099614
 20
200.3772781394988
 10
464.3092376567187
 20
200.3684895830927
 72
     1
 10
464.3092376567187
 20
200.3684895830927
 11
465.3813145469842
 21
200.3684895830926
 72
     4
 94
        3
 73
     0
 74
     0
 95
       11
 96
        7
 40
0.1647869275458135
 40
0.1647869275458135
 40
0.1647869275458135
 40
0.1647869275458135
 40
0.2545010798212315
 40
0.5111620267764023
 40
0.7602998271033902
 40
0.8850764140209603
 40
0.8850764140209603
 40
0.8850764140209603
 40
0.8850764140209603
 10
465.3813145469835
 20
200.3684895830927
 10
465.3962744045834
 20
200.3682012750312
 10
465.4540325400528
 20
200.3670881537358
 10
465.5527418859048
 20
200.3812689117138
 10
465.6565972675307
 20
200.3948580465329
 10
465.7185129981509
 20
200.4047546033671
 10
465.7384823450093
 20
200.4103130786763
 72
     4
 94
        3
 73
     0
 74
     0
 95
        9
 96
        5
 40
0.0
 40
0.0
 40
0.0
 40
0.0
 40
0.1622561919360204
 40
0.3804197703110171
 40
0.3804197703110171
 40
0.3804197703110171
 40
0.3804197703110171
 10
465.7384823450093
 20
200.4103130786763
 10
465.7906037283206
 20
200.4262592782809
 10
465.9128055650027
 20
200.4636461386437
 10
466.0137722753409
 20
200.5426637354644
 10
466.0716747834207
 20
200.5879788400471
 72
     4
 94
        3
 73
     0
 74
     0
 95
       25
 96
       21
 40
0.0
 40
0.0
 40
0.0
 40
0.0
 40
0.165525918914855
 40
0.3412380755365305
 40
0.5940540902285263
 40
0.7697671103696209
 40
0.9377330196075423
 40
1.11479469302833
 40
1.274661249598185
 40
1.574522170874768
 40
1.815540668866877
 40
2.15849091873445
 40
2.536227739636605
 40
2.738070817316548
 40
2.925680654369045
 40
3.162706124480894
 40
3.395643218188267
 40
3.648478129958861
 40
3.928509979727306
 40
4.337226830236035
 40
4.337226830236035
 40
4.337226830236035
 40
4.337226830236035
 10
466.0716747834207
 20
200.5879788400471
 10
466.092950008269
 20
200.6055599028266
 10
466.1333032929888
 20
200.6473743645719
 10
466.2048764881884
 20
200.71514629077
 10
466.2679481450551
 20
200.7941059628471
 10
466.3457515746511
 20
200.8581000098091
 10
466.3862557968497
 20
200.9363374760199
 10
466.4446394358556
 20
200.9978695767328
 10
466.4936137485947
 20
201.0928998367194
 10
466.5351660324517
 20
201.202059501211
 10
466.5747803974482
 20
201.3443470493588
 10
466.5899610307863
 20
201.5048685537096
 10
466.5674918055759
 20
201.660173028611
 10
466.5132118374692
 20
201.7762580222351
 10
466.4733058935131
 20
201.8730029003295
 10
466.412743624024
 20
201.9646373341541
 10
466.3436502599373
 20
202.0642999146315
 10
466.2463099445668
 20
202.1467370036528
 10
466.1190961465367
 20
202.2461694170465
 10
466.000605992653
 20
202.2499763834836
 10
465.9302916349023
 20
202.252235511278
 72
     1
 10
465.9302916349024
 20
202.2522355112781
 11
464.8582147446374
 21
202.252235511278
 97
        6
330
B44
330
B45
330
B43
330
B46
330
B47
330
B48
 92
       20
 93
        1
 72
     3
 10
465.1045838798243
 20
201.2840983795366
 11
0.2546924415247531
 21
0.2239701316915159
 40
0.6788083417438792
 50
0.0
 51
360.0
 73
     1
 97
        1
330
B49
 75
     0
 76
     1
 47
0.088756267210375
 98
        2
 10
465.1794857023509
 20
201.7319373371424
 10
465.1794857023509
 20
201.7319373371424
450
        0
451
        0
460
0.0
461
0.0
452
        0
462
0.0
453
        0
470

  0
LINE
  5
BCD
330
18
100
AcDbEntity
  8
中心線
100
AcDbLine
 10
369.4350969144325
 20
256.5852712206011
 30
0.0
 11
429.1750373124089
 21
256.5852712206011
 31
0.0
  0
LINE
  5
BD1
330
18
100
AcDbEntity
  8
中心線
100
AcDbLine
 10
399.6451879119864
 20
201.0852712206012
 30
0.0
 11
399.6451879119863
 21
302.4892945634439
 31
0.0
  0
TEXT
  5
CC2
330
18
100
AcDbEntity
  8
文字
100
AcDbText
 10
405.2998318217323
 20
256.0941768425952
 30
0.0
 40
1.0
  1
0.1mm
  7
STYLE3
100
AcDbText
  0
HATCH
  5
CC3
330
18
100
AcDbEntity
  8
ROGO
 62
     4
100
AcDbHatch
 10
0.0
 20
0.0
 30
0.0
210
0.0
220
0.0
230
1.0
  2
SOLID
 70
     1
 71
     1
 91
        1
 92
        7
 72
     0
 73
     1
 93
       11
 10
405.0956547815714
 20
263.8983590768017
 10
405.8517385240756
 20
263.8983590768017
 10
406.1187878132413
 20
264.4339226389211
 10
406.3858371024071
 20
263.8983590768017
 10
407.141904302407
 20
263.8983590768017
 10
406.6303377865721
 20
264.9242984692546
 10
407.8732465319033
 20
265.9502378617077
 10
407.1171793319034
 20
265.9502378617077
 10
406.7631662488244
 20
265.726214452886
 10
406.8748715557456
 20
265.9502378617077
 10
406.1187878132413
 20
265.9502378617077
 97
       11
330
D98
330
D9B
330
D9C
330
CC5
330
D57
330
D1F
330
D56
330
CC4
330
D97
330
D9A
330
D99
 75
     0
 76
     1
 47
0.0514683685270805
 98
        1
 10
406.0537165668375
 20
265.0699418782661
450
        0
451
        0
460
0.0
461
0.0
452
        0
462
0.0
453
        0
470

  0
LINE
  5
CC4
102
{ACAD_REACTORS
330
CC3
102
}
330
18
100
AcDbEntity
  8
ROGO
 62
     4
100
AcDbLine
 10
406.1187878132413
 20
264.4339226389212
 30
0.0
 11
406.385837102407
 21
263.8983590768017
 31
0.0
  0
LINE
  5
CC5
102
{ACAD_REACTORS
330
CC3
102
}
330
18
100
AcDbEntity
  8
ROGO
 62
     4
100
AcDbLine
 10
406.1187878132413
 20
265.9502378617077
 30
0.0
 11
406.8748715557455
 21
265.9502378617077
 31
0.0
  0
LINE
  5
CC6
330
18
100
AcDbEntity
  8
目盛
100
AcDbLine
 10
406.7525787826103
 20
278.4595710953896
 30
0.0
 11
405.8255277994854
 21
275.6064015465042
 31
0.0
  0
LINE
  5
CC7
330
18
100
AcDbEntity
  8
目盛
100
AcDbLine
 10
406.7525787826101
 20
234.7109713458126
 30
0.0
 11
405.8255277994854
 21
237.5641408946981
 31
0.0
  0
CIRCLE
  5
CC8
330
18
100
AcDbEntity
  8
外形線
100
AcDbCircle
 10
399.6451879119864
 20
256.5852712206011
 30
0.0
 40
23.0
  0
CIRCLE
  5
CC9
330
18
100
AcDbEntity
  8
外形線
100
AcDbCircle
 10
399.6451879119864
 20
256.5852712206011
 30
0.0
 40
15.5
  0
LINE
  5
CCA
330
18
100
AcDbEntity
  8
中心線
 48
0.2
100
AcDbLine
 10
396.4451879119863
 20
254.374507227809
 30
0.0
 11
396.4451879119863
 21
238.6849132057735
 31
0.0
  0
LINE
  5
CCB
330
18
100
AcDbEntity
  8
目盛
100
AcDbLine
 10
386.1261271092595
 20
237.9778803499773
 30
0.0
 11
387.8894828661369
 21
240.4049313331021
 31
0.0
  0
LINE
  5
CCC
330
18
100
AcDbEntity
  8
目盛
100
AcDbLine
 10
384.9844361477665
 20
238.8634666367579
 30
0.0
 11
386.2592841272638
 21
240.4044931223095
 31
0.0
  0
LINE
  5
CCD
330
18
100
AcDbEntity
  8
目盛
100
AcDbLine
 10
383.9006044756265
 20
239.8189927899086
 30
0.0
 11
385.2696986874839
 21
241.2769300447514
 31
0.0
  0
LINE
  5
CCE
330
18
100
AcDbEntity
  8
目盛
100
AcDbLine
 10
387.3211716274694
 20
237.1657289340547
 30
0.0
 11
388.3928252174274
 21
238.8543847850588
 31
0.0
  0
LINE
  5
CCF
330
18
100
AcDbEntity
  8
目盛
100
AcDbLine
 10
392.5377970413626
 20
234.7109713458126
 30
0.0
 11
393.4648480244875
 21
237.5641408946981
 31
0.0
  0
LINE
  5
CD0
330
18
100
AcDbEntity
  8
目盛
100
AcDbLine
 10
391.1783232002388
 20
235.2004120451713
 30
0.0
 11
391.9145723056081
 21
237.0599650169479
 31
0.0
  0
LINE
  5
CD1
330
18
100
AcDbEntity
  8
目盛
100
AcDbLine
 10
389.8522642059898
 20
235.7742490138827
 30
0.0
 11
390.7038227891199
 21
237.5839031188148
 31
0.0
  0
LINE
  5
CD2
330
18
100
AcDbEntity
  8
目盛
100
AcDbLine
 10
388.564853407647
 20
236.4302175795923
 30
0.0
 11
389.5283607558504
 21
238.18283093968
 31
0.0
  0
TEXT
  5
CD3
330
18
100
AcDbEntity
  8
文字
100
AcDbText
 10
398.5145214959412
 20
237.1845115376888
 30
0.0
 40
2.0
  1
5
  7
STYLE3
100
AcDbText
  0
LINE
  5
CD4
330
18
100
AcDbEntity
  8
目盛
100
AcDbLine
 10
399.6451879119864
 20
236.5852712206012
 30
0.0
 11
399.6451879119864
 21
233.5852712206011
 31
0.0
  0
LINE
  5
CD5
330
18
100
AcDbEntity
  8
目盛
100
AcDbLine
 10
398.2010059628122
 20
233.6306564667509
 30
0.0
 11
398.3265870018708
 21
235.6267099236074
 31
0.0
  0
LINE
  5
CD6
330
18
100
AcDbEntity
  8
目盛
100
AcDbLine
 10
396.7625235400074
 20
233.7666330903681
 30
0.0
 11
397.0131900071361
 21
235.7508624929971
 31
0.0
  0
LINE
  5
CD7
330
18
100
AcDbEntity
  8
目盛
100
AcDbLine
 10
395.3354176765147
 20
233.9926644538413
 30
0.0
 11
395.7101803056863
 21
235.9572389552987
 31
0.0
  0
LINE
  5
CD8
330
18
100
AcDbEntity
  8
目盛
100
AcDbLine
 10
393.9253205071949
 20
234.3078585146427
 30
0.0
 11
394.4227002815244
 21
236.2450248368999
 31
0.0
  0
LINE
  5
CD9
330
18
100
AcDbEntity
  8
目盛
100
AcDbLine
 10
405.3650553167779
 20
234.3078585146427
 30
0.0
 11
404.8676755424483
 21
236.2450248368999
 31
0.0
  0
LINE
  5
CDA
330
18
100
AcDbEntity
  8
目盛
100
AcDbLine
 10
403.954958147458
 20
233.9926644538414
 30
0.0
 11
403.5801955182866
 21
235.9572389552988
 31
0.0
  0
LINE
  5
CDB
330
18
100
AcDbEntity
  8
目盛
100
AcDbLine
 10
402.5278522839654
 20
233.7666330903681
 30
0.0
 11
402.2771858168367
 21
235.7508624929971
 31
0.0
  0
LINE
  5
CDC
330
18
100
AcDbEntity
  8
目盛
100
AcDbLine
 10
401.0893698611606
 20
233.6306564667509
 30
0.0
 11
400.9637888221019
 21
235.6267099236074
 31
0.0
  0
LINE
  5
CDD
330
18
100
AcDbEntity
  8
外形線
  6
Continuous
100
AcDbLine
 10
395.9451879119864
 20
284.585271220601
 30
0.0
 11
395.9451879119864
 21
282.724705032373
 31
0.0
  0
LINE
  5
CDE
330
18
100
AcDbEntity
  8
外形線
  6
Continuous
100
AcDbLine
 10
403.3451879119864
 20
284.585271220601
 30
0.0
 11
403.3451879119864
 21
282.724705032373
 31
0.0
  0
TEXT
  5
CDF
330
18
100
AcDbEntity
  8
文字
100
AcDbText
 10
381.2222108271181
 20
261.6522967925506
 30
0.0
 40
2.0
  1
8
  7
STYLE3
100
AcDbText
  0
TEXT
  5
CE0
330
18
100
AcDbEntity
  8
文字
100
AcDbText
 10
381.1165284722763
 20
249.5028451206067
 30
0.0
 40
2.0
  1
7
  7
STYLE3
100
AcDbText
  0
LINE
  5
CE1
330
18
100
AcDbEntity
  8
目盛
100
AcDbLine
 10
381.0377970413626
 20
243.0662104178742
 30
0.0
 11
383.4648480244874
 21
244.8295661747517
 31
0.0
  0
LINE
  5
CE2
330
18
100
AcDbEntity
  8
目盛
100
AcDbLine
 10
380.22564562544
 20
244.2612549360843
 30
0.0
 11
381.9143014764441
 21
245.3329085260422
 31
0.0
  0
LINE
  5
CE3
330
18
100
AcDbEntity
  8
目盛
100
AcDbLine
 10
380.22564562544
 20
268.9092875051181
 30
0.0
 11
381.9143014764441
 21
267.8376339151601
 31
0.0
  0
LINE
  5
CE4
330
18
100
AcDbEntity
  8
目盛
100
AcDbLine
 10
381.0377970413625
 20
270.104332023328
 30
0.0
 11
383.4648480244874
 21
268.3409762664506
 31
0.0
  0
LINE
  5
CE5
330
18
100
AcDbEntity
  8
目盛
100
AcDbLine
 10
377.3677752060278
 20
250.8654038158095
 30
0.0
 11
379.3049415282851
 21
251.3627835901392
 31
0.0
  0
LINE
  5
CE6
330
18
100
AcDbEntity
  8
目盛
100
AcDbLine
 10
379.4901342709775
 20
245.5049367162617
 30
0.0
 11
381.2427476310653
 21
246.4684440644651
 31
0.0
  0
LINE
  5
CE7
330
18
100
AcDbEntity
  8
目盛
100
AcDbLine
 10
378.8341657052679
 20
246.7923475146045
 30
0.0
 11
380.6438198101999
 21
247.6439060977346
 31
0.0
  0
LINE
  5
CE8
330
18
100
AcDbEntity
  8
目盛
100
AcDbLine
 10
378.2603287365566
 20
248.1184065088535
 30
0.0
 11
380.119881708333
 21
248.8546556142229
 31
0.0
  0
LINE
  5
CE9
330
18
100
AcDbEntity
  8
目盛
100
AcDbLine
 10
377.7708880371979
 20
249.4778803499773
 30
0.0
 11
380.6240575860832
 21
250.4049313331022
 31
0.0
  0
LINE
  5
CEA
330
18
100
AcDbEntity
  8
目盛
100
AcDbLine
 10
376.6451879119864
 20
256.5852712206011
 30
0.0
 11
379.6451879119864
 21
256.5852712206011
 31
0.0
  0
LINE
  5
CEB
330
18
100
AcDbEntity
  8
目盛
100
AcDbLine
 10
377.0525811452265
 20
252.2755009851295
 30
0.0
 11
379.0171556466838
 21
252.650263614301
 31
0.0
  0
LINE
  5
CEC
330
18
100
AcDbEntity
  8
目盛
100
AcDbLine
 10
376.8265497817534
 20
253.7026068486222
 30
0.0
 11
378.8107791843824
 21
253.9532733157508
 31
0.0
  0
LINE
  5
CED
330
18
100
AcDbEntity
  8
目盛
100
AcDbLine
 10
376.690573158136
 20
255.1410892714269
 30
0.0
 11
378.6866266149926
 21
255.2666703104855
 31
0.0
  0
LINE
  5
CEE
330
18
100
AcDbEntity
  8
目盛
100
AcDbLine
 10
376.690573158136
 20
258.0294531697754
 30
0.0
 11
378.6866266149926
 21
257.9038721307167
 31
0.0
  0
LINE
  5
CEF
330
18
100
AcDbEntity
  8
目盛
100
AcDbLine
 10
376.8265497817534
 20
259.4679355925801
 30
0.0
 11
378.8107791843823
 21
259.2172691254515
 31
0.0
  0
LINE
  5
CF0
330
18
100
AcDbEntity
  8
目盛
100
AcDbLine
 10
377.0525811452265
 20
260.8950414560728
 30
0.0
 11
379.0171556466839
 21
260.5202788269013
 31
0.0
  0
LINE
  5
CF1
330
18
100
AcDbEntity
  8
目盛
100
AcDbLine
 10
377.3677752060278
 20
262.3051386253928
 30
0.0
 11
379.3049415282851
 21
261.8077588510631
 31
0.0
  0
LINE
  5
CF2
330
18
100
AcDbEntity
  8
目盛
100
AcDbLine
 10
377.7708880371977
 20
263.692662091225
 30
0.0
 11
380.6240575860832
 21
262.7656111081001
 31
0.0
  0
LINE
  5
CF3
330
18
100
AcDbEntity
  8
目盛
100
AcDbLine
 10
378.2603287365565
 20
265.0521359323487
 30
0.0
 11
380.119881708333
 21
264.3158868269794
 31
0.0
  0
LINE
  5
CF4
330
18
100
AcDbEntity
  8
目盛
100
AcDbLine
 10
378.8341657052679
 20
266.3781949265978
 30
0.0
 11
380.6438198101999
 21
265.5266363434677
 31
0.0
  0
LINE
  5
CF5
330
18
100
AcDbEntity
  8
目盛
100
AcDbLine
 10
379.4901342709775
 20
267.6656057249406
 30
0.0
 11
381.2427476310653
 21
266.7020983767372
 31
0.0
  0
HATCH
  5
CF6
330
18
100
AcDbEntity
  8
針
  6
Continuous
100
AcDbHatch
 10
0.0
 20
0.0
 30
0.0
210
0.0
220
0.0
230
1.0
  2
SOLID
 70
     1
 71
     0
 91
        1
 92
        1
 93
        3
 72
     1
 10
399.6451879119864
 20
279.5852712206011
 11
400.1451879119864
 21
257.9994847829742
 72
     2
 10
399.6451879119864
 20
256.5852712206011
 40
1.5
 50
70.52877936551252
 51
109.4712206344913
 73
     1
 72
     1
 10
399.1451879119864
 20
257.9994847829742
 11
399.6451879119863
 21
279.5852712206002
 97
        0
 75
     0
 76
     1
 98
        1
 10
172.0927671625202
 20
270.8408664508338
450
        0
451
        0
460
0.0
461
0.0
452
        0
462
0.0
453
        0
470

  0
LINE
  5
CF7
330
18
100
AcDbEntity
  8
針
  6
Continuous
100
AcDbLine
 10
399.6451879119864
 20
279.5852712206003
 30
0.0
 11
399.1451879119864
 21
257.9994847829742
 31
0.0
  0
LINE
  5
CF8
330
18
100
AcDbEntity
  8
針
  6
Continuous
100
AcDbLine
 10
399.6451879119864
 20
279.5852712206011
 30
0.0
 11
400.1451879119863
 21
257.9994847829742
 31
0.0
  0
LINE
  5
CF9
330
18
100
AcDbEntity
  8
目盛
100
AcDbLine
 10
393.653207963597
 20
242.6684690858063
 30
0.0
 11
393.9471005897432
 21
243.0729775829937
 31
0.0
  0
LINE
  5
CFA
330
18
100
AcDbEntity
  8
目盛
100
AcDbLine
 10
393.653207963597
 20
250.3541305323683
 30
0.0
 11
393.9471005897433
 21
249.9496220351808
 31
0.0
  0
LINE
  5
CFB
330
18
100
AcDbEntity
  8
中心線
 48
0.2
100
AcDbLine
 10
389.4859127250566
 20
246.5112998090873
 30
0.0
 11
404.0139001730367
 21
246.5112998090873
 31
0.0
  0
CIRCLE
  5
CFC
330
18
100
AcDbEntity
  8
外形線
100
AcDbCircle
 10
396.4451879119863
 20
246.5112998090873
 30
0.0
 40
4.75
  0
TEXT
  5
CFD
330
18
100
AcDbEntity
  8
文字
100
AcDbText
 10
387.4953849388223
 20
240.8678163065817
 30
0.0
 40
2.0
  1
6
  7
STYLE3
100
AcDbText
  0
LINE
  5
CFE
330
18
100
AcDbEntity
  8
目盛
100
AcDbLine
 10
382.878909481294
 20
240.8406877842413
 30
0.0
 11
384.3368467361368
 21
242.2097819960986
 31
0.0
  0
LINE
  5
CFF
330
18
100
AcDbEntity
  8
目盛
100
AcDbLine
 10
381.9233833281432
 20
241.9245194563813
 30
0.0
 11
383.4644098136948
 21
243.1993674358787
 31
0.0
  0
TEXT
  5
D00
330
18
100
AcDbEntity
  8
文字
100
AcDbText
 10
392.6171852470631
 20
247.2259661166332
 30
0.0
 40
0.7
  1
20
  7
STYLE3
100
AcDbText
  0
TEXT
  5
D01
330
18
100
AcDbEntity
  8
文字
100
AcDbText
 10
392.5879422430295
 20
245.0043204013963
 30
0.0
 40
0.7
  1
30
  7
STYLE3
100
AcDbText
  0
LINE
  5
D02
330
18
100
AcDbEntity
  8
目盛
100
AcDbLine
 10
391.9276694595843
 20
245.0434690858062
 30
0.0
 11
392.4031977177319
 21
245.1979775829937
 31
0.0
  0
LINE
  5
D03
330
18
100
AcDbEntity
  8
目盛
100
AcDbLine
 10
391.9276694595843
 20
247.9791305323682
 30
0.0
 11
392.403197717732
 21
247.8246220351808
 31
0.0
  0
HATCH
  5
D04
330
18
100
AcDbEntity
  8
針
100
AcDbHatch
 10
0.0
 20
0.0
 30
0.0
210
0.0
220
0.0
230
1.0
  2
SOLID
 70
     1
 71
     0
 91
        3
 92
        7
 72
     1
 73
     1
 93
        5
 10
396.6451879119863
 20
251.2570874149541
 42
0.0105298176880202
 10
396.4451879119863
 20
251.2612998090872
 42
0.0
 10
396.4451879119863
 20
250.7612998090873
 42
0.0
 10
396.4451879119863
 20
247.6612998090872
 42
-0.0437283108272093
 10
396.6451879119863
 20
247.6437749743778
 42
0.0
 97
        0
 92
        7
 72
     1
 73
     1
 93
        4
 10
396.4451879119864
 20
251.2612998090872
 42
0.0105298176880232
 10
396.2451879119864
 20
251.2570874149541
 42
0.0
 10
396.2451879119864
 20
247.6437749743778
 42
-0.0437283108272093
 10
396.4451879119863
 20
247.6612998090872
 42
0.0
 97
        0
 92
      137
 93
        4
 72
     1
 10
395.8516686157132
 20
249.2890737375621
 11
397.0183352823798
 21
249.2890737375621
 72
     1
 10
397.0183352823798
 20
249.2890737375621
 11
397.0183352823798
 21
250.7890737375621
 72
     1
 10
397.0183352823798
 20
250.7890737375621
 11
395.8516686157132
 21
250.7890737375621
 72
     1
 10
395.8516686157132
 20
250.7890737375621
 11
395.8516686157132
 21
249.2890737375621
 97
        0
 75
     0
 76
     1
 47
0.0128177587452554
 98
        3
 10
396.5938904669177
 20
248.1950790582346
 10
396.516920384899
 20
249.3999487459827
 10
396.337323259152
 20
249.3486775792824
450
        0
451
        0
460
0.0
461
0.0
452
        0
462
0.0
453
        0
470

  0
LINE
  5
D05
330
18
100
AcDbEntity
  8
針
 48
0.2
100
AcDbLine
 10
396.2451879119864
 20
251.2570874149541
 30
0.0
 11
396.2451879119864
 21
247.6437749743778
 31
0.0
  0
LINE
  5
D06
330
18
100
AcDbEntity
  8
針
 48
0.2
100
AcDbLine
 10
396.6451879119863
 20
251.2570874149541
 30
0.0
 11
396.6451879119863
 21
247.6437749743778
 31
0.0
  0
LINE
  5
D07
330
18
100
AcDbEntity
  8
目盛
100
AcDbLine
 10
396.4451879119863
 20
251.2612998090872
 30
0.0
 11
396.4451879119863
 21
250.7612998090873
 31
0.0
  0
TEXT
  5
D08
330
18
100
AcDbEntity
  8
文字
100
AcDbText
 10
399.0466052841632
 20
244.8927989178669
 30
0.0
 40
0.7
  1
70
  7
STYLE3
100
AcDbText
  0
TEXT
  5
D09
330
18
100
AcDbEntity
  8
文字
100
AcDbText
 10
398.9624864328071
 20
247.0728378834269
 30
0.0
 40
0.7
  1
80
  7
STYLE3
100
AcDbText
  0
TEXT
  5
D0A
330
18
100
AcDbEntity
  8
文字
100
AcDbText
 10
393.9156222981909
 20
249.0075360265166
 30
0.0
 40
0.7
  1
10
  7
STYLE3
100
AcDbText
  0
TEXT
  5
D0B
330
18
100
AcDbEntity
  8
文字
100
AcDbText
 10
393.8855900155796
 20
243.2073314418886
 30
0.0
 40
0.7
  1
40
  7
STYLE3
100
AcDbText
  0
TEXT
  5
D0C
330
18
100
AcDbEntity
  8
文字
100
AcDbText
 10
395.7829307850157
 20
242.6090051949963
 30
0.0
 40
0.7
  1
50
  7
STYLE3
100
AcDbText
  0
TEXT
  5
D0D
330
18
100
AcDbEntity
  8
文字
100
AcDbText
 10
397.8540896665503
 20
243.2886791785778
 30
0.0
 40
0.7
  1
60
  7
STYLE3
100
AcDbText
  0
TEXT
  5
D0E
330
18
100
AcDbEntity
  8
文字
100
AcDbText
 10
397.8567756023486
 20
248.9569301147428
 30
0.0
 40
0.7
  1
90
  7
STYLE3
100
AcDbText
  0
TEXT
  5
D0F
330
18
100
AcDbEntity
  8
文字
100
AcDbText
 10
396.0825017853076
 20
249.5596718338401
 30
0.0
 40
0.7
  1
0
  7
STYLE3
100
AcDbText
  0
CIRCLE
  5
D10
330
18
100
AcDbEntity
  8
外形線
100
AcDbCircle
 10
396.4451879119863
 20
246.5112998090873
 30
0.0
 40
1.149999999999999
  0
LINE
  5
D11
330
18
100
AcDbEntity
  8
目盛
100
AcDbLine
 10
399.2371678603756
 20
250.3541305323683
 30
0.0
 11
398.9432752342294
 21
249.9496220351808
 31
0.0
  0
LINE
  5
D12
330
18
100
AcDbEntity
  8
目盛
100
AcDbLine
 10
399.2371678603757
 20
242.6684690858063
 30
0.0
 11
398.9432752342294
 21
243.0729775829937
 31
0.0
  0
LINE
  5
D13
330
18
100
AcDbEntity
  8
目盛
100
AcDbLine
 10
396.4451879119863
 20
241.7612998090872
 30
0.0
 11
396.4451879119863
 21
242.2612998090873
 31
0.0
  0
LINE
  5
D14
330
18
100
AcDbEntity
  8
目盛
100
AcDbLine
 10
400.9627063643882
 20
247.9791305323682
 30
0.0
 11
400.4871781062407
 21
247.8246220351807
 31
0.0
  0
LINE
  5
D15
330
18
100
AcDbEntity
  8
目盛
100
AcDbLine
 10
400.9627063643882
 20
245.0434690858062
 30
0.0
 11
400.4871781062407
 21
245.1979775829937
 31
0.0
  0
CIRCLE
  5
D16
330
18
100
AcDbEntity
  8
外形線
100
AcDbCircle
 10
399.6451879119864
 20
256.5852712206011
 30
0.0
 40
1.5
  0
POINT
  5
D17
330
18
100
AcDbEntity
  8
DEFPOINTS
  6
ByBlock
 62
     0
100
AcDbPoint
 10
399.6451879119863
 20
256.5852712206011
 30
0.0
  0
POINT
  5
D18
330
18
100
AcDbEntity
  8
DEFPOINTS
  6
ByBlock
 62
     0
100
AcDbPoint
 10
399.6451879119863
 20
256.5852712206011
 30
0.0
  0
HATCH
  5
D19
330
18
100
AcDbEntity
  8
ROGO
 62
     4
100
AcDbHatch
 10
0.0
 20
0.0
 30
0.0
210
0.0
220
0.0
230
1.0
  2
SOLID
 70
     1
 71
     1
 91
        2
 92
        5
 93
        6
 72
     1
 10
391.962561257052
 20
263.8983590768017
 11
392.9163622129884
 21
263.8983590768017
 72
     1
 10
392.9163622129884
 20
263.8983590768017
 11
393.2505863638169
 21
264.6370929311502
 72
     1
 10
393.2505863638169
 20
264.6370929311502
 11
394.1421946319891
 21
264.6370929311502
 72
     4
 94
        3
 73
     0
 74
     0
 95
       18
 96
       14
 40
0.108740278791501
 40
0.108740278791501
 40
0.108740278791501
 40
0.108740278791501
 40
0.6623149649549278
 40
1.384304701649787
 40
2.097394834876493
 40
2.774073369849618
 40
3.428974823686337
 40
4.005208313035923
 40
4.455173659284313
 40
4.720999734343524
 40
5.086034088486724
 40
5.569973738255373
 40
6.060470601257719
 40
6.060470601257719
 40
6.060470601257719
 40
6.060470601257719
 10
394.142194631989
 20
264.6370929311502
 10
394.2049445488837
 20
264.6375602107813
 10
394.3495349059373
 20
264.6386369313899
 10
394.5518156840445
 20
264.7466997678853
 10
394.7436356571375
 20
264.884363948227
 10
394.8981335962189
 20
265.0563609790288
 10
394.9943904670951
 20
265.2530101165496
 10
395.0093003521421
 20
265.4414802521213
 10
395.0001982336313
 20
265.5905577862777
 10
394.9351590250882
 20
265.6944685285806
 10
394.8675428311635
 20
265.7999273057533
 10
394.7435575956163
 20
265.8912796155447
 10
394.6419696477658
 20
265.93130550686
 10
394.5903101101297
 20
265.9502378617077
 72
     1
 10
394.5903101101298
 20
265.9502378617077
 11
392.9778117971445
 21
265.9502378617077
 72
     1
 10
392.9778117971445
 20
265.9502378617077
 11
391.962561257052
 21
263.8983590768017
 97
        6
330
D4C
330
D20
330
D27
330
D1F
330
D25
330
D1E
 92
       20
 93
        4
 72
     1
 10
393.4569508561271
 20
265.0932192656089
 11
393.6149486524844
 21
265.4424409504942
 72
     1
 10
393.6149486524844
 20
265.4424409504942
 11
394.0209356515819
 21
265.4424409504944
 72
     4
 94
        3
 73
     0
 74
     0
 95
       15
 96
       11
 40
0.0
 40
0.0
 40
0.0
 40
0.0
 40
0.1539705029175028
 40
0.2241725832587281
 40
0.3038566179396687
 40
0.3581410872474193
 40
0.443992538467216
 40
0.4954152125469665
 40
0.5836396705646186
 40
0.6130478420065743
 40
0.6130478420065743
 40
0.6130478420065743
 40
0.6130478420065743
 10
394.0209356515818
 20
265.4424409504943
 10
394.0787639866411
 20
265.4427058351367
 10
394.1629588616992
 20
265.4430914926064
 10
394.2089996180637
 20
265.3389421886769
 10
394.1883619558304
 20
265.2718862840396
 10
394.1624187324061
 20
265.2030407697917
 10
394.1165711808638
 20
265.1562592045224
 10
394.0550370512687
 20
265.1112006708853
 10
393.9968843582129
 20
265.1057461336259
 10
393.9590625592403
 20
265.0957246401717
 10
393.9496071049711
 20
265.0932192656089
 72
     1
 10
393.9496071049711
 20
265.0932192656089
 11
393.4569508561271
 21
265.0932192656089
 97
        4
330
D26
330
D1D
330
D4B
330
D1C
 75
     0
 76
     1
 47
0.0514683685270805
 98
        2
 10
392.9864303504515
 20
265.3120491048187
 10
392.9864303504515
 20
265.3120491048187
450
        0
451
        0
460
0.0
461
0.0
452
        0
462
0.0
453
        0
470

  0
HATCH
  5
D1A
330
18
100
AcDbEntity
  8
ROGO
 62
     4
100
AcDbHatch
 10
0.0
 20
0.0
 30
0.0
210
0.0
220
0.0
230
1.0
  2
SOLID
 70
     1
 71
     1
 91
        1
 92
        7
 72
     0
 73
     1
 93
        4
 10
393.0094132484104
 20
264.1040292830929
 10
392.9163622129884
 20
263.8983590768017
 10
405.0956547815714
 20
263.8983590768017
 10
405.1982085889576
 20
264.1040292830929
 97
        4
330
D1B
330
D25
330
D1F
330
D57
 75
     0
 76
     1
 47
0.0514683685270805
 98
        1
 10
400.7056485092986
 20
264.0496328188882
450
        0
451
        0
460
0.0
461
0.0
452
        0
462
0.0
453
        0
470

  0
LINE
  5
D1B
102
{ACAD_REACTORS
330
D1A
102
}
330
18
100
AcDbEntity
  8
ROGO
 62
     4
100
AcDbLine
 10
392.9951498014937
 20
264.1040292830929
 30
0.0
 11
405.1982085889576
 21
264.1040292830929
 31
0.0
  0
LINE
  5
D1C
102
{ACAD_REACTORS
330
D19
102
}
330
18
100
AcDbEntity
  8
ROGO
 62
     4
100
AcDbLine
 10
393.9496071049711
 20
265.0932192656089
 30
0.0
 11
393.4569508561271
 21
265.0932192656089
 31
0.0
  0
LINE
  5
D1D
102
{ACAD_REACTORS
330
D19
102
}
330
18
100
AcDbEntity
  8
ROGO
 62
     4
100
AcDbLine
 10
394.0209356515819
 20
265.4424409504943
 30
0.0
 11
393.6149486524844
 21
265.4424409504943
 31
0.0
  0
LINE
  5
D1E
102
{ACAD_REACTORS
330
D19
102
}
330
18
100
AcDbEntity
  8
ROGO
 62
     4
100
AcDbLine
 10
394.1421946322981
 20
264.6370929311502
 30
0.0
 11
393.2505863638169
 21
264.6370929311502
 31
0.0
  0
LINE
  5
D1F
102
{ACAD_REACTORS
330
D1A
330
CC3
330
D19
102
}
330
18
100
AcDbEntity
  8
ROGO
 62
     4
100
AcDbLine
 10
391.9625612570519
 20
263.8983590768017
 30
0.0
 11
405.8517385240756
 21
263.8983590768017
 31
0.0
  0
LINE
  5
D20
102
{ACAD_REACTORS
330
D19
102
}
330
18
100
AcDbEntity
  8
ROGO
 62
     4
100
AcDbLine
 10
392.9778117971446
 20
265.9502378617077
 30
0.0
 11
394.5903101101297
 21
265.9502378617077
 31
0.0
  0
TEXT
  5
D21
330
18
100
AcDbEntity
  8
文字
100
AcDbText
 10
387.9282638752536
 20
270.6026645492585
 30
0.0
 40
2.0
  1
9
  7
STYLE3
100
AcDbText
  0
LINE
  5
D22
330
18
100
AcDbEntity
  8
目盛
100
AcDbLine
 10
383.9006044756266
 20
273.3515496512937
 30
0.0
 11
385.269698687484
 21
271.8936123964509
 31
0.0
  0
LINE
  5
D23
330
18
100
AcDbEntity
  8
目盛
100
AcDbLine
 10
381.9233833281433
 20
271.246022984821
 30
0.0
 11
383.4644098136948
 21
269.9711750053236
 31
0.0
  0
LINE
  5
D24
330
18
100
AcDbEntity
  8
目盛
100
AcDbLine
 10
382.8789094812939
 20
272.329854656961
 30
0.0
 11
384.3368467361367
 21
270.9607604451036
 31
0.0
  0
LINE
  5
D25
102
{ACAD_REACTORS
330
D1A
330
D19
102
}
330
18
100
AcDbEntity
  8
ROGO
 62
     4
100
AcDbLine
 10
393.2505863638169
 20
264.6370929311502
 30
0.0
 11
392.9163622129884
 21
263.8983590768017
 31
0.0
  0
LINE
  5
D26
102
{ACAD_REACTORS
330
D19
102
}
330
18
100
AcDbEntity
  8
ROGO
 62
     4
100
AcDbLine
 10
393.6149486524844
 20
265.4424409504943
 30
0.0
 11
393.4569508561271
 21
265.0932192656089
 31
0.0
  0
LINE
  5
D27
102
{ACAD_REACTORS
330
D19
102
}
330
18
100
AcDbEntity
  8
ROGO
 62
     4
100
AcDbLine
 10
392.9778117971446
 20
265.9502378617077
 30
0.0
 11
391.9625612570519
 21
263.8983590768016
 31
0.0
  0
LINE
  5
D28
330
18
100
AcDbEntity
  8
目盛
100
AcDbLine
 10
386.1261271092595
 20
275.192662091225
 30
0.0
 11
387.8894828661369
 21
272.7656111081001
 31
0.0
  0
LINE
  5
D29
330
18
100
AcDbEntity
  8
目盛
100
AcDbLine
 10
387.3211716274694
 20
276.0048135071475
 30
0.0
 11
388.3928252174274
 21
274.3161576561434
 31
0.0
  0
LINE
  5
D2A
330
18
100
AcDbEntity
  8
目盛
100
AcDbLine
 10
384.9844361477665
 20
274.3070758044444
 30
0.0
 11
386.2592841272638
 21
272.7660493188928
 31
0.0
  0
LINE
  5
D2B
330
18
100
AcDbEntity
  8
目盛
100
AcDbLine
 10
388.5648534076468
 20
276.74032486161
 30
0.0
 11
389.5283607558503
 21
274.9877115015223
 31
0.0
  0
LINE
  5
D2C
330
18
100
AcDbEntity
  8
目盛
100
AcDbLine
 10
389.8522642059896
 20
277.3962934273196
 30
0.0
 11
390.7038227891198
 21
275.5866393223875
 31
0.0
  0
LINE
  5
D2D
330
18
100
AcDbEntity
  8
目盛
100
AcDbLine
 10
391.1783232002388
 20
277.9701303960309
 30
0.0
 11
391.9145723056081
 21
276.1105774242544
 31
0.0
  0
LINE
  5
D2E
330
18
100
AcDbEntity
  8
目盛
100
AcDbLine
 10
392.5377970413626
 20
278.4595710953897
 30
0.0
 11
393.4648480244874
 21
275.6064015465042
 31
0.0
  0
HATCH
  5
D2F
330
18
100
AcDbEntity
  8
ROGO
 62
     4
100
AcDbHatch
 10
0.0
 20
0.0
 30
0.0
210
0.0
220
0.0
230
1.0
  2
SOLID
 70
     1
 71
     1
 91
        1
 92
        5
 93
        8
 72
     1
 10
401.3690716126507
 20
265.4616628094909
 11
401.6126909131913
 21
265.9502378617077
 72
     1
 10
401.6126909131913
 20
265.9502378617077
 11
400.2976545710851
 21
265.9502378617077
 72
     4
 94
        3
 73
     0
 74
     0
 95
       26
 96
       22
 40
0.0
 40
0.0
 40
0.0
 40
0.0
 40
0.2382195346591896
 40
0.397689067266058
 40
0.5126795869787669
 40
0.5985392873135731
 40
0.7099038249249733
 40
0.7911890807494741
 40
0.9379713068543702
 40
1.057449928673087
 40
1.138714535893316
 40
1.218398644003506
 40
1.36093802187036
 40
1.461730374800257
 40
1.516014844108008
 40
1.593124329220501
 40
1.648806818593631
 40
1.729472362005518
 40
1.775122082164342
 40
1.874460993765092
 40
1.919820003751207
 40
1.919820003751207
 40
1.919820003751207
 40
1.919820003751207
 10
400.297654571085
 20
265.9502378617077
 10
400.2167991803263
 20
265.9454138904425
 10
400.0818173662603
 20
265.9373606439459
 10
399.9336081555488
 20
265.8473251400875
 10
399.8250214111384
 20
265.7949824547451
 10
399.7475774767143
 20
265.7238270333254
 10
399.6908107588467
 20
265.6503286808042
 10
399.6192456541492
 20
265.5627559326787
 10
399.5608863562434
 20
265.4607810112143
 10
399.53116751371
 20
265.3483868701508
 10
399.5048428450564
 20
265.258808087592
 10
399.4853200300834
 20
265.1589842246995
 10
399.4902871868963
 20
265.0511393365773
 10
399.497400382781
 20
264.9509785255734
 10
399.5291590727049
 20
264.8794787026468
 10
399.5653265950947
 20
264.8285757557174
 10
399.6096132309499
 20
264.7725118030187
 10
399.6580724952671
 20
264.7353808286884
 10
399.6981522623778
 20
264.6681155735478
 10
399.7683105426402
 20
264.6595320418717
 10
399.8129059367161
 20
264.6424482519947
 10
399.8268854251776
 20
264.6370929311502
 72
     1
 10
399.8268854251776
 20
264.6370929311502
 11
400.957914440182
 21
264.6370929311501
 72
     1
 10
400.957914440182
 20
264.6370929311501
 11
401.2015311608608
 21
265.1256628094908
 72
     1
 10
401.2015311608608
 20
265.1256628094908
 11
400.3618501399887
 21
265.1256628094908
 72
     4
 94
        3
 73
     0
 74
     0
 95
       16
 96
       12
 40
0.0
 40
0.0
 40
0.0
 40
0.0
 40
0.0719416665231651
 40
0.1446253590759065
 40
0.1879779149910977
 40
0.2295440936104405
 40
0.2751936323958134
 40
0.3070718656052443
 40
0.3373215422372259
 40
0.3986635435212919
 40
0.5242542460842631
 40
0.5242542460842631
 40
0.5242542460842631
 40
0.5242542460842631
 10
400.3618501399888
 20
265.1256628094908
 10
400.3365224013171
 20
265.1331146015794
 10
400.285605686748
 20
265.1480950455787
 10
400.2813443689004
 20
265.2207147347161
 10
400.287149797962
 20
265.2724622056751
 10
400.3114629478394
 20
265.3101373863913
 10
400.3409590157
 20
265.3375510374269
 10
400.3519417099516
 20
265.3732530316091
 10
400.3842243390757
 20
265.4002125039257
 10
400.4414700904666
 20
265.4455276109012
 10
400.5047739816781
 20
265.4551787161868
 10
400.5473046892996
 20
265.4616628094908
 72
     1
 10
400.5473046892996
 20
265.4616628094908
 11
401.3690716126507
 21
265.4616628094909
 97
        8
330
D60
330
D30
330
D31
330
D61
330
D63
330
D62
330
D64
330
D65
 75
     0
 76
     1
 47
0.0514683685270805
 98
        1
 10
400.757571468292
 20
265.6579164053607
450
        0
451
        0
460
0.0
461
0.0
452
        0
462
0.0
453
        0
470

  0
SPLINE
  5
D30
102
{ACAD_REACTORS
330
D2F
102
}
330
18
100
AcDbEntity
  8
ROGO
 62
     4
100
AcDbSpline
210
0.0
220
0.0
230
1.0
 70
     8
 71
     3
 72
    26
 73
    22
 74
    20
 42
0.0000000001
 43
0.0000000001
 44
0.0000000001
 40
0.0
 40
0.0
 40
0.0
 40
0.0
 40
0.2382195346591896
 40
0.397689067266058
 40
0.5126795869787669
 40
0.5985392873135731
 40
0.7099038249249733
 40
0.7911890807494741
 40
0.9379713068543702
 40
1.057449928673087
 40
1.138714535893316
 40
1.218398644003506
 40
1.36093802187036
 40
1.461730374800257
 40
1.516014844108008
 40
1.593124329220501
 40
1.648806818593631
 40
1.729472362005518
 40
1.775122082164342
 40
1.874460993765092
 40
1.919820003751207
 40
1.919820003751207
 40
1.919820003751207
 40
1.919820003751207
 10
400.297654571085
 20
265.9502378617077
 30
0.0
 10
400.2167991803264
 20
265.9454138904425
 30
0.0
 10
400.0818173662604
 20
265.9373606439459
 30
0.0
 10
399.9336081555487
 20
265.8473251400875
 30
0.0
 10
399.8250214111385
 20
265.7949824547451
 30
0.0
 10
399.7475774767142
 20
265.7238270333254
 30
0.0
 10
399.6908107588467
 20
265.6503286808042
 30
0.0
 10
399.6192456541492
 20
265.5627559326787
 30
0.0
 10
399.5608863562434
 20
265.4607810112143
 30
0.0
 10
399.5311675137102
 20
265.3483868701509
 30
0.0
 10
399.5048428450564
 20
265.2588080875919
 30
0.0
 10
399.4853200300834
 20
265.1589842246995
 30
0.0
 10
399.4902871868963
 20
265.0511393365773
 30
0.0
 10
399.4974003827808
 20
264.9509785255734
 30
0.0
 10
399.5291590727049
 20
264.8794787026468
 30
0.0
 10
399.5653265950949
 20
264.8285757557174
 30
0.0
 10
399.6096132309497
 20
264.7725118030187
 30
0.0
 10
399.6580724952672
 20
264.7353808286884
 30
0.0
 10
399.6981522623778
 20
264.6681155735478
 30
0.0
 10
399.7683105426403
 20
264.6595320418716
 30
0.0
 10
399.812905936716
 20
264.6424482519947
 30
0.0
 10
399.8268854251776
 20
264.6370929311502
 30
0.0
 11
400.297654571085
 21
265.9502378617077
 31
0.0
 11
400.0622699981311
 21
265.9135956796139
 31
0.0
 11
399.9196124947562
 21
265.8423259906805
 31
0.0
 11
399.8197524474704
 21
265.7853102860031
 31
0.0
 11
399.7555568785666
 21
265.7282943489793
 31
0.0
 11
399.6842283319559
 21
265.6427706757899
 31
0.0
 11
399.6342983083129
 21
265.5786279789845
 31
0.0
 11
399.5629693515487
 21
265.4503423530273
 31
0.0
 11
399.52730528332
 21
265.3363107113261
 31
0.0
 11
399.5059067603521
 21
265.2579140302646
 31
0.0
 11
399.4916408049379
 21
265.1795173492033
 31
0.0
 11
399.4916408049379
 21
265.0369779713364
 31
0.0
 11
399.5059067603521
 21
264.9372003138911
 31
0.0
 11
399.52730528332
 21
264.8873113689953
 31
0.0
 11
399.5701023292557
 21
264.8231686721898
 31
0.0
 11
399.6057668076379
 21
264.780406719422
 31
0.0
 11
399.6628293988345
 21
264.7233910147445
 31
0.0
 11
399.6913608995096
 21
264.6877560541046
 31
0.0
 11
399.7840883792417
 21
264.6521213258111
 31
0.0
 11
399.8268854251776
 21
264.6370929311502
 31
0.0
  0
LINE
  5
D31
102
{ACAD_REACTORS
330
D2F
102
}
330
18
100
AcDbEntity
  8
ROGO
 62
     4
100
AcDbLine
 10
399.8268854251774
 20
264.6370929311502
 30
0.0
 11
400.957914440182
 21
264.6370929311502
 31
0.0
  0
HATCH
  5
D32
330
18
100
AcDbEntity
  8
ROGO
 62
     4
100
AcDbHatch
 10
0.0
 20
0.0
 30
0.0
210
0.0
220
0.0
230
1.0
  2
SOLID
 70
     1
 71
     1
 91
        2
 92
        7
 72
     0
 73
     1
 93
        8
 10
398.8839149997883
 20
265.9502378617077
 10
397.8335115170168
 20
265.9502378617076
 10
396.8865771869179
 20
264.6370929311502
 10
397.6138244386094
 20
264.6370929311502
 10
397.7941148761903
 20
264.887107601241
 10
398.6239918649746
 20
264.887107601241
 10
398.7350582880436
 20
264.6370929311502
 10
399.4672660101716
 20
264.6370929311502
 97
        8
330
D39
330
D3F
330
D3A
330
D3B
330
D3D
330
D33
330
D38
330
D35
 92
       22
 72
     0
 73
     1
 93
        3
 10
398.5068467593739
 20
265.150805612937
 10
397.9842726373354
 20
265.150805612937
 10
398.3076393736486
 20
265.5992288847559
 97
        3
330
D3C
330
D3E
330
D34
 75
     0
 76
     1
 47
0.0128389261915577
 98
        2
 10
398.8016601072926
 20
265.6351959448986
 10
398.8016601072926
 20
265.6351959448986
450
        0
451
        0
460
0.0
461
0.0
452
        0
462
0.0
453
        0
470

  0
LINE
  5
D33
102
{ACAD_REACTORS
330
D32
102
}
330
18
100
AcDbEntity
  8
ROGO
 62
     4
100
AcDbLine
 10
398.6239918649746
 20
264.887107601241
 30
0.0
 11
398.7350582880436
 21
264.6370929311502
 31
0.0
  0
LINE
  5
D34
102
{ACAD_REACTORS
330
D32
102
}
330
18
100
AcDbEntity
  8
ROGO
 62
     4
100
AcDbLine
 10
398.3076393736487
 20
265.5992288847559
 30
0.0
 11
398.5068467593741
 21
265.150805612937
 31
0.0
  0
LINE
  5
D35
102
{ACAD_REACTORS
330
D32
102
}
330
18
100
AcDbEntity
  8
ROGO
 62
     4
100
AcDbLine
 10
398.8839149997884
 20
265.9502378617077
 30
0.0
 11
399.4672660101717
 21
264.6370929311502
 31
0.0
  0
HATCH
  5
D36
330
18
100
AcDbEntity
  8
ROGO
 62
     4
100
AcDbHatch
 10
0.0
 20
0.0
 30
0.0
210
0.0
220
0.0
230
1.0
  2
SOLID
 70
     1
 71
     1
 91
        1
 92
        1
 93
       12
 72
     1
 10
395.5429341033353
 20
265.9502378617077
 11
397.3190172518192
 21
265.9502378617077
 72
     1
 10
397.3190172518192
 20
265.9502378617077
 11
397.1701830560847
 21
265.6494355310156
 72
     1
 10
397.1701830560847
 20
265.6494355310156
 11
396.2367186338667
 21
265.6494355310156
 72
     1
 10
396.2367186338667
 20
265.6494355310156
 11
396.1203487877903
 21
265.4142454878314
 72
     1
 10
396.1203487877903
 20
265.4142454878314
 11
397.0538132100082
 21
265.4142454878314
 72
     1
 10
397.0538132100082
 20
265.4142454878314
 11
396.9344868343843
 21
265.1730801311502
 72
     1
 10
396.9344868343843
 20
265.1730801311502
 11
396.0010224121664
 21
265.1730801311502
 72
     1
 10
396.0010224121664
 20
265.1730801311502
 11
395.88464763955
 21
264.9378801311502
 72
     1
 10
395.8846476395501
 20
264.9378801311502
 11
396.818112061768
 21
264.9378801311502
 72
     1
 10
396.818112061768
 20
264.9378801311502
 11
396.6692853525591
 21
264.6370929311502
 72
     1
 10
396.6692853525591
 20
264.6370929311502
 11
394.8932022040752
 21
264.6370929311502
 72
     1
 10
394.8932022040752
 20
264.6370929311502
 11
395.5429341033353
 21
265.9502378617077
 97
       12
330
D37
330
D49
330
D46
330
D47
330
D45
330
D42
330
D43
330
D40
330
D44
330
D41
330
D48
330
D4A
 75
     0
 76
     1
 98
        1
 10
322.8928051246264
 20
175.1521418135963
450
        0
451
        0
460
0.0
461
0.0
452
        0
462
0.0
453
        0
470

  0
LINE
  5
D37
102
{ACAD_REACTORS
330
D36
102
}
330
18
100
AcDbEntity
  8
ROGO
 62
     4
100
AcDbLine
 10
395.5429341033353
 20
265.9502378617077
 30
0.0
 11
397.3190172518192
 21
265.9502378617077
 31
0.0
  0
LINE
  5
D38
102
{ACAD_REACTORS
330
D32
102
}
330
18
100
AcDbEntity
  8
ROGO
 62
     4
100
AcDbLine
 10
399.4672660101717
 20
264.6370929311502
 30
0.0
 11
398.7350582880436
 21
264.6370929311502
 31
0.0
  0
LINE
  5
D39
102
{ACAD_REACTORS
330
D32
102
}
330
18
100
AcDbEntity
  8
ROGO
 62
     4
100
AcDbLine
 10
397.8335115170169
 20
265.9502378617077
 30
0.0
 11
398.8839149997884
 21
265.9502378617077
 31
0.0
  0
LINE
  5
D3A
102
{ACAD_REACTORS
330
D32
102
}
330
18
100
AcDbEntity
  8
ROGO
 62
     4
100
AcDbLine
 10
396.8865771869178
 20
264.6370929311502
 30
0.0
 11
397.6138244386094
 21
264.6370929311502
 31
0.0
  0
LINE
  5
D3B
102
{ACAD_REACTORS
330
D32
102
}
330
18
100
AcDbEntity
  8
ROGO
 62
     4
100
AcDbLine
 10
397.7941148761903
 20
264.887107601241
 30
0.0
 11
397.6138244386094
 21
264.6370929311502
 31
0.0
  0
LINE
  5
D3C
102
{ACAD_REACTORS
330
D32
102
}
330
18
100
AcDbEntity
  8
ROGO
 62
     4
100
AcDbLine
 10
397.9842726373354
 20
265.1508056129371
 30
0.0
 11
398.5068467593741
 21
265.1508056129371
 31
0.0
  0
LINE
  5
D3D
102
{ACAD_REACTORS
330
D32
102
}
330
18
100
AcDbEntity
  8
ROGO
 62
     4
100
AcDbLine
 10
397.7941148761903
 20
264.887107601241
 30
0.0
 11
398.6239918649746
 21
264.887107601241
 31
0.0
  0
LINE
  5
D3E
102
{ACAD_REACTORS
330
D32
102
}
330
18
100
AcDbEntity
  8
ROGO
 62
     4
100
AcDbLine
 10
398.3076393736486
 20
265.5992288847559
 30
0.0
 11
397.9842726373354
 21
265.150805612937
 31
0.0
  0
LINE
  5
D3F
102
{ACAD_REACTORS
330
D32
102
}
330
18
100
AcDbEntity
  8
ROGO
 62
     4
100
AcDbLine
 10
397.8335115170169
 20
265.9502378617077
 30
0.0
 11
396.8865771869178
 21
264.6370929311502
 31
0.0
  0
LINE
  5
D40
102
{ACAD_REACTORS
330
D36
102
}
330
18
100
AcDbEntity
  8
ROGO
 62
     4
100
AcDbLine
 10
396.0010224121664
 20
265.1730801311502
 30
0.0
 11
395.88464763955
 21
264.9378801311502
 31
0.0
  0
LINE
  5
D41
102
{ACAD_REACTORS
330
D36
102
}
330
18
100
AcDbEntity
  8
ROGO
 62
     4
100
AcDbLine
 10
396.818112061768
 20
264.9378801311502
 30
0.0
 11
396.6692853525591
 21
264.6370929311502
 31
0.0
  0
LINE
  5
D42
102
{ACAD_REACTORS
330
D36
102
}
330
18
100
AcDbEntity
  8
ROGO
 62
     4
100
AcDbLine
 10
397.0538132100082
 20
265.4142454878314
 30
0.0
 11
396.9344868343843
 21
265.1730801311502
 31
0.0
  0
LINE
  5
D43
102
{ACAD_REACTORS
330
D36
102
}
330
18
100
AcDbEntity
  8
ROGO
 62
     4
100
AcDbLine
 10
396.0010224121664
 20
265.1730801311502
 30
0.0
 11
396.9344868343843
 21
265.1730801311502
 31
0.0
  0
LINE
  5
D44
102
{ACAD_REACTORS
330
D36
102
}
330
18
100
AcDbEntity
  8
ROGO
 62
     4
100
AcDbLine
 10
395.8846476395501
 20
264.9378801311502
 30
0.0
 11
396.818112061768
 21
264.9378801311502
 31
0.0
  0
LINE
  5
D45
102
{ACAD_REACTORS
330
D36
102
}
330
18
100
AcDbEntity
  8
ROGO
 62
     4
100
AcDbLine
 10
396.1203487877903
 20
265.4142454878314
 30
0.0
 11
397.0538132100082
 21
265.4142454878314
 31
0.0
  0
LINE
  5
D46
102
{ACAD_REACTORS
330
D36
102
}
330
18
100
AcDbEntity
  8
ROGO
 62
     4
100
AcDbLine
 10
396.2367186338667
 20
265.6494355310156
 30
0.0
 11
397.1701830560847
 21
265.6494355310156
 31
0.0
  0
LINE
  5
D47
102
{ACAD_REACTORS
330
D36
102
}
330
18
100
AcDbEntity
  8
ROGO
 62
     4
100
AcDbLine
 10
396.2367186338667
 20
265.6494355310156
 30
0.0
 11
396.1203487877903
 21
265.4142454878314
 31
0.0
  0
LINE
  5
D48
102
{ACAD_REACTORS
330
D36
102
}
330
18
100
AcDbEntity
  8
ROGO
 62
     4
100
AcDbLine
 10
394.8932022040752
 20
264.6370929311502
 30
0.0
 11
396.6692853525591
 21
264.6370929311502
 31
0.0
  0
LINE
  5
D49
102
{ACAD_REACTORS
330
D36
102
}
330
18
100
AcDbEntity
  8
ROGO
 62
     4
100
AcDbLine
 10
397.3190172518192
 20
265.9502378617077
 30
0.0
 11
397.1701830560847
 21
265.6494355310156
 31
0.0
  0
LINE
  5
D4A
102
{ACAD_REACTORS
330
D36
102
}
330
18
100
AcDbEntity
  8
ROGO
 62
     4
100
AcDbLine
 10
395.5429341033353
 20
265.9502378617077
 30
0.0
 11
394.8932022040752
 21
264.6370929311502
 31
0.0
  0
SPLINE
  5
D4B
102
{ACAD_REACTORS
330
D19
102
}
330
18
100
AcDbEntity
  8
ROGO
 62
     4
100
AcDbSpline
210
0.0
220
0.0
230
1.0
 70
     8
 71
     3
 72
    15
 73
    11
 74
     9
 42
0.0000000001
 43
0.0000000001
 44
0.0000000001
 40
0.0
 40
0.0
 40
0.0
 40
0.0
 40
0.1539705029175028
 40
0.2241725832587281
 40
0.3038566179396687
 40
0.3581410872474193
 40
0.443992538467216
 40
0.4954152125469665
 40
0.5836396705646186
 40
0.6130478420065743
 40
0.6130478420065743
 40
0.6130478420065743
 40
0.6130478420065743
 10
394.0209356515818
 20
265.4424409504943
 30
0.0
 10
394.0787639866411
 20
265.4427058351367
 30
0.0
 10
394.1629588616992
 20
265.4430914926065
 30
0.0
 10
394.2089996180637
 20
265.3389421886769
 30
0.0
 10
394.1883619558303
 20
265.2718862840395
 30
0.0
 10
394.1624187324062
 20
265.2030407697917
 30
0.0
 10
394.1165711808637
 20
265.1562592045224
 30
0.0
 10
394.0550370512688
 20
265.1112006708854
 30
0.0
 10
393.9968843582128
 20
265.1057461336258
 30
0.0
 10
393.9590625592403
 20
265.0957246401717
 30
0.0
 10
393.9496071049711
 20
265.0932192656089
 30
0.0
 11
394.0209356515818
 21
265.4424409504943
 31
0.0
 11
394.1707257225107
 21
265.4068059898544
 31
0.0
 11
394.1992572231857
 21
265.342663293049
 31
0.0
 11
394.1849916779248
 21
265.2642666119876
 31
0.0
 11
394.163593154957
 21
265.2143776670917
 31
0.0
 11
394.1065301536069
 21
265.1502349702864
 31
0.0
 11
394.0637331076711
 21
265.1217270017744
 31
0.0
 11
393.9781386056461
 21
265.1003462577369
 31
0.0
 11
393.9496071049711
 21
265.0932192656089
 31
0.0
  0
SPLINE
  5
D4C
102
{ACAD_REACTORS
330
D19
102
}
330
18
100
AcDbEntity
  8
ROGO
 62
     4
100
AcDbSpline
210
0.0
220
0.0
230
1.0
 70
     8
 71
     3
 72
    18
 73
    14
 74
     0
 42
0.0000000001
 43
0.0000000001
 40
0.1087402787915014
 40
0.1087402787915014
 40
0.1087402787915014
 40
0.1087402787915014
 40
0.5992371417938475
 40
1.083176791562496
 40
1.448211145705696
 40
1.714037220764907
 40
2.164002567013297
 40
2.740236056362883
 40
3.395137510199602
 40
4.071816045172726
 40
4.784906178399433
 40
5.506895915094292
 40
6.060470601257719
 40
6.060470601257719
 40
6.060470601257719
 40
6.060470601257719
 10
394.5903101101297
 20
265.9502378617077
 30
0.0
 10
394.6419696477658
 20
265.93130550686
 30
0.0
 10
394.7435575956163
 20
265.8912796155447
 30
0.0
 10
394.8675428311635
 20
265.7999273057533
 30
0.0
 10
394.9351590250882
 20
265.6944685285806
 30
0.0
 10
395.0001982336313
 20
265.5905577862777
 30
0.0
 10
395.0093003521421
 20
265.4414802521213
 30
0.0
 10
394.9943904670951
 20
265.2530101165496
 30
0.0
 10
394.8981335962189
 20
265.0563609790288
 30
0.0
 10
394.7436356571375
 20
264.884363948227
 30
0.0
 10
394.5518156840445
 20
264.7466997678853
 30
0.0
 10
394.3495349059373
 20
264.6386369313899
 30
0.0
 10
394.2049445488837
 20
264.6375602107813
 30
0.0
 10
394.142194631989
 20
264.6370929311502
 30
0.0
  0
HATCH
  5
D4D
330
18
100
AcDbEntity
  8
ROGO
 62
     4
100
AcDbHatch
 10
0.0
 20
0.0
 30
0.0
210
0.0
220
0.0
230
1.0
  2
SOLID
 70
     1
 71
     1
 91
        2
 92
        5
 93
        6
 72
     4
 94
        3
 73
     0
 74
     0
 95
       38
 96
       34
 40
0.0
 40
0.0
 40
0.0
 40
0.0
 40
0.1807680148264315
 40
0.2375392910068956
 40
0.3104865209606157
 40
0.3712759982447458
 40
0.422566754387306
 40
0.490692583720658
 40
0.5255021974951946
 40
0.5647069597052371
 40
0.622487401681883
 40
0.6879401044674746
 40
0.7303986317551266
 40
0.7765228362185534
 40
0.8277951442290254
 40
0.9056034697002209
 40
0.9795294930264187
 40
1.013897332332996
 40
1.053089255536027
 40
1.099518741889647
 40
1.132570569820733
 40
1.160277520290299
 40
1.19983678629386
 40
1.243305643169139
 40
1.286774258016964
 40
1.324809356515675
 40
1.411916492917645
 40
1.446284332224223
 40
1.5150200516612
 40
1.575779369908399
 40
1.69209852953623
 40
1.835624328519098
 40
2.042896467983898
 40
2.042896467983898
 40
2.042896467983898
 40
2.042896467983898
 10
402.341916233234
 20
265.95571508088
 10
402.2816608356083
 20
265.9514584617791
 10
402.2024818699872
 20
265.9458650259919
 10
402.1019430974777
 20
265.9183203997871
 10
402.0471383430367
 20
265.8855058803291
 10
401.9901030417194
 20
265.8613856356286
 10
401.9414751353344
 20
265.8256683363793
 10
401.8922890346386
 20
265.8072635561858
 10
401.8578474212628
 20
265.7740764478134
 10
401.8179840631298
 20
265.7538043296383
 10
401.7862401632945
 20
265.708429435624
 10
401.7507594867628
 20
265.6660055539656
 10
401.7095974383556
 20
265.635038012388
 10
401.6758151927963
 20
265.6025130334257
 10
401.644824679872
 20
265.5523172182417
 10
401.6264831073008
 20
265.4856218435561
 10
401.5747812928914
 20
265.443512789271
 10
401.5669966184084
 20
265.3928851415948
 10
401.5383987682127
 20
265.3630156814042
 10
401.5259634227568
 20
265.3244584994192
 10
401.5212274446329
 20
265.2891333100985
 10
401.5155431415906
 20
265.2561420286701
 10
401.500674081358
 20
265.2214366579324
 10
401.5055273939193
 20
265.1785663789973
 10
401.5041448308773
 20
265.1370536649708
 10
401.5049584708505
 20
265.0810102083594
 10
401.5020219315045
 20
265.0264450114398
 10
401.5254396820195
 20
264.9670651352715
 10
401.5392975296223
 20
264.914136190605
 10
401.5772494995659
 20
264.8408496483535
 10
401.6427158523838
 20
264.7562928246446
 10
401.7672055984014
 20
264.6536568613518
 10
401.8869061289607
 20
264.6432449206345
 10
401.9576322716909
 20
264.6370929311502
 72
     1
 10
401.9576322716909
 20
264.6370929311502
 11
402.7080860948769
 21
264.6370929311502
 72
     4
 94
        3
 73
     0
 74
     0
 95
       11
 96
        7
 40
0.1647869275458135
 40
0.1647869275458135
 40
0.1647869275458135
 40
0.1647869275458135
 40
0.2545010798212315
 40
0.5111620267764023
 40
0.7602998271033902
 40
0.8850764140209603
 40
0.8850764140209603
 40
0.8850764140209603
 40
0.8850764140209603
 10
402.7080860948762
 20
264.6370929311502
 10
402.7185579951962
 20
264.6368911155072
 10
402.7589886900248
 20
264.6361119306004
 10
402.8280852321211
 20
264.646038461185
 10
402.9007839992592
 20
264.6555508555584
 10
402.9441250106934
 20
264.6624784453423
 10
402.9581035534943
 20
264.6663693780588
 72
     4
 94
        3
 73
     0
 74
     0
 95
        9
 96
        5
 40
0.0
 40
0.0
 40
0.0
 40
0.0
 40
0.1135793343552172
 40
0.2662938392177403
 40
0.2662938392177403
 40
0.2662938392177403
 40
0.2662938392177403
 10
402.9581035534943
 20
264.6663693780588
 10
402.9945885218124
 20
264.677531717782
 10
403.0801298074896
 20
264.703702520036
 10
403.1508065047264
 20
264.7590148378104
 10
403.1913382603823
 20
264.7907354110183
 72
     4
 94
        3
 73
     0
 74
     0
 95
       25
 96
       21
 40
0.0
 40
0.0
 40
0.0
 40
0.0
 40
0.165525918914855
 40
0.3412380755365305
 40
0.5940540902285263
 40
0.7697671103696209
 40
0.9377330196075423
 40
1.11479469302833
 40
1.274661249598185
 40
1.574522170874768
 40
1.815540668866877
 40
2.15849091873445
 40
2.536227739636605
 40
2.738070817316548
 40
2.925680654369045
 40
3.162706124480894
 40
3.395643218188267
 40
3.648478129958861
 40
3.928509979727306
 40
4.337226830236035
 40
4.337226830236035
 40
4.337226830236035
 40
4.337226830236035
 10
403.1913382603823
 20
264.7907354110183
 10
403.2062309177761
 20
264.803042154964
 10
403.23447821708
 20
264.8323122781857
 10
403.2845794537197
 20
264.8797526265243
 10
403.3287296135263
 20
264.9350243969783
 10
403.3831920142436
 20
264.9798202298517
 10
403.4115449697826
 20
265.0345864561992
 10
403.4524135170867
 20
265.0776589266983
 10
403.486695536004
 20
265.1441801086889
 10
403.515782134704
 20
265.220591873833
 10
403.5435121902016
 20
265.3201931575365
 10
403.5541386335382
 20
265.432558210582
 10
403.538410175891
 20
265.5412713430131
 10
403.5004141982161
 20
265.6225308385499
 10
403.472480037447
 20
265.690252253216
 10
403.4300864488046
 20
265.7543963568932
 10
403.381721093944
 20
265.8241601632274
 10
403.3135828731846
 20
265.8818661255423
 10
403.2245332145635
 20
265.9514688149179
 10
403.141590106845
 20
265.9541336914239
 10
403.0923700564194
 20
265.95571508088
 72
     1
 10
403.0923700564193
 20
265.95571508088
 11
402.341916233234
 21
265.95571508088
 97
        6
330
D53
330
D52
330
D54
330
D51
330
D50
330
D4F
 92
       20
 93
        1
 72
     3
 10
402.5143746278648
 20
265.278019088661
 11
0.1782847090673272
 21
0.1567790921840611
 40
0.6788083417438791
 50
0.0
 51
360.0
 73
     1
 97
        1
330
D4E
 75
     0
 76
     1
 47
0.088756267210375
 98
        2
 10
402.5668059036334
 20
265.591506358985
 10
402.5668059036334
 20
265.591506358985
450
        0
451
        0
460
0.0
461
0.0
452
        0
462
0.0
453
        0
470

  0
ELLIPSE
  5
D4E
102
{ACAD_REACTORS
330
D4D
102
}
330
18
100
AcDbEntity
  8
ROGO
 62
     4
100
AcDbEllipse
 10
402.5143746278648
 20
265.278019088661
 30
0.0
 11
0.1782847090673272
 21
0.1567790921840611
 31
0.0
210
0.0
220
0.0
230
0.9999999999999998
 40
0.6788083417438792
 41
0.0
 42
6.283185307179586
  0
SPLINE
  5
D4F
102
{ACAD_REACTORS
330
D4D
102
}
330
18
100
AcDbEntity
  8
ROGO
 62
     4
100
AcDbSpline
210
0.0
220
0.0
230
1.0
 70
     8
 71
     3
 72
     9
 73
     5
 74
     3
 42
0.0000000001
 43
0.0000000001
 44
0.0000000001
 40
0.0
 40
0.0
 40
0.0
 40
0.0
 40
0.1135793343552172
 40
0.2662938392177403
 40
0.2662938392177403
 40
0.2662938392177403
 40
0.2662938392177403
 10
402.9581035534943
 20
264.6663693780588
 30
0.0
 10
402.9945885218124
 20
264.677531717782
 30
0.0
 10
403.0801298074898
 20
264.7037025200359
 30
0.0
 10
403.1508065047265
 20
264.7590148378104
 30
0.0
 10
403.1913382603823
 20
264.7907354110183
 30
0.0
 11
402.9581035534943
 21
264.6663693780588
 31
0.0
 11
403.0648543177189
 21
264.7051577723285
 31
0.0
 11
403.1913382603823
 21
264.7907354110183
 31
0.0
  0
SPLINE
  5
D50
102
{ACAD_REACTORS
330
D4D
102
}
330
18
100
AcDbEntity
  8
ROGO
 62
     4
100
AcDbSpline
210
0.0
220
0.0
230
1.0
 70
     8
 71
     3
 72
    11
 73
     7
 74
     0
 42
0.0000000001
 43
0.0000000001
 40
0.1647869275458134
 40
0.1647869275458134
 40
0.1647869275458134
 40
0.1647869275458134
 40
0.2895635144633836
 40
0.5387013147903714
 40
0.7953622617455423
 40
0.8850764140209602
 40
0.8850764140209602
 40
0.8850764140209602
 40
0.8850764140209602
 10
402.9581035534943
 20
264.6663693780588
 30
0.0
 10
402.9441250106934
 20
264.6624784453423
 30
0.0
 10
402.9007839992592
 20
264.6555508555584
 30
0.0
 10
402.8280852321211
 20
264.646038461185
 30
0.0
 10
402.7589886900248
 20
264.6361119306004
 30
0.0
 10
402.7185579951962
 20
264.6368911155072
 30
0.0
 10
402.7080860948762
 20
264.6370929311502
 30
0.0
  0
LINE
  5
D51
102
{ACAD_REACTORS
330
D4D
102
}
330
18
100
AcDbEntity
  8
ROGO
 62
     4
100
AcDbLine
 10
401.9576322716909
 20
264.6370929311502
 30
0.0
 11
402.7080860948762
 21
264.6370929311502
 31
0.0
  0
LINE
  5
D52
102
{ACAD_REACTORS
330
D4D
102
}
330
18
100
AcDbEntity
  8
ROGO
 62
     4
100
AcDbLine
 10
402.341916233234
 20
265.95571508088
 30
0.0
 11
403.0923700564194
 21
265.95571508088
 31
0.0
  0
SPLINE
  5
D53
102
{ACAD_REACTORS
330
D4D
102
}
330
18
100
AcDbEntity
  8
ROGO
 62
     4
100
AcDbSpline
210
0.0
220
0.0
230
1.0
 70
     8
 71
     3
 72
    25
 73
    21
 74
     0
 42
0.0000000001
 43
0.0000000001
 40
0.0
 40
0.0
 40
0.0
 40
0.0
 40
0.4087168505087288
 40
0.6887487002771746
 40
0.9415836120477687
 40
1.17452070575514
 40
1.41154617586699
 40
1.599156012919487
 40
1.80099909059943
 40
2.178735911501585
 40
2.521686161369157
 40
2.762704659361267
 40
3.06256558063785
 40
3.222432137207705
 40
3.399493810628493
 40
3.567459719866414
 40
3.743172740007509
 40
3.995988754699505
 40
4.17170091132118
 40
4.337226830236035
 40
4.337226830236035
 40
4.337226830236035
 40
4.337226830236035
 10
403.0923700564194
 20
265.95571508088
 30
0.0
 10
403.141590106845
 20
265.9541336914239
 30
0.0
 10
403.2245332145635
 20
265.9514688149179
 30
0.0
 10
403.3135828731846
 20
265.8818661255423
 30
0.0
 10
403.381721093944
 20
265.8241601632274
 30
0.0
 10
403.4300864488046
 20
265.7543963568932
 30
0.0
 10
403.472480037447
 20
265.690252253216
 30
0.0
 10
403.5004141982161
 20
265.6225308385499
 30
0.0
 10
403.538410175891
 20
265.5412713430131
 30
0.0
 10
403.5541386335382
 20
265.432558210582
 30
0.0
 10
403.5435121902016
 20
265.3201931575365
 30
0.0
 10
403.515782134704
 20
265.220591873833
 30
0.0
 10
403.486695536004
 20
265.1441801086889
 30
0.0
 10
403.4524135170867
 20
265.0776589266983
 30
0.0
 10
403.4115449697826
 20
265.0345864561992
 30
0.0
 10
403.3831920142436
 20
264.9798202298517
 30
0.0
 10
403.3287296135263
 20
264.9350243969783
 30
0.0
 10
403.2845794537197
 20
264.8797526265243
 30
0.0
 10
403.23447821708
 20
264.8323122781857
 30
0.0
 10
403.2062309177761
 20
264.803042154964
 30
0.0
 10
403.1913382603823
 20
264.7907354110183
 30
0.0
  0
SPLINE
  5
D54
102
{ACAD_REACTORS
330
D4D
102
}
330
18
100
AcDbEntity
  8
ROGO
 62
     4
100
AcDbSpline
210
0.0
220
0.0
230
1.0
 70
     8
 71
     3
 72
    38
 73
    34
 74
    32
 42
0.0000000001
 43
0.0000000001
 44
0.0000000001
 40
0.0
 40
0.0
 40
0.0
 40
0.0
 40
0.1807680148264315
 40
0.2375392910068956
 40
0.3104865209606157
 40
0.3712759982447458
 40
0.422566754387306
 40
0.490692583720658
 40
0.5255021974951946
 40
0.5647069597052371
 40
0.622487401681883
 40
0.6879401044674746
 40
0.7303986317551266
 40
0.7765228362185534
 40
0.8277951442290254
 40
0.9056034697002209
 40
0.9795294930264187
 40
1.013897332332996
 40
1.053089255536027
 40
1.099518741889647
 40
1.132570569820733
 40
1.160277520290299
 40
1.19983678629386
 40
1.243305643169139
 40
1.286774258016964
 40
1.324809356515675
 40
1.411916492917645
 40
1.446284332224223
 40
1.5150200516612
 40
1.575779369908399
 40
1.69209852953623
 40
1.835624328519098
 40
2.042896467983898
 40
2.042896467983898
 40
2.042896467983898
 40
2.042896467983898
 10
402.341916233234
 20
265.95571508088
 30
0.0
 10
402.2816608356084
 20
265.9514584617791
 30
0.0
 10
402.2024818699873
 20
265.9458650259919
 30
0.0
 10
402.1019430974777
 20
265.918320399787
 30
0.0
 10
402.0471383430366
 20
265.8855058803291
 30
0.0
 10
401.9901030417194
 20
265.8613856356286
 30
0.0
 10
401.9414751353343
 20
265.8256683363793
 30
0.0
 10
401.8922890346386
 20
265.8072635561859
 30
0.0
 10
401.8578474212628
 20
265.7740764478134
 30
0.0
 10
401.8179840631297
 20
265.7538043296383
 30
0.0
 10
401.7862401632946
 20
265.708429435624
 30
0.0
 10
401.7507594867629
 20
265.6660055539656
 30
0.0
 10
401.7095974383556
 20
265.635038012388
 30
0.0
 10
401.6758151927963
 20
265.6025130334257
 30
0.0
 10
401.6448246798719
 20
265.5523172182418
 30
0.0
 10
401.6264831073009
 20
265.4856218435561
 30
0.0
 10
401.5747812928914
 20
265.443512789271
 30
0.0
 10
401.5669966184083
 20
265.3928851415949
 30
0.0
 10
401.5383987682128
 20
265.3630156814041
 30
0.0
 10
401.5259634227568
 20
265.3244584994193
 30
0.0
 10
401.5212274446329
 20
265.2891333100984
 30
0.0
 10
401.5155431415905
 20
265.2561420286702
 30
0.0
 10
401.500674081358
 20
265.2214366579324
 30
0.0
 10
401.5055273939193
 20
265.1785663789974
 30
0.0
 10
401.5041448308773
 20
265.1370536649708
 30
0.0
 10
401.5049584708505
 20
265.0810102083594
 30
0.0
 10
401.5020219315045
 20
265.0264450114399
 30
0.0
 10
401.5254396820195
 20
264.9670651352715
 30
0.0
 10
401.5392975296224
 20
264.914136190605
 30
0.0
 10
401.5772494995659
 20
264.8408496483534
 30
0.0
 10
401.6427158523838
 20
264.7562928246446
 30
0.0
 10
401.7672055984014
 20
264.6536568613517
 30
0.0
 10
401.8869061289607
 20
264.6432449206345
 30
0.0
 10
401.9576322716909
 20
264.6370929311502
 30
0.0
 11
402.341916233234
 21
265.95571508088
 31
0.0
 11
402.1624595962867
 21
265.9339805314286
 31
0.0
 11
402.1080788101586
 21
265.9176799823813
 31
0.0
 11
402.0428221231506
 21
265.8850784002317
 31
0.0
 11
401.9884413370225
 21
265.8579105764586
 31
0.0
 11
401.9449368790171
 21
265.8307425106581
 31
0.0
 11
401.8851181424491
 21
265.798141170536
 31
0.0
 11
401.8579275357634
 21
265.7764068631121
 31
0.0
 11
401.825298978638
 21
265.7546723136607
 31
0.0
 11
401.7872324710725
 21
265.7112036988128
 31
0.0
 11
401.7437280130672
 21
265.6623015676159
 31
0.0
 11
401.7110994559416
 21
265.6351335018154
 31
0.0
 11
401.6784713260592
 21
265.6025321616933
 31
0.0
 11
401.6512807193736
 21
265.5590635468454
 31
0.0
 11
401.6186525894912
 21
265.4884268661971
 31
0.0
 11
401.5751477042427
 21
265.4286574602745
 31
0.0
 11
401.564271803363
 21
265.3960558781249
 31
0.0
 11
401.5425195743604
 21
265.3634545380027
 31
0.0
 11
401.5262052957976
 21
265.3199856811274
 31
0.0
 11
401.5207669181146
 21
265.2873843410052
 31
0.0
 11
401.5153289676747
 21
265.2602162752048
 31
0.0
 11
401.5044530667949
 21
265.2221814187335
 31
0.0
 11
401.5044530667949
 21
265.1787125618582
 31
0.0
 11
401.5044530667949
 21
265.1352439470104
 31
0.0
 11
401.5044530667949
 21
265.0972088485117
 31
0.0
 11
401.5098910172349
 21
265.010271618816
 31
0.0
 11
401.5207669181146
 21
264.9776700366664
 31
0.0
 11
401.5425195743604
 21
264.9124671143947
 31
0.0
 11
401.5697097538029
 21
264.8581312248211
 31
0.0
 11
401.6404048184938
 21
264.7657604787763
 31
0.0
 11
401.7546043411901
 21
264.6788230070532
 31
0.0
 11
401.9576322716909
 21
264.6370929311502
 31
0.0
  0
HATCH
  5
D55
330
18
100
AcDbEntity
  8
ROGO
 62
     4
100
AcDbHatch
 10
0.0
 20
0.0
 30
0.0
210
0.0
220
0.0
230
1.0
  2
SOLID
 70
     1
 71
     1
 91
        1
 92
        5
 93
        8
 72
     4
 94
        3
 73
     0
 74
     0
 95
       26
 96
       22
 40
0.0
 40
0.0
 40
0.0
 40
0.0
 40
0.2382195346591896
 40
0.397689067266058
 40
0.5126795869787176
 40
0.5985392873135238
 40
0.7099038249250041
 40
0.7911890807494602
 40
0.9379713068544059
 40
1.057449928673177
 40
1.138714535893296
 40
1.218398644003487
 40
1.36093802187034
 40
1.461730374800238
 40
1.51601484410804
 40
1.593124329220486
 40
1.648806818593696
 40
1.729472362005543
 40
1.775122082164332
 40
1.874460993765135
 40
1.919820003751196
 40
1.919820003751196
 40
1.919820003751196
 40
1.919820003751196
 10
404.5287243420128
 20
265.9502378617077
 10
404.4478689512542
 20
265.9454138904425
 10
404.3128871371883
 20
265.9373606439459
 10
404.1646779264765
 20
265.8473251400875
 10
404.0560911820663
 20
265.794982454745
 10
403.978647247642
 20
265.7238270333254
 10
403.9218805297746
 20
265.6503286808041
 10
403.8503154250769
 20
265.5627559326787
 10
403.7919561271711
 20
265.4607810112141
 10
403.7622372846379
 20
265.3483868701508
 10
403.7359126159842
 20
265.258808087592
 10
403.7163898010112
 20
265.1589842246994
 10
403.7213569578242
 20
265.0511393365774
 10
403.7284701537085
 20
264.9509785255734
 10
403.7602288436326
 20
264.8794787026467
 10
403.7963963660228
 20
264.8285757557175
 10
403.8406830018774
 20
264.7725118030186
 10
403.8891422661951
 20
264.7353808286884
 10
403.9292220333057
 20
264.6681155735478
 10
403.9993803135681
 20
264.6595320418717
 10
404.0439757076439
 20
264.6424482519947
 10
404.0579551961053
 20
264.6370929311502
 72
     1
 10
404.0579551961053
 20
264.6370929311502
 11
405.18898421111
 21
264.6370929311501
 72
     1
 10
405.18898421111
 20
264.6370929311501
 11
405.4326009317887
 21
265.1256628094908
 72
     1
 10
405.4326009317887
 20
265.1256628094908
 11
404.5929199109165
 21
265.1256628094908
 72
     4
 94
        3
 73
     0
 74
     0
 95
       16
 96
       12
 40
0.0
 40
0.0
 40
0.0
 40
0.0
 40
0.0719416665231652
 40
0.1446253590759511
 40
0.1879779149910863
 40
0.229544093610429
 40
0.2751936323958108
 40
0.3070718656052417
 40
0.3373215422371831
 40
0.3986635435213285
 40
0.5242542460842448
 40
0.5242542460842448
 40
0.5242542460842448
 40
0.5242542460842448
 10
404.5929199109166
 20
265.1256628094907
 10
404.5675921722449
 20
265.1331146015793
 10
404.5166754576757
 20
265.1480950455787
 10
404.5124141398282
 20
265.2207147347159
 10
404.51821956889
 20
265.2724622056751
 10
404.5425327187673
 20
265.3101373863912
 10
404.5720287866278
 20
265.3375510374269
 10
404.5830114808794
 20
265.3732530316091
 10
404.6152941100035
 20
265.4002125039256
 10
404.6725398613946
 20
265.4455276109012
 10
404.7358437526059
 20
265.4551787161868
 10
404.7783744602274
 20
265.4616628094908
 72
     1
 10
404.7783744602274
 20
265.4616628094908
 11
405.6001413835785
 21
265.4616628094908
 72
     1
 10
405.6001413835785
 20
265.4616628094908
 11
405.8437606841192
 21
265.9502378617077
 72
     1
 10
405.8437606841192
 20
265.9502378617077
 11
404.5287243420129
 21
265.9502378617077
 97
        8
330
D5E
330
D5C
330
D5F
330
D5B
330
D5A
330
D5D
330
D59
330
D58
 75
     0
 76
     1
 47
0.0514683685270805
 98
        1
 10
404.7556417716977
 20
265.7097965585286
450
        0
451
        0
460
0.0
461
0.0
452
        0
462
0.0
453
        0
470

  0
LINE
  5
D56
102
{ACAD_REACTORS
330
CC3
102
}
330
18
100
AcDbEntity
  8
ROGO
 62
     4
100
AcDbLine
 10
406.1187878132413
 20
264.4339226389212
 30
0.0
 11
405.8517385240756
 21
263.8983590768017
 31
0.0
  0
LINE
  5
D57
102
{ACAD_REACTORS
330
D1A
330
CC3
102
}
330
18
100
AcDbEntity
  8
ROGO
 62
     4
100
AcDbLine
 10
406.1187878132413
 20
265.9502378617077
 30
0.0
 11
405.0956547815714
 21
263.8983590768017
 31
0.0
  0
LINE
  5
D58
102
{ACAD_REACTORS
330
D55
102
}
330
18
100
AcDbEntity
  8
ROGO
 62
     4
100
AcDbLine
 10
405.8437606841192
 20
265.9502378617077
 30
0.0
 11
405.6001413835786
 21
265.4616628094908
 31
0.0
  0
LINE
  5
D59
102
{ACAD_REACTORS
330
D55
102
}
330
18
100
AcDbEntity
  8
ROGO
 62
     4
100
AcDbLine
 10
404.7783744602273
 20
265.4616628094908
 30
0.0
 11
405.6001413835786
 21
265.4616628094908
 31
0.0
  0
LINE
  5
D5A
102
{ACAD_REACTORS
330
D55
102
}
330
18
100
AcDbEntity
  8
ROGO
 62
     4
100
AcDbLine
 10
404.5929199109166
 20
265.1256628094908
 30
0.0
 11
405.4326009317888
 21
265.1256628094908
 31
0.0
  0
LINE
  5
D5B
102
{ACAD_REACTORS
330
D55
102
}
330
18
100
AcDbEntity
  8
ROGO
 62
     4
100
AcDbLine
 10
405.4326009317888
 20
265.1256628094908
 30
0.0
 11
405.1889842111099
 21
264.6370929311502
 31
0.0
  0
SPLINE
  5
D5C
102
{ACAD_REACTORS
330
D55
102
}
330
18
100
AcDbEntity
  8
ROGO
 62
     4
100
AcDbSpline
210
0.0
220
0.0
230
1.0
 70
     8
 71
     3
 72
    26
 73
    22
 74
    20
 42
0.0000000001
 43
0.0000000001
 44
0.0000000001
 40
0.0
 40
0.0
 40
0.0
 40
0.0
 40
0.2382195346591896
 40
0.397689067266058
 40
0.5126795869787176
 40
0.5985392873135238
 40
0.7099038249250041
 40
0.7911890807494602
 40
0.9379713068544059
 40
1.057449928673177
 40
1.138714535893296
 40
1.218398644003487
 40
1.36093802187034
 40
1.461730374800238
 40
1.51601484410804
 40
1.593124329220486
 40
1.648806818593696
 40
1.729472362005543
 40
1.775122082164332
 40
1.874460993765135
 40
1.919820003751196
 40
1.919820003751196
 40
1.919820003751196
 40
1.919820003751196
 10
404.5287243420128
 20
265.9502378617077
 30
0.0
 10
404.4478689512542
 20
265.9454138904426
 30
0.0
 10
404.3128871371882
 20
265.9373606439459
 30
0.0
 10
404.1646779264765
 20
265.8473251400875
 30
0.0
 10
404.0560911820663
 20
265.794982454745
 30
0.0
 10
403.978647247642
 20
265.7238270333255
 30
0.0
 10
403.9218805297745
 20
265.6503286808041
 30
0.0
 10
403.8503154250769
 20
265.5627559326787
 30
0.0
 10
403.7919561271711
 20
265.4607810112141
 30
0.0
 10
403.7622372846379
 20
265.3483868701508
 30
0.0
 10
403.7359126159842
 20
265.2588080875919
 30
0.0
 10
403.7163898010111
 20
265.1589842246995
 30
0.0
 10
403.7213569578243
 20
265.0511393365773
 30
0.0
 10
403.7284701537086
 20
264.9509785255734
 30
0.0
 10
403.7602288436326
 20
264.8794787026467
 30
0.0
 10
403.7963963660226
 20
264.8285757557174
 30
0.0
 10
403.8406830018775
 20
264.7725118030186
 30
0.0
 10
403.8891422661951
 20
264.7353808286884
 30
0.0
 10
403.9292220333057
 20
264.6681155735478
 30
0.0
 10
403.9993803135682
 20
264.6595320418717
 30
0.0
 10
404.0439757076438
 20
264.6424482519946
 30
0.0
 10
404.0579551961053
 20
264.6370929311502
 30
0.0
 11
404.5287243420128
 21
265.9502378617077
 31
0.0
 11
404.293339769059
 21
265.9135956796139
 31
0.0
 11
404.150682265684
 21
265.8423259906805
 31
0.0
 11
404.0508222183982
 21
265.7853102860031
 31
0.0
 11
403.9866266494945
 21
265.7282943489793
 31
0.0
 11
403.9152981028837
 21
265.6427706757899
 31
0.0
 11
403.8653680792407
 21
265.5786279789845
 31
0.0
 11
403.7940391224765
 21
265.4503423530272
 31
0.0
 11
403.7583750542477
 21
265.336310711326
 31
0.0
 11
403.7369765312799
 21
265.2579140302646
 31
0.0
 11
403.7227105758656
 21
265.1795173492033
 31
0.0
 11
403.7227105758656
 21
265.0369779713364
 31
0.0
 11
403.7369765312799
 21
264.9372003138911
 31
0.0
 11
403.7583750542477
 21
264.8873113689953
 31
0.0
 11
403.8011721001836
 21
264.8231686721898
 31
0.0
 11
403.8368365785657
 21
264.7804067194219
 31
0.0
 11
403.8938991697623
 21
264.7233910147445
 31
0.0
 11
403.9224306704373
 21
264.6877560541046
 31
0.0
 11
404.0151581501695
 21
264.6521213258111
 31
0.0
 11
404.0579551961053
 21
264.6370929311502
 31
0.0
  0
SPLINE
  5
D5D
102
{ACAD_REACTORS
330
D55
102
}
330
18
100
AcDbEntity
  8
ROGO
 62
     4
100
AcDbSpline
210
0.0
220
0.0
230
1.0
 70
     8
 71
     3
 72
    16
 73
    12
 74
    10
 42
0.0000000001
 43
0.0000000001
 44
0.0000000001
 40
0.0
 40
0.0
 40
0.0
 40
0.0
 40
0.1255907025629163
 40
0.1869327038470616
 40
0.217182380479003
 40
0.2490606136884339
 40
0.2947101524738157
 40
0.3362763310931585
 40
0.3796288870082937
 40
0.4523125795610796
 40
0.5242542460842448
 40
0.5242542460842448
 40
0.5242542460842448
 40
0.5242542460842448
 10
404.7783744602274
 20
265.4616628094908
 30
0.0
 10
404.7358437526059
 20
265.4551787161868
 30
0.0
 10
404.6725398613946
 20
265.4455276109012
 30
0.0
 10
404.6152941100037
 20
265.4002125039256
 30
0.0
 10
404.5830114808794
 20
265.3732530316091
 30
0.0
 10
404.5720287866278
 20
265.3375510374269
 30
0.0
 10
404.5425327187673
 20
265.3101373863911
 30
0.0
 10
404.51821956889
 20
265.2724622056751
 30
0.0
 10
404.5124141398282
 20
265.2207147347159
 30
0.0
 10
404.5166754576757
 20
265.1480950455787
 30
0.0
 10
404.5675921722449
 20
265.1331146015794
 30
0.0
 10
404.5929199109166
 20
265.1256628094907
 30
0.0
 11
404.7783744602274
 21
265.4616628094908
 31
0.0
 11
404.6571158899737
 21
265.4289613766434
 31
0.0
 11
404.6071858663307
 21
265.3933266483498
 31
0.0
 11
404.5857873433629
 21
265.3719456719658
 31
0.0
 11
404.5715213879486
 21
265.3434377034539
 31
0.0
 11
404.5429898872737
 21
265.3078029751604
 31
0.0
 11
404.5215913643057
 21
265.2721680145206
 31
0.0
 11
404.5144583865987
 21
265.2294062940991
 31
0.0
 11
404.5287243420128
 21
265.1581363728193
 31
0.0
 11
404.5929199109166
 21
265.1256628094907
 31
0.0
  0
LINE
  5
D5E
102
{ACAD_REACTORS
330
D55
102
}
330
18
100
AcDbEntity
  8
ROGO
 62
     4
100
AcDbLine
 10
404.5287243420132
 20
265.9502378617077
 30
0.0
 11
405.8437606841192
 21
265.9502378617077
 31
0.0
  0
LINE
  5
D5F
102
{ACAD_REACTORS
330
D55
102
}
330
18
100
AcDbEntity
  8
ROGO
 62
     4
100
AcDbLine
 10
404.0579551961053
 20
264.6370929311502
 30
0.0
 11
405.18898421111
 21
264.6370929311502
 31
0.0
  0
LINE
  5
D60
102
{ACAD_REACTORS
330
D2F
102
}
330
18
100
AcDbEntity
  8
ROGO
 62
     4
100
AcDbLine
 10
400.2976545710854
 20
265.9502378617077
 30
0.0
 11
401.6126909131913
 21
265.9502378617077
 31
0.0
  0
LINE
  5
D61
102
{ACAD_REACTORS
330
D2F
102
}
330
18
100
AcDbEntity
  8
ROGO
 62
     4
100
AcDbLine
 10
401.2015311608609
 20
265.1256628094908
 30
0.0
 11
400.957914440182
 21
264.6370929311502
 31
0.0
  0
SPLINE
  5
D62
102
{ACAD_REACTORS
330
D2F
102
}
330
18
100
AcDbEntity
  8
ROGO
 62
     4
100
AcDbSpline
210
0.0
220
0.0
230
1.0
 70
     8
 71
     3
 72
    16
 73
    12
 74
    10
 42
0.0000000001
 43
0.0000000001
 44
0.0000000001
 40
0.0
 40
0.0
 40
0.0
 40
0.0
 40
0.1255907025629711
 40
0.1869327038470372
 40
0.2171823804790188
 40
0.2490606136884497
 40
0.2947101524738226
 40
0.3362763310931653
 40
0.3796288870083566
 40
0.452312579561098
 40
0.5242542460842631
 40
0.5242542460842631
 40
0.5242542460842631
 40
0.5242542460842631
 10
400.5473046892996
 20
265.4616628094908
 30
0.0
 10
400.5047739816782
 20
265.4551787161869
 30
0.0
 10
400.4414700904669
 20
265.4455276109014
 30
0.0
 10
400.3842243390755
 20
265.4002125039255
 30
0.0
 10
400.3519417099517
 20
265.3732530316091
 30
0.0
 10
400.3409590156998
 20
265.3375510374268
 30
0.0
 10
400.3114629478394
 20
265.3101373863913
 30
0.0
 10
400.287149797962
 20
265.2724622056751
 30
0.0
 10
400.2813443689005
 20
265.2207147347161
 30
0.0
 10
400.285605686748
 20
265.1480950455787
 30
0.0
 10
400.336522401317
 20
265.1331146015794
 30
0.0
 10
400.3618501399888
 20
265.1256628094908
 30
0.0
 11
400.5473046892996
 21
265.4616628094908
 31
0.0
 11
400.4260461190458
 21
265.4289613766434
 31
0.0
 11
400.3761160954029
 21
265.3933266483498
 31
0.0
 11
400.354717572435
 21
265.3719456719658
 31
0.0
 11
400.3404516170208
 21
265.3434377034539
 31
0.0
 11
400.3119201163458
 21
265.3078029751605
 31
0.0
 11
400.2905215933778
 21
265.2721680145206
 31
0.0
 11
400.2833886156707
 21
265.2294062940991
 31
0.0
 11
400.297654571085
 21
265.1581363728193
 31
0.0
 11
400.3618501399888
 21
265.1256628094908
 31
0.0
  0
LINE
  5
D63
102
{ACAD_REACTORS
330
D2F
102
}
330
18
100
AcDbEntity
  8
ROGO
 62
     4
100
AcDbLine
 10
400.3618501399887
 20
265.1256628094908
 30
0.0
 11
401.2015311608609
 21
265.1256628094908
 31
0.0
  0
LINE
  5
D64
102
{ACAD_REACTORS
330
D2F
102
}
330
18
100
AcDbEntity
  8
ROGO
 62
     4
100
AcDbLine
 10
400.5473046892995
 20
265.4616628094908
 30
0.0
 11
401.3690716126506
 21
265.4616628094908
 31
0.0
  0
LINE
  5
D65
102
{ACAD_REACTORS
330
D2F
102
}
330
18
100
AcDbEntity
  8
ROGO
 62
     4
100
AcDbLine
 10
401.6126909131913
 20
265.9502378617077
 30
0.0
 11
401.3690716126506
 21
265.4616628094908
 31
0.0
  0
TEXT
  5
D66
330
18
100
AcDbEntity
  8
文字
100
AcDbText
 10
398.6634240085877
 20
273.5066765654963
 30
0.0
 40
2.0
  1
0
  7
STYLE3
100
AcDbText
  0
LINE
  5
D67
330
18
100
AcDbEntity
  8
目盛
100
AcDbLine
 10
399.6451879119864
 20
279.5852712206011
 30
0.0
 11
399.6451879119864
 21
276.5852712206012
 31
0.0
  0
LINE
  5
D68
330
18
100
AcDbEntity
  8
目盛
100
AcDbLine
 10
393.9253205071947
 20
278.8626839265597
 30
0.0
 11
394.4227002815244
 21
276.9255176043024
 31
0.0
  0
LINE
  5
D69
330
18
100
AcDbEntity
  8
目盛
100
AcDbLine
 10
395.3354176765147
 20
279.177877987361
 30
0.0
 11
395.7101803056862
 21
277.2133034859036
 31
0.0
  0
LINE
  5
D6A
330
18
100
AcDbEntity
  8
目盛
100
AcDbLine
 10
396.7625235400074
 20
279.4039093508342
 30
0.0
 11
397.0131900071359
 21
277.4196799482052
 31
0.0
  0
LINE
  5
D6B
330
18
100
AcDbEntity
  8
目盛
100
AcDbLine
 10
398.2010059628122
 20
279.5398859744514
 30
0.0
 11
398.3265870018708
 21
277.5438325175949
 31
0.0
  0
LINE
  5
D6C
330
18
100
AcDbEntity
  8
目盛
100
AcDbLine
 10
401.0893698611608
 20
279.5398859744514
 30
0.0
 11
400.963788822102
 21
277.5438325175949
 31
0.0
  0
LINE
  5
D6D
330
18
100
AcDbEntity
  8
目盛
100
AcDbLine
 10
402.5278522839656
 20
279.4039093508342
 30
0.0
 11
402.2771858168369
 21
277.4196799482052
 31
0.0
  0
LINE
  5
D6E
330
18
100
AcDbEntity
  8
目盛
100
AcDbLine
 10
403.9549581474581
 20
279.177877987361
 30
0.0
 11
403.5801955182867
 21
277.2133034859036
 31
0.0
  0
LINE
  5
D6F
330
18
100
AcDbEntity
  8
目盛
100
AcDbLine
 10
405.3650553167782
 20
278.8626839265596
 30
0.0
 11
404.8676755424485
 21
276.9255176043023
 31
0.0
  0
LINE
  5
D70
330
18
100
AcDbEntity
  8
外形線
  6
Continuous
100
AcDbLine
 10
395.9451879119864
 20
297.085271220601
 30
0.0
 11
395.9451879119864
 21
290.585271220601
 31
0.0
  0
LINE
  5
D71
330
18
100
AcDbEntity
  8
外形線
  6
Continuous
100
AcDbLine
 10
403.3451879119864
 20
297.085271220601
 30
0.0
 11
403.3451879119864
 21
290.585271220601
 31
0.0
  0
LINE
  5
D72
330
18
100
AcDbEntity
  8
外形線
  6
Continuous
100
AcDbLine
 10
395.6451879119864
 20
284.585271220601
 30
0.0
 11
403.6451879119863
 21
284.585271220601
 31
0.0
  0
LINE
  5
D73
330
18
100
AcDbEntity
  8
外形線
  6
Continuous
100
AcDbLine
 10
395.6451879119865
 20
290.585271220601
 30
0.0
 11
403.6451879119863
 21
290.585271220601
 31
0.0
  0
HATCH
  5
D74
330
18
100
AcDbEntity
  8
0
  6
ByBlock
 62
     2
100
AcDbHatch
 10
0.0
 20
0.0
 30
0.0
210
0.0
220
0.0
230
1.0
  2
ANSI37
 70
     0
 71
     0
 91
        1
 92
        7
 72
     0
 73
     1
 93
        4
 10
399.6451879119864
 20
290.585271220601
 10
395.6451879119865
 20
290.585271220601
 10
395.6451879119865
 20
284.585271220601
 10
399.6451879119864
 20
284.585271220601
 97
        0
 75
     0
 76
     1
 52
0.0
 41
10.0
 77
     0
 78
     2
 53
45.0
 43
207.1721837755283
 44
135.4663329868017
 45
-0.8838834764831842
 46
0.8838834764831844
 79
     0
 53
135.0
 43
207.1721837755283
 44
135.4663329868017
 45
-0.8838834764831844
 46
-0.8838834764831842
 79
     0
 47
0.1856754751158765
 98
        1
 10
397.8983401290303
 20
288.3613172647875
  0
LINE
  5
D75
330
18
100
AcDbEntity
  8
外形線
  6
Continuous
100
AcDbLine
 10
395.6451879119865
 20
290.585271220601
 30
0.0
 11
395.6451879119865
 21
284.585271220601
 31
0.0
  0
LINE
  5
D76
330
18
100
AcDbEntity
  8
外形線
  6
Continuous
100
AcDbLine
 10
403.6451879119863
 20
290.585271220601
 30
0.0
 11
403.6451879119863
 21
284.585271220601
 31
0.0
  0
ARC
  5
D77
330
18
100
AcDbEntity
  8
外形線
  6
Continuous
100
AcDbCircle
 10
399.6451879119863
 20
290.7402712206013
 30
0.0
 40
7.344999999999885
100
AcDbArc
 50
59.75198538337817
 51
120.2480146166212
  0
LINE
  5
D78
330
18
100
AcDbEntity
  8
外形線
  6
Continuous
100
AcDbLine
 10
395.9451879119864
 20
297.085271220601
 30
0.0
 11
403.3451879119864
 21
297.085271220601
 31
0.0
  0
POINT
  5
D79
330
18
100
AcDbEntity
  8
DEFPOINTS
  6
ByBlock
 62
     0
100
AcDbPoint
 10
399.6451879119863
 20
298.0852712206012
 30
0.0
  0
LINE
  5
D7A
330
18
100
AcDbEntity
  8
目盛
100
AcDbLine
 10
415.3897713483462
 20
239.8189927899088
 30
0.0
 11
414.0206771364888
 21
241.2769300447516
 31
0.0
  0
LINE
  5
D7B
330
18
100
AcDbEntity
  8
目盛
100
AcDbLine
 10
414.3059396762062
 20
238.8634666367581
 30
0.0
 11
413.0310916967089
 21
240.4044931223096
 31
0.0
  0
LINE
  5
D7C
330
18
100
AcDbEntity
  8
目盛
100
AcDbLine
 10
413.1642487147133
 20
237.9778803499774
 30
0.0
 11
411.4008929578357
 21
240.4049313331022
 31
0.0
  0
LINE
  5
D7D
330
18
100
AcDbEntity
  8
目盛
100
AcDbLine
 10
411.9692041965032
 20
237.1657289340549
 30
0.0
 11
410.8975506065453
 21
238.8543847850589
 31
0.0
  0
LINE
  5
D7E
330
18
100
AcDbEntity
  8
目盛
100
AcDbLine
 10
410.7255224163258
 20
236.4302175795923
 30
0.0
 11
409.7620150681223
 21
238.1828309396801
 31
0.0
  0
LINE
  5
D7F
330
18
100
AcDbEntity
  8
目盛
100
AcDbLine
 10
409.438111617983
 20
235.7742490138828
 30
0.0
 11
408.5865530348528
 21
237.5839031188148
 31
0.0
  0
LINE
  5
D80
330
18
100
AcDbEntity
  8
目盛
100
AcDbLine
 10
408.112052623734
 20
235.2004120451714
 30
0.0
 11
407.3758035183646
 21
237.0599650169479
 31
0.0
  0
TEXT
  5
D81
330
18
100
AcDbEntity
  8
文字
100
AcDbText
 10
415.7367157639032
 20
261.2536814513813
 30
0.0
 40
2.0
  1
2
  7
STYLE3
100
AcDbText
  0
LINE
  5
D82
330
18
100
AcDbEntity
  8
目盛
100
AcDbLine
 10
419.8002415529952
 20
245.5049367162618
 30
0.0
 11
418.0476281929075
 21
246.4684440644652
 31
0.0
  0
LINE
  5
D83
330
18
100
AcDbEntity
  8
目盛
100
AcDbLine
 10
419.0647301985327
 20
244.2612549360843
 30
0.0
 11
417.3760743475287
 21
245.3329085260423
 31
0.0
  0
TEXT
  5
D84
330
18
100
AcDbEntity
  8
文字
100
AcDbText
 10
415.8723893907687
 20
249.7579795446154
 30
0.0
 40
2.0
  1
3
  7
STYLE3
100
AcDbText
  0
TEXT
  5
D85
330
18
100
AcDbEntity
  8
文字
100
AcDbText
 10
408.9321386431453
 20
240.6597568070697
 30
0.0
 40
2.0
  1
4
  7
STYLE3
100
AcDbText
  0
LINE
  5
D86
330
18
100
AcDbEntity
  8
目盛
100
AcDbLine
 10
418.2525787826101
 20
243.0662104178743
 30
0.0
 11
415.8255277994854
 21
244.8295661747518
 31
0.0
  0
LINE
  5
D87
330
18
100
AcDbEntity
  8
目盛
100
AcDbLine
 10
417.3669924958295
 20
241.9245194563813
 30
0.0
 11
415.8259660102778
 21
243.1993674358787
 31
0.0
  0
LINE
  5
D88
330
18
100
AcDbEntity
  8
目盛
100
AcDbLine
 10
416.4114663426787
 20
240.8406877842414
 30
0.0
 11
414.9535290878359
 21
242.2097819960987
 31
0.0
  0
LINE
  5
D89
330
18
100
AcDbEntity
  8
目盛
100
AcDbLine
 10
421.9226006179448
 20
250.8654038158095
 30
0.0
 11
419.9854342956876
 21
251.3627835901392
 31
0.0
  0
LINE
  5
D8A
330
18
100
AcDbEntity
  8
目盛
100
AcDbLine
 10
421.5194877867748
 20
249.4778803499774
 30
0.0
 11
418.6663182378893
 21
250.4049313331023
 31
0.0
  0
LINE
  5
D8B
330
18
100
AcDbEntity
  8
目盛
100
AcDbLine
 10
421.0300470874161
 20
248.1184065088536
 30
0.0
 11
419.1704941156395
 21
248.8546556142229
 31
0.0
  0
LINE
  5
D8C
330
18
100
AcDbEntity
  8
目盛
100
AcDbLine
 10
420.4562101187049
 20
246.7923475146045
 30
0.0
 11
418.6465560137726
 21
247.6439060977347
 31
0.0
  0
LINE
  5
D8D
330
18
100
AcDbEntity
  8
目盛
100
AcDbLine
 10
419.6451879119863
 20
256.5852712206011
 30
0.0
 11
422.6451879119863
 21
256.5852712206011
 31
0.0
  0
LINE
  5
D8E
330
18
100
AcDbEntity
  8
目盛
100
AcDbLine
 10
422.2377946787461
 20
260.8950414560728
 30
0.0
 11
420.2732201772888
 21
260.5202788269013
 31
0.0
  0
LINE
  5
D8F
330
18
100
AcDbEntity
  8
目盛
100
AcDbLine
 10
422.4638260422194
 20
259.4679355925802
 30
0.0
 11
420.4795966395902
 21
259.2172691254516
 31
0.0
  0
LINE
  5
D90
330
18
100
AcDbEntity
  8
目盛
100
AcDbLine
 10
422.5998026658364
 20
258.0294531697753
 30
0.0
 11
420.60374920898
 21
257.9038721307167
 31
0.0
  0
LINE
  5
D91
330
18
100
AcDbEntity
  8
目盛
100
AcDbLine
 10
422.5998026658364
 20
255.1410892714269
 30
0.0
 11
420.60374920898
 21
255.2666703104855
 31
0.0
  0
LINE
  5
D92
330
18
100
AcDbEntity
  8
目盛
100
AcDbLine
 10
422.4638260422194
 20
253.7026068486222
 30
0.0
 11
420.4795966395904
 21
253.9532733157508
 31
0.0
  0
LINE
  5
D93
330
18
100
AcDbEntity
  8
目盛
100
AcDbLine
 10
422.2377946787461
 20
252.2755009851295
 30
0.0
 11
420.2732201772888
 21
252.650263614301
 31
0.0
  0
LINE
  5
D94
330
18
100
AcDbEntity
  8
目盛
100
AcDbLine
 10
419.0647301985327
 20
268.909287505118
 30
0.0
 11
417.3760743475287
 21
267.8376339151601
 31
0.0
  0
LINE
  5
D95
330
18
100
AcDbEntity
  8
目盛
100
AcDbLine
 10
419.8002415529952
 20
267.6656057249406
 30
0.0
 11
418.0476281929075
 21
266.7020983767371
 31
0.0
  0
LINE
  5
D96
330
18
100
AcDbEntity
  8
目盛
100
AcDbLine
 10
415.3897713483462
 20
273.3515496512936
 30
0.0
 11
414.0206771364888
 21
271.8936123964507
 31
0.0
  0
LINE
  5
D97
102
{ACAD_REACTORS
330
CC3
102
}
330
18
100
AcDbEntity
  8
ROGO
 62
     4
100
AcDbLine
 10
406.385837102407
 20
263.8983590768017
 30
0.0
 11
407.141904302407
 21
263.8983590768017
 31
0.0
  0
LINE
  5
D98
102
{ACAD_REACTORS
330
CC3
102
}
330
18
100
AcDbEntity
  8
ROGO
 62
     4
100
AcDbLine
 10
407.1171793319033
 20
265.9502378617077
 30
0.0
 11
407.8732465319033
 21
265.9502378617077
 31
0.0
  0
LINE
  5
D99
102
{ACAD_REACTORS
330
CC3
102
}
330
18
100
AcDbEntity
  8
ROGO
 62
     4
100
AcDbLine
 10
406.6303377865721
 20
264.9242984692547
 30
0.0
 11
407.8732465319033
 21
265.9502378617077
 31
0.0
  0
LINE
  5
D9A
102
{ACAD_REACTORS
330
CC3
102
}
330
18
100
AcDbEntity
  8
ROGO
 62
     4
100
AcDbLine
 10
406.6303377865721
 20
264.9242984692547
 30
0.0
 11
407.141904302407
 21
263.8983590768017
 31
0.0
  0
LINE
  5
D9B
102
{ACAD_REACTORS
330
CC3
102
}
330
18
100
AcDbEntity
  8
ROGO
 62
     4
100
AcDbLine
 10
406.7631662488245
 20
265.7262144528861
 30
0.0
 11
407.1171793319033
 21
265.9502378617077
 31
0.0
  0
LINE
  5
D9C
102
{ACAD_REACTORS
330
CC3
102
}
330
18
100
AcDbEntity
  8
ROGO
 62
     4
100
AcDbLine
 10
406.8748715557455
 20
265.9502378617077
 30
0.0
 11
406.7631662488245
 21
265.7262144528861
 31
0.0
  0
TEXT
  5
D9D
330
18
100
AcDbEntity
  8
文字
100
AcDbText
 10
409.0843852177301
 20
270.3458105689123
 30
0.0
 40
2.0
  1
1
  7
STYLE3
100
AcDbText
  0
LINE
  5
D9E
330
18
100
AcDbEntity
  8
目盛
100
AcDbLine
 10
416.4114663426787
 20
272.3298546569609
 30
0.0
 11
414.9535290878359
 21
270.9607604451036
 31
0.0
  0
LINE
  5
D9F
330
18
100
AcDbEntity
  8
目盛
100
AcDbLine
 10
417.3669924958295
 20
271.246022984821
 30
0.0
 11
415.8259660102778
 21
269.9711750053236
 31
0.0
  0
LINE
  5
DA0
330
18
100
AcDbEntity
  8
目盛
100
AcDbLine
 10
418.2525787826101
 20
270.104332023328
 30
0.0
 11
415.8255277994853
 21
268.3409762664506
 31
0.0
  0
LINE
  5
DA1
330
18
100
AcDbEntity
  8
目盛
100
AcDbLine
 10
413.1642487147133
 20
275.1926620912249
 30
0.0
 11
411.4008929578359
 21
272.7656111081001
 31
0.0
  0
LINE
  5
DA2
330
18
100
AcDbEntity
  8
目盛
100
AcDbLine
 10
408.1120526237341
 20
277.9701303960309
 30
0.0
 11
407.3758035183646
 21
276.1105774242543
 31
0.0
  0
LINE
  5
DA3
330
18
100
AcDbEntity
  8
目盛
100
AcDbLine
 10
409.4381116179832
 20
277.3962934273195
 30
0.0
 11
408.586553034853
 21
275.5866393223875
 31
0.0
  0
LINE
  5
DA4
330
18
100
AcDbEntity
  8
目盛
100
AcDbLine
 10
410.7255224163259
 20
276.7403248616099
 30
0.0
 11
409.7620150681224
 21
274.9877115015222
 31
0.0
  0
LINE
  5
DA5
330
18
100
AcDbEntity
  8
目盛
100
AcDbLine
 10
411.9692041965034
 20
276.0048135071475
 30
0.0
 11
410.8975506065453
 21
274.3161576561434
 31
0.0
  0
LINE
  5
DA6
330
18
100
AcDbEntity
  8
目盛
100
AcDbLine
 10
414.3059396762062
 20
274.3070758044442
 30
0.0
 11
413.0310916967088
 21
272.7660493188927
 31
0.0
  0
LINE
  5
DA7
330
18
100
AcDbEntity
  8
目盛
100
AcDbLine
 10
420.4562101187049
 20
266.3781949265978
 30
0.0
 11
418.6465560137728
 21
265.5266363434677
 31
0.0
  0
LINE
  5
DA8
330
18
100
AcDbEntity
  8
目盛
100
AcDbLine
 10
421.0300470874161
 20
265.0521359323487
 30
0.0
 11
419.1704941156395
 21
264.3158868269793
 31
0.0
  0
LINE
  5
DA9
330
18
100
AcDbEntity
  8
目盛
100
AcDbLine
 10
421.5194877867748
 20
263.6926620912249
 30
0.0
 11
418.6663182378893
 21
262.7656111081001
 31
0.0
  0
LINE
  5
DAA
330
18
100
AcDbEntity
  8
目盛
100
AcDbLine
 10
421.9226006179449
 20
262.3051386253928
 30
0.0
 11
419.9854342956876
 21
261.807758851063
 31
0.0
  0
CIRCLE
  5
DAB
330
18
100
AcDbEntity
  8
外形線
100
AcDbCircle
 10
399.6451879119864
 20
256.5852712206011
 30
0.0
 40
26.4
  0
ARC
  5
DAD
330
18
100
AcDbEntity
  8
隠れ線2
100
AcDbCircle
 10
399.6451879119863
 20
256.5852712206011
 30
0.0
 40
25.0
100
AcDbArc
 50
309.9683366360314
 51
133.5930202380605
  0
ARC
  5
DAE
330
18
100
AcDbEntity
  8
隠れ線2
100
AcDbCircle
 10
379.6760490510431
 20
277.614410793981
 30
0.0
 40
4.0
100
AcDbArc
 50
267.1327129607464
 51
313.056087552852
  0
ARC
  5
DAF
330
18
100
AcDbEntity
  8
隠れ線2
100
AcDbCircle
 10
424.8651879119863
 20
226.8352712206012
 30
0.0
 40
14.0
100
AcDbArc
 50
130.8611280894363
 51
151.1945067749025
  0
ARC
  5
DB0
330
18
100
AcDbEntity
  8
寸法線
100
AcDbCircle
 10
371.6451879119863
 20
201.0852712206012
 30
0.0
 40
28.0
100
AcDbArc
 50
304.6313341068191
 51
48.22503770181912
  0
TEXT
  5
DE3
330
18
100
AcDbEntity
  8
文字
100
AcDbText
 10
478.3190510278027
 20
199.6224789223188
 30
0.0
 40
3.0
  1
LA-2
  7
STYLE3
100
AcDbText
  0
LINE
  5
DF7
330
18
100
AcDbEntity
  8
0
  6
ByBlock
 62
     2
100
AcDbLine
 10
371.6451879119865
 20
201.0852712206012
 30
0.0
 11
104.9419841167281
 21
115.8244884107714
 31
0.0
  0
MTEXT
  5
DF8
330
18
100
AcDbEntity
  8
0
  6
ByBlock
 62
     6
100
AcDbMText
 10
259.4351681992685
 20
167.1819885035545
 30
0.0
 40
2.5
 41
0.0
 71
     5
 72
     1
  1
\A1;R280
  7
STYLE3
 11
0.9525114421259223
 21
0.3045027957493916
 31
0.0
 73
     1
 44
1.0
  0
INSERT
  5
DF9
330
18
100
AcDbEntity
  8
0
  6
ByBlock
 62
     2
100
AcDbBlockReference
  2
_OPEN
 10
104.9419841167281
 20
115.8244884107714
 30
0.0
 41
2.5
 42
2.5
 43
2.5
 50
197.728253416815
  0
POINT
  5
DFA
330
18
100
AcDbEntity
  8
DEFPOINTS
  6
ByBlock
 62
     0
100
AcDbPoint
 10
104.9419841167281
 20
115.8244884107714
 30
0.0
  0
POINT
  5
DFB
330
18
100
AcDbEntity
  8
DEFPOINTS
  6
ByBlock
 62
     0
100
AcDbPoint
 10
371.6451879119864
 20
201.0852712206011
 30
0.0
  0
LINE
  5
E05
330
18
100
AcDbEntity
  8
0
  6
ByBlock
 62
     2
100
AcDbLine
 10
371.6451879119862
 20
201.0852712206013
 30
0.0
 11
388.5549704654161
 21
178.7680300381494
 31
0.0
  0
MTEXT
  5
E06
330
18
100
AcDbEntity
  8
0
  6
ByBlock
 62
     6
100
AcDbMText
 10
382.7668314989464
 20
189.5118283536047
 30
0.0
 40
2.5
 41
0.0
 71
     5
 72
     1
  1
\A1;R28
  7
STYLE3
 11
0.6039208054796368
 21
-0.7970443279447053
 31
0.0
 73
     1
 44
1.0
  0
INSERT
  5
E07
330
18
100
AcDbEntity
  8
0
  6
ByBlock
 62
     2
100
AcDbBlockReference
  2
_OPEN
 10
388.5549704654161
 20
178.7680300381494
 30
0.0
 41
2.5
 42
2.5
 43
2.5
 50
307.1512237819026
  0
POINT
  5
E08
330
18
100
AcDbEntity
  8
DEFPOINTS
  6
ByBlock
 62
     0
100
AcDbPoint
 10
388.5549704654161
 20
178.7680300381494
 30
0.0
  0
POINT
  5
E09
330
18
100
AcDbEntity
  8
DEFPOINTS
  6
ByBlock
 62
     0
100
AcDbPoint
 10
371.6451879119863
 20
201.0852712206012
 30
0.0
  0
LINE
  5
E0B
330
18
100
AcDbEntity
  8
外形線
100
AcDbLine
 10
99.71504133304291
 20
251.1254615037833
 30
0.0
 11
95.31715569992821
 21
223.6252411039773
 31
0.0
  0
LINE
  5
11E5
330
18
100
AcDbEntity
  8
中心線
100
AcDbLine
 10
410.2960864464644
 20
205.5275753352333
 30
0.0
 11
410.2960864464644
 21
214.8544954171176
 31
0.0
  0
LINE
  5
11E6
330
18
100
AcDbEntity
  8
中心線
100
AcDbLine
 10
407.9974840822744
 20
207.9852712206012
 30
0.0
 11
412.77841399085
 21
207.9852712206012
 31
0.0
  0
LINE
  5
11E7
330
18
100
AcDbEntity
  8
中心線
100
AcDbLine
 10
408.1989136353964
 20
212.9852712206012
 30
0.0
 11
412.5245166501469
 21
212.9852712206012
 31
0.0
  0
LINE
  5
12D5
330
18
100
AcDbEntity
  8
外形線
100
AcDbLine
 10
403.2960864464655
 20
230.438934194338
 30
0.0
 11
403.2960864464645
 21
211.5852712206011
 31
0.0
  0
LINE
  5
12D6
330
18
100
AcDbEntity
  8
外形線
100
AcDbLine
 10
395.2960864464655
 20
230.5459679188113
 30
0.0
 11
395.2960864464645
 21
211.5852712206012
 31
0.0
  0
LINE
  5
12D7
330
18
100
AcDbEntity
  8
外形線
100
AcDbLine
 10
395.2960864464646
 20
211.5852712206012
 30
0.0
 11
403.2960864464645
 21
211.5852712206012
 31
0.0
  0
LINE
  5
12D8
330
18
100
AcDbEntity
  8
外形線
100
AcDbLine
 10
396.0960864464645
 20
203.5852712206011
 30
0.0
 11
402.4960864464644
 21
203.5852712206011
 31
0.0
  0
LINE
  5
12D9
330
18
100
AcDbEntity
  8
外形線
100
AcDbLine
 10
396.0960864464647
 20
201.0852712206012
 30
0.0
 11
402.4960864464648
 21
201.0852712206011
 31
0.0
  0
LINE
  5
12DA
330
18
100
AcDbEntity
  8
外形線
100
AcDbLine
 10
401.2960864464646
 20
211.5852712206011
 30
0.0
 11
401.2960864464645
 21
203.5852712206011
 31
0.0
  0
LINE
  5
12DB
330
18
100
AcDbEntity
  8
外形線
100
AcDbLine
 10
397.2960864464647
 20
211.5852712206011
 30
0.0
 11
397.2960864464647
 21
203.5852712206011
 31
0.0
  0
LINE
  5
12DC
330
18
100
AcDbEntity
  8
外形線
100
AcDbLine
 10
394.638673619197
 20
184.5645322953565
 30
0.0
 11
400.595830087805
 21
183.8487901570675
 31
0.0
  0
LINE
  5
12DD
330
18
100
AcDbEntity
  8
外形線
100
AcDbLine
 10
402.4402408206332
 20
195.0084563280883
 30
0.0
 11
401.1519049717132
 21
184.285574684594
 31
0.0
  0
LINE
  5
12DE
330
18
100
AcDbEntity
  8
外形線
100
AcDbLine
 10
395.4902249405908
 20
195.843488822759
 30
0.0
 11
394.2018890916703
 21
185.1206071792645
 31
0.0
  0
LINE
  5
12DF
330
18
100
AcDbEntity
  8
外形線
100
AcDbLine
 10
397.7883935855944
 20
200.3011699328341
 30
0.0
 11
401.2634015256155
 21
199.8836536854988
 31
0.0
  0
LINE
  5
12E0
330
18
100
AcDbEntity
  8
外形線
100
AcDbLine
 10
395.4902249405906
 20
195.8434888227588
 30
0.0
 11
396.2348694991666
 21
195.7540210554727
 31
0.0
  0
LINE
  5
12E1
330
18
100
AcDbEntity
  8
外形線
100
AcDbLine
 10
401.2634015256155
 20
199.8836536854988
 30
0.0
 11
402.4402408206332
 21
195.0084563280883
 31
0.0
  0
LINE
  5
12E2
330
18
100
AcDbEntity
  8
外形線
100
AcDbLine
 10
397.7883935855944
 20
200.3011699328341
 30
0.0
 11
395.4902249405906
 21
195.8434888227588
 31
0.0
  0
LINE
  5
12E3
330
18
100
AcDbEntity
  8
補助線
100
AcDbLine
 10
396.0011444307345
 20
187.4224095926389
 30
0.0
 11
399.6599624610884
 21
186.9828088780268
 31
0.0
  0
LINE
  5
12E4
330
18
100
AcDbEntity
  8
補助線
100
AcDbLine
 10
396.7168865690236
 20
193.3795660612468
 30
0.0
 11
400.3757045993774
 21
192.9399653466347
 31
0.0
  0
CIRCLE
  5
12E5
330
18
100
AcDbEntity
  8
外形線
100
AcDbCircle
 10
398.6908650609345
 20
193.1423959291239
 30
0.0
 40
1.25
  0
LINE
  5
12E6
330
18
100
AcDbEntity
  8
外形線
100
AcDbLine
 10
401.6955962620573
 20
195.0979240953745
 30
0.0
 11
400.3476152349463
 21
183.8786127461629
 31
0.0
  0
LINE
  5
12E7
330
18
100
AcDbEntity
  8
外形線
100
AcDbLine
 10
396.2348694991668
 20
195.7540210554729
 30
0.0
 11
394.8868884720557
 21
184.5347097062611
 31
0.0
  0
LINE
  5
12E8
330
18
100
AcDbEntity
  8
外形線
100
AcDbLine
 10
401.6955962620573
 20
195.0979240953745
 30
0.0
 11
402.4402408206332
 21
195.0084563280882
 31
0.0
  0
ARC
  5
12E9
330
18
100
AcDbEntity
  8
外形線
100
AcDbCircle
 10
399.3857313868568
 20
198.9258020007307
 30
0.0
 40
0.375
100
AcDbArc
 50
34.95916608419317
 51
131.3385362926159
  0
LINE
  5
12EA
330
18
100
AcDbEntity
  8
外形線
100
AcDbLine
 10
399.6930666179606
 20
199.1406741853482
 30
0.0
 11
401.6955962620573
 21
195.0979240953745
 31
0.0
  0
LINE
  5
12EB
330
18
100
AcDbEntity
  8
外形線
100
AcDbLine
 10
399.1380413339436
 20
199.2073595218306
 30
0.0
 11
396.2348694991666
 21
195.7540210554727
 31
0.0
  0
LINE
  5
12EC
330
18
100
AcDbEntity
  8
外形線
100
AcDbLine
 10
401.1519049717132
 20
184.285574684594
 30
0.0
 11
400.595830087805
 21
183.8487901570675
 31
0.0
  0
LINE
  5
12ED
330
18
100
AcDbEntity
  8
外形線
100
AcDbLine
 10
394.638673619197
 20
184.5645322953565
 30
0.0
 11
394.2018890916703
 21
185.1206071792645
 31
0.0
  0
LINE
  5
12EE
330
18
100
AcDbEntity
  8
外形線
100
AcDbLine
 10
400.595830087805
 20
183.8487901570675
 30
0.0
 11
401.1519049717132
 21
184.285574684594
 31
0.0
  0
LINE
  5
12EF
330
18
100
AcDbEntity
  8
外形線
100
AcDbLine
 10
394.2018890916703
 20
185.1206071792645
 30
0.0
 11
394.9465336502464
 21
185.0311394119784
 31
0.0
  0
LINE
  5
12F0
330
18
100
AcDbEntity
  8
外形線
100
AcDbLine
 10
400.4072604131371
 20
184.3750424518802
 30
0.0
 11
401.1519049717132
 21
184.285574684594
 31
0.0
  0
ARC
  5
12F1
330
18
100
AcDbEntity
  8
外形線
100
AcDbCircle
 10
399.4662523774143
 20
199.5959821034491
 30
0.0
 40
1.5
100
AcDbArc
 50
12.6200718228941
 51
153.677630553915
  0
CIRCLE
  5
12F2
330
18
100
AcDbEntity
  8
想像線
100
AcDbCircle
 10
410.2960864464645
 20
212.9852712206012
 30
0.0
 40
1.5
  0
LINE
  5
12F3
330
18
100
AcDbEntity
  8
想像線
100
AcDbLine
 10
409.5468997557463
 20
213.7344579113194
 30
0.0
 11
411.0723990822808
 21
212.2089585847849
 31
0.0
  0
LINE
  5
12F4
330
18
100
AcDbEntity
  8
想像線
100
AcDbLine
 10
409.5573121020953
 20
212.2464968762323
 30
0.0
 11
411.0349166238966
 21
213.7241013980336
 31
0.0
  0
LINE
  5
12F5
330
18
100
AcDbEntity
  8
想像線
 48
0.5
100
AcDbLine
 10
391.2960864464644
 20
215.5852712206012
 30
0.0
 11
391.2960864464644
 21
180.5852712206012
 31
0.0
  0
LINE
  5
12F6
330
18
100
AcDbEntity
  8
想像線
 48
0.5
100
AcDbLine
 10
407.2960864464644
 20
215.5852712206012
 30
0.0
 11
407.2960864464646
 21
180.5852712206012
 31
0.0
  0
LINE
  5
12F7
330
18
100
AcDbEntity
  8
想像線
 48
0.5
100
AcDbLine
 10
413.2960864464644
 20
215.5852712206013
 30
0.0
 11
413.2960864464646
 21
205.5852712206012
 31
0.0
  0
LINE
  5
12F8
330
18
100
AcDbEntity
  8
想像線
 48
0.5
100
AcDbLine
 10
391.2960864464644
 20
215.5852712206012
 30
0.0
 11
413.2960864464644
 21
215.5852712206013
 31
0.0
  0
LINE
  5
12F9
330
18
100
AcDbEntity
  8
想像線
 48
0.5
100
AcDbLine
 10
407.2960864464645
 20
205.5852712206012
 30
0.0
 11
413.2960864464646
 21
205.5852712206012
 31
0.0
  0
LINE
  5
12FA
330
18
100
AcDbEntity
  8
想像線
 48
0.5
100
AcDbLine
 10
391.2960864464644
 20
180.5852712206012
 30
0.0
 11
407.2960864464646
 21
180.5852712206012
 31
0.0
  0
LINE
  5
1306
330
18
100
AcDbEntity
  8
外形線
100
AcDbLine
 10
398.2504603526998
 20
193.7030797024045
 30
0.0
 11
399.130611521814
 21
192.5825501773354
 31
0.0
  0
LINE
  5
1307
330
18
100
AcDbEntity
  8
外形線
100
AcDbLine
 10
398.0581215235929
 20
192.645389869327
 30
0.0
 11
399.2389753043682
 21
193.5729244076414
 31
0.0
  0
MTEXT
  5
14BC
330
18
100
AcDbEntity
  8
DEFPOINTS
  6
Continuous
100
AcDbMText
 10
1271.793794038327
 20
145.481842992852
 30
0.0
 40
1.0
 41
0.0
 71
     4
 72
     1
  1
\A1;
 73
     1
 44
1.0
  0
LINE
  5
14C2
330
18
100
AcDbEntity
  8
外形線
100
AcDbLine
 10
402.4960864464644
 20
203.5852712206011
 30
0.0
 11
402.4960864464646
 21
201.0852712206011
 31
0.0
  0
LINE
  5
14C3
330
18
100
AcDbEntity
  8
外形線
100
AcDbLine
 10
396.0960864464647
 20
203.5852712206011
 30
0.0
 11
396.0960864464647
 21
201.0852712206012
 31
0.0
  0
CIRCLE
  5
14C4
330
18
100
AcDbEntity
  8
想像線
100
AcDbCircle
 10
410.2960864464644
 20
207.9852712206011
 30
0.0
 40
1.5
  0
LINE
  5
14C5
330
18
100
AcDbEntity
  8
想像線
100
AcDbLine
 10
409.5468997557462
 20
208.7344579113194
 30
0.0
 11
411.0723990822808
 21
207.2089585847848
 31
0.0
  0
LINE
  5
14C6
330
18
100
AcDbEntity
  8
想像線
100
AcDbLine
 10
409.5573121020953
 20
207.2464968762322
 30
0.0
 11
411.0349166238966
 21
208.7241013980335
 31
0.0
  0
CIRCLE
  5
14D0
330
18
100
AcDbEntity
  8
外形線
100
AcDbCircle
 10
397.9751229226455
 20
187.1852394605159
 30
0.0
 40
1.25
  0
LINE
  5
14D1
330
18
100
AcDbEntity
  8
外形線
100
AcDbLine
 10
397.5347182144107
 20
187.7459232337965
 30
0.0
 11
398.4148693835251
 21
186.6253937087273
 31
0.0
  0
LINE
  5
14D2
330
18
100
AcDbEntity
  8
外形線
100
AcDbLine
 10
397.3423793853038
 20
186.688233400719
 30
0.0
 11
398.5232331660793
 21
187.6157679390335
 31
0.0
  0
MTEXT
  5
14D6
330
18
100
AcDbEntity
  8
DEFPOINTS
  6
Continuous
100
AcDbMText
 10
1190.213249414699
 20
301.7001761766052
 30
0.0
 40
0.4115999999999999
 41
0.0
 71
     4
 72
     1
  1
\A1;
 11
0.9659258262890682
 21
0.2588190451025207
 31
0.0
 73
     1
 44
1.0
  0
MTEXT
  5
1522
330
18
100
AcDbEntity
  8
DEFPOINTS
  6
Continuous
100
AcDbMText
 10
1313.341863364647
 20
100.0307612410874
 30
0.0
 40
0.49
 41
0.0
 71
     4
 72
     1
  1
\A1;
 11
0.9902680687415703
 21
-0.1391731009600659
 31
0.0
 73
     1
 44
1.0
  0
LINE
  5
157D
330
18
100
AcDbEntity
  8
中心線
100
AcDbLine
 10
400.1635999956975
 20
205.5099744688531
 30
0.0
 11
397.5304784758437
 21
183.0359972834736
 31
0.0
  0
LINE
  5
1584
102
{ACAD_REACTORS
330
18D5
102
}
330
18
100
AcDbEntity
  8
中心線
100
AcDbLine
 10
353.0623460420792
 20
262.0618068275045
 30
0.0
 11
323.2696350465467
 21
132.8891241540168
 31
0.0
  0
ARC
  5
1588
330
18
100
AcDbEntity
  8
隠れ線2
100
AcDbCircle
 10
391.2960864464644
 20
196.6852712206011
 30
0.0
 40
4.5
100
AcDbArc
 50
356.6432401698372
 51
334.5348270687371
  0
CIRCLE
  5
158B
330
18
100
AcDbEntity
  8
外形線
100
AcDbCircle
 10
390.3451879119863
 20
194.0852712206011
 30
0.0
 40
1.274999999999999
  0
ARC
  5
158C
330
18
100
AcDbEntity
  8
寸法線
100
AcDbCircle
 10
371.6451879119865
 20
201.0852712206012
 30
0.0
 40
19.96722314193917
100
AcDbArc
 50
332.8091261450809
 51
2.066978509883707
  0
DIMENSION
  5
159E
330
18
100
AcDbEntity
  8
外形線
100
AcDbDimension
  2
*D1
 10
534.9151571288973
 20
186.0852712206011
 30
0.0
 11
533.0401571288973
 21
201.0852712206012
 31
0.0
 70
    32
 71
     5
 42
30.0
  3
STYLE3
100
AcDbAlignedDimension
 13
516.6451879119863
 23
216.0852712206011
 33
0.0
 14
516.6451879119863
 24
186.0852712206011
 34
0.0
 50
90.0
100
AcDbRotatedDimension
1001
ACAD
1000
DSTYLE
1002
{
1070
   271
1070
     2
1002
}
  0
DIMENSION
  5
15AB
330
18
100
AcDbEntity
  8
外形線
100
AcDbDimension
  2
*D2
 10
421.6451879119863
 20
102.7091942256045
 30
0.0
 11
471.6451879119863
 21
104.5841942256045
 31
0.0
 12
17.26131643219946
 22
6.528920589638346
 32
0.0
 70
    32
 71
     5
 42
-1.0
  3
STYLE3
100
AcDbAlignedDimension
 13
521.6451879119863
 23
186.9008457552123
 33
0.0
 14
421.6451879119863
 24
186.9008457552123
 34
0.0
100
AcDbRotatedDimension
1001
ACAD
1000
DSTYLE
1002
{
1070
   271
1070
     2
1002
}
  0
LINE
  5
15C5
330
18
100
AcDbEntity
  8
0
  6
ByBlock
 62
     2
100
AcDbLine
 10
419.1451879119862
 20
102.7091942256045
 30
0.0
 11
374.1451879119862
 21
102.7091942256045
 31
0.0
  0
INSERT
  5
15C6
330
18
100
AcDbEntity
  8
0
  6
ByBlock
 62
     2
100
AcDbBlockReference
  2
_OPEN
 10
421.6451879119863
 20
102.7091942256045
 30
0.0
 41
2.5
 42
2.5
 43
2.5
  0
INSERT
  5
15C7
330
18
100
AcDbEntity
  8
0
  6
ByBlock
 62
     2
100
AcDbBlockReference
  2
_OPEN
 10
371.6451879119862
 20
102.7091942256045
 30
0.0
 41
2.5
 42
2.5
 43
2.5
 50
180.0
  0
MTEXT
  5
15C8
330
18
100
AcDbEntity
  8
0
  6
ByBlock
 62
     6
100
AcDbMText
 10
396.6451879119862
 20
104.5841942256045
 30
0.0
 40
2.5
 41
0.0
 71
     5
 72
     1
  1
\A1;50
  7
STYLE3
 73
     1
 44
1.0
  0
POINT
  5
15C9
330
18
100
AcDbEntity
  8
DEFPOINTS
  6
ByBlock
 62
     0
100
AcDbPoint
 10
421.6451879119863
 20
187.3852712206011
 30
0.0
  0
LINE
  5
15D8
330
18
100
AcDbEntity
  8
外形線
100
AcDbLine
 10
396.4655689025961
 20
197.7353309922661
 30
0.0
 11
385.4464823691939
 21
211.0112105366282
 31
0.0
  0
LINE
  5
15D9
330
18
100
AcDbEntity
  8
隠れ線2
100
AcDbLine
 10
394.3641073700397
 20
186.4707577636967
 30
0.0
 11
371.6451879119863
 21
184.0852712206011
 31
0.0
  0
LINE
  5
15DA
330
18
100
AcDbEntity
  8
隠れ線2
100
AcDbLine
 10
396.4655689025961
 20
197.7353309922661
 30
0.0
 11
397.0081001065001
 21
197.0816852576353
 31
0.0
  0
LINE
  5
15DB
330
18
100
AcDbEntity
  8
隠れ線2
100
AcDbLine
 10
394.3641073700397
 20
186.4707577636967
 30
0.0
 11
401.504531493418
 21
187.2205022966514
 31
0.0
  0
LINE
  5
15DD
330
18
100
AcDbEntity
  8
想像線
100
AcDbLine
 10
100.1791599610366
 20
322.62823433146
 30
0.0
 11
88.03606131662826
 21
160.470060978537
 31
0.0
  0
LINE
  5
15DF
330
18
100
AcDbEntity
  8
想像線
100
AcDbLine
 10
339.5090582107993
 20
304.7061863525527
 30
0.0
 11
325.0928044817069
 21
112.1924433814901
 31
0.0
  0
LINE
  5
160B
330
18
100
AcDbEntity
  8
0
  6
ByBlock
 62
     2
100
AcDbLine
 10
336.7903012379037
 20
301.8783940294562
 30
0.0
 11
102.4464425350112
 21
319.427066008803
 31
0.0
  0
INSERT
  5
160C
330
18
100
AcDbEntity
  8
0
  6
ByBlock
 62
     2
100
AcDbBlockReference
  2
_OPEN
 10
339.2833210113388
 20
301.6917060296759
 30
0.0
 41
2.5
 42
2.5
 43
2.5
 50
355.7174397028517
  0
INSERT
  5
160D
330
18
100
AcDbEntity
  8
0
  6
ByBlock
 62
     2
100
AcDbBlockReference
  2
_OPEN
 10
99.95342276157613
 20
319.6137540085832
 30
0.0
 41
2.5
 42
2.5
 43
2.5
 50
175.7174397028517
  0
MTEXT
  5
160E
330
18
100
AcDbEntity
  8
0
  6
ByBlock
 62
     6
100
AcDbMText
 10
223.7741934636317
 20
312.6110910387128
 30
0.0
 40
2.5
 41
0.0
 71
     5
 72
     1
  1
\A1;240
  7
STYLE3
 11
0.9972079093740109
 21
-0.0746751999121139
 31
0.0
 73
     1
 44
1.0
  0
POINT
  5
1610
330
18
100
AcDbEntity
  8
DEFPOINTS
  6
ByBlock
 62
     0
100
AcDbPoint
 10
97.10234320679086
 20
281.5406174701811
 30
0.0
 50
94.28256029714832
  0
POINT
  5
1611
330
18
100
AcDbEntity
  8
DEFPOINTS
  6
ByBlock
 62
     0
100
AcDbPoint
 10
99.98453742820618
 20
320.0292573041557
 30
0.0
 50
94.28256029714832
  0
LINE
  5
1614
330
18
100
AcDbEntity
  8
想像線
 48
0.5
100
AcDbLine
 10
213.2881566262719
 20
264.3788025433574
 30
0.0
 11
213.2881566262719
 21
284.3603034501811
 31
0.0
  0
LINE
  5
1615
330
18
100
AcDbEntity
  8
想像線
 48
0.5
100
AcDbLine
 10
216.2881566262718
 20
264.3180880439991
 30
0.0
 11
216.2881566262718
 21
284.4708101987702
 31
0.0
  0
LINE
  5
162E
330
18
100
AcDbEntity
  8
隠れ線2
100
AcDbLine
 10
94.16979742065723
 20
228.9882592956812
 30
0.0
 11
93.59259981002537
 21
221.2803988109242
 31
0.0
  0
LINE
  5
162F
330
18
100
AcDbEntity
  8
隠れ線2
100
AcDbLine
 10
92.17538160190924
 20
229.1376096955054
 30
0.0
 11
91.58616698047813
 21
221.2692748065276
 31
0.0
  0
LINE
  5
1632
330
18
100
AcDbEntity
  8
隠れ線
 62
     4
100
AcDbLine
 10
94.16979742065723
 20
228.9882592956812
 30
0.0
 11
92.17538160190924
 21
229.1376096955054
 31
0.0
  0
LINE
  5
1633
330
18
100
AcDbEntity
  8
隠れ線2
100
AcDbLine
 10
93.97035583878244
 20
229.0031943356636
 30
0.0
 11
93.38659602443181
 21
221.2077025963674
 31
0.0
  0
LINE
  5
1634
330
18
100
AcDbEntity
  8
隠れ線2
100
AcDbLine
 10
92.37482318378402
 20
229.122674655523
 30
0.0
 11
91.78170662463367
 21
221.2022335363625
 31
0.0
  0
LINE
  5
1637
330
18
100
AcDbEntity
  8
隠れ線2
100
AcDbLine
 10
92.1753816019093
 20
229.1376096955054
 30
0.0
 11
94.16979742065734
 21
228.9882592956811
 31
0.0
  0
LINE
  5
163B
330
18
100
AcDbEntity
  8
隠れ線2
100
AcDbLine
 10
91.18001998519025
 20
213.1673481055388
 30
0.0
 11
91.77070828768377
 21
221.0553624384694
 31
0.0
  0
LINE
  5
163E
330
18
100
AcDbEntity
  8
隠れ線2
100
AcDbLine
 10
92.97499422206341
 20
213.032932745697
 30
0.0
 11
93.55038947770594
 21
220.7167246956122
 31
0.0
  0
LINE
  5
163F
330
18
100
AcDbEntity
  8
隠れ線2
100
AcDbLine
 10
92.77555264018861
 20
213.0478677856794
 30
0.0
 11
93.35742653923745
 21
220.8181751309922
 31
0.0
  0
LINE
  5
1640
330
18
100
AcDbEntity
  8
隠れ線2
100
AcDbLine
 10
90.98057840331547
 20
213.1822831455212
 30
0.0
 11
91.5672936466275
 21
221.0172414967496
 31
0.0
  0
LINE
  5
1643
330
18
100
AcDbEntity
  8
隠れ線2
100
AcDbLine
 10
90.98057840331547
 20
213.1822831455212
 30
0.0
 11
92.97499422206351
 21
213.0329327456971
 31
0.0
  0
CIRCLE
  5
1646
102
{ACAD_REACTORS
330
18D4
330
18D5
102
}
330
18
100
AcDbEntity
  8
外形線
100
AcDbCircle
 10
352.1451879119863
 20
258.0852712206012
 30
0.0
 40
1.85
  0
LINE
  5
1647
102
{ACAD_REACTORS
330
18D4
330
18D5
102
}
330
18
100
AcDbEntity
  8
外形線
100
AcDbLine
 10
353.8621385432571
 20
253.7381939806871
 30
0.0
 11
327.5926539754576
 21
139.8412144617277
 31
0.0
  0
LINE
  5
1648
102
{ACAD_REACTORS
330
18D4
330
18D5
102
}
330
18
100
AcDbEntity
  8
外形線
100
AcDbLine
 10
348.6977218485149
 20
254.9293279794745
 30
0.0
 11
322.4282372807155
 21
141.0323484605151
 31
0.0
  0
CIRCLE
  5
1649
102
{ACAD_REACTORS
330
18D4
330
18D5
102
}
330
18
100
AcDbEntity
  8
外形線
100
AcDbCircle
 10
324.1451879119864
 20
136.6852712206011
 30
0.0
 40
1.85
  0
LINE
  5
164B
102
{ACAD_REACTORS
330
18D4
330
18D5
102
}
330
18
100
AcDbEntity
  8
外形線
100
AcDbLine
 10
322.4282372807155
 20
141.0323484605151
 30
0.0
 11
327.5926539754576
 21
139.8412144617277
 31
0.0
  0
LINE
  5
164D
102
{ACAD_REACTORS
330
18D4
330
18D5
102
}
330
18
100
AcDbEntity
  8
外形線
100
AcDbLine
 10
348.6977218485149
 20
254.9293279794745
 30
0.0
 11
353.8621385432571
 21
253.7381939806871
 31
0.0
  0
ARC
  5
164E
102
{ACAD_REACTORS
330
18D4
330
18D5
102
}
330
18
100
AcDbEntity
  8
隠れ線
 62
     4
 48
0.5
100
AcDbCircle
 10
326.6151879119864
 20
227.0852712206012
 30
0.0
 40
35.0
100
AcDbArc
 50
41.03776117464684
 51
51.16353913007523
  0
ARC
  5
1651
330
18
100
AcDbEntity
  8
外形線
100
AcDbCircle
 10
326.6151879119864
 20
227.0852712206012
 30
0.0
 40
35.0
100
AcDbArc
 50
51.16353913007526
 51
90.0
  0
ARC
  5
1653
330
18
100
AcDbEntity
  8
隠れ線
 62
     4
 48
0.5
100
AcDbCircle
 10
325.1451879119862
 20
181.5852712206011
 30
0.0
 40
33.5
100
AcDbArc
 50
268.1419494565099
 51
277.575399109749
  0
ARC
  5
1655
330
18
100
AcDbEntity
  8
外形線
100
AcDbCircle
 10
325.1451879119863
 20
181.5852712206011
 30
0.0
 40
33.5
100
AcDbArc
 50
277.5753991097488
 51
20.50079930570355
  0
LINE
  5
1658
330
18
100
AcDbEntity
  8
中心線
100
AcDbLine
 10
353.8361462331994
 20
254.960361160438
 30
0.0
 11
327.0873199049128
 21
138.9850927227951
 31
0.0
  0
LINE
  5
1659
330
18
100
AcDbEntity
  8
中心線
100
AcDbLine
 10
349.2563804850318
 20
256.016649800872
 30
0.0
 11
322.5075541567452
 21
140.041381363229
 31
0.0
  0
LINE
  5
165C
102
{ACAD_REACTORS
330
18D4
330
18D5
102
}
330
18
100
AcDbEntity
  8
中心線
 48
0.2
100
AcDbLine
 10
348.1686523050829
 20
259.0024293506941
 30
0.0
 11
356.1217235188897
 21
257.1681130905083
 31
0.0
  0
POINT
  5
167D
330
18
100
AcDbEntity
  8
DEFPOINTS
  6
ByBlock
 62
     0
100
AcDbPoint
 10
94.42197698479811
 20
219.9209694460821
 30
0.0
  0
POINT
  5
167E
330
18
100
AcDbEntity
  8
DEFPOINTS
  6
ByBlock
 62
     0
100
AcDbPoint
 10
92.17518791198632
 20
218.3352712206012
 30
0.0
  0
CIRCLE
  5
171B
330
18
100
AcDbEntity
  8
外形線
100
AcDbCircle
 10
371.6451879119865
 20
201.0852712206012
 30
0.0
 40
9.5
  0
LINE
  5
1725
330
18
100
AcDbEntity
  8
想像線
 48
0.5
100
AcDbLine
 10
279.0218834489348
 20
129.0520075779845
 30
0.0
 11
279.0218834489348
 21
152.9936349181705
 31
0.0
  0
LINE
  5
1726
330
18
100
AcDbEntity
  8
想像線
 48
0.5
100
AcDbLine
 10
276.0218834489348
 20
129.5801720069078
 30
0.0
 11
276.0218834489348
 21
153.3261067738203
 31
0.0
  0
ARC
  5
1748
330
18
100
AcDbEntity
  8
寸法線
100
AcDbCircle
 10
98.78250464585441
 20
138.620290770348
 30
0.0
 40
2.75
100
AcDbArc
 50
11.99441243852389
 51
192.3123638879232
  0
CIRCLE
  5
177D
102
{ACAD_REACTORS
330
18D4
330
18D5
102
}
330
18
100
AcDbEntity
  8
外形線
100
AcDbCircle
 10
352.1451879119863
 20
258.0852712206012
 30
0.0
 40
2.5
  0
CIRCLE
  5
177E
102
{ACAD_REACTORS
330
18D4
330
18D5
102
}
330
18
100
AcDbEntity
  8
外形線
100
AcDbCircle
 10
324.1451879119863
 20
136.6852712206011
 30
0.0
 40
2.5
  0
LINE
  5
17A4
330
18
100
AcDbEntity
  8
隠れ線2
100
AcDbLine
 10
421.6451879119863
 20
212.8352712206012
 30
0.0
 11
510.1451879119863
 21
212.8352712206011
 31
0.0
  0
LINE
  5
17A5
330
18
100
AcDbEntity
  8
隠れ線2
100
AcDbLine
 10
421.6451879119863
 20
189.3352712206011
 30
0.0
 11
510.1451879119863
 21
189.3352712206011
 31
0.0
  0
LINE
  5
17A6
330
18
100
AcDbEntity
  8
隠れ線2
100
AcDbLine
 10
511.6451879119863
 20
211.3352712206011
 30
0.0
 11
511.6451879119863
 21
190.8352712206011
 31
0.0
  0
ARC
  5
17A7
330
18
100
AcDbEntity
  8
隠れ線2
100
AcDbCircle
 10
510.1451879119863
 20
211.3352712206011
 30
0.0
 40
1.5
100
AcDbArc
 50
0.0
 51
90.0
  0
ARC
  5
17A8
330
18
100
AcDbEntity
  8
隠れ線2
100
AcDbCircle
 10
510.1451879119863
 20
190.8352712206011
 30
0.0
 40
1.5
100
AcDbArc
 50
270.0
 51
0.0
  0
LINE
  5
17F8
330
18
100
AcDbEntity
  8
外形線
100
AcDbLine
 10
402.6449089542781
 20
187.5204302491164
 30
0.0
 11
402.6449089542781
 21
197.0816852576353
 31
0.0
  0
LINE
  5
1813
330
18
100
AcDbEntity
  8
外形線
100
AcDbLine
 10
402.6449089542781
 20
197.0816852576353
 30
0.0
 11
401.939777538229
 21
197.0816852576353
 31
0.0
  0
LINE
  5
1814
330
18
100
AcDbEntity
  8
隠れ線2
100
AcDbLine
 10
401.939777538229
 20
197.0816852576353
 30
0.0
 11
397.0081001065001
 21
197.0816852576353
 31
0.0
  0
LINE
  5
181A
102
{ACAD_REACTORS
330
18D4
330
18D5
102
}
330
18
100
AcDbEntity
  8
中心線
 48
0.2
100
AcDbLine
 10
320.168652305083
 20
137.602429350694
 30
0.0
 11
328.1217235188897
 21
135.7681130905082
 31
0.0
  0
DIMENSION
  5
1830
330
18
100
AcDbEntity
  8
寸法線
100
AcDbDimension
  2
*D4
 10
216.2881566262718
 20
293.9955655902695
 30
0.0
 11
214.7881566262719
 21
295.8705655902695
 31
0.0
 70
    32
 71
     5
 42
2.999999999999943
  3
STYLE3
100
AcDbAlignedDimension
 13
213.2881566262719
 23
284.360303450181
 33
0.0
 14
216.2881566262718
 24
284.4708101987702
 34
0.0
100
AcDbRotatedDimension
1001
ACAD
1000
DSTYLE
1002
{
1070
   271
1070
     2
1070
   341
1005
0
1002
}
  0
DIMENSION
  5
183F
330
18
100
AcDbEntity
  8
寸法線
100
AcDbDimension
  2
*D5
 10
279.0218834489348
 20
117.2274894295466
 30
0.0
 11
277.5218834489348
 21
119.1024894295466
 31
0.0
 70
    32
 71
     5
 42
2.999999999999943
  3
STYLE3
100
AcDbAlignedDimension
 13
276.0218834489348
 23
129.5801720069078
 33
0.0
 14
279.0218834489348
 24
129.0520075779845
 34
0.0
100
AcDbRotatedDimension
1001
ACAD
1000
DSTYLE
1002
{
1070
   271
1070
     2
1070
   341
1005
0
1002
}
  0
TEXT
  5
1927
330
18
100
AcDbEntity
  8
文字
100
AcDbText
 10
220.9697747507192
 20
372.8854477624151
 30
0.0
 40
4.0
  1
Model No.LA-2 Outside Dial Caliper Gauge
  7
STYLE3
100
AcDbText
  0
LINE
  5
1928
330
18
100
AcDbEntity
  8
外形線
100
AcDbLine
 10
219.6668247507193
 20
368.9620177624151
 30
0.0
 11
346.6668247507192
 21
368.9620177624151
 31
0.0
  0
LINE
  5
1929
330
18
100
AcDbEntity
  8
外形線
100
AcDbLine
 10
219.6668247507193
 20
369.9620177624151
 30
0.0
 11
346.6668247507192
 21
369.9620177624151
 31
0.0
  0
TEXT
  5
192A
330
18
100
AcDbEntity
  8
0
  6
Continuous
100
AcDbText
 10
520.1567911578837
 20
26.65332159443071
 30
0.0
 40
2.1
  1
OZAKI MFG. CO., LTD.
  7
STYLE3
100
AcDbText
  0
TEXT
  5
192B
330
18
100
AcDbEntity
  8
0
  6
Continuous
100
AcDbText
 10
519.2823121578838
 20
30.44096059443071
 30
0.0
 40
3.0
  1
株式会社　尾崎製作所
  7
STYLE3
100
AcDbText
  0
TEXT
  5
192C
330
18
100
AcDbEntity
  8
0
  6
Continuous
100
AcDbText
 10
498.8777571578837
 20
28.40146359443071
 30
0.0
 40
2.1
  1
2010.06.24
  7
STYLE3
100
AcDbText
  0
TEXT
  5
192D
330
18
100
AcDbEntity
  8
0
  6
Continuous
100
AcDbText
 10
489.7495891578837
 20
29.98640559443071
 30
0.0
 40
3.0
  1
日 付
  7
STYLE3
100
AcDbText
  0
TEXT
  5
192E
330
18
100
AcDbEntity
  8
0
  6
Continuous
100
AcDbText
 10
490.1329501578837
 20
26.65332259443071
 30
0.0
 40
2.1
  1
Date
  7
STYLE3
100
AcDbText
  0
TEXT
  5
192F
330
18
100
AcDbEntity
  8
0
  6
Continuous
100
AcDbText
 10
480.0391781578837
 20
28.6928215944307
 30
0.0
 40
2.399999999999999
  1
1/1
  7
STYLE3
100
AcDbText
  0
TEXT
  5
1930
330
18
100
AcDbEntity
  8
0
  6
Continuous
100
AcDbText
 10
470.4198901578837
 20
26.94467859443071
 30
0.0
 40
2.1
  1
Scale
  7
STYLE3
100
AcDbText
  0
TEXT
  5
1931
330
18
100
AcDbEntity
  8
0
  6
Continuous
100
AcDbText
 10
460.6808261578838
 20
28.40146459443071
 30
0.0
 40
2.399999999999999
  1
mm
  7
STYLE3
100
AcDbText
  0
TEXT
  5
1932
330
18
100
AcDbEntity
  8
0
  6
Continuous
100
AcDbText
 10
469.9566741578837
 20
29.86420059443071
 30
0.0
 40
3.0
  1
尺 度
  7
STYLE3
100
AcDbText
  0
TEXT
  5
1933
330
18
100
AcDbEntity
  8
0
  6
Continuous
100
AcDbText
 10
452.8105001578837
 20
26.65332159443071
 30
0.0
 40
2.1
  1
Unit
  7
STYLE3
100
AcDbText
  0
TEXT
  5
1934
330
18
100
AcDbEntity
  8
0
  6
Continuous
100
AcDbText
 10
452.6387791578837
 20
30.1555585944307
 30
0.0
 40
3.0
  1
単位
  7
STYLE3
100
AcDbText
  0
LINE
  5
1935
330
18
100
AcDbEntity
  8
外形線
100
AcDbLine
 10
451.1813091578837
 20
34.51995859443071
 30
0.0
 11
451.1813091578837
 21
24.90518059443071
 31
0.0
  0
LINE
  5
1936
330
18
100
AcDbEntity
  8
外形線
100
AcDbLine
 10
468.6709271578838
 20
34.51995859443071
 30
0.0
 11
468.6709271578838
 21
24.90518059443071
 31
0.0
  0
LINE
  5
1937
330
18
100
AcDbEntity
  8
外形線
100
AcDbLine
 10
488.2009991578837
 20
34.51995859443071
 30
0.0
 11
488.2009991578837
 21
24.90518059443071
 31
0.0
  0
LINE
  5
1938
330
18
100
AcDbEntity
  8
外形線
100
AcDbLine
 10
517.9333481578837
 20
34.51995859443071
 30
0.0
 11
517.9333481578837
 21
24.90518059443071
 31
0.0
  0
LINE
  5
1939
330
18
100
AcDbEntity
  8
外形線
100
AcDbLine
 10
415.9105821578838
 20
24.90518059443071
 30
0.0
 11
415.9105821578838
 21
45.3001645944307
 31
0.0
  0
TEXT
  5
193A
330
18
100
AcDbEntity
  8
0
  6
Continuous
100
AcDbText
 10
419.7000001578837
 20
30.14960359443071
 30
0.0
 40
3.0
  1
三　　角　　法
  7
STYLE3
100
AcDbText
  0
TEXT
  5
193B
330
18
100
AcDbEntity
  8
0
  6
Continuous
100
AcDbText
 10
417.0765581578836
 20
26.65332059443071
 30
0.0
 40
2.1
  1
3RD Angle Projection
  7
STYLE3
100
AcDbText
  0
TEXT
  5
193C
330
18
100
AcDbEntity
  8
0
  6
Continuous
100
AcDbText
 10
417.6595431578837
 20
40.34709659443071
 30
0.0
 40
3.5
  1
仕様及び外観は予告なく変更される場合がございますのでご了承下さい。
  7
STYLE3
100
AcDbText
  0
TEXT
  5
193D
330
18
100
AcDbEntity
  8
0
  6
Continuous
100
AcDbText
 10
417.3680491578838
 20
36.4179485944307
 30
0.0
 40
2.1
  1
Design and specifications are subject to change without notice for future improvement.
  7
STYLE3
100
AcDbText
  0
LINE
  5
193E
330
18
100
AcDbEntity
  8
外形線
100
AcDbLine
 10
415.9105821578838
 20
34.51995859443071
 30
0.0
 11
556.7019991578837
 21
34.51995859443071
 31
0.0
  0
LINE
  5
193F
330
18
100
AcDbEntity
  8
外形線
100
AcDbLine
 10
415.9105821578838
 20
45.3001645944307
 30
0.0
 11
556.7019991578837
 21
45.3001645944307
 31
0.0
  0
ENDSEC
  0
SECTION
  2
OBJECTS
  0
DICTIONARY
  5
C
330
0
100
AcDbDictionary
281
     1
  3
ACAD_COLOR
350
17BF
  3
ACAD_GROUP
350
D
  3
ACAD_IMAGE_DICT
350
AFC
  3
ACAD_LAYOUT
350
17C2
  3
ACAD_MATERIAL
350
17BE
  3
ACAD_MLINESTYLE
350
1B
  3
ACAD_PLOTSETTINGS
350
17C3
  3
ACAD_PLOTSTYLENAME
350
17BC
  3
ACAD_TABLESTYLE
350
17C0
  3
AcDbVariableDictionary
350
17F4
  0
DICTIONARY
  5
17F0
330
18
100
AcDbDictionary
280
     1
281
     1
  3
ACAD_SORTENTS
360
17F1
  0
DICTIONARY
  5
17BF
102
{ACAD_REACTORS
330
C
102
}
330
C
100
AcDbDictionary
281
     1
  0
DICTIONARY
  5
D
102
{ACAD_REACTORS
330
C
102
}
330
C
100
AcDbDictionary
281
     1
  3
*A1
350
18D4
  3
*A2
350
18D5
  0
DICTIONARY
  5
AFC
102
{ACAD_REACTORS
330
C
102
}
330
C
100
AcDbDictionary
281
     1
  3
ROGO01
350
AFD
  0
DICTIONARY
  5
17C2
102
{ACAD_REACTORS
330
C
102
}
330
C
100
AcDbDictionary
281
     1
  3
Model
350
17C4
  3
レイアウト1
350
17C5
  0
DICTIONARY
  5
17BE
102
{ACAD_REACTORS
330
C
102
}
330
C
100
AcDbDictionary
281
     1
  0
DICTIONARY
  5
1B
102
{ACAD_REACTORS
330
C
102
}
330
C
100
AcDbDictionary
281
     1
  3
STANDARD
350
1C
  0
DICTIONARY
  5
17C3
102
{ACAD_REACTORS
330
C
102
}
330
C
100
AcDbDictionary
281
     1
  0
ACDBDICTIONARYWDFLT
  5
17BC
102
{ACAD_REACTORS
330
C
102
}
330
C
100
AcDbDictionary
281
     1
  3
Normal
350
17BD
100
AcDbDictionaryWithDefault
340
17BD
  0
DICTIONARY
  5
17C0
102
{ACAD_REACTORS
330
C
102
}
330
C
100
AcDbDictionary
281
     1
  3
Standard
350
17C1
  0
DICTIONARY
  5
17F4
102
{ACAD_REACTORS
330
C
102
}
330
C
100
AcDbDictionary
281
     1
  3
CTABLESTYLE
350
17F5
  0
SORTENTSTABLE
  5
17F1
102
{ACAD_REACTORS
330
17F0
102
}
330
17F0
100
AcDbSortentsTable
330
18
331
D74
  5
D74
331
164E
  5
1651
331
CFE
  5
CFE
331
D3D
  5
D3D
331
12F9
  5
12FA
331
15C7
  5
15C8
331
D7C
  5
D7C
331
D06
  5
D06
331
D45
  5
D45
331
DCB
  5
DCC
331
D4D
  5
D4D
331
D0E
  5
D0E
331
D84
  5
D84
331
1588
  5
158B
331
D16
  5
D16
331
D8C
  5
D8C
331
15DF
  5
160B
331
B40
  5
B40
331
313
  5
313
331
1C6
  5
1C6
331
187
  5
187
331
2DC
  5
2DC
331
B01
  5
B01
331
B09
  5
B09
331
18F
  5
18F
331
2E4
  5
2E4
331
31B
  5
31B
331
3D2
  5
3D2
331
B48
  5
B48
331
402
  5
402
331
23D
  5
23D
331
197
  5
197
331
1FE
  5
1FE
331
2EC
  5
2EC
331
323
  5
323
331
B11
  5
B11
331
177D
  5
17A5
331
17A5
  5
17A8
331
B19
  5
B19
331
19F
  5
19F
331
2F4
  5
2F4
331
32B
  5
32B
331
167E
  5
167F
331
12DA
  5
12DB
331
D1E
  5
D1E
331
1814
  5
181D
331
162F
  5
1632
331
CDF
  5
CDF
331
D55
  5
D55
331
D94
  5
D94
331
D9C
  5
D9C
331
1637
  5
163B
331
CE7
  5
CE7
331
D26
  5
D26
331
D5D
  5
D5D
331
DE3
  5
DF7
331
12E2
  5
12E3
331
12EA
  5
12EB
331
D65
  5
D65
331
CEF
  5
CEF
331
D2E
  5
D2E
331
DA4
  5
DA4
331
DFB
  5
E05
331
D6D
  5
D6D
331
CF7
  5
CF7
331
D36
  5
D36
331
12F2
  5
12F3
331
14D1
  5
14D2
331
333
  5
333
331
24D
  5
24D
331
1A7
  5
1A7
331
2FC
  5
2FC
331
B21
  5
B21
331
1AF
  5
1AF
331
304
  5
304
331
B29
  5
B29
331
CC8
  5
CC8
331
1B7
  5
1B7
331
30C
  5
30C
331
B31
  5
B31
331
CD0
  5
CD0
331
163F
  5
1640
331
1726
  5
1728
331
1BF
  5
1BF
331
B39
  5
B39
331
1647
  5
1648
331
D3E
  5
D3E
331
CFF
  5
CFF
331
D75
  5
D75
331
12FA
  5
1306
331
DCC
  5
DCD
331
D07
  5
D07
331
D46
  5
D46
331
D7D
  5
D7D
331
E0B
  5
11E5
331
15C8
  5
15C9
331
15D8
  5
15D9
331
D85
  5
D85
331
D0F
  5
D0F
331
D4E
  5
D4E
331
DD4
  5
DD5
331
D8D
  5
D8D
331
D17
  5
D17
331
B02
  5
B02
331
226
  5
226
331
188
  5
188
331
1C7
  5
1C7
331
2DD
  5
2DD
331
314
  5
314
331
B41
  5
B41
331
B49
  5
B49
331
31C
  5
31C
331
190
  5
190
331
2E5
  5
2E5
331
3D3
  5
3D3
331
B0A
  5
B0A
331
177E
  5
17A6
331
324
  5
324
331
198
  5
198
331
2ED
  5
2ED
331
403
  5
403
331
B12
  5
B12
331
1610
  5
1611
331
17A6
  5
17EF
331
B1A
  5
B1A
331
2F5
  5
2F5
331
207
  5
207
331
32C
  5
32C
331
BD1
  5
BD1
331
167F
  5
1680
331
CD8
  5
CD8
331
12DB
  5
12DC
331
D56
  5
D56
331
CE0
  5
CE0
331
D1F
  5
D1F
331
D95
  5
D95
331
12E3
  5
12E4
331
D27
  5
D27
331
181D
  5
177E
331
CE8
  5
CE8
331
D5E
  5
D5E
331
D9D
  5
D9D
331
14C2
  5
14C3
331
12EB
  5
12EC
331
D2F
  5
D2F
331
CF0
  5
CF0
331
D66
  5
D66
331
DA5
  5
DA5
331
14D2
  5
14D6
331
DAD
  5
DAD
331
D37
  5
D37
331
D6E
  5
D6E
331
12F3
  5
12F4
331
1A0
  5
1A0
331
B22
  5
B22
331
1A8
  5
1A8
331
334
  5
334
331
CC9
  5
CC9
331
305
  5
305
331
B2A
  5
B2A
331
CD1
  5
CD1
331
1B8
  5
1B8
331
30D
  5
30D
331
B32
  5
B32
331
1640
  5
1643
331
B3A
  5
B3A
331
354
  5
354
331
1648
  5
1649
331
CF8
  5
CF8
331
D76
  5
D76
331
D00
  5
D00
331
D3F
  5
D3F
331
1522
  5
157D
331
15C9
  5
15D8
331
D7E
  5
D7E
331
D08
  5
D08
331
D47
  5
D47
331
DCD
  5
DCE
331
13E3
  5
13E4
331
D4F
  5
D4F
331
D10
  5
D10
331
D86
  5
D86
331
DD5
  5
DD6
331
15D9
  5
15DA
331
D8E
  5
D8E
331
1C0
  5
1C0
331
B03
  5
B03
331
315
  5
315
331
1C8
  5
1C8
331
189
  5
189
331
2DE
  5
2DE
331
B42
  5
B42
331
B0B
  5
B0B
331
2E6
  5
2E6
331
191
  5
191
331
1F8
  5
1F8
331
31D
  5
31D
331
3D4
  5
3D4
331
B4A
  5
B4A
331
1658
  5
1659
331
404
  5
404
331
199
  5
199
331
2EE
  5
2EE
331
325
  5
325
331
B13
  5
B13
331
1611
  5
1614
331
D18
  5
D18
331
17A7
  5
17F2
331
32D
  5
32D
331
2F6
  5
2F6
331
B1B
  5
B1B
331
1680
  5
1681
331
CD9
  5
CD9
331
D96
  5
D96
331
D20
  5
D20
331
CE1
  5
CE1
331
D57
  5
D57
331
12DC
  5
12DD
331
D9E
  5
D9E
331
181E
  5
17A4
331
CE9
  5
CE9
331
D28
  5
D28
331
D5F
  5
D5F
331
12E4
  5
12E5
331
12EC
  5
12ED
331
D67
  5
D67
331
CF1
  5
CF1
331
D30
  5
D30
331
DA6
  5
DA6
331
14C3
  5
14C4
331
12F4
  5
12F5
331
D6F
  5
D6F
331
DAE
  5
DAE
331
CC2
  5
CC2
331
1A9
  5
1A9
331
2FE
  5
2FE
331
B23
  5
B23
331
B2B
  5
B2B
331
306
  5
306
331
218
  5
218
331
345
  5
345
331
CCA
  5
CCA
331
B33
  5
B33
331
26F
  5
26F
331
1B9
  5
1B9
331
30E
  5
30E
331
34D
  5
34D
331
CD2
  5
CD2
331
1748
  5
174A
331
D38
  5
D38
331
B3B
  5
B3B
331
1649
  5
164B
331
CF9
  5
CF9
331
E05
  5
E06
331
D40
  5
D40
331
1651
  5
1653
331
D01
  5
D01
331
D77
  5
D77
331
DCE
  5
DCF
331
17EF
  5
DCA
331
D09
  5
D09
331
D48
  5
D48
331
D7F
  5
D7F
331
13E4
  5
1446
331
D87
  5
D87
331
D11
  5
D11
331
DD6
  5
DD7
331
11E5
  5
11E6
331
15DA
  5
15DB
331
12D5
  5
12D6
331
D8F
  5
D8F
331
158B
  5
158C
331
1C1
  5
1C1
331
B04
  5
B04
331
228
  5
228
331
18A
  5
18A
331
1C9
  5
1C9
331
2DF
  5
2DF
331
316
  5
316
331
B43
  5
B43
331
31E
  5
31E
331
1F9
  5
1F9
331
192
  5
192
331
2E7
  5
2E7
331
3D5
  5
3D5
331
B0C
  5
B0C
331
1659
  5
165C
331
B14
  5
B14
331
326
  5
326
331
201
  5
201
331
19A
  5
19A
331
240
  5
240
331
2EF
  5
2EF
331
405
  5
405
331
1679
  5
167A
331
B1C
  5
B1C
331
2F7
  5
2F7
331
32E
  5
32E
331
17A8
  5
17F8
331
CDA
  5
CDA
331
D19
  5
D19
331
D50
  5
D50
331
12DD
  5
12DE
331
D58
  5
D58
331
1632
  5
1633
331
CE2
  5
CE2
331
D21
  5
D21
331
D97
  5
D97
331
14BC
  5
14C2
331
12E5
  5
12E6
331
D29
  5
D29
331
CEA
  5
CEA
331
D60
  5
D60
331
D9F
  5
D9F
331
14C4
  5
14C5
331
DA7
  5
DA7
331
D31
  5
D31
331
CF2
  5
CF2
331
D68
  5
D68
331
12ED
  5
12EE
331
15AB
  5
15C5
331
DAF
  5
DAF
331
12F5
  5
12F6
331
1AA
  5
1AA
331
2FF
  5
2FF
331
B24
  5
B24
331
CC3
  5
CC3
331
CCB
  5
CCB
331
307
  5
307
331
219
  5
219
331
B2C
  5
B2C
331
CD3
  5
CD3
331
270
  5
270
331
1BA
  5
1BA
331
30F
  5
30F
331
B34
  5
B34
331
B3C
  5
B3C
331
CFA
  5
CFA
331
D39
  5
D39
331
D70
  5
D70
331
D78
  5
D78
331
D02
  5
D02
331
D41
  5
D41
331
E06
  5
E07
331
D49
  5
D49
331
D0A
  5
D0A
331
D80
  5
D80
331
DCF
  5
DD0
331
1584
  5
1588
331
11E6
  5
11E7
331
D88
  5
D88
331
D12
  5
D12
331
DD7
  5
DD8
331
15DB
  5
15DD
331
158C
  5
159E
331
12D6
  5
12D7
331
1C2
  5
1C2
331
221
  5
221
331
2D8
  5
2D8
331
B05
  5
B05
331
2E0
  5
2E0
331
1CA
  5
1CA
331
18B
  5
18B
331
229
  5
229
331
317
  5
317
331
B44
  5
B44
331
B0D
  5
B0D
331
2E8
  5
2E8
331
193
  5
193
331
1FA
  5
1FA
331
31F
  5
31F
331
3D6
  5
3D6
331
160B
  5
160C
331
406
  5
406
331
19B
  5
19B
331
2F0
  5
2F0
331
327
  5
327
331
B15
  5
B15
331
167A
  5
167B
331
17F8
  5
1814
331
D1A
  5
D1A
331
32F
  5
32F
331
B1D
  5
B1D
331
CDB
  5
CDB
331
D51
  5
D51
331
D90
  5
D90
331
D98
  5
D98
331
1633
  5
1634
331
CE3
  5
CE3
331
D22
  5
D22
331
D59
  5
D59
331
12DE
  5
12DF
331
12E6
  5
12E7
331
DA0
  5
DA0
331
CEB
  5
CEB
331
D2A
  5
D2A
331
D61
  5
D61
331
12EE
  5
12EF
331
D69
  5
D69
331
CF3
  5
CF3
331
D32
  5
D32
331
DA8
  5
DA8
331
DF7
  5
DF8
331
14C5
  5
14C6
331
12F6
  5
12F7
331
20A
  5
20A
331
2F8
  5
2F8
331
B25
  5
B25
331
212
  5
212
331
1AB
  5
1AB
331
300
  5
300
331
CC4
  5
CC4
331
308
  5
308
331
1B3
  5
1B3
331
269
  5
269
331
B2D
  5
B2D
331
CCC
  5
CCC
331
163B
  5
163E
331
271
  5
271
331
1BB
  5
1BB
331
B35
  5
B35
331
CD4
  5
CD4
331
1643
  5
1646
331
174A
  5
1765
331
D3A
  5
D3A
331
B3D
  5
B3D
331
164B
  5
164D
331
CFB
  5
CFB
331
D71
  5
D71
331
DB0
  5
DB0
331
DC8
  5
DC8
331
D42
  5
D42
331
1653
  5
1655
331
D03
  5
D03
331
D79
  5
D79
331
E07
  5
E08
331
157D
  5
1584
331
DD0
  5
DD1
331
D0B
  5
D0B
331
D4A
  5
D4A
331
D81
  5
D81
331
1306
  5
1307
331
D89
  5
D89
331
D13
  5
D13
331
11E7
  5
12D5
331
12D7
  5
12D8
331
2D9
  5
2D9
331
184
  5
184
331
1C3
  5
1C3
331
310
  5
310
331
3CF
  5
3CF
331
22A
  5
22A
331
18C
  5
18C
331
2E1
  5
2E1
331
318
  5
318
331
B06
  5
B06
331
B45
  5
B45
331
320
  5
320
331
23A
  5
23A
331
194
  5
194
331
2E9
  5
2E9
331
3D7
  5
3D7
331
B0E
  5
B0E
331
160C
  5
160D
331
B16
  5
B16
331
2F1
  5
2F1
331
19C
  5
19C
331
328
  5
328
331
BCD
  5
BCD
331
1614
  5
1615
331
167B
  5
167C
331
D52
  5
D52
331
B1E
  5
B1E
331
1683
  5
1684
331
CDC
  5
CDC
331
D1B
  5
D1B
331
D91
  5
D91
331
DD8
  5
DD9
331
12DF
  5
12E0
331
D5A
  5
D5A
331
1634
  5
1637
331
171B
  5
1725
331
CE4
  5
CE4
331
D23
  5
D23
331
D99
  5
D99
331
1446
  5
14BC
331
12E7
  5
12E8
331
D2B
  5
D2B
331
CEC
  5
CEC
331
D62
  5
D62
331
DA1
  5
DA1
331
14C6
  5
14D0
331
DA9
  5
DA9
331
CF4
  5
CF4
331
D33
  5
D33
331
D6A
  5
D6A
331
DF8
  5
DF9
331
12EF
  5
12F0
331
12F7
  5
12F8
331
14D6
  5
1522
331
2F9
  5
2F9
331
330
  5
330
331
1AC
  5
1AC
331
301
  5
301
331
B26
  5
B26
331
CC5
  5
CC5
331
CCD
  5
CCD
331
1B4
  5
1B4
331
309
  5
309
331
B2E
  5
B2E
331
272
  5
272
331
1BC
  5
1BC
331
AFF
  5
AFF
331
B36
  5
B36
331
CD5
  5
CD5
331
B3E
  5
B3E
331
CFC
  5
CFC
331
D3B
  5
D3B
331
D72
  5
D72
331
15C5
  5
15C6
331
D7A
  5
D7A
331
D04
  5
D04
331
D43
  5
D43
331
E08
  5
E09
331
1307
  5
13E3
331
D4B
  5
D4B
331
D0C
  5
D0C
331
D82
  5
D82
331
DD1
  5
DD2
331
D8A
  5
D8A
331
D14
  5
D14
331
15DD
  5
15DF
331
311
  5
311
331
1C4
  5
1C4
331
185
  5
185
331
2DA
  5
2DA
331
B07
  5
B07
331
18D
  5
18D
331
2E2
  5
2E2
331
319
  5
319
331
3D0
  5
3D0
331
B46
  5
B46
331
400
  5
400
331
195
  5
195
331
2EA
  5
2EA
331
321
  5
321
331
B0F
  5
B0F
331
160D
  5
160E
331
165C
  5
165E
331
17F2
  5
1813
331
19D
  5
19D
331
2F2
  5
2F2
331
329
  5
329
331
B17
  5
B17
331
1615
  5
1624
331
167C
  5
167D
331
DD9
  5
DE3
331
D1C
  5
D1C
331
B1F
  5
B1F
331
1684
  5
1685
331
CDD
  5
CDD
331
D53
  5
D53
331
D92
  5
D92
331
12D8
  5
12D9
331
D9A
  5
D9A
331
181A
  5
181E
331
CE5
  5
CE5
331
D24
  5
D24
331
D5B
  5
D5B
331
12E0
  5
12E1
331
159E
  5
15AB
331
12E8
  5
12E9
331
D63
  5
D63
331
CED
  5
CED
331
D2C
  5
D2C
331
DA2
  5
DA2
331
12F0
  5
12F1
331
D6B
  5
D6B
331
CF5
  5
CF5
331
D34
  5
D34
331
DAA
  5
DAA
331
DF9
  5
DFA
331
331
  5
331
331
2FA
  5
2FA
331
302
  5
302
331
253
  5
253
331
1AD
  5
1AD
331
B27
  5
B27
331
CC6
  5
CC6
331
1B5
  5
1B5
331
30A
  5
30A
331
B2F
  5
B2F
331
CCE
  5
CCE
331
1BD
  5
1BD
331
B37
  5
B37
331
CD6
  5
CD6
331
D3C
  5
D3C
331
B3F
  5
B3F
331
164D
  5
164E
331
CFD
  5
CFD
331
D73
  5
D73
331
12F8
  5
12F9
331
DCA
  5
DCB
331
1655
  5
1658
331
D05
  5
D05
331
D44
  5
D44
331
D7B
  5
D7B
331
E09
  5
E0B
331
15C6
  5
15C7
331
DD2
  5
DD4
331
D0D
  5
D0D
331
D4C
  5
D4C
331
D83
  5
D83
331
D8B
  5
D8B
331
D15
  5
D15
331
B00
  5
B00
331
224
  5
224
331
186
  5
186
331
2DB
  5
2DB
331
312
  5
312
331
B47
  5
B47
331
3D1
  5
3D1
331
18E
  5
18E
331
2E3
  5
2E3
331
31A
  5
31A
331
B08
  5
B08
331
322
  5
322
331
196
  5
196
331
2EB
  5
2EB
331
B10
  5
B10
331
160E
  5
1610
331
17A4
  5
17A7
331
B18
  5
B18
331
19E
  5
19E
331
2F3
  5
2F3
331
32A
  5
32A
331
167D
  5
167E
331
12D9
  5
12DA
331
D54
  5
D54
331
162E
  5
162F
331
1685
  5
171B
331
1813
  5
181A
331
CDE
  5
CDE
331
D1D
  5
D1D
331
D93
  5
D93
331
12E1
  5
12E2
331
D5C
  5
D5C
331
CE6
  5
CE6
331
D25
  5
D25
331
D9B
  5
D9B
331
12E9
  5
12EA
331
D2D
  5
D2D
331
CEE
  5
CEE
331
D64
  5
D64
331
DA3
  5
DA3
331
14D0
  5
14D1
331
DAB
  5
DAB
331
CF6
  5
CF6
331
D35
  5
D35
331
D6C
  5
D6C
331
DFA
  5
DFB
331
12F1
  5
12F2
331
B20
  5
B20
331
2FB
  5
2FB
331
332
  5
332
331
1AE
  5
1AE
331
303
  5
303
331
B28
  5
B28
331
CC7
  5
CC7
331
CCF
  5
CCF
331
21D
  5
21D
331
1B6
  5
1B6
331
26C
  5
26C
331
30B
  5
30B
331
B30
  5
B30
331
163E
  5
163F
331
1725
  5
1726
331
B38
  5
B38
331
1BE
  5
1BE
331
CD7
  5
CD7
331
1646
  5
1647
  0
GROUP
  5
18D4
102
{ACAD_REACTORS
330
D
102
}
330
D
100
AcDbGroup
300

 70
     1
 71
     1
340
1648
340
1647
340
177D
340
165C
340
164E
340
164D
340
1646
340
181A
340
177E
340
164B
340
1649
  0
GROUP
  5
18D5
102
{ACAD_REACTORS
330
D
102
}
330
D
100
AcDbGroup
300

 70
     1
 71
     1
340
1584
340
181A
340
177E
340
164B
340
1649
340
1648
340
1647
340
177D
340
165C
340
164E
340
164D
340
1646
  0
IMAGEDEF
  5
AFD
102
{ACAD_REACTORS
330
AFC
102
}
330
AFC
100
AcDbRasterImageDef
 90
        0
  1
D:\ﾃｽﾄ\rogo01.TIF
 10
3388.0
 20
4668.0
 11
0.0635
 21
0.0635
280
     1
281
     5
  0
LAYOUT
  5
17C4
102
{ACAD_REACTORS
330
17C2
102
}
330
17C2
100
AcDbPlotSettings
  1

  2
A4 EPSON LP-6100.pc3
  4
A4
  6

 40
5.873749732971191
 41
5.873747825622558
 42
5.873748779296875
 43
5.873748779296875
 44
209.9733276367187
 45
297.0106506347656
 46
1.5
 47
25.0
 48
0.0
 49
0.0
140
0.0
141
0.0
142
1.0
143
1.0
 70
 28336
 72
     1
 73
     1
 74
     1
  7
AutoCAD LT 98.ctb
 75
    16
147
1.0
 76
     1
 77
     2
 78
   300
148
-16.83010806575385
149
-6.11815526277121
100
AcDbLayout
  1
Model
 70
     1
 71
     0
 10
0.0
 20
0.0
 11
12.0
 21
9.0
 12
0.0
 22
0.0
 32
0.0
 14
0.0
 24
0.0
 34
0.0
 15
0.0
 25
0.0
 35
0.0
146
0.0
 13
0.0
 23
0.0
 33
0.0
 16
1.0
 26
0.0
 36
0.0
 17
0.0
 27
1.0
 37
0.0
 76
     0
330
18
1001
ACAD_PSEXT
1000
A4 EPSON LP-6100.pc3
1000
EPSON LP-6100
1000
USB002
1000

1070
     0
  0
LAYOUT
  5
17C5
102
{ACAD_REACTORS
330
17C2
102
}
330
17C2
100
AcDbPlotSettings
  1

  2
C:\Documents and Settings\佐藤\Application Data\Autodesk\AutoCAD LT 2005\R10\jpn\plotters\PEACOCK EPSON LP-6100.pc3
  4

  6

 40
0.0
 41
0.0
 42
0.0
 43
0.0
 44
0.0
 45
0.0
 46
0.0
 47
0.0
 48
0.0
 49
0.0
140
0.0
141
0.0
142
1.0
143
1.0
 70
   688
 72
     0
 73
     0
 74
     5
  7
AutoCAD LT 98.ctb
 75
    16
147
1.0
 76
     0
 77
     2
 78
   300
148
0.0
149
0.0
100
AcDbLayout
  1
レイアウト1
 70
     1
 71
     1
 10
0.0
 20
0.0
 11
420.0
 21
297.0
 12
0.0
 22
0.0
 32
0.0
 14
1.000000000000000E+20
 24
1.000000000000000E+20
 34
1.000000000000000E+20
 15
-1.000000000000000E+20
 25
-1.000000000000000E+20
 35
-1.000000000000000E+20
146
0.0
 13
0.0
 23
0.0
 33
0.0
 16
1.0
 26
0.0
 36
0.0
 17
0.0
 27
1.0
 37
0.0
 76
     0
330
15
  0
MLINESTYLE
  5
1C
102
{ACAD_REACTORS
330
1B
102
}
330
1B
100
AcDbMlineStyle
  2
STANDARD
 70
     0
  3

 62
   256
 51
90.0
 52
90.0
 71
     2
 49
0.5
 62
   256
  6
BYLAYER
 49
-0.5
 62
   256
  6
BYLAYER
  0
ACDBPLACEHOLDER
  5
17BD
102
{ACAD_REACTORS
330
17BC
102
}
330
17BC
  0
ACAD_PROXY_OBJECT
  5
17C1
102
{ACAD_REACTORS
330
17C0
102
}
330
17C0
100
AcDbProxyObject
 90
      499
 91
      504
 95
  2555929
 70
     0
 93
     1849
310
4214DD185B99185C992420000000000000F83F0000000000003E0FC00000000000004901028000000C1008070000C3001FDFF8000000C1003FBFF000000182007F7FE00000030400FEFFC00000060801FDFF8000000C1003FBFF000000182000000000000000C2020B0000001820100E000186003FBFF000000182007F7FE0
310
0000030400FEFFC00000060801FDFF8000000C1003FBFF000000182007F7FE0000003040000000000000012404160000003040201C00030C007F7FE00000030400FEFFC00000060801FDFF8000000C1003FBFF000000182007F7FE00000030400FEFFC000000608000
340
F
340
F
340
F
 94
        0
  0
DICTIONARYVAR
  5
17F5
102
{ACAD_REACTORS
330
17F4
102
}
330
17F4
100
DictionaryVariables
280
     0
  1
STANDARD
  0
ENDSEC
  0
EOF
