  0
SECTION
  2
HEADER
  9
$ACADVER
  1
AC1018
  9
$ACADMAINTVER
 70
     0
  9
$DWGCODEPAGE
  3
ANSI_932
  9
$INSBASE
 10
0.0
 20
0.0
 30
0.0
  9
$EXTMIN
 10
255.8294024606607
 20
176.071600985465
 30
-0.0000762951084532
  9
$EXTMAX
 10
634.1352656861848
 20
459.3717720646188
 30
0.0000000046571813
  9
$LIMMIN
 10
0.0
 20
0.0
  9
$LIMMAX
 10
420.0
 20
297.0
  9
$ORTHOMODE
 70
     0
  9
$REGENMODE
 70
     1
  9
$FILLMODE
 70
     1
  9
$QTEXTMODE
 70
     0
  9
$MIRRTEXT
 70
     1
  9
$LTSCALE
 40
1.0
  9
$ATTMODE
 70
     1
  9
$TEXTSIZE
 40
5.0
  9
$TRACEWID
 40
1.0
  9
$TEXTSTYLE
  7
STYLE3
  9
$CLAYER
  8
外形線
  9
$CELTYPE
  6
BYLAYER
  9
$CECOLOR
 62
   256
  9
$CELTSCALE
 40
1.0
  9
$DISPSILH
 70
     0
  9
$DIMSCALE
 40
1.0
  9
$DIMASZ
 40
2.5
  9
$DIMEXO
 40
0.0
  9
$DIMDLI
 40
3.75
  9
$DIMRND
 40
0.0
  9
$DIMDLE
 40
0.0
  9
$DIMEXE
 40
1.25
  9
$DIMTP
 40
0.0
  9
$DIMTM
 40
0.0
  9
$DIMTXT
 40
2.5
  9
$DIMCEN
 40
2.5
  9
$DIMTSZ
 40
0.0
  9
$DIMTOL
 70
     0
  9
$DIMLIM
 70
     0
  9
$DIMTIH
 70
     0
  9
$DIMTOH
 70
     0
  9
$DIMSE1
 70
     0
  9
$DIMSE2
 70
     0
  9
$DIMTAD
 70
     1
  9
$DIMZIN
 70
     8
  9
$DIMBLK
  1

  9
$DIMASO
 70
     1
  9
$DIMSHO
 70
     1
  9
$DIMPOST
  1

  9
$DIMAPOST
  1

  9
$DIMALT
 70
     0
  9
$DIMALTD
 70
     4
  9
$DIMALTF
 40
0.0394
  9
$DIMLFAC
 40
1.0
  9
$DIMTOFL
 70
     1
  9
$DIMTVP
 40
0.0
  9
$DIMTIX
 70
     0
  9
$DIMSOXD
 70
     0
  9
$DIMSAH
 70
     1
  9
$DIMBLK1
  1
OPEN
  9
$DIMBLK2
  1
OPEN
  9
$DIMSTYLE
  2
STYLE3
  9
$DIMCLRD
 70
     2
  9
$DIMCLRE
 70
     2
  9
$DIMCLRT
 70
     6
  9
$DIMTFAC
 40
1.0
  9
$DIMGAP
 40
0.625
  9
$DIMJUST
 70
     0
  9
$DIMSD1
 70
     0
  9
$DIMSD2
 70
     0
  9
$DIMTOLJ
 70
     1
  9
$DIMTZIN
 70
     0
  9
$DIMALTZ
 70
     0
  9
$DIMALTTZ
 70
     0
  9
$DIMUPT
 70
     0
  9
$DIMDEC
 70
     2
  9
$DIMTDEC
 70
     4
  9
$DIMALTU
 70
     8
  9
$DIMALTTD
 70
     4
  9
$DIMTXSTY
  7
STYLE3
  9
$DIMAUNIT
 70
     0
  9
$DIMADEC
 70
     0
  9
$DIMALTRND
 40
0.0
  9
$DIMAZIN
 70
     0
  9
$DIMDSEP
 70
    46
  9
$DIMATFIT
 70
     3
  9
$DIMFRAC
 70
     0
  9
$DIMLDRBLK
  1

  9
$DIMLUNIT
 70
     2
  9
$DIMLWD
 70
    -2
  9
$DIMLWE
 70
    -2
  9
$DIMTMOVE
 70
     0
  9
$LUNITS
 70
     2
  9
$LUPREC
 70
     4
  9
$SKETCHINC
 40
1.0
  9
$FILLETRAD
 40
1.5
  9
$AUNITS
 70
     0
  9
$AUPREC
 70
     0
  9
$MENU
  1
.
  9
$ELEVATION
 40
0.0
  9
$PELEVATION
 40
0.0
  9
$THICKNESS
 40
0.0
  9
$LIMCHECK
 70
     0
  9
$CHAMFERA
 40
10.0
  9
$CHAMFERB
 40
10.0
  9
$CHAMFERC
 40
20.0
  9
$CHAMFERD
 40
0.0
  9
$SKPOLY
 70
     0
  9
$TDCREATE
 40
2450843.488367709
  9
$TDUCREATE
 40
2450843.113367708
  9
$TDUPDATE
 40
2455372.696361401
  9
$TDUUPDATE
 40
2455372.321361401
  9
$TDINDWG
 40
0.3086941898
  9
$TDUSRTIMER
 40
0.3086941898
  9
$USRTIMER
 70
     1
  9
$ANGBASE
 50
0.0
  9
$ANGDIR
 70
     0
  9
$PDMODE
 70
     0
  9
$PDSIZE
 40
0.0
  9
$PLINEWID
 40
0.0
  9
$SPLFRAME
 70
     0
  9
$SPLINETYPE
 70
     6
  9
$SPLINESEGS
 70
     8
  9
$HANDSEED
  5
C8B
  9
$SURFTAB1
 70
     6
  9
$SURFTAB2
 70
     6
  9
$SURFTYPE
 70
     6
  9
$SURFU
 70
     6
  9
$SURFV
 70
     6
  9
$UCSBASE
  2

  9
$UCSNAME
  2

  9
$UCSORG
 10
327.6045671645975
 20
324.1122756281116
 30
0.0
  9
$UCSXDIR
 10
1.0
 20
0.0
 30
0.0
  9
$UCSYDIR
 10
0.0
 20
1.0
 30
0.0
  9
$UCSORTHOREF
  2

  9
$UCSORTHOVIEW
 70
     0
  9
$UCSORGTOP
 10
0.0
 20
0.0
 30
0.0
  9
$UCSORGBOTTOM
 10
0.0
 20
0.0
 30
0.0
  9
$UCSORGLEFT
 10
0.0
 20
0.0
 30
0.0
  9
$UCSORGRIGHT
 10
0.0
 20
0.0
 30
0.0
  9
$UCSORGFRONT
 10
0.0
 20
0.0
 30
0.0
  9
$UCSORGBACK
 10
0.0
 20
0.0
 30
0.0
  9
$PUCSBASE
  2

  9
$PUCSNAME
  2

  9
$PUCSORG
 10
0.0
 20
0.0
 30
0.0
  9
$PUCSXDIR
 10
1.0
 20
0.0
 30
0.0
  9
$PUCSYDIR
 10
0.0
 20
1.0
 30
0.0
  9
$PUCSORTHOREF
  2

  9
$PUCSORTHOVIEW
 70
     0
  9
$PUCSORGTOP
 10
0.0
 20
0.0
 30
0.0
  9
$PUCSORGBOTTOM
 10
0.0
 20
0.0
 30
0.0
  9
$PUCSORGLEFT
 10
0.0
 20
0.0
 30
0.0
  9
$PUCSORGRIGHT
 10
0.0
 20
0.0
 30
0.0
  9
$PUCSORGFRONT
 10
0.0
 20
0.0
 30
0.0
  9
$PUCSORGBACK
 10
0.0
 20
0.0
 30
0.0
  9
$USERI1
 70
     0
  9
$USERI2
 70
     0
  9
$USERI3
 70
     0
  9
$USERI4
 70
     0
  9
$USERI5
 70
     0
  9
$USERR1
 40
0.0
  9
$USERR2
 40
0.0
  9
$USERR3
 40
0.0
  9
$USERR4
 40
0.0
  9
$USERR5
 40
0.0
  9
$WORLDVIEW
 70
     1
  9
$SHADEDGE
 70
     3
  9
$SHADEDIF
 70
    70
  9
$TILEMODE
 70
     1
  9
$MAXACTVP
 70
    48
  9
$PINSBASE
 10
0.0
 20
0.0
 30
0.0
  9
$PLIMCHECK
 70
     0
  9
$PEXTMIN
 10
1.000000000000000E+20
 20
1.000000000000000E+20
 30
1.000000000000000E+20
  9
$PEXTMAX
 10
-1.000000000000000E+20
 20
-1.000000000000000E+20
 30
-1.000000000000000E+20
  9
$PLIMMIN
 10
0.0
 20
0.0
  9
$PLIMMAX
 10
420.0
 20
297.0
  9
$UNITMODE
 70
     0
  9
$VISRETAIN
 70
     1
  9
$PLINEGEN
 70
     0
  9
$PSLTSCALE
 70
     1
  9
$TREEDEPTH
 70
  3020
  9
$CMLSTYLE
  2
STANDARD
  9
$CMLJUST
 70
     0
  9
$CMLSCALE
 40
20.0
  9
$PROXYGRAPHICS
 70
     1
  9
$MEASUREMENT
 70
     1
  9
$CELWEIGHT
370
    -1
  9
$ENDCAPS
280
     0
  9
$JOINSTYLE
280
     0
  9
$LWDISPLAY
290
     0
  9
$INSUNITS
 70
     0
  9
$HYPERLINKBASE
  1

  9
$STYLESHEET
  1

  9
$XEDIT
290
     1
  9
$CEPSNTYPE
380
     0
  9
$PSTYLEMODE
290
     1
  9
$FINGERPRINTGUID
  2
{EB3E8B47-4EFA-4C33-9490-32883321357C}
  9
$VERSIONGUID
  2
{90C5916C-C17B-4980-972E-191D2BBFEA62}
  9
$EXTNAMES
290
     1
  9
$PSVPSCALE
 40
0.0
  9
$OLESTARTUP
290
     0
  9
$SORTENTS
280
   127
  9
$INDEXCTL
280
     0
  9
$HIDETEXT
280
     0
  9
$XCLIPFRAME
290
     0
  9
$HALOGAP
280
     0
  9
$OBSCOLOR
 70
   257
  9
$OBSLTYPE
280
     0
  9
$INTERSECTIONDISPLAY
280
     0
  9
$INTERSECTIONCOLOR
 70
   257
  9
$DIMASSOC
280
     1
  9
$PROJECTNAME
  1

  0
ENDSEC
  0
SECTION
  2
CLASSES
  0
CLASS
  1
HATCH
  2
AcDbHatch
  3
ObjectDBX Classes
 90
        0
 91
       19
280
     0
281
     1
  0
CLASS
  1
LWPOLYLINE
  2
AcDbPolyline
  3
ObjectDBX Classes
 90
        0
 91
        2
280
     0
281
     1
  0
CLASS
  1
ACDBDICTIONARYWDFLT
  2
AcDbDictionaryWithDefault
  3
ObjectDBX Classes
 90
        0
 91
        1
280
     0
281
     0
  0
CLASS
  1
TABLESTYLE
  2
AcDbTableStyle
  3
ObjectDBX Classes
 90
     2047
 91
        1
280
     0
281
     0
  0
CLASS
  1
DICTIONARYVAR
  2
AcDbDictionaryVar
  3
ObjectDBX Classes
 90
        0
 91
        1
280
     0
281
     0
  0
ENDSEC
  0
SECTION
  2
TABLES
  0
TABLE
  2
VPORT
  5
8
330
0
100
AcDbSymbolTable
 70
     3
  0
VPORT
  5
C8A
330
8
100
AcDbSymbolTableRecord
100
AcDbViewportTableRecord
  2
*Active
 70
     0
 10
0.0
 20
0.0
 11
1.0
 21
1.0
 12
444.9823340734227
 22
317.7216865250419
 13
0.0
 23
0.0
 14
10.0
 24
10.0
 15
10.0
 25
10.0
 16
0.0
 26
0.0
 36
1.0
 17
0.0
 27
0.0
 37
0.0
 40
285.4545450037102
 41
1.530456852791878
 42
50.0
 43
0.0
 44
0.0
 50
0.0
 51
0.0
 71
     0
 72
   100
 73
     1
 74
     1
 75
     0
 76
     0
 77
     0
 78
     0
281
     0
 65
     1
110
327.6045671645975
120
324.1122756281116
130
0.0
111
1.0
121
0.0
131
0.0
112
0.0
122
1.0
132
0.0
 79
     0
146
0.0
  0
ENDTAB
  0
TABLE
  2
LTYPE
  5
5
330
0
100
AcDbSymbolTable
 70
    13
  0
LTYPE
  5
12
330
5
100
AcDbSymbolTableRecord
100
AcDbLinetypeTableRecord
  2
BYBLOCK
 70
     0
  3

 72
    65
 73
     0
 40
0.0
  0
LTYPE
  5
13
330
5
100
AcDbSymbolTableRecord
100
AcDbLinetypeTableRecord
  2
BYLAYER
 70
     0
  3

 72
    65
 73
     0
 40
0.0
  0
LTYPE
  5
14
330
5
100
AcDbSymbolTableRecord
100
AcDbLinetypeTableRecord
  2
CONTINUOUS
 70
     0
  3
Solid line
 72
    65
 73
     0
 40
0.0
  0
LTYPE
  5
22
330
5
100
AcDbSymbolTableRecord
100
AcDbLinetypeTableRecord
  2
CENTER2
 70
     0
  3
Center (.5x) ___ _ ___ _ ___ _ ___ _ ___ _ ___
 72
    65
 73
     4
 40
28.575
 49
19.05
 74
     0
 49
-3.174999999999999
 74
     0
 49
3.174999999999999
 74
     0
 49
-3.174999999999999
 74
     0
  0
LTYPE
  5
23
330
5
100
AcDbSymbolTableRecord
100
AcDbLinetypeTableRecord
  2
HIDDEN2
 70
     0
  3
Hidden (.5x) _ _ _ _ _ _ _ _ _ _ _ _ _ _ _ _ _
 72
    65
 73
     2
 40
4.762499999999999
 49
3.174999999999999
 74
     0
 49
-1.587499999999999
 74
     0
  0
LTYPE
  5
24
330
5
100
AcDbSymbolTableRecord
100
AcDbLinetypeTableRecord
  2
PHANTOM2
 70
     0
  3
Phantom (.5x) ___ _ _ ___ _ _ ___ _ _ ___ _ _
 72
    65
 73
     6
 40
31.75
 49
15.875
 74
     0
 49
-3.174999999999999
 74
     0
 49
3.174999999999999
 74
     0
 49
-3.174999999999999
 74
     0
 49
3.174999999999999
 74
     0
 49
-3.174999999999999
 74
     0
  0
ENDTAB
  0
TABLE
  2
LAYER
  5
2
330
0
100
AcDbSymbolTable
 70
    16
  0
LAYER
  5
E
330
2
100
AcDbSymbolTableRecord
100
AcDbLayerTableRecord
  2
0
 70
     0
 62
     7
  6
CONTINUOUS
370
    -3
390
A57
  0
LAYER
  5
25
330
2
100
AcDbSymbolTableRecord
100
AcDbLayerTableRecord
  2
外形線
 70
     0
 62
     7
  6
CONTINUOUS
370
    -3
390
A57
  0
LAYER
  5
26
330
2
100
AcDbSymbolTableRecord
100
AcDbLayerTableRecord
  2
寸法線
 70
     0
 62
     2
  6
CONTINUOUS
370
    -3
390
A57
  0
LAYER
  5
27
330
2
100
AcDbSymbolTableRecord
100
AcDbLayerTableRecord
  2
中心線
 70
     0
 62
     4
  6
CENTER2
370
    -3
390
A57
  0
LAYER
  5
28
330
2
100
AcDbSymbolTableRecord
100
AcDbLayerTableRecord
  2
隠れ線
 70
     0
 62
     6
  6
HIDDEN2
370
    -3
390
A57
  0
LAYER
  5
29
330
2
100
AcDbSymbolTableRecord
100
AcDbLayerTableRecord
  2
想像線
 70
     0
 62
     1
  6
PHANTOM2
370
    -3
390
A57
  0
LAYER
  5
2A
330
2
100
AcDbSymbolTableRecord
100
AcDbLayerTableRecord
  2
ﾊｯﾁﾝｸ
 70
     0
 62
     6
  6
CONTINUOUS
370
    -3
390
A57
  0
LAYER
  5
2B
330
2
100
AcDbSymbolTableRecord
100
AcDbLayerTableRecord
  2
文字
 70
     0
 62
     6
  6
CONTINUOUS
370
    -3
390
A57
  0
LAYER
  5
2C
330
2
100
AcDbSymbolTableRecord
100
AcDbLayerTableRecord
  2
目盛
 70
     0
 62
    72
  6
CONTINUOUS
370
    -3
390
A57
  0
LAYER
  5
2D
330
2
100
AcDbSymbolTableRecord
100
AcDbLayerTableRecord
  2
針
 70
     0
 62
     5
  6
CONTINUOUS
370
    -3
390
A57
  0
LAYER
  5
53
330
2
100
AcDbSymbolTableRecord
100
AcDbLayerTableRecord
  2
DEFPOINTS
 70
     0
 62
     7
  6
CONTINUOUS
290
     0
370
    -3
390
A57
  0
LAYER
  5
A5
330
2
100
AcDbSymbolTableRecord
100
AcDbLayerTableRecord
  2
C
 70
     0
 62
     7
  6
CONTINUOUS
370
    -3
390
A57
  0
LAYER
  5
2F7
330
2
100
AcDbSymbolTableRecord
100
AcDbLayerTableRecord
  2
握り
 70
     0
 62
     3
  6
CONTINUOUS
370
    -3
390
A57
  0
LAYER
  5
3B8
330
2
100
AcDbSymbolTableRecord
100
AcDbLayerTableRecord
  2
ROGO
 70
     0
 62
     6
  6
CONTINUOUS
370
    -3
390
A57
  0
LAYER
  5
B1F
330
2
100
AcDbSymbolTableRecord
100
AcDbLayerTableRecord
  2
隠れ線2
 70
     0
 62
     1
  6
HIDDEN2
370
    -3
390
A57
  0
ENDTAB
  0
TABLE
  2
STYLE
  5
3
330
0
100
AcDbSymbolTable
 70
     6
  0
STYLE
  5
F
330
3
100
AcDbSymbolTableRecord
100
AcDbTextStyleTableRecord
  2
STANDARD
 70
     0
 40
0.0
 41
1.0
 50
0.0
 71
     0
 42
2.5
  3
txt
  4

  0
STYLE
  5
3F
330
3
100
AcDbSymbolTableRecord
100
AcDbTextStyleTableRecord
  2
STYLE3
 70
     0
 40
0.0
 41
1.0
 50
0.0
 71
     0
 42
5.0
  3
romans.shx
  4
bigfont.shx
  0
ENDTAB
  0
TABLE
  2
VIEW
  5
6
330
0
100
AcDbSymbolTable
 70
     0
  0
ENDTAB
  0
TABLE
  2
UCS
  5
7
330
0
100
AcDbSymbolTable
 70
     0
  0
ENDTAB
  0
TABLE
  2
APPID
  5
9
330
0
100
AcDbSymbolTable
 70
     1
  0
APPID
  5
10
330
9
100
AcDbSymbolTableRecord
100
AcDbRegAppTableRecord
  2
ACAD
 70
     0
  0
ENDTAB
  0
TABLE
  2
DIMSTYLE
  5
A
330
0
100
AcDbSymbolTable
 70
     4
100
AcDbDimStyleTable
 71
     0
  0
DIMSTYLE
105
1D
330
A
100
AcDbSymbolTableRecord
100
AcDbDimStyleTableRecord
  2
STANDARD
 70
     0
 41
2.5
 42
0.625
 43
3.75
 44
1.25
 73
     0
 74
     0
 77
     1
 78
     8
140
2.5
141
2.5
143
0.0394
147
0.625
171
     4
172
     1
273
     8
274
     4
277
     6
340
F
  0
DIMSTYLE
105
8F
102
{ACAD_REACTORS
330
920
330
939
330
94B
330
969
102
}
330
A
100
AcDbSymbolTableRecord
100
AcDbDimStyleTableRecord
  2
STYLE3
 70
     0
 41
2.5
 42
0.0
 43
3.75
 44
1.25
 73
     0
 74
     0
 77
     1
 78
     8
140
2.5
141
2.5
143
0.0394
147
0.625
171
     4
172
     1
173
     1
176
     2
177
     2
178
     6
271
     1
273
     8
274
     4
340
3F
341
45
343
45
344
45
  0
ENDTAB
  0
TABLE
  2
BLOCK_RECORD
  5
1
330
0
100
AcDbSymbolTable
 70
    10
  0
BLOCK_RECORD
  5
18
330
1
100
AcDbSymbolTableRecord
100
AcDbBlockTableRecord
  2
*MODEL_SPACE
340
A5E
  0
BLOCK_RECORD
  5
15
330
1
100
AcDbSymbolTableRecord
100
AcDbBlockTableRecord
  2
*PAPER_SPACE
340
A5F
  0
BLOCK_RECORD
  5
45
330
1
100
AcDbSymbolTableRecord
100
AcDbBlockTableRecord
  2
_OPEN
340
0
102
{BLKREFS
331
88A
331
88B
331
8DE
331
8DF
331
8FA
331
908
331
9C1
331
9C2
331
A0E
331
A10
331
C51
331
C52
331
C5C
331
C5D
331
C64
331
C65
331
C6D
331
C6E
102
}
  0
BLOCK_RECORD
  5
914
330
1
100
AcDbSymbolTableRecord
100
AcDbBlockTableRecord
  2
*D2
340
0
  0
BLOCK_RECORD
  5
92E
330
1
100
AcDbSymbolTableRecord
100
AcDbBlockTableRecord
  2
*D3
340
0
  0
BLOCK_RECORD
  5
93D
330
1
100
AcDbSymbolTableRecord
100
AcDbBlockTableRecord
  2
*D4
340
0
  0
BLOCK_RECORD
  5
95B
330
1
100
AcDbSymbolTableRecord
100
AcDbBlockTableRecord
  2
*D5
340
0
  0
ENDTAB
  0
ENDSEC
  0
SECTION
  2
BLOCKS
  0
BLOCK
  5
19
330
18
100
AcDbEntity
  8
0
100
AcDbBlockBegin
  2
*MODEL_SPACE
 70
     0
 10
0.0
 20
0.0
 30
0.0
  3
*MODEL_SPACE
  1

  0
ENDBLK
  5
1A
330
18
100
AcDbEntity
  8
0
100
AcDbBlockEnd
  0
BLOCK
  5
16
330
15
100
AcDbEntity
 67
     1
  8
0
100
AcDbBlockBegin
  2
*PAPER_SPACE
 70
     0
 10
0.0
 20
0.0
 30
0.0
  3
*PAPER_SPACE
  1

  0
ENDBLK
  5
17
330
15
100
AcDbEntity
 67
     1
  8
0
100
AcDbBlockEnd
  0
BLOCK
  5
46
330
45
100
AcDbEntity
  8
0
100
AcDbBlockBegin
  2
_OPEN
 70
     0
 10
0.0
 20
0.0
 30
0.0
  3
_OPEN
  1

  0
LINE
  5
47
330
45
100
AcDbEntity
  8
0
  6
ByBlock
 62
     0
100
AcDbLine
 10
-1.0
 20
0.1666666666666666
 30
0.0
 11
0.0
 21
0.0
 31
0.0
  0
LINE
  5
48
330
45
100
AcDbEntity
  8
0
  6
ByBlock
 62
     0
100
AcDbLine
 10
0.0
 20
0.0
 30
0.0
 11
-1.0
 21
-0.1666666666666666
 31
0.0
  0
LINE
  5
49
330
45
100
AcDbEntity
  8
0
  6
ByBlock
 62
     0
100
AcDbLine
 10
0.0
 20
0.0
 30
0.0
 11
-1.0
 21
0.0
 31
0.0
  0
ENDBLK
  5
4A
330
45
100
AcDbEntity
  8
0
100
AcDbBlockEnd
  0
BLOCK
  5
915
330
914
100
AcDbEntity
  8
0
100
AcDbBlockBegin
  2
*D2
 70
     1
 10
0.0
 20
0.0
 30
0.0
  3
*D2
  1

  0
LINE
  5
C6A
330
914
100
AcDbEntity
  8
外形線
 62
     2
370
    -2
100
AcDbLine
 10
589.0016805748464
 20
332.9617971651206
 30
0.0
 11
607.6591320872307
 21
332.9617971651206
 31
0.0
  0
LINE
  5
C6B
330
914
100
AcDbEntity
  8
外形線
 62
     2
370
    -2
100
AcDbLine
 10
589.0016805748464
 20
302.9617971651206
 30
0.0
 11
607.6591320872307
 21
302.9617971651206
 31
0.0
  0
LINE
  5
C6C
330
914
100
AcDbEntity
  8
外形線
 62
     2
370
    -2
100
AcDbLine
 10
606.4091320872306
 20
330.4617971651206
 30
0.0
 11
606.4091320872306
 21
305.4617971651206
 31
0.0
  0
INSERT
  5
C6D
330
914
100
AcDbEntity
  8
外形線
 62
     2
370
    -2
100
AcDbBlockReference
  2
_OPEN
 10
606.4091320872306
 20
332.9617971651206
 30
0.0
 41
2.5
 42
2.5
 43
2.5
 50
90.0
  0
INSERT
  5
C6E
330
914
100
AcDbEntity
  8
外形線
 62
     2
370
    -2
100
AcDbBlockReference
  2
_OPEN
 10
606.4091320872306
 20
302.9617971651206
 30
0.0
 41
2.5
 42
2.5
 43
2.5
 50
270.0
  0
MTEXT
  5
C6F
330
914
100
AcDbEntity
  8
外形線
 62
     6
100
AcDbMText
 10
604.5341320872305
 20
317.9617971651206
 30
0.0
 40
2.5
 41
0.0
 71
     5
 72
     1
  1
\A1;30
  7
STYLE3
 11
0.0000000000000001
 21
1.0
 31
0.0
 73
     1
 44
1.0
  0
POINT
  5
C70
330
914
100
AcDbEntity
  8
DEFPOINTS
 62
     0
100
AcDbPoint
 10
589.0016805748464
 20
332.9617971651206
 30
0.0
  0
POINT
  5
C71
330
914
100
AcDbEntity
  8
DEFPOINTS
 62
     0
100
AcDbPoint
 10
589.0016805748464
 20
302.9617971651206
 30
0.0
  0
POINT
  5
C72
330
914
100
AcDbEntity
  8
DEFPOINTS
 62
     0
100
AcDbPoint
 10
606.4091320872306
 20
302.9617971651206
 30
0.0
  0
ENDBLK
  5
91F
330
914
100
AcDbEntity
  8
0
100
AcDbBlockEnd
  0
BLOCK
  5
92F
330
92E
100
AcDbEntity
  8
0
100
AcDbBlockBegin
  2
*D3
 70
     1
 10
0.0
 20
0.0
 30
0.0
  3
*D3
  1

  0
LINE
  5
C62
330
92E
100
AcDbEntity
  8
外形線
 62
     2
370
    -2
100
AcDbLine
 10
594.0016805748464
 20
304.2617971651206
 30
0.0
 11
594.0016805748464
 21
232.0846191553904
 31
0.0
  0
LINE
  5
C63
330
92E
100
AcDbEntity
  8
外形線
 62
     2
370
    -2
100
AcDbLine
 10
496.5016805748464
 20
233.3346191553904
 30
0.0
 11
591.5016805748464
 21
233.3346191553904
 31
0.0
  0
INSERT
  5
C64
330
92E
100
AcDbEntity
  8
外形線
 62
     2
370
    -2
100
AcDbBlockReference
  2
_OPEN
 10
494.0016805748464
 20
233.3346191553904
 30
0.0
 41
2.5
 42
2.5
 43
2.5
 50
180.0
  0
INSERT
  5
C65
330
92E
100
AcDbEntity
  8
外形線
 62
     2
370
    -2
100
AcDbBlockReference
  2
_OPEN
 10
594.0016805748464
 20
233.3346191553904
 30
0.0
 41
2.5
 42
2.5
 43
2.5
  0
MTEXT
  5
C66
330
92E
100
AcDbEntity
  8
外形線
 62
     6
100
AcDbMText
 10
544.0016805748464
 20
235.2096191553904
 30
0.0
 40
2.5
 41
0.0
 71
     5
 72
     1
  1
\A1;100
  7
STYLE3
 73
     1
 44
1.0
  0
POINT
  5
C67
330
92E
100
AcDbEntity
  8
DEFPOINTS
 62
     0
100
AcDbPoint
 10
494.0016805748464
 20
304.2617971651206
 30
0.0
  0
POINT
  5
C68
330
92E
100
AcDbEntity
  8
DEFPOINTS
 62
     0
100
AcDbPoint
 10
594.0016805748464
 20
304.2617971651206
 30
0.0
  0
POINT
  5
C69
330
92E
100
AcDbEntity
  8
DEFPOINTS
 62
     0
100
AcDbPoint
 10
594.0016805748464
 20
233.3346191553904
 30
0.0
  0
ENDBLK
  5
938
330
92E
100
AcDbEntity
  8
0
100
AcDbBlockEnd
  0
BLOCK
  5
94C
330
93D
100
AcDbEntity
  8
0
100
AcDbBlockBegin
  2
*D4
 70
     1
 10
0.0
 20
0.0
 30
0.0
  3
*D4
  1

  0
LINE
  5
C57
330
93D
100
AcDbEntity
  8
外形線
 62
     2
370
    -2
100
AcDbLine
 10
387.3950069031963
 20
360.9617971651205
 30
0.0
 11
387.3950069031963
 21
348.6213620051657
 31
0.0
  0
LINE
  5
C58
330
93D
100
AcDbEntity
  8
外形線
 62
     2
370
    -2
100
AcDbLine
 10
390.3950069031962
 20
360.9617971651205
 30
0.0
 11
390.3950069031962
 21
348.6213620051657
 31
0.0
  0
LINE
  5
C59
330
93D
100
AcDbEntity
  8
外形線
 62
     2
370
    -2
100
AcDbLine
 10
384.8950069031963
 20
349.8713620051657
 30
0.0
 11
382.3950069031962
 21
349.8713620051657
 31
0.0
  0
LINE
  5
C5A
330
93D
100
AcDbEntity
  8
外形線
 62
     2
370
    -2
100
AcDbLine
 10
392.8950069031963
 20
349.8713620051657
 30
0.0
 11
401.4069116651009
 21
349.8713620051657
 31
0.0
  0
LINE
  5
C5B
330
93D
100
AcDbEntity
  8
外形線
 62
     2
370
    -2
100
AcDbLine
 10
387.3950069031963
 20
349.8713620051657
 30
0.0
 11
390.3950069031962
 21
349.8713620051657
 31
0.0
  0
INSERT
  5
C5C
330
93D
100
AcDbEntity
  8
外形線
 62
     2
370
    -2
100
AcDbBlockReference
  2
_OPEN
 10
387.3950069031963
 20
349.8713620051657
 30
0.0
 41
2.5
 42
2.5
 43
2.5
  0
INSERT
  5
C5D
330
93D
100
AcDbEntity
  8
外形線
 62
     2
370
    -2
100
AcDbBlockReference
  2
_OPEN
 10
390.3950069031962
 20
349.8713620051657
 30
0.0
 41
2.5
 42
2.5
 43
2.5
 50
180.0
  0
MTEXT
  5
C5E
330
93D
100
AcDbEntity
  8
外形線
 62
     6
100
AcDbMText
 10
398.4009592841486
 20
352.4011239099277
 30
0.0
 40
2.5
 41
0.0
 71
     5
 72
     1
  1
\A1;(3)
  7
STYLE3
 73
     1
 44
1.0
  0
POINT
  5
C5F
330
93D
100
AcDbEntity
  8
DEFPOINTS
 62
     0
100
AcDbPoint
 10
387.3950069031963
 20
360.9617971651205
 30
0.0
  0
POINT
  5
C60
330
93D
100
AcDbEntity
  8
DEFPOINTS
 62
     0
100
AcDbPoint
 10
390.3950069031962
 20
360.9617971651205
 30
0.0
  0
POINT
  5
C61
330
93D
100
AcDbEntity
  8
DEFPOINTS
 62
     0
100
AcDbPoint
 10
390.3950069031962
 20
349.8713620051657
 30
0.0
  0
ENDBLK
  5
958
330
93D
100
AcDbEntity
  8
0
100
AcDbBlockEnd
  0
BLOCK
  5
9A7
330
95B
100
AcDbEntity
  8
0
100
AcDbBlockBegin
  2
*D5
 70
     1
 10
0.0
 20
0.0
 30
0.0
  3
*D5
  1

  0
LINE
  5
C4C
330
95B
100
AcDbEntity
  8
外形線
 62
     2
370
    -2
100
AcDbLine
 10
385.5076445682377
 20
271.8905687123063
 30
0.0
 11
385.5076445682377
 21
252.8240467877998
 31
0.0
  0
LINE
  5
C4D
330
95B
100
AcDbEntity
  8
外形線
 62
     2
370
    -2
100
AcDbLine
 10
388.5076445682376
 20
271.0015469216685
 30
0.0
 11
388.5076445682376
 21
252.8240467877998
 31
0.0
  0
LINE
  5
C4E
330
95B
100
AcDbEntity
  8
外形線
 62
     2
370
    -2
100
AcDbLine
 10
383.0076445682376
 20
254.0740467877998
 30
0.0
 11
380.5076445682376
 21
254.0740467877998
 31
0.0
  0
LINE
  5
C4F
330
95B
100
AcDbEntity
  8
外形線
 62
     2
370
    -2
100
AcDbLine
 10
391.0076445682376
 20
254.0740467877998
 30
0.0
 11
399.5195493301423
 21
254.0740467877998
 31
0.0
  0
LINE
  5
C50
330
95B
100
AcDbEntity
  8
外形線
 62
     2
370
    -2
100
AcDbLine
 10
385.5076445682377
 20
254.0740467877998
 30
0.0
 11
388.5076445682376
 21
254.0740467877998
 31
0.0
  0
INSERT
  5
C51
330
95B
100
AcDbEntity
  8
外形線
 62
     2
370
    -2
100
AcDbBlockReference
  2
_OPEN
 10
385.5076445682377
 20
254.0740467877998
 30
0.0
 41
2.5
 42
2.5
 43
2.5
  0
INSERT
  5
C52
330
95B
100
AcDbEntity
  8
外形線
 62
     2
370
    -2
100
AcDbBlockReference
  2
_OPEN
 10
388.5076445682376
 20
254.0740467877998
 30
0.0
 41
2.5
 42
2.5
 43
2.5
 50
180.0
  0
MTEXT
  5
C53
330
95B
100
AcDbEntity
  8
外形線
 62
     6
100
AcDbMText
 10
396.51359694919
 20
256.6038086925617
 30
0.0
 40
2.5
 41
0.0
 71
     5
 72
     1
  1
\A1;(3)
  7
STYLE3
 73
     1
 44
1.0
  0
POINT
  5
C54
330
95B
100
AcDbEntity
  8
DEFPOINTS
 62
     0
100
AcDbPoint
 10
385.5076445682377
 20
271.8905687123063
 30
0.0
  0
POINT
  5
C55
330
95B
100
AcDbEntity
  8
DEFPOINTS
 62
     0
100
AcDbPoint
 10
388.5076445682376
 20
271.0015469216685
 30
0.0
  0
POINT
  5
C56
330
95B
100
AcDbEntity
  8
DEFPOINTS
 62
     0
100
AcDbPoint
 10
388.5076445682376
 20
254.0740467877998
 30
0.0
  0
ENDBLK
  5
9B3
330
95B
100
AcDbEntity
  8
0
100
AcDbBlockEnd
  0
ENDSEC
  0
SECTION
  2
ENTITIES
  0
LWPOLYLINE
  5
1A0
330
18
100
AcDbEntity
  8
C
100
AcDbPolyline
 90
        5
 70
     0
 43
0.8
 10
256.2352605185929
 20
458.9717683211813
 10
633.7352605185929
 20
458.9717683211813
 10
633.7352605185929
 20
176.4717683211813
 10
256.2352605185929
 20
176.4717683211813
 10
256.2352605185929
 20
458.9717683211813
  0
LINE
  5
1EC
330
18
100
AcDbEntity
  8
中心線
100
AcDbLine
 10
314.2123491505008
 20
317.9617971651206
 30
0.0
 11
599.0707762466718
 21
317.9617971651206
 31
0.0
  0
LINE
  5
1F5
330
18
100
AcDbEntity
  8
外形線
100
AcDbLine
 10
494.0016805748464
 20
306.2117971651206
 30
0.0
 11
477.0529803698754
 21
305.1760432637057
 31
0.0
  0
ARC
  5
212
330
18
100
AcDbEntity
  8
外形線
100
AcDbCircle
 10
415.5166805748463
 20
336.9617971651206
 30
0.0
 40
24.0
100
AcDbArc
 50
330.348699495531
 51
56.55389761567777
  0
ARC
  5
225
330
18
100
AcDbEntity
  8
外形線
100
AcDbCircle
 10
496.8056805748464
 20
341.1223790282898
 30
0.0
 40
11.5
100
AcDbArc
 50
153.7912789603204
 51
255.8875302649151
  0
ARC
  5
22A
330
18
100
AcDbEntity
  8
外形線
100
AcDbCircle
 10
440.4796805748464
 20
397.9617971651206
 30
0.0
 40
19.0
100
AcDbArc
 50
270.0000000000009
 51
302.7566666704968
  0
ARC
  5
22E
330
18
100
AcDbEntity
  8
外形線
100
AcDbCircle
 10
324.7996805748464
 20
332.0617971651206
 30
0.0
 40
1.6
100
AcDbArc
 50
180.0000000000183
 51
0.0
  0
ARC
  5
231
330
18
100
AcDbEntity
  8
外形線
100
AcDbCircle
 10
341.5016805748464
 20
351.4617971651206
 30
0.0
 40
20.0
100
AcDbArc
 50
90.00000000000047
 51
190.0042201391618
  0
ARC
  5
234
330
18
100
AcDbEntity
  8
外形線
100
AcDbCircle
 10
339.5016805748464
 20
348.9617971651206
 30
0.0
 40
12.0
100
AcDbArc
 50
90.0
 51
180.0000000000019
  0
LINE
  5
235
330
18
100
AcDbEntity
  8
外形線
100
AcDbLine
 10
321.5016805748464
 20
351.4617971651206
 30
0.0
 11
323.1996805748464
 21
332.0617971651206
 31
0.0
  0
LINE
  5
236
330
18
100
AcDbEntity
  8
外形線
100
AcDbLine
 10
327.5016805748464
 20
348.9617971651206
 30
0.0
 11
326.3996805748464
 21
332.0617971651206
 31
0.0
  0
LINE
  5
237
330
18
100
AcDbEntity
  8
外形線
100
AcDbLine
 10
339.5016805748464
 20
360.9617971651206
 30
0.0
 11
415.5166805748463
 21
360.9617971651206
 31
0.0
  0
LINE
  5
238
330
18
100
AcDbEntity
  8
外形線
100
AcDbLine
 10
341.5016805748464
 20
371.4617971651206
 30
0.0
 11
440.4796805748464
 21
378.9617971651206
 31
0.0
  0
ARC
  5
251
330
18
100
AcDbEntity
  8
外形線
100
AcDbCircle
 10
449.0016805748464
 20
317.9617971651206
 30
0.0
 40
14.5
100
AcDbArc
 50
66.11697027204624
 51
198.324368234825
  0
CIRCLE
  5
254
330
18
100
AcDbEntity
  8
外形線
100
AcDbCircle
 10
462.7516805748464
 20
311.9617971651206
 30
0.0
 40
1.274999999999999
  0
LINE
  5
255
330
18
100
AcDbEntity
  8
外形線
100
AcDbLine
 10
470.5016805748464
 20
324.9617971651206
 30
0.0
 11
480.5016805748464
 21
324.9617971651206
 31
0.0
  0
LINE
  5
256
330
18
100
AcDbEntity
  8
外形線
100
AcDbLine
 10
480.5016805748464
 20
324.9617971651206
 30
0.0
 11
480.5016805748464
 21
307.9616820165413
 31
0.0
  0
LINE
  5
259
330
18
100
AcDbEntity
  8
外形線
100
AcDbLine
 10
470.5016805748464
 20
324.9617971651206
 30
0.0
 11
453.904320433243
 21
331.6078267128997
 31
0.0
  0
ARC
  5
266
330
18
100
AcDbEntity
  8
外形線
100
AcDbCircle
 10
412.4196805748464
 20
305.9617971651206
 30
0.0
 40
24.0
100
AcDbArc
 50
257.3314806169891
 51
278.730632178638
  0
ARC
  5
269
330
18
100
AcDbEntity
  8
外形線
100
AcDbCircle
 10
490.0016805748464
 20
292.6727971651206
 30
0.0
 40
18.0
100
AcDbArc
 50
121.8554308240258
 51
244.6364745646666
  0
ARC
  5
272
330
18
100
AcDbEntity
  8
外形線
100
AcDbCircle
 10
463.9956805748465
 20
226.4537971651206
 30
0.0
 40
44.0
100
AcDbArc
 50
31.61439272569332
 51
113.3491134835505
  0
ARC
  5
275
330
18
100
AcDbEntity
  8
外形線
100
AcDbCircle
 10
425.0016805748463
 20
316.4617971651206
 30
0.0
 40
54.0
100
AcDbArc
 50
251.1705094350051
 51
291.7133116367467
  0
ARC
  5
279
330
18
100
AcDbEntity
  8
外形線
100
AcDbCircle
 10
461.8106805748464
 20
234.1047971651205
 30
0.0
 40
47.0
100
AcDbArc
 50
20.02976038802902
 51
64.16660672696766
  0
LINE
  5
27B
330
18
100
AcDbEntity
  8
外形線
100
AcDbLine
 10
446.5570443253738
 20
266.8505045279562
 30
0.0
 11
444.979661753485
 21
266.2932784703658
 31
0.0
  0
ARC
  5
27E
330
18
100
AcDbEntity
  8
外形線
100
AcDbCircle
 10
504.0016805748464
 20
249.4617971651206
 30
0.0
 40
2.1
100
AcDbArc
 50
212.6049125464354
 51
20.64124689051769
  0
LINE
  5
281
330
18
100
AcDbEntity
  8
外形線
100
AcDbLine
 10
502.2326275555935
 20
248.3302268336466
 30
0.0
 11
501.4658729729691
 21
249.5185902846712
 31
0.0
  0
ARC
  5
285
330
18
100
AcDbEntity
  8
外形線
100
AcDbCircle
 10
324.4776805748464
 20
328.8617971651206
 30
0.0
 40
1.6
100
AcDbArc
 50
350.7113101605475
 51
179.9999999999959
  0
ARC
  5
28A
330
18
100
AcDbEntity
  8
外形線
100
AcDbCircle
 10
336.0016805748464
 20
309.4617971651206
 30
0.0
 40
11.5
100
AcDbArc
 50
170.7113101605264
 51
260.1102320998257
  0
ARC
  5
28D
330
18
100
AcDbEntity
  8
外形線
100
AcDbCircle
 10
336.5016805748464
 20
306.9617971651206
 30
0.0
 40
20.0
100
AcDbArc
 50
154.1796899227655
 51
243.588297304943
  0
LINE
  5
28E
330
18
100
AcDbEntity
  8
外形線
100
AcDbLine
 10
326.0567007311654
 20
328.6035427441742
 30
0.0
 11
324.5016805748464
 21
309.4617971651206
 31
0.0
  0
LINE
  5
290
330
18
100
AcDbEntity
  8
外形線
100
AcDbLine
 10
322.8776805748464
 20
328.8617971651206
 30
0.0
 11
318.4983918725761
 21
315.6728014644368
 31
0.0
  0
LINE
  5
291
330
18
100
AcDbEntity
  8
外形線
100
AcDbLine
 10
333.1857416978717
 20
298.3118873788872
 30
0.0
 11
407.6779328625893
 21
282.4348800565553
 31
0.0
  0
LINE
  5
294
330
18
100
AcDbEntity
  8
外形線
100
AcDbLine
 10
327.6053181840932
 20
289.0493786736831
 30
0.0
 11
407.5730239772854
 21
265.3517010078612
 31
0.0
  0
ARC
  5
359
330
18
100
AcDbEntity
  8
握り
100
AcDbCircle
 10
589.0016805748464
 20
331.4617971651206
 30
0.0
 40
1.5
100
AcDbArc
 50
27.81813928465427
 51
152.1818607153457
  0
ARC
  5
35A
330
18
100
AcDbEntity
  8
握り
100
AcDbCircle
 10
579.0016805748464
 20
331.4617971651206
 30
0.0
 40
1.5
100
AcDbArc
 50
27.81813928465427
 51
152.1818607153457
  0
ARC
  5
35B
330
18
100
AcDbEntity
  8
握り
100
AcDbCircle
 10
569.0016805748464
 20
331.4617971651206
 30
0.0
 40
1.5
100
AcDbArc
 50
27.81813928465427
 51
152.1818607153457
  0
ARC
  5
35C
330
18
100
AcDbEntity
  8
握り
100
AcDbCircle
 10
559.0016805748464
 20
331.4617971651206
 30
0.0
 40
1.5
100
AcDbArc
 50
27.81813928465427
 51
152.1818607153457
  0
ARC
  5
35D
330
18
100
AcDbEntity
  8
握り
100
AcDbCircle
 10
549.0016805748464
 20
331.4617971651206
 30
0.0
 40
1.5
100
AcDbArc
 50
27.81813928465427
 51
152.1818607153457
  0
ARC
  5
35E
330
18
100
AcDbEntity
  8
握り
100
AcDbCircle
 10
539.0016805748464
 20
331.4617971651206
 30
0.0
 40
1.5
100
AcDbArc
 50
27.81813928465427
 51
152.1818607153457
  0
ARC
  5
35F
330
18
100
AcDbEntity
  8
握り
100
AcDbCircle
 10
529.0016805748464
 20
331.4617971651206
 30
0.0
 40
1.5
100
AcDbArc
 50
27.81813928465427
 51
152.1818607153457
  0
ARC
  5
360
330
18
100
AcDbEntity
  8
握り
100
AcDbCircle
 10
519.0016805748464
 20
331.4617971651206
 30
0.0
 40
1.5
100
AcDbArc
 50
27.81813928465427
 51
152.1818607153457
  0
ARC
  5
361
330
18
100
AcDbEntity
  8
握り
100
AcDbCircle
 10
509.0016805748464
 20
331.4617971651206
 30
0.0
 40
1.5
100
AcDbArc
 50
27.81813928465427
 51
152.1818607153457
  0
ARC
  5
362
330
18
100
AcDbEntity
  8
握り
100
AcDbCircle
 10
499.0016805748464
 20
331.4617971651206
 30
0.0
 40
1.5
100
AcDbArc
 50
27.81813928465427
 51
152.1818607153457
  0
ARC
  5
363
330
18
100
AcDbEntity
  8
握り
100
AcDbCircle
 10
494.5016805748464
 20
331.6617971651206
 30
0.0
 40
0.5
100
AcDbArc
 50
90.0
 51
180.0
  0
ARC
  5
364
330
18
100
AcDbEntity
  8
握り
100
AcDbCircle
 10
593.5016805748464
 20
331.6617971651206
 30
0.0
 40
0.5
100
AcDbArc
 50
0.0
 51
90.0
  0
LINE
  5
365
330
18
100
AcDbEntity
  8
握り
100
AcDbLine
 10
530.3283304909886
 20
311.3084971651206
 30
0.0
 11
537.675030658704
 21
311.3084971651206
 31
0.0
  0
LINE
  5
366
330
18
100
AcDbEntity
  8
握り
100
AcDbLine
 10
530.3283304909887
 20
324.6150971651206
 30
0.0
 11
537.6750306587045
 21
324.6150971651206
 31
0.0
  0
LINE
  5
367
330
18
100
AcDbEntity
  8
握り
100
AcDbLine
 10
520.3283304909886
 20
313.9617971651206
 30
0.0
 11
567.6750306587041
 21
313.9617971651206
 31
0.0
  0
LINE
  5
368
330
18
100
AcDbEntity
  8
握り
100
AcDbLine
 10
520.3283304909886
 20
321.9617971651206
 30
0.0
 11
567.6750306587043
 21
321.9617971651207
 31
0.0
  0
LINE
  5
369
330
18
100
AcDbEntity
  8
握り
100
AcDbLine
 10
530.3283304909886
 20
303.7617971651206
 30
0.0
 11
537.6750306587042
 21
303.7617971651206
 31
0.0
  0
LINE
  5
36A
330
18
100
AcDbEntity
  8
握り
100
AcDbLine
 10
530.3283304909886
 20
332.1617971651205
 30
0.0
 11
537.6750306587042
 21
332.1617971651205
 31
0.0
  0
LINE
  5
36B
330
18
100
AcDbEntity
  8
握り
100
AcDbLine
 10
530.3283304909885
 20
311.3084971651206
 30
0.0
 11
530.3283304909886
 21
303.7617971651206
 31
0.0
  0
LINE
  5
36C
330
18
100
AcDbEntity
  8
握り
100
AcDbLine
 10
527.6750306587042
 20
311.3084971651206
 30
0.0
 11
527.6750306587042
 21
303.7617971651206
 31
0.0
  0
LINE
  5
36D
330
18
100
AcDbEntity
  8
握り
100
AcDbLine
 10
520.3283304909886
 20
311.3084971651206
 30
0.0
 11
520.3283304909886
 21
303.7617971651206
 31
0.0
  0
LINE
  5
36E
330
18
100
AcDbEntity
  8
握り
100
AcDbLine
 10
517.6750306587043
 20
332.1617971651205
 30
0.0
 11
517.6750306587043
 21
303.7617971651206
 31
0.0
  0
LINE
  5
36F
330
18
100
AcDbEntity
  8
握り
100
AcDbLine
 10
510.3283304909886
 20
332.1617971651205
 30
0.0
 11
510.3283304909886
 21
303.7617971651206
 31
0.0
  0
LINE
  5
370
330
18
100
AcDbEntity
  8
握り
100
AcDbLine
 10
507.6750306587042
 20
332.1617971651205
 30
0.0
 11
507.6750306587042
 21
303.7617971651206
 31
0.0
  0
LINE
  5
371
330
18
100
AcDbEntity
  8
握り
100
AcDbLine
 10
497.6750306587042
 20
332.1617971651205
 30
0.0
 11
497.6750306587042
 21
303.7617971651206
 31
0.0
  0
LINE
  5
372
330
18
100
AcDbEntity
  8
握り
100
AcDbLine
 10
500.3283304909886
 20
332.1617971651205
 30
0.0
 11
500.3283304909886
 21
303.7617971651206
 31
0.0
  0
LINE
  5
373
330
18
100
AcDbEntity
  8
握り
100
AcDbLine
 10
494.0016805748464
 20
331.6617971651206
 30
0.0
 11
494.0016805748464
 21
304.2617971651206
 31
0.0
  0
LINE
  5
374
330
18
100
AcDbEntity
  8
握り
100
AcDbLine
 10
494.5016805748464
 20
303.7617971651206
 30
0.0
 11
497.6750306587043
 21
303.7617971651207
 31
0.0
  0
ARC
  5
375
330
18
100
AcDbEntity
  8
握り
100
AcDbCircle
 10
494.5016805748464
 20
304.2617971651206
 30
0.0
 40
0.5
100
AcDbArc
 50
180.0
 51
270.0
  0
LINE
  5
376
330
18
100
AcDbEntity
  8
握り
100
AcDbLine
 10
510.3283304909886
 20
303.7617971651206
 30
0.0
 11
517.6750306587043
 21
303.7617971651206
 31
0.0
  0
LINE
  5
377
330
18
100
AcDbEntity
  8
握り
100
AcDbLine
 10
500.3283304909886
 20
303.7617971651207
 30
0.0
 11
507.6750306587043
 21
303.7617971651206
 31
0.0
  0
ARC
  5
378
330
18
100
AcDbEntity
  8
握り
100
AcDbCircle
 10
499.0016805748464
 20
304.4617971651206
 30
0.0
 40
1.5
100
AcDbArc
 50
207.8181392846543
 51
332.1818607153458
  0
ARC
  5
379
330
18
100
AcDbEntity
  8
握り
100
AcDbCircle
 10
509.0016805748464
 20
304.4617971651206
 30
0.0
 40
1.5
100
AcDbArc
 50
207.8181392846543
 51
332.1818607153458
  0
LINE
  5
37A
330
18
100
AcDbEntity
  8
握り
100
AcDbLine
 10
520.3283304909886
 20
303.7617971651206
 30
0.0
 11
527.6750306587042
 21
303.7617971651206
 31
0.0
  0
ARC
  5
37B
330
18
100
AcDbEntity
  8
握り
100
AcDbCircle
 10
519.0016805748464
 20
304.4617971651206
 30
0.0
 40
1.5
100
AcDbArc
 50
207.8181392846543
 51
332.1818607153458
  0
ARC
  5
37C
330
18
100
AcDbEntity
  8
握り
100
AcDbCircle
 10
529.0016805748464
 20
304.4617971651206
 30
0.0
 40
1.5
100
AcDbArc
 50
207.8181392846543
 51
332.1818607153458
  0
LINE
  5
37D
330
18
100
AcDbEntity
  8
握り
100
AcDbLine
 10
494.5016805748464
 20
332.1617971651205
 30
0.0
 11
497.6750306587042
 21
332.1617971651205
 31
0.0
  0
LINE
  5
37F
330
18
100
AcDbEntity
  8
握り
100
AcDbLine
 10
520.3283304909886
 20
321.9617971651206
 30
0.0
 11
520.3283304909886
 21
313.9617971651206
 31
0.0
  0
LINE
  5
380
330
18
100
AcDbEntity
  8
握り
100
AcDbLine
 10
520.3283304909886
 20
311.3084971651206
 30
0.0
 11
527.6750306587043
 21
311.3084971651206
 31
0.0
  0
LINE
  5
381
330
18
100
AcDbEntity
  8
握り
100
AcDbLine
 10
510.3283304909886
 20
332.1617971651205
 30
0.0
 11
517.6750306587043
 21
332.1617971651205
 31
0.0
  0
LINE
  5
382
330
18
100
AcDbEntity
  8
握り
100
AcDbLine
 10
500.3283304909886
 20
332.1617971651205
 30
0.0
 11
507.6750306587043
 21
332.1617971651205
 31
0.0
  0
LINE
  5
383
330
18
100
AcDbEntity
  8
握り
100
AcDbLine
 10
530.3283304909886
 20
332.1617971651205
 30
0.0
 11
530.3283304909887
 21
324.6150971651206
 31
0.0
  0
LINE
  5
384
330
18
100
AcDbEntity
  8
握り
100
AcDbLine
 10
527.6750306587042
 20
332.1617971651205
 30
0.0
 11
527.6750306587043
 21
324.6150971651206
 31
0.0
  0
LINE
  5
385
330
18
100
AcDbEntity
  8
握り
100
AcDbLine
 10
520.3283304909886
 20
332.1617971651205
 30
0.0
 11
520.3283304909886
 21
324.6150971651206
 31
0.0
  0
LINE
  5
386
330
18
100
AcDbEntity
  8
握り
100
AcDbLine
 10
520.3283304909887
 20
324.6150971651206
 30
0.0
 11
527.6750306587045
 21
324.6150971651206
 31
0.0
  0
LINE
  5
387
330
18
100
AcDbEntity
  8
握り
100
AcDbLine
 10
520.3283304909886
 20
332.1617971651205
 30
0.0
 11
527.6750306587042
 21
332.1617971651205
 31
0.0
  0
LINE
  5
388
330
18
100
AcDbEntity
  8
握り
100
AcDbLine
 10
560.3283304909886
 20
311.3084971651206
 30
0.0
 11
560.3283304909886
 21
303.7617971651206
 31
0.0
  0
LINE
  5
389
330
18
100
AcDbEntity
  8
握り
100
AcDbLine
 10
557.6750306587043
 20
311.3084971651206
 30
0.0
 11
557.6750306587042
 21
303.7617971651206
 31
0.0
  0
LINE
  5
38A
330
18
100
AcDbEntity
  8
握り
100
AcDbLine
 10
550.3283304909886
 20
311.3084971651206
 30
0.0
 11
550.3283304909886
 21
303.7617971651206
 31
0.0
  0
LINE
  5
38B
330
18
100
AcDbEntity
  8
握り
100
AcDbLine
 10
547.6750306587042
 20
311.3084971651206
 30
0.0
 11
547.6750306587042
 21
303.7617971651206
 31
0.0
  0
LINE
  5
38C
330
18
100
AcDbEntity
  8
握り
100
AcDbLine
 10
540.3283304909884
 20
311.3084971651206
 30
0.0
 11
540.3283304909885
 21
303.7617971651206
 31
0.0
  0
LINE
  5
38D
330
18
100
AcDbEntity
  8
握り
100
AcDbLine
 10
537.6750306587041
 20
311.3084971651206
 30
0.0
 11
537.6750306587042
 21
303.7617971651206
 31
0.0
  0
LINE
  5
38E
330
18
100
AcDbEntity
  8
握り
100
AcDbLine
 10
567.6750306587041
 20
311.3084971651206
 30
0.0
 11
567.6750306587043
 21
303.7617971651206
 31
0.0
  0
LINE
  5
38F
330
18
100
AcDbEntity
  8
握り
100
AcDbLine
 10
590.3283304909885
 20
332.1617971651205
 30
0.0
 11
590.3283304909885
 21
303.7617971651206
 31
0.0
  0
LINE
  5
390
330
18
100
AcDbEntity
  8
握り
100
AcDbLine
 10
587.6750306587042
 20
332.1617971651205
 30
0.0
 11
587.6750306587042
 21
303.7617971651206
 31
0.0
  0
LINE
  5
391
330
18
100
AcDbEntity
  8
握り
100
AcDbLine
 10
580.3283304909886
 20
332.1617971651205
 30
0.0
 11
580.3283304909886
 21
303.7617971651206
 31
0.0
  0
LINE
  5
392
330
18
100
AcDbEntity
  8
握り
100
AcDbLine
 10
577.6750306587042
 20
332.1617971651205
 30
0.0
 11
577.6750306587042
 21
303.7617971651206
 31
0.0
  0
LINE
  5
393
330
18
100
AcDbEntity
  8
握り
100
AcDbLine
 10
570.3283304909886
 20
332.1617971651205
 30
0.0
 11
570.3283304909886
 21
303.7617971651206
 31
0.0
  0
LINE
  5
394
330
18
100
AcDbEntity
  8
握り
100
AcDbLine
 10
594.0016805748464
 20
331.6617971651206
 30
0.0
 11
594.0016805748464
 21
304.2617971651206
 31
0.0
  0
LINE
  5
395
330
18
100
AcDbEntity
  8
握り
100
AcDbLine
 10
560.3283304909886
 20
303.7617971651206
 30
0.0
 11
567.6750306587041
 21
303.7617971651206
 31
0.0
  0
ARC
  5
396
330
18
100
AcDbEntity
  8
握り
100
AcDbCircle
 10
549.0016805748464
 20
304.4617971651206
 30
0.0
 40
1.5
100
AcDbArc
 50
207.8181392846543
 51
332.1818607153458
  0
ARC
  5
397
330
18
100
AcDbEntity
  8
握り
100
AcDbCircle
 10
539.0016805748464
 20
304.4617971651206
 30
0.0
 40
1.5
100
AcDbArc
 50
207.8181392846543
 51
332.1818607153458
  0
LINE
  5
398
330
18
100
AcDbEntity
  8
握り
100
AcDbLine
 10
540.3283304909887
 20
303.7617971651206
 30
0.0
 11
547.6750306587042
 21
303.7617971651206
 31
0.0
  0
LINE
  5
399
330
18
100
AcDbEntity
  8
握り
100
AcDbLine
 10
550.3283304909886
 20
303.7617971651206
 30
0.0
 11
557.6750306587042
 21
303.7617971651206
 31
0.0
  0
ARC
  5
39A
330
18
100
AcDbEntity
  8
握り
100
AcDbCircle
 10
559.0016805748464
 20
304.4617971651206
 30
0.0
 40
1.5
100
AcDbArc
 50
207.8181392846543
 51
332.1818607153458
  0
LINE
  5
39B
330
18
100
AcDbEntity
  8
握り
100
AcDbLine
 10
580.3283304909887
 20
303.7617971651206
 30
0.0
 11
587.6750306587042
 21
303.7617971651205
 31
0.0
  0
LINE
  5
39C
330
18
100
AcDbEntity
  8
握り
100
AcDbLine
 10
570.3283304909884
 20
303.7617971651206
 30
0.0
 11
577.6750306587043
 21
303.7617971651206
 31
0.0
  0
ARC
  5
39D
330
18
100
AcDbEntity
  8
握り
100
AcDbCircle
 10
569.0016805748464
 20
304.4617971651206
 30
0.0
 40
1.5
100
AcDbArc
 50
207.8181392846543
 51
332.1818607153458
  0
ARC
  5
39E
330
18
100
AcDbEntity
  8
握り
100
AcDbCircle
 10
579.0016805748464
 20
304.4617971651206
 30
0.0
 40
1.5
100
AcDbArc
 50
207.8181392846543
 51
332.1818607153458
  0
LINE
  5
39F
330
18
100
AcDbEntity
  8
握り
100
AcDbLine
 10
590.3283304909885
 20
303.7617971651205
 30
0.0
 11
593.5016805748464
 21
303.7617971651206
 31
0.0
  0
ARC
  5
3A0
330
18
100
AcDbEntity
  8
握り
100
AcDbCircle
 10
589.0016805748464
 20
304.4617971651206
 30
0.0
 40
1.5
100
AcDbArc
 50
207.8181392846543
 51
332.1818607153458
  0
ARC
  5
3A1
330
18
100
AcDbEntity
  8
握り
100
AcDbCircle
 10
593.5016805748464
 20
304.2617971651206
 30
0.0
 40
0.5
100
AcDbArc
 50
270.0
 51
0.0
  0
LINE
  5
3A2
330
18
100
AcDbEntity
  8
握り
100
AcDbLine
 10
560.3283304909886
 20
311.3084971651206
 30
0.0
 11
567.6750306587041
 21
311.3084971651206
 31
0.0
  0
LINE
  5
3A3
330
18
100
AcDbEntity
  8
握り
100
AcDbLine
 10
560.3283304909886
 20
324.6150971651206
 30
0.0
 11
567.6750306587041
 21
324.6150971651206
 31
0.0
  0
LINE
  5
3A4
330
18
100
AcDbEntity
  8
握り
100
AcDbLine
 10
560.3283304909886
 20
332.1617971651205
 30
0.0
 11
567.6750306587041
 21
332.1617971651205
 31
0.0
  0
LINE
  5
3A5
330
18
100
AcDbEntity
  8
握り
100
AcDbLine
 10
540.3283304909884
 20
311.3084971651206
 30
0.0
 11
547.6750306587042
 21
311.3084971651206
 31
0.0
  0
LINE
  5
3A6
330
18
100
AcDbEntity
  8
握り
100
AcDbLine
 10
550.3283304909886
 20
311.3084971651206
 30
0.0
 11
557.6750306587042
 21
311.3084971651206
 31
0.0
  0
LINE
  5
3A7
330
18
100
AcDbEntity
  8
握り
100
AcDbLine
 10
547.6750306587042
 20
332.1617971651205
 30
0.0
 11
547.6750306587043
 21
324.6150971651206
 31
0.0
  0
LINE
  5
3A8
330
18
100
AcDbEntity
  8
握り
100
AcDbLine
 10
540.3283304909885
 20
332.1617971651205
 30
0.0
 11
540.3283304909887
 21
324.6150971651206
 31
0.0
  0
LINE
  5
3A9
330
18
100
AcDbEntity
  8
握り
100
AcDbLine
 10
537.6750306587042
 20
332.1617971651205
 30
0.0
 11
537.6750306587044
 21
324.6150971651206
 31
0.0
  0
LINE
  5
3AA
330
18
100
AcDbEntity
  8
握り
100
AcDbLine
 10
540.3283304909885
 20
324.6150971651206
 30
0.0
 11
547.6750306587043
 21
324.6150971651206
 31
0.0
  0
LINE
  5
3AB
330
18
100
AcDbEntity
  8
握り
100
AcDbLine
 10
540.3283304909887
 20
332.1617971651205
 30
0.0
 11
547.6750306587042
 21
332.1617971651206
 31
0.0
  0
LINE
  5
3AC
330
18
100
AcDbEntity
  8
握り
100
AcDbLine
 10
560.3283304909886
 20
332.1617971651205
 30
0.0
 11
560.3283304909886
 21
324.6150971651206
 31
0.0
  0
LINE
  5
3AD
330
18
100
AcDbEntity
  8
握り
100
AcDbLine
 10
557.6750306587042
 20
332.1617971651205
 30
0.0
 11
557.6750306587043
 21
324.6150971651206
 31
0.0
  0
LINE
  5
3AE
330
18
100
AcDbEntity
  8
握り
100
AcDbLine
 10
550.3283304909886
 20
332.1617971651205
 30
0.0
 11
550.3283304909887
 21
324.6150971651206
 31
0.0
  0
LINE
  5
3AF
330
18
100
AcDbEntity
  8
握り
100
AcDbLine
 10
550.3283304909887
 20
324.6150971651206
 30
0.0
 11
557.6750306587042
 21
324.6150971651206
 31
0.0
  0
LINE
  5
3B0
330
18
100
AcDbEntity
  8
握り
100
AcDbLine
 10
550.3283304909886
 20
332.1617971651206
 30
0.0
 11
557.6750306587042
 21
332.1617971651205
 31
0.0
  0
LINE
  5
3B1
330
18
100
AcDbEntity
  8
握り
100
AcDbLine
 10
567.6750306587043
 20
321.9617971651207
 30
0.0
 11
567.6750306587041
 21
313.9617971651206
 31
0.0
  0
LINE
  5
3B2
330
18
100
AcDbEntity
  8
握り
100
AcDbLine
 10
580.3283304909887
 20
332.1617971651205
 30
0.0
 11
587.6750306587042
 21
332.1617971651205
 31
0.0
  0
LINE
  5
3B3
330
18
100
AcDbEntity
  8
握り
100
AcDbLine
 10
567.6750306587043
 20
332.1617971651205
 30
0.0
 11
567.6750306587043
 21
324.6150971651206
 31
0.0
  0
LINE
  5
3B4
330
18
100
AcDbEntity
  8
握り
100
AcDbLine
 10
570.3283304909884
 20
332.1617971651205
 30
0.0
 11
577.6750306587043
 21
332.1617971651205
 31
0.0
  0
LINE
  5
3B5
330
18
100
AcDbEntity
  8
握り
100
AcDbLine
 10
590.3283304909885
 20
332.1617971651205
 30
0.0
 11
593.5016805748464
 21
332.1617971651205
 31
0.0
  0
LINE
  5
3B6
330
18
100
AcDbEntity
  8
中心線
 48
0.5
100
AcDbLine
 10
428.1838452930022
 20
369.5350379128315
 30
0.0
 11
416.7944527762139
 21
271.1721025405679
 31
0.0
  0
TEXT
  5
4A7
330
18
100
AcDbEntity
  8
文字
100
AcDbText
 10
479.6563244845923
 20
368.9707027871146
 30
0.0
 40
1.0
  1
0.05mm
  7
STYLE3
100
AcDbText
  0
HATCH
  5
4A8
330
18
100
AcDbEntity
  8
ROGO
 62
     4
100
AcDbHatch
 10
0.0
 20
0.0
 30
0.0
210
0.0
220
0.0
230
1.0
  2
SOLID
 70
     1
 71
     1
 91
        1
 92
        7
 72
     0
 73
     1
 93
       11
 10
482.2297391947635
 20
378.8267638062271
 10
481.4736719947634
 20
378.8267638062271
 10
481.1196589116845
 20
378.6027403974054
 10
481.2313642186055
 20
378.8267638062271
 10
480.4752804761014
 20
378.8267638062271
 10
479.4521474444315
 20
376.7748850213211
 10
480.2082311869358
 20
376.7748850213211
 10
480.4752804761013
 20
377.3104485834406
 10
480.7423297652672
 20
376.7748850213211
 10
481.498396965267
 20
376.7748850213211
 10
480.9868304494322
 20
377.8008244137741
 97
       11
330
57D
330
580
330
581
330
4AA
330
53C
330
504
330
53B
330
4A9
330
57C
330
57F
330
57E
 75
     0
 76
     1
 47
0.0514683685270805
 98
        1
 10
480.4102092296975
 20
377.9464678227856
450
        0
451
        0
460
0.0
461
0.0
452
        0
462
0.0
453
        0
470

  0
LINE
  5
4A9
102
{ACAD_REACTORS
330
4A8
102
}
330
18
100
AcDbEntity
  8
ROGO
 62
     4
100
AcDbLine
 10
480.4752804761014
 20
377.3104485834406
 30
0.0
 11
480.7423297652671
 21
376.7748850213211
 31
0.0
  0
LINE
  5
4AA
102
{ACAD_REACTORS
330
4A8
102
}
330
18
100
AcDbEntity
  8
ROGO
 62
     4
100
AcDbLine
 10
480.4752804761014
 20
378.8267638062271
 30
0.0
 11
481.2313642186055
 21
378.8267638062271
 31
0.0
  0
LINE
  5
4AB
330
18
100
AcDbEntity
  8
目盛
100
AcDbLine
 10
481.1090714454704
 20
391.336097039909
 30
0.0
 11
480.1820204623455
 21
388.4829274910236
 31
0.0
  0
LINE
  5
4AC
330
18
100
AcDbEntity
  8
目盛
100
AcDbLine
 10
481.1090714454703
 20
347.5874972903321
 30
0.0
 11
480.1820204623455
 21
350.4406668392175
 31
0.0
  0
CIRCLE
  5
4AD
330
18
100
AcDbEntity
  8
外形線
100
AcDbCircle
 10
474.0016805748465
 20
369.4617971651206
 30
0.0
 40
23.0
  0
CIRCLE
  5
4AE
330
18
100
AcDbEntity
  8
外形線
100
AcDbCircle
 10
474.0016805748465
 20
369.4617971651206
 30
0.0
 40
15.5
  0
LINE
  5
4AF
330
18
100
AcDbEntity
  8
中心線
 48
0.2
100
AcDbLine
 10
470.8016805748464
 20
367.2510331723284
 30
0.0
 11
470.8016805748464
 21
351.5614391502929
 31
0.0
  0
LINE
  5
4B0
330
18
100
AcDbEntity
  8
目盛
100
AcDbLine
 10
460.4826197721195
 20
350.8544062944968
 30
0.0
 11
462.245975528997
 21
353.2814572776215
 31
0.0
  0
LINE
  5
4B1
330
18
100
AcDbEntity
  8
目盛
100
AcDbLine
 10
459.3409288106266
 20
351.7399925812774
 30
0.0
 11
460.6157767901239
 21
353.281019066829
 31
0.0
  0
LINE
  5
4B2
330
18
100
AcDbEntity
  8
目盛
100
AcDbLine
 10
458.2570971384866
 20
352.6955187344281
 30
0.0
 11
459.6261913503439
 21
354.1534559892709
 31
0.0
  0
LINE
  5
4B3
330
18
100
AcDbEntity
  8
目盛
100
AcDbLine
 10
461.6776642903294
 20
350.0422548785742
 30
0.0
 11
462.7493178802875
 21
351.7309107295782
 31
0.0
  0
LINE
  5
4B4
330
18
100
AcDbEntity
  8
目盛
100
AcDbLine
 10
466.8942897042226
 20
347.587497290332
 30
0.0
 11
467.8213406873475
 21
350.4406668392175
 31
0.0
  0
LINE
  5
4B5
330
18
100
AcDbEntity
  8
目盛
100
AcDbLine
 10
465.5348158630989
 20
348.0769379896908
 30
0.0
 11
466.2710649684682
 21
349.9364909614673
 31
0.0
  0
LINE
  5
4B6
330
18
100
AcDbEntity
  8
目盛
100
AcDbLine
 10
464.2087568688499
 20
348.6507749584021
 30
0.0
 11
465.0603154519799
 21
350.4604290633342
 31
0.0
  0
LINE
  5
4B7
330
18
100
AcDbEntity
  8
目盛
100
AcDbLine
 10
462.9213460705071
 20
349.3067435241117
 30
0.0
 11
463.8848534187105
 21
351.0593568841994
 31
0.0
  0
TEXT
  5
4B8
330
18
100
AcDbEntity
  8
文字
100
AcDbText
 10
472.4484268531147
 20
350.0994249678417
 30
0.0
 40
2.0
  1
.5
  7
STYLE3
100
AcDbText
  0
LINE
  5
4B9
330
18
100
AcDbEntity
  8
目盛
100
AcDbLine
 10
474.0016805748465
 20
349.4617971651206
 30
0.0
 11
474.0016805748465
 21
346.4617971651206
 31
0.0
  0
LINE
  5
4BA
330
18
100
AcDbEntity
  8
目盛
100
AcDbLine
 10
472.5574986256723
 20
346.5071824112703
 30
0.0
 11
472.6830796647308
 21
348.5032358681269
 31
0.0
  0
LINE
  5
4BB
330
18
100
AcDbEntity
  8
目盛
100
AcDbLine
 10
471.1190162028675
 20
346.6431590348876
 30
0.0
 11
471.3696826699961
 21
348.6273884375165
 31
0.0
  0
LINE
  5
4BC
330
18
100
AcDbEntity
  8
目盛
100
AcDbLine
 10
469.6919103393748
 20
346.8691903983607
 30
0.0
 11
470.0666729685464
 21
348.8337648998181
 31
0.0
  0
LINE
  5
4BD
330
18
100
AcDbEntity
  8
目盛
100
AcDbLine
 10
468.2818131700549
 20
347.1843844591621
 30
0.0
 11
468.7791929443845
 21
349.1215507814193
 31
0.0
  0
LINE
  5
4BE
330
18
100
AcDbEntity
  8
目盛
100
AcDbLine
 10
479.721547979638
 20
347.1843844591621
 30
0.0
 11
479.2241682053084
 21
349.1215507814193
 31
0.0
  0
LINE
  5
4BF
330
18
100
AcDbEntity
  8
目盛
100
AcDbLine
 10
478.3114508103181
 20
346.8691903983608
 30
0.0
 11
477.9366881811467
 21
348.8337648998182
 31
0.0
  0
LINE
  5
4C0
330
18
100
AcDbEntity
  8
目盛
100
AcDbLine
 10
476.8843449468255
 20
346.6431590348876
 30
0.0
 11
476.6336784796968
 21
348.6273884375166
 31
0.0
  0
LINE
  5
4C1
330
18
100
AcDbEntity
  8
目盛
100
AcDbLine
 10
475.4458625240206
 20
346.5071824112703
 30
0.0
 11
475.3202814849619
 21
348.5032358681269
 31
0.0
  0
LINE
  5
4C2
330
18
100
AcDbEntity
  8
外形線
  6
Continuous
100
AcDbLine
 10
470.3016805748465
 20
397.4617971651205
 30
0.0
 11
470.3016805748465
 21
395.6012309768924
 31
0.0
  0
LINE
  5
4C3
330
18
100
AcDbEntity
  8
外形線
  6
Continuous
100
AcDbLine
 10
477.7016805748464
 20
397.4617971651205
 30
0.0
 11
477.7016805748464
 21
395.6012309768924
 31
0.0
  0
TEXT
  5
4C4
330
18
100
AcDbEntity
  8
文字
100
AcDbText
 10
455.5787034899782
 20
374.52882273707
 30
0.0
 40
2.0
  1
4
  7
STYLE3
100
AcDbText
  0
TEXT
  5
4C5
330
18
100
AcDbEntity
  8
文字
100
AcDbText
 10
455.4730211351364
 20
362.3793710651261
 30
0.0
 40
2.0
  1
.5
  7
STYLE3
100
AcDbText
  0
LINE
  5
4C6
330
18
100
AcDbEntity
  8
目盛
100
AcDbLine
 10
455.3942897042226
 20
355.9427363623937
 30
0.0
 11
457.8213406873474
 21
357.7060921192711
 31
0.0
  0
LINE
  5
4C7
330
18
100
AcDbEntity
  8
目盛
100
AcDbLine
 10
454.5821382883
 20
357.1377808806037
 30
0.0
 11
456.2707941393042
 21
358.2094344705617
 31
0.0
  0
LINE
  5
4C8
330
18
100
AcDbEntity
  8
目盛
100
AcDbLine
 10
454.5821382883
 20
381.7858134496375
 30
0.0
 11
456.2707941393042
 21
380.7141598596795
 31
0.0
  0
LINE
  5
4C9
330
18
100
AcDbEntity
  8
目盛
100
AcDbLine
 10
455.3942897042225
 20
382.9808579678474
 30
0.0
 11
457.8213406873474
 21
381.21750221097
 31
0.0
  0
LINE
  5
4CA
330
18
100
AcDbEntity
  8
目盛
100
AcDbLine
 10
451.7242678688879
 20
363.7419297603289
 30
0.0
 11
453.6614341911452
 21
364.2393095346586
 31
0.0
  0
LINE
  5
4CB
330
18
100
AcDbEntity
  8
目盛
100
AcDbLine
 10
453.8466269338376
 20
358.3814626607811
 30
0.0
 11
455.5992402939253
 21
359.3449700089845
 31
0.0
  0
LINE
  5
4CC
330
18
100
AcDbEntity
  8
目盛
100
AcDbLine
 10
453.190658368128
 20
359.6688734591239
 30
0.0
 11
455.00031247306
 21
360.520432042254
 31
0.0
  0
LINE
  5
4CD
330
18
100
AcDbEntity
  8
目盛
100
AcDbLine
 10
452.6168213994166
 20
360.9949324533729
 30
0.0
 11
454.4763743711931
 21
361.7311815587423
 31
0.0
  0
LINE
  5
4CE
330
18
100
AcDbEntity
  8
目盛
100
AcDbLine
 10
452.127380700058
 20
362.3544062944968
 30
0.0
 11
454.9805502489433
 21
363.2814572776216
 31
0.0
  0
LINE
  5
4CF
330
18
100
AcDbEntity
  8
目盛
100
AcDbLine
 10
451.0016805748464
 20
369.4617971651206
 30
0.0
 11
454.0016805748464
 21
369.4617971651206
 31
0.0
  0
LINE
  5
4D0
330
18
100
AcDbEntity
  8
目盛
100
AcDbLine
 10
451.4090738080866
 20
365.1520269296489
 30
0.0
 11
453.3736483095438
 21
365.5267895588204
 31
0.0
  0
LINE
  5
4D1
330
18
100
AcDbEntity
  8
目盛
100
AcDbLine
 10
451.1830424446134
 20
366.5791327931416
 30
0.0
 11
453.1672718472425
 21
366.8297992602702
 31
0.0
  0
LINE
  5
4D2
330
18
100
AcDbEntity
  8
目盛
100
AcDbLine
 10
451.047065820996
 20
368.0176152159464
 30
0.0
 11
453.0431192778526
 21
368.143196255005
 31
0.0
  0
LINE
  5
4D3
330
18
100
AcDbEntity
  8
目盛
100
AcDbLine
 10
451.047065820996
 20
370.9059791142948
 30
0.0
 11
453.0431192778526
 21
370.7803980752362
 31
0.0
  0
LINE
  5
4D4
330
18
100
AcDbEntity
  8
目盛
100
AcDbLine
 10
451.1830424446134
 20
372.3444615370996
 30
0.0
 11
453.1672718472424
 21
372.093795069971
 31
0.0
  0
LINE
  5
4D5
330
18
100
AcDbEntity
  8
目盛
100
AcDbLine
 10
451.4090738080866
 20
373.7715674005922
 30
0.0
 11
453.3736483095439
 21
373.3968047714208
 31
0.0
  0
LINE
  5
4D6
330
18
100
AcDbEntity
  8
目盛
100
AcDbLine
 10
451.7242678688879
 20
375.1816645699122
 30
0.0
 11
453.6614341911452
 21
374.6842847955826
 31
0.0
  0
LINE
  5
4D7
330
18
100
AcDbEntity
  8
目盛
100
AcDbLine
 10
452.1273807000578
 20
376.5691880357444
 30
0.0
 11
454.9805502489433
 21
375.6421370526195
 31
0.0
  0
LINE
  5
4D8
330
18
100
AcDbEntity
  8
目盛
100
AcDbLine
 10
452.6168213994165
 20
377.9286618768681
 30
0.0
 11
454.4763743711931
 21
377.1924127714988
 31
0.0
  0
LINE
  5
4D9
330
18
100
AcDbEntity
  8
目盛
100
AcDbLine
 10
453.190658368128
 20
379.2547208711172
 30
0.0
 11
455.00031247306
 21
378.4031622879871
 31
0.0
  0
LINE
  5
4DA
330
18
100
AcDbEntity
  8
目盛
100
AcDbLine
 10
453.8466269338376
 20
380.5421316694601
 30
0.0
 11
455.5992402939253
 21
379.5786243212566
 31
0.0
  0
HATCH
  5
4DB
330
18
100
AcDbEntity
  8
ﾊｯﾁﾝｸ
  6
Continuous
100
AcDbHatch
 10
0.0
 20
0.0
 30
0.0
210
0.0
220
0.0
230
1.0
  2
SOLID
 70
     1
 71
     0
 91
        1
 92
        1
 93
        3
 72
     1
 10
474.0016805748465
 20
392.4617971651206
 11
474.5016805748464
 21
370.8760107274937
 72
     2
 10
474.0016805748465
 20
369.4617971651206
 40
1.5
 50
70.52877936551252
 51
109.4712206344913
 73
     1
 72
     1
 10
473.5016805748464
 20
370.8760107274937
 11
474.0016805748464
 21
392.4617971651196
 97
        0
 75
     0
 76
     1
 98
        1
 10
246.4492598253803
 20
383.7173923953532
450
        0
451
        0
460
0.0
461
0.0
452
        0
462
0.0
453
        0
470

  0
LINE
  5
4DC
330
18
100
AcDbEntity
  8
針
  6
Continuous
100
AcDbLine
 10
474.0016805748465
 20
392.4617971651197
 30
0.0
 11
473.5016805748464
 21
370.8760107274937
 31
0.0
  0
LINE
  5
4DD
330
18
100
AcDbEntity
  8
針
  6
Continuous
100
AcDbLine
 10
474.0016805748465
 20
392.4617971651206
 30
0.0
 11
474.5016805748464
 21
370.8760107274937
 31
0.0
  0
LINE
  5
4DE
330
18
100
AcDbEntity
  8
目盛
100
AcDbLine
 10
468.0097006264571
 20
355.5449950303256
 30
0.0
 11
468.3035932526033
 21
355.9495035275131
 31
0.0
  0
LINE
  5
4DF
330
18
100
AcDbEntity
  8
目盛
100
AcDbLine
 10
468.0097006264571
 20
363.2306564768876
 30
0.0
 11
468.3035932526034
 21
362.8261479797002
 31
0.0
  0
LINE
  5
4E0
330
18
100
AcDbEntity
  8
中心線
 48
0.2
100
AcDbLine
 10
463.8424053879167
 20
359.3878257536066
 30
0.0
 11
478.3703928358969
 21
359.3878257536066
 31
0.0
  0
CIRCLE
  5
4E1
330
18
100
AcDbEntity
  8
外形線
100
AcDbCircle
 10
470.8016805748464
 20
359.3878257536066
 30
0.0
 40
4.75
  0
TEXT
  5
4E2
330
18
100
AcDbEntity
  8
文字
100
AcDbText
 10
461.8518776016824
 20
353.7443422511012
 30
0.0
 40
2.0
  1
3
  7
STYLE3
100
AcDbText
  0
LINE
  5
4E3
330
18
100
AcDbEntity
  8
目盛
100
AcDbLine
 10
457.235402144154
 20
353.7172137287607
 30
0.0
 11
458.6933393989968
 21
355.086307940618
 31
0.0
  0
LINE
  5
4E4
330
18
100
AcDbEntity
  8
目盛
100
AcDbLine
 10
456.2798759910032
 20
354.8010454009007
 30
0.0
 11
457.8209024765548
 21
356.0758933803981
 31
0.0
  0
TEXT
  5
4E5
330
18
100
AcDbEntity
  8
文字
100
AcDbText
 10
466.9736779099231
 20
360.1024920611526
 30
0.0
 40
0.7
  1
10
  7
STYLE3
100
AcDbText
  0
TEXT
  5
4E6
330
18
100
AcDbEntity
  8
文字
100
AcDbText
 10
466.9444349058895
 20
357.8808463459157
 30
0.0
 40
0.7
  1
15
  7
STYLE3
100
AcDbText
  0
LINE
  5
4E7
330
18
100
AcDbEntity
  8
目盛
100
AcDbLine
 10
466.2841621224443
 20
357.9199950303256
 30
0.0
 11
466.7596903805919
 21
358.0745035275131
 31
0.0
  0
LINE
  5
4E8
330
18
100
AcDbEntity
  8
目盛
100
AcDbLine
 10
466.2841621224443
 20
360.8556564768877
 30
0.0
 11
466.7596903805921
 21
360.7011479797002
 31
0.0
  0
HATCH
  5
4E9
330
18
100
AcDbEntity
  8
ﾊｯﾁﾝｸ
100
AcDbHatch
 10
0.0
 20
0.0
 30
0.0
210
0.0
220
0.0
230
1.0
  2
SOLID
 70
     1
 71
     0
 91
        3
 92
        7
 72
     1
 73
     1
 93
        5
 10
471.0016805748464
 20
364.1336133594736
 42
0.0105298176880202
 10
470.8016805748464
 20
364.1378257536067
 42
0.0
 10
470.8016805748464
 20
363.6378257536066
 42
0.0
 10
470.8016805748464
 20
360.5378257536066
 42
-0.0437283108272093
 10
471.0016805748464
 20
360.5203009188973
 42
0.0
 97
        0
 92
        7
 72
     1
 73
     1
 93
        4
 10
470.8016805748465
 20
364.1378257536067
 42
0.0105298176880232
 10
470.6016805748464
 20
364.1336133594736
 42
0.0
 10
470.6016805748464
 20
360.5203009188973
 42
-0.0437283108272093
 10
470.8016805748464
 20
360.5378257536066
 42
0.0
 97
        0
 92
      137
 93
        4
 72
     1
 10
470.2081612785732
 20
362.1655996820815
 11
471.3748279452398
 21
362.1655996820815
 72
     1
 10
471.3748279452398
 20
362.1655996820815
 11
471.3748279452398
 21
363.6655996820815
 72
     1
 10
471.3748279452398
 20
363.6655996820815
 11
470.2081612785732
 21
363.6655996820815
 72
     1
 10
470.2081612785732
 20
363.6655996820815
 11
470.2081612785732
 21
362.1655996820815
 97
        0
 75
     0
 76
     1
 47
0.0128177587452554
 98
        3
 10
470.9503831297777
 20
361.071605002754
 10
470.8734130477591
 20
362.2764746905021
 10
470.6938159220121
 20
362.2252035238018
450
        0
451
        0
460
0.0
461
0.0
452
        0
462
0.0
453
        0
470

  0
LINE
  5
4EA
330
18
100
AcDbEntity
  8
中心線
 48
0.2
100
AcDbLine
 10
470.6016805748464
 20
364.1336133594736
 30
0.0
 11
470.6016805748464
 21
360.5203009188973
 31
0.0
  0
LINE
  5
4EB
330
18
100
AcDbEntity
  8
中心線
 48
0.2
100
AcDbLine
 10
471.0016805748464
 20
364.1336133594736
 30
0.0
 11
471.0016805748464
 21
360.5203009188973
 31
0.0
  0
LINE
  5
4EC
330
18
100
AcDbEntity
  8
目盛
100
AcDbLine
 10
470.8016805748464
 20
364.1378257536067
 30
0.0
 11
470.8016805748464
 21
363.6378257536066
 31
0.0
  0
TEXT
  5
4ED
330
18
100
AcDbEntity
  8
文字
100
AcDbText
 10
473.4030979470232
 20
357.7693248623863
 30
0.0
 40
0.7
  1
35
  7
STYLE3
100
AcDbText
  0
TEXT
  5
4EE
330
18
100
AcDbEntity
  8
文字
100
AcDbText
 10
473.3189790956671
 20
359.9493638279463
 30
0.0
 40
0.7
  1
40
  7
STYLE3
100
AcDbText
  0
TEXT
  5
4EF
330
18
100
AcDbEntity
  8
文字
100
AcDbText
 10
468.2721149610509
 20
361.884061971036
 30
0.0
 40
0.7
  1
5
  7
STYLE3
100
AcDbText
  0
TEXT
  5
4F0
330
18
100
AcDbEntity
  8
文字
100
AcDbText
 10
468.2420826784396
 20
356.083857386408
 30
0.0
 40
0.7
  1
20
  7
STYLE3
100
AcDbText
  0
TEXT
  5
4F1
330
18
100
AcDbEntity
  8
文字
100
AcDbText
 10
470.1394234478757
 20
355.4855311395157
 30
0.0
 40
0.7
  1
25
  7
STYLE3
100
AcDbText
  0
TEXT
  5
4F2
330
18
100
AcDbEntity
  8
文字
100
AcDbText
 10
472.2105823294103
 20
356.1652051230972
 30
0.0
 40
0.7
  1
30
  7
STYLE3
100
AcDbText
  0
TEXT
  5
4F3
330
18
100
AcDbEntity
  8
文字
100
AcDbText
 10
472.2132682652087
 20
361.8334560592622
 30
0.0
 40
0.7
  1
45
  7
STYLE3
100
AcDbText
  0
TEXT
  5
4F4
330
18
100
AcDbEntity
  8
文字
100
AcDbText
 10
470.4389944481676
 20
362.4361977783595
 30
0.0
 40
0.7
  1
0
  7
STYLE3
100
AcDbText
  0
CIRCLE
  5
4F5
330
18
100
AcDbEntity
  8
外形線
100
AcDbCircle
 10
470.8016805748464
 20
359.3878257536066
 30
0.0
 40
1.149999999999999
  0
LINE
  5
4F6
330
18
100
AcDbEntity
  8
目盛
100
AcDbLine
 10
473.5936605232356
 20
363.2306564768876
 30
0.0
 11
473.2997678970894
 21
362.8261479797002
 31
0.0
  0
LINE
  5
4F7
330
18
100
AcDbEntity
  8
目盛
100
AcDbLine
 10
473.5936605232358
 20
355.5449950303256
 30
0.0
 11
473.2997678970894
 21
355.9495035275132
 31
0.0
  0
LINE
  5
4F8
330
18
100
AcDbEntity
  8
目盛
100
AcDbLine
 10
470.8016805748464
 20
354.6378257536066
 30
0.0
 11
470.8016805748464
 21
355.1378257536066
 31
0.0
  0
LINE
  5
4F9
330
18
100
AcDbEntity
  8
目盛
100
AcDbLine
 10
475.3191990272482
 20
360.8556564768877
 30
0.0
 11
474.8436707691007
 21
360.7011479797001
 31
0.0
  0
LINE
  5
4FA
330
18
100
AcDbEntity
  8
目盛
100
AcDbLine
 10
475.3191990272482
 20
357.9199950303256
 30
0.0
 11
474.8436707691007
 21
358.0745035275131
 31
0.0
  0
CIRCLE
  5
4FB
330
18
100
AcDbEntity
  8
外形線
100
AcDbCircle
 10
474.0016805748465
 20
369.4617971651206
 30
0.0
 40
1.5
  0
POINT
  5
4FC
330
18
100
AcDbEntity
  8
DEFPOINTS
  6
ByBlock
 62
     0
100
AcDbPoint
 10
474.0016805748464
 20
369.4617971651206
 30
0.0
  0
POINT
  5
4FD
330
18
100
AcDbEntity
  8
DEFPOINTS
  6
ByBlock
 62
     0
100
AcDbPoint
 10
474.0016805748464
 20
369.4617971651206
 30
0.0
  0
HATCH
  5
4FE
330
18
100
AcDbEntity
  8
ROGO
 62
     4
100
AcDbHatch
 10
0.0
 20
0.0
 30
0.0
210
0.0
220
0.0
230
1.0
  2
SOLID
 70
     1
 71
     1
 91
        2
 92
        5
 93
        6
 72
     1
 10
466.319053919912
 20
376.7748850213211
 11
467.2728548758485
 21
376.7748850213211
 72
     1
 10
467.2728548758485
 20
376.7748850213211
 11
467.6070790266769
 21
377.5136188756696
 72
     1
 10
467.6070790266769
 20
377.5136188756696
 11
468.4986872948491
 21
377.5136188756696
 72
     4
 94
        3
 73
     0
 74
     0
 95
       18
 96
       14
 40
0.108740278791501
 40
0.108740278791501
 40
0.108740278791501
 40
0.108740278791501
 40
0.6623149649549278
 40
1.384304701649787
 40
2.097394834876493
 40
2.774073369849618
 40
3.428974823686337
 40
4.005208313035923
 40
4.455173659284313
 40
4.720999734343524
 40
5.086034088486724
 40
5.569973738255373
 40
6.060470601257719
 40
6.060470601257719
 40
6.060470601257719
 40
6.060470601257719
 10
468.4986872948491
 20
377.5136188756696
 10
468.5614372117438
 20
377.5140861553007
 10
468.7060275687973
 20
377.5151628759093
 10
468.9083083469046
 20
377.6232257124047
 10
469.1001283199976
 20
377.7608898927464
 10
469.254626259079
 20
377.9328869235483
 10
469.3508831299551
 20
378.129536061069
 10
469.3657930150022
 20
378.3180061966407
 10
469.3566908964913
 20
378.4670837307971
 10
469.2916516879482
 20
378.5709944731
 10
469.2240354940235
 20
378.6764532502727
 10
469.1000502584763
 20
378.7678055600641
 10
468.9984623106258
 20
378.8078314513794
 10
468.9468027729898
 20
378.8267638062271
 72
     1
 10
468.9468027729899
 20
378.8267638062271
 11
467.3343044600046
 21
378.8267638062271
 72
     1
 10
467.3343044600046
 20
378.8267638062271
 11
466.319053919912
 21
376.7748850213211
 97
        6
330
531
330
505
330
50C
330
504
330
50A
330
503
 92
       20
 93
        4
 72
     4
 94
        3
 73
     0
 74
     0
 95
       15
 96
       11
 40
0.0
 40
0.0
 40
0.0
 40
0.0
 40
0.1539705029175028
 40
0.2241725832587281
 40
0.3038566179396687
 40
0.3581410872474193
 40
0.443992538467216
 40
0.4954152125469665
 40
0.5836396705646186
 40
0.6130478420065743
 40
0.6130478420065743
 40
0.6130478420065743
 40
0.6130478420065743
 10
468.3774283144419
 20
378.3189668950137
 10
468.4352566495012
 20
378.3192317796562
 10
468.5194515245592
 20
378.3196174371259
 10
468.5654922809237
 20
378.2154681331963
 10
468.5448546186904
 20
378.148412228559
 10
468.5189113952661
 20
378.079566714311
 10
468.4730638437239
 20
378.0327851490418
 10
468.4115297141287
 20
377.9877266154048
 10
468.353377021073
 20
377.9822720781453
 10
468.3155552221004
 20
377.9722505846911
 10
468.3060997678311
 20
377.9697452101284
 72
     1
 10
468.3060997678311
 20
377.9697452101284
 11
467.8134435189871
 21
377.9697452101284
 72
     1
 10
467.8134435189871
 20
377.9697452101284
 11
467.9714413153444
 21
378.3189668950137
 72
     1
 10
467.9714413153444
 20
378.3189668950137
 11
468.377428314442
 21
378.3189668950137
 97
        4
330
50B
330
502
330
530
330
501
 75
     0
 76
     1
 47
0.0514683685270805
 98
        2
 10
467.3429230133115
 20
378.1885750493381
 10
467.3429230133115
 20
378.1885750493381
450
        0
451
        0
460
0.0
461
0.0
452
        0
462
0.0
453
        0
470

  0
HATCH
  5
4FF
330
18
100
AcDbEntity
  8
ROGO
 62
     4
100
AcDbHatch
 10
0.0
 20
0.0
 30
0.0
210
0.0
220
0.0
230
1.0
  2
SOLID
 70
     1
 71
     0
 91
        1
 92
        7
 72
     0
 73
     1
 93
        4
 10
467.3659059112704
 20
376.9805552276123
 10
467.2728548758485
 20
376.7748850213211
 10
479.4521474444315
 20
376.7748850213211
 10
479.5547012518177
 20
376.9805552276123
 97
        0
 75
     0
 76
     1
 47
0.0514683685270805
 98
        1
 10
475.0621411721588
 20
376.9261587634076
450
        0
451
        0
460
0.0
461
0.0
452
        0
462
0.0
453
        0
470

  0
LINE
  5
500
330
18
100
AcDbEntity
  8
ROGO
 62
     4
100
AcDbLine
 10
467.3516424643538
 20
376.9805552276123
 30
0.0
 11
479.5547012518177
 21
376.9805552276123
 31
0.0
  0
LINE
  5
501
102
{ACAD_REACTORS
330
4FE
102
}
330
18
100
AcDbEntity
  8
ROGO
 62
     4
100
AcDbLine
 10
468.3060997678311
 20
377.9697452101284
 30
0.0
 11
467.8134435189871
 21
377.9697452101284
 31
0.0
  0
LINE
  5
502
102
{ACAD_REACTORS
330
4FE
102
}
330
18
100
AcDbEntity
  8
ROGO
 62
     4
100
AcDbLine
 10
468.377428314442
 20
378.3189668950137
 30
0.0
 11
467.9714413153445
 21
378.3189668950137
 31
0.0
  0
LINE
  5
503
102
{ACAD_REACTORS
330
4FE
102
}
330
18
100
AcDbEntity
  8
ROGO
 62
     4
100
AcDbLine
 10
468.4986872951582
 20
377.5136188756696
 30
0.0
 11
467.6070790266769
 21
377.5136188756696
 31
0.0
  0
LINE
  5
504
102
{ACAD_REACTORS
330
4A8
330
4FE
102
}
330
18
100
AcDbEntity
  8
ROGO
 62
     4
100
AcDbLine
 10
466.319053919912
 20
376.7748850213211
 30
0.0
 11
480.2082311869358
 21
376.7748850213211
 31
0.0
  0
LINE
  5
505
102
{ACAD_REACTORS
330
4FE
102
}
330
18
100
AcDbEntity
  8
ROGO
 62
     4
100
AcDbLine
 10
467.3343044600046
 20
378.8267638062271
 30
0.0
 11
468.9468027729898
 21
378.8267638062271
 31
0.0
  0
TEXT
  5
506
330
18
100
AcDbEntity
  8
文字
100
AcDbText
 10
462.2847565381137
 20
383.4791904937779
 30
0.0
 40
2.0
  1
.5
  7
STYLE3
100
AcDbText
  0
LINE
  5
507
330
18
100
AcDbEntity
  8
目盛
100
AcDbLine
 10
458.2570971384867
 20
386.2280755958131
 30
0.0
 11
459.6261913503441
 21
384.7701383409703
 31
0.0
  0
LINE
  5
508
330
18
100
AcDbEntity
  8
目盛
100
AcDbLine
 10
456.2798759910034
 20
384.1225489293405
 30
0.0
 11
457.8209024765548
 21
382.847700949843
 31
0.0
  0
LINE
  5
509
330
18
100
AcDbEntity
  8
目盛
100
AcDbLine
 10
457.2354021441539
 20
385.2063806014804
 30
0.0
 11
458.6933393989967
 21
383.8372863896231
 31
0.0
  0
LINE
  5
50A
102
{ACAD_REACTORS
330
4FE
102
}
330
18
100
AcDbEntity
  8
ROGO
 62
     4
100
AcDbLine
 10
467.6070790266769
 20
377.5136188756696
 30
0.0
 11
467.2728548758485
 21
376.7748850213211
 31
0.0
  0
LINE
  5
50B
102
{ACAD_REACTORS
330
4FE
102
}
330
18
100
AcDbEntity
  8
ROGO
 62
     4
100
AcDbLine
 10
467.9714413153445
 20
378.3189668950137
 30
0.0
 11
467.8134435189871
 21
377.9697452101284
 31
0.0
  0
LINE
  5
50C
102
{ACAD_REACTORS
330
4FE
102
}
330
18
100
AcDbEntity
  8
ROGO
 62
     4
100
AcDbLine
 10
467.3343044600046
 20
378.8267638062271
 30
0.0
 11
466.319053919912
 21
376.7748850213211
 31
0.0
  0
LINE
  5
50D
330
18
100
AcDbEntity
  8
目盛
100
AcDbLine
 10
460.4826197721195
 20
388.0691880357444
 30
0.0
 11
462.245975528997
 21
385.6421370526195
 31
0.0
  0
LINE
  5
50E
330
18
100
AcDbEntity
  8
目盛
100
AcDbLine
 10
461.6776642903294
 20
388.8813394516668
 30
0.0
 11
462.7493178802875
 21
387.1926836006629
 31
0.0
  0
LINE
  5
50F
330
18
100
AcDbEntity
  8
目盛
100
AcDbLine
 10
459.3409288106266
 20
387.1836017489638
 30
0.0
 11
460.6157767901239
 21
385.6425752634122
 31
0.0
  0
LINE
  5
510
330
18
100
AcDbEntity
  8
目盛
100
AcDbLine
 10
462.9213460705068
 20
389.6168508061294
 30
0.0
 11
463.8848534187103
 21
387.8642374460417
 31
0.0
  0
LINE
  5
511
330
18
100
AcDbEntity
  8
目盛
100
AcDbLine
 10
464.2087568688496
 20
390.272819371839
 30
0.0
 11
465.0603154519798
 21
388.4631652669069
 31
0.0
  0
LINE
  5
512
330
18
100
AcDbEntity
  8
目盛
100
AcDbLine
 10
465.5348158630989
 20
390.8466563405503
 30
0.0
 11
466.2710649684682
 21
388.9871033687738
 31
0.0
  0
LINE
  5
513
330
18
100
AcDbEntity
  8
目盛
100
AcDbLine
 10
466.8942897042226
 20
391.3360970399091
 30
0.0
 11
467.8213406873474
 21
388.4829274910237
 31
0.0
  0
HATCH
  5
514
330
18
100
AcDbEntity
  8
ROGO
 62
     4
100
AcDbHatch
 10
0.0
 20
0.0
 30
0.0
210
0.0
220
0.0
230
1.0
  2
SOLID
 70
     1
 71
     0
 91
        1
 92
        5
 93
        8
 72
     1
 10
475.7255642755108
 20
378.3381887540102
 11
475.9691835760515
 21
378.8267638062271
 72
     1
 10
475.9691835760515
 20
378.8267638062271
 11
474.6541472339452
 21
378.8267638062271
 72
     4
 94
        3
 73
     0
 74
     0
 95
       26
 96
       22
 40
0.0
 40
0.0
 40
0.0
 40
0.0
 40
0.6806272418834842
 40
1.136254477903046
 40
1.46479881993938
 40
1.710112249467339
 40
2.028296642642858
 40
2.26054023071286
 40
2.679918019583943
 40
3.021285510494669
 40
3.253470102552404
 40
3.481138982867296
 40
3.88839434820105
 40
4.176372499429433
 40
4.331470983165859
 40
4.55178379777286
 40
4.710876624553383
 40
4.941349605730123
 40
5.071777377612479
 40
5.355602839328967
 40
5.485200010717811
 40
5.485200010717811
 40
5.485200010717811
 40
5.485200010717811
 10
474.6541472339451
 20
378.8267638062271
 10
474.5732918431865
 20
378.821939834962
 10
474.4383100291205
 20
378.8138865884653
 10
474.2901008184087
 20
378.7238510846068
 10
474.1815140739985
 20
378.6715083992645
 10
474.1040701395743
 20
378.6003529778449
 10
474.0473034217068
 20
378.5268546253236
 10
473.9757383170093
 20
378.4392818771981
 10
473.9173790191033
 20
378.3373069557336
 10
473.8876601765702
 20
378.2249128146703
 10
473.8613355079165
 20
378.1353340321113
 10
473.8418126929436
 20
378.0355101692189
 10
473.8467798497564
 20
377.9276652810966
 10
473.8538930456408
 20
377.8275044700929
 10
473.8856517355649
 20
377.7560046471661
 10
473.9218192579549
 20
377.7051017002368
 10
473.9661058938098
 20
377.6490377475381
 10
474.0145651581273
 20
377.6119067732079
 10
474.0546449252378
 20
377.5446415180673
 10
474.1248032055003
 20
377.5360579863911
 10
474.1693985995762
 20
377.5189741965141
 10
474.1833780880376
 20
377.5136188756696
 72
     1
 10
474.1833780880376
 20
377.5136188756696
 11
475.3144071030422
 21
377.5136188756696
 72
     1
 10
475.3144071030422
 20
377.5136188756696
 11
475.5580238237209
 21
378.0021887540102
 72
     1
 10
475.5580238237209
 20
378.0021887540102
 11
474.7183428028488
 21
378.0021887540102
 72
     4
 94
        3
 73
     0
 74
     0
 95
       16
 96
       12
 40
0.0
 40
0.0
 40
0.0
 40
0.0
 40
0.2055476186376435
 40
0.413215311645417
 40
0.5370797571173976
 40
0.655840267458388
 40
0.7862675211309036
 40
0.8773481874435923
 40
0.9637758349635053
 40
1.139038695775164
 40
1.497869274526411
 40
1.497869274526411
 40
1.497869274526411
 40
1.497869274526411
 10
474.7183428028488
 20
378.0021887540102
 10
474.6930150641771
 20
378.0096405460988
 10
474.642098349608
 20
378.0246209900981
 10
474.6378370317605
 20
378.0972406792354
 10
474.6436424608222
 20
378.1489881501946
 10
474.6679556106995
 20
378.1866633309107
 10
474.6974516785601
 20
378.2140769819463
 10
474.7084343728117
 20
378.2497789761285
 10
474.7407170019358
 20
378.276738448445
 10
474.7979627533268
 20
378.3220535554207
 10
474.8612666445382
 20
378.3317046607062
 10
474.9037973521597
 20
378.3381887540102
 72
     1
 10
474.9037973521597
 20
378.3381887540103
 11
475.7255642755108
 21
378.3381887540102
 97
        0
 75
     0
 76
     1
 47
0.0514683685270805
 98
        1
 10
475.114064131152
 20
378.5344423498801
450
        0
451
        0
460
0.0
461
0.0
452
        0
462
0.0
453
        0
470

  0
SPLINE
  5
515
330
18
100
AcDbEntity
  8
ROGO
 62
     4
100
AcDbSpline
210
0.0
220
0.0
230
1.0
 70
     8
 71
     3
 72
    26
 73
    22
 74
    20
 42
0.0000000001
 43
0.0000000001
 44
0.0000000001
 40
0.0
 40
0.0
 40
0.0
 40
0.0
 40
0.2382195346591896
 40
0.397689067266058
 40
0.5126795869787669
 40
0.5985392873135731
 40
0.7099038249249733
 40
0.7911890807494741
 40
0.9379713068543702
 40
1.057449928673087
 40
1.138714535893316
 40
1.218398644003506
 40
1.36093802187036
 40
1.461730374800257
 40
1.516014844108008
 40
1.593124329220501
 40
1.648806818593631
 40
1.729472362005518
 40
1.775122082164342
 40
1.874460993765092
 40
1.919820003751207
 40
1.919820003751207
 40
1.919820003751207
 40
1.919820003751207
 10
474.6541472339451
 20
378.8267638062271
 30
0.0
 10
474.5732918431865
 20
378.8219398349619
 30
0.0
 10
474.4383100291206
 20
378.8138865884652
 30
0.0
 10
474.2901008184087
 20
378.723851084607
 30
0.0
 10
474.1815140739985
 20
378.6715083992644
 30
0.0
 10
474.1040701395743
 20
378.6003529778448
 30
0.0
 10
474.0473034217068
 20
378.5268546253236
 30
0.0
 10
473.9757383170092
 20
378.4392818771981
 30
0.0
 10
473.9173790191034
 20
378.3373069557336
 30
0.0
 10
473.8876601765702
 20
378.2249128146702
 30
0.0
 10
473.8613355079165
 20
378.1353340321114
 30
0.0
 10
473.8418126929434
 20
378.0355101692189
 30
0.0
 10
473.8467798497564
 20
377.9276652810968
 30
0.0
 10
473.8538930456408
 20
377.8275044700928
 30
0.0
 10
473.885651735565
 20
377.7560046471663
 30
0.0
 10
473.9218192579548
 20
377.7051017002368
 30
0.0
 10
473.9661058938098
 20
377.6490377475381
 30
0.0
 10
474.0145651581273
 20
377.6119067732078
 30
0.0
 10
474.0546449252377
 20
377.5446415180673
 30
0.0
 10
474.1248032055003
 20
377.536057986391
 30
0.0
 10
474.1693985995761
 20
377.5189741965141
 30
0.0
 10
474.1833780880376
 20
377.5136188756696
 30
0.0
 11
474.6541472339451
 21
378.8267638062271
 31
0.0
 11
474.4187626609913
 21
378.7901216241333
 31
0.0
 11
474.2761051576163
 21
378.7188519352
 31
0.0
 11
474.1762451103304
 21
378.6618362305225
 31
0.0
 11
474.1120495414267
 21
378.6048202934987
 31
0.0
 11
474.0407209948159
 21
378.5192966203093
 31
0.0
 11
473.990790971173
 21
378.4551539235039
 31
0.0
 11
473.9194620144088
 21
378.3268682975467
 31
0.0
 11
473.88379794618
 21
378.2128366558455
 31
0.0
 11
473.8623994232121
 21
378.134439974784
 31
0.0
 11
473.8481334677979
 21
378.0560432937227
 31
0.0
 11
473.8481334677979
 21
377.9135039158558
 31
0.0
 11
473.8623994232121
 21
377.8137262584106
 31
0.0
 11
473.88379794618
 21
377.7638373135147
 31
0.0
 11
473.9265949921158
 21
377.6996946167092
 31
0.0
 11
473.962259470498
 21
377.6569326639414
 31
0.0
 11
474.0193220616945
 21
377.5999169592639
 31
0.0
 11
474.0478535623696
 21
377.5642819986241
 31
0.0
 11
474.1405810421017
 21
377.5286472703305
 31
0.0
 11
474.1833780880376
 21
377.5136188756696
 31
0.0
  0
LINE
  5
516
330
18
100
AcDbEntity
  8
ROGO
 62
     4
100
AcDbLine
 10
474.1833780880376
 20
377.5136188756696
 30
0.0
 11
475.3144071030422
 21
377.5136188756696
 31
0.0
  0
HATCH
  5
517
330
18
100
AcDbEntity
  8
ROGO
 62
     4
100
AcDbHatch
 10
0.0
 20
0.0
 30
0.0
210
0.0
220
0.0
230
1.0
  2
SOLID
 70
     1
 71
     1
 91
        2
 92
        7
 72
     0
 73
     1
 93
        8
 10
473.2404076626484
 20
378.8267638062271
 10
472.190004179877
 20
378.8267638062271
 10
471.2430698497779
 20
377.5136188756696
 10
471.9703171014694
 20
377.5136188756696
 10
472.1506075390504
 20
377.7636335457604
 10
472.9804845278347
 20
377.7636335457604
 10
473.0915509509036
 20
377.5136188756696
 10
473.8237586730317
 20
377.5136188756696
 97
        8
330
51E
330
524
330
51F
330
520
330
522
330
518
330
51D
330
51A
 92
       22
 72
     0
 73
     1
 93
        3
 10
472.6641320365088
 20
378.4757548292753
 10
472.8633394222341
 20
378.0273315574565
 10
472.3407653001955
 20
378.0273315574565
 97
        3
330
521
330
523
330
519
 75
     0
 76
     1
 47
0.0128389261915577
 98
        2
 10
473.1581527701527
 20
378.511721889418
 10
473.1581527701527
 20
378.511721889418
450
        0
451
        0
460
0.0
461
0.0
452
        0
462
0.0
453
        0
470

  0
LINE
  5
518
102
{ACAD_REACTORS
330
517
102
}
330
18
100
AcDbEntity
  8
ROGO
 62
     4
100
AcDbLine
 10
472.9804845278347
 20
377.7636335457604
 30
0.0
 11
473.0915509509036
 21
377.5136188756696
 31
0.0
  0
LINE
  5
519
102
{ACAD_REACTORS
330
517
102
}
330
18
100
AcDbEntity
  8
ROGO
 62
     4
100
AcDbLine
 10
472.6641320365088
 20
378.4757548292753
 30
0.0
 11
472.8633394222341
 21
378.0273315574564
 31
0.0
  0
LINE
  5
51A
102
{ACAD_REACTORS
330
517
102
}
330
18
100
AcDbEntity
  8
ROGO
 62
     4
100
AcDbLine
 10
473.2404076626484
 20
378.8267638062271
 30
0.0
 11
473.8237586730317
 21
377.5136188756696
 31
0.0
  0
HATCH
  5
51B
330
18
100
AcDbEntity
  8
ROGO
 62
     4
100
AcDbHatch
 10
0.0
 20
0.0
 30
0.0
210
0.0
220
0.0
230
1.0
  2
SOLID
 70
     1
 71
     1
 91
        1
 92
        1
 93
       12
 72
     1
 10
469.8994267661953
 20
378.8267638062271
 11
471.6755099146793
 21
378.8267638062271
 72
     1
 10
471.6755099146793
 20
378.8267638062271
 11
471.5266757189447
 21
378.525961475535
 72
     1
 10
471.5266757189447
 20
378.525961475535
 11
470.5932112967268
 21
378.525961475535
 72
     1
 10
470.5932112967268
 20
378.525961475535
 11
470.4768414506503
 21
378.2907714323508
 72
     1
 10
470.4768414506503
 20
378.2907714323508
 11
471.4103058728682
 21
378.2907714323508
 72
     1
 10
471.4103058728682
 20
378.2907714323508
 11
471.2909794972444
 21
378.0496060756696
 72
     1
 10
471.2909794972444
 20
378.0496060756696
 11
470.3575150750264
 21
378.0496060756696
 72
     1
 10
470.3575150750264
 20
378.0496060756696
 11
470.24114030241
 21
377.8144060756696
 72
     1
 10
470.2411403024101
 20
377.8144060756696
 11
471.174604724628
 21
377.8144060756696
 72
     1
 10
471.174604724628
 20
377.8144060756696
 11
471.0257780154192
 21
377.5136188756696
 72
     1
 10
471.0257780154192
 20
377.5136188756696
 11
469.2496948669353
 21
377.5136188756696
 72
     1
 10
469.2496948669353
 20
377.5136188756696
 11
469.8994267661953
 21
378.8267638062271
 97
       12
330
51C
330
52E
330
52B
330
52C
330
52A
330
527
330
528
330
525
330
529
330
526
330
52D
330
52F
 75
     0
 76
     1
 98
        1
 10
397.2492977874864
 20
288.0286677581158
450
        0
451
        0
460
0.0
461
0.0
452
        0
462
0.0
453
        0
470

  0
LINE
  5
51C
102
{ACAD_REACTORS
330
51B
102
}
330
18
100
AcDbEntity
  8
ROGO
 62
     4
100
AcDbLine
 10
469.8994267661953
 20
378.8267638062271
 30
0.0
 11
471.6755099146793
 21
378.8267638062271
 31
0.0
  0
LINE
  5
51D
102
{ACAD_REACTORS
330
517
102
}
330
18
100
AcDbEntity
  8
ROGO
 62
     4
100
AcDbLine
 10
473.8237586730317
 20
377.5136188756696
 30
0.0
 11
473.0915509509036
 21
377.5136188756696
 31
0.0
  0
LINE
  5
51E
102
{ACAD_REACTORS
330
517
102
}
330
18
100
AcDbEntity
  8
ROGO
 62
     4
100
AcDbLine
 10
472.190004179877
 20
378.8267638062271
 30
0.0
 11
473.2404076626484
 21
378.8267638062271
 31
0.0
  0
LINE
  5
51F
102
{ACAD_REACTORS
330
517
102
}
330
18
100
AcDbEntity
  8
ROGO
 62
     4
100
AcDbLine
 10
471.2430698497779
 20
377.5136188756696
 30
0.0
 11
471.9703171014694
 21
377.5136188756696
 31
0.0
  0
LINE
  5
520
102
{ACAD_REACTORS
330
517
102
}
330
18
100
AcDbEntity
  8
ROGO
 62
     4
100
AcDbLine
 10
472.1506075390504
 20
377.7636335457604
 30
0.0
 11
471.9703171014694
 21
377.5136188756696
 31
0.0
  0
LINE
  5
521
102
{ACAD_REACTORS
330
517
102
}
330
18
100
AcDbEntity
  8
ROGO
 62
     4
100
AcDbLine
 10
472.3407653001954
 20
378.0273315574565
 30
0.0
 11
472.8633394222341
 21
378.0273315574565
 31
0.0
  0
LINE
  5
522
102
{ACAD_REACTORS
330
517
102
}
330
18
100
AcDbEntity
  8
ROGO
 62
     4
100
AcDbLine
 10
472.1506075390504
 20
377.7636335457604
 30
0.0
 11
472.9804845278347
 21
377.7636335457604
 31
0.0
  0
LINE
  5
523
102
{ACAD_REACTORS
330
517
102
}
330
18
100
AcDbEntity
  8
ROGO
 62
     4
100
AcDbLine
 10
472.6641320365087
 20
378.4757548292753
 30
0.0
 11
472.3407653001954
 21
378.0273315574564
 31
0.0
  0
LINE
  5
524
102
{ACAD_REACTORS
330
517
102
}
330
18
100
AcDbEntity
  8
ROGO
 62
     4
100
AcDbLine
 10
472.190004179877
 20
378.8267638062271
 30
0.0
 11
471.2430698497779
 21
377.5136188756696
 31
0.0
  0
LINE
  5
525
102
{ACAD_REACTORS
330
51B
102
}
330
18
100
AcDbEntity
  8
ROGO
 62
     4
100
AcDbLine
 10
470.3575150750264
 20
378.0496060756696
 30
0.0
 11
470.24114030241
 21
377.8144060756696
 31
0.0
  0
LINE
  5
526
102
{ACAD_REACTORS
330
51B
102
}
330
18
100
AcDbEntity
  8
ROGO
 62
     4
100
AcDbLine
 10
471.174604724628
 20
377.8144060756696
 30
0.0
 11
471.0257780154192
 21
377.5136188756696
 31
0.0
  0
LINE
  5
527
102
{ACAD_REACTORS
330
51B
102
}
330
18
100
AcDbEntity
  8
ROGO
 62
     4
100
AcDbLine
 10
471.4103058728682
 20
378.2907714323508
 30
0.0
 11
471.2909794972444
 21
378.0496060756696
 31
0.0
  0
LINE
  5
528
102
{ACAD_REACTORS
330
51B
102
}
330
18
100
AcDbEntity
  8
ROGO
 62
     4
100
AcDbLine
 10
470.3575150750264
 20
378.0496060756696
 30
0.0
 11
471.2909794972444
 21
378.0496060756696
 31
0.0
  0
LINE
  5
529
102
{ACAD_REACTORS
330
51B
102
}
330
18
100
AcDbEntity
  8
ROGO
 62
     4
100
AcDbLine
 10
470.2411403024101
 20
377.8144060756696
 30
0.0
 11
471.174604724628
 21
377.8144060756696
 31
0.0
  0
LINE
  5
52A
102
{ACAD_REACTORS
330
51B
102
}
330
18
100
AcDbEntity
  8
ROGO
 62
     4
100
AcDbLine
 10
470.4768414506503
 20
378.2907714323508
 30
0.0
 11
471.4103058728682
 21
378.2907714323508
 31
0.0
  0
LINE
  5
52B
102
{ACAD_REACTORS
330
51B
102
}
330
18
100
AcDbEntity
  8
ROGO
 62
     4
100
AcDbLine
 10
470.5932112967268
 20
378.525961475535
 30
0.0
 11
471.5266757189447
 21
378.525961475535
 31
0.0
  0
LINE
  5
52C
102
{ACAD_REACTORS
330
51B
102
}
330
18
100
AcDbEntity
  8
ROGO
 62
     4
100
AcDbLine
 10
470.5932112967268
 20
378.525961475535
 30
0.0
 11
470.4768414506503
 21
378.2907714323508
 31
0.0
  0
LINE
  5
52D
102
{ACAD_REACTORS
330
51B
102
}
330
18
100
AcDbEntity
  8
ROGO
 62
     4
100
AcDbLine
 10
469.2496948669353
 20
377.5136188756696
 30
0.0
 11
471.0257780154192
 21
377.5136188756696
 31
0.0
  0
LINE
  5
52E
102
{ACAD_REACTORS
330
51B
102
}
330
18
100
AcDbEntity
  8
ROGO
 62
     4
100
AcDbLine
 10
471.6755099146793
 20
378.8267638062271
 30
0.0
 11
471.5266757189447
 21
378.525961475535
 31
0.0
  0
LINE
  5
52F
102
{ACAD_REACTORS
330
51B
102
}
330
18
100
AcDbEntity
  8
ROGO
 62
     4
100
AcDbLine
 10
469.8994267661953
 20
378.8267638062271
 30
0.0
 11
469.2496948669353
 21
377.5136188756696
 31
0.0
  0
SPLINE
  5
530
102
{ACAD_REACTORS
330
4FE
102
}
330
18
100
AcDbEntity
  8
ROGO
 62
     4
100
AcDbSpline
210
0.0
220
0.0
230
1.0
 70
     8
 71
     3
 72
    15
 73
    11
 74
     9
 42
0.0000000001
 43
0.0000000001
 44
0.0000000001
 40
0.0
 40
0.0
 40
0.0
 40
0.0
 40
0.1539705029175028
 40
0.2241725832587281
 40
0.3038566179396687
 40
0.3581410872474193
 40
0.443992538467216
 40
0.4954152125469665
 40
0.5836396705646186
 40
0.6130478420065743
 40
0.6130478420065743
 40
0.6130478420065743
 40
0.6130478420065743
 10
468.3774283144419
 20
378.3189668950137
 30
0.0
 10
468.4352566495012
 20
378.3192317796562
 30
0.0
 10
468.5194515245592
 20
378.3196174371259
 30
0.0
 10
468.5654922809237
 20
378.2154681331963
 30
0.0
 10
468.5448546186904
 20
378.148412228559
 30
0.0
 10
468.5189113952661
 20
378.079566714311
 30
0.0
 10
468.4730638437239
 20
378.0327851490418
 30
0.0
 10
468.4115297141287
 20
377.9877266154048
 30
0.0
 10
468.353377021073
 20
377.9822720781453
 30
0.0
 10
468.3155552221004
 20
377.9722505846911
 30
0.0
 10
468.3060997678311
 20
377.9697452101284
 30
0.0
 11
468.3774283144419
 21
378.3189668950137
 31
0.0
 11
468.5272183853707
 21
378.2833319343738
 31
0.0
 11
468.5557498860458
 21
378.2191892375684
 31
0.0
 11
468.5414843407849
 21
378.140792556507
 31
0.0
 11
468.520085817817
 21
378.0909036116112
 31
0.0
 11
468.463022816467
 21
378.0267609148058
 31
0.0
 11
468.4202257705311
 21
377.9982529462939
 31
0.0
 11
468.3346312685061
 21
377.9768722022563
 31
0.0
 11
468.3060997678311
 21
377.9697452101284
 31
0.0
  0
SPLINE
  5
531
102
{ACAD_REACTORS
330
4FE
102
}
330
18
100
AcDbEntity
  8
ROGO
 62
     4
100
AcDbSpline
210
0.0
220
0.0
230
1.0
 70
     8
 71
     3
 72
    18
 73
    14
 74
     0
 42
0.0000000001
 43
0.0000000001
 40
0.1087402787915014
 40
0.1087402787915014
 40
0.1087402787915014
 40
0.1087402787915014
 40
0.5992371417938475
 40
1.083176791562496
 40
1.448211145705696
 40
1.714037220764907
 40
2.164002567013297
 40
2.740236056362883
 40
3.395137510199602
 40
4.071816045172726
 40
4.784906178399433
 40
5.506895915094292
 40
6.060470601257719
 40
6.060470601257719
 40
6.060470601257719
 40
6.060470601257719
 10
468.9468027729898
 20
378.8267638062271
 30
0.0
 10
468.9984623106258
 20
378.8078314513794
 30
0.0
 10
469.1000502584763
 20
378.7678055600641
 30
0.0
 10
469.2240354940235
 20
378.6764532502727
 30
0.0
 10
469.2916516879482
 20
378.5709944731
 30
0.0
 10
469.3566908964913
 20
378.4670837307971
 30
0.0
 10
469.3657930150022
 20
378.3180061966407
 30
0.0
 10
469.3508831299551
 20
378.129536061069
 30
0.0
 10
469.254626259079
 20
377.9328869235483
 30
0.0
 10
469.1001283199976
 20
377.7608898927464
 30
0.0
 10
468.9083083469046
 20
377.6232257124047
 30
0.0
 10
468.7060275687973
 20
377.5151628759093
 30
0.0
 10
468.5614372117438
 20
377.5140861553007
 30
0.0
 10
468.4986872948491
 20
377.5136188756696
 30
0.0
  0
HATCH
  5
532
330
18
100
AcDbEntity
  8
ROGO
 62
     4
100
AcDbHatch
 10
0.0
 20
0.0
 30
0.0
210
0.0
220
0.0
230
1.0
  2
SOLID
 70
     1
 71
     1
 91
        2
 92
        5
 93
        6
 72
     4
 94
        3
 73
     0
 74
     0
 95
       25
 96
       21
 40
0.0
 40
0.0
 40
0.0
 40
0.0
 40
0.165525918914855
 40
0.3412380755365305
 40
0.5940540902285263
 40
0.7697671103696209
 40
0.9377330196075423
 40
1.11479469302833
 40
1.274661249598185
 40
1.574522170874768
 40
1.815540668866877
 40
2.15849091873445
 40
2.536227739636605
 40
2.738070817316548
 40
2.925680654369045
 40
3.162706124480894
 40
3.395643218188267
 40
3.648478129958861
 40
3.928509979727306
 40
4.337226830236035
 40
4.337226830236035
 40
4.337226830236035
 40
4.337226830236035
 10
477.5478309232425
 20
377.6672613555377
 10
477.5627235806362
 20
377.6795680994834
 10
477.5909708799401
 20
377.7088382227051
 10
477.6410721165798
 20
377.7562785710437
 10
477.6852222763865
 20
377.8115503414977
 10
477.7396846771036
 20
377.8563461743711
 10
477.7680376326427
 20
377.9111124007187
 10
477.8089061799468
 20
377.9541848712177
 10
477.8431881988641
 20
378.0207060532083
 10
477.8722747975641
 20
378.0971178183524
 10
477.9000048530616
 20
378.1967191020559
 10
477.9106312963983
 20
378.3090841551015
 10
477.894902838751
 20
378.4177972875325
 10
477.8569068610763
 20
378.4990567830694
 10
477.8289727003071
 20
378.5667781977354
 10
477.7865791116647
 20
378.6309223014126
 10
477.738213756804
 20
378.7006861077468
 10
477.6700755360447
 20
378.7583920700618
 10
477.5810258774235
 20
378.8279947594373
 10
477.498082769705
 20
378.8306596359433
 10
477.4488627192795
 20
378.8322410253994
 72
     1
 10
477.4488627192795
 20
378.8322410253994
 11
476.6984088960941
 21
378.8322410253994
 72
     4
 94
        3
 73
     0
 74
     0
 95
       38
 96
       34
 40
0.0
 40
0.0
 40
0.0
 40
0.0
 40
0.1807680148264315
 40
0.2375392910068956
 40
0.3104865209606157
 40
0.3712759982447458
 40
0.422566754387306
 40
0.490692583720658
 40
0.5255021974951946
 40
0.5647069597052371
 40
0.622487401681883
 40
0.6879401044674746
 40
0.7303986317551266
 40
0.7765228362185534
 40
0.8277951442290254
 40
0.9056034697002209
 40
0.9795294930264187
 40
1.013897332332996
 40
1.053089255536027
 40
1.099518741889647
 40
1.132570569820733
 40
1.160277520290299
 40
1.19983678629386
 40
1.243305643169139
 40
1.286774258016964
 40
1.324809356515675
 40
1.411916492917645
 40
1.446284332224223
 40
1.5150200516612
 40
1.575779369908399
 40
1.69209852953623
 40
1.835624328519098
 40
2.042896467983898
 40
2.042896467983898
 40
2.042896467983898
 40
2.042896467983898
 10
476.6984088960941
 20
378.8322410253994
 10
476.6381534984684
 20
378.8279844062985
 10
476.5589745328473
 20
378.8223909705113
 10
476.4584357603379
 20
378.7948463443066
 10
476.4036310058967
 20
378.7620318248483
 10
476.3465957045796
 20
378.737911580148
 10
476.2979677981944
 20
378.7021942808987
 10
476.2487816974988
 20
378.6837895007054
 10
476.214340084123
 20
378.6506023923327
 10
476.1744767259899
 20
378.6303302741578
 10
476.1427328261546
 20
378.5849553801434
 10
476.1072521496229
 20
378.5425314984849
 10
476.0660901012157
 20
378.5115639569075
 10
476.0323078556565
 20
378.4790389779451
 10
476.001317342732
 20
378.4288431627611
 10
475.9829757701609
 20
378.3621477880756
 10
475.9312739557516
 20
378.3200387337904
 10
475.9234892812684
 20
378.2694110861143
 10
475.8948914310728
 20
378.2395416259237
 10
475.882456085617
 20
378.2009844439386
 10
475.8777201074929
 20
378.1656592546178
 10
475.8720358044506
 20
378.1326679731896
 10
475.8571667442183
 20
378.0979626024518
 10
475.8620200567794
 20
378.0550923235168
 10
475.8606374937374
 20
378.0135796094902
 10
475.8614511337106
 20
377.9575361528789
 10
475.8585145943645
 20
377.9029709559593
 10
475.8819323448797
 20
377.8435910797909
 10
475.8957901924825
 20
377.7906621351244
 10
475.9337421624261
 20
377.7173755928729
 10
475.999208515244
 20
377.632818769164
 10
476.1236982612614
 20
377.5301828058712
 10
476.2433987918208
 20
377.5197708651539
 10
476.314124934551
 20
377.5136188756696
 72
     1
 10
476.314124934551
 20
377.5136188756696
 11
477.0645787577371
 21
377.5136188756696
 72
     4
 94
        3
 73
     0
 74
     0
 95
       11
 96
        7
 40
0.1647869275458135
 40
0.1647869275458135
 40
0.1647869275458135
 40
0.1647869275458135
 40
0.2545010798212315
 40
0.5111620267764023
 40
0.7602998271033902
 40
0.8850764140209603
 40
0.8850764140209603
 40
0.8850764140209603
 40
0.8850764140209603
 10
477.0645787577364
 20
377.5136188756696
 10
477.0750506580563
 20
377.5134170600266
 10
477.1154813528848
 20
377.5126378751198
 10
477.1845778949812
 20
377.5225644057044
 10
477.2572766621193
 20
377.5320768000778
 10
477.3006176735536
 20
377.5390043898617
 10
477.3145962163543
 20
377.5428953225782
 72
     4
 94
        3
 73
     0
 74
     0
 95
        9
 96
        5
 40
0.0
 40
0.0
 40
0.0
 40
0.0
 40
0.1135793343552172
 40
0.2662938392177403
 40
0.2662938392177403
 40
0.2662938392177403
 40
0.2662938392177403
 10
477.3145962163543
 20
377.5428953225782
 10
477.3510811846724
 20
377.5540576623015
 10
477.4366224703498
 20
377.5802284645553
 10
477.5072991675866
 20
377.6355407823298
 10
477.5478309232425
 20
377.6672613555377
 97
        6
330
538
330
537
330
539
330
536
330
535
330
534
 92
       20
 93
        1
 72
     3
 10
476.8708672907249
 20
378.1545450331804
 11
0.1782847090673272
 21
0.1567790921840611
 40
0.678808341743879
 50
0.0
 51
360.0
 73
     1
 97
        1
330
533
 75
     0
 76
     1
 47
0.088756267210375
 98
        2
 10
476.9232985664935
 20
378.4680323035044
 10
476.9232985664935
 20
378.4680323035044
450
        0
451
        0
460
0.0
461
0.0
452
        0
462
0.0
453
        0
470

  0
ELLIPSE
  5
533
102
{ACAD_REACTORS
330
532
102
}
330
18
100
AcDbEntity
  8
ROGO
 62
     4
100
AcDbEllipse
 10
476.8708672907249
 20
378.1545450331804
 30
0.0
 11
0.1782847090673272
 21
0.1567790921840611
 31
0.0
210
0.0
220
0.0
230
0.9999999999999998
 40
0.6788083417438792
 41
0.0
 42
6.283185307179586
  0
SPLINE
  5
534
102
{ACAD_REACTORS
330
532
102
}
330
18
100
AcDbEntity
  8
ROGO
 62
     4
100
AcDbSpline
210
0.0
220
0.0
230
1.0
 70
     8
 71
     3
 72
     9
 73
     5
 74
     3
 42
0.0000000001
 43
0.0000000001
 44
0.0000000001
 40
0.0
 40
0.0
 40
0.0
 40
0.0
 40
0.1135793343552172
 40
0.2662938392177403
 40
0.2662938392177403
 40
0.2662938392177403
 40
0.2662938392177403
 10
477.3145962163543
 20
377.5428953225782
 30
0.0
 10
477.3510811846724
 20
377.5540576623015
 30
0.0
 10
477.4366224703498
 20
377.5802284645553
 30
0.0
 10
477.5072991675866
 20
377.6355407823298
 30
0.0
 10
477.5478309232425
 20
377.6672613555377
 30
0.0
 11
477.3145962163543
 21
377.5428953225782
 31
0.0
 11
477.4213469805791
 21
377.5816837168479
 31
0.0
 11
477.5478309232425
 21
377.6672613555377
 31
0.0
  0
SPLINE
  5
535
102
{ACAD_REACTORS
330
532
102
}
330
18
100
AcDbEntity
  8
ROGO
 62
     4
100
AcDbSpline
210
0.0
220
0.0
230
1.0
 70
     8
 71
     3
 72
    11
 73
     7
 74
     0
 42
0.0000000001
 43
0.0000000001
 40
0.1647869275458134
 40
0.1647869275458134
 40
0.1647869275458134
 40
0.1647869275458134
 40
0.2895635144633836
 40
0.5387013147903714
 40
0.7953622617455423
 40
0.8850764140209602
 40
0.8850764140209602
 40
0.8850764140209602
 40
0.8850764140209602
 10
477.3145962163543
 20
377.5428953225782
 30
0.0
 10
477.3006176735536
 20
377.5390043898617
 30
0.0
 10
477.2572766621193
 20
377.5320768000778
 30
0.0
 10
477.1845778949812
 20
377.5225644057044
 30
0.0
 10
477.1154813528848
 20
377.5126378751198
 30
0.0
 10
477.0750506580563
 20
377.5134170600266
 30
0.0
 10
477.0645787577364
 20
377.5136188756696
 30
0.0
  0
LINE
  5
536
102
{ACAD_REACTORS
330
532
102
}
330
18
100
AcDbEntity
  8
ROGO
 62
     4
100
AcDbLine
 10
476.314124934551
 20
377.5136188756696
 30
0.0
 11
477.0645787577364
 21
377.5136188756696
 31
0.0
  0
LINE
  5
537
102
{ACAD_REACTORS
330
532
102
}
330
18
100
AcDbEntity
  8
ROGO
 62
     4
100
AcDbLine
 10
476.6984088960941
 20
378.8322410253994
 30
0.0
 11
477.4488627192795
 21
378.8322410253994
 31
0.0
  0
SPLINE
  5
538
102
{ACAD_REACTORS
330
532
102
}
330
18
100
AcDbEntity
  8
ROGO
 62
     4
100
AcDbSpline
210
0.0
220
0.0
230
1.0
 70
     8
 71
     3
 72
    25
 73
    21
 74
     0
 42
0.0000000001
 43
0.0000000001
 40
0.0
 40
0.0
 40
0.0
 40
0.0
 40
0.4087168505087288
 40
0.6887487002771746
 40
0.9415836120477687
 40
1.17452070575514
 40
1.41154617586699
 40
1.599156012919487
 40
1.80099909059943
 40
2.178735911501585
 40
2.521686161369157
 40
2.762704659361267
 40
3.06256558063785
 40
3.222432137207705
 40
3.399493810628493
 40
3.567459719866414
 40
3.743172740007509
 40
3.995988754699505
 40
4.17170091132118
 40
4.337226830236035
 40
4.337226830236035
 40
4.337226830236035
 40
4.337226830236035
 10
477.4488627192795
 20
378.8322410253994
 30
0.0
 10
477.498082769705
 20
378.8306596359433
 30
0.0
 10
477.5810258774235
 20
378.8279947594373
 30
0.0
 10
477.6700755360447
 20
378.7583920700618
 30
0.0
 10
477.738213756804
 20
378.7006861077468
 30
0.0
 10
477.7865791116647
 20
378.6309223014126
 30
0.0
 10
477.8289727003071
 20
378.5667781977354
 30
0.0
 10
477.8569068610763
 20
378.4990567830694
 30
0.0
 10
477.894902838751
 20
378.4177972875325
 30
0.0
 10
477.9106312963983
 20
378.3090841551015
 30
0.0
 10
477.9000048530616
 20
378.1967191020559
 30
0.0
 10
477.8722747975641
 20
378.0971178183524
 30
0.0
 10
477.8431881988641
 20
378.0207060532083
 30
0.0
 10
477.8089061799468
 20
377.9541848712177
 30
0.0
 10
477.7680376326427
 20
377.9111124007187
 30
0.0
 10
477.7396846771036
 20
377.8563461743711
 30
0.0
 10
477.6852222763865
 20
377.8115503414977
 30
0.0
 10
477.6410721165798
 20
377.7562785710437
 30
0.0
 10
477.5909708799401
 20
377.7088382227051
 30
0.0
 10
477.5627235806362
 20
377.6795680994834
 30
0.0
 10
477.5478309232425
 20
377.6672613555377
 30
0.0
  0
SPLINE
  5
539
102
{ACAD_REACTORS
330
532
102
}
330
18
100
AcDbEntity
  8
ROGO
 62
     4
100
AcDbSpline
210
0.0
220
0.0
230
1.0
 70
     8
 71
     3
 72
    38
 73
    34
 74
    32
 42
0.0000000001
 43
0.0000000001
 44
0.0000000001
 40
0.0
 40
0.0
 40
0.0
 40
0.0
 40
0.1807680148264315
 40
0.2375392910068956
 40
0.3104865209606157
 40
0.3712759982447458
 40
0.422566754387306
 40
0.490692583720658
 40
0.5255021974951946
 40
0.5647069597052371
 40
0.622487401681883
 40
0.6879401044674746
 40
0.7303986317551266
 40
0.7765228362185534
 40
0.8277951442290254
 40
0.9056034697002209
 40
0.9795294930264187
 40
1.013897332332996
 40
1.053089255536027
 40
1.099518741889647
 40
1.132570569820733
 40
1.160277520290299
 40
1.19983678629386
 40
1.243305643169139
 40
1.286774258016964
 40
1.324809356515675
 40
1.411916492917645
 40
1.446284332224223
 40
1.5150200516612
 40
1.575779369908399
 40
1.69209852953623
 40
1.835624328519098
 40
2.042896467983898
 40
2.042896467983898
 40
2.042896467983898
 40
2.042896467983898
 10
476.6984088960941
 20
378.8322410253994
 30
0.0
 10
476.6381534984684
 20
378.8279844062985
 30
0.0
 10
476.5589745328473
 20
378.8223909705113
 30
0.0
 10
476.4584357603379
 20
378.7948463443066
 30
0.0
 10
476.4036310058967
 20
378.7620318248483
 30
0.0
 10
476.3465957045796
 20
378.737911580148
 30
0.0
 10
476.2979677981944
 20
378.7021942808987
 30
0.0
 10
476.2487816974988
 20
378.6837895007054
 30
0.0
 10
476.214340084123
 20
378.6506023923327
 30
0.0
 10
476.1744767259899
 20
378.6303302741578
 30
0.0
 10
476.1427328261546
 20
378.5849553801434
 30
0.0
 10
476.1072521496229
 20
378.5425314984849
 30
0.0
 10
476.0660901012157
 20
378.5115639569075
 30
0.0
 10
476.0323078556565
 20
378.4790389779451
 30
0.0
 10
476.001317342732
 20
378.4288431627611
 30
0.0
 10
475.9829757701609
 20
378.3621477880756
 30
0.0
 10
475.9312739557516
 20
378.3200387337904
 30
0.0
 10
475.9234892812684
 20
378.2694110861143
 30
0.0
 10
475.8948914310728
 20
378.2395416259237
 30
0.0
 10
475.882456085617
 20
378.2009844439386
 30
0.0
 10
475.8777201074929
 20
378.1656592546178
 30
0.0
 10
475.8720358044506
 20
378.1326679731896
 30
0.0
 10
475.8571667442183
 20
378.0979626024518
 30
0.0
 10
475.8620200567794
 20
378.0550923235168
 30
0.0
 10
475.8606374937374
 20
378.0135796094902
 30
0.0
 10
475.8614511337106
 20
377.9575361528789
 30
0.0
 10
475.8585145943645
 20
377.9029709559593
 30
0.0
 10
475.8819323448797
 20
377.8435910797909
 30
0.0
 10
475.8957901924825
 20
377.7906621351244
 30
0.0
 10
475.9337421624261
 20
377.7173755928729
 30
0.0
 10
475.999208515244
 20
377.632818769164
 30
0.0
 10
476.1236982612614
 20
377.5301828058712
 30
0.0
 10
476.2433987918208
 20
377.5197708651539
 30
0.0
 10
476.314124934551
 20
377.5136188756696
 30
0.0
 11
476.6984088960941
 21
378.8322410253994
 31
0.0
 11
476.5189522591469
 21
378.810506475948
 31
0.0
 11
476.4645714730187
 21
378.7942059269007
 31
0.0
 11
476.3993147860107
 21
378.761604344751
 31
0.0
 11
476.3449339998826
 21
378.734436520978
 31
0.0
 11
476.3014295418773
 21
378.7072684551775
 31
0.0
 11
476.2416108053092
 21
378.6746671150554
 31
0.0
 11
476.2144201986235
 21
378.6529328076315
 31
0.0
 11
476.181791641498
 21
378.6311982581801
 31
0.0
 11
476.1437251339327
 21
378.5877296433322
 31
0.0
 11
476.1002206759273
 21
378.5388275121353
 31
0.0
 11
476.0675921188017
 21
378.5116594463348
 31
0.0
 11
476.0349639889193
 21
378.4790581062127
 31
0.0
 11
476.0077733822337
 21
378.4355894913649
 31
0.0
 11
475.9751452523513
 21
378.3649528107166
 31
0.0
 11
475.9316403671029
 21
378.3051834047939
 31
0.0
 11
475.9207644662232
 21
378.2725818226443
 31
0.0
 11
475.8990122372204
 21
378.2399804825221
 31
0.0
 11
475.8826979586577
 21
378.1965116256468
 31
0.0
 11
475.8772595809747
 21
378.1639102855247
 31
0.0
 11
475.8718216305348
 21
378.1367422197242
 31
0.0
 11
475.860945729655
 21
378.0987073632529
 31
0.0
 11
475.860945729655
 21
378.0552385063776
 31
0.0
 11
475.860945729655
 21
378.0117698915298
 31
0.0
 11
475.860945729655
 21
377.9737347930311
 31
0.0
 11
475.8663836800949
 21
377.8867975633354
 31
0.0
 11
475.8772595809747
 21
377.8541959811858
 31
0.0
 11
475.8990122372204
 21
377.788993058914
 31
0.0
 11
475.926202416663
 21
377.7346571693406
 31
0.0
 11
475.9968974813538
 21
377.6422864232957
 31
0.0
 11
476.1110970040502
 21
377.5553489515726
 31
0.0
 11
476.314124934551
 21
377.5136188756696
 31
0.0
  0
HATCH
  5
53A
330
18
100
AcDbEntity
  8
ROGO
 62
     4
100
AcDbHatch
 10
0.0
 20
0.0
 30
0.0
210
0.0
220
0.0
230
1.0
  2
SOLID
 70
     1
 71
     0
 91
        1
 92
        5
 93
        8
 72
     4
 94
        3
 73
     0
 74
     0
 95
       26
 96
       22
 40
0.0
 40
0.0
 40
0.0
 40
0.0
 40
0.680627241883428
 40
1.136254477903041
 40
1.464798819939375
 40
1.710112249467291
 40
2.028296642642898
 40
2.260540230712845
 40
2.679918019584077
 40
3.021285510494803
 40
3.253470102552373
 40
3.481138982867256
 40
3.888394348201009
 40
4.176372499429384
 40
4.331470983165915
 40
4.5517837977729
 40
4.710876624553423
 40
4.941349605730163
 40
5.071777377612483
 40
5.355602839329045
 40
5.485200010717817
 40
5.485200010717817
 40
5.485200010717817
 40
5.485200010717817
 10
478.885217004873
 20
378.8267638062271
 10
478.8043616141143
 20
378.8219398349619
 10
478.6693798000484
 20
378.8138865884653
 10
478.5211705893366
 20
378.7238510846068
 10
478.4125838449264
 20
378.6715083992645
 10
478.3351399105022
 20
378.6003529778449
 10
478.2783731926346
 20
378.5268546253235
 10
478.2068080879371
 20
378.4392818771981
 10
478.1484487900312
 20
378.3373069557335
 10
478.118729947498
 20
378.2249128146702
 10
478.0924052788442
 20
378.1353340321113
 10
478.0728824638713
 20
378.0355101692189
 10
478.0778496206843
 20
377.9276652810966
 10
478.0849628165687
 20
377.8275044700929
 10
478.1167215064927
 20
377.7560046471661
 10
478.1528890288828
 20
377.7051017002368
 10
478.1971756647377
 20
377.6490377475381
 10
478.2456349290551
 20
377.6119067732079
 10
478.2857146961656
 20
377.5446415180672
 10
478.3558729764281
 20
377.536057986391
 10
478.4004683705039
 20
377.5189741965141
 10
478.4144478589654
 20
377.5136188756696
 72
     1
 10
478.4144478589655
 20
377.5136188756696
 11
479.5454768739699
 21
377.5136188756696
 72
     1
 10
479.5454768739699
 20
377.5136188756696
 11
479.7890935946488
 21
378.0021887540102
 72
     1
 10
479.7890935946488
 20
378.0021887540102
 11
478.9494125737768
 21
378.0021887540103
 72
     4
 94
        3
 73
     0
 74
     0
 95
       16
 96
       12
 40
0.0
 40
0.0
 40
0.0
 40
0.0
 40
0.2055476186376692
 40
0.4132153116455541
 40
0.5370797571174224
 40
0.6558402674583835
 40
0.7862675211309879
 40
0.877348187443702
 40
0.9637758349634946
 40
1.139038695775252
 40
1.497869274526499
 40
1.497869274526499
 40
1.497869274526499
 40
1.497869274526499
 10
478.9494125737767
 20
378.0021887540101
 10
478.924084835105
 20
378.0096405460988
 10
478.8731681205359
 20
378.0246209900981
 10
478.8689068026882
 20
378.0972406792354
 10
478.8747122317501
 20
378.1489881501945
 10
478.8990253816272
 20
378.1866633309106
 10
478.928521449488
 20
378.2140769819463
 10
478.9395041437395
 20
378.2497789761285
 10
478.9717867728636
 20
378.2767384484449
 10
479.0290325242547
 20
378.3220535554208
 10
479.0923364154661
 20
378.3317046607062
 10
479.1348671230875
 20
378.3381887540102
 72
     1
 10
479.1348671230875
 20
378.3381887540102
 11
479.9566340464387
 21
378.3381887540102
 72
     1
 10
479.9566340464387
 20
378.3381887540102
 11
480.2002533469792
 21
378.8267638062271
 72
     1
 10
480.2002533469792
 20
378.8267638062271
 11
478.885217004873
 21
378.8267638062271
 97
        0
 75
     0
 76
     1
 47
0.0514683685270805
 98
        1
 10
479.1121344345578
 20
378.586322503048
450
        0
451
        0
460
0.0
461
0.0
452
        0
462
0.0
453
        0
470

  0
LINE
  5
53B
102
{ACAD_REACTORS
330
4A8
102
}
330
18
100
AcDbEntity
  8
ROGO
 62
     4
100
AcDbLine
 10
480.4752804761014
 20
377.3104485834406
 30
0.0
 11
480.2082311869358
 21
376.7748850213211
 31
0.0
  0
LINE
  5
53C
102
{ACAD_REACTORS
330
4A8
102
}
330
18
100
AcDbEntity
  8
ROGO
 62
     4
100
AcDbLine
 10
480.4752804761014
 20
378.8267638062271
 30
0.0
 11
479.4521474444315
 21
376.7748850213211
 31
0.0
  0
LINE
  5
53D
330
18
100
AcDbEntity
  8
ROGO
 62
     4
100
AcDbLine
 10
480.2002533469792
 20
378.8267638062271
 30
0.0
 11
479.9566340464386
 21
378.3381887540102
 31
0.0
  0
LINE
  5
53E
330
18
100
AcDbEntity
  8
ROGO
 62
     4
100
AcDbLine
 10
479.1348671230874
 20
378.3381887540102
 30
0.0
 11
479.9566340464386
 21
378.3381887540102
 31
0.0
  0
LINE
  5
53F
330
18
100
AcDbEntity
  8
ROGO
 62
     4
100
AcDbLine
 10
478.9494125737767
 20
378.0021887540102
 30
0.0
 11
479.7890935946488
 21
378.0021887540102
 31
0.0
  0
LINE
  5
540
330
18
100
AcDbEntity
  8
ROGO
 62
     4
100
AcDbLine
 10
479.7890935946488
 20
378.0021887540102
 30
0.0
 11
479.54547687397
 21
377.5136188756696
 31
0.0
  0
SPLINE
  5
541
330
18
100
AcDbEntity
  8
ROGO
 62
     4
100
AcDbSpline
210
0.0
220
0.0
230
1.0
 70
     8
 71
     3
 72
    26
 73
    22
 74
    20
 42
0.0000000001
 43
0.0000000001
 44
0.0000000001
 40
0.0
 40
0.0
 40
0.0
 40
0.0
 40
0.2382195346591896
 40
0.397689067266058
 40
0.5126795869787176
 40
0.5985392873135238
 40
0.7099038249250041
 40
0.7911890807494602
 40
0.9379713068544059
 40
1.057449928673177
 40
1.138714535893296
 40
1.218398644003487
 40
1.36093802187034
 40
1.461730374800238
 40
1.51601484410804
 40
1.593124329220486
 40
1.648806818593696
 40
1.729472362005543
 40
1.775122082164332
 40
1.874460993765135
 40
1.919820003751196
 40
1.919820003751196
 40
1.919820003751196
 40
1.919820003751196
 10
478.885217004873
 20
378.8267638062271
 30
0.0
 10
478.8043616141143
 20
378.8219398349619
 30
0.0
 10
478.6693798000484
 20
378.8138865884651
 30
0.0
 10
478.5211705893367
 20
378.7238510846071
 30
0.0
 10
478.4125838449263
 20
378.6715083992643
 30
0.0
 10
478.3351399105021
 20
378.6003529778449
 30
0.0
 10
478.2783731926347
 20
378.5268546253234
 30
0.0
 10
478.206808087937
 20
378.4392818771981
 30
0.0
 10
478.1484487900311
 20
378.3373069557335
 30
0.0
 10
478.118729947498
 20
378.2249128146702
 30
0.0
 10
478.0924052788443
 20
378.1353340321114
 30
0.0
 10
478.0728824638713
 20
378.0355101692189
 30
0.0
 10
478.0778496206844
 20
377.9276652810967
 30
0.0
 10
478.0849628165687
 20
377.8275044700927
 30
0.0
 10
478.1167215064927
 20
377.7560046471661
 30
0.0
 10
478.1528890288829
 20
377.7051017002369
 30
0.0
 10
478.1971756647375
 20
377.649037747538
 30
0.0
 10
478.2456349290551
 20
377.6119067732079
 30
0.0
 10
478.2857146961656
 20
377.5446415180673
 30
0.0
 10
478.3558729764283
 20
377.5360579863911
 30
0.0
 10
478.4004683705039
 20
377.5189741965141
 30
0.0
 10
478.4144478589654
 20
377.5136188756696
 30
0.0
 11
478.885217004873
 21
378.8267638062271
 31
0.0
 11
478.6498324319191
 21
378.7901216241333
 31
0.0
 11
478.5071749285441
 21
378.7188519352
 31
0.0
 11
478.4073148812583
 21
378.6618362305225
 31
0.0
 11
478.3431193123545
 21
378.6048202934987
 31
0.0
 11
478.2717907657437
 21
378.5192966203092
 31
0.0
 11
478.2218607421008
 21
378.4551539235039
 31
0.0
 11
478.1505317853365
 21
378.3268682975466
 31
0.0
 11
478.1148677171079
 21
378.2128366558453
 31
0.0
 11
478.09346919414
 21
378.134439974784
 31
0.0
 11
478.0792032387258
 21
378.0560432937227
 31
0.0
 11
478.0792032387258
 21
377.9135039158558
 31
0.0
 11
478.09346919414
 21
377.8137262584106
 31
0.0
 11
478.1148677171079
 21
377.7638373135147
 31
0.0
 11
478.1576647630436
 21
377.6996946167092
 31
0.0
 11
478.1933292414258
 21
377.6569326639414
 31
0.0
 11
478.2503918326224
 21
377.5999169592639
 31
0.0
 11
478.2789233332975
 21
377.5642819986241
 31
0.0
 11
478.3716508130296
 21
377.5286472703305
 31
0.0
 11
478.4144478589654
 21
377.5136188756696
 31
0.0
  0
SPLINE
  5
542
330
18
100
AcDbEntity
  8
ROGO
 62
     4
100
AcDbSpline
210
0.0
220
0.0
230
1.0
 70
     8
 71
     3
 72
    16
 73
    12
 74
    10
 42
0.0000000001
 43
0.0000000001
 44
0.0000000001
 40
0.0
 40
0.0
 40
0.0
 40
0.0
 40
0.1255907025629163
 40
0.1869327038470616
 40
0.217182380479003
 40
0.2490606136884339
 40
0.2947101524738157
 40
0.3362763310931585
 40
0.3796288870082937
 40
0.4523125795610796
 40
0.5242542460842448
 40
0.5242542460842448
 40
0.5242542460842448
 40
0.5242542460842448
 10
479.1348671230875
 20
378.3381887540102
 30
0.0
 10
479.092336415466
 20
378.3317046607061
 30
0.0
 10
479.0290325242546
 20
378.3220535554205
 30
0.0
 10
478.9717867728636
 20
378.276738448445
 30
0.0
 10
478.9395041437394
 20
378.2497789761285
 30
0.0
 10
478.9285214494879
 20
378.2140769819463
 30
0.0
 10
478.8990253816274
 20
378.1866633309106
 30
0.0
 10
478.8747122317499
 20
378.1489881501945
 30
0.0
 10
478.8689068026885
 20
378.0972406792354
 30
0.0
 10
478.8731681205359
 20
378.024620990098
 30
0.0
 10
478.9240848351049
 20
378.0096405460988
 30
0.0
 10
478.9494125737767
 20
378.0021887540101
 30
0.0
 11
479.1348671230875
 21
378.3381887540102
 31
0.0
 11
479.0136085528338
 21
378.3054873211628
 31
0.0
 11
478.9636785291908
 21
378.2698525928692
 31
0.0
 11
478.942280006223
 21
378.2484716164852
 31
0.0
 11
478.9280140508087
 21
378.2199636479734
 31
0.0
 11
478.8994825501338
 21
378.1843289196798
 31
0.0
 11
478.8780840271658
 21
378.14869395904
 31
0.0
 11
478.8709510494587
 21
378.1059322386185
 31
0.0
 11
478.885217004873
 21
378.0346623173387
 31
0.0
 11
478.9494125737767
 21
378.0021887540101
 31
0.0
  0
LINE
  5
543
330
18
100
AcDbEntity
  8
ROGO
 62
     4
100
AcDbLine
 10
478.8852170048733
 20
378.8267638062271
 30
0.0
 11
480.2002533469792
 21
378.8267638062271
 31
0.0
  0
LINE
  5
544
330
18
100
AcDbEntity
  8
ROGO
 62
     4
100
AcDbLine
 10
478.4144478589653
 20
377.5136188756696
 30
0.0
 11
479.54547687397
 21
377.5136188756696
 31
0.0
  0
LINE
  5
545
330
18
100
AcDbEntity
  8
ROGO
 62
     4
100
AcDbLine
 10
474.6541472339455
 20
378.8267638062271
 30
0.0
 11
475.9691835760514
 21
378.8267638062271
 31
0.0
  0
LINE
  5
546
330
18
100
AcDbEntity
  8
ROGO
 62
     4
100
AcDbLine
 10
475.5580238237209
 20
378.0021887540102
 30
0.0
 11
475.3144071030422
 21
377.5136188756696
 31
0.0
  0
SPLINE
  5
547
330
18
100
AcDbEntity
  8
ROGO
 62
     4
100
AcDbSpline
210
0.0
220
0.0
230
1.0
 70
     8
 71
     3
 72
    16
 73
    12
 74
    10
 42
0.0000000001
 43
0.0000000001
 44
0.0000000001
 40
0.0
 40
0.0
 40
0.0
 40
0.0
 40
0.1255907025629711
 40
0.1869327038470372
 40
0.2171823804790188
 40
0.2490606136884497
 40
0.2947101524738226
 40
0.3362763310931653
 40
0.3796288870083566
 40
0.452312579561098
 40
0.5242542460842631
 40
0.5242542460842631
 40
0.5242542460842631
 40
0.5242542460842631
 10
474.9037973521597
 20
378.3381887540102
 30
0.0
 10
474.8612666445384
 20
378.3317046607062
 30
0.0
 10
474.797962753327
 20
378.3220535554206
 30
0.0
 10
474.7407170019356
 20
378.276738448445
 30
0.0
 10
474.7084343728118
 20
378.2497789761285
 30
0.0
 10
474.6974516785599
 20
378.2140769819463
 30
0.0
 10
474.6679556106996
 20
378.1866633309108
 30
0.0
 10
474.6436424608222
 20
378.1489881501945
 30
0.0
 10
474.6378370317606
 20
378.0972406792356
 30
0.0
 10
474.642098349608
 20
378.0246209900981
 30
0.0
 10
474.6930150641771
 20
378.0096405460988
 30
0.0
 10
474.7183428028488
 20
378.0021887540102
 30
0.0
 11
474.9037973521597
 21
378.3381887540102
 31
0.0
 11
474.7825387819059
 21
378.3054873211628
 31
0.0
 11
474.732608758263
 21
378.2698525928692
 31
0.0
 11
474.7112102352952
 21
378.2484716164852
 31
0.0
 11
474.6969442798809
 21
378.2199636479734
 31
0.0
 11
474.6684127792059
 21
378.1843289196799
 31
0.0
 11
474.647014256238
 21
378.14869395904
 31
0.0
 11
474.6398812785308
 21
378.1059322386185
 31
0.0
 11
474.6541472339451
 21
378.0346623173388
 31
0.0
 11
474.7183428028488
 21
378.0021887540102
 31
0.0
  0
LINE
  5
548
330
18
100
AcDbEntity
  8
ROGO
 62
     4
100
AcDbLine
 10
474.7183428028488
 20
378.0021887540102
 30
0.0
 11
475.5580238237209
 21
378.0021887540102
 31
0.0
  0
LINE
  5
549
330
18
100
AcDbEntity
  8
ROGO
 62
     4
100
AcDbLine
 10
474.9037973521596
 20
378.3381887540102
 30
0.0
 11
475.7255642755108
 21
378.3381887540102
 31
0.0
  0
LINE
  5
54A
330
18
100
AcDbEntity
  8
ROGO
 62
     4
100
AcDbLine
 10
475.9691835760514
 20
378.8267638062271
 30
0.0
 11
475.7255642755108
 21
378.3381887540102
 31
0.0
  0
TEXT
  5
54B
330
18
100
AcDbEntity
  8
文字
100
AcDbText
 10
473.0199166714477
 20
386.3832025100157
 30
0.0
 40
2.0
  1
0
  7
STYLE3
100
AcDbText
  0
LINE
  5
54C
330
18
100
AcDbEntity
  8
目盛
100
AcDbLine
 10
474.0016805748465
 20
392.4617971651206
 30
0.0
 11
474.0016805748465
 21
389.4617971651206
 31
0.0
  0
LINE
  5
54D
330
18
100
AcDbEntity
  8
目盛
100
AcDbLine
 10
468.2818131700548
 20
391.7392098710791
 30
0.0
 11
468.7791929443845
 21
389.8020435488218
 31
0.0
  0
LINE
  5
54E
330
18
100
AcDbEntity
  8
目盛
100
AcDbLine
 10
469.6919103393748
 20
392.0544039318804
 30
0.0
 11
470.0666729685462
 21
390.089829430423
 31
0.0
  0
LINE
  5
54F
330
18
100
AcDbEntity
  8
目盛
100
AcDbLine
 10
471.1190162028675
 20
392.2804352953536
 30
0.0
 11
471.369682669996
 21
390.2962058927246
 31
0.0
  0
LINE
  5
550
330
18
100
AcDbEntity
  8
目盛
100
AcDbLine
 10
472.5574986256723
 20
392.4164119189708
 30
0.0
 11
472.6830796647308
 21
390.4203584621143
 31
0.0
  0
LINE
  5
551
330
18
100
AcDbEntity
  8
目盛
100
AcDbLine
 10
475.4458625240209
 20
392.4164119189708
 30
0.0
 11
475.3202814849622
 21
390.4203584621143
 31
0.0
  0
LINE
  5
552
330
18
100
AcDbEntity
  8
目盛
100
AcDbLine
 10
476.8843449468256
 20
392.2804352953536
 30
0.0
 11
476.633678479697
 21
390.2962058927246
 31
0.0
  0
LINE
  5
553
330
18
100
AcDbEntity
  8
目盛
100
AcDbLine
 10
478.3114508103182
 20
392.0544039318804
 30
0.0
 11
477.9366881811468
 21
390.089829430423
 31
0.0
  0
LINE
  5
554
330
18
100
AcDbEntity
  8
目盛
100
AcDbLine
 10
479.7215479796382
 20
391.739209871079
 30
0.0
 11
479.2241682053085
 21
389.8020435488218
 31
0.0
  0
LINE
  5
555
330
18
100
AcDbEntity
  8
外形線
  6
Continuous
100
AcDbLine
 10
470.3016805748465
 20
409.9617971651204
 30
0.0
 11
470.3016805748465
 21
403.4617971651204
 31
0.0
  0
LINE
  5
556
330
18
100
AcDbEntity
  8
外形線
  6
Continuous
100
AcDbLine
 10
477.7016805748464
 20
409.9617971651204
 30
0.0
 11
477.7016805748464
 21
403.4617971651204
 31
0.0
  0
LINE
  5
557
330
18
100
AcDbEntity
  8
外形線
  6
Continuous
100
AcDbLine
 10
470.0016805748464
 20
397.4617971651205
 30
0.0
 11
478.0016805748464
 21
397.4617971651205
 31
0.0
  0
LINE
  5
558
330
18
100
AcDbEntity
  8
外形線
  6
Continuous
100
AcDbLine
 10
470.0016805748465
 20
403.4617971651204
 30
0.0
 11
478.0016805748464
 21
403.4617971651204
 31
0.0
  0
HATCH
  5
559
330
18
100
AcDbEntity
  8
ﾊｯﾁﾝｸ
  6
Continuous
100
AcDbHatch
 10
0.0
 20
0.0
 30
0.0
210
0.0
220
0.0
230
1.0
  2
ANSI37
 70
     0
 71
     0
 91
        1
 92
        7
 72
     0
 73
     1
 93
        4
 10
474.0016805748465
 20
403.4617971651204
 10
470.0016805748465
 20
403.4617971651204
 10
470.0016805748465
 20
397.4617971651205
 10
474.0016805748465
 20
397.4617971651205
 97
        0
 75
     0
 76
     1
 52
0.0
 41
10.0
 77
     0
 78
     2
 53
45.0
 43
281.5286764383884
 44
248.3428589313211
 45
-0.8838834764831842
 46
0.8838834764831844
 79
     0
 53
135.0
 43
281.5286764383884
 44
248.3428589313211
 45
-0.8838834764831844
 46
-0.8838834764831842
 79
     0
 47
0.1856754751158765
 98
        1
 10
472.2548327918904
 20
401.2378432093069
  0
LINE
  5
55A
330
18
100
AcDbEntity
  8
外形線
  6
Continuous
100
AcDbLine
 10
470.0016805748465
 20
403.4617971651204
 30
0.0
 11
470.0016805748465
 21
397.4617971651205
 31
0.0
  0
LINE
  5
55B
330
18
100
AcDbEntity
  8
外形線
  6
Continuous
100
AcDbLine
 10
478.0016805748464
 20
403.4617971651204
 30
0.0
 11
478.0016805748464
 21
397.4617971651205
 31
0.0
  0
ARC
  5
55C
330
18
100
AcDbEntity
  8
外形線
  6
Continuous
100
AcDbCircle
 10
474.0016805748464
 20
403.6167971651206
 30
0.0
 40
7.344999999999885
100
AcDbArc
 50
59.75198538337817
 51
120.2480146166212
  0
LINE
  5
55D
330
18
100
AcDbEntity
  8
外形線
  6
Continuous
100
AcDbLine
 10
470.3016805748465
 20
409.9617971651204
 30
0.0
 11
477.7016805748464
 21
409.9617971651204
 31
0.0
  0
POINT
  5
55E
330
18
100
AcDbEntity
  8
DEFPOINTS
  6
ByBlock
 62
     0
100
AcDbPoint
 10
474.0016805748464
 20
410.9617971651205
 30
0.0
  0
LINE
  5
55F
330
18
100
AcDbEntity
  8
目盛
100
AcDbLine
 10
489.7462640112062
 20
352.6955187344281
 30
0.0
 11
488.3771697993489
 21
354.153455989271
 31
0.0
  0
LINE
  5
560
330
18
100
AcDbEntity
  8
目盛
100
AcDbLine
 10
488.6624323390663
 20
351.7399925812775
 30
0.0
 11
487.3875843595691
 21
353.281019066829
 31
0.0
  0
LINE
  5
561
330
18
100
AcDbEntity
  8
目盛
100
AcDbLine
 10
487.5207413775734
 20
350.8544062944968
 30
0.0
 11
485.7573856206959
 21
353.2814572776216
 31
0.0
  0
LINE
  5
562
330
18
100
AcDbEntity
  8
目盛
100
AcDbLine
 10
486.3256968593634
 20
350.0422548785743
 30
0.0
 11
485.2540432694055
 21
351.7309107295783
 31
0.0
  0
LINE
  5
563
330
18
100
AcDbEntity
  8
目盛
100
AcDbLine
 10
485.0820150791858
 20
349.3067435241118
 30
0.0
 11
484.1185077309824
 21
351.0593568841995
 31
0.0
  0
LINE
  5
564
330
18
100
AcDbEntity
  8
目盛
100
AcDbLine
 10
483.7946042808431
 20
348.6507749584021
 30
0.0
 11
482.943045697713
 21
350.4604290633342
 31
0.0
  0
LINE
  5
565
330
18
100
AcDbEntity
  8
目盛
100
AcDbLine
 10
482.468545286594
 20
348.0769379896908
 30
0.0
 11
481.7322961812247
 21
349.9364909614673
 31
0.0
  0
TEXT
  5
566
330
18
100
AcDbEntity
  8
文字
100
AcDbText
 10
490.0932084267632
 20
374.1302073959007
 30
0.0
 40
2.0
  1
1
  7
STYLE3
100
AcDbText
  0
LINE
  5
567
330
18
100
AcDbEntity
  8
目盛
100
AcDbLine
 10
494.1567342158553
 20
358.3814626607812
 30
0.0
 11
492.4041208557676
 21
359.3449700089846
 31
0.0
  0
LINE
  5
568
330
18
100
AcDbEntity
  8
目盛
100
AcDbLine
 10
493.4212228613929
 20
357.1377808806037
 30
0.0
 11
491.7325670103887
 21
358.2094344705617
 31
0.0
  0
TEXT
  5
569
330
18
100
AcDbEntity
  8
文字
100
AcDbText
 10
490.2288820536289
 20
362.6345054891348
 30
0.0
 40
2.0
  1
.5
  7
STYLE3
100
AcDbText
  0
TEXT
  5
56A
330
18
100
AcDbEntity
  8
文字
100
AcDbText
 10
483.2886313060053
 20
353.5362827515891
 30
0.0
 40
2.0
  1
2
  7
STYLE3
100
AcDbText
  0
LINE
  5
56B
330
18
100
AcDbEntity
  8
目盛
100
AcDbLine
 10
492.6090714454701
 20
355.9427363623937
 30
0.0
 11
490.1820204623454
 21
357.7060921192712
 31
0.0
  0
LINE
  5
56C
330
18
100
AcDbEntity
  8
目盛
100
AcDbLine
 10
491.7234851586895
 20
354.8010454009007
 30
0.0
 11
490.182458673138
 21
356.0758933803981
 31
0.0
  0
LINE
  5
56D
330
18
100
AcDbEntity
  8
目盛
100
AcDbLine
 10
490.7679590055389
 20
353.7172137287608
 30
0.0
 11
489.3100217506961
 21
355.0863079406182
 31
0.0
  0
LINE
  5
56E
330
18
100
AcDbEntity
  8
目盛
100
AcDbLine
 10
496.2790932808049
 20
363.7419297603289
 30
0.0
 11
494.3419269585477
 21
364.2393095346586
 31
0.0
  0
LINE
  5
56F
330
18
100
AcDbEntity
  8
目盛
100
AcDbLine
 10
495.8759804496349
 20
362.3544062944968
 30
0.0
 11
493.0228109007494
 21
363.2814572776216
 31
0.0
  0
LINE
  5
570
330
18
100
AcDbEntity
  8
目盛
100
AcDbLine
 10
495.3865397502761
 20
360.994932453373
 30
0.0
 11
493.5269867784996
 21
361.7311815587424
 31
0.0
  0
LINE
  5
571
330
18
100
AcDbEntity
  8
目盛
100
AcDbLine
 10
494.8127027815649
 20
359.668873459124
 30
0.0
 11
493.0030486766328
 21
360.5204320422541
 31
0.0
  0
LINE
  5
572
330
18
100
AcDbEntity
  8
目盛
100
AcDbLine
 10
494.0016805748465
 20
369.4617971651206
 30
0.0
 11
497.0016805748464
 21
369.4617971651206
 31
0.0
  0
LINE
  5
573
330
18
100
AcDbEntity
  8
目盛
100
AcDbLine
 10
496.5942873416063
 20
373.7715674005922
 30
0.0
 11
494.6297128401488
 21
373.3968047714208
 31
0.0
  0
LINE
  5
574
330
18
100
AcDbEntity
  8
目盛
100
AcDbLine
 10
496.8203187050795
 20
372.3444615370996
 30
0.0
 11
494.8360893024504
 21
372.093795069971
 31
0.0
  0
LINE
  5
575
330
18
100
AcDbEntity
  8
目盛
100
AcDbLine
 10
496.9562953286966
 20
370.9059791142947
 30
0.0
 11
494.96024187184
 21
370.7803980752361
 31
0.0
  0
LINE
  5
576
330
18
100
AcDbEntity
  8
目盛
100
AcDbLine
 10
496.9562953286966
 20
368.0176152159464
 30
0.0
 11
494.96024187184
 21
368.143196255005
 31
0.0
  0
LINE
  5
577
330
18
100
AcDbEntity
  8
目盛
100
AcDbLine
 10
496.8203187050795
 20
366.5791327931416
 30
0.0
 11
494.8360893024505
 21
366.8297992602703
 31
0.0
  0
LINE
  5
578
330
18
100
AcDbEntity
  8
目盛
100
AcDbLine
 10
496.5942873416063
 20
365.1520269296489
 30
0.0
 11
494.6297128401488
 21
365.5267895588204
 31
0.0
  0
LINE
  5
579
330
18
100
AcDbEntity
  8
目盛
100
AcDbLine
 10
493.4212228613929
 20
381.7858134496374
 30
0.0
 11
491.7325670103887
 21
380.7141598596794
 31
0.0
  0
LINE
  5
57A
330
18
100
AcDbEntity
  8
目盛
100
AcDbLine
 10
494.1567342158553
 20
380.54213166946
 30
0.0
 11
492.4041208557676
 21
379.5786243212565
 31
0.0
  0
LINE
  5
57B
330
18
100
AcDbEntity
  8
目盛
100
AcDbLine
 10
489.7462640112062
 20
386.228075595813
 30
0.0
 11
488.3771697993489
 21
384.7701383409702
 31
0.0
  0
LINE
  5
57C
102
{ACAD_REACTORS
330
4A8
102
}
330
18
100
AcDbEntity
  8
ROGO
 62
     4
100
AcDbLine
 10
480.7423297652671
 20
376.7748850213211
 30
0.0
 11
481.498396965267
 21
376.7748850213211
 31
0.0
  0
LINE
  5
57D
102
{ACAD_REACTORS
330
4A8
102
}
330
18
100
AcDbEntity
  8
ROGO
 62
     4
100
AcDbLine
 10
481.4736719947634
 20
378.8267638062271
 30
0.0
 11
482.2297391947635
 21
378.8267638062271
 31
0.0
  0
LINE
  5
57E
102
{ACAD_REACTORS
330
4A8
102
}
330
18
100
AcDbEntity
  8
ROGO
 62
     4
100
AcDbLine
 10
480.9868304494322
 20
377.8008244137741
 30
0.0
 11
482.2297391947635
 21
378.8267638062271
 31
0.0
  0
LINE
  5
57F
102
{ACAD_REACTORS
330
4A8
102
}
330
18
100
AcDbEntity
  8
ROGO
 62
     4
100
AcDbLine
 10
480.9868304494322
 20
377.8008244137741
 30
0.0
 11
481.498396965267
 21
376.7748850213211
 31
0.0
  0
LINE
  5
580
102
{ACAD_REACTORS
330
4A8
102
}
330
18
100
AcDbEntity
  8
ROGO
 62
     4
100
AcDbLine
 10
481.1196589116845
 20
378.6027403974054
 30
0.0
 11
481.4736719947634
 21
378.8267638062271
 31
0.0
  0
LINE
  5
581
102
{ACAD_REACTORS
330
4A8
102
}
330
18
100
AcDbEntity
  8
ROGO
 62
     4
100
AcDbLine
 10
481.2313642186055
 20
378.8267638062271
 30
0.0
 11
481.1196589116845
 21
378.6027403974054
 31
0.0
  0
TEXT
  5
582
330
18
100
AcDbEntity
  8
文字
100
AcDbText
 10
483.4408778805902
 20
383.2223365134317
 30
0.0
 40
2.0
  1
.5
  7
STYLE3
100
AcDbText
  0
LINE
  5
583
330
18
100
AcDbEntity
  8
目盛
100
AcDbLine
 10
490.7679590055389
 20
385.2063806014804
 30
0.0
 11
489.3100217506961
 21
383.837286389623
 31
0.0
  0
LINE
  5
584
330
18
100
AcDbEntity
  8
目盛
100
AcDbLine
 10
491.7234851586895
 20
384.1225489293404
 30
0.0
 11
490.182458673138
 21
382.847700949843
 31
0.0
  0
LINE
  5
585
330
18
100
AcDbEntity
  8
目盛
100
AcDbLine
 10
492.6090714454701
 20
382.9808579678474
 30
0.0
 11
490.1820204623454
 21
381.21750221097
 31
0.0
  0
LINE
  5
586
330
18
100
AcDbEntity
  8
目盛
100
AcDbLine
 10
487.5207413775734
 20
388.0691880357443
 30
0.0
 11
485.7573856206959
 21
385.6421370526195
 31
0.0
  0
LINE
  5
587
330
18
100
AcDbEntity
  8
目盛
100
AcDbLine
 10
482.4685452865941
 20
390.8466563405503
 30
0.0
 11
481.7322961812247
 21
388.9871033687738
 31
0.0
  0
LINE
  5
588
330
18
100
AcDbEntity
  8
目盛
100
AcDbLine
 10
483.7946042808432
 20
390.2728193718389
 30
0.0
 11
482.9430456977131
 21
388.4631652669069
 31
0.0
  0
LINE
  5
589
330
18
100
AcDbEntity
  8
目盛
100
AcDbLine
 10
485.082015079186
 20
389.6168508061293
 30
0.0
 11
484.1185077309825
 21
387.8642374460416
 31
0.0
  0
LINE
  5
58A
330
18
100
AcDbEntity
  8
目盛
100
AcDbLine
 10
486.3256968593635
 20
388.8813394516668
 30
0.0
 11
485.2540432694055
 21
387.1926836006628
 31
0.0
  0
LINE
  5
58B
330
18
100
AcDbEntity
  8
目盛
100
AcDbLine
 10
488.6624323390663
 20
387.1836017489636
 30
0.0
 11
487.387584359569
 21
385.6425752634121
 31
0.0
  0
LINE
  5
58C
330
18
100
AcDbEntity
  8
目盛
100
AcDbLine
 10
494.8127027815649
 20
379.2547208711172
 30
0.0
 11
493.0030486766328
 21
378.4031622879871
 31
0.0
  0
LINE
  5
58D
330
18
100
AcDbEntity
  8
目盛
100
AcDbLine
 10
495.3865397502761
 20
377.9286618768681
 30
0.0
 11
493.5269867784996
 21
377.1924127714988
 31
0.0
  0
LINE
  5
58E
330
18
100
AcDbEntity
  8
目盛
100
AcDbLine
 10
495.8759804496349
 20
376.5691880357443
 30
0.0
 11
493.0228109007494
 21
375.6421370526195
 31
0.0
  0
LINE
  5
58F
330
18
100
AcDbEntity
  8
目盛
100
AcDbLine
 10
496.279093280805
 20
375.1816645699122
 30
0.0
 11
494.3419269585477
 21
374.6842847955825
 31
0.0
  0
CIRCLE
  5
590
330
18
100
AcDbEntity
  8
外形線
100
AcDbCircle
 10
474.0016805748465
 20
369.4617971651206
 30
0.0
 40
26.4
  0
ARC
  5
597
330
18
100
AcDbEntity
  8
隠れ線2
100
AcDbCircle
 10
474.0016805748465
 20
369.4617971651207
 30
0.0
 40
25.0
100
AcDbArc
 50
305.6102728388282
 51
136.0391949078563
  0
ARC
  5
59D
330
18
100
AcDbEntity
  8
隠れ線2
100
AcDbCircle
 10
496.8056805748465
 20
341.1223790282899
 30
0.0
 40
11.5
100
AcDbArc
 50
143.5245275571743
 51
153.7912789603203
  0
ARC
  5
5F4
330
18
100
AcDbEntity
  8
隠れ線2
100
AcDbCircle
 10
440.4796805748466
 20
397.9617971651207
 30
0.0
 40
19.0
100
AcDbArc
 50
302.7566666704962
 51
319.8678127734238
  0
LINE
  5
699
330
18
100
AcDbEntity
  8
中心線
100
AcDbLine
 10
445.1018571239581
 20
369.4617971651206
 30
0.0
 11
503.5421754435945
 21
369.4617971651206
 31
0.0
  0
LINE
  5
69B
330
18
100
AcDbEntity
  8
中心線
 48
0.5
100
AcDbLine
 10
474.0016805748465
 20
413.8346885701217
 30
0.0
 11
474.0016805748465
 21
289.9888931933404
 31
0.0
  0
TEXT
  5
6F5
330
18
100
AcDbEntity
  8
文字
100
AcDbText
 10
550.7770169066374
 20
315.6711880135814
 30
0.0
 40
3.0
  1
LA-4
  7
STYLE3
100
AcDbText
  0
LINE
  5
6F6
102
{ACAD_REACTORS
330
734
102
}
330
18
100
AcDbEntity
  8
ROGO
 62
     4
100
AcDbLine
 10
524.9294772142897
 20
318.6738867935066
 30
0.0
 11
527.23304623284
 21
318.6738867935066
 31
0.0
  0
LINE
  5
6F7
102
{ACAD_REACTORS
330
733
330
734
102
}
330
18
100
AcDbEntity
  8
ROGO
 62
     4
100
AcDbLine
 10
523.4791192998717
 20
315.742631386498
 30
0.0
 11
543.3208011099057
 21
315.742631386498
 31
0.0
  0
LINE
  5
6F8
102
{ACAD_REACTORS
330
734
102
}
330
18
100
AcDbEntity
  8
ROGO
 62
     4
100
AcDbLine
 10
524.9294772142897
 20
318.6738867935066
 30
0.0
 11
523.4791192998717
 21
315.7426313864979
 31
0.0
  0
SPLINE
  5
6F9
102
{ACAD_REACTORS
330
734
102
}
330
18
100
AcDbEntity
  8
ROGO
 62
     4
100
AcDbSpline
210
0.0
220
0.0
230
1.0
 70
     8
 71
     3
 72
    18
 73
    14
 74
     0
 42
0.0000000001
 43
0.0000000001
 40
0.1087402787915014
 40
0.1087402787915014
 40
0.1087402787915014
 40
0.1087402787915014
 40
0.5992371417938475
 40
1.083176791562496
 40
1.448211145705696
 40
1.714037220764907
 40
2.164002567013297
 40
2.740236056362883
 40
3.395137510199602
 40
4.071816045172726
 40
4.784906178399433
 40
5.506895915094292
 40
6.060470601257719
 40
6.060470601257719
 40
6.060470601257719
 40
6.060470601257719
 10
527.23304623284
 20
318.6738867935066
 30
0.0
 10
527.30684557232
 20
318.6468405722956
 30
0.0
 10
527.4519712121066
 20
318.5896607275595
 30
0.0
 10
527.6290929771739
 20
318.4591574278575
 30
0.0
 10
527.7256875399236
 20
318.3085020318964
 30
0.0
 10
527.8186006949851
 20
318.1600581143209
 30
0.0
 10
527.8316037214292
 20
317.9470902083831
 30
0.0
 10
527.8103038856476
 20
317.6778471575663
 30
0.0
 10
527.6727940701102
 20
317.396919818251
 30
0.0
 10
527.4520827285654
 20
317.1512097742484
 30
0.0
 10
527.1780541955755
 20
316.9545466594745
 30
0.0
 10
526.8890816554223
 20
316.8001711787669
 30
0.0
 10
526.6825240024885
 20
316.7986330064689
 30
0.0
 10
526.5928812640676
 20
316.7979654641387
 30
0.0
  0
LINE
  5
6FA
102
{ACAD_REACTORS
330
734
102
}
330
18
100
AcDbEntity
  8
ROGO
 62
     4
100
AcDbLine
 10
526.5928812645092
 20
316.7979654641387
 30
0.0
 11
525.3191551666787
 21
316.7979654641387
 31
0.0
  0
LINE
  5
6FB
102
{ACAD_REACTORS
330
734
102
}
330
18
100
AcDbEntity
  8
ROGO
 62
     4
100
AcDbLine
 10
525.8396727219182
 20
317.9484626346304
 30
0.0
 11
525.6139615842646
 21
317.4495745133655
 31
0.0
  0
SPLINE
  5
6FC
102
{ACAD_REACTORS
330
734
102
}
330
18
100
AcDbEntity
  8
ROGO
 62
     4
100
AcDbSpline
210
0.0
220
0.0
230
1.0
 70
     8
 71
     3
 72
    15
 73
    11
 74
     9
 42
0.0000000001
 43
0.0000000001
 44
0.0000000001
 40
0.0
 40
0.0
 40
0.0
 40
0.0
 40
0.2199578613106558
 40
0.3202465475123651
 40
0.4340808827708152
 40
0.5116301246390283
 40
0.634275054953107
 40
0.7077360179240892
 40
0.8337709579493377
 40
0.875782631437913
 40
0.875782631437913
 40
0.875782631437913
 40
0.875782631437913
 10
526.4196541492002
 20
317.9484626346302
 30
0.0
 10
526.5022660564276
 20
317.9488410412623
 30
0.0
 10
526.6225444493677
 20
317.9493919805048
 30
0.0
 10
526.6883169584599
 20
317.8006072606055
 30
0.0
 10
526.6588345838409
 20
317.7048131111234
 30
0.0
 10
526.6217728360921
 20
317.6064623764838
 30
0.0
 10
526.5562763338888
 20
317.5396315689561
 30
0.0
 10
526.4683704344669
 20
317.475262235189
 30
0.0
 10
526.3852951586733
 20
317.4674700391041
 30
0.0
 10
526.3312640172838
 20
317.4531536198838
 30
0.0
 10
526.3177562254704
 20
317.4495745133654
 30
0.0
 11
526.4196541492002
 21
317.9484626346302
 31
0.0
 11
526.6336399648127
 21
317.8975555480018
 31
0.0
 11
526.6743992514912
 21
317.8059231239942
 31
0.0
 11
526.6540199011187
 21
317.693927865335
 31
0.0
 11
526.6234505825932
 21
317.6226579440553
 31
0.0
 11
526.541932009236
 21
317.5310255200475
 31
0.0
 11
526.4807933721848
 21
317.4902998507448
 31
0.0
 11
526.358515512149
 21
317.4597559306911
 31
0.0
 11
526.3177562254704
 21
317.4495745133654
 31
0.0
  0
LINE
  5
6FD
102
{ACAD_REACTORS
330
734
102
}
330
18
100
AcDbEntity
  8
ROGO
 62
     4
100
AcDbLine
 10
526.4196541492002
 20
317.9484626346304
 30
0.0
 11
525.8396727219182
 21
317.9484626346304
 31
0.0
  0
LINE
  5
6FE
102
{ACAD_REACTORS
330
734
102
}
330
18
100
AcDbEntity
  8
ROGO
 62
     4
100
AcDbLine
 10
526.3177562254705
 20
317.4495745133654
 30
0.0
 11
525.6139615842648
 21
317.4495745133655
 31
0.0
  0
LINE
  5
6FF
102
{ACAD_REACTORS
330
734
102
}
330
18
100
AcDbEntity
  8
ROGO
 62
     4
100
AcDbLine
 10
525.3191551666787
 20
316.7979654641387
 30
0.0
 11
524.8416920940667
 21
315.742631386498
 31
0.0
  0
LINE
  5
700
102
{ACAD_REACTORS
330
72F
102
}
330
18
100
AcDbEntity
  8
ROGO
 62
     4
100
AcDbLine
 10
528.5939376517051
 20
318.6738867935066
 30
0.0
 11
527.6657492241907
 21
316.7979654641387
 31
0.0
  0
LINE
  5
701
102
{ACAD_REACTORS
330
72F
102
}
330
18
100
AcDbEntity
  8
ROGO
 62
     4
100
AcDbLine
 10
531.1311992923966
 20
318.6738867935066
 30
0.0
 11
530.9185790127757
 21
318.2441691782321
 31
0.0
  0
LINE
  5
702
102
{ACAD_REACTORS
330
72F
102
}
330
18
100
AcDbEntity
  8
ROGO
 62
     4
100
AcDbLine
 10
527.6657492241906
 20
316.7979654641387
 30
0.0
 11
530.203010864882
 21
316.7979654641387
 31
0.0
  0
LINE
  5
703
102
{ACAD_REACTORS
330
72F
102
}
330
18
100
AcDbEntity
  8
ROGO
 62
     4
100
AcDbLine
 10
529.5850584096071
 20
318.2441691782321
 30
0.0
 11
529.4188157723549
 21
317.9081834022547
 31
0.0
  0
LINE
  5
704
102
{ACAD_REACTORS
330
72F
102
}
330
18
100
AcDbEntity
  8
ROGO
 62
     4
100
AcDbLine
 10
529.5850584096071
 20
318.2441691782321
 30
0.0
 11
530.9185790127757
 21
318.2441691782321
 31
0.0
  0
LINE
  5
705
102
{ACAD_REACTORS
330
72F
102
}
330
18
100
AcDbEntity
  8
ROGO
 62
     4
100
AcDbLine
 10
529.4188157723549
 20
317.9081834022547
 30
0.0
 11
530.7523363755235
 21
317.9081834022547
 31
0.0
  0
LINE
  5
706
102
{ACAD_REACTORS
330
72F
102
}
330
18
100
AcDbEntity
  8
ROGO
 62
     4
100
AcDbLine
 10
529.0820998462975
 20
317.2276614641387
 30
0.0
 11
530.4156204494661
 21
317.2276614641387
 31
0.0
  0
LINE
  5
707
102
{ACAD_REACTORS
330
72F
102
}
330
18
100
AcDbEntity
  8
ROGO
 62
     4
100
AcDbLine
 10
529.2483495214638
 20
317.5636614641387
 30
0.0
 11
530.5818701246323
 21
317.5636614641387
 31
0.0
  0
LINE
  5
708
102
{ACAD_REACTORS
330
72F
102
}
330
18
100
AcDbEntity
  8
ROGO
 62
     4
100
AcDbLine
 10
530.7523363755235
 20
317.9081834022547
 30
0.0
 11
530.5818701246323
 21
317.5636614641387
 31
0.0
  0
LINE
  5
709
102
{ACAD_REACTORS
330
72F
102
}
330
18
100
AcDbEntity
  8
ROGO
 62
     4
100
AcDbLine
 10
530.4156204494661
 20
317.2276614641387
 30
0.0
 11
530.203010864882
 21
316.7979654641387
 31
0.0
  0
LINE
  5
70A
102
{ACAD_REACTORS
330
72F
102
}
330
18
100
AcDbEntity
  8
ROGO
 62
     4
100
AcDbLine
 10
529.2483495214638
 20
317.5636614641387
 30
0.0
 11
529.0820998462975
 21
317.2276614641387
 31
0.0
  0
LINE
  5
70B
102
{ACAD_REACTORS
330
738
102
}
330
18
100
AcDbEntity
  8
ROGO
 62
     4
100
AcDbLine
 10
531.8661910998217
 20
318.6738867935066
 30
0.0
 11
530.5134277711086
 21
316.7979654641387
 31
0.0
  0
LINE
  5
70C
102
{ACAD_REACTORS
330
738
102
}
330
18
100
AcDbEntity
  8
ROGO
 62
     4
100
AcDbLine
 10
532.5435166092955
 20
318.1724453978611
 30
0.0
 11
532.081564128848
 21
317.5318407238342
 31
0.0
  0
LINE
  5
70D
102
{ACAD_REACTORS
330
738
102
}
330
18
100
AcDbEntity
  8
ROGO
 62
     4
100
AcDbLine
 10
531.809910184355
 20
317.1551292785541
 30
0.0
 11
532.9954487397612
 21
317.1551292785541
 31
0.0
  0
LINE
  5
70E
102
{ACAD_REACTORS
330
738
102
}
330
18
100
AcDbEntity
  8
ROGO
 62
     4
100
AcDbLine
 10
532.0815641288482
 20
317.5318407238342
 30
0.0
 11
532.8280985889033
 21
317.5318407238342
 31
0.0
  0
LINE
  5
70F
102
{ACAD_REACTORS
330
738
102
}
330
18
100
AcDbEntity
  8
ROGO
 62
     4
100
AcDbLine
 10
531.809910184355
 20
317.1551292785541
 30
0.0
 11
531.5523524163824
 21
316.7979654641388
 31
0.0
  0
LINE
  5
710
102
{ACAD_REACTORS
330
738
102
}
330
18
100
AcDbEntity
  8
ROGO
 62
     4
100
AcDbLine
 10
530.5134277711086
 20
316.7979654641387
 30
0.0
 11
531.5523524163824
 21
316.7979654641387
 31
0.0
  0
LINE
  5
711
102
{ACAD_REACTORS
330
738
102
}
330
18
100
AcDbEntity
  8
ROGO
 62
     4
100
AcDbLine
 10
531.8661910998217
 20
318.6738867935066
 30
0.0
 11
533.3667675037808
 21
318.6738867935066
 31
0.0
  0
LINE
  5
712
102
{ACAD_REACTORS
330
738
102
}
330
18
100
AcDbEntity
  8
ROGO
 62
     4
100
AcDbLine
 10
534.2001260900429
 20
316.7979654641388
 30
0.0
 11
533.1541150584312
 21
316.7979654641387
 31
0.0
  0
LINE
  5
713
102
{ACAD_REACTORS
330
730
102
}
330
18
100
AcDbEntity
  8
ROGO
 62
     4
100
AcDbLine
 10
534.7138681114796
 20
316.7979654641387
 30
0.0
 11
536.3296238472005
 21
316.7979654641387
 31
0.0
  0
LINE
  5
714
102
{ACAD_REACTORS
330
730
102
}
330
18
100
AcDbEntity
  8
ROGO
 62
     4
100
AcDbLine
 10
537.2650188086423
 20
318.6738867935066
 30
0.0
 11
536.9169912364413
 21
317.9759224331967
 31
0.0
  0
LINE
  5
715
102
{ACAD_REACTORS
330
730
102
}
330
18
100
AcDbEntity
  8
ROGO
 62
     4
100
AcDbLine
 10
535.7430384887968
 20
317.9759224331967
 30
0.0
 11
536.9169912364413
 21
317.9759224331968
 31
0.0
  0
LINE
  5
716
102
{ACAD_REACTORS
330
730
102
}
330
18
100
AcDbEntity
  8
ROGO
 62
     4
100
AcDbLine
 10
535.4781034183529
 20
317.4959224331967
 30
0.0
 11
536.6776477338846
 21
317.4959224331967
 31
0.0
  0
SPLINE
  5
717
102
{ACAD_REACTORS
330
730
102
}
330
18
100
AcDbEntity
  8
ROGO
 62
     4
100
AcDbSpline
210
0.0
220
0.0
230
1.0
 70
     8
 71
     3
 72
    26
 73
    22
 74
    20
 42
0.0000000001
 43
0.0000000001
 44
0.0000000001
 40
0.0
 40
0.0
 40
0.0
 40
0.0
 40
0.3403136209417982
 40
0.5681272389515159
 40
0.7323994099697078
 40
0.8550561247337057
 40
1.014148321321447
 40
1.13027011535643
 40
1.339959009791999
 40
1.510642755247373
 40
1.626735051276186
 40
1.740569491433665
 40
1.944197174100541
 40
2.088186249714737
 40
2.16573549158295
 40
2.275891898886404
 40
2.355438312276705
 40
2.470674802865115
 40
2.535888688806235
 40
2.677801419664453
 40
2.742600005358966
 40
2.742600005358966
 40
2.742600005358966
 40
2.742600005358966
 10
535.3863954627762
 20
318.6738867935066
 30
0.0
 10
535.2708877616923
 20
318.666995405985
 30
0.0
 10
535.0780565987411
 20
318.6554907681326
 30
0.0
 10
534.8663291548671
 20
318.5268686197634
 30
0.0
 10
534.7112052342809
 20
318.4520933549885
 30
0.0
 10
534.6005710422466
 20
318.3504427529606
 30
0.0
 10
534.519475731007
 20
318.2454451065016
 30
0.0
 10
534.4172398671536
 20
318.1203411806079
 30
0.0
 10
534.3338694415735
 20
317.9746627213731
 30
0.0
 10
534.2914139522406
 20
317.814099662711
 30
0.0
 10
534.2538072827353
 20
317.6861299733413
 30
0.0
 10
534.2259175470596
 20
317.5435244549235
 30
0.0
 10
534.2330134853638
 20
317.3894603290344
 30
0.0
 10
534.24317519377
 20
317.2463734561719
 30
0.0
 10
534.2885447508045
 20
317.144230851991
 30
0.0
 10
534.340212639933
 20
317.0715123563776
 30
0.0
 10
534.4034792625828
 20
316.9914209953794
 30
0.0
 10
534.4727067830364
 20
316.9383767463362
 30
0.0
 10
534.5299635931946
 20
316.8422835247068
 30
0.0
 10
534.6301897078549
 20
316.8300213365979
 30
0.0
 10
534.6938974136777
 20
316.805615922488
 30
0.0
 10
534.7138681114797
 20
316.7979654641387
 30
0.0
 11
535.3863954627762
 21
318.6738867935066
 31
0.0
 11
535.0501317871278
 21
318.6215408190869
 31
0.0
 11
534.8463353537351
 21
318.5197269777535
 31
0.0
 11
534.7036781433266
 21
318.4382759710715
 31
0.0
 11
534.6119701877499
 21
318.356824632466
 31
0.0
 11
534.5100722640202
 21
318.2346479564812
 31
0.0
 11
534.438743658816
 21
318.1430155324735
 31
0.0
 11
534.3368451491528
 21
317.9597503525346
 31
0.0
 11
534.2858964802546
 21
317.7968480072471
 31
0.0
 11
534.2553271617291
 21
317.6848527485879
 31
0.0
 11
534.234947225423
 21
317.5728574899288
 31
0.0
 11
534.234947225423
 21
317.3692298072619
 31
0.0
 11
534.2553271617291
 21
317.2266902966257
 31
0.0
 11
534.2858964802546
 21
317.155420375346
 31
0.0
 11
534.3470351173057
 21
317.0637879513382
 31
0.0
 11
534.3979843721374
 21
317.0026994473841
 31
0.0
 11
534.4795023595611
 21
316.921248440702
 31
0.0
 11
534.5202616462398
 21
316.8703413540736
 31
0.0
 11
534.6527294744285
 21
316.8194345993686
 31
0.0
 11
534.7138681114797
 21
316.7979654641387
 31
0.0
  0
SPLINE
  5
718
102
{ACAD_REACTORS
330
730
102
}
330
18
100
AcDbEntity
  8
ROGO
 62
     4
100
AcDbSpline
210
0.0
220
0.0
230
1.0
 70
     8
 71
     3
 72
    16
 73
    12
 74
    10
 42
0.0000000001
 43
0.0000000001
 44
0.0000000001
 40
0.0
 40
0.0
 40
0.0
 40
0.0
 40
0.1794152893756658
 40
0.2670467197814556
 40
0.3102605435414121
 40
0.3558008766977565
 40
0.4210145035340276
 40
0.4803947587045229
 40
0.5423269814405317
 40
0.646160827944346
 40
0.7489346372632694
 40
0.7489346372632694
 40
0.7489346372632694
 40
0.7489346372632694
 10
535.7430384887969
 20
317.9759224331967
 30
0.0
 10
535.6822803350519
 20
317.9666594427624
 30
0.0
 10
535.5918462047498
 20
317.9528721494974
 30
0.0
 10
535.5100665599059
 20
317.8881362823893
 30
0.0
 10
535.4639485182997
 20
317.8496227505086
 30
0.0
 10
535.4482589550837
 20
317.7986199016769
 30
0.0
 10
535.4061217152823
 20
317.7594575430545
 30
0.0
 10
535.3713886440292
 20
317.7056358563173
 30
0.0
 10
535.3630951739408
 20
317.631710897804
 30
0.0
 10
535.3691827708662
 20
317.5279684847509
 30
0.0
 10
535.4419209345362
 20
317.5065678504661
 30
0.0
 10
535.478103418353
 20
317.4959224331967
 30
0.0
 11
535.7430384887969
 21
317.9759224331967
 31
0.0
 11
535.569811959863
 21
317.9292061005575
 31
0.0
 11
535.4984833546589
 21
317.8782993458525
 31
0.0
 11
535.4679140361334
 21
317.8477550938754
 31
0.0
 11
535.4475340998273
 21
317.8070294245726
 31
0.0
 11
535.4067748131488
 21
317.7561226698677
 31
0.0
 11
535.3762054946231
 21
317.7052155832393
 31
0.0
 11
535.3660155264702
 21
317.6441274112085
 31
0.0
 11
535.3863954627761
 21
317.5423132379518
 31
0.0
 11
535.478103418353
 21
317.4959224331967
 31
0.0
  0
LINE
  5
719
102
{ACAD_REACTORS
330
730
102
}
330
18
100
AcDbEntity
  8
ROGO
 62
     4
100
AcDbLine
 10
536.6776477338845
 20
317.4959224331967
 30
0.0
 11
536.3296238472005
 21
316.7979654641387
 31
0.0
  0
LINE
  5
71A
102
{ACAD_REACTORS
330
730
102
}
330
18
100
AcDbEntity
  8
ROGO
 62
     4
100
AcDbLine
 10
535.3863954627768
 20
318.6738867935066
 30
0.0
 11
537.2650188086423
 21
318.6738867935066
 31
0.0
  0
LINE
  5
71B
102
{ACAD_REACTORS
330
731
102
}
330
18
100
AcDbEntity
  8
ROGO
 62
     4
100
AcDbLine
 10
540.7582534985194
 20
316.7979654641387
 30
0.0
 11
542.3740092342403
 21
316.7979654641387
 31
0.0
  0
LINE
  5
71C
102
{ACAD_REACTORS
330
731
102
}
330
18
100
AcDbEntity
  8
ROGO
 62
     4
100
AcDbLine
 10
541.4307808498165
 20
318.6738867935066
 30
0.0
 11
543.3094041956821
 21
318.6738867935066
 31
0.0
  0
SPLINE
  5
71D
102
{ACAD_REACTORS
330
731
102
}
330
18
100
AcDbEntity
  8
ROGO
 62
     4
100
AcDbSpline
210
0.0
220
0.0
230
1.0
 70
     8
 71
     3
 72
    16
 73
    12
 74
    10
 42
0.0000000001
 43
0.0000000001
 44
0.0000000001
 40
0.0
 40
0.0
 40
0.0
 40
0.0
 40
0.1794152893756658
 40
0.2670467197815217
 40
0.3102605435413978
 40
0.3558008766977931
 40
0.4210145035340376
 40
0.4803947587045328
 40
0.5423269814405045
 40
0.6461608279444525
 40
0.7489346372632488
 40
0.7489346372632488
 40
0.7489346372632488
 40
0.7489346372632488
 10
541.7874238758368
 20
317.9759224331967
 30
0.0
 10
541.7266657220919
 20
317.9666594427625
 30
0.0
 10
541.6362315917897
 20
317.9528721494975
 30
0.0
 10
541.5544519469456
 20
317.8881362823891
 30
0.0
 10
541.5083339053395
 20
317.8496227505086
 30
0.0
 10
541.4926443421231
 20
317.7986199016769
 30
0.0
 10
541.4505071023221
 20
317.7594575430544
 30
0.0
 10
541.4157740310691
 20
317.7056358563171
 30
0.0
 10
541.4074805609806
 20
317.6317108978042
 30
0.0
 10
541.413568157906
 20
317.5279684847509
 30
0.0
 10
541.486306321576
 20
317.5065678504661
 30
0.0
 10
541.5224888053927
 20
317.4959224331967
 30
0.0
 11
541.7874238758368
 21
317.9759224331967
 31
0.0
 11
541.6141973469028
 21
317.9292061005575
 31
0.0
 11
541.5428687416987
 21
317.8782993458524
 31
0.0
 11
541.5122994231731
 21
317.8477550938754
 31
0.0
 11
541.4919194868671
 21
317.8070294245726
 31
0.0
 11
541.4511602001886
 21
317.7561226698677
 31
0.0
 11
541.4205908816629
 21
317.7052155832392
 31
0.0
 11
541.4104009135098
 21
317.6441274112085
 31
0.0
 11
541.4307808498159
 21
317.5423132379517
 31
0.0
 11
541.5224888053927
 21
317.4959224331967
 31
0.0
  0
SPLINE
  5
71E
102
{ACAD_REACTORS
330
731
102
}
330
18
100
AcDbEntity
  8
ROGO
 62
     4
100
AcDbSpline
210
0.0
220
0.0
230
1.0
 70
     8
 71
     3
 72
    26
 73
    22
 74
    20
 42
0.0000000001
 43
0.0000000001
 44
0.0000000001
 40
0.0
 40
0.0
 40
0.0
 40
0.0
 40
0.3403136209416859
 40
0.5681272389515052
 40
0.7323994099695983
 40
0.8550561247335963
 40
1.014148321321381
 40
1.13027011535639
 40
1.339959009792003
 40
1.510642755247356
 40
1.626735051276114
 40
1.740569491433573
 40
1.94419717410045
 40
2.088186249714629
 40
2.165735491582895
 40
2.275891898886364
 40
2.355438312276665
 40
2.470674802864995
 40
2.535888688806186
 40
2.677801419664424
 40
2.74260000535881
 40
2.74260000535881
 40
2.74260000535881
 40
2.74260000535881
 10
541.4307808498159
 20
318.6738867935066
 30
0.0
 10
541.3152731487322
 20
318.666995405985
 30
0.0
 10
541.1224419857808
 20
318.6554907681326
 30
0.0
 10
540.9107145419069
 20
318.5268686197634
 30
0.0
 10
540.7555906213208
 20
318.4520933549885
 30
0.0
 10
540.6449564292865
 20
318.3504427529606
 30
0.0
 10
540.5638611180469
 20
318.2454451065014
 30
0.0
 10
540.4616252541932
 20
318.1203411806081
 30
0.0
 10
540.3782548286135
 20
317.9746627213728
 30
0.0
 10
540.3357993392805
 20
317.8140996627111
 30
0.0
 10
540.2981926697748
 20
317.6861299733412
 30
0.0
 10
540.2703029340995
 20
317.5435244549234
 30
0.0
 10
540.2773988724036
 20
317.3894603290345
 30
0.0
 10
540.2875605808098
 20
317.2463734561719
 30
0.0
 10
540.3329301378441
 20
317.1442308519909
 30
0.0
 10
540.3845980269729
 20
317.0715123563776
 30
0.0
 10
540.4478646496226
 20
316.9914209953794
 30
0.0
 10
540.5170921700763
 20
316.9383767463362
 30
0.0
 10
540.5743489802341
 20
316.8422835247068
 30
0.0
 10
540.6745750948947
 20
316.8300213365979
 30
0.0
 10
540.7382828007174
 20
316.8056159224879
 30
0.0
 10
540.7582534985194
 20
316.7979654641387
 30
0.0
 11
541.4307808498159
 21
318.6738867935066
 31
0.0
 11
541.0945171741676
 21
318.6215408190869
 31
0.0
 11
540.8907207407747
 21
318.5197269777535
 31
0.0
 11
540.7480635303665
 21
318.4382759710715
 31
0.0
 11
540.6563555747896
 21
318.356824632466
 31
0.0
 11
540.55445765106
 21
318.2346479564811
 31
0.0
 11
540.4831290458558
 21
318.1430155324735
 31
0.0
 11
540.3812305361927
 21
317.9597503525345
 31
0.0
 11
540.3302818672943
 21
317.796848007247
 31
0.0
 11
540.2997125487688
 21
317.6848527485879
 31
0.0
 11
540.2793326124629
 21
317.5728574899288
 31
0.0
 11
540.2793326124629
 21
317.3692298072619
 31
0.0
 11
540.2997125487688
 21
317.2266902966257
 31
0.0
 11
540.3302818672943
 21
317.1554203753459
 31
0.0
 11
540.3914205043455
 21
317.0637879513382
 31
0.0
 11
540.4423697591773
 21
317.0026994473841
 31
0.0
 11
540.5238877466008
 21
316.921248440702
 31
0.0
 11
540.5646470332795
 21
316.8703413540736
 31
0.0
 11
540.6971148614683
 21
316.8194345993685
 31
0.0
 11
540.7582534985194
 21
316.7979654641387
 31
0.0
  0
LINE
  5
71F
102
{ACAD_REACTORS
330
731
102
}
330
18
100
AcDbEntity
  8
ROGO
 62
     4
100
AcDbLine
 10
542.7220331209244
 20
317.4959224331967
 30
0.0
 11
542.3740092342403
 21
316.7979654641387
 31
0.0
  0
LINE
  5
720
102
{ACAD_REACTORS
330
731
102
}
330
18
100
AcDbEntity
  8
ROGO
 62
     4
100
AcDbLine
 10
541.5224888053926
 20
317.4959224331967
 30
0.0
 11
542.7220331209244
 21
317.4959224331967
 31
0.0
  0
LINE
  5
721
102
{ACAD_REACTORS
330
731
102
}
330
18
100
AcDbEntity
  8
ROGO
 62
     4
100
AcDbLine
 10
541.7874238758367
 20
317.9759224331967
 30
0.0
 11
542.9613766234812
 21
317.9759224331967
 31
0.0
  0
LINE
  5
722
102
{ACAD_REACTORS
330
731
102
}
330
18
100
AcDbEntity
  8
ROGO
 62
     4
100
AcDbLine
 10
543.3094041956821
 20
318.6738867935066
 30
0.0
 11
542.9613766234812
 21
317.9759224331967
 31
0.0
  0
LINE
  5
723
102
{ACAD_REACTORS
330
733
102
}
330
18
100
AcDbEntity
  8
ROGO
 62
     4
100
AcDbLine
 10
543.7023000944281
 20
318.6738867935066
 30
0.0
 11
544.7824197265768
 21
318.6738867935066
 31
0.0
  0
LINE
  5
724
102
{ACAD_REACTORS
330
733
102
}
330
18
100
AcDbEntity
  8
ROGO
 62
     4
100
AcDbLine
 10
543.7023000944281
 20
318.6738867935066
 30
0.0
 11
542.2406814777568
 21
315.742631386498
 31
0.0
  0
LINE
  5
725
102
{ACAD_REACTORS
330
733
102
}
330
18
100
AcDbEntity
  8
ROGO
 62
     4
100
AcDbLine
 10
544.7824197265768
 20
318.6738867935066
 30
0.0
 11
544.6228407166898
 21
318.3538533523328
 31
0.0
  0
LINE
  5
726
102
{ACAD_REACTORS
330
733
102
}
330
18
100
AcDbEntity
  8
ROGO
 62
     4
100
AcDbLine
 10
544.6228407166898
 20
318.3538533523328
 30
0.0
 11
545.1285736925167
 21
318.6738867935066
 31
0.0
  0
LINE
  5
727
102
{ACAD_REACTORS
330
733
102
}
330
18
100
AcDbEntity
  8
ROGO
 62
     4
100
AcDbLine
 10
543.7023000944281
 20
316.5077221895259
 30
0.0
 11
544.0837990789504
 21
315.742631386498
 31
0.0
  0
LINE
  5
728
102
{ACAD_REACTORS
330
733
102
}
330
18
100
AcDbEntity
  8
ROGO
 62
     4
100
AcDbLine
 10
544.4330857706148
 20
317.2082590900022
 30
0.0
 11
545.1638950789504
 21
315.742631386498
 31
0.0
  0
LINE
  5
729
102
{ACAD_REACTORS
330
733
102
}
330
18
100
AcDbEntity
  8
ROGO
 62
     4
100
AcDbLine
 10
543.7023000944281
 20
316.5077221895259
 30
0.0
 11
543.3208011099057
 21
315.742631386498
 31
0.0
  0
LINE
  5
72A
102
{ACAD_REACTORS
330
733
102
}
330
18
100
AcDbEntity
  8
ROGO
 62
     4
100
AcDbLine
 10
544.4330857706148
 20
317.2082590900022
 30
0.0
 11
546.2086696925166
 21
318.6738867935066
 31
0.0
  0
LINE
  5
72B
102
{ACAD_REACTORS
330
733
102
}
330
18
100
AcDbEntity
  8
ROGO
 62
     4
100
AcDbLine
 10
545.1285736925167
 20
318.6738867935066
 30
0.0
 11
546.2086696925166
 21
318.6738867935066
 31
0.0
  0
LINE
  5
72C
102
{ACAD_REACTORS
330
733
102
}
330
18
100
AcDbEntity
  8
ROGO
 62
     4
100
AcDbLine
 10
544.0837990789504
 20
315.742631386498
 30
0.0
 11
545.1638950789504
 21
315.742631386498
 31
0.0
  0
LINE
  5
72D
102
{ACAD_REACTORS
330
72F
102
}
330
18
100
AcDbEntity
  8
ROGO
 62
     4
100
AcDbLine
 10
528.5939376517051
 20
318.6738867935066
 30
0.0
 11
531.1311992923966
 21
318.6738867935066
 31
0.0
  0
LINE
  5
72E
330
18
100
AcDbEntity
  8
ROGO
 62
     4
100
AcDbLine
 10
524.9542457919314
 20
316.0364459669141
 30
0.0
 11
542.3871869168798
 21
316.0364459669141
 31
0.0
  0
HATCH
  5
72F
330
18
100
AcDbEntity
  8
ROGO
 62
     4
100
AcDbHatch
 10
0.0
 20
0.0
 30
0.0
210
0.0
220
0.0
230
1.0
  2
SOLID
 70
     1
 71
     1
 91
        1
 92
        1
 93
       12
 72
     1
 10
528.5939376517051
 20
318.6738867935066
 11
531.1311992923966
 21
318.6738867935066
 72
     1
 10
531.1311992923966
 20
318.6738867935066
 11
530.9185790127757
 21
318.2441691782321
 72
     1
 10
530.9185790127757
 20
318.2441691782321
 11
529.5850584096071
 21
318.2441691782321
 72
     1
 10
529.5850584096071
 20
318.2441691782321
 11
529.4188157723549
 21
317.9081834022547
 72
     1
 10
529.4188157723549
 20
317.9081834022547
 11
530.7523363755235
 21
317.9081834022547
 72
     1
 10
530.7523363755235
 20
317.9081834022547
 11
530.5818701246323
 21
317.5636614641387
 72
     1
 10
530.5818701246323
 20
317.5636614641387
 11
529.2483495214638
 21
317.5636614641387
 72
     1
 10
529.2483495214638
 20
317.5636614641387
 11
529.0820998462975
 21
317.2276614641387
 72
     1
 10
529.0820998462975
 20
317.2276614641387
 11
530.4156204494661
 21
317.2276614641387
 72
     1
 10
530.4156204494661
 20
317.2276614641387
 11
530.203010864882
 21
316.7979654641387
 72
     1
 10
530.203010864882
 20
316.7979654641387
 11
527.6657492241906
 21
316.7979654641387
 72
     1
 10
527.6657492241907
 20
316.7979654641387
 11
528.5939376517051
 21
318.6738867935066
 97
       12
330
72D
330
701
330
704
330
703
330
705
330
708
330
707
330
70A
330
706
330
709
330
702
330
700
 75
     0
 76
     1
 98
        1
 10
424.8080391106923
 20
188.9623210104904
450
        0
451
        0
460
0.0
461
0.0
452
        0
462
0.0
453
        0
470

  0
HATCH
  5
730
330
18
100
AcDbEntity
  8
ROGO
 62
     4
100
AcDbHatch
 10
0.0
 20
0.0
 30
0.0
210
0.0
220
0.0
230
1.0
  2
SOLID
 70
     1
 71
     1
 91
        1
 92
        5
 93
        8
 72
     1
 10
537.2650188086423
 20
318.6738867935066
 11
535.3863954627764
 21
318.6738867935066
 72
     4
 94
        3
 73
     0
 74
     0
 95
       26
 96
       22
 40
0.0
 40
0.0
 40
0.0
 40
0.0
 40
0.3403136209417982
 40
0.5681272389515159
 40
0.7323994099697078
 40
0.8550561247337057
 40
1.014148321321447
 40
1.13027011535643
 40
1.339959009791999
 40
1.510642755247373
 40
1.626735051276186
 40
1.740569491433665
 40
1.944197174100541
 40
2.088186249714737
 40
2.16573549158295
 40
2.275891898886404
 40
2.355438312276705
 40
2.470674802865115
 40
2.535888688806235
 40
2.677801419664453
 40
2.742600005358966
 40
2.742600005358966
 40
2.742600005358966
 40
2.742600005358966
 10
535.3863954627762
 20
318.6738867935066
 10
535.2708877616923
 20
318.666995405985
 10
535.0780565987411
 20
318.6554907681326
 10
534.8663291548671
 20
318.5268686197634
 10
534.7112052342809
 20
318.4520933549885
 10
534.6005710422466
 20
318.3504427529606
 10
534.519475731007
 20
318.2454451065016
 10
534.4172398671536
 20
318.1203411806079
 10
534.3338694415735
 20
317.9746627213731
 10
534.2914139522406
 20
317.814099662711
 10
534.2538072827353
 20
317.6861299733413
 10
534.2259175470596
 20
317.5435244549235
 10
534.2330134853638
 20
317.3894603290344
 10
534.24317519377
 20
317.2463734561719
 10
534.2885447508045
 20
317.144230851991
 10
534.340212639933
 20
317.0715123563776
 10
534.4034792625828
 20
316.9914209953794
 10
534.4727067830364
 20
316.9383767463362
 10
534.5299635931946
 20
316.8422835247068
 10
534.6301897078549
 20
316.8300213365979
 10
534.6938974136777
 20
316.805615922488
 10
534.7138681114797
 20
316.7979654641387
 72
     1
 10
534.7138681114796
 20
316.7979654641387
 11
536.3296238472005
 21
316.7979654641387
 72
     1
 10
536.3296238472005
 20
316.7979654641387
 11
536.6776477338844
 21
317.4959224331967
 72
     1
 10
536.6776477338844
 20
317.4959224331967
 11
535.4781034183529
 21
317.4959224331967
 72
     4
 94
        3
 73
     0
 74
     0
 95
       16
 96
       12
 40
0.0
 40
0.0
 40
0.0
 40
0.0
 40
0.1027738093189234
 40
0.2066076558227377
 40
0.2685398785587465
 40
0.3279201337292418
 40
0.3931337605655129
 40
0.4386740937218573
 40
0.4818879174818138
 40
0.5695193478876036
 40
0.7489346372632694
 40
0.7489346372632694
 40
0.7489346372632694
 40
0.7489346372632694
 10
535.478103418353
 20
317.4959224331967
 10
535.4419209345362
 20
317.5065678504661
 10
535.3691827708662
 20
317.5279684847509
 10
535.3630951739408
 20
317.631710897804
 10
535.3713886440292
 20
317.7056358563173
 10
535.4061217152823
 20
317.7594575430545
 10
535.4482589550837
 20
317.7986199016769
 10
535.4639485182997
 20
317.8496227505086
 10
535.5100665599059
 20
317.8881362823893
 10
535.5918462047498
 20
317.9528721494974
 10
535.6822803350519
 20
317.9666594427624
 10
535.7430384887969
 20
317.9759224331967
 72
     1
 10
535.7430384887971
 20
317.9759224331967
 11
536.9169912364413
 21
317.9759224331968
 72
     1
 10
536.9169912364413
 20
317.9759224331968
 11
537.2650188086423
 21
318.6738867935066
 97
        8
330
71A
330
717
330
713
330
719
330
716
330
718
330
715
330
714
 75
     0
 76
     1
 47
0.0514683685270805
 98
        1
 10
536.0434196016432
 20
318.2562847130109
450
        0
451
        0
460
0.0
461
0.0
452
        0
462
0.0
453
        0
470

  0
HATCH
  5
731
330
18
100
AcDbEntity
  8
ROGO
 62
     4
100
AcDbHatch
 10
0.0
 20
0.0
 30
0.0
210
0.0
220
0.0
230
1.0
  2
SOLID
 70
     1
 71
     1
 91
        1
 92
        5
 93
        8
 72
     1
 10
543.3094041956821
 20
318.6738867935066
 11
541.4307808498159
 21
318.6738867935066
 72
     4
 94
        3
 73
     0
 74
     0
 95
       26
 96
       22
 40
0.0
 40
0.0
 40
0.0
 40
0.0
 40
0.3403136209416859
 40
0.5681272389515052
 40
0.7323994099695983
 40
0.8550561247335963
 40
1.014148321321381
 40
1.13027011535639
 40
1.339959009792003
 40
1.510642755247356
 40
1.626735051276114
 40
1.740569491433573
 40
1.94419717410045
 40
2.088186249714629
 40
2.165735491582895
 40
2.275891898886364
 40
2.355438312276665
 40
2.470674802864995
 40
2.535888688806186
 40
2.677801419664424
 40
2.74260000535881
 40
2.74260000535881
 40
2.74260000535881
 40
2.74260000535881
 10
541.4307808498159
 20
318.6738867935066
 10
541.3152731487322
 20
318.666995405985
 10
541.1224419857808
 20
318.6554907681326
 10
540.9107145419069
 20
318.5268686197634
 10
540.7555906213208
 20
318.4520933549885
 10
540.6449564292865
 20
318.3504427529606
 10
540.5638611180469
 20
318.2454451065014
 10
540.4616252541932
 20
318.1203411806081
 10
540.3782548286135
 20
317.9746627213728
 10
540.3357993392805
 20
317.8140996627111
 10
540.2981926697748
 20
317.6861299733412
 10
540.2703029340995
 20
317.5435244549234
 10
540.2773988724036
 20
317.3894603290345
 10
540.2875605808098
 20
317.2463734561719
 10
540.3329301378441
 20
317.1442308519909
 10
540.3845980269729
 20
317.0715123563776
 10
540.4478646496226
 20
316.9914209953794
 10
540.5170921700763
 20
316.9383767463362
 10
540.5743489802341
 20
316.8422835247068
 10
540.6745750948947
 20
316.8300213365979
 10
540.7382828007174
 20
316.8056159224879
 10
540.7582534985194
 20
316.7979654641387
 72
     1
 10
540.7582534985194
 20
316.7979654641387
 11
542.3740092342403
 21
316.7979654641387
 72
     1
 10
542.3740092342403
 20
316.7979654641387
 11
542.7220331209244
 21
317.4959224331967
 72
     1
 10
542.7220331209244
 20
317.4959224331967
 11
541.5224888053927
 21
317.4959224331967
 72
     4
 94
        3
 73
     0
 74
     0
 95
       16
 96
       12
 40
0.0
 40
0.0
 40
0.0
 40
0.0
 40
0.1027738093187964
 40
0.2066076558227444
 40
0.268539878558716
 40
0.3279201337292112
 40
0.3931337605654557
 40
0.4386740937218511
 40
0.4818879174817272
 40
0.569519347887583
 40
0.7489346372632488
 40
0.7489346372632488
 40
0.7489346372632488
 40
0.7489346372632488
 10
541.5224888053927
 20
317.4959224331967
 10
541.486306321576
 20
317.5065678504661
 10
541.413568157906
 20
317.5279684847509
 10
541.4074805609806
 20
317.6317108978042
 10
541.4157740310691
 20
317.7056358563171
 10
541.4505071023221
 20
317.7594575430544
 10
541.4926443421231
 20
317.7986199016769
 10
541.5083339053395
 20
317.8496227505086
 10
541.5544519469456
 20
317.8881362823891
 10
541.6362315917897
 20
317.9528721494975
 10
541.7266657220919
 20
317.9666594427625
 10
541.7874238758368
 20
317.9759224331967
 72
     1
 10
541.7874238758368
 20
317.9759224331967
 11
542.9613766234812
 21
317.9759224331967
 72
     1
 10
542.9613766234812
 20
317.9759224331967
 11
543.3094041956821
 21
318.6738867935066
 97
        8
330
71C
330
71E
330
71B
330
71F
330
720
330
71D
330
721
330
722
 75
     0
 76
     1
 47
0.0514683685270805
 98
        1
 10
541.7549486065086
 20
318.3303992175364
450
        0
451
        0
460
0.0
461
0.0
452
        0
462
0.0
453
        0
470

  0
HATCH
  5
732
330
18
100
AcDbEntity
  8
ROGO
 62
     4
100
AcDbHatch
 10
0.0
 20
0.0
 30
0.0
210
0.0
220
0.0
230
1.0
  2
SOLID
 70
     1
 71
     0
 91
        1
 92
        7
 72
     0
 73
     1
 93
        4
 10
524.9746221446696
 20
316.036445966914
 10
524.8416920940667
 20
315.742631386498
 10
542.2406814777568
 20
315.742631386498
 10
542.3871869168798
 20
316.0364459669141
 97
        0
 75
     0
 76
     1
 47
0.0514683685270805
 98
        1
 10
535.9692439459385
 20
315.9587367323358
450
        0
451
        0
460
0.0
461
0.0
452
        0
462
0.0
453
        0
470

  0
HATCH
  5
733
330
18
100
AcDbEntity
  8
ROGO
 62
     4
100
AcDbHatch
 10
0.0
 20
0.0
 30
0.0
210
0.0
220
0.0
230
1.0
  2
SOLID
 70
     1
 71
     1
 91
        1
 92
        7
 72
     0
 73
     1
 93
       11
 10
546.2086696925166
 20
318.6738867935066
 10
545.1285736925167
 20
318.6738867935066
 10
544.6228407166898
 20
318.3538533523328
 10
544.7824197265768
 20
318.6738867935066
 10
543.7023000944281
 20
318.6738867935066
 10
542.2406814777568
 20
315.742631386498
 10
543.3208011099057
 20
315.742631386498
 10
543.7023000944281
 20
316.5077221895259
 10
544.0837990789504
 20
315.742631386498
 10
545.1638950789504
 20
315.742631386498
 10
544.4330857706148
 20
317.2082590900022
 97
       11
330
72B
330
726
330
725
330
723
330
724
330
6F7
330
729
330
727
330
72C
330
728
330
72A
 75
     0
 76
     1
 47
0.0514683685270805
 98
        1
 10
543.6093411709939
 20
317.4163211028758
450
        0
451
        0
460
0.0
461
0.0
452
        0
462
0.0
453
        0
470

  0
HATCH
  5
734
330
18
100
AcDbEntity
  8
ROGO
 62
     4
100
AcDbHatch
 10
0.0
 20
0.0
 30
0.0
210
0.0
220
0.0
230
1.0
  2
SOLID
 70
     1
 71
     1
 91
        2
 92
        5
 93
        6
 72
     1
 10
523.4791192998717
 20
315.742631386498
 11
524.8416920940667
 21
315.742631386498
 72
     1
 10
524.8416920940667
 20
315.742631386498
 11
525.3191551666787
 21
316.7979654641387
 72
     1
 10
525.3191551666787
 20
316.7979654641387
 11
526.5928812640677
 21
316.7979654641387
 72
     4
 94
        3
 73
     0
 74
     0
 95
       18
 96
       14
 40
0.108740278791501
 40
0.108740278791501
 40
0.108740278791501
 40
0.108740278791501
 40
0.6623149649549278
 40
1.384304701649787
 40
2.097394834876493
 40
2.774073369849618
 40
3.428974823686337
 40
4.005208313035923
 40
4.455173659284313
 40
4.720999734343524
 40
5.086034088486724
 40
5.569973738255373
 40
6.060470601257719
 40
6.060470601257719
 40
6.060470601257719
 40
6.060470601257719
 10
526.5928812640676
 20
316.7979654641387
 10
526.6825240024885
 20
316.7986330064689
 10
526.8890816554223
 20
316.8001711787669
 10
527.1780541955755
 20
316.9545466594745
 10
527.4520827285654
 20
317.1512097742484
 10
527.6727940701102
 20
317.396919818251
 10
527.8103038856476
 20
317.6778471575663
 10
527.8316037214292
 20
317.9470902083831
 10
527.8186006949851
 20
318.1600581143209
 10
527.7256875399236
 20
318.3085020318964
 10
527.6290929771739
 20
318.4591574278575
 10
527.4519712121066
 20
318.5896607275595
 10
527.30684557232
 20
318.6468405722956
 10
527.23304623284
 20
318.6738867935066
 72
     1
 10
527.2330462328401
 20
318.6738867935066
 11
524.9294772142897
 21
318.6738867935066
 72
     1
 10
524.9294772142897
 20
318.6738867935066
 11
523.4791192998717
 21
315.742631386498
 97
        6
330
6F9
330
6F6
330
6F8
330
6F7
330
6FF
330
6FA
 92
       20
 93
        4
 72
     4
 94
        3
 73
     0
 74
     0
 95
       15
 96
       11
 40
0.0
 40
0.0
 40
0.0
 40
0.0
 40
0.2199578613106558
 40
0.3202465475123651
 40
0.4340808827708152
 40
0.5116301246390283
 40
0.634275054953107
 40
0.7077360179240892
 40
0.8337709579493377
 40
0.875782631437913
 40
0.875782631437913
 40
0.875782631437913
 40
0.875782631437913
 10
526.4196541492002
 20
317.9484626346302
 10
526.5022660564276
 20
317.9488410412623
 10
526.6225444493677
 20
317.9493919805048
 10
526.6883169584599
 20
317.8006072606055
 10
526.6588345838409
 20
317.7048131111234
 10
526.6217728360921
 20
317.6064623764838
 10
526.5562763338888
 20
317.5396315689561
 10
526.4683704344669
 20
317.475262235189
 10
526.3852951586733
 20
317.4674700391041
 10
526.3312640172838
 20
317.4531536198838
 10
526.3177562254704
 20
317.4495745133654
 72
     1
 10
526.3177562254704
 20
317.4495745133654
 11
525.6139615842646
 21
317.4495745133655
 72
     1
 10
525.6139615842646
 20
317.4495745133655
 11
525.8396727219182
 21
317.9484626346304
 72
     1
 10
525.8396727219182
 20
317.9484626346304
 11
526.4196541492002
 21
317.9484626346303
 97
        4
330
6FB
330
6FD
330
6FC
330
6FE
 75
     0
 76
     1
 47
0.0514683685270805
 98
        2
 10
524.9417894332997
 20
317.7621885693794
 10
524.9417894332997
 20
317.7621885693794
450
        0
451
        0
460
0.0
461
0.0
452
        0
462
0.0
453
        0
470

  0
LINE
  5
735
102
{ACAD_REACTORS
330
738
102
}
330
18
100
AcDbEntity
  8
ROGO
 62
     4
100
AcDbLine
 10
533.3667675037808
 20
318.6738867935066
 30
0.0
 11
534.2001260900429
 21
316.7979654641387
 31
0.0
  0
LINE
  5
736
102
{ACAD_REACTORS
330
738
102
}
330
18
100
AcDbEntity
  8
ROGO
 62
     4
100
AcDbLine
 10
532.5435166092956
 20
318.1724453978612
 30
0.0
 11
532.8280985889033
 21
317.5318407238342
 31
0.0
  0
LINE
  5
737
102
{ACAD_REACTORS
330
738
102
}
330
18
100
AcDbEntity
  8
ROGO
 62
     4
100
AcDbLine
 10
532.9954487397612
 20
317.1551292785541
 30
0.0
 11
533.1541150584312
 21
316.7979654641387
 31
0.0
  0
HATCH
  5
738
330
18
100
AcDbEntity
  8
ROGO
 62
     4
100
AcDbHatch
 10
0.0
 20
0.0
 30
0.0
210
0.0
220
0.0
230
1.0
  2
SOLID
 70
     1
 71
     1
 91
        2
 92
        7
 72
     0
 73
     1
 93
        8
 10
533.3667675037808
 20
318.6738867935066
 10
531.8661910998217
 20
318.6738867935066
 10
530.5134277711086
 20
316.7979654641387
 10
531.5523524163823
 20
316.7979654641387
 10
531.809910184355
 20
317.1551292785541
 10
532.9954487397612
 20
317.1551292785541
 10
533.1541150584312
 20
316.7979654641387
 10
534.2001260900429
 20
316.7979654641388
 97
        8
330
711
330
70B
330
710
330
70F
330
70D
330
737
330
712
330
735
 92
       22
 72
     0
 73
     1
 93
        3
 10
532.5435166092956
 20
318.1724453978611
 10
532.8280985889033
 20
317.5318407238342
 10
532.0815641288482
 20
317.5318407238342
 97
        3
330
70E
330
70C
330
736
 75
     0
 76
     1
 47
0.0128389261915577
 98
        2
 10
533.2492605145013
 20
318.2238269123508
 10
533.2492605145013
 20
318.2238269123508
450
        0
451
        0
460
0.0
461
0.0
452
        0
462
0.0
453
        0
470

  0
SPLINE
  5
739
102
{ACAD_REACTORS
330
740
102
}
330
18
100
AcDbEntity
  8
ROGO
 62
     4
100
AcDbSpline
210
0.0
220
0.0
230
1.0
 70
     8
 71
     3
 72
    38
 73
    34
 74
    32
 42
0.0000000001
 43
0.0000000001
 44
0.0000000001
 40
0.0
 40
0.0
 40
0.0
 40
0.0
 40
0.2582400211805774
 40
0.3393418442955424
 40
0.443552172800835
 40
0.530394283206717
 40
0.6036667919818254
 40
0.7009894053152177
 40
0.7507174249931042
 40
0.8067242281503032
 40
0.8892677166883521
 40
0.9827715778106668
 40
1.043426616793024
 40
1.109318337455068
 40
1.182564491755753
 40
1.293719242428883
 40
1.399327847180614
 40
1.448424760475743
 40
1.50441322219426
 40
1.570741059842362
 40
1.617957956886697
 40
1.657539314700464
 40
1.714052551848318
 40
1.776150918813051
 40
1.838248940024221
 40
1.892584795022379
 40
2.017023561310864
 40
2.066120474605993
 40
2.164314359515976
 40
2.251113385583432
 40
2.417283613623161
 40
2.622320469312984
 40
2.918423525691272
 40
2.918423525691272
 40
2.918423525691272
 40
2.918423525691272
 10
538.3067692658462
 20
318.6817113923241
 30
0.0
 10
538.220690126381
 20
318.6756305078943
 30
0.0
 10
538.1075773183509
 20
318.6676398853413
 30
0.0
 10
537.9639505004799
 20
318.6282904193341
 30
0.0
 10
537.8856579941358
 20
318.5814125343944
 30
0.0
 10
537.8041789922539
 20
318.546955041965
 30
0.0
 10
537.7347105545612
 20
318.4959303287519
 30
0.0
 10
537.6644446964242
 20
318.4696377856182
 30
0.0
 10
537.6152423916017
 20
318.4222276308004
 30
0.0
 10
537.5582947371259
 20
318.393267461979
 30
0.0
 10
537.5129463087898
 20
318.3284461848156
 30
0.0
 10
537.4622596280302
 20
318.2678406395892
 30
0.0
 10
537.4034567017343
 20
318.2236012944785
 30
0.0
 10
537.3551963509351
 20
318.177137038818
 30
0.0
 10
537.3109241896146
 20
318.1054287314125
 30
0.0
 10
537.2847219430844
 20
318.0101496247187
 30
0.0
 10
537.2108622082139
 20
317.9499938328827
 30
0.0
 10
537.1997412446667
 20
317.8776686219169
 30
0.0
 10
537.1588871729586
 20
317.8349979645015
 30
0.0
 10
537.1411223937359
 20
317.7799162759516
 30
0.0
 10
537.1343567107016
 20
317.7294517197791
 30
0.0
 10
537.126236277784
 20
317.6823213177387
 30
0.0
 10
537.1049947631662
 20
317.6327422166846
 30
0.0
 10
537.1119280668252
 20
317.5714989610633
 30
0.0
 10
537.1099529767652
 20
317.5121950838825
 30
0.0
 10
537.111115319584
 20
317.432133003009
 30
0.0
 10
537.1069202633752
 20
317.3541827216955
 30
0.0
 10
537.1403741926826
 20
317.2693543271691
 30
0.0
 10
537.1601711178294
 20
317.193741549074
 30
0.0
 10
537.214388217749
 20
317.0890464887149
 30
0.0
 10
537.3079115789173
 20
316.9682510262735
 30
0.0
 10
537.4857540732282
 20
316.8216282215696
 30
0.0
 10
537.65675483117
 20
316.8067540205448
 30
0.0
 10
537.7577921779275
 20
316.7979654641387
 30
0.0
 11
538.3067692658462
 21
318.6817113923241
 31
0.0
 11
538.0504026416359
 21
318.650662035965
 31
0.0
 11
537.9727158043099
 21
318.627375537326
 31
0.0
 11
537.8794919657271
 21
318.5808018485408
 31
0.0
 11
537.8018051284011
 21
318.5419906717222
 31
0.0
 11
537.7396559026792
 21
318.5031791491501
 31
0.0
 11
537.6542005647248
 21
318.4566058061184
 31
0.0
 11
537.6153568408882
 21
318.4255567955128
 31
0.0
 11
537.5687446164232
 21
318.3945074391537
 31
0.0
 11
537.5143638913298
 21
318.3324094179425
 31
0.0
 11
537.4522146656079
 21
318.2625492305183
 31
0.0
 11
537.4056024411428
 21
318.2237377079462
 31
0.0
 11
537.358990827025
 21
318.1771643649145
 31
0.0
 11
537.3201471031884
 21
318.1150663437033
 31
0.0
 11
537.2735354890708
 21
318.01415679992
 31
0.0
 11
537.2113856530015
 21
317.9287719343163
 31
0.0
 11
537.1958486517447
 21
317.8821982455311
 31
0.0
 11
537.1647740388838
 21
317.8356249024994
 31
0.0
 11
537.1414679266513
 21
317.7735265355348
 31
0.0
 11
537.1336988156756
 21
317.7269531925031
 31
0.0
 11
537.1259303150472
 21
317.688141669931
 31
0.0
 11
537.1103933137903
 21
317.6338061606863
 31
0.0
 11
537.1103933137903
 21
317.5717077937216
 31
0.0
 11
537.1103933137903
 21
317.5096097725104
 31
0.0
 11
537.1103933137903
 21
317.4552739175123
 31
0.0
 11
537.1181618144188
 21
317.3310778750899
 31
0.0
 11
537.1336988156756
 21
317.2845041863047
 31
0.0
 11
537.1647740388838
 21
317.1913571544879
 31
0.0
 11
537.2036171523732
 21
317.1137344550972
 31
0.0
 11
537.3046101019316
 21
316.9817762464618
 31
0.0
 11
537.467752277212
 21
316.8575798582859
 31
0.0
 11
537.7577921779275
 21
316.7979654641387
 31
0.0
  0
SPLINE
  5
73A
102
{ACAD_REACTORS
330
740
102
}
330
18
100
AcDbEntity
  8
ROGO
 62
     4
100
AcDbSpline
210
0.0
220
0.0
230
1.0
 70
     8
 71
     3
 72
    25
 73
    21
 74
     0
 42
0.0000000001
 43
0.0000000001
 40
0.0
 40
0.0
 40
0.0
 40
0.0
 40
0.4087168505087288
 40
0.6887487002771746
 40
0.9415836120477687
 40
1.17452070575514
 40
1.41154617586699
 40
1.599156012919487
 40
1.80099909059943
 40
2.178735911501585
 40
2.521686161369157
 40
2.762704659361267
 40
3.06256558063785
 40
3.222432137207705
 40
3.399493810628493
 40
3.567459719866414
 40
3.743172740007509
 40
3.995988754699505
 40
4.17170091132118
 40
4.337226830236035
 40
4.337226830236035
 40
4.337226830236035
 40
4.337226830236035
 10
539.378846156111
 20
318.6817113923241
 30
0.0
 10
539.4491605138617
 20
318.6794522645297
 30
0.0
 10
539.5676506677455
 20
318.6756452980925
 30
0.0
 10
539.6948644657755
 20
318.576212884699
 30
0.0
 10
539.792204781146
 20
318.4937757956775
 30
0.0
 10
539.8612981452327
 20
318.3941132152002
 30
0.0
 10
539.9218604147218
 20
318.3024787813756
 30
0.0
 10
539.9617663586779
 20
318.2057339032813
 30
0.0
 10
540.0160463267846
 20
318.0896489096571
 30
0.0
 10
540.038515551995
 20
317.9343444347556
 30
0.0
 10
540.0233349186569
 20
317.7738229304049
 30
0.0
 10
539.9837205536605
 20
317.6315353822571
 30
0.0
 10
539.9421682698034
 20
317.5223757177655
 30
0.0
 10
539.8931939570643
 20
317.4273454577789
 30
0.0
 10
539.8348103180584
 20
317.365813357066
 30
0.0
 10
539.7943060958598
 20
317.2875758908552
 30
0.0
 10
539.7165026662637
 20
317.2235818438931
 30
0.0
 10
539.6534310093971
 20
317.144622171816
 30
0.0
 10
539.5818578141976
 20
317.076850245618
 30
0.0
 10
539.5415045294778
 20
317.0350357838727
 30
0.0
 10
539.5202293046295
 20
317.0174547210931
 30
0.0
  0
LINE
  5
73B
102
{ACAD_REACTORS
330
740
102
}
330
18
100
AcDbEntity
  8
ROGO
 62
     4
100
AcDbLine
 10
538.3067692658462
 20
318.6817113923241
 30
0.0
 11
539.378846156111
 21
318.6817113923241
 31
0.0
  0
LINE
  5
73C
102
{ACAD_REACTORS
330
740
102
}
330
18
100
AcDbEntity
  8
ROGO
 62
     4
100
AcDbLine
 10
537.7577921779275
 20
316.7979654641387
 30
0.0
 11
538.8298690681922
 21
316.7979654641387
 31
0.0
  0
SPLINE
  5
73D
102
{ACAD_REACTORS
330
740
102
}
330
18
100
AcDbEntity
  8
ROGO
 62
     4
100
AcDbSpline
210
0.0
220
0.0
230
1.0
 70
     8
 71
     3
 72
    11
 73
     7
 74
     0
 42
0.0000000001
 43
0.0000000001
 40
0.1647869275458134
 40
0.1647869275458134
 40
0.1647869275458134
 40
0.1647869275458134
 40
0.2895635144633836
 40
0.5387013147903714
 40
0.7953622617455423
 40
0.8850764140209602
 40
0.8850764140209602
 40
0.8850764140209602
 40
0.8850764140209602
 10
539.187036866218
 20
316.8397889597224
 30
0.0
 10
539.1670675193596
 20
316.8342304844132
 30
0.0
 10
539.1051517887395
 20
316.824333927579
 30
0.0
 10
539.0012964071135
 20
316.8107447927599
 30
0.0
 10
538.9025870612615
 20
316.7965640347819
 30
0.0
 10
538.8448289257921
 20
316.7976771560773
 30
0.0
 10
538.8298690681923
 20
316.7979654641387
 30
0.0
  0
SPLINE
  5
73E
102
{ACAD_REACTORS
330
740
102
}
330
18
100
AcDbEntity
  8
ROGO
 62
     4
100
AcDbSpline
210
0.0
220
0.0
230
1.0
 70
     8
 71
     3
 72
     9
 73
     5
 74
     3
 42
0.0000000001
 43
0.0000000001
 44
0.0000000001
 40
0.0
 40
0.0
 40
0.0
 40
0.0
 40
0.1622561919360204
 40
0.3804197703110171
 40
0.3804197703110171
 40
0.3804197703110171
 40
0.3804197703110171
 10
539.187036866218
 20
316.8397889597224
 30
0.0
 10
539.2391582495293
 20
316.855735159327
 30
0.0
 10
539.3613600862113
 20
316.8931220196897
 30
0.0
 10
539.4623267965497
 20
316.9721396165104
 30
0.0
 10
539.5202293046295
 20
317.0174547210931
 30
0.0
 11
539.187036866218
 21
316.8397889597224
 31
0.0
 11
539.3395379579675
 21
316.8952009515363
 31
0.0
 11
539.5202293046295
 21
317.0174547210931
 31
0.0
  0
ELLIPSE
  5
73F
102
{ACAD_REACTORS
330
740
102
}
330
18
100
AcDbEntity
  8
ROGO
 62
     4
100
AcDbEllipse
 10
538.553138401033
 20
317.7135742605827
 30
0.0
 11
0.2546924415247531
 21
0.2239701316915159
 31
0.0
210
0.0
220
0.0
230
1.0
 40
0.6788083417438792
 41
0.0
 42
6.283185307179586
  0
HATCH
  5
740
330
18
100
AcDbEntity
  8
ROGO
 62
     4
100
AcDbHatch
 10
0.0
 20
0.0
 30
0.0
210
0.0
220
0.0
230
1.0
  2
SOLID
 70
     1
 71
     1
 91
        2
 92
        5
 93
        6
 72
     4
 94
        3
 73
     0
 74
     0
 95
       25
 96
       21
 40
0.0
 40
0.0
 40
0.0
 40
0.0
 40
0.165525918914855
 40
0.3412380755365305
 40
0.5940540902285263
 40
0.7697671103696209
 40
0.9377330196075423
 40
1.11479469302833
 40
1.274661249598185
 40
1.574522170874768
 40
1.815540668866877
 40
2.15849091873445
 40
2.536227739636605
 40
2.738070817316548
 40
2.925680654369045
 40
3.162706124480894
 40
3.395643218188267
 40
3.648478129958861
 40
3.928509979727306
 40
4.337226830236035
 40
4.337226830236035
 40
4.337226830236035
 40
4.337226830236035
 10
539.5202293046295
 20
317.0174547210931
 10
539.5415045294778
 20
317.0350357838727
 10
539.5818578141976
 20
317.076850245618
 10
539.6534310093971
 20
317.144622171816
 10
539.7165026662637
 20
317.2235818438931
 10
539.7943060958598
 20
317.2875758908552
 10
539.8348103180584
 20
317.365813357066
 10
539.8931939570643
 20
317.4273454577789
 10
539.9421682698034
 20
317.5223757177655
 10
539.9837205536605
 20
317.6315353822571
 10
540.0233349186569
 20
317.7738229304049
 10
540.038515551995
 20
317.9343444347556
 10
540.0160463267846
 20
318.0896489096571
 10
539.9617663586779
 20
318.2057339032813
 10
539.9218604147218
 20
318.3024787813756
 10
539.8612981452327
 20
318.3941132152002
 10
539.792204781146
 20
318.4937757956775
 10
539.6948644657755
 20
318.576212884699
 10
539.5676506677455
 20
318.6756452980925
 10
539.4491605138617
 20
318.6794522645297
 10
539.378846156111
 20
318.6817113923241
 72
     1
 10
539.378846156111
 20
318.6817113923241
 11
538.3067692658462
 21
318.6817113923241
 72
     4
 94
        3
 73
     0
 74
     0
 95
       38
 96
       34
 40
0.0
 40
0.0
 40
0.0
 40
0.0
 40
0.2582400211805774
 40
0.3393418442955424
 40
0.443552172800835
 40
0.530394283206717
 40
0.6036667919818254
 40
0.7009894053152177
 40
0.7507174249931042
 40
0.8067242281503032
 40
0.8892677166883521
 40
0.9827715778106668
 40
1.043426616793024
 40
1.109318337455068
 40
1.182564491755753
 40
1.293719242428883
 40
1.399327847180614
 40
1.448424760475743
 40
1.50441322219426
 40
1.570741059842362
 40
1.617957956886697
 40
1.657539314700464
 40
1.714052551848318
 40
1.776150918813051
 40
1.838248940024221
 40
1.892584795022379
 40
2.017023561310864
 40
2.066120474605993
 40
2.164314359515976
 40
2.251113385583432
 40
2.417283613623161
 40
2.622320469312984
 40
2.918423525691272
 40
2.918423525691272
 40
2.918423525691272
 40
2.918423525691272
 10
538.3067692658462
 20
318.6817113923241
 10
538.220690126381
 20
318.6756305078943
 10
538.1075773183509
 20
318.6676398853413
 10
537.9639505004799
 20
318.6282904193341
 10
537.8856579941358
 20
318.5814125343944
 10
537.8041789922539
 20
318.546955041965
 10
537.7347105545612
 20
318.4959303287519
 10
537.6644446964242
 20
318.4696377856182
 10
537.6152423916017
 20
318.4222276308004
 10
537.5582947371259
 20
318.393267461979
 10
537.5129463087898
 20
318.3284461848156
 10
537.4622596280302
 20
318.2678406395892
 10
537.4034567017343
 20
318.2236012944785
 10
537.3551963509351
 20
318.177137038818
 10
537.3109241896146
 20
318.1054287314125
 10
537.2847219430844
 20
318.0101496247187
 10
537.2108622082139
 20
317.9499938328827
 10
537.1997412446667
 20
317.8776686219169
 10
537.1588871729586
 20
317.8349979645015
 10
537.1411223937359
 20
317.7799162759516
 10
537.1343567107016
 20
317.7294517197791
 10
537.126236277784
 20
317.6823213177387
 10
537.1049947631662
 20
317.6327422166846
 10
537.1119280668252
 20
317.5714989610633
 10
537.1099529767652
 20
317.5121950838825
 10
537.111115319584
 20
317.432133003009
 10
537.1069202633752
 20
317.3541827216955
 10
537.1403741926826
 20
317.2693543271691
 10
537.1601711178294
 20
317.193741549074
 10
537.214388217749
 20
317.0890464887149
 10
537.3079115789173
 20
316.9682510262735
 10
537.4857540732282
 20
316.8216282215696
 10
537.65675483117
 20
316.8067540205448
 10
537.7577921779275
 20
316.7979654641387
 72
     1
 10
537.7577921779275
 20
316.7979654641387
 11
538.8298690681923
 21
316.7979654641387
 72
     4
 94
        3
 73
     0
 74
     0
 95
       11
 96
        7
 40
0.1647869275458135
 40
0.1647869275458135
 40
0.1647869275458135
 40
0.1647869275458135
 40
0.2545010798212315
 40
0.5111620267764023
 40
0.7602998271033902
 40
0.8850764140209603
 40
0.8850764140209603
 40
0.8850764140209603
 40
0.8850764140209603
 10
538.8298690681923
 20
316.7979654641387
 10
538.8448289257921
 20
316.7976771560773
 10
538.9025870612615
 20
316.7965640347819
 10
539.0012964071135
 20
316.8107447927599
 10
539.1051517887395
 20
316.824333927579
 10
539.1670675193596
 20
316.8342304844132
 10
539.187036866218
 20
316.8397889597224
 72
     4
 94
        3
 73
     0
 74
     0
 95
        9
 96
        5
 40
0.0
 40
0.0
 40
0.0
 40
0.0
 40
0.1622561919360204
 40
0.3804197703110171
 40
0.3804197703110171
 40
0.3804197703110171
 40
0.3804197703110171
 10
539.187036866218
 20
316.8397889597224
 10
539.2391582495293
 20
316.855735159327
 10
539.3613600862113
 20
316.8931220196897
 10
539.4623267965497
 20
316.9721396165104
 10
539.5202293046295
 20
317.0174547210931
 97
        6
330
73A
330
73B
330
739
330
73C
330
73D
330
73E
 92
       20
 93
        1
 72
     3
 10
538.553138401033
 20
317.7135742605827
 11
0.2546924415247531
 21
0.2239701316915159
 40
0.6788083417438792
 50
0.0
 51
360.0
 73
     1
 97
        1
330
73F
 75
     0
 76
     1
 47
0.088756267210375
 98
        2
 10
538.6280402235597
 20
318.1614132181885
 10
538.6280402235597
 20
318.1614132181885
450
        0
451
        0
460
0.0
461
0.0
452
        0
462
0.0
453
        0
470

  0
CIRCLE
  5
741
330
18
100
AcDbEntity
  8
外形線
100
AcDbCircle
 10
449.0016805748464
 20
317.9617971651206
 30
0.0
 40
10.0
  0
CIRCLE
  5
742
330
18
100
AcDbEntity
  8
外形線
100
AcDbCircle
 10
449.0016805748464
 20
317.9617971651206
 30
0.0
 40
9.0
  0
ARC
  5
778
330
18
100
AcDbEntity
  8
寸法線
100
AcDbCircle
 10
449.0016805748464
 20
317.9617971651206
 30
0.0
 40
125.0
100
AcDbArc
 50
149.4130754437926
 51
203.317214667845
  0
LINE
  5
7B2
330
18
100
AcDbEntity
  8
外形線
 48
0.5
100
AcDbLine
 10
471.0016805748464
 20
339.9617971651207
 30
0.0
 11
477.0016805748465
 21
339.9617971651206
 31
0.0
  0
LINE
  5
7B3
330
18
100
AcDbEntity
  8
外形線
 48
0.5
100
AcDbLine
 10
472.2516805748464
 20
328.9617971651206
 30
0.0
 11
475.7516805748466
 21
328.9617971651206
 31
0.0
  0
LINE
  5
7B4
330
18
100
AcDbEntity
  8
外形線
 48
0.5
100
AcDbLine
 10
478.0016805748465
 20
340.9617971651206
 30
0.0
 11
478.0016805748465
 21
343.3665868766405
 31
0.0
  0
LINE
  5
7B5
330
18
100
AcDbEntity
  8
外形線
 48
0.5
100
AcDbLine
 10
470.0016805748464
 20
340.9617971651207
 30
0.0
 11
470.0016805748465
 21
343.3665868766405
 31
0.0
  0
LINE
  5
7B6
330
18
100
AcDbEntity
  8
外形線
 48
0.5
100
AcDbLine
 10
470.0016805748464
 20
340.9617971651206
 30
0.0
 11
478.0016805748465
 21
340.9617971651206
 31
0.0
  0
LINE
  5
7B7
330
18
100
AcDbEntity
  8
外形線
 48
0.5
100
AcDbLine
 10
470.0016805748464
 20
340.9617971651207
 30
0.0
 11
471.0016805748464
 21
339.9617971651207
 31
0.0
  0
LINE
  5
7B8
330
18
100
AcDbEntity
  8
外形線
 48
0.5
100
AcDbLine
 10
477.0016805748465
 20
339.9617971651206
 30
0.0
 11
478.0016805748465
 21
340.9617971651206
 31
0.0
  0
LINE
  5
7B9
330
18
100
AcDbEntity
  8
外形線
 48
0.5
100
AcDbLine
 10
475.7516805748465
 20
327.8979034506859
 30
0.0
 11
475.7516805748465
 21
339.9617971651207
 31
0.0
  0
LINE
  5
7BA
330
18
100
AcDbEntity
  8
外形線
 48
0.5
100
AcDbLine
 10
472.2516805748464
 20
327.8979034506863
 30
0.0
 11
472.2516805748464
 21
339.9617971651207
 31
0.0
  0
ARC
  5
7BB
330
18
100
AcDbEntity
  8
外形線
100
AcDbCircle
 10
474.0016805748465
 20
325.5617971651206
 30
0.0
 40
0.6
100
AcDbArc
 50
201.3119739705772
 51
338.6880260293593
  0
LINE
  5
7BC
330
18
100
AcDbEntity
  8
外形線
100
AcDbLine
 10
474.5606497507094
 20
325.3437296057839
 30
0.0
 11
475.7516805748465
 21
327.8979034506859
 31
0.0
  0
LINE
  5
7BD
330
18
100
AcDbEntity
  8
外形線
100
AcDbLine
 10
473.4427113989836
 20
325.3437296057839
 30
0.0
 11
472.2516805748464
 21
327.8979034506863
 31
0.0
  0
LINE
  5
7BE
330
18
100
AcDbEntity
  8
外形線
100
AcDbLine
 10
472.2516805748464
 20
327.8979034506863
 30
0.0
 11
475.7516805748465
 21
327.8979034506859
 31
0.0
  0
LINE
  5
7BF
330
18
100
AcDbEntity
  8
外形線
 48
0.5
100
AcDbLine
 10
480.501680574846
 20
309.9617971651206
 30
0.0
 11
480.501680574846
 21
324.9617971651206
 31
0.0
  0
LINE
  5
7C0
330
18
100
AcDbEntity
  8
外形線
 48
0.5
100
AcDbLine
 10
470.5016805748459
 20
309.9617971651206
 30
0.0
 11
470.5016805748459
 21
324.9617971651206
 31
0.0
  0
LINE
  5
7C2
330
18
100
AcDbEntity
  8
外形線
100
AcDbLine
 10
470.5016805748459
 20
309.9617971651206
 30
0.0
 11
480.501680574846
 21
309.9617971651206
 31
0.0
  0
LINE
  5
7C3
330
18
100
AcDbEntity
  8
中心線
100
AcDbLine
 10
473.1225924306958
 20
312.9617971651206
 30
0.0
 11
478.0048833960192
 21
312.9617971651206
 31
0.0
  0
LINE
  5
7C4
330
18
100
AcDbEntity
  8
中心線
100
AcDbLine
 10
473.1225924306958
 20
318.9617971651206
 30
0.0
 11
478.0048833960192
 21
318.9617971651206
 31
0.0
  0
LINE
  5
7C5
330
18
100
AcDbEntity
  8
中心線
 48
0.5
100
AcDbLine
 10
475.501680574846
 20
310.2380767918814
 30
0.0
 11
475.501680574846
 21
321.5946919777183
 31
0.0
  0
CIRCLE
  5
7C6
330
18
100
AcDbEntity
  8
外形線
100
AcDbCircle
 10
475.501680574846
 20
318.9617971651206
 30
0.0
 40
1.8
  0
CIRCLE
  5
7C7
330
18
100
AcDbEntity
  8
外形線
100
AcDbCircle
 10
475.501680574846
 20
312.9617971651206
 30
0.0
 40
1.8
  0
LINE
  5
7C8
330
18
100
AcDbEntity
  8
想像線
 48
0.5
100
AcDbLine
 10
483.5016805748464
 20
344.5617971651206
 30
0.0
 11
457.5016805748464
 21
344.5617971651206
 31
0.0
  0
LINE
  5
7C9
330
18
100
AcDbEntity
  8
想像線
100
AcDbLine
 10
461.2404549192156
 20
336.2230228207516
 30
0.0
 11
459.7628503974142
 21
337.7006273425528
 31
0.0
  0
LINE
  5
7CA
330
18
100
AcDbEntity
  8
想像線
100
AcDbLine
 10
461.2508672655646
 20
337.7109838558388
 30
0.0
 11
459.72536793903
 21
336.1854845293042
 31
0.0
  0
CIRCLE
  5
7CB
330
18
100
AcDbEntity
  8
想像線
100
AcDbCircle
 10
460.5016805748464
 20
336.9617971651205
 30
0.0
 40
1.5
  0
LINE
  5
7CC
330
18
100
AcDbEntity
  8
想像線
 48
0.5
100
AcDbLine
 10
457.5016805748464
 20
344.5617971651206
 30
0.0
 11
457.5016805748462
 21
334.5617971651206
 31
0.0
  0
LINE
  5
7CD
330
18
100
AcDbEntity
  8
中心線
100
AcDbLine
 10
460.5016805748464
 20
334.5041012797526
 30
0.0
 11
460.5016805748464
 21
343.831021361637
 31
0.0
  0
LINE
  5
7CE
330
18
100
AcDbEntity
  8
想像線
 48
0.5
100
AcDbLine
 10
463.5016805748464
 20
334.5617971651206
 30
0.0
 11
457.5016805748462
 21
334.5617971651206
 31
0.0
  0
LINE
  5
7CF
330
18
100
AcDbEntity
  8
想像線
100
AcDbLine
 10
461.2404549192156
 20
341.2230228207517
 30
0.0
 11
459.7628503974142
 21
342.7006273425529
 31
0.0
  0
LINE
  5
7D0
330
18
100
AcDbEntity
  8
想像線
100
AcDbLine
 10
461.2508672655645
 20
342.7109838558388
 30
0.0
 11
459.72536793903
 21
341.1854845293042
 31
0.0
  0
CIRCLE
  5
7D1
330
18
100
AcDbEntity
  8
想像線
100
AcDbCircle
 10
460.5016805748464
 20
341.9617971651206
 30
0.0
 40
1.5
  0
LINE
  5
7D2
330
18
100
AcDbEntity
  8
中心線
100
AcDbLine
 10
462.5988533859144
 20
341.9617971651205
 30
0.0
 11
458.2732503711638
 21
341.9617971651205
 31
0.0
  0
LINE
  5
7D3
330
18
100
AcDbEntity
  8
中心線
100
AcDbLine
 10
462.8002829390363
 20
336.9617971651205
 30
0.0
 11
458.0193530304609
 21
336.9617971651205
 31
0.0
  0
LINE
  5
7D4
330
18
100
AcDbEntity
  8
想像線
 48
0.5
100
AcDbLine
 10
463.5016805748464
 20
344.5617971651206
 30
0.0
 11
463.5016805748461
 21
307.5617971651206
 31
0.0
  0
LINE
  5
7D6
330
18
100
AcDbEntity
  8
想像線
 48
0.5
100
AcDbLine
 10
483.5016805748464
 20
344.5617971651206
 30
0.0
 11
483.5016805748464
 21
307.5617971651205
 31
0.0
  0
LINE
  5
7D7
330
18
100
AcDbEntity
  8
想像線
100
AcDbLine
 10
476.2404549192153
 20
318.2230228207517
 30
0.0
 11
474.7628503974139
 21
319.700627342553
 31
0.0
  0
LINE
  5
7D8
330
18
100
AcDbEntity
  8
想像線
100
AcDbLine
 10
476.2508672655641
 20
319.7109838558388
 30
0.0
 11
474.7253679390298
 21
318.1854845293042
 31
0.0
  0
LINE
  5
7D9
330
18
100
AcDbEntity
  8
想像線
100
AcDbLine
 10
476.240454919215
 20
312.2230228207516
 30
0.0
 11
474.7628503974136
 21
313.7006273425529
 31
0.0
  0
LINE
  5
7DA
330
18
100
AcDbEntity
  8
想像線
100
AcDbLine
 10
476.250867265564
 20
313.7109838558388
 30
0.0
 11
474.7253679390295
 21
312.1854845293043
 31
0.0
  0
POINT
  5
7DB
330
18
100
AcDbEntity
  8
DEFPOINTS
  6
ByBlock
 62
     0
100
AcDbPoint
 10
472.1817198054575
 20
328.1232611131937
 30
0.0
  0
ARC
  5
7EB
330
18
100
AcDbEntity
  8
寸法線
100
AcDbCircle
 10
449.0016805748464
 20
317.9617971651206
 30
0.0
 40
25.0
100
AcDbArc
 50
298.630898626464
 51
35.17495476868967
  0
ARC
  5
812
330
18
100
AcDbEntity
  8
隠れ線
 62
     1
 48
0.3
100
AcDbCircle
 10
464.0023561505436
 20
318.1758900466286
 30
0.0
 40
1.28
100
AcDbArc
 50
359.4733106504088
 51
180.5266893495912
  0
ARC
  5
819
330
18
100
AcDbEntity
  8
隠れ線
 62
     1
 48
0.3
100
AcDbCircle
 10
449.0016805748464
 20
317.9617971651206
 30
0.0
 40
13.7220831886775
100
AcDbArc
 50
336.4921365795229
 51
0.9853254136430612
  0
ARC
  5
81A
330
18
100
AcDbEntity
  8
隠れ線
 62
     1
 48
0.3
100
AcDbCircle
 10
449.0016805748464
 20
317.9617971651206
 30
0.0
 40
16.2820831886775
100
AcDbArc
 50
336.4320797180528
 51
0.8303927716066802
  0
ARC
  5
821
330
18
100
AcDbEntity
  8
寸法線
100
AcDbCircle
 10
449.0016805748464
 20
317.9617971651206
 30
0.0
 40
15.00208318867749
100
AcDbArc
 50
316.4116532364259
 51
15.08330876954413
  0
LINE
  5
841
330
18
100
AcDbEntity
  8
想像線
 48
0.5
100
AcDbLine
 10
483.5016805748464
 20
307.5617971651205
 30
0.0
 11
463.5016805748461
 21
307.5617971651206
 31
0.0
  0
CIRCLE
  5
850
330
18
100
AcDbEntity
  8
外形線
100
AcDbCircle
 10
428.0016805748464
 20
367.9617971651206
 30
0.0
 40
1.25
  0
CIRCLE
  5
852
330
18
100
AcDbEntity
  8
外形線
100
AcDbCircle
 10
417.0016805748464
 20
272.9617971651206
 30
0.0
 40
1.25
  0
LINE
  5
854
330
18
100
AcDbEntity
  8
外形線
100
AcDbLine
 10
429.528322754192
 20
363.7583029452789
 30
0.0
 11
419.4484906431124
 21
276.7052074405021
 31
0.0
  0
LINE
  5
855
330
18
100
AcDbEntity
  8
外形線
100
AcDbLine
 10
425.5548705065804
 20
364.2183868897392
 30
0.0
 11
415.4750383955009
 21
277.1652913849625
 31
0.0
  0
LINE
  5
856
330
18
100
AcDbEntity
  8
中心線
 48
0.5
100
AcDbLine
 10
426.2856857591735
 20
368.1604913016722
 30
0.0
 11
429.5677514721979
 21
367.7804626401642
 31
0.0
  0
LINE
  5
857
330
18
100
AcDbEntity
  8
外形線
100
AcDbLine
 10
425.5548705065804
 20
364.2183868897392
 30
0.0
 11
429.528322754192
 21
363.7583029452789
 31
0.0
  0
LINE
  5
858
330
18
100
AcDbEntity
  8
中心線
 48
0.5
100
AcDbLine
 10
415.1972797916385
 20
273.1707277821237
 30
0.0
 11
418.7407180778318
 21
272.7604349279329
 31
0.0
  0
LINE
  5
859
330
18
100
AcDbEntity
  8
外形線
100
AcDbLine
 10
415.4750383955009
 20
277.1652913849625
 30
0.0
 11
419.4484906431124
 21
276.7052074405021
 31
0.0
  0
LINE
  5
864
330
18
100
AcDbEntity
  8
想像線
 48
0.7
100
AcDbLine
 10
429.2303138356212
 20
363.7928092411134
 30
0.0
 11
419.1504817245415
 21
276.7397137363367
 31
0.0
  0
LINE
  5
865
330
18
100
AcDbEntity
  8
想像線
 48
0.7
100
AcDbLine
 10
425.8528794251512
 20
364.1838805939046
 30
0.0
 11
415.7730473140717
 21
277.130785089128
 31
0.0
  0
LINE
  5
876
330
18
100
AcDbEntity
  8
寸法線
 48
0.5
100
AcDbLine
 10
330.9696303141219
 20
393.5113041509834
 30
0.0
 11
320.6631084824207
 21
291.0381595897446
 31
0.0
  0
LINE
  5
879
330
18
100
AcDbEntity
  8
寸法線
  6
PHANTOM2
100
AcDbLine
 10
420.5178400534085
 20
384.5047436260825
 30
0.0
 11
408.0448160479366
 21
260.4910353256579
 31
0.0
  0
LINE
  5
889
330
18
100
AcDbEntity
  8
0
  6
ByBlock
 62
     2
100
AcDbLine
 10
333.3319894662562
 20
392.0173967789127
 30
0.0
 11
417.9052986644714
 21
383.5112007276174
 31
0.0
  0
INSERT
  5
88A
330
18
100
AcDbEntity
  8
0
  6
ByBlock
 62
     2
100
AcDbBlockReference
  2
_OPEN
 10
330.8445391957204
 20
392.2675790157155
 30
0.0
 41
2.5
 42
2.5
 43
2.5
 50
174.2566319066696
  0
INSERT
  5
88B
330
18
100
AcDbEntity
  8
0
  6
ByBlock
 62
     2
100
AcDbBlockReference
  2
_OPEN
 10
420.3927489350071
 20
383.2610184908146
 30
0.0
 41
2.5
 42
2.5
 43
2.5
 50
354.2566319066696
  0
MTEXT
  5
88C
330
18
100
AcDbEntity
  8
0
  6
ByBlock
 62
     6
100
AcDbMText
 10
375.8062807429658
 20
389.6298864561669
 30
0.0
 40
2.5
 41
0.0
 71
     5
 72
     1
  1
\A1;90
  7
STYLE3
 11
0.9949801082142977
 21
-0.1000728947211208
 31
0.0
 73
     1
 44
1.0
  0
POINT
  5
88D
330
18
100
AcDbEntity
  8
DEFPOINTS
  6
ByBlock
 62
     0
100
AcDbPoint
 10
329.5561187972834
 20
379.4573902924363
 30
0.0
  0
POINT
  5
88E
330
18
100
AcDbEntity
  8
DEFPOINTS
  6
ByBlock
 62
     0
100
AcDbPoint
 10
419.10432853657
 20
370.4508297675354
 30
0.0
  0
POINT
  5
88F
330
18
100
AcDbEntity
  8
DEFPOINTS
  6
ByBlock
 62
     0
100
AcDbPoint
 10
420.3927489350071
 20
383.2610184908146
 30
0.0
  0
POINT
  5
8B2
330
18
100
AcDbEntity
  8
DEFPOINTS
  6
ByBlock
 62
     0
100
AcDbPoint
 10
324.6275442006592
 20
330.4547632330762
 30
0.0
  0
POINT
  5
8C9
330
18
100
AcDbEntity
  8
DEFPOINTS
  6
ByBlock
 62
     0
100
AcDbPoint
 10
324.6275442006592
 20
330.4547632330762
 30
0.0
  0
POINT
  5
8CA
330
18
100
AcDbEntity
  8
想像線
 48
0.3
100
AcDbPoint
 10
329.7140694667213
 20
280.6058627487965
 30
0.0
  0
LINE
  5
8DB
330
18
100
AcDbEntity
  8
0
  6
ByBlock
 62
     2
100
AcDbLine
 10
324.6275442006592
 20
330.4547632330762
 30
0.0
 11
297.3641307592363
 21
327.6728354480766
 31
0.0
  0
LINE
  5
8DC
330
18
100
AcDbEntity
  8
0
  6
ByBlock
 62
     2
100
AcDbLine
 10
329.7031325778792
 20
280.7130463082953
 30
0.0
 11
302.4397191364564
 21
277.9311185232957
 31
0.0
  0
LINE
  5
8DD
330
18
100
AcDbEntity
  8
0
  6
ByBlock
 62
     2
100
AcDbLine
 10
298.8614531012168
 20
325.3126393112681
 30
0.0
 11
303.4294826407148
 21
280.5450940789652
 31
0.0
  0
INSERT
  5
8DE
330
18
100
AcDbEntity
  8
0
  6
ByBlock
 62
     2
100
AcDbBlockReference
  2
_OPEN
 10
298.6076736823558
 20
327.7997251575071
 30
0.0
 41
2.5
 42
2.5
 43
2.5
 50
95.82623142342308
  0
INSERT
  5
8DF
330
18
100
AcDbEntity
  8
0
  6
ByBlock
 62
     2
100
AcDbBlockReference
  2
_OPEN
 10
303.6832620595758
 20
278.0580082327262
 30
0.0
 41
2.5
 42
2.5
 43
2.5
 50
275.8262314234231
  0
POINT
  5
8E1
330
18
100
AcDbEntity
  8
DEFPOINTS
  6
ByBlock
 62
     0
100
AcDbPoint
 10
324.6275442006592
 20
330.4547632330762
 30
0.0
  0
POINT
  5
8E2
330
18
100
AcDbEntity
  8
想像線
 48
0.3
100
AcDbPoint
 10
329.7031325778792
 20
280.7130463082953
 30
0.0
  0
POINT
  5
8E3
330
18
100
AcDbEntity
  8
DEFPOINTS
  6
ByBlock
 62
     0
100
AcDbPoint
 10
303.6832620595758
 20
278.0580082327262
 30
0.0
  0
MTEXT
  5
8E5
330
18
100
AcDbEntity
  8
0
  6
ByBlock
 62
     6
100
AcDbMText
 10
298.6691961277956
 20
301.2926650780544
 30
0.0
 40
2.499999999999999
 41
0.0
 71
     5
 72
     1
  1
50
  7
STYLE3
 11
-0.101511767544402
 21
0.9948343384956167
 31
0.0
 73
     1
 44
1.0
  0
LINE
  5
8E6
330
18
100
AcDbEntity
  8
想像線
 48
0.3
100
AcDbLine
 10
328.6871094322697
 20
278.5759312973076
 30
0.0
 11
329.5326806763217
 21
266.1460751863248
 31
0.0
  0
LINE
  5
8E7
330
18
100
AcDbEntity
  8
想像線
 48
0.3
100
AcDbLine
 10
331.7270410003271
 20
279.5411673108036
 30
0.0
 11
335.7778966871863
 21
266.7833299446579
 31
0.0
  0
POINT
  5
8E8
330
18
100
AcDbEntity
  8
想像線
 48
0.3
100
AcDbPoint
 10
329.7031325778786
 20
280.7130463082953
 30
0.0
  0
POINT
  5
8E9
330
18
100
AcDbEntity
  8
想像線
 48
0.3
100
AcDbPoint
 10
329.7031325778786
 20
280.7130463082953
 30
0.0
  0
POINT
  5
8EA
330
18
100
AcDbEntity
  8
想像線
 48
0.3
100
AcDbPoint
 10
329.7031325778787
 20
280.7130463082954
 30
0.0
  0
ARC
  5
8EB
330
18
100
AcDbEntity
  8
想像線
 48
0.3
100
AcDbCircle
 10
330.1678687225543
 20
279.18202693682
 30
0.0
 40
1.6
100
AcDbArc
 50
12.9712869951538
 51
202.2599768346022
  0
LINE
  5
8F8
330
18
100
AcDbEntity
  8
0
  6
ByBlock
 62
     2
100
AcDbLine
 10
449.0016805748464
 20
317.9617971651206
 30
0.0
 11
328.8695588504846
 21
283.4180085772557
 31
0.0
  0
MTEXT
  5
8F9
330
18
100
AcDbEntity
  8
0
  6
ByBlock
 62
     6
100
AcDbMText
 10
374.1688800482743
 20
298.3947287816852
 30
0.0
 40
2.5
 41
0.0
 71
     5
 72
     1
  1
\A1;R125
  7
STYLE3
 11
0.9610569737948949
 21
0.2763503087029188
 31
0.0
 73
     1
 44
1.0
  0
INSERT
  5
8FA
330
18
100
AcDbEntity
  8
0
  6
ByBlock
 62
     2
100
AcDbBlockReference
  2
_OPEN
 10
328.8695588504846
 20
283.4180085772557
 30
0.0
 41
2.5
 42
2.5
 43
2.5
 50
196.0424999144263
  0
POINT
  5
8FB
330
18
100
AcDbEntity
  8
DEFPOINTS
  6
ByBlock
 62
     0
100
AcDbPoint
 10
328.8695588504846
 20
283.4180085772557
 30
0.0
  0
POINT
  5
8FC
330
18
100
AcDbEntity
  8
DEFPOINTS
  6
ByBlock
 62
     0
100
AcDbPoint
 10
449.0016805748464
 20
317.9617971651205
 30
0.0
  0
LINE
  5
906
330
18
100
AcDbEntity
  8
0
  6
ByBlock
 62
     2
100
AcDbLine
 10
449.0016805748464
 20
317.9617971651206
 30
0.0
 11
463.5525410569544
 21
297.632693416302
 31
0.0
  0
MTEXT
  5
907
330
18
100
AcDbEntity
  8
0
  6
ByBlock
 62
     6
100
AcDbMText
 10
459.1870217821973
 20
306.9532483361137
 30
0.0
 40
2.5
 41
0.0
 71
     5
 72
     1
  1
\A1;R25
  7
STYLE3
 11
0.5820344192843237
 21
-0.8131641499527386
 31
0.0
 73
     1
 44
1.0
  0
INSERT
  5
908
330
18
100
AcDbEntity
  8
0
  6
ByBlock
 62
     2
100
AcDbBlockReference
  2
_OPEN
 10
463.5525410569544
 20
297.632693416302
 30
0.0
 41
2.5
 42
2.5
 43
2.5
 50
305.5937604368712
  0
POINT
  5
909
330
18
100
AcDbEntity
  8
DEFPOINTS
  6
ByBlock
 62
     0
100
AcDbPoint
 10
463.5525410569544
 20
297.632693416302
 30
0.0
  0
POINT
  5
90A
330
18
100
AcDbEntity
  8
DEFPOINTS
  6
ByBlock
 62
     0
100
AcDbPoint
 10
449.0016805748464
 20
317.9617971651205
 30
0.0
  0
LINE
  5
90D
330
18
100
AcDbEntity
  8
隠れ線
 62
     1
 48
0.3
100
AcDbLine
 10
324.1329275180596
 20
335.5297367742734
 30
0.0
 11
326.1228877344882
 21
335.3295909848311
 31
0.0
  0
LINE
  5
90E
330
18
100
AcDbEntity
  8
隠れ線
 62
     1
 48
0.3
100
AcDbLine
 10
323.1321985708484
 20
325.5799356921305
 30
0.0
 11
325.122158787277
 21
325.3797899026883
 31
0.0
  0
LINE
  5
90F
330
18
100
AcDbEntity
  8
隠れ線
 62
     1
 48
0.3
100
AcDbLine
 10
326.1228877344882
 20
335.3295909848311
 30
0.0
 11
325.6584389982612
 21
330.7117845836184
 31
0.0
  0
LINE
  5
910
330
18
100
AcDbEntity
  8
隠れ線
 62
     1
 48
0.3
100
AcDbLine
 10
324.1329275180596
 20
335.5297367742734
 30
0.0
 11
323.6701538832091
 21
330.9285851580898
 31
0.0
  0
LINE
  5
911
330
18
100
AcDbEntity
  8
隠れ線
 62
     1
 48
0.3
100
AcDbLine
 10
325.5882194787994
 20
330.0136232556424
 30
0.0
 11
325.122158787277
 21
325.3797899026883
 31
0.0
  0
LINE
  5
912
330
18
100
AcDbEntity
  8
隠れ線
 62
     1
 48
0.3
100
AcDbLine
 10
323.59660825498
 20
330.1973538157967
 30
0.0
 11
323.1321985708484
 21
325.5799356921305
 31
0.0
  0
DIMENSION
  5
920
330
18
100
AcDbEntity
  8
外形線
100
AcDbDimension
  2
*D2
 10
606.4091320872306
 20
302.9617971651206
 30
0.0
 11
604.5341320872305
 21
317.9617971651206
 31
0.0
 70
    32
 71
     5
 42
30.0
  3
STYLE3
100
AcDbAlignedDimension
 13
589.0016805748464
 23
332.9617971651206
 33
0.0
 14
589.0016805748464
 24
302.9617971651206
 34
0.0
 50
90.0
100
AcDbRotatedDimension
1001
ACAD
1000
DSTYLE
1002
{
1070
   271
1070
     2
1002
}
  0
DIMENSION
  5
939
330
18
100
AcDbEntity
  8
外形線
100
AcDbDimension
  2
*D3
 10
594.0016805748464
 20
233.3346191553904
 30
0.0
 11
544.0016805748464
 21
235.2096191553904
 31
0.0
 70
    32
 71
     5
 42
100.0
  3
STYLE3
100
AcDbAlignedDimension
 13
494.0016805748464
 23
304.2617971651206
 33
0.0
 14
594.0016805748464
 24
304.2617971651206
 34
0.0
100
AcDbRotatedDimension
1001
ACAD
1000
DSTYLE
1002
{
1070
    75
1070
     1
1070
   271
1070
     2
1070
   279
1070
     1
1002
}
  0
LINE
  5
93B
330
18
100
AcDbEntity
  8
想像線
 48
0.3
100
AcDbLine
 10
390.3950069031964
 20
375.1666603414085
 30
0.0
 11
390.3950069031962
 21
360.9617971651205
 31
0.0
  0
LINE
  5
93C
330
18
100
AcDbEntity
  8
想像線
 48
0.3
100
AcDbLine
 10
387.3950069031963
 20
374.9393370978594
 30
0.0
 11
387.3950069031963
 21
360.9617971651205
 31
0.0
  0
DIMENSION
  5
94B
330
18
100
AcDbEntity
  8
外形線
100
AcDbDimension
  2
*D4
 10
390.3950069031962
 20
349.8713620051657
 30
0.0
 11
398.4009592841486
 21
352.4011239099277
 31
0.0
 70
    32
  1
(3)
 71
     5
 42
3.0
  3
STYLE3
100
AcDbAlignedDimension
 13
387.3950069031963
 23
360.9617971651205
 33
0.0
 14
390.3950069031962
 24
360.9617971651205
 34
0.0
100
AcDbRotatedDimension
1001
ACAD
1000
DSTYLE
1002
{
1070
   271
1070
     2
1002
}
  0
LINE
  5
959
330
18
100
AcDbEntity
  8
想像線
 48
0.3
100
AcDbLine
 10
385.5076445682377
 20
287.1601784278878
 30
0.0
 11
385.5076445682377
 21
271.8905687123063
 31
0.0
  0
LINE
  5
95A
330
18
100
AcDbEntity
  8
想像線
 48
0.3
100
AcDbLine
 10
388.5076445682376
 20
286.5207688304217
 30
0.0
 11
388.5076445682376
 21
271.0015469216685
 31
0.0
  0
DIMENSION
  5
969
330
18
100
AcDbEntity
  8
外形線
100
AcDbDimension
  2
*D5
 10
388.5076445682376
 20
254.0740467877998
 30
0.0
 11
396.51359694919
 21
256.6038086925617
 31
0.0
 70
    32
  1
(3)
 71
     5
 42
2.999999999999943
  3
STYLE3
100
AcDbAlignedDimension
 13
385.5076445682377
 23
271.8905687123063
 33
0.0
 14
388.5076445682376
 24
271.0015469216685
 34
0.0
100
AcDbRotatedDimension
1001
ACAD
1000
DSTYLE
1002
{
1070
   271
1070
     2
1002
}
  0
LINE
  5
9BE
330
18
100
AcDbEntity
  8
中心線
 48
0.5
100
AcDbLine
 10
449.0016805748465
 20
337.4512164350907
 30
0.0
 11
449.0016805748464
 21
232.0846191553904
 31
0.0
  0
LINE
  5
9BF
330
18
100
AcDbEntity
  8
0
  6
ByBlock
 62
     2
100
AcDbLine
 10
494.0016805748464
 20
304.2617971651206
 30
0.0
 11
494.0016805748464
 21
232.0846191553904
 31
0.0
  0
LINE
  5
9C0
330
18
100
AcDbEntity
  8
0
  6
ByBlock
 62
     2
100
AcDbLine
 10
451.5016805748464
 20
233.3346191553904
 30
0.0
 11
491.5016805748464
 21
233.3346191553904
 31
0.0
  0
INSERT
  5
9C1
330
18
100
AcDbEntity
  8
0
  6
ByBlock
 62
     2
100
AcDbBlockReference
  2
_OPEN
 10
449.0016805748464
 20
233.3346191553904
 30
0.0
 41
2.5
 42
2.5
 43
2.5
 50
180.0
  0
INSERT
  5
9C2
330
18
100
AcDbEntity
  8
0
  6
ByBlock
 62
     2
100
AcDbBlockReference
  2
_OPEN
 10
494.0016805748464
 20
233.3346191553904
 30
0.0
 41
2.5
 42
2.5
 43
2.5
  0
MTEXT
  5
9C3
330
18
100
AcDbEntity
  8
0
  6
ByBlock
 62
     6
100
AcDbMText
 10
471.5016805748464
 20
235.2096191553904
 30
0.0
 40
2.5
 41
0.0
 71
     5
 72
     1
  1
\A1;45
  7
STYLE3
 73
     1
 44
1.0
  0
POINT
  5
9C4
330
18
100
AcDbEntity
  8
DEFPOINTS
  6
ByBlock
 62
     0
100
AcDbPoint
 10
449.0016805748464
 20
317.9617971651206
 30
0.0
  0
POINT
  5
9C5
330
18
100
AcDbEntity
  8
DEFPOINTS
  6
ByBlock
 62
     0
100
AcDbPoint
 10
494.0016805748464
 20
304.2617971651206
 30
0.0
  0
POINT
  5
9C6
330
18
100
AcDbEntity
  8
DEFPOINTS
  6
ByBlock
 62
     0
100
AcDbPoint
 10
494.0016805748464
 20
233.3346191553904
 30
0.0
  0
ARC
  5
9F3
330
18
100
AcDbEntity
  8
隠れ線2
 48
0.7
100
AcDbCircle
 10
449.0016805748465
 20
317.9617971651206
 30
0.0
 40
14.5
100
AcDbArc
 50
197.9977349920781
 51
276.9941194785965
  0
LINE
  5
9F5
330
18
100
AcDbEntity
  8
隠れ線2
 48
0.7
100
AcDbLine
 10
451.8014294547874
 20
303.6328929300058
 30
0.0
 11
477.0529803698754
 21
305.1760432637057
 31
0.0
  0
CIRCLE
  5
A00
330
18
100
AcDbEntity
  8
外形線
100
AcDbCircle
 10
428.0016805748464
 20
367.9617971651206
 30
0.0
 40
2.0
  0
LINE
  5
A01
330
18
100
AcDbEntity
  8
外形線
100
AcDbLine
 10
425.5548705065804
 20
364.2183868897392
 30
0.0
 11
428.7902903304147
 21
366.9919545730354
 31
0.0
  0
CIRCLE
  5
A02
330
18
100
AcDbEntity
  8
外形線
100
AcDbCircle
 10
417.0016805748464
 20
272.9617971651206
 30
0.0
 40
2.0
  0
LINE
  5
A03
330
18
100
AcDbEntity
  8
外形線
100
AcDbLine
 10
415.4750383955009
 20
277.1652913849625
 30
0.0
 11
418.1974384938854
 21
273.3260264871904
 31
0.0
  0
ARC
  5
A1D
330
18
100
AcDbEntity
  8
隠れ線
 62
     4
 48
0.35
100
AcDbCircle
 10
415.5166805748463
 20
336.9617971651206
 30
0.0
 40
24.0
100
AcDbArc
 50
56.55389761567777
 51
66.84506460954499
  0
ARC
  5
A20
330
18
100
AcDbEntity
  8
外形線
100
AcDbCircle
 10
415.5166805748463
 20
336.9617971651206
 30
0.0
 40
24.0
100
AcDbArc
 50
66.84506460954499
 51
90.0
  0
ARC
  5
A23
330
18
100
AcDbEntity
  8
隠れ線
 62
     4
 48
0.35
100
AcDbCircle
 10
412.4196805748464
 20
305.9617971651206
 30
0.0
 40
24.0
100
AcDbArc
 50
278.730632178638
 51
288.9348875490604
  0
ARC
  5
A24
330
18
100
AcDbEntity
  8
外形線
100
AcDbCircle
 10
412.4196805748464
 20
305.9617971651206
 30
0.0
 40
24.0
100
AcDbArc
 50
288.9348875490602
 51
18.25972198735555
  0
LINE
  5
A3C
330
18
100
AcDbEntity
  8
隠れ線2
100
AcDbLine
 10
584.0016805748464
 20
328.2117971651206
 30
0.0
 11
584.0016805748465
 21
307.7117971651206
 31
0.0
  0
LINE
  5
A3D
330
18
100
AcDbEntity
  8
隠れ線2
100
AcDbLine
 10
494.0016805748465
 20
329.7117971651206
 30
0.0
 11
582.5016805748464
 21
329.7117971651206
 31
0.0
  0
LINE
  5
A3E
330
18
100
AcDbEntity
  8
隠れ線2
100
AcDbLine
 10
494.0016805748464
 20
306.2117971651206
 30
0.0
 11
582.5016805748465
 21
306.2117971651206
 31
0.0
  0
ARC
  5
A3F
330
18
100
AcDbEntity
  8
隠れ線2
100
AcDbCircle
 10
582.5016805748464
 20
328.2117971651206
 30
0.0
 40
1.5
100
AcDbArc
 50
0.0
 51
90.0
  0
ARC
  5
A40
330
18
100
AcDbEntity
  8
隠れ線2
100
AcDbCircle
 10
582.5016805748465
 20
307.7117971651206
 30
0.0
 40
1.5
100
AcDbArc
 50
270.0
 51
0.0
  0
TEXT
  5
BF6
330
18
100
AcDbEntity
  8
文字
100
AcDbText
 10
352.2948183859498
 20
445.5917384243427
 30
0.0
 40
4.0
  1
Model No.LA-4 Outside Dial Caliper Gauge
  7
STYLE3
100
AcDbText
  0
LINE
  5
BF7
330
18
100
AcDbEntity
  8
外形線
100
AcDbLine
 10
350.9918693859499
 20
441.6683094243427
 30
0.0
 11
477.9918693859498
 21
441.6683094243427
 31
0.0
  0
LINE
  5
BF8
330
18
100
AcDbEntity
  8
外形線
100
AcDbLine
 10
350.9918693859499
 20
442.6683094243427
 30
0.0
 11
477.9918693859498
 21
442.6683094243427
 31
0.0
  0
TEXT
  5
BF9
330
18
100
AcDbEntity
  8
0
  6
Continuous
100
AcDbText
 10
596.8804010964642
 20
178.9068105767013
 30
0.0
 40
2.1
  1
OZAKI MFG. CO., LTD.
  7
STYLE3
100
AcDbText
  0
TEXT
  5
BFA
330
18
100
AcDbEntity
  8
0
  6
Continuous
100
AcDbText
 10
596.0059220964645
 20
182.6944495767013
 30
0.0
 40
3.0
  1
株式会社　尾崎製作所
  7
STYLE3
100
AcDbText
  0
TEXT
  5
BFB
330
18
100
AcDbEntity
  8
0
  6
Continuous
100
AcDbText
 10
575.6013680964644
 20
180.6549525767013
 30
0.0
 40
2.1
  1
2010.06.24
  7
STYLE3
100
AcDbText
  0
TEXT
  5
BFC
330
18
100
AcDbEntity
  8
0
  6
Continuous
100
AcDbText
 10
566.4732000964643
 20
182.2398945767013
 30
0.0
 40
3.0
  1
日 付
  7
STYLE3
100
AcDbText
  0
TEXT
  5
BFD
330
18
100
AcDbEntity
  8
0
  6
Continuous
100
AcDbText
 10
566.8565610964645
 20
178.9068115767013
 30
0.0
 40
2.1
  1
Date
  7
STYLE3
100
AcDbText
  0
TEXT
  5
BFE
330
18
100
AcDbEntity
  8
0
  6
Continuous
100
AcDbText
 10
556.7627890964643
 20
180.9463105767013
 30
0.0
 40
2.399999999999999
  1
1/1
  7
STYLE3
100
AcDbText
  0
TEXT
  5
BFF
330
18
100
AcDbEntity
  8
0
  6
Continuous
100
AcDbText
 10
547.1435000964643
 20
179.1981675767013
 30
0.0
 40
2.1
  1
Scale
  7
STYLE3
100
AcDbText
  0
TEXT
  5
C00
330
18
100
AcDbEntity
  8
0
  6
Continuous
100
AcDbText
 10
537.4044370964643
 20
180.6549535767013
 30
0.0
 40
2.399999999999999
  1
mm
  7
STYLE3
100
AcDbText
  0
TEXT
  5
C01
330
18
100
AcDbEntity
  8
0
  6
Continuous
100
AcDbText
 10
546.6802850964643
 20
182.1176895767013
 30
0.0
 40
3.0
  1
尺 度
  7
STYLE3
100
AcDbText
  0
TEXT
  5
C02
330
18
100
AcDbEntity
  8
0
  6
Continuous
100
AcDbText
 10
529.5341100964645
 20
178.9068105767013
 30
0.0
 40
2.1
  1
Unit
  7
STYLE3
100
AcDbText
  0
TEXT
  5
C03
330
18
100
AcDbEntity
  8
0
  6
Continuous
100
AcDbText
 10
529.3623890964643
 20
182.4090475767013
 30
0.0
 40
3.0
  1
単位
  7
STYLE3
100
AcDbText
  0
LINE
  5
C04
330
18
100
AcDbEntity
  8
外形線
100
AcDbLine
 10
527.9049200964643
 20
186.7734475767013
 30
0.0
 11
527.9049200964643
 21
177.1586695767013
 31
0.0
  0
LINE
  5
C05
330
18
100
AcDbEntity
  8
外形線
100
AcDbLine
 10
545.3945370964645
 20
186.7734475767013
 30
0.0
 11
545.3945370964645
 21
177.1586695767013
 31
0.0
  0
LINE
  5
C06
330
18
100
AcDbEntity
  8
外形線
100
AcDbLine
 10
564.9246100964644
 20
186.7734475767013
 30
0.0
 11
564.9246100964644
 21
177.1586695767013
 31
0.0
  0
LINE
  5
C07
330
18
100
AcDbEntity
  8
外形線
100
AcDbLine
 10
594.6569590964643
 20
186.7734475767013
 30
0.0
 11
594.6569590964643
 21
177.1586695767013
 31
0.0
  0
LINE
  5
C08
330
18
100
AcDbEntity
  8
外形線
100
AcDbLine
 10
492.6341920964643
 20
177.1586695767013
 30
0.0
 11
492.6341920964643
 21
197.5536535767013
 31
0.0
  0
TEXT
  5
C09
330
18
100
AcDbEntity
  8
0
  6
Continuous
100
AcDbText
 10
496.4236110964645
 20
182.4030925767013
 30
0.0
 40
3.0
  1
三　　角　　法
  7
STYLE3
100
AcDbText
  0
TEXT
  5
C0A
330
18
100
AcDbEntity
  8
0
  6
Continuous
100
AcDbText
 10
493.8001680964644
 20
178.9068095767013
 30
0.0
 40
2.1
  1
3RD Angle Projection
  7
STYLE3
100
AcDbText
  0
TEXT
  5
C0B
330
18
100
AcDbEntity
  8
0
  6
Continuous
100
AcDbText
 10
494.3831540964644
 20
192.6005855767013
 30
0.0
 40
3.5
  1
仕様及び外観は予告なく変更される場合がございますのでご了承下さい。
  7
STYLE3
100
AcDbText
  0
TEXT
  5
C0C
330
18
100
AcDbEntity
  8
0
  6
Continuous
100
AcDbText
 10
494.0916600964643
 20
188.6714375767013
 30
0.0
 40
2.1
  1
Design and specifications are subject to change without notice for future improvement.
  7
STYLE3
100
AcDbText
  0
LINE
  5
C0D
330
18
100
AcDbEntity
  8
外形線
100
AcDbLine
 10
492.6341920964643
 20
186.7734475767013
 30
0.0
 11
633.4256100964644
 21
186.7734475767013
 31
0.0
  0
LINE
  5
C0E
330
18
100
AcDbEntity
  8
外形線
100
AcDbLine
 10
492.6341920964643
 20
197.5536535767013
 30
0.0
 11
633.4256100964644
 21
197.5536535767013
 31
0.0
  0
ENDSEC
  0
SECTION
  2
OBJECTS
  0
DICTIONARY
  5
C
330
0
100
AcDbDictionary
281
     1
  3
ACAD_COLOR
350
A59
  3
ACAD_GROUP
350
D
  3
ACAD_LAYOUT
350
A5C
  3
ACAD_MATERIAL
350
A58
  3
ACAD_MLINESTYLE
350
1B
  3
ACAD_PLOTSETTINGS
350
A5D
  3
ACAD_PLOTSTYLENAME
350
A56
  3
ACAD_TABLESTYLE
350
A5A
  3
AcDbVariableDictionary
350
BB8
  0
DICTIONARY
  5
A59
102
{ACAD_REACTORS
330
C
102
}
330
C
100
AcDbDictionary
281
     1
  0
DICTIONARY
  5
D
102
{ACAD_REACTORS
330
C
102
}
330
C
100
AcDbDictionary
281
     1
  0
DICTIONARY
  5
A5C
102
{ACAD_REACTORS
330
C
102
}
330
C
100
AcDbDictionary
281
     1
  3
Model
350
A5E
  3
レイアウト1
350
A5F
  0
DICTIONARY
  5
A58
102
{ACAD_REACTORS
330
C
102
}
330
C
100
AcDbDictionary
281
     1
  0
DICTIONARY
  5
1B
102
{ACAD_REACTORS
330
C
102
}
330
C
100
AcDbDictionary
281
     1
  3
STANDARD
350
1C
  0
DICTIONARY
  5
A5D
102
{ACAD_REACTORS
330
C
102
}
330
C
100
AcDbDictionary
281
     1
  0
ACDBDICTIONARYWDFLT
  5
A56
102
{ACAD_REACTORS
330
C
102
}
330
C
100
AcDbDictionary
281
     1
  3
Normal
350
A57
100
AcDbDictionaryWithDefault
340
A57
  0
DICTIONARY
  5
A5A
102
{ACAD_REACTORS
330
C
102
}
330
C
100
AcDbDictionary
281
     1
  3
Standard
350
A5B
  0
DICTIONARY
  5
BB8
102
{ACAD_REACTORS
330
C
102
}
330
C
100
AcDbDictionary
281
     1
  3
CTABLESTYLE
350
BB9
  0
LAYOUT
  5
A5E
102
{ACAD_REACTORS
330
A5C
102
}
330
A5C
100
AcDbPlotSettings
  1

  2
WIDR Printer
  4

  6

 40
0.0
 41
0.0
 42
0.0
 43
0.0
 44
0.0
 45
0.0
 46
0.0
 47
0.0
 48
0.0
 49
0.0
140
0.0
141
0.0
142
1.0
143
1.0
 70
  1712
 72
     0
 73
     0
 74
     0
  7
AutoCad LT 98.ctb
 75
     0
147
1.0
 76
     0
 77
     2
 78
   300
148
0.0
149
0.0
100
AcDbLayout
  1
Model
 70
     1
 71
     0
 10
0.0
 20
0.0
 11
12.0
 21
9.0
 12
0.0
 22
0.0
 32
0.0
 14
0.0
 24
0.0
 34
0.0
 15
0.0
 25
0.0
 35
0.0
146
0.0
 13
0.0
 23
0.0
 33
0.0
 16
1.0
 26
0.0
 36
0.0
 17
0.0
 27
1.0
 37
0.0
 76
     0
330
18
  0
LAYOUT
  5
A5F
102
{ACAD_REACTORS
330
A5C
102
}
330
A5C
100
AcDbPlotSettings
  1

  2
WIDR Printer
  4

  6

 40
0.0
 41
0.0
 42
0.0
 43
0.0
 44
0.0
 45
0.0
 46
0.0
 47
0.0
 48
0.0
 49
0.0
140
0.0
141
0.0
142
1.0
143
1.0
 70
   688
 72
     0
 73
     0
 74
     5
  7
AutoCad LT 98.ctb
 75
    16
147
1.0
 76
     0
 77
     2
 78
   300
148
0.0
149
0.0
100
AcDbLayout
  1
レイアウト1
 70
     1
 71
     1
 10
0.0
 20
0.0
 11
420.0
 21
297.0
 12
0.0
 22
0.0
 32
0.0
 14
1.000000000000000E+20
 24
1.000000000000000E+20
 34
1.000000000000000E+20
 15
-1.000000000000000E+20
 25
-1.000000000000000E+20
 35
-1.000000000000000E+20
146
0.0
 13
0.0
 23
0.0
 33
0.0
 16
1.0
 26
0.0
 36
0.0
 17
0.0
 27
1.0
 37
0.0
 76
     0
330
15
  0
MLINESTYLE
  5
1C
102
{ACAD_REACTORS
330
1B
102
}
330
1B
100
AcDbMlineStyle
  2
STANDARD
 70
     0
  3

 62
   256
 51
90.0
 52
90.0
 71
     2
 49
0.5
 62
   256
  6
BYLAYER
 49
-0.5
 62
   256
  6
BYLAYER
  0
ACDBPLACEHOLDER
  5
A57
102
{ACAD_REACTORS
330
A56
102
}
330
A56
  0
ACAD_PROXY_OBJECT
  5
A5B
102
{ACAD_REACTORS
330
A5A
102
}
330
A5A
100
AcDbProxyObject
 90
      499
 91
      503
 95
  2555929
 70
     0
 93
     1849
310
4214DD185B99185C992420000000000000F83F0000000000003E0FC00000000000004901028000000C1008070000C3001FDFF8000000C1003FBFF000000182007F7FE00000030400FEFFC00000060801FDFF8000000C1003FBFF000000182000000000000000C2020B0000001820100E000186003FBFF000000182007F7FE0
310
0000030400FEFFC00000060801FDFF8000000C1003FBFF000000182007F7FE0000003040000000000000012404160000003040201C00030C007F7FE00000030400FEFFC00000060801FDFF8000000C1003FBFF000000182007F7FE00000030400FEFFC000000608000
340
F
340
F
340
F
 94
        0
  0
DICTIONARYVAR
  5
BB9
102
{ACAD_REACTORS
330
BB8
102
}
330
BB8
100
DictionaryVariables
280
     0
  1
STANDARD
  0
ENDSEC
  0
EOF
