  0
SECTION
  2
HEADER
  9
$ACADVER
  1
AC1018
  9
$ACADMAINTVER
 70
     0
  9
$DWGCODEPAGE
  3
ANSI_932
  9
$INSBASE
 10
0.0
 20
0.0
 30
0.0
  9
$EXTMIN
 10
255.8254975629365
 20
176.068913485172
 30
-0.0000152557620687
  9
$EXTMAX
 10
634.1739686069445
 20
459.3998087158752
 30
0.0000610416757212
  9
$LIMMIN
 10
0.0
 20
0.0
  9
$LIMMAX
 10
420.0
 20
297.0
  9
$ORTHOMODE
 70
     0
  9
$REGENMODE
 70
     1
  9
$FILLMODE
 70
     1
  9
$QTEXTMODE
 70
     0
  9
$MIRRTEXT
 70
     1
  9
$LTSCALE
 40
1.0
  9
$ATTMODE
 70
     1
  9
$TEXTSIZE
 40
3.0
  9
$TRACEWID
 40
1.0
  9
$TEXTSTYLE
  7
STYLE3
  9
$CLAYER
  8
文字
  9
$CELTYPE
  6
BYLAYER
  9
$CECOLOR
 62
   256
  9
$CELTSCALE
 40
1.0
  9
$DISPSILH
 70
     0
  9
$DIMSCALE
 40
1.0
  9
$DIMASZ
 40
2.5
  9
$DIMEXO
 40
0.0
  9
$DIMDLI
 40
3.75
  9
$DIMRND
 40
0.0
  9
$DIMDLE
 40
0.0
  9
$DIMEXE
 40
1.25
  9
$DIMTP
 40
0.0
  9
$DIMTM
 40
0.0
  9
$DIMTXT
 40
2.5
  9
$DIMCEN
 40
2.5
  9
$DIMTSZ
 40
0.0
  9
$DIMTOL
 70
     0
  9
$DIMLIM
 70
     0
  9
$DIMTIH
 70
     0
  9
$DIMTOH
 70
     0
  9
$DIMSE1
 70
     0
  9
$DIMSE2
 70
     0
  9
$DIMTAD
 70
     1
  9
$DIMZIN
 70
     8
  9
$DIMBLK
  1

  9
$DIMASO
 70
     1
  9
$DIMSHO
 70
     1
  9
$DIMPOST
  1

  9
$DIMAPOST
  1

  9
$DIMALT
 70
     0
  9
$DIMALTD
 70
     4
  9
$DIMALTF
 40
0.0394
  9
$DIMLFAC
 40
1.0
  9
$DIMTOFL
 70
     1
  9
$DIMTVP
 40
0.0
  9
$DIMTIX
 70
     0
  9
$DIMSOXD
 70
     0
  9
$DIMSAH
 70
     1
  9
$DIMBLK1
  1
OPEN
  9
$DIMBLK2
  1
OPEN
  9
$DIMSTYLE
  2
STYLE3
  9
$DIMCLRD
 70
     2
  9
$DIMCLRE
 70
     2
  9
$DIMCLRT
 70
     6
  9
$DIMTFAC
 40
1.0
  9
$DIMGAP
 40
0.625
  9
$DIMJUST
 70
     0
  9
$DIMSD1
 70
     0
  9
$DIMSD2
 70
     0
  9
$DIMTOLJ
 70
     1
  9
$DIMTZIN
 70
     0
  9
$DIMALTZ
 70
     0
  9
$DIMALTTZ
 70
     0
  9
$DIMUPT
 70
     0
  9
$DIMDEC
 70
     2
  9
$DIMTDEC
 70
     4
  9
$DIMALTU
 70
     8
  9
$DIMALTTD
 70
     4
  9
$DIMTXSTY
  7
STYLE3
  9
$DIMAUNIT
 70
     0
  9
$DIMADEC
 70
     0
  9
$DIMALTRND
 40
0.0
  9
$DIMAZIN
 70
     0
  9
$DIMDSEP
 70
    46
  9
$DIMATFIT
 70
     3
  9
$DIMFRAC
 70
     0
  9
$DIMLDRBLK
  1

  9
$DIMLUNIT
 70
     2
  9
$DIMLWD
 70
    -2
  9
$DIMLWE
 70
    -2
  9
$DIMTMOVE
 70
     0
  9
$LUNITS
 70
     2
  9
$LUPREC
 70
     4
  9
$SKETCHINC
 40
1.0
  9
$FILLETRAD
 40
1.5
  9
$AUNITS
 70
     0
  9
$AUPREC
 70
     0
  9
$MENU
  1
.
  9
$ELEVATION
 40
0.0
  9
$PELEVATION
 40
0.0
  9
$THICKNESS
 40
0.0
  9
$LIMCHECK
 70
     0
  9
$CHAMFERA
 40
10.0
  9
$CHAMFERB
 40
10.0
  9
$CHAMFERC
 40
20.0
  9
$CHAMFERD
 40
0.0
  9
$SKPOLY
 70
     0
  9
$TDCREATE
 40
2450850.476290394
  9
$TDUCREATE
 40
2450850.101290394
  9
$TDUPDATE
 40
2455376.416870197
  9
$TDUUPDATE
 40
2455376.041870197
  9
$TDINDWG
 40
0.2518491898
  9
$TDUSRTIMER
 40
0.2518491898
  9
$USRTIMER
 70
     1
  9
$ANGBASE
 50
0.0
  9
$ANGDIR
 70
     0
  9
$PDMODE
 70
     0
  9
$PDSIZE
 40
0.0
  9
$PLINEWID
 40
0.0
  9
$SPLFRAME
 70
     0
  9
$SPLINETYPE
 70
     6
  9
$SPLINESEGS
 70
     8
  9
$HANDSEED
  5
18C1
  9
$SURFTAB1
 70
     6
  9
$SURFTAB2
 70
     6
  9
$SURFTYPE
 70
     6
  9
$SURFU
 70
     6
  9
$SURFV
 70
     6
  9
$UCSBASE
  2

  9
$UCSNAME
  2

  9
$UCSORG
 10
0.0
 20
0.0
 30
0.0
  9
$UCSXDIR
 10
1.0
 20
0.0
 30
0.0
  9
$UCSYDIR
 10
0.0
 20
1.0
 30
0.0
  9
$UCSORTHOREF
  2

  9
$UCSORTHOVIEW
 70
     0
  9
$UCSORGTOP
 10
0.0
 20
0.0
 30
0.0
  9
$UCSORGBOTTOM
 10
0.0
 20
0.0
 30
0.0
  9
$UCSORGLEFT
 10
0.0
 20
0.0
 30
0.0
  9
$UCSORGRIGHT
 10
0.0
 20
0.0
 30
0.0
  9
$UCSORGFRONT
 10
0.0
 20
0.0
 30
0.0
  9
$UCSORGBACK
 10
0.0
 20
0.0
 30
0.0
  9
$PUCSBASE
  2

  9
$PUCSNAME
  2

  9
$PUCSORG
 10
0.0
 20
0.0
 30
0.0
  9
$PUCSXDIR
 10
1.0
 20
0.0
 30
0.0
  9
$PUCSYDIR
 10
0.0
 20
1.0
 30
0.0
  9
$PUCSORTHOREF
  2

  9
$PUCSORTHOVIEW
 70
     0
  9
$PUCSORGTOP
 10
0.0
 20
0.0
 30
0.0
  9
$PUCSORGBOTTOM
 10
0.0
 20
0.0
 30
0.0
  9
$PUCSORGLEFT
 10
0.0
 20
0.0
 30
0.0
  9
$PUCSORGRIGHT
 10
0.0
 20
0.0
 30
0.0
  9
$PUCSORGFRONT
 10
0.0
 20
0.0
 30
0.0
  9
$PUCSORGBACK
 10
0.0
 20
0.0
 30
0.0
  9
$USERI1
 70
     0
  9
$USERI2
 70
     0
  9
$USERI3
 70
     0
  9
$USERI4
 70
     0
  9
$USERI5
 70
     0
  9
$USERR1
 40
0.0
  9
$USERR2
 40
0.0
  9
$USERR3
 40
0.0
  9
$USERR4
 40
0.0
  9
$USERR5
 40
0.0
  9
$WORLDVIEW
 70
     1
  9
$SHADEDGE
 70
     3
  9
$SHADEDIF
 70
    70
  9
$TILEMODE
 70
     1
  9
$MAXACTVP
 70
    48
  9
$PINSBASE
 10
0.0
 20
0.0
 30
0.0
  9
$PLIMCHECK
 70
     0
  9
$PEXTMIN
 10
1.000000000000000E+20
 20
1.000000000000000E+20
 30
1.000000000000000E+20
  9
$PEXTMAX
 10
-1.000000000000000E+20
 20
-1.000000000000000E+20
 30
-1.000000000000000E+20
  9
$PLIMMIN
 10
0.0
 20
0.0
  9
$PLIMMAX
 10
420.0
 20
297.0
  9
$UNITMODE
 70
     0
  9
$VISRETAIN
 70
     1
  9
$PLINEGEN
 70
     0
  9
$PSLTSCALE
 70
     1
  9
$TREEDEPTH
 70
  3020
  9
$CMLSTYLE
  2
STANDARD
  9
$CMLJUST
 70
     0
  9
$CMLSCALE
 40
20.0
  9
$PROXYGRAPHICS
 70
     1
  9
$MEASUREMENT
 70
     1
  9
$CELWEIGHT
370
    -1
  9
$ENDCAPS
280
     0
  9
$JOINSTYLE
280
     0
  9
$LWDISPLAY
290
     0
  9
$INSUNITS
 70
     0
  9
$HYPERLINKBASE
  1

  9
$STYLESHEET
  1

  9
$XEDIT
290
     1
  9
$CEPSNTYPE
380
     0
  9
$PSTYLEMODE
290
     1
  9
$FINGERPRINTGUID
  2
{0533B52C-79A9-488F-B9F9-74A67965FAE5}
  9
$VERSIONGUID
  2
{457881D1-D612-4795-A689-28D1B18DEECB}
  9
$EXTNAMES
290
     1
  9
$PSVPSCALE
 40
0.0
  9
$OLESTARTUP
290
     0
  9
$SORTENTS
280
   127
  9
$INDEXCTL
280
     0
  9
$HIDETEXT
280
     0
  9
$XCLIPFRAME
290
     0
  9
$HALOGAP
280
     0
  9
$OBSCOLOR
 70
   257
  9
$OBSLTYPE
280
     0
  9
$INTERSECTIONDISPLAY
280
     0
  9
$INTERSECTIONCOLOR
 70
   257
  9
$DIMASSOC
280
     1
  9
$PROJECTNAME
  1

  0
ENDSEC
  0
SECTION
  2
CLASSES
  0
CLASS
  1
HATCH
  2
AcDbHatch
  3
ObjectDBX Classes
 90
        0
 91
       19
280
     0
281
     1
  0
CLASS
  1
LWPOLYLINE
  2
AcDbPolyline
  3
ObjectDBX Classes
 90
        0
 91
        3
280
     0
281
     1
  0
CLASS
  1
IMAGEDEF
  2
AcDbRasterImageDef
  3
ISM
 90
        0
 91
        1
280
     0
281
     0
  0
CLASS
  1
ACDBDICTIONARYWDFLT
  2
AcDbDictionaryWithDefault
  3
ObjectDBX Classes
 90
        0
 91
        1
280
     0
281
     0
  0
CLASS
  1
TABLESTYLE
  2
AcDbTableStyle
  3
ObjectDBX Classes
 90
     2047
 91
        1
280
     0
281
     0
  0
CLASS
  1
DICTIONARYVAR
  2
AcDbDictionaryVar
  3
ObjectDBX Classes
 90
        0
 91
        1
280
     0
281
     0
  0
ENDSEC
  0
SECTION
  2
TABLES
  0
TABLE
  2
VPORT
  5
8
330
0
100
AcDbSymbolTable
 70
     2
  0
VPORT
  5
18C0
330
8
100
AcDbSymbolTableRecord
100
AcDbViewportTableRecord
  2
*Active
 70
     0
 10
0.0
 20
0.0
 11
1.0
 21
1.0
 12
444.9997330849405
 22
317.7343611005237
 13
0.0
 23
0.0
 14
10.0
 24
10.0
 15
10.0
 25
10.0
 16
0.0
 26
0.0
 36
1.0
 17
0.0
 27
0.0
 37
0.0
 40
285.4855027989975
 41
1.530456852791878
 42
50.0
 43
0.0
 44
0.0
 50
0.0
 51
0.0
 71
     0
 72
   100
 73
     1
 74
     1
 75
     0
 76
     0
 77
     0
 78
     0
281
     0
 65
     1
110
0.0
120
0.0
130
0.0
111
1.0
121
0.0
131
0.0
112
0.0
122
1.0
132
0.0
 79
     0
146
0.0
  0
ENDTAB
  0
TABLE
  2
LTYPE
  5
5
330
0
100
AcDbSymbolTable
 70
    14
  0
LTYPE
  5
12
330
5
100
AcDbSymbolTableRecord
100
AcDbLinetypeTableRecord
  2
BYBLOCK
 70
     0
  3

 72
    65
 73
     0
 40
0.0
  0
LTYPE
  5
13
330
5
100
AcDbSymbolTableRecord
100
AcDbLinetypeTableRecord
  2
BYLAYER
 70
     0
  3

 72
    65
 73
     0
 40
0.0
  0
LTYPE
  5
14
330
5
100
AcDbSymbolTableRecord
100
AcDbLinetypeTableRecord
  2
CONTINUOUS
 70
     0
  3
Solid line
 72
    65
 73
     0
 40
0.0
  0
LTYPE
  5
22
330
5
100
AcDbSymbolTableRecord
100
AcDbLinetypeTableRecord
  2
CENTER2
 70
     0
  3
Center (.5x) ___ _ ___ _ ___ _ ___ _ ___ _ ___
 72
    65
 73
     4
 40
28.575
 49
19.05
 74
     0
 49
-3.174999999999999
 74
     0
 49
3.174999999999999
 74
     0
 49
-3.174999999999999
 74
     0
  0
LTYPE
  5
23
330
5
100
AcDbSymbolTableRecord
100
AcDbLinetypeTableRecord
  2
HIDDEN2
 70
     0
  3
Hidden (.5x) _ _ _ _ _ _ _ _ _ _ _ _ _ _ _ _ _
 72
    65
 73
     2
 40
4.762499999999999
 49
3.174999999999999
 74
     0
 49
-1.587499999999999
 74
     0
  0
LTYPE
  5
24
330
5
100
AcDbSymbolTableRecord
100
AcDbLinetypeTableRecord
  2
PHANTOM2
 70
     0
  3
Phantom (.5x) ___ _ _ ___ _ _ ___ _ _ ___ _ _
 72
    65
 73
     6
 40
31.75
 49
15.875
 74
     0
 49
-3.174999999999999
 74
     0
 49
3.174999999999999
 74
     0
 49
-3.174999999999999
 74
     0
 49
3.174999999999999
 74
     0
 49
-3.174999999999999
 74
     0
  0
ENDTAB
  0
TABLE
  2
LAYER
  5
2
330
0
100
AcDbSymbolTable
 70
    21
  0
LAYER
  5
E
330
2
100
AcDbSymbolTableRecord
100
AcDbLayerTableRecord
  2
0
 70
     0
 62
     7
  6
CONTINUOUS
370
    -3
390
185D
  0
LAYER
  5
25
330
2
100
AcDbSymbolTableRecord
100
AcDbLayerTableRecord
  2
外形線
 70
     0
 62
     7
  6
CONTINUOUS
370
    -3
390
185D
  0
LAYER
  5
26
330
2
100
AcDbSymbolTableRecord
100
AcDbLayerTableRecord
  2
寸法線
 70
     0
 62
     2
  6
CONTINUOUS
370
    -3
390
185D
  0
LAYER
  5
27
330
2
100
AcDbSymbolTableRecord
100
AcDbLayerTableRecord
  2
中心線
 70
     0
 62
     4
  6
CENTER2
370
    -3
390
185D
  0
LAYER
  5
28
330
2
100
AcDbSymbolTableRecord
100
AcDbLayerTableRecord
  2
隠れ線
 70
     0
 62
     6
  6
HIDDEN2
370
    -3
390
185D
  0
LAYER
  5
29
330
2
100
AcDbSymbolTableRecord
100
AcDbLayerTableRecord
  2
想像線
 70
     0
 62
     1
  6
PHANTOM2
370
    -3
390
185D
  0
LAYER
  5
2A
330
2
100
AcDbSymbolTableRecord
100
AcDbLayerTableRecord
  2
ﾊｯﾁﾝｸ
 70
     0
 62
     6
  6
CONTINUOUS
370
    -3
390
185D
  0
LAYER
  5
2B
330
2
100
AcDbSymbolTableRecord
100
AcDbLayerTableRecord
  2
文字
 70
     0
 62
     6
  6
CONTINUOUS
370
    -3
390
185D
  0
LAYER
  5
2C
330
2
100
AcDbSymbolTableRecord
100
AcDbLayerTableRecord
  2
目盛
 70
     0
 62
    72
  6
CONTINUOUS
370
    -3
390
185D
  0
LAYER
  5
2D
330
2
100
AcDbSymbolTableRecord
100
AcDbLayerTableRecord
  2
針
 70
     0
 62
     5
  6
CONTINUOUS
370
    -3
390
185D
  0
LAYER
  5
53
330
2
100
AcDbSymbolTableRecord
100
AcDbLayerTableRecord
  2
DEFPOINTS
 70
     0
 62
     7
  6
CONTINUOUS
290
     0
370
    -3
390
185D
  0
LAYER
  5
A5
330
2
100
AcDbSymbolTableRecord
100
AcDbLayerTableRecord
  2
C
 70
     0
 62
     7
  6
CONTINUOUS
370
    -3
390
185D
  0
LAYER
  5
2ED
330
2
100
AcDbSymbolTableRecord
100
AcDbLayerTableRecord
  2
握り
 70
     0
 62
     3
  6
CONTINUOUS
370
    -3
390
185D
  0
LAYER
  5
3AD
330
2
100
AcDbSymbolTableRecord
100
AcDbLayerTableRecord
  2
ROGO
 70
     0
 62
     6
  6
CONTINUOUS
370
    -3
390
185D
  0
LAYER
  5
186E
330
2
100
AcDbSymbolTableRecord
100
AcDbLayerTableRecord
  2
隠れ線2
 70
     0
 62
     1
  6
HIDDEN2
370
    -3
390
185D
  0
ENDTAB
  0
TABLE
  2
STYLE
  5
3
330
0
100
AcDbSymbolTable
 70
     6
  0
STYLE
  5
F
330
3
100
AcDbSymbolTableRecord
100
AcDbTextStyleTableRecord
  2
STANDARD
 70
     0
 40
0.0
 41
1.0
 50
0.0
 71
     0
 42
2.5
  3
txt
  4

  0
STYLE
  5
3F
330
3
100
AcDbSymbolTableRecord
100
AcDbTextStyleTableRecord
  2
STYLE3
 70
     0
 40
0.0
 41
1.0
 50
0.0
 71
     0
 42
3.0
  3
romans.shx
  4
bigfont.shx
  0
ENDTAB
  0
TABLE
  2
VIEW
  5
6
330
0
100
AcDbSymbolTable
 70
     0
  0
ENDTAB
  0
TABLE
  2
UCS
  5
7
330
0
100
AcDbSymbolTable
 70
     0
  0
ENDTAB
  0
TABLE
  2
APPID
  5
9
330
0
100
AcDbSymbolTable
 70
     2
  0
APPID
  5
10
330
9
100
AcDbSymbolTableRecord
100
AcDbRegAppTableRecord
  2
ACAD
 70
     0
  0
APPID
  5
1873
330
9
100
AcDbSymbolTableRecord
100
AcDbRegAppTableRecord
  2
ACAD_PSEXT
 70
     0
  0
ENDTAB
  0
TABLE
  2
DIMSTYLE
  5
A
330
0
100
AcDbSymbolTable
 70
    17
100
AcDbDimStyleTable
 71
     0
  0
DIMSTYLE
105
1D
330
A
100
AcDbSymbolTableRecord
100
AcDbDimStyleTableRecord
  2
STANDARD
 70
     0
 41
2.5
 42
0.625
 43
3.75
 44
1.25
 73
     0
 74
     0
 77
     1
 78
     8
140
2.5
141
2.5
143
0.0394
147
0.625
171
     4
172
     1
273
     8
274
     4
277
     6
340
F
  0
DIMSTYLE
105
8F
102
{ACAD_REACTORS
330
1632
330
1705
330
17CD
330
17EB
102
}
330
A
100
AcDbSymbolTableRecord
100
AcDbDimStyleTableRecord
  2
STYLE3
 70
     0
 41
2.5
 42
0.0
 43
3.75
 44
1.25
 73
     0
 74
     0
 77
     1
 78
     8
140
2.5
141
2.5
143
0.0394
147
0.625
171
     4
172
     1
173
     1
176
     2
177
     2
178
     6
271
     1
273
     8
274
     4
340
3F
341
45
343
45
344
45
  0
ENDTAB
  0
TABLE
  2
BLOCK_RECORD
  5
1
330
0
100
AcDbSymbolTable
 70
     8
  0
BLOCK_RECORD
  5
18
330
1
100
AcDbSymbolTableRecord
100
AcDbBlockTableRecord
  2
*MODEL_SPACE
340
1864
  0
BLOCK_RECORD
  5
15
330
1
100
AcDbSymbolTableRecord
100
AcDbBlockTableRecord
  2
*PAPER_SPACE
340
1865
  0
BLOCK_RECORD
  5
45
330
1
100
AcDbSymbolTableRecord
100
AcDbBlockTableRecord
  2
_OPEN
340
0
102
{BLKREFS
331
166F
331
1690
331
1691
331
16C0
331
16C1
331
16DB
331
1709
331
170A
331
1711
331
1712
331
172B
331
172C
331
1767
331
1768
331
162B
331
162C
331
16FE
331
16FF
331
17D4
331
17D5
331
17F2
331
17F3
102
}
  0
BLOCK_RECORD
  5
1626
330
1
100
AcDbSymbolTableRecord
100
AcDbBlockTableRecord
  2
*D2
340
0
  0
BLOCK_RECORD
  5
16F9
330
1
100
AcDbSymbolTableRecord
100
AcDbBlockTableRecord
  2
*D3
340
0
  0
BLOCK_RECORD
  5
17BF
330
1
100
AcDbSymbolTableRecord
100
AcDbBlockTableRecord
  2
*D4
340
0
  0
BLOCK_RECORD
  5
17DD
330
1
100
AcDbSymbolTableRecord
100
AcDbBlockTableRecord
  2
*D5
340
0
  0
ENDTAB
  0
ENDSEC
  0
SECTION
  2
BLOCKS
  0
BLOCK
  5
19
330
18
100
AcDbEntity
  8
0
100
AcDbBlockBegin
  2
*MODEL_SPACE
 70
     0
 10
0.0
 20
0.0
 30
0.0
  3
*MODEL_SPACE
  1

  0
ENDBLK
  5
1A
330
18
100
AcDbEntity
  8
0
100
AcDbBlockEnd
  0
BLOCK
  5
16
330
15
100
AcDbEntity
 67
     1
  8
0
100
AcDbBlockBegin
  2
*PAPER_SPACE
 70
     0
 10
0.0
 20
0.0
 30
0.0
  3
*PAPER_SPACE
  1

  0
ENDBLK
  5
17
330
15
100
AcDbEntity
 67
     1
  8
0
100
AcDbBlockEnd
  0
BLOCK
  5
46
330
45
100
AcDbEntity
  8
0
100
AcDbBlockBegin
  2
_OPEN
 70
     0
 10
0.0
 20
0.0
 30
0.0
  3
_OPEN
  1

  0
LINE
  5
47
330
45
100
AcDbEntity
  8
0
  6
ByBlock
 62
     0
100
AcDbLine
 10
-1.0
 20
0.1666666666666666
 30
0.0
 11
0.0
 21
0.0
 31
0.0
  0
LINE
  5
48
330
45
100
AcDbEntity
  8
0
  6
ByBlock
 62
     0
100
AcDbLine
 10
0.0
 20
0.0
 30
0.0
 11
-1.0
 21
-0.1666666666666666
 31
0.0
  0
LINE
  5
49
330
45
100
AcDbEntity
  8
0
  6
ByBlock
 62
     0
100
AcDbLine
 10
0.0
 20
0.0
 30
0.0
 11
-1.0
 21
0.0
 31
0.0
  0
ENDBLK
  5
4A
330
45
100
AcDbEntity
  8
0
100
AcDbBlockEnd
  0
BLOCK
  5
1627
330
1626
100
AcDbEntity
  8
0
100
AcDbBlockBegin
  2
*D2
 70
     1
 10
0.0
 20
0.0
 30
0.0
  3
*D2
  1

  0
LINE
  5
1628
330
1626
100
AcDbEntity
  8
0
  6
ByBlock
 62
     2
100
AcDbLine
 10
473.3202034312419
 20
317.375006718104
 30
0.0
 11
474.87858061745
 21
317.5940223486349
 31
0.0
  0
LINE
  5
1629
330
1626
100
AcDbEntity
  8
0
  6
ByBlock
 62
     2
100
AcDbLine
 10
468.4515980273941
 20
352.0347338889625
 30
0.0
 11
470.0075220838477
 21
352.2534047545899
 31
0.0
  0
LINE
  5
162A
330
1626
100
AcDbEntity
  8
0
  6
ByBlock
 62
     2
100
AcDbLine
 10
473.2928127791228
 20
319.8957261442887
 30
0.0
 11
469.1176197503208
 21
349.603768206536
 31
0.0
  0
INSERT
  5
162B
330
1626
100
AcDbEntity
  8
0
  6
ByBlock
 62
     2
100
AcDbBlockReference
  2
_OPEN
 10
473.6407455315229
 20
317.4200559724348
 30
0.0
 41
2.5
 42
2.5
 43
2.5
 50
277.9999999999999
  0
INSERT
  5
162C
330
1626
100
AcDbEntity
  8
0
  6
ByBlock
 62
     2
100
AcDbBlockReference
  2
_OPEN
 10
468.7696869979206
 20
352.0794383783899
 30
0.0
 41
2.5
 42
2.5
 43
2.5
 50
97.99999999999997
  0
MTEXT
  5
162D
330
1626
100
AcDbEntity
  8
0
  6
ByBlock
 62
     6
100
AcDbMText
 10
469.3484636358314
 20
334.4887976111122
 30
0.0
 40
2.5
 41
0.0
 71
     5
 72
     1
  1
\A1;35
  7
STYLE3
 11
-0.1391731009600649
 21
0.9902680687415703
 31
0.0
 73
     1
 44
1.0
  0
POINT
  5
162E
330
1626
100
AcDbEntity
  8
DEFPOINTS
  6
ByBlock
 62
     0
100
AcDbPoint
 10
473.3202034312419
 20
317.375006718104
 30
0.0
 50
352.0
  0
POINT
  5
162F
330
1626
100
AcDbEntity
  8
DEFPOINTS
  6
ByBlock
 62
     0
100
AcDbPoint
 10
468.4515980273941
 20
352.0347338889625
 30
0.0
 50
352.0
  0
POINT
  5
1630
330
1626
100
AcDbEntity
  8
DEFPOINTS
  6
ByBlock
 62
     0
100
AcDbPoint
 10
468.7696869979206
 20
352.0794383783899
 30
0.0
 50
352.0
  0
ENDBLK
  5
1631
330
1626
100
AcDbEntity
  8
0
100
AcDbBlockEnd
  0
BLOCK
  5
16FA
330
16F9
100
AcDbEntity
  8
0
100
AcDbBlockBegin
  2
*D3
 70
     1
 10
0.0
 20
0.0
 30
0.0
  3
*D3
  1

  0
LINE
  5
16FB
330
16F9
100
AcDbEntity
  8
0
  6
ByBlock
 62
     2
100
AcDbLine
 10
610.3102242806809
 20
328.9841125532366
 30
0.0
 11
628.7211271233822
 21
328.9841125532366
 31
0.0
  0
LINE
  5
16FC
330
16F9
100
AcDbEntity
  8
0
  6
ByBlock
 62
     2
100
AcDbLine
 10
610.3102242806809
 20
298.9841125532366
 30
0.0
 11
628.7211271233822
 21
298.9841125532366
 31
0.0
  0
LINE
  5
16FD
330
16F9
100
AcDbEntity
  8
0
  6
ByBlock
 62
     2
100
AcDbLine
 10
627.4711271233821
 20
326.4841125532366
 30
0.0
 11
627.4711271233821
 21
301.4841125532366
 31
0.0
  0
INSERT
  5
16FE
330
16F9
100
AcDbEntity
  8
0
  6
ByBlock
 62
     2
100
AcDbBlockReference
  2
_OPEN
 10
627.4711271233821
 20
328.9841125532366
 30
0.0
 41
2.5
 42
2.5
 43
2.5
 50
90.0
  0
INSERT
  5
16FF
330
16F9
100
AcDbEntity
  8
0
  6
ByBlock
 62
     2
100
AcDbBlockReference
  2
_OPEN
 10
627.4711271233821
 20
298.9841125532366
 30
0.0
 41
2.5
 42
2.5
 43
2.5
 50
270.0
  0
MTEXT
  5
1700
330
16F9
100
AcDbEntity
  8
0
  6
ByBlock
 62
     6
100
AcDbMText
 10
625.5961271233822
 20
313.9841125532366
 30
0.0
 40
2.5
 41
0.0
 71
     5
 72
     1
  1
\A1;30
  7
STYLE3
 11
0.0000000000000001
 21
1.0
 31
0.0
 73
     1
 44
1.0
  0
POINT
  5
1701
330
16F9
100
AcDbEntity
  8
DEFPOINTS
  6
ByBlock
 62
     0
100
AcDbPoint
 10
610.3102242806809
 20
328.9841125532366
 30
0.0
  0
POINT
  5
1702
330
16F9
100
AcDbEntity
  8
DEFPOINTS
  6
ByBlock
 62
     0
100
AcDbPoint
 10
610.3102242806809
 20
298.9841125532366
 30
0.0
  0
POINT
  5
1703
330
16F9
100
AcDbEntity
  8
DEFPOINTS
  6
ByBlock
 62
     0
100
AcDbPoint
 10
627.4711271233821
 20
298.9841125532366
 30
0.0
  0
ENDBLK
  5
1704
330
16F9
100
AcDbEntity
  8
0
100
AcDbBlockEnd
  0
BLOCK
  5
17CE
330
17BF
100
AcDbEntity
  8
0
100
AcDbBlockBegin
  2
*D4
 70
     1
 10
0.0
 20
0.0
 30
0.0
  3
*D4
  1

  0
LINE
  5
17CF
330
17BF
100
AcDbEntity
  8
0
  6
ByBlock
 62
     2
100
AcDbLine
 10
331.2153964655294
 20
378.0447548394113
 30
0.0
 11
331.2153964655294
 21
388.8079501890467
 31
0.0
  0
LINE
  5
17D0
330
17BF
100
AcDbEntity
  8
0
  6
ByBlock
 62
     2
100
AcDbLine
 10
334.2153964655293
 20
378.2522017777385
 30
0.0
 11
334.2153964655293
 21
388.8079501890467
 31
0.0
  0
LINE
  5
17D1
330
17BF
100
AcDbEntity
  8
0
  6
ByBlock
 62
     2
100
AcDbLine
 10
328.7153964655293
 20
387.5579501890467
 30
0.0
 11
326.2153964655293
 21
387.5579501890467
 31
0.0
  0
LINE
  5
17D2
330
17BF
100
AcDbEntity
  8
0
  6
ByBlock
 62
     2
100
AcDbLine
 10
336.7153964655293
 20
387.5579501890467
 30
0.0
 11
345.227301227434
 21
387.5579501890467
 31
0.0
  0
LINE
  5
17D3
330
17BF
100
AcDbEntity
  8
0
  6
ByBlock
 62
     2
100
AcDbLine
 10
331.2153964655294
 20
387.5579501890467
 30
0.0
 11
334.2153964655293
 21
387.5579501890467
 31
0.0
  0
INSERT
  5
17D4
330
17BF
100
AcDbEntity
  8
0
  6
ByBlock
 62
     2
100
AcDbBlockReference
  2
_OPEN
 10
331.2153964655294
 20
387.5579501890467
 30
0.0
 41
2.5
 42
2.5
 43
2.5
  0
INSERT
  5
17D5
330
17BF
100
AcDbEntity
  8
0
  6
ByBlock
 62
     2
100
AcDbBlockReference
  2
_OPEN
 10
334.2153964655293
 20
387.5579501890467
 30
0.0
 41
2.5
 42
2.5
 43
2.5
 50
180.0
  0
MTEXT
  5
17D6
330
17BF
100
AcDbEntity
  8
0
  6
ByBlock
 62
     6
100
AcDbMText
 10
342.2213488464816
 20
390.0877120938087
 30
0.0
 40
2.5
 41
0.0
 71
     5
 72
     1
  1
\A1;(3)
  7
STYLE3
 73
     1
 44
1.0
  0
POINT
  5
17D7
330
17BF
100
AcDbEntity
  8
DEFPOINTS
  6
ByBlock
 62
     0
100
AcDbPoint
 10
331.2153964655294
 20
378.0447548394113
 30
0.0
  0
POINT
  5
17D8
330
17BF
100
AcDbEntity
  8
DEFPOINTS
  6
ByBlock
 62
     0
100
AcDbPoint
 10
334.2153964655293
 20
378.2522017777385
 30
0.0
  0
POINT
  5
17D9
330
17BF
100
AcDbEntity
  8
DEFPOINTS
  6
ByBlock
 62
     0
100
AcDbPoint
 10
334.2153964655293
 20
387.5579501890467
 30
0.0
  0
ENDBLK
  5
17DA
330
17BF
100
AcDbEntity
  8
0
100
AcDbBlockEnd
  0
BLOCK
  5
17EC
330
17DD
100
AcDbEntity
  8
0
100
AcDbBlockBegin
  2
*D5
 70
     1
 10
0.0
 20
0.0
 30
0.0
  3
*D5
  1

  0
LINE
  5
17ED
330
17DD
100
AcDbEntity
  8
0
  6
ByBlock
 62
     2
100
AcDbLine
 10
323.7687776057747
 20
294.8676560114441
 30
0.0
 11
323.7687776057747
 21
278.4571277309674
 31
0.0
  0
LINE
  5
17EE
330
17DD
100
AcDbEntity
  8
0
  6
ByBlock
 62
     2
100
AcDbLine
 10
326.7687776057747
 20
294.2480381277761
 30
0.0
 11
326.7687776057747
 21
278.4571277309674
 31
0.0
  0
LINE
  5
17EF
330
17DD
100
AcDbEntity
  8
0
  6
ByBlock
 62
     2
100
AcDbLine
 10
321.2687776057747
 20
279.7071277309675
 30
0.0
 11
318.7687776057747
 21
279.7071277309675
 31
0.0
  0
LINE
  5
17F0
330
17DD
100
AcDbEntity
  8
0
  6
ByBlock
 62
     2
100
AcDbLine
 10
329.2687776057747
 20
279.7071277309675
 30
0.0
 11
337.7806823676795
 21
279.7071277309675
 31
0.0
  0
LINE
  5
17F1
330
17DD
100
AcDbEntity
  8
0
  6
ByBlock
 62
     2
100
AcDbLine
 10
323.7687776057747
 20
279.7071277309675
 30
0.0
 11
326.7687776057747
 21
279.7071277309675
 31
0.0
  0
INSERT
  5
17F2
330
17DD
100
AcDbEntity
  8
0
  6
ByBlock
 62
     2
100
AcDbBlockReference
  2
_OPEN
 10
323.7687776057747
 20
279.7071277309675
 30
0.0
 41
2.5
 42
2.5
 43
2.5
  0
INSERT
  5
17F3
330
17DD
100
AcDbEntity
  8
0
  6
ByBlock
 62
     2
100
AcDbBlockReference
  2
_OPEN
 10
326.7687776057747
 20
279.7071277309675
 30
0.0
 41
2.5
 42
2.5
 43
2.5
 50
180.0
  0
MTEXT
  5
17F4
330
17DD
100
AcDbEntity
  8
0
  6
ByBlock
 62
     6
100
AcDbMText
 10
334.7747299867271
 20
282.2368896357294
 30
0.0
 40
2.5
 41
0.0
 71
     5
 72
     1
  1
\A1;(3)
  7
STYLE3
 73
     1
 44
1.0
  0
POINT
  5
17F5
330
17DD
100
AcDbEntity
  8
DEFPOINTS
  6
ByBlock
 62
     0
100
AcDbPoint
 10
323.7687776057747
 20
294.8676560114441
 30
0.0
  0
POINT
  5
17F6
330
17DD
100
AcDbEntity
  8
DEFPOINTS
  6
ByBlock
 62
     0
100
AcDbPoint
 10
326.7687776057747
 20
294.2480381277761
 30
0.0
  0
POINT
  5
17F7
330
17DD
100
AcDbEntity
  8
DEFPOINTS
  6
ByBlock
 62
     0
100
AcDbPoint
 10
326.7687776057747
 20
279.7071277309675
 30
0.0
  0
ENDBLK
  5
17F8
330
17DD
100
AcDbEntity
  8
0
100
AcDbBlockEnd
  0
ENDSEC
  0
SECTION
  2
ENTITIES
  0
LWPOLYLINE
  5
1A0
330
18
100
AcDbEntity
  8
C
100
AcDbPolyline
 90
        5
 70
     0
 43
0.8
 10
256.2352605185929
 20
458.9717683211813
 10
633.7352605185929
 20
458.9717683211813
 10
633.7352605185929
 20
176.4717683211813
 10
256.2352605185929
 20
176.4717683211813
 10
256.2352605185929
 20
458.9717683211813
  0
LINE
  5
1EC
330
18
100
AcDbEntity
  8
中心線
 48
0.5
100
AcDbLine
 10
272.4820750055669
 20
314.8438692153115
 30
0.0
 11
622.87457074304
 21
314.8438692153115
 31
0.0
  0
LINE
  5
1ED
330
18
100
AcDbEntity
  8
中心線
 48
0.5
100
AcDbLine
 10
455.3102242806808
 20
329.6239836689963
 30
0.0
 11
455.3102242806808
 21
233.9290565352635
 31
0.0
  0
CIRCLE
  5
1F1
330
18
100
AcDbEntity
  8
隠れ線
 62
     4
 48
0.5
100
AcDbCircle
 10
450.6102242806808
 20
329.0888692153115
 30
0.0
 40
3.6
  0
ARC
  5
1F2
330
18
100
AcDbEntity
  8
隠れ線2
100
AcDbCircle
 10
455.3102242806808
 20
314.8438692153115
 30
0.0
 40
14.0
100
AcDbArc
 50
180.0
 51
274.295170856597
  0
LINE
  5
1F3
330
18
100
AcDbEntity
  8
外形線
100
AcDbLine
 10
508.3102242806808
 20
326.5938692153115
 30
0.0
 11
515.3102242806808
 21
326.5938692153114
 31
0.0
  0
LINE
  5
1F6
330
18
100
AcDbEntity
  8
外形線
100
AcDbLine
 10
468.8720118863692
 20
301.3524362505248
 30
0.0
 11
515.3102242806808
 21
303.0938692153115
 31
0.0
  0
ARC
  5
1F9
330
18
100
AcDbEntity
  8
外形線
100
AcDbCircle
 10
508.3102242806808
 20
329.5938692153115
 30
0.0
 40
3.0
100
AcDbArc
 50
150.2868838421665
 51
270.0
  0
ARC
  5
1FE
330
18
100
AcDbEntity
  8
外形線
100
AcDbCircle
 10
411.3102242806808
 20
336.8438692153115
 30
0.0
 40
28.0
100
AcDbArc
 50
0.0
 51
90.0
  0
LINE
  5
1FF
330
18
100
AcDbEntity
  8
外形線
100
AcDbLine
 10
441.3102242806807
 20
314.8438692153115
 30
0.0
 11
439.3102242806808
 21
336.8438692153115
 31
0.0
  0
LINE
  5
203
330
18
100
AcDbEntity
  8
外形線
100
AcDbLine
 10
465.6021810321074
 20
344.5654814383992
 30
0.0
 11
465.9703180643
 21
344.6172197241884
 31
0.0
  0
LINE
  5
208
330
18
100
AcDbEntity
  8
外形線
100
AcDbLine
 10
510.5082966146392
 20
340.2734348941648
 30
0.0
 11
509.1304829151343
 21
350.0770887747066
 31
0.0
  0
LINE
  5
209
330
18
100
AcDbEntity
  8
中心線
 48
0.3
100
AcDbLine
 10
473.564281098899
 20
340.6353437651771
 30
0.0
 11
485.4680301656925
 21
342.3083065951118
 31
0.0
  0
LINE
  5
20A
330
18
100
AcDbEntity
  8
中心線
 48
0.3
100
AcDbLine
 10
480.4104959782115
 20
335.2788699559601
 30
0.0
 11
478.7105107908591
 21
347.3748930865519
 31
0.0
  0
LINE
  5
216
330
18
100
AcDbEntity
  8
外形線
100
AcDbLine
 10
510.508296614639
 20
340.2734348941648
 30
0.0
 11
505.7046700670459
 21
331.0808417233993
 31
0.0
  0
ARC
  5
21C
330
18
100
AcDbEntity
  8
外形線
100
AcDbCircle
 10
422.3102242806808
 20
344.3438692153115
 30
0.0
 40
40.0
100
AcDbArc
 50
15.46147291786209
 51
97.91129589580052
  0
ARC
  5
228
330
18
100
AcDbEntity
  8
外形線
100
AcDbCircle
 10
465.1846617292271
 20
347.5362856446239
 30
0.0
 40
3.0
100
AcDbArc
 50
187.9999999999975
 51
278.0000000000009
  0
ARC
  5
23A
330
18
100
AcDbEntity
  8
外形線
100
AcDbCircle
 10
280.8872242806808
 20
329.0458692153115
 30
0.0
 40
2.0
100
AcDbArc
 50
179.9999999999951
 51
359.999999999987
  0
ARC
  5
23D
330
18
100
AcDbEntity
  8
外形線
100
AcDbCircle
 10
299.3872242806808
 20
352.8438692153115
 30
0.0
 40
23.0
100
AcDbArc
 50
89.99999999999985
 51
191.9939486955933
  0
ARC
  5
240
330
18
100
AcDbEntity
  8
外形線
100
AcDbCircle
 10
299.8872242806808
 20
348.8438692153115
 30
0.0
 40
16.0
100
AcDbArc
 50
90.0
 51
180.0
  0
LINE
  5
241
330
18
100
AcDbEntity
  8
外形線
100
AcDbLine
 10
283.8872242806808
 20
348.8438692153115
 30
0.0
 11
282.8872242806808
 21
329.0458692153115
 31
0.0
  0
LINE
  5
242
330
18
100
AcDbEntity
  8
外形線
100
AcDbLine
 10
276.8893245407452
 20
348.0642764197057
 30
0.0
 11
278.8872242806808
 21
329.0458692153115
 31
0.0
  0
LINE
  5
243
330
18
100
AcDbEntity
  8
外形線
100
AcDbLine
 10
299.3872242806808
 20
375.8438692153115
 30
0.0
 11
416.8046313657346
 21
383.9631630840176
 31
0.0
  0
LINE
  5
244
330
18
100
AcDbEntity
  8
外形線
100
AcDbLine
 10
299.8872242806808
 20
364.8438692153115
 30
0.0
 11
411.3102242806808
 21
364.8438692153115
 31
0.0
  0
ARC
  5
250
330
18
100
AcDbEntity
  8
外形線
100
AcDbCircle
 10
455.3102242806808
 20
314.8438692153115
 30
0.0
 40
14.0
100
AcDbArc
 50
346.8708857475975
 51
52.88479501876486
  0
ARC
  5
25A
330
18
100
AcDbEntity
  8
外形線
100
AcDbCircle
 10
492.3472242806808
 20
306.3438692153115
 30
0.0
 40
24.0
100
AcDbArc
 50
166.9556979018311
 51
245.0761385370662
  0
ARC
  5
25D
330
18
100
AcDbEntity
  8
外形線
100
AcDbCircle
 10
439.3102242806808
 20
327.1528692153115
 30
0.0
 40
55.0
100
AcDbArc
 50
257.1559512045883
 51
286.0041894840003
  0
ARC
  5
260
330
18
100
AcDbEntity
  8
外形線
100
AcDbCircle
 10
419.3972242806808
 20
317.3438692153115
 30
0.0
 40
22.0
100
AcDbArc
 50
270.000000000001
 51
356.1197266369035
  0
ARC
  5
265
330
18
100
AcDbEntity
  8
外形線
100
AcDbCircle
 10
419.3102242806808
 20
329.8438692153115
 30
0.0
 40
25.0
100
AcDbArc
 50
337.3801350519595
 51
30.70830268894341
  0
ARC
  5
269
330
18
100
AcDbEntity
  8
外形線
100
AcDbCircle
 10
478.9742242806807
 20
345.8438692153115
 30
0.0
 40
25.0
100
AcDbArc
 50
179.8590853301952
 51
232.7786340445436
  0
ARC
  5
26A
330
18
100
AcDbEntity
  8
外形線
100
AcDbCircle
 10
455.3102242806808
 20
314.8438692153115
 30
0.0
 40
14.0
100
AcDbArc
 50
157.3801350519596
 51
180.0
  0
LINE
  5
26C
330
18
100
AcDbEntity
  8
外形線
100
AcDbLine
 10
439.3454855204916
 20
352.9932744048937
 30
0.0
 11
452.7141044485029
 21
354.8721112678546
 31
0.0
  0
LINE
  5
26E
330
18
100
AcDbEntity
  8
中心線
100
AcDbLine
 10
449.2335162048055
 20
347.3039490686709
 30
0.0
 11
448.7096814165935
 21
351.031227260246
 31
0.0
  0
LINE
  5
26F
330
18
100
AcDbEntity
  8
中心線
100
AcDbLine
 10
443.2936040927276
 20
346.4568406586076
 30
0.0
 11
442.7888178102444
 21
350.0485816892631
 31
0.0
  0
LINE
  5
271
330
18
100
AcDbEntity
  8
外形線
100
AcDbLine
 10
440.8046812850159
 20
342.6105570429663
 30
0.0
 11
439.3454855204916
 21
352.9932744048937
 31
0.0
  0
LINE
  5
272
330
18
100
AcDbEntity
  8
外形線
100
AcDbLine
 10
453.9742998902814
 20
345.9053547771376
 30
0.0
 11
453.7847570233926
 21
347.2540223532916
 31
0.0
  0
LINE
  5
273
330
18
100
AcDbEntity
  8
中心線
 48
0.5
100
AcDbLine
 10
436.8911655243435
 20
347.5992043614152
 30
0.0
 11
531.2084958604799
 21
360.8546406937571
 31
0.0
  0
ARC
  5
27D
330
18
100
AcDbEntity
  8
外形線
100
AcDbCircle
 10
519.3102242806808
 20
248.8438692153115
 30
0.0
 40
2.0
100
AcDbArc
 50
207.7320281488439
 51
26.47515553520022
  0
ARC
  5
280
330
18
100
AcDbEntity
  8
外形線
100
AcDbCircle
 10
458.3102242806808
 20
218.7938692153115
 30
0.0
 40
70.0
100
AcDbArc
 50
26.21879424562786
 51
70.01596942169221
  0
ARC
  5
283
330
18
100
AcDbEntity
  8
外形線
100
AcDbCircle
 10
469.3832242806807
 20
221.3438692153115
 30
0.0
 40
55.0
100
AcDbArc
 50
28.88666782296612
 51
106.0041894840002
  0
CIRCLE
  5
286
330
18
100
AcDbEntity
  8
隠れ線
 62
     4
 48
0.5
100
AcDbCircle
 10
452.8102242806808
 20
329.6338692153115
 30
0.0
 40
1.274999999999999
  0
ARC
  5
28A
330
18
100
AcDbEntity
  8
外形線
100
AcDbCircle
 10
280.6082242806808
 20
325.0548692153115
 30
0.0
 40
2.0
100
AcDbArc
 50
0.0
 51
180.0
  0
ARC
  5
28D
330
18
100
AcDbEntity
  8
外形線
100
AcDbCircle
 10
289.1082242806808
 20
316.8438692153115
 30
0.0
 40
5.5
100
AcDbArc
 50
180.0000000000035
 51
270.0000000000083
  0
ARC
  5
28F
330
18
100
AcDbEntity
  8
外形線
100
AcDbCircle
 10
290.6082242806808
 20
314.8438692153115
 30
0.0
 40
13.0
100
AcDbArc
 50
168.8133087808076
 51
249.7917752065695
  0
LINE
  5
290
330
18
100
AcDbEntity
  8
外形線
100
AcDbLine
 10
278.6082242806808
 20
325.0548692153115
 30
0.0
 11
277.8552210821957
 21
317.3659535555801
 31
0.0
  0
LINE
  5
291
330
18
100
AcDbEntity
  8
外形線
100
AcDbLine
 10
282.6082242806808
 20
325.0548692153115
 30
0.0
 11
283.6082242806808
 21
316.8438692153115
 31
0.0
  0
LINE
  5
293
330
18
100
AcDbEntity
  8
外形線
100
AcDbLine
 10
289.1082242806808
 20
311.3438692153115
 30
0.0
 11
419.3972242806808
 21
295.3438692153115
 31
0.0
  0
LINE
  5
295
330
18
100
AcDbEntity
  8
外形線
100
AcDbLine
 10
286.1175963745488
 20
302.6441044221416
 30
0.0
 11
427.0838274884838
 21
273.5290384916514
 31
0.0
  0
ARC
  5
34F
330
18
100
AcDbEntity
  8
握り
100
AcDbCircle
 10
610.3102242806809
 20
328.3438692153115
 30
0.0
 40
1.5
100
AcDbArc
 50
27.81813928465427
 51
152.1818607153457
  0
ARC
  5
350
330
18
100
AcDbEntity
  8
握り
100
AcDbCircle
 10
600.3102242806809
 20
328.3438692153115
 30
0.0
 40
1.5
100
AcDbArc
 50
27.81813928465427
 51
152.1818607153457
  0
ARC
  5
351
330
18
100
AcDbEntity
  8
握り
100
AcDbCircle
 10
590.3102242806808
 20
328.3438692153115
 30
0.0
 40
1.5
100
AcDbArc
 50
27.81813928465427
 51
152.1818607153457
  0
ARC
  5
352
330
18
100
AcDbEntity
  8
握り
100
AcDbCircle
 10
580.3102242806809
 20
328.3438692153115
 30
0.0
 40
1.5
100
AcDbArc
 50
27.81813928465427
 51
152.1818607153457
  0
ARC
  5
353
330
18
100
AcDbEntity
  8
握り
100
AcDbCircle
 10
570.3102242806809
 20
328.3438692153115
 30
0.0
 40
1.5
100
AcDbArc
 50
27.81813928465427
 51
152.1818607153457
  0
ARC
  5
354
330
18
100
AcDbEntity
  8
握り
100
AcDbCircle
 10
560.3102242806809
 20
328.3438692153115
 30
0.0
 40
1.5
100
AcDbArc
 50
27.81813928465427
 51
152.1818607153457
  0
ARC
  5
355
330
18
100
AcDbEntity
  8
握り
100
AcDbCircle
 10
550.3102242806809
 20
328.3438692153115
 30
0.0
 40
1.5
100
AcDbArc
 50
27.81813928465427
 51
152.1818607153457
  0
ARC
  5
356
330
18
100
AcDbEntity
  8
握り
100
AcDbCircle
 10
540.3102242806808
 20
328.3438692153115
 30
0.0
 40
1.5
100
AcDbArc
 50
27.81813928465427
 51
152.1818607153457
  0
ARC
  5
357
330
18
100
AcDbEntity
  8
握り
100
AcDbCircle
 10
530.3102242806809
 20
328.3438692153115
 30
0.0
 40
1.5
100
AcDbArc
 50
27.81813928465427
 51
152.1818607153457
  0
ARC
  5
358
330
18
100
AcDbEntity
  8
握り
100
AcDbCircle
 10
520.3102242806809
 20
328.3438692153115
 30
0.0
 40
1.5
100
AcDbArc
 50
27.81813928465427
 51
152.1818607153457
  0
ARC
  5
359
330
18
100
AcDbEntity
  8
握り
100
AcDbCircle
 10
515.8102242806809
 20
328.5438692153115
 30
0.0
 40
0.5
100
AcDbArc
 50
90.0
 51
180.0
  0
ARC
  5
35A
330
18
100
AcDbEntity
  8
握り
100
AcDbCircle
 10
614.8102242806809
 20
328.5438692153115
 30
0.0
 40
0.5
100
AcDbArc
 50
0.0
 51
90.0
  0
LINE
  5
35B
330
18
100
AcDbEntity
  8
握り
100
AcDbLine
 10
551.636874196823
 20
308.1905692153114
 30
0.0
 11
558.9835743645385
 21
308.1905692153114
 31
0.0
  0
LINE
  5
35C
330
18
100
AcDbEntity
  8
握り
100
AcDbLine
 10
551.6368741968232
 20
321.4971692153115
 30
0.0
 11
558.9835743645389
 21
321.4971692153115
 31
0.0
  0
LINE
  5
35D
330
18
100
AcDbEntity
  8
握り
100
AcDbLine
 10
541.6368741968231
 20
310.8438692153115
 30
0.0
 11
588.9835743645386
 21
310.8438692153115
 31
0.0
  0
LINE
  5
35E
330
18
100
AcDbEntity
  8
握り
100
AcDbLine
 10
541.6368741968231
 20
318.8438692153115
 30
0.0
 11
588.9835743645388
 21
318.8438692153115
 31
0.0
  0
LINE
  5
35F
330
18
100
AcDbEntity
  8
握り
100
AcDbLine
 10
551.636874196823
 20
300.6438692153114
 30
0.0
 11
558.9835743645387
 21
300.6438692153114
 31
0.0
  0
LINE
  5
360
330
18
100
AcDbEntity
  8
握り
100
AcDbLine
 10
551.636874196823
 20
329.0438692153115
 30
0.0
 11
558.9835743645387
 21
329.0438692153115
 31
0.0
  0
LINE
  5
361
330
18
100
AcDbEntity
  8
握り
100
AcDbLine
 10
551.6368741968229
 20
308.1905692153115
 30
0.0
 11
551.636874196823
 21
300.6438692153114
 31
0.0
  0
LINE
  5
362
330
18
100
AcDbEntity
  8
握り
100
AcDbLine
 10
548.9835743645387
 20
308.1905692153115
 30
0.0
 11
548.9835743645387
 21
300.6438692153114
 31
0.0
  0
LINE
  5
363
330
18
100
AcDbEntity
  8
握り
100
AcDbLine
 10
541.6368741968231
 20
308.1905692153116
 30
0.0
 11
541.6368741968231
 21
300.6438692153114
 31
0.0
  0
LINE
  5
364
330
18
100
AcDbEntity
  8
握り
100
AcDbLine
 10
538.9835743645387
 20
329.0438692153115
 30
0.0
 11
538.9835743645387
 21
300.6438692153114
 31
0.0
  0
LINE
  5
365
330
18
100
AcDbEntity
  8
握り
100
AcDbLine
 10
531.6368741968231
 20
329.0438692153115
 30
0.0
 11
531.6368741968231
 21
300.6438692153114
 31
0.0
  0
LINE
  5
366
330
18
100
AcDbEntity
  8
握り
100
AcDbLine
 10
528.9835743645387
 20
329.0438692153115
 30
0.0
 11
528.9835743645387
 21
300.6438692153114
 31
0.0
  0
LINE
  5
367
330
18
100
AcDbEntity
  8
握り
100
AcDbLine
 10
518.9835743645387
 20
329.0438692153115
 30
0.0
 11
518.9835743645387
 21
300.6438692153114
 31
0.0
  0
LINE
  5
368
330
18
100
AcDbEntity
  8
握り
100
AcDbLine
 10
521.636874196823
 20
329.0438692153115
 30
0.0
 11
521.636874196823
 21
300.6438692153114
 31
0.0
  0
LINE
  5
369
330
18
100
AcDbEntity
  8
握り
100
AcDbLine
 10
515.3102242806808
 20
328.5438692153115
 30
0.0
 11
515.3102242806808
 21
301.1438692153115
 31
0.0
  0
LINE
  5
36A
330
18
100
AcDbEntity
  8
握り
100
AcDbLine
 10
515.8102242806809
 20
300.6438692153115
 30
0.0
 11
518.9835743645388
 21
300.6438692153115
 31
0.0
  0
ARC
  5
36B
330
18
100
AcDbEntity
  8
握り
100
AcDbCircle
 10
515.8102242806809
 20
301.1438692153115
 30
0.0
 40
0.5
100
AcDbArc
 50
180.0
 51
270.0
  0
LINE
  5
36C
330
18
100
AcDbEntity
  8
握り
100
AcDbLine
 10
531.6368741968231
 20
300.6438692153115
 30
0.0
 11
538.9835743645387
 21
300.6438692153115
 31
0.0
  0
LINE
  5
36D
330
18
100
AcDbEntity
  8
握り
100
AcDbLine
 10
521.636874196823
 20
300.6438692153115
 30
0.0
 11
528.9835743645388
 21
300.6438692153115
 31
0.0
  0
ARC
  5
36E
330
18
100
AcDbEntity
  8
握り
100
AcDbCircle
 10
520.3102242806809
 20
301.3438692153115
 30
0.0
 40
1.5
100
AcDbArc
 50
207.8181392846543
 51
332.1818607153458
  0
ARC
  5
36F
330
18
100
AcDbEntity
  8
握り
100
AcDbCircle
 10
530.3102242806809
 20
301.3438692153115
 30
0.0
 40
1.5
100
AcDbArc
 50
207.8181392846543
 51
332.1818607153458
  0
LINE
  5
370
330
18
100
AcDbEntity
  8
握り
100
AcDbLine
 10
541.6368741968231
 20
300.6438692153115
 30
0.0
 11
548.9835743645387
 21
300.6438692153114
 31
0.0
  0
ARC
  5
371
330
18
100
AcDbEntity
  8
握り
100
AcDbCircle
 10
540.3102242806808
 20
301.3438692153115
 30
0.0
 40
1.5
100
AcDbArc
 50
207.8181392846543
 51
332.1818607153458
  0
ARC
  5
372
330
18
100
AcDbEntity
  8
握り
100
AcDbCircle
 10
550.3102242806809
 20
301.3438692153115
 30
0.0
 40
1.5
100
AcDbArc
 50
207.8181392846543
 51
332.1818607153458
  0
LINE
  5
373
330
18
100
AcDbEntity
  8
握り
100
AcDbLine
 10
515.8102242806809
 20
329.0438692153115
 30
0.0
 11
518.9835743645387
 21
329.0438692153115
 31
0.0
  0
LINE
  5
375
330
18
100
AcDbEntity
  8
握り
100
AcDbLine
 10
541.6368741968231
 20
318.8438692153115
 30
0.0
 11
541.6368741968231
 21
310.8438692153115
 31
0.0
  0
LINE
  5
376
330
18
100
AcDbEntity
  8
握り
100
AcDbLine
 10
541.6368741968231
 20
308.1905692153115
 30
0.0
 11
548.9835743645389
 21
308.1905692153114
 31
0.0
  0
LINE
  5
377
330
18
100
AcDbEntity
  8
握り
100
AcDbLine
 10
531.6368741968231
 20
329.0438692153115
 30
0.0
 11
538.9835743645387
 21
329.0438692153115
 31
0.0
  0
LINE
  5
378
330
18
100
AcDbEntity
  8
握り
100
AcDbLine
 10
521.636874196823
 20
329.0438692153115
 30
0.0
 11
528.9835743645388
 21
329.0438692153115
 31
0.0
  0
LINE
  5
379
330
18
100
AcDbEntity
  8
握り
100
AcDbLine
 10
551.636874196823
 20
329.0438692153115
 30
0.0
 11
551.6368741968232
 21
321.4971692153115
 31
0.0
  0
LINE
  5
37A
330
18
100
AcDbEntity
  8
握り
100
AcDbLine
 10
548.9835743645387
 20
329.0438692153115
 30
0.0
 11
548.9835743645389
 21
321.4971692153115
 31
0.0
  0
LINE
  5
37B
330
18
100
AcDbEntity
  8
握り
100
AcDbLine
 10
541.6368741968231
 20
329.0438692153115
 30
0.0
 11
541.6368741968231
 21
321.4971692153115
 31
0.0
  0
LINE
  5
37C
330
18
100
AcDbEntity
  8
握り
100
AcDbLine
 10
541.6368741968232
 20
321.4971692153115
 30
0.0
 11
548.9835743645389
 21
321.4971692153115
 31
0.0
  0
LINE
  5
37D
330
18
100
AcDbEntity
  8
握り
100
AcDbLine
 10
541.6368741968231
 20
329.0438692153115
 30
0.0
 11
548.9835743645387
 21
329.0438692153115
 31
0.0
  0
LINE
  5
37E
330
18
100
AcDbEntity
  8
握り
100
AcDbLine
 10
581.6368741968231
 20
308.1905692153115
 30
0.0
 11
581.6368741968231
 21
300.6438692153114
 31
0.0
  0
LINE
  5
37F
330
18
100
AcDbEntity
  8
握り
100
AcDbLine
 10
578.9835743645388
 20
308.1905692153115
 30
0.0
 11
578.9835743645387
 21
300.6438692153114
 31
0.0
  0
LINE
  5
380
330
18
100
AcDbEntity
  8
握り
100
AcDbLine
 10
571.636874196823
 20
308.1905692153115
 30
0.0
 11
571.636874196823
 21
300.6438692153114
 31
0.0
  0
LINE
  5
381
330
18
100
AcDbEntity
  8
握り
100
AcDbLine
 10
568.9835743645387
 20
308.1905692153114
 30
0.0
 11
568.9835743645387
 21
300.6438692153114
 31
0.0
  0
LINE
  5
382
330
18
100
AcDbEntity
  8
握り
100
AcDbLine
 10
561.6368741968229
 20
308.1905692153115
 30
0.0
 11
561.6368741968231
 21
300.6438692153114
 31
0.0
  0
LINE
  5
383
330
18
100
AcDbEntity
  8
握り
100
AcDbLine
 10
558.9835743645386
 20
308.1905692153115
 30
0.0
 11
558.9835743645387
 21
300.6438692153114
 31
0.0
  0
LINE
  5
384
330
18
100
AcDbEntity
  8
握り
100
AcDbLine
 10
588.9835743645386
 20
308.1905692153116
 30
0.0
 11
588.9835743645387
 21
300.6438692153114
 31
0.0
  0
LINE
  5
385
330
18
100
AcDbEntity
  8
握り
100
AcDbLine
 10
611.6368741968231
 20
329.0438692153115
 30
0.0
 11
611.6368741968231
 21
300.6438692153114
 31
0.0
  0
LINE
  5
386
330
18
100
AcDbEntity
  8
握り
100
AcDbLine
 10
608.9835743645387
 20
329.0438692153115
 30
0.0
 11
608.9835743645387
 21
300.6438692153114
 31
0.0
  0
LINE
  5
387
330
18
100
AcDbEntity
  8
握り
100
AcDbLine
 10
601.636874196823
 20
329.0438692153115
 30
0.0
 11
601.636874196823
 21
300.6438692153114
 31
0.0
  0
LINE
  5
388
330
18
100
AcDbEntity
  8
握り
100
AcDbLine
 10
598.9835743645387
 20
329.0438692153115
 30
0.0
 11
598.9835743645387
 21
300.6438692153114
 31
0.0
  0
LINE
  5
389
330
18
100
AcDbEntity
  8
握り
100
AcDbLine
 10
591.6368741968231
 20
329.0438692153115
 30
0.0
 11
591.6368741968231
 21
300.6438692153114
 31
0.0
  0
LINE
  5
38A
330
18
100
AcDbEntity
  8
握り
100
AcDbLine
 10
615.3102242806809
 20
328.5438692153115
 30
0.0
 11
615.3102242806809
 21
301.1438692153114
 31
0.0
  0
LINE
  5
38B
330
18
100
AcDbEntity
  8
握り
100
AcDbLine
 10
581.6368741968232
 20
300.6438692153115
 30
0.0
 11
588.9835743645386
 21
300.6438692153115
 31
0.0
  0
ARC
  5
38C
330
18
100
AcDbEntity
  8
握り
100
AcDbCircle
 10
570.3102242806809
 20
301.3438692153115
 30
0.0
 40
1.5
100
AcDbArc
 50
207.8181392846543
 51
332.1818607153458
  0
ARC
  5
38D
330
18
100
AcDbEntity
  8
握り
100
AcDbCircle
 10
560.3102242806809
 20
301.3438692153115
 30
0.0
 40
1.5
100
AcDbArc
 50
207.8181392846543
 51
332.1818607153458
  0
LINE
  5
38E
330
18
100
AcDbEntity
  8
握り
100
AcDbLine
 10
561.6368741968232
 20
300.6438692153114
 30
0.0
 11
568.9835743645387
 21
300.6438692153115
 31
0.0
  0
LINE
  5
38F
330
18
100
AcDbEntity
  8
握り
100
AcDbLine
 10
571.636874196823
 20
300.6438692153115
 30
0.0
 11
578.9835743645387
 21
300.6438692153115
 31
0.0
  0
ARC
  5
390
330
18
100
AcDbEntity
  8
握り
100
AcDbCircle
 10
580.3102242806809
 20
301.3438692153115
 30
0.0
 40
1.5
100
AcDbArc
 50
207.8181392846543
 51
332.1818607153458
  0
LINE
  5
391
330
18
100
AcDbEntity
  8
握り
100
AcDbLine
 10
601.6368741968232
 20
300.6438692153114
 30
0.0
 11
608.9835743645387
 21
300.6438692153114
 31
0.0
  0
LINE
  5
392
330
18
100
AcDbEntity
  8
握り
100
AcDbLine
 10
591.636874196823
 20
300.6438692153115
 30
0.0
 11
598.9835743645389
 21
300.6438692153114
 31
0.0
  0
ARC
  5
393
330
18
100
AcDbEntity
  8
握り
100
AcDbCircle
 10
590.3102242806808
 20
301.3438692153115
 30
0.0
 40
1.5
100
AcDbArc
 50
207.8181392846543
 51
332.1818607153458
  0
ARC
  5
394
330
18
100
AcDbEntity
  8
握り
100
AcDbCircle
 10
600.3102242806809
 20
301.3438692153115
 30
0.0
 40
1.5
100
AcDbArc
 50
207.8181392846543
 51
332.1818607153458
  0
LINE
  5
395
330
18
100
AcDbEntity
  8
握り
100
AcDbLine
 10
611.6368741968231
 20
300.6438692153114
 30
0.0
 11
614.8102242806809
 21
300.6438692153114
 31
0.0
  0
ARC
  5
396
330
18
100
AcDbEntity
  8
握り
100
AcDbCircle
 10
610.3102242806809
 20
301.3438692153115
 30
0.0
 40
1.5
100
AcDbArc
 50
207.8181392846543
 51
332.1818607153458
  0
ARC
  5
397
330
18
100
AcDbEntity
  8
握り
100
AcDbCircle
 10
614.8102242806809
 20
301.1438692153114
 30
0.0
 40
0.5
100
AcDbArc
 50
270.0
 51
0.0
  0
LINE
  5
398
330
18
100
AcDbEntity
  8
握り
100
AcDbLine
 10
581.6368741968231
 20
308.1905692153116
 30
0.0
 11
588.9835743645386
 21
308.1905692153116
 31
0.0
  0
LINE
  5
399
330
18
100
AcDbEntity
  8
握り
100
AcDbLine
 10
581.6368741968232
 20
321.4971692153115
 30
0.0
 11
588.9835743645386
 21
321.4971692153115
 31
0.0
  0
LINE
  5
39A
330
18
100
AcDbEntity
  8
握り
100
AcDbLine
 10
581.6368741968232
 20
329.0438692153115
 30
0.0
 11
588.9835743645386
 21
329.0438692153115
 31
0.0
  0
LINE
  5
39B
330
18
100
AcDbEntity
  8
握り
100
AcDbLine
 10
561.6368741968228
 20
308.1905692153114
 30
0.0
 11
568.9835743645387
 21
308.1905692153114
 31
0.0
  0
LINE
  5
39C
330
18
100
AcDbEntity
  8
握り
100
AcDbLine
 10
571.636874196823
 20
308.1905692153115
 30
0.0
 11
578.9835743645387
 21
308.1905692153116
 31
0.0
  0
LINE
  5
39D
330
18
100
AcDbEntity
  8
握り
100
AcDbLine
 10
568.9835743645387
 20
329.0438692153115
 30
0.0
 11
568.9835743645388
 21
321.4971692153115
 31
0.0
  0
LINE
  5
39E
330
18
100
AcDbEntity
  8
握り
100
AcDbLine
 10
561.6368741968231
 20
329.0438692153115
 30
0.0
 11
561.6368741968232
 21
321.4971692153115
 31
0.0
  0
LINE
  5
39F
330
18
100
AcDbEntity
  8
握り
100
AcDbLine
 10
558.9835743645387
 20
329.0438692153115
 30
0.0
 11
558.9835743645388
 21
321.4971692153115
 31
0.0
  0
LINE
  5
3A0
330
18
100
AcDbEntity
  8
握り
100
AcDbLine
 10
561.6368741968231
 20
321.4971692153115
 30
0.0
 11
568.9835743645388
 21
321.4971692153115
 31
0.0
  0
LINE
  5
3A1
330
18
100
AcDbEntity
  8
握り
100
AcDbLine
 10
561.6368741968232
 20
329.0438692153115
 30
0.0
 11
568.9835743645387
 21
329.0438692153115
 31
0.0
  0
LINE
  5
3A2
330
18
100
AcDbEntity
  8
握り
100
AcDbLine
 10
581.6368741968231
 20
329.0438692153115
 30
0.0
 11
581.6368741968232
 21
321.4971692153115
 31
0.0
  0
LINE
  5
3A3
330
18
100
AcDbEntity
  8
握り
100
AcDbLine
 10
578.9835743645387
 20
329.0438692153115
 30
0.0
 11
578.9835743645388
 21
321.4971692153115
 31
0.0
  0
LINE
  5
3A4
330
18
100
AcDbEntity
  8
握り
100
AcDbLine
 10
571.636874196823
 20
329.0438692153115
 30
0.0
 11
571.6368741968231
 21
321.4971692153115
 31
0.0
  0
LINE
  5
3A5
330
18
100
AcDbEntity
  8
握り
100
AcDbLine
 10
571.6368741968231
 20
321.4971692153115
 30
0.0
 11
578.9835743645387
 21
321.4971692153115
 31
0.0
  0
LINE
  5
3A6
330
18
100
AcDbEntity
  8
握り
100
AcDbLine
 10
571.636874196823
 20
329.0438692153115
 30
0.0
 11
578.9835743645387
 21
329.0438692153115
 31
0.0
  0
LINE
  5
3A7
330
18
100
AcDbEntity
  8
握り
100
AcDbLine
 10
588.9835743645388
 20
318.8438692153115
 30
0.0
 11
588.9835743645386
 21
310.8438692153115
 31
0.0
  0
LINE
  5
3A8
330
18
100
AcDbEntity
  8
握り
100
AcDbLine
 10
601.6368741968232
 20
329.0438692153114
 30
0.0
 11
608.9835743645387
 21
329.0438692153114
 31
0.0
  0
LINE
  5
3A9
330
18
100
AcDbEntity
  8
握り
100
AcDbLine
 10
588.9835743645387
 20
329.0438692153115
 30
0.0
 11
588.9835743645387
 21
321.4971692153115
 31
0.0
  0
LINE
  5
3AA
330
18
100
AcDbEntity
  8
握り
100
AcDbLine
 10
591.636874196823
 20
329.0438692153115
 30
0.0
 11
598.9835743645389
 21
329.0438692153114
 31
0.0
  0
LINE
  5
3AB
330
18
100
AcDbEntity
  8
握り
100
AcDbLine
 10
611.6368741968231
 20
329.0438692153114
 30
0.0
 11
614.8102242806809
 21
329.0438692153115
 31
0.0
  0
TEXT
  5
3FE
330
18
100
AcDbEntity
  8
文字
100
AcDbText
 10
572.085560612472
 20
313.4130167258472
 30
0.0
 40
3.0
  1
LA-5
  7
STYLE3
100
AcDbText
  0
LINE
  5
3FF
102
{ACAD_REACTORS
330
43D
102
}
330
18
100
AcDbEntity
  8
ROGO
 62
     4
100
AcDbLine
 10
546.2380209201243
 20
316.4157155057723
 30
0.0
 11
548.5415899386745
 21
316.4157155057723
 31
0.0
  0
LINE
  5
400
102
{ACAD_REACTORS
330
43B
330
43C
330
43D
102
}
330
18
100
AcDbEntity
  8
ROGO
 62
     4
100
AcDbLine
 10
544.7876630057062
 20
313.4844600987638
 30
0.0
 11
564.6293448157401
 21
313.4844600987638
 31
0.0
  0
LINE
  5
401
102
{ACAD_REACTORS
330
43D
102
}
330
18
100
AcDbEntity
  8
ROGO
 62
     4
100
AcDbLine
 10
546.2380209201243
 20
316.4157155057723
 30
0.0
 11
544.7876630057062
 21
313.4844600987637
 31
0.0
  0
SPLINE
  5
402
102
{ACAD_REACTORS
330
43D
102
}
330
18
100
AcDbEntity
  8
ROGO
 62
     4
100
AcDbSpline
210
0.0
220
0.0
230
1.0
 70
     8
 71
     3
 72
    18
 73
    14
 74
     0
 42
0.0000000001
 43
0.0000000001
 40
0.1087402787915014
 40
0.1087402787915014
 40
0.1087402787915014
 40
0.1087402787915014
 40
0.5992371417938475
 40
1.083176791562496
 40
1.448211145705696
 40
1.714037220764907
 40
2.164002567013297
 40
2.740236056362883
 40
3.395137510199602
 40
4.071816045172726
 40
4.784906178399433
 40
5.506895915094292
 40
6.060470601257719
 40
6.060470601257719
 40
6.060470601257719
 40
6.060470601257719
 10
548.5415899386745
 20
316.4157155057724
 30
0.0
 10
548.6153892781545
 20
316.3886692845613
 30
0.0
 10
548.7605149179411
 20
316.3314894398252
 30
0.0
 10
548.9376366830084
 20
316.2009861401232
 30
0.0
 10
549.034231245758
 20
316.0503307441622
 30
0.0
 10
549.1271444008195
 20
315.9018868265867
 30
0.0
 10
549.1401474272637
 20
315.6889189206489
 30
0.0
 10
549.1188475914821
 20
315.4196758698321
 30
0.0
 10
548.9813377759447
 20
315.1387485305168
 30
0.0
 10
548.7606264344
 20
314.8930384865142
 30
0.0
 10
548.4865979014101
 20
314.6963753717403
 30
0.0
 10
548.1976253612567
 20
314.5419998910327
 30
0.0
 10
547.991067708323
 20
314.5404617187347
 30
0.0
 10
547.901424969902
 20
314.5397941764044
 30
0.0
  0
LINE
  5
403
102
{ACAD_REACTORS
330
43D
102
}
330
18
100
AcDbEntity
  8
ROGO
 62
     4
100
AcDbLine
 10
547.9014249703436
 20
314.5397941764045
 30
0.0
 11
546.6276988725133
 21
314.5397941764045
 31
0.0
  0
LINE
  5
404
102
{ACAD_REACTORS
330
43D
102
}
330
18
100
AcDbEntity
  8
ROGO
 62
     4
100
AcDbLine
 10
547.1482164277526
 20
315.6902913468961
 30
0.0
 11
546.9225052900991
 21
315.1914032256313
 31
0.0
  0
SPLINE
  5
405
102
{ACAD_REACTORS
330
43D
102
}
330
18
100
AcDbEntity
  8
ROGO
 62
     4
100
AcDbSpline
210
0.0
220
0.0
230
1.0
 70
     8
 71
     3
 72
    15
 73
    11
 74
     9
 42
0.0000000001
 43
0.0000000001
 44
0.0000000001
 40
0.0
 40
0.0
 40
0.0
 40
0.0
 40
0.2199578613106558
 40
0.3202465475123651
 40
0.4340808827708152
 40
0.5116301246390283
 40
0.634275054953107
 40
0.7077360179240892
 40
0.8337709579493377
 40
0.875782631437913
 40
0.875782631437913
 40
0.875782631437913
 40
0.875782631437913
 10
547.7281978550347
 20
315.690291346896
 30
0.0
 10
547.8108097622621
 20
315.690669753528
 30
0.0
 10
547.9310881552023
 20
315.6912206927704
 30
0.0
 10
547.9968606642944
 20
315.5424359728713
 30
0.0
 10
547.9673782896753
 20
315.4466418233893
 30
0.0
 10
547.9303165419264
 20
315.3482910887495
 30
0.0
 10
547.8648200397231
 20
315.2814602812219
 30
0.0
 10
547.7769141403014
 20
315.2170909474547
 30
0.0
 10
547.6938388645079
 20
315.2092987513699
 30
0.0
 10
547.6398077231181
 20
315.1949823321495
 30
0.0
 10
547.6262999313049
 20
315.1914032256312
 30
0.0
 11
547.7281978550347
 21
315.690291346896
 31
0.0
 11
547.9421836706473
 21
315.6393842602676
 31
0.0
 11
547.9829429573258
 21
315.5477518362599
 31
0.0
 11
547.9625636069532
 21
315.4357565776008
 31
0.0
 11
547.9319942884277
 21
315.364486656321
 31
0.0
 11
547.8504757150704
 21
315.2728542323132
 31
0.0
 11
547.7893370780193
 21
315.2321285630106
 31
0.0
 11
547.6670592179836
 21
315.2015846429569
 31
0.0
 11
547.6262999313049
 21
315.1914032256312
 31
0.0
  0
LINE
  5
406
102
{ACAD_REACTORS
330
43D
102
}
330
18
100
AcDbEntity
  8
ROGO
 62
     4
100
AcDbLine
 10
547.7281978550347
 20
315.6902913468961
 30
0.0
 11
547.1482164277526
 21
315.6902913468961
 31
0.0
  0
LINE
  5
407
102
{ACAD_REACTORS
330
43D
102
}
330
18
100
AcDbEntity
  8
ROGO
 62
     4
100
AcDbLine
 10
547.6262999313051
 20
315.1914032256312
 30
0.0
 11
546.9225052900992
 21
315.1914032256313
 31
0.0
  0
LINE
  5
408
102
{ACAD_REACTORS
330
43B
330
43D
102
}
330
18
100
AcDbEntity
  8
ROGO
 62
     4
100
AcDbLine
 10
546.6276988725133
 20
314.5397941764045
 30
0.0
 11
546.1502357999012
 21
313.4844600987638
 31
0.0
  0
LINE
  5
409
102
{ACAD_REACTORS
330
438
102
}
330
18
100
AcDbEntity
  8
ROGO
 62
     4
100
AcDbLine
 10
549.9024813575395
 20
316.4157155057723
 30
0.0
 11
548.9742929300253
 21
314.5397941764045
 31
0.0
  0
LINE
  5
40A
102
{ACAD_REACTORS
330
438
102
}
330
18
100
AcDbEntity
  8
ROGO
 62
     4
100
AcDbLine
 10
552.439742998231
 20
316.4157155057723
 30
0.0
 11
552.2271227186101
 21
315.9859978904979
 31
0.0
  0
LINE
  5
40B
102
{ACAD_REACTORS
330
438
102
}
330
18
100
AcDbEntity
  8
ROGO
 62
     4
100
AcDbLine
 10
548.9742929300251
 20
314.5397941764045
 30
0.0
 11
551.5115545707166
 21
314.5397941764045
 31
0.0
  0
LINE
  5
40C
102
{ACAD_REACTORS
330
438
102
}
330
18
100
AcDbEntity
  8
ROGO
 62
     4
100
AcDbLine
 10
550.8936021154417
 20
315.9859978904979
 30
0.0
 11
550.7273594781894
 21
315.6500121145205
 31
0.0
  0
LINE
  5
40D
102
{ACAD_REACTORS
330
438
102
}
330
18
100
AcDbEntity
  8
ROGO
 62
     4
100
AcDbLine
 10
550.8936021154417
 20
315.9859978904979
 30
0.0
 11
552.2271227186101
 21
315.9859978904979
 31
0.0
  0
LINE
  5
40E
102
{ACAD_REACTORS
330
438
102
}
330
18
100
AcDbEntity
  8
ROGO
 62
     4
100
AcDbLine
 10
550.7273594781894
 20
315.6500121145205
 30
0.0
 11
552.060880081358
 21
315.6500121145205
 31
0.0
  0
LINE
  5
40F
102
{ACAD_REACTORS
330
438
102
}
330
18
100
AcDbEntity
  8
ROGO
 62
     4
100
AcDbLine
 10
550.390643552132
 20
314.9694901764044
 30
0.0
 11
551.7241641553006
 21
314.9694901764044
 31
0.0
  0
LINE
  5
410
102
{ACAD_REACTORS
330
438
102
}
330
18
100
AcDbEntity
  8
ROGO
 62
     4
100
AcDbLine
 10
550.5568932272983
 20
315.3054901764045
 30
0.0
 11
551.8904138304669
 21
315.3054901764045
 31
0.0
  0
LINE
  5
411
102
{ACAD_REACTORS
330
438
102
}
330
18
100
AcDbEntity
  8
ROGO
 62
     4
100
AcDbLine
 10
552.060880081358
 20
315.6500121145205
 30
0.0
 11
551.8904138304669
 21
315.3054901764045
 31
0.0
  0
LINE
  5
412
102
{ACAD_REACTORS
330
438
102
}
330
18
100
AcDbEntity
  8
ROGO
 62
     4
100
AcDbLine
 10
551.7241641553006
 20
314.9694901764044
 30
0.0
 11
551.5115545707166
 21
314.5397941764045
 31
0.0
  0
LINE
  5
413
102
{ACAD_REACTORS
330
438
102
}
330
18
100
AcDbEntity
  8
ROGO
 62
     4
100
AcDbLine
 10
550.5568932272983
 20
315.3054901764045
 30
0.0
 11
550.390643552132
 21
314.9694901764044
 31
0.0
  0
LINE
  5
414
102
{ACAD_REACTORS
330
441
102
}
330
18
100
AcDbEntity
  8
ROGO
 62
     4
100
AcDbLine
 10
553.1747348056562
 20
316.4157155057723
 30
0.0
 11
551.8219714769432
 21
314.5397941764045
 31
0.0
  0
LINE
  5
415
102
{ACAD_REACTORS
330
441
102
}
330
18
100
AcDbEntity
  8
ROGO
 62
     4
100
AcDbLine
 10
553.85206031513
 20
315.9142741101269
 30
0.0
 11
553.3901078346826
 21
315.2736694361
 31
0.0
  0
LINE
  5
416
102
{ACAD_REACTORS
330
441
102
}
330
18
100
AcDbEntity
  8
ROGO
 62
     4
100
AcDbLine
 10
553.1184538901896
 20
314.8969579908199
 30
0.0
 11
554.3039924455958
 21
314.8969579908199
 31
0.0
  0
LINE
  5
417
102
{ACAD_REACTORS
330
441
102
}
330
18
100
AcDbEntity
  8
ROGO
 62
     4
100
AcDbLine
 10
553.3901078346826
 20
315.2736694361
 30
0.0
 11
554.1366422947378
 21
315.2736694361
 31
0.0
  0
LINE
  5
418
102
{ACAD_REACTORS
330
441
102
}
330
18
100
AcDbEntity
  8
ROGO
 62
     4
100
AcDbLine
 10
553.1184538901896
 20
314.8969579908199
 30
0.0
 11
552.8608961222168
 21
314.5397941764045
 31
0.0
  0
LINE
  5
419
102
{ACAD_REACTORS
330
441
102
}
330
18
100
AcDbEntity
  8
ROGO
 62
     4
100
AcDbLine
 10
551.8219714769432
 20
314.5397941764045
 30
0.0
 11
552.8608961222168
 21
314.5397941764045
 31
0.0
  0
LINE
  5
41A
102
{ACAD_REACTORS
330
441
102
}
330
18
100
AcDbEntity
  8
ROGO
 62
     4
100
AcDbLine
 10
553.1747348056562
 20
316.4157155057723
 30
0.0
 11
554.6753112096154
 21
316.4157155057723
 31
0.0
  0
LINE
  5
41B
102
{ACAD_REACTORS
330
441
102
}
330
18
100
AcDbEntity
  8
ROGO
 62
     4
100
AcDbLine
 10
555.5086697958773
 20
314.5397941764045
 30
0.0
 11
554.4626587642657
 21
314.5397941764045
 31
0.0
  0
LINE
  5
41C
102
{ACAD_REACTORS
330
439
102
}
330
18
100
AcDbEntity
  8
ROGO
 62
     4
100
AcDbLine
 10
556.0224118173141
 20
314.5397941764045
 30
0.0
 11
557.638167553035
 21
314.5397941764045
 31
0.0
  0
LINE
  5
41D
102
{ACAD_REACTORS
330
439
102
}
330
18
100
AcDbEntity
  8
ROGO
 62
     4
100
AcDbLine
 10
558.5735625144767
 20
316.4157155057723
 30
0.0
 11
558.2255349422759
 21
315.7177511454625
 31
0.0
  0
LINE
  5
41E
102
{ACAD_REACTORS
330
439
102
}
330
18
100
AcDbEntity
  8
ROGO
 62
     4
100
AcDbLine
 10
557.0515821946314
 20
315.7177511454625
 30
0.0
 11
558.2255349422759
 21
315.7177511454626
 31
0.0
  0
LINE
  5
41F
102
{ACAD_REACTORS
330
439
102
}
330
18
100
AcDbEntity
  8
ROGO
 62
     4
100
AcDbLine
 10
556.7866471241874
 20
315.2377511454625
 30
0.0
 11
557.9861914397191
 21
315.2377511454625
 31
0.0
  0
SPLINE
  5
420
102
{ACAD_REACTORS
330
439
102
}
330
18
100
AcDbEntity
  8
ROGO
 62
     4
100
AcDbSpline
210
0.0
220
0.0
230
1.0
 70
     8
 71
     3
 72
    26
 73
    22
 74
    20
 42
0.0000000001
 43
0.0000000001
 44
0.0000000001
 40
0.0
 40
0.0
 40
0.0
 40
0.0
 40
0.3403136209417982
 40
0.5681272389515159
 40
0.7323994099697078
 40
0.8550561247337057
 40
1.014148321321447
 40
1.13027011535643
 40
1.339959009791999
 40
1.510642755247373
 40
1.626735051276186
 40
1.740569491433665
 40
1.944197174100541
 40
2.088186249714737
 40
2.16573549158295
 40
2.275891898886404
 40
2.355438312276705
 40
2.470674802865115
 40
2.535888688806235
 40
2.677801419664453
 40
2.742600005358966
 40
2.742600005358966
 40
2.742600005358966
 40
2.742600005358966
 10
556.6949391686107
 20
316.4157155057723
 30
0.0
 10
556.579431467527
 20
316.4088241182508
 30
0.0
 10
556.3866003045756
 20
316.3973194803984
 30
0.0
 10
556.1748728607016
 20
316.2686973320292
 30
0.0
 10
556.0197489401154
 20
316.1939220672543
 30
0.0
 10
555.909114748081
 20
316.0922714652264
 30
0.0
 10
555.8280194368416
 20
315.9872738187673
 30
0.0
 10
555.7257835729879
 20
315.8621698928736
 30
0.0
 10
555.6424131474082
 20
315.7164914336389
 30
0.0
 10
555.5999576580751
 20
315.5559283749768
 30
0.0
 10
555.5623509885697
 20
315.427958685607
 30
0.0
 10
555.5344612528942
 20
315.2853531671893
 30
0.0
 10
555.5415571911981
 20
315.1312890413002
 30
0.0
 10
555.5517188996045
 20
314.9882021684376
 30
0.0
 10
555.5970884566391
 20
314.8860595642568
 30
0.0
 10
555.6487563457674
 20
314.8133410686432
 30
0.0
 10
555.7120229684174
 20
314.7332497076452
 30
0.0
 10
555.781250488871
 20
314.680205458602
 30
0.0
 10
555.8385072990288
 20
314.5841122369726
 30
0.0
 10
555.9387334136896
 20
314.5718500488637
 30
0.0
 10
556.0024411195122
 20
314.5474446347538
 30
0.0
 10
556.0224118173143
 20
314.5397941764044
 30
0.0
 11
556.6949391686107
 21
316.4157155057723
 31
0.0
 11
556.3586754929623
 21
316.3633695313527
 31
0.0
 11
556.1548790595695
 21
316.2615556900193
 31
0.0
 11
556.0122218491612
 21
316.1801046833372
 31
0.0
 11
555.9205138935843
 21
316.0986533447318
 31
0.0
 11
555.8186159698546
 21
315.9764766687469
 31
0.0
 11
555.7472873646505
 21
315.8848442447392
 31
0.0
 11
555.6453888549873
 21
315.7015790648003
 31
0.0
 11
555.5944401860891
 21
315.5386767195128
 31
0.0
 11
555.5638708675636
 21
315.4266814608537
 31
0.0
 11
555.5434909312575
 21
315.3146862021945
 31
0.0
 11
555.5434909312575
 21
315.1110585195277
 31
0.0
 11
555.5638708675636
 21
314.9685190088915
 31
0.0
 11
555.5944401860891
 21
314.8972490876118
 31
0.0
 11
555.6555788231402
 21
314.805616663604
 31
0.0
 11
555.7065280779719
 21
314.7445281596499
 31
0.0
 11
555.7880460653956
 21
314.6630771529678
 31
0.0
 11
555.8288053520742
 21
314.6121700663394
 31
0.0
 11
555.9612731802629
 21
314.5612633116344
 31
0.0
 11
556.0224118173143
 21
314.5397941764044
 31
0.0
  0
SPLINE
  5
421
102
{ACAD_REACTORS
330
439
102
}
330
18
100
AcDbEntity
  8
ROGO
 62
     4
100
AcDbSpline
210
0.0
220
0.0
230
1.0
 70
     8
 71
     3
 72
    16
 73
    12
 74
    10
 42
0.0000000001
 43
0.0000000001
 44
0.0000000001
 40
0.0
 40
0.0
 40
0.0
 40
0.0
 40
0.1794152893756658
 40
0.2670467197814556
 40
0.3102605435414121
 40
0.3558008766977565
 40
0.4210145035340276
 40
0.4803947587045229
 40
0.5423269814405317
 40
0.646160827944346
 40
0.7489346372632694
 40
0.7489346372632694
 40
0.7489346372632694
 40
0.7489346372632694
 10
557.0515821946314
 20
315.7177511454625
 30
0.0
 10
556.9908240408865
 20
315.7084881550282
 30
0.0
 10
556.9003899105844
 20
315.6947008617632
 30
0.0
 10
556.8186102657405
 20
315.6299649946551
 30
0.0
 10
556.7724922241342
 20
315.5914514627744
 30
0.0
 10
556.7568026609181
 20
315.5404486139427
 30
0.0
 10
556.7146654211169
 20
315.5012862553203
 30
0.0
 10
556.6799323498636
 20
315.447464568583
 30
0.0
 10
556.6716388797755
 20
315.3735396100699
 30
0.0
 10
556.6777264767006
 20
315.2697971970166
 30
0.0
 10
556.7504646403707
 20
315.2483965627319
 30
0.0
 10
556.7866471241875
 20
315.2377511454625
 30
0.0
 11
557.0515821946314
 21
315.7177511454625
 31
0.0
 11
556.8783556656975
 21
315.6710348128233
 31
0.0
 11
556.8070270604933
 21
315.6201280581182
 31
0.0
 11
556.7764577419678
 21
315.5895838061411
 31
0.0
 11
556.7560778056619
 21
315.5488581368384
 31
0.0
 11
556.7153185189832
 21
315.4979513821335
 31
0.0
 11
556.6847492004576
 21
315.4470442955051
 31
0.0
 11
556.6745592323046
 21
315.3859561234743
 31
0.0
 11
556.6949391686106
 21
315.2841419502176
 31
0.0
 11
556.7866471241875
 21
315.2377511454625
 31
0.0
  0
LINE
  5
422
102
{ACAD_REACTORS
330
439
102
}
330
18
100
AcDbEntity
  8
ROGO
 62
     4
100
AcDbLine
 10
557.9861914397191
 20
315.2377511454625
 30
0.0
 11
557.638167553035
 21
314.5397941764044
 31
0.0
  0
LINE
  5
423
102
{ACAD_REACTORS
330
439
102
}
330
18
100
AcDbEntity
  8
ROGO
 62
     4
100
AcDbLine
 10
556.6949391686113
 20
316.4157155057724
 30
0.0
 11
558.5735625144768
 21
316.4157155057724
 31
0.0
  0
LINE
  5
424
102
{ACAD_REACTORS
330
43A
102
}
330
18
100
AcDbEntity
  8
ROGO
 62
     4
100
AcDbLine
 10
562.0667972043539
 20
314.5397941764044
 30
0.0
 11
563.6825529400748
 21
314.5397941764044
 31
0.0
  0
LINE
  5
425
102
{ACAD_REACTORS
330
43A
102
}
330
18
100
AcDbEntity
  8
ROGO
 62
     4
100
AcDbLine
 10
562.739324555651
 20
316.4157155057723
 30
0.0
 11
564.6179479015167
 21
316.4157155057723
 31
0.0
  0
SPLINE
  5
426
102
{ACAD_REACTORS
330
43A
102
}
330
18
100
AcDbEntity
  8
ROGO
 62
     4
100
AcDbSpline
210
0.0
220
0.0
230
1.0
 70
     8
 71
     3
 72
    16
 73
    12
 74
    10
 42
0.0000000001
 43
0.0000000001
 44
0.0000000001
 40
0.0
 40
0.0
 40
0.0
 40
0.0
 40
0.1794152893756658
 40
0.2670467197815217
 40
0.3102605435413978
 40
0.3558008766977931
 40
0.4210145035340376
 40
0.4803947587045328
 40
0.5423269814405045
 40
0.6461608279444525
 40
0.7489346372632488
 40
0.7489346372632488
 40
0.7489346372632488
 40
0.7489346372632488
 10
563.0959675816712
 20
315.7177511454625
 30
0.0
 10
563.0352094279264
 20
315.7084881550283
 30
0.0
 10
562.9447752976243
 20
315.6947008617632
 30
0.0
 10
562.8629956527801
 20
315.629964994655
 30
0.0
 10
562.816877611174
 20
315.5914514627743
 30
0.0
 10
562.8011880479577
 20
315.5404486139427
 30
0.0
 10
562.7590508081566
 20
315.5012862553201
 30
0.0
 10
562.7243177369035
 20
315.4474645685829
 30
0.0
 10
562.7160242668152
 20
315.3735396100699
 30
0.0
 10
562.7221118637406
 20
315.2697971970166
 30
0.0
 10
562.7948500274104
 20
315.2483965627318
 30
0.0
 10
562.8310325112273
 20
315.2377511454624
 30
0.0
 11
563.0959675816712
 21
315.7177511454625
 31
0.0
 11
562.9227410527374
 21
315.6710348128233
 31
0.0
 11
562.8514124475332
 21
315.6201280581182
 31
0.0
 11
562.8208431290077
 21
315.5895838061411
 31
0.0
 11
562.8004631927016
 21
315.5488581368384
 31
0.0
 11
562.7597039060231
 21
315.4979513821334
 31
0.0
 11
562.7291345874974
 21
315.447044295505
 31
0.0
 11
562.7189446193443
 21
315.3859561234743
 31
0.0
 11
562.7393245556504
 21
315.2841419502175
 31
0.0
 11
562.8310325112273
 21
315.2377511454624
 31
0.0
  0
SPLINE
  5
427
102
{ACAD_REACTORS
330
43A
102
}
330
18
100
AcDbEntity
  8
ROGO
 62
     4
100
AcDbSpline
210
0.0
220
0.0
230
1.0
 70
     8
 71
     3
 72
    26
 73
    22
 74
    20
 42
0.0000000001
 43
0.0000000001
 44
0.0000000001
 40
0.0
 40
0.0
 40
0.0
 40
0.0
 40
0.3403136209416859
 40
0.5681272389515052
 40
0.7323994099695983
 40
0.8550561247335963
 40
1.014148321321381
 40
1.13027011535639
 40
1.339959009792003
 40
1.510642755247356
 40
1.626735051276114
 40
1.740569491433573
 40
1.94419717410045
 40
2.088186249714629
 40
2.165735491582895
 40
2.275891898886364
 40
2.355438312276665
 40
2.470674802864995
 40
2.535888688806186
 40
2.677801419664424
 40
2.74260000535881
 40
2.74260000535881
 40
2.74260000535881
 40
2.74260000535881
 10
562.7393245556504
 20
316.4157155057723
 30
0.0
 10
562.6238168545666
 20
316.4088241182507
 30
0.0
 10
562.4309856916152
 20
316.3973194803983
 30
0.0
 10
562.2192582477414
 20
316.2686973320292
 30
0.0
 10
562.0641343271552
 20
316.1939220672544
 30
0.0
 10
561.9535001351209
 20
316.0922714652264
 30
0.0
 10
561.8724048238815
 20
315.9872738187672
 30
0.0
 10
561.7701689600278
 20
315.8621698928739
 30
0.0
 10
561.6867985344478
 20
315.7164914336386
 30
0.0
 10
561.6443430451149
 20
315.5559283749769
 30
0.0
 10
561.6067363756094
 20
315.4279586856069
 30
0.0
 10
561.5788466399339
 20
315.2853531671892
 30
0.0
 10
561.5859425782382
 20
315.1312890413003
 30
0.0
 10
561.5961042866444
 20
314.9882021684376
 30
0.0
 10
561.6414738436787
 20
314.8860595642567
 30
0.0
 10
561.6931417328074
 20
314.8133410686434
 30
0.0
 10
561.7564083554571
 20
314.7332497076452
 30
0.0
 10
561.8256358759106
 20
314.6802054586019
 30
0.0
 10
561.8828926860686
 20
314.5841122369726
 30
0.0
 10
561.9831188007293
 20
314.5718500488637
 30
0.0
 10
562.0468265065519
 20
314.5474446347537
 30
0.0
 10
562.0667972043539
 20
314.5397941764044
 30
0.0
 11
562.7393245556504
 21
316.4157155057723
 31
0.0
 11
562.4030608800021
 21
316.3633695313527
 31
0.0
 11
562.1992644466092
 21
316.2615556900193
 31
0.0
 11
562.0566072362009
 21
316.1801046833372
 31
0.0
 11
561.9648992806242
 21
316.0986533447318
 31
0.0
 11
561.8630013568945
 21
315.9764766687469
 31
0.0
 11
561.7916727516902
 21
315.8848442447392
 31
0.0
 11
561.6897742420271
 21
315.7015790648002
 31
0.0
 11
561.6388255731289
 21
315.5386767195127
 31
0.0
 11
561.6082562546033
 21
315.4266814608537
 31
0.0
 11
561.5878763182974
 21
315.3146862021945
 31
0.0
 11
561.5878763182974
 21
315.1110585195277
 31
0.0
 11
561.6082562546033
 21
314.9685190088915
 31
0.0
 11
561.6388255731289
 21
314.8972490876117
 31
0.0
 11
561.69996421018
 21
314.805616663604
 31
0.0
 11
561.7509134650117
 21
314.7445281596499
 31
0.0
 11
561.8324314524353
 21
314.6630771529678
 31
0.0
 11
561.8731907391141
 21
314.6121700663394
 31
0.0
 11
562.0056585673028
 21
314.5612633116343
 31
0.0
 11
562.0667972043539
 21
314.5397941764044
 31
0.0
  0
LINE
  5
428
102
{ACAD_REACTORS
330
43A
102
}
330
18
100
AcDbEntity
  8
ROGO
 62
     4
100
AcDbLine
 10
564.0305768267588
 20
315.2377511454625
 30
0.0
 11
563.6825529400748
 21
314.5397941764044
 31
0.0
  0
LINE
  5
429
102
{ACAD_REACTORS
330
43A
102
}
330
18
100
AcDbEntity
  8
ROGO
 62
     4
100
AcDbLine
 10
562.8310325112271
 20
315.2377511454625
 30
0.0
 11
564.0305768267588
 21
315.2377511454625
 31
0.0
  0
LINE
  5
42A
102
{ACAD_REACTORS
330
43A
102
}
330
18
100
AcDbEntity
  8
ROGO
 62
     4
100
AcDbLine
 10
563.0959675816711
 20
315.7177511454625
 30
0.0
 11
564.2699203293156
 21
315.7177511454625
 31
0.0
  0
LINE
  5
42B
102
{ACAD_REACTORS
330
43A
102
}
330
18
100
AcDbEntity
  8
ROGO
 62
     4
100
AcDbLine
 10
564.6179479015167
 20
316.4157155057723
 30
0.0
 11
564.2699203293156
 21
315.7177511454625
 31
0.0
  0
LINE
  5
42C
102
{ACAD_REACTORS
330
43C
102
}
330
18
100
AcDbEntity
  8
ROGO
 62
     4
100
AcDbLine
 10
565.0108438002625
 20
316.4157155057723
 30
0.0
 11
566.0909634324114
 21
316.4157155057723
 31
0.0
  0
LINE
  5
42D
102
{ACAD_REACTORS
330
43B
330
43C
102
}
330
18
100
AcDbEntity
  8
ROGO
 62
     4
100
AcDbLine
 10
565.0108438002625
 20
316.4157155057723
 30
0.0
 11
563.5492251835914
 21
313.4844600987638
 31
0.0
  0
LINE
  5
42E
102
{ACAD_REACTORS
330
43C
102
}
330
18
100
AcDbEntity
  8
ROGO
 62
     4
100
AcDbLine
 10
566.0909634324114
 20
316.4157155057723
 30
0.0
 11
565.9313844225242
 21
316.0956820645986
 31
0.0
  0
LINE
  5
42F
102
{ACAD_REACTORS
330
43C
102
}
330
18
100
AcDbEntity
  8
ROGO
 62
     4
100
AcDbLine
 10
565.9313844225242
 20
316.0956820645986
 30
0.0
 11
566.4371173983512
 21
316.4157155057723
 31
0.0
  0
LINE
  5
430
102
{ACAD_REACTORS
330
43C
102
}
330
18
100
AcDbEntity
  8
ROGO
 62
     4
100
AcDbLine
 10
565.0108438002625
 20
314.2495509017917
 30
0.0
 11
565.392342784785
 21
313.4844600987638
 31
0.0
  0
LINE
  5
431
102
{ACAD_REACTORS
330
43C
102
}
330
18
100
AcDbEntity
  8
ROGO
 62
     4
100
AcDbLine
 10
565.7416294764494
 20
314.950087802268
 30
0.0
 11
566.4724387847849
 21
313.4844600987638
 31
0.0
  0
LINE
  5
432
102
{ACAD_REACTORS
330
43C
102
}
330
18
100
AcDbEntity
  8
ROGO
 62
     4
100
AcDbLine
 10
565.0108438002625
 20
314.2495509017917
 30
0.0
 11
564.6293448157401
 21
313.4844600987638
 31
0.0
  0
LINE
  5
433
102
{ACAD_REACTORS
330
43C
102
}
330
18
100
AcDbEntity
  8
ROGO
 62
     4
100
AcDbLine
 10
565.7416294764494
 20
314.950087802268
 30
0.0
 11
567.5172133983511
 21
316.4157155057723
 31
0.0
  0
LINE
  5
434
102
{ACAD_REACTORS
330
43C
102
}
330
18
100
AcDbEntity
  8
ROGO
 62
     4
100
AcDbLine
 10
566.4371173983512
 20
316.4157155057723
 30
0.0
 11
567.5172133983511
 21
316.4157155057723
 31
0.0
  0
LINE
  5
435
102
{ACAD_REACTORS
330
43C
102
}
330
18
100
AcDbEntity
  8
ROGO
 62
     4
100
AcDbLine
 10
565.392342784785
 20
313.4844600987638
 30
0.0
 11
566.4724387847849
 21
313.4844600987638
 31
0.0
  0
LINE
  5
436
102
{ACAD_REACTORS
330
438
102
}
330
18
100
AcDbEntity
  8
ROGO
 62
     4
100
AcDbLine
 10
549.9024813575395
 20
316.4157155057723
 30
0.0
 11
552.439742998231
 21
316.4157155057724
 31
0.0
  0
LINE
  5
437
102
{ACAD_REACTORS
330
43B
102
}
330
18
100
AcDbEntity
  8
ROGO
 62
     4
100
AcDbLine
 10
546.262789497766
 20
313.7782746791799
 30
0.0
 11
563.6957306227143
 21
313.7782746791799
 31
0.0
  0
HATCH
  5
438
330
18
100
AcDbEntity
  8
ROGO
 62
     4
100
AcDbHatch
 10
0.0
 20
0.0
 30
0.0
210
0.0
220
0.0
230
1.0
  2
SOLID
 70
     1
 71
     1
 91
        1
 92
        1
 93
       12
 72
     1
 10
549.9024813575395
 20
316.4157155057723
 11
552.439742998231
 21
316.4157155057724
 72
     1
 10
552.439742998231
 20
316.4157155057723
 11
552.2271227186101
 21
315.9859978904979
 72
     1
 10
552.2271227186101
 20
315.9859978904979
 11
550.8936021154417
 21
315.9859978904979
 72
     1
 10
550.8936021154417
 20
315.9859978904979
 11
550.7273594781894
 21
315.6500121145205
 72
     1
 10
550.7273594781894
 20
315.6500121145205
 11
552.060880081358
 21
315.6500121145205
 72
     1
 10
552.060880081358
 20
315.6500121145205
 11
551.8904138304669
 21
315.3054901764045
 72
     1
 10
551.8904138304669
 20
315.3054901764045
 11
550.5568932272983
 21
315.3054901764045
 72
     1
 10
550.5568932272983
 20
315.3054901764045
 11
550.390643552132
 21
314.9694901764044
 72
     1
 10
550.390643552132
 20
314.9694901764044
 11
551.7241641553006
 21
314.9694901764044
 72
     1
 10
551.7241641553006
 20
314.9694901764044
 11
551.5115545707166
 21
314.5397941764045
 72
     1
 10
551.5115545707166
 20
314.5397941764045
 11
548.9742929300251
 21
314.5397941764045
 72
     1
 10
548.9742929300253
 20
314.5397941764045
 11
549.9024813575395
 21
316.4157155057723
 97
       12
330
436
330
40A
330
40D
330
40C
330
40E
330
411
330
410
330
413
330
40F
330
412
330
40B
330
409
 75
     0
 76
     1
 98
        1
 10
446.1165828165268
 20
186.7041497227561
450
        0
451
        0
460
0.0
461
0.0
452
        0
462
0.0
453
        0
470

  0
HATCH
  5
439
330
18
100
AcDbEntity
  8
ROGO
 62
     4
100
AcDbHatch
 10
0.0
 20
0.0
 30
0.0
210
0.0
220
0.0
230
1.0
  2
SOLID
 70
     1
 71
     1
 91
        1
 92
        5
 93
        8
 72
     1
 10
558.2255349422759
 20
315.7177511454625
 11
558.5735625144767
 21
316.4157155057724
 72
     1
 10
558.5735625144767
 20
316.4157155057724
 11
556.6949391686107
 21
316.4157155057723
 72
     4
 94
        3
 73
     0
 74
     0
 95
       26
 96
       22
 40
0.0
 40
0.0
 40
0.0
 40
0.0
 40
0.3403136209417982
 40
0.5681272389515159
 40
0.7323994099697078
 40
0.8550561247337057
 40
1.014148321321447
 40
1.13027011535643
 40
1.339959009791999
 40
1.510642755247373
 40
1.626735051276186
 40
1.740569491433665
 40
1.944197174100541
 40
2.088186249714737
 40
2.16573549158295
 40
2.275891898886404
 40
2.355438312276705
 40
2.470674802865115
 40
2.535888688806235
 40
2.677801419664453
 40
2.742600005358966
 40
2.742600005358966
 40
2.742600005358966
 40
2.742600005358966
 10
556.6949391686107
 20
316.4157155057723
 10
556.5794314675269
 20
316.4088241182507
 10
556.3866003045754
 20
316.3973194803983
 10
556.1748728607016
 20
316.2686973320292
 10
556.0197489401154
 20
316.1939220672542
 10
555.909114748081
 20
316.0922714652264
 10
555.8280194368416
 20
315.9872738187673
 10
555.7257835729879
 20
315.8621698928737
 10
555.6424131474082
 20
315.7164914336388
 10
555.599957658075
 20
315.5559283749767
 10
555.5623509885699
 20
315.427958685607
 10
555.534461252894
 20
315.2853531671893
 10
555.5415571911981
 20
315.1312890413001
 10
555.5517188996045
 20
314.9882021684376
 10
555.5970884566391
 20
314.8860595642568
 10
555.6487563457674
 20
314.8133410686434
 10
555.7120229684175
 20
314.7332497076452
 10
555.781250488871
 20
314.680205458602
 10
555.8385072990288
 20
314.5841122369725
 10
555.9387334136896
 20
314.5718500488638
 10
556.0024411195122
 20
314.5474446347537
 10
556.0224118173143
 20
314.5397941764044
 72
     1
 10
556.0224118173141
 20
314.5397941764045
 11
557.638167553035
 21
314.5397941764044
 72
     1
 10
557.638167553035
 20
314.5397941764044
 11
557.9861914397191
 21
315.2377511454625
 72
     1
 10
557.9861914397191
 20
315.2377511454625
 11
556.7866471241877
 21
315.2377511454625
 72
     4
 94
        3
 73
     0
 74
     0
 95
       16
 96
       12
 40
0.0
 40
0.0
 40
0.0
 40
0.0
 40
0.1027738093189234
 40
0.2066076558227377
 40
0.2685398785587465
 40
0.3279201337292418
 40
0.3931337605655129
 40
0.4386740937218573
 40
0.4818879174818138
 40
0.5695193478876036
 40
0.7489346372632694
 40
0.7489346372632694
 40
0.7489346372632694
 40
0.7489346372632694
 10
556.7866471241875
 20
315.2377511454625
 10
556.7504646403707
 20
315.2483965627319
 10
556.6777264767006
 20
315.2697971970166
 10
556.6716388797755
 20
315.3735396100699
 10
556.6799323498636
 20
315.447464568583
 10
556.7146654211169
 20
315.5012862553203
 10
556.7568026609181
 20
315.5404486139427
 10
556.7724922241342
 20
315.5914514627744
 10
556.8186102657405
 20
315.629964994655
 10
556.9003899105844
 20
315.6947008617631
 10
556.9908240408865
 20
315.7084881550282
 10
557.0515821946314
 20
315.7177511454625
 72
     1
 10
557.0515821946314
 20
315.7177511454625
 11
558.2255349422759
 21
315.7177511454625
 97
        8
330
423
330
420
330
41C
330
422
330
41F
330
421
330
41E
330
41D
 75
     0
 76
     1
 47
0.0514683685270805
 98
        1
 10
557.3519633074777
 20
315.9981134252766
450
        0
451
        0
460
0.0
461
0.0
452
        0
462
0.0
453
        0
470

  0
HATCH
  5
43A
330
18
100
AcDbEntity
  8
ROGO
 62
     4
100
AcDbHatch
 10
0.0
 20
0.0
 30
0.0
210
0.0
220
0.0
230
1.0
  2
SOLID
 70
     1
 71
     1
 91
        1
 92
        5
 93
        8
 72
     4
 94
        3
 73
     0
 74
     0
 95
       26
 96
       22
 40
0.0
 40
0.0
 40
0.0
 40
0.0
 40
0.3403136209416859
 40
0.5681272389515052
 40
0.7323994099695983
 40
0.8550561247335963
 40
1.014148321321381
 40
1.13027011535639
 40
1.339959009792003
 40
1.510642755247356
 40
1.626735051276114
 40
1.740569491433573
 40
1.94419717410045
 40
2.088186249714629
 40
2.165735491582895
 40
2.275891898886364
 40
2.355438312276665
 40
2.470674802864995
 40
2.535888688806186
 40
2.677801419664424
 40
2.74260000535881
 40
2.74260000535881
 40
2.74260000535881
 40
2.74260000535881
 10
562.7393245556504
 20
316.4157155057723
 10
562.6238168545666
 20
316.4088241182507
 10
562.4309856916152
 20
316.3973194803983
 10
562.2192582477415
 20
316.2686973320293
 10
562.0641343271552
 20
316.1939220672543
 10
561.9535001351209
 20
316.0922714652264
 10
561.8724048238814
 20
315.9872738187672
 10
561.7701689600279
 20
315.8621698928739
 10
561.6867985344478
 20
315.7164914336386
 10
561.6443430451148
 20
315.5559283749769
 10
561.6067363756094
 20
315.4279586856069
 10
561.5788466399338
 20
315.2853531671892
 10
561.5859425782382
 20
315.1312890413003
 10
561.5961042866444
 20
314.9882021684376
 10
561.6414738436787
 20
314.8860595642567
 10
561.6931417328076
 20
314.8133410686435
 10
561.7564083554571
 20
314.7332497076452
 10
561.8256358759106
 20
314.680205458602
 10
561.8828926860686
 20
314.5841122369725
 10
561.9831188007293
 20
314.5718500488637
 10
562.0468265065519
 20
314.5474446347537
 10
562.0667972043539
 20
314.5397941764044
 72
     1
 10
562.0667972043539
 20
314.5397941764044
 11
563.6825529400747
 21
314.5397941764044
 72
     1
 10
563.6825529400747
 20
314.5397941764044
 11
564.0305768267588
 21
315.2377511454625
 72
     1
 10
564.0305768267588
 20
315.2377511454625
 11
562.8310325112273
 21
315.2377511454625
 72
     4
 94
        3
 73
     0
 74
     0
 95
       16
 96
       12
 40
0.0
 40
0.0
 40
0.0
 40
0.0
 40
0.1027738093187964
 40
0.2066076558227444
 40
0.268539878558716
 40
0.3279201337292112
 40
0.3931337605654557
 40
0.4386740937218511
 40
0.4818879174817272
 40
0.569519347887583
 40
0.7489346372632488
 40
0.7489346372632488
 40
0.7489346372632488
 40
0.7489346372632488
 10
562.8310325112273
 20
315.2377511454624
 10
562.7948500274104
 20
315.2483965627318
 10
562.7221118637406
 20
315.2697971970166
 10
562.7160242668152
 20
315.3735396100698
 10
562.7243177369035
 20
315.4474645685829
 10
562.7590508081566
 20
315.5012862553202
 10
562.8011880479577
 20
315.5404486139427
 10
562.816877611174
 20
315.5914514627743
 10
562.8629956527801
 20
315.6299649946549
 10
562.9447752976242
 20
315.6947008617632
 10
563.0352094279263
 20
315.7084881550282
 10
563.0959675816712
 20
315.7177511454625
 72
     1
 10
563.0959675816711
 20
315.7177511454625
 11
564.2699203293156
 21
315.7177511454625
 72
     1
 10
564.2699203293156
 20
315.7177511454625
 11
564.6179479015167
 21
316.4157155057723
 72
     1
 10
564.6179479015167
 20
316.4157155057723
 11
562.7393245556505
 21
316.4157155057723
 97
        8
330
425
330
427
330
424
330
428
330
429
330
426
330
42A
330
42B
 75
     0
 76
     1
 47
0.0514683685270805
 98
        1
 10
563.063492312343
 20
316.0722279298022
450
        0
451
        0
460
0.0
461
0.0
452
        0
462
0.0
453
        0
470

  0
HATCH
  5
43B
330
18
100
AcDbEntity
  8
ROGO
 62
     4
100
AcDbHatch
 10
0.0
 20
0.0
 30
0.0
210
0.0
220
0.0
230
1.0
  2
SOLID
 70
     1
 71
     1
 91
        1
 92
        7
 72
     0
 73
     1
 93
        4
 10
546.283165850504
 20
313.7782746791799
 10
546.1502357999012
 20
313.4844600987638
 10
563.5492251835914
 20
313.4844600987638
 10
563.6957306227144
 20
313.7782746791799
 97
        4
330
437
330
408
330
400
330
42D
 75
     0
 76
     1
 47
0.0514683685270805
 98
        1
 10
557.2777876517729
 20
313.7005654446015
450
        0
451
        0
460
0.0
461
0.0
452
        0
462
0.0
453
        0
470

  0
HATCH
  5
43C
330
18
100
AcDbEntity
  8
ROGO
 62
     4
100
AcDbHatch
 10
0.0
 20
0.0
 30
0.0
210
0.0
220
0.0
230
1.0
  2
SOLID
 70
     1
 71
     1
 91
        1
 92
        7
 72
     0
 73
     1
 93
       11
 10
563.5492251835914
 20
313.4844600987638
 10
564.6293448157401
 20
313.4844600987638
 10
565.0108438002624
 20
314.2495509017917
 10
565.3923427847849
 20
313.4844600987638
 10
566.4724387847849
 20
313.4844600987638
 10
565.7416294764494
 20
314.950087802268
 10
567.5172133983511
 20
316.4157155057723
 10
566.4371173983511
 20
316.4157155057723
 10
565.9313844225244
 20
316.0956820645986
 10
566.0909634324114
 20
316.4157155057722
 10
565.0108438002625
 20
316.4157155057723
 97
       11
330
434
330
42F
330
42E
330
42C
330
42D
330
400
330
432
330
430
330
435
330
431
330
433
 75
     0
 76
     1
 47
0.0514683685270805
 98
        1
 10
564.9178848768285
 20
315.1581498151416
450
        0
451
        0
460
0.0
461
0.0
452
        0
462
0.0
453
        0
470

  0
HATCH
  5
43D
330
18
100
AcDbEntity
  8
ROGO
 62
     4
100
AcDbHatch
 10
0.0
 20
0.0
 30
0.0
210
0.0
220
0.0
230
1.0
  2
SOLID
 70
     1
 71
     1
 91
        2
 92
        5
 93
        6
 72
     1
 10
544.7876630057062
 20
313.4844600987638
 11
546.1502357999012
 21
313.4844600987637
 72
     1
 10
546.1502357999012
 20
313.4844600987637
 11
546.6276988725133
 21
314.5397941764045
 72
     1
 10
546.6276988725133
 20
314.5397941764045
 11
547.9014249699024
 21
314.5397941764045
 72
     4
 94
        3
 73
     0
 74
     0
 95
       18
 96
       14
 40
0.108740278791501
 40
0.108740278791501
 40
0.108740278791501
 40
0.108740278791501
 40
0.6623149649549278
 40
1.384304701649787
 40
2.097394834876493
 40
2.774073369849618
 40
3.428974823686337
 40
4.005208313035923
 40
4.455173659284313
 40
4.720999734343524
 40
5.086034088486724
 40
5.569973738255373
 40
6.060470601257719
 40
6.060470601257719
 40
6.060470601257719
 40
6.060470601257719
 10
547.901424969902
 20
314.5397941764044
 10
547.991067708323
 20
314.5404617187347
 10
548.1976253612567
 20
314.5419998910327
 10
548.4865979014101
 20
314.6963753717403
 10
548.7606264344
 20
314.8930384865142
 10
548.9813377759447
 20
315.1387485305168
 10
549.1188475914821
 20
315.4196758698321
 10
549.1401474272637
 20
315.6889189206489
 10
549.1271444008195
 20
315.9018868265867
 10
549.034231245758
 20
316.0503307441622
 10
548.9376366830084
 20
316.2009861401232
 10
548.7605149179411
 20
316.3314894398252
 10
548.6153892781545
 20
316.3886692845613
 10
548.5415899386745
 20
316.4157155057724
 72
     1
 10
548.5415899386745
 20
316.4157155057723
 11
546.2380209201243
 21
316.4157155057723
 72
     1
 10
546.2380209201243
 20
316.4157155057723
 11
544.7876630057062
 21
313.4844600987638
 97
        6
330
402
330
3FF
330
401
330
400
330
408
330
403
 92
       20
 93
        4
 72
     1
 10
546.9225052900991
 20
315.1914032256314
 11
547.1482164277526
 21
315.6902913468961
 72
     1
 10
547.1482164277526
 20
315.6902913468961
 11
547.7281978550341
 21
315.6902913468961
 72
     4
 94
        3
 73
     0
 74
     0
 95
       15
 96
       11
 40
0.0
 40
0.0
 40
0.0
 40
0.0
 40
0.2199578613106558
 40
0.3202465475123651
 40
0.4340808827708152
 40
0.5116301246390283
 40
0.634275054953107
 40
0.7077360179240892
 40
0.8337709579493377
 40
0.875782631437913
 40
0.875782631437913
 40
0.875782631437913
 40
0.875782631437913
 10
547.7281978550347
 20
315.690291346896
 10
547.8108097622621
 20
315.6906697535281
 10
547.9310881552023
 20
315.6912206927705
 10
547.9968606642944
 20
315.5424359728713
 10
547.9673782896753
 20
315.4466418233893
 10
547.9303165419264
 20
315.3482910887495
 10
547.8648200397231
 20
315.281460281222
 10
547.7769141403014
 20
315.2170909474547
 10
547.6938388645079
 20
315.2092987513699
 10
547.6398077231181
 20
315.1949823321495
 10
547.6262999313049
 20
315.1914032256312
 72
     1
 10
547.6262999313051
 20
315.1914032256312
 11
546.9225052900991
 21
315.1914032256314
 97
        4
330
404
330
406
330
405
330
407
 75
     0
 76
     1
 47
0.0514683685270805
 98
        2
 10
546.2503331391342
 20
315.5040172816452
 10
546.2503331391342
 20
315.5040172816452
450
        0
451
        0
460
0.0
461
0.0
452
        0
462
0.0
453
        0
470

  0
LINE
  5
43E
102
{ACAD_REACTORS
330
441
102
}
330
18
100
AcDbEntity
  8
ROGO
 62
     4
100
AcDbLine
 10
554.6753112096154
 20
316.4157155057723
 30
0.0
 11
555.5086697958773
 21
314.5397941764045
 31
0.0
  0
LINE
  5
43F
102
{ACAD_REACTORS
330
441
102
}
330
18
100
AcDbEntity
  8
ROGO
 62
     4
100
AcDbLine
 10
553.8520603151302
 20
315.9142741101269
 30
0.0
 11
554.1366422947378
 21
315.2736694361
 31
0.0
  0
LINE
  5
440
102
{ACAD_REACTORS
330
441
102
}
330
18
100
AcDbEntity
  8
ROGO
 62
     4
100
AcDbLine
 10
554.3039924455958
 20
314.8969579908199
 30
0.0
 11
554.4626587642657
 21
314.5397941764045
 31
0.0
  0
HATCH
  5
441
330
18
100
AcDbEntity
  8
ROGO
 62
     4
100
AcDbHatch
 10
0.0
 20
0.0
 30
0.0
210
0.0
220
0.0
230
1.0
  2
SOLID
 70
     1
 71
     1
 91
        2
 92
        7
 72
     0
 73
     1
 93
        8
 10
554.6753112096154
 20
316.4157155057724
 10
553.1747348056561
 20
316.4157155057722
 10
551.8219714769432
 20
314.5397941764045
 10
552.8608961222167
 20
314.5397941764044
 10
553.1184538901896
 20
314.8969579908199
 10
554.3039924455956
 20
314.8969579908199
 10
554.4626587642658
 20
314.5397941764045
 10
555.5086697958773
 20
314.5397941764047
 97
        8
330
41A
330
414
330
419
330
418
330
416
330
440
330
41B
330
43E
 92
       22
 72
     0
 73
     1
 93
        3
 10
554.1366422947378
 20
315.2736694361
 10
553.3901078346824
 20
315.2736694361
 10
553.8520603151302
 20
315.914274110127
 97
        3
330
417
330
415
330
43F
 75
     0
 76
     1
 47
0.0128389261915577
 98
        2
 10
554.5578042203358
 20
315.9656556246166
 10
554.5578042203358
 20
315.9656556246166
450
        0
451
        0
460
0.0
461
0.0
452
        0
462
0.0
453
        0
470

  0
SPLINE
  5
442
102
{ACAD_REACTORS
330
449
102
}
330
18
100
AcDbEntity
  8
ROGO
 62
     4
100
AcDbSpline
210
0.0
220
0.0
230
1.0
 70
     8
 71
     3
 72
    38
 73
    34
 74
    32
 42
0.0000000001
 43
0.0000000001
 44
0.0000000001
 40
0.0
 40
0.0
 40
0.0
 40
0.0
 40
0.2582400211805774
 40
0.3393418442955424
 40
0.443552172800835
 40
0.530394283206717
 40
0.6036667919818254
 40
0.7009894053152177
 40
0.7507174249931042
 40
0.8067242281503032
 40
0.8892677166883521
 40
0.9827715778106668
 40
1.043426616793024
 40
1.109318337455068
 40
1.182564491755753
 40
1.293719242428883
 40
1.399327847180614
 40
1.448424760475743
 40
1.50441322219426
 40
1.570741059842362
 40
1.617957956886697
 40
1.657539314700464
 40
1.714052551848318
 40
1.776150918813051
 40
1.838248940024221
 40
1.892584795022379
 40
2.017023561310864
 40
2.066120474605993
 40
2.164314359515976
 40
2.251113385583432
 40
2.417283613623161
 40
2.622320469312984
 40
2.918423525691272
 40
2.918423525691272
 40
2.918423525691272
 40
2.918423525691272
 10
559.6153129716807
 20
316.4235401045899
 30
0.0
 10
559.5292338322154
 20
316.4174592201601
 30
0.0
 10
559.4161210241852
 20
316.4094685976071
 30
0.0
 10
559.2724942063145
 20
316.3701191316
 30
0.0
 10
559.1942016999703
 20
316.3232412466601
 30
0.0
 10
559.1127226980884
 20
316.2887837542307
 30
0.0
 10
559.0432542603958
 20
316.2377590410177
 30
0.0
 10
558.9729884022585
 20
316.2114664978841
 30
0.0
 10
558.9237860974361
 20
316.1640563430661
 30
0.0
 10
558.8668384429604
 20
316.1350961742447
 30
0.0
 10
558.8214900146242
 20
316.0702748970813
 30
0.0
 10
558.7708033338647
 20
316.0096693518549
 30
0.0
 10
558.7120004075687
 20
315.9654300067443
 30
0.0
 10
558.6637400567695
 20
315.9189657510836
 30
0.0
 10
558.6194678954493
 20
315.8472574436782
 30
0.0
 10
558.5932656489189
 20
315.7519783369843
 30
0.0
 10
558.5194059140485
 20
315.6918225451485
 30
0.0
 10
558.5082849505011
 20
315.6194973341826
 30
0.0
 10
558.467430878793
 20
315.5768266767673
 30
0.0
 10
558.4496660995703
 20
315.5217449882174
 30
0.0
 10
558.4429004165362
 20
315.4712804320448
 30
0.0
 10
558.4347799836186
 20
315.4241500300045
 30
0.0
 10
558.4135384690006
 20
315.3745709289503
 30
0.0
 10
558.4204717726597
 20
315.313327673329
 30
0.0
 10
558.4184966825996
 20
315.2540237961483
 30
0.0
 10
558.4196590254186
 20
315.1739617152747
 30
0.0
 10
558.4154639692096
 20
315.0960114339613
 30
0.0
 10
558.4489178985172
 20
315.0111830394349
 30
0.0
 10
558.4687148236638
 20
314.9355702613398
 30
0.0
 10
558.5229319235836
 20
314.8308752009807
 30
0.0
 10
558.6164552847519
 20
314.7100797385392
 30
0.0
 10
558.7942977790627
 20
314.5634569338354
 30
0.0
 10
558.9652985370045
 20
314.5485827328106
 30
0.0
 10
559.066335883762
 20
314.5397941764044
 30
0.0
 11
559.6153129716807
 21
316.4235401045899
 31
0.0
 11
559.3589463474703
 21
316.3924907482308
 31
0.0
 11
559.2812595101444
 21
316.3692042495918
 31
0.0
 11
559.1880356715615
 21
316.3226305608065
 31
0.0
 11
559.1103488342356
 21
316.283819383988
 31
0.0
 11
559.0481996085137
 21
316.2450078614158
 31
0.0
 11
558.9627442705594
 21
316.1984345183842
 31
0.0
 11
558.9239005467227
 21
316.1673855077786
 31
0.0
 11
558.8772883222577
 21
316.1363361514195
 31
0.0
 11
558.8229075971643
 21
316.0742381302083
 31
0.0
 11
558.7607583714424
 21
316.0043779427841
 31
0.0
 11
558.7141461469773
 21
315.9655664202119
 31
0.0
 11
558.6675345328595
 21
315.9189930771803
 31
0.0
 11
558.6286908090229
 21
315.8568950559691
 31
0.0
 11
558.5820791949053
 21
315.7559855121858
 31
0.0
 11
558.519929358836
 21
315.6706006465821
 31
0.0
 11
558.5043923575792
 21
315.6240269577969
 31
0.0
 11
558.4733177447183
 21
315.5774536147652
 31
0.0
 11
558.4500116324858
 21
315.5153552478005
 31
0.0
 11
558.4422425215101
 21
315.4687819047689
 31
0.0
 11
558.4344740208816
 21
315.4299703821968
 31
0.0
 11
558.4189370196249
 21
315.3756348729521
 31
0.0
 11
558.4189370196249
 21
315.3135365059874
 31
0.0
 11
558.4189370196249
 21
315.2514384847762
 31
0.0
 11
558.4189370196249
 21
315.197102629778
 31
0.0
 11
558.4267055202533
 21
315.0729065873556
 31
0.0
 11
558.4422425215101
 21
315.0263328985705
 31
0.0
 11
558.4733177447183
 21
314.9331858667537
 31
0.0
 11
558.5121608582077
 21
314.855563167363
 31
0.0
 11
558.6131538077661
 21
314.7236049587275
 31
0.0
 11
558.7762959830465
 21
314.5994085705516
 31
0.0
 11
559.066335883762
 21
314.5397941764044
 31
0.0
  0
SPLINE
  5
443
102
{ACAD_REACTORS
330
449
102
}
330
18
100
AcDbEntity
  8
ROGO
 62
     4
100
AcDbSpline
210
0.0
220
0.0
230
1.0
 70
     8
 71
     3
 72
    25
 73
    21
 74
     0
 42
0.0000000001
 43
0.0000000001
 40
0.0
 40
0.0
 40
0.0
 40
0.0
 40
0.4087168505087288
 40
0.6887487002771746
 40
0.9415836120477687
 40
1.17452070575514
 40
1.41154617586699
 40
1.599156012919487
 40
1.80099909059943
 40
2.178735911501585
 40
2.521686161369157
 40
2.762704659361267
 40
3.06256558063785
 40
3.222432137207705
 40
3.399493810628493
 40
3.567459719866414
 40
3.743172740007509
 40
3.995988754699505
 40
4.17170091132118
 40
4.337226830236035
 40
4.337226830236035
 40
4.337226830236035
 40
4.337226830236035
 10
560.6873898619455
 20
316.4235401045899
 30
0.0
 10
560.7577042196963
 20
316.4212809767954
 30
0.0
 10
560.87619437358
 20
316.4174740103583
 30
0.0
 10
561.0034081716101
 20
316.3180415969648
 30
0.0
 10
561.1007484869806
 20
316.2356045079433
 30
0.0
 10
561.1698418510671
 20
316.1359419274659
 30
0.0
 10
561.2304041205564
 20
316.0443074936414
 30
0.0
 10
561.2703100645124
 20
315.9475626155471
 30
0.0
 10
561.3245900326192
 20
315.8314776219229
 30
0.0
 10
561.3470592578295
 20
315.6761731470214
 30
0.0
 10
561.3318786244914
 20
315.5156516426707
 30
0.0
 10
561.292264259495
 20
315.3733640945229
 30
0.0
 10
561.2507119756379
 20
315.2642044300312
 30
0.0
 10
561.2017376628988
 20
315.1691741700446
 30
0.0
 10
561.1433540238929
 20
315.1076420693318
 30
0.0
 10
561.1028498016943
 20
315.029404603121
 30
0.0
 10
561.0250463720982
 20
314.9654105561589
 30
0.0
 10
560.9619747152317
 20
314.8864508840818
 30
0.0
 10
560.8904015200321
 20
314.8186789578838
 30
0.0
 10
560.8500482353123
 20
314.7768644961384
 30
0.0
 10
560.828773010464
 20
314.7592834333589
 30
0.0
  0
LINE
  5
444
102
{ACAD_REACTORS
330
449
102
}
330
18
100
AcDbEntity
  8
ROGO
 62
     4
100
AcDbLine
 10
559.6153129716807
 20
316.4235401045899
 30
0.0
 11
560.6873898619455
 21
316.4235401045899
 31
0.0
  0
LINE
  5
445
102
{ACAD_REACTORS
330
449
102
}
330
18
100
AcDbEntity
  8
ROGO
 62
     4
100
AcDbLine
 10
559.066335883762
 20
314.5397941764044
 30
0.0
 11
560.1384127740267
 21
314.5397941764044
 31
0.0
  0
SPLINE
  5
446
102
{ACAD_REACTORS
330
449
102
}
330
18
100
AcDbEntity
  8
ROGO
 62
     4
100
AcDbSpline
210
0.0
220
0.0
230
1.0
 70
     8
 71
     3
 72
    11
 73
     7
 74
     0
 42
0.0000000001
 43
0.0000000001
 40
0.1647869275458134
 40
0.1647869275458134
 40
0.1647869275458134
 40
0.1647869275458134
 40
0.2895635144633836
 40
0.5387013147903714
 40
0.7953622617455423
 40
0.8850764140209602
 40
0.8850764140209602
 40
0.8850764140209602
 40
0.8850764140209602
 10
560.4955805720525
 20
314.5816176719882
 30
0.0
 10
560.4756112251941
 20
314.5760591966789
 30
0.0
 10
560.4136954945739
 20
314.5661626398448
 30
0.0
 10
560.3098401129479
 20
314.5525735050257
 30
0.0
 10
560.211130767096
 20
314.5383927470477
 30
0.0
 10
560.1533726316266
 20
314.539505868343
 30
0.0
 10
560.1384127740268
 20
314.5397941764044
 30
0.0
  0
SPLINE
  5
447
102
{ACAD_REACTORS
330
449
102
}
330
18
100
AcDbEntity
  8
ROGO
 62
     4
100
AcDbSpline
210
0.0
220
0.0
230
1.0
 70
     8
 71
     3
 72
     9
 73
     5
 74
     3
 42
0.0000000001
 43
0.0000000001
 44
0.0000000001
 40
0.0
 40
0.0
 40
0.0
 40
0.0
 40
0.1622561919360204
 40
0.3804197703110171
 40
0.3804197703110171
 40
0.3804197703110171
 40
0.3804197703110171
 10
560.4955805720525
 20
314.5816176719882
 30
0.0
 10
560.5477019553639
 20
314.5975638715928
 30
0.0
 10
560.6699037920458
 20
314.6349507319555
 30
0.0
 10
560.7708705023842
 20
314.7139683287762
 30
0.0
 10
560.828773010464
 20
314.7592834333589
 30
0.0
 11
560.4955805720525
 21
314.5816176719882
 31
0.0
 11
560.648081663802
 21
314.6370296638021
 31
0.0
 11
560.828773010464
 21
314.7592834333589
 31
0.0
  0
ELLIPSE
  5
448
102
{ACAD_REACTORS
330
449
102
}
330
18
100
AcDbEntity
  8
ROGO
 62
     4
100
AcDbEllipse
 10
559.8616821068675
 20
315.4554029728485
 30
0.0
 11
0.2546924415247531
 21
0.2239701316915159
 31
0.0
210
0.0
220
0.0
230
1.0
 40
0.6788083417438792
 41
0.0
 42
6.283185307179586
  0
HATCH
  5
449
330
18
100
AcDbEntity
  8
ROGO
 62
     4
100
AcDbHatch
 10
0.0
 20
0.0
 30
0.0
210
0.0
220
0.0
230
1.0
  2
SOLID
 70
     1
 71
     1
 91
        2
 92
        5
 93
        6
 72
     4
 94
        3
 73
     0
 74
     0
 95
       38
 96
       34
 40
0.0
 40
0.0
 40
0.0
 40
0.0
 40
0.2582400211805774
 40
0.3393418442955424
 40
0.443552172800835
 40
0.530394283206717
 40
0.6036667919818254
 40
0.7009894053152177
 40
0.7507174249931042
 40
0.8067242281503032
 40
0.8892677166883521
 40
0.9827715778106668
 40
1.043426616793024
 40
1.109318337455068
 40
1.182564491755753
 40
1.293719242428883
 40
1.399327847180614
 40
1.448424760475743
 40
1.50441322219426
 40
1.570741059842362
 40
1.617957956886697
 40
1.657539314700464
 40
1.714052551848318
 40
1.776150918813051
 40
1.838248940024221
 40
1.892584795022379
 40
2.017023561310864
 40
2.066120474605993
 40
2.164314359515976
 40
2.251113385583432
 40
2.417283613623161
 40
2.622320469312984
 40
2.918423525691272
 40
2.918423525691272
 40
2.918423525691272
 40
2.918423525691272
 10
559.6153129716807
 20
316.4235401045899
 10
559.5292338322154
 20
316.41745922016
 10
559.4161210241854
 20
316.409468597607
 10
559.2724942063145
 20
316.3701191316
 10
559.1942016999703
 20
316.3232412466601
 10
559.1127226980884
 20
316.2887837542308
 10
559.0432542603958
 20
316.2377590410177
 10
558.9729884022585
 20
316.211466497884
 10
558.923786097436
 20
316.1640563430661
 10
558.8668384429605
 20
316.1350961742448
 10
558.8214900146243
 20
316.0702748970813
 10
558.7708033338647
 20
316.0096693518549
 10
558.7120004075687
 20
315.9654300067442
 10
558.6637400567695
 20
315.9189657510836
 10
558.6194678954493
 20
315.8472574436783
 10
558.5932656489189
 20
315.7519783369844
 10
558.5194059140485
 20
315.6918225451485
 10
558.5082849505011
 20
315.6194973341826
 10
558.4674308787931
 20
315.5768266767674
 10
558.4496660995704
 20
315.5217449882173
 10
558.4429004165362
 20
315.4712804320449
 10
558.4347799836186
 20
315.4241500300045
 10
558.4135384690006
 20
315.3745709289503
 10
558.4204717726597
 20
315.313327673329
 10
558.4184966825996
 20
315.2540237961484
 10
558.4196590254186
 20
315.1739617152747
 10
558.4154639692099
 20
315.0960114339613
 10
558.4489178985172
 20
315.0111830394349
 10
558.4687148236639
 20
314.9355702613398
 10
558.5229319235836
 20
314.8308752009806
 10
558.6164552847519
 20
314.7100797385393
 10
558.7942977790627
 20
314.5634569338353
 10
558.9652985370045
 20
314.5485827328106
 10
559.066335883762
 20
314.5397941764044
 72
     1
 10
559.0663358837617
 20
314.5397941764044
 11
560.1384127740264
 21
314.5397941764044
 72
     4
 94
        3
 73
     0
 74
     0
 95
       11
 96
        7
 40
0.1647869275458135
 40
0.1647869275458135
 40
0.1647869275458135
 40
0.1647869275458135
 40
0.2545010798212315
 40
0.5111620267764023
 40
0.7602998271033902
 40
0.8850764140209603
 40
0.8850764140209603
 40
0.8850764140209603
 40
0.8850764140209603
 10
560.1384127740268
 20
314.5397941764044
 10
560.1533726316266
 20
314.539505868343
 10
560.211130767096
 20
314.5383927470477
 10
560.3098401129479
 20
314.5525735050257
 10
560.4136954945739
 20
314.5661626398448
 10
560.4756112251941
 20
314.5760591966789
 10
560.4955805720525
 20
314.5816176719882
 72
     4
 94
        3
 73
     0
 74
     0
 95
        9
 96
        5
 40
0.0
 40
0.0
 40
0.0
 40
0.0
 40
0.1622561919360204
 40
0.3804197703110171
 40
0.3804197703110171
 40
0.3804197703110171
 40
0.3804197703110171
 10
560.4955805720525
 20
314.5816176719882
 10
560.5477019553639
 20
314.5975638715928
 10
560.6699037920458
 20
314.6349507319555
 10
560.7708705023842
 20
314.7139683287762
 10
560.828773010464
 20
314.7592834333589
 72
     4
 94
        3
 73
     0
 74
     0
 95
       25
 96
       21
 40
0.0
 40
0.0
 40
0.0
 40
0.0
 40
0.165525918914855
 40
0.3412380755365305
 40
0.5940540902285263
 40
0.7697671103696209
 40
0.9377330196075423
 40
1.11479469302833
 40
1.274661249598185
 40
1.574522170874768
 40
1.815540668866877
 40
2.15849091873445
 40
2.536227739636605
 40
2.738070817316548
 40
2.925680654369045
 40
3.162706124480894
 40
3.395643218188267
 40
3.648478129958861
 40
3.928509979727306
 40
4.337226830236035
 40
4.337226830236035
 40
4.337226830236035
 40
4.337226830236035
 10
560.828773010464
 20
314.7592834333589
 10
560.8500482353123
 20
314.7768644961384
 10
560.8904015200321
 20
314.8186789578838
 10
560.9619747152317
 20
314.8864508840818
 10
561.0250463720982
 20
314.9654105561589
 10
561.1028498016943
 20
315.029404603121
 10
561.1433540238929
 20
315.1076420693318
 10
561.2017376628988
 20
315.1691741700446
 10
561.2507119756379
 20
315.2642044300312
 10
561.292264259495
 20
315.3733640945229
 10
561.3318786244914
 20
315.5156516426707
 10
561.3470592578295
 20
315.6761731470214
 10
561.3245900326192
 20
315.8314776219229
 10
561.2703100645124
 20
315.9475626155471
 10
561.2304041205564
 20
316.0443074936414
 10
561.1698418510671
 20
316.1359419274659
 10
561.1007484869806
 20
316.2356045079433
 10
561.0034081716101
 20
316.3180415969648
 10
560.87619437358
 20
316.4174740103583
 10
560.7577042196963
 20
316.4212809767954
 10
560.6873898619455
 20
316.4235401045899
 72
     1
 10
560.6873898619453
 20
316.4235401045899
 11
559.6153129716806
 21
316.4235401045899
 97
        6
330
443
330
444
330
442
330
445
330
446
330
447
 92
       20
 93
        1
 72
     3
 10
559.8616821068675
 20
315.4554029728485
 11
0.2546924415247531
 21
0.2239701316915159
 40
0.6788083417438792
 50
0.0
 51
360.0
 73
     1
 97
        1
330
448
 75
     0
 76
     1
 47
0.088756267210375
 98
        2
 10
559.9365839293941
 20
315.9032419304542
 10
559.9365839293941
 20
315.9032419304542
450
        0
451
        0
460
0.0
461
0.0
452
        0
462
0.0
453
        0
470

  0
CIRCLE
  5
44B
330
18
100
AcDbEntity
  8
外形線
100
AcDbCircle
 10
455.3102242806808
 20
314.8438692153115
 30
0.0
 40
9.0
  0
CIRCLE
  5
44C
330
18
100
AcDbEntity
  8
外形線
100
AcDbCircle
 10
455.3102242806808
 20
314.8438692153115
 30
0.0
 40
10.0
  0
LINE
  5
44D
330
18
100
AcDbEntity
  8
隠れ線2
100
AcDbLine
 10
456.358749791681
 20
300.883188921974
 30
0.0
 11
468.8720118863692
 21
301.3524362505248
 31
0.0
  0
LINE
  5
44F
330
18
100
AcDbEntity
  8
寸法線
100
AcDbLine
 10
455.3102242806808
 20
314.8438692153115
 30
0.0
 11
475.0471504148028
 21
317.6177132886605
 31
0.0
  0
LINE
  5
450
330
18
100
AcDbEntity
  8
外形線
100
AcDbLine
 10
473.8683780712011
 20
335.1240301586423
 30
0.0
 11
472.4905643716962
 21
344.9276840391842
 31
0.0
  0
LINE
  5
451
330
18
100
AcDbEntity
  8
外形線
100
AcDbLine
 10
473.8683780712011
 20
335.1240301586423
 30
0.0
 11
510.508296614639
 21
340.2734348941647
 31
0.0
  0
ARC
  5
452
330
18
100
AcDbEntity
  8
外形線
100
AcDbCircle
 10
479.5396684627408
 20
341.4751296929614
 30
0.0
 40
4.5
100
AcDbArc
 50
110.101492031805
 51
85.8985079681952
  0
ARC
  5
453
330
18
100
AcDbEntity
  8
外形線
100
AcDbCircle
 10
503.3061021125385
 20
344.815284116003
 30
0.0
 40
4.5
100
AcDbArc
 50
110.1014920318073
 51
85.89850796819233
  0
LINE
  5
459
330
18
100
AcDbEntity
  8
外形線
100
AcDbLine
 10
501.5006570430823
 20
342.4193775858611
 30
0.0
 11
505.1115471819946
 21
347.2111906461448
 31
0.0
  0
LINE
  5
45A
330
18
100
AcDbEntity
  8
外形線
100
AcDbLine
 10
505.7020086426804
 20
343.009839046547
 30
0.0
 11
500.9101955823966
 21
346.6207291854593
 31
0.0
  0
LINE
  5
45B
330
18
100
AcDbEntity
  8
中心線
 48
0.3
100
AcDbLine
 10
504.1769296280094
 20
338.6190243790017
 30
0.0
 11
502.4769444406571
 21
350.7150475095935
 31
0.0
  0
LINE
  5
45C
330
18
100
AcDbEntity
  8
中心線
 48
0.3
100
AcDbLine
 10
497.330714748697
 20
343.9754981882187
 30
0.0
 11
509.2344638154904
 21
345.6484610181535
 31
0.0
  0
LINE
  5
45D
330
18
100
AcDbEntity
  8
外形線
100
AcDbLine
 10
481.9355749928826
 20
339.6696846235053
 30
0.0
 11
477.1437619325988
 21
343.2805747624176
 31
0.0
  0
LINE
  5
45E
330
18
100
AcDbEntity
  8
外形線
100
AcDbLine
 10
477.7342233932845
 20
339.0792231628195
 30
0.0
 11
481.3451135321968
 21
343.8710362231032
 31
0.0
  0
LINE
  5
460
330
18
100
AcDbEntity
  8
中心線
 48
0.3
100
AcDbLine
 10
445.9917937387706
 20
329.0888692153115
 30
0.0
 11
455.1471709382215
 21
329.0888692153115
 31
0.0
  0
LINE
  5
461
330
18
100
AcDbEntity
  8
中心線
 48
0.3
100
AcDbLine
 10
450.6102242806808
 20
324.7053973641237
 30
0.0
 11
450.6102242806808
 21
333.3341261277329
 31
0.0
  0
LINE
  5
462
330
18
100
AcDbEntity
  8
中心線
 48
0.1
100
AcDbLine
 10
451.0734499340968
 20
329.6338692153115
 30
0.0
 11
454.6771254462157
 21
329.6338692153115
 31
0.0
  0
LINE
  5
464
330
18
100
AcDbEntity
  8
中心線
 48
0.1
100
AcDbLine
 10
452.8102242806808
 20
331.4554953343668
 30
0.0
 11
452.8102242806808
 21
327.8547864786635
 31
0.0
  0
ARC
  5
112C
330
18
100
AcDbEntity
  8
外形線
  6
Continuous
100
AcDbCircle
 10
501.9456217459406
 20
264.679398245295
 30
0.0
 40
105.6666666666664
100
AcDbArc
 50
84.31445317473807
 51
111.6855468252619
  0
LINE
  5
112D
330
18
100
AcDbEntity
  8
外形線
  6
Continuous
100
AcDbLine
 10
512.4138850992465
 20
369.8262474934308
 30
0.0
 11
462.900481662168
 21
362.8675924454276
 31
0.0
  0
LINE
  5
112E
330
18
100
AcDbEntity
  8
外形線
  6
Continuous
100
AcDbLine
 10
513.9672681166368
 20
368.832768152285
 30
0.0
 11
461.681114087082
 21
361.4844284215936
 31
0.0
  0
LINE
  5
112F
330
18
100
AcDbEntity
  8
外形線
  6
Continuous
100
AcDbLine
 10
514.496125900285
 20
365.0697494910671
 30
0.0
 11
462.2099718707302
 21
357.7214097603757
 31
0.0
  0
LINE
  5
1130
330
18
100
AcDbEntity
  8
外形線
  6
Continuous
100
AcDbLine
 10
513.3185102554868
 20
363.3895050466107
 30
0.0
 11
463.8051068184084
 21
356.4308499986074
 31
0.0
  0
LINE
  5
1131
330
18
100
AcDbEntity
  8
外形線
  6
Continuous
100
AcDbLine
 10
514.507370742733
 20
351.3376748643577
 30
0.0
 11
465.984235374396
 21
344.5181929173145
 31
0.0
  0
LINE
  5
1132
330
18
100
AcDbEntity
  8
外形線
  6
Continuous
100
AcDbLine
 10
462.5723553489493
 20
361.6096842124576
 30
0.0
 11
462.900481662168
 21
362.8675924454276
 31
0.0
  0
LINE
  5
1133
330
18
100
AcDbEntity
  8
外形線
  6
CENTER2
100
AcDbLine
 10
463.8051068184084
 20
356.4308499986074
 30
0.0
 11
463.5963471669684
 21
357.9162521017198
 31
0.0
  0
LINE
  5
1134
330
18
100
AcDbEntity
  8
外形線
  6
Continuous
100
AcDbLine
 10
461.681114087082
 20
361.4844284215936
 30
0.0
 11
462.2099718707302
 21
357.7214097603757
 31
0.0
  0
LINE
  5
1135
330
18
100
AcDbEntity
  8
外形線
  6
Continuous
100
AcDbLine
 10
465.6421863620482
 20
362.0411208254338
 30
0.0
 11
466.1710441456965
 21
358.2781021642159
 31
0.0
  0
LINE
  5
1136
330
18
100
AcDbEntity
  8
外形線
  6
Continuous
100
AcDbLine
 10
464.6519182933066
 20
361.9019477244738
 30
0.0
 11
465.1807760769549
 21
358.1389290632558
 31
0.0
  0
LINE
  5
1137
330
18
100
AcDbEntity
  8
外形線
  6
Continuous
100
AcDbLine
 10
463.6616502245651
 20
361.7627746235137
 30
0.0
 11
464.1905080082134
 21
357.9997559622958
 31
0.0
  0
LINE
  5
1138
330
18
100
AcDbEntity
  8
外形線
  6
Continuous
100
AcDbLine
 10
462.6713821558235
 20
361.6236015225537
 30
0.0
 11
463.2002399394718
 21
357.8605828613357
 31
0.0
  0
ARC
  5
1139
330
18
100
AcDbEntity
  8
外形線
  6
Continuous
100
AcDbCircle
 10
523.0802799296165
 20
359.7122944421923
 30
0.0
 40
7.344999999999885
100
AcDbArc
 50
337.7519853833788
 51
38.24801461662182
  0
LINE
  5
113A
330
18
100
AcDbEntity
  8
外形線
  6
Continuous
100
AcDbLine
 10
513.0760268547694
 20
368.707512361421
 30
0.0
 11
512.4138850992465
 21
369.8262474934308
 31
0.0
  0
LINE
  5
113B
330
18
100
AcDbEntity
  8
外形線
  6
Continuous
100
AcDbLine
 10
466.6324544307897
 20
362.1802939263939
 30
0.0
 11
467.161312214438
 21
358.417275265176
 31
0.0
  0
LINE
  5
113C
330
18
100
AcDbEntity
  8
外形線
  6
Continuous
100
AcDbLine
 10
486.3725127480245
 20
361.1172334238012
 30
0.0
 11
485.8436549643762
 21
364.8802520850192
 31
0.0
  0
LINE
  5
113D
330
18
100
AcDbEntity
  8
外形線
  6
Continuous
100
AcDbLine
 10
487.362780816766
 20
361.2564065247613
 30
0.0
 11
486.8339230331178
 21
365.0194251859792
 31
0.0
  0
LINE
  5
113E
330
18
100
AcDbEntity
  8
外形線
  6
Continuous
100
AcDbLine
 10
488.3530488855076
 20
361.3955796257214
 30
0.0
 11
487.8241911018593
 21
365.1585982869393
 31
0.0
  0
LINE
  5
113F
330
18
100
AcDbEntity
  8
外形線
  6
Continuous
100
AcDbLine
 10
489.3433169542492
 20
361.5347527266814
 30
0.0
 11
488.814459170601
 21
365.2977713878994
 31
0.0
  0
LINE
  5
1140
330
18
100
AcDbEntity
  8
外形線
  6
Continuous
100
AcDbLine
 10
491.3238530917324
 20
361.8130989286016
 30
0.0
 11
490.7949953080841
 21
365.5761175898195
 31
0.0
  0
LINE
  5
1141
330
18
100
AcDbEntity
  8
外形線
  6
Continuous
100
AcDbLine
 10
490.3335850229908
 20
361.6739258276415
 30
0.0
 11
489.8047272393425
 21
365.4369444888594
 31
0.0
  0
LINE
  5
1142
330
18
100
AcDbEntity
  8
外形線
  6
Continuous
100
AcDbLine
 10
509.0159277729289
 20
368.1369026474847
 30
0.0
 11
509.5447855565772
 21
364.3738839862668
 31
0.0
  0
LINE
  5
1143
330
18
100
AcDbEntity
  8
外形線
  6
Continuous
100
AcDbLine
 10
510.0061958416706
 20
368.2760757484448
 30
0.0
 11
510.5350536253188
 21
364.5130570872268
 31
0.0
  0
LINE
  5
1144
330
18
100
AcDbEntity
  8
外形線
  6
Continuous
100
AcDbLine
 10
510.9964639104121
 20
368.4152488494048
 30
0.0
 11
511.5253216940604
 21
364.6522301881869
 31
0.0
  0
LINE
  5
1145
330
18
100
AcDbEntity
  8
外形線
  6
Continuous
100
AcDbLine
 10
511.9867319791537
 20
368.5544219503649
 30
0.0
 11
512.5155897628019
 21
364.791403289147
 31
0.0
  0
LINE
  5
1146
330
18
100
AcDbEntity
  8
外形線
  6
Continuous
100
AcDbLine
 10
529.8784712993337
 20
356.9313559134401
 30
0.0
 11
528.8485903522293
 21
364.2593396221278
 31
0.0
  0
LINE
  5
1147
330
18
100
AcDbEntity
  8
外形線
  6
Continuous
100
AcDbLine
 10
523.4834807828015
 20
355.7296503365773
 30
0.0
 11
522.370095975121
 21
363.6517948865098
 31
0.0
  0
LINE
  5
1148
330
18
100
AcDbEntity
  8
外形線
  6
Continuous
100
AcDbLine
 10
517.5418723703521
 20
354.8946117308168
 30
0.0
 11
516.4284875626718
 21
362.8167562807494
 31
0.0
  0
LINE
  5
1149
330
18
100
AcDbEntity
  8
外形線
  6
Continuous
100
AcDbLine
 10
523.4834807828015
 20
355.7296503365773
 30
0.0
 11
517.5418723703521
 21
354.8946117308168
 31
0.0
  0
LINE
  5
114A
330
18
100
AcDbEntity
  8
外形線
  6
Continuous
100
AcDbLine
 10
517.5001204400642
 20
355.1916921514393
 30
0.0
 11
514.0341821994687
 21
354.7045862980791
 31
0.0
  0
LINE
  5
114B
330
18
100
AcDbEntity
  8
外形線
  6
Continuous
100
AcDbLine
 10
529.8784712993337
 20
356.9313559134401
 30
0.0
 11
523.4417288525134
 21
356.0267307571997
 31
0.0
  0
LINE
  5
114C
330
18
100
AcDbEntity
  8
外形線
  6
Continuous
100
AcDbLine
 10
522.370095975121
 20
363.6517948865098
 30
0.0
 11
516.4284875626718
 21
362.8167562807494
 31
0.0
  0
LINE
  5
114D
330
18
100
AcDbEntity
  8
外形線
  6
CENTER2
100
AcDbLine
 10
513.3185102554868
 20
363.3895050466107
 30
0.0
 11
513.1097506040468
 21
364.874907149723
 31
0.0
  0
LINE
  5
114E
330
18
100
AcDbEntity
  8
外形線
  6
Continuous
100
AcDbLine
 10
516.4702394929597
 20
362.519675860127
 30
0.0
 11
513.0043012523642
 21
362.0325700067669
 31
0.0
  0
LINE
  5
114F
330
18
100
AcDbEntity
  8
外形線
  6
Continuous
100
AcDbLine
 10
512.9770000478952
 20
368.6935950513249
 30
0.0
 11
513.5058578315435
 21
364.930576390107
 31
0.0
  0
LINE
  5
1150
330
18
100
AcDbEntity
  8
外形線
  6
Continuous
100
AcDbLine
 10
513.9672681166368
 20
368.832768152285
 30
0.0
 11
514.496125900285
 21
365.0697494910671
 31
0.0
  0
LINE
  5
1151
330
18
100
AcDbEntity
  8
外形線
  6
Continuous
100
AcDbLine
 10
528.8485903522293
 20
364.2593396221278
 30
0.0
 11
522.4118479054091
 21
363.3547144658874
 31
0.0
  0
HATCH
  5
1152
330
18
100
AcDbEntity
  8
ﾊｯﾁﾝｸ
  6
Continuous
100
AcDbHatch
 10
0.0
 20
0.0
 30
0.0
210
0.0
220
0.0
230
1.0
  2
ANSI37
 70
     0
 71
     0
 91
        1
 92
        7
 72
     0
 73
     1
 93
        4
 10
522.9267883789614
 20
359.6907226115436
 10
522.370095975121
 20
363.6517948865098
 10
516.4284875626718
 20
362.8167562807494
 10
516.9851799665119
 20
358.8556840057831
 97
        0
 75
     0
 76
     1
 52
-82.00000000000001
 41
10.0
 77
     0
 78
     2
 53
322.9999999999999
 43
342.5303921521636
 44
528.7022090510114
 45
0.7522687789400607
 46
0.9982943875591159
 79
     0
 53
52.99999999999998
 43
342.5303921521636
 44
528.7022090510114
 45
-0.9982943875591159
 46
0.7522687789400607
 79
     0
 47
0.1856754751158765
 98
        1
 10
520.4813635673085
 20
361.111055623534
  0
MTEXT
  5
1153
330
18
100
AcDbEntity
  8
DEFPOINTS
  6
Continuous
100
AcDbMText
 10
1246.100524544776
 20
414.2288454985064
 30
0.0
 40
1.0
 41
0.0
 71
     4
 72
     1
  1
\A1;
 73
     1
 44
1.0
  0
LINE
  5
1155
330
18
100
AcDbEntity
  8
外形線
100
AcDbLine
 10
464.3002408527793
 20
356.5004365490874
 30
0.0
 11
465.984235374396
 21
344.5181929173145
 31
0.0
  0
LINE
  5
1156
330
18
100
AcDbEntity
  8
外形線
100
AcDbLine
 10
512.8233762211161
 20
363.3199184961307
 30
0.0
 11
514.507370742733
 21
351.3376748643577
 31
0.0
  0
MTEXT
  5
11B0
330
18
100
AcDbEntity
  8
文字
100
AcDbMText
 10
813.2397341027761
 20
440.3068277367404
 30
0.0
 40
1.0
 41
6.927999999999999
 71
     1
 72
     5
  1

  7
STYLE3
 73
     1
 44
1.0
  0
MTEXT
  5
122D
330
18
100
AcDbEntity
  8
DEFPOINTS
  6
Continuous
100
AcDbMText
 10
1134.975543757917
 20
363.5543790241913
 30
0.0
 40
0.35
 41
0.0
 71
     4
 72
     1
  1
\A1;
 73
     1
 44
1.0
  0
LINE
  5
1283
330
18
100
AcDbEntity
  8
外形線
  6
Continuous
100
AcDbLine
 10
513.0915551901007
 20
350.6337811785468
 30
0.0
 11
467.5392240279884
 21
344.2318185343839
 31
0.0
  0
LINE
  5
1284
330
18
100
AcDbEntity
  8
外形線
100
AcDbLine
 10
513.0219686396205
 20
351.1289152129176
 30
0.0
 11
513.0915551901007
 21
350.6337811785468
 31
0.0
  0
LINE
  5
1285
330
18
100
AcDbEntity
  8
外形線
100
AcDbLine
 10
467.4696374775084
 20
344.7269525687545
 30
0.0
 11
467.5392240279884
 21
344.2318185343839
 31
0.0
  0
POINT
  5
1286
330
18
100
AcDbEntity
  8
DEFPOINTS
  6
ByBlock
 62
     0
100
AcDbPoint
 10
513.0915551901007
 20
350.6337811785468
 30
0.0
  0
MTEXT
  5
128D
330
18
100
AcDbEntity
  8
DEFPOINTS
  6
Continuous
100
AcDbMText
 10
1746.539171916877
 20
589.442034007508
 30
0.0
 40
1.0
 41
0.0
 71
     4
 72
     1
  1
\A1;
 73
     1
 44
1.0
  0
MTEXT
  5
128E
330
18
100
AcDbEntity
  8
文字
100
AcDbMText
 10
1313.678381474877
 20
615.5200162457422
 30
0.0
 40
1.0
 41
6.927999999999999
 71
     1
 72
     5
  1

  7
STYLE3
 73
     1
 44
1.0
  0
MTEXT
  5
128F
330
18
100
AcDbEntity
  8
DEFPOINTS
  6
Continuous
100
AcDbMText
 10
1635.414191130018
 20
538.7675675331929
 30
0.0
 40
0.35
 41
0.0
 71
     4
 72
     1
  1
\A1;
 73
     1
 44
1.0
  0
LINE
  5
1310
330
18
100
AcDbEntity
  8
中心線
 48
0.5
100
AcDbLine
 10
492.4616556535476
 20
332.1613234272275
 30
0.0
 11
478.3007773842206
 21
432.921207907158
 31
0.0
  0
LINE
  5
1355
330
18
100
AcDbEntity
  8
外形線
100
AcDbLine
 10
465.5527987614198
 20
347.5880239304131
 30
0.0
 11
461.8888069070759
 21
347.073083456861
 31
0.0
  0
LINE
  5
1356
330
18
100
AcDbEntity
  8
外形線
100
AcDbLine
 10
464.4394139537393
 20
355.5101684803457
 30
0.0
 11
460.7754220993954
 21
354.9952280067935
 31
0.0
  0
LINE
  5
1357
330
18
100
AcDbEntity
  8
想像線
 48
0.5
100
AcDbLine
 10
461.834972299255
 20
357.971655279343
 30
0.0
 11
464.0617419146161
 21
342.1273661794779
 31
0.0
  0
LINE
  5
1358
330
18
100
AcDbEntity
  8
想像線
100
AcDbLine
 10
440.3187226480875
 20
358.7232610140719
 30
0.0
 11
441.9875900275473
 21
357.4656792411955
 31
0.0
  0
LINE
  5
1359
330
18
100
AcDbEntity
  8
想像線
100
AcDbLine
 10
441.7907538301364
 20
358.9406561795429
 30
0.0
 11
440.4924090299688
 21
357.2176944358026
 31
0.0
  0
CIRCLE
  5
135A
330
18
100
AcDbEntity
  8
想像線
100
AcDbCircle
 10
441.1531248077373
 20
358.0944938872533
 30
0.0
 40
1.5
  0
LINE
  5
135D
330
18
100
AcDbEntity
  8
想像線
 48
0.5
100
AcDbLine
 10
438.3589621398773
 20
360.7312826511738
 30
0.0
 11
439.1940007456377
 21
354.7896742387242
 31
0.0
  0
LINE
  5
135E
330
18
100
AcDbEntity
  8
想像線
100
AcDbLine
 10
448.2408671980202
 20
359.8366458217526
 30
0.0
 11
449.9097345774798
 21
358.5790640488762
 31
0.0
  0
LINE
  5
135F
330
18
100
AcDbEntity
  8
想像線
100
AcDbLine
 10
449.712898380069
 20
360.0540409872234
 30
0.0
 11
448.4145535799013
 21
358.3310792434833
 31
0.0
  0
CIRCLE
  5
1360
330
18
100
AcDbEntity
  8
想像線
100
AcDbCircle
 10
449.0752693576699
 20
359.2078786949339
 30
0.0
 40
1.5
  0
LINE
  5
1361
330
18
100
AcDbEntity
  8
中心線
100
AcDbLine
 10
448.7833993143044
 20
361.2846419643675
 30
0.0
 11
449.3854068993893
 21
357.0011354208078
 31
0.0
  0
LINE
  5
1362
330
18
100
AcDbEntity
  8
中心線
100
AcDbLine
 10
440.8332211888388
 20
360.3707264112444
 30
0.0
 11
441.498598029688
 21
355.6363241838905
 31
0.0
  0
LINE
  5
1363
330
18
100
AcDbEntity
  8
想像線
 48
0.5
100
AcDbLine
 10
464.0617419146161
 20
342.1273661794779
 30
0.0
 11
429.4023595086612
 21
337.2563076458754
 31
0.0
  0
LINE
  5
1365
330
18
100
AcDbEntity
  8
外形線
100
AcDbLine
 10
461.6104607051559
 20
349.0536195943441
 30
0.0
 11
459.6299245676727
 21
348.7752733924241
 31
0.0
  0
LINE
  5
1366
330
18
100
AcDbEntity
  8
外形線
100
AcDbLine
 10
461.0537683013156
 20
353.0146918693102
 30
0.0
 11
459.0732321638324
 21
352.7363456673902
 31
0.0
  0
LINE
  5
1367
330
18
100
AcDbEntity
  8
外形線
100
AcDbLine
 10
459.7969322888247
 20
347.5869517099343
 30
0.0
 11
457.3212621169709
 21
347.2390189575339
 31
0.0
  0
LINE
  5
1368
330
18
100
AcDbEntity
  8
外形線
100
AcDbLine
 10
458.9062244426805
 20
353.9246673498801
 30
0.0
 11
456.4305542708265
 21
353.5767345974799
 31
0.0
  0
LINE
  5
136A
330
18
100
AcDbEntity
  8
想像線
 48
0.6
100
AcDbLine
 10
461.834972299255
 20
357.971655279343
 30
0.0
 11
427.1755898933001
 21
353.1005967457409
 31
0.0
  0
LINE
  5
136B
330
18
100
AcDbEntity
  8
外形線
100
AcDbLine
 10
450.8447014333167
 20
352.3222993573282
 30
0.0
 11
439.6587956856818
 21
350.7205775946516
 31
0.0
  0
LINE
  5
136C
330
18
100
AcDbEntity
  8
外形線
100
AcDbLine
 10
451.624300521345
 20
346.877831958037
 30
0.0
 11
440.4383947737103
 21
345.2761101953602
 31
0.0
  0
CIRCLE
  5
136D
330
18
100
AcDbEntity
  8
外形線
100
AcDbCircle
 10
448.9577237012635
 20
349.274051493598
 30
0.0
 40
1.25
  0
LINE
  5
136E
330
18
100
AcDbEntity
  8
外形線
100
AcDbLine
 10
450.7383924667673
 20
353.0647267299588
 30
0.0
 11
440.0474383008861
 21
351.5338776116485
 31
0.0
  0
LINE
  5
136F
330
18
100
AcDbEntity
  8
外形線
100
AcDbLine
 10
451.7306094878943
 20
346.1354045854063
 30
0.0
 11
441.0396553220133
 21
344.6045554670957
 31
0.0
  0
LINE
  5
1370
330
18
100
AcDbEntity
  8
外形線
100
AcDbLine
 10
439.6233593634987
 20
350.9680533855285
 30
0.0
 11
440.0474383008861
 21
351.5338776116485
 31
0.0
  0
LINE
  5
1371
330
18
100
AcDbEntity
  8
外形線
100
AcDbLine
 10
439.6233593634987
 20
350.9680533855285
 30
0.0
 11
440.4738310958934
 21
345.0286344044834
 31
0.0
  0
LINE
  5
1372
330
18
100
AcDbEntity
  8
外形線
100
AcDbLine
 10
440.933346355464
 20
345.3469828397264
 30
0.0
 11
441.0396553220133
 21
344.6045554670957
 31
0.0
  0
LINE
  5
1373
330
18
100
AcDbEntity
  8
外形線
100
AcDbLine
 10
440.4738310958934
 20
345.0286344044834
 30
0.0
 11
441.0396553220133
 21
344.6045554670957
 31
0.0
  0
LINE
  5
1374
330
18
100
AcDbEntity
  8
外形線
100
AcDbLine
 10
441.0396553220133
 20
344.6045554670957
 30
0.0
 11
440.4738310958934
 21
345.0286344044834
 31
0.0
  0
LINE
  5
1376
330
18
100
AcDbEntity
  8
外形線
100
AcDbLine
 10
442.3744676531089
 20
348.9061284515324
 30
0.0
 11
443.576024666388
 21
348.0055748911163
 31
0.0
  0
LINE
  5
1377
330
18
100
AcDbEntity
  8
外形線
100
AcDbLine
 10
443.4458985311675
 20
348.9940936817116
 30
0.0
 11
442.5913500089197
 21
347.8539185547378
 31
0.0
  0
CIRCLE
  5
1378
330
18
100
AcDbEntity
  8
外形線
100
AcDbCircle
 10
443.0183047202184
 20
348.4235797612033
 30
0.0
 40
1.25
  0
LINE
  5
1379
330
18
100
AcDbEntity
  8
外形線
100
AcDbLine
 10
440.0474383008861
 20
351.5338776116485
 30
0.0
 11
440.1537472674355
 21
350.7914502390178
 31
0.0
  0
LINE
  5
137A
330
18
100
AcDbEntity
  8
外形線
100
AcDbLine
 10
455.6389915905341
 20
351.9985990508633
 30
0.0
 11
450.7383924667671
 21
353.0647267299589
 31
0.0
  0
LINE
  5
137B
330
18
100
AcDbEntity
  8
外形線
100
AcDbLine
 10
456.1351001010977
 20
348.533937978587
 30
0.0
 11
451.7306094878942
 21
346.1354045854064
 31
0.0
  0
ARC
  5
137C
330
18
100
AcDbEntity
  8
外形線
100
AcDbCircle
 10
454.7239096286947
 20
350.0997178004645
 30
0.0
 40
0.375
100
AcDbArc
 50
319.9591660841932
 51
56.33853629261592
  0
LINE
  5
137E
330
18
100
AcDbEntity
  8
外形線
100
AcDbLine
 10
448.313886634154
 20
349.756600183927
 30
0.0
 11
449.5154436474329
 21
348.8560466235111
 31
0.0
  0
LINE
  5
137F
330
18
100
AcDbEntity
  8
外形線
100
AcDbLine
 10
449.3853175122124
 20
349.8445654141061
 30
0.0
 11
448.5307689899648
 21
348.7043902871326
 31
0.0
  0
LINE
  5
1380
330
18
100
AcDbEntity
  8
外形線
100
AcDbLine
 10
454.9317664069344
 20
350.4118404682407
 30
0.0
 11
450.8447014333165
 21
352.3222993573283
 31
0.0
  0
LINE
  5
1381
330
18
100
AcDbEntity
  8
外形線
100
AcDbLine
 10
450.7383924667671
 20
353.0647267299589
 30
0.0
 11
450.8447014333165
 21
352.3222993573283
 31
0.0
  0
LINE
  5
1382
330
18
100
AcDbEntity
  8
外形線
100
AcDbLine
 10
455.0110044322085
 20
349.8584677770545
 30
0.0
 11
451.624300521345
 21
346.877831958037
 31
0.0
  0
LINE
  5
1383
330
18
100
AcDbEntity
  8
外形線
100
AcDbLine
 10
451.624300521345
 20
346.877831958037
 30
0.0
 11
451.7306094878942
 21
346.1354045854063
 31
0.0
  0
ARC
  5
1384
330
18
100
AcDbEntity
  8
外形線
100
AcDbCircle
 10
455.3920942640623
 20
350.1953958703588
 30
0.0
 40
1.5
100
AcDbArc
 50
297.6200718228941
 51
78.67763055391499
  0
LINE
  5
1385
330
18
100
AcDbEntity
  8
外形線
100
AcDbLine
 10
455.6389915905341
 20
351.9985990508633
 30
0.0
 11
456.1351001010977
 21
348.533937978587
 31
0.0
  0
LINE
  5
1386
330
18
100
AcDbEntity
  8
外形線
100
AcDbLine
 10
456.4305542708265
 20
353.5767345974799
 30
0.0
 11
457.3212621169709
 21
347.2390189575338
 31
0.0
  0
LINE
  5
1387
330
18
100
AcDbEntity
  8
外形線
100
AcDbLine
 10
458.9062244426803
 20
353.9246673498803
 30
0.0
 11
459.7969322888248
 21
347.5869517099343
 31
0.0
  0
LINE
  5
1397
330
18
100
AcDbEntity
  8
想像線
 48
0.5
100
AcDbLine
 10
451.2324470335178
 20
362.540532963655
 30
0.0
 11
452.0674856392782
 21
356.5989245512054
 31
0.0
  0
LINE
  5
139A
330
18
100
AcDbEntity
  8
想像線
 48
0.5
100
AcDbLine
 10
427.1755898933001
 20
353.1005967457408
 30
0.0
 11
429.4023595086612
 21
337.2563076458754
 31
0.0
  0
LINE
  5
13B9
330
18
100
AcDbEntity
  8
外形線
100
AcDbLine
 10
460.7754220993954
 20
354.9952280067935
 30
0.0
 11
461.8888069070759
 21
347.073083456861
 31
0.0
  0
LINE
  5
13BD
330
18
100
AcDbEntity
  8
想像線
 48
0.3
100
AcDbLine
 10
438.3589621398773
 20
360.7312826511739
 30
0.0
 11
451.2324470335178
 21
362.5405329636552
 31
0.0
  0
TEXT
  5
14B4
330
18
100
AcDbEntity
  8
文字
100
AcDbText
 10
484.2781927833287
 20
393.1269461996717
 30
0.0
 40
1.0
  1
0.05mm
 50
98.00000000000023
  7
STYLE3
100
AcDbText
  0
HATCH
  5
14B5
330
18
100
AcDbEntity
  8
ROGO
 62
     4
100
AcDbHatch
 10
0.0
 20
0.0
 30
0.0
210
0.0
220
0.0
230
1.0
  2
SOLID
 70
     1
 71
     1
 91
        1
 92
        7
 72
     0
 73
     1
 93
       11
 10
490.7021116386684
 20
410.6256123517418
 10
490.5968851196385
 20
411.3743379392384
 10
490.0293675476077
 20
411.5642522813779
 10
490.5225529642737
 20
411.9032387069202
 10
490.4173287475155
 20
412.651947912903
 10
489.4725700250613
 20
412.0025767605896
 10
488.2836355399529
 20
413.090606436806
 10
488.3888597567111
 20
412.341897230823
 10
488.6599720836702
 20
412.0225074112267
 10
488.4225824813056
 20
412.1019475772862
 10
488.5278090003355
 20
411.3532219897897
 97
       11
330
158A
330
158D
330
158E
330
14B7
330
1549
330
1511
330
1548
330
14B6
330
1589
330
158C
330
158B
 75
     0
 76
     1
 47
0.0514683685270805
 98
        1
 10
489.4085941709244
 20
411.411297534061
450
        0
451
        0
460
0.0
461
0.0
452
        0
462
0.0
453
        0
470

  0
LINE
  5
14B6
102
{ACAD_REACTORS
330
14B5
102
}
330
18
100
AcDbEntity
  8
ROGO
 62
     4
100
AcDbLine
 10
490.0293675476077
 20
411.5642522813779
 30
0.0
 11
490.5225529642738
 21
411.9032387069202
 31
0.0
  0
LINE
  5
14B7
102
{ACAD_REACTORS
330
14B5
102
}
330
18
100
AcDbEntity
  8
ROGO
 62
     4
100
AcDbLine
 10
488.5278090003355
 20
411.3532219897897
 30
0.0
 11
488.4225824813057
 21
412.1019475772862
 31
0.0
  0
LINE
  5
14B8
330
18
100
AcDbEntity
  8
目盛
100
AcDbLine
 10
459.72171027205
 20
407.9448084260789
 30
0.0
 11
462.6761335310866
 21
407.423863893078
 31
0.0
  0
LINE
  5
14B9
330
18
100
AcDbEntity
  8
目盛
100
AcDbLine
 10
503.0445516562115
 20
414.0334367158883
 30
0.0
 11
500.3481695173141
 21
412.7183232755211
 31
0.0
  0
CIRCLE
  5
14BA
330
18
100
AcDbEntity
  8
外形線
100
AcDbCircle
 10
482.3722885913308
 20
403.9509003397394
 30
0.0
 40
23.0
  0
CIRCLE
  5
14BB
330
18
100
AcDbEntity
  8
外形線
100
AcDbCircle
 10
482.3722885913308
 20
403.9509003397394
 30
0.0
 40
15.5
  0
LINE
  5
14BC
330
18
100
AcDbEntity
  8
中心線
 48
0.2
100
AcDbLine
 10
464.1682519913788
 20
404.623938073089
 30
0.0
 11
479.7051559629192
 21
406.8075075259403
 31
0.0
  0
LINE
  5
14BD
330
18
100
AcDbEntity
  8
目盛
100
AcDbLine
 10
502.6800832270861
 20
393.1530543956641
 30
0.0
 11
500.0312404485094
 21
394.5614690840217
 31
0.0
  0
LINE
  5
14BE
330
18
100
AcDbEntity
  8
目盛
100
AcDbLine
 10
501.9620080766209
 20
391.8992245024277
 30
0.0
 11
500.2585542083348
 21
392.9471963143678
 31
0.0
  0
LINE
  5
14BF
330
18
100
AcDbEntity
  8
目盛
100
AcDbLine
 10
501.1666212530388
 20
390.6929570678343
 30
0.0
 11
499.5323314563686
 21
391.8458217001738
 31
0.0
  0
LINE
  5
14C0
330
18
100
AcDbEntity
  8
目盛
100
AcDbLine
 10
503.3180127898729
 20
394.449498453775
 30
0.0
 11
501.4966454682605
 21
395.275707313424
 31
0.0
  0
LINE
  5
14C1
330
18
100
AcDbEntity
  8
目盛
100
AcDbLine
 10
505.0228669106116
 20
399.9569922534001
 30
0.0
 11
502.0684436515749
 21
400.4779367864009
 31
0.0
  0
LINE
  5
14C2
330
18
100
AcDbEntity
  8
目盛
100
AcDbLine
 10
504.7273916046373
 20
398.54263173838
 30
0.0
 11
502.7834696034802
 21
399.0129159645852
 31
0.0
  0
LINE
  5
14C3
330
18
100
AcDbEntity
  8
目盛
100
AcDbLine
 10
504.3436909201447
 20
397.1496151887265
 30
0.0
 11
502.4331341958999
 21
397.7410312888146
 31
0.0
  0
LINE
  5
14C4
330
18
100
AcDbEntity
  8
目盛
100
AcDbLine
 10
503.8732791484391
 20
395.7834402043525
 30
0.0
 11
502.0036277956471
 21
396.4936541291687
 31
0.0
  0
TEXT
  5
14C5
330
18
100
AcDbEntity
  8
文字
100
AcDbText
 10
501.3876478579551
 20
404.8116707090478
 30
0.0
 40
2.0
  1
.5
 50
98.00000000000023
  7
STYLE3
100
AcDbText
  0
LINE
  5
14C6
330
18
100
AcDbEntity
  8
目盛
100
AcDbLine
 10
502.1776499661621
 20
406.7343623589407
 30
0.0
 11
505.1484541723868
 21
407.1518816618211
 31
0.0
  0
LINE
  5
14C7
330
18
100
AcDbEntity
  8
目盛
100
AcDbLine
 10
505.3045018925499
 20
405.7154379866564
 30
0.0
 11
503.310396388096
 21
405.5619999304027
 31
0.0
  0
LINE
  5
14C8
330
18
100
AcDbEntity
  8
目盛
100
AcDbLine
 10
505.3700466435448
 20
404.2720304875399
 30
0.0
 11
503.3702415955262
 21
404.2441061268617
 31
0.0
  0
LINE
  5
14C9
330
18
100
AcDbEntity
  8
目盛
100
AcDbLine
 10
505.3448297501837
 20
402.8273556344404
 30
0.0
 11
503.3472174755009
 21
402.9250551740317
 31
0.0
  0
LINE
  5
14CA
330
18
100
AcDbEntity
  8
目盛
100
AcDbLine
 10
505.2289507320245
 20
401.3871148989942
 30
0.0
 11
503.2414148937033
 21
401.6100527634066
 31
0.0
  0
LINE
  5
14CB
330
18
100
AcDbEntity
  8
目盛
100
AcDbLine
 10
503.6368473644139
 20
412.7155189957957
 30
0.0
 11
501.7877552971892
 21
411.9533782430953
 31
0.0
  0
LINE
  5
14CC
330
18
100
AcDbEntity
  8
目盛
100
AcDbLine
 10
504.1452215739917
 20
411.3630113300413
 30
0.0
 11
502.2519230537603
 21
410.7184799395803
 31
0.0
  0
LINE
  5
14CD
330
18
100
AcDbEntity
  8
目盛
100
AcDbLine
 10
504.5676679641939
 20
409.9812514484794
 30
0.0
 11
502.6376349752492
 21
409.4568730911976
 31
0.0
  0
LINE
  5
14CE
330
18
100
AcDbEntity
  8
目盛
100
AcDbLine
 10
504.9025193321156
 20
408.5756925260967
 30
0.0
 11
502.9433688329169
 21
408.1735366838047
 31
0.0
  0
TEXT
  5
14D1
330
18
100
AcDbEntity
  8
文字
100
AcDbText
 10
480.0875162113782
 20
385.8461186935547
 30
0.0
 40
2.0
  1
1
 50
98.00000000000023
  7
STYLE3
100
AcDbText
  0
TEXT
  5
14D2
330
18
100
AcDbEntity
  8
文字
100
AcDbText
 10
491.288645244295
 20
386.5882437426644
 30
0.0
 40
2.0
  1
.5
 50
98.00000000000023
  7
STYLE3
100
AcDbText
  0
LINE
  5
14D3
330
18
100
AcDbEntity
  8
目盛
100
AcDbLine
 10
498.3494311118878
 20
387.4060849319505
 30
0.0
 11
496.2654560005108
 21
389.5641043329664
 31
0.0
  0
LINE
  5
14D4
330
18
100
AcDbEntity
  8
目盛
100
AcDbLine
 10
497.2790463157828
 20
386.4355192663945
 30
0.0
 11
495.9828065136566
 21
387.9585958814681
 31
0.0
  0
LINE
  5
14D5
330
18
100
AcDbEntity
  8
目盛
100
AcDbLine
 10
472.8708867053663
 20
383.0051761411973
 30
0.0
 11
473.6970955650154
 21
384.8265434628098
 31
0.0
  0
LINE
  5
14D6
330
18
100
AcDbEntity
  8
目盛
100
AcDbLine
 10
471.5744426472554
 20
383.643105703984
 30
0.0
 11
472.982857335613
 21
386.2919484825608
 31
0.0
  0
LINE
  5
14D7
330
18
100
AcDbEntity
  8
目盛
100
AcDbLine
 10
491.1369072473871
 20
382.6863415666563
 30
0.0
 11
490.3747664946865
 21
384.535433633881
 31
0.0
  0
LINE
  5
14D8
330
18
100
AcDbEntity
  8
目盛
100
AcDbLine
 10
496.1498313571893
 20
385.5340788079187
 30
0.0
 11
494.9517841601582
 21
387.1355415498161
 31
0.0
  0
LINE
  5
14D9
330
18
100
AcDbEntity
  8
目盛
100
AcDbLine
 10
494.9662427316595
 20
384.7053211301834
 30
0.0
 11
493.8711162846744
 21
386.3788497571012
 31
0.0
  0
LINE
  5
14DA
330
18
100
AcDbEntity
  8
目盛
100
AcDbLine
 10
493.7329515227681
 20
383.9525169611194
 30
0.0
 11
492.7450677895997
 21
385.6915068201299
 31
0.0
  0
LINE
  5
14DB
330
18
100
AcDbEntity
  8
目盛
100
AcDbLine
 10
492.4548249674796
 20
383.2786372748588
 30
0.0
 11
491.1397115271124
 21
385.9750194137561
 31
0.0
  0
LINE
  5
14DC
330
18
100
AcDbEntity
  8
目盛
100
AcDbLine
 10
485.5732699134123
 20
381.1747347586833
 30
0.0
 11
485.1557506105321
 21
384.145538964908
 31
0.0
  0
LINE
  5
14DD
330
18
100
AcDbEntity
  8
目盛
100
AcDbLine
 10
489.7843995816326
 20
382.1779673570784
 30
0.0
 11
489.1398681911716
 21
384.0712658773097
 31
0.0
  0
LINE
  5
14DE
330
18
100
AcDbEntity
  8
目盛
100
AcDbLine
 10
488.4026397000707
 20
381.7555209668764
 30
0.0
 11
487.8782613427889
 21
383.685553955821
 31
0.0
  0
LINE
  5
14DF
330
18
100
AcDbEntity
  8
目盛
100
AcDbLine
 10
486.997080777688
 20
381.4206695989544
 30
0.0
 11
486.5949249353961
 21
383.3798200981531
 31
0.0
  0
LINE
  5
14E0
330
18
100
AcDbEntity
  8
目盛
100
AcDbLine
 10
484.1368262382476
 20
381.0186870385202
 30
0.0
 11
483.983388181994
 21
383.012792542974
 31
0.0
  0
LINE
  5
14E1
330
18
100
AcDbEntity
  8
目盛
100
AcDbLine
 10
482.6934187391311
 20
380.9531422875254
 30
0.0
 11
482.6654943784529
 21
382.952947335544
 31
0.0
  0
LINE
  5
14E2
330
18
100
AcDbEntity
  8
目盛
100
AcDbLine
 10
481.2487438860317
 20
380.9783591808864
 30
0.0
 11
481.346443425623
 21
382.9759714555692
 31
0.0
  0
LINE
  5
14E3
330
18
100
AcDbEntity
  8
目盛
100
AcDbLine
 10
479.8085031505853
 20
381.0942381990457
 30
0.0
 11
480.0314410149979
 21
383.0817740373669
 31
0.0
  0
LINE
  5
14E4
330
18
100
AcDbEntity
  8
目盛
100
AcDbLine
 10
478.3783805049914
 20
381.3003220204585
 30
0.0
 11
478.8993250379922
 21
384.2547452794952
 31
0.0
  0
LINE
  5
14E5
330
18
100
AcDbEntity
  8
目盛
100
AcDbLine
 10
476.9640199899712
 20
381.5957973264328
 30
0.0
 11
477.4343042161764
 21
383.5397193275899
 31
0.0
  0
LINE
  5
14E6
330
18
100
AcDbEntity
  8
目盛
100
AcDbLine
 10
475.5710034403177
 20
381.9794980109256
 30
0.0
 11
476.1624195404059
 21
383.8900547351702
 31
0.0
  0
LINE
  5
14E7
330
18
100
AcDbEntity
  8
目盛
100
AcDbLine
 10
474.2048284559436
 20
382.4499097826311
 30
0.0
 11
474.9150423807599
 21
384.3195611354232
 31
0.0
  0
HATCH
  5
14E8
330
18
100
AcDbEntity
  8
ﾊｯﾁﾝｸ
  6
Continuous
100
AcDbHatch
 10
0.0
 20
0.0
 30
0.0
210
0.0
220
0.0
230
1.0
  2
SOLID
 70
     1
 71
     0
 91
        1
 92
        1
 93
        3
 72
     1
 10
459.5961230102746
 20
400.7499190176578
 11
480.9022515076513
 21
404.2492138872149
 72
     2
 10
482.3722885913308
 20
403.9509003397395
 40
1.5
 50
-191.4712206344872
 51
-152.5287793655085
 73
     1
 72
     1
 10
481.0414246086114
 20
403.2589458184733
 11
459.5961230102756
 21
400.7499190176579
 97
        0
 75
     0
 76
     1
 98
        1
 10
499.9246038606004
 20
176.6290087124733
450
        0
451
        0
460
0.0
461
0.0
452
        0
462
0.0
453
        0
470

  0
LINE
  5
14E9
330
18
100
AcDbEntity
  8
針
  6
Continuous
100
AcDbLine
 10
459.5961230102755
 20
400.749919017658
 30
0.0
 11
481.0414246086114
 21
403.2589458184733
 31
0.0
  0
LINE
  5
14EA
330
18
100
AcDbEntity
  8
針
  6
Continuous
100
AcDbLine
 10
459.5961230102746
 20
400.7499190176578
 30
0.0
 11
480.9022515076514
 21
404.2492138872149
 31
0.0
  0
LINE
  5
14EB
330
18
100
AcDbEntity
  8
目盛
100
AcDbLine
 10
476.1489362821107
 20
403.4882951098117
 30
0.0
 11
475.7074624856812
 21
403.7230308912046
 31
0.0
  0
LINE
  5
14EC
330
18
100
AcDbEntity
  8
目盛
100
AcDbLine
 10
468.5380711644222
 20
402.4186577733645
 30
0.0
 11
468.8977410645915
 21
402.765986958594
 31
0.0
  0
LINE
  5
14ED
330
18
100
AcDbEntity
  8
中心線
 48
0.2
100
AcDbLine
 10
472.9234791242303
 20
398.8267370338428
 30
0.0
 11
470.9015740603859
 21
413.2133391066559
 31
0.0
  0
CIRCLE
  5
14EE
330
18
100
AcDbEntity
  8
外形線
100
AcDbCircle
 10
471.954935216031
 20
405.7182850330447
 30
0.0
 40
4.75
  0
TEXT
  5
14EF
330
18
100
AcDbEntity
  8
文字
100
AcDbText
 10
498.9518744798838
 20
394.6132438618202
 30
0.0
 40
2.0
  1
2
 50
98.00000000000023
  7
STYLE3
100
AcDbText
  0
LINE
  5
14F0
330
18
100
AcDbEntity
  8
目盛
100
AcDbLine
 10
500.2970617847548
 20
389.539012678357
 30
0.0
 11
498.7383858548918
 21
390.7922203010859
 31
0.0
  0
LINE
  5
14F1
330
18
100
AcDbEntity
  8
目盛
100
AcDbLine
 10
499.3567614257261
 20
388.4419454253138
 30
0.0
 11
497.8798507444743
 21
389.7905502004813
 31
0.0
  0
TEXT
  5
14F2
330
18
100
AcDbEntity
  8
文字
100
AcDbText
 10
471.7799789932234
 20
401.8280739007407
 30
0.0
 40
0.7
  1
40
 50
98.00000000000023
  7
STYLE3
100
AcDbText
  0
TEXT
  5
14F3
330
18
100
AcDbEntity
  8
文字
100
AcDbText
 10
473.9840736446318
 20
402.1083088110364
 30
0.0
 40
0.7
  1
35
 50
98.00000000000023
  7
STYLE3
100
AcDbText
  0
LINE
  5
14F4
330
18
100
AcDbEntity
  8
目盛
100
AcDbLine
 10
474.0371981632789
 20
401.4490133131237
 30
0.0
 11
473.8180125898844
 21
401.8984103362733
 31
0.0
  0
LINE
  5
14F5
330
18
100
AcDbEntity
  8
目盛
100
AcDbLine
 10
471.1301063721129
 20
401.0404482062367
 30
0.0
 11
471.2169304609463
 21
401.5328520827429
 31
0.0
  0
HATCH
  5
14F6
330
18
100
AcDbEntity
  8
ﾊｯﾁﾝｸ
100
AcDbHatch
 10
0.0
 20
0.0
 30
0.0
210
0.0
220
0.0
230
1.0
  2
SOLID
 70
     1
 71
     0
 91
        3
 92
        7
 72
     1
 73
     1
 93
        5
 10
467.2274986687193
 20
405.2558526691867
 42
0.0105298176880202
 10
467.2511618895083
 20
405.0572128034844
 42
0.0
 10
467.7462959238791
 20
405.1267993539645
 42
0.0
 10
470.816126936978
 20
405.5582359669407
 42
-0.0437283108272093
 10
470.8056466010087
 20
405.7587285662793
 42
0.0
 97
        0
 92
        7
 72
     1
 73
     1
 93
        4
 10
467.2511618895083
 20
405.0572128034845
 42
0.0105298176880232
 10
467.2831679091033
 20
404.8597454416901
 42
0.0
 10
470.8613158413927
 20
405.3626213387827
 42
-0.0437283108272093
 10
470.816126936978
 20
405.5582359669407
 42
0.0
 97
        0
 92
      137
 93
        4
 72
     1
 10
469.2867963134213
 20
404.7439504143715
 11
469.1244276956346
 21
405.8992631612367
 72
     1
 10
469.1244276956346
 20
405.8992631612367
 11
467.6390255925222
 21
405.6905035097966
 72
     1
 10
467.6390255925221
 20
405.6905035097966
 11
467.8013942103089
 21
404.5351907629314
 72
     1
 10
467.8013942103089
 20
404.5351907629314
 11
469.2867963134212
 21
404.7439504143715
 97
        0
 75
     0
 76
     1
 47
0.0128177587452554
 98
        3
 10
470.2668469950999
 20
405.6312036454976
 10
469.0844151813242
 20
405.3872971803293
 10
469.1601824694683
 20
405.2165834487238
450
        0
451
        0
460
0.0
461
0.0
452
        0
462
0.0
453
        0
470

  0
LINE
  5
14F7
330
18
100
AcDbEntity
  8
中心線
 48
0.2
100
AcDbLine
 10
467.2831679091033
 20
404.8597454416901
 30
0.0
 11
470.8613158413927
 21
405.3626213387827
 31
0.0
  0
LINE
  5
14F8
330
18
100
AcDbEntity
  8
中心線
 48
0.2
100
AcDbLine
 10
467.2274986687193
 20
405.2558526691867
 30
0.0
 11
470.8056466010087
 21
405.7587285662793
 31
0.0
  0
LINE
  5
14F9
330
18
100
AcDbEntity
  8
目盛
100
AcDbLine
 10
467.2511618895083
 20
405.0572128034844
 30
0.0
 11
467.7462959238791
 21
405.1267993539645
 31
0.0
  0
TEXT
  5
14FA
330
18
100
AcDbEntity
  8
文字
100
AcDbText
 10
473.1956376452587
 20
408.5196373781188
 30
0.0
 40
0.7
  1
15
 50
98.00000000000023
  7
STYLE3
100
AcDbText
  0
TEXT
  5
14FB
330
18
100
AcDbEntity
  8
文字
100
AcDbText
 10
470.8461567669699
 20
408.132934382591
 30
0.0
 40
0.7
  1
10
 50
98.00000000000023
  7
STYLE3
100
AcDbText
  0
TEXT
  5
14FC
330
18
100
AcDbEntity
  8
文字
100
AcDbText
 10
469.8350396884281
 20
402.8659280428079
 30
0.0
 40
0.7
  1
45
 50
98.00000000000023
  7
STYLE3
100
AcDbText
  0
TEXT
  5
14FD
330
18
100
AcDbEntity
  8
文字
100
AcDbText
 10
475.5829767666538
 20
403.6434204905519
 30
0.0
 40
0.7
  1
30
 50
98.00000000000023
  7
STYLE3
100
AcDbText
  0
TEXT
  5
14FE
330
18
100
AcDbEntity
  8
文字
100
AcDbText
 10
475.9114213451807
 20
405.6055673892119
 30
0.0
 40
0.7
  1
25
 50
98.00000000000023
  7
STYLE3
100
AcDbText
  0
TEXT
  5
14FF
330
18
100
AcDbEntity
  8
文字
100
AcDbText
 10
474.9501122979615
 20
407.5619775589492
 30
0.0
 40
0.7
  1
20
 50
98.00000000000023
  7
STYLE3
100
AcDbText
  0
TEXT
  5
1500
330
18
100
AcDbEntity
  8
文字
100
AcDbText
 10
469.2056409570222
 20
407.0890958482638
 30
0.0
 40
0.7
  1
5
 50
98.00000000000023
  7
STYLE3
100
AcDbText
  0
TEXT
  5
1501
330
18
100
AcDbEntity
  8
文字
100
AcDbText
 10
468.9867058911979
 20
404.9348771552542
 30
0.0
 40
0.7
  1
0
 50
98.00000000000023
  7
STYLE3
100
AcDbText
  0
CIRCLE
  5
1502
330
18
100
AcDbEntity
  8
外形線
100
AcDbCircle
 10
471.954935216031
 20
405.7182850330447
 30
0.0
 40
1.149999999999999
  0
LINE
  5
1503
330
18
100
AcDbEntity
  8
目盛
100
AcDbLine
 10
467.7609341499509
 20
407.9482749562777
 30
0.0
 11
468.2024079463803
 21
407.7135391748848
 31
0.0
  0
LINE
  5
1504
330
18
100
AcDbEntity
  8
目盛
100
AcDbLine
 10
475.3717992676393
 20
409.0179122927251
 30
0.0
 11
475.0121293674699
 21
408.6705831074955
 31
0.0
  0
LINE
  5
1505
330
18
100
AcDbEntity
  8
目盛
100
AcDbLine
 10
476.6587085425533
 20
406.3793572626051
 30
0.0
 11
476.1635745081825
 21
406.3097707121251
 31
0.0
  0
LINE
  5
1506
330
18
100
AcDbEntity
  8
目盛
100
AcDbLine
 10
469.8726722687826
 20
409.9875567529657
 30
0.0
 11
470.0918578421772
 21
409.5381597298162
 31
0.0
  0
LINE
  5
1507
330
18
100
AcDbEntity
  8
目盛
100
AcDbLine
 10
472.7797640599487
 20
410.3961218598526
 30
0.0
 11
472.6929399711152
 21
409.9037179833466
 31
0.0
  0
CIRCLE
  5
1508
330
18
100
AcDbEntity
  8
外形線
100
AcDbCircle
 10
482.3722885913308
 20
403.9509003397394
 30
0.0
 40
1.5
  0
POINT
  5
1509
330
18
100
AcDbEntity
  8
DEFPOINTS
  6
ByBlock
 62
     0
100
AcDbPoint
 10
482.3722885913308
 20
403.9509003397394
 30
0.0
  0
POINT
  5
150A
330
18
100
AcDbEntity
  8
DEFPOINTS
  6
ByBlock
 62
     0
100
AcDbPoint
 10
482.3722885913308
 20
403.9509003397394
 30
0.0
  0
HATCH
  5
150B
330
18
100
AcDbEntity
  8
ROGO
 62
     4
100
AcDbHatch
 10
0.0
 20
0.0
 30
0.0
210
0.0
220
0.0
230
1.0
  2
SOLID
 70
     1
 71
     1
 91
        2
 92
        5
 93
        6
 72
     1
 10
492.5298849896742
 20
397.6203291906135
 11
492.3971415529379
 21
398.5648478212126
 72
     1
 10
492.3971415529379
 20
398.5648478212126
 11
491.6190819941916
 21
398.7930074442864
 72
     1
 10
491.6190819941916
 20
398.7930074442864
 11
491.4949941066686
 21
399.6759386420833
 72
     4
 94
        3
 73
     0
 74
     0
 95
       18
 96
       14
 40
0.108740278791501
 40
0.108740278791501
 40
0.108740278791501
 40
0.108740278791501
 40
0.6623149649549278
 40
1.384304701649787
 40
2.097394834876493
 40
2.774073369849618
 40
3.428974823686337
 40
4.005208313035923
 40
4.455173659284313
 40
4.720999734343524
 40
5.086034088486724
 40
5.569973738255373
 40
6.060470601257719
 40
6.060470601257719
 40
6.060470601257719
 40
6.060470601257719
 10
491.4949941066686
 20
399.6759386420833
 10
491.4857982740515
 20
399.738012848345
 10
491.4646089436537
 20
399.8810462114371
 10
491.3294457241009
 20
400.0663189668633
 10
491.1664251016175
 20
400.2371130102948
 10
490.9745999768223
 20
400.3661700259209
 10
490.7664682479814
 20
400.4341218612767
 10
490.5777572358764
 20
400.4226566711415
 10
490.431397284093
 20
400.3928955511102
 10
490.3375495023282
 20
400.3140277194445
 10
490.2425273981091
 20
400.2323925366284
 10
490.1693195324212
 20
400.0969001326371
 10
490.1438214800514
 20
399.9907303042988
 10
490.1322629916266
 20
399.9369386391992
 72
     1
 10
490.1322629916266
 20
399.9369386391992
 11
490.3566793821377
 21
398.3401330489503
 72
     1
 10
490.3566793821377
 20
398.3401330489503
 11
492.5298849896742
 21
397.6203291906135
 97
        6
330
153E
330
1512
330
1519
330
1511
330
1517
330
1510
 92
       20
 93
        4
 72
     1
 10
491.1386742635422
 20
398.9338830951471
 11
490.7708621368242
 21
399.0417410030033
 72
     1
 10
490.7708621368242
 20
399.0417410030033
 11
490.7143596672104
 21
399.4437769645337
 72
     4
 94
        3
 73
     0
 74
     0
 95
       15
 96
       11
 40
0.0
 40
0.0
 40
0.0
 40
0.0
 40
0.1539705029175028
 40
0.2241725832587281
 40
0.3038566179396687
 40
0.3581410872474193
 40
0.443992538467216
 40
0.4954152125469665
 40
0.5836396705646186
 40
0.6130478420065743
 40
0.6130478420065743
 40
0.6130478420065743
 40
0.6130478420065743
 10
490.7143596672104
 20
399.4437769645337
 10
490.7060492116935
 20
399.5010056533942
 10
490.693949645569
 20
399.58432747657
 10
490.7906777407982
 20
399.6444149490494
 10
490.8599532694308
 20
399.633310509312
 10
490.9317393827193
 20
399.6172012072601
 10
490.9844464189309
 20
399.5783105764439
 10
491.0376303416466
 20
399.523646228619
 10
491.0511250863462
 20
399.4668185984393
 10
491.0663128283618
 20
399.4307596009346
 10
491.0701097656833
 20
399.4217448472433
 72
     1
 10
491.0701097656833
 20
399.4217448472433
 11
491.1386742635422
 21
398.9338830951471
 97
        4
330
1518
330
150F
330
153D
330
150E
 75
     0
 76
     1
 47
0.0514683685270805
 98
        2
 10
490.9874578591251
 20
398.437486435383
 10
490.9874578591251
 20
398.437486435383
450
        0
451
        0
460
0.0
461
0.0
452
        0
462
0.0
453
        0
470

  0
HATCH
  5
150C
330
18
100
AcDbEntity
  8
ROGO
 62
     4
100
AcDbHatch
 10
0.0
 20
0.0
 30
0.0
210
0.0
220
0.0
230
1.0
  2
SOLID
 70
     1
 71
     1
 91
        1
 92
        7
 72
     0
 73
     1
 93
        4
 10
492.180522713809
 20
398.6283695299696
 10
492.3971415529379
 20
398.5648478212126
 10
490.7021116386684
 20
410.6256123517418
 10
490.4841702692975
 20
410.6985443521395
 97
        4
330
150D
330
1517
330
1511
330
1549
 75
     0
 76
     1
 47
0.0514683685270805
 98
        1
 10
491.1632808683874
 20
406.2572760829549
450
        0
451
        0
460
0.0
461
0.0
452
        0
462
0.0
453
        0
470

  0
LINE
  5
150D
102
{ACAD_REACTORS
330
150C
102
}
330
18
100
AcDbEntity
  8
ROGO
 62
     4
100
AcDbLine
 10
492.1825078019468
 20
398.6142448939379
 30
0.0
 11
490.4841702692975
 21
410.6985443521396
 31
0.0
  0
LINE
  5
150E
102
{ACAD_REACTORS
330
150B
102
}
330
18
100
AcDbEntity
  8
ROGO
 62
     4
100
AcDbLine
 10
491.0701097656833
 20
399.4217448472434
 30
0.0
 11
491.1386742635422
 21
398.9338830951471
 31
0.0
  0
LINE
  5
150F
102
{ACAD_REACTORS
330
150B
102
}
330
18
100
AcDbEntity
  8
ROGO
 62
     4
100
AcDbLine
 10
490.7143596672104
 20
399.4437769645338
 30
0.0
 11
490.7708621368242
 21
399.0417410030033
 31
0.0
  0
LINE
  5
1510
102
{ACAD_REACTORS
330
150B
102
}
330
18
100
AcDbEntity
  8
ROGO
 62
     4
100
AcDbLine
 10
491.4949941066256
 20
399.6759386423894
 30
0.0
 11
491.6190819941917
 21
398.7930074442864
 31
0.0
  0
LINE
  5
1511
102
{ACAD_REACTORS
330
150C
330
14B5
330
150B
102
}
330
18
100
AcDbEntity
  8
ROGO
 62
     4
100
AcDbLine
 10
492.5298849896743
 20
397.6203291906135
 30
0.0
 11
490.5968851196385
 21
411.3743379392384
 31
0.0
  0
LINE
  5
1512
102
{ACAD_REACTORS
330
150B
102
}
330
18
100
AcDbEntity
  8
ROGO
 62
     4
100
AcDbLine
 10
490.3566793821376
 20
398.3401330489503
 30
0.0
 11
490.1322629916266
 21
399.9369386391992
 31
0.0
  0
TEXT
  5
1513
330
18
100
AcDbEntity
  8
文字
100
AcDbText
 10
470.7978269768155
 20
390.0595217196876
 30
0.0
 40
2.0
  1
.5
 50
98.00000000000023
  7
STYLE3
100
AcDbText
  0
LINE
  5
1514
330
18
100
AcDbEntity
  8
目盛
100
AcDbLine
 10
467.9604009299482
 20
386.0261271463156
 30
0.0
 11
469.2136085526771
 21
387.5848030761785
 31
0.0
  0
LINE
  5
1515
330
18
100
AcDbEntity
  8
目盛
100
AcDbLine
 10
470.320612754019
 20
384.3611808544494
 30
0.0
 11
471.3685845659592
 21
386.0646347227354
 31
0.0
  0
LINE
  5
1516
330
18
100
AcDbEntity
  8
目盛
100
AcDbLine
 10
469.1143453194255
 20
385.1565676780314
 30
0.0
 11
470.2672099517652
 21
386.7908574747016
 31
0.0
  0
LINE
  5
1517
102
{ACAD_REACTORS
330
150C
330
150B
102
}
330
18
100
AcDbEntity
  8
ROGO
 62
     4
100
AcDbLine
 10
491.6190819941917
 20
398.7930074442864
 30
0.0
 11
492.3971415529379
 21
398.5648478212126
 31
0.0
  0
LINE
  5
1518
102
{ACAD_REACTORS
330
150B
102
}
330
18
100
AcDbEntity
  8
ROGO
 62
     4
100
AcDbLine
 10
490.7708621368242
 20
399.0417410030033
 30
0.0
 11
491.1386742635422
 21
398.9338830951471
 31
0.0
  0
LINE
  5
1519
102
{ACAD_REACTORS
330
150B
102
}
330
18
100
AcDbEntity
  8
ROGO
 62
     4
100
AcDbLine
 10
490.3566793821376
 20
398.3401330489503
 30
0.0
 11
492.5298849896744
 21
397.6203291906135
 31
0.0
  0
LINE
  5
151A
330
18
100
AcDbEntity
  8
目盛
100
AcDbLine
 10
465.8274731835418
 20
387.9737578191824
 30
0.0
 11
467.9854925845577
 21
390.0577329305594
 31
0.0
  0
LINE
  5
151B
330
18
100
AcDbEntity
  8
目盛
100
AcDbLine
 10
464.8569075179859
 20
389.0441426152873
 30
0.0
 11
466.3799841330593
 21
390.3403824174136
 31
0.0
  0
LINE
  5
151C
330
18
100
AcDbEntity
  8
目盛
100
AcDbLine
 10
466.8633336769051
 20
386.9664275053441
 30
0.0
 11
468.2119384520726
 21
388.4433381865957
 31
0.0
  0
LINE
  5
151D
330
18
100
AcDbEntity
  8
目盛
100
AcDbLine
 10
463.9554670595099
 20
390.1733575738808
 30
0.0
 11
465.5569298014073
 21
391.371404770912
 31
0.0
  0
LINE
  5
151E
330
18
100
AcDbEntity
  8
目盛
100
AcDbLine
 10
463.1267093817747
 20
391.3569461994106
 30
0.0
 11
464.8002380086926
 21
392.4520726463958
 31
0.0
  0
LINE
  5
151F
330
18
100
AcDbEntity
  8
目盛
100
AcDbLine
 10
462.3739052127107
 20
392.5902374083021
 30
0.0
 11
464.1128950717211
 21
393.5781211414706
 31
0.0
  0
LINE
  5
1520
330
18
100
AcDbEntity
  8
目盛
100
AcDbLine
 10
461.7000255264499
 20
393.8683639635906
 30
0.0
 11
464.3964076653474
 21
395.1834774039578
 31
0.0
  0
HATCH
  5
1521
330
18
100
AcDbEntity
  8
ROGO
 62
     4
100
AcDbHatch
 10
0.0
 20
0.0
 30
0.0
210
0.0
220
0.0
230
1.0
  2
SOLID
 70
     1
 71
     1
 91
        1
 92
        5
 93
        8
 72
     1
 10
489.6726620060461
 20
406.717726205829
 11
489.154936479142
 21
406.8909781150148
 72
     1
 10
489.154936479142
 20
406.8909781150148
 11
489.3379541647481
 21
405.5887396161926
 72
     4
 94
        3
 73
     0
 74
     0
 95
       26
 96
       22
 40
0.0
 40
0.0
 40
0.0
 40
0.0
 40
0.2382195346591896
 40
0.397689067266058
 40
0.5126795869787669
 40
0.5985392873135731
 40
0.7099038249249733
 40
0.7911890807494741
 40
0.9379713068543702
 40
1.057449928673087
 40
1.138714535893316
 40
1.218398644003506
 40
1.36093802187036
 40
1.461730374800257
 40
1.516014844108008
 40
1.593124329220501
 40
1.648806818593631
 40
1.729472362005518
 40
1.775122082164342
 40
1.874460993765092
 40
1.919820003751207
 40
1.919820003751207
 40
1.919820003751207
 40
1.919820003751207
 10
489.3379541647482
 20
405.5887396161922
 10
489.3539840849178
 20
405.5093424715782
 10
489.3807447954099
 20
405.3767950865356
 10
489.4905308153795
 20
405.2425587579429
 10
489.557476459249
 20
405.1423134660965
 10
489.6387175135031
 20
405.0755261313677
 10
489.719400985267
 20
405.029540856932
 10
489.8160814189688
 20
404.9708599898301
 10
489.925185971967
 20
404.92726080664
 10
490.040622364448
 20
404.913473426981
 10
490.1329930582211
 20
404.899871905142
 10
490.2345624928411
 20
404.8944318814108
 10
490.3406665473091
 20
404.9143598056978
 10
490.4388626346563
 20
404.935343467111
 10
490.5052466708622
 20
404.9767439357226
 10
490.5506206875661
 20
405.0196437992431
 10
490.5999755212881
 20
405.0713020347513
 10
490.6300009134433
 20
405.1244573296789
 10
490.6910335222702
 20
405.1735085573959
 10
490.689769374184
 20
405.2441786588182
 10
490.7004804265102
 20
405.2907176575977
 10
490.7038380609813
 20
405.305306415247
 72
     1
 10
490.7038380609813
 20
405.305306415247
 11
490.5464292456874
 21
406.4253283336262
 72
     1
 10
490.5464292456874
 20
406.4253283336262
 11
490.0287092013551
 21
406.5985784081216
 72
     1
 10
490.0287092013551
 20
406.5985784081216
 11
490.1455702128472
 21
405.7670691052238
 72
     4
 94
        3
 73
     0
 74
     0
 95
       16
 96
       12
 40
0.0
 40
0.0
 40
0.0
 40
0.0
 40
0.0719416665231651
 40
0.1446253590759065
 40
0.1879779149910977
 40
0.2295440936104405
 40
0.2751936323958134
 40
0.3070718656052443
 40
0.3373215422372259
 40
0.3986635435212919
 40
0.5242542460842631
 40
0.5242542460842631
 40
0.5242542460842631
 40
0.5242542460842631
 10
490.1455702128472
 20
405.7670691052237
 10
490.1417158810183
 20
405.740950765351
 10
490.1339674627274
 20
405.6884446939029
 10
490.0626475642319
 20
405.6741181395795
 10
490.0105957365379
 20
405.6726652146046
 10
489.9699034716282
 20
405.691498378849
 10
489.9386515491297
 20
405.7168921501816
 10
489.9017685086848
 20
405.7227992043669
 10
489.8705785304972
 20
405.751015627801
 10
489.8177373582897
 20
405.8013976235166
 10
489.7993699780547
 20
405.86274227136
 10
489.7870298570353
 20
405.9039566616864
 72
     1
 10
489.7870298570353
 20
405.9039566616864
 11
489.6726620060461
 21
406.717726205829
 97
        8
330
1552
330
1522
330
1523
330
1553
330
1555
330
1554
330
1556
330
1557
 75
     0
 76
     1
 47
0.0514683685270805
 98
        1
 10
489.5634227080083
 20
406.0848639173279
450
        0
451
        0
460
0.0
461
0.0
452
        0
462
0.0
453
        0
470

  0
SPLINE
  5
1522
102
{ACAD_REACTORS
330
1521
102
}
330
18
100
AcDbEntity
  8
ROGO
 62
     4
100
AcDbSpline
210
0.0
220
0.0
230
1.0
 70
     8
 71
     3
 72
    26
 73
    22
 74
    20
 42
0.0000000001
 43
0.0000000001
 44
0.0000000001
 40
0.0
 40
0.0
 40
0.0
 40
0.0
 40
0.2382195346591549
 40
0.3976890672660507
 40
0.5126795869787351
 40
0.5985392873134853
 40
0.7099038249248996
 40
0.7911890807493869
 40
0.9379713068542967
 40
1.057449928673025
 40
1.138714535893233
 40
1.218398644003423
 40
1.360938021870271
 40
1.461730374800212
 40
1.516014844107955
 40
1.593124329220456
 40
1.648806818593554
 40
1.72947236200543
 40
1.775122082164265
 40
1.874460993765026
 40
1.919820003751141
 40
1.919820003751141
 40
1.919820003751141
 40
1.919820003751141
 10
489.3379541647482
 20
405.5887396161922
 30
0.0
 10
489.3539840849178
 20
405.5093424715782
 30
0.0
 10
489.3807447954099
 20
405.3767950865355
 30
0.0
 10
489.4905308153796
 20
405.2425587579429
 30
0.0
 10
489.5574764592489
 20
405.1423134660965
 30
0.0
 10
489.6387175135031
 20
405.0755261313676
 30
0.0
 10
489.719400985267
 20
405.0295408569319
 30
0.0
 10
489.8160814189688
 20
404.9708599898302
 30
0.0
 10
489.925185971967
 20
404.92726080664
 30
0.0
 10
490.040622364448
 20
404.9134734269809
 30
0.0
 10
490.132993058221
 20
404.899871905142
 30
0.0
 10
490.2345624928411
 20
404.8944318814108
 30
0.0
 10
490.3406665473091
 20
404.9143598056978
 30
0.0
 10
490.4388626346563
 20
404.9353434671111
 30
0.0
 10
490.5052466708624
 20
404.9767439357228
 30
0.0
 10
490.5506206875661
 20
405.0196437992431
 30
0.0
 10
490.599975521288
 20
405.0713020347513
 30
0.0
 10
490.6300009134434
 20
405.1244573296788
 30
0.0
 10
490.6910335222701
 20
405.173508557396
 30
0.0
 10
490.6897693741841
 20
405.2441786588181
 30
0.0
 10
490.7004804265103
 20
405.2907176575978
 30
0.0
 10
490.7038380609813
 20
405.305306415247
 30
0.0
 11
489.3379541647482
 21
405.5887396161922
 31
0.0
 11
489.4069989485807
 21
405.3607453958297
 31
0.0
 11
489.4974291329206
 21
405.2293950490843
 31
0.0
 11
489.5677877971222
 21
405.1384418853374
 31
0.0
 11
489.6331831553585
 21
405.0828061480571
 31
0.0
 11
489.7278015330583
 21
405.0240743607621
 31
0.0
 11
489.7982689137689
 21
404.9835571906952
 31
0.0
 11
489.9352331449341
 21
404.9307763108081
 31
0.0
 11
490.0531185175053
 21
404.9113294600228
 31
0.0
 11
490.1337303462531
 21
404.9010498952179
 31
0.0
 11
490.2133495134566
 21
404.8978334843093
 31
0.0
 11
490.3545017078965
 21
404.917671131536
 31
0.0
 11
490.4513228987852
 21
404.945684617646
 31
0.0
 11
490.4977482291013
 21
404.973818090824
 31
0.0
 11
490.555310495996
 21
405.0251255768691
 31
0.0
 11
490.5926927563284
 21
405.0663942845691
 31
0.0
 11
490.6412120103217
 21
405.1308365989741
 31
0.0
 11
490.6725293565502
 21
405.1640498610208
 31
0.0
 11
490.6949121192191
 21
405.2608343189328
 31
0.0
 11
490.7038380609813
 21
405.305306415247
 31
0.0
  0
LINE
  5
1523
102
{ACAD_REACTORS
330
1521
102
}
330
18
100
AcDbEntity
  8
ROGO
 62
     4
100
AcDbLine
 10
490.7038380609813
 20
405.305306415247
 30
0.0
 11
490.5464292456874
 21
406.4253283336262
 31
0.0
  0
HATCH
  5
1524
330
18
100
AcDbEntity
  8
ROGO
 62
     4
100
AcDbHatch
 10
0.0
 20
0.0
 30
0.0
210
0.0
220
0.0
230
1.0
  2
SOLID
 70
     1
 71
     1
 91
        2
 92
        7
 72
     0
 73
     1
 93
        8
 10
489.5347086848355
 20
404.1887584612206
 10
489.6808965947919
 20
403.1485774329373
 10
491.1130498762784
 20
402.3936130546406
 10
491.0118366210959
 20
403.1137827860709
 10
490.7391634973163
 20
403.2575233325846
 10
490.6236669433718
 20
404.0793240155612
 10
490.8557910293686
 20
404.2241048647578
 10
490.7538874101332
 20
404.9491867916672
 97
        8
330
152B
330
1531
330
152C
330
152D
330
152F
330
1525
330
152A
330
1527
 92
       22
 72
     0
 73
     1
 93
        3
 10
490.3788386702072
 20
403.9266192880708
 10
490.4515669312528
 20
403.4091308214653
 10
489.96250373245
 20
403.6669421176478
 97
        3
330
152E
330
1530
330
1526
 75
     0
 76
     1
 47
0.0128389261915577
 98
        2
 10
489.8581323038244
 20
404.1511494281792
 10
489.8581323038244
 20
404.1511494281792
450
        0
451
        0
460
0.0
461
0.0
452
        0
462
0.0
453
        0
470

  0
LINE
  5
1525
102
{ACAD_REACTORS
330
1524
102
}
330
18
100
AcDbEntity
  8
ROGO
 62
     4
100
AcDbLine
 10
490.6236669433718
 20
404.0793240155612
 30
0.0
 11
490.8557910293687
 21
404.2241048647577
 31
0.0
  0
LINE
  5
1526
102
{ACAD_REACTORS
330
1524
102
}
330
18
100
AcDbEntity
  8
ROGO
 62
     4
100
AcDbLine
 10
489.96250373245
 20
403.6669421176478
 30
0.0
 11
490.3788386702073
 21
403.9266192880708
 31
0.0
  0
LINE
  5
1527
102
{ACAD_REACTORS
330
1524
102
}
330
18
100
AcDbEntity
  8
ROGO
 62
     4
100
AcDbLine
 10
489.5347086848355
 20
404.1887584612207
 30
0.0
 11
490.7538874101332
 21
404.9491867916672
 31
0.0
  0
HATCH
  5
1528
330
18
100
AcDbEntity
  8
ROGO
 62
     4
100
AcDbHatch
 10
0.0
 20
0.0
 30
0.0
210
0.0
220
0.0
230
1.0
  2
SOLID
 70
     1
 71
     1
 91
        1
 92
        1
 93
       12
 72
     1
 10
489.9996833564432
 20
400.8802917611878
 11
489.7525003571058
 21
402.6390901905613
 72
     1
 10
489.7525003571058
 20
402.6390901905613
 11
490.0710890167425
 21
402.533568032127
 72
     1
 10
490.0710890167425
 20
402.533568032127
 11
490.2010021550184
 21
401.6091880214982
 72
     1
 10
490.2010021550184
 20
401.6091880214982
 11
490.4500988972063
 21
401.5266828063893
 72
     1
 10
490.4500988972063
 20
401.5266828063893
 11
490.3201857589304
 21
402.451062817018
 72
     1
 10
490.3201857589304
 20
402.451062817018
 11
490.5756111326604
 21
402.3664614480124
 72
     1
 10
490.5756111326604
 20
402.3664614480124
 11
490.7055242709364
 21
401.4420814373838
 72
     1
 10
490.7055242709364
 20
401.4420814373838
 11
490.9546315586829
 21
401.3595727294005
 72
     1
 10
490.9546315586829
 20
401.3595727294005
 11
490.824718420407
 21
402.2839527400292
 72
     1
 10
490.824718420407
 20
402.2839527400292
 11
491.1432910546794
 21
402.178435889477
 72
     1
 10
491.1432910546794
 20
402.178435889477
 11
491.3904740540168
 21
400.4196374601034
 72
     1
 10
491.3904740540168
 20
400.4196374601034
 11
489.9996833564432
 21
400.8802917611878
 97
       12
330
1529
330
153B
330
1538
330
1539
330
1537
330
1534
330
1535
330
1532
330
1536
330
1533
330
153A
330
153C
 75
     0
 76
     1
 98
        1
 10
590.0250823105339
 20
341.5738414319016
450
        0
451
        0
460
0.0
461
0.0
452
        0
462
0.0
453
        0
470

  0
LINE
  5
1529
102
{ACAD_REACTORS
330
1528
102
}
330
18
100
AcDbEntity
  8
ROGO
 62
     4
100
AcDbLine
 10
489.9996833564432
 20
400.8802917611878
 30
0.0
 11
489.7525003571058
 21
402.6390901905613
 31
0.0
  0
LINE
  5
152A
102
{ACAD_REACTORS
330
1524
102
}
330
18
100
AcDbEntity
  8
ROGO
 62
     4
100
AcDbLine
 10
490.7538874101332
 20
404.9491867916672
 30
0.0
 11
490.8557910293687
 21
404.2241048647577
 31
0.0
  0
LINE
  5
152B
102
{ACAD_REACTORS
330
1524
102
}
330
18
100
AcDbEntity
  8
ROGO
 62
     4
100
AcDbLine
 10
489.680896594792
 20
403.1485774329373
 30
0.0
 11
489.5347086848355
 21
404.1887584612207
 31
0.0
  0
LINE
  5
152C
102
{ACAD_REACTORS
330
1524
102
}
330
18
100
AcDbEntity
  8
ROGO
 62
     4
100
AcDbLine
 10
491.1130498762784
 20
402.3936130546406
 30
0.0
 11
491.0118366210959
 21
403.1137827860709
 31
0.0
  0
LINE
  5
152D
102
{ACAD_REACTORS
330
1524
102
}
330
18
100
AcDbEntity
  8
ROGO
 62
     4
100
AcDbLine
 10
490.7391634973164
 20
403.2575233325846
 30
0.0
 11
491.0118366210958
 21
403.1137827860709
 31
0.0
  0
LINE
  5
152E
102
{ACAD_REACTORS
330
1524
102
}
330
18
100
AcDbEntity
  8
ROGO
 62
     4
100
AcDbLine
 10
490.4515669312528
 20
403.4091308214653
 30
0.0
 11
490.3788386702073
 21
403.9266192880708
 31
0.0
  0
LINE
  5
152F
102
{ACAD_REACTORS
330
1524
102
}
330
18
100
AcDbEntity
  8
ROGO
 62
     4
100
AcDbLine
 10
490.7391634973164
 20
403.2575233325846
 30
0.0
 11
490.6236669433718
 21
404.0793240155612
 31
0.0
  0
LINE
  5
1530
102
{ACAD_REACTORS
330
1524
102
}
330
18
100
AcDbEntity
  8
ROGO
 62
     4
100
AcDbLine
 10
489.96250373245
 20
403.6669421176477
 30
0.0
 11
490.4515669312529
 21
403.4091308214653
 31
0.0
  0
LINE
  5
1531
102
{ACAD_REACTORS
330
1524
102
}
330
18
100
AcDbEntity
  8
ROGO
 62
     4
100
AcDbLine
 10
489.680896594792
 20
403.1485774329373
 30
0.0
 11
491.1130498762784
 21
402.3936130546406
 31
0.0
  0
LINE
  5
1532
102
{ACAD_REACTORS
330
1528
102
}
330
18
100
AcDbEntity
  8
ROGO
 62
     4
100
AcDbLine
 10
490.7055242709364
 20
401.4420814373838
 30
0.0
 11
490.9546315586829
 21
401.3595727294005
 31
0.0
  0
LINE
  5
1533
102
{ACAD_REACTORS
330
1528
102
}
330
18
100
AcDbEntity
  8
ROGO
 62
     4
100
AcDbLine
 10
490.824718420407
 20
402.2839527400292
 30
0.0
 11
491.1432910546794
 21
402.178435889477
 31
0.0
  0
LINE
  5
1534
102
{ACAD_REACTORS
330
1528
102
}
330
18
100
AcDbEntity
  8
ROGO
 62
     4
100
AcDbLine
 10
490.3201857589304
 20
402.451062817018
 30
0.0
 11
490.5756111326604
 21
402.3664614480124
 31
0.0
  0
LINE
  5
1535
102
{ACAD_REACTORS
330
1528
102
}
330
18
100
AcDbEntity
  8
ROGO
 62
     4
100
AcDbLine
 10
490.7055242709364
 20
401.4420814373838
 30
0.0
 11
490.5756111326604
 21
402.3664614480124
 31
0.0
  0
LINE
  5
1536
102
{ACAD_REACTORS
330
1528
102
}
330
18
100
AcDbEntity
  8
ROGO
 62
     4
100
AcDbLine
 10
490.9546315586829
 20
401.3595727294005
 30
0.0
 11
490.824718420407
 21
402.2839527400292
 31
0.0
  0
LINE
  5
1537
102
{ACAD_REACTORS
330
1528
102
}
330
18
100
AcDbEntity
  8
ROGO
 62
     4
100
AcDbLine
 10
490.4500988972063
 20
401.5266828063893
 30
0.0
 11
490.3201857589304
 21
402.451062817018
 31
0.0
  0
LINE
  5
1538
102
{ACAD_REACTORS
330
1528
102
}
330
18
100
AcDbEntity
  8
ROGO
 62
     4
100
AcDbLine
 10
490.2010021550184
 20
401.6091880214982
 30
0.0
 11
490.0710890167425
 21
402.533568032127
 31
0.0
  0
LINE
  5
1539
102
{ACAD_REACTORS
330
1528
102
}
330
18
100
AcDbEntity
  8
ROGO
 62
     4
100
AcDbLine
 10
490.2010021550184
 20
401.6091880214982
 30
0.0
 11
490.4500988972063
 21
401.5266828063893
 31
0.0
  0
LINE
  5
153A
102
{ACAD_REACTORS
330
1528
102
}
330
18
100
AcDbEntity
  8
ROGO
 62
     4
100
AcDbLine
 10
491.3904740540168
 20
400.4196374601034
 30
0.0
 11
491.1432910546794
 21
402.178435889477
 31
0.0
  0
LINE
  5
153B
102
{ACAD_REACTORS
330
1528
102
}
330
18
100
AcDbEntity
  8
ROGO
 62
     4
100
AcDbLine
 10
489.7525003571058
 20
402.6390901905613
 30
0.0
 11
490.0710890167425
 21
402.533568032127
 31
0.0
  0
LINE
  5
153C
102
{ACAD_REACTORS
330
1528
102
}
330
18
100
AcDbEntity
  8
ROGO
 62
     4
100
AcDbLine
 10
489.9996833564432
 20
400.8802917611878
 30
0.0
 11
491.3904740540168
 21
400.4196374601034
 31
0.0
  0
SPLINE
  5
153D
102
{ACAD_REACTORS
330
150B
102
}
330
18
100
AcDbEntity
  8
ROGO
 62
     4
100
AcDbSpline
210
0.0
220
0.0
230
1.0
 70
     8
 71
     3
 72
    15
 73
    11
 74
     9
 42
0.0000000001
 43
0.0000000001
 44
0.0000000001
 40
0.0
 40
0.0
 40
0.0
 40
0.0
 40
0.1539705029174998
 40
0.2241725832587269
 40
0.3038566179396577
 40
0.3581410872474616
 40
0.4439925384672192
 40
0.4954152125469867
 40
0.5836396705646493
 40
0.6130478420065762
 40
0.6130478420065762
 40
0.6130478420065762
 40
0.6130478420065762
 10
490.7143596672104
 20
399.4437769645337
 30
0.0
 10
490.7060492116935
 20
399.5010056533942
 30
0.0
 10
490.693949645569
 20
399.5843274765698
 30
0.0
 10
490.7906777407982
 20
399.6444149490494
 30
0.0
 10
490.8599532694308
 20
399.633310509312
 30
0.0
 10
490.9317393827194
 20
399.6172012072601
 30
0.0
 10
490.9844464189307
 20
399.5783105764439
 30
0.0
 10
491.0376303416467
 20
399.523646228619
 30
0.0
 10
491.0511250863464
 20
399.4668185984394
 30
0.0
 10
491.0663128283618
 20
399.4307596009346
 30
0.0
 10
491.0701097656833
 20
399.4217448472433
 30
0.0
 11
490.7143596672104
 21
399.4437769645337
 31
0.0
 11
490.7288010821987
 21
399.5970687167639
 31
0.0
 11
490.788348729264
 21
399.634249488854
 31
0.0
 11
490.8679678393853
 21
399.6310334841073
 31
0.0
 11
490.9203493672963
 21
399.6167864092587
 31
0.0
 11
490.9918094666336
 21
399.5692056791336
 31
0.0
 11
491.0259961951505
 21
399.5307926734867
 31
0.0
 11
491.0590813155288
 21
399.4490067957201
 31
0.0
 11
491.0701097656833
 21
399.4217448472433
 31
0.0
  0
SPLINE
  5
153E
102
{ACAD_REACTORS
330
150B
102
}
330
18
100
AcDbEntity
  8
ROGO
 62
     4
100
AcDbSpline
210
0.0
220
0.0
230
1.0
 70
     8
 71
     3
 72
    18
 73
    14
 74
     0
 42
0.0000000001
 43
0.0000000001
 40
0.1087402787915014
 40
0.1087402787915014
 40
0.1087402787915014
 40
0.1087402787915014
 40
0.5992371417938475
 40
1.083176791562496
 40
1.448211145705696
 40
1.714037220764907
 40
2.164002567013297
 40
2.740236056362883
 40
3.395137510199602
 40
4.071816045172726
 40
4.784906178399433
 40
5.506895915094292
 40
6.060470601257719
 40
6.060470601257719
 40
6.060470601257719
 40
6.060470601257719
 10
490.1322629916266
 20
399.9369386391992
 30
0.0
 10
490.1438214800514
 20
399.9907303042988
 30
0.0
 10
490.1693195324212
 20
400.0969001326371
 30
0.0
 10
490.2425273981091
 20
400.2323925366284
 30
0.0
 10
490.3375495023282
 20
400.3140277194445
 30
0.0
 10
490.431397284093
 20
400.3928955511102
 30
0.0
 10
490.5777572358764
 20
400.4226566711415
 30
0.0
 10
490.7664682479814
 20
400.4341218612767
 30
0.0
 10
490.9745999768223
 20
400.3661700259209
 30
0.0
 10
491.1664251016175
 20
400.2371130102948
 30
0.0
 10
491.3294457241009
 20
400.0663189668633
 30
0.0
 10
491.4646089436537
 20
399.8810462114371
 30
0.0
 10
491.4857982740515
 20
399.738012848345
 30
0.0
 10
491.4949941066686
 20
399.6759386420833
 30
0.0
  0
HATCH
  5
153F
330
18
100
AcDbEntity
  8
ROGO
 62
     4
100
AcDbHatch
 10
0.0
 20
0.0
 30
0.0
210
0.0
220
0.0
230
1.0
  2
SOLID
 70
     1
 71
     1
 91
        2
 92
        5
 93
        6
 72
     4
 94
        3
 73
     0
 74
     0
 95
       38
 96
       34
 40
0.0
 40
0.0
 40
0.0
 40
0.0
 40
0.1807680148264315
 40
0.2375392910068956
 40
0.3104865209606157
 40
0.3712759982447458
 40
0.422566754387306
 40
0.490692583720658
 40
0.5255021974951946
 40
0.5647069597052371
 40
0.622487401681883
 40
0.6879401044674746
 40
0.7303986317551266
 40
0.7765228362185534
 40
0.8277951442290254
 40
0.9056034697002209
 40
0.9795294930264187
 40
1.013897332332996
 40
1.053089255536027
 40
1.099518741889647
 40
1.132570569820733
 40
1.160277520290299
 40
1.19983678629386
 40
1.243305643169139
 40
1.286774258016964
 40
1.324809356515675
 40
1.411916492917645
 40
1.446284332224223
 40
1.5150200516612
 40
1.575779369908399
 40
1.69209852953623
 40
1.835624328519098
 40
2.042896467983898
 40
2.042896467983898
 40
2.042896467983898
 40
2.042896467983898
 10
489.0480240148012
 20
407.6123443827941
 10
489.0606251393148
 20
407.553267793436
 10
489.0771837223456
 20
407.4756378478689
 10
489.1184525788786
 20
407.3799109828259
 10
489.1585750973119
 20
407.3302064829173
 10
489.1903983851976
 20
407.2770831344826
 10
489.2325357826705
 20
407.2338993588343
 10
489.2576068309662
 20
407.1877533842212
 10
489.2952643108171
 20
407.1582657070433
 10
489.3208870492975
 20
407.1216116299209
 10
489.3702382549392
 20
407.0964916242425
 10
489.4171872260748
 20
407.0672605063808
 10
489.453582043585
 20
407.0308088929897
 10
489.4904920715598
 20
407.0018820161027
 10
489.5445124303049
 20
406.9781790079742
 10
489.61311138372
 20
406.9692981364412
 10
489.6620061374201
 20
406.923959928199
 10
489.7132244975971
 20
406.9232970203542
 10
489.7467833217469
 20
406.8991345078696
 10
489.786695933476
 20
406.8921863049219
 10
489.8223364612441
 20
406.8924127331515
 10
489.8557977758707
 20
406.8913752482965
 10
489.8922347695471
 20
406.8814809468015
 10
489.9340123873153
 20
406.8922534169171
 10
489.9753135180485
 20
406.8966617620239
 10
490.0306983267945
 20
406.9052672253539
 10
490.0851411862554
 20
406.9099532718667
 10
490.1406840605941
 20
406.9414072039445
 10
490.191169264786
 20
406.9624964732869
 10
490.2584606941015
 20
407.0102786126117
 10
490.3330834612845
 20
407.0868758867471
 10
490.4173949544468
 20
407.2244382723956
 10
490.4110464728483
 20
407.3444229476964
 10
490.4072954149912
 20
407.4153169799211
 72
     1
 10
490.4072954149911
 20
407.4153169799211
 11
490.3028524292912
 21
408.1584674380866
 72
     4
 94
        3
 73
     0
 74
     0
 95
       11
 96
        7
 40
0.1647869275458135
 40
0.1647869275458135
 40
0.1647869275458135
 40
0.1647869275458135
 40
0.2545010798212315
 40
0.5111620267764023
 40
0.7602998271033902
 40
0.8850764140209603
 40
0.8850764140209603
 40
0.8850764140209603
 40
0.8850764140209603
 10
490.3028524292912
 20
408.1584674380866
 10
490.3015948740377
 20
408.1688655139013
 10
490.2967396107972
 20
408.2090111815667
 10
490.2772933044968
 20
408.2760537748219
 10
490.257755771233
 20
408.3467211731332
 10
490.2448636973166
 20
408.3886762586711
 10
490.2390651937413
 20
408.4019772500825
 72
     4
 94
        3
 73
     0
 74
     0
 95
        9
 96
        5
 40
0.0
 40
0.0
 40
0.0
 40
0.0
 40
0.1135793343552172
 40
0.2662938392177403
 40
0.2662938392177403
 40
0.2662938392177403
 40
0.2662938392177403
 10
490.2390651937413
 20
408.4019772500825
 10
490.2229337589617
 20
408.4365536517636
 10
490.1851126031685
 20
408.5176201838248
 10
490.1205022859483
 20
408.5799110735165
 10
490.0834494850563
 20
408.615633726375
 72
     4
 94
        3
 73
     0
 74
     0
 95
       25
 96
       21
 40
0.0
 40
0.0
 40
0.0
 40
0.0
 40
0.165525918914855
 40
0.3412380755365305
 40
0.5940540902285263
 40
0.7697671103696209
 40
0.9377330196075423
 40
1.11479469302833
 40
1.274661249598185
 40
1.574522170874768
 40
1.815540668866877
 40
2.15849091873445
 40
2.536227739636605
 40
2.738070817316548
 40
2.925680654369045
 40
3.162706124480894
 40
3.395643218188267
 40
3.648478129958861
 40
3.928509979727306
 40
4.337226830236035
 40
4.337226830236035
 40
4.337226830236035
 40
4.337226830236035
 10
490.0834494850563
 20
408.615633726375
 10
490.0691898521857
 20
408.628668681733
 10
490.0362733195533
 20
408.6525674664477
 10
489.9823219129585
 20
408.6955787009075
 10
489.9214435289269
 20
408.7316068507043
 10
489.8695039448261
 20
408.7793048521104
 10
489.8113247308849
 20
408.7997598930865
 10
489.7629836362479
 20
408.8342361812122
 10
489.6923386989477
 20
408.858926610701
 10
489.6126224957119
 20
408.8770956783169
 10
489.5101312470412
 20
408.8906940473078
 10
489.3973808078964
 20
408.8855788819565
 10
489.2919146424212
 20
408.8548735488224
 10
489.216733976746
 20
408.8059382094142
 10
489.1535593060091
 20
408.7688509026969
 10
489.0959394955317
 20
408.7179427517279
 10
489.0335857821802
 20
408.6603388399137
 10
488.9859244178007
 20
408.5848326179156
 10
488.9293924141433
 20
408.4869627623352
 10
488.9382969215366
 20
408.4044559721124
 10
488.9435810291011
 20
408.3554948409596
 72
     1
 10
488.9435810291011
 20
408.3554948409596
 11
489.0480240148012
 21
407.6123443827941
 97
        6
330
1545
330
1544
330
1546
330
1543
330
1542
330
1541
 92
       20
 93
        1
 72
     3
 10
489.6951231466425
 20
407.8774414769288
 11
-0.1800657646508305
 21
0.1547302221092944
 40
0.6788083417438791
 50
0.0
 51
360.0
 73
     1
 97
        1
330
1540
 75
     0
 76
     1
 47
0.088756267210375
 98
        2
 10
489.3773896896476
 20
407.8857334996032
 10
489.3773896896476
 20
407.8857334996032
450
        0
451
        0
460
0.0
461
0.0
452
        0
462
0.0
453
        0
470

  0
ELLIPSE
  5
1540
102
{ACAD_REACTORS
330
153F
102
}
330
18
100
AcDbEntity
  8
ROGO
 62
     4
100
AcDbEllipse
 10
489.6951231466425
 20
407.8774414769288
 30
0.0
 11
-0.1800657646508305
 21
0.1547302221092944
 31
0.0
210
0.0
220
0.0
230
1.0
 40
0.6788083417438792
 41
0.0
 42
6.283185307179586
  0
SPLINE
  5
1541
102
{ACAD_REACTORS
330
153F
102
}
330
18
100
AcDbEntity
  8
ROGO
 62
     4
100
AcDbSpline
210
0.0
220
0.0
230
1.0
 70
     8
 71
     3
 72
     9
 73
     5
 74
     3
 42
0.0000000001
 43
0.0000000001
 44
0.0000000001
 40
0.0
 40
0.0
 40
0.0
 40
0.0
 40
0.1135793343551961
 40
0.2662938392176879
 40
0.2662938392176879
 40
0.2662938392176879
 40
0.2662938392176879
 10
490.2390651937413
 20
408.4019772500825
 30
0.0
 10
490.2229337589618
 20
408.4365536517636
 30
0.0
 10
490.1851126031686
 20
408.5176201838248
 30
0.0
 10
490.1205022859482
 20
408.5799110735164
 30
0.0
 10
490.0834494850563
 20
408.615633726375
 30
0.0
 11
490.2390651937413
 21
408.4019772500825
 31
0.0
 11
490.1857974505713
 21
408.5022908220961
 31
0.0
 11
490.0834494850563
 21
408.615633726375
 31
0.0
  0
SPLINE
  5
1542
102
{ACAD_REACTORS
330
153F
102
}
330
18
100
AcDbEntity
  8
ROGO
 62
     4
100
AcDbSpline
210
0.0
220
0.0
230
1.0
 70
     8
 71
     3
 72
    11
 73
     7
 74
     0
 42
0.0000000001
 43
0.0000000001
 40
0.1647869275458134
 40
0.1647869275458134
 40
0.1647869275458134
 40
0.1647869275458134
 40
0.2895635144633836
 40
0.5387013147903714
 40
0.7953622617455423
 40
0.8850764140209602
 40
0.8850764140209602
 40
0.8850764140209602
 40
0.8850764140209602
 10
490.2390651937413
 20
408.4019772500825
 30
0.0
 10
490.2448636973166
 20
408.3886762586711
 30
0.0
 10
490.257755771233
 20
408.3467211731332
 30
0.0
 10
490.2772933044968
 20
408.2760537748219
 30
0.0
 10
490.2967396107972
 20
408.2090111815667
 30
0.0
 10
490.3015948740377
 20
408.1688655139013
 30
0.0
 10
490.3028524292912
 20
408.1584674380866
 30
0.0
  0
LINE
  5
1543
102
{ACAD_REACTORS
330
153F
102
}
330
18
100
AcDbEntity
  8
ROGO
 62
     4
100
AcDbLine
 10
490.4072954149912
 20
407.4153169799211
 30
0.0
 11
490.3028524292912
 21
408.1584674380866
 31
0.0
  0
LINE
  5
1544
102
{ACAD_REACTORS
330
153F
102
}
330
18
100
AcDbEntity
  8
ROGO
 62
     4
100
AcDbLine
 10
489.0480240148012
 20
407.6123443827941
 30
0.0
 11
488.9435810291011
 21
408.3554948409596
 31
0.0
  0
SPLINE
  5
1545
102
{ACAD_REACTORS
330
153F
102
}
330
18
100
AcDbEntity
  8
ROGO
 62
     4
100
AcDbSpline
210
0.0
220
0.0
230
1.0
 70
     8
 71
     3
 72
    25
 73
    21
 74
     0
 42
0.0000000001
 43
0.0000000001
 40
0.0
 40
0.0
 40
0.0
 40
0.0
 40
0.4087168505087288
 40
0.6887487002771746
 40
0.9415836120477687
 40
1.17452070575514
 40
1.41154617586699
 40
1.599156012919487
 40
1.80099909059943
 40
2.178735911501585
 40
2.521686161369157
 40
2.762704659361267
 40
3.06256558063785
 40
3.222432137207705
 40
3.399493810628493
 40
3.567459719866414
 40
3.743172740007509
 40
3.995988754699505
 40
4.17170091132118
 40
4.337226830236035
 40
4.337226830236035
 40
4.337226830236035
 40
4.337226830236035
 10
488.9435810291011
 20
408.3554948409596
 30
0.0
 10
488.9382969215366
 20
408.4044559721124
 30
0.0
 10
488.9293924141433
 20
408.4869627623352
 30
0.0
 10
488.9859244178007
 20
408.5848326179156
 30
0.0
 10
489.0335857821802
 20
408.6603388399137
 30
0.0
 10
489.0959394955317
 20
408.7179427517279
 30
0.0
 10
489.1535593060091
 20
408.7688509026969
 30
0.0
 10
489.216733976746
 20
408.8059382094142
 30
0.0
 10
489.2919146424212
 20
408.8548735488224
 30
0.0
 10
489.3973808078964
 20
408.8855788819565
 30
0.0
 10
489.5101312470412
 20
408.8906940473078
 30
0.0
 10
489.6126224957119
 20
408.8770956783169
 30
0.0
 10
489.6923386989477
 20
408.858926610701
 30
0.0
 10
489.7629836362479
 20
408.8342361812122
 30
0.0
 10
489.8113247308849
 20
408.7997598930865
 30
0.0
 10
489.8695039448261
 20
408.7793048521104
 30
0.0
 10
489.9214435289269
 20
408.7316068507043
 30
0.0
 10
489.9823219129585
 20
408.6955787009075
 30
0.0
 10
490.0362733195533
 20
408.6525674664477
 30
0.0
 10
490.0691898521857
 20
408.628668681733
 30
0.0
 10
490.0834494850563
 20
408.615633726375
 30
0.0
  0
SPLINE
  5
1546
102
{ACAD_REACTORS
330
153F
102
}
330
18
100
AcDbEntity
  8
ROGO
 62
     4
100
AcDbSpline
210
0.0
220
0.0
230
1.0
 70
     8
 71
     3
 72
    38
 73
    34
 74
    32
 42
0.0000000001
 43
0.0000000001
 44
0.0000000001
 40
0.0
 40
0.0
 40
0.0
 40
0.0
 40
0.1807680148264137
 40
0.2375392910068872
 40
0.310486520960581
 40
0.3712759982447546
 40
0.4225667543873034
 40
0.4906925837206452
 40
0.5255021974951922
 40
0.5647069597052444
 40
0.6224874016818753
 40
0.6879401044674758
 40
0.7303986317551487
 40
0.7765228362185605
 40
0.8277951442290142
 40
0.9056034697002132
 40
0.9795294930263722
 40
1.013897332332987
 40
1.053089255535977
 40
1.099518741889633
 40
1.132570569820706
 40
1.160277520290275
 40
1.199836786293817
 40
1.243305643169103
 40
1.286774258016962
 40
1.324809356515667
 40
1.411916492917628
 40
1.446284332224195
 40
1.515020051661189
 40
1.575779369908377
 40
1.692098529536218
 40
1.835624328519072
 40
2.042896467983915
 40
2.042896467983915
 40
2.042896467983915
 40
2.042896467983915
 10
489.0480240148012
 20
407.6123443827941
 30
0.0
 10
489.0606251393147
 20
407.553267793436
 30
0.0
 10
489.0771837223454
 20
407.4756378478689
 30
0.0
 10
489.1184525788787
 20
407.3799109828259
 30
0.0
 10
489.1585750973119
 20
407.3302064829174
 30
0.0
 10
489.1903983851976
 20
407.2770831344826
 30
0.0
 10
489.2325357826705
 20
407.2338993588344
 30
0.0
 10
489.2576068309661
 20
407.1877533842212
 30
0.0
 10
489.2952643108172
 20
407.1582657070433
 30
0.0
 10
489.3208870492976
 20
407.121611629921
 30
0.0
 10
489.3702382549392
 20
407.0964916242425
 30
0.0
 10
489.4171872260748
 20
407.0672605063808
 30
0.0
 10
489.453582043585
 20
407.0308088929897
 30
0.0
 10
489.4904920715598
 20
407.0018820161027
 30
0.0
 10
489.544512430305
 20
406.9781790079742
 30
0.0
 10
489.61311138372
 20
406.9692981364412
 30
0.0
 10
489.6620061374202
 20
406.9239599281991
 30
0.0
 10
489.7132244975971
 20
406.9232970203542
 30
0.0
 10
489.7467833217469
 20
406.8991345078696
 30
0.0
 10
489.7866959334761
 20
406.892186304922
 30
0.0
 10
489.8223364612441
 20
406.8924127331515
 30
0.0
 10
489.8557977758706
 20
406.8913752482966
 30
0.0
 10
489.892234769547
 20
406.8814809468014
 30
0.0
 10
489.9340123873155
 20
406.8922534169172
 30
0.0
 10
489.9753135180484
 20
406.8966617620238
 30
0.0
 10
490.0306983267945
 20
406.9052672253539
 30
0.0
 10
490.0851411862553
 20
406.9099532718667
 30
0.0
 10
490.1406840605942
 20
406.9414072039446
 30
0.0
 10
490.191169264786
 20
406.9624964732867
 30
0.0
 10
490.2584606941017
 20
407.0102786126116
 30
0.0
 10
490.3330834612844
 20
407.0868758867471
 30
0.0
 10
490.4173949544469
 20
407.2244382723955
 30
0.0
 10
490.4110464728483
 20
407.3444229476964
 30
0.0
 10
490.4072954149912
 20
407.4153169799211
 30
0.0
 11
489.0480240148012
 21
407.6123443827941
 31
0.0
 11
489.0945225817632
 21
407.4376590701466
 31
0.0
 11
489.1182328376258
 21
407.386076112049
 31
0.0
 11
489.1595991189084
 21
407.3259917619172
 31
0.0
 11
489.1940708899261
 21
407.2759212361423
 31
0.0
 11
489.2270292083039
 21
407.2366212244962
 31
0.0
 11
489.2676384334888
 21
407.1819218693606
 31
0.0
 11
489.2929454251763
 21
407.1580207107515
 31
0.0
 11
489.3190094729616
 21
407.1287345571461
 31
0.0
 11
489.3673528881384
 21
407.0970881721384
 31
0.0
 11
489.4218337574823
 21
407.0608129577701
 31
0.0
 11
489.453278443009
 21
407.032283003484
 31
0.0
 11
489.4901034671445
 21
407.004509637919
 31
0.0
 11
489.5369332494701
 21
406.9836333102713
 31
0.0
 11
489.6114234568123
 21
406.9611534409935
 31
0.0
 11
489.676665900772
 21
406.9263902358625
 31
0.0
 11
489.7104638394164
 21
406.9201574417864
 31
0.0
 11
489.7457752307007
 21
406.9031541335814
 31
0.0
 11
489.7910915603865
 21
406.8930483200627
 31
0.0
 11
489.824132502394
 21
406.8922000978977
 31
0.0
 11
489.8517929868712
 21
406.8905961331823
 31
0.0
 11
489.8909713235851
 21
406.8851195047418
 31
0.0
 11
489.9340171445333
 21
406.8911692003483
 31
0.0
 11
489.9770627258097
 21
406.8972188622711
 31
0.0
 11
490.0147276693443
 21
406.9025123248746
 31
0.0
 11
490.1000620154713
 21
406.9199966774003
 31
0.0
 11
490.1308326884133
 21
406.9353039980442
 31
0.0
 11
490.1923736757038
 21
406.9659194518189
 31
0.0
 11
490.2423966305464
 21
407.0004071125496
 31
0.0
 11
490.3240295794648
 21
407.0832697008957
 31
0.0
 11
490.3942274799875
 21
407.2084571992166
 31
0.0
 11
490.4072954149912
 21
407.4153169799211
 31
0.0
  0
HATCH
  5
1547
330
18
100
AcDbEntity
  8
ROGO
 62
     4
100
AcDbHatch
 10
0.0
 20
0.0
 30
0.0
210
0.0
220
0.0
230
1.0
  2
SOLID
 70
     1
 71
     1
 91
        1
 92
        5
 93
        8
 72
     4
 94
        3
 73
     0
 74
     0
 95
       26
 96
       22
 40
0.0
 40
0.0
 40
0.0
 40
0.0
 40
0.2382195346591896
 40
0.397689067266058
 40
0.5126795869787176
 40
0.5985392873135238
 40
0.7099038249250041
 40
0.7911890807494602
 40
0.9379713068544059
 40
1.057449928673177
 40
1.138714535893296
 40
1.218398644003487
 40
1.36093802187034
 40
1.461730374800238
 40
1.51601484410804
 40
1.593124329220486
 40
1.648806818593696
 40
1.729472362005543
 40
1.775122082164332
 40
1.874460993765135
 40
1.919820003751196
 40
1.919820003751196
 40
1.919820003751196
 40
1.919820003751196
 10
488.7491030643497
 20
409.7786329069597
 10
488.7651329845192
 20
409.6992357623458
 10
488.7918936950114
 20
409.5666883773033
 10
488.901679714981
 20
409.4324520487104
 10
488.9686253588505
 20
409.3322067568641
 10
489.0498664131047
 20
409.2654194221352
 10
489.1305498848686
 20
409.2194341476995
 10
489.2272303185704
 20
409.1607532805975
 10
489.3363348715686
 20
409.1171540974076
 10
489.4517712640495
 20
409.1033667177486
 10
489.5441419578226
 20
409.0897651959095
 10
489.6457113924427
 20
409.0843251721784
 10
489.7518154469105
 20
409.1042530964653
 10
489.8500115342579
 20
409.1252367578786
 10
489.9163955704637
 20
409.1666372264901
 10
489.9617695871676
 20
409.2095370900107
 10
490.0111244208896
 20
409.261195325519
 10
490.0411498130448
 20
409.3143506204464
 10
490.1021824218717
 20
409.3634018481635
 10
490.1009182737856
 20
409.4340719495857
 10
490.1116293261117
 20
409.4806109483653
 10
490.1149869605829
 20
409.4951997060145
 72
     1
 10
490.114986960583
 20
409.4951997060145
 11
489.957578145289
 21
410.6152216243938
 72
     1
 10
489.957578145289
 20
410.6152216243938
 11
489.4398581009566
 21
410.7884716988892
 72
     1
 10
489.4398581009566
 20
410.7884716988892
 11
489.5567191124488
 21
409.9569623959911
 72
     4
 94
        3
 73
     0
 74
     0
 95
       16
 96
       12
 40
0.0
 40
0.0
 40
0.0
 40
0.0
 40
0.0719416665231652
 40
0.1446253590759511
 40
0.1879779149910863
 40
0.229544093610429
 40
0.2751936323958108
 40
0.3070718656052417
 40
0.3373215422371831
 40
0.3986635435213285
 40
0.5242542460842448
 40
0.5242542460842448
 40
0.5242542460842448
 40
0.5242542460842448
 10
489.5567191124488
 20
409.9569623959912
 10
489.5528647806198
 20
409.9308440561185
 10
489.545116362329
 20
409.8783379846704
 10
489.4737964638334
 20
409.8640114303472
 10
489.4217446361394
 20
409.8625585053722
 10
489.3810523712298
 20
409.8813916696166
 10
489.3498004487311
 20
409.9067854409491
 10
489.3129174082863
 20
409.9126924951344
 10
489.2817274300988
 20
409.9409089185686
 10
489.2288862578912
 20
409.991290914284
 10
489.2105188776563
 20
410.0526355621274
 10
489.1981787566368
 20
410.093849952454
 72
     1
 10
489.1981787566368
 20
410.093849952454
 11
489.0838109056477
 21
410.9076194965965
 72
     1
 10
489.0838109056477
 20
410.9076194965965
 11
488.5660853787435
 21
411.0808714057823
 72
     1
 10
488.5660853787435
 20
411.0808714057823
 11
488.7491030643497
 21
409.7786329069597
 97
        8
330
1550
330
154E
330
1551
330
154D
330
154C
330
154F
330
154B
330
154A
 75
     0
 76
     1
 47
0.0514683685270805
 98
        1
 10
488.9556236069434
 20
410.0368049535799
450
        0
451
        0
460
0.0
461
0.0
452
        0
462
0.0
453
        0
470

  0
LINE
  5
1548
102
{ACAD_REACTORS
330
14B5
102
}
330
18
100
AcDbEntity
  8
ROGO
 62
     4
100
AcDbLine
 10
490.0293675476077
 20
411.5642522813779
 30
0.0
 11
490.5968851196385
 21
411.3743379392384
 31
0.0
  0
LINE
  5
1549
102
{ACAD_REACTORS
330
150C
330
14B5
102
}
330
18
100
AcDbEntity
  8
ROGO
 62
     4
100
AcDbLine
 10
488.5278090003355
 20
411.3532219897897
 30
0.0
 11
490.7021116386683
 21
410.6256123517418
 31
0.0
  0
LINE
  5
154A
102
{ACAD_REACTORS
330
1547
102
}
330
18
100
AcDbEntity
  8
ROGO
 62
     4
100
AcDbLine
 10
488.5660853787436
 20
411.0808714057823
 30
0.0
 11
489.0838109056477
 21
410.9076194965965
 31
0.0
  0
LINE
  5
154B
102
{ACAD_REACTORS
330
1547
102
}
330
18
100
AcDbEntity
  8
ROGO
 62
     4
100
AcDbLine
 10
489.1981787566368
 20
410.0938499524539
 30
0.0
 11
489.0838109056477
 21
410.9076194965965
 31
0.0
  0
LINE
  5
154C
102
{ACAD_REACTORS
330
1547
102
}
330
18
100
AcDbEntity
  8
ROGO
 62
     4
100
AcDbLine
 10
489.5567191124487
 20
409.9569623959912
 30
0.0
 11
489.4398581009566
 21
410.7884716988892
 31
0.0
  0
LINE
  5
154D
102
{ACAD_REACTORS
330
1547
102
}
330
18
100
AcDbEntity
  8
ROGO
 62
     4
100
AcDbLine
 10
489.4398581009566
 20
410.7884716988892
 30
0.0
 11
489.9575781452889
 21
410.6152216243938
 31
0.0
  0
SPLINE
  5
154E
102
{ACAD_REACTORS
330
1547
102
}
330
18
100
AcDbEntity
  8
ROGO
 62
     4
100
AcDbSpline
210
0.0
220
0.0
230
1.0
 70
     8
 71
     3
 72
    26
 73
    22
 74
    20
 42
0.0000000001
 43
0.0000000001
 44
0.0000000001
 40
0.0
 40
0.0
 40
0.0
 40
0.0
 40
0.2382195346591549
 40
0.3976890672660185
 40
0.512679586978658
 40
0.5985392873134882
 40
0.7099038249249807
 40
0.7911890807494188
 40
0.9379713068543816
 40
1.057449928673157
 40
1.138714535893259
 40
1.218398644003447
 40
1.360938021870295
 40
1.461730374800181
 40
1.516014844108021
 40
1.593124329220438
 40
1.648806818593616
 40
1.729472362005492
 40
1.775122082164285
 40
1.874460993765089
 40
1.919820003751103
 40
1.919820003751103
 40
1.919820003751103
 40
1.919820003751103
 10
488.7491030643497
 20
409.7786329069597
 30
0.0
 10
488.7651329845194
 20
409.6992357623459
 30
0.0
 10
488.7918936950115
 20
409.5666883773033
 30
0.0
 10
488.9016797149809
 20
409.4324520487104
 30
0.0
 10
488.9686253588506
 20
409.3322067568642
 30
0.0
 10
489.0498664131045
 20
409.265419422135
 30
0.0
 10
489.1305498848686
 20
409.2194341476996
 30
0.0
 10
489.2272303185704
 20
409.1607532805975
 30
0.0
 10
489.3363348715686
 20
409.1171540974076
 30
0.0
 10
489.4517712640496
 20
409.1033667177486
 30
0.0
 10
489.5441419578227
 20
409.0897651959096
 30
0.0
 10
489.6457113924427
 20
409.0843251721784
 30
0.0
 10
489.7518154469105
 20
409.1042530964654
 30
0.0
 10
489.8500115342578
 20
409.1252367578785
 30
0.0
 10
489.9163955704638
 20
409.1666372264901
 30
0.0
 10
489.9617695871675
 20
409.2095370900107
 30
0.0
 10
490.0111244208897
 20
409.2611953255191
 30
0.0
 10
490.0411498130447
 20
409.3143506204462
 30
0.0
 10
490.1021824218718
 20
409.3634018481636
 30
0.0
 10
490.1009182737856
 20
409.4340719495859
 30
0.0
 10
490.1116293261117
 20
409.4806109483652
 30
0.0
 10
490.1149869605829
 20
409.4951997060145
 30
0.0
 11
488.7491030643497
 21
409.7786329069597
 31
0.0
 11
488.8181478481823
 21
409.5506386865972
 31
0.0
 11
488.9085780325221
 21
409.4192883398518
 31
0.0
 11
488.9789366967237
 21
409.328335176105
 31
0.0
 11
489.04433205496
 21
409.2726994388248
 31
0.0
 11
489.1389504326598
 21
409.2139676515295
 31
0.0
 11
489.2094178133705
 21
409.1734504814628
 31
0.0
 11
489.3463820445356
 21
409.1206696015756
 31
0.0
 11
489.4642674171069
 21
409.1012227507904
 31
0.0
 11
489.5448792458546
 21
409.0909431859854
 31
0.0
 11
489.6244984130581
 21
409.0877267750768
 31
0.0
 11
489.7656506074979
 21
409.1075644223035
 31
0.0
 11
489.8624717983866
 21
409.1355779084135
 31
0.0
 11
489.9088971287029
 21
409.1637113815917
 31
0.0
 11
489.9664593955974
 21
409.2150188676367
 31
0.0
 11
490.00384165593
 21
409.2562875753367
 31
0.0
 11
490.0523609099233
 21
409.3207298897416
 31
0.0
 11
490.0836782561517
 21
409.3539431517883
 31
0.0
 11
490.1060610188205
 21
409.4507276097004
 31
0.0
 11
490.1149869605829
 21
409.4951997060145
 31
0.0
  0
SPLINE
  5
154F
102
{ACAD_REACTORS
330
1547
102
}
330
18
100
AcDbEntity
  8
ROGO
 62
     4
100
AcDbSpline
210
0.0
220
0.0
230
1.0
 70
     8
 71
     3
 72
    16
 73
    12
 74
    10
 42
0.0000000001
 43
0.0000000001
 44
0.0000000001
 40
0.0
 40
0.0
 40
0.0
 40
0.0
 40
0.1255907025628683
 40
0.1869327038470647
 40
0.2171823804789843
 40
0.2490606136884447
 40
0.2947101524738236
 40
0.3362763310931858
 40
0.3796288870082993
 40
0.4523125795610877
 40
0.5242542460842427
 40
0.5242542460842427
 40
0.5242542460842427
 40
0.5242542460842427
 10
489.1981787566368
 20
410.093849952454
 30
0.0
 10
489.2105188776561
 20
410.0526355621274
 30
0.0
 10
489.2288862578912
 20
409.9912909142841
 30
0.0
 10
489.2817274300989
 20
409.9409089185686
 30
0.0
 10
489.3129174082863
 20
409.9126924951344
 30
0.0
 10
489.3498004487311
 20
409.9067854409492
 30
0.0
 10
489.3810523712297
 20
409.8813916696167
 30
0.0
 10
489.4217446361396
 20
409.8625585053722
 30
0.0
 10
489.4737964638334
 20
409.8640114303472
 30
0.0
 10
489.545116362329
 20
409.8783379846704
 30
0.0
 10
489.5528647806197
 20
409.9308440561185
 30
0.0
 10
489.5567191124488
 20
409.9569623959912
 30
0.0
 11
489.1981787566368
 21
410.093849952454
 31
0.0
 11
489.2474378726279
 21
409.9783226220857
 31
0.0
 11
489.2896747224168
 21
409.9338379096391
 31
0.0
 11
489.3138257194057
 21
409.9156232924106
 31
0.0
 11
489.3440416875809
 21
409.9054637146736
 31
0.0
 11
489.3833004385722
 21
409.8821692762404
 31
0.0
 11
489.4215667010222
 21
409.8659384302019
 31
0.0
 11
489.4649049859466
 21
409.864826151377
 31
0.0
 11
489.5334958759985
 21
409.8888721274435
 31
0.0
 11
489.5567191124488
 21
409.9569623959912
 31
0.0
  0
LINE
  5
1550
102
{ACAD_REACTORS
330
1547
102
}
330
18
100
AcDbEntity
  8
ROGO
 62
     4
100
AcDbLine
 10
488.7491030643497
 20
409.7786329069601
 30
0.0
 11
488.5660853787436
 21
411.0808714057823
 31
0.0
  0
LINE
  5
1551
102
{ACAD_REACTORS
330
1547
102
}
330
18
100
AcDbEntity
  8
ROGO
 62
     4
100
AcDbLine
 10
490.1149869605829
 20
409.4951997060145
 30
0.0
 11
489.9575781452889
 21
410.6152216243939
 31
0.0
  0
LINE
  5
1552
102
{ACAD_REACTORS
330
1521
102
}
330
18
100
AcDbEntity
  8
ROGO
 62
     4
100
AcDbLine
 10
489.3379541647481
 20
405.5887396161926
 30
0.0
 11
489.154936479142
 21
406.8909781150148
 31
0.0
  0
LINE
  5
1553
102
{ACAD_REACTORS
330
1521
102
}
330
18
100
AcDbEntity
  8
ROGO
 62
     4
100
AcDbLine
 10
490.0287092013551
 20
406.5985784081217
 30
0.0
 11
490.5464292456874
 21
406.4253283336262
 31
0.0
  0
SPLINE
  5
1554
102
{ACAD_REACTORS
330
1521
102
}
330
18
100
AcDbEntity
  8
ROGO
 62
     4
100
AcDbSpline
210
0.0
220
0.0
230
1.0
 70
     8
 71
     3
 72
    16
 73
    12
 74
    10
 42
0.0000000001
 43
0.0000000001
 44
0.0000000001
 40
0.0
 40
0.0
 40
0.0
 40
0.0
 40
0.1255907025629429
 40
0.1869327038470197
 40
0.2171823804790301
 40
0.2490606136884367
 40
0.2947101524737957
 40
0.3362763310931579
 40
0.3796288870083281
 40
0.452312579561063
 40
0.5242542460842718
 40
0.5242542460842718
 40
0.5242542460842718
 40
0.5242542460842718
 10
489.7870298570353
 20
405.9039566616864
 30
0.0
 10
489.7993699780546
 20
405.8627422713599
 30
0.0
 10
489.8177373582896
 20
405.8013976235164
 30
0.0
 10
489.8705785304974
 20
405.7510156278011
 30
0.0
 10
489.9017685086846
 20
405.7227992043667
 30
0.0
 10
489.9386515491299
 20
405.7168921501818
 30
0.0
 10
489.9699034716281
 20
405.6914983788491
 30
0.0
 10
490.0105957365379
 20
405.6726652146046
 30
0.0
 10
490.0626475642319
 20
405.6741181395796
 30
0.0
 10
490.1339674627275
 20
405.6884446939029
 30
0.0
 10
490.1417158810182
 20
405.7409507653509
 30
0.0
 10
490.1455702128472
 20
405.7670691052237
 30
0.0
 11
489.7870298570353
 21
405.9039566616864
 31
0.0
 11
489.8362889730264
 21
405.7884293313182
 31
0.0
 11
489.8785258228151
 21
405.7439446188715
 31
0.0
 11
489.9026768198042
 21
405.7257300016432
 31
0.0
 11
489.9328927879794
 21
405.7155704239062
 31
0.0
 11
489.9721515389706
 21
405.6922759854729
 31
0.0
 11
490.0104178014205
 21
405.6760451394343
 31
0.0
 11
490.053756086345
 21
405.6749328606095
 31
0.0
 11
490.1223469763969
 21
405.698978836676
 31
0.0
 11
490.1455702128472
 21
405.7670691052237
 31
0.0
  0
LINE
  5
1555
102
{ACAD_REACTORS
330
1521
102
}
330
18
100
AcDbEntity
  8
ROGO
 62
     4
100
AcDbLine
 10
490.1455702128472
 20
405.7670691052236
 30
0.0
 11
490.0287092013551
 21
406.5985784081217
 31
0.0
  0
LINE
  5
1556
102
{ACAD_REACTORS
330
1521
102
}
330
18
100
AcDbEntity
  8
ROGO
 62
     4
100
AcDbLine
 10
489.7870298570353
 20
405.9039566616864
 30
0.0
 11
489.6726620060461
 21
406.717726205829
 31
0.0
  0
LINE
  5
1557
102
{ACAD_REACTORS
330
1521
102
}
330
18
100
AcDbEntity
  8
ROGO
 62
     4
100
AcDbLine
 10
489.154936479142
 20
406.8909781150148
 30
0.0
 11
489.6726620060461
 21
406.717726205829
 31
0.0
  0
TEXT
  5
1558
330
18
100
AcDbEntity
  8
文字
100
AcDbText
 10
465.7521963268949
 20
400.6236864407092
 30
0.0
 40
2.0
  1
0
 50
98.00000000000023
  7
STYLE3
100
AcDbText
  0
LINE
  5
1559
330
18
100
AcDbEntity
  8
目盛
100
AcDbLine
 10
459.5961230102746
 20
400.7499190176578
 30
0.0
 11
462.5669272164993
 21
401.1674383205381
 31
0.0
  0
LINE
  5
155A
330
18
100
AcDbEntity
  8
目盛
100
AcDbLine
 10
461.1077298182475
 20
395.1862816836831
 30
0.0
 11
462.9568218854721
 21
395.9484224363836
 31
0.0
  0
LINE
  5
155B
330
18
100
AcDbEntity
  8
目盛
100
AcDbLine
 10
460.5993556086698
 20
396.5387893494376
 30
0.0
 11
462.4926541289012
 21
397.1833207398987
 31
0.0
  0
LINE
  5
155C
330
18
100
AcDbEntity
  8
目盛
100
AcDbLine
 10
460.1769092184675
 20
397.9205492309995
 30
0.0
 11
462.1069422074123
 21
398.4449275882812
 31
0.0
  0
LINE
  5
155D
330
18
100
AcDbEntity
  8
目盛
100
AcDbLine
 10
459.8420578505458
 20
399.3261081533822
 30
0.0
 11
461.8012083497445
 21
399.7282639956741
 31
0.0
  0
LINE
  5
155E
330
18
100
AcDbEntity
  8
目盛
100
AcDbLine
 10
459.4400752901115
 20
402.1863626928228
 30
0.0
 11
461.4341807945654
 21
402.3398007490763
 31
0.0
  0
LINE
  5
155F
330
18
100
AcDbEntity
  8
目盛
100
AcDbLine
 10
459.3745305391167
 20
403.6297701919393
 30
0.0
 11
461.3743355871354
 21
403.6576945526174
 31
0.0
  0
LINE
  5
1560
330
18
100
AcDbEntity
  8
目盛
100
AcDbLine
 10
459.3997474324778
 20
405.0744450450386
 30
0.0
 11
461.3973597071606
 21
404.9767455054474
 31
0.0
  0
LINE
  5
1561
330
18
100
AcDbEntity
  8
目盛
100
AcDbLine
 10
459.515626450637
 20
406.514685780485
 30
0.0
 11
461.5031622889582
 21
406.2917479160724
 31
0.0
  0
LINE
  5
156C
330
18
100
AcDbEntity
  8
目盛
100
AcDbLine
 10
496.7841762527132
 20
421.8756735331633
 30
0.0
 11
495.5309686299843
 21
420.3169976033004
 31
0.0
  0
LINE
  5
156D
330
18
100
AcDbEntity
  8
目盛
100
AcDbLine
 10
497.8812435057562
 20
420.9353731741348
 30
0.0
 11
496.5326387305888
 21
419.4584624928832
 31
0.0
  0
LINE
  5
156E
330
18
100
AcDbEntity
  8
目盛
100
AcDbLine
 10
498.9171039991195
 20
419.9280428602965
 30
0.0
 11
496.7590845981038
 21
417.8440677489193
 31
0.0
  0
LINE
  5
156F
330
18
100
AcDbEntity
  8
目盛
100
AcDbLine
 10
499.8876696646756
 20
418.8576580641915
 30
0.0
 11
498.3645930496021
 21
417.5614182620653
 31
0.0
  0
LINE
  5
1570
330
18
100
AcDbEntity
  8
目盛
100
AcDbLine
 10
500.7891101231515
 20
417.7284431055978
 30
0.0
 11
499.187647381254
 21
416.5303959085667
 31
0.0
  0
LINE
  5
1571
330
18
100
AcDbEntity
  8
目盛
100
AcDbLine
 10
501.6178678008868
 20
416.5448544800681
 30
0.0
 11
499.9443391739688
 21
415.449728033083
 31
0.0
  0
LINE
  5
1572
330
18
100
AcDbEntity
  8
目盛
100
AcDbLine
 10
502.3706719699507
 20
415.3115632711767
 30
0.0
 11
500.6316821109402
 21
414.3236795380083
 31
0.0
  0
TEXT
  5
1573
330
18
100
AcDbEntity
  8
文字
100
AcDbText
 10
475.509803177666
 20
419.2361094203868
 30
0.0
 40
2.0
  1
4
 50
98.00000000000023
  7
STYLE3
100
AcDbText
  0
LINE
  5
1574
330
18
100
AcDbEntity
  8
目盛
100
AcDbLine
 10
490.5397487267177
 20
425.4518908968478
 30
0.0
 11
489.8295348019015
 21
423.5822395440558
 31
0.0
  0
LINE
  5
1575
330
18
100
AcDbEntity
  8
目盛
100
AcDbLine
 10
491.873690477295
 20
424.8966245382816
 30
0.0
 11
491.0474816176459
 21
423.0752572166692
 31
0.0
  0
TEXT
  5
1576
330
18
100
AcDbEntity
  8
文字
100
AcDbText
 10
486.5368296256563
 20
420.1262578689184
 30
0.0
 40
2.0
  1
.5
 50
98.00000000000023
  7
STYLE3
100
AcDbText
  0
TEXT
  5
1577
330
18
100
AcDbEntity
  8
文字
100
AcDbText
 10
496.1744885076766
 20
415.7015131157762
 30
0.0
 40
2.0
  1
3
 50
98.00000000000023
  7
STYLE3
100
AcDbText
  0
LINE
  5
1578
330
18
100
AcDbEntity
  8
目盛
100
AcDbLine
 10
493.1701345354062
 20
424.2586949754947
 30
0.0
 11
491.7617198470483
 21
421.6098521969181
 31
0.0
  0
LINE
  5
1579
330
18
100
AcDbEntity
  8
目盛
100
AcDbLine
 10
494.4239644286425
 20
423.5406198250295
 30
0.0
 11
493.3759926167023
 21
421.8371659567434
 31
0.0
  0
LINE
  5
157A
330
18
100
AcDbEntity
  8
目盛
100
AcDbLine
 10
495.6302318632359
 20
422.7452330014473
 30
0.0
 11
494.4773672308962
 21
421.1109432047772
 31
0.0
  0
LINE
  5
157B
330
18
100
AcDbEntity
  8
目盛
100
AcDbLine
 10
484.9360740320761
 20
426.8075624804331
 30
0.0
 11
484.7131361676635
 21
424.820026642112
 31
0.0
  0
LINE
  5
157C
330
18
100
AcDbEntity
  8
目盛
100
AcDbLine
 10
486.36619667767
 20
426.6014786590202
 30
0.0
 11
485.8452521446692
 21
423.6470553999835
 31
0.0
  0
LINE
  5
157D
330
18
100
AcDbEntity
  8
目盛
100
AcDbLine
 10
487.7805571926902
 20
426.3060033530459
 30
0.0
 11
487.310272966485
 21
424.3620813518887
 31
0.0
  0
LINE
  5
157E
330
18
100
AcDbEntity
  8
目盛
100
AcDbLine
 10
489.1735737423437
 20
425.9223026685534
 30
0.0
 11
488.5821576422556
 21
424.0117459443085
 31
0.0
  0
LINE
  5
157F
330
18
100
AcDbEntity
  8
目盛
100
AcDbLine
 10
479.5888265721294
 20
423.7562617145709
 30
0.0
 11
479.1713072692491
 21
426.7270659207956
 31
0.0
  0
LINE
  5
1580
330
18
100
AcDbEntity
  8
目盛
100
AcDbLine
 10
474.9601776010289
 20
425.7238333224004
 30
0.0
 11
475.60470899149
 21
423.830534802169
 31
0.0
  0
LINE
  5
1581
330
18
100
AcDbEntity
  8
目盛
100
AcDbLine
 10
476.3419374825907
 20
426.1462797126026
 30
0.0
 11
476.8663158398724
 21
424.2162467236578
 31
0.0
  0
LINE
  5
1582
330
18
100
AcDbEntity
  8
目盛
100
AcDbLine
 10
477.7474964049735
 20
426.4811310805242
 30
0.0
 11
478.1496522472655
 21
424.5219805813255
 31
0.0
  0
LINE
  5
1583
330
18
100
AcDbEntity
  8
目盛
100
AcDbLine
 10
480.6077509444138
 20
426.8831136409585
 30
0.0
 11
480.7611890006675
 21
424.8890081365046
 31
0.0
  0
LINE
  5
1584
330
18
100
AcDbEntity
  8
目盛
100
AcDbLine
 10
482.0511584435302
 20
426.9486583919534
 30
0.0
 11
482.0790828042085
 21
424.9488533439348
 31
0.0
  0
LINE
  5
1585
330
18
100
AcDbEntity
  8
目盛
100
AcDbLine
 10
483.4958332966297
 20
426.9234414985923
 30
0.0
 11
483.3981337570385
 21
424.9258292239095
 31
0.0
  0
LINE
  5
1586
330
18
100
AcDbEntity
  8
目盛
100
AcDbLine
 10
467.4655308668787
 20
421.4662814130844
 30
0.0
 11
468.7617706690049
 21
419.9432047980108
 31
0.0
  0
LINE
  5
1587
330
18
100
AcDbEntity
  8
目盛
100
AcDbLine
 10
468.5947458254722
 20
422.3677218715602
 30
0.0
 11
469.7927930225033
 21
420.7662591296628
 31
0.0
  0
LINE
  5
1588
330
18
100
AcDbEntity
  8
目盛
100
AcDbLine
 10
463.5779559296228
 20
417.2088436116446
 30
0.0
 11
465.212245726293
 21
416.055978979305
 31
0.0
  0
LINE
  5
1589
102
{ACAD_REACTORS
330
14B5
102
}
330
18
100
AcDbEntity
  8
ROGO
 62
     4
100
AcDbLine
 10
490.5225529642738
 20
411.9032387069202
 30
0.0
 11
490.4173287475156
 21
412.651947912903
 31
0.0
  0
LINE
  5
158A
102
{ACAD_REACTORS
330
14B5
102
}
330
18
100
AcDbEntity
  8
ROGO
 62
     4
100
AcDbLine
 10
488.3888597567111
 20
412.3418972308231
 30
0.0
 11
488.2836355399529
 21
413.0906064368059
 31
0.0
  0
LINE
  5
158B
102
{ACAD_REACTORS
330
14B5
102
}
330
18
100
AcDbEntity
  8
ROGO
 62
     4
100
AcDbLine
 10
489.4725700250614
 20
412.0025767605896
 30
0.0
 11
488.2836355399529
 21
413.0906064368059
 31
0.0
  0
LINE
  5
158C
102
{ACAD_REACTORS
330
14B5
102
}
330
18
100
AcDbEntity
  8
ROGO
 62
     4
100
AcDbLine
 10
489.4725700250614
 20
412.0025767605896
 30
0.0
 11
490.4173287475156
 21
412.651947912903
 31
0.0
  0
LINE
  5
158D
102
{ACAD_REACTORS
330
14B5
102
}
330
18
100
AcDbEntity
  8
ROGO
 62
     4
100
AcDbLine
 10
488.6599720836703
 20
412.0225074112267
 30
0.0
 11
488.3888597567111
 21
412.3418972308231
 31
0.0
  0
LINE
  5
158E
102
{ACAD_REACTORS
330
14B5
102
}
330
18
100
AcDbEntity
  8
ROGO
 62
     4
100
AcDbLine
 10
488.4225824813057
 20
412.1019475772862
 30
0.0
 11
488.6599720836703
 21
412.0225074112267
 31
0.0
  0
TEXT
  5
158F
330
18
100
AcDbEntity
  8
文字
100
AcDbText
 10
467.7699003016794
 20
411.2143193715374
 30
0.0
 40
2.0
  1
.5
 50
98.00000000000023
  7
STYLE3
100
AcDbText
  0
LINE
  5
1590
330
18
100
AcDbEntity
  8
目盛
100
AcDbLine
 10
464.4475153979069
 20
418.3627880011219
 30
0.0
 11
466.0061913277698
 21
417.109580378393
 31
0.0
  0
LINE
  5
1591
330
18
100
AcDbEntity
  8
目盛
100
AcDbLine
 10
465.3878157569354
 20
419.4598552541649
 30
0.0
 11
466.8647264381872
 21
418.1112504789975
 31
0.0
  0
LINE
  5
1592
330
18
100
AcDbEntity
  8
目盛
100
AcDbLine
 10
466.3951460707738
 20
420.4957157475282
 30
0.0
 11
468.4791211821508
 21
418.3376963465124
 31
0.0
  0
LINE
  5
1593
330
18
100
AcDbEntity
  8
目盛
100
AcDbLine
 10
462.0644939555754
 20
414.7487462838149
 30
0.0
 11
464.7133367341522
 21
413.3403315954572
 31
0.0
  0
LINE
  5
1594
330
18
100
AcDbEntity
  8
目盛
100
AcDbLine
 10
460.0171855780242
 20
409.359168941099
 30
0.0
 11
461.9611075791813
 21
408.8888847148938
 31
0.0
  0
LINE
  5
1595
330
18
100
AcDbEntity
  8
目盛
100
AcDbLine
 10
460.4008862625168
 20
410.7521854907526
 30
0.0
 11
462.3114429867615
 21
410.1607693906644
 31
0.0
  0
LINE
  5
1596
330
18
100
AcDbEntity
  8
目盛
100
AcDbLine
 10
460.8712980342224
 20
412.1183604751267
 30
0.0
 11
462.7409493870144
 21
411.4081465503103
 31
0.0
  0
LINE
  5
1597
330
18
100
AcDbEntity
  8
目盛
100
AcDbLine
 10
461.4265643927886
 20
413.452302225704
 30
0.0
 11
463.247931714401
 21
412.6260933660549
 31
0.0
  0
LINE
  5
1598
330
18
100
AcDbEntity
  8
目盛
100
AcDbLine
 10
462.7825691060407
 20
416.0025761770512
 30
0.0
 11
464.4860229743267
 21
414.954604365111
 31
0.0
  0
LINE
  5
1599
330
18
100
AcDbEntity
  8
目盛
100
AcDbLine
 10
469.778334451002
 20
423.1964795492955
 30
0.0
 11
470.8734608979871
 21
421.5229509223775
 31
0.0
  0
LINE
  5
159A
330
18
100
AcDbEntity
  8
目盛
100
AcDbLine
 10
471.0116256598934
 20
423.9492837183593
 30
0.0
 11
471.9995093930618
 21
422.2102938593488
 31
0.0
  0
LINE
  5
159B
330
18
100
AcDbEntity
  8
目盛
100
AcDbLine
 10
472.2897522151819
 20
424.6231634046202
 30
0.0
 11
473.6048656555491
 21
421.9267812657227
 31
0.0
  0
LINE
  5
159C
330
18
100
AcDbEntity
  8
目盛
100
AcDbLine
 10
473.6076699352744
 20
425.2154591128227
 30
0.0
 11
474.3698106879749
 21
423.366367045598
 31
0.0
  0
LINE
  5
15AA
330
18
100
AcDbEntity
  8
中心線
 48
0.5
100
AcDbLine
 10
455.7779903328926
 20
400.3557889530791
 30
0.0
 11
509.0005814240394
 21
407.8357363300531
 31
0.0
  0
ARC
  5
15E0
330
18
100
AcDbEntity
  8
寸法線
100
AcDbCircle
 10
455.3102242806808
 20
314.8438692153115
 30
0.0
 40
175.0
100
AcDbArc
 50
172.4658353355618
 51
203.3329161044103
  0
LINE
  5
15E3
330
18
100
AcDbEntity
  8
中心線
 48
0.5
100
AcDbLine
 10
433.2859383321244
 20
371.3510507271256
 30
0.0
 11
433.8322020072689
 21
281.2175443282839
 31
0.0
  0
CIRCLE
  5
15FC
330
18
100
AcDbEntity
  8
隠れ線
 62
     4
 48
0.5
100
AcDbCircle
 10
433.3102242806808
 20
367.3438692153115
 30
0.0
 40
2.5
  0
CIRCLE
  5
15FD
330
18
100
AcDbEntity
  8
隠れ線
 62
     4
 48
0.5
100
AcDbCircle
 10
433.3102242806808
 20
367.3438692153115
 30
0.0
 40
1.85
  0
CIRCLE
  5
15FE
330
18
100
AcDbEntity
  8
隠れ線
 62
     4
 48
0.5
100
AcDbCircle
 10
433.8102242806808
 20
284.8438692153115
 30
0.0
 40
2.5
  0
CIRCLE
  5
15FF
330
18
100
AcDbEntity
  8
隠れ線
 62
     4
 48
0.5
100
AcDbCircle
 10
433.8102242806808
 20
284.8438692153115
 30
0.0
 40
1.85
  0
LINE
  5
1600
330
18
100
AcDbEntity
  8
想像線
 48
0.7
100
AcDbLine
 10
435.9844175925493
 20
363.3600029862876
 30
0.0
 11
436.4359336344872
 21
288.8598560665516
 31
0.0
  0
LINE
  5
1601
330
18
100
AcDbEntity
  8
想像線
 48
0.7
100
AcDbLine
 10
430.6845149268745
 20
363.3278823640714
 30
0.0
 11
431.1360309688122
 21
288.8277354443354
 31
0.0
  0
LINE
  5
1602
330
18
100
AcDbEntity
  8
中心線
 48
0.5
100
AcDbLine
 10
429.4664890278404
 20
367.3205738501427
 30
0.0
 11
437.1845650517919
 21
367.3673500684698
 31
0.0
  0
LINE
  5
1603
330
18
100
AcDbEntity
  8
想像線
 48
0.7
100
AcDbLine
 10
430.6845149268745
 20
363.3278823640714
 30
0.0
 11
435.9844175925493
 21
363.3600029862876
 31
0.0
  0
LINE
  5
1604
330
18
100
AcDbEntity
  8
中心線
 48
0.5
100
AcDbLine
 10
429.4701843830458
 20
284.8175659432046
 30
0.0
 11
437.7230191577805
 21
284.8675831236576
 31
0.0
  0
LINE
  5
1605
330
18
100
AcDbEntity
  8
想像線
 48
0.7
100
AcDbLine
 10
431.1360309688122
 20
288.8277354443354
 30
0.0
 11
436.4359336344872
 21
288.8598560665516
 31
0.0
  0
LINE
  5
160C
330
18
100
AcDbEntity
  8
想像線
 48
0.7
100
AcDbLine
 10
435.6844231020394
 20
363.3581848378602
 30
0.0
 11
436.1359391439773
 21
288.8580379181243
 31
0.0
  0
LINE
  5
160D
330
18
100
AcDbEntity
  8
想像線
 48
0.7
100
AcDbLine
 10
430.9845094173844
 20
363.3297005124987
 30
0.0
 11
431.4360254593221
 21
288.8295535927627
 31
0.0
  0
LINE
  5
160E
330
18
100
AcDbEntity
  8
想像線
100
AcDbLine
 10
430.6845149268745
 20
363.3278823640714
 30
0.0
 11
434.3423047485988
 21
365.8085158658372
 31
0.0
  0
LINE
  5
1610
330
18
100
AcDbEntity
  8
想像線
100
AcDbLine
 10
431.1360309688122
 20
288.8277354443354
 30
0.0
 11
435.0592839523477
 21
286.2085486416295
 31
0.0
  0
LINE
  5
1612
330
18
100
AcDbEntity
  8
中心線
 48
0.5
100
AcDbLine
 10
455.3102242806808
 20
314.8438692153115
 30
0.0
 11
272.8252965248561
 21
327.604458441018
 31
0.0
  0
DIMENSION
  5
1632
330
18
100
AcDbEntity
  8
外形線
100
AcDbDimension
  2
*D2
 10
468.7696869979206
 20
352.0794383783899
 30
0.0
 11
469.3484636358314
 21
334.4887976111122
 31
0.0
 70
    32
 71
     5
 42
-1.0
 51
352.0
  3
STYLE3
100
AcDbAlignedDimension
 13
473.3202034312419
 23
317.375006718104
 33
0.0
 14
468.4515980273941
 24
352.0347338889625
 34
0.0
 50
97.99999999999995
100
AcDbRotatedDimension
1001
ACAD
1000
DSTYLE
1002
{
1070
   271
1070
     2
1002
}
  0
ARC
  5
166C
330
18
100
AcDbEntity
  8
0
  6
ByBlock
 62
     2
100
AcDbCircle
 10
456.5263200766109
 20
315.0147803335496
 30
0.0
 40
17.28261871218474
100
AcDbArc
 50
347.8497149740453
 51
351.7046929252294
  0
ARC
  5
166E
330
18
100
AcDbEntity
  8
0
  6
ByBlock
 62
     2
100
AcDbCircle
 10
456.5263200766109
 20
315.0147803335496
 30
0.0
 40
17.28261871218474
100
AcDbArc
 50
0.0
 51
7.99999999999996
  0
INSERT
  5
166F
330
18
100
AcDbEntity
  8
0
  6
ByBlock
 62
     2
100
AcDbBlockReference
  2
_OPEN
 10
473.8089387887957
 20
315.0147803335495
 30
0.0
 41
2.5
 42
2.5
 43
2.5
 50
85.85234646261465
  0
MTEXT
  5
1671
330
18
100
AcDbEntity
  8
0
  6
ByBlock
 62
     6
100
AcDbMText
 10
477.258586537252
 20
317.4834871983259
 30
0.0
 40
2.499999999999999
 41
0.0
 71
     5
 72
     1
  1
\A1;8°
  7
STYLE3
 11
-0.0251702608560554
 21
0.9996831787963815
 31
0.0
 73
     1
 44
1.0
  0
POINT
  5
1673
330
18
100
AcDbEntity
  8
DEFPOINTS
  6
ByBlock
 62
     0
100
AcDbPoint
 10
455.3102242806808
 20
314.8438692153115
 30
0.0
 50
352.0
  0
POINT
  5
1674
330
18
100
AcDbEntity
  8
DEFPOINTS
  6
ByBlock
 62
     0
100
AcDbPoint
 10
272.4820750055669
 20
314.8438692153115
 30
0.0
 50
352.0
  0
POINT
  5
1675
330
18
100
AcDbEntity
  8
DEFPOINTS
  6
ByBlock
 62
     0
100
AcDbPoint
 10
622.87457074304
 20
315.7036258773863
 30
0.0
 50
352.0
  0
ARC
  5
168D
330
18
100
AcDbEntity
  8
0
  6
ByBlock
 62
     2
100
AcDbCircle
 10
455.310224280681
 20
314.8438692153115
 30
0.0
 40
63.77949194533516
100
AcDbArc
 50
171.508003717237
 51
173.7540018586185
  0
ARC
  5
168E
330
18
100
AcDbEntity
  8
0
  6
ByBlock
 62
     2
100
AcDbCircle
 10
455.310224280681
 20
314.8438692153115
 30
0.0
 40
63.77949194533516
100
AcDbArc
 50
182.2459981413814
 51
184.4919962827629
  0
ARC
  5
168F
330
18
100
AcDbEntity
  8
0
  6
ByBlock
 62
     2
100
AcDbCircle
 10
455.310224280681
 20
314.8438692153115
 30
0.0
 40
63.77949194533516
100
AcDbArc
 50
176.0
 51
180.0
  0
INSERT
  5
1690
330
18
100
AcDbEntity
  8
0
  6
ByBlock
 62
     2
100
AcDbBlockReference
  2
_OPEN
 10
391.6860959721786
 20
319.2929016706099
 30
0.0
 41
2.5
 42
2.5
 43
2.5
 50
264.8770009293093
  0
INSERT
  5
1691
330
18
100
AcDbEntity
  8
0
  6
ByBlock
 62
     2
100
AcDbBlockReference
  2
_OPEN
 10
391.5307323353458
 20
314.8438692153115
 30
0.0
 41
2.5
 42
2.5
 43
2.5
 50
91.12299907069074
  0
MTEXT
  5
1692
330
18
100
AcDbEntity
  8
0
  6
ByBlock
 62
     6
100
AcDbMText
 10
389.5621363061093
 20
318.3834248914587
 30
0.0
 40
2.5
 41
0.0
 71
     5
 72
     1
  1
\A1;4°
  7
STYLE3
 11
-0.0018026787383012
 21
0.9999983751733632
 31
0.0
 73
     1
 44
1.0
  0
POINT
  5
1693
330
18
100
AcDbEntity
  8
DEFPOINTS
  6
ByBlock
 62
     0
100
AcDbPoint
 10
391.5480011953595
 20
316.327951430947
 30
0.0
  0
POINT
  5
1694
330
18
100
AcDbEntity
  8
DEFPOINTS
  6
ByBlock
 62
     0
100
AcDbPoint
 10
455.3102242806808
 20
314.8438692153115
 30
0.0
  0
POINT
  5
1695
330
18
100
AcDbEntity
  8
DEFPOINTS
  6
ByBlock
 62
     0
100
AcDbPoint
 10
272.482075005567
 20
314.8438692153115
 30
0.0
  0
POINT
  5
1696
330
18
100
AcDbEntity
  8
DEFPOINTS
  6
ByBlock
 62
     0
100
AcDbPoint
 10
622.87457074304
 20
315.7036258773864
 30
0.0
  0
POINT
  5
1697
330
18
100
AcDbEntity
  8
DEFPOINTS
  6
ByBlock
 62
     0
100
AcDbPoint
 10
272.8252965248561
 20
327.6044584410181
 30
0.0
  0
POINT
  5
16AC
330
18
100
AcDbEntity
  8
DEFPOINTS
  6
ByBlock
 62
     0
100
AcDbPoint
 10
280.7364805533056
 20
327.0507525607334
 30
0.0
  0
POINT
  5
16AD
330
18
100
AcDbEntity
  8
想像線
  6
ByBlock
 48
0.5
100
AcDbPoint
 10
284.6573539972535
 20
276.7118033133601
 30
0.0
  0
LINE
  5
16AF
330
18
100
AcDbEntity
  8
0
  6
ByBlock
 62
     2
100
AcDbLine
 10
284.4861624696544
 20
277.1915519501519
 30
0.0
 11
268.9862284825017
 21
276.0258729688509
 31
0.0
  0
LINE
  5
16BD
330
18
100
AcDbEntity
  8
0
  6
ByBlock
 62
     2
100
AcDbLine
 10
280.7364805533056
 20
327.0507525607334
 30
0.0
 11
265.3800255640527
 21
325.8958639771366
 31
0.0
  0
LINE
  5
16BE
330
18
100
AcDbEntity
  8
0
  6
ByBlock
 62
     2
100
AcDbLine
 10
284.4861624696544
 20
277.1915519501519
 30
0.0
 11
269.1297074804016
 21
276.0366633665551
 31
0.0
  0
LINE
  5
16BF
330
18
100
AcDbEntity
  8
0
  6
ByBlock
 62
     2
100
AcDbLine
 10
266.8139896751347
 20
323.4966459945161
 30
0.0
 11
270.1887033998486
 21
278.6233654449928
 31
0.0
  0
INSERT
  5
16C0
330
18
100
AcDbEntity
  8
0
  6
ByBlock
 62
     2
100
AcDbBlockReference
  2
_OPEN
 10
266.6265055793173
 20
325.9896060250452
 30
0.0
 41
2.5
 42
2.5
 43
2.5
 50
94.30085677825006
  0
INSERT
  5
16C1
330
18
100
AcDbEntity
  8
0
  6
ByBlock
 62
     2
100
AcDbBlockReference
  2
_OPEN
 10
270.3761874956661
 20
276.1304054144638
 30
0.0
 41
2.5
 42
2.5
 43
2.5
 50
274.30085677825
  0
POINT
  5
16C3
330
18
100
AcDbEntity
  8
DEFPOINTS
  6
ByBlock
 62
     0
100
AcDbPoint
 10
280.7364805533056
 20
327.0507525607334
 30
0.0
  0
POINT
  5
16C4
330
18
100
AcDbEntity
  8
想像線
  6
ByBlock
 48
0.5
100
AcDbPoint
 10
284.4844666688918
 20
277.2116042611572
 30
0.0
  0
POINT
  5
16C5
330
18
100
AcDbEntity
  8
DEFPOINTS
  6
ByBlock
 62
     0
100
AcDbPoint
 10
270.3761874956661
 20
276.1304054144638
 30
0.0
  0
MTEXT
  5
16C7
330
18
100
AcDbEntity
  8
0
  6
ByBlock
 62
     6
100
AcDbMText
 10
266.4616318317609
 20
299.2943684476572
 30
0.0
 40
2.499999999999999
 41
0.0
 71
     5
 72
     1
  1
\A1;50
  7
STYLE3
 11
-0.0749936383269741
 21
0.9971840122116294
 31
0.0
 73
     1
 44
1.0
  0
LINE
  5
16C8
330
18
100
AcDbEntity
  8
想像線
 48
0.2
100
AcDbLine
 10
286.8034524633014
 20
275.7592682825256
 30
0.0
 11
289.865096273136
 21
268.0750729322172
 31
0.0
  0
ARC
  5
16C9
330
18
100
AcDbEntity
  8
想像線
 48
0.2
100
AcDbCircle
 10
297.143700988277
 20
267.927041176412
 30
0.0
 40
13.0
100
AcDbArc
 50
183.5935877334191
 51
264.572054159181
  0
ARC
  5
16CA
330
18
100
AcDbEntity
  8
想像線
 48
0.2
100
AcDbCircle
 10
295.1831081759055
 20
269.4781942391616
 30
0.0
 40
5.5
100
AcDbArc
 50
194.780278952615
 51
284.7802789526198
  0
LINE
  5
16CB
330
18
100
AcDbEntity
  8
想像線
 48
0.2
100
AcDbLine
 10
282.9358074431054
 20
274.7388164229297
 30
0.0
 11
284.1692622462145
 21
267.1122164538688
 31
0.0
  0
ARC
  5
16CC
330
18
100
AcDbEntity
  8
想像線
 48
0.2
100
AcDbCircle
 10
284.8696299532034
 20
275.2490423527277
 30
0.0
 40
2.0
100
AcDbArc
 50
14.7802789526115
 51
194.7802789526115
  0
POINT
  5
16CD
330
18
100
AcDbEntity
  8
想像線
  6
ByBlock
 48
0.5
100
AcDbPoint
 10
284.4844666688918
 20
277.2116042611572
 30
0.0
  0
POINT
  5
16CE
330
18
100
AcDbEntity
  8
想像線
  6
ByBlock
 48
0.5
100
AcDbPoint
 10
284.4844666688918
 20
277.2116042611572
 30
0.0
  0
LINE
  5
16D9
330
18
100
AcDbEntity
  8
0
  6
ByBlock
 62
     2
100
AcDbLine
 10
455.3102242806808
 20
314.8438692153115
 30
0.0
 11
292.3994863488557
 21
250.9291489506635
 31
0.0
  0
MTEXT
  5
16DA
330
18
100
AcDbEntity
  8
0
  6
ByBlock
 62
     6
100
AcDbMText
 10
358.5025124780242
 20
278.8774688803043
 30
0.0
 40
2.5
 41
0.0
 71
     5
 72
     1
  1
\A1;R175
  7
STYLE3
 11
0.930918502467572
 21
0.3652269729408455
 31
0.0
 73
     1
 44
1.0
  0
INSERT
  5
16DB
330
18
100
AcDbEntity
  8
0
  6
ByBlock
 62
     2
100
AcDbBlockReference
  2
_OPEN
 10
292.3994863488557
 20
250.9291489506635
 30
0.0
 41
2.5
 42
2.5
 43
2.5
 50
201.4215516707877
  0
POINT
  5
16DC
330
18
100
AcDbEntity
  8
DEFPOINTS
  6
ByBlock
 62
     0
100
AcDbPoint
 10
292.3994863488557
 20
250.9291489506635
 30
0.0
  0
POINT
  5
16DD
330
18
100
AcDbEntity
  8
DEFPOINTS
  6
ByBlock
 62
     0
100
AcDbPoint
 10
455.3102242806808
 20
314.8438692153115
 30
0.0
  0
DIMENSION
  5
1705
330
18
100
AcDbEntity
  8
外形線
100
AcDbDimension
  2
*D3
 10
627.4711271233821
 20
299.8438692153115
 30
0.0
 11
625.5961271233822
 21
314.8438692153115
 31
0.0
 12
0.0
 22
0.859756662074858
 32
0.0
 70
    32
 71
     5
 42
-1.0
  3
STYLE3
100
AcDbAlignedDimension
 13
610.3102242806809
 23
329.8438692153115
 33
0.0
 14
610.3102242806809
 24
299.8438692153115
 34
0.0
 50
90.0
100
AcDbRotatedDimension
1001
ACAD
1000
DSTYLE
1002
{
1070
   271
1070
     2
1002
}
  0
LINE
  5
1707
330
18
100
AcDbEntity
  8
0
  6
ByBlock
 62
     2
100
AcDbLine
 10
515.3102242806808
 20
301.1438692153115
 30
0.0
 11
515.3102242806808
 21
233.9290565352635
 31
0.0
  0
LINE
  5
1708
330
18
100
AcDbEntity
  8
0
  6
ByBlock
 62
     2
100
AcDbLine
 10
457.8102242806807
 20
235.1790565352634
 30
0.0
 11
512.8102242806809
 21
235.1790565352634
 31
0.0
  0
INSERT
  5
1709
330
18
100
AcDbEntity
  8
0
  6
ByBlock
 62
     2
100
AcDbBlockReference
  2
_OPEN
 10
455.3102242806808
 20
235.1790565352634
 30
0.0
 41
2.5
 42
2.5
 43
2.5
 50
180.0
  0
INSERT
  5
170A
330
18
100
AcDbEntity
  8
0
  6
ByBlock
 62
     2
100
AcDbBlockReference
  2
_OPEN
 10
515.3102242806808
 20
235.1790565352634
 30
0.0
 41
2.5
 42
2.5
 43
2.5
  0
MTEXT
  5
170B
330
18
100
AcDbEntity
  8
0
  6
ByBlock
 62
     6
100
AcDbMText
 10
485.3102242806809
 20
237.0540565352635
 30
0.0
 40
2.5
 41
0.0
 71
     5
 72
     1
  1
\A1;60
  7
STYLE3
 73
     1
 44
1.0
  0
POINT
  5
170C
330
18
100
AcDbEntity
  8
DEFPOINTS
  6
ByBlock
 62
     0
100
AcDbPoint
 10
455.3102242806808
 20
253.7037314593769
 30
0.0
  0
POINT
  5
170D
330
18
100
AcDbEntity
  8
DEFPOINTS
  6
ByBlock
 62
     0
100
AcDbPoint
 10
515.3102242806808
 20
301.1438692153115
 30
0.0
  0
POINT
  5
170E
330
18
100
AcDbEntity
  8
DEFPOINTS
  6
ByBlock
 62
     0
100
AcDbPoint
 10
515.3102242806808
 20
235.1790565352634
 30
0.0
  0
LINE
  5
170F
330
18
100
AcDbEntity
  8
0
  6
ByBlock
 62
     2
100
AcDbLine
 10
615.310224280681
 20
301.1438692153114
 30
0.0
 11
615.3102242806808
 21
221.9425020173996
 31
0.0
  0
LINE
  5
1710
330
18
100
AcDbEntity
  8
0
  6
ByBlock
 62
     2
100
AcDbLine
 10
517.8102242806809
 20
235.1790565352634
 30
0.0
 11
612.8102242806809
 21
235.1790565352634
 31
0.0
  0
INSERT
  5
1711
330
18
100
AcDbEntity
  8
0
  6
ByBlock
 62
     2
100
AcDbBlockReference
  2
_OPEN
 10
515.3102242806808
 20
235.1790565352634
 30
0.0
 41
2.5
 42
2.5
 43
2.5
 50
180.0
  0
INSERT
  5
1712
330
18
100
AcDbEntity
  8
0
  6
ByBlock
 62
     2
100
AcDbBlockReference
  2
_OPEN
 10
615.3102242806809
 20
235.1790565352634
 30
0.0
 41
2.5
 42
2.5
 43
2.5
  0
MTEXT
  5
1713
330
18
100
AcDbEntity
  8
0
  6
ByBlock
 62
     6
100
AcDbMText
 10
565.3102242806808
 20
237.0540565352635
 30
0.0
 40
2.5
 41
0.0
 71
     5
 72
     1
  1
\A1;100
  7
STYLE3
 73
     1
 44
1.0
  0
POINT
  5
1714
330
18
100
AcDbEntity
  8
DEFPOINTS
  6
ByBlock
 62
     0
100
AcDbPoint
 10
515.3102242806808
 20
301.1438692153115
 30
0.0
  0
POINT
  5
1715
330
18
100
AcDbEntity
  8
DEFPOINTS
  6
ByBlock
 62
     0
100
AcDbPoint
 10
615.3102242806809
 20
301.1438692153114
 30
0.0
  0
POINT
  5
1716
330
18
100
AcDbEntity
  8
DEFPOINTS
  6
ByBlock
 62
     0
100
AcDbPoint
 10
615.3102242806809
 20
235.1790565352634
 30
0.0
  0
LINE
  5
1719
330
18
100
AcDbEntity
  8
寸法線
 48
0.7
100
AcDbLine
 10
280.3113758621884
 20
397.1930265950848
 30
0.0
 11
280.7364756682579
 21
327.0515585936047
 31
0.0
  0
LINE
  5
172A
330
18
100
AcDbEntity
  8
0
  6
ByBlock
 62
     2
100
AcDbLine
 10
282.997337916819
 20
395.9430265950849
 30
0.0
 11
427.9945831717704
 21
395.9430265950849
 31
0.0
  0
INSERT
  5
172B
330
18
100
AcDbEntity
  8
0
  6
ByBlock
 62
     2
100
AcDbBlockReference
  2
_OPEN
 10
280.497337916819
 20
395.9430265950849
 30
0.0
 41
2.5
 42
2.5
 43
2.5
 50
180.0
  0
INSERT
  5
172C
330
18
100
AcDbEntity
  8
0
  6
ByBlock
 62
     2
100
AcDbBlockReference
  2
_OPEN
 10
430.1217027423436
 20
395.9430265950849
 30
0.0
 41
2.5
 42
2.5
 43
2.5
  0
MTEXT
  5
172D
330
18
100
AcDbEntity
  8
0
  6
ByBlock
 62
     6
100
AcDbMText
 10
355.4959605442947
 20
397.8180265950848
 30
0.0
 40
2.5
 41
0.0
 71
     5
 72
     1
  1
\A1;150
  7
STYLE3
 73
     1
 44
1.0
  0
POINT
  5
172E
330
18
100
AcDbEntity
  8
DEFPOINTS
  6
ByBlock
 62
     0
100
AcDbPoint
 10
280.497337916819
 20
366.5092875810371
 30
0.0
  0
POINT
  5
172F
330
18
100
AcDbEntity
  8
DEFPOINTS
  6
ByBlock
 62
     0
100
AcDbPoint
 10
430.4945831717703
 20
367.4183617947033
 30
0.0
  0
LINE
  5
1764
330
18
100
AcDbEntity
  8
0
  6
ByBlock
 62
     2
100
AcDbLine
 10
280.7364805533047
 20
327.0507525607334
 30
0.0
 11
280.7364805533047
 21
221.9425020173996
 31
0.0
  0
LINE
  5
1766
330
18
100
AcDbEntity
  8
0
  6
ByBlock
 62
     2
100
AcDbLine
 10
283.2364805533047
 20
223.1925020173996
 30
0.0
 11
612.8102242806809
 21
223.1925020173996
 31
0.0
  0
INSERT
  5
1767
330
18
100
AcDbEntity
  8
0
  6
ByBlock
 62
     2
100
AcDbBlockReference
  2
_OPEN
 10
280.7364805533047
 20
223.1925020173996
 30
0.0
 41
2.5
 42
2.5
 43
2.5
 50
180.0
  0
INSERT
  5
1768
330
18
100
AcDbEntity
  8
0
  6
ByBlock
 62
     2
100
AcDbBlockReference
  2
_OPEN
 10
615.3102242806809
 20
223.1925020173996
 30
0.0
 41
2.5
 42
2.5
 43
2.5
  0
MTEXT
  5
1769
330
18
100
AcDbEntity
  8
0
  6
ByBlock
 62
     6
100
AcDbMText
 10
448.0233524169928
 20
225.0675020173996
 30
0.0
 40
2.5
 41
0.0
 71
     5
 72
     1
  1
\A1;335
  7
STYLE3
 73
     1
 44
1.0
  0
POINT
  5
176A
330
18
100
AcDbEntity
  8
DEFPOINTS
  6
ByBlock
 62
     0
100
AcDbPoint
 10
280.7364805533047
 20
327.0507525607334
 30
0.0
  0
POINT
  5
176B
330
18
100
AcDbEntity
  8
DEFPOINTS
  6
ByBlock
 62
     0
100
AcDbPoint
 10
615.3102242806809
 20
233.9290565352635
 30
0.0
  0
POINT
  5
176C
330
18
100
AcDbEntity
  8
DEFPOINTS
  6
ByBlock
 62
     0
100
AcDbPoint
 10
615.3102242806809
 20
223.1925020173996
 30
0.0
  0
LINE
  5
1770
330
18
100
AcDbEntity
  8
隠れ線
 62
     4
 48
0.3
100
AcDbLine
 10
281.6879782302763
 20
335.0566661357553
 30
0.0
 11
281.7353845711652
 21
327.2346198891155
 31
0.0
  0
LINE
  5
1771
330
18
100
AcDbEntity
  8
隠れ線
 62
     4
 48
0.3
100
AcDbLine
 10
279.6880149602103
 20
335.0445451462397
 30
0.0
 11
279.7342749966292
 21
327.4116391371386
 31
0.0
  0
LINE
  5
1772
330
18
100
AcDbEntity
  8
外形線
100
AcDbLine
 10
280.7364805533056
 20
327.0507525607334
 30
0.0
 11
281.051951268929
 21
327.0526645044645
 31
0.0
  0
LINE
  5
1789
330
18
100
AcDbEntity
  8
隠れ線
 62
     4
 48
0.3
100
AcDbLine
 10
279.6880149602103
 20
335.0445451462397
 30
0.0
 11
281.6879782302763
 21
335.0566661357553
 31
0.0
  0
LINE
  5
178A
330
18
100
AcDbEntity
  8
隠れ線
 62
     4
 48
0.3
100
AcDbLine
 10
279.7849828763353
 20
319.0448389857115
 30
0.0
 11
281.7849461464013
 21
319.0569599752272
 31
0.0
  0
LINE
  5
178B
330
18
100
AcDbEntity
  8
隠れ線
 62
     4
 48
0.3
100
AcDbLine
 10
281.7385956209279
 20
326.7047966783074
 30
0.0
 11
281.7849461464013
 21
319.0569599752272
 31
0.0
  0
LINE
  5
178C
330
18
100
AcDbEntity
  8
隠れ線
 62
     4
 48
0.3
100
AcDbLine
 10
279.7376458365016
 20
326.8554505582479
 30
0.0
 11
279.7849828763353
 21
319.0448389857115
 31
0.0
  0
LINE
  5
17BD
330
18
100
AcDbEntity
  8
想像線
 48
0.3
100
AcDbLine
 10
331.2153964655294
 20
378.0447548394113
 30
0.0
 11
331.2153964655294
 21
364.8438692153115
 31
0.0
  0
LINE
  5
17BE
330
18
100
AcDbEntity
  8
想像線
 48
0.3
100
AcDbLine
 10
334.2153964655293
 20
378.2522017777385
 30
0.0
 11
334.2153964655293
 21
364.8438692153115
 31
0.0
  0
DIMENSION
  5
17CD
330
18
100
AcDbEntity
  8
想像線
100
AcDbDimension
  2
*D4
 10
334.2153964655293
 20
387.5579501890467
 30
0.0
 11
342.2213488464816
 21
390.0877120938087
 31
0.0
 70
    32
  1
(3)
 71
     5
 42
-1.0
  3
STYLE3
100
AcDbAlignedDimension
 13
331.2153964655294
 23
378.0447548394113
 33
0.0
 14
334.2153964655293
 24
378.2522017777385
 34
0.0
100
AcDbRotatedDimension
1001
ACAD
1000
DSTYLE
1002
{
1070
   271
1070
     2
1002
}
  0
LINE
  5
17DB
330
18
100
AcDbEntity
  8
想像線
 48
0.3
100
AcDbLine
 10
323.7687776057748
 20
307.0874173797652
 30
0.0
 11
323.7687776057747
 21
294.8676560114441
 31
0.0
  0
LINE
  5
17DC
330
18
100
AcDbEntity
  8
想像線
 48
0.3
100
AcDbLine
 10
326.7687776057747
 20
306.7190056182196
 30
0.0
 11
326.7687776057747
 21
294.2480381277761
 31
0.0
  0
DIMENSION
  5
17EB
330
18
100
AcDbEntity
  8
想像線
100
AcDbDimension
  2
*D5
 10
326.7687776057747
 20
279.7071277309675
 30
0.0
 11
334.7747299867271
 21
282.2368896357294
 31
0.0
 70
    32
  1
(3)
 71
     5
 42
-1.0
  3
STYLE3
100
AcDbAlignedDimension
 13
323.7687776057747
 23
294.8676560114441
 33
0.0
 14
326.7687776057747
 24
294.2480381277761
 34
0.0
100
AcDbRotatedDimension
1001
ACAD
1000
DSTYLE
1002
{
1070
   271
1070
     2
1002
}
  0
LINE
  5
180B
330
18
100
AcDbEntity
  8
想像線
 62
     2
100
AcDbLine
 10
430.1141343308221
 20
397.1918144961333
 30
0.0
 11
430.7461028867016
 21
292.9170027760159
 31
0.0
  0
LINE
  5
180E
330
18
100
AcDbEntity
  8
外形線
100
AcDbLine
 10
453.0384390741799
 20
352.5643504923923
 30
0.0
 11
452.7141044485029
 21
354.8721112678546
 31
0.0
  0
LINE
  5
180F
330
18
100
AcDbEntity
  8
隠れ線
 62
     4
 48
0.5
100
AcDbLine
 10
453.0384390741799
 20
352.5643504923923
 30
0.0
 11
453.7847570233926
 21
347.2540223532916
 31
0.0
  0
LINE
  5
1844
330
18
100
AcDbEntity
  8
隠れ線2
100
AcDbLine
 10
515.3102242806808
 20
326.5938692153115
 30
0.0
 11
603.8102242806809
 21
326.5938692153115
 31
0.0
  0
LINE
  5
1845
330
18
100
AcDbEntity
  8
隠れ線2
100
AcDbLine
 10
515.3102242806808
 20
303.0938692153115
 30
0.0
 11
603.8102242806807
 21
303.0938692153114
 31
0.0
  0
LINE
  5
1846
330
18
100
AcDbEntity
  8
隠れ線2
100
AcDbLine
 10
605.3102242806809
 20
325.0938692153115
 30
0.0
 11
605.3102242806808
 21
304.5938692153114
 31
0.0
  0
ARC
  5
1847
330
18
100
AcDbEntity
  8
隠れ線2
100
AcDbCircle
 10
603.8102242806809
 20
325.0938692153115
 30
0.0
 40
1.5
100
AcDbArc
 50
0.0
 51
90.0
  0
ARC
  5
1848
330
18
100
AcDbEntity
  8
隠れ線2
100
AcDbCircle
 10
603.8102242806807
 20
304.5938692153114
 30
0.0
 40
1.5
100
AcDbArc
 50
270.0
 51
0.0
  0
TEXT
  5
18A7
330
18
100
AcDbEntity
  8
文字
100
AcDbText
 10
307.2981049235153
 20
447.1650596539284
 30
0.0
 40
4.0
  1
Model No.LA-5 Outside Dial Caliper Gauge
  7
STYLE3
100
AcDbText
  0
LINE
  5
18A8
330
18
100
AcDbEntity
  8
外形線
100
AcDbLine
 10
305.9951549235153
 20
443.2416296539285
 30
0.0
 11
432.9951549235153
 21
443.2416296539285
 31
0.0
  0
LINE
  5
18A9
330
18
100
AcDbEntity
  8
外形線
100
AcDbLine
 10
305.9951549235153
 20
444.2416296539285
 30
0.0
 11
432.9951549235153
 21
444.2416296539285
 31
0.0
  0
TEXT
  5
18AA
330
18
100
AcDbEntity
  8
0
  6
Continuous
100
AcDbText
 10
597.0047029460024
 20
178.7412721172306
 30
0.0
 40
2.1
  1
OZAKI MFG. CO., LTD.
  7
STYLE3
100
AcDbText
  0
TEXT
  5
18AB
330
18
100
AcDbEntity
  8
0
  6
Continuous
100
AcDbText
 10
596.1302239460024
 20
182.5289111172306
 30
0.0
 40
3.0
  1
株式会社　尾崎製作所
  7
STYLE3
100
AcDbText
  0
TEXT
  5
18AC
330
18
100
AcDbEntity
  8
0
  6
Continuous
100
AcDbText
 10
575.7256689460024
 20
180.4894141172306
 30
0.0
 40
2.1
  1
2010.06.28
  7
STYLE3
100
AcDbText
  0
TEXT
  5
18AD
330
18
100
AcDbEntity
  8
0
  6
Continuous
100
AcDbText
 10
566.5975009460025
 20
182.0743561172306
 30
0.0
 40
3.0
  1
日 付
  7
STYLE3
100
AcDbText
  0
TEXT
  5
18AE
330
18
100
AcDbEntity
  8
0
  6
Continuous
100
AcDbText
 10
566.9808619460025
 20
178.7412731172306
 30
0.0
 40
2.1
  1
Date
  7
STYLE3
100
AcDbText
  0
TEXT
  5
18AF
330
18
100
AcDbEntity
  8
0
  6
Continuous
100
AcDbText
 10
556.8870909460025
 20
180.7807721172306
 30
0.0
 40
2.399999999999999
  1
1/1
  7
STYLE3
100
AcDbText
  0
TEXT
  5
18B0
330
18
100
AcDbEntity
  8
0
  6
Continuous
100
AcDbText
 10
547.2678019460024
 20
179.0326291172306
 30
0.0
 40
2.1
  1
Scale
  7
STYLE3
100
AcDbText
  0
TEXT
  5
18B1
330
18
100
AcDbEntity
  8
0
  6
Continuous
100
AcDbText
 10
537.5287379460025
 20
180.4894151172306
 30
0.0
 40
2.399999999999999
  1
mm
  7
STYLE3
100
AcDbText
  0
TEXT
  5
18B2
330
18
100
AcDbEntity
  8
0
  6
Continuous
100
AcDbText
 10
546.8045869460024
 20
181.9521511172306
 30
0.0
 40
3.0
  1
尺 度
  7
STYLE3
100
AcDbText
  0
TEXT
  5
18B3
330
18
100
AcDbEntity
  8
0
  6
Continuous
100
AcDbText
 10
529.6584119460025
 20
178.7412721172306
 30
0.0
 40
2.1
  1
Unit
  7
STYLE3
100
AcDbText
  0
TEXT
  5
18B4
330
18
100
AcDbEntity
  8
0
  6
Continuous
100
AcDbText
 10
529.4866909460025
 20
182.2435091172306
 30
0.0
 40
3.0
  1
単位
  7
STYLE3
100
AcDbText
  0
LINE
  5
18B5
330
18
100
AcDbEntity
  8
外形線
100
AcDbLine
 10
528.0292219460025
 20
186.6079091172306
 30
0.0
 11
528.0292219460025
 21
176.9931311172306
 31
0.0
  0
LINE
  5
18B6
330
18
100
AcDbEntity
  8
外形線
100
AcDbLine
 10
545.5188389460024
 20
186.6079091172306
 30
0.0
 11
545.5188389460024
 21
176.9931311172306
 31
0.0
  0
LINE
  5
18B7
330
18
100
AcDbEntity
  8
外形線
100
AcDbLine
 10
565.0489109460024
 20
186.6079091172306
 30
0.0
 11
565.0489109460024
 21
176.9931311172306
 31
0.0
  0
LINE
  5
18B8
330
18
100
AcDbEntity
  8
外形線
100
AcDbLine
 10
594.7812609460024
 20
186.6079091172306
 30
0.0
 11
594.7812609460024
 21
176.9931311172306
 31
0.0
  0
LINE
  5
18B9
330
18
100
AcDbEntity
  8
外形線
100
AcDbLine
 10
492.7584939460024
 20
176.9931311172306
 30
0.0
 11
492.7584939460024
 21
197.3881151172306
 31
0.0
  0
TEXT
  5
18BA
330
18
100
AcDbEntity
  8
0
  6
Continuous
100
AcDbText
 10
496.5479119460025
 20
182.2375541172306
 30
0.0
 40
3.0
  1
三　　角　　法
  7
STYLE3
100
AcDbText
  0
TEXT
  5
18BB
330
18
100
AcDbEntity
  8
0
  6
Continuous
100
AcDbText
 10
493.9244699460025
 20
178.7412711172306
 30
0.0
 40
2.1
  1
3RD Angle Projection
  7
STYLE3
100
AcDbText
  0
TEXT
  5
18BC
330
18
100
AcDbEntity
  8
0
  6
Continuous
100
AcDbText
 10
494.5074549460025
 20
192.4350471172306
 30
0.0
 40
3.5
  1
仕様及び外観は予告なく変更される場合がございますのでご了承下さい。
  7
STYLE3
100
AcDbText
  0
TEXT
  5
18BD
330
18
100
AcDbEntity
  8
0
  6
Continuous
100
AcDbText
 10
494.2159609460024
 20
188.5058991172306
 30
0.0
 40
2.1
  1
Design and specifications are subject to change without notice for future improvement.
  7
STYLE3
100
AcDbText
  0
LINE
  5
18BE
330
18
100
AcDbEntity
  8
外形線
100
AcDbLine
 10
492.7584939460024
 20
186.6079091172306
 30
0.0
 11
633.5499119460025
 21
186.6079091172306
 31
0.0
  0
LINE
  5
18BF
330
18
100
AcDbEntity
  8
外形線
100
AcDbLine
 10
492.7584939460024
 20
197.3881151172306
 30
0.0
 11
633.5499119460025
 21
197.3881151172306
 31
0.0
  0
ENDSEC
  0
SECTION
  2
OBJECTS
  0
DICTIONARY
  5
C
330
0
100
AcDbDictionary
281
     1
  3
ACAD_COLOR
350
185F
  3
ACAD_GROUP
350
D
  3
ACAD_IMAGE_DICT
350
1071
  3
ACAD_LAYOUT
350
1862
  3
ACAD_MATERIAL
350
185E
  3
ACAD_MLINESTYLE
350
1B
  3
ACAD_PLOTSETTINGS
350
1863
  3
ACAD_PLOTSTYLENAME
350
185C
  3
ACAD_TABLESTYLE
350
1860
  3
AcDbVariableDictionary
350
187D
  0
DICTIONARY
  5
185F
102
{ACAD_REACTORS
330
C
102
}
330
C
100
AcDbDictionary
281
     1
  0
DICTIONARY
  5
D
102
{ACAD_REACTORS
330
C
102
}
330
C
100
AcDbDictionary
281
     1
  0
DICTIONARY
  5
1071
102
{ACAD_REACTORS
330
C
102
}
330
C
100
AcDbDictionary
281
     1
  3
ROGO01
350
1072
  0
DICTIONARY
  5
1862
102
{ACAD_REACTORS
330
C
102
}
330
C
100
AcDbDictionary
281
     1
  3
Model
350
1864
  3
レイアウト1
350
1865
  0
DICTIONARY
  5
185E
102
{ACAD_REACTORS
330
C
102
}
330
C
100
AcDbDictionary
281
     1
  0
DICTIONARY
  5
1B
102
{ACAD_REACTORS
330
C
102
}
330
C
100
AcDbDictionary
281
     1
  3
STANDARD
350
1C
  0
DICTIONARY
  5
1863
102
{ACAD_REACTORS
330
C
102
}
330
C
100
AcDbDictionary
281
     1
  0
ACDBDICTIONARYWDFLT
  5
185C
102
{ACAD_REACTORS
330
C
102
}
330
C
100
AcDbDictionary
281
     1
  3
Normal
350
185D
100
AcDbDictionaryWithDefault
340
185D
  0
DICTIONARY
  5
1860
102
{ACAD_REACTORS
330
C
102
}
330
C
100
AcDbDictionary
281
     1
  3
Standard
350
1861
  0
DICTIONARY
  5
187D
102
{ACAD_REACTORS
330
C
102
}
330
C
100
AcDbDictionary
281
     1
  3
CTABLESTYLE
350
187E
  0
IMAGEDEF
  5
1072
102
{ACAD_REACTORS
330
1071
102
}
330
1071
100
AcDbRasterImageDef
 90
        0
  1
D:\ﾃｽﾄ\rogo01.TIF
 10
3388.0
 20
4668.0
 11
0.0635
 21
0.0635
280
     1
281
     5
  0
LAYOUT
  5
1864
102
{ACAD_REACTORS
330
1862
102
}
330
1862
100
AcDbPlotSettings
  1

  2
WIDR Printer
  4

  6

 40
0.0
 41
0.0
 42
0.0
 43
0.0
 44
0.0
 45
0.0
 46
0.0
 47
0.0
 48
0.0
 49
0.0
140
0.0
141
0.0
142
1.0
143
1.0
 70
  1712
 72
     0
 73
     0
 74
     0
  7
AutoCad LT 98.ctb
 75
     0
147
1.0
 76
     0
 77
     2
 78
   300
148
0.0
149
0.0
100
AcDbLayout
  1
Model
 70
     1
 71
     0
 10
0.0
 20
0.0
 11
12.0
 21
9.0
 12
0.0
 22
0.0
 32
0.0
 14
0.0
 24
0.0
 34
0.0
 15
0.0
 25
0.0
 35
0.0
146
0.0
 13
0.0
 23
0.0
 33
0.0
 16
1.0
 26
0.0
 36
0.0
 17
0.0
 27
1.0
 37
0.0
 76
     0
330
18
  0
LAYOUT
  5
1865
102
{ACAD_REACTORS
330
1862
102
}
330
1862
100
AcDbPlotSettings
  1

  2
WIDR Printer
  4

  6

 40
0.0
 41
0.0
 42
0.0
 43
0.0
 44
0.0
 45
0.0
 46
0.0
 47
0.0
 48
0.0
 49
0.0
140
0.0
141
0.0
142
1.0
143
1.0
 70
   688
 72
     0
 73
     0
 74
     5
  7
AutoCad LT 98.ctb
 75
    16
147
1.0
 76
     0
 77
     2
 78
   300
148
0.0
149
0.0
100
AcDbLayout
  1
レイアウト1
 70
     1
 71
     1
 10
0.0
 20
0.0
 11
420.0
 21
297.0
 12
0.0
 22
0.0
 32
0.0
 14
1.000000000000000E+20
 24
1.000000000000000E+20
 34
1.000000000000000E+20
 15
-1.000000000000000E+20
 25
-1.000000000000000E+20
 35
-1.000000000000000E+20
146
0.0
 13
0.0
 23
0.0
 33
0.0
 16
1.0
 26
0.0
 36
0.0
 17
0.0
 27
1.0
 37
0.0
 76
     0
330
15
  0
MLINESTYLE
  5
1C
102
{ACAD_REACTORS
330
1B
102
}
330
1B
100
AcDbMlineStyle
  2
STANDARD
 70
     0
  3

 62
   256
 51
90.0
 52
90.0
 71
     2
 49
0.5
 62
   256
  6
BYLAYER
 49
-0.5
 62
   256
  6
BYLAYER
  0
ACDBPLACEHOLDER
  5
185D
102
{ACAD_REACTORS
330
185C
102
}
330
185C
  0
ACAD_PROXY_OBJECT
  5
1861
102
{ACAD_REACTORS
330
1860
102
}
330
1860
100
AcDbProxyObject
 90
      499
 91
      504
 95
  2555929
 70
     0
 93
     1849
310
4214DD185B99185C992420000000000000F83F0000000000003E0FC00000000000004901028000000C1008070000C3001FDFF8000000C1003FBFF000000182007F7FE00000030400FEFFC00000060801FDFF8000000C1003FBFF000000182000000000000000C2020B0000001820100E000186003FBFF000000182007F7FE0
310
0000030400FEFFC00000060801FDFF8000000C1003FBFF000000182007F7FE0000003040000000000000012404160000003040201C00030C007F7FE00000030400FEFFC00000060801FDFF8000000C1003FBFF000000182007F7FE00000030400FEFFC000000608000
340
F
340
F
340
F
 94
        0
  0
DICTIONARYVAR
  5
187E
102
{ACAD_REACTORS
330
187D
102
}
330
187D
100
DictionaryVariables
280
     0
  1
STANDARD
  0
ENDSEC
  0
EOF
