  0
SECTION
  2
HEADER
  9
$ACADVER
  1
AC1018
  9
$ACADMAINTVER
 70
     0
  9
$DWGCODEPAGE
  3
ANSI_932
  9
$INSBASE
 10
0.0
 20
0.0
 30
0.0
  9
$EXTMIN
 10
255.8215948095151
 20
176.0662274606707
 30
-0.0000305122223523
  9
$EXTMAX
 10
634.1642939472667
 20
459.392800328547
 30
0.0000457828865983
  9
$LIMMIN
 10
0.0
 20
0.0
  9
$LIMMAX
 10
420.0
 20
297.0
  9
$ORTHOMODE
 70
     0
  9
$REGENMODE
 70
     1
  9
$FILLMODE
 70
     1
  9
$QTEXTMODE
 70
     0
  9
$MIRRTEXT
 70
     1
  9
$LTSCALE
 40
1.0
  9
$ATTMODE
 70
     1
  9
$TEXTSIZE
 40
3.0
  9
$TRACEWID
 40
1.0
  9
$TEXTSTYLE
  7
STYLE3
  9
$CLAYER
  8
文字
  9
$CELTYPE
  6
BYLAYER
  9
$CECOLOR
 62
   256
  9
$CELTSCALE
 40
1.0
  9
$DISPSILH
 70
     0
  9
$DIMSCALE
 40
0.0
  9
$DIMASZ
 40
2.5
  9
$DIMEXO
 40
0.0
  9
$DIMDLI
 40
3.75
  9
$DIMRND
 40
0.0
  9
$DIMDLE
 40
0.0
  9
$DIMEXE
 40
1.25
  9
$DIMTP
 40
0.0
  9
$DIMTM
 40
0.0
  9
$DIMTXT
 40
2.5
  9
$DIMCEN
 40
2.5
  9
$DIMTSZ
 40
0.0
  9
$DIMTOL
 70
     0
  9
$DIMLIM
 70
     0
  9
$DIMTIH
 70
     0
  9
$DIMTOH
 70
     0
  9
$DIMSE1
 70
     0
  9
$DIMSE2
 70
     0
  9
$DIMTAD
 70
     1
  9
$DIMZIN
 70
    10
  9
$DIMBLK
  1

  9
$DIMASO
 70
     1
  9
$DIMSHO
 70
     1
  9
$DIMPOST
  1

  9
$DIMAPOST
  1

  9
$DIMALT
 70
     0
  9
$DIMALTD
 70
     4
  9
$DIMALTF
 40
0.0394
  9
$DIMLFAC
 40
1.0
  9
$DIMTOFL
 70
     1
  9
$DIMTVP
 40
0.0
  9
$DIMTIX
 70
     0
  9
$DIMSOXD
 70
     0
  9
$DIMSAH
 70
     1
  9
$DIMBLK1
  1
OPEN
  9
$DIMBLK2
  1
OPEN
  9
$DIMSTYLE
  2
STYLE3
  9
$DIMCLRD
 70
     2
  9
$DIMCLRE
 70
     2
  9
$DIMCLRT
 70
     6
  9
$DIMTFAC
 40
1.0
  9
$DIMGAP
 40
0.625
  9
$DIMJUST
 70
     0
  9
$DIMSD1
 70
     0
  9
$DIMSD2
 70
     0
  9
$DIMTOLJ
 70
     1
  9
$DIMTZIN
 70
     0
  9
$DIMALTZ
 70
     0
  9
$DIMALTTZ
 70
     0
  9
$DIMUPT
 70
     0
  9
$DIMDEC
 70
     1
  9
$DIMTDEC
 70
     4
  9
$DIMALTU
 70
     8
  9
$DIMALTTD
 70
     4
  9
$DIMTXSTY
  7
STYLE3
  9
$DIMAUNIT
 70
     0
  9
$DIMADEC
 70
     0
  9
$DIMALTRND
 40
0.0
  9
$DIMAZIN
 70
     0
  9
$DIMDSEP
 70
    46
  9
$DIMATFIT
 70
     3
  9
$DIMFRAC
 70
     0
  9
$DIMLDRBLK
  1

  9
$DIMLUNIT
 70
     2
  9
$DIMLWD
 70
    -2
  9
$DIMLWE
 70
    -2
  9
$DIMTMOVE
 70
     0
  9
$LUNITS
 70
     2
  9
$LUPREC
 70
     4
  9
$SKETCHINC
 40
1.0
  9
$FILLETRAD
 40
1.5
  9
$AUNITS
 70
     0
  9
$AUPREC
 70
     0
  9
$MENU
  1
.
  9
$ELEVATION
 40
0.0
  9
$PELEVATION
 40
0.0
  9
$THICKNESS
 40
0.0
  9
$LIMCHECK
 70
     0
  9
$CHAMFERA
 40
10.0
  9
$CHAMFERB
 40
10.0
  9
$CHAMFERC
 40
20.0
  9
$CHAMFERD
 40
0.0
  9
$SKPOLY
 70
     0
  9
$TDCREATE
 40
2450854.578825695
  9
$TDUCREATE
 40
2450854.203825695
  9
$TDUPDATE
 40
2455804.573630093
  9
$TDUUPDATE
 40
2455804.198630093
  9
$TDINDWG
 40
0.3300610069
  9
$TDUSRTIMER
 40
0.3300610069
  9
$USRTIMER
 70
     1
  9
$ANGBASE
 50
0.0
  9
$ANGDIR
 70
     0
  9
$PDMODE
 70
     0
  9
$PDSIZE
 40
0.0
  9
$PLINEWID
 40
0.0
  9
$SPLFRAME
 70
     0
  9
$SPLINETYPE
 70
     6
  9
$SPLINESEGS
 70
     8
  9
$HANDSEED
  5
1130
  9
$SURFTAB1
 70
     6
  9
$SURFTAB2
 70
     6
  9
$SURFTYPE
 70
     6
  9
$SURFU
 70
     6
  9
$SURFV
 70
     6
  9
$UCSBASE
  2

  9
$UCSNAME
  2

  9
$UCSORG
 10
537.6299658620964
 20
432.8601324858587
 30
0.0
  9
$UCSXDIR
 10
1.0
 20
0.0
 30
0.0
  9
$UCSYDIR
 10
0.0
 20
1.0
 30
0.0
  9
$UCSORTHOREF
  2

  9
$UCSORTHOVIEW
 70
     0
  9
$UCSORGTOP
 10
0.0
 20
0.0
 30
0.0
  9
$UCSORGBOTTOM
 10
0.0
 20
0.0
 30
0.0
  9
$UCSORGLEFT
 10
0.0
 20
0.0
 30
0.0
  9
$UCSORGRIGHT
 10
0.0
 20
0.0
 30
0.0
  9
$UCSORGFRONT
 10
0.0
 20
0.0
 30
0.0
  9
$UCSORGBACK
 10
0.0
 20
0.0
 30
0.0
  9
$PUCSBASE
  2

  9
$PUCSNAME
  2

  9
$PUCSORG
 10
0.0
 20
0.0
 30
0.0
  9
$PUCSXDIR
 10
1.0
 20
0.0
 30
0.0
  9
$PUCSYDIR
 10
0.0
 20
1.0
 30
0.0
  9
$PUCSORTHOREF
  2

  9
$PUCSORTHOVIEW
 70
     0
  9
$PUCSORGTOP
 10
0.0
 20
0.0
 30
0.0
  9
$PUCSORGBOTTOM
 10
0.0
 20
0.0
 30
0.0
  9
$PUCSORGLEFT
 10
0.0
 20
0.0
 30
0.0
  9
$PUCSORGRIGHT
 10
0.0
 20
0.0
 30
0.0
  9
$PUCSORGFRONT
 10
0.0
 20
0.0
 30
0.0
  9
$PUCSORGBACK
 10
0.0
 20
0.0
 30
0.0
  9
$USERI1
 70
     0
  9
$USERI2
 70
     0
  9
$USERI3
 70
     0
  9
$USERI4
 70
     0
  9
$USERI5
 70
     0
  9
$USERR1
 40
0.0
  9
$USERR2
 40
0.0
  9
$USERR3
 40
0.0
  9
$USERR4
 40
0.0
  9
$USERR5
 40
0.0
  9
$WORLDVIEW
 70
     1
  9
$SHADEDGE
 70
     3
  9
$SHADEDIF
 70
    70
  9
$TILEMODE
 70
     1
  9
$MAXACTVP
 70
    48
  9
$PINSBASE
 10
0.0
 20
0.0
 30
0.0
  9
$PLIMCHECK
 70
     0
  9
$PEXTMIN
 10
1.000000000000000E+20
 20
1.000000000000000E+20
 30
1.000000000000000E+20
  9
$PEXTMAX
 10
-1.000000000000000E+20
 20
-1.000000000000000E+20
 30
-1.000000000000000E+20
  9
$PLIMMIN
 10
0.0
 20
0.0
  9
$PLIMMAX
 10
420.0
 20
297.0
  9
$UNITMODE
 70
     0
  9
$VISRETAIN
 70
     1
  9
$PLINEGEN
 70
     0
  9
$PSLTSCALE
 70
     1
  9
$TREEDEPTH
 70
  3020
  9
$CMLSTYLE
  2
STANDARD
  9
$CMLJUST
 70
     0
  9
$CMLSCALE
 40
20.0
  9
$PROXYGRAPHICS
 70
     1
  9
$MEASUREMENT
 70
     0
  9
$CELWEIGHT
370
    -1
  9
$ENDCAPS
280
     0
  9
$JOINSTYLE
280
     0
  9
$LWDISPLAY
290
     0
  9
$INSUNITS
 70
     0
  9
$HYPERLINKBASE
  1

  9
$STYLESHEET
  1
AutoCad LT 98.ctb
  9
$XEDIT
290
     1
  9
$CEPSNTYPE
380
     0
  9
$PSTYLEMODE
290
     1
  9
$FINGERPRINTGUID
  2
{9CF50606-816E-45C5-AB33-1812EF13EE5C}
  9
$VERSIONGUID
  2
{F23E5ABA-F8E5-41DF-B642-08DA97B416F7}
  9
$EXTNAMES
290
     1
  9
$PSVPSCALE
 40
0.0
  9
$OLESTARTUP
290
     0
  9
$SORTENTS
280
    96
  9
$INDEXCTL
280
     0
  9
$HIDETEXT
280
     0
  9
$XCLIPFRAME
290
     0
  9
$HALOGAP
280
     0
  9
$OBSCOLOR
 70
   257
  9
$OBSLTYPE
280
     0
  9
$INTERSECTIONDISPLAY
280
     0
  9
$INTERSECTIONCOLOR
 70
   257
  9
$DIMASSOC
280
     1
  9
$PROJECTNAME
  1

  0
ENDSEC
  0
SECTION
  2
CLASSES
  0
CLASS
  1
HATCH
  2
AcDbHatch
  3
ObjectDBX Classes
 90
        0
 91
       20
280
     0
281
     1
  0
CLASS
  1
DICTIONARYVAR
  2
AcDbDictionaryVar
  3
ObjectDBX Classes
 90
        0
 91
        2
280
     0
281
     0
  0
CLASS
  1
LWPOLYLINE
  2
AcDbPolyline
  3
ObjectDBX Classes
 90
        0
 91
        1
280
     0
281
     1
  0
CLASS
  1
ACDBDICTIONARYWDFLT
  2
AcDbDictionaryWithDefault
  3
ObjectDBX Classes
 90
        0
 91
        1
280
     0
281
     0
  0
CLASS
  1
TABLESTYLE
  2
AcDbTableStyle
  3
ObjectDBX Classes
 90
     2047
 91
        1
280
     0
281
     0
  0
CLASS
  1
SORTENTSTABLE
  2
AcDbSortentsTable
  3
ObjectDBX Classes
 90
        0
 91
        1
280
     0
281
     0
  0
ENDSEC
  0
SECTION
  2
TABLES
  0
TABLE
  2
VPORT
  5
8
330
0
100
AcDbSymbolTable
 70
     4
  0
VPORT
  5
112F
330
8
100
AcDbSymbolTableRecord
100
AcDbViewportTableRecord
  2
*Active
 70
     0
 10
0.0
 20
0.0
 11
1.0
 21
1.0
 12
444.9929443783909
 22
317.7295138946089
 13
0.0
 23
0.0
 14
10.0
 24
10.0
 15
10.0
 25
10.0
 16
0.0
 26
0.0
 36
1.0
 17
0.0
 27
0.0
 37
0.0
 40
285.4983381891046
 41
1.530456852791878
 42
50.0
 43
0.0
 44
0.0
 50
0.0
 51
0.0
 71
     0
 72
   100
 73
     1
 74
     1
 75
     0
 76
     0
 77
     0
 78
     0
281
     0
 65
     1
110
537.6299658620964
120
432.8601324858587
130
0.0
111
1.0
121
0.0
131
0.0
112
0.0
122
1.0
132
0.0
 79
     0
146
0.0
  0
ENDTAB
  0
TABLE
  2
LTYPE
  5
5
330
0
100
AcDbSymbolTable
 70
    12
  0
LTYPE
  5
12
330
5
100
AcDbSymbolTableRecord
100
AcDbLinetypeTableRecord
  2
BYBLOCK
 70
     0
  3

 72
    65
 73
     0
 40
0.0
  0
LTYPE
  5
13
330
5
100
AcDbSymbolTableRecord
100
AcDbLinetypeTableRecord
  2
BYLAYER
 70
     0
  3

 72
    65
 73
     0
 40
0.0
  0
LTYPE
  5
14
330
5
100
AcDbSymbolTableRecord
100
AcDbLinetypeTableRecord
  2
CONTINUOUS
 70
     0
  3
Solid line
 72
    65
 73
     0
 40
0.0
  0
LTYPE
  5
22
330
5
100
AcDbSymbolTableRecord
100
AcDbLinetypeTableRecord
  2
CENTER2
 70
     0
  3
Center (.5x) ___ _ ___ _ ___ _ ___ _ ___ _ ___
 72
    65
 73
     4
 40
28.575
 49
19.05
 74
     0
 49
-3.174999999999999
 74
     0
 49
3.174999999999999
 74
     0
 49
-3.174999999999999
 74
     0
  0
LTYPE
  5
23
330
5
100
AcDbSymbolTableRecord
100
AcDbLinetypeTableRecord
  2
HIDDEN2
 70
     0
  3
Hidden (.5x) _ _ _ _ _ _ _ _ _ _ _ _ _ _ _ _ _
 72
    65
 73
     2
 40
4.762499999999999
 49
3.174999999999999
 74
     0
 49
-1.587499999999999
 74
     0
  0
LTYPE
  5
24
330
5
100
AcDbSymbolTableRecord
100
AcDbLinetypeTableRecord
  2
PHANTOM2
 70
     0
  3
Phantom (.5x) ___ _ _ ___ _ _ ___ _ _ ___ _ _
 72
    65
 73
     6
 40
31.75
 49
15.875
 74
     0
 49
-3.174999999999999
 74
     0
 49
3.174999999999999
 74
     0
 49
-3.174999999999999
 74
     0
 49
3.174999999999999
 74
     0
 49
-3.174999999999999
 74
     0
  0
ENDTAB
  0
TABLE
  2
LAYER
  5
2
330
0
100
AcDbSymbolTable
 70
    16
  0
LAYER
  5
E
330
2
100
AcDbSymbolTableRecord
100
AcDbLayerTableRecord
  2
0
 70
     0
 62
     7
  6
CONTINUOUS
370
    -3
390
10AC
  0
LAYER
  5
25
330
2
100
AcDbSymbolTableRecord
100
AcDbLayerTableRecord
  2
外形線
 70
     0
 62
     7
  6
CONTINUOUS
370
    -3
390
10AC
  0
LAYER
  5
26
330
2
100
AcDbSymbolTableRecord
100
AcDbLayerTableRecord
  2
寸法線
 70
     0
 62
     2
  6
CONTINUOUS
370
    -3
390
10AC
  0
LAYER
  5
27
330
2
100
AcDbSymbolTableRecord
100
AcDbLayerTableRecord
  2
中心線
 70
     0
 62
     4
  6
CENTER2
370
    -3
390
10AC
  0
LAYER
  5
28
330
2
100
AcDbSymbolTableRecord
100
AcDbLayerTableRecord
  2
隠れ線
 70
     0
 62
     6
  6
HIDDEN2
370
    -3
390
10AC
  0
LAYER
  5
29
330
2
100
AcDbSymbolTableRecord
100
AcDbLayerTableRecord
  2
想像線
 70
     0
 62
     1
  6
PHANTOM2
370
    -3
390
10AC
  0
LAYER
  5
2A
330
2
100
AcDbSymbolTableRecord
100
AcDbLayerTableRecord
  2
ﾊｯﾁﾝｸ
 70
     0
 62
     6
  6
CONTINUOUS
370
    -3
390
10AC
  0
LAYER
  5
2B
330
2
100
AcDbSymbolTableRecord
100
AcDbLayerTableRecord
  2
文字
 70
     0
 62
     6
  6
CONTINUOUS
370
    -3
390
10AC
  0
LAYER
  5
2C
330
2
100
AcDbSymbolTableRecord
100
AcDbLayerTableRecord
  2
目盛
 70
     0
 62
    72
  6
CONTINUOUS
370
    -3
390
10AC
  0
LAYER
  5
2D
330
2
100
AcDbSymbolTableRecord
100
AcDbLayerTableRecord
  2
針
 70
     0
 62
     5
  6
CONTINUOUS
370
    -3
390
10AC
  0
LAYER
  5
53
330
2
100
AcDbSymbolTableRecord
100
AcDbLayerTableRecord
  2
DEFPOINTS
 70
     0
 62
     7
  6
CONTINUOUS
290
     0
370
    -3
390
10AC
  0
LAYER
  5
A5
330
2
100
AcDbSymbolTableRecord
100
AcDbLayerTableRecord
  2
C
 70
     0
 62
     7
  6
CONTINUOUS
370
    -3
390
10AC
  0
LAYER
  5
29B
330
2
100
AcDbSymbolTableRecord
100
AcDbLayerTableRecord
  2
握り
 70
     0
 62
     3
  6
CONTINUOUS
370
    -3
390
10AC
  0
LAYER
  5
29C
330
2
100
AcDbSymbolTableRecord
100
AcDbLayerTableRecord
  2
ROGO
 70
     0
 62
     6
  6
CONTINUOUS
370
    -3
390
10AC
  0
LAYER
  5
10C1
330
2
100
AcDbSymbolTableRecord
100
AcDbLayerTableRecord
  2
隠れ線2
 70
     0
 62
     1
  6
HIDDEN2
370
    -3
390
10AC
  0
ENDTAB
  0
TABLE
  2
STYLE
  5
3
330
0
100
AcDbSymbolTable
 70
     6
  0
STYLE
  5
F
330
3
100
AcDbSymbolTableRecord
100
AcDbTextStyleTableRecord
  2
STANDARD
 70
     0
 40
0.0
 41
1.0
 50
0.0
 71
     0
 42
2.5
  3
txt
  4

  0
STYLE
  5
3F
330
3
100
AcDbSymbolTableRecord
100
AcDbTextStyleTableRecord
  2
STYLE3
 70
     0
 40
0.0
 41
1.0
 50
0.0
 71
     0
 42
3.0
  3
romans.shx
  4
bigfont.shx
  0
ENDTAB
  0
TABLE
  2
VIEW
  5
6
330
0
100
AcDbSymbolTable
 70
     0
  0
ENDTAB
  0
TABLE
  2
UCS
  5
7
330
0
100
AcDbSymbolTable
 70
     0
  0
ENDTAB
  0
TABLE
  2
APPID
  5
9
330
0
100
AcDbSymbolTable
 70
     2
  0
APPID
  5
10
330
9
100
AcDbSymbolTableRecord
100
AcDbRegAppTableRecord
  2
ACAD
 70
     0
  0
APPID
  5
10C6
330
9
100
AcDbSymbolTableRecord
100
AcDbRegAppTableRecord
  2
ACAD_PSEXT
 70
     0
  0
ENDTAB
  0
TABLE
  2
DIMSTYLE
  5
A
330
0
100
AcDbSymbolTable
 70
     8
100
AcDbDimStyleTable
 71
     1
340
8F
  0
DIMSTYLE
105
1D
330
A
100
AcDbSymbolTableRecord
100
AcDbDimStyleTableRecord
  2
STANDARD
 70
     0
 41
2.5
 42
0.625
 43
3.75
 44
1.25
 73
     0
 74
     0
 77
     1
 78
     8
140
2.5
141
2.5
143
0.0394
147
0.625
171
     4
172
     1
273
     8
274
     4
277
     6
340
F
  0
DIMSTYLE
105
8F
102
{ACAD_REACTORS
330
E56
330
E62
330
E88
102
}
330
A
100
AcDbSymbolTableRecord
100
AcDbDimStyleTableRecord
  2
STYLE3
 70
     0
 41
2.5
 42
0.0
 43
3.75
 44
1.25
 73
     0
 74
     0
 77
     1
 78
     8
140
2.5
141
2.5
143
0.0394
147
0.625
171
     4
172
     1
173
     1
176
     2
177
     2
178
     6
271
     1
273
     8
274
     4
340
3F
341
45
343
45
344
45
  0
ENDTAB
  0
TABLE
  2
BLOCK_RECORD
  5
1
330
0
100
AcDbSymbolTable
 70
     9
  0
BLOCK_RECORD
  5
18
102
{ACAD_XDICTIONARY
360
10BD
102
}
330
1
100
AcDbSymbolTableRecord
100
AcDbBlockTableRecord
  2
*MODEL_SPACE
340
10B3
  0
BLOCK_RECORD
  5
15
330
1
100
AcDbSymbolTableRecord
100
AcDbBlockTableRecord
  2
*PAPER_SPACE
340
10B4
  0
BLOCK_RECORD
  5
45
330
1
100
AcDbSymbolTableRecord
100
AcDbBlockTableRecord
  2
_OPEN
340
0
102
{BLKREFS
331
ECA
331
ED4
331
EF6
331
EF7
331
F3E
331
F3F
331
F49
331
F4A
331
F64
331
F80
331
F81
331
FC5
331
FC6
331
1017
331
1085
331
1086
331
108F
331
1090
331
109A
331
109B
102
}
  0
BLOCK_RECORD
  5
E4A
330
1
100
AcDbSymbolTableRecord
100
AcDbBlockTableRecord
  2
*D4
340
0
  0
BLOCK_RECORD
  5
E57
330
1
100
AcDbSymbolTableRecord
100
AcDbBlockTableRecord
  2
*D5
340
0
  0
BLOCK_RECORD
  5
E7C
330
1
100
AcDbSymbolTableRecord
100
AcDbBlockTableRecord
  2
*D6
340
0
  0
ENDTAB
  0
ENDSEC
  0
SECTION
  2
BLOCKS
  0
BLOCK
  5
19
330
18
100
AcDbEntity
  8
0
100
AcDbBlockBegin
  2
*MODEL_SPACE
 70
     0
 10
0.0
 20
0.0
 30
0.0
  3
*MODEL_SPACE
  1

  0
ENDBLK
  5
1A
330
18
100
AcDbEntity
  8
0
100
AcDbBlockEnd
  0
BLOCK
  5
16
330
15
100
AcDbEntity
 67
     1
  8
0
100
AcDbBlockBegin
  2
*PAPER_SPACE
 70
     0
 10
0.0
 20
0.0
 30
0.0
  3
*PAPER_SPACE
  1

  0
ENDBLK
  5
17
330
15
100
AcDbEntity
 67
     1
  8
0
100
AcDbBlockEnd
  0
BLOCK
  5
46
330
45
100
AcDbEntity
  8
0
100
AcDbBlockBegin
  2
_OPEN
 70
     0
 10
0.0
 20
0.0
 30
0.0
  3
_OPEN
  1

  0
LINE
  5
47
330
45
100
AcDbEntity
  8
0
  6
ByBlock
 62
     0
100
AcDbLine
 10
-1.0
 20
0.1666666666666666
 30
0.0
 11
0.0
 21
0.0
 31
0.0
  0
LINE
  5
48
330
45
100
AcDbEntity
  8
0
  6
ByBlock
 62
     0
100
AcDbLine
 10
0.0
 20
0.0
 30
0.0
 11
-1.0
 21
-0.1666666666666666
 31
0.0
  0
LINE
  5
49
330
45
100
AcDbEntity
  8
0
  6
ByBlock
 62
     0
100
AcDbLine
 10
0.0
 20
0.0
 30
0.0
 11
-1.0
 21
0.0
 31
0.0
  0
ENDBLK
  5
4A
330
45
100
AcDbEntity
  8
0
100
AcDbBlockEnd
  0
BLOCK
  5
1081
330
E4A
100
AcDbEntity
  8
0
100
AcDbBlockBegin
  2
*D4
 70
     1
 10
0.0
 20
0.0
 30
0.0
  3
*D4
  1

  0
LINE
  5
1082
330
E4A
100
AcDbEntity
  8
0
  6
ByBlock
 62
     2
100
AcDbLine
 10
541.7438572034818
 20
280.916659107969
 30
0.0
 11
539.8060277258176
 21
261.3987098583228
 31
0.0
  0
LINE
  5
1083
330
E4A
100
AcDbEntity
  8
0
  6
ByBlock
 62
     2
100
AcDbLine
 10
442.2331134776674
 20
290.7965317354516
 30
0.0
 11
440.2952840000032
 21
271.2785824858054
 31
0.0
  0
LINE
  5
1084
330
E4A
100
AcDbEntity
  8
0
  6
ByBlock
 62
     2
100
AcDbLine
 10
537.4417575405158
 20
262.8895909705826
 30
0.0
 11
442.906551000992
 21
272.2754699666911
 31
0.0
  0
INSERT
  5
1085
330
E4A
100
AcDbEntity
  8
0
  6
ByBlock
 62
     2
100
AcDbBlockReference
  2
_OPEN
 10
539.9295261336611
 20
262.6425941548955
 30
0.0
 41
2.5
 42
2.5
 43
2.5
 50
354.3299999999999
  0
INSERT
  5
1086
330
E4A
100
AcDbEntity
  8
0
  6
ByBlock
 62
     2
100
AcDbBlockReference
  2
_OPEN
 10
440.4187824078467
 20
272.5224667823781
 30
0.0
 41
2.5
 42
2.5
 43
2.5
 50
174.3299999999999
  0
MTEXT
  5
1087
330
E4A
100
AcDbEntity
  8
0
  6
ByBlock
 62
     6
100
AcDbMText
 10
490.3594018825192
 20
269.4483569134958
 30
0.0
 40
2.5
 41
0.0
 71
     5
 72
     1
  1
\A1;100
  7
STYLE3
 11
0.9951074372581445
 21
-0.098798726274826
 31
0.0
 73
     1
 44
1.0
  0
POINT
  5
1088
330
E4A
100
AcDbEntity
  8
DEFPOINTS
  6
ByBlock
 62
     0
100
AcDbPoint
 10
541.7438572034818
 20
280.916659107969
 30
0.0
  0
POINT
  5
1089
330
E4A
100
AcDbEntity
  8
DEFPOINTS
  6
ByBlock
 62
     0
100
AcDbPoint
 10
442.2331134776674
 20
290.7965317354516
 30
0.0
  0
POINT
  5
108A
330
E4A
100
AcDbEntity
  8
DEFPOINTS
  6
ByBlock
 62
     0
100
AcDbPoint
 10
440.4187824078467
 20
272.5224667823781
 30
0.0
  0
ENDBLK
  5
108B
330
E4A
100
AcDbEntity
  8
0
100
AcDbBlockEnd
  0
BLOCK
  5
108C
330
E57
100
AcDbEntity
  8
0
100
AcDbBlockBegin
  2
*D5
 70
     1
 10
0.0
 20
0.0
 30
0.0
  3
*D5
  1

  0
LINE
  5
108D
330
E57
100
AcDbEntity
  8
0
  6
ByBlock
 62
     2
100
AcDbLine
 10
393.8312841647253
 20
309.3694399396295
 30
0.0
 11
390.539912137096
 21
276.2185187995467
 31
0.0
  0
LINE
  5
108E
330
E57
100
AcDbEntity
  8
0
  6
ByBlock
 62
     2
100
AcDbLine
 10
437.9310138147014
 20
272.7694635980652
 30
0.0
 11
393.1511791380848
 21
277.2154062804323
 31
0.0
  0
INSERT
  5
108F
330
E57
100
AcDbEntity
  8
0
  6
ByBlock
 62
     2
100
AcDbBlockReference
  2
_OPEN
 10
440.4187824078467
 20
272.5224667823781
 30
0.0
 41
2.5
 42
2.5
 43
2.5
 50
354.3299999999999
  0
INSERT
  5
1090
330
E57
100
AcDbEntity
  8
0
  6
ByBlock
 62
     2
100
AcDbBlockReference
  2
_OPEN
 10
390.6634105449395
 20
277.4624030961194
 30
0.0
 41
2.5
 42
2.5
 43
2.5
 50
174.3299999999999
  0
MTEXT
  5
1091
330
E57
100
AcDbEntity
  8
0
  6
ByBlock
 62
     6
100
AcDbMText
 10
415.7263440881584
 20
276.8582613841078
 30
0.0
 40
2.5
 41
0.0
 71
     5
 72
     1
  1
\A1;50
  7
STYLE3
 11
0.9951074372581445
 21
-0.098798726274826
 31
0.0
 73
     1
 44
1.0
  0
POINT
  5
1092
330
E57
100
AcDbEntity
  8
DEFPOINTS
  6
ByBlock
 62
     0
100
AcDbPoint
 10
442.2331134776674
 20
290.7965317354516
 30
0.0
  0
POINT
  5
1093
330
E57
100
AcDbEntity
  8
DEFPOINTS
  6
ByBlock
 62
     0
100
AcDbPoint
 10
393.8312841647253
 20
309.3694399396295
 30
0.0
  0
POINT
  5
1094
330
E57
100
AcDbEntity
  8
DEFPOINTS
  6
ByBlock
 62
     0
100
AcDbPoint
 10
390.6634105449395
 20
277.4624030961194
 30
0.0
  0
ENDBLK
  5
1095
330
E57
100
AcDbEntity
  8
0
100
AcDbBlockEnd
  0
BLOCK
  5
1096
330
E7C
100
AcDbEntity
  8
0
100
AcDbBlockBegin
  2
*D6
 70
     1
 10
0.0
 20
0.0
 30
0.0
  3
*D6
  1

  0
LINE
  5
1097
330
E7C
100
AcDbEntity
  8
0
  6
ByBlock
 62
     2
100
AcDbLine
 10
539.4556453718664
 20
309.9775750327647
 30
0.0
 11
563.9001449205445
 21
307.79438489968
 31
0.0
  0
LINE
  5
1098
330
E7C
100
AcDbEntity
  8
0
  6
ByBlock
 62
     2
100
AcDbLine
 10
536.7880797624462
 20
280.1096742267948
 30
0.0
 11
561.2325793111242
 21
277.9264840937102
 31
0.0
  0
LINE
  5
1099
330
E7C
100
AcDbEntity
  8
0
  6
ByBlock
 62
     2
100
AcDbLine
 10
562.4327056186895
 20
305.415494003617
 30
0.0
 11
560.2099301753868
 21
280.5277700728319
 31
0.0
  0
INSERT
  5
109A
330
E7C
100
AcDbEntity
  8
0
  6
ByBlock
 62
     2
100
AcDbBlockReference
  2
_OPEN
 10
562.6551007017483
 20
307.9055824412094
 30
0.0
 41
2.5
 42
2.5
 43
2.5
 50
84.89633365046898
  0
INSERT
  5
109B
330
E7C
100
AcDbEntity
  8
0
  6
ByBlock
 62
     2
100
AcDbBlockReference
  2
_OPEN
 10
559.987535092328
 20
278.0376816352395
 30
0.0
 41
2.5
 42
2.5
 43
2.5
 50
264.896333650469
  0
MTEXT
  5
109C
330
E7C
100
AcDbEntity
  8
0
  6
ByBlock
 62
     6
100
AcDbMText
 10
559.4537515688439
 20
293.1384283505187
 30
0.0
 40
2.5
 41
0.0
 71
     5
 72
     1
  1
\A1;30
  7
STYLE3
 11
0.0889580332235326
 21
0.9960353750369518
 31
0.0
 73
     1
 44
1.0
  0
POINT
  5
109D
330
E7C
100
AcDbEntity
  8
DEFPOINTS
  6
ByBlock
 62
     0
100
AcDbPoint
 10
539.4556453718664
 20
309.9775750327647
 30
0.0
  0
POINT
  5
109E
330
E7C
100
AcDbEntity
  8
DEFPOINTS
  6
ByBlock
 62
     0
100
AcDbPoint
 10
536.7880797624462
 20
280.1096742267948
 30
0.0
  0
POINT
  5
109F
330
E7C
100
AcDbEntity
  8
DEFPOINTS
  6
ByBlock
 62
     0
100
AcDbPoint
 10
559.987535092328
 20
278.0376816352395
 30
0.0
  0
ENDBLK
  5
10A0
330
E7C
100
AcDbEntity
  8
0
100
AcDbBlockEnd
  0
ENDSEC
  0
SECTION
  2
ENTITIES
  0
LWPOLYLINE
  5
1A0
330
18
100
AcDbEntity
  8
C
100
AcDbPolyline
 90
        5
 70
     0
 43
0.8
 10
256.2352605185929
 20
458.9717683211813
 10
633.7352605185929
 20
458.9717683211813
 10
633.7352605185929
 20
176.4717683211813
 10
256.2352605185929
 20
176.4717683211813
 10
256.2352605185929
 20
458.9717683211813
  0
LINE
  5
387
330
18
100
AcDbEntity
  8
中心線
 48
0.5
100
AcDbLine
 10
357.5831855159361
 20
312.9683136313508
 30
0.0
 11
555.4441791341031
 21
293.3237874053097
 31
0.0
  0
ARC
  5
389
330
18
100
AcDbEntity
  8
外形線
100
AcDbCircle
 10
393.8312841647253
 20
309.3694399396294
 30
0.0
 40
12.5
100
AcDbArc
 50
81.07191900703808
 51
266.1273953822065
  0
ARC
  5
38A
330
18
100
AcDbEntity
  8
外形線
100
AcDbCircle
 10
401.1612249961266
 20
287.042012783592
 30
0.0
 40
11.0
100
AcDbArc
 50
331.1595077952436
 51
42.47469962734785
  0
ARC
  5
38B
330
18
100
AcDbEntity
  8
外形線
100
AcDbCircle
 10
506.3310838188636
 20
227.1594969724996
 30
0.0
 40
110.0
100
AcDbArc
 50
150.788143190281
 51
179.8906467885653
  0
ARC
  5
38C
330
18
100
AcDbEntity
  8
外形線
100
AcDbCircle
 10
480.2148837691249
 20
218.8921846796097
 30
0.0
 40
80.0
100
AcDbArc
 50
150.5904496720724
 51
173.9171930222563
  0
ARC
  5
38D
330
18
100
AcDbEntity
  8
外形線
100
AcDbCircle
 10
431.7868865538689
 20
246.3109571853066
 30
0.0
 40
24.0
100
AcDbArc
 50
17.81278060411681
 51
129.591571341364
  0
ARC
  5
38E
330
18
100
AcDbEntity
  8
外形線
100
AcDbCircle
 10
457.0068079400295
 20
252.3488016082676
 30
0.0
 40
1.8
100
AcDbArc
 50
195.3863089590035
 51
1.20664504405763
  0
ARC
  5
38F
330
18
100
AcDbEntity
  8
外形線
100
AcDbCircle
 10
424.2727573763934
 20
248.56436853351
 30
0.0
 40
35.0
100
AcDbArc
 50
10.66456769333285
 51
55.92409542950831
  0
ARC
  5
390
330
18
100
AcDbEntity
  8
外形線
100
AcDbCircle
 10
454.2305828595473
 20
300.7137143155081
 30
0.0
 40
25.0
100
AcDbArc
 50
145.03955352292
 51
238.9668178153427
  0
SPLINE
  5
391
330
18
100
AcDbEntity
  8
外形線
100
AcDbSpline
210
0.0
220
0.0
230
1.0
 70
     8
 71
     3
 72
    10
 73
     6
 74
     0
 42
0.0000000001
 43
0.0000000001
 40
0.0
 40
0.0
 40
0.0
 40
0.0
 40
1.81948952452773
 40
4.987485630352653
 40
8.974518872653582
 40
8.974518872653582
 40
8.974518872653582
 40
8.974518872653582
 10
410.5243259379991
 20
258.1761018619189
 30
0.0
 10
410.842210143237
 20
258.6927165989355
 30
0.0
 10
411.7135770207968
 20
260.1088327911778
 30
0.0
 10
413.6185642460463
 20
262.4417477702632
 30
0.0
 10
415.4540222127418
 20
263.9695322925878
 30
0.0
 10
416.4914313304416
 20
264.8055252934873
 30
0.0
  0
SPLINE
  5
392
330
18
100
AcDbEntity
  8
外形線
100
AcDbSpline
210
0.0
220
0.0
230
1.0
 70
     8
 71
     3
 72
     9
 73
     5
 74
     3
 42
0.0000000001
 43
0.0000000001
 44
0.0000000001
 40
0.0
 40
0.0
 40
0.0
 40
0.0
 40
0.8039778350251989
 40
2.661618739920026
 40
2.661618739920026
 40
2.661618739920026
 40
2.661618739920026
 10
458.8064087862369
 20
252.3867066782349
 30
0.0
 10
458.8171514316341
 20
252.6547578123768
 30
0.0
 10
458.8527156288797
 20
253.542157801291
 30
0.0
 10
458.7440553153218
 20
254.42515489079
 30
0.0
 10
458.6682173148687
 20
255.0414308012932
 30
0.0
 11
458.8064087862369
 21
252.3867066782349
 31
0.0
 11
458.8254773391954
 21
253.1904583497728
 31
0.0
 11
458.6682173148687
 21
255.0414308012932
 31
0.0
  0
SPLINE
  5
393
330
18
100
AcDbEntity
  8
外形線
100
AcDbSpline
210
0.0
220
0.0
230
1.0
 70
    24
 71
     3
 72
     8
 73
     4
 74
     2
 42
0.0000000001
 43
0.0000000001
 44
0.0000000001
 40
0.0
 40
0.0
 40
0.0
 40
0.0
 40
1.89130093679845
 40
1.89130093679845
 40
1.89130093679845
 40
1.89130093679845
 10
455.2713220418219
 20
251.8712152840046
 30
0.0
 10
455.0596663155945
 20
252.4650573800697
 30
0.0
 10
454.8480105893671
 20
253.0588994761348
 30
0.0
 10
454.6363548631396
 20
253.6527415721999
 30
0.0
 11
455.2713220418219
 21
251.8712152840046
 31
0.0
 11
454.6363548631396
 21
253.6527415721999
 31
0.0
  0
LINE
  5
394
330
18
100
AcDbEntity
  8
外形線
100
AcDbLine
 10
430.7617410546379
 20
331.7161782921934
 30
0.0
 11
431.6505830483706
 21
332.4063805340208
 31
0.0
  0
LINE
  5
395
330
18
100
AcDbEntity
  8
外形線
100
AcDbLine
 10
433.7418875753445
 20
315.0389844892632
 30
0.0
 11
440.8503934555973
 21
320.5588707335992
 31
0.0
  0
LINE
  5
396
330
18
100
AcDbEntity
  8
外形線
100
AcDbLine
 10
431.6505830483706
 20
332.4063805340208
 30
0.0
 11
440.8503934555973
 21
320.5588707335992
 31
0.0
  0
LINE
  5
397
330
18
100
AcDbEntity
  8
中心線
 48
0.45
100
AcDbLine
 10
373.540871216468
 20
400.7181557347881
 30
0.0
 11
436.8728405015136
 21
319.1592872829791
 31
0.0
  0
POINT
  5
398
330
18
100
AcDbEntity
  8
DEFPOINTS
  6
ByBlock
 62
     0
100
AcDbPoint
 10
440.8503934555973
 20
320.5588707335991
 30
0.0
 50
316.5
  0
POINT
  5
399
330
18
100
AcDbEntity
  8
DEFPOINTS
  6
ByBlock
 62
     0
100
AcDbPoint
 10
434.7238847995425
 20
315.8015234898828
 30
0.0
 50
316.5
  0
LINE
  5
39A
330
18
100
AcDbEntity
  8
外形線
100
AcDbLine
 10
441.3422226848481
 20
279.2919923490734
 30
0.0
 11
444.1726456418942
 21
277.3566321996509
 31
0.0
  0
LINE
  5
39B
330
18
100
AcDbEntity
  8
中心線
 48
0.5
100
AcDbLine
 10
429.5379302461641
 20
325.7015111922987
 30
0.0
 11
432.5656235829236
 21
328.0525710469544
 31
0.0
  0
LINE
  5
39C
330
18
100
AcDbEntity
  8
中心線
 48
0.5
100
AcDbLine
 10
433.1114714944387
 20
320.8798989720297
 30
0.0
 11
436.2733269518531
 21
323.3351381938815
 31
0.0
  0
ARC
  5
39F
330
18
100
AcDbEntity
  8
外形線
100
AcDbCircle
 10
403.2872994017361
 20
361.0882351289744
 30
0.0
 40
40.0
100
AcDbArc
 50
262.1787151823891
 51
304.9487099253562
  0
LINE
  5
3A1
330
18
100
AcDbEntity
  8
外形線
100
AcDbLine
 10
395.7712163215261
 20
321.7179889728969
 30
0.0
 11
397.8439547568133
 21
321.4603409245559
 31
0.0
  0
LINE
  5
3A2
330
18
100
AcDbEntity
  8
外形線
100
AcDbLine
 10
400.6653008459161
 20
227.3694399396294
 30
0.0
 11
396.2593070339342
 21
227.3694399396294
 31
0.0
  0
ARC
  5
3A3
330
18
100
AcDbEntity
  8
外形線
100
AcDbCircle
 10
384.6869760037152
 20
295.2035785730734
 30
0.0
 40
26.0
100
AcDbArc
 50
139.0955820154162
 51
226.66550619515
  0
ARC
  5
3A4
330
18
100
AcDbEntity
  8
外形線
100
AcDbCircle
 10
319.2002996005264
 20
350.9463035691252
 30
0.0
 40
60.0
100
AcDbArc
 50
319.3787775098152
 51
16.64772368710698
  0
ARC
  5
3A6
330
18
100
AcDbEntity
  8
外形線
100
AcDbCircle
 10
278.0783883700351
 20
211.3259949004858
 30
0.0
 40
110.0
100
AcDbArc
 50
8.386474960317915
 51
36.19974628828821
  0
ARC
  5
3A7
330
18
100
AcDbEntity
  8
外形線
100
AcDbCircle
 10
271.3362609702464
 20
226.2765499376325
 30
0.0
 40
120.0
100
AcDbArc
 50
0.5218237521720401
 51
25.16010364370862
  0
LINE
  5
3A9
330
18
100
AcDbEntity
  8
外形線
100
AcDbLine
 10
430.1616238219379
 20
293.9546307351785
 30
0.0
 11
442.4257709939033
 21
292.7369912381049
 31
0.0
  0
LINE
  5
3AB
330
18
100
AcDbEntity
  8
外形線
100
AcDbLine
 10
391.3312841647254
 20
227.3694399396295
 30
0.0
 11
386.9021351869683
 21
227.3694399396295
 31
0.0
  0
LINE
  5
3AC
330
18
100
AcDbEntity
  8
外形線
100
AcDbLine
 10
377.1254282949993
 20
283.1927521083619
 30
0.0
 11
378.9896501310807
 21
279.1372367677216
 31
0.0
  0
LINE
  5
3AD
330
18
100
AcDbEntity
  8
外形線
100
AcDbLine
 10
376.6642345656783
 20
368.205972694598
 30
0.0
 11
384.4790485549671
 21
374.274320244447
 31
0.0
  0
LINE
  5
3AE
330
18
100
AcDbEntity
  8
外形線
100
AcDbLine
 10
382.6699675386919
 20
366.4441767246462
 30
0.0
 11
387.1898225809378
 21
366.4144735749707
 31
0.0
  0
ARC
  5
3B5
330
18
100
AcDbEntity
  8
外形線
100
AcDbCircle
 10
437.0864169001601
 20
350.2961242915278
 30
0.0
 40
30.0
100
AcDbArc
 50
191.3160190188037
 51
237.072186869214
  0
LINE
  5
3B6
102
{ACAD_REACTORS
330
10EC
102
}
330
18
100
AcDbEntity
  8
中心線
100
AcDbLine
 10
405.8696381689847
 20
322.8887927793242
 30
0.0
 11
400.3827369629275
 21
329.9548205489446
 31
0.0
  0
LINE
  5
3BB
330
18
100
AcDbEntity
  8
外形線
100
AcDbLine
 10
444.7475410613617
 20
316.1220160136713
 30
0.0
 11
438.033056994134
 21
318.3711568818742
 31
0.0
  0
ARC
  5
3BC
330
18
100
AcDbEntity
  8
握り
100
AcDbCircle
 10
539.4556453718664
 20
308.4775750327647
 30
0.0
 40
1.5
100
AcDbArc
 50
22.14813928465425
 51
146.5118607153457
  0
ARC
  5
3BD
330
18
100
AcDbEntity
  8
握り
100
AcDbCircle
 10
529.5045709992849
 20
309.465562295513
 30
0.0
 40
1.5
100
AcDbArc
 50
22.14813928465425
 51
146.5118607153457
  0
ARC
  5
3BE
330
18
100
AcDbEntity
  8
握り
100
AcDbCircle
 10
519.5534966267034
 20
310.4535495582612
 30
0.0
 40
1.5
100
AcDbArc
 50
22.14813928465425
 51
146.5118607153457
  0
ARC
  5
3BF
330
18
100
AcDbEntity
  8
握り
100
AcDbCircle
 10
509.6024222541221
 20
311.4415368210095
 30
0.0
 40
1.5
100
AcDbArc
 50
22.14813928465425
 51
146.5118607153457
  0
ARC
  5
3C0
330
18
100
AcDbEntity
  8
握り
100
AcDbCircle
 10
499.6513478815407
 20
312.4295240837577
 30
0.0
 40
1.5
100
AcDbArc
 50
22.14813928465425
 51
146.5118607153457
  0
ARC
  5
3C1
330
18
100
AcDbEntity
  8
握り
100
AcDbCircle
 10
489.7002735089592
 20
313.4175113465059
 30
0.0
 40
1.5
100
AcDbArc
 50
22.14813928465425
 51
146.5118607153457
  0
ARC
  5
3C2
330
18
100
AcDbEntity
  8
握り
100
AcDbCircle
 10
479.7491991363777
 20
314.4054986092542
 30
0.0
 40
1.5
100
AcDbArc
 50
22.14813928465425
 51
146.5118607153457
  0
ARC
  5
3C3
330
18
100
AcDbEntity
  8
握り
100
AcDbCircle
 10
469.7981247637963
 20
315.3934858720024
 30
0.0
 40
1.5
100
AcDbArc
 50
22.14813928465425
 51
146.5118607153457
  0
ARC
  5
3C4
330
18
100
AcDbEntity
  8
握り
100
AcDbCircle
 10
459.8470503912149
 20
316.3814731347507
 30
0.0
 40
1.5
100
AcDbArc
 50
22.14813928465425
 51
146.5118607153457
  0
ARC
  5
3C5
330
18
100
AcDbEntity
  8
握り
100
AcDbCircle
 10
449.8959760186334
 20
317.369460397499
 30
0.0
 40
1.5
100
AcDbArc
 50
22.14813928465425
 51
146.5118607153457
  0
ARC
  5
3C6
330
18
100
AcDbEntity
  8
握り
100
AcDbCircle
 10
445.4377522962268
 20
318.0130761531874
 30
0.0
 40
0.5
100
AcDbArc
 50
84.32999999999998
 51
174.33
  0
ARC
  5
3C7
330
18
100
AcDbEntity
  8
握り
100
AcDbCircle
 10
543.953388584783
 20
308.2320022519796
 30
0.0
 40
0.5
100
AcDbArc
 50
354.33
 51
84.32999999999998
  0
LINE
  5
3C8
330
18
100
AcDbEntity
  8
握り
100
AcDbLine
 10
479.0782379643343
 20
294.2197285720322
 30
0.0
 11
486.3889939405336
 21
293.4938839531389
 31
0.0
  0
LINE
  5
3C9
330
18
100
AcDbEntity
  8
握り
100
AcDbLine
 10
480.392913095383
 20
307.4612251966515
 30
0.0
 11
487.7036690715826
 21
306.7353805777581
 31
0.0
  0
LINE
  5
3CA
330
18
100
AcDbEntity
  8
握り
100
AcDbLine
 10
469.3893062521778
 20
297.8480343980575
 30
0.0
 11
516.5043597187029
 21
293.1702407281711
 31
0.0
  0
LINE
  5
3CB
330
18
100
AcDbEntity
  8
握り
100
AcDbLine
 10
470.1796960623765
 20
305.8088938961227
 30
0.0
 11
517.2947495289017
 21
301.1311002262364
 31
0.0
  0
LINE
  5
3CC
330
18
100
AcDbEntity
  8
握り
100
AcDbLine
 10
478.3326336167561
 20
286.7099512752762
 30
0.0
 11
485.6433895929556
 21
285.9841066563829
 31
0.0
  0
LINE
  5
3CD
330
18
100
AcDbEntity
  8
握り
100
AcDbLine
 10
481.1385174429611
 20
314.9710024934075
 30
0.0
 11
488.4492734191606
 21
314.2451578745141
 31
0.0
  0
LINE
  5
3CE
330
18
100
AcDbEntity
  8
握り
100
AcDbLine
 10
479.0782379643342
 20
294.2197285720322
 30
0.0
 11
478.3326336167561
 21
286.7099512752762
 31
0.0
  0
LINE
  5
3CF
330
18
100
AcDbEntity
  8
握り
100
AcDbLine
 10
476.4379195679524
 20
294.4818712158872
 30
0.0
 11
475.6923152203741
 21
286.9720939191311
 31
0.0
  0
LINE
  5
3D0
330
18
100
AcDbEntity
  8
握り
100
AcDbLine
 10
469.1271635917528
 20
295.2077158347805
 30
0.0
 11
468.3815592441746
 21
287.6979385380245
 31
0.0
  0
LINE
  5
3D1
330
18
100
AcDbEntity
  8
握り
100
AcDbLine
 10
468.5471246739977
 20
316.2211324000106
 30
0.0
 11
465.7412408477926
 21
287.9600811818794
 31
0.0
  0
LINE
  5
3D2
330
18
100
AcDbEntity
  8
握り
100
AcDbLine
 10
461.2363686977982
 20
316.9469770189039
 30
0.0
 11
458.4304848715931
 21
288.6859258007728
 31
0.0
  0
LINE
  5
3D3
330
18
100
AcDbEntity
  8
握り
100
AcDbLine
 10
458.5960503014162
 20
317.2091196627589
 30
0.0
 11
455.7901664752113
 21
288.9480684446277
 31
0.0
  0
LINE
  5
3D4
330
18
100
AcDbEntity
  8
握り
100
AcDbLine
 10
448.6449759288348
 20
318.1971069255071
 30
0.0
 11
445.8390921026298
 21
289.9360557073759
 31
0.0
  0
LINE
  5
3D5
330
18
100
AcDbEntity
  8
握り
100
AcDbLine
 10
451.2852943252168
 20
317.9349642816522
 30
0.0
 11
448.4794104990117
 21
289.673913063521
 31
0.0
  0
LINE
  5
3D6
330
18
100
AcDbEntity
  8
握り
100
AcDbLine
 10
444.9401985775977
 20
318.0624755163247
 30
0.0
 11
442.2331134776674
 21
290.7965317354516
 31
0.0
  0
LINE
  5
3D7
330
18
100
AcDbEntity
  8
握り
100
AcDbLine
 10
442.681267833159
 20
290.2495786536852
 30
0.0
 11
445.8390921026299
 21
289.9360557073759
 31
0.0
  0
ARC
  5
3D8
330
18
100
AcDbEntity
  8
握り
100
AcDbCircle
 10
442.7306671962965
 20
290.7471323723142
 30
0.0
 40
0.5
100
AcDbArc
 50
174.33
 51
264.33
  0
LINE
  5
3D9
330
18
100
AcDbEntity
  8
握り
100
AcDbLine
 10
458.4304848715931
 20
288.6859258007728
 30
0.0
 11
465.7412408477926
 21
287.9600811818794
 31
0.0
  0
LINE
  5
3DA
330
18
100
AcDbEntity
  8
握り
100
AcDbLine
 10
448.4794104990117
 20
289.673913063521
 30
0.0
 11
455.7901664752114
 21
288.9480684446277
 31
0.0
  0
ARC
  5
3DB
330
18
100
AcDbEntity
  8
握り
100
AcDbCircle
 10
447.2284104092132
 20
290.5015595915291
 30
0.0
 40
1.5
100
AcDbArc
 50
202.1481392846542
 51
326.5118607153457
  0
ARC
  5
3DC
330
18
100
AcDbEntity
  8
握り
100
AcDbCircle
 10
457.1794847817946
 20
289.5135723287808
 30
0.0
 40
1.5
100
AcDbArc
 50
202.1481392846542
 51
326.5118607153457
  0
LINE
  5
3DD
330
18
100
AcDbEntity
  8
握り
100
AcDbLine
 10
468.3815592441746
 20
287.6979385380245
 30
0.0
 11
475.6923152203741
 21
286.9720939191311
 31
0.0
  0
ARC
  5
3DE
330
18
100
AcDbEntity
  8
握り
100
AcDbCircle
 10
467.130559154376
 20
288.5255850660326
 30
0.0
 40
1.5
100
AcDbArc
 50
202.1481392846542
 51
326.5118607153457
  0
ARC
  5
3DF
330
18
100
AcDbEntity
  8
握り
100
AcDbCircle
 10
477.0816335269574
 20
287.5375978032843
 30
0.0
 40
1.5
100
AcDbArc
 50
202.1481392846542
 51
326.5118607153457
  0
LINE
  5
3E0
330
18
100
AcDbEntity
  8
握り
100
AcDbLine
 10
445.4871516593641
 20
318.5106298718164
 30
0.0
 11
448.6449759288348
 21
318.1971069255071
 31
0.0
  0
LINE
  5
3E1
330
18
100
AcDbEntity
  8
握り
100
AcDbLine
 10
470.1796960623765
 20
305.8088938961227
 30
0.0
 11
469.3893062521778
 21
297.8480343980575
 31
0.0
  0
LINE
  5
3E2
330
18
100
AcDbEntity
  8
握り
100
AcDbLine
 10
469.1271635917528
 20
295.2077158347805
 30
0.0
 11
476.4379195679524
 21
294.4818712158871
 31
0.0
  0
LINE
  5
3E3
330
18
100
AcDbEntity
  8
握り
100
AcDbLine
 10
461.2363686977982
 20
316.9469770189039
 30
0.0
 11
468.5471246739977
 21
316.2211324000106
 31
0.0
  0
LINE
  5
3E4
330
18
100
AcDbEntity
  8
握り
100
AcDbLine
 10
451.2852943252168
 20
317.9349642816522
 30
0.0
 11
458.5960503014164
 21
317.2091196627588
 31
0.0
  0
LINE
  5
3E5
330
18
100
AcDbEntity
  8
握り
100
AcDbLine
 10
481.1385174429611
 20
314.9710024934075
 30
0.0
 11
480.392913095383
 21
307.4612251966515
 31
0.0
  0
LINE
  5
3E6
330
18
100
AcDbEntity
  8
握り
100
AcDbLine
 10
478.4981990465792
 20
315.2331451372623
 30
0.0
 11
477.752594699001
 21
307.7233678405063
 31
0.0
  0
LINE
  5
3E7
330
18
100
AcDbEntity
  8
握り
100
AcDbLine
 10
471.1874430703796
 20
315.9589897561557
 30
0.0
 11
470.4418387228014
 21
308.4492124593997
 31
0.0
  0
LINE
  5
3E8
330
18
100
AcDbEntity
  8
握り
100
AcDbLine
 10
470.4418387228015
 20
308.4492124593997
 30
0.0
 11
477.7525946990011
 21
307.7233678405063
 31
0.0
  0
LINE
  5
3E9
330
18
100
AcDbEntity
  8
握り
100
AcDbLine
 10
471.1874430703796
 20
315.9589897561557
 30
0.0
 11
478.4981990465792
 21
315.2331451372623
 31
0.0
  0
LINE
  5
3EA
330
18
100
AcDbEntity
  8
握り
100
AcDbLine
 10
508.9314610820785
 20
291.2557667837875
 30
0.0
 11
508.1858567345005
 21
283.7459894870315
 31
0.0
  0
LINE
  5
3EB
330
18
100
AcDbEntity
  8
握り
100
AcDbLine
 10
506.2911426856969
 20
291.5179094276424
 30
0.0
 11
505.5455383381184
 21
284.0081321308863
 31
0.0
  0
LINE
  5
3EC
330
18
100
AcDbEntity
  8
握り
100
AcDbLine
 10
498.9803867094972
 20
292.2437540465357
 30
0.0
 11
498.2347823619189
 21
284.7339767497798
 31
0.0
  0
LINE
  5
3ED
330
18
100
AcDbEntity
  8
握り
100
AcDbLine
 10
496.3400683131153
 20
292.5058966903906
 30
0.0
 11
495.594463965537
 21
284.9961193936346
 31
0.0
  0
LINE
  5
3EE
330
18
100
AcDbEntity
  8
握り
100
AcDbLine
 10
489.0293123369156
 20
293.231741309284
 30
0.0
 11
488.2837079893375
 21
285.7219640125279
 31
0.0
  0
LINE
  5
3EF
330
18
100
AcDbEntity
  8
握り
100
AcDbLine
 10
486.3889939405337
 20
293.4938839531389
 30
0.0
 11
485.6433895929556
 21
285.9841066563829
 31
0.0
  0
LINE
  5
3F0
330
18
100
AcDbEntity
  8
握り
100
AcDbLine
 10
516.242217058278
 20
290.5299221648942
 30
0.0
 11
515.4966127107
 21
283.0201448681381
 31
0.0
  0
LINE
  5
3F1
330
18
100
AcDbEntity
  8
握り
100
AcDbLine
 10
540.8449636784497
 20
309.0430789169179
 30
0.0
 11
538.0390798522447
 21
280.7820276987867
 31
0.0
  0
LINE
  5
3F2
330
18
100
AcDbEntity
  8
握り
100
AcDbLine
 10
538.2046452820678
 20
309.3052215607729
 30
0.0
 11
535.3987614558628
 21
281.0441703426416
 31
0.0
  0
LINE
  5
3F3
330
18
100
AcDbEntity
  8
握り
100
AcDbLine
 10
530.8938893058683
 20
310.0310661796662
 30
0.0
 11
528.0880054796633
 21
281.770014961535
 31
0.0
  0
LINE
  5
3F4
330
18
100
AcDbEntity
  8
握り
100
AcDbLine
 10
528.2535709094864
 20
310.2932088235211
 30
0.0
 11
525.4476870832815
 21
282.0321576053899
 31
0.0
  0
LINE
  5
3F5
330
18
100
AcDbEntity
  8
握り
100
AcDbLine
 10
520.9428149332869
 20
311.0190534424145
 30
0.0
 11
518.1369311070819
 21
282.7580022242833
 31
0.0
  0
LINE
  5
3F6
330
18
100
AcDbEntity
  8
握り
100
AcDbLine
 10
544.450942303412
 20
308.1826028888422
 30
0.0
 11
541.7438572034818
 21
280.9166591079691
 31
0.0
  0
LINE
  5
3F7
330
18
100
AcDbEntity
  8
握り
100
AcDbLine
 10
508.1858567345006
 20
283.7459894870315
 30
0.0
 11
515.4966127106997
 21
283.0201448681381
 31
0.0
  0
ARC
  5
3F8
330
18
100
AcDbEntity
  8
握り
100
AcDbCircle
 10
496.9837822721204
 20
285.5616232777878
 30
0.0
 40
1.5
100
AcDbArc
 50
202.1481392846542
 51
326.5118607153457
  0
ARC
  5
3F9
330
18
100
AcDbEntity
  8
握り
100
AcDbCircle
 10
487.032707899539
 20
286.549610540536
 30
0.0
 40
1.5
100
AcDbArc
 50
202.1481392846542
 51
326.5118607153457
  0
LINE
  5
3FA
330
18
100
AcDbEntity
  8
握り
100
AcDbLine
 10
488.2837079893376
 20
285.7219640125279
 30
0.0
 11
495.594463965537
 21
284.9961193936346
 31
0.0
  0
LINE
  5
3FB
330
18
100
AcDbEntity
  8
握り
100
AcDbLine
 10
498.2347823619189
 20
284.7339767497798
 30
0.0
 11
505.5455383381184
 21
284.0081321308863
 31
0.0
  0
ARC
  5
3FC
330
18
100
AcDbEntity
  8
握り
100
AcDbCircle
 10
506.9348566447018
 20
284.5736360150395
 30
0.0
 40
1.5
100
AcDbArc
 50
202.1481392846542
 51
326.5118607153457
  0
LINE
  5
3FD
330
18
100
AcDbEntity
  8
握り
100
AcDbLine
 10
528.0880054796633
 20
281.770014961535
 30
0.0
 11
535.3987614558628
 21
281.0441703426416
 31
0.0
  0
LINE
  5
3FE
330
18
100
AcDbEntity
  8
握り
100
AcDbLine
 10
518.1369311070817
 20
282.7580022242833
 30
0.0
 11
525.4476870832815
 21
282.0321576053899
 31
0.0
  0
ARC
  5
3FF
330
18
100
AcDbEntity
  8
握り
100
AcDbCircle
 10
516.8859310172832
 20
283.5856487522913
 30
0.0
 40
1.5
100
AcDbArc
 50
202.1481392846542
 51
326.5118607153457
  0
ARC
  5
400
330
18
100
AcDbEntity
  8
握り
100
AcDbCircle
 10
526.8370053898646
 20
282.597661489543
 30
0.0
 40
1.5
100
AcDbArc
 50
202.1481392846542
 51
326.5118607153457
  0
LINE
  5
401
330
18
100
AcDbEntity
  8
握り
100
AcDbLine
 10
538.0390798522447
 20
280.7820276987866
 30
0.0
 11
541.1969041217154
 21
280.4685047524774
 31
0.0
  0
ARC
  5
402
330
18
100
AcDbEntity
  8
握り
100
AcDbCircle
 10
536.7880797624462
 20
281.6096742267948
 30
0.0
 40
1.5
100
AcDbArc
 50
202.1481392846542
 51
326.5118607153457
  0
ARC
  5
403
330
18
100
AcDbEntity
  8
握り
100
AcDbCircle
 10
541.2463034848527
 20
280.9660584711064
 30
0.0
 40
0.5
100
AcDbArc
 50
264.33
 51
354.33
  0
LINE
  5
404
330
18
100
AcDbEntity
  8
握り
100
AcDbLine
 10
508.9314610820785
 20
291.2557667837875
 30
0.0
 11
516.242217058278
 21
290.5299221648942
 31
0.0
  0
LINE
  5
405
330
18
100
AcDbEntity
  8
握り
100
AcDbLine
 10
510.2461362131273
 20
304.4972634084067
 30
0.0
 11
517.5568921893265
 21
303.7714187895133
 31
0.0
  0
LINE
  5
406
330
18
100
AcDbEntity
  8
握り
100
AcDbLine
 10
510.9917405607055
 20
312.0070407051627
 30
0.0
 11
518.3024965369047
 21
311.2811960862694
 31
0.0
  0
LINE
  5
407
330
18
100
AcDbEntity
  8
握り
100
AcDbLine
 10
489.0293123369155
 20
293.231741309284
 30
0.0
 11
496.3400683131153
 21
292.5058966903906
 31
0.0
  0
LINE
  5
408
330
18
100
AcDbEntity
  8
握り
100
AcDbLine
 10
498.9803867094972
 20
292.2437540465357
 30
0.0
 11
506.2911426856967
 21
291.5179094276424
 31
0.0
  0
LINE
  5
409
330
18
100
AcDbEntity
  8
握り
100
AcDbLine
 10
498.400347791742
 20
313.2571706117659
 30
0.0
 11
497.654743444164
 21
305.7473933150098
 31
0.0
  0
LINE
  5
40A
330
18
100
AcDbEntity
  8
握り
100
AcDbLine
 10
491.0895918155425
 20
313.9830152306592
 30
0.0
 11
490.3439874679644
 21
306.4732379339032
 31
0.0
  0
LINE
  5
40B
330
18
100
AcDbEntity
  8
握り
100
AcDbLine
 10
488.4492734191606
 20
314.2451578745141
 30
0.0
 11
487.7036690715825
 21
306.7353805777581
 31
0.0
  0
LINE
  5
40C
330
18
100
AcDbEntity
  8
握り
100
AcDbLine
 10
490.3439874679643
 20
306.4732379339032
 30
0.0
 11
497.654743444164
 21
305.7473933150098
 31
0.0
  0
LINE
  5
40D
330
18
100
AcDbEntity
  8
握り
100
AcDbLine
 10
491.0895918155427
 20
313.9830152306592
 30
0.0
 11
498.400347791742
 21
313.2571706117659
 31
0.0
  0
LINE
  5
40E
330
18
100
AcDbEntity
  8
握り
100
AcDbLine
 10
510.9917405607054
 20
312.0070407051627
 30
0.0
 11
510.2461362131273
 21
304.4972634084067
 31
0.0
  0
LINE
  5
40F
330
18
100
AcDbEntity
  8
握り
100
AcDbLine
 10
508.3514221643234
 20
312.2691833490176
 30
0.0
 11
507.6058178167454
 21
304.7594060522616
 31
0.0
  0
LINE
  5
410
330
18
100
AcDbEntity
  8
握り
100
AcDbLine
 10
501.040666188124
 20
312.995027967911
 30
0.0
 11
500.2950618405458
 21
305.485250671155
 31
0.0
  0
LINE
  5
411
330
18
100
AcDbEntity
  8
握り
100
AcDbLine
 10
500.2950618405458
 20
305.485250671155
 30
0.0
 11
507.6058178167453
 21
304.7594060522616
 31
0.0
  0
LINE
  5
412
330
18
100
AcDbEntity
  8
握り
100
AcDbLine
 10
501.040666188124
 20
312.995027967911
 30
0.0
 11
508.3514221643234
 21
312.2691833490176
 31
0.0
  0
LINE
  5
413
330
18
100
AcDbEntity
  8
握り
100
AcDbLine
 10
517.2947495289017
 20
301.1311002262364
 30
0.0
 11
516.5043597187029
 21
293.1702407281711
 31
0.0
  0
LINE
  5
414
330
18
100
AcDbEntity
  8
握り
100
AcDbLine
 10
530.8938893058683
 20
310.0310661796662
 30
0.0
 11
538.2046452820678
 21
309.3052215607729
 31
0.0
  0
LINE
  5
415
330
18
100
AcDbEntity
  8
握り
100
AcDbLine
 10
518.302496536905
 20
311.2811960862694
 30
0.0
 11
517.5568921893268
 21
303.7714187895134
 31
0.0
  0
LINE
  5
416
330
18
100
AcDbEntity
  8
握り
100
AcDbLine
 10
520.9428149332867
 20
311.0190534424145
 30
0.0
 11
528.2535709094864
 21
310.2932088235211
 31
0.0
  0
LINE
  5
417
330
18
100
AcDbEntity
  8
握り
100
AcDbLine
 10
540.8449636784497
 20
309.0430789169179
 30
0.0
 11
544.0027879479203
 21
308.7295559706086
 31
0.0
  0
TEXT
  5
418
330
18
100
AcDbEntity
  8
文字
100
AcDbText
 10
499.8579061976649
 20
296.5407705099342
 30
0.0
 40
3.0
  1
LA-6
 50
354.33
  7
STYLE3
100
AcDbText
  0
LINE
  5
419
102
{ACAD_REACTORS
330
457
102
}
330
18
100
AcDbEntity
  8
ROGO
 62
     4
100
AcDbLine
 10
474.4334900298282
 20
302.0824823966257
 30
0.0
 11
476.7257886924249
 21
301.8548927117067
 31
0.0
  0
LINE
  5
41A
102
{ACAD_REACTORS
330
455
330
456
330
457
102
}
330
18
100
AcDbEntity
  8
ROGO
 62
     4
100
AcDbLine
 10
472.7006237819058
 20
299.3088618551953
 30
0.0
 11
492.4452289187803
 21
297.3485289652136
 31
0.0
  0
LINE
  5
41B
102
{ACAD_REACTORS
330
457
102
}
330
18
100
AcDbEntity
  8
ROGO
 62
     4
100
AcDbLine
 10
474.4334900298282
 20
302.0824823966257
 30
0.0
 11
472.7006237819058
 21
299.3088618551953
 31
0.0
  0
SPLINE
  5
41C
102
{ACAD_REACTORS
330
457
102
}
330
18
100
AcDbEntity
  8
ROGO
 62
     4
100
AcDbSpline
210
0.0
220
0.0
230
1.0
 70
     8
 71
     3
 72
    18
 73
    14
 74
     0
 42
0.0000000001
 43
0.0000000001
 40
0.1087402787915014
 40
0.1087402787915014
 40
0.1087402787915014
 40
0.1087402787915014
 40
0.5992371417938475
 40
1.083176791562496
 40
1.448211145705696
 40
1.714037220764907
 40
2.164002567013297
 40
2.740236056362883
 40
3.395137510199602
 40
4.071816045172726
 40
4.784906178399433
 40
5.506895915094292
 40
6.060470601257719
 40
6.060470601257719
 40
6.060470601257719
 40
6.060470601257719
 10
476.7257886924248
 20
301.8548927117067
 30
0.0
 10
476.7965548317999
 20
301.8206875350893
 30
0.0
 10
476.93532113946
 20
301.7494492179705
 30
0.0
 10
477.0986827653935
 20
301.6020850090661
 30
0.0
 10
477.1799201719569
 20
301.4426232843174
 30
0.0
 10
477.257712673598
 20
301.2857259365481
 30
0.0
 10
477.2496111240754
 20
301.0725153070016
 30
0.0
 10
477.2018146285977
 20
300.8066939413489
 30
0.0
 10
477.0372223251603
 20
300.5407268512925
 30
0.0
 10
476.7933149883216
 20
300.3180249585155
 30
0.0
 10
476.5011970918775
 20
300.149397700392
 30
0.0
 10
476.1983862671455
 20
300.024327630305
 30
0.0
 10
475.9926872410249
 20
300.0432046166237
 30
0.0
 10
475.903417132994
 20
300.051396928662
 30
0.0
  0
LINE
  5
41D
102
{ACAD_REACTORS
330
457
102
}
330
18
100
AcDbEntity
  8
ROGO
 62
     4
100
AcDbLine
 10
475.9034171334334
 20
300.0513969286184
 30
0.0
 11
474.6359228204526
 21
300.1772394447071
 31
0.0
  0
LINE
  5
41E
102
{ACAD_REACTORS
330
457
102
}
330
18
100
AcDbEntity
  8
ROGO
 62
     4
100
AcDbLine
 10
475.2675613659222
 20
301.2706812641464
 30
0.0
 11
474.9936650232365
 21
300.7965339572223
 31
0.0
  0
SPLINE
  5
41F
102
{ACAD_REACTORS
330
457
102
}
330
18
100
AcDbEntity
  8
ROGO
 62
     4
100
AcDbSpline
210
0.0
220
0.0
230
1.0
 70
     8
 71
     3
 72
    15
 73
    11
 74
     9
 42
0.0000000001
 43
0.0000000001
 44
0.0000000001
 40
0.0
 40
0.0
 40
0.0
 40
0.0
 40
0.2199578613106883
 40
0.3202465475123923
 40
0.4340808827708742
 40
0.5116301246390468
 40
0.6342750549530909
 40
0.7077360179241959
 40
0.8337709579493861
 40
0.8757826314379714
 40
0.8757826314379714
 40
0.8757826314379714
 40
0.8757826314379714
 10
475.844705197682
 20
301.2133798378678
 30
0.0
 10
475.9269503070632
 20
301.2055944419125
 30
0.0
 10
476.0466946625149
 20
301.1942593336292
 30
0.0
 10
476.0974456346645
 20
301.039704312185
 30
0.0
 10
476.0586431644596
 20
300.9472916626493
 30
0.0
 10
476.0120458163264
 20
300.8530837686209
 30
0.0
 10
475.9402669612098
 20
300.7930509060051
 30
0.0
 10
475.8464315387293
 20
300.7376814941372
 30
0.0
 10
475.7629928548863
 20
300.7381351532937
 30
0.0
 10
475.7078116202623
 20
300.7292269860012
 30
0.0
 10
475.6940163050027
 20
300.726999943112
 30
0.0
 11
475.844705197682
 21
301.2133798378678
 31
0.0
 11
476.0526145189485
 21
301.1415802913313
 31
0.0
 11
476.0841212214822
 21
301.0463692190996
 31
0.0
 11
476.0527765894558
 21
300.9369353581293
 31
0.0
 11
476.0153154557949
 21
300.8690343391445
 31
0.0
 11
475.9251425503951
 21
300.7859041637358
 31
0.0
 11
475.8602793937077
 21
300.7514181667922
 31
0.0
 11
475.7355820853774
 21
300.7331045816069
 31
0.0
 11
475.6940163050027
 21
300.726999943112
 31
0.0
  0
LINE
  5
420
102
{ACAD_REACTORS
330
457
102
}
330
18
100
AcDbEntity
  8
ROGO
 62
     4
100
AcDbLine
 10
475.8447051976821
 20
301.213379837868
 30
0.0
 11
475.2675613659222
 21
301.2706812641464
 31
0.0
  0
LINE
  5
421
102
{ACAD_REACTORS
330
457
102
}
330
18
100
AcDbEntity
  8
ROGO
 62
     4
100
AcDbLine
 10
475.6940163050029
 20
300.726999943112
 30
0.0
 11
474.9936650232366
 21
300.7965339572223
 31
0.0
  0
LINE
  5
422
102
{ACAD_REACTORS
330
455
330
457
102
}
330
18
100
AcDbEntity
  8
ROGO
 62
     4
100
AcDbLine
 10
474.6359228204526
 20
300.1772394447071
 30
0.0
 11
474.0565301032149
 21
299.1742413986722
 31
0.0
  0
LINE
  5
423
102
{ACAD_REACTORS
330
452
102
}
330
18
100
AcDbEntity
  8
ROGO
 62
     4
100
AcDbLine
 10
478.0800218646383
 20
301.7204383729246
 30
0.0
 11
476.9710360193085
 21
299.9453989407408
 31
0.0
  0
LINE
  5
424
102
{ACAD_REACTORS
330
452
102
}
330
18
100
AcDbEntity
  8
ROGO
 62
     4
100
AcDbLine
 10
480.6048697935602
 20
301.4697601545983
 30
0.0
 11
480.3508342189506
 21
301.0631515725245
 31
0.0
  0
LINE
  5
425
102
{ACAD_REACTORS
330
452
102
}
330
18
100
AcDbEntity
  8
ROGO
 62
     4
100
AcDbLine
 10
476.9710360193085
 20
299.9453989407408
 30
0.0
 11
479.4958839482303
 21
299.6947207224146
 31
0.0
  0
LINE
  5
426
102
{ACAD_REACTORS
330
452
102
}
330
18
100
AcDbEntity
  8
ROGO
 62
     4
100
AcDbLine
 10
479.0238379490006
 20
301.1949017095788
 30
0.0
 11
478.8252136975684
 21
300.8769843259039
 31
0.0
  0
LINE
  5
427
102
{ACAD_REACTORS
330
452
102
}
330
18
100
AcDbEntity
  8
ROGO
 62
     4
100
AcDbLine
 10
479.0238379490006
 20
301.1949017095788
 30
0.0
 11
480.3508342189506
 21
301.0631515725245
 31
0.0
  0
LINE
  5
428
102
{ACAD_REACTORS
330
452
102
}
330
18
100
AcDbEntity
  8
ROGO
 62
     4
100
AcDbLine
 10
478.8252136975684
 20
300.8769843259039
 30
0.0
 11
480.1522099675186
 21
300.7452341888496
 31
0.0
  0
LINE
  5
429
102
{ACAD_REACTORS
330
452
102
}
330
18
100
AcDbEntity
  8
ROGO
 62
     4
100
AcDbLine
 10
478.4229104746176
 20
300.2330589886782
 30
0.0
 11
479.7499067445676
 21
300.1013088516239
 31
0.0
  0
LINE
  5
42A
102
{ACAD_REACTORS
330
452
102
}
330
18
100
AcDbEntity
  8
ROGO
 62
     4
100
AcDbLine
 10
478.6215431348457
 20
300.5509898314469
 30
0.0
 11
479.9485394047956
 21
300.4192396943927
 31
0.0
  0
LINE
  5
42B
102
{ACAD_REACTORS
330
452
102
}
330
18
100
AcDbEntity
  8
ROGO
 62
     4
100
AcDbLine
 10
480.1522099675186
 20
300.7452341888496
 30
0.0
 11
479.9485394047956
 21
300.4192396943926
 31
0.0
  0
LINE
  5
42C
102
{ACAD_REACTORS
330
452
102
}
330
18
100
AcDbEntity
  8
ROGO
 62
     4
100
AcDbLine
 10
479.7499067445676
 20
300.1013088516239
 30
0.0
 11
479.4958839482303
 21
299.6947207224146
 31
0.0
  0
LINE
  5
42D
102
{ACAD_REACTORS
330
452
102
}
330
18
100
AcDbEntity
  8
ROGO
 62
     4
100
AcDbLine
 10
478.6215431348457
 20
300.5509898314469
 30
0.0
 11
478.4229104746176
 21
300.2330589886782
 31
0.0
  0
LINE
  5
42E
102
{ACAD_REACTORS
330
45B
102
}
330
18
100
AcDbEntity
  8
ROGO
 62
     4
100
AcDbLine
 10
481.3362656074529
 20
301.3971439002022
 30
0.0
 11
479.804782120267
 21
299.6640519274652
 31
0.0
  0
LINE
  5
42F
102
{ACAD_REACTORS
330
45B
102
}
330
18
100
AcDbEntity
  8
ROGO
 62
     4
100
AcDbLine
 10
481.9607354881837
 20
300.8312369404368
 30
0.0
 11
481.4377522133909
 21
300.2394067816381
 31
0.0
  0
LINE
  5
430
102
{ACAD_REACTORS
330
45B
102
}
330
18
100
AcDbEntity
  8
ROGO
 62
     4
100
AcDbLine
 10
481.1302087418987
 20
299.8913774844429
 30
0.0
 11
482.3099469755397
 21
299.7742477852191
 31
0.0
  0
LINE
  5
431
102
{ACAD_REACTORS
330
45B
102
}
330
18
100
AcDbEntity
  8
ROGO
 62
     4
100
AcDbLine
 10
481.437752213391
 20
300.239406781638
 30
0.0
 11
482.1806342067614
 21
300.1656501278644
 31
0.0
  0
LINE
  5
432
102
{ACAD_REACTORS
330
45B
102
}
330
18
100
AcDbEntity
  8
ROGO
 62
     4
100
AcDbLine
 10
481.1302087418987
 20
299.8913774844429
 30
0.0
 11
480.8386237615297
 21
299.5614074958167
 31
0.0
  0
LINE
  5
433
102
{ACAD_REACTORS
330
45B
102
}
330
18
100
AcDbEntity
  8
ROGO
 62
     4
100
AcDbLine
 10
479.804782120267
 20
299.6640519274652
 30
0.0
 11
480.8386237615297
 21
299.5614074958167
 31
0.0
  0
LINE
  5
434
102
{ACAD_REACTORS
330
45B
102
}
330
18
100
AcDbEntity
  8
ROGO
 62
     4
100
AcDbLine
 10
481.3362656074529
 20
301.3971439002022
 30
0.0
 11
482.8295003472066
 21
301.248888862813
 31
0.0
  0
LINE
  5
435
102
{ACAD_REACTORS
330
45B
102
}
330
18
100
AcDbEntity
  8
ROGO
 62
     4
100
AcDbLine
 10
483.4734430363655
 20
299.299810829395
 30
0.0
 11
482.4325496793547
 21
299.4031553869876
 31
0.0
  0
LINE
  5
436
102
{ACAD_REACTORS
330
453
102
}
330
18
100
AcDbEntity
  8
ROGO
 62
     4
100
AcDbLine
 10
483.9846715427293
 20
299.2490537720431
 30
0.0
 11
485.5925220921377
 21
299.0894191633827
 31
0.0
  0
LINE
  5
437
102
{ACAD_REACTORS
330
453
102
}
330
18
100
AcDbEntity
  8
ROGO
 62
     4
100
AcDbLine
 10
486.7086792129755
 20
300.8637465991935
 30
0.0
 11
486.2933963977237
 21
300.20358175415
 31
0.0
  0
LINE
  5
438
102
{ACAD_REACTORS
330
453
102
}
330
18
100
AcDbEntity
  8
ROGO
 62
     4
100
AcDbLine
 10
485.1251872875529
 20
300.3195667903241
 30
0.0
 11
486.2933963977237
 21
300.20358175415
 31
0.0
  0
LINE
  5
439
102
{ACAD_REACTORS
330
453
102
}
330
18
100
AcDbEntity
  8
ROGO
 62
     4
100
AcDbLine
 10
484.8141250399518
 20
299.8680904679456
 30
0.0
 11
486.0078005096581
 21
299.7495770174609
 31
0.0
  0
SPLINE
  5
43A
102
{ACAD_REACTORS
330
453
102
}
330
18
100
AcDbEntity
  8
ROGO
 62
     4
100
AcDbSpline
210
0.0
220
0.0
230
1.0
 70
     8
 71
     3
 72
    26
 73
    22
 74
    20
 42
0.0000000001
 43
0.0000000001
 44
0.0000000001
 40
0.0
 40
0.0
 40
0.0
 40
0.0
 40
0.3403136209418069
 40
0.5681272389514439
 40
0.7323994099696734
 40
0.8550561247335888
 40
1.014148321321381
 40
1.130270115356376
 40
1.339959009791979
 40
1.51064275524737
 40
1.62673505127621
 40
1.740569491433644
 40
1.944197174100543
 40
2.088186249714755
 40
2.165735491583005
 40
2.275891898886386
 40
2.355438312276743
 40
2.470674802865083
 40
2.535888688806237
 40
2.677801419664389
 40
2.742600005359068
 40
2.742600005359068
 40
2.742600005359068
 40
2.742600005359068
 10
484.8392471496973
 20
301.0493521929151
 30
0.0
 10
484.7236237169788
 20
301.0539065356814
 30
0.0
 10
484.5305993490249
 20
301.0615096582772
 30
0.0
 10
484.3072000905244
 20
300.954435203611
 30
0.0
 10
484.1454474225362
 20
300.8953518272795
 30
0.0
 10
484.0253115652221
 20
300.8051290744549
 30
0.0
 10
483.9342393841487
 20
300.7086572490264
 30
0.0
 10
483.8201436071437
 20
300.5942661750679
 30
0.0
 10
483.7227882303834
 20
300.4575373486912
 30
0.0
 10
483.6646770315133
 20
300.3019544031371
 30
0.0
 10
483.6146111126861
 20
300.1783263045481
 30
0.0
 10
483.5727685857128
 20
300.0391739629374
 30
0.0
 10
483.5646084672911
 20
299.8851625357845
 30
0.0
 10
483.5605836581162
 20
299.7417717605775
 30
0.0
 10
483.5956396825546
 20
299.6356464410496
 30
0.0
 10
483.6398702885505
 20
299.5581790036032
 30
0.0
 10
483.6949144508277
 20
299.4722288328805
 30
0.0
 10
483.758562567052
 20
299.4126045153096
 30
0.0
 10
483.8060453567734
 20
299.3113245358821
 30
0.0
 10
483.9045696203133
 20
299.2892201288301
 30
0.0
 10
483.9655544083596
 20
299.2586398795505
 30
0.0
 10
483.9846715427294
 20
299.249053772043
 30
0.0
 11
484.8392471496973
 21
301.0493521929151
 31
0.0
 11
484.4994569495816
 21
301.0304847473062
 31
0.0
 11
484.2865985251849
 21
300.949303864618
 31
0.0
 11
484.1365920184149
 21
300.8823457127789
 31
0.0
 11
484.0372854612573
 21
300.8103535091582
 31
0.0
 11
483.9238151795449
 21
300.6988419753008
 31
0.0
 11
483.8437823872395
 21
300.6147050440179
 31
0.0
 11
483.7242760560796
 21
300.4424039434342
 31
0.0
 11
483.6574821125191
 21
300.2853322716843
 31
0.0
 11
483.6159973673979
 21
300.1769051665884
 31
0.0
 11
483.5846521523047
 21
300.0674713635076
 31
0.0
 11
483.5645339966228
 21
299.8648399420542
 31
0.0
 11
483.5707315007172
 21
299.7209843031684
 31
0.0
 11
483.5941098794897
 21
299.6470428647167
 31
0.0
 11
483.6458962251455
 21
299.5498183386258
 31
0.0
 11
483.6905607411708
 21
299.483994992528
 31
0.0
 11
483.7636326410123
 21
299.3948886166806
 31
0.0
 11
483.7991629550064
 21
299.3402036305598
 31
0.0
 11
483.9259531535107
 21
299.2764582876488
 31
0.0
 11
483.9846715427294
 21
299.249053772043
 31
0.0
  0
SPLINE
  5
43B
102
{ACAD_REACTORS
330
453
102
}
330
18
100
AcDbEntity
  8
ROGO
 62
     4
100
AcDbSpline
210
0.0
220
0.0
230
1.0
 70
     8
 71
     3
 72
    16
 73
    12
 74
    10
 42
0.0000000001
 43
0.0000000001
 44
0.0000000001
 40
0.0
 40
0.0
 40
0.0
 40
0.0
 40
0.1794152893756459
 40
0.2670467197814331
 40
0.3102605435413902
 40
0.3558008766977076
 40
0.4210145035340604
 40
0.4803947587045156
 40
0.5423269814405768
 40
0.6461608279443674
 40
0.7489346372632885
 40
0.7489346372632885
 40
0.7489346372632885
 40
0.7489346372632885
 10
485.1251872875529
 20
300.3195667903241
 30
0.0
 10
485.0638112252308
 20
300.3163519478525
 30
0.0
 10
484.972457382572
 20
300.3115668866704
 30
0.0
 10
484.8846820285567
 20
300.2552274685994
 30
0.0
 10
484.8349845344684
 20
300.2214587703591
 30
0.0
 10
484.8143327169236
 20
300.1722555650265
 30
0.0
 10
484.7685324450623
 20
300.1374479163223
 30
0.0
 10
484.7286517934437
 20
300.0873211387635
 30
0.0
 10
484.7130952079375
 20
300.0145772470292
 30
0.0
 10
484.7089034026421
 20
299.9107409534185
 30
0.0
 10
484.779171334874
 20
299.8822585851576
 30
0.0
 10
484.8141250399518
 20
299.8680904679456
 30
0.0
 11
485.1251872875529
 21
300.3195667903241
 31
0.0
 11
484.9481927661194
 21
300.2901935806891
 31
0.0
 11
484.8721836180679
 21
300.2465830658165
 31
0.0
 11
484.8387461286608
 21
300.2192084632421
 31
0.0
 11
484.8144422582183
 21
300.1806955585802
 31
0.0
 11
484.7688528663832
 21
300.1340648339743
 31
0.0
 11
484.7334035548493
 21
300.0864270231947
 31
0.0
 11
484.7172280081677
 21
300.0266444847526
 31
0.0
 11
484.7274491237221
 21
299.923314931978
 31
0.0
 11
484.8141250399518
 21
299.8680904679456
 31
0.0
  0
LINE
  5
43C
102
{ACAD_REACTORS
330
453
102
}
330
18
100
AcDbEntity
  8
ROGO
 62
     4
100
AcDbLine
 10
486.007800509658
 20
299.7495770174609
 30
0.0
 11
485.5925220921377
 21
299.0894191633826
 31
0.0
  0
LINE
  5
43D
102
{ACAD_REACTORS
330
453
102
}
330
18
100
AcDbEntity
  8
ROGO
 62
     4
100
AcDbLine
 10
484.8392471496979
 20
301.0493521929152
 30
0.0
 11
486.7086792129756
 21
300.8637465991935
 31
0.0
  0
LINE
  5
43E
102
{ACAD_REACTORS
330
454
102
}
330
18
100
AcDbEntity
  8
ROGO
 62
     4
100
AcDbLine
 10
489.9994843950271
 20
298.6518761946894
 30
0.0
 11
491.6073349444355
 21
298.4922415860289
 31
0.0
  0
LINE
  5
43F
102
{ACAD_REACTORS
330
454
102
}
330
18
100
AcDbEntity
  8
ROGO
 62
     4
100
AcDbLine
 10
490.8540600019956
 20
300.4521746155615
 30
0.0
 11
492.7234920652733
 21
300.2665690218398
 31
0.0
  0
SPLINE
  5
440
102
{ACAD_REACTORS
330
454
102
}
330
18
100
AcDbEntity
  8
ROGO
 62
     4
100
AcDbSpline
210
0.0
220
0.0
230
1.0
 70
     8
 71
     3
 72
    16
 73
    12
 74
    10
 42
0.0000000001
 43
0.0000000001
 44
0.0000000001
 40
0.0
 40
0.0
 40
0.0
 40
0.0
 40
0.179415289375702
 40
0.2670467197816161
 40
0.3102605435414492
 40
0.3558008766978576
 40
0.4210145035341309
 40
0.4803947587045522
 40
0.5423269814405333
 40
0.6461608279445049
 40
0.7489346372634085
 40
0.7489346372634085
 40
0.7489346372634085
 40
0.7489346372634085
 10
491.1400001398508
 20
299.7223892129704
 30
0.0
 10
491.0786240775288
 20
299.7191743704988
 30
0.0
 10
490.9872702348701
 20
299.7143893093167
 30
0.0
 10
490.8994948808542
 20
299.6580498912458
 30
0.0
 10
490.8497973867665
 20
299.6242811930054
 30
0.0
 10
490.8291455692214
 20
299.5750779876731
 30
0.0
 10
490.78334529736
 20
299.5402703389686
 30
0.0
 10
490.7434646457418
 20
299.4901435614098
 30
0.0
 10
490.7279080602348
 20
299.4173996696755
 30
0.0
 10
490.72371625494
 20
299.3135633760648
 30
0.0
 10
490.7939841871717
 20
299.2850810078039
 30
0.0
 10
490.8289378922495
 20
299.2709128905918
 30
0.0
 11
491.1400001398508
 21
299.7223892129704
 31
0.0
 11
490.9630056184172
 21
299.6930160033354
 31
0.0
 11
490.8869964703655
 21
299.6494054884628
 31
0.0
 11
490.8535589809586
 21
299.6220308858884
 31
0.0
 11
490.8292551105159
 21
299.5835179812265
 31
0.0
 11
490.783665718681
 21
299.5368872566206
 31
0.0
 11
490.748216407147
 21
299.489249445841
 31
0.0
 11
490.7320408604654
 21
299.429466907399
 31
0.0
 11
490.7422619760198
 21
299.3261373546242
 31
0.0
 11
490.8289378922495
 21
299.2709128905918
 31
0.0
  0
SPLINE
  5
441
102
{ACAD_REACTORS
330
454
102
}
330
18
100
AcDbEntity
  8
ROGO
 62
     4
100
AcDbSpline
210
0.0
220
0.0
230
1.0
 70
     8
 71
     3
 72
    26
 73
    22
 74
    20
 42
0.0000000001
 43
0.0000000001
 44
0.0000000001
 40
0.0
 40
0.0
 40
0.0
 40
0.0
 40
0.3403136209416903
 40
0.5681272389514334
 40
0.7323994099695018
 40
0.855056124733476
 40
1.014148321321268
 40
1.130270115356299
 40
1.339959009791884
 40
1.51064275524732
 40
1.626735051276034
 40
1.740569491433507
 40
1.944197174100349
 40
2.088186249714611
 40
2.165735491582807
 40
2.275891898886268
 40
2.355438312276687
 40
2.470674802864939
 40
2.535888688806219
 40
2.677801419664346
 40
2.742600005358878
 40
2.742600005358878
 40
2.742600005358878
 40
2.742600005358878
 10
490.8540600019949
 20
300.4521746155614
 30
0.0
 10
490.7384365692764
 20
300.4567289583276
 30
0.0
 10
490.5454122013224
 20
300.4643320809235
 30
0.0
 10
490.3220129428222
 20
300.3572576262576
 30
0.0
 10
490.160260274834
 20
300.2981742499256
 30
0.0
 10
490.0401244175197
 20
300.2079514971013
 30
0.0
 10
489.9490522364468
 20
300.1114796716726
 30
0.0
 10
489.834956459441
 20
299.9970885977142
 30
0.0
 10
489.7376010826812
 20
299.8603597713373
 30
0.0
 10
489.679489883811
 20
299.7047768257835
 30
0.0
 10
489.6294239649838
 20
299.5811487271944
 30
0.0
 10
489.5875814380105
 20
299.4419963855838
 30
0.0
 10
489.5794213195891
 20
299.2879849584308
 30
0.0
 10
489.5753965104137
 20
299.1445941832239
 30
0.0
 10
489.6104525348522
 20
299.0384688636959
 30
0.0
 10
489.6546831408484
 20
298.9610014262496
 30
0.0
 10
489.7097273031253
 20
298.8750512555267
 30
0.0
 10
489.77337541935
 20
298.815426937956
 30
0.0
 10
489.820858209071
 20
298.7141469585283
 30
0.0
 10
489.9193824726109
 20
298.6920425514762
 30
0.0
 10
489.9803672606574
 20
298.6614623021968
 30
0.0
 10
489.9994843950271
 20
298.6518761946893
 30
0.0
 11
490.8540600019949
 21
300.4521746155614
 31
0.0
 11
490.5142698018793
 21
300.4333071699525
 31
0.0
 11
490.3014113774825
 21
300.3521262872644
 31
0.0
 11
490.1514048707128
 21
300.2851681354251
 31
0.0
 11
490.052098313555
 21
300.2131759318045
 31
0.0
 11
489.9386280318426
 21
300.101664397947
 31
0.0
 11
489.8585952395372
 21
300.0175274666641
 31
0.0
 11
489.7390889083774
 21
299.8452263660805
 31
0.0
 11
489.6722949648167
 21
299.6881546943305
 31
0.0
 11
489.6308102196957
 21
299.5797275892347
 31
0.0
 11
489.5994650046024
 21
299.470293786154
 31
0.0
 11
489.5793468489206
 21
299.2676623647005
 31
0.0
 11
489.5855443530148
 21
299.1238067258147
 31
0.0
 11
489.6089227317873
 21
299.049865287363
 31
0.0
 11
489.6607090774433
 21
298.9526407612721
 31
0.0
 11
489.7053735934685
 21
298.8868174151743
 31
0.0
 11
489.77844549331
 21
298.797711039327
 31
0.0
 11
489.8139758073042
 21
298.7430260532061
 31
0.0
 11
489.9407660058084
 21
298.679280710295
 31
0.0
 11
489.9994843950271
 21
298.6518761946893
 31
0.0
  0
LINE
  5
442
102
{ACAD_REACTORS
330
454
102
}
330
18
100
AcDbEntity
  8
ROGO
 62
     4
100
AcDbLine
 10
492.0226133619557
 20
299.1523994401072
 30
0.0
 11
491.6073349444355
 21
298.4922415860289
 31
0.0
  0
LINE
  5
443
102
{ACAD_REACTORS
330
454
102
}
330
18
100
AcDbEntity
  8
ROGO
 62
     4
100
AcDbLine
 10
490.8289378922494
 20
299.2709128905919
 30
0.0
 11
492.0226133619557
 21
299.1523994401072
 31
0.0
  0
LINE
  5
444
102
{ACAD_REACTORS
330
454
102
}
330
18
100
AcDbEntity
  8
ROGO
 62
     4
100
AcDbLine
 10
491.1400001398507
 20
299.7223892129704
 30
0.0
 11
492.3082092500215
 21
299.6064041767963
 31
0.0
  0
LINE
  5
445
102
{ACAD_REACTORS
330
454
102
}
330
18
100
AcDbEntity
  8
ROGO
 62
     4
100
AcDbLine
 10
492.7234920652733
 20
300.2665690218398
 30
0.0
 11
492.3082092500215
 21
299.6064041767963
 31
0.0
  0
LINE
  5
446
102
{ACAD_REACTORS
330
456
102
}
330
18
100
AcDbEntity
  8
ROGO
 62
     4
100
AcDbLine
 10
493.1144656961836
 20
300.2277514074851
 30
0.0
 11
494.1893007752634
 21
300.1210369636043
 31
0.0
  0
LINE
  5
447
102
{ACAD_REACTORS
330
455
330
456
102
}
330
18
100
AcDbEntity
  8
ROGO
 62
     4
100
AcDbLine
 10
493.1144656961836
 20
300.2277514074851
 30
0.0
 11
491.3703938397004
 21
297.4552434090944
 31
0.0
  0
LINE
  5
448
102
{ACAD_REACTORS
330
456
102
}
330
18
100
AcDbEntity
  8
ROGO
 62
     4
100
AcDbLine
 10
494.1893007752634
 20
300.1210369636043
 30
0.0
 11
493.9988836193411
 21
299.8183355090381
 31
0.0
  0
LINE
  5
449
102
{ACAD_REACTORS
330
456
102
}
330
18
100
AcDbEntity
  8
ROGO
 62
     4
100
AcDbLine
 10
493.9988836193411
 20
299.8183355090381
 30
0.0
 11
494.5337611612066
 21
300.0868373926745
 31
0.0
  0
LINE
  5
44A
102
{ACAD_REACTORS
330
456
102
}
330
18
100
AcDbEntity
  8
ROGO
 62
     4
100
AcDbLine
 10
492.9004513924087
 20
298.0721848997386
 30
0.0
 11
493.2044938723897
 21
297.2731457377217
 31
0.0
  0
LINE
  5
44B
102
{ACAD_REACTORS
330
456
102
}
330
18
100
AcDbEntity
  8
ROGO
 62
     4
100
AcDbLine
 10
493.6968738072995
 20
298.6970936854892
 30
0.0
 11
494.2793054349423
 21
297.1664336286672
 31
0.0
  0
LINE
  5
44C
102
{ACAD_REACTORS
330
456
102
}
330
18
100
AcDbEntity
  8
ROGO
 62
     4
100
AcDbLine
 10
492.9004513924087
 20
298.0721848997386
 30
0.0
 11
492.4452289187803
 21
297.3485289652136
 31
0.0
  0
LINE
  5
44D
102
{ACAD_REACTORS
330
456
102
}
330
18
100
AcDbEntity
  8
ROGO
 62
     4
100
AcDbLine
 10
493.6968738072995
 20
298.6970936854892
 30
0.0
 11
495.6085727237592
 21
299.98012528362
 31
0.0
  0
LINE
  5
44E
102
{ACAD_REACTORS
330
456
102
}
330
18
100
AcDbEntity
  8
ROGO
 62
     4
100
AcDbLine
 10
494.5337611612066
 20
300.0868373926745
 30
0.0
 11
495.6085727237592
 21
299.98012528362
 31
0.0
  0
LINE
  5
44F
102
{ACAD_REACTORS
330
456
102
}
330
18
100
AcDbEntity
  8
ROGO
 62
     4
100
AcDbLine
 10
493.2044938723897
 20
297.2731457377217
 30
0.0
 11
494.2793054349423
 21
297.1664336286672
 31
0.0
  0
LINE
  5
450
102
{ACAD_REACTORS
330
452
102
}
330
18
100
AcDbEntity
  8
ROGO
 62
     4
100
AcDbLine
 10
478.0800218646383
 20
301.7204383729246
 30
0.0
 11
480.6048697935602
 21
301.4697601545983
 31
0.0
  0
LINE
  5
451
102
{ACAD_REACTORS
330
455
102
}
330
18
100
AcDbEntity
  8
ROGO
 62
     4
100
AcDbLine
 10
474.1975616313571
 20
299.4554983108326
 30
0.0
 11
491.5452109980766
 21
297.7331459324636
 31
0.0
  0
HATCH
  5
452
330
18
100
AcDbEntity
  8
ROGO
 62
     4
100
AcDbHatch
 10
0.0
 20
0.0
 30
0.0
210
0.0
220
0.0
230
1.0
  2
SOLID
 70
     1
 71
     1
 91
        1
 92
        1
 93
       12
 72
     1
 10
478.0800218646383
 20
301.7204383729246
 11
480.6048697935602
 21
301.4697601545983
 72
     1
 10
480.6048697935602
 20
301.4697601545983
 11
480.3508342189506
 21
301.0631515725245
 72
     1
 10
480.3508342189506
 20
301.0631515725245
 11
479.0238379490006
 21
301.1949017095788
 72
     1
 10
479.0238379490006
 20
301.1949017095788
 11
478.8252136975684
 21
300.8769843259039
 72
     1
 10
478.8252136975684
 20
300.8769843259039
 11
480.1522099675186
 21
300.7452341888496
 72
     1
 10
480.1522099675186
 20
300.7452341888496
 11
479.9485394047956
 21
300.4192396943926
 72
     1
 10
479.9485394047956
 20
300.4192396943927
 11
478.6215431348457
 21
300.5509898314469
 72
     1
 10
478.6215431348457
 20
300.5509898314469
 11
478.4229104746176
 21
300.2330589886782
 72
     1
 10
478.4229104746176
 20
300.2330589886782
 11
479.7499067445676
 21
300.1013088516239
 72
     1
 10
479.7499067445676
 20
300.1013088516239
 11
479.4958839482303
 21
299.6947207224146
 72
     1
 10
479.4958839482303
 20
299.6947207224146
 11
476.9710360193085
 21
299.9453989407408
 72
     1
 10
476.9710360193085
 20
299.9453989407408
 11
478.0800218646383
 21
301.7204383729246
 97
       12
330
450
330
424
330
427
330
426
330
428
330
42B
330
42A
330
42D
330
429
330
42C
330
425
330
423
 75
     0
 76
     1
 98
        1
 10
361.9865648614821
 20
182.8974091449864
450
        0
451
        0
460
0.0
461
0.0
452
        0
462
0.0
453
        0
470

  0
HATCH
  5
453
330
18
100
AcDbEntity
  8
ROGO
 62
     4
100
AcDbHatch
 10
0.0
 20
0.0
 30
0.0
210
0.0
220
0.0
230
1.0
  2
SOLID
 70
     1
 71
     1
 91
        1
 92
        5
 93
        8
 72
     1
 10
486.2933963977237
 20
300.20358175415
 11
486.7086792129755
 21
300.8637465991936
 72
     1
 10
486.7086792129755
 20
300.8637465991936
 11
484.8392471496979
 21
301.0493521929153
 72
     4
 94
        3
 73
     0
 74
     0
 95
       26
 96
       22
 40
0.0
 40
0.0
 40
0.0
 40
0.0
 40
0.3403136209418069
 40
0.5681272389514439
 40
0.7323994099696734
 40
0.8550561247335888
 40
1.014148321321381
 40
1.130270115356376
 40
1.339959009791979
 40
1.51064275524737
 40
1.62673505127621
 40
1.740569491433644
 40
1.944197174100543
 40
2.088186249714755
 40
2.165735491583005
 40
2.275891898886386
 40
2.355438312276743
 40
2.470674802865083
 40
2.535888688806237
 40
2.677801419664389
 40
2.742600005359068
 40
2.742600005359068
 40
2.742600005359068
 40
2.742600005359068
 10
484.8392471496973
 20
301.0493521929151
 10
484.7236237169788
 20
301.0539065356814
 10
484.5305993490248
 20
301.0615096582772
 10
484.3072000905245
 20
300.954435203611
 10
484.1454474225362
 20
300.8953518272794
 10
484.0253115652221
 20
300.805129074455
 10
483.9342393841487
 20
300.7086572490263
 10
483.8201436071437
 20
300.594266175068
 10
483.7227882303833
 20
300.4575373486911
 10
483.6646770315133
 20
300.301954403137
 10
483.6146111126862
 20
300.1783263045481
 10
483.5727685857128
 20
300.0391739629375
 10
483.5646084672911
 20
299.8851625357844
 10
483.5605836581161
 20
299.7417717605777
 10
483.5956396825547
 20
299.6356464410496
 10
483.6398702885504
 20
299.5581790036032
 10
483.6949144508276
 20
299.4722288328805
 10
483.758562567052
 20
299.4126045153097
 10
483.8060453567734
 20
299.3113245358821
 10
483.9045696203133
 20
299.2892201288301
 10
483.9655544083596
 20
299.2586398795505
 10
483.9846715427294
 20
299.249053772043
 72
     1
 10
483.9846715427293
 20
299.249053772043
 11
485.5925220921377
 21
299.0894191633827
 72
     1
 10
485.5925220921377
 20
299.0894191633827
 11
486.007800509658
 21
299.7495770174609
 72
     1
 10
486.007800509658
 20
299.7495770174609
 11
484.8141250399518
 21
299.8680904679456
 72
     4
 94
        3
 73
     0
 74
     0
 95
       16
 96
       12
 40
0.0
 40
0.0
 40
0.0
 40
0.0
 40
0.1027738093189211
 40
0.2066076558227118
 40
0.2685398785587729
 40
0.3279201337292282
 40
0.3931337605655809
 40
0.4386740937218983
 40
0.4818879174818554
 40
0.5695193478876427
 40
0.7489346372632885
 40
0.7489346372632885
 40
0.7489346372632885
 40
0.7489346372632885
 10
484.8141250399518
 20
299.8680904679456
 10
484.7791713348739
 20
299.8822585851576
 10
484.7089034026421
 20
299.9107409534185
 10
484.7130952079375
 20
300.0145772470293
 10
484.7286517934437
 20
300.0873211387634
 10
484.7685324450624
 20
300.1374479163223
 10
484.8143327169236
 20
300.1722555650265
 10
484.8349845344686
 20
300.2214587703591
 10
484.8846820285564
 20
300.2552274685994
 10
484.9724573825722
 20
300.3115668866704
 10
485.0638112252309
 20
300.3163519478525
 10
485.1251872875529
 20
300.3195667903241
 72
     1
 10
485.1251872875531
 20
300.3195667903241
 11
486.2933963977237
 21
300.20358175415
 97
        8
330
43D
330
43A
330
436
330
43C
330
439
330
43B
330
438
330
437
 75
     0
 76
     1
 47
0.0514683685270805
 98
        1
 10
485.4517982030993
 20
300.5688801087476
450
        0
451
        0
460
0.0
461
0.0
452
        0
462
0.0
453
        0
470

  0
HATCH
  5
454
330
18
100
AcDbEntity
  8
ROGO
 62
     4
100
AcDbHatch
 10
0.0
 20
0.0
 30
0.0
210
0.0
220
0.0
230
1.0
  2
SOLID
 70
     1
 71
     1
 91
        1
 92
        5
 93
        8
 72
     4
 94
        3
 73
     0
 74
     0
 95
       26
 96
       22
 40
0.0
 40
0.0
 40
0.0
 40
0.0
 40
0.3403136209416903
 40
0.5681272389514334
 40
0.7323994099695018
 40
0.855056124733476
 40
1.014148321321268
 40
1.130270115356299
 40
1.339959009791884
 40
1.51064275524732
 40
1.626735051276034
 40
1.740569491433507
 40
1.944197174100349
 40
2.088186249714611
 40
2.165735491582807
 40
2.275891898886268
 40
2.355438312276687
 40
2.470674802864939
 40
2.535888688806219
 40
2.677801419664346
 40
2.742600005358878
 40
2.742600005358878
 40
2.742600005358878
 40
2.742600005358878
 10
490.8540600019949
 20
300.4521746155614
 10
490.7384365692764
 20
300.4567289583276
 10
490.5454122013225
 20
300.4643320809234
 10
490.3220129428222
 20
300.3572576262576
 10
490.1602602748339
 20
300.2981742499255
 10
490.0401244175197
 20
300.2079514971014
 10
489.9490522364468
 20
300.1114796716726
 10
489.8349564594409
 20
299.9970885977142
 10
489.7376010826811
 20
299.8603597713372
 10
489.679489883811
 20
299.7047768257834
 10
489.6294239649838
 20
299.5811487271944
 10
489.5875814380105
 20
299.4419963855838
 10
489.5794213195891
 20
299.2879849584308
 10
489.5753965104137
 20
299.1445941832239
 10
489.6104525348524
 20
299.0384688636959
 10
489.6546831408484
 20
298.9610014262496
 10
489.7097273031253
 20
298.8750512555267
 10
489.77337541935
 20
298.8154269379561
 10
489.820858209071
 20
298.7141469585282
 10
489.9193824726109
 20
298.6920425514762
 10
489.9803672606573
 20
298.6614623021968
 10
489.9994843950271
 20
298.6518761946893
 72
     1
 10
489.9994843950269
 20
298.6518761946894
 11
491.6073349444354
 21
298.4922415860289
 72
     1
 10
491.6073349444354
 20
298.4922415860289
 11
492.0226133619559
 21
299.1523994401072
 72
     1
 10
492.0226133619559
 20
299.1523994401072
 11
490.8289378922494
 21
299.2709128905919
 72
     4
 94
        3
 73
     0
 74
     0
 95
       16
 96
       12
 40
0.0
 40
0.0
 40
0.0
 40
0.0
 40
0.1027738093189037
 40
0.2066076558228752
 40
0.2685398785588563
 40
0.3279201337292776
 40
0.3931337605655509
 40
0.4386740937219593
 40
0.4818879174817924
 40
0.5695193478877066
 40
0.7489346372634085
 40
0.7489346372634085
 40
0.7489346372634085
 40
0.7489346372634085
 10
490.8289378922495
 20
299.2709128905918
 10
490.7939841871718
 20
299.2850810078038
 10
490.7237162549399
 20
299.3135633760648
 10
490.7279080602349
 20
299.4173996696755
 10
490.7434646457418
 20
299.4901435614098
 10
490.78334529736
 20
299.5402703389684
 10
490.8291455692214
 20
299.5750779876731
 10
490.8497973867664
 20
299.6242811930054
 10
490.8994948808542
 20
299.6580498912458
 10
490.98727023487
 20
299.7143893093168
 10
491.0786240775287
 20
299.7191743704988
 10
491.1400001398508
 20
299.7223892129704
 72
     1
 10
491.140000139851
 20
299.7223892129705
 11
492.3082092500215
 21
299.6064041767963
 72
     1
 10
492.3082092500215
 20
299.6064041767963
 11
492.7234920652734
 21
300.2665690218399
 72
     1
 10
492.7234920652734
 20
300.2665690218399
 11
490.8540600019954
 21
300.4521746155615
 97
        8
330
43F
330
441
330
43E
330
442
330
443
330
440
330
444
330
445
 75
     0
 76
     1
 47
0.0514683685270805
 98
        1
 10
491.1427056126021
 20
300.0783402126473
450
        0
451
        0
460
0.0
461
0.0
452
        0
462
0.0
453
        0
470

  0
HATCH
  5
455
330
18
100
AcDbEntity
  8
ROGO
 62
     4
100
AcDbHatch
 10
0.0
 20
0.0
 30
0.0
210
0.0
220
0.0
230
1.0
  2
SOLID
 70
     1
 71
     1
 91
        1
 92
        7
 72
     0
 73
     1
 93
        4
 10
474.217838291511
 20
299.4534851531359
 10
474.0565301032149
 20
299.1742413986721
 10
491.3703938397004
 20
297.4552434090944
 10
491.5452109980765
 20
297.7331459324636
 97
        4
330
451
330
422
330
41A
330
447
 75
     0
 76
     1
 47
0.0514683685270805
 98
        1
 10
485.1509906423981
 20
298.2899014860246
450
        0
451
        0
460
0.0
461
0.0
452
        0
462
0.0
453
        0
470

  0
HATCH
  5
456
330
18
100
AcDbEntity
  8
ROGO
 62
     4
100
AcDbHatch
 10
0.0
 20
0.0
 30
0.0
210
0.0
220
0.0
230
1.0
  2
SOLID
 70
     1
 71
     1
 91
        1
 92
        7
 72
     0
 73
     1
 93
       11
 10
491.3703938397003
 20
297.4552434090943
 10
492.4452289187802
 20
297.3485289652136
 10
492.9004513924087
 20
298.0721848997386
 10
493.2044938723897
 20
297.2731457377217
 10
494.2793054349423
 20
297.1664336286671
 10
493.6968738072995
 20
298.6970936854892
 10
495.6085727237591
 20
299.98012528362
 10
494.5337611612066
 20
300.0868373926745
 10
493.998883619341
 20
299.818335509038
 10
494.1893007752636
 20
300.1210369636043
 10
493.1144656961835
 20
300.2277514074851
 97
       11
330
44E
330
449
330
448
330
446
330
447
330
41A
330
44C
330
44A
330
44F
330
44B
330
44D
 75
     0
 76
     1
 47
0.0514683685270805
 98
        1
 10
492.8977156916736
 20
298.985522659129
450
        0
451
        0
460
0.0
461
0.0
452
        0
462
0.0
453
        0
470

  0
HATCH
  5
457
330
18
100
AcDbEntity
  8
ROGO
 62
     4
100
AcDbHatch
 10
0.0
 20
0.0
 30
0.0
210
0.0
220
0.0
230
1.0
  2
SOLID
 70
     1
 71
     1
 91
        2
 92
        5
 93
        6
 72
     1
 10
472.7006237819058
 20
299.3088618551953
 11
474.0565301032149
 21
299.1742413986721
 72
     1
 10
474.0565301032149
 20
299.1742413986721
 11
474.6359228204526
 21
300.1772394447071
 72
     1
 10
474.6359228204526
 20
300.1772394447071
 11
475.9034171329943
 21
300.051396928662
 72
     4
 94
        3
 73
     0
 74
     0
 95
       18
 96
       14
 40
0.108740278791501
 40
0.108740278791501
 40
0.108740278791501
 40
0.108740278791501
 40
0.6623149649549278
 40
1.384304701649787
 40
2.097394834876493
 40
2.774073369849618
 40
3.428974823686337
 40
4.005208313035923
 40
4.455173659284313
 40
4.720999734343524
 40
5.086034088486724
 40
5.569973738255373
 40
6.060470601257719
 40
6.060470601257719
 40
6.060470601257719
 40
6.060470601257719
 10
475.903417132994
 20
300.051396928662
 10
475.9926872410249
 20
300.0432046166237
 10
476.1983862671455
 20
300.024327630305
 10
476.5011970918775
 20
300.149397700392
 10
476.7933149883216
 20
300.3180249585155
 10
477.0372223251603
 20
300.5407268512925
 10
477.2018146285977
 20
300.8066939413489
 10
477.2496111240754
 20
301.0725153070016
 10
477.257712673598
 20
301.2857259365481
 10
477.1799201719569
 20
301.4426232843174
 10
477.0986827653935
 20
301.6020850090661
 10
476.93532113946
 20
301.7494492179705
 10
476.7965548317999
 20
301.8206875350893
 10
476.7257886924248
 20
301.8548927117067
 72
     1
 10
476.7257886924247
 20
301.8548927117067
 11
474.4334900298281
 21
302.0824823966257
 72
     1
 10
474.4334900298281
 20
302.0824823966257
 11
472.7006237819058
 21
299.3088618551953
 97
        6
330
41C
330
419
330
41B
330
41A
330
422
330
41D
 92
       20
 93
        4
 72
     1
 10
474.9936650232365
 20
300.7965339572223
 11
475.2675613659222
 21
301.2706812641465
 72
     1
 10
475.2675613659222
 20
301.2706812641465
 11
475.8447051976814
 21
301.213379837868
 72
     4
 94
        3
 73
     0
 74
     0
 95
       15
 96
       11
 40
0.0
 40
0.0
 40
0.0
 40
0.0
 40
0.2199578613106883
 40
0.3202465475123923
 40
0.4340808827708742
 40
0.5116301246390468
 40
0.6342750549530909
 40
0.7077360179241959
 40
0.8337709579493861
 40
0.8757826314379714
 40
0.8757826314379714
 40
0.8757826314379714
 40
0.8757826314379714
 10
475.844705197682
 20
301.2133798378678
 10
475.9269503070632
 20
301.2055944419125
 10
476.0466946625149
 20
301.1942593336292
 10
476.0974456346645
 20
301.039704312185
 10
476.0586431644595
 20
300.9472916626494
 10
476.0120458163265
 20
300.8530837686209
 10
475.9402669612099
 20
300.7930509060052
 10
475.8464315387291
 20
300.7376814941371
 10
475.7629928548864
 20
300.7381351532938
 10
475.7078116202623
 20
300.7292269860011
 10
475.6940163050027
 20
300.726999943112
 72
     1
 10
475.6940163050026
 20
300.726999943112
 11
474.9936650232365
 21
300.7965339572223
 97
        4
330
41E
330
420
330
41F
330
421
 75
     0
 76
     1
 47
0.0514683685270805
 98
        2
 10
474.3556673872433
 20
301.1740282817059
 10
474.3556673872433
 20
301.1740282817059
450
        0
451
        0
460
0.0
461
0.0
452
        0
462
0.0
453
        0
470

  0
LINE
  5
458
102
{ACAD_REACTORS
330
45B
102
}
330
18
100
AcDbEntity
  8
ROGO
 62
     4
100
AcDbLine
 10
482.8295003472066
 20
301.248888862813
 30
0.0
 11
483.4734430363655
 21
299.299810829395
 31
0.0
  0
LINE
  5
459
102
{ACAD_REACTORS
330
45B
102
}
330
18
100
AcDbEntity
  8
ROGO
 62
     4
100
AcDbLine
 10
481.9607354881838
 20
300.8312369404369
 30
0.0
 11
482.1806342067614
 21
300.1656501278644
 31
0.0
  0
LINE
  5
45A
102
{ACAD_REACTORS
330
45B
102
}
330
18
100
AcDbEntity
  8
ROGO
 62
     4
100
AcDbLine
 10
482.3099469755397
 20
299.7742477852191
 30
0.0
 11
482.4325496793547
 21
299.4031553869876
 31
0.0
  0
HATCH
  5
45B
330
18
100
AcDbEntity
  8
ROGO
 62
     4
100
AcDbHatch
 10
0.0
 20
0.0
 30
0.0
210
0.0
220
0.0
230
1.0
  2
SOLID
 70
     1
 71
     1
 91
        2
 92
        7
 72
     0
 73
     1
 93
        8
 10
482.8295003472067
 20
301.248888862813
 10
481.3362656074529
 20
301.3971439002022
 10
479.8047821202671
 20
299.6640519274653
 10
480.8386237615296
 20
299.5614074958167
 10
481.1302087418988
 20
299.8913774844429
 10
482.3099469755397
 20
299.7742477852191
 10
482.4325496793547
 20
299.4031553869876
 10
483.4734430363656
 20
299.2998108293951
 97
        8
330
434
330
42E
330
433
330
432
330
430
330
45A
330
435
330
458
 92
       22
 72
     0
 73
     1
 93
        3
 10
482.1806342067614
 20
300.1656501278643
 10
481.4377522133908
 20
300.2394067816382
 10
481.9607354881837
 20
300.8312369404369
 97
        3
330
431
330
42F
330
459
 75
     0
 76
     1
 47
0.0128389261915577
 98
        2
 10
482.6681029252391
 20
300.8126404687325
 10
482.6681029252391
 20
300.8126404687325
450
        0
451
        0
460
0.0
461
0.0
452
        0
462
0.0
453
        0
470

  0
SPLINE
  5
45C
102
{ACAD_REACTORS
330
463
102
}
330
18
100
AcDbEntity
  8
ROGO
 62
     4
100
AcDbSpline
210
0.0
220
0.0
230
1.0
 70
     8
 71
     3
 72
    38
 73
    34
 74
    32
 42
0.0000000001
 43
0.0000000001
 44
0.0000000001
 40
0.0
 40
0.0
 40
0.0
 40
0.0
 40
0.2582400211805002
 40
0.3393418442955554
 40
0.4435521728008896
 40
0.5303942832067533
 40
0.6036667919818272
 40
0.7009894053151237
 40
0.7507174249931837
 40
0.806724228150324
 40
0.889267716688384
 40
0.9827715778107362
 40
1.043426616793042
 40
1.109318337455138
 40
1.182564491755783
 40
1.293719242428879
 40
1.399327847180654
 40
1.448424760475759
 40
1.504413222194255
 40
1.570741059842355
 40
1.617957956886744
 40
1.657539314700462
 40
1.714052551848289
 40
1.776150918813074
 40
1.838248940024223
 40
1.892584795022357
 40
2.017023561310876
 40
2.066120474606035
 40
2.164314359516025
 40
2.251113385583377
 40
2.417283613623126
 40
2.622320469313003
 40
2.918423525691239
 40
2.918423525691239
 40
2.918423525691239
 40
2.918423525691239
 10
487.746105901103
 20
300.7686092974024
 30
0.0
 10
487.6598471255921
 20
300.7710626734192
 30
0.0
 10
487.5464982657418
 20
300.7742865468472
 30
0.0
 10
487.3996864739675
 20
300.7493197472356
 30
0.0
 10
487.3171455433004
 20
300.7104064151931
 30
0.0
 10
487.2326608261847
 20
300.6841675298112
 30
0.0
 10
487.1584910905079
 20
300.6402558513693
 30
0.0
 10
487.0859713427184
 20
300.6210341234372
 30
0.0
 10
487.0323257003507
 20
300.5787170508225
 30
0.0
 10
486.9727954380551
 20
300.5555249271707
 30
0.0
 10
486.9212646201308
 20
300.495501159131
 30
0.0
 10
486.8648381764633
 20
300.4401999098352
 30
0.0
 10
486.8019521562256
 20
300.4019866627154
 30
0.0
 10
486.7493373129441
 20
300.3605177975296
 30
0.0
 10
486.6981970665155
 20
300.2935343606649
 30
0.0
 10
486.6627095617388
 20
300.2013101615615
 30
0.0
 10
486.5832678746436
 20
300.1487459334394
 30
0.0
 10
486.5650556823874
 20
300.0778733151396
 30
0.0
 10
486.5201856851863
 20
300.0394477568408
 30
0.0
 10
486.4970658205907
 20
299.9863906964677
 30
0.0
 10
486.4853474052137
 20
299.9368414821688
 30
0.0
 10
486.4726102783328
 20
299.8907439570063
 30
0.0
 10
486.4465743371241
 20
299.8435060594033
 30
0.0
 10
486.4474229635117
 20
299.7818774386822
 30
0.0
 10
486.4395983891751
 20
299.7230588458236
 30
0.0
 10
486.4328450135454
 20
299.643273635714
 30
0.0
 10
486.4209690934061
 20
299.5661191972528
 30
0.0
 10
486.4458784099339
 20
299.4784006253642
 30
0.0
 10
486.4581080312167
 20
299.4012018765416
 30
0.0
 10
486.5017161319623
 20
299.2916624629195
 30
0.0
 10
486.5828474863895
 20
299.1622180108968
 30
0.0
 10
486.745333728791
 20
298.9987419555487
 30
0.0
 10
486.9140283026801
 20
298.9670458704091
 30
0.0
 10
487.0137030197006
 20
298.9483179514007
 30
0.0
 11
487.746105901103
 21
300.7686092974024
 31
0.0
 11
487.4879259298266
 21
300.7630405478987
 31
0.0
 11
487.4083185038214
 21
300.7475433404914
 31
0.0
 11
487.3109493475879
 21
300.7104079129113
 31
0.0
 11
487.2298081031529
 21
300.6794619827864
 31
0.0
 11
487.1641284174224
 21
300.6469806123639
 31
0.0
 11
487.0744897881008
 21
300.6090780108784
 31
0.0
 11
487.03276850692
 21
300.582018619944
 31
0.0
 11
486.9833166988279
 21
300.555726402915
 31
0.0
 11
486.9230668294441
 21
300.4993049465419
 31
0.0
 11
486.8543195751735
 21
300.435926818808
 31
0.0
 11
486.8041008749464
 21
300.4019104124512
 31
0.0
 11
486.7531159241051
 21
300.3601701005269
 31
0.0
 11
486.7083270402248
 21
300.3022136082194
 31
0.0
 11
486.6519737419589
 21
300.2064029388149
 31
0.0
 11
486.5816920618972
 21
300.127576148665
 31
0.0
 11
486.5616296552641
 21
300.0827653605087
 31
0.0
 11
486.5261056899263
 21
300.03949001265
 31
0.0
 11
486.4967783647504
 21
299.9799980800449
 31
0.0
 11
486.4844458776676
 21
299.9344201782847
 31
0.0
 11
486.4728808559211
 21
299.8965660614891
 31
0.0
 11
486.4520515913128
 21
299.8440314280669
 31
0.0
 11
486.445916351753
 21
299.7822368812586
 31
0.0
 11
486.4397811463531
 21
299.7204426785124
 31
0.0
 11
486.4344128330882
 21
299.666372665094
 31
0.0
 11
486.4298729150402
 21
299.5420167416343
 31
0.0
 11
486.4407324794137
 21
299.4941358816093
 31
0.0
 11
486.4624528570429
 21
299.3983743850182
 31
0.0
 11
486.4934369043326
 21
299.3172938094172
 31
0.0
 11
486.580898436614
 21
299.1760032398177
 31
0.0
 11
486.7309719836065
 21
299.0362962511438
 31
0.0
 11
487.0137030197006
 21
298.9483179514007
 31
0.0
  0
SPLINE
  5
45D
102
{ACAD_REACTORS
330
463
102
}
330
18
100
AcDbEntity
  8
ROGO
 62
     4
100
AcDbSpline
210
0.0
220
0.0
230
1.0
 70
     8
 71
     3
 72
    25
 73
    21
 74
     0
 42
0.0000000001
 43
0.0000000001
 40
0.0
 40
0.0
 40
0.0
 40
0.0
 40
0.4087168505087288
 40
0.6887487002771746
 40
0.9415836120477687
 40
1.17452070575514
 40
1.41154617586699
 40
1.599156012919487
 40
1.80099909059943
 40
2.178735911501585
 40
2.521686161369157
 40
2.762704659361267
 40
3.06256558063785
 40
3.222432137207705
 40
3.399493810628493
 40
3.567459719866414
 40
3.743172740007509
 40
3.995988754699505
 40
4.17170091132118
 40
4.337226830236035
 40
4.337226830236035
 40
4.337226830236035
 40
4.337226830236035
 10
488.8129375879181
 20
300.6626894661756
 30
0.0
 10
488.8826847293132
 20
300.653494422321
 30
0.0
 10
489.0002190392499
 20
300.6379994054262
 30
0.0
 10
489.1169866399976
 20
300.5264849101438
 30
0.0
 10
489.2057060323748
 20
300.4348340505788
 30
0.0
 10
489.2646148168341
 20
300.3288327391637
 30
0.0
 10
489.3158274162753
 20
300.23166315747
 30
0.0
 10
489.3459798471674
 20
300.1314489533282
 30
0.0
 10
489.3885251976149
 20
300.0105691211075
 30
0.0
 10
489.3955406064262
 20
299.8538045522624
 30
0.0
 10
489.3645749251195
 20
299.6955682366809
 30
0.0
 10
489.3110965473676
 20
299.5578906880936
 30
0.0
 10
489.258962724854
 20
299.4533704068282
 30
0.0
 10
489.2008391533685
 20
299.3636436880699
 30
0.0
 10
489.136661866804
 20
299.3081808661894
 30
0.0
 10
489.0886260520452
 20
299.2343279472529
 30
0.0
 10
489.0048807502809
 20
299.1783338749246
 30
0.0
 10
488.9343165604246
 20
299.1059919173595
 30
0.0
 10
488.8563977615876
 20
299.0456229100838
 30
0.0
 10
488.8121106922848
 20
299.0079998813474
 30
0.0
 10
488.7892025711997
 20
298.9926068001368
 30
0.0
  0
LINE
  5
45E
102
{ACAD_REACTORS
330
463
102
}
330
18
100
AcDbEntity
  8
ROGO
 62
     4
100
AcDbLine
 10
487.746105901103
 20
300.7686092974025
 30
0.0
 11
488.8129375879181
 21
300.6626894661756
 31
0.0
  0
LINE
  5
45F
102
{ACAD_REACTORS
330
463
102
}
330
18
100
AcDbEntity
  8
ROGO
 62
     4
100
AcDbLine
 10
487.0137030197006
 20
298.9483179514008
 30
0.0
 11
488.0805347065156
 21
298.8423981201739
 31
0.0
  0
SPLINE
  5
460
102
{ACAD_REACTORS
330
463
102
}
330
18
100
AcDbEntity
  8
ROGO
 62
     4
100
AcDbSpline
210
0.0
220
0.0
230
1.0
 70
     8
 71
     3
 72
    11
 73
     7
 74
     0
 42
0.0000000001
 43
0.0000000001
 40
0.1647869275458134
 40
0.1647869275458134
 40
0.1647869275458134
 40
0.1647869275458134
 40
0.2895635144633836
 40
0.5387013147903714
 40
0.7953622617455423
 40
0.8850764140209602
 40
0.8850764140209602
 40
0.8850764140209602
 40
0.8850764140209602
 10
488.4400871467722
 20
298.8487292681701
 30
0.0
 10
488.4196663309158
 20
298.8451709340843
 30
0.0
 10
488.3570757596825
 20
298.841439992097
 30
0.0
 10
488.252385907816
 20
298.838178122394
 30
0.0
 10
488.1527584628059
 20
298.8338191023057
 30
0.0
 10
488.0953928876045
 20
298.8406332078017
 30
0.0
 10
488.0805347065157
 20
298.8423981201739
 30
0.0
  0
SPLINE
  5
461
102
{ACAD_REACTORS
330
463
102
}
330
18
100
AcDbEntity
  8
ROGO
 62
     4
100
AcDbSpline
210
0.0
220
0.0
230
1.0
 70
     8
 71
     3
 72
     9
 73
     5
 74
     3
 42
0.0000000001
 43
0.0000000001
 44
0.0000000001
 40
0.0
 40
0.0
 40
0.0
 40
0.0
 40
0.1622561919360078
 40
0.3804197703110319
 40
0.3804197703110319
 40
0.3804197703110319
 40
0.3804197703110319
 10
488.4400871467722
 20
298.8487292681701
 30
0.0
 10
488.4935289871553
 20
298.8594479237097
 30
0.0
 10
488.6188267178677
 20
298.8845784806999
 30
0.0
 10
488.72710628016
 20
298.9532340965928
 30
0.0
 10
488.7892025711997
 20
298.9926068001368
 30
0.0
 11
488.4400871467722
 21
298.8487292681701
 31
0.0
 11
488.5973167515737
 21
298.888803239717
 31
0.0
 11
488.7892025711997
 21
298.9926068001368
 31
0.0
  0
ELLIPSE
  5
462
102
{ACAD_REACTORS
330
463
102
}
330
18
100
AcDbEntity
  8
ROGO
 62
     4
100
AcDbEllipse
 10
487.8956189443627
 20
299.7808678805709
 30
0.0
 11
0.2755743065094436
 21
0.1977110549554425
 31
0.0
210
0.0
220
0.0
230
0.9999999999999998
 40
0.6788083417438794
 41
0.0
 42
6.283185307179586
  0
HATCH
  5
463
330
18
100
AcDbEntity
  8
ROGO
 62
     4
100
AcDbHatch
 10
0.0
 20
0.0
 30
0.0
210
0.0
220
0.0
230
1.0
  2
SOLID
 70
     1
 71
     1
 91
        2
 92
        5
 93
        6
 72
     4
 94
        3
 73
     0
 74
     0
 95
       38
 96
       34
 40
0.0
 40
0.0
 40
0.0
 40
0.0
 40
0.2582400211805002
 40
0.3393418442955554
 40
0.4435521728008896
 40
0.5303942832067533
 40
0.6036667919818272
 40
0.7009894053151237
 40
0.7507174249931837
 40
0.806724228150324
 40
0.889267716688384
 40
0.9827715778107362
 40
1.043426616793042
 40
1.109318337455138
 40
1.182564491755783
 40
1.293719242428879
 40
1.399327847180654
 40
1.448424760475759
 40
1.504413222194255
 40
1.570741059842355
 40
1.617957956886744
 40
1.657539314700462
 40
1.714052551848289
 40
1.776150918813074
 40
1.838248940024223
 40
1.892584795022357
 40
2.017023561310876
 40
2.066120474606035
 40
2.164314359516025
 40
2.251113385583377
 40
2.417283613623126
 40
2.622320469313003
 40
2.918423525691239
 40
2.918423525691239
 40
2.918423525691239
 40
2.918423525691239
 10
487.746105901103
 20
300.7686092974024
 10
487.659847125592
 20
300.7710626734193
 10
487.5464982657416
 20
300.7742865468472
 10
487.3996864739676
 20
300.7493197472356
 10
487.3171455433003
 20
300.7104064151931
 10
487.2326608261848
 20
300.6841675298112
 10
487.1584910905079
 20
300.6402558513693
 10
487.0859713427184
 20
300.6210341234372
 10
487.0323257003507
 20
300.5787170508225
 10
486.9727954380552
 20
300.5555249271707
 10
486.9212646201308
 20
300.495501159131
 10
486.8648381764634
 20
300.4401999098353
 10
486.8019521562256
 20
300.4019866627154
 10
486.749337312944
 20
300.3605177975296
 10
486.6981970665158
 20
300.293534360665
 10
486.6627095617385
 20
300.2013101615614
 10
486.5832678746437
 20
300.1487459334395
 10
486.5650556823873
 20
300.0778733151395
 10
486.5201856851862
 20
300.0394477568408
 10
486.4970658205908
 20
299.9863906964677
 10
486.4853474052137
 20
299.9368414821688
 10
486.4726102783328
 20
299.8907439570063
 10
486.446574337124
 20
299.8435060594033
 10
486.4474229635117
 20
299.7818774386822
 10
486.439598389175
 20
299.7230588458237
 10
486.4328450135455
 20
299.643273635714
 10
486.4209690934061
 20
299.5661191972526
 10
486.4458784099339
 20
299.4784006253643
 10
486.4581080312168
 20
299.4012018765416
 10
486.5017161319624
 20
299.2916624629195
 10
486.5828474863894
 20
299.1622180108968
 10
486.745333728791
 20
298.9987419555488
 10
486.9140283026801
 20
298.9670458704091
 10
487.0137030197006
 20
298.9483179514007
 72
     1
 10
487.0137030197004
 20
298.9483179514008
 11
488.080534706514
 21
298.842398120174
 72
     4
 94
        3
 73
     0
 74
     0
 95
       11
 96
        7
 40
0.1647869275458135
 40
0.1647869275458135
 40
0.1647869275458135
 40
0.1647869275458135
 40
0.2545010798212315
 40
0.5111620267764023
 40
0.7602998271033902
 40
0.8850764140209603
 40
0.8850764140209603
 40
0.8850764140209603
 40
0.8850764140209603
 10
488.0805347065157
 20
298.8423981201739
 10
488.0953928876045
 20
298.8406332078017
 10
488.1527584628059
 20
298.8338191023057
 10
488.252385907816
 20
298.838178122394
 10
488.3570757596825
 20
298.841439992097
 10
488.4196663309158
 20
298.8451709340843
 10
488.4400871467722
 20
298.8487292681701
 72
     4
 94
        3
 73
     0
 74
     0
 95
        9
 96
        5
 40
0.0
 40
0.0
 40
0.0
 40
0.0
 40
0.1622561919360078
 40
0.3804197703110319
 40
0.3804197703110319
 40
0.3804197703110319
 40
0.3804197703110319
 10
488.4400871467722
 20
298.8487292681701
 10
488.4935289871553
 20
298.8594479237097
 10
488.6188267178677
 20
298.8845784806999
 10
488.72710628016
 20
298.9532340965928
 10
488.7892025711997
 20
298.9926068001368
 72
     4
 94
        3
 73
     0
 74
     0
 95
       25
 96
       21
 40
0.0
 40
0.0
 40
0.0
 40
0.0
 40
0.165525918914855
 40
0.3412380755365305
 40
0.5940540902285263
 40
0.7697671103696209
 40
0.9377330196075423
 40
1.11479469302833
 40
1.274661249598185
 40
1.574522170874768
 40
1.815540668866877
 40
2.15849091873445
 40
2.536227739636605
 40
2.738070817316548
 40
2.925680654369045
 40
3.162706124480894
 40
3.395643218188267
 40
3.648478129958861
 40
3.928509979727306
 40
4.337226830236035
 40
4.337226830236035
 40
4.337226830236035
 40
4.337226830236035
 10
488.7892025711997
 20
298.9926068001368
 10
488.8121106922848
 20
299.0079998813474
 10
488.8563977615876
 20
299.0456229100838
 10
488.9343165604246
 20
299.1059919173595
 10
489.0048807502809
 20
299.1783338749246
 10
489.0886260520452
 20
299.2343279472529
 10
489.136661866804
 20
299.3081808661894
 10
489.2008391533685
 20
299.3636436880699
 10
489.258962724854
 20
299.4533704068282
 10
489.3110965473676
 20
299.5578906880936
 10
489.3645749251195
 20
299.6955682366809
 10
489.3955406064262
 20
299.8538045522624
 10
489.3885251976149
 20
300.0105691211075
 10
489.3459798471674
 20
300.1314489533282
 10
489.3158274162753
 20
300.23166315747
 10
489.2646148168341
 20
300.3288327391637
 10
489.2057060323748
 20
300.4348340505788
 10
489.1169866399976
 20
300.5264849101438
 10
489.0002190392499
 20
300.6379994054262
 10
488.8826847293132
 20
300.653494422321
 10
488.8129375879181
 20
300.6626894661756
 72
     1
 10
488.8129375879181
 20
300.6626894661756
 11
487.7461059011031
 21
300.7686092974025
 97
        6
330
45D
330
45E
330
45C
330
45F
330
460
330
461
 92
       20
 93
        1
 72
     3
 10
487.8956189443627
 20
299.7808678805709
 11
0.2755743065094438
 21
0.1977110549554426
 40
0.6788083417438794
 50
0.0
 51
360.0
 73
     1
 97
        1
330
462
 75
     0
 76
     1
 47
0.088756267210375
 98
        2
 10
488.0144002236109
 20
300.219115553317
 10
488.0144002236109
 20
300.219115553317
450
        0
451
        0
460
0.0
461
0.0
452
        0
462
0.0
453
        0
470

  0
CIRCLE
  5
464
330
18
100
AcDbEntity
  8
外形線
100
AcDbCircle
 10
393.8312841647253
 20
309.3694399396294
 30
0.0
 40
10.0
  0
CIRCLE
  5
465
330
18
100
AcDbEntity
  8
外形線
100
AcDbCircle
 10
393.8312841647253
 20
309.3694399396294
 30
0.0
 40
9.0
  0
CIRCLE
  5
468
330
18
100
AcDbEntity
  8
隠れ線
 62
     1
 48
0.5
100
AcDbCircle
 10
418.3375848508346
 20
304.4240530303978
 30
0.0
 40
1.274999999999999
  0
CIRCLE
  5
469
330
18
100
AcDbEntity
  8
隠れ線
 62
     1
 48
0.5
100
AcDbCircle
 10
418.6041295235354
 20
306.0054558688469
 30
0.0
 40
3.1
  0
LINE
  5
494
330
18
100
AcDbEntity
  8
中心線
100
AcDbLine
 10
379.2632426851508
 20
309.3694399396294
 30
0.0
 11
410.1724108788132
 21
309.3694399396294
 31
0.0
  0
LINE
  5
495
330
18
100
AcDbEntity
  8
中心線
 48
0.5
100
AcDbLine
 10
393.8312841647253
 20
324.1600769969419
 30
0.0
 11
393.8312841647253
 21
213.1804732867654
 31
0.0
  0
ARC
  5
49A
330
18
100
AcDbEntity
  8
寸法線
100
AcDbCircle
 10
393.8312841647253
 20
309.3694399396294
 30
0.0
 40
80.0
100
AcDbArc
 50
238.8472503041755
 51
302.5015537861345
  0
ARC
  5
49D
330
18
100
AcDbEntity
  8
外形線
100
AcDbCircle
 10
395.0812841647253
 20
229.3694399396295
 30
0.0
 40
1.25
100
AcDbArc
 50
90.00000000000261
 51
270.0
  0
LINE
  5
4A0
330
18
100
AcDbEntity
  8
外形線
100
AcDbLine
 10
395.0812841647253
 20
230.6194399396294
 30
0.0
 11
396.3855118540763
 21
230.6194399396294
 31
0.0
  0
LINE
  5
4A1
330
18
100
AcDbEntity
  8
外形線
100
AcDbLine
 10
395.0812841647253
 20
228.1194399396294
 30
0.0
 11
396.335272491796
 21
228.1194399396294
 31
0.0
  0
ARC
  5
4A2
330
18
100
AcDbEntity
  8
外形線
100
AcDbCircle
 10
392.5812841647253
 20
229.3694399396295
 30
0.0
 40
1.25
100
AcDbArc
 50
270.0
 51
89.99999999999738
  0
LINE
  5
4A3
330
18
100
AcDbEntity
  8
外形線
100
AcDbLine
 10
392.5812841647253
 20
228.1194399396294
 30
0.0
 11
391.3221091209368
 21
228.1194399396294
 31
0.0
  0
LINE
  5
4A4
330
18
100
AcDbEntity
  8
外形線
100
AcDbLine
 10
392.5812841647253
 20
230.6194399396294
 30
0.0
 11
391.2576489976978
 21
230.6194399396294
 31
0.0
  0
LINE
  5
4A5
330
18
100
AcDbEntity
  8
中心線
 48
0.5
100
AcDbLine
 10
370.6628633497762
 20
293.6643744878933
 30
0.0
 11
415.2581344937945
 21
296.6203869302897
 31
0.0
  0
LINE
  5
4EA
330
18
100
AcDbEntity
  8
外形線
100
AcDbLine
 10
410.320762739465
 20
280.8439290383303
 30
0.0
 11
410.7968509430162
 21
281.7359113322789
 31
0.0
  0
LINE
  5
4EB
330
18
100
AcDbEntity
  8
外形線
100
AcDbLine
 10
379.9510585183689
 20
277.2944463425253
 30
0.0
 11
378.9896501310809
 21
279.137236767722
 31
0.0
  0
LINE
  5
4EF
330
18
100
AcDbEntity
  8
外形線
100
AcDbLine
 10
388.5550969490126
 20
297.9059014630152
 30
0.0
 11
389.6192624376245
 21
297.6004606733366
 31
0.0
  0
LINE
  5
4F0
330
18
100
AcDbEntity
  8
外形線
100
AcDbLine
 10
376.0729508322514
 20
295.7768242572119
 30
0.0
 11
409.5374705647956
 21
297.9950311246789
 31
0.0
  0
LINE
  5
4F1
330
18
100
AcDbEntity
  8
外形線
100
AcDbLine
 10
376.3044415030805
 20
292.2844880664479
 30
0.0
 11
409.7689612356248
 21
294.5026949339151
 31
0.0
  0
LINE
  5
4F3
330
18
100
AcDbEntity
  8
中心線
 48
0.5
100
AcDbLine
 10
412.471528323502
 20
299.0891741524358
 30
0.0
 11
412.8228194914472
 21
293.7894925068793
 31
0.0
  0
LINE
  5
4F4
330
18
100
AcDbEntity
  8
中心線
 48
0.5
100
AcDbLine
 10
373.0238118699533
 20
296.4188300372713
 30
0.0
 11
373.3679658820722
 21
291.2268216188937
 31
0.0
  0
LINE
  5
4F7
330
18
100
AcDbEntity
  8
外形線
100
AcDbLine
 10
409.5374705647956
 20
297.9950311246789
 30
0.0
 11
409.7689612356248
 21
294.5026949339151
 31
0.0
  0
LINE
  5
4F8
330
18
100
AcDbEntity
  8
外形線
100
AcDbLine
 10
376.0729508322514
 20
295.7768242572119
 30
0.0
 11
376.3044415030805
 21
292.2844880664479
 31
0.0
  0
LINE
  5
4F9
330
18
100
AcDbEntity
  8
想像線
 48
0.5
100
AcDbLine
 10
376.092792889751
 20
295.4774811551465
 30
0.0
 11
409.5573126222952
 21
297.6956880226135
 31
0.0
  0
LINE
  5
4FA
330
18
100
AcDbEntity
  8
想像線
 48
0.5
100
AcDbLine
 10
376.2845994455809
 20
292.5838311685134
 30
0.0
 11
409.7491191781251
 21
294.8020380359805
 31
0.0
  0
ARC
  5
4FB
330
18
100
AcDbEntity
  8
外形線
100
AcDbCircle
 10
393.8312841647253
 20
309.3694399396294
 30
0.0
 40
12.5
100
AcDbArc
 50
281.4572490338441
 51
287.9705433945347
  0
LINE
  5
4FF
330
18
100
AcDbEntity
  8
外形線
100
AcDbLine
 10
399.5522360626284
 20
339.5027746553195
 30
0.0
 11
377.0381863112433
 21
368.4963531389787
 31
0.0
  0
LINE
  5
500
330
18
100
AcDbEntity
  8
外形線
100
AcDbLine
 10
399.5522360626284
 20
339.5027746553195
 30
0.0
 11
406.9930983063521
 21
345.280741760788
 31
0.0
  0
CIRCLE
  5
501
330
18
100
AcDbEntity
  8
外形線
100
AcDbCircle
 10
384.9739407545155
 20
366.4290356945382
 30
0.0
 40
3.5
  0
CIRCLE
  5
502
330
18
100
AcDbEntity
  8
外形線
100
AcDbCircle
 10
399.6936374060782
 20
347.4730200138639
 30
0.0
 40
3.5
  0
LINE
  5
50B
330
18
100
AcDbEntity
  8
中心線
100
AcDbLine
 10
387.9741317955217
 20
362.5653916423155
 30
0.0
 11
382.2220735734374
 21
369.9728884430328
 31
0.0
  0
LINE
  5
50C
330
18
100
AcDbEntity
  8
中心線
100
AcDbLine
 10
380.4195944800517
 20
362.8925016076506
 30
0.0
 11
390.0636906992359
 21
370.3813206303949
 31
0.0
  0
LINE
  5
50D
330
18
100
AcDbEntity
  8
中心線
100
AcDbLine
 10
394.973415803414
 20
343.8076806677795
 30
0.0
 11
404.626517659528
 21
351.3034927341039
 31
0.0
  0
LINE
  5
50E
330
18
100
AcDbEntity
  8
中心線
100
AcDbLine
 10
402.7838199377248
 20
343.4934849790965
 30
0.0
 11
396.2740179394742
 21
351.8768037171106
 31
0.0
  0
LINE
  5
517
330
18
100
AcDbEntity
  8
外形線
100
AcDbLine
 10
384.95984100658
 20
364.2835118192198
 30
0.0
 11
384.9867326592638
 21
368.3755482970107
 31
0.0
  0
LINE
  5
518
330
18
100
AcDbEntity
  8
外形線
100
AcDbLine
 10
399.6975092589127
 20
345.3274533028971
 30
0.0
 11
399.6901246927387
 21
349.4195714787001
 31
0.0
  0
LINE
  5
519
330
18
100
AcDbEntity
  8
外形線
100
AcDbLine
 10
397.3896181911456
 20
347.4688622203625
 30
0.0
 11
401.909563472854
 21
347.4770188359834
 31
0.0
  0
LINE
  5
694
330
18
100
AcDbEntity
  8
中心線
 48
0.5
100
AcDbLine
 10
382.4190297847963
 20
351.7828483725378
 30
0.0
 11
462.784724458586
 21
414.1882961585031
 31
0.0
  0
LINE
  5
773
330
18
100
AcDbEntity
  8
外形線
  6
Continuous
100
AcDbLine
 10
386.3516450211504
 20
390.2870844747775
 30
0.0
 11
388.4982674495034
 21
387.5226655213458
 31
0.0
  0
LINE
  5
774
330
18
100
AcDbEntity
  8
外形線
  6
Continuous
100
AcDbLine
 10
380.5068735196091
 20
385.7485113405455
 30
0.0
 11
382.6534959479619
 21
382.9840923871138
 31
0.0
  0
LINE
  5
775
330
18
100
AcDbEntity
  8
外形線
  6
Continuous
100
AcDbLine
 10
389.2183912852989
 20
388.7148994166526
 30
0.0
 11
419.8844259760545
 21
349.2232000819143
 31
0.0
  0
LINE
  5
776
330
18
100
AcDbEntity
  8
外形線
  6
Continuous
100
AcDbLine
 10
389.5444932939997
 20
390.740648038748
 30
0.0
 11
421.9278259274378
 21
349.0374135412642
 31
0.0
  0
LINE
  5
777
330
18
100
AcDbEntity
  8
外形線
  6
Continuous
100
AcDbLine
 10
392.5458624434399
 20
393.0712666752455
 30
0.0
 11
424.9291950768777
 21
351.3680321777618
 31
0.0
  0
LINE
  5
778
330
18
100
AcDbEntity
  8
外形線
  6
Continuous
100
AcDbLine
 10
394.3523121988148
 20
392.7014839264507
 30
0.0
 11
425.0183468895704
 21
353.2097845917125
 31
0.0
  0
ARC
  5
779
330
18
100
AcDbEntity
  8
外形線
  6
Continuous
100
AcDbCircle
 10
328.5957069101968
 20
309.9880430273969
 30
0.0
 40
105.6666666666664
100
AcDbArc
 50
24.14445317473808
 51
51.51554682526193
  0
LINE
  5
77A
330
18
100
AcDbEntity
  8
外形線
100
AcDbLine
 10
389.5250516322063
 20
388.3199824233054
 30
0.0
 11
379.9680603931999
 21
380.8988020281425
 31
0.0
  0
LINE
  5
77B
330
18
100
AcDbEntity
  8
外形線
  6
CENTER2
100
AcDbLine
 10
389.2183912852989
 20
388.7148994166526
 30
0.0
 11
390.403142265341
 21
389.6348804573752
 31
0.0
  0
LINE
  5
77C
330
18
100
AcDbEntity
  8
外形線
  6
Continuous
100
AcDbLine
 10
395.6124659125154
 20
389.1220967417715
 30
0.0
 11
392.6110967630754
 21
386.7914781052741
 31
0.0
  0
LINE
  5
77D
330
18
100
AcDbEntity
  8
外形線
  6
Continuous
100
AcDbLine
 10
392.5458624434399
 20
393.0712666752455
 30
0.0
 11
389.5444932939997
 21
390.740648038748
 31
0.0
  0
LINE
  5
77E
330
18
100
AcDbEntity
  8
外形線
  6
Continuous
100
AcDbLine
 10
393.1591831372549
 20
392.2814326885506
 30
0.0
 11
390.157813987815
 21
389.9508140520531
 31
0.0
  0
LINE
  5
77F
330
18
100
AcDbEntity
  8
外形線
  6
Continuous
100
AcDbLine
 10
393.7725038310702
 20
391.4915987018559
 30
0.0
 11
390.77113468163
 21
389.1609800653585
 31
0.0
  0
LINE
  5
780
330
18
100
AcDbEntity
  8
外形線
  6
Continuous
100
AcDbLine
 10
394.3858245248854
 20
390.701764715161
 30
0.0
 11
391.3844553754452
 21
388.3711460786636
 31
0.0
  0
LINE
  5
781
330
18
100
AcDbEntity
  8
外形線
  6
Continuous
100
AcDbLine
 10
394.9991452187004
 20
389.9119307284664
 30
0.0
 11
391.9977760692601
 21
387.581312091969
 31
0.0
  0
LINE
  5
782
330
18
100
AcDbEntity
  8
外形線
  6
Continuous
100
AcDbLine
 10
393.0978510678734
 20
392.3604160872201
 30
0.0
 11
394.3523121988148
 21
392.7014839264507
 31
0.0
  0
LINE
  5
783
330
18
100
AcDbEntity
  8
外形線
  6
Continuous
100
AcDbLine
 10
376.58999916071
 20
390.3035190525693
 30
0.0
 11
380.2699233236007
 21
385.5645151324009
 31
0.0
  0
LINE
  5
784
330
18
100
AcDbEntity
  8
外形線
  6
Continuous
100
AcDbLine
 10
380.2699233236007
 20
385.5645151324009
 30
0.0
 11
386.5885952171587
 21
390.4710806829219
 31
0.0
  0
LINE
  5
785
330
18
100
AcDbEntity
  8
外形線
  6
Continuous
100
AcDbLine
 10
378.6851363484615
 20
400.160009308462
 30
0.0
 11
382.6717208582599
 21
395.0260883949459
 31
0.0
  0
LINE
  5
786
330
18
100
AcDbEntity
  8
外形線
  6
Continuous
100
AcDbLine
 10
372.8403648469201
 20
395.6214361742301
 30
0.0
 11
376.8269493567185
 21
390.487515260714
 31
0.0
  0
HATCH
  5
787
330
18
100
AcDbEntity
  8
ﾊｯﾁﾝｸ
  6
Continuous
100
AcDbHatch
 10
0.0
 20
0.0
 30
0.0
210
0.0
220
0.0
230
1.0
  2
ANSI37
 70
     0
 71
     0
 91
        1
 92
        7
 72
     0
 73
     1
 93
        4
 10
379.7493351074889
 20
392.7568018278301
 10
382.9086710542682
 20
395.2100846030904
 10
386.5885952171587
 20
390.4710806829219
 10
383.4292592703799
 20
388.0177979076613
 97
        0
 75
     0
 76
     1
 52
-37.83000000000003
 41
10.0
 77
     0
 78
     2
 53
172.8300000000001
 43
626.9087101171236
 44
388.2862688684207
 45
0.1560171829559623
 46
1.240225237052724
 79
     0
 53
82.83000000000004
 43
626.9087101171236
 44
388.2862688684207
 45
1.240225237052724
 46
-0.1560171829559623
 79
     0
 47
0.1856754751158765
 98
        1
 10
382.4930518392426
 20
392.0716253029162
  0
LINE
  5
788
330
18
100
AcDbEntity
  8
外形線
  6
Continuous
100
AcDbLine
 10
382.9086710542682
 20
395.2100846030904
 30
0.0
 11
386.5885952171587
 21
390.4710806829219
 31
0.0
  0
LINE
  5
789
330
18
100
AcDbEntity
  8
外形線
  6
Continuous
100
AcDbLine
 10
376.58999916071
 20
390.3035190525693
 30
0.0
 11
382.9086710542682
 21
395.2100846030904
 31
0.0
  0
ARC
  5
78A
330
18
100
AcDbEntity
  8
外形線
  6
Continuous
100
AcDbCircle
 10
379.6542703999474
 20
392.8792260957678
 30
0.0
 40
7.344999999999885
100
AcDbArc
 50
97.5819853833782
 51
158.0780146166212
  0
LINE
  5
78B
330
18
100
AcDbEntity
  8
外形線
  6
Continuous
100
AcDbLine
 10
372.8403648469201
 20
395.6214361742301
 30
0.0
 11
378.6851363484615
 21
400.160009308462
 31
0.0
  0
LINE
  5
78C
330
18
100
AcDbEntity
  8
外形線
  6
Continuous
100
AcDbLine
 10
380.4931244405749
 20
379.4073907011929
 30
0.0
 11
408.7058763560702
 21
343.0750273132336
 31
0.0
  0
LINE
  5
78D
330
18
100
AcDbEntity
  8
外形線
  6
Continuous
100
AcDbLine
 10
379.9680603931999
 20
380.8988020281425
 30
0.0
 11
410.0207743901401
 21
342.196936680099
 31
0.0
  0
POINT
  5
78E
330
18
100
AcDbEntity
  8
DEFPOINTS
  6
ByBlock
 62
     0
100
AcDbPoint
 10
380.4931244405749
 20
379.4073907011929
 30
0.0
  0
LINE
  5
78F
330
18
100
AcDbEntity
  8
外形線
100
AcDbLine
 10
380.8880414339224
 20
379.7140510481002
 30
0.0
 11
380.4931244405749
 21
379.4073907011929
 31
0.0
  0
LINE
  5
790
330
18
100
AcDbEntity
  8
外形線
  6
Continuous
100
AcDbLine
 10
404.5095182230884
 20
371.4686987633957
 30
0.0
 11
407.5108873725286
 21
373.799317399893
 31
0.0
  0
LINE
  5
791
330
18
100
AcDbEntity
  8
外形線
  6
Continuous
100
AcDbLine
 10
405.1228389169035
 20
370.6788647767009
 30
0.0
 11
408.1242080663438
 21
373.0094834131983
 31
0.0
  0
LINE
  5
792
330
18
100
AcDbEntity
  8
外形線
  6
Continuous
100
AcDbLine
 10
405.7361596107187
 20
369.8890307900061
 30
0.0
 11
408.7375287601588
 21
372.2196494265036
 31
0.0
  0
LINE
  5
793
330
18
100
AcDbEntity
  8
外形線
  6
Continuous
100
AcDbLine
 10
406.3494803045339
 20
369.0991968033114
 30
0.0
 11
409.3508494539738
 21
371.4298154398088
 31
0.0
  0
LINE
  5
794
330
18
100
AcDbEntity
  8
外形線
  6
Continuous
100
AcDbLine
 10
406.9628009983489
 20
368.3093628166167
 30
0.0
 11
409.964170147789
 21
370.6399814531141
 31
0.0
  0
LINE
  5
795
330
18
100
AcDbEntity
  8
外形線
  6
Continuous
100
AcDbLine
 10
403.8961975292734
 20
372.2585327500905
 30
0.0
 11
406.8975666787135
 21
374.5891513865879
 31
0.0
  0
LINE
  5
796
330
18
100
AcDbEntity
  8
外形線
100
AcDbLine
 10
419.5777656291469
 20
349.6181170752616
 30
0.0
 11
410.0207743901401
 21
342.196936680099
 31
0.0
  0
LINE
  5
797
330
18
100
AcDbEntity
  8
外形線
  6
Continuous
100
AcDbLine
 10
422.4759123016172
 20
354.5273681245407
 30
0.0
 11
419.4745431521772
 21
352.1967494880434
 31
0.0
  0
LINE
  5
798
102
{ACAD_REACTORS
330
10EC
102
}
330
18
100
AcDbEntity
  8
想像線
 48
0.6
100
AcDbLine
 10
423.6535287280166
 20
349.0924400863979
 30
0.0
 11
446.3463943991759
 21
319.8685825786915
 31
0.0
  0
LINE
  5
79A
330
18
100
AcDbEntity
  8
外形線
  6
Continuous
100
AcDbLine
 10
424.3158743830625
 20
352.1578661644565
 30
0.0
 11
421.3145052336227
 21
349.8272475279592
 31
0.0
  0
LINE
  5
79B
330
18
100
AcDbEntity
  8
外形線
  6
Continuous
100
AcDbLine
 10
423.7025536892475
 20
352.9477001511512
 30
0.0
 11
420.7011845398075
 21
350.6170815146539
 31
0.0
  0
LINE
  5
79C
330
18
100
AcDbEntity
  8
外形線
  6
Continuous
100
AcDbLine
 10
423.0892329954325
 20
353.737534137846
 30
0.0
 11
420.0878638459922
 21
351.4069155013487
 31
0.0
  0
LINE
  5
79D
330
18
100
AcDbEntity
  8
外形線
  6
Continuous
100
AcDbLine
 10
424.9291950768777
 20
351.3680321777618
 30
0.0
 11
421.9278259274378
 21
349.0374135412642
 31
0.0
  0
LINE
  5
79E
330
18
100
AcDbEntity
  8
外形線
  6
CENTER2
100
AcDbLine
 10
419.8844259760545
 20
349.2232000819143
 30
0.0
 11
421.0691769560965
 21
350.1431811226369
 31
0.0
  0
LINE
  5
79F
330
18
100
AcDbEntity
  8
外形線
  6
Continuous
100
AcDbLine
 10
424.3772064524442
 20
352.078882765787
 30
0.0
 11
425.0183468895704
 21
353.2097845917125
 31
0.0
  0
LINE
  5
7A0
330
18
100
AcDbEntity
  8
外形線
  6
Continuous
100
AcDbLine
 10
421.8625916078023
 20
355.3172021112355
 30
0.0
 11
418.8612224583621
 21
352.9865834747381
 31
0.0
  0
LINE
  5
7A2
102
{ACAD_REACTORS
330
10EC
102
}
330
18
100
AcDbEntity
  8
中心線
100
AcDbLine
 10
403.6318708285523
 20
329.1899620531301
 30
0.0
 11
400.215362554553
 21
326.5369802109546
 31
0.0
  0
LINE
  5
7A3
330
18
100
AcDbEntity
  8
外形線
100
AcDbLine
 10
418.787931642452
 20
349.0047963814464
 30
0.0
 11
421.8545351115278
 21
345.0556264479725
 31
0.0
  0
LINE
  5
7A4
330
18
100
AcDbEntity
  8
外形線
100
AcDbLine
 10
412.4692597488937
 20
344.0982308309255
 30
0.0
 11
415.5358632179697
 21
340.1490608974519
 31
0.0
  0
LINE
  5
7A6
330
18
100
AcDbEntity
  8
外形線
100
AcDbLine
 10
417.1155311913593
 20
341.3757022850822
 30
0.0
 11
422.9420777826025
 21
333.8722794114816
 31
0.0
  0
LINE
  5
7A7
330
18
100
AcDbEntity
  8
外形線
100
AcDbLine
 10
420.2748671381385
 20
343.8289850603426
 30
0.0
 11
426.1014137293816
 21
336.3255621867418
 31
0.0
  0
LINE
  5
7A9
330
18
100
AcDbEntity
  8
外形線
100
AcDbLine
 10
409.1007933494173
 20
343.381687660141
 30
0.0
 11
408.7058763560702
 21
343.0750273132336
 31
0.0
  0
LINE
  5
7AB
330
18
100
AcDbEntity
  8
外形線
100
AcDbLine
 10
427.0492145134154
 20
337.06154701932
 30
0.0
 11
428.582516247953
 21
335.0869620525831
 31
0.0
  0
LINE
  5
7AC
330
18
100
AcDbEntity
  8
外形線
100
AcDbLine
 10
421.9942769985688
 20
333.1362945789034
 30
0.0
 11
423.5275787331065
 21
331.1617096121663
 31
0.0
  0
LINE
  5
7AD
330
18
100
AcDbEntity
  8
外形線
100
AcDbLine
 10
428.582516247953
 20
335.0869620525831
 30
0.0
 11
423.5275787331065
 21
331.1617096121663
 31
0.0
  0
ARC
  5
7AE
330
18
100
AcDbEntity
  8
外形線
100
AcDbCircle
 10
426.9712964409997
 20
331.938022309295
 30
0.0
 40
1.5
100
AcDbArc
 50
57.15236944608503
 51
198.2099281771059
  0
LINE
  5
7AF
330
18
100
AcDbEntity
  8
外形線
100
AcDbLine
 10
425.2806698889651
 20
331.2640179609744
 30
0.0
 11
426.7686300856125
 21
326.4746052148025
 31
0.0
  0
LINE
  5
7B0
330
18
100
AcDbEntity
  8
外形線
100
AcDbLine
 10
427.0098748547679
 20
331.4308125834506
 30
0.0
 11
427.3621986045331
 21
326.9330552266316
 31
0.0
  0
LINE
  5
7B2
330
18
100
AcDbEntity
  8
外形線
100
AcDbLine
 10
427.452294707305
 20
331.772521047029
 30
0.0
 11
431.7150344099527
 21
330.2950219800451
 31
0.0
  0
LINE
  5
7B3
330
18
100
AcDbEntity
  8
外形線
100
AcDbLine
 10
428.0506563105958
 20
333.4034513495103
 30
0.0
 11
432.3086029288735
 21
330.7534719918742
 31
0.0
  0
LINE
  5
7B5
330
18
100
AcDbEntity
  8
外形線
100
AcDbLine
 10
432.3086029288735
 20
330.7534719918742
 30
0.0
 11
431.7150344099527
 21
330.2950219800451
 31
0.0
  0
LINE
  5
7B6
330
18
100
AcDbEntity
  8
外形線
100
AcDbLine
 10
428.0506563105958
 20
333.4034513495103
 30
0.0
 11
425.2806698889651
 21
331.2640179609744
 31
0.0
  0
ARC
  5
7B7
330
18
100
AcDbEntity
  8
外形線
100
AcDbCircle
 10
427.3839014516458
 20
331.4038106422663
 30
0.0
 40
0.375
100
AcDbArc
 50
79.4914637073841
 51
175.8708339158068
  0
CIRCLE
  5
7BA
330
18
100
AcDbEntity
  8
外形線
100
AcDbCircle
 10
434.6121299714851
 20
322.0452136606143
 30
0.0
 40
1.25
  0
LINE
  5
7BB
330
18
100
AcDbEntity
  8
外形線
100
AcDbLine
 10
434.702955573802
 20
322.752372278337
 30
0.0
 11
434.5214401209245
 21
321.3391119918321
 31
0.0
  0
LINE
  5
7BC
330
18
100
AcDbEntity
  8
外形線
100
AcDbLine
 10
435.4101734793636
 20
321.9427150408403
 30
0.0
 11
433.9208296332596
 21
322.1340024670117
 31
0.0
  0
LINE
  5
7BE
330
18
100
AcDbEntity
  8
外形線
100
AcDbLine
 10
431.035355479169
 20
327.5009204297036
 30
0.0
 11
430.8538400262917
 21
326.0876601431987
 31
0.0
  0
LINE
  5
7BF
330
18
100
AcDbEntity
  8
外形線
100
AcDbLine
 10
431.7425733847305
 20
326.691263192207
 30
0.0
 11
430.2532295386271
 21
326.8825506183784
 31
0.0
  0
CIRCLE
  5
7C0
330
18
100
AcDbEntity
  8
外形線
100
AcDbCircle
 10
430.9445298768521
 20
326.7937618119812
 30
0.0
 40
1.25
  0
LINE
  5
7C5
330
18
100
AcDbEntity
  8
外形線
100
AcDbLine
 10
438.8202040944849
 20
321.5047396322475
 30
0.0
 11
438.9153248476145
 21
322.2453398439055
 31
0.0
  0
LINE
  5
7C6
330
18
100
AcDbEntity
  8
外形線
100
AcDbLine
 10
433.3925159321308
 20
317.9443693719139
 30
0.0
 11
434.0938616192976
 21
317.8542903671862
 31
0.0
  0
LINE
  5
7C8
330
18
100
AcDbEntity
  8
外形線
100
AcDbLine
 10
433.9860844510517
 20
318.4028193837432
 30
0.0
 11
433.3925159321309
 21
317.9443693719139
 31
0.0
  0
LINE
  5
7C9
330
18
100
AcDbEntity
  8
外形線
100
AcDbLine
 10
438.8202040944849
 20
321.5047396322475
 30
0.0
 11
434.0938616192977
 21
317.8542903671862
 31
0.0
  0
LINE
  5
7CB
102
{ACAD_REACTORS
330
10EC
102
}
330
18
100
AcDbEntity
  8
中心線
100
AcDbLine
 10
406.5509098577008
 20
325.7592500262791
 30
0.0
 11
402.7747689279023
 21
322.8270067776701
 31
0.0
  0
CIRCLE
  5
7CC
102
{ACAD_REACTORS
330
10EC
102
}
330
18
100
AcDbEntity
  8
想像線
100
AcDbCircle
 10
404.7353955885666
 20
324.3494696294691
 30
0.0
 40
1.5
  0
LINE
  5
7CD
102
{ACAD_REACTORS
330
10EC
102
}
330
18
100
AcDbEntity
  8
想像線
100
AcDbLine
 10
404.8676369983268
 20
325.400694441126
 30
0.0
 11
404.5983660889145
 21
323.2601829209843
 31
0.0
  0
LINE
  5
7CE
102
{ACAD_REACTORS
330
10EC
102
}
330
18
100
AcDbEntity
  8
想像線
100
AcDbLine
 10
405.7720102677087
 20
324.2190661372494
 30
0.0
 11
403.6987025670006
 21
324.4798829769664
 31
0.0
  0
LINE
  5
7CF
102
{ACAD_REACTORS
330
10EC
102
}
330
18
100
AcDbEntity
  8
想像線
 48
0.5
100
AcDbLine
 10
411.7362031605862
 20
326.7471129181071
 30
0.0
 11
403.8378632936384
 21
320.6139059799562
 31
0.0
  0
CIRCLE
  5
7D0
102
{ACAD_REACTORS
330
10EC
102
}
330
18
100
AcDbEntity
  8
想像線
100
AcDbCircle
 10
401.9754524663986
 20
327.9037225695956
 30
0.0
 40
1.5
  0
LINE
  5
7D1
102
{ACAD_REACTORS
330
10EC
102
}
330
18
100
AcDbEntity
  8
想像線
100
AcDbLine
 10
402.1076938761588
 20
328.9549473812526
 30
0.0
 11
401.8384229667466
 21
326.814435861111
 31
0.0
  0
LINE
  5
7D2
102
{ACAD_REACTORS
330
10EC
102
}
330
18
100
AcDbEntity
  8
想像線
100
AcDbLine
 10
403.0120671455407
 20
327.7733190773761
 30
0.0
 11
400.9387594448326
 21
328.0341359170932
 31
0.0
  0
LINE
  5
7D3
102
{ACAD_REACTORS
330
10EC
102
}
330
18
100
AcDbEntity
  8
想像線
 48
0.5
100
AcDbLine
 10
446.3463943991759
 20
319.8685825786915
 30
0.0
 11
433.7090506120593
 21
310.0554514776496
 31
0.0
  0
LINE
  5
7D4
102
{ACAD_REACTORS
330
10EC
102
}
330
18
100
AcDbEntity
  8
想像線
 48
0.5
100
AcDbLine
 10
411.0161849409001
 20
339.2793089853561
 30
0.0
 11
433.7090506120593
 21
310.0554514776496
 31
0.0
  0
LINE
  5
7E0
330
18
100
AcDbEntity
  8
外形線
100
AcDbLine
 10
438.9153248476146
 20
322.2453398439055
 30
0.0
 11
432.3086029288735
 21
330.7534719918742
 31
0.0
  0
LINE
  5
7E1
330
18
100
AcDbEntity
  8
外形線
100
AcDbLine
 10
438.6455816382547
 20
321.369867811097
 30
0.0
 11
431.7150344099527
 21
330.2950219800451
 31
0.0
  0
LINE
  5
7E2
330
18
100
AcDbEntity
  8
外形線
100
AcDbLine
 10
434.2927458328349
 20
318.0079010576836
 30
0.0
 11
427.3621986045331
 21
326.9330552266314
 31
0.0
  0
LINE
  5
7E3
330
18
100
AcDbEntity
  8
外形線
100
AcDbLine
 10
433.3925159321308
 20
317.9443693719139
 30
0.0
 11
426.7698251135737
 21
326.4730662585785
 31
0.0
  0
LINE
  5
7E5
330
18
100
AcDbEntity
  8
外形線
100
AcDbLine
 10
438.9153248476145
 20
322.2453398439055
 30
0.0
 11
438.322951356655
 21
321.7853508758525
 31
0.0
  0
LINE
  5
7E6
330
18
100
AcDbEntity
  8
外形線
100
AcDbLine
 10
427.3621986045331
 20
326.9330552266316
 30
0.0
 11
426.7692475411301
 21
326.4726177628976
 31
0.0
  0
LINE
  5
B2A
330
18
100
AcDbEntity
  8
外形線
100
AcDbLine
 10
421.8545351115278
 20
345.0556264479725
 30
0.0
 11
415.5358632179697
 21
340.1490608974519
 31
0.0
  0
LINE
  5
B3C
330
18
100
AcDbEntity
  8
外形線
100
AcDbLine
 10
427.0492145134154
 20
337.06154701932
 30
0.0
 11
421.9942769985688
 21
333.1362945789034
 31
0.0
  0
LINE
  5
C26
330
18
100
AcDbEntity
  8
中心線
 48
0.5
100
AcDbLine
 10
424.7604294866965
 20
418.4359052844008
 30
0.0
 11
457.7237426793982
 21
375.9857722036016
 31
0.0
  0
LINE
  5
C27
330
18
100
AcDbEntity
  8
中心線
 48
0.2
100
AcDbLine
 10
439.4953786238921
 20
383.3541738542099
 30
0.0
 11
450.9700768685815
 21
392.2644891955422
 31
0.0
  0
CIRCLE
  5
C28
330
18
100
AcDbEntity
  8
外形線
100
AcDbCircle
 10
441.1213680362719
 20
397.3662993653567
 30
0.0
 40
15.5
  0
LINE
  5
C29
330
18
100
AcDbEntity
  8
中心線
 48
0.2
100
AcDbLine
 10
440.169382859628
 20
393.8330698040446
 30
0.0
 11
449.7921355509004
 21
381.4408952079978
 31
0.0
  0
HATCH
  5
C2A
330
18
100
AcDbEntity
  8
ﾊｯﾁﾝｸ
  6
Continuous
100
AcDbHatch
 10
0.0
 20
0.0
 30
0.0
210
0.0
220
0.0
230
1.0
  2
SOLID
 70
     1
 71
     0
 91
        1
 92
        1
 93
        3
 72
     1
 10
427.0149920785244
 20
415.5324810593364
 11
440.648918586342
 21
398.7899536482713
 72
     2
 10
441.121368036272
 20
397.3662993653568
 40
1.499999999999999
 50
-611.6412206344874
 51
-572.6987793655085
 73
     1
 72
     1
 10
439.8590845996472
 20
398.1766329544562
 11
427.0149920785248
 21
415.5324810593356
 97
        0
 75
     0
 76
     1
 98
        1
 10
252.6494808163228
 20
269.0632444053869
450
        0
451
        0
460
0.0
461
0.0
452
        0
462
0.0
453
        0
470

  0
LINE
  5
C2B
330
18
100
AcDbEntity
  8
針
  6
Continuous
100
AcDbLine
 10
427.0149920785249
 20
415.5324810593356
 30
0.0
 11
439.8590845996472
 21
398.1766329544562
 31
0.0
  0
LINE
  5
C2C
330
18
100
AcDbEntity
  8
針
  6
Continuous
100
AcDbLine
 10
427.0149920785244
 20
415.5324810593364
 30
0.0
 11
440.648918586342
 21
398.7899536482712
 31
0.0
  0
CIRCLE
  5
C2D
330
18
100
AcDbEntity
  8
外形線
100
AcDbCircle
 10
444.9920506892906
 20
387.6224413403075
 30
0.0
 40
4.75
  0
CIRCLE
  5
C2E
330
18
100
AcDbEntity
  8
外形線
100
AcDbCircle
 10
444.9920506892906
 20
387.6224413403075
 30
0.0
 40
1.149999999999999
  0
TEXT
  5
C2F
330
18
100
AcDbEntity
  8
文字
100
AcDbText
 10
446.3847660084194
 20
400.9711051131108
 30
0.0
 40
1.0
  1
0.01mm
 50
37.83000000000019
  7
STYLE3
100
AcDbText
  0
LINE
  5
C30
330
18
100
AcDbEntity
  8
目盛
100
AcDbLine
 10
440.3868838475988
 20
420.3545688299466
 30
0.0
 11
440.4826861330779
 21
417.3560988997825
 31
0.0
  0
TEXT
  5
C31
330
18
100
AcDbEntity
  8
文字
100
AcDbText
 10
429.9344448701311
 20
381.1345170780266
 30
0.0
 40
2.0
  1
.4
 50
37.83000000000019
  7
STYLE3
100
AcDbText
  0
TEXT
  5
C32
330
18
100
AcDbEntity
  8
文字
100
AcDbText
 10
422.8930792682565
 20
400.6371185698388
 30
0.0
 40
2.0
  1
.8
 50
37.83000000000019
  7
STYLE3
100
AcDbText
  0
LINE
  5
C33
330
18
100
AcDbEntity
  8
目盛
100
AcDbLine
 10
419.4851926600247
 20
389.5639974557742
 30
0.0
 11
422.3073024917091
 21
390.5816890091981
 31
0.0
  0
LINE
  5
C34
330
18
100
AcDbEntity
  8
目盛
100
AcDbLine
 10
421.3304343982667
 20
385.6479826886294
 30
0.0
 11
423.0513851493975
 21
386.6669667474753
 31
0.0
  0
LINE
  5
C35
330
18
100
AcDbEntity
  8
目盛
100
AcDbLine
 10
422.105286477133
 20
384.4284231046955
 30
0.0
 11
423.7588587866233
 21
385.553455823014
 31
0.0
  0
LINE
  5
C36
330
18
100
AcDbEntity
  8
目盛
100
AcDbLine
 10
420.6336880928517
 20
386.9137891148966
 30
0.0
 11
422.4152254792361
 21
387.8227030497192
 31
0.0
  0
LINE
  5
C37
330
18
100
AcDbEntity
  8
目盛
100
AcDbLine
 10
420.0177973002428
 20
388.2208468238248
 30
0.0
 11
421.8528904077237
 21
389.0161035665666
 31
0.0
  0
LINE
  5
C38
330
18
100
AcDbEntity
  8
目盛
100
AcDbLine
 10
424.8664298235833
 20
381.0943301021832
 30
0.0
 11
426.2799027116431
 21
382.5092839511548
 31
0.0
  0
LINE
  5
C39
330
18
100
AcDbEntity
  8
目盛
100
AcDbLine
 10
423.8767798272585
 20
382.1470951318378
 30
0.0
 11
425.3763092367381
 21
383.4705041956219
 31
0.0
  0
LINE
  5
C3A
330
18
100
AcDbEntity
  8
目盛
100
AcDbLine
 10
422.9551863422924
 20
383.2599234076092
 30
0.0
 11
425.3246883023766
 21
385.0998854890546
 31
0.0
  0
TEXT
  5
C3B
330
18
100
AcDbEntity
  8
文字
100
AcDbText
 10
423.5788969301181
 20
389.6431263188406
 30
0.0
 40
2.0
  1
.6
 50
37.83000000000019
  7
STYLE3
100
AcDbText
  0
LINE
  5
C3C
330
18
100
AcDbEntity
  8
目盛
100
AcDbLine
 10
418.1330985716822
 20
396.6318151766833
 30
0.0
 11
421.1315685018461
 21
396.7276174621627
 31
0.0
  0
LINE
  5
C3D
330
18
100
AcDbEntity
  8
目盛
100
AcDbLine
 10
418.2245793140928
 20
395.1898191306913
 30
0.0
 11
420.2156044203692
 21
395.379078281532
 31
0.0
  0
LINE
  5
C3E
330
18
100
AcDbEntity
  8
目盛
100
AcDbLine
 10
418.4064232210421
 20
393.7564126578463
 30
0.0
 11
420.3816358136707
 21
394.0703158498039
 31
0.0
  0
LINE
  5
C3F
330
18
100
AcDbEntity
  8
目盛
100
AcDbLine
 10
418.6779126377059
 20
392.3372527586355
 30
0.0
 11
420.6295174549725
 21
392.7745611592199
 31
0.0
  0
LINE
  5
C40
330
18
100
AcDbEntity
  8
目盛
100
AcDbLine
 10
419.0379761193885
 20
390.9379402088284
 30
0.0
 11
420.9582710686825
 21
391.49692796157
 31
0.0
  0
LINE
  5
C41
330
18
100
AcDbEntity
  8
目盛
100
AcDbLine
 10
418.1323420265072
 20
398.0767098962144
 30
0.0
 11
420.1313877664866
 21
398.014935067444
 31
0.0
  0
LINE
  5
C42
330
18
100
AcDbEntity
  8
目盛
100
AcDbLine
 10
418.2223126643054
 20
399.5188009499355
 30
0.0
 11
420.2135348705635
 21
399.3316268991025
 31
0.0
  0
LINE
  5
C43
330
18
100
AcDbEntity
  8
目盛
100
AcDbLine
 10
418.6726585393773
 20
402.3718404873568
 30
0.0
 11
420.6247202347594
 21
401.9365760419653
 31
0.0
  0
LINE
  5
C44
330
18
100
AcDbEntity
  8
目盛
100
AcDbLine
 10
418.402655412074
 20
400.952397063287
 30
0.0
 11
420.378195640265
 21
400.6405624808582
 31
0.0
  0
TEXT
  5
C45
330
18
100
AcDbEntity
  8
文字
100
AcDbText
 10
444.7659741458068
 20
390.4546500221523
 30
0.0
 40
0.7
  1
8
 50
37.83000000000019
  7
STYLE3
100
AcDbText
  0
LINE
  5
C46
330
18
100
AcDbEntity
  8
目盛
100
AcDbLine
 10
425.902163802753
 20
414.61088757437
 30
0.0
 11
427.2255728665373
 21
413.1113581648906
 31
0.0
  0
LINE
  5
C47
330
18
100
AcDbEntity
  8
目盛
100
AcDbLine
 10
427.0149920785244
 20
415.5324810593364
 30
0.0
 11
428.8549541599698
 21
413.162979099252
 31
0.0
  0
TEXT
  5
C48
330
18
100
AcDbEntity
  8
文字
100
AcDbText
 10
429.9676894719996
 20
410.1292642909981
 30
0.0
 40
2.0
  1
0
 50
37.83000000000019
  7
STYLE3
100
AcDbText
  0
LINE
  5
C49
330
18
100
AcDbEntity
  8
目盛
100
AcDbLine
 10
421.318173859574
 20
409.0638846033448
 30
0.0
 11
423.0401907445042
 21
408.0467032783024
 31
0.0
  0
LINE
  5
C4A
330
18
100
AcDbEntity
  8
目盛
100
AcDbLine
 10
420.6227534853404
 20
407.797349240242
 30
0.0
 11
422.4052417071606
 21
406.8903014250347
 31
0.0
  0
LINE
  5
C4B
330
18
100
AcDbEntity
  8
目盛
100
AcDbLine
 10
420.0082317778135
 20
406.4896472887764
 30
0.0
 11
421.8441566698535
 21
405.69631268674
 31
0.0
  0
LINE
  5
C4C
330
18
100
AcDbEntity
  8
目盛
100
AcDbLine
 10
419.4770339734242
 20
405.1459396511184
 30
0.0
 11
421.3591499788893
 21
404.469449191487
 31
0.0
  0
LINE
  5
C4D
330
18
100
AcDbEntity
  8
目盛
100
AcDbLine
 10
419.0312564672253
 20
403.7715293274323
 30
0.0
 11
421.9125753675358
 21
402.9360645497703
 31
0.0
  0
LINE
  5
C4E
330
18
100
AcDbEntity
  8
目盛
100
AcDbLine
 10
423.8608517721697
 20
412.5674367667706
 30
0.0
 11
425.3617662299177
 21
411.2455987318651
 31
0.0
  0
LINE
  5
C4F
330
18
100
AcDbEntity
  8
目盛
100
AcDbLine
 10
422.9404241433559
 20
411.4536440109113
 30
0.0
 11
424.5213757862179
 21
410.2286575199936
 31
0.0
  0
LINE
  5
C50
330
18
100
AcDbEntity
  8
目盛
100
AcDbLine
 10
424.8493987730983
 20
413.6212375780456
 30
0.0
 11
426.26435262207
 21
412.2077646899856
 31
0.0
  0
LINE
  5
C51
330
18
100
AcDbEntity
  8
目盛
100
AcDbLine
 10
422.091748394004
 20
410.2842549416316
 30
0.0
 11
424.5738726951692
 21
408.5993042142913
 31
0.0
  0
LINE
  5
C52
330
18
100
AcDbEntity
  8
目盛
100
AcDbLine
 10
440.5237101224569
 20
386.0110963807201
 30
0.0
 11
440.9940617610711
 21
386.1807116396242
 31
0.0
  0
TEXT
  5
C53
330
18
100
AcDbEntity
  8
文字
100
AcDbText
 10
443.0973678492818
 20
384.4708081142567
 30
0.0
 40
0.7
  1
6
 50
37.83000000000019
  7
STYLE3
100
AcDbText
  0
LINE
  5
C54
330
18
100
AcDbEntity
  8
目盛
100
AcDbLine
 10
442.3242120376685
 20
383.6924111967959
 30
0.0
 11
442.6050371588919
 21
384.1060985803233
 31
0.0
  0
TEXT
  5
C55
330
18
100
AcDbEntity
  8
文字
100
AcDbText
 10
441.9096976684111
 20
388.1602856344392
 30
0.0
 40
0.7
  1
2
 50
37.83000000000019
  7
STYLE3
100
AcDbText
  0
LINE
  5
C56
330
18
100
AcDbEntity
  8
目盛
100
AcDbLine
 10
440.4299624304656
 20
388.9452605716059
 30
0.0
 11
440.910182247184
 21
388.8060164419956
 31
0.0
  0
HATCH
  5
C57
330
18
100
AcDbEntity
  8
ﾊｯﾁﾝｸ
100
AcDbHatch
 10
0.0
 20
0.0
 30
0.0
210
0.0
220
0.0
230
1.0
  2
SOLID
 70
     1
 71
     0
 91
        3
 92
        7
 72
     1
 73
     1
 93
        5
 10
442.2393277395001
 20
391.4934898238192
 42
0.0105298176880202
 10
442.0787773936686
 20
391.3741527771078
 42
0.0
 10
442.3854377405763
 20
390.9792357837605
 42
0.0
 10
444.2867318914031
 20
388.5307504250067
 42
-0.0437283108272093
 10
444.4554470325251
 20
388.6395728537051
 42
0.0
 97
        0
 92
        7
 72
     1
 73
     1
 93
        4
 10
442.0787773936689
 20
391.374152777108
 42
0.0105298176880232
 10
441.9233941448222
 20
391.2481615462931
 42
0.0
 10
444.1395134378473
 20
388.3942445761789
 42
-0.0437283108272093
 10
444.2867318914031
 20
388.5307504250067
 42
0.0
 97
        0
 92
      137
 93
        4
 72
     1
 10
442.819602744261
 20
389.4524039297889
 11
443.7410757287381
 21
390.1679447392398
 72
     1
 10
443.7410757287383
 20
390.1679447392398
 11
442.8210946880155
 21
391.3526957192819
 72
     1
 10
442.8210946880157
 20
391.352695719282
 11
441.8996217035385
 21
390.637154909831
 72
     1
 10
441.8996217035384
 20
390.6371549098311
 11
442.8196027442611
 21
389.452403929789
 97
        0
 75
     0
 76
     1
 47
0.0128177587452554
 98
        3
 10
444.0768043637651
 20
389.0435497715385
 10
443.2770392641816
 20
389.9479894563533
 10
443.1666330178873
 20
389.7973431125855
450
        0
451
        0
460
0.0
461
0.0
452
        0
462
0.0
453
        0
470

  0
LINE
  5
C58
330
18
100
AcDbEntity
  8
中心線
 48
0.2
100
AcDbLine
 10
441.9233941448222
 20
391.2481615462931
 30
0.0
 11
444.1395134378473
 21
388.3942445761789
 31
0.0
  0
LINE
  5
C59
330
18
100
AcDbEntity
  8
中心線
 48
0.2
100
AcDbLine
 10
442.2393277395001
 20
391.4934898238192
 30
0.0
 11
444.4554470325251
 21
388.6395728537051
 31
0.0
  0
LINE
  5
C5A
330
18
100
AcDbEntity
  8
目盛
100
AcDbLine
 10
442.0787773936686
 20
391.3741527771078
 30
0.0
 11
442.3854377405763
 21
390.9792357837605
 31
0.0
  0
TEXT
  5
C5B
330
18
100
AcDbEntity
  8
文字
100
AcDbText
 10
442.8598024469414
 20
389.8553524746656
 30
0.0
 40
0.7
  1
0
 50
37.83000000000019
  7
STYLE3
100
AcDbText
  0
TEXT
  5
C5C
330
18
100
AcDbEntity
  8
文字
100
AcDbText
 10
441.8561546969005
 20
386.1900325479343
 30
0.0
 40
0.7
  1
4
 50
37.83000000000019
  7
STYLE3
100
AcDbText
  0
LINE
  5
C5D
330
18
100
AcDbEntity
  8
目盛
100
AcDbLine
 10
429.4030513595447
 20
417.1572330033622
 30
0.0
 11
430.4220354183907
 21
415.4362822522314
 31
0.0
  0
LINE
  5
C5E
330
18
100
AcDbEntity
  8
目盛
100
AcDbLine
 10
430.6688577858118
 20
417.853979308777
 30
0.0
 11
431.5777717206345
 21
416.0724419223929
 31
0.0
  0
LINE
  5
C5F
330
18
100
AcDbEntity
  8
目盛
100
AcDbLine
 10
428.1834917756109
 20
416.3823809244957
 30
0.0
 11
429.3085244939293
 21
414.7288086150052
 31
0.0
  0
LINE
  5
C60
330
18
100
AcDbEntity
  8
目盛
100
AcDbLine
 10
433.3190661266898
 20
419.0024747416043
 30
0.0
 11
434.3367576801134
 21
416.1803649099196
 31
0.0
  0
LINE
  5
C61
330
18
100
AcDbEntity
  8
目盛
100
AcDbLine
 10
434.6930088797437
 20
419.4496912822404
 30
0.0
 11
435.2519966324854
 21
417.5293963329461
 31
0.0
  0
LINE
  5
C62
330
18
100
AcDbEntity
  8
目盛
100
AcDbLine
 10
431.9759154947401
 20
418.4698701013859
 30
0.0
 11
432.7711722374819
 21
416.634776993905
 31
0.0
  0
LINE
  5
C63
330
18
100
AcDbEntity
  8
目盛
100
AcDbLine
 10
444.8403637372819
 20
392.370018729734
 30
0.0
 11
444.8563307848618
 21
391.8702737413734
 31
0.0
  0
LINE
  5
C64
330
18
100
AcDbEntity
  8
目盛
100
AcDbLine
 10
438.9448878016067
 20
420.2630880875362
 30
0.0
 11
439.1341469524473
 21
418.2720629812593
 31
0.0
  0
LINE
  5
C65
330
18
100
AcDbEntity
  8
目盛
100
AcDbLine
 10
437.5114813287618
 20
420.0812441805867
 30
0.0
 11
437.8253845207191
 21
418.1060315879579
 31
0.0
  0
LINE
  5
C66
330
18
100
AcDbEntity
  8
目盛
100
AcDbLine
 10
436.0923214295508
 20
419.809754763923
 30
0.0
 11
436.5296298301354
 21
417.8581499466562
 31
0.0
  0
TEXT
  5
C67
330
18
100
AcDbEntity
  8
文字
100
AcDbText
 10
457.7607065106814
 20
390.9581489952093
 30
0.0
 40
2.0
  1
.8
 50
37.83000000000019
  7
STYLE3
100
AcDbText
  0
LINE
  5
C68
102
{ACAD_REACTORS
330
C6D
102
}
330
18
100
AcDbEntity
  8
ROGO
 62
     4
100
AcDbLine
 10
439.4277929164876
 20
407.9167826640957
 30
0.0
 11
440.0768523616919
 21
408.4207893236796
 31
0.0
  0
LINE
  5
C69
102
{ACAD_REACTORS
330
C6D
102
}
330
18
100
AcDbEntity
  8
ROGO
 62
     4
100
AcDbLine
 10
438.9309575783332
 20
408.1495602616736
 30
0.0
 11
439.9696179750673
 21
408.9560992634061
 31
0.0
  0
LINE
  5
C6A
102
{ACAD_REACTORS
330
C82
330
C6E
102
}
330
18
100
AcDbEntity
  8
ROGO
 62
     4
100
AcDbLine
 10
440.1868437489111
 20
409.1247790930573
 30
0.0
 11
440.6371982275714
 21
406.8766268313118
 31
0.0
  0
CIRCLE
  5
C6B
330
18
100
AcDbEntity
  8
外形線
100
AcDbCircle
 10
441.1213680362719
 20
397.3662993653567
 30
0.0
 40
1.5
  0
LINE
  5
C6C
102
{ACAD_REACTORS
330
C6E
102
}
330
18
100
AcDbEntity
  8
ROGO
 62
     4
100
AcDbLine
 10
441.6562280736
 20
407.6679223474747
 30
0.0
 11
442.2533956443849
 21
408.1316340071493
 31
0.0
  0
HATCH
  5
C6D
330
18
100
AcDbEntity
  8
ROGO
 62
     4
100
AcDbHatch
 10
0.0
 20
0.0
 30
0.0
210
0.0
220
0.0
230
1.0
  2
SOLID
 70
     1
 71
     1
 91
        1
 92
        5
 93
        8
 72
     4
 94
        3
 73
     0
 74
     0
 95
       26
 96
       22
 40
0.0
 40
0.0
 40
0.0
 40
0.0
 40
0.2382195346593122
 40
0.3976890672661674
 40
0.5126795869788525
 40
0.5985392873137306
 40
0.7099038249254571
 40
0.7911890807496324
 40
0.9379713068547145
 40
1.057449928673494
 40
1.138714535893196
 40
1.218398644003502
 40
1.360938021870497
 40
1.461730374800477
 40
1.516014844108006
 40
1.593124329220564
 40
1.648806818593766
 40
1.729472362005407
 40
1.775122082164349
 40
1.874460993765219
 40
1.9198200037512
 40
1.9198200037512
 40
1.9198200037512
 40
1.9198200037512
 10
438.930957578333
 20
408.1495602616736
 10
438.8700538841074
 20
408.0961598408587
 10
438.7683798825013
 20
408.007011973217
 10
438.7065398484346
 20
407.8449990963169
 10
438.6528771992852
 20
407.7370585670578
 10
438.6353504402472
 20
407.6333596292899
 10
438.6355922177255
 20
407.5404919297144
 10
438.6327778444131
 20
407.4274316372706
 10
438.6492270170719
 20
407.3110954134253
 10
438.6946877177719
 20
407.2040955197864
 10
438.7288361208503
 20
407.1171976887914
 10
438.7746403789176
 20
407.0263796627716
 10
438.8447071097933
 20
406.9442465649041
 10
438.9117560517547
 20
406.8694988224732
 10
438.9806924654347
 20
406.8325040940225
 10
439.0404786345605
 20
406.8144815064399
 10
439.1098429070825
 20
406.7973622013995
 10
439.1708908759488
 20
406.7977559655271
 10
439.2438024111442
 20
406.7692093314662
 10
439.3044802629467
 20
406.8054592915499
 10
439.350181062698
 20
406.8193172117188
 10
439.3645070668974
 20
406.8236613068686
 72
     1
 10
439.3645070668974
 20
406.8236613068686
 11
440.2578322228858
 21
407.5173448070761
 72
     1
 10
440.2578322228858
 20
407.5173448070761
 11
440.1505989718442
 21
408.0526490780166
 72
     1
 10
440.1505989718442
 20
408.0526490780166
 11
439.4873903635767
 21
407.537655331712
 72
     4
 94
        3
 73
     0
 74
     0
 95
       16
 96
       12
 40
0.0
 40
0.0
 40
0.0
 40
0.0
 40
0.0719416665231869
 40
0.1446253590759062
 40
0.1879779149910044
 40
0.2295440936103195
 40
0.27519363239568
 40
0.3070718656049501
 40
0.3373215422370581
 40
0.3986635435212346
 40
0.5242542460840073
 40
0.5242542460840073
 40
0.5242542460840073
 40
0.5242542460840073
 10
439.4873903635768
 20
407.5376553317118
 10
439.4628153164739
 20
407.5280069841103
 10
439.4134117485091
 20
407.5086107732107
 10
439.3655068567186
 20
407.5633547173755
 10
439.3383543871071
 20
407.6077872184447
 10
439.334450771227
 20
407.6524561145805
 10
439.3409344086245
 20
407.692198896673
 10
439.3277121419671
 20
407.727133458729
 10
439.3366752573633
 20
407.7682265707206
 10
439.3540972045548
 20
407.839127986282
 10
439.3981775467339
 20
407.8855763437245
 10
439.4277929164876
 20
407.9167826640957
 72
     1
 10
439.4277929164876
 20
407.9167826640955
 11
440.0768523616918
 21
408.4207893236796
 72
     1
 10
440.0768523616918
 20
408.4207893236796
 11
439.9696179750673
 21
408.9560992634062
 72
     1
 10
439.9696179750673
 20
408.9560992634062
 11
438.9309575783328
 21
408.1495602616731
 97
        8
330
C69
330
CAB
330
CA2
330
CA0
330
C9F
330
CA1
330
C68
330
CCC
 75
     0
 76
     1
 47
0.0514683685270805
 98
        1
 10
439.2576523033592
 20
408.0988247040305
450
        0
451
        0
460
0.0
461
0.0
452
        0
462
0.0
453
        0
470

  0
HATCH
  5
C6E
330
18
100
AcDbEntity
  8
ROGO
 62
     4
100
AcDbHatch
 10
0.0
 20
0.0
 30
0.0
210
0.0
220
0.0
230
1.0
  2
SOLID
 70
     1
 71
     1
 91
        1
 92
        7
 72
     0
 73
     1
 93
       11
 10
440.6371982275714
 20
406.8766268313117
 10
441.2343788641885
 20
407.3403486368467
 10
441.1168312533928
 20
407.9271417955579
 10
441.6562280736
 20
407.6679223474746
 10
442.2533956443849
 20
408.1316340071493
 10
441.220113163732
 20
408.6282014771734
 10
441.5725748731632
 20
410.2008249316572
 10
440.9754073023781
 20
409.7371132719821
 10
440.8331939301573
 20
409.3430484201461
 10
440.7840243855282
 20
409.5885008985925
 10
440.1868437489111
 20
409.1247790930573
 97
       11
330
CCE
330
CCF
330
CD0
330
CCD
330
C6A
330
C76
330
CAD
330
CAC
330
C6C
330
CC2
330
CD1
 75
     0
 76
     1
 47
0.0514683685270805
 98
        1
 10
440.6753520102717
 20
408.3895818649925
450
        0
451
        0
460
0.0
461
0.0
452
        0
462
0.0
453
        0
470

  0
LINE
  5
C6F
330
18
100
AcDbEntity
  8
目盛
100
AcDbLine
 10
448.9236699458543
 20
375.7301239891095
 30
0.0
 11
447.9059783924307
 21
378.552233820794
 31
0.0
  0
LINE
  5
C70
330
18
100
AcDbEntity
  8
目盛
100
AcDbLine
 10
447.5497271928004
 20
375.2829074484731
 30
0.0
 11
446.9907394400588
 21
377.2032023977676
 31
0.0
  0
TEXT
  5
C71
330
18
100
AcDbEntity
  8
文字
100
AcDbText
 10
440.4280915940828
 20
377.6392147087574
 30
0.0
 40
2.0
  1
.2
 50
37.83000000000019
  7
STYLE3
100
AcDbText
  0
LINE
  5
C72
102
{ACAD_REACTORS
330
C77
102
}
330
18
100
AcDbEntity
  8
ROGO
 62
     4
100
AcDbLine
 10
431.5327023696749
 20
400.7421201581697
 30
0.0
 11
430.8284798564101
 21
400.1952783563334
 31
0.0
  0
SPLINE
  5
C73
102
{ACAD_REACTORS
330
C77
102
}
330
18
100
AcDbEntity
  8
ROGO
 62
     4
100
AcDbSpline
210
0.0
220
0.0
230
1.0
 70
     8
 71
     3
 72
    15
 73
    11
 74
     9
 42
0.0000000001
 43
0.0000000001
 44
0.0000000001
 40
0.0
 40
0.0
 40
0.0
 40
0.0
 40
0.1539705029172496
 40
0.2241725832585593
 40
0.3038566179395486
 40
0.3581410872474725
 40
0.4439925384669771
 40
0.4954152125467702
 40
0.5836396705644751
 40
0.613047842006385
 40
0.613047842006385
 40
0.613047842006385
 40
0.613047842006385
 10
430.9429912995264
 20
401.3038407527806
 30
0.0
 10
430.9885036247172
 20
401.3395172822544
 30
0.0
 10
431.0547670668366
 20
401.3914603468174
 30
0.0
 10
431.1550085443331
 20
401.3374374355209
 30
0.0
 10
431.179834991252
 20
401.27181689771
 30
0.0
 10
431.2015685302315
 20
401.2015288549351
 30
0.0
 10
431.194048677885
 20
401.1364599326132
 30
0.0
 10
431.1730822621021
 20
401.0631310162992
 30
0.0
 10
431.1304966692854
 20
401.0231565873381
 30
0.0
 10
431.106770116337
 20
400.992044379223
 30
0.0
 10
431.1008384752607
 20
400.9842663234714
 30
0.0
 11
430.9429912995264
 21
401.3038407527806
 31
0.0
 11
431.0831562471988
 21
401.3675643999814
 31
0.0
 11
431.1450314394313
 21
401.3344012778359
 31
0.0
 11
431.1818463337671
 21
401.2637315605725
 31
0.0
 11
431.1955429753592
 21
401.2112034193799
 31
0.0
 11
431.1898127208178
 21
401.1255434178659
 31
0.0
 11
431.1734946864347
 21
401.0767785415368
 31
0.0
 11
431.1190024924285
 21
401.0073944238664
 31
0.0
 11
431.1008384752607
 21
400.9842663234714
 31
0.0
  0
SPLINE
  5
C74
102
{ACAD_REACTORS
330
C77
102
}
330
18
100
AcDbEntity
  8
ROGO
 62
     4
100
AcDbSpline
210
0.0
220
0.0
230
1.0
 70
     8
 71
     3
 72
    18
 73
    14
 74
     0
 42
0.0000000001
 43
0.0000000001
 40
0.1087402787915014
 40
0.1087402787915014
 40
0.1087402787915014
 40
0.1087402787915014
 40
0.5992371417938475
 40
1.083176791562496
 40
1.448211145705696
 40
1.714037220764907
 40
2.164002567013297
 40
2.740236056362883
 40
3.395137510199602
 40
4.071816045172726
 40
4.784906178399433
 40
5.506895915094292
 40
6.060470601257719
 40
6.060470601257719
 40
6.060470601257719
 40
6.060470601257719
 10
431.0812602441409
 20
402.0541251495528
 30
0.0
 10
431.1336743077133
 20
402.0708555957111
 30
0.0
 10
431.2384606289964
 20
402.1015477770617
 30
0.0
 10
431.3924166439027
 20
402.1054373287138
 30
0.0
 10
431.5105022623
 20
402.0636128132785
 30
0.0
 10
431.6256030482391
 20
402.0214304699339
 30
0.0
 10
431.7242245474708
 20
401.9092664844447
 30
0.0
 10
431.8280408478354
 20
401.7512618248516
 30
0.0
 10
431.8726228852269
 20
401.5369053217532
 30
0.0
 10
431.8560845003316
 20
401.3062994380248
 30
0.0
 10
431.7890108568564
 20
401.0799204306555
 30
0.0
 10
431.6955197973076
 20
400.8705057425185
 30
0.0
 10
431.5819777941888
 20
400.7809750538807
 30
0.0
 10
431.5327023694306
 20
400.7421201579801
 30
0.0
  0
LINE
  5
C75
102
{ACAD_REACTORS
330
C82
330
C77
102
}
330
18
100
AcDbEntity
  8
ROGO
 62
     4
100
AcDbLine
 10
430.8284798564101
 20
400.1952783563334
 30
0.0
 11
431.0175790230053
 21
399.406814662971
 31
0.0
  0
LINE
  5
C76
102
{ACAD_REACTORS
330
C82
330
C6E
330
C77
102
}
330
18
100
AcDbEntity
  8
ROGO
 62
     4
100
AcDbLine
 10
430.2642346114647
 20
398.8218287989146
 30
0.0
 11
441.2343788641885
 21
407.3403486368467
 31
0.0
  0
HATCH
  5
C77
330
18
100
AcDbEntity
  8
ROGO
 62
     4
100
AcDbHatch
 10
0.0
 20
0.0
 30
0.0
210
0.0
220
0.0
230
1.0
  2
SOLID
 70
     1
 71
     1
 91
        2
 92
        5
 93
        6
 72
     1
 10
430.2642346114646
 20
398.8218287989146
 11
431.0175790230053
 21
399.4068146629712
 72
     1
 10
431.0175790230053
 20
399.4068146629712
 11
430.8284798564101
 21
400.1952783563334
 72
     1
 10
430.8284798564101
 20
400.1952783563334
 11
431.5327023694305
 21
400.7421201579798
 72
     4
 94
        3
 73
     0
 74
     0
 95
       18
 96
       14
 40
0.108740278791501
 40
0.108740278791501
 40
0.108740278791501
 40
0.108740278791501
 40
0.6623149649549278
 40
1.384304701649787
 40
2.097394834876493
 40
2.774073369849618
 40
3.428974823686337
 40
4.005208313035923
 40
4.455173659284313
 40
4.720999734343524
 40
5.086034088486724
 40
5.569973738255373
 40
6.060470601257719
 40
6.060470601257719
 40
6.060470601257719
 40
6.060470601257719
 10
431.5327023694306
 20
400.7421201579801
 10
431.5819777941888
 20
400.7809750538807
 10
431.6955197973076
 20
400.8705057425185
 10
431.7890108568564
 20
401.0799204306555
 10
431.8560845003316
 20
401.3062994380248
 10
431.8726228852269
 20
401.5369053217532
 10
431.8280408478354
 20
401.7512618248516
 10
431.7242245474708
 20
401.9092664844447
 10
431.6256030482391
 20
402.0214304699339
 10
431.5105022623
 20
402.0636128132785
 10
431.3924166439027
 20
402.1054373287138
 10
431.2384606289964
 20
402.1015477770617
 10
431.1336743077133
 20
402.0708555957111
 10
431.0812602441409
 20
402.0541251495528
 72
     1
 10
431.0812602441409
 20
402.0541251495528
 11
429.8076542730572
 21
401.0651465654571
 72
     1
 10
429.8076542730572
 20
401.0651465654571
 11
430.2642346114646
 21
398.8218287989146
 97
        6
330
C74
330
C7B
330
C7C
330
C76
330
C75
330
C72
 92
       20
 93
        4
 72
     1
 10
430.7117218261661
 20
400.682110051118
 11
430.6223289694831
 21
401.0548405248143
 72
     1
 10
430.6223289694831
 20
401.0548405248143
 11
430.9429912995263
 21
401.3038407527806
 72
     4
 94
        3
 73
     0
 74
     0
 95
       15
 96
       11
 40
0.0
 40
0.0
 40
0.0
 40
0.0
 40
0.1539705029172496
 40
0.2241725832585593
 40
0.3038566179395486
 40
0.3581410872474725
 40
0.4439925384669771
 40
0.4954152125467702
 40
0.5836396705644751
 40
0.613047842006385
 40
0.613047842006385
 40
0.613047842006385
 40
0.613047842006385
 10
430.9429912995264
 20
401.3038407527806
 10
430.9885036247172
 20
401.3395172822545
 10
431.0547670668366
 20
401.3914603468175
 10
431.1550085443331
 20
401.3374374355208
 10
431.1798349912519
 20
401.27181689771
 10
431.2015685302315
 20
401.2015288549352
 10
431.194048677885
 20
401.1364599326131
 10
431.1730822621022
 20
401.0631310162993
 10
431.1304966692854
 20
401.023156587338
 10
431.1067701163371
 20
400.9920443792232
 10
431.1008384752607
 20
400.9842663234714
 72
     1
 10
431.1008384752607
 20
400.9842663234712
 11
430.7117218261661
 21
400.682110051118
 97
        4
330
C7A
330
C79
330
C73
330
C78
 75
     0
 76
     1
 47
0.0514683685270805
 98
        2
 10
430.2058758705353
 20
400.5663693324335
 10
430.2058758705353
 20
400.5663693324335
450
        0
451
        0
460
0.0
461
0.0
452
        0
462
0.0
453
        0
470

  0
LINE
  5
C78
102
{ACAD_REACTORS
330
C77
102
}
330
18
100
AcDbEntity
  8
ROGO
 62
     4
100
AcDbLine
 10
431.1008384752609
 20
400.9842663234714
 30
0.0
 11
430.7117218261661
 21
400.682110051118
 31
0.0
  0
LINE
  5
C79
102
{ACAD_REACTORS
330
C77
102
}
330
18
100
AcDbEntity
  8
ROGO
 62
     4
100
AcDbLine
 10
430.9429912995264
 20
401.3038407527806
 30
0.0
 11
430.622328969483
 21
401.0548405248142
 31
0.0
  0
LINE
  5
C7A
102
{ACAD_REACTORS
330
C77
102
}
330
18
100
AcDbEntity
  8
ROGO
 62
     4
100
AcDbLine
 10
430.622328969483
 20
401.0548405248142
 30
0.0
 11
430.7117218261661
 21
400.682110051118
 31
0.0
  0
LINE
  5
C7B
102
{ACAD_REACTORS
330
C77
102
}
330
18
100
AcDbEntity
  8
ROGO
 62
     4
100
AcDbLine
 10
429.8076542730572
 20
401.0651465654571
 30
0.0
 11
431.0812602441409
 21
402.0541251495528
 31
0.0
  0
LINE
  5
C7C
102
{ACAD_REACTORS
330
C77
102
}
330
18
100
AcDbEntity
  8
ROGO
 62
     4
100
AcDbLine
 10
429.8076542730572
 20
401.0651465654571
 30
0.0
 11
430.2642346114647
 21
398.8218287989146
 31
0.0
  0
POINT
  5
C7D
330
18
100
AcDbEntity
  8
DEFPOINTS
  6
ByBlock
 62
     0
100
AcDbPoint
 10
441.121368036272
 20
397.3662993653568
 30
0.0
  0
POINT
  5
C7E
330
18
100
AcDbEntity
  8
DEFPOINTS
  6
ByBlock
 62
     0
100
AcDbPoint
 10
441.121368036272
 20
397.3662993653568
 30
0.0
  0
LINE
  5
C7F
102
{ACAD_REACTORS
330
C83
102
}
330
18
100
AcDbEntity
  8
ROGO
 62
     4
100
AcDbLine
 10
434.2637739240752
 20
403.1793884995209
 30
0.0
 11
434.9192389745931
 21
403.6883692300633
 31
0.0
  0
LINE
  5
C80
102
{ACAD_REACTORS
330
C83
102
}
330
18
100
AcDbEntity
  8
ROGO
 62
     4
100
AcDbLine
 10
433.6428509409966
 20
404.0432476866071
 30
0.0
 11
433.7003089838057
 21
402.425306770663
 31
0.0
  0
LINE
  5
C81
102
{ACAD_REACTORS
330
C82
102
}
330
18
100
AcDbEntity
  8
ROGO
 62
     4
100
AcDbLine
 10
430.9536663445168
 20
399.6175820403967
 30
0.0
 11
440.5920569164901
 21
407.1019705225906
 31
0.0
  0
HATCH
  5
C82
330
18
100
AcDbEntity
  8
ROGO
 62
     4
100
AcDbHatch
 10
0.0
 20
0.0
 30
0.0
210
0.0
220
0.0
230
1.0
  2
SOLID
 70
     1
 71
     1
 91
        1
 92
        7
 72
     0
 73
     1
 93
        4
 10
430.9649320996591
 20
399.6263301075558
 10
431.0175790230054
 20
399.4068146629711
 10
440.6371982275714
 20
406.8766268313117
 10
440.5920569164901
 20
407.1019705225906
 97
        4
330
C81
330
C75
330
C76
330
C6A
 75
     0
 76
     1
 47
0.0514683685270805
 98
        1
 10
437.0770427554747
 20
404.3036262813432
450
        0
451
        0
460
0.0
461
0.0
452
        0
462
0.0
453
        0
470

  0
HATCH
  5
C83
330
18
100
AcDbEntity
  8
ROGO
 62
     4
100
AcDbHatch
 10
0.0
 20
0.0
 30
0.0
210
0.0
220
0.0
230
1.0
  2
SOLID
 70
     1
 71
     1
 91
        2
 92
        7
 72
     0
 73
     1
 93
        8
 10
434.472495311432
 20
404.6874818794462
 10
433.6428509409966
 20
404.0432476866071
 10
433.7003089838056
 20
402.4253067706629
 10
434.2747135799219
 20
402.8713425596456
 10
434.2637739240752
 20
403.1793884995209
 10
434.9192389745932
 20
403.6883692300633
 10
435.1603021812378
 20
403.5590184821094
 10
435.7386247254948
 20
404.008096630262
 97
        8
330
CAF
330
C80
330
C84
330
C85
330
C7F
330
C93
330
CAE
330
C9D
 92
       22
 72
     0
 73
     1
 93
        3
 10
434.6649823413236
 20
403.8247993644808
 10
434.2522355391706
 20
403.5042938413823
 10
434.2326143054824
 20
404.0568012929618
 97
        3
330
C95
330
C96
330
C94
 75
     0
 76
     1
 47
0.0128389261915577
 98
        2
 10
434.600749328765
 20
404.3882024385817
 10
434.600749328765
 20
404.3882024385817
450
        0
451
        0
460
0.0
461
0.0
452
        0
462
0.0
453
        0
470

  0
LINE
  5
C84
102
{ACAD_REACTORS
330
C83
102
}
330
18
100
AcDbEntity
  8
ROGO
 62
     4
100
AcDbLine
 10
433.7003089838057
 20
402.425306770663
 30
0.0
 11
434.274713579922
 21
402.8713425596456
 31
0.0
  0
LINE
  5
C85
102
{ACAD_REACTORS
330
C83
102
}
330
18
100
AcDbEntity
  8
ROGO
 62
     4
100
AcDbLine
 10
434.2637739240752
 20
403.1793884995209
 30
0.0
 11
434.2747135799219
 21
402.8713425596457
 31
0.0
  0
LINE
  5
C86
102
{ACAD_REACTORS
330
C92
102
}
330
18
100
AcDbEntity
  8
ROGO
 62
     4
100
AcDbLine
 10
432.6721356842471
 20
402.3055186087946
 30
0.0
 11
432.7244719608261
 21
402.0483745988403
 31
0.0
  0
LINE
  5
C87
102
{ACAD_REACTORS
330
C92
102
}
330
18
100
AcDbEntity
  8
ROGO
 62
     4
100
AcDbLine
 10
433.4617538868642
 20
402.6208876459269
 30
0.0
 11
433.5286845079979
 21
402.2920371920539
 31
0.0
  0
LINE
  5
C88
102
{ACAD_REACTORS
330
C92
102
}
330
18
100
AcDbEntity
  8
ROGO
 62
     4
100
AcDbLine
 10
432.6721356842471
 20
402.3055186087946
 30
0.0
 11
433.409417610285
 21
402.8780316558811
 31
0.0
  0
LINE
  5
C89
102
{ACAD_REACTORS
330
C92
102
}
330
18
100
AcDbEntity
  8
ROGO
 62
     4
100
AcDbLine
 10
432.7244719608261
 20
402.0483745988403
 30
0.0
 11
433.4617538868642
 21
402.6208876459269
 31
0.0
  0
LINE
  5
C8A
102
{ACAD_REACTORS
330
C92
102
}
330
18
100
AcDbEntity
  8
ROGO
 62
     4
100
AcDbLine
 10
432.1258736741294
 20
401.2027286431524
 30
0.0
 11
433.5286845079979
 21
402.2920371920539
 31
0.0
  0
LINE
  5
C8B
102
{ACAD_REACTORS
330
C92
102
}
330
18
100
AcDbEntity
  8
ROGO
 62
     4
100
AcDbLine
 10
431.8336750505154
 20
402.6383891580105
 30
0.0
 11
433.236485884384
 21
403.7276977069121
 31
0.0
  0
LINE
  5
C8C
102
{ACAD_REACTORS
330
C92
102
}
330
18
100
AcDbEntity
  8
ROGO
 62
     4
100
AcDbLine
 10
432.61847200734
 20
402.569184539403
 30
0.0
 11
433.3557539333781
 21
403.1416975864893
 31
0.0
  0
LINE
  5
C8D
102
{ACAD_REACTORS
330
C92
102
}
330
18
100
AcDbEntity
  8
ROGO
 62
     4
100
AcDbLine
 10
432.5661379463334
 20
402.8263176635768
 30
0.0
 11
433.3034198723716
 21
403.3988307106629
 31
0.0
  0
LINE
  5
C8E
102
{ACAD_REACTORS
330
C92
102
}
330
18
100
AcDbEntity
  8
ROGO
 62
     4
100
AcDbLine
 10
432.5661379463334
 20
402.8263176635768
 30
0.0
 11
432.61847200734
 21
402.569184539403
 31
0.0
  0
LINE
  5
C8F
102
{ACAD_REACTORS
330
C92
102
}
330
18
100
AcDbEntity
  8
ROGO
 62
     4
100
AcDbLine
 10
433.2364858843838
 20
403.7276977069119
 30
0.0
 11
433.3034198723716
 21
403.3988307106629
 31
0.0
  0
LINE
  5
C90
102
{ACAD_REACTORS
330
C92
102
}
330
18
100
AcDbEntity
  8
ROGO
 62
     4
100
AcDbLine
 10
433.3557539333781
 20
403.1416975864893
 30
0.0
 11
433.409417610285
 21
402.8780316558811
 31
0.0
  0
LINE
  5
C91
102
{ACAD_REACTORS
330
C92
102
}
330
18
100
AcDbEntity
  8
ROGO
 62
     4
100
AcDbLine
 10
431.8336750505154
 20
402.6383891580105
 30
0.0
 11
432.1258736741294
 21
401.2027286431524
 31
0.0
  0
HATCH
  5
C92
330
18
100
AcDbEntity
  8
ROGO
 62
     4
100
AcDbHatch
 10
0.0
 20
0.0
 30
0.0
210
0.0
220
0.0
230
1.0
  2
SOLID
 70
     1
 71
     1
 91
        1
 92
        1
 93
       12
 72
     1
 10
431.8336750505154
 20
402.6383891580105
 11
433.236485884384
 21
403.7276977069121
 72
     1
 10
433.2364858843838
 20
403.7276977069119
 11
433.3034198723716
 21
403.3988307106629
 72
     1
 10
433.3034198723716
 20
403.3988307106629
 11
432.5661379463334
 21
402.8263176635768
 72
     1
 10
432.5661379463334
 20
402.8263176635768
 11
432.61847200734
 21
402.569184539403
 72
     1
 10
432.61847200734
 20
402.569184539403
 11
433.3557539333781
 21
403.1416975864893
 72
     1
 10
433.3557539333781
 20
403.1416975864893
 11
433.409417610285
 21
402.8780316558811
 72
     1
 10
433.409417610285
 20
402.8780316558811
 11
432.6721356842471
 21
402.3055186087946
 72
     1
 10
432.6721356842471
 20
402.3055186087946
 11
432.7244719608261
 21
402.0483745988403
 72
     1
 10
432.7244719608261
 20
402.0483745988403
 11
433.4617538868642
 21
402.6208876459269
 72
     1
 10
433.4617538868642
 20
402.6208876459269
 11
433.5286845079979
 21
402.2920371920539
 72
     1
 10
433.5286845079979
 20
402.2920371920539
 11
432.1258736741294
 21
401.2027286431524
 72
     1
 10
432.1258736741294
 20
401.2027286431524
 11
431.8336750505154
 21
402.6383891580105
 97
       12
330
C8B
330
C8F
330
C8D
330
C8E
330
C8C
330
C90
330
C88
330
C86
330
C89
330
C87
330
C8A
330
C91
 75
     0
 76
     1
 98
        1
 10
430.1404853106918
 20
286.3651394610574
450
        0
451
        0
460
0.0
461
0.0
452
        0
462
0.0
453
        0
470

  0
LINE
  5
C93
102
{ACAD_REACTORS
330
C83
102
}
330
18
100
AcDbEntity
  8
ROGO
 62
     4
100
AcDbLine
 10
434.9192389745931
 20
403.6883692300633
 30
0.0
 11
435.1603021812378
 21
403.5590184821095
 31
0.0
  0
LINE
  5
C94
102
{ACAD_REACTORS
330
C83
102
}
330
18
100
AcDbEntity
  8
ROGO
 62
     4
100
AcDbLine
 10
434.2326143054824
 20
404.056801292962
 30
0.0
 11
434.6649823413239
 21
403.8247993644807
 31
0.0
  0
LINE
  5
C95
102
{ACAD_REACTORS
330
C83
102
}
330
18
100
AcDbEntity
  8
ROGO
 62
     4
100
AcDbLine
 10
434.2522355391704
 20
403.5042938413822
 30
0.0
 11
434.6649823413237
 21
403.8247993644809
 31
0.0
  0
LINE
  5
C96
102
{ACAD_REACTORS
330
C83
102
}
330
18
100
AcDbEntity
  8
ROGO
 62
     4
100
AcDbLine
 10
434.2326143054824
 20
404.056801292962
 30
0.0
 11
434.2522355391706
 21
403.5042938413822
 31
0.0
  0
LINE
  5
C97
102
{ACAD_REACTORS
330
CB0
102
}
330
18
100
AcDbEntity
  8
ROGO
 62
     4
100
AcDbLine
 10
435.5891148731777
 20
405.5545576141879
 30
0.0
 11
436.6277752699117
 21
406.3610966159205
 31
0.0
  0
LINE
  5
C98
102
{ACAD_REACTORS
330
CB0
102
}
330
18
100
AcDbEntity
  8
ROGO
 62
     4
100
AcDbLine
 10
436.085950211332
 20
405.32178001661
 30
0.0
 11
436.7350096565363
 21
405.825786676194
 31
0.0
  0
LINE
  5
C99
102
{ACAD_REACTORS
330
CB0
102
}
330
18
100
AcDbEntity
  8
ROGO
 62
     4
100
AcDbLine
 10
436.0226643617417
 20
404.228658659383
 30
0.0
 11
436.9159895177302
 21
404.9223421595904
 31
0.0
  0
LINE
  5
C9A
102
{ACAD_REACTORS
330
CB0
102
}
330
18
100
AcDbEntity
  8
ROGO
 62
     4
100
AcDbLine
 10
436.1455476584211
 20
404.942652684226
 30
0.0
 11
436.8087562666884
 21
405.4576464305308
 31
0.0
  0
SPLINE
  5
C9B
102
{ACAD_REACTORS
330
CB0
102
}
330
18
100
AcDbEntity
  8
ROGO
 62
     4
100
AcDbSpline
210
0.0
220
0.0
230
1.0
 70
     8
 71
     3
 72
    16
 73
    12
 74
    10
 42
0.0000000001
 43
0.0000000001
 44
0.0000000001
 40
0.0
 40
0.0
 40
0.0
 40
0.0
 40
0.1255907025627727
 40
0.186932703846938
 40
0.217182380478919
 40
0.2490606136883007
 40
0.2947101524736595
 40
0.3362763310928346
 40
0.3796288870081328
 40
0.4523125795607663
 40
0.5242542460843096
 40
0.5242542460843096
 40
0.5242542460843096
 40
0.5242542460843096
 10
436.0859502113322
 20
405.3217800166099
 30
0.0
 10
436.0563348415787
 20
405.2905736962387
 30
0.0
 10
436.0122544993997
 20
405.2441253387962
 30
0.0
 10
435.9948325522075
 20
405.1732239232351
 30
0.0
 10
435.9858694368115
 20
405.1321308112433
 30
0.0
 10
435.9990917034689
 20
405.0971962491875
 30
0.0
 10
435.9926080660717
 20
405.057453467095
 30
0.0
 10
435.9965116819512
 20
405.0127845709591
 30
0.0
 10
436.0236641515631
 20
404.9683520698901
 30
0.0
 10
436.0715690433531
 20
404.9136081257246
 30
0.0
 10
436.120972611318
 20
404.9330043366246
 30
0.0
 10
436.1455476584214
 20
404.9426526842262
 30
0.0
 11
436.0859502113322
 21
405.3217800166099
 31
0.0
 11
436.0102325368505
 21
405.2215809230946
 31
0.0
 11
435.9926516235016
 21
405.1628122868388
 31
0.0
 11
435.9888637380669
 21
405.1328007080687
 31
0.0
 11
435.9950805286551
 21
405.1015345399739
 31
0.0
 11
435.9944008960114
 21
405.0558900606715
 31
0.0
 11
435.9993552740899
 21
405.0146202006905
 31
0.0
 11
436.0199480539082
 21
404.9764707377356
 31
0.0
 11
436.0749271079142
 21
404.9289289373523
 31
0.0
 11
436.1455476584214
 21
404.9426526842262
 31
0.0
  0
SPLINE
  5
C9C
102
{ACAD_REACTORS
330
CB0
102
}
330
18
100
AcDbEntity
  8
ROGO
 62
     4
100
AcDbSpline
210
0.0
220
0.0
230
1.0
 70
     8
 71
     3
 72
    26
 73
    22
 74
    20
 42
0.0000000001
 43
0.0000000001
 44
0.0000000001
 40
0.0
 40
0.0
 40
0.0
 40
0.0
 40
0.2382195346593122
 40
0.3976890672663149
 40
0.5126795869789131
 40
0.5985392873135887
 40
0.7099038249249823
 40
0.7911890807497255
 40
0.9379713068543235
 40
1.057449928672957
 40
1.138714535892999
 40
1.218398644003406
 40
1.360938021870262
 40
1.461730374800243
 40
1.51601484410787
 40
1.59312432922032
 40
1.648806818593634
 40
1.72947236200562
 40
1.775122082164147
 40
1.874460993765158
 40
1.919820003751103
 40
1.919820003751103
 40
1.919820003751103
 40
1.919820003751103
 10
435.5891148731775
 20
405.5545576141878
 30
0.0
 10
435.5282111789522
 20
405.5011571933729
 30
0.0
 10
435.4265371773461
 20
405.4120093257313
 30
0.0
 10
435.3646971432785
 20
405.2499964488312
 30
0.0
 10
435.3110344941298
 20
405.1420559195721
 30
0.0
 10
435.2935077350915
 20
405.0383569818045
 30
0.0
 10
435.2937495125693
 20
404.945489282229
 30
0.0
 10
435.2909351392578
 20
404.8324289897851
 30
0.0
 10
435.3073843119163
 20
404.7160927659398
 30
0.0
 10
435.3528450126158
 20
404.609092872301
 30
0.0
 10
435.386993415695
 20
404.522195041306
 30
0.0
 10
435.432797673762
 20
404.4313770152862
 30
0.0
 10
435.5028644046375
 20
404.3492439174184
 30
0.0
 10
435.569913346599
 20
404.2744961749877
 30
0.0
 10
435.6388497602791
 20
404.2375014465369
 30
0.0
 10
435.6986359294051
 20
404.2194788589543
 30
0.0
 10
435.7680002019269
 20
404.2023595539141
 30
0.0
 10
435.8290481707933
 20
404.2027533180415
 30
0.0
 10
435.9019597059887
 20
404.1742066839805
 30
0.0
 10
435.9626375577907
 20
404.2104566440641
 30
0.0
 10
436.0083383575424
 20
404.2243145642334
 30
0.0
 10
436.0226643617417
 20
404.2286586593831
 30
0.0
 11
435.5891148731775
 21
405.5545576141878
 31
0.0
 11
435.4256735460595
 21
405.381250143826
 31
0.0
 11
435.3567089765014
 21
405.2374641223373
 31
0.0
 11
435.3128050287933
 21
405.131184947522
 31
0.0
 11
435.2970702407318
 21
405.0467793518175
 31
0.0
 11
435.2931859689752
 21
404.9354825743695
 31
0.0
 11
435.2930895826537
 21
404.8541973756912
 31
0.0
 11
435.3154317774842
 21
404.7091255030543
 31
0.0
 11
435.3572010498984
 21
404.5971859258099
 31
0.0
 11
435.3883820760147
 21
404.5221414057103
 31
0.0
 11
435.4251966463975
 21
404.4514714368913
 31
0.0
 11
435.5126189965266
 21
404.3388889918096
 31
0.0
 11
435.5850824350571
 21
404.2688308125191
 31
0.0
 11
435.6325816380594
 21
404.2425509852336
 31
0.0
 11
435.7057242427774
 21
404.2181372172045
 31
0.0
 11
435.7601200504619
 21
404.206236136197
 31
0.0
 11
435.8401589359091
 21
404.1962008628908
 31
0.0
 11
435.8845497436171
 21
404.1855541196528
 31
0.0
 11
435.9796445748912
 21
404.2142802823451
 31
0.0
 11
436.0226643617417
 21
404.2286586593831
 31
0.0
  0
LINE
  5
C9D
102
{ACAD_REACTORS
330
C83
102
}
330
18
100
AcDbEntity
  8
ROGO
 62
     4
100
AcDbLine
 10
434.472495311432
 20
404.6874818794463
 30
0.0
 11
435.7386247254948
 21
404.0080966302621
 31
0.0
  0
LINE
  5
C9E
102
{ACAD_REACTORS
330
CB0
102
}
330
18
100
AcDbEntity
  8
ROGO
 62
     4
100
AcDbLine
 10
436.8087562666884
 20
405.4576464305308
 30
0.0
 11
436.9159895177302
 21
404.9223421595904
 31
0.0
  0
LINE
  5
C9F
102
{ACAD_REACTORS
330
C6D
102
}
330
18
100
AcDbEntity
  8
ROGO
 62
     4
100
AcDbLine
 10
439.4873903635767
 20
407.5376553317119
 30
0.0
 11
440.1505989718441
 21
408.0526490780165
 31
0.0
  0
LINE
  5
CA0
102
{ACAD_REACTORS
330
C6D
102
}
330
18
100
AcDbEntity
  8
ROGO
 62
     4
100
AcDbLine
 10
440.1505989718441
 20
408.0526490780165
 30
0.0
 11
440.2578322228857
 21
407.5173448070761
 31
0.0
  0
SPLINE
  5
CA1
102
{ACAD_REACTORS
330
C6D
102
}
330
18
100
AcDbEntity
  8
ROGO
 62
     4
100
AcDbSpline
210
0.0
220
0.0
230
1.0
 70
     8
 71
     3
 72
    16
 73
    12
 74
    10
 42
0.0000000001
 43
0.0000000001
 44
0.0000000001
 40
0.0
 40
0.0
 40
0.0
 40
0.0
 40
0.1255907025627727
 40
0.1869327038469491
 40
0.2171823804790572
 40
0.2490606136883274
 40
0.2947101524736878
 40
0.3362763310930029
 40
0.379628887008101
 40
0.4523125795608205
 40
0.5242542460840073
 40
0.5242542460840073
 40
0.5242542460840073
 40
0.5242542460840073
 10
439.4277929164876
 20
407.9167826640957
 30
0.0
 10
439.3981775467338
 20
407.8855763437244
 30
0.0
 10
439.3540972045547
 20
407.8391279862819
 30
0.0
 10
439.3366752573634
 20
407.7682265707207
 30
0.0
 10
439.3277121419671
 20
407.727133458729
 30
0.0
 10
439.3409344086245
 20
407.692198896673
 30
0.0
 10
439.3344507712271
 20
407.6524561145805
 30
0.0
 10
439.3383543871071
 20
407.6077872184447
 30
0.0
 10
439.3655068567185
 20
407.5633547173755
 30
0.0
 10
439.4134117485091
 20
407.5086107732107
 30
0.0
 10
439.4628153164738
 20
407.5280069841103
 30
0.0
 10
439.4873903635768
 20
407.5376553317118
 30
0.0
 11
439.4277929164876
 21
407.9167826640957
 31
0.0
 11
439.352075242006
 21
407.8165835705803
 31
0.0
 11
439.3344943286573
 21
407.7578149343244
 31
0.0
 11
439.3307064432225
 21
407.7278033555542
 31
0.0
 11
439.3369232338108
 21
407.6965371874595
 31
0.0
 11
439.336243601167
 21
407.6508927081571
 31
0.0
 11
439.3411979792456
 21
407.609622848176
 31
0.0
 11
439.3617907590639
 21
407.5714733852214
 31
0.0
 11
439.4167698130701
 21
407.5239315848381
 31
0.0
 11
439.4873903635768
 21
407.5376553317118
 31
0.0
  0
LINE
  5
CA2
102
{ACAD_REACTORS
330
C6D
102
}
330
18
100
AcDbEntity
  8
ROGO
 62
     4
100
AcDbLine
 10
439.3645070668974
 20
406.8236613068686
 30
0.0
 11
440.2578322228858
 21
407.5173448070762
 31
0.0
  0
ELLIPSE
  5
CA3
102
{ACAD_REACTORS
330
CB1
102
}
330
18
100
AcDbEntity
  8
ROGO
 62
     4
100
AcDbEllipse
 10
437.7522413972906
 20
406.3831766639594
 30
0.0
 11
0.0446594609353312
 21
0.2331751568719221
 31
0.0
210
0.0
220
0.0
230
1.0
 40
0.6788083417438791
 41
0.0
 42
6.283185307179586
  0
SPLINE
  5
CA4
102
{ACAD_REACTORS
330
CB1
102
}
330
18
100
AcDbEntity
  8
ROGO
 62
     4
100
AcDbSpline
210
0.0
220
0.0
230
1.0
 70
     8
 71
     3
 72
     9
 73
     5
 74
     3
 42
0.0000000001
 43
0.0000000001
 44
0.0000000001
 40
0.0
 40
0.0
 40
0.0
 40
0.0
 40
0.1135793343549945
 40
0.2662938392175955
 40
0.2662938392175955
 40
0.2662938392175955
 40
0.2662938392175955
 10
438.4778510085109
 20
406.1722230671066
 30
0.0
 10
438.4998219825482
 20
406.2034164484736
 30
0.0
 10
438.5513343026456
 20
406.2765512782345
 30
0.0
 10
438.5732329710766
 20
406.3635863076814
 30
0.0
 10
438.5857914452658
 20
406.4134992589788
 30
0.0
 11
438.4778510085109
 21
406.1722230671066
 31
0.0
 11
438.5383766653155
 21
406.2683319119696
 31
0.0
 11
438.5857914452658
 21
406.4134992589788
 31
0.0
  0
SPLINE
  5
CA5
102
{ACAD_REACTORS
330
CB1
102
}
330
18
100
AcDbEntity
  8
ROGO
 62
     4
100
AcDbSpline
210
0.0
220
0.0
230
1.0
 70
     8
 71
     3
 72
    11
 73
     7
 74
     0
 42
0.0000000001
 43
0.0000000001
 40
0.1647869275458134
 40
0.1647869275458134
 40
0.1647869275458134
 40
0.1647869275458134
 40
0.2895635144633836
 40
0.5387013147903714
 40
0.7953622617455423
 40
0.8850764140209602
 40
0.8850764140209602
 40
0.8850764140209602
 40
0.8850764140209602
 10
438.4778510085109
 20
406.1722230671066
 30
0.0
 10
438.4691966698754
 20
406.1605765466381
 30
0.0
 10
438.4392133001996
 20
406.1285229615775
 30
0.0
 10
438.3876274914402
 20
406.0764220909057
 30
0.0
 10
438.3391408407545
 20
406.0262034405412
 30
0.0
 10
438.3067294136457
 20
406.002021885459
 30
0.0
 10
438.2983345731576
 20
405.9957586531432
 30
0.0
  0
LINE
  5
CA6
102
{ACAD_REACTORS
330
CB1
102
}
330
18
100
AcDbEntity
  8
ROGO
 62
     4
100
AcDbLine
 10
437.7056006381606
 20
405.5354897936309
 30
0.0
 11
438.2983345731576
 21
405.995758653143
 31
0.0
  0
LINE
  5
CA7
102
{ACAD_REACTORS
330
CB1
102
}
330
18
100
AcDbEntity
  8
ROGO
 62
     4
100
AcDbLine
 10
437.2003829197768
 20
406.8126716890116
 30
0.0
 11
437.7931168547737
 21
407.2729405485238
 31
0.0
  0
SPLINE
  5
CA8
102
{ACAD_REACTORS
330
CB1
102
}
330
18
100
AcDbEntity
  8
ROGO
 62
     4
100
AcDbSpline
210
0.0
220
0.0
230
1.0
 70
     8
 71
     3
 72
    25
 73
    21
 74
     0
 42
0.0000000001
 43
0.0000000001
 40
0.0
 40
0.0
 40
0.0
 40
0.0
 40
0.4087168505087288
 40
0.6887487002771746
 40
0.9415836120477687
 40
1.17452070575514
 40
1.41154617586699
 40
1.599156012919487
 40
1.80099909059943
 40
2.178735911501585
 40
2.521686161369157
 40
2.762704659361267
 40
3.06256558063785
 40
3.222432137207705
 40
3.399493810628493
 40
3.567459719866414
 40
3.743172740007509
 40
3.995988754699505
 40
4.17170091132118
 40
4.337226830236035
 40
4.337226830236035
 40
4.337226830236035
 40
4.337226830236035
 10
437.7931168547737
 20
407.2729405485238
 30
0.0
 10
437.832962422305
 20
407.3018791888615
 30
0.0
 10
437.9001081316508
 20
407.3506451031999
 30
0.0
 10
438.0131313482727
 20
407.3502865319754
 30
0.0
 10
438.1023414916657
 20
407.3464989825358
 30
0.0
 10
438.1833296788172
 20
407.3210606302514
 30
0.0
 10
438.2561544821161
 20
407.2963983023206
 30
0.0
 10
438.3197527767106
 20
407.2600422262545
 30
0.0
 10
438.3996014214177
 20
407.2191644343273
 30
0.0
 10
438.4787003056348
 20
407.1429456960902
 30
0.0
 10
438.5392229918247
 20
407.0476785406778
 30
0.0
 10
438.5784083799657
 20
406.9520026448134
 30
0.0
 10
438.6022997125687
 20
406.8738106228238
 30
0.0
 10
438.6160214263871
 20
406.8002440608247
 30
0.0
 10
438.6101592962304
 20
406.7411584339458
 30
0.0
 10
438.6213544282638
 20
406.6805127526906
 30
0.0
 10
438.6058123844782
 20
406.6117285640301
 30
0.0
 10
438.6048404083481
 20
406.5409948345764
 30
0.0
 10
438.5943648962325
 20
406.4727967099007
 30
0.0
 10
438.5900061914923
 20
406.432353518578
 30
0.0
 10
438.5857914452658
 20
406.4134992589788
 30
0.0
  0
SPLINE
  5
CA9
102
{ACAD_REACTORS
330
CB1
102
}
330
18
100
AcDbEntity
  8
ROGO
 62
     4
100
AcDbSpline
210
0.0
220
0.0
230
1.0
 70
     8
 71
     3
 72
    38
 73
    34
 74
    32
 42
0.0000000001
 43
0.0000000001
 44
0.0000000001
 40
0.0
 40
0.0
 40
0.0
 40
0.0
 40
0.1807680148265098
 40
0.2375392910068679
 40
0.3104865209605776
 40
0.3712759982446522
 40
0.4225667543872164
 40
0.4906925837206662
 40
0.5255021974951833
 40
0.5647069597053572
 40
0.6224874016817671
 40
0.6879401044674804
 40
0.7303986317549013
 40
0.7765228362185614
 40
0.8277951442290252
 40
0.9056034696997908
 40
0.9795294930263523
 40
1.013897332332862
 40
1.053089255535873
 40
1.099518741889503
 40
1.132570569820509
 40
1.160277520290249
 40
1.199836786293671
 40
1.243305643169046
 40
1.286774258016743
 40
1.324809356515664
 40
1.411916492917459
 40
1.446284332224263
 40
1.515020051661098
 40
1.575779369908403
 40
1.692098529536049
 40
1.835624328518964
 40
2.04289646798393
 40
2.04289646798393
 40
2.04289646798393
 40
2.04289646798393
 10
437.2003829197768
 20
406.8126716890117
 30
0.0
 10
437.1554018314305
 20
406.7723537842996
 30
0.0
 10
437.0962941632692
 20
406.7193738004823
 30
0.0
 10
437.033778913016
 20
406.6359556088435
 30
0.0
 10
437.0106180791667
 20
406.5764246961007
 30
0.0
 10
436.9803631049602
 20
406.522392776493
 30
0.0
 10
436.963861290552
 20
406.4643575383502
 30
0.0
 10
436.9363004691074
 20
406.4196539640306
 30
0.0
 10
436.9294516526385
 20
406.3723179037063
 30
0.0
 10
436.9103995271465
 20
406.3318572733212
 30
0.0
 10
436.9131564776649
 20
406.2765494492149
 30
0.0
 10
436.9111520780021
 20
406.221280592486
 30
0.0
 10
436.8976339272942
 20
406.1715758395759
 30
0.0
 10
436.8908998042678
 20
406.1251671554897
 30
0.0
 10
436.8972085760905
 20
406.0665136717792
 30
0.0
 10
436.9236274321805
 20
406.0025861320823
 30
0.0
 10
436.9086179363766
 20
405.9376171771754
 30
0.0
 10
436.9335203198934
 20
405.8928552384189
 30
0.0
 10
436.9292523239105
 20
405.8517236702727
 30
0.0
 10
436.9430783830399
 20
405.8136430428069
 30
0.0
 10
436.9610034161807
 20
405.7828373343062
 30
0.0
 10
436.9767479960626
 20
405.7532933982835
 30
0.0
 10
436.9862894290008
 20
405.7167624146159
 30
0.0
 10
437.0164159694298
 20
405.6858786483211
 30
0.0
 10
437.0407845807199
 20
405.6522425413791
 30
0.0
 10
437.075799832916
 20
405.608476536848
 30
0.0
 10
437.1069464187702
 20
405.5635780494814
 30
0.0
 10
437.1618614608694
 20
405.5310403961514
 30
0.0
 10
437.2052692769541
 20
405.4977346214801
 30
0.0
 10
437.2801931856185
 20
405.4631271481802
 30
0.0
 10
437.3837611858432
 20
405.4364931639402
 30
0.0
 10
437.5450361784598
 20
405.4317799292743
 30
0.0
 10
437.6459655844259
 20
405.4969710370811
 30
0.0
 10
437.7056006381609
 20
405.5354897936308
 30
0.0
 11
437.2003829197768
 21
406.8126716890117
 31
0.0
 11
437.0719722177272
 21
406.6854405340872
 31
0.0
 11
437.0390178886715
 21
406.6392129449694
 31
0.0
 11
437.0074711643968
 21
406.5734398308158
 31
0.0
 11
436.9811819598156
 21
406.5186288987771
 31
0.0
 11
436.9634833972766
 21
406.4704884526872
 31
0.0
 11
436.9362316026371
 21
406.4080507372318
 31
0.0
 11
436.9280856378663
 21
406.3742076807935
 31
0.0
 11
436.9156447434615
 21
406.3370292256567
 31
0.0
 11
436.9122387230494
 21
406.2793492594644
 31
0.0
 11
436.9078701125787
 21
406.2140425098553
 31
0.0
 11
436.8987617061903
 21
406.1725724788391
 31
0.0
 11
436.8929859768298
 21
406.1268113251412
 31
0.0
 11
436.8981701125684
 21
406.0758017740222
 31
0.0
 11
436.9157222446489
 21
405.999999015682
 31
0.0
 11
436.9180184212019
 21
405.9261086611144
 31
0.0
 11
436.9294234900346
 21
405.8936884084393
 31
0.0
 11
436.932237916825
 21
405.854597669815
 31
0.0
 11
436.946012694606
 21
405.810258604645
 31
0.0
 11
436.9617123556224
 21
405.781173488631
 31
0.0
 11
436.9740800145134
 21
405.7563800193721
 31
0.0
 11
436.9888174229227
 21
405.7196683819787
 31
0.0
 11
437.0154777723806
 21
405.6853352014555
 31
0.0
 11
437.0421379733985
 21
405.6510022120945
 31
0.0
 11
437.065465686399
 21
405.6209607986127
 31
0.0
 11
437.1230811665098
 21
405.5556300274268
 31
0.0
 11
437.1516665476441
 21
405.5365506048984
 31
0.0
 11
437.2088378363741
 21
405.4983924750772
 31
0.0
 11
437.2636388896946
 21
405.4721524425154
 31
0.0
 11
437.3761291445314
 21
405.4425536340387
 31
0.0
 11
437.519648359297
 21
405.4439283946478
 31
0.0
 11
437.7056006381609
 21
405.5354897936308
 31
0.0
  0
LINE
  5
CAA
102
{ACAD_REACTORS
330
CB0
102
}
330
18
100
AcDbEntity
  8
ROGO
 62
     4
100
AcDbLine
 10
436.6277752699118
 20
406.3610966159204
 30
0.0
 11
436.7350096565363
 21
405.825786676194
 31
0.0
  0
SPLINE
  5
CAB
102
{ACAD_REACTORS
330
C6D
102
}
330
18
100
AcDbEntity
  8
ROGO
 62
     4
100
AcDbSpline
210
0.0
220
0.0
230
1.0
 70
     8
 71
     3
 72
    26
 73
    22
 74
    20
 42
0.0000000001
 43
0.0000000001
 44
0.0000000001
 40
0.0
 40
0.0
 40
0.0
 40
0.0
 40
0.2382195346593122
 40
0.3976890672661674
 40
0.5126795869788525
 40
0.5985392873137306
 40
0.7099038249254571
 40
0.7911890807496324
 40
0.9379713068547145
 40
1.057449928673494
 40
1.138714535893196
 40
1.218398644003502
 40
1.360938021870497
 40
1.461730374800477
 40
1.516014844108006
 40
1.593124329220564
 40
1.648806818593766
 40
1.729472362005407
 40
1.775122082164349
 40
1.874460993765219
 40
1.9198200037512
 40
1.9198200037512
 40
1.9198200037512
 40
1.9198200037512
 10
438.930957578333
 20
408.1495602616736
 30
0.0
 10
438.8700538841075
 20
408.0961598408588
 30
0.0
 10
438.7683798825014
 20
408.0070119732172
 30
0.0
 10
438.7065398484346
 20
407.8449990963167
 30
0.0
 10
438.6528771992852
 20
407.7370585670579
 30
0.0
 10
438.6353504402472
 20
407.63335962929
 30
0.0
 10
438.6355922177253
 20
407.5404919297143
 30
0.0
 10
438.6327778444132
 20
407.4274316372707
 30
0.0
 10
438.649227017072
 20
407.3110954134253
 30
0.0
 10
438.6946877177718
 20
407.2040955197865
 30
0.0
 10
438.7288361208503
 20
407.1171976887915
 30
0.0
 10
438.7746403789176
 20
407.0263796627715
 30
0.0
 10
438.8447071097931
 20
406.9442465649041
 30
0.0
 10
438.9117560517548
 20
406.8694988224733
 30
0.0
 10
438.9806924654347
 20
406.8325040940224
 30
0.0
 10
439.0404786345608
 20
406.8144815064399
 30
0.0
 10
439.1098429070823
 20
406.7973622013997
 30
0.0
 10
439.1708908759489
 20
406.797755965527
 30
0.0
 10
439.2438024111442
 20
406.7692093314662
 30
0.0
 10
439.3044802629465
 20
406.8054592915499
 30
0.0
 10
439.3501810626981
 20
406.8193172117189
 30
0.0
 10
439.3645070668974
 20
406.8236613068686
 30
0.0
 11
438.930957578333
 21
408.1495602616736
 31
0.0
 11
438.7675162512151
 21
407.9762527913118
 31
0.0
 11
438.6985516816572
 21
407.8324667698231
 31
0.0
 11
438.6546477339489
 21
407.7261875950077
 31
0.0
 11
438.6389129458875
 21
407.641781999303
 31
0.0
 11
438.6350286741311
 21
407.5304852218547
 31
0.0
 11
438.6349322878092
 21
407.449200023177
 31
0.0
 11
438.6572744826399
 21
407.3041281505396
 31
0.0
 11
438.6990437550543
 21
407.192188573295
 31
0.0
 11
438.7302247811702
 21
407.1171440531958
 31
0.0
 11
438.7670393515529
 21
407.0464740843768
 31
0.0
 11
438.8544617016823
 21
406.9338916392951
 31
0.0
 11
438.9269251402128
 21
406.8638334600047
 31
0.0
 11
438.974424343215
 21
406.8375536327192
 31
0.0
 11
439.047566947933
 21
406.8131398646901
 31
0.0
 11
439.1019627556175
 21
406.8012387836826
 31
0.0
 11
439.1820016410644
 21
406.7912035103764
 31
0.0
 11
439.2263924487728
 21
406.7805567671385
 31
0.0
 11
439.3214872800468
 21
406.8092829298307
 31
0.0
 11
439.3645070668974
 21
406.8236613068686
 31
0.0
  0
LINE
  5
CAC
102
{ACAD_REACTORS
330
C6E
102
}
330
18
100
AcDbEntity
  8
ROGO
 62
     4
100
AcDbLine
 10
441.1168312533929
 20
407.927141795558
 30
0.0
 11
441.6562280736
 21
407.6679223474747
 31
0.0
  0
LINE
  5
CAD
102
{ACAD_REACTORS
330
C6E
102
}
330
18
100
AcDbEntity
  8
ROGO
 62
     4
100
AcDbLine
 10
441.1168312533929
 20
407.927141795558
 30
0.0
 11
441.2343788641885
 21
407.3403486368467
 31
0.0
  0
LINE
  5
CAE
102
{ACAD_REACTORS
330
C83
102
}
330
18
100
AcDbEntity
  8
ROGO
 62
     4
100
AcDbLine
 10
435.7386247254948
 20
404.0080966302621
 30
0.0
 11
435.1603021812378
 21
403.5590184821095
 31
0.0
  0
LINE
  5
CAF
102
{ACAD_REACTORS
330
C83
102
}
330
18
100
AcDbEntity
  8
ROGO
 62
     4
100
AcDbLine
 10
433.6428509409966
 20
404.0432476866071
 30
0.0
 11
434.472495311432
 21
404.6874818794463
 31
0.0
  0
HATCH
  5
CB0
330
18
100
AcDbEntity
  8
ROGO
 62
     4
100
AcDbHatch
 10
0.0
 20
0.0
 30
0.0
210
0.0
220
0.0
230
1.0
  2
SOLID
 70
     1
 71
     1
 91
        1
 92
        5
 93
        8
 72
     1
 10
436.7350096565364
 20
405.8257866761939
 11
436.6277752699118
 21
406.3610966159207
 72
     1
 10
436.6277752699118
 20
406.3610966159207
 11
435.5891148731775
 21
405.5545576141877
 72
     4
 94
        3
 73
     0
 74
     0
 95
       26
 96
       22
 40
0.0
 40
0.0
 40
0.0
 40
0.0
 40
0.2382195346593122
 40
0.3976890672663149
 40
0.5126795869789131
 40
0.5985392873135887
 40
0.7099038249249823
 40
0.7911890807497255
 40
0.9379713068543235
 40
1.057449928672957
 40
1.138714535892999
 40
1.218398644003406
 40
1.360938021870262
 40
1.461730374800243
 40
1.51601484410787
 40
1.59312432922032
 40
1.648806818593634
 40
1.72947236200562
 40
1.775122082164147
 40
1.874460993765158
 40
1.919820003751103
 40
1.919820003751103
 40
1.919820003751103
 40
1.919820003751103
 10
435.5891148731775
 20
405.5545576141878
 10
435.5282111789521
 20
405.501157193373
 10
435.4265371773461
 20
405.4120093257313
 10
435.3646971432786
 20
405.2499964488311
 10
435.3110344941297
 20
405.1420559195721
 10
435.2935077350915
 20
405.0383569818045
 10
435.2937495125693
 20
404.9454892822289
 10
435.2909351392578
 20
404.8324289897852
 10
435.3073843119161
 20
404.7160927659398
 10
435.3528450126159
 20
404.609092872301
 10
435.3869934156949
 20
404.522195041306
 10
435.4327976737621
 20
404.4313770152862
 10
435.5028644046375
 20
404.3492439174184
 10
435.5699133465988
 20
404.2744961749876
 10
435.6388497602791
 20
404.237501446537
 10
435.6986359294049
 20
404.2194788589543
 10
435.7680002019269
 20
404.202359553914
 10
435.8290481707933
 20
404.2027533180415
 10
435.9019597059886
 20
404.1742066839804
 10
435.9626375577907
 20
404.210456644064
 10
436.0083383575423
 20
404.2243145642334
 10
436.0226643617417
 20
404.2286586593831
 72
     1
 10
436.0226643617419
 20
404.2286586593831
 11
436.9159895177302
 21
404.9223421595904
 72
     1
 10
436.9159895177302
 20
404.9223421595904
 11
436.8087562666883
 21
405.4576464305307
 72
     1
 10
436.8087562666883
 20
405.4576464305307
 11
436.1455476584213
 21
404.9426526842262
 72
     4
 94
        3
 73
     0
 74
     0
 95
       16
 96
       12
 40
0.0
 40
0.0
 40
0.0
 40
0.0
 40
0.0719416665235433
 40
0.1446253590761767
 40
0.187977914991475
 40
0.2295440936106501
 40
0.2751936323960089
 40
0.3070718656053906
 40
0.3373215422373716
 40
0.3986635435215369
 40
0.5242542460843096
 40
0.5242542460843096
 40
0.5242542460843096
 40
0.5242542460843096
 10
436.1455476584214
 20
404.9426526842262
 10
436.120972611318
 20
404.9330043366246
 10
436.0715690433531
 20
404.9136081257247
 10
436.0236641515632
 20
404.96835206989
 10
435.9965116819512
 20
405.0127845709591
 10
435.9926080660717
 20
405.0574534670951
 10
435.9990917034688
 20
405.0971962491874
 10
435.9858694368115
 20
405.1321308112435
 10
435.9948325522074
 20
405.1732239232349
 10
436.0122544993997
 20
405.2441253387963
 10
436.0563348415787
 20
405.2905736962388
 10
436.0859502113322
 20
405.3217800166099
 72
     1
 10
436.0859502113324
 20
405.3217800166104
 11
436.7350096565364
 21
405.8257866761939
 97
        8
330
C97
330
C9C
330
C99
330
C9E
330
C9A
330
C9B
330
C98
330
CAA
 75
     0
 76
     1
 47
0.0514683685270805
 98
        1
 10
436.1316596680703
 20
405.6057487434172
450
        0
451
        0
460
0.0
461
0.0
452
        0
462
0.0
453
        0
470

  0
HATCH
  5
CB1
330
18
100
AcDbEntity
  8
ROGO
 62
     4
100
AcDbHatch
 10
0.0
 20
0.0
 30
0.0
210
0.0
220
0.0
230
1.0
  2
SOLID
 70
     1
 71
     1
 91
        2
 92
        5
 93
        6
 72
     4
 94
        3
 73
     0
 74
     0
 95
       38
 96
       34
 40
0.0
 40
0.0
 40
0.0
 40
0.0
 40
0.1807680148265098
 40
0.2375392910068679
 40
0.3104865209605776
 40
0.3712759982446522
 40
0.4225667543872164
 40
0.4906925837206662
 40
0.5255021974951833
 40
0.5647069597053572
 40
0.6224874016817671
 40
0.6879401044674804
 40
0.7303986317549013
 40
0.7765228362185614
 40
0.8277951442290252
 40
0.9056034696997908
 40
0.9795294930263523
 40
1.013897332332862
 40
1.053089255535873
 40
1.099518741889503
 40
1.132570569820509
 40
1.160277520290249
 40
1.199836786293671
 40
1.243305643169046
 40
1.286774258016743
 40
1.324809356515664
 40
1.411916492917459
 40
1.446284332224263
 40
1.515020051661098
 40
1.575779369908403
 40
1.692098529536049
 40
1.835624328518964
 40
2.04289646798393
 40
2.04289646798393
 40
2.04289646798393
 40
2.04289646798393
 10
437.2003829197768
 20
406.8126716890117
 10
437.1554018314303
 20
406.7723537842995
 10
437.0962941632692
 20
406.7193738004822
 10
437.033778913016
 20
406.6359556088436
 10
437.0106180791668
 20
406.5764246961007
 10
436.9803631049601
 20
406.5223927764931
 10
436.9638612905521
 20
406.4643575383501
 10
436.9363004691075
 20
406.4196539640307
 10
436.9294516526385
 20
406.3723179037063
 10
436.9103995271465
 20
406.3318572733212
 10
436.9131564776649
 20
406.276549449215
 10
436.9111520780022
 20
406.2212805924859
 10
436.8976339272942
 20
406.1715758395759
 10
436.8908998042678
 20
406.1251671554896
 10
436.8972085760906
 20
406.0665136717794
 10
436.9236274321805
 20
406.0025861320823
 10
436.9086179363766
 20
405.9376171771754
 10
436.9335203198934
 20
405.892855238419
 10
436.9292523239105
 20
405.8517236702726
 10
436.94307838304
 20
405.813643042807
 10
436.9610034161807
 20
405.7828373343062
 10
436.9767479960625
 20
405.7532933982836
 10
436.9862894290009
 20
405.7167624146159
 10
437.0164159694298
 20
405.6858786483211
 10
437.0407845807199
 20
405.6522425413791
 10
437.075799832916
 20
405.6084765368481
 10
437.1069464187703
 20
405.5635780494815
 10
437.1618614608693
 20
405.5310403961514
 10
437.2052692769541
 20
405.4977346214802
 10
437.2801931856186
 20
405.4631271481802
 10
437.3837611858432
 20
405.4364931639402
 10
437.5450361784598
 20
405.4317799292744
 10
437.6459655844258
 20
405.4969710370811
 10
437.7056006381609
 20
405.5354897936308
 72
     1
 10
437.7056006381605
 20
405.5354897936308
 11
438.2983345731573
 21
405.9957586531429
 72
     4
 94
        3
 73
     0
 74
     0
 95
       11
 96
        7
 40
0.1647869275458135
 40
0.1647869275458135
 40
0.1647869275458135
 40
0.1647869275458135
 40
0.2545010798212315
 40
0.5111620267764023
 40
0.7602998271033902
 40
0.8850764140209603
 40
0.8850764140209603
 40
0.8850764140209603
 40
0.8850764140209603
 10
438.2983345731576
 20
405.9957586531432
 10
438.3067294136457
 20
406.002021885459
 10
438.3391408407545
 20
406.0262034405412
 10
438.3876274914402
 20
406.0764220909057
 10
438.4392133001996
 20
406.1285229615775
 10
438.4691966698754
 20
406.1605765466381
 10
438.4778510085109
 20
406.1722230671066
 72
     4
 94
        3
 73
     0
 74
     0
 95
        9
 96
        5
 40
0.0
 40
0.0
 40
0.0
 40
0.0
 40
0.1135793343549945
 40
0.2662938392175955
 40
0.2662938392175955
 40
0.2662938392175955
 40
0.2662938392175955
 10
438.4778510085109
 20
406.1722230671066
 10
438.4998219825482
 20
406.2034164484735
 10
438.5513343026456
 20
406.2765512782345
 10
438.5732329710766
 20
406.3635863076814
 10
438.5857914452658
 20
406.4134992589788
 72
     4
 94
        3
 73
     0
 74
     0
 95
       25
 96
       21
 40
0.0
 40
0.0
 40
0.0
 40
0.0
 40
0.165525918914855
 40
0.3412380755365305
 40
0.5940540902285263
 40
0.7697671103696209
 40
0.9377330196075423
 40
1.11479469302833
 40
1.274661249598185
 40
1.574522170874768
 40
1.815540668866877
 40
2.15849091873445
 40
2.536227739636605
 40
2.738070817316548
 40
2.925680654369045
 40
3.162706124480894
 40
3.395643218188267
 40
3.648478129958861
 40
3.928509979727306
 40
4.337226830236035
 40
4.337226830236035
 40
4.337226830236035
 40
4.337226830236035
 10
438.5857914452658
 20
406.4134992589788
 10
438.5900061914923
 20
406.432353518578
 10
438.5943648962325
 20
406.4727967099007
 10
438.6048404083481
 20
406.5409948345764
 10
438.6058123844782
 20
406.6117285640301
 10
438.6213544282638
 20
406.6805127526906
 10
438.6101592962304
 20
406.7411584339458
 10
438.6160214263871
 20
406.8002440608247
 10
438.6022997125687
 20
406.8738106228238
 10
438.5784083799657
 20
406.9520026448134
 10
438.5392229918247
 20
407.0476785406778
 10
438.4787003056348
 20
407.1429456960902
 10
438.3996014214177
 20
407.2191644343273
 10
438.3197527767106
 20
407.2600422262545
 10
438.2561544821161
 20
407.2963983023206
 10
438.1833296788172
 20
407.3210606302514
 10
438.1023414916657
 20
407.3464989825358
 10
438.0131313482727
 20
407.3502865319754
 10
437.9001081316508
 20
407.3506451031999
 10
437.832962422305
 20
407.3018791888615
 10
437.7931168547737
 20
407.2729405485238
 72
     1
 10
437.7931168547736
 20
407.2729405485238
 11
437.2003829197768
 21
406.8126716890116
 97
        6
330
CA8
330
CA7
330
CA9
330
CA6
330
CA5
330
CA4
 92
       20
 93
        1
 72
     3
 10
437.7522413972906
 20
406.3831766639594
 11
0.0446594609353312
 21
0.2331751568719221
 40
0.6788083417438791
 50
0.0
 51
360.0
 73
     1
 97
        1
330
CA3
 75
     0
 76
     1
 47
0.088756267210375
 98
        2
 10
437.601385170721
 20
406.6629367508894
 10
437.601385170721
 20
406.6629367508894
450
        0
451
        0
460
0.0
461
0.0
452
        0
462
0.0
453
        0
470

  0
LINE
  5
CB2
330
18
100
AcDbEntity
  8
目盛
100
AcDbLine
 10
456.3405722697909
 20
380.1217111563435
 30
0.0
 11
455.0171632060067
 21
381.6212405658229
 31
0.0
  0
LINE
  5
CB3
330
18
100
AcDbEntity
  8
目盛
100
AcDbLine
 10
453.3877819125742
 20
381.5696196314615
 30
0.0
 11
455.2277439940197
 21
379.2001176713773
 31
0.0
  0
TEXT
  5
CB4
330
18
100
AcDbEntity
  8
文字
100
AcDbText
 10
452.3068275636048
 20
381.4384287230762
 30
0.0
 40
2.0
  1
0
 50
37.83000000000019
  7
STYLE3
100
AcDbText
  0
LINE
  5
CB5
330
18
100
AcDbEntity
  8
目盛
100
AcDbLine
 10
454.0592442969332
 20
378.3502178062182
 30
0.0
 11
452.9342115786149
 21
380.0037901157083
 31
0.0
  0
LINE
  5
CB6
330
18
100
AcDbEntity
  8
目盛
100
AcDbLine
 10
452.8396847129994
 20
377.5753657273514
 30
0.0
 11
451.8207006541536
 21
379.2963164784824
 31
0.0
  0
LINE
  5
CB7
330
18
100
AcDbEntity
  8
目盛
100
AcDbLine
 10
451.5738782867322
 20
376.8786194219367
 30
0.0
 11
450.6649643519097
 21
378.6601568083209
 31
0.0
  0
LINE
  5
CB8
330
18
100
AcDbEntity
  8
目盛
100
AcDbLine
 10
450.2668205778043
 20
376.2627286293279
 30
0.0
 11
449.4715638350621
 21
378.0978217368085
 31
0.0
  0
LINE
  5
CB9
330
18
100
AcDbEntity
  8
目盛
100
AcDbLine
 10
459.3023119291881
 20
383.2789547198025
 30
0.0
 11
457.7213602863259
 21
384.5039412107201
 31
0.0
  0
LINE
  5
CBA
330
18
100
AcDbEntity
  8
目盛
100
AcDbLine
 10
460.92456221297
 20
385.6687141273687
 30
0.0
 11
459.2025453280397
 21
386.6858954524112
 31
0.0
  0
LINE
  5
CBB
330
18
100
AcDbEntity
  8
目盛
100
AcDbLine
 10
460.1509876785399
 20
384.4483437890822
 30
0.0
 11
457.6688633773747
 21
386.1332945164223
 31
0.0
  0
LINE
  5
CBC
330
18
100
AcDbEntity
  8
目盛
100
AcDbLine
 10
462.2345042947304
 20
388.2429514419369
 30
0.0
 11
460.3985794026904
 21
389.0362860439736
 31
0.0
  0
LINE
  5
CBD
330
18
100
AcDbEntity
  8
目盛
100
AcDbLine
 10
461.6199825872032
 20
386.9352494904715
 30
0.0
 11
459.8374943653832
 21
387.8422973056789
 31
0.0
  0
LINE
  5
CBE
330
18
100
AcDbEntity
  8
目盛
100
AcDbLine
 10
463.2114796053186
 20
390.9610694032815
 30
0.0
 11
460.3301607050082
 21
391.7965341809433
 31
0.0
  0
LINE
  5
CBF
330
18
100
AcDbEntity
  8
目盛
100
AcDbLine
 10
458.3818843003744
 20
382.165161963943
 30
0.0
 11
456.8809698426262
 21
383.4869999988486
 31
0.0
  0
LINE
  5
CC0
330
18
100
AcDbEntity
  8
目盛
100
AcDbLine
 10
457.3933372994457
 20
381.111361152668
 30
0.0
 11
455.9783834504741
 21
382.524834040728
 31
0.0
  0
LINE
  5
CC1
330
18
100
AcDbEntity
  8
目盛
100
AcDbLine
 10
462.7657020991198
 20
389.5866590795952
 30
0.0
 11
460.8835860936549
 21
390.2631495392268
 31
0.0
  0
LINE
  5
CC2
102
{ACAD_REACTORS
330
C6E
102
}
330
18
100
AcDbEntity
  8
ROGO
 62
     4
100
AcDbLine
 10
441.2201131637321
 20
408.6282014771736
 30
0.0
 11
442.2533956443849
 21
408.1316340071493
 31
0.0
  0
TEXT
  5
CC3
330
18
100
AcDbEntity
  8
文字
100
AcDbText
 10
446.8588786945842
 20
389.9376972582027
 30
0.0
 40
0.7
  1
6
 50
37.83000000000019
  7
STYLE3
100
AcDbText
  0
TEXT
  5
CC4
330
18
100
AcDbEntity
  8
文字
100
AcDbText
 10
446.9699465393146
 20
384.5326633585333
 30
0.0
 40
0.7
  1
0
 50
37.83000000000019
  7
STYLE3
100
AcDbText
  0
TEXT
  5
CC5
330
18
100
AcDbEntity
  8
文字
100
AcDbText
 10
445.0965084248072
 20
383.8148406582559
 30
0.0
 40
0.7
  1
8
 50
37.83000000000019
  7
STYLE3
100
AcDbText
  0
LINE
  5
CC6
330
18
100
AcDbEntity
  8
目盛
100
AcDbLine
 10
445.1437376412991
 20
382.8748639508815
 30
0.0
 11
445.1277705937192
 21
383.3746089392422
 31
0.0
  0
LINE
  5
CC7
330
18
100
AcDbEntity
  8
目盛
100
AcDbLine
 10
447.9053239849124
 20
383.8707299035076
 30
0.0
 11
447.5986636380049
 21
384.265646896855
 31
0.0
  0
TEXT
  5
CC8
330
18
100
AcDbEntity
  8
文字
100
AcDbText
 10
448.2156365808975
 20
388.1958556162049
 30
0.0
 40
0.7
  1
4
 50
37.83000000000019
  7
STYLE3
100
AcDbText
  0
LINE
  5
CC9
330
18
100
AcDbEntity
  8
目盛
100
AcDbLine
 10
449.4603912561241
 20
389.2337862998955
 30
0.0
 11
448.9900396175102
 21
389.0641710409915
 31
0.0
  0
TEXT
  5
CCA
330
18
100
AcDbEntity
  8
文字
100
AcDbText
 10
448.0581410977907
 20
386.231441376713
 30
0.0
 40
0.7
  1
2
 50
37.83000000000019
  7
STYLE3
100
AcDbText
  0
LINE
  5
CCB
330
18
100
AcDbEntity
  8
目盛
100
AcDbLine
 10
449.5541389481154
 20
386.2996221090098
 30
0.0
 11
449.073919131397
 21
386.43886623862
 31
0.0
  0
LINE
  5
CCC
102
{ACAD_REACTORS
330
C6D
102
}
330
18
100
AcDbEntity
  8
ROGO
 62
     4
100
AcDbLine
 10
439.9696179750673
 20
408.9560992634061
 30
0.0
 11
440.0768523616919
 21
408.4207893236796
 31
0.0
  0
LINE
  5
CCD
102
{ACAD_REACTORS
330
C6E
102
}
330
18
100
AcDbEntity
  8
ROGO
 62
     4
100
AcDbLine
 10
440.1868437489111
 20
409.1247790930573
 30
0.0
 11
440.7840243855282
 21
409.5885008985924
 31
0.0
  0
LINE
  5
CCE
102
{ACAD_REACTORS
330
C6E
102
}
330
18
100
AcDbEntity
  8
ROGO
 62
     4
100
AcDbLine
 10
440.9754073023781
 20
409.7371132719821
 30
0.0
 11
441.5725748731632
 21
410.2008249316572
 31
0.0
  0
LINE
  5
CCF
102
{ACAD_REACTORS
330
C6E
102
}
330
18
100
AcDbEntity
  8
ROGO
 62
     4
100
AcDbLine
 10
440.8331939301573
 20
409.3430484201461
 30
0.0
 11
440.9754073023781
 21
409.7371132719821
 31
0.0
  0
LINE
  5
CD0
102
{ACAD_REACTORS
330
C6E
102
}
330
18
100
AcDbEntity
  8
ROGO
 62
     4
100
AcDbLine
 10
440.7840243855282
 20
409.5885008985924
 30
0.0
 11
440.8331939301573
 21
409.3430484201461
 31
0.0
  0
LINE
  5
CD1
102
{ACAD_REACTORS
330
C6E
102
}
330
18
100
AcDbEntity
  8
ROGO
 62
     4
100
AcDbLine
 10
441.2201131637321
 20
408.6282014771736
 30
0.0
 11
441.5725748731632
 21
410.2008249316572
 31
0.0
  0
TEXT
  5
CD2
330
18
100
AcDbEntity
  8
文字
100
AcDbText
 10
440.1587807228266
 20
413.6469758088349
 30
0.0
 40
2.0
  1
.2
 50
37.83000000000019
  7
STYLE3
100
AcDbText
  0
LINE
  5
CD3
330
18
100
AcDbEntity
  8
目盛
100
AcDbLine
 10
447.6598893409124
 20
391.5524714838196
 30
0.0
 11
447.3790642196892
 21
391.138784100292
 31
0.0
  0
LINE
  5
CD4
330
18
100
AcDbEntity
  8
目盛
100
AcDbLine
 10
444.707465734202
 20
420.0850119895547
 30
0.0
 11
444.3956311517734
 21
418.1094717613637
 31
0.0
  0
LINE
  5
CD5
330
18
100
AcDbEntity
  8
目盛
100
AcDbLine
 10
441.8317785671297
 20
420.3553253751216
 30
0.0
 11
441.7700037383593
 21
418.3562796351422
 31
0.0
  0
LINE
  5
CD6
330
18
100
AcDbEntity
  8
目盛
100
AcDbLine
 10
443.2738696208509
 20
420.2653547373231
 30
0.0
 11
443.0866955700178
 21
418.2741325310653
 31
0.0
  0
LINE
  5
CD7
330
18
100
AcDbEntity
  8
目盛
100
AcDbLine
 10
447.5265979983474
 20
419.4564109344034
 30
0.0
 11
446.6911332206854
 21
416.575092034093
 31
0.0
  0
LINE
  5
CD8
330
18
100
AcDbEntity
  8
目盛
100
AcDbLine
 10
446.1269091582719
 20
419.8150088622513
 30
0.0
 11
445.6916447128805
 21
417.8629471668691
 31
0.0
  0
LINE
  5
CD9
330
18
100
AcDbEntity
  8
目盛
100
AcDbLine
 10
448.9010083220339
 20
419.0106334282045
 30
0.0
 11
448.2245178624022
 21
417.1285174227393
 31
0.0
  0
LINE
  5
CDA
330
18
100
AcDbEntity
  8
目盛
100
AcDbLine
 10
457.3763062489607
 20
413.6382686285305
 30
0.0
 11
455.9628333609006
 21
412.2233147795588
 31
0.0
  0
TEXT
  5
CDB
330
18
100
AcDbEntity
  8
文字
100
AcDbText
 10
450.6877823294103
 20
410.5031986702341
 30
0.0
 40
2.0
  1
.4
 50
37.83000000000019
  7
STYLE3
100
AcDbText
  0
LINE
  5
CDC
330
18
100
AcDbEntity
  8
目盛
100
AcDbLine
 10
450.2447159596917
 20
418.4794356238152
 30
0.0
 11
449.4513813576553
 21
416.6435107317753
 31
0.0
  0
LINE
  5
CDD
330
18
100
AcDbEntity
  8
目盛
100
AcDbLine
 10
451.5524179111574
 20
417.8649139162881
 30
0.0
 11
450.6453700959498
 21
416.0824256944682
 31
0.0
  0
LINE
  5
CDE
330
18
100
AcDbEntity
  8
目盛
100
AcDbLine
 10
452.81895327426
 20
417.1694935420546
 30
0.0
 11
451.8017719492174
 21
415.4474766571245
 31
0.0
  0
LINE
  5
CDF
330
18
100
AcDbEntity
  8
目盛
100
AcDbLine
 10
454.0393236125466
 20
416.3959190076247
 30
0.0
 11
452.3543728852066
 21
413.9137947064594
 31
0.0
  0
LINE
  5
CE0
330
18
100
AcDbEntity
  8
目盛
100
AcDbLine
 10
456.3225054376857
 20
414.6268156294588
 30
0.0
 11
455.0006674027802
 21
413.1259011717109
 31
0.0
  0
LINE
  5
CE1
330
18
100
AcDbEntity
  8
目盛
100
AcDbLine
 10
455.2087126818267
 20
415.547243258273
 30
0.0
 11
453.9837261909087
 21
413.9662916154108
 31
0.0
  0
LINE
  5
CE2
330
18
100
AcDbEntity
  8
目盛
100
AcDbLine
 10
462.7575434125192
 20
405.1686012749392
 30
0.0
 11
459.9354335808348
 21
404.1509097215153
 31
0.0
  0
LINE
  5
CE3
330
18
100
AcDbEntity
  8
目盛
100
AcDbLine
 10
464.1096375008617
 20
398.1007835540301
 30
0.0
 11
461.1111675706979
 21
398.0049812685513
 31
0.0
  0
LINE
  5
CE4
330
18
100
AcDbEntity
  8
目盛
100
AcDbLine
 10
464.1103940460368
 20
396.6558888344993
 30
0.0
 11
462.1113483060574
 21
396.7176636632697
 31
0.0
  0
LINE
  5
CE5
330
18
100
AcDbEntity
  8
目盛
100
AcDbLine
 10
464.0204234082384
 20
395.2137977807782
 30
0.0
 11
462.0292012019805
 21
395.400971831611
 31
0.0
  0
LINE
  5
CE6
330
18
100
AcDbEntity
  8
目盛
100
AcDbLine
 10
463.836312851502
 20
400.9761860728672
 30
0.0
 11
461.8611002588733
 21
400.6622828809097
 31
0.0
  0
LINE
  5
CE7
330
18
100
AcDbEntity
  8
目盛
100
AcDbLine
 10
464.0181567584511
 20
399.5427796000222
 30
0.0
 11
462.0271316521748
 21
399.3535204491818
 31
0.0
  0
LINE
  5
CE8
330
18
100
AcDbEntity
  8
目盛
100
AcDbLine
 10
463.5648234348381
 20
402.3953459720781
 30
0.0
 11
461.6132186175715
 21
401.9580375714936
 31
0.0
  0
LINE
  5
CE9
330
18
100
AcDbEntity
  8
目盛
100
AcDbLine
 10
463.2047599531554
 20
403.794658521885
 30
0.0
 11
461.2844650038613
 21
403.2356707691435
 31
0.0
  0
TEXT
  5
CEA
330
18
100
AcDbEntity
  8
文字
100
AcDbText
 10
456.9451451763588
 20
401.659739839579
 30
0.0
 40
2.0
  1
.6
 50
37.83000000000019
  7
STYLE3
100
AcDbText
  0
LINE
  5
CEB
330
18
100
AcDbEntity
  8
目盛
100
AcDbLine
 10
463.5700775331665
 20
392.360758243357
 30
0.0
 11
461.6180158377846
 21
392.7960226887483
 31
0.0
  0
LINE
  5
CEC
330
18
100
AcDbEntity
  8
目盛
100
AcDbLine
 10
463.8400806604701
 20
393.7802016674268
 30
0.0
 11
461.864540432279
 21
394.0920362498555
 31
0.0
  0
LINE
  5
CED
330
18
100
AcDbEntity
  8
目盛
100
AcDbLine
 10
458.365956245285
 20
412.5855035988757
 30
0.0
 11
456.8664268358057
 21
411.2620945350915
 31
0.0
  0
LINE
  5
CEE
330
18
100
AcDbEntity
  8
目盛
100
AcDbLine
 10
456.9180477701674
 20
409.6327132416592
 30
0.0
 11
459.2875497302515
 21
411.4726753231044
 31
0.0
  0
LINE
  5
CEF
330
18
100
AcDbEntity
  8
目盛
100
AcDbLine
 10
460.1374495954107
 20
410.3041756260179
 30
0.0
 11
458.4838772859203
 21
409.1791429076996
 31
0.0
  0
LINE
  5
CF0
330
18
100
AcDbEntity
  8
目盛
100
AcDbLine
 10
460.9123016742771
 20
409.0846160420843
 30
0.0
 11
459.1913509231464
 21
408.0656319832384
 31
0.0
  0
LINE
  5
CF1
330
18
100
AcDbEntity
  8
目盛
100
AcDbLine
 10
461.6090479796922
 20
407.818809615817
 30
0.0
 11
459.8275105933079
 21
406.9098956809944
 31
0.0
  0
LINE
  5
CF2
330
18
100
AcDbEntity
  8
目盛
100
AcDbLine
 10
462.2249387723011
 20
406.5117519068888
 30
0.0
 11
460.3898456648204
 21
405.7164951641468
 31
0.0
  0
LINE
  5
CF3
330
18
100
AcDbEntity
  8
目盛
100
AcDbLine
 10
429.4237827982839
 20
377.5631051886588
 30
0.0
 11
430.4409641233263
 21
379.2851220735891
 31
0.0
  0
LINE
  5
CF4
330
18
100
AcDbEntity
  8
目盛
100
AcDbLine
 10
428.2034124599972
 20
378.3366797230889
 30
0.0
 11
429.8883631873374
 21
380.8188040242543
 31
0.0
  0
LINE
  5
CF5
330
18
100
AcDbEntity
  8
目盛
100
AcDbLine
 10
425.9202306348582
 20
380.1057831012545
 30
0.0
 11
427.2420686697635
 21
381.6066975590027
 31
0.0
  0
LINE
  5
CF6
330
18
100
AcDbEntity
  8
目盛
100
AcDbLine
 10
427.0340233907175
 20
379.1853554724406
 30
0.0
 11
428.2590098816353
 21
380.766307115303
 31
0.0
  0
LINE
  5
CF7
330
18
100
AcDbEntity
  8
目盛
100
AcDbLine
 10
434.7161380741968
 20
375.2761877963101
 30
0.0
 11
435.5516028518586
 21
378.1575066966204
 31
0.0
  0
LINE
  5
CF8
330
18
100
AcDbEntity
  8
目盛
100
AcDbLine
 10
436.115826914272
 20
374.917589868462
 30
0.0
 11
436.5510913596633
 21
376.8696515638442
 31
0.0
  0
LINE
  5
CF9
330
18
100
AcDbEntity
  8
目盛
100
AcDbLine
 10
437.535270338342
 20
374.6475867411588
 30
0.0
 11
437.8471049207708
 21
376.6231269693498
 31
0.0
  0
LINE
  5
CFA
330
18
100
AcDbEntity
  8
目盛
100
AcDbLine
 10
430.6903181613867
 20
376.8676848144254
 30
0.0
 11
431.5973659765941
 21
378.6501730362456
 31
0.0
  0
LINE
  5
CFB
330
18
100
AcDbEntity
  8
目盛
100
AcDbLine
 10
431.9980201128522
 20
376.2531631068985
 30
0.0
 11
432.7913547148888
 21
378.0890879989381
 31
0.0
  0
LINE
  5
CFC
330
18
100
AcDbEntity
  8
目盛
100
AcDbLine
 10
433.3417277505101
 20
375.721965302509
 30
0.0
 11
434.0182182101416
 21
377.604081307974
 31
0.0
  0
LINE
  5
CFD
330
18
100
AcDbEntity
  8
目盛
100
AcDbLine
 10
438.9688664516931
 20
374.4672439933903
 30
0.0
 11
439.1560405025262
 21
376.4584661996482
 31
0.0
  0
LINE
  5
CFE
330
18
100
AcDbEntity
  8
目盛
100
AcDbLine
 10
441.8558522249453
 20
374.3780299007671
 30
0.0
 11
441.7600499394662
 21
377.3764998309311
 31
0.0
  0
LINE
  5
CFF
330
18
100
AcDbEntity
  8
目盛
100
AcDbLine
 10
440.4109575054144
 20
374.3772733555919
 30
0.0
 11
440.4727323341846
 21
376.3763190955714
 31
0.0
  0
LINE
  5
D00
330
18
100
AcDbEntity
  8
目盛
100
AcDbLine
 10
443.2978482709372
 20
374.4695106431775
 30
0.0
 11
443.1085891200969
 21
376.4605357494539
 31
0.0
  0
LINE
  5
D01
330
18
100
AcDbEntity
  8
目盛
100
AcDbLine
 10
444.7312547437824
 20
374.6513545501271
 30
0.0
 11
444.417351551825
 21
376.6265671427557
 31
0.0
  0
LINE
  5
D02
330
18
100
AcDbEntity
  8
目盛
100
AcDbLine
 10
446.1504146429933
 20
374.9228439667908
 30
0.0
 11
445.7131062424088
 21
376.8744487840576
 31
0.0
  0
CIRCLE
  5
D03
330
18
100
AcDbEntity
  8
外形線
100
AcDbCircle
 10
441.1213680362719
 20
397.3662993653567
 30
0.0
 40
23.0
  0
LINE
  5
D56
330
18
100
AcDbEntity
  8
隠れ線
 62
     4
 48
0.5
100
AcDbLine
 10
430.7617410546379
 20
331.7161782921934
 30
0.0
 11
426.20101610377
 21
328.3016283069971
 31
0.0
  0
LINE
  5
D58
102
{ACAD_REACTORS
330
10EC
102
}
330
18
100
AcDbEntity
  8
想像線
100
AcDbLine
 10
397.4961540260924
 20
328.7807550097646
 30
0.0
 11
403.8378632936384
 21
320.6139059799562
 31
0.0
  0
LINE
  5
D59
102
{ACAD_REACTORS
330
10EC
102
}
330
18
100
AcDbEntity
  8
想像線
 48
0.5
100
AcDbLine
 10
423.6535287280166
 20
349.0924400863979
 30
0.0
 11
397.4961540260924
 21
328.7807550097646
 31
0.0
  0
LINE
  5
D5D
330
18
100
AcDbEntity
  8
隠れ線
 62
     4
 48
0.5
100
AcDbLine
 10
438.033056994134
 20
318.3711568818742
 30
0.0
 11
435.7522393777935
 21
319.135159009583
 31
0.0
  0
ARC
  5
D5E
330
18
100
AcDbEntity
  8
隠れ線
 62
     4
 48
0.5
100
AcDbCircle
 10
437.08641690016
 20
350.2961242915277
 30
0.0
 40
30.0
100
AcDbArc
 50
237.072186869214
 51
253.0258636997235
  0
LINE
  5
D70
330
18
100
AcDbEntity
  8
中心線
100
AcDbLine
 10
418.6041295235354
 20
310.4477261547188
 30
0.0
 11
418.6041295235354
 21
301.8318077603681
 31
0.0
  0
LINE
  5
D71
330
18
100
AcDbEntity
  8
中心線
100
AcDbLine
 10
414.7978948592774
 20
306.0054558688469
 30
0.0
 11
423.1442703008863
 21
306.0054558688469
 31
0.0
  0
LINE
  5
D72
330
18
100
AcDbEntity
  8
中心線
100
AcDbLine
 10
416.6210480340324
 20
304.4240530303978
 30
0.0
 11
420.5321486923173
 21
304.4240530303978
 31
0.0
  0
LINE
  5
D73
330
18
100
AcDbEntity
  8
中心線
100
AcDbLine
 10
418.3375848508346
 20
306.5866002200932
 30
0.0
 11
418.3375848508346
 21
301.235242305994
 31
0.0
  0
LINE
  5
D83
102
{ACAD_REACTORS
330
10EC
102
}
330
18
100
AcDbEntity
  8
想像線
 48
0.5
100
AcDbLine
 10
411.7362031605862
 20
326.7471129181071
 30
0.0
 11
440.0277225056178
 21
314.9620170281707
 31
0.0
  0
LINE
  5
DB9
330
18
100
AcDbEntity
  8
目盛
100
AcDbLine
 10
427.592566280077
 20
415.9666091219595
 30
0.0
 11
428.768983824094
 21
414.3491908822549
 31
0.0
  0
LINE
  5
DBA
330
18
100
AcDbEntity
  8
目盛
100
AcDbLine
 10
426.4513391669588
 20
415.080425168611
 30
0.0
 11
427.7269938512469
 21
413.5400664031105
 31
0.0
  0
LINE
  5
DBB
330
18
100
AcDbEntity
  8
目盛
100
AcDbLine
 10
425.3680079556891
 20
414.1243316535311
 30
0.0
 11
426.7378653540007
 21
412.6671114545594
 31
0.0
  0
LINE
  5
DBC
330
18
100
AcDbEntity
  8
目盛
100
AcDbLine
 10
424.3468480596319
 20
413.1021018410266
 30
0.0
 11
426.5348289261503
 21
411.0496058659393
 31
0.0
  0
LINE
  5
DBD
330
18
100
AcDbEntity
  8
目盛
100
AcDbLine
 10
423.3918895303731
 20
412.017770005155
 30
0.0
 11
424.9335833134948
 21
410.7437290799551
 31
0.0
  0
LINE
  5
DBE
330
18
100
AcDbEntity
  8
目盛
100
AcDbLine
 10
422.5069011529489
 20
410.8756155082883
 30
0.0
 11
424.125550447151
 21
409.7008923654247
 31
0.0
  0
LINE
  5
DBF
330
18
100
AcDbEntity
  8
目盛
100
AcDbLine
 10
421.6953755721723
 20
409.6801459124249
 30
0.0
 11
423.3845923081811
 21
408.6093766474624
 31
0.0
  0
LINE
  5
DC0
330
18
100
AcDbEntity
  8
目盛
100
AcDbLine
 10
420.9605155087597
 20
408.4360791899015
 30
0.0
 11
422.7136331198478
 21
407.473489639941
 31
0.0
  0
LINE
  5
DC1
330
18
100
AcDbEntity
  8
目盛
100
AcDbLine
 10
420.3052211196556
 20
407.1483251037121
 30
0.0
 11
423.0203707174752
 21
405.8724087030571
 31
0.0
  0
LINE
  5
DC2
330
18
100
AcDbEntity
  8
目盛
100
AcDbLine
 10
419.7320785524388
 20
405.8219658309159
 30
0.0
 11
421.5920167684243
 21
405.0866904860847
 31
0.0
  0
LINE
  5
DC3
330
18
100
AcDbEntity
  8
目盛
100
AcDbLine
 10
419.2433497389776
 20
404.4622359056067
 30
0.0
 11
421.1457861126555
 21
403.8451979455849
 31
0.0
  0
LINE
  5
DC4
330
18
100
AcDbEntity
  8
目盛
100
AcDbLine
 10
418.8409634686201
 20
403.0745015605981
 30
0.0
 11
420.7783899527639
 21
402.5781361523162
 31
0.0
  0
LINE
  5
DC5
330
18
100
AcDbEntity
  8
目盛
100
AcDbLine
 10
418.5265077761425
 20
401.6642395493544
 30
0.0
 11
420.4912782335451
 21
401.2905056203112
 31
0.0
  0
LINE
  5
DC6
330
18
100
AcDbEntity
  8
目盛
100
AcDbLine
 10
418.3012236745018
 20
400.2370155317465
 30
0.0
 11
421.2777642434284
 21
399.8625742926522
 31
0.0
  0
LINE
  5
DC7
330
18
100
AcDbEntity
  8
目盛
100
AcDbLine
 10
418.1660002571248
 20
398.7984621089353
 30
0.0
 11
420.162119194442
 21
398.6739262181894
 31
0.0
  0
LINE
  5
DC8
330
18
100
AcDbEntity
  8
目盛
100
AcDbLine
 10
418.1213711890621
 20
397.3542565940684
 30
0.0
 11
420.1213709149065
 21
397.3553037915717
 31
0.0
  0
LINE
  5
DC9
330
18
100
AcDbEntity
  8
目盛
100
AcDbLine
 10
418.1675126008563
 20
395.9100986065176
 30
0.0
 11
420.163500030023
 21
396.0367247594602
 31
0.0
  0
LINE
  5
DCA
330
18
100
AcDbEntity
  8
目盛
100
AcDbLine
 10
418.3042423934351
 20
394.4716875780872
 30
0.0
 11
420.2883402754209
 21
394.7233929508933
 31
0.0
  0
LINE
  5
DCB
330
18
100
AcDbEntity
  8
目盛
100
AcDbLine
 10
418.531020956773
 20
393.044700259959
 30
0.0
 11
421.4775879671424
 21
393.6083870997936
 31
0.0
  0
LINE
  5
DCC
330
18
100
AcDbEntity
  8
目盛
100
AcDbLine
 10
418.8469532994858
 20
391.6347683191487
 30
0.0
 11
420.7838589287717
 21
392.133162323167
 31
0.0
  0
LINE
  5
DCD
330
18
100
AcDbEntity
  8
目盛
100
AcDbLine
 10
419.2507925809525
 20
390.2474561128906
 30
0.0
 11
421.1525817509803
 21
390.8664859609312
 31
0.0
  0
LINE
  5
DCE
330
18
100
AcDbEntity
  8
目盛
100
AcDbLine
 10
419.740945032026
 20
388.8882387286597
 30
0.0
 11
421.6001122497866
 21
389.6254613927204
 31
0.0
  0
LINE
  5
DCF
330
18
100
AcDbEntity
  8
目盛
100
AcDbLine
 10
420.3154762449111
 20
387.5624803765044
 30
0.0
 11
422.1246842267686
 21
388.4149863755351
 31
0.0
  0
LINE
  5
DD0
330
18
100
AcDbEntity
  8
目盛
100
AcDbLine
 10
420.9721188073888
 20
386.2754132189593
 30
0.0
 11
423.6002817502866
 21
387.7220505424025
 31
0.0
  0
LINE
  5
DD1
330
18
100
AcDbEntity
  8
目盛
100
AcDbLine
 10
421.7082812512564
 20
385.0321167220901
 30
0.0
 11
423.3963757543013
 21
386.1046543432437
 31
0.0
  0
LINE
  5
DD2
330
18
100
AcDbEntity
  8
目盛
100
AcDbLine
 10
422.521058279669
 20
383.8374976091618
 30
0.0
 11
424.1384765193736
 21
385.0139151531788
 31
0.0
  0
LINE
  5
DD3
330
18
100
AcDbEntity
  8
目盛
100
AcDbLine
 10
423.4072422330176
 20
382.6962704960435
 30
0.0
 11
424.9476009985181
 21
383.9719251803316
 31
0.0
  0
LINE
  5
DD4
330
18
100
AcDbEntity
  8
目盛
100
AcDbLine
 10
424.3633357480973
 20
381.6129392847738
 30
0.0
 11
425.8205559470692
 21
382.9827966830854
 31
0.0
  0
LINE
  5
DD5
330
18
100
AcDbEntity
  8
目盛
100
AcDbLine
 10
425.3855655606019
 20
380.5917793887165
 30
0.0
 11
427.4380615356894
 21
382.7797602552349
 31
0.0
  0
LINE
  5
DD6
330
18
100
AcDbEntity
  8
目盛
100
AcDbLine
 10
426.4698973964736
 20
379.6368208594579
 30
0.0
 11
427.7439383216735
 21
381.1785146425796
 31
0.0
  0
LINE
  5
DD7
330
18
100
AcDbEntity
  8
目盛
100
AcDbLine
 10
427.6120518933403
 20
378.7518324820337
 30
0.0
 11
428.786775036204
 21
380.3704817762358
 31
0.0
  0
LINE
  5
DD8
330
18
100
AcDbEntity
  8
目盛
100
AcDbLine
 10
428.8075214892036
 20
377.940306901257
 30
0.0
 11
429.8782907541662
 21
379.6295236372657
 31
0.0
  0
LINE
  5
DD9
330
18
100
AcDbEntity
  8
目盛
100
AcDbLine
 10
430.0515882117269
 20
377.2054468378444
 30
0.0
 11
431.0141777616875
 21
378.9585644489325
 31
0.0
  0
LINE
  5
DDA
330
18
100
AcDbEntity
  8
目盛
100
AcDbLine
 10
431.3393422979165
 20
376.5501524487405
 30
0.0
 11
432.6152586985713
 21
379.2653020465601
 31
0.0
  0
LINE
  5
DDB
330
18
100
AcDbEntity
  8
目盛
100
AcDbLine
 10
432.6657015707127
 20
375.9770098815234
 30
0.0
 11
433.4009769155439
 21
377.836948097509
 31
0.0
  0
LINE
  5
DDC
330
18
100
AcDbEntity
  8
目盛
100
AcDbLine
 10
434.0254314960219
 20
375.4882810680623
 30
0.0
 11
434.6424694560437
 21
377.3907174417401
 31
0.0
  0
LINE
  5
DDD
330
18
100
AcDbEntity
  8
目盛
100
AcDbLine
 10
435.4131658410304
 20
375.0858947977048
 30
0.0
 11
435.9095312493123
 21
377.0233212818485
 31
0.0
  0
LINE
  5
DDE
330
18
100
AcDbEntity
  8
目盛
100
AcDbLine
 10
436.8234278522743
 20
374.7714391052272
 30
0.0
 11
437.1971617813176
 21
376.7362095626298
 31
0.0
  0
LINE
  5
DDF
330
18
100
AcDbEntity
  8
目盛
100
AcDbLine
 10
438.2506518698821
 20
374.5461550035865
 30
0.0
 11
438.6250931089764
 21
377.5226955725131
 31
0.0
  0
LINE
  5
DE0
330
18
100
AcDbEntity
  8
目盛
100
AcDbLine
 10
439.6892052926932
 20
374.4109315862096
 30
0.0
 11
439.813741183439
 21
376.4070505235268
 31
0.0
  0
LINE
  5
DE1
330
18
100
AcDbEntity
  8
目盛
100
AcDbLine
 10
441.1334108075603
 20
374.3663025181468
 30
0.0
 11
441.132363610057
 21
376.3663022439912
 31
0.0
  0
LINE
  5
DE2
330
18
100
AcDbEntity
  8
目盛
100
AcDbLine
 10
442.577568795111
 20
374.4124439299411
 30
0.0
 11
442.4509426421685
 21
376.4084313591077
 31
0.0
  0
LINE
  5
DE3
330
18
100
AcDbEntity
  8
目盛
100
AcDbLine
 10
444.0159798235413
 20
374.5491737225198
 30
0.0
 11
443.7642744507353
 21
376.5332716045057
 31
0.0
  0
LINE
  5
DE4
330
18
100
AcDbEntity
  8
目盛
100
AcDbLine
 10
445.4429671416696
 20
374.7759522858578
 30
0.0
 11
444.8792803018352
 21
377.7225192962272
 31
0.0
  0
LINE
  5
DE5
330
18
100
AcDbEntity
  8
目盛
100
AcDbLine
 10
446.8528990824799
 20
375.0918846285705
 30
0.0
 11
446.3545050784618
 21
377.0287902578564
 31
0.0
  0
LINE
  5
DE6
330
18
100
AcDbEntity
  8
目盛
100
AcDbLine
 10
448.2402112887381
 20
375.4957239100373
 30
0.0
 11
447.6211814406975
 21
377.3975130800651
 31
0.0
  0
LINE
  5
DE7
330
18
100
AcDbEntity
  8
目盛
100
AcDbLine
 10
449.5994286729689
 20
375.9858763611107
 30
0.0
 11
448.8622060089083
 21
377.8450435788712
 31
0.0
  0
LINE
  5
DE8
330
18
100
AcDbEntity
  8
目盛
100
AcDbLine
 10
450.9251870251242
 20
376.5604075739956
 30
0.0
 11
450.0726810260935
 21
378.3696155558532
 31
0.0
  0
LINE
  5
DE9
330
18
100
AcDbEntity
  8
目盛
100
AcDbLine
 10
452.2122541826694
 20
377.2170501364735
 30
0.0
 11
450.7656168592262
 21
379.8452130793713
 31
0.0
  0
LINE
  5
DEA
330
18
100
AcDbEntity
  8
目盛
100
AcDbLine
 10
453.4555506795386
 20
377.9532125803412
 30
0.0
 11
452.3830130583849
 21
379.6413070833861
 31
0.0
  0
LINE
  5
DEB
330
18
100
AcDbEntity
  8
目盛
100
AcDbLine
 10
454.6501697924669
 20
378.7659896087538
 30
0.0
 11
453.4737522484499
 21
380.3834078484585
 31
0.0
  0
LINE
  5
DEC
330
18
100
AcDbEntity
  8
目盛
100
AcDbLine
 10
455.7913969055852
 20
379.6521735621025
 30
0.0
 11
454.515742221297
 21
381.1925323276028
 31
0.0
  0
LINE
  5
DED
330
18
100
AcDbEntity
  8
目盛
100
AcDbLine
 10
456.8747281168548
 20
380.6082670771822
 30
0.0
 11
455.5048707185433
 21
382.0654872761539
 31
0.0
  0
LINE
  5
DEE
330
18
100
AcDbEntity
  8
目盛
100
AcDbLine
 10
457.895888012912
 20
381.6304968896867
 30
0.0
 11
455.7079071463937
 21
383.6829928647741
 31
0.0
  0
LINE
  5
DEF
330
18
100
AcDbEntity
  8
目盛
100
AcDbLine
 10
458.8508465421708
 20
382.7148287255584
 30
0.0
 11
457.3091527590491
 21
383.9888696507583
 31
0.0
  0
LINE
  5
DF0
330
18
100
AcDbEntity
  8
目盛
100
AcDbLine
 10
459.735834919595
 20
383.856983222425
 30
0.0
 11
458.1171856253929
 21
385.0317063652886
 31
0.0
  0
LINE
  5
DF1
330
18
100
AcDbEntity
  8
目盛
100
AcDbLine
 10
460.5473605003716
 20
385.0524528182883
 30
0.0
 11
458.8581437643629
 21
386.1232220832509
 31
0.0
  0
LINE
  5
DF2
330
18
100
AcDbEntity
  8
目盛
100
AcDbLine
 10
461.2822205637843
 20
386.2965195408116
 30
0.0
 11
459.5291029526962
 21
387.2591090907721
 31
0.0
  0
LINE
  5
DF3
330
18
100
AcDbEntity
  8
目盛
100
AcDbLine
 10
461.9375149528882
 20
387.5842736270013
 30
0.0
 11
459.2223653550686
 21
388.8601900276562
 31
0.0
  0
LINE
  5
DF4
330
18
100
AcDbEntity
  8
目盛
100
AcDbLine
 10
462.5106575201052
 20
388.9106328997974
 30
0.0
 11
460.6507193041196
 21
389.6459082446287
 31
0.0
  0
LINE
  5
DF5
330
18
100
AcDbEntity
  8
目盛
100
AcDbLine
 10
462.9993863335663
 20
390.2703628251066
 30
0.0
 11
461.0969499598885
 21
390.8874007851284
 31
0.0
  0
LINE
  5
DF6
330
18
100
AcDbEntity
  8
目盛
100
AcDbLine
 10
463.4017726039238
 20
391.6580971701154
 30
0.0
 11
461.4643461197801
 21
392.1544625783972
 31
0.0
  0
LINE
  5
DF7
330
18
100
AcDbEntity
  8
目盛
100
AcDbLine
 10
463.7162282964014
 20
393.0683591813589
 30
0.0
 11
461.7514578389988
 21
393.4420931104023
 31
0.0
  0
LINE
  5
DF8
330
18
100
AcDbEntity
  8
目盛
100
AcDbLine
 10
463.941512398042
 20
394.4955831989669
 30
0.0
 11
460.9649718291154
 21
394.8700244380612
 31
0.0
  0
LINE
  5
DF9
330
18
100
AcDbEntity
  8
目盛
100
AcDbLine
 10
464.0767358154191
 20
395.9341366217778
 30
0.0
 11
462.0806168781019
 21
396.0586725125239
 31
0.0
  0
LINE
  5
DFA
330
18
100
AcDbEntity
  8
目盛
100
AcDbLine
 10
464.1213648834817
 20
397.3783421366451
 30
0.0
 11
462.1213651576373
 21
397.3772949391417
 31
0.0
  0
LINE
  5
DFB
330
18
100
AcDbEntity
  8
目盛
100
AcDbLine
 10
464.0752234716875
 20
398.8225001241957
 30
0.0
 11
462.0792360425209
 21
398.6958739712532
 31
0.0
  0
LINE
  5
DFC
330
18
100
AcDbEntity
  8
目盛
100
AcDbLine
 10
463.9384936791087
 20
400.2609111526259
 30
0.0
 11
461.9543957971229
 21
400.00920577982
 31
0.0
  0
LINE
  5
DFD
330
18
100
AcDbEntity
  8
目盛
100
AcDbLine
 10
463.7117151157709
 20
401.6878984707545
 30
0.0
 11
460.7651481054015
 21
401.1242116309198
 31
0.0
  0
LINE
  5
DFE
330
18
100
AcDbEntity
  8
目盛
100
AcDbLine
 10
463.3957827730581
 20
403.0978304115644
 30
0.0
 11
461.4588771437722
 21
402.5994364075463
 31
0.0
  0
LINE
  5
DFF
330
18
100
AcDbEntity
  8
目盛
100
AcDbLine
 10
462.9919434915914
 20
404.4851426178228
 30
0.0
 11
461.0901543215635
 21
403.8661127697822
 31
0.0
  0
LINE
  5
E00
330
18
100
AcDbEntity
  8
目盛
100
AcDbLine
 10
462.5017910405179
 20
405.8443600020535
 30
0.0
 11
460.6426238227574
 21
405.1071373379929
 31
0.0
  0
LINE
  5
E01
330
18
100
AcDbEntity
  8
目盛
100
AcDbLine
 10
461.9272598276329
 20
407.1701183542089
 30
0.0
 11
460.1180518457754
 21
406.3176123551782
 31
0.0
  0
LINE
  5
E02
330
18
100
AcDbEntity
  8
目盛
100
AcDbLine
 10
461.2706172651551
 20
408.4571855117539
 30
0.0
 11
458.6424543222573
 21
407.0105481883108
 31
0.0
  0
LINE
  5
E03
330
18
100
AcDbEntity
  8
目盛
100
AcDbLine
 10
460.5344548212873
 20
409.7004820086233
 30
0.0
 11
458.8463603182425
 21
408.6279443874696
 31
0.0
  0
LINE
  5
E04
330
18
100
AcDbEntity
  8
目盛
100
AcDbLine
 10
459.7216777928749
 20
410.8951011215516
 30
0.0
 11
458.1042595531703
 21
409.7186835775346
 31
0.0
  0
LINE
  5
E05
330
18
100
AcDbEntity
  8
目盛
100
AcDbLine
 10
458.8354938395262
 20
412.0363282346698
 30
0.0
 11
457.2951350740258
 21
410.7606735503816
 31
0.0
  0
LINE
  5
E06
330
18
100
AcDbEntity
  8
目盛
100
AcDbLine
 10
457.8794003244465
 20
413.1196594459395
 30
0.0
 11
456.4221801254748
 21
411.7498020476279
 31
0.0
  0
LINE
  5
E07
330
18
100
AcDbEntity
  8
目盛
100
AcDbLine
 10
456.8571705119421
 20
414.1408193419967
 30
0.0
 11
454.8046745368546
 21
411.9528384754783
 31
0.0
  0
LINE
  5
E08
330
18
100
AcDbEntity
  8
目盛
100
AcDbLine
 10
455.7728386760704
 20
415.0957778712554
 30
0.0
 11
454.4987977508705
 21
413.5540840881337
 31
0.0
  0
LINE
  5
E09
330
18
100
AcDbEntity
  8
目盛
100
AcDbLine
 10
454.6306841792036
 20
415.9807662486795
 30
0.0
 11
453.45596103634
 21
414.3621169544775
 31
0.0
  0
LINE
  5
E0A
330
18
100
AcDbEntity
  8
目盛
100
AcDbLine
 10
453.4352145833402
 20
416.7922918294562
 30
0.0
 11
452.3644453183778
 21
415.1030750934475
 31
0.0
  0
LINE
  5
E0B
330
18
100
AcDbEntity
  8
目盛
100
AcDbLine
 10
452.1911478608171
 20
417.5271518928688
 30
0.0
 11
451.2285583108565
 21
415.7740342817807
 31
0.0
  0
LINE
  5
E0C
330
18
100
AcDbEntity
  8
目盛
100
AcDbLine
 10
450.9033937746277
 20
418.1824462819728
 30
0.0
 11
449.6274773739726
 21
415.4672966841532
 31
0.0
  0
LINE
  5
E0D
330
18
100
AcDbEntity
  8
目盛
100
AcDbLine
 10
449.5770345018314
 20
418.7555888491898
 30
0.0
 11
448.8417591570001
 21
416.8956506332043
 31
0.0
  0
LINE
  5
E0E
330
18
100
AcDbEntity
  8
目盛
100
AcDbLine
 10
448.2173045765221
 20
419.244317662651
 30
0.0
 11
447.6002666165003
 21
417.3418812889731
 31
0.0
  0
LINE
  5
E0F
330
18
100
AcDbEntity
  8
目盛
100
AcDbLine
 10
446.8295702315133
 20
419.6467039330085
 30
0.0
 11
446.3332048232316
 21
417.7092774488647
 31
0.0
  0
LINE
  5
E10
330
18
100
AcDbEntity
  8
目盛
100
AcDbLine
 10
445.4193082202698
 20
419.9611596254861
 30
0.0
 11
445.0455742912265
 21
417.9963891680834
 31
0.0
  0
LINE
  5
E11
330
18
100
AcDbEntity
  8
目盛
100
AcDbLine
 10
443.9920842026619
 20
420.1864437271267
 30
0.0
 11
443.6176429635676
 21
417.2099031582002
 31
0.0
  0
LINE
  5
E12
330
18
100
AcDbEntity
  8
目盛
100
AcDbLine
 10
442.5535307798508
 20
420.3216671445038
 30
0.0
 11
442.4289948891048
 21
418.3255482071865
 31
0.0
  0
LINE
  5
E13
330
18
100
AcDbEntity
  8
目盛
100
AcDbLine
 10
441.1093252649838
 20
420.3662962125664
 30
0.0
 11
441.110372462487
 21
418.366296486722
 31
0.0
  0
LINE
  5
E14
330
18
100
AcDbEntity
  8
目盛
100
AcDbLine
 10
439.665167277433
 20
420.3201548007723
 30
0.0
 11
439.7917934303755
 21
418.3241673716056
 31
0.0
  0
LINE
  5
E15
330
18
100
AcDbEntity
  8
目盛
100
AcDbLine
 10
438.2267562490028
 20
420.1834250081934
 30
0.0
 11
438.4784616218088
 21
418.1993271262077
 31
0.0
  0
LINE
  5
E16
330
18
100
AcDbEntity
  8
目盛
100
AcDbLine
 10
436.7997689308744
 20
419.9566464448556
 30
0.0
 11
437.363455770709
 21
417.0100794344861
 31
0.0
  0
LINE
  5
E17
330
18
100
AcDbEntity
  8
目盛
100
AcDbLine
 10
435.3898369900642
 20
419.6407141021428
 30
0.0
 11
435.8882309940825
 21
417.703808472857
 31
0.0
  0
LINE
  5
E18
330
18
100
AcDbEntity
  8
目盛
100
AcDbLine
 10
434.002524783806
 20
419.2368748206761
 30
0.0
 11
434.6215546318465
 21
417.3350856506482
 31
0.0
  0
LINE
  5
E19
330
18
100
AcDbEntity
  8
目盛
100
AcDbLine
 10
432.6433073995752
 20
418.7467223696026
 30
0.0
 11
433.3805300636358
 21
416.8875551518421
 31
0.0
  0
LINE
  5
E1A
330
18
100
AcDbEntity
  8
目盛
100
AcDbLine
 10
431.31754904742
 20
418.1721911567176
 30
0.0
 11
432.1700550464505
 21
416.36298317486
 31
0.0
  0
LINE
  5
E1B
330
18
100
AcDbEntity
  8
目盛
100
AcDbLine
 10
430.0304818898747
 20
417.51554859424
 30
0.0
 11
431.4771192133179
 21
414.8873856513421
 31
0.0
  0
LINE
  5
E1C
330
18
100
AcDbEntity
  8
目盛
100
AcDbLine
 10
428.7871853930054
 20
416.7793861503723
 30
0.0
 11
429.8597230141592
 21
415.0912916473273
 31
0.0
  0
TEXT
  5
E1E
330
18
100
AcDbEntity
  8
文字
100
AcDbText
 10
434.1390312265891
 20
412.3880654511073
 30
0.0
 40
2.0
  1
.1
 50
37.83000000000019
  7
STYLE3
100
AcDbText
  0
TEXT
  5
E1F
330
18
100
AcDbEntity
  8
文字
100
AcDbText
 10
445.6479927028439
 20
412.7412613085468
 30
0.0
 40
2.0
  1
.3
 50
37.83000000000019
  7
STYLE3
100
AcDbText
  0
TEXT
  5
E20
330
18
100
AcDbEntity
  8
文字
100
AcDbText
 10
454.5652441315611
 20
406.4156231933469
 30
0.0
 40
2.0
  1
.5
 50
37.83000000000019
  7
STYLE3
100
AcDbText
  0
TEXT
  5
E21
330
18
100
AcDbEntity
  8
文字
100
AcDbText
 10
458.0650988145154
 20
396.0645822543838
 30
0.0
 40
2.0
  1
.7
 50
37.83000000000019
  7
STYLE3
100
AcDbText
  0
TEXT
  5
E22
330
18
100
AcDbEntity
  8
文字
100
AcDbText
 10
455.240811697398
 20
385.3629920696231
 30
0.0
 40
2.0
  1
.9
 50
37.83000000000019
  7
STYLE3
100
AcDbText
  0
TEXT
  5
E23
330
18
100
AcDbEntity
  8
文字
100
AcDbText
 10
446.1470831354572
 20
378.7807279796358
 30
0.0
 40
2.0
  1
.1
 50
37.83000000000019
  7
STYLE3
100
AcDbText
  0
TEXT
  5
E24
330
18
100
AcDbEntity
  8
文字
100
AcDbText
 10
435.3883031309414
 20
378.3386095718088
 30
0.0
 40
2.0
  1
.3
 50
37.83000000000019
  7
STYLE3
100
AcDbText
  0
TEXT
  5
E25
330
18
100
AcDbEntity
  8
文字
100
AcDbText
 10
426.0146077182964
 20
384.4916113653002
 30
0.0
 40
2.0
  1
.5
 50
37.83000000000019
  7
STYLE3
100
AcDbText
  0
TEXT
  5
E26
330
18
100
AcDbEntity
  8
文字
100
AcDbText
 10
422.5989358970219
 20
394.9585258268933
 30
0.0
 40
2.0
  1
.7
 50
37.83000000000019
  7
STYLE3
100
AcDbText
  0
TEXT
  5
E27
330
18
100
AcDbEntity
  8
文字
100
AcDbText
 10
425.5529678500248
 20
405.5328812919825
 30
0.0
 40
2.0
  1
.9
 50
37.83000000000019
  7
STYLE3
100
AcDbText
  0
ARC
  5
E46
330
18
100
AcDbEntity
  8
寸法線
100
AcDbCircle
 10
393.8312841647253
 20
309.3694399396294
 30
0.0
 40
40.0
100
AcDbArc
 50
347.3368120637573
 51
47.78294969054819
  0
DIMENSION
  5
E56
330
18
100
AcDbEntity
  8
寸法線
100
AcDbDimension
  2
*D4
 10
440.4187824078467
 20
272.5224667823781
 30
0.0
 11
490.3594018825192
 21
269.4483569134958
 31
0.0
 70
    33
 71
     5
 42
-1.0
  3
STYLE3
100
AcDbAlignedDimension
 13
541.7438572034817
 23
280.916659107969
 33
0.0
 14
442.2331134776674
 24
290.7965317354516
 34
0.0
1001
ACAD
1000
DSTYLE
1002
{
1070
   271
1070
     2
1002
}
  0
DIMENSION
  5
E62
330
18
100
AcDbEntity
  8
寸法線
100
AcDbDimension
  2
*D5
 10
390.6634105449395
 20
277.4624030961194
 30
0.0
 11
415.7263440881584
 21
276.8582613841078
 31
0.0
 70
    32
 71
     5
 42
-1.0
  3
STYLE3
100
AcDbAlignedDimension
 13
442.2331134776674
 23
290.7965317354516
 33
0.0
 14
393.8312841647253
 24
309.3694399396295
 34
0.0
 50
354.3299999999999
100
AcDbRotatedDimension
1001
ACAD
1000
DSTYLE
1002
{
1070
    75
1070
     1
1070
   271
1070
     2
1070
   279
1070
     1
1002
}
  0
DIMENSION
  5
E88
330
18
100
AcDbEntity
  8
寸法線
100
AcDbDimension
  2
*D6
 10
559.987535092328
 20
278.0376816352395
 30
0.0
 11
559.4537515688439
 21
293.1384283505187
 31
0.0
 70
    33
 71
     5
 42
-1.0
  3
STYLE3
100
AcDbAlignedDimension
 13
539.4556453718664
 23
309.9775750327647
 33
0.0
 14
536.7880797624462
 24
280.1096742267948
 34
0.0
1001
ACAD
1000
DSTYLE
1002
{
1070
    78
1070
    10
1002
}
  0
LINE
  5
EC3
330
18
100
AcDbEntity
  8
0
  6
ByBlock
 62
     2
100
AcDbLine
 10
396.3312841647253
 20
227.3694399396295
 30
0.0
 11
396.3312841647253
 21
254.0569827234059
 31
0.0
  0
LINE
  5
EC4
330
18
100
AcDbEntity
  8
0
  6
ByBlock
 62
     2
100
AcDbLine
 10
391.3312841647253
 20
252.8069827234059
 30
0.0
 11
388.8312841647253
 21
252.8069827234059
 31
0.0
  0
LINE
  5
EC5
330
18
100
AcDbEntity
  8
0
  6
ByBlock
 62
     2
100
AcDbLine
 10
398.8312841647253
 20
252.8069827234059
 30
0.0
 11
406.9347043466255
 21
252.8069827234059
 31
0.0
  0
MTEXT
  5
EC6
330
18
100
AcDbEntity
  8
0
  6
ByBlock
 62
     6
100
AcDbMText
 10
403.3821371307981
 20
254.6027872869508
 30
0.0
 40
2.5
 41
0.0
 71
     5
 72
     1
  1
\A1;2.5
  7
STYLE3
 73
     1
 44
1.0
  0
LINE
  5
EC7
330
18
100
AcDbEntity
  8
0
  6
ByBlock
 62
     2
100
AcDbLine
 10
393.8312841647253
 20
252.8069827234059
 30
0.0
 11
396.3312841647253
 21
252.8069827234059
 31
0.0
  0
LINE
  5
EC8
330
18
100
AcDbEntity
  8
0
  6
ByBlock
 62
     2
100
AcDbLine
 10
393.8312841647253
 20
252.8069827234059
 30
0.0
 11
396.3312841647253
 21
252.8069827234059
 31
0.0
  0
INSERT
  5
ECA
330
18
100
AcDbEntity
  8
0
  6
ByBlock
 62
     2
100
AcDbBlockReference
  2
_OPEN
 10
396.3312841647253
 20
252.8069827234059
 30
0.0
 41
2.5
 42
2.5
 43
2.5
 50
180.0
  0
POINT
  5
ECC
330
18
100
AcDbEntity
  8
DEFPOINTS
  6
ByBlock
 62
     0
100
AcDbPoint
 10
396.3312841647253
 20
227.3694399396295
 30
0.0
  0
POINT
  5
ECD
330
18
100
AcDbEntity
  8
DEFPOINTS
  6
ByBlock
 62
     0
100
AcDbPoint
 10
396.3312841647253
 20
252.8069827234059
 30
0.0
  0
LINE
  5
ECE
330
18
100
AcDbEntity
  8
0
  6
ByBlock
 62
     2
100
AcDbLine
 10
391.3312841647253
 20
227.3694399396295
 30
0.0
 11
391.3312841647253
 21
254.0569827234059
 31
0.0
  0
LINE
  5
ED0
330
18
100
AcDbEntity
  8
0
  6
ByBlock
 62
     2
100
AcDbLine
 10
396.3312841647253
 20
252.8069827234059
 30
0.0
 11
398.8312841647253
 21
252.8069827234059
 31
0.0
  0
LINE
  5
ED1
330
18
100
AcDbEntity
  8
0
  6
ByBlock
 62
     2
100
AcDbLine
 10
388.8312841647253
 20
252.8069827234059
 30
0.0
 11
380.796151518856
 21
252.8069827234059
 31
0.0
  0
LINE
  5
ED2
330
18
100
AcDbEntity
  8
0
  6
ByBlock
 62
     2
100
AcDbLine
 10
393.8312841647253
 20
252.8069827234059
 30
0.0
 11
391.3312841647253
 21
252.8069827234059
 31
0.0
  0
INSERT
  5
ED4
330
18
100
AcDbEntity
  8
0
  6
ByBlock
 62
     2
100
AcDbBlockReference
  2
_OPEN
 10
391.3312841647253
 20
252.8069827234059
 30
0.0
 41
2.5
 42
2.5
 43
2.5
  0
MTEXT
  5
ED5
330
18
100
AcDbEntity
  8
0
  6
ByBlock
 62
     6
100
AcDbMText
 10
383.9258426030227
 20
254.4534597919675
 30
0.0
 40
2.5
 41
0.0
 71
     5
 72
     1
  1
\A1;2.5
  7
STYLE3
 73
     1
 44
1.0
  0
POINT
  5
ED6
330
18
100
AcDbEntity
  8
DEFPOINTS
  6
ByBlock
 62
     0
100
AcDbPoint
 10
391.3312841647253
 20
227.3694399396295
 30
0.0
  0
CIRCLE
  5
ED9
102
{ACAD_REACTORS
330
EDC
102
}
330
18
100
AcDbEntity
  8
寸法線
100
AcDbCircle
 10
393.8312841647253
 20
252.8069827234059
 30
0.0
 40
0.2027963181750465
  0
HATCH
  5
EDC
330
18
100
AcDbEntity
  8
寸法線
100
AcDbHatch
 10
0.0
 20
0.0
 30
0.0
210
0.0
220
0.0
230
1.0
  2
SOLID
 70
     1
 71
     1
 91
        1
 92
        1
 93
        1
 72
     2
 10
393.8312841647253
 20
252.8069827234059
 40
0.2027963181750465
 50
0.0
 51
360.0
 73
     1
 97
        1
330
ED9
 75
     0
 76
     1
 98
        1
 10
21.80913877186526
 20
1.634338574693515
450
        0
451
        0
460
0.0
461
0.0
452
        0
462
0.0
453
        0
470

  0
ARC
  5
EDF
330
18
100
AcDbEntity
  8
想像線
 48
0.3
100
AcDbCircle
 10
490.7594464605906
 20
226.0734125854632
 30
0.0
 40
80.0
100
AcDbArc
 50
164.5106925893691
 51
178.2483978548395
  0
LINE
  5
EE0
330
18
100
AcDbEntity
  8
想像線
 48
0.3
100
AcDbLine
 10
410.796827540078
 20
228.5187296145801
 30
0.0
 11
406.4751881595986
 21
228.191416831555
 31
0.0
  0
ARC
  5
EE1
330
18
100
AcDbEntity
  8
想像線
 48
0.5
100
AcDbCircle
 10
405.0777143524639
 20
230.0913028698142
 30
0.0
 40
1.25
100
AcDbArc
 50
94.33120483258578
 51
274.3312048325832
  0
ARC
  5
EE2
330
18
100
AcDbEntity
  8
想像線
 48
0.3
100
AcDbCircle
 10
516.1767001797045
 20
236.2894573663125
 30
0.0
 40
110.0
100
AcDbArc
 50
176.2640479814018
 51
184.2218516211485
  0
LINE
  5
EE3
330
18
100
AcDbEntity
  8
想像線
 48
0.5
100
AcDbLine
 10
404.9833120903413
 20
231.3377330575529
 30
0.0
 11
406.2838151012948
 21
231.436230692911
 31
0.0
  0
LINE
  5
EE4
330
18
100
AcDbEntity
  8
想像線
 48
0.5
100
AcDbLine
 10
405.1721166145865
 20
228.8448726820757
 30
0.0
 11
406.4225237393328
 21
228.9395761498763
 31
0.0
  0
LINE
  5
EF4
330
18
100
AcDbEntity
  8
0
  6
ByBlock
 62
     2
100
AcDbLine
 10
403.8277143524639
 20
230.0913028698142
 30
0.0
 11
403.8277143524639
 21
213.1804732867654
 31
0.0
  0
LINE
  5
EF5
330
18
100
AcDbEntity
  8
0
  6
ByBlock
 62
     2
100
AcDbLine
 10
396.3312841647253
 20
214.4304732867654
 30
0.0
 11
401.3277143524639
 21
214.4304732867654
 31
0.0
  0
INSERT
  5
EF6
330
18
100
AcDbEntity
  8
0
  6
ByBlock
 62
     2
100
AcDbBlockReference
  2
_OPEN
 10
393.8312841647253
 20
214.4304732867654
 30
0.0
 41
2.5
 42
2.5
 43
2.5
 50
180.0
  0
INSERT
  5
EF7
330
18
100
AcDbEntity
  8
0
  6
ByBlock
 62
     2
100
AcDbBlockReference
  2
_OPEN
 10
403.8277143524639
 20
214.4304732867654
 30
0.0
 41
2.5
 42
2.5
 43
2.5
  0
MTEXT
  5
EF8
330
18
100
AcDbEntity
  8
0
  6
ByBlock
 62
     6
100
AcDbMText
 10
398.8294992585947
 20
216.3054732867654
 30
0.0
 40
2.5
 41
0.0
 71
     5
 72
     1
  1
\A1;10
  7
STYLE3
 73
     1
 44
1.0
  0
POINT
  5
EF9
330
18
100
AcDbEntity
  8
DEFPOINTS
  6
ByBlock
 62
     0
100
AcDbPoint
 10
393.8312841647253
 20
229.3694399396295
 30
0.0
  0
POINT
  5
EFA
330
18
100
AcDbEntity
  8
DEFPOINTS
  6
ByBlock
 62
     0
100
AcDbPoint
 10
403.8277143524639
 20
230.0913028698142
 30
0.0
  0
POINT
  5
EFB
330
18
100
AcDbEntity
  8
DEFPOINTS
  6
ByBlock
 62
     0
100
AcDbPoint
 10
403.8277143524639
 20
214.4304732867654
 30
0.0
  0
LINE
  5
EFD
330
18
100
AcDbEntity
  8
想像線
 48
0.3
100
AcDbLine
 10
374.0516868915293
 20
265.0765853242585
 30
0.0
 11
384.8904650051326
 21
265.0765853242585
 31
0.0
  0
LINE
  5
EFE
330
18
100
AcDbEntity
  8
想像線
 48
0.3
100
AcDbLine
 10
375.6713060005603
 20
262.0765853242585
 30
0.0
 11
385.8716592814948
 21
262.0765853242585
 31
0.0
  0
LINE
  5
EFF
330
18
100
AcDbEntity
  8
想像線
 48
0.3
100
AcDbLine
 10
403.0726971816276
 20
265.0765853242585
 30
0.0
 11
416.8252288732984
 21
265.0765853242585
 31
0.0
  0
LINE
  5
F00
330
18
100
AcDbEntity
  8
想像線
 48
0.3
100
AcDbLine
 10
402.0200252438713
 20
262.0765853242585
 30
0.0
 11
413.6914459849221
 21
262.0765853242585
 31
0.0
  0
LINE
  5
F39
330
18
100
AcDbEntity
  8
0
  6
ByBlock
 62
     2
100
AcDbLine
 10
416.8252288732984
 20
265.0765853242585
 30
0.0
 11
429.7946711489719
 21
265.0765853242585
 31
0.0
  0
LINE
  5
F3A
330
18
100
AcDbEntity
  8
0
  6
ByBlock
 62
     2
100
AcDbLine
 10
413.6914459849221
 20
262.0765853242585
 30
0.0
 11
429.7946711489719
 21
262.0765853242585
 31
0.0
  0
LINE
  5
F3B
330
18
100
AcDbEntity
  8
0
  6
ByBlock
 62
     2
100
AcDbLine
 10
428.5446711489719
 20
267.5765853242585
 30
0.0
 11
428.5446711489719
 21
269.1592008293081
 31
0.0
  0
LINE
  5
F3C
330
18
100
AcDbEntity
  8
0
  6
ByBlock
 62
     2
100
AcDbLine
 10
428.5446711489719
 20
259.5765853242586
 30
0.0
 11
428.5446711489719
 21
252.0738035067992
 31
0.0
  0
LINE
  5
F3D
330
18
100
AcDbEntity
  8
0
  6
ByBlock
 62
     2
100
AcDbLine
 10
428.5446711489719
 20
265.0765853242585
 30
0.0
 11
428.5446711489719
 21
262.0765853242585
 31
0.0
  0
INSERT
  5
F3E
330
18
100
AcDbEntity
  8
0
  6
ByBlock
 62
     2
100
AcDbBlockReference
  2
_OPEN
 10
428.5446711489719
 20
265.0765853242585
 30
0.0
 41
2.5
 42
2.5
 43
2.5
 50
270.0
  0
INSERT
  5
F3F
330
18
100
AcDbEntity
  8
0
  6
ByBlock
 62
     2
100
AcDbBlockReference
  2
_OPEN
 10
428.5446711489719
 20
262.0765853242585
 30
0.0
 41
2.5
 42
2.5
 43
2.5
 50
90.0
  0
MTEXT
  5
F40
330
18
100
AcDbEntity
  8
0
  6
ByBlock
 62
     6
100
AcDbMText
 10
426.01490924421
 20
255.721925034217
 30
0.0
 40
2.5
 41
0.0
 71
     5
 72
     1
  1
\A1;(3)
  7
STYLE3
 11
0.0000000000000001
 21
1.0
 31
0.0
 73
     1
 44
1.0
  0
POINT
  5
F41
330
18
100
AcDbEntity
  8
DEFPOINTS
  6
ByBlock
 62
     0
100
AcDbPoint
 10
416.8252288732984
 20
265.0765853242585
 30
0.0
  0
POINT
  5
F42
330
18
100
AcDbEntity
  8
DEFPOINTS
  6
ByBlock
 62
     0
100
AcDbPoint
 10
413.6914459849221
 20
262.0765853242585
 30
0.0
  0
POINT
  5
F43
330
18
100
AcDbEntity
  8
DEFPOINTS
  6
ByBlock
 62
     0
100
AcDbPoint
 10
428.5446711489719
 20
262.0765853242585
 30
0.0
  0
LINE
  5
F44
330
18
100
AcDbEntity
  8
0
  6
ByBlock
 62
     2
100
AcDbLine
 10
374.0516868915293
 20
265.0765853242585
 30
0.0
 11
358.3146634151715
 21
265.0765853242585
 31
0.0
  0
LINE
  5
F45
330
18
100
AcDbEntity
  8
0
  6
ByBlock
 62
     2
100
AcDbLine
 10
375.6713060005603
 20
262.0765853242585
 30
0.0
 11
358.3146634151715
 21
262.0765853242585
 31
0.0
  0
LINE
  5
F46
330
18
100
AcDbEntity
  8
0
  6
ByBlock
 62
     2
100
AcDbLine
 10
359.5646634151715
 20
267.5765853242585
 30
0.0
 11
359.5646634151715
 21
269.1592008293081
 31
0.0
  0
LINE
  5
F47
330
18
100
AcDbEntity
  8
0
  6
ByBlock
 62
     2
100
AcDbLine
 10
359.5646634151715
 20
259.5765853242586
 30
0.0
 11
359.5646634151715
 21
252.2572804057893
 31
0.0
  0
LINE
  5
F48
330
18
100
AcDbEntity
  8
0
  6
ByBlock
 62
     2
100
AcDbLine
 10
359.5646634151715
 20
265.0765853242585
 30
0.0
 11
359.5646634151715
 21
262.0765853242585
 31
0.0
  0
INSERT
  5
F49
330
18
100
AcDbEntity
  8
0
  6
ByBlock
 62
     2
100
AcDbBlockReference
  2
_OPEN
 10
359.5646634151715
 20
265.0765853242585
 30
0.0
 41
2.5
 42
2.5
 43
2.5
 50
270.0
  0
INSERT
  5
F4A
330
18
100
AcDbEntity
  8
0
  6
ByBlock
 62
     2
100
AcDbBlockReference
  2
_OPEN
 10
359.5646634151715
 20
262.0765853242585
 30
0.0
 41
2.5
 42
2.5
 43
2.5
 50
90.0
  0
MTEXT
  5
F4B
330
18
100
AcDbEntity
  8
0
  6
ByBlock
 62
     6
100
AcDbMText
 10
357.0349015104095
 20
255.721925034217
 30
0.0
 40
2.5
 41
0.0
 71
     5
 72
     1
  1
\A1;(3)
  7
STYLE3
 11
0.0000000000000001
 21
1.0
 31
0.0
 73
     1
 44
1.0
  0
POINT
  5
F4C
330
18
100
AcDbEntity
  8
DEFPOINTS
  6
ByBlock
 62
     0
100
AcDbPoint
 10
374.0516868915293
 20
265.0765853242585
 30
0.0
  0
POINT
  5
F4D
330
18
100
AcDbEntity
  8
DEFPOINTS
  6
ByBlock
 62
     0
100
AcDbPoint
 10
375.6713060005603
 20
262.0765853242585
 30
0.0
  0
POINT
  5
F4E
330
18
100
AcDbEntity
  8
DEFPOINTS
  6
ByBlock
 62
     0
100
AcDbPoint
 10
359.5646634151715
 20
262.0765853242585
 30
0.0
  0
LINE
  5
F62
330
18
100
AcDbEntity
  8
0
  6
ByBlock
 62
     2
100
AcDbLine
 10
393.8312841647253
 20
309.3694399396294
 30
0.0
 11
433.4494253443483
 21
314.8833214646037
 31
0.0
  0
MTEXT
  5
F63
330
18
100
AcDbEntity
  8
0
  6
ByBlock
 62
     6
100
AcDbMText
 10
420.3346668434671
 20
314.9511382605839
 30
0.0
 40
2.5
 41
0.0
 71
     5
 72
     1
  1
\A1;R40
  7
STYLE3
 11
0.9904535294905775
 21
0.1378470381243576
 31
0.0
 73
     1
 44
1.0
  0
INSERT
  5
F64
330
18
100
AcDbEntity
  8
0
  6
ByBlock
 62
     2
100
AcDbBlockReference
  2
_OPEN
 10
433.4494253443483
 20
314.8833214646037
 30
0.0
 41
2.5
 42
2.5
 43
2.5
 50
7.923282714166701
  0
POINT
  5
F65
330
18
100
AcDbEntity
  8
DEFPOINTS
  6
ByBlock
 62
     0
100
AcDbPoint
 10
433.4494253443483
 20
314.8833214646037
 30
0.0
  0
POINT
  5
F66
330
18
100
AcDbEntity
  8
DEFPOINTS
  6
ByBlock
 62
     0
100
AcDbPoint
 10
393.8312841647253
 20
309.3694399396294
 30
0.0
  0
POINT
  5
F6B
330
18
100
AcDbEntity
  8
DEFPOINTS
  6
ByBlock
 62
     0
100
AcDbPoint
 10
393.8312841647253
 20
309.3694399396294
 30
0.0
  0
LINE
  5
F7B
330
18
100
AcDbEntity
  8
0
  6
ByBlock
 62
     2
100
AcDbLine
 10
391.2576489976978
 20
230.6194399396294
 30
0.0
 11
373.68698416137
 21
230.6194399396294
 31
0.0
  0
LINE
  5
F7C
330
18
100
AcDbEntity
  8
0
  6
ByBlock
 62
     2
100
AcDbLine
 10
391.3221091209368
 20
228.1194399396294
 30
0.0
 11
373.68698416137
 21
228.1194399396294
 31
0.0
  0
LINE
  5
F7D
330
18
100
AcDbEntity
  8
0
  6
ByBlock
 62
     2
100
AcDbLine
 10
374.93698416137
 20
233.1194399396295
 30
0.0
 11
374.93698416137
 21
235.6194399396295
 31
0.0
  0
LINE
  5
F7E
330
18
100
AcDbEntity
  8
0
  6
ByBlock
 62
     2
100
AcDbLine
 10
374.93698416137
 20
225.6194399396294
 30
0.0
 11
374.93698416137
 21
216.6313447015342
 31
0.0
  0
LINE
  5
F7F
330
18
100
AcDbEntity
  8
0
  6
ByBlock
 62
     2
100
AcDbLine
 10
374.93698416137
 20
230.6194399396294
 30
0.0
 11
374.93698416137
 21
228.1194399396294
 31
0.0
  0
INSERT
  5
F80
330
18
100
AcDbEntity
  8
0
  6
ByBlock
 62
     2
100
AcDbBlockReference
  2
_OPEN
 10
374.93698416137
 20
230.6194399396294
 30
0.0
 41
2.5
 42
2.5
 43
2.5
 50
270.0
  0
INSERT
  5
F81
330
18
100
AcDbEntity
  8
0
  6
ByBlock
 62
     2
100
AcDbBlockReference
  2
_OPEN
 10
374.93698416137
 20
228.1194399396294
 30
0.0
 41
2.5
 42
2.5
 43
2.5
 50
90.0
  0
MTEXT
  5
F82
330
18
100
AcDbEntity
  8
0
  6
ByBlock
 62
     6
100
AcDbMText
 10
373.06198416137
 20
220.7143110226431
 30
0.0
 40
2.5
 41
0.0
 71
     5
 72
     1
  1
φ2.5
  7
STYLE3
 11
0.0000000000000001
 21
1.0
 31
0.0
 73
     1
 44
1.0
  0
POINT
  5
F83
330
18
100
AcDbEntity
  8
DEFPOINTS
  6
ByBlock
 62
     0
100
AcDbPoint
 10
391.2576489976978
 20
230.6194399396294
 30
0.0
  0
POINT
  5
F84
330
18
100
AcDbEntity
  8
DEFPOINTS
  6
ByBlock
 62
     0
100
AcDbPoint
 10
391.3221091209368
 20
228.1194399396294
 30
0.0
  0
POINT
  5
F85
330
18
100
AcDbEntity
  8
DEFPOINTS
  6
ByBlock
 62
     0
100
AcDbPoint
 10
374.93698416137
 20
228.1194399396294
 30
0.0
  0
LINE
  5
F9C
330
18
100
AcDbEntity
  8
寸法線
100
AcDbLine
 10
391.3312841647254
 20
229.4085119810321
 30
0.0
 11
329.8717617482957
 21
229.4085119810321
 31
0.0
  0
LINE
  5
F9D
330
18
100
AcDbEntity
  8
想像線
 62
     2
100
AcDbLine
 10
435.1139615486042
 20
289.4085119810321
 30
0.0
 11
329.8717617482957
 21
289.4085119810321
 31
0.0
  0
LINE
  5
FC4
330
18
100
AcDbEntity
  8
0
  6
ByBlock
 62
     2
100
AcDbLine
 10
331.1217617482957
 20
286.9085119810321
 30
0.0
 11
331.1217617482957
 21
231.9085119810321
 31
0.0
  0
INSERT
  5
FC5
330
18
100
AcDbEntity
  8
0
  6
ByBlock
 62
     2
100
AcDbBlockReference
  2
_OPEN
 10
331.1217617482957
 20
289.4085119810321
 30
0.0
 41
2.5
 42
2.5
 43
2.5
 50
90.0
  0
INSERT
  5
FC6
330
18
100
AcDbEntity
  8
0
  6
ByBlock
 62
     2
100
AcDbBlockReference
  2
_OPEN
 10
331.1217617482957
 20
229.4085119810321
 30
0.0
 41
2.5
 42
2.5
 43
2.5
 50
270.0
  0
MTEXT
  5
FC7
330
18
100
AcDbEntity
  8
0
  6
ByBlock
 62
     6
100
AcDbMText
 10
329.2467617482957
 20
259.408511981032
 30
0.0
 40
2.5
 41
0.0
 71
     5
 72
     1
  1
\A1;60
  7
STYLE3
 11
0.0000000000000001
 21
1.0
 31
0.0
 73
     1
 44
1.0
  0
LINE
  5
FF5
330
18
100
AcDbEntity
  8
隠れ線
 62
     4
 48
0.5
100
AcDbLine
 10
431.3132142230934
 20
320.6220927472245
 30
0.0
 11
428.8146665879088
 21
321.4590275796225
 31
0.0
  0
CIRCLE
  5
FF6
330
18
100
AcDbEntity
  8
外形線
100
AcDbCircle
 10
412.6466469208651
 20
296.4472836042933
 30
0.0
 40
1.25
  0
CIRCLE
  5
FF7
330
18
100
AcDbEntity
  8
外形線
100
AcDbCircle
 10
412.6466469208651
 20
296.4472836042933
 30
0.0
 40
2.0
  0
LINE
  5
FFB
330
18
100
AcDbEntity
  8
外形線
100
AcDbLine
 10
409.5374705647956
 20
297.9950311246789
 30
0.0
 11
411.8155088897963
 21
295.5136297212557
 31
0.0
  0
CIRCLE
  5
FFC
330
18
100
AcDbEntity
  8
外形線
100
AcDbCircle
 10
373.1952651470111
 20
293.8322355868336
 30
0.0
 40
1.25
  0
CIRCLE
  5
FFD
330
18
100
AcDbEntity
  8
外形線
100
AcDbCircle
 10
373.1952651470111
 20
293.8322355868336
 30
0.0
 40
2.0
  0
LINE
  5
FFE
330
18
100
AcDbEntity
  8
外形線
100
AcDbLine
 10
376.0729508322514
 20
295.7768242572119
 30
0.0
 11
374.1774390285963
 21
293.0590380271299
 31
0.0
  0
LINE
  5
1015
330
18
100
AcDbEntity
  8
0
  6
ByBlock
 62
     2
100
AcDbLine
 10
393.8312841647253
 20
309.3694399396299
 30
0.0
 11
367.4659951554155
 21
233.8388399456166
 31
0.0
  0
MTEXT
  5
1016
330
18
100
AcDbEntity
  8
0
  6
ByBlock
 62
     6
100
AcDbMText
 10
372.3965735200187
 20
253.6531322149527
 30
0.0
 40
2.5
 41
0.0
 71
     5
 72
     1
  1
\A1;R80
  7
STYLE3
 11
0.3295661126163722
 21
0.9441324999251602
 31
0.0
 73
     1
 44
1.0
  0
INSERT
  5
1017
330
18
100
AcDbEntity
  8
0
  6
ByBlock
 62
     2
100
AcDbBlockReference
  2
_OPEN
 10
367.4659951554155
 20
233.8388399456166
 30
0.0
 41
2.5
 42
2.5
 43
2.5
 50
250.7575575825866
  0
POINT
  5
1018
330
18
100
AcDbEntity
  8
DEFPOINTS
  6
ByBlock
 62
     0
100
AcDbPoint
 10
367.4659951554155
 20
233.8388399456166
 30
0.0
  0
POINT
  5
1019
330
18
100
AcDbEntity
  8
DEFPOINTS
  6
ByBlock
 62
     0
100
AcDbPoint
 10
393.8312841647253
 20
309.3694399396295
 30
0.0
  0
ARC
  5
102C
330
18
100
AcDbEntity
  8
外形線
100
AcDbCircle
 10
385.711767244699
 20
288.3186455369137
 30
0.0
 40
10.0
100
AcDbArc
 50
73.48101884402272
 51
129.897551929813
  0
LINE
  5
102D
330
18
100
AcDbEntity
  8
外形線
100
AcDbLine
 10
376.0729508322514
 20
295.7768242572119
 30
0.0
 11
409.5374705647956
 21
297.9950311246789
 31
0.0
  0
LINE
  5
102E
330
18
100
AcDbEntity
  8
外形線
100
AcDbLine
 10
376.3044415030805
 20
292.2844880664479
 30
0.0
 11
409.7689612356248
 21
294.5026949339151
 31
0.0
  0
ARC
  5
102F
330
18
100
AcDbEntity
  8
隠れ線
 62
     4
 48
0.35
100
AcDbCircle
 10
385.711767244699
 20
288.3186455369137
 30
0.0
 40
10.0
100
AcDbArc
 50
129.897551929813
 51
156.5383143437659
  0
ARC
  5
1034
330
18
100
AcDbEntity
  8
外形線
100
AcDbCircle
 10
385.711767244699
 20
288.3186455369137
 30
0.0
 40
10.0
100
AcDbArc
 50
156.5383143437656
 51
210.8364590058563
  0
ARC
  5
1036
330
18
100
AcDbEntity
  8
隠れ線
 62
     4
 48
0.35
100
AcDbCircle
 10
401.1612249961266
 20
287.042012783592
 30
0.0
 40
11.0
100
AcDbArc
 50
42.47469962734701
 51
74.38572512021716
  0
ARC
  5
1039
330
18
100
AcDbEntity
  8
外形線
100
AcDbCircle
 10
401.1612249961266
 20
287.042012783592
 30
0.0
 40
11.0
100
AcDbArc
 50
74.38572512021716
 51
108.4065950675892
  0
LINE
  5
106C
330
18
100
AcDbEntity
  8
隠れ線2
100
AcDbLine
 10
444.7475410613617
 20
316.1220160136714
 30
0.0
 11
532.8145492587075
 21
307.3783287383494
 31
0.0
  0
LINE
  5
106D
330
18
100
AcDbEntity
  8
隠れ線2
100
AcDbLine
 10
442.4257709939033
 20
292.7369912381049
 30
0.0
 11
530.492779191249
 21
283.9933039627829
 31
0.0
  0
LINE
  5
106E
330
18
100
AcDbEntity
  8
隠れ線2
100
AcDbLine
 10
534.1590123251823
 20
305.73746949305
 30
0.0
 11
532.1336384365484
 21
285.3377670292579
 31
0.0
  0
ARC
  5
106F
330
18
100
AcDbEntity
  8
隠れ線2
100
AcDbCircle
 10
532.6663511692952
 20
305.8856675824622
 30
0.0
 40
1.5
100
AcDbArc
 50
354.3300000000001
 51
84.32999999999999
  0
ARC
  5
1070
330
18
100
AcDbEntity
  8
隠れ線2
100
AcDbCircle
 10
530.6409772806613
 20
285.4859651186702
 30
0.0
 40
1.5
100
AcDbArc
 50
264.33
 51
354.3300000000001
  0
LINE
  5
1114
330
18
100
AcDbEntity
  8
外形線
100
AcDbLine
 10
492.0214397636834
 20
197.7273428228677
 30
0.0
 11
632.8128577636834
 21
197.7273428228677
 31
0.0
  0
LINE
  5
1115
330
18
100
AcDbEntity
  8
外形線
100
AcDbLine
 10
492.0214397636834
 20
186.9471368228677
 30
0.0
 11
632.8128577636834
 21
186.9471368228677
 31
0.0
  0
TEXT
  5
1116
330
18
100
AcDbEntity
  8
0
  6
Continuous
100
AcDbText
 10
493.4789067636834
 20
188.8451268228677
 30
0.0
 40
2.1
  1
Design and specifications are subject to change without notice for future improvement.
  7
STYLE3
100
AcDbText
  0
TEXT
  5
1117
330
18
100
AcDbEntity
  8
0
  6
Continuous
100
AcDbText
 10
493.7704007636835
 20
192.7742748228677
 30
0.0
 40
3.5
  1
仕様及び外観は予告なく変更される場合がございますのでご了承下さい。
  7
STYLE3
100
AcDbText
  0
TEXT
  5
1118
330
18
100
AcDbEntity
  8
0
  6
Continuous
100
AcDbText
 10
493.1874157636835
 20
179.0804988228677
 30
0.0
 40
2.1
  1
3RD Angle Projection
  7
STYLE3
100
AcDbText
  0
TEXT
  5
1119
330
18
100
AcDbEntity
  8
0
  6
Continuous
100
AcDbText
 10
495.8108577636835
 20
182.5767818228677
 30
0.0
 40
3.0
  1
三　　角　　法
  7
STYLE3
100
AcDbText
  0
LINE
  5
111A
330
18
100
AcDbEntity
  8
外形線
100
AcDbLine
 10
492.0214397636834
 20
177.3323588228677
 30
0.0
 11
492.0214397636834
 21
197.7273428228677
 31
0.0
  0
LINE
  5
111B
330
18
100
AcDbEntity
  8
外形線
100
AcDbLine
 10
594.0442067636833
 20
186.9471368228677
 30
0.0
 11
594.0442067636833
 21
177.3323588228677
 31
0.0
  0
LINE
  5
111C
330
18
100
AcDbEntity
  8
外形線
100
AcDbLine
 10
564.3118567636833
 20
186.9471368228677
 30
0.0
 11
564.3118567636833
 21
177.3323588228677
 31
0.0
  0
LINE
  5
111D
330
18
100
AcDbEntity
  8
外形線
100
AcDbLine
 10
544.7817847636834
 20
186.9471368228677
 30
0.0
 11
544.7817847636834
 21
177.3323588228677
 31
0.0
  0
LINE
  5
111E
330
18
100
AcDbEntity
  8
外形線
100
AcDbLine
 10
527.2921677636835
 20
186.9471368228677
 30
0.0
 11
527.2921677636835
 21
177.3323588228677
 31
0.0
  0
TEXT
  5
111F
330
18
100
AcDbEntity
  8
0
  6
Continuous
100
AcDbText
 10
528.7496367636834
 20
182.5827368228677
 30
0.0
 40
3.0
  1
単位
  7
STYLE3
100
AcDbText
  0
TEXT
  5
1120
330
18
100
AcDbEntity
  8
0
  6
Continuous
100
AcDbText
 10
528.9213577636835
 20
179.0804998228677
 30
0.0
 40
2.1
  1
Unit
  7
STYLE3
100
AcDbText
  0
TEXT
  5
1121
330
18
100
AcDbEntity
  8
0
  6
Continuous
100
AcDbText
 10
546.0675327636834
 20
182.2913788228677
 30
0.0
 40
3.0
  1
尺 度
  7
STYLE3
100
AcDbText
  0
TEXT
  5
1122
330
18
100
AcDbEntity
  8
0
  6
Continuous
100
AcDbText
 10
536.7916837636835
 20
180.8286428228677
 30
0.0
 40
2.399999999999999
  1
mm
  7
STYLE3
100
AcDbText
  0
TEXT
  5
1123
330
18
100
AcDbEntity
  8
0
  6
Continuous
100
AcDbText
 10
546.5307477636834
 20
179.3718568228677
 30
0.0
 40
2.1
  1
Scale
  7
STYLE3
100
AcDbText
  0
TEXT
  5
1124
330
18
100
AcDbEntity
  8
0
  6
Continuous
100
AcDbText
 10
556.1500367636836
 20
181.1199998228677
 30
0.0
 40
2.399999999999999
  1
1/1
  7
STYLE3
100
AcDbText
  0
TEXT
  5
1125
330
18
100
AcDbEntity
  8
0
  6
Continuous
100
AcDbText
 10
566.2438077636835
 20
179.0805008228677
 30
0.0
 40
2.1
  1
Date
  7
STYLE3
100
AcDbText
  0
TEXT
  5
1126
330
18
100
AcDbEntity
  8
0
  6
Continuous
100
AcDbText
 10
565.8604467636835
 20
182.4135838228677
 30
0.0
 40
3.0
  1
日 付
  7
STYLE3
100
AcDbText
  0
TEXT
  5
1127
330
18
100
AcDbEntity
  8
0
  6
Continuous
100
AcDbText
 10
574.9886147636833
 20
180.8286418228677
 30
0.0
 40
2.1
  1
2010.06.28
  7
STYLE3
100
AcDbText
  0
TEXT
  5
1128
330
18
100
AcDbEntity
  8
0
  6
Continuous
100
AcDbText
 10
595.3931697636834
 20
182.8681388228677
 30
0.0
 40
3.0
  1
株式会社　尾崎製作所
  7
STYLE3
100
AcDbText
  0
TEXT
  5
1129
330
18
100
AcDbEntity
  8
0
  6
Continuous
100
AcDbText
 10
596.2676487636834
 20
179.0804998228677
 30
0.0
 40
2.1
  1
OZAKI MFG. CO., LTD.
  7
STYLE3
100
AcDbText
  0
LINE
  5
112A
330
18
100
AcDbEntity
  8
外形線
100
AcDbLine
 10
369.3295470548417
 20
440.6007654119297
 30
0.0
 11
496.3295470548416
 21
440.6007654119297
 31
0.0
  0
LINE
  5
112B
330
18
100
AcDbEntity
  8
外形線
100
AcDbLine
 10
369.3295470548417
 20
439.6007654119297
 30
0.0
 11
496.3295470548416
 21
439.6007654119297
 31
0.0
  0
TEXT
  5
112C
330
18
100
AcDbEntity
  8
文字
100
AcDbText
 10
370.6324970548417
 20
443.5241954119296
 30
0.0
 40
4.0
  1
Model No.LA-6 Outside Dial Caliper Gauge
  7
STYLE3
100
AcDbText
  0
ENDSEC
  0
SECTION
  2
OBJECTS
  0
DICTIONARY
  5
C
330
0
100
AcDbDictionary
281
     1
  3
ACAD_COLOR
350
10AE
  3
ACAD_GROUP
350
D
  3
ACAD_LAYOUT
350
10B1
  3
ACAD_MATERIAL
350
10AD
  3
ACAD_MLINESTYLE
350
1B
  3
ACAD_PLOTSETTINGS
350
10B2
  3
ACAD_PLOTSTYLENAME
350
10AB
  3
ACAD_TABLESTYLE
350
10AF
  3
ACDBVARIABLEDICTIONARY
350
EDA
  0
DICTIONARY
  5
10BD
330
18
100
AcDbDictionary
280
     1
281
     1
  3
ACAD_SORTENTS
360
10BE
  0
DICTIONARY
  5
10AE
102
{ACAD_REACTORS
330
C
102
}
330
C
100
AcDbDictionary
281
     1
  0
DICTIONARY
  5
D
102
{ACAD_REACTORS
330
C
102
}
330
C
100
AcDbDictionary
281
     1
  3
*A1
350
10EC
  0
DICTIONARY
  5
10B1
102
{ACAD_REACTORS
330
C
102
}
330
C
100
AcDbDictionary
281
     1
  3
Model
350
10B3
  3
レイアウト1
350
10B4
  0
DICTIONARY
  5
10AD
102
{ACAD_REACTORS
330
C
102
}
330
C
100
AcDbDictionary
281
     1
  0
DICTIONARY
  5
1B
102
{ACAD_REACTORS
330
C
102
}
330
C
100
AcDbDictionary
281
     1
  3
STANDARD
350
1C
  0
DICTIONARY
  5
10B2
102
{ACAD_REACTORS
330
C
102
}
330
C
100
AcDbDictionary
281
     1
  0
ACDBDICTIONARYWDFLT
  5
10AB
102
{ACAD_REACTORS
330
C
102
}
330
C
100
AcDbDictionary
281
     1
  3
Normal
350
10AC
100
AcDbDictionaryWithDefault
340
10AC
  0
DICTIONARY
  5
10AF
102
{ACAD_REACTORS
330
C
102
}
330
C
100
AcDbDictionary
281
     1
  3
Standard
350
10B0
  0
DICTIONARY
  5
EDA
102
{ACAD_REACTORS
330
C
102
}
330
C
100
AcDbDictionary
281
     1
  3
CTABLESTYLE
350
10D0
  3
SORTENTS
350
EDB
  0
SORTENTSTABLE
  5
10BE
102
{ACAD_REACTORS
330
10BD
102
}
330
10BD
100
AcDbSortentsTable
330
18
331
785
  5
785
331
3CA
  5
3CA
331
1AC
  5
1AC
331
393
  5
393
331
409
  5
409
331
440
  5
440
331
448
  5
448
331
39B
  5
39B
331
1B4
  5
1B4
331
3D2
  5
3D2
331
411
  5
411
331
78D
  5
78D
331
CA1
  5
CA1
331
795
  5
795
331
450
  5
450
331
1BC
  5
1BC
331
3DA
  5
3DA
331
4EF
  5
4EF
331
7BC
  5
7BC
331
C2B
  5
C2B
331
C62
  5
C62
331
CD8
  5
CD8
331
DE6
  5
DE6
331
C6A
  5
C6A
331
C33
  5
C33
331
CA9
  5
CA9
331
CE0
  5
CE0
331
E25
  5
E25
331
EFB
  5
EFB
331
E35
  5
E35
331
CB1
  5
CB1
331
C3B
  5
C3B
331
7CC
  5
7CC
331
C72
  5
C72
331
CE8
  5
CE8
331
DEE
  5
DEE
331
F82
  5
F82
331
1019
  5
1019
331
F3B
  5
F3B
331
DF6
  5
DF6
331
CF0
  5
CF0
331
C7A
  5
C7A
331
7D4
  5
7D4
331
DBF
  5
DBF
331
EC4
  5
EC4
331
1070
  5
1070
331
DFE
  5
DFE
331
ECC
  5
ECC
331
419
  5
419
331
1C4
  5
1C4
331
185
  5
185
331
3A3
  5
3A3
331
3E2
  5
3E2
331
458
  5
458
331
4F7
  5
4F7
331
3EA
  5
3EA
331
18D
  5
18D
331
3AB
  5
3AB
331
421
  5
421
331
460
  5
460
331
468
  5
468
331
195
  5
195
331
3F2
  5
3F2
331
429
  5
429
331
4FF
  5
4FF
331
CB9
  5
CB9
331
C43
  5
C43
331
431
  5
431
331
3BB
  5
3BB
331
19D
  5
19D
331
3FA
  5
3FA
331
776
  5
776
331
79D
  5
79D
331
C82
  5
C82
331
CF8
  5
CF8
331
DC7
  5
DC7
331
C8A
  5
C8A
331
77E
  5
77E
331
C4B
  5
C4B
331
CC1
  5
CC1
331
D00
  5
D00
331
E06
  5
E06
331
ED4
  5
ED4
331
F43
  5
F43
331
F9A
  5
F9A
331
DCF
  5
DCF
331
C53
  5
C53
331
7AD
  5
7AD
331
B3C
  5
B3C
331
C92
  5
C92
331
CC9
  5
CC9
331
E0E
  5
E0E
331
EDC
  5
EDC
331
F4B
  5
F4B
331
F63
  5
F63
331
E16
  5
E16
331
D58
  5
D58
331
C5B
  5
C5B
331
7B5
  5
7B5
331
C9A
  5
C9A
331
CD1
  5
CD1
331
DD7
  5
DD7
331
EE4
  5
EE4
331
FEA
  5
FEA
331
1039
  5
1039
331
F6B
  5
F6B
331
E1E
  5
E1E
331
DDF
  5
DDF
331
EF4
  5
EF4
331
439
  5
439
331
38C
  5
38C
331
3C3
  5
3C3
331
402
  5
402
331
517
  5
517
331
40A
  5
40A
331
1AD
  5
1AD
331
394
  5
394
331
3CB
  5
3CB
331
441
  5
441
331
4A0
  5
4A0
331
786
  5
786
331
78E
  5
78E
331
3D3
  5
3D3
331
1B5
  5
1B5
331
39C
  5
39C
331
412
  5
412
331
449
  5
449
331
CD9
  5
CD9
331
796
  5
796
331
3DB
  5
3DB
331
1BD
  5
1BD
331
451
  5
451
331
C2C
  5
C2C
331
C63
  5
C63
331
CA2
  5
CA2
331
D70
  5
D70
331
DE7
  5
DE7
331
CAA
  5
CAA
331
7C5
  5
7C5
331
C34
  5
C34
331
C6B
  5
C6B
331
CE1
  5
CE1
331
E26
  5
E26
331
F7B
  5
F7B
331
DEF
  5
DEF
331
CB2
  5
CB2
331
7CD
  5
7CD
331
C3C
  5
C3C
331
C73
  5
C73
331
CE9
  5
CE9
331
E36
  5
E36
331
F83
  5
F83
331
E3E
  5
E3E
331
DF7
  5
DF7
331
C7B
  5
C7B
331
CF1
  5
CF1
331
EC5
  5
EC5
331
F3C
  5
F3C
331
DFF
  5
DFF
331
ECD
  5
ECD
331
459
  5
459
331
3A4
  5
3A4
331
186
  5
186
331
3E3
  5
3E3
331
41A
  5
41A
331
4F0
  5
4F0
331
422
  5
422
331
3AC
  5
3AC
331
18E
  5
18E
331
3EB
  5
3EB
331
461
  5
461
331
4F8
  5
4F8
331
500
  5
500
331
42A
  5
42A
331
196
  5
196
331
3F3
  5
3F3
331
469
  5
469
331
CF9
  5
CF9
331
C44
  5
C44
331
3FB
  5
3FB
331
19E
  5
19E
331
3BC
  5
3BC
331
432
  5
432
331
777
  5
777
331
79E
  5
79E
331
7E5
  5
7E5
331
C83
  5
C83
331
CBA
  5
CBA
331
DC0
  5
DC0
331
F44
  5
F44
331
E07
  5
E07
331
CC2
  5
CC2
331
C4C
  5
C4C
331
77F
  5
77F
331
7A6
  5
7A6
331
C8B
  5
C8B
331
D01
  5
D01
331
DC8
  5
DC8
331
E46
  5
E46
331
ED5
  5
ED5
331
E0F
  5
E0F
331
CCA
  5
CCA
331
C54
  5
C54
331
7AE
  5
7AE
331
C93
  5
C93
331
DD0
  5
DD0
331
F4C
  5
F4C
331
F64
  5
F64
331
DD8
  5
DD8
331
C9B
  5
C9B
331
7B6
  5
7B6
331
C5C
  5
C5C
331
CD2
  5
CD2
331
D59
  5
D59
331
E17
  5
E17
331
E56
  5
E56
331
FEB
  5
FEB
331
E1F
  5
E1F
331
EF5
  5
EF5
331
3C4
  5
3C4
331
38D
  5
38D
331
403
  5
403
331
43A
  5
43A
331
787
  5
787
331
442
  5
442
331
3CC
  5
3CC
331
1AE
  5
1AE
331
395
  5
395
331
40B
  5
40B
331
4A1
  5
4A1
331
518
  5
518
331
44A
  5
44A
331
3D4
  5
3D4
331
1B6
  5
1B6
331
413
  5
413
331
78F
  5
78F
331
D71
  5
D71
331
C64
  5
C64
331
452
  5
452
331
1BE
  5
1BE
331
3DC
  5
3DC
331
797
  5
797
331
7BE
  5
7BE
331
C2D
  5
C2D
331
CA3
  5
CA3
331
CDA
  5
CDA
331
DE0
  5
DE0
331
F7C
  5
F7C
331
E27
  5
E27
331
DE8
  5
DE8
331
C6C
  5
C6C
331
7C6
  5
7C6
331
C35
  5
C35
331
CAB
  5
CAB
331
CE2
  5
CE2
331
EFD
  5
EFD
331
FFB
  5
FFB
331
E37
  5
E37
331
CB3
  5
CB3
331
C3D
  5
C3D
331
7CE
  5
7CE
331
C74
  5
C74
331
CEA
  5
CEA
331
DB9
  5
DB9
331
DF0
  5
DF0
331
F84
  5
F84
331
F3D
  5
F3D
331
DF8
  5
DF8
331
CF2
  5
CF2
331
C7C
  5
C7C
331
E3F
  5
E3F
331
EC6
  5
EC6
331
ECE
  5
ECE
331
4F1
  5
4F1
331
3E4
  5
3E4
331
1C6
  5
1C6
331
187
  5
187
331
41B
  5
41B
331
45A
  5
45A
331
4F9
  5
4F9
331
3EC
  5
3EC
331
18F
  5
18F
331
3AD
  5
3AD
331
423
  5
423
331
462
  5
462
331
501
  5
501
331
3B5
  5
3B5
331
197
  5
197
331
3F4
  5
3F4
331
42B
  5
42B
331
DC1
  5
DC1
331
CBB
  5
CBB
331
7E6
  5
7E6
331
433
  5
433
331
3BD
  5
3BD
331
19F
  5
19F
331
3FC
  5
3FC
331
778
  5
778
331
79F
  5
79F
331
C45
  5
C45
331
C84
  5
C84
331
CFA
  5
CFA
331
E00
  5
E00
331
F9C
  5
F9C
331
DC9
  5
DC9
331
C8C
  5
C8C
331
7A7
  5
7A7
331
C4D
  5
C4D
331
CC3
  5
CC3
331
D02
  5
D02
331
E08
  5
E08
331
ED6
  5
ED6
331
F45
  5
F45
331
FC4
  5
FC4
331
DD1
  5
DD1
331
C55
  5
C55
331
7AF
  5
7AF
331
C94
  5
C94
331
CCB
  5
CCB
331
E10
  5
E10
331
F4D
  5
F4D
331
E18
  5
E18
331
CD3
  5
CD3
331
C5D
  5
C5D
331
7B7
  5
7B7
331
C26
  5
C26
331
C9C
  5
C9C
331
DD9
  5
DD9
331
F65
  5
F65
331
EF6
  5
EF6
331
780
  5
780
331
43B
  5
43B
331
38E
  5
38E
331
1A7
  5
1A7
331
3C5
  5
3C5
331
404
  5
404
331
49A
  5
49A
331
519
  5
519
331
40C
  5
40C
331
1AF
  5
1AF
331
396
  5
396
331
3CD
  5
3CD
331
443
  5
443
331
4A2
  5
4A2
331
788
  5
788
331
4EA
  5
4EA
331
3D5
  5
3D5
331
1B7
  5
1B7
331
414
  5
414
331
44B
  5
44B
331
521
  5
521
331
790
  5
790
331
E20
  5
E20
331
CDB
  5
CDB
331
C2E
  5
C2E
331
453
  5
453
331
3DD
  5
3DD
331
1BF
  5
1BF
331
7BF
  5
7BF
331
C65
  5
C65
331
CA4
  5
CA4
331
D72
  5
D72
331
DE1
  5
DE1
331
1063
  5
1063
331
DE9
  5
DE9
331
CAC
  5
CAC
331
C36
  5
C36
331
C6D
  5
C6D
331
CE3
  5
CE3
331
EFE
  5
EFE
331
F7D
  5
F7D
331
FFC
  5
FFC
331
E38
  5
E38
331
DBA
  5
DBA
331
C75
  5
C75
331
7CF
  5
7CF
331
C3E
  5
C3E
331
CB4
  5
CB4
331
CEB
  5
CEB
331
DF1
  5
DF1
331
F85
  5
F85
331
10BA
  5
10BA
331
DF9
  5
DF9
331
C7D
  5
C7D
331
CF3
  5
CF3
331
EC7
  5
EC7
331
F3E
  5
F3E
331
45B
  5
45B
331
3A6
  5
3A6
331
188
  5
188
331
1C7
  5
1C7
331
3E5
  5
3E5
331
41C
  5
41C
331
424
  5
424
331
3AE
  5
3AE
331
190
  5
190
331
3ED
  5
3ED
331
463
  5
463
331
4FA
  5
4FA
331
502
  5
502
331
3F5
  5
3F5
331
3B6
  5
3B6
331
198
  5
198
331
42C
  5
42C
331
798
  5
798
331
CFB
  5
CFB
331
C46
  5
C46
331
3FD
  5
3FD
331
387
  5
387
331
3BE
  5
3BE
331
434
  5
434
331
779
  5
779
331
7A0
  5
7A0
331
C85
  5
C85
331
CBC
  5
CBC
331
DC2
  5
DC2
331
E01
  5
E01
331
E40
  5
E40
331
E09
  5
E09
331
CC4
  5
CC4
331
C4E
  5
C4E
331
C8D
  5
C8D
331
D03
  5
D03
331
DCA
  5
DCA
331
F46
  5
F46
331
F9D
  5
F9D
331
102C
  5
102C
331
1034
  5
1034
331
DD2
  5
DD2
331
CCC
  5
CCC
331
C56
  5
C56
331
7B0
  5
7B0
331
C95
  5
C95
331
E11
  5
E11
331
EDF
  5
EDF
331
F4E
  5
F4E
331
FC5
  5
FC5
331
DDA
  5
DDA
331
C9D
  5
C9D
331
C27
  5
C27
331
C5E
  5
C5E
331
CD4
  5
CD4
331
E19
  5
E19
331
F66
  5
F66
331
FF5
  5
FF5
331
EF7
  5
EF7
331
1A0
  5
1A0
331
781
  5
781
331
3C6
  5
3C6
331
1A8
  5
1A8
331
38F
  5
38F
331
405
  5
405
331
43C
  5
43C
331
789
  5
789
331
444
  5
444
331
397
  5
397
331
3CE
  5
3CE
331
40D
  5
40D
331
4A3
  5
4A3
331
791
  5
791
331
44C
  5
44C
331
39F
  5
39F
331
1B8
  5
1B8
331
3D6
  5
3D6
331
415
  5
415
331
4EB
  5
4EB
331
D73
  5
D73
331
C66
  5
C66
331
454
  5
454
331
3DE
  5
3DE
331
7C0
  5
7C0
331
C2F
  5
C2F
331
CA5
  5
CA5
331
CDC
  5
CDC
331
DE2
  5
DE2
331
E21
  5
E21
331
F7E
  5
F7E
331
CE4
  5
CE4
331
C6E
  5
C6E
331
7C8
  5
7C8
331
C37
  5
C37
331
CAD
  5
CAD
331
D83
  5
D83
331
DEA
  5
DEA
331
E88
  5
E88
331
EFF
  5
EFF
331
FFD
  5
FFD
331
106C
  5
106C
331
E39
  5
E39
331
CB5
  5
CB5
331
C3F
  5
C3F
331
7D0
  5
7D0
331
C76
  5
C76
331
CEC
  5
CEC
331
DBB
  5
DBB
331
DF2
  5
DF2
331
1015
  5
1015
331
F3F
  5
F3F
331
DFA
  5
DFA
331
CF4
  5
CF4
331
C7E
  5
C7E
331
EC8
  5
EC8
331
10BB
  5
10BB
331
1C0
  5
1C0
331
4F3
  5
4F3
331
3E6
  5
3E6
331
189
  5
189
331
1C8
  5
1C8
331
3A7
  5
3A7
331
41D
  5
41D
331
45C
  5
45C
331
464
  5
464
331
191
  5
191
331
3EE
  5
3EE
331
425
  5
425
331
4FB
  5
4FB
331
199
  5
199
331
3F6
  5
3F6
331
42D
  5
42D
331
7E0
  5
7E0
331
ED0
  5
ED0
331
DC3
  5
DC3
331
C86
  5
C86
331
77A
  5
77A
331
435
  5
435
331
3BF
  5
3BF
331
3FE
  5
3FE
331
494
  5
494
331
50B
  5
50B
331
C47
  5
C47
331
CBD
  5
CBD
331
CFC
  5
CFC
331
E02
  5
E02
331
E41
  5
E41
331
102D
  5
102D
331
DCB
  5
DCB
331
C8E
  5
C8E
331
7A9
  5
7A9
331
C4F
  5
C4F
331
CC5
  5
CC5
331
E0A
  5
E0A
331
F47
  5
F47
331
FC6
  5
FC6
331
DD3
  5
DD3
331
C57
  5
C57
331
C96
  5
C96
331
CCD
  5
CCD
331
E12
  5
E12
331
EE0
  5
EE0
331
E1A
  5
E1A
331
CD5
  5
CD5
331
C5F
  5
C5F
331
C9E
  5
C9E
331
DDB
  5
DDB
331
FF6
  5
FF6
331
406
  5
406
331
390
  5
390
331
1A9
  5
1A9
331
3C7
  5
3C7
331
43D
  5
43D
331
782
  5
782
331
78A
  5
78A
331
40E
  5
40E
331
398
  5
398
331
3CF
  5
3CF
331
445
  5
445
331
4A4
  5
4A4
331
792
  5
792
331
3D7
  5
3D7
331
1B9
  5
1B9
331
416
  5
416
331
44D
  5
44D
331
C28
  5
C28
331
DE3
  5
DE3
331
CDD
  5
CDD
331
455
  5
455
331
3DF
  5
3DF
331
C30
  5
C30
331
C67
  5
C67
331
CA6
  5
CA6
331
E22
  5
E22
331
EF8
  5
EF8
331
FFE
  5
FFE
331
DEB
  5
DEB
331
CAE
  5
CAE
331
7C9
  5
7C9
331
C38
  5
C38
331
C6F
  5
C6F
331
CE5
  5
CE5
331
E32
  5
E32
331
F00
  5
F00
331
F7F
  5
F7F
331
E3A
  5
E3A
331
DBC
  5
DBC
331
C77
  5
C77
331
7D1
  5
7D1
331
CB6
  5
CB6
331
CED
  5
CED
331
DF3
  5
DF3
331
1016
  5
1016
331
106D
  5
106D
331
CF5
  5
CF5
331
C7F
  5
C7F
331
DFB
  5
DFB
331
F8F
  5
F8F
331
10BC
  5
10BC
331
F97
  5
F97
331
1C1
  5
1C1
331
45D
  5
45D
331
3E7
  5
3E7
331
18A
  5
18A
331
1C9
  5
1C9
331
41E
  5
41E
331
4F4
  5
4F4
331
426
  5
426
331
192
  5
192
331
3EF
  5
3EF
331
465
  5
465
331
19A
  5
19A
331
3F7
  5
3F7
331
42E
  5
42E
331
773
  5
773
331
79A
  5
79A
331
7E1
  5
7E1
331
C40
  5
C40
331
F40
  5
F40
331
CFD
  5
CFD
331
C48
  5
C48
331
495
  5
495
331
3FF
  5
3FF
331
436
  5
436
331
50C
  5
50C
331
77B
  5
77B
331
7A2
  5
7A2
331
C87
  5
C87
331
CBE
  5
CBE
331
DC4
  5
DC4
331
E03
  5
E03
331
E42
  5
E42
331
ED1
  5
ED1
331
F48
  5
F48
331
E0B
  5
E0B
331
CC6
  5
CC6
331
C50
  5
C50
331
C8F
  5
C8F
331
DCC
  5
DCC
331
ED9
  5
ED9
331
102E
  5
102E
331
1036
  5
1036
331
DD4
  5
DD4
331
C97
  5
C97
331
C58
  5
C58
331
7B2
  5
7B2
331
CCE
  5
CCE
331
E13
  5
E13
331
EE1
  5
EE1
331
FC7
  5
FC7
331
DDC
  5
DDC
331
C9F
  5
C9F
331
CD6
  5
CD6
331
D5D
  5
D5D
331
E1B
  5
E1B
331
E62
  5
E62
331
FF7
  5
FF7
331
389
  5
389
331
3C0
  5
3C0
331
783
  5
783
331
49D
  5
49D
331
3C8
  5
3C8
331
1AA
  5
1AA
331
391
  5
391
331
407
  5
407
331
43E
  5
43E
331
78B
  5
78B
331
446
  5
446
331
399
  5
399
331
3D0
  5
3D0
331
40F
  5
40F
331
4A5
  5
4A5
331
417
  5
417
331
3D8
  5
3D8
331
1BA
  5
1BA
331
44E
  5
44E
331
793
  5
793
331
7BA
  5
7BA
331
C29
  5
C29
331
C60
  5
C60
331
DE4
  5
DE4
331
C68
  5
C68
331
456
  5
456
331
C31
  5
C31
331
CA7
  5
CA7
331
CDE
  5
CDE
331
E23
  5
E23
331
EF9
  5
EF9
331
CE6
  5
CE6
331
C39
  5
C39
331
C70
  5
C70
331
CAF
  5
CAF
331
DEC
  5
DEC
331
F80
  5
F80
331
106E
  5
106E
331
DF4
  5
DF4
331
CB7
  5
CB7
331
C78
  5
C78
331
7D2
  5
7D2
331
CEE
  5
CEE
331
DBD
  5
DBD
331
E3B
  5
E3B
331
F39
  5
F39
331
1017
  5
1017
331
DFC
  5
DFC
331
CF6
  5
CF6
331
ECA
  5
ECA
331
1C2
  5
1C2
331
3A1
  5
3A1
331
3E0
  5
3E0
331
544
  5
544
331
3E8
  5
3E8
331
18B
  5
18B
331
1CA
  5
1CA
331
3A9
  5
3A9
331
41F
  5
41F
331
45E
  5
45E
331
694
  5
694
331
193
  5
193
331
3F0
  5
3F0
331
427
  5
427
331
7E2
  5
7E2
331
774
  5
774
331
19B
  5
19B
331
3F8
  5
3F8
331
42F
  5
42F
331
79B
  5
79B
331
C41
  5
C41
331
C80
  5
C80
331
ED2
  5
ED2
331
DC5
  5
DC5
331
C88
  5
C88
331
77C
  5
77C
331
437
  5
437
331
50D
  5
50D
331
7A3
  5
7A3
331
B2A
  5
B2A
331
C49
  5
C49
331
CBF
  5
CBF
331
CFE
  5
CFE
331
E04
  5
E04
331
E43
  5
E43
331
F41
  5
F41
331
102F
  5
102F
331
DCD
  5
DCD
331
C90
  5
C90
331
7AB
  5
7AB
331
C51
  5
C51
331
CC7
  5
CC7
331
E0C
  5
E0C
331
F49
  5
F49
331
FE8
  5
FE8
331
D56
  5
D56
331
C59
  5
C59
331
7B3
  5
7B3
331
C98
  5
C98
331
CCF
  5
CCF
331
DD5
  5
DD5
331
E14
  5
E14
331
EE2
  5
EE2
331
E1C
  5
E1C
331
CD7
  5
CD7
331
D5E
  5
D5E
331
DDD
  5
DDD
331
38A
  5
38A
331
3C1
  5
3C1
331
400
  5
400
331
408
  5
408
331
1AB
  5
1AB
331
392
  5
392
331
3C9
  5
3C9
331
43F
  5
43F
331
784
  5
784
331
410
  5
410
331
1B3
  5
1B3
331
39A
  5
39A
331
3D1
  5
3D1
331
447
  5
447
331
78C
  5
78C
331
C2A
  5
C2A
331
794
  5
794
331
3D9
  5
3D9
331
1BB
  5
1BB
331
44F
  5
44F
331
7BB
  5
7BB
331
C61
  5
C61
331
CA0
  5
CA0
331
DE5
  5
DE5
331
CA8
  5
CA8
331
457
  5
457
331
C32
  5
C32
331
C69
  5
C69
331
CDF
  5
CDF
331
E24
  5
E24
331
EFA
  5
EFA
331
DED
  5
DED
331
CB0
  5
CB0
331
7CB
  5
7CB
331
C3A
  5
C3A
331
C71
  5
C71
331
CE7
  5
CE7
331
E34
  5
E34
331
F81
  5
F81
331
1018
  5
1018
331
DBE
  5
DBE
331
C79
  5
C79
331
7D3
  5
7D3
331
CEF
  5
CEF
331
DF5
  5
DF5
331
EC3
  5
EC3
331
F3A
  5
F3A
331
106F
  5
106F
331
CF7
  5
CF7
331
DFD
  5
DFD
331
3A2
  5
3A2
331
184
  5
184
331
1C3
  5
1C3
331
3E1
  5
3E1
331
418
  5
418
331
420
  5
420
331
18C
  5
18C
331
3E9
  5
3E9
331
45F
  5
45F
331
428
  5
428
331
194
  5
194
331
3F1
  5
3F1
331
C42
  5
C42
331
19C
  5
19C
331
3F9
  5
3F9
331
430
  5
430
331
775
  5
775
331
79C
  5
79C
331
7E3
  5
7E3
331
C81
  5
C81
331
CB8
  5
CB8
331
F42
  5
F42
331
E05
  5
E05
331
CFF
  5
CFF
331
C4A
  5
C4A
331
77D
  5
77D
331
50E
  5
50E
331
7A4
  5
7A4
331
C89
  5
C89
331
CC0
  5
CC0
331
DC6
  5
DC6
331
E44
  5
E44
331
F99
  5
F99
331
E0D
  5
E0D
331
CC8
  5
CC8
331
C52
  5
C52
331
7AC
  5
7AC
331
C91
  5
C91
331
DCE
  5
DCE
331
F4A
  5
F4A
331
DD6
  5
DD6
331
C99
  5
C99
331
C5A
  5
C5A
331
CD0
  5
CD0
331
E15
  5
E15
331
EE3
  5
EE3
331
F62
  5
F62
331
FE9
  5
FE9
331
DDE
  5
DDE
331
3C2
  5
3C2
331
38B
  5
38B
331
401
  5
401
331
438
  5
438
  0
GROUP
  5
10EC
102
{ACAD_REACTORS
330
D
102
}
330
D
100
AcDbGroup
300

 70
     1
 71
     1
340
7CE
340
7CC
340
7CB
340
7D1
340
7CD
340
7D0
340
7A2
340
7D2
340
3B6
340
D58
340
D59
340
7D4
340
D83
340
7CF
340
7D3
340
798
  0
LAYOUT
  5
10B3
102
{ACAD_REACTORS
330
10B1
102
}
330
10B1
100
AcDbPlotSettings
  1

  2
none_device
  4
Letter_(8.50_x_11.00_Inches)
  6

 40
6.349999904632568
 41
6.349999904632568
 42
6.350006103515625
 43
6.350006103515625
 44
215.8999938964844
 45
279.3999938964844
 46
0.0
 47
0.0
 48
0.0
 49
0.0
140
0.0
141
0.0
142
1.0
143
41.44158675094481
 70
 11952
 72
     0
 73
     1
 74
     0
  7
AutoCad LT 98.ctb
 75
     0
147
0.0241303501723954
 76
     0
 77
     2
 78
   300
148
-5798.793652030338
149
-4442.439731710357
100
AcDbLayout
  1
Model
 70
     1
 71
     0
 10
0.0
 20
0.0
 11
12.0
 21
9.0
 12
0.0
 22
0.0
 32
0.0
 14
0.0
 24
0.0
 34
0.0
 15
0.0
 25
0.0
 35
0.0
146
0.0
 13
0.0
 23
0.0
 33
0.0
 16
1.0
 26
0.0
 36
0.0
 17
0.0
 27
1.0
 37
0.0
 76
     0
330
18
1001
ACAD_PSEXT
1000
なし
1000
なし
1000
適切ではありません
1000
新しいプロッタ環境設定名を選択しない限り、レイアウトは印刷されません。
1070
     0
  0
LAYOUT
  5
10B4
102
{ACAD_REACTORS
330
10B1
102
}
330
10B1
100
AcDbPlotSettings
  1

  2
WIDR Printer
  4

  6

 40
0.0
 41
0.0
 42
0.0
 43
0.0
 44
0.0
 45
0.0
 46
0.0
 47
0.0
 48
0.0
 49
0.0
140
0.0
141
0.0
142
1.0
143
1.0
 70
   688
 72
     0
 73
     0
 74
     5
  7
AutoCad LT 98.ctb
 75
    16
147
1.0
 76
     0
 77
     2
 78
   300
148
0.0
149
0.0
100
AcDbLayout
  1
レイアウト1
 70
     1
 71
     1
 10
0.0
 20
0.0
 11
420.0
 21
297.0
 12
0.0
 22
0.0
 32
0.0
 14
1.000000000000000E+20
 24
1.000000000000000E+20
 34
1.000000000000000E+20
 15
-1.000000000000000E+20
 25
-1.000000000000000E+20
 35
-1.000000000000000E+20
146
0.0
 13
0.0
 23
0.0
 33
0.0
 16
1.0
 26
0.0
 36
0.0
 17
0.0
 27
1.0
 37
0.0
 76
     0
330
15
  0
MLINESTYLE
  5
1C
102
{ACAD_REACTORS
330
1B
102
}
330
1B
100
AcDbMlineStyle
  2
STANDARD
 70
     0
  3

 62
   256
 51
90.0
 52
90.0
 71
     2
 49
0.5
 62
   256
  6
BYLAYER
 49
-0.5
 62
   256
  6
BYLAYER
  0
ACDBPLACEHOLDER
  5
10AC
102
{ACAD_REACTORS
330
10AB
102
}
330
10AB
  0
ACAD_PROXY_OBJECT
  5
10B0
102
{ACAD_REACTORS
330
10AF
102
}
330
10AF
100
AcDbProxyObject
 90
      499
 91
      504
 95
  2555929
 70
     0
 93
     1841
310
4214DD185B99185C9928B81E85EB51B8AE3F2E07A17AD46E2B8FC02B5E8DC0F42B1CFD028000000C1008070000C3001FDFF8000000C1003FBFF000000182007F7FE00000030400FEFFC00000060801FDFF8000000C1003FBFF00000018200000000000000681FA0B0000001820100E000186003FBFF000000182007F7FE000
310
00030400FEFFC00000060801FDFF8000000C1003FBFF000000182007F7FE000000304000AD7A3703D0AC73F4160000003040201C00030C007F7FE00000030400FEFFC00000060801FDFF8000000C1003FBFF000000182007F7FE00000030400FEFFC000000608000
340
F
340
F
340
F
 94
        0
  0
DICTIONARYVAR
  5
10D0
102
{ACAD_REACTORS
330
EDA
102
}
330
EDA
100
DictionaryVariables
280
     0
  1
STANDARD
  0
DICTIONARYVAR
  5
EDB
102
{ACAD_REACTORS
330
EDA
102
}
330
EDA
100
DictionaryVariables
280
     0
  1
96
  0
ENDSEC
  0
EOF
