  0
SECTION
  2
HEADER
  9
$ACADVER
  1
AC1018
  9
$ACADMAINTVER
 70
     0
  9
$DWGCODEPAGE
  3
ANSI_932
  9
$INSBASE
 10
0.0
 20
0.0
 30
0.0
  9
$EXTMIN
 10
255.8176900309641
 20
176.0635400423978
 30
-0.0000457728747811
  9
$EXTMAX
 10
634.1546142674312
 20
459.3857883045838
 30
0.000030519906467
  9
$LIMMIN
 10
0.0
 20
0.0
  9
$LIMMAX
 10
420.0
 20
297.0
  9
$ORTHOMODE
 70
     0
  9
$REGENMODE
 70
     1
  9
$FILLMODE
 70
     1
  9
$QTEXTMODE
 70
     0
  9
$MIRRTEXT
 70
     1
  9
$LTSCALE
 40
1.0
  9
$ATTMODE
 70
     1
  9
$TEXTSIZE
 40
3.0
  9
$TRACEWID
 40
1.0
  9
$TEXTSTYLE
  7
STYLE3
  9
$CLAYER
  8
寸法線
  9
$CELTYPE
  6
BYLAYER
  9
$CECOLOR
 62
   256
  9
$CELTSCALE
 40
1.0
  9
$DISPSILH
 70
     0
  9
$DIMSCALE
 40
1.0
  9
$DIMASZ
 40
2.5
  9
$DIMEXO
 40
0.0
  9
$DIMDLI
 40
3.75
  9
$DIMRND
 40
0.0
  9
$DIMDLE
 40
0.0
  9
$DIMEXE
 40
1.25
  9
$DIMTP
 40
0.0
  9
$DIMTM
 40
0.0
  9
$DIMTXT
 40
2.5
  9
$DIMCEN
 40
2.5
  9
$DIMTSZ
 40
0.0
  9
$DIMTOL
 70
     0
  9
$DIMLIM
 70
     0
  9
$DIMTIH
 70
     0
  9
$DIMTOH
 70
     0
  9
$DIMSE1
 70
     0
  9
$DIMSE2
 70
     0
  9
$DIMTAD
 70
     1
  9
$DIMZIN
 70
     8
  9
$DIMBLK
  1

  9
$DIMASO
 70
     1
  9
$DIMSHO
 70
     1
  9
$DIMPOST
  1

  9
$DIMAPOST
  1

  9
$DIMALT
 70
     0
  9
$DIMALTD
 70
     4
  9
$DIMALTF
 40
0.0394
  9
$DIMLFAC
 40
1.0
  9
$DIMTOFL
 70
     1
  9
$DIMTVP
 40
0.0
  9
$DIMTIX
 70
     0
  9
$DIMSOXD
 70
     0
  9
$DIMSAH
 70
     1
  9
$DIMBLK1
  1
OPEN
  9
$DIMBLK2
  1
OPEN
  9
$DIMSTYLE
  2
STYLE3
  9
$DIMCLRD
 70
     2
  9
$DIMCLRE
 70
     2
  9
$DIMCLRT
 70
     6
  9
$DIMTFAC
 40
1.0
  9
$DIMGAP
 40
0.625
  9
$DIMJUST
 70
     0
  9
$DIMSD1
 70
     0
  9
$DIMSD2
 70
     0
  9
$DIMTOLJ
 70
     1
  9
$DIMTZIN
 70
     0
  9
$DIMALTZ
 70
     0
  9
$DIMALTTZ
 70
     0
  9
$DIMUPT
 70
     0
  9
$DIMDEC
 70
     2
  9
$DIMTDEC
 70
     4
  9
$DIMALTU
 70
     8
  9
$DIMALTTD
 70
     4
  9
$DIMTXSTY
  7
STYLE3
  9
$DIMAUNIT
 70
     0
  9
$DIMADEC
 70
     0
  9
$DIMALTRND
 40
0.0
  9
$DIMAZIN
 70
     0
  9
$DIMDSEP
 70
    46
  9
$DIMATFIT
 70
     3
  9
$DIMFRAC
 70
     0
  9
$DIMLDRBLK
  1

  9
$DIMLUNIT
 70
     2
  9
$DIMLWD
 70
    -2
  9
$DIMLWE
 70
    -2
  9
$DIMTMOVE
 70
     0
  9
$LUNITS
 70
     2
  9
$LUPREC
 70
     4
  9
$SKETCHINC
 40
1.0
  9
$FILLETRAD
 40
1.5
  9
$AUNITS
 70
     0
  9
$AUPREC
 70
     0
  9
$MENU
  1
.
  9
$ELEVATION
 40
0.0
  9
$PELEVATION
 40
0.0
  9
$THICKNESS
 40
0.0
  9
$LIMCHECK
 70
     0
  9
$CHAMFERA
 40
10.0
  9
$CHAMFERB
 40
10.0
  9
$CHAMFERC
 40
20.0
  9
$CHAMFERD
 40
0.0
  9
$SKPOLY
 70
     0
  9
$TDCREATE
 40
2450858.534655093
  9
$TDUCREATE
 40
2450858.159655093
  9
$TDUPDATE
 40
2455376.432086806
  9
$TDUUPDATE
 40
2455376.057086806
  9
$TDINDWG
 40
0.4530534606
  9
$TDUSRTIMER
 40
0.4530534606
  9
$USRTIMER
 70
     1
  9
$ANGBASE
 50
0.0
  9
$ANGDIR
 70
     0
  9
$PDMODE
 70
     0
  9
$PDSIZE
 40
0.0
  9
$PLINEWID
 40
0.0
  9
$SPLFRAME
 70
     0
  9
$SPLINETYPE
 70
     6
  9
$SPLINESEGS
 70
     8
  9
$HANDSEED
  5
A7B
  9
$SURFTAB1
 70
     6
  9
$SURFTAB2
 70
     6
  9
$SURFTYPE
 70
     6
  9
$SURFU
 70
     6
  9
$SURFV
 70
     6
  9
$UCSBASE
  2

  9
$UCSNAME
  2

  9
$UCSORG
 10
0.0
 20
0.0
 30
0.0
  9
$UCSXDIR
 10
1.0
 20
0.0
 30
0.0
  9
$UCSYDIR
 10
0.0
 20
1.0
 30
0.0
  9
$UCSORTHOREF
  2

  9
$UCSORTHOVIEW
 70
     0
  9
$UCSORGTOP
 10
0.0
 20
0.0
 30
0.0
  9
$UCSORGBOTTOM
 10
0.0
 20
0.0
 30
0.0
  9
$UCSORGLEFT
 10
0.0
 20
0.0
 30
0.0
  9
$UCSORGRIGHT
 10
0.0
 20
0.0
 30
0.0
  9
$UCSORGFRONT
 10
0.0
 20
0.0
 30
0.0
  9
$UCSORGBACK
 10
0.0
 20
0.0
 30
0.0
  9
$PUCSBASE
  2

  9
$PUCSNAME
  2

  9
$PUCSORG
 10
0.0
 20
0.0
 30
0.0
  9
$PUCSXDIR
 10
1.0
 20
0.0
 30
0.0
  9
$PUCSYDIR
 10
0.0
 20
1.0
 30
0.0
  9
$PUCSORTHOREF
  2

  9
$PUCSORTHOVIEW
 70
     0
  9
$PUCSORGTOP
 10
0.0
 20
0.0
 30
0.0
  9
$PUCSORGBOTTOM
 10
0.0
 20
0.0
 30
0.0
  9
$PUCSORGLEFT
 10
0.0
 20
0.0
 30
0.0
  9
$PUCSORGRIGHT
 10
0.0
 20
0.0
 30
0.0
  9
$PUCSORGFRONT
 10
0.0
 20
0.0
 30
0.0
  9
$PUCSORGBACK
 10
0.0
 20
0.0
 30
0.0
  9
$USERI1
 70
     0
  9
$USERI2
 70
     0
  9
$USERI3
 70
     0
  9
$USERI4
 70
     0
  9
$USERI5
 70
     0
  9
$USERR1
 40
0.0
  9
$USERR2
 40
0.0
  9
$USERR3
 40
0.0
  9
$USERR4
 40
0.0
  9
$USERR5
 40
0.0
  9
$WORLDVIEW
 70
     1
  9
$SHADEDGE
 70
     3
  9
$SHADEDIF
 70
    70
  9
$TILEMODE
 70
     1
  9
$MAXACTVP
 70
    48
  9
$PINSBASE
 10
0.0
 20
0.0
 30
0.0
  9
$PLIMCHECK
 70
     0
  9
$PEXTMIN
 10
1.000000000000000E+20
 20
1.000000000000000E+20
 30
1.000000000000000E+20
  9
$PEXTMAX
 10
-1.000000000000000E+20
 20
-1.000000000000000E+20
 30
-1.000000000000000E+20
  9
$PLIMMIN
 10
0.0
 20
0.0
  9
$PLIMMAX
 10
420.0
 20
297.0
  9
$UNITMODE
 70
     0
  9
$VISRETAIN
 70
     1
  9
$PLINEGEN
 70
     0
  9
$PSLTSCALE
 70
     1
  9
$TREEDEPTH
 70
  3020
  9
$CMLSTYLE
  2
STANDARD
  9
$CMLJUST
 70
     0
  9
$CMLSCALE
 40
20.0
  9
$PROXYGRAPHICS
 70
     1
  9
$MEASUREMENT
 70
     1
  9
$CELWEIGHT
370
    -1
  9
$ENDCAPS
280
     0
  9
$JOINSTYLE
280
     0
  9
$LWDISPLAY
290
     0
  9
$INSUNITS
 70
     0
  9
$HYPERLINKBASE
  1

  9
$STYLESHEET
  1
monochrome.ctb
  9
$XEDIT
290
     1
  9
$CEPSNTYPE
380
     0
  9
$PSTYLEMODE
290
     1
  9
$FINGERPRINTGUID
  2
{C02C6287-9F29-4ABE-B4D6-D153111BAA46}
  9
$VERSIONGUID
  2
{BB80FDD1-95C9-49DF-952A-269F91986048}
  9
$EXTNAMES
290
     1
  9
$PSVPSCALE
 40
0.0
  9
$OLESTARTUP
290
     0
  9
$SORTENTS
280
   127
  9
$INDEXCTL
280
     0
  9
$HIDETEXT
280
     0
  9
$XCLIPFRAME
290
     0
  9
$HALOGAP
280
     0
  9
$OBSCOLOR
 70
   257
  9
$OBSLTYPE
280
     0
  9
$INTERSECTIONDISPLAY
280
     0
  9
$INTERSECTIONCOLOR
 70
   257
  9
$DIMASSOC
280
     1
  9
$PROJECTNAME
  1

  0
ENDSEC
  0
SECTION
  2
CLASSES
  0
CLASS
  1
HATCH
  2
AcDbHatch
  3
ObjectDBX Classes
 90
        0
 91
       19
280
     0
281
     1
  0
CLASS
  1
ACDBDICTIONARYWDFLT
  2
AcDbDictionaryWithDefault
  3
ObjectDBX Classes
 90
        0
 91
        1
280
     0
281
     0
  0
CLASS
  1
TABLESTYLE
  2
AcDbTableStyle
  3
ObjectDBX Classes
 90
     2047
 91
        1
280
     0
281
     0
  0
CLASS
  1
DICTIONARYVAR
  2
AcDbDictionaryVar
  3
ObjectDBX Classes
 90
        0
 91
        1
280
     0
281
     0
  0
CLASS
  1
SORTENTSTABLE
  2
AcDbSortentsTable
  3
ObjectDBX Classes
 90
        0
 91
        2
280
     0
281
     0
  0
ENDSEC
  0
SECTION
  2
TABLES
  0
TABLE
  2
VPORT
  5
8
330
0
100
AcDbSymbolTable
 70
     2
  0
VPORT
  5
A7A
330
8
100
AcDbSymbolTableRecord
100
AcDbViewportTableRecord
  2
*Active
 70
     0
 10
0.0
 20
0.0
 11
1.0
 21
1.0
 12
444.9861521491976
 22
317.7246641734909
 13
0.0
 23
0.0
 14
10.0
 24
10.0
 15
10.0
 25
10.0
 16
0.0
 26
0.0
 36
1.0
 17
0.0
 27
0.0
 37
0.0
 40
285.4767900740659
 41
1.530456852791878
 42
50.0
 43
0.0
 44
0.0
 50
0.0
 51
0.0
 71
     0
 72
   100
 73
     1
 74
     1
 75
     0
 76
     0
 77
     0
 78
     0
281
     0
 65
     1
110
0.0
120
0.0
130
0.0
111
1.0
121
0.0
131
0.0
112
0.0
122
1.0
132
0.0
 79
     0
146
0.0
  0
ENDTAB
  0
TABLE
  2
LTYPE
  5
5
330
0
100
AcDbSymbolTable
 70
    13
  0
LTYPE
  5
12
330
5
100
AcDbSymbolTableRecord
100
AcDbLinetypeTableRecord
  2
BYBLOCK
 70
     0
  3

 72
    65
 73
     0
 40
0.0
  0
LTYPE
  5
13
330
5
100
AcDbSymbolTableRecord
100
AcDbLinetypeTableRecord
  2
BYLAYER
 70
     0
  3

 72
    65
 73
     0
 40
0.0
  0
LTYPE
  5
14
330
5
100
AcDbSymbolTableRecord
100
AcDbLinetypeTableRecord
  2
CONTINUOUS
 70
     0
  3
Solid line
 72
    65
 73
     0
 40
0.0
  0
LTYPE
  5
22
330
5
100
AcDbSymbolTableRecord
100
AcDbLinetypeTableRecord
  2
CENTER2
 70
     0
  3
Center (.5x) ___ _ ___ _ ___ _ ___ _ ___ _ ___
 72
    65
 73
     4
 40
28.575
 49
19.05
 74
     0
 49
-3.174999999999999
 74
     0
 49
3.174999999999999
 74
     0
 49
-3.174999999999999
 74
     0
  0
LTYPE
  5
23
330
5
100
AcDbSymbolTableRecord
100
AcDbLinetypeTableRecord
  2
HIDDEN2
 70
     0
  3
Hidden (.5x) _ _ _ _ _ _ _ _ _ _ _ _ _ _ _ _ _
 72
    65
 73
     2
 40
4.762499999999999
 49
3.174999999999999
 74
     0
 49
-1.587499999999999
 74
     0
  0
LTYPE
  5
24
330
5
100
AcDbSymbolTableRecord
100
AcDbLinetypeTableRecord
  2
PHANTOM2
 70
     0
  3
Phantom (.5x) ___ _ _ ___ _ _ ___ _ _ ___ _ _
 72
    65
 73
     6
 40
31.75
 49
15.875
 74
     0
 49
-3.174999999999999
 74
     0
 49
3.174999999999999
 74
     0
 49
-3.174999999999999
 74
     0
 49
3.174999999999999
 74
     0
 49
-3.174999999999999
 74
     0
  0
ENDTAB
  0
TABLE
  2
LAYER
  5
2
330
0
100
AcDbSymbolTable
 70
    16
  0
LAYER
  5
E
330
2
100
AcDbSymbolTableRecord
100
AcDbLayerTableRecord
  2
0
 70
     0
 62
     7
  6
CONTINUOUS
370
    -3
390
995
  0
LAYER
  5
25
330
2
100
AcDbSymbolTableRecord
100
AcDbLayerTableRecord
  2
外形線
 70
     0
 62
     7
  6
CONTINUOUS
370
    -3
390
995
  0
LAYER
  5
26
330
2
100
AcDbSymbolTableRecord
100
AcDbLayerTableRecord
  2
寸法線
 70
     0
 62
     2
  6
CONTINUOUS
370
    -3
390
995
  0
LAYER
  5
27
330
2
100
AcDbSymbolTableRecord
100
AcDbLayerTableRecord
  2
中心線
 70
     0
 62
     4
  6
CENTER2
370
    -3
390
995
  0
LAYER
  5
28
330
2
100
AcDbSymbolTableRecord
100
AcDbLayerTableRecord
  2
隠れ線
 70
     0
 62
     6
  6
HIDDEN2
370
    -3
390
995
  0
LAYER
  5
29
330
2
100
AcDbSymbolTableRecord
100
AcDbLayerTableRecord
  2
想像線
 70
     0
 62
     1
  6
PHANTOM2
370
    -3
390
995
  0
LAYER
  5
2A
330
2
100
AcDbSymbolTableRecord
100
AcDbLayerTableRecord
  2
ﾊｯﾁﾝｸ
 70
     0
 62
     6
  6
CONTINUOUS
370
    -3
390
995
  0
LAYER
  5
2B
330
2
100
AcDbSymbolTableRecord
100
AcDbLayerTableRecord
  2
文字
 70
     0
 62
     6
  6
CONTINUOUS
370
    -3
390
995
  0
LAYER
  5
2C
330
2
100
AcDbSymbolTableRecord
100
AcDbLayerTableRecord
  2
目盛
 70
     0
 62
    72
  6
CONTINUOUS
370
    -3
390
995
  0
LAYER
  5
2D
330
2
100
AcDbSymbolTableRecord
100
AcDbLayerTableRecord
  2
針
 70
     0
 62
     5
  6
CONTINUOUS
370
    -3
390
995
  0
LAYER
  5
53
330
2
100
AcDbSymbolTableRecord
100
AcDbLayerTableRecord
  2
DEFPOINTS
 70
     0
 62
     7
  6
CONTINUOUS
290
     0
370
    -3
390
995
  0
LAYER
  5
A5
330
2
100
AcDbSymbolTableRecord
100
AcDbLayerTableRecord
  2
C
 70
     0
 62
     7
  6
CONTINUOUS
370
    -3
390
995
  0
LAYER
  5
273
330
2
100
AcDbSymbolTableRecord
100
AcDbLayerTableRecord
  2
握り
 70
     0
 62
     3
  6
CONTINUOUS
370
    -3
390
995
  0
LAYER
  5
333
330
2
100
AcDbSymbolTableRecord
100
AcDbLayerTableRecord
  2
ROGO
 70
     0
 62
     6
  6
CONTINUOUS
370
    -3
390
995
  0
LAYER
  5
9D1
330
2
100
AcDbSymbolTableRecord
100
AcDbLayerTableRecord
  2
隠れ線2
 70
     0
 62
     1
  6
HIDDEN2
370
    -3
390
995
  0
ENDTAB
  0
TABLE
  2
STYLE
  5
3
330
0
100
AcDbSymbolTable
 70
     6
  0
STYLE
  5
F
330
3
100
AcDbSymbolTableRecord
100
AcDbTextStyleTableRecord
  2
STANDARD
 70
     0
 40
0.0
 41
1.0
 50
0.0
 71
     0
 42
2.5
  3
txt
  4

  0
STYLE
  5
3F
330
3
100
AcDbSymbolTableRecord
100
AcDbTextStyleTableRecord
  2
STYLE3
 70
     0
 40
0.0
 41
1.0
 50
0.0
 71
     0
 42
3.0
  3
romans.shx
  4
bigfont.shx
  0
ENDTAB
  0
TABLE
  2
VIEW
  5
6
330
0
100
AcDbSymbolTable
 70
     0
  0
ENDTAB
  0
TABLE
  2
UCS
  5
7
330
0
100
AcDbSymbolTable
 70
     0
  0
ENDTAB
  0
TABLE
  2
APPID
  5
9
330
0
100
AcDbSymbolTable
 70
     2
  0
APPID
  5
10
330
9
100
AcDbSymbolTableRecord
100
AcDbRegAppTableRecord
  2
ACAD
 70
     0
  0
APPID
  5
9D6
330
9
100
AcDbSymbolTableRecord
100
AcDbRegAppTableRecord
  2
ACAD_PSEXT
 70
     0
  0
ENDTAB
  0
TABLE
  2
DIMSTYLE
  5
A
330
0
100
AcDbSymbolTable
 70
     8
100
AcDbDimStyleTable
 71
     1
340
8F
  0
DIMSTYLE
105
1D
330
A
100
AcDbSymbolTableRecord
100
AcDbDimStyleTableRecord
  2
STANDARD
 70
     0
 41
2.5
 42
0.625
 43
3.75
 44
1.25
 73
     0
 74
     0
 77
     1
 78
     8
140
2.5
141
2.5
143
0.0394
147
0.625
171
     4
172
     1
273
     8
274
     4
277
     6
340
F
  0
DIMSTYLE
105
8F
102
{ACAD_REACTORS
330
3DC
330
6E8
330
6F7
330
82D
330
888
102
}
330
A
100
AcDbSymbolTableRecord
100
AcDbDimStyleTableRecord
  2
STYLE3
 70
     0
 41
2.5
 42
0.0
 43
3.75
 44
1.25
 73
     0
 74
     0
 77
     1
 78
     8
140
2.5
141
2.5
143
0.0394
147
0.625
171
     4
172
     1
173
     1
176
     2
177
     2
178
     6
271
     1
273
     8
274
     4
340
3F
341
45
343
45
344
45
  0
ENDTAB
  0
TABLE
  2
BLOCK_RECORD
  5
1
330
0
100
AcDbSymbolTable
 70
    11
  0
BLOCK_RECORD
  5
18
102
{ACAD_XDICTIONARY
360
9C3
102
}
330
1
100
AcDbSymbolTableRecord
100
AcDbBlockTableRecord
  2
*MODEL_SPACE
340
99C
  0
BLOCK_RECORD
  5
15
330
1
100
AcDbSymbolTableRecord
100
AcDbBlockTableRecord
  2
*PAPER_SPACE
340
99D
  0
BLOCK_RECORD
  5
45
330
1
100
AcDbSymbolTableRecord
100
AcDbBlockTableRecord
  2
_OPEN
340
0
102
{BLKREFS
331
722
331
790
331
791
331
7B1
331
7EA
331
7F4
331
831
331
832
331
931
331
932
331
3D5
331
3D6
331
6FE
331
6FF
331
70B
331
70C
331
826
331
827
331
881
331
882
102
}
  0
BLOCK_RECORD
  5
3D0
330
1
100
AcDbSymbolTableRecord
100
AcDbBlockTableRecord
  2
*D1
340
0
  0
BLOCK_RECORD
  5
6DA
330
1
100
AcDbSymbolTableRecord
100
AcDbBlockTableRecord
  2
*D5
340
0
  0
BLOCK_RECORD
  5
6E9
330
1
100
AcDbSymbolTableRecord
100
AcDbBlockTableRecord
  2
*D6
340
0
  0
BLOCK_RECORD
  5
822
330
1
100
AcDbSymbolTableRecord
100
AcDbBlockTableRecord
  2
*D7
340
0
  0
BLOCK_RECORD
  5
87C
330
1
100
AcDbSymbolTableRecord
100
AcDbBlockTableRecord
  2
*D8
340
0
  0
ENDTAB
  0
ENDSEC
  0
SECTION
  2
BLOCKS
  0
BLOCK
  5
19
330
18
100
AcDbEntity
  8
0
100
AcDbBlockBegin
  2
*MODEL_SPACE
 70
     0
 10
0.0
 20
0.0
 30
0.0
  3
*MODEL_SPACE
  1

  0
ENDBLK
  5
1A
330
18
100
AcDbEntity
  8
0
100
AcDbBlockEnd
  0
BLOCK
  5
16
330
15
100
AcDbEntity
 67
     1
  8
0
100
AcDbBlockBegin
  2
*PAPER_SPACE
 70
     0
 10
0.0
 20
0.0
 30
0.0
  3
*PAPER_SPACE
  1

  0
ENDBLK
  5
17
330
15
100
AcDbEntity
 67
     1
  8
0
100
AcDbBlockEnd
  0
BLOCK
  5
46
330
45
100
AcDbEntity
  8
0
100
AcDbBlockBegin
  2
_OPEN
 70
     0
 10
0.0
 20
0.0
 30
0.0
  3
_OPEN
  1

  0
LINE
  5
47
330
45
100
AcDbEntity
  8
0
  6
ByBlock
 62
     0
100
AcDbLine
 10
-1.0
 20
0.1666666666666666
 30
0.0
 11
0.0
 21
0.0
 31
0.0
  0
LINE
  5
48
330
45
100
AcDbEntity
  8
0
  6
ByBlock
 62
     0
100
AcDbLine
 10
0.0
 20
0.0
 30
0.0
 11
-1.0
 21
-0.1666666666666666
 31
0.0
  0
LINE
  5
49
330
45
100
AcDbEntity
  8
0
  6
ByBlock
 62
     0
100
AcDbLine
 10
0.0
 20
0.0
 30
0.0
 11
-1.0
 21
0.0
 31
0.0
  0
ENDBLK
  5
4A
330
45
100
AcDbEntity
  8
0
100
AcDbBlockEnd
  0
BLOCK
  5
3D1
330
3D0
100
AcDbEntity
  8
0
100
AcDbBlockBegin
  2
*D1
 70
     1
 10
0.0
 20
0.0
 30
0.0
  3
*D1
  1

  0
LINE
  5
3D2
330
3D0
100
AcDbEntity
  8
0
  6
ByBlock
 62
     2
100
AcDbLine
 10
610.6251916789751
 20
367.9677933646444
 30
0.0
 11
626.8378123845824
 21
367.9677933646444
 31
0.0
  0
LINE
  5
3D3
330
3D0
100
AcDbEntity
  8
0
  6
ByBlock
 62
     2
100
AcDbLine
 10
610.6251916789751
 20
337.9677933646444
 30
0.0
 11
626.8378123845824
 21
337.9677933646444
 31
0.0
  0
LINE
  5
3D4
330
3D0
100
AcDbEntity
  8
0
  6
ByBlock
 62
     2
100
AcDbLine
 10
625.5878123845824
 20
365.4677933646444
 30
0.0
 11
625.5878123845824
 21
340.4677933646444
 31
0.0
  0
INSERT
  5
3D5
330
3D0
100
AcDbEntity
  8
0
  6
ByBlock
 62
     2
100
AcDbBlockReference
  2
_OPEN
 10
625.5878123845824
 20
367.9677933646444
 30
0.0
 41
2.5
 42
2.5
 43
2.5
 50
90.0
  0
INSERT
  5
3D6
330
3D0
100
AcDbEntity
  8
0
  6
ByBlock
 62
     2
100
AcDbBlockReference
  2
_OPEN
 10
625.5878123845824
 20
337.9677933646444
 30
0.0
 41
2.5
 42
2.5
 43
2.5
 50
270.0
  0
MTEXT
  5
3D7
330
3D0
100
AcDbEntity
  8
0
  6
ByBlock
 62
     6
100
AcDbMText
 10
623.7128123845824
 20
352.9677933646444
 30
0.0
 40
2.5
 41
0.0
 71
     5
 72
     1
  1
\A1;30
  7
STYLE3
 11
0.0000000000000001
 21
1.0
 31
0.0
 73
     1
 44
1.0
  0
POINT
  5
3D8
330
3D0
100
AcDbEntity
  8
DEFPOINTS
  6
ByBlock
 62
     0
100
AcDbPoint
 10
610.6251916789751
 20
367.9677933646444
 30
0.0
  0
POINT
  5
3D9
330
3D0
100
AcDbEntity
  8
DEFPOINTS
  6
ByBlock
 62
     0
100
AcDbPoint
 10
610.6251916789751
 20
337.9677933646444
 30
0.0
  0
POINT
  5
3DA
330
3D0
100
AcDbEntity
  8
DEFPOINTS
  6
ByBlock
 62
     0
100
AcDbPoint
 10
625.5878123845824
 20
337.9677933646444
 30
0.0
  0
ENDBLK
  5
3DB
330
3D0
100
AcDbEntity
  8
0
100
AcDbBlockEnd
  0
BLOCK
  5
6F8
330
6DA
100
AcDbEntity
  8
0
100
AcDbBlockBegin
  2
*D5
 70
     1
 10
0.0
 20
0.0
 30
0.0
  3
*D5
  1

  0
LINE
  5
6F9
330
6DA
100
AcDbEntity
  8
0
  6
ByBlock
 62
     2
100
AcDbLine
 10
363.096176217541
 20
387.6675268816168
 30
0.0
 11
363.096176217541
 21
403.7001718828013
 31
0.0
  0
LINE
  5
6FA
330
6DA
100
AcDbEntity
  8
0
  6
ByBlock
 62
     2
100
AcDbLine
 10
366.096176217541
 20
387.7263571576179
 30
0.0
 11
366.096176217541
 21
403.7001718828013
 31
0.0
  0
LINE
  5
6FB
330
6DA
100
AcDbEntity
  8
0
  6
ByBlock
 62
     2
100
AcDbLine
 10
360.596176217541
 20
402.4501718828012
 30
0.0
 11
358.096176217541
 21
402.4501718828012
 31
0.0
  0
LINE
  5
6FC
330
6DA
100
AcDbEntity
  8
0
  6
ByBlock
 62
     2
100
AcDbLine
 10
368.596176217541
 20
402.4501718828012
 30
0.0
 11
377.1080809794458
 21
402.4501718828012
 31
0.0
  0
LINE
  5
6FD
330
6DA
100
AcDbEntity
  8
0
  6
ByBlock
 62
     2
100
AcDbLine
 10
363.096176217541
 20
402.4501718828012
 30
0.0
 11
366.096176217541
 21
402.4501718828012
 31
0.0
  0
INSERT
  5
6FE
330
6DA
100
AcDbEntity
  8
0
  6
ByBlock
 62
     2
100
AcDbBlockReference
  2
_OPEN
 10
363.096176217541
 20
402.4501718828012
 30
0.0
 41
2.5
 42
2.5
 43
2.5
  0
INSERT
  5
6FF
330
6DA
100
AcDbEntity
  8
0
  6
ByBlock
 62
     2
100
AcDbBlockReference
  2
_OPEN
 10
366.096176217541
 20
402.4501718828012
 30
0.0
 41
2.5
 42
2.5
 43
2.5
 50
180.0
  0
MTEXT
  5
700
330
6DA
100
AcDbEntity
  8
0
  6
ByBlock
 62
     6
100
AcDbMText
 10
374.1021285984934
 20
404.9799337875631
 30
0.0
 40
2.5
 41
0.0
 71
     5
 72
     1
  1
\A1;(3)
  7
STYLE3
 73
     1
 44
1.0
  0
POINT
  5
701
330
6DA
100
AcDbEntity
  8
DEFPOINTS
  6
ByBlock
 62
     0
100
AcDbPoint
 10
363.096176217541
 20
387.6675268816168
 30
0.0
  0
POINT
  5
702
330
6DA
100
AcDbEntity
  8
DEFPOINTS
  6
ByBlock
 62
     0
100
AcDbPoint
 10
366.096176217541
 20
387.7263571576179
 30
0.0
  0
POINT
  5
703
330
6DA
100
AcDbEntity
  8
DEFPOINTS
  6
ByBlock
 62
     0
100
AcDbPoint
 10
366.096176217541
 20
402.4501718828012
 30
0.0
  0
ENDBLK
  5
704
330
6DA
100
AcDbEntity
  8
0
100
AcDbBlockEnd
  0
BLOCK
  5
705
330
6E9
100
AcDbEntity
  8
0
100
AcDbBlockBegin
  2
*D6
 70
     1
 10
0.0
 20
0.0
 30
0.0
  3
*D6
  1

  0
LINE
  5
706
330
6E9
100
AcDbEntity
  8
0
  6
ByBlock
 62
     2
100
AcDbLine
 10
354.91750003872
 20
209.7137716114016
 30
0.0
 11
354.91750003872
 21
190.3640381372833
 31
0.0
  0
LINE
  5
707
330
6E9
100
AcDbEntity
  8
0
  6
ByBlock
 62
     2
100
AcDbLine
 10
357.9175000387201
 20
209.4789319774197
 30
0.0
 11
357.9175000387201
 21
190.3640381372833
 31
0.0
  0
LINE
  5
708
330
6E9
100
AcDbEntity
  8
0
  6
ByBlock
 62
     2
100
AcDbLine
 10
352.41750003872
 20
191.6140381372833
 30
0.0
 11
349.9175000387201
 21
191.6140381372833
 31
0.0
  0
LINE
  5
709
330
6E9
100
AcDbEntity
  8
0
  6
ByBlock
 62
     2
100
AcDbLine
 10
360.4175000387201
 20
191.6140381372833
 30
0.0
 11
368.9294048006248
 21
191.6140381372833
 31
0.0
  0
LINE
  5
70A
330
6E9
100
AcDbEntity
  8
0
  6
ByBlock
 62
     2
100
AcDbLine
 10
354.91750003872
 20
191.6140381372833
 30
0.0
 11
357.9175000387201
 21
191.6140381372833
 31
0.0
  0
INSERT
  5
70B
330
6E9
100
AcDbEntity
  8
0
  6
ByBlock
 62
     2
100
AcDbBlockReference
  2
_OPEN
 10
354.91750003872
 20
191.6140381372833
 30
0.0
 41
2.5
 42
2.5
 43
2.5
  0
INSERT
  5
70C
330
6E9
100
AcDbEntity
  8
0
  6
ByBlock
 62
     2
100
AcDbBlockReference
  2
_OPEN
 10
357.9175000387201
 20
191.6140381372833
 30
0.0
 41
2.5
 42
2.5
 43
2.5
 50
180.0
  0
MTEXT
  5
70D
330
6E9
100
AcDbEntity
  8
0
  6
ByBlock
 62
     6
100
AcDbMText
 10
365.9234524196725
 20
194.1438000420452
 30
0.0
 40
2.5
 41
0.0
 71
     5
 72
     1
  1
\A1;(3)
  7
STYLE3
 73
     1
 44
1.0
  0
POINT
  5
70E
330
6E9
100
AcDbEntity
  8
DEFPOINTS
  6
ByBlock
 62
     0
100
AcDbPoint
 10
354.91750003872
 20
209.7137716114016
 30
0.0
  0
POINT
  5
70F
330
6E9
100
AcDbEntity
  8
DEFPOINTS
  6
ByBlock
 62
     0
100
AcDbPoint
 10
357.9175000387201
 20
209.4789319774197
 30
0.0
  0
POINT
  5
710
330
6E9
100
AcDbEntity
  8
DEFPOINTS
  6
ByBlock
 62
     0
100
AcDbPoint
 10
357.9175000387201
 20
191.6140381372833
 30
0.0
  0
ENDBLK
  5
711
330
6E9
100
AcDbEntity
  8
0
100
AcDbBlockEnd
  0
BLOCK
  5
823
330
822
100
AcDbEntity
  8
0
100
AcDbBlockBegin
  2
*D7
 70
     1
 10
0.0
 20
0.0
 30
0.0
  3
*D7
  1

  0
LINE
  5
824
330
822
100
AcDbEntity
  8
0
  6
ByBlock
 62
     2
100
AcDbLine
 10
616.1251916789751
 20
339.2677933646444
 30
0.0
 11
616.1251916789751
 21
268.8146929169618
 31
0.0
  0
LINE
  5
825
330
822
100
AcDbEntity
  8
0
  6
ByBlock
 62
     2
100
AcDbLine
 10
518.6251916789752
 20
270.0646929169618
 30
0.0
 11
613.6251916789752
 21
270.0646929169618
 31
0.0
  0
INSERT
  5
826
330
822
100
AcDbEntity
  8
0
  6
ByBlock
 62
     2
100
AcDbBlockReference
  2
_OPEN
 10
516.1251916789751
 20
270.0646929169618
 30
0.0
 41
2.5
 42
2.5
 43
2.5
 50
180.0
  0
INSERT
  5
827
330
822
100
AcDbEntity
  8
0
  6
ByBlock
 62
     2
100
AcDbBlockReference
  2
_OPEN
 10
616.1251916789751
 20
270.0646929169618
 30
0.0
 41
2.5
 42
2.5
 43
2.5
  0
MTEXT
  5
828
330
822
100
AcDbEntity
  8
0
  6
ByBlock
 62
     6
100
AcDbMText
 10
566.1251916789751
 20
271.9396929169618
 30
0.0
 40
2.5
 41
0.0
 71
     5
 72
     1
  1
\A1;100
  7
STYLE3
 73
     1
 44
1.0
  0
POINT
  5
829
330
822
100
AcDbEntity
  8
DEFPOINTS
  6
ByBlock
 62
     0
100
AcDbPoint
 10
516.1251916789751
 20
339.2677933646444
 30
0.0
  0
POINT
  5
82A
330
822
100
AcDbEntity
  8
DEFPOINTS
  6
ByBlock
 62
     0
100
AcDbPoint
 10
616.1251916789751
 20
339.2677933646444
 30
0.0
  0
POINT
  5
82B
330
822
100
AcDbEntity
  8
DEFPOINTS
  6
ByBlock
 62
     0
100
AcDbPoint
 10
616.1251916789751
 20
270.0646929169618
 30
0.0
  0
ENDBLK
  5
82C
330
822
100
AcDbEntity
  8
0
100
AcDbBlockEnd
  0
BLOCK
  5
87D
330
87C
100
AcDbEntity
  8
0
100
AcDbBlockBegin
  2
*D8
 70
     1
 10
0.0
 20
0.0
 30
0.0
  3
*D8
  1

  0
LINE
  5
87E
330
87C
100
AcDbEntity
  8
0
  6
ByBlock
 62
     2
100
AcDbLine
 10
291.9595016087606
 20
403.7455406143299
 30
0.0
 11
292.0466103888978
 21
412.8098646222337
 31
0.0
  0
LINE
  5
87F
330
87C
100
AcDbEntity
  8
0
  6
ByBlock
 62
     2
100
AcDbLine
 10
421.9534990516875
 20
402.4962893152227
 30
0.0
 11
422.0406078318246
 21
411.5606133231266
 31
0.0
  0
LINE
  5
880
330
87C
100
AcDbEntity
  8
0
  6
ByBlock
 62
     2
100
AcDbLine
 10
294.5344829233857
 20
411.5358982756843
 30
0.0
 11
419.5287112338922
 21
410.3346951034659
 31
0.0
  0
INSERT
  5
881
330
87C
100
AcDbEntity
  8
0
  6
ByBlock
 62
     2
100
AcDbBlockReference
  2
_OPEN
 10
292.0345983571756
 20
411.5599223391286
 30
0.0
 41
2.5
 42
2.5
 43
2.5
 50
179.4494005487563
  0
INSERT
  5
882
330
87C
100
AcDbEntity
  8
0
  6
ByBlock
 62
     2
100
AcDbBlockReference
  2
_OPEN
 10
422.0285958001023
 20
410.3106710400216
 30
0.0
 41
2.5
 42
2.5
 43
2.5
 50
359.4494005487564
  0
MTEXT
  5
883
330
87C
100
AcDbEntity
  8
0
  6
ByBlock
 62
     6
100
AcDbMText
 10
357.0496151262223
 20
412.8102101142326
 30
0.0
 40
2.5
 41
0.0
 71
     5
 72
     1
  1
\A1;130
  7
STYLE3
 11
0.9999538264840531
 21
-0.0096096253777467
 31
0.0
 73
     1
 44
1.0
  0
POINT
  5
884
330
87C
100
AcDbEntity
  8
DEFPOINTS
  6
ByBlock
 62
     0
100
AcDbPoint
 10
291.9595016087606
 20
403.7455406143299
 30
0.0
  0
POINT
  5
885
330
87C
100
AcDbEntity
  8
DEFPOINTS
  6
ByBlock
 62
     0
100
AcDbPoint
 10
421.9534990516875
 20
402.4962893152227
 30
0.0
  0
POINT
  5
886
330
87C
100
AcDbEntity
  8
DEFPOINTS
  6
ByBlock
 62
     0
100
AcDbPoint
 10
422.0285958001023
 20
410.3106710400216
 30
0.0
  0
ENDBLK
  5
887
330
87C
100
AcDbEntity
  8
0
100
AcDbBlockEnd
  0
ENDSEC
  0
SECTION
  2
ENTITIES
  0
LWPOLYLINE
  5
1A0
330
18
100
AcDbEntity
  8
C
100
AcDbPolyline
 90
        5
 70
     0
 43
0.8
 10
256.2352605185929
 20
458.9717683211813
 10
633.7352605185929
 20
458.9717683211813
 10
633.7352605185929
 20
176.4717683211813
 10
256.2352605185929
 20
176.4717683211813
 10
256.2352605185929
 20
458.9717683211813
  0
LINE
  5
1EC
330
18
100
AcDbEntity
  8
中心線
 48
0.5
100
AcDbLine
 10
261.1033154049074
 20
346.4677933646444
 30
0.0
 11
499.8533163984826
 21
346.4677933646445
 31
0.0
  0
LINE
  5
1ED
330
18
100
AcDbEntity
  8
中心線
 48
0.5
100
AcDbLine
 10
471.1251916789752
 20
367.0384185292126
 30
0.0
 11
471.1251916789751
 21
268.8146929169618
 31
0.0
  0
CIRCLE
  5
1F1
330
18
100
AcDbEntity
  8
隠れ線
 62
     4
 48
0.5
100
AcDbCircle
 10
484.8451916789752
 20
343.6677933646445
 30
0.0
 40
4.65
  0
ARC
  5
1F7
330
18
100
AcDbEntity
  8
外形線
100
AcDbCircle
 10
490.9751916789751
 20
380.7177933646445
 30
0.0
 40
16.0
100
AcDbArc
 50
176.4979078699153
 51
270.0
  0
ARC
  5
1FA
330
18
100
AcDbEntity
  8
外形線
100
AcDbCircle
 10
413.1351916789752
 20
397.4677933646445
 30
0.0
 40
15.0
100
AcDbArc
 50
255.355992429875
 51
338.642844790992
  0
LINE
  5
1FB
330
18
100
AcDbEntity
  8
中心線
 48
0.5
100
AcDbLine
 10
500.267587318069
 20
352.9677933646444
 30
0.0
 11
619.0114632020115
 21
352.9677933646445
 31
0.0
  0
LINE
  5
1FC
330
18
100
AcDbEntity
  8
外形線
100
AcDbLine
 10
490.9751916789751
 20
364.7177933646445
 30
0.0
 11
516.1251916789751
 21
364.7177933646444
 31
0.0
  0
LINE
  5
201
330
18
100
AcDbEntity
  8
外形線
100
AcDbLine
 10
516.1251916789751
 20
341.3700173615146
 30
0.0
 11
491.4565394552875
 21
333.8596956837378
 31
0.0
  0
ARC
  5
205
330
18
100
AcDbEntity
  8
外形線
100
AcDbCircle
 10
349.1251916789752
 20
194.3477933646444
 30
0.0
 40
177.0
100
AcDbArc
 50
55.30437779506131
 51
63.56247536868057
  0
ARC
  5
208
330
18
100
AcDbEntity
  8
外形線
100
AcDbCircle
 10
368.1251916789752
 20
207.7377933646445
 30
0.0
 40
180.0
100
AcDbArc
 50
76.76251087431561
 51
113.0338679529493
  0
ARC
  5
20F
330
18
100
AcDbEntity
  8
外形線
100
AcDbCircle
 10
302.6551916789752
 20
361.1677933646445
 30
0.0
 40
13.0
100
AcDbArc
 50
121.6930985093578
 51
183.1893439489573
  0
ARC
  5
212
330
18
100
AcDbEntity
  8
外形線
100
AcDbCircle
 10
297.1751916789752
 20
360.4677933646445
 30
0.0
 40
3.5
100
AcDbArc
 50
98.14461584016747
 51
180.0
  0
ARC
  5
215
330
18
100
AcDbEntity
  8
外形線
100
AcDbCircle
 10
291.6751916789752
 20
360.4677933646445
 30
0.0
 40
2.0
100
AcDbArc
 50
180.6665236861294
 51
0.0
  0
LINE
  5
21C
330
18
100
AcDbEntity
  8
外形線
100
AcDbLine
 10
297.6956597605518
 20
373.3870645183438
 30
0.0
 11
295.8253925484649
 21
372.2291605422081
 31
0.0
  0
LINE
  5
227
330
18
100
AcDbEntity
  8
外形線
100
AcDbLine
 10
296.6793392801863
 20
363.9324911001786
 30
0.0
 11
305.8145406018097
 21
365.9671031851656
 31
0.0
  0
ARC
  5
22B
330
18
100
AcDbEntity
  8
外形線
100
AcDbCircle
 10
471.1251916789751
 20
346.4677933646445
 30
0.0
 40
18.0
100
AcDbArc
 50
0.7345663578163263
 51
123.5573097619205
  0
ARC
  5
231
330
18
100
AcDbEntity
  8
外形線
100
AcDbCircle
 10
532.6051916789752
 20
347.9677933646445
 30
0.0
 40
43.5
100
AcDbArc
 50
181.1232670571129
 51
241.1977096296411
  0
ARC
  5
234
330
18
100
AcDbEntity
  8
外形線
100
AcDbCircle
 10
488.1251916789751
 20
265.7277933646445
 30
0.0
 40
50.0
100
AcDbArc
 50
23.96961322296367
 51
61.93688978484439
  0
ARC
  5
237
330
18
100
AcDbEntity
  8
外形線
100
AcDbCircle
 10
532.1251916789751
 20
284.9677933646445
 30
0.0
 40
2.0
100
AcDbArc
 50
228.5427531557842
 51
32.43226605888919
  0
ARC
  5
23A
330
18
100
AcDbEntity
  8
外形線
100
AcDbCircle
 10
487.0236004528115
 20
253.59359950939
 30
0.0
 40
53.0
100
AcDbArc
 50
34.31101065710776
 51
85.78608615745364
  0
ARC
  5
23D
330
18
100
AcDbEntity
  8
外形線
100
AcDbCircle
 10
490.1251916789751
 20
288.4677933646445
 30
0.0
 40
18.0
100
AcDbArc
 50
87.47540214860519
 51
158.1041048072557
  0
ARC
  5
240
330
18
100
AcDbEntity
  8
外形線
100
AcDbCircle
 10
330.5983294775904
 20
352.7731324353502
 30
0.0
 40
154.0
100
AcDbArc
 50
304.8851857715753
 51
338.0387813533903
  0
ARC
  5
245
330
18
100
AcDbEntity
  8
外形線
100
AcDbCircle
 10
363.9085288231063
 20
305.2918098911149
 30
0.0
 40
96.0
100
AcDbArc
 50
226.9289277488038
 51
304.7848130204471
  0
ARC
  5
249
330
18
100
AcDbEntity
  8
外形線
100
AcDbCircle
 10
364.6251916789752
 20
289.9677933646445
 30
0.0
 40
86.0
100
AcDbArc
 50
167.2697743505021
 51
219.5880752470063
  0
ARC
  5
24C
330
18
100
AcDbEntity
  8
外形線
100
AcDbCircle
 10
291.4051916789751
 20
356.4677933646445
 30
0.0
 40
2.0
100
AcDbArc
 50
351.8005862847088
 51
180.0000000000081
  0
LINE
  5
24D
330
18
100
AcDbEntity
  8
外形線
100
AcDbLine
 10
289.4051916789751
 20
356.4677933646445
 30
0.0
 11
280.7392065976448
 21
308.9188225434206
 31
0.0
  0
ARC
  5
251
330
18
100
AcDbEntity
  8
外形線
100
AcDbCircle
 10
359.1251916789752
 20
295.9677933646445
 30
0.0
 40
68.0
100
AcDbArc
 50
269.157384634215
 51
307.6587110935736
  0
ARC
  5
267
330
18
100
AcDbEntity
  8
外形線
100
AcDbCircle
 10
357.1251916789752
 20
295.9677933646445
 30
0.0
 40
68.0
100
AcDbArc
 50
172.5278007831079
 51
270.842615365785
  0
LINE
  5
268
330
18
100
AcDbEntity
  8
外形線
100
AcDbLine
 10
293.3847470596163
 20
356.1825557532135
 30
0.0
 11
289.7026423781057
 21
304.8108610321356
 31
0.0
  0
ARC
  5
26B
330
18
100
AcDbEntity
  8
外形線
100
AcDbCircle
 10
307.1251916789752
 20
348.9677933646445
 30
0.0
 40
142.0
100
AcDbArc
 50
311.2059809568555
 51
325.1175678132968
  0
LINE
  5
26C
330
18
100
AcDbEntity
  8
外形線
100
AcDbLine
 10
451.1251916789753
 20
346.4677933646445
 30
0.0
 11
447.2968709089106
 21
326.2543536898593
 31
0.0
  0
CIRCLE
  5
271
330
18
100
AcDbEntity
  8
外形線
100
AcDbCircle
 10
471.1251916789751
 20
346.4677933646445
 30
0.0
 40
9.0
  0
CIRCLE
  5
272
330
18
100
AcDbEntity
  8
外形線
100
AcDbCircle
 10
471.1251916789751
 20
346.4677933646445
 30
0.0
 40
10.0
  0
ARC
  5
2D6
330
18
100
AcDbEntity
  8
握り
100
AcDbCircle
 10
611.1251916789751
 20
366.4677933646444
 30
0.0
 40
1.5
100
AcDbArc
 50
27.81813928465427
 51
152.1818607153457
  0
ARC
  5
2D7
330
18
100
AcDbEntity
  8
握り
100
AcDbCircle
 10
601.1251916789752
 20
366.4677933646444
 30
0.0
 40
1.5
100
AcDbArc
 50
27.81813928465427
 51
152.1818607153457
  0
ARC
  5
2D8
330
18
100
AcDbEntity
  8
握り
100
AcDbCircle
 10
591.1251916789751
 20
366.4677933646444
 30
0.0
 40
1.5
100
AcDbArc
 50
27.81813928465427
 51
152.1818607153457
  0
ARC
  5
2D9
330
18
100
AcDbEntity
  8
握り
100
AcDbCircle
 10
581.1251916789752
 20
366.4677933646444
 30
0.0
 40
1.5
100
AcDbArc
 50
27.81813928465427
 51
152.1818607153457
  0
ARC
  5
2DA
330
18
100
AcDbEntity
  8
握り
100
AcDbCircle
 10
571.1251916789751
 20
366.4677933646444
 30
0.0
 40
1.5
100
AcDbArc
 50
27.81813928465427
 51
152.1818607153457
  0
ARC
  5
2DB
330
18
100
AcDbEntity
  8
握り
100
AcDbCircle
 10
561.1251916789751
 20
366.4677933646444
 30
0.0
 40
1.5
100
AcDbArc
 50
27.81813928465427
 51
152.1818607153457
  0
ARC
  5
2DC
330
18
100
AcDbEntity
  8
握り
100
AcDbCircle
 10
551.1251916789752
 20
366.4677933646444
 30
0.0
 40
1.5
100
AcDbArc
 50
27.81813928465427
 51
152.1818607153457
  0
ARC
  5
2DD
330
18
100
AcDbEntity
  8
握り
100
AcDbCircle
 10
541.1251916789751
 20
366.4677933646444
 30
0.0
 40
1.5
100
AcDbArc
 50
27.81813928465427
 51
152.1818607153457
  0
ARC
  5
2DE
330
18
100
AcDbEntity
  8
握り
100
AcDbCircle
 10
531.1251916789752
 20
366.4677933646444
 30
0.0
 40
1.5
100
AcDbArc
 50
27.81813928465427
 51
152.1818607153457
  0
ARC
  5
2DF
330
18
100
AcDbEntity
  8
握り
100
AcDbCircle
 10
521.1251916789751
 20
366.4677933646444
 30
0.0
 40
1.5
100
AcDbArc
 50
27.81813928465427
 51
152.1818607153457
  0
ARC
  5
2E0
330
18
100
AcDbEntity
  8
握り
100
AcDbCircle
 10
516.6251916789751
 20
366.6677933646444
 30
0.0
 40
0.5
100
AcDbArc
 50
90.0
 51
180.0
  0
ARC
  5
2E1
330
18
100
AcDbEntity
  8
握り
100
AcDbCircle
 10
615.6251916789751
 20
366.6677933646444
 30
0.0
 40
0.5
100
AcDbArc
 50
0.0
 51
90.0
  0
LINE
  5
2E2
330
18
100
AcDbEntity
  8
握り
100
AcDbLine
 10
552.4518415951173
 20
346.3144933646444
 30
0.0
 11
559.7985417628327
 21
346.3144933646444
 31
0.0
  0
LINE
  5
2E3
330
18
100
AcDbEntity
  8
握り
100
AcDbLine
 10
552.4518415951174
 20
359.6210933646444
 30
0.0
 11
559.7985417628332
 21
359.6210933646444
 31
0.0
  0
LINE
  5
2E4
330
18
100
AcDbEntity
  8
握り
100
AcDbLine
 10
542.4518415951173
 20
348.9677933646444
 30
0.0
 11
589.7985417628328
 21
348.9677933646444
 31
0.0
  0
LINE
  5
2E5
330
18
100
AcDbEntity
  8
握り
100
AcDbLine
 10
542.4518415951173
 20
356.9677933646444
 30
0.0
 11
589.7985417628331
 21
356.9677933646445
 31
0.0
  0
LINE
  5
2E6
330
18
100
AcDbEntity
  8
握り
100
AcDbLine
 10
552.4518415951173
 20
338.7677933646444
 30
0.0
 11
559.7985417628329
 21
338.7677933646444
 31
0.0
  0
LINE
  5
2E7
330
18
100
AcDbEntity
  8
握り
100
AcDbLine
 10
552.4518415951173
 20
367.1677933646444
 30
0.0
 11
559.7985417628329
 21
367.1677933646444
 31
0.0
  0
LINE
  5
2E8
330
18
100
AcDbEntity
  8
握り
100
AcDbLine
 10
552.4518415951172
 20
346.3144933646444
 30
0.0
 11
552.4518415951173
 21
338.7677933646444
 31
0.0
  0
LINE
  5
2E9
330
18
100
AcDbEntity
  8
握り
100
AcDbLine
 10
549.798541762833
 20
346.3144933646444
 30
0.0
 11
549.798541762833
 21
338.7677933646444
 31
0.0
  0
LINE
  5
2EA
330
18
100
AcDbEntity
  8
握り
100
AcDbLine
 10
542.4518415951173
 20
346.3144933646444
 30
0.0
 11
542.4518415951173
 21
338.7677933646444
 31
0.0
  0
LINE
  5
2EB
330
18
100
AcDbEntity
  8
握り
100
AcDbLine
 10
539.798541762833
 20
367.1677933646444
 30
0.0
 11
539.798541762833
 21
338.7677933646444
 31
0.0
  0
LINE
  5
2EC
330
18
100
AcDbEntity
  8
握り
100
AcDbLine
 10
532.4518415951173
 20
367.1677933646444
 30
0.0
 11
532.4518415951173
 21
338.7677933646444
 31
0.0
  0
LINE
  5
2ED
330
18
100
AcDbEntity
  8
握り
100
AcDbLine
 10
529.7985417628329
 20
367.1677933646444
 30
0.0
 11
529.7985417628329
 21
338.7677933646444
 31
0.0
  0
LINE
  5
2EE
330
18
100
AcDbEntity
  8
握り
100
AcDbLine
 10
519.798541762833
 20
367.1677933646444
 30
0.0
 11
519.798541762833
 21
338.7677933646444
 31
0.0
  0
LINE
  5
2EF
330
18
100
AcDbEntity
  8
握り
100
AcDbLine
 10
522.4518415951173
 20
367.1677933646444
 30
0.0
 11
522.4518415951173
 21
338.7677933646444
 31
0.0
  0
LINE
  5
2F0
330
18
100
AcDbEntity
  8
握り
100
AcDbLine
 10
516.1251916789751
 20
366.6677933646444
 30
0.0
 11
516.1251916789751
 21
339.2677933646444
 31
0.0
  0
LINE
  5
2F1
330
18
100
AcDbEntity
  8
握り
100
AcDbLine
 10
516.6251916789751
 20
338.7677933646444
 30
0.0
 11
519.7985417628331
 21
338.7677933646445
 31
0.0
  0
ARC
  5
2F2
330
18
100
AcDbEntity
  8
握り
100
AcDbCircle
 10
516.6251916789751
 20
339.2677933646444
 30
0.0
 40
0.5
100
AcDbArc
 50
180.0
 51
270.0
  0
LINE
  5
2F3
330
18
100
AcDbEntity
  8
握り
100
AcDbLine
 10
532.4518415951173
 20
338.7677933646444
 30
0.0
 11
539.798541762833
 21
338.7677933646444
 31
0.0
  0
LINE
  5
2F4
330
18
100
AcDbEntity
  8
握り
100
AcDbLine
 10
522.4518415951173
 20
338.7677933646445
 30
0.0
 11
529.7985417628331
 21
338.7677933646444
 31
0.0
  0
ARC
  5
2F5
330
18
100
AcDbEntity
  8
握り
100
AcDbCircle
 10
521.1251916789751
 20
339.4677933646444
 30
0.0
 40
1.5
100
AcDbArc
 50
207.8181392846543
 51
332.1818607153458
  0
ARC
  5
2F6
330
18
100
AcDbEntity
  8
握り
100
AcDbCircle
 10
531.1251916789752
 20
339.4677933646444
 30
0.0
 40
1.5
100
AcDbArc
 50
207.8181392846543
 51
332.1818607153458
  0
LINE
  5
2F7
330
18
100
AcDbEntity
  8
握り
100
AcDbLine
 10
542.4518415951173
 20
338.7677933646444
 30
0.0
 11
549.798541762833
 21
338.7677933646444
 31
0.0
  0
ARC
  5
2F8
330
18
100
AcDbEntity
  8
握り
100
AcDbCircle
 10
541.1251916789751
 20
339.4677933646444
 30
0.0
 40
1.5
100
AcDbArc
 50
207.8181392846543
 51
332.1818607153458
  0
ARC
  5
2F9
330
18
100
AcDbEntity
  8
握り
100
AcDbCircle
 10
551.1251916789752
 20
339.4677933646444
 30
0.0
 40
1.5
100
AcDbArc
 50
207.8181392846543
 51
332.1818607153458
  0
LINE
  5
2FA
330
18
100
AcDbEntity
  8
握り
100
AcDbLine
 10
516.6251916789751
 20
367.1677933646444
 30
0.0
 11
519.798541762833
 21
367.1677933646444
 31
0.0
  0
LINE
  5
2FC
330
18
100
AcDbEntity
  8
握り
100
AcDbLine
 10
542.4518415951173
 20
356.9677933646444
 30
0.0
 11
542.4518415951173
 21
348.9677933646444
 31
0.0
  0
LINE
  5
2FD
330
18
100
AcDbEntity
  8
握り
100
AcDbLine
 10
542.4518415951173
 20
346.3144933646444
 30
0.0
 11
549.798541762833
 21
346.3144933646444
 31
0.0
  0
LINE
  5
2FE
330
18
100
AcDbEntity
  8
握り
100
AcDbLine
 10
532.4518415951173
 20
367.1677933646444
 30
0.0
 11
539.798541762833
 21
367.1677933646444
 31
0.0
  0
LINE
  5
2FF
330
18
100
AcDbEntity
  8
握り
100
AcDbLine
 10
522.4518415951173
 20
367.1677933646444
 30
0.0
 11
529.7985417628331
 21
367.1677933646444
 31
0.0
  0
LINE
  5
300
330
18
100
AcDbEntity
  8
握り
100
AcDbLine
 10
552.4518415951173
 20
367.1677933646444
 30
0.0
 11
552.4518415951174
 21
359.6210933646444
 31
0.0
  0
LINE
  5
301
330
18
100
AcDbEntity
  8
握り
100
AcDbLine
 10
549.798541762833
 20
367.1677933646444
 30
0.0
 11
549.798541762833
 21
359.6210933646444
 31
0.0
  0
LINE
  5
302
330
18
100
AcDbEntity
  8
握り
100
AcDbLine
 10
542.4518415951173
 20
367.1677933646444
 30
0.0
 11
542.4518415951173
 21
359.6210933646444
 31
0.0
  0
LINE
  5
303
330
18
100
AcDbEntity
  8
握り
100
AcDbLine
 10
542.4518415951174
 20
359.6210933646444
 30
0.0
 11
549.7985417628332
 21
359.6210933646444
 31
0.0
  0
LINE
  5
304
330
18
100
AcDbEntity
  8
握り
100
AcDbLine
 10
542.4518415951173
 20
367.1677933646444
 30
0.0
 11
549.798541762833
 21
367.1677933646444
 31
0.0
  0
LINE
  5
305
330
18
100
AcDbEntity
  8
握り
100
AcDbLine
 10
582.4518415951173
 20
346.3144933646444
 30
0.0
 11
582.4518415951173
 21
338.7677933646444
 31
0.0
  0
LINE
  5
306
330
18
100
AcDbEntity
  8
握り
100
AcDbLine
 10
579.7985417628331
 20
346.3144933646444
 30
0.0
 11
579.7985417628329
 21
338.7677933646444
 31
0.0
  0
LINE
  5
307
330
18
100
AcDbEntity
  8
握り
100
AcDbLine
 10
572.4518415951173
 20
346.3144933646444
 30
0.0
 11
572.4518415951173
 21
338.7677933646444
 31
0.0
  0
LINE
  5
308
330
18
100
AcDbEntity
  8
握り
100
AcDbLine
 10
569.798541762833
 20
346.3144933646444
 30
0.0
 11
569.798541762833
 21
338.7677933646444
 31
0.0
  0
LINE
  5
309
330
18
100
AcDbEntity
  8
握り
100
AcDbLine
 10
562.4518415951172
 20
346.3144933646444
 30
0.0
 11
562.4518415951173
 21
338.7677933646444
 31
0.0
  0
LINE
  5
30A
330
18
100
AcDbEntity
  8
握り
100
AcDbLine
 10
559.7985417628328
 20
346.3144933646444
 30
0.0
 11
559.7985417628329
 21
338.7677933646444
 31
0.0
  0
LINE
  5
30B
330
18
100
AcDbEntity
  8
握り
100
AcDbLine
 10
589.7985417628328
 20
346.3144933646444
 30
0.0
 11
589.798541762833
 21
338.7677933646444
 31
0.0
  0
LINE
  5
30C
330
18
100
AcDbEntity
  8
握り
100
AcDbLine
 10
612.4518415951173
 20
367.1677933646444
 30
0.0
 11
612.4518415951173
 21
338.7677933646444
 31
0.0
  0
LINE
  5
30D
330
18
100
AcDbEntity
  8
握り
100
AcDbLine
 10
609.7985417628329
 20
367.1677933646444
 30
0.0
 11
609.7985417628329
 21
338.7677933646444
 31
0.0
  0
LINE
  5
30E
330
18
100
AcDbEntity
  8
握り
100
AcDbLine
 10
602.4518415951173
 20
367.1677933646444
 30
0.0
 11
602.4518415951173
 21
338.7677933646444
 31
0.0
  0
LINE
  5
30F
330
18
100
AcDbEntity
  8
握り
100
AcDbLine
 10
599.798541762833
 20
367.1677933646444
 30
0.0
 11
599.798541762833
 21
338.7677933646444
 31
0.0
  0
LINE
  5
310
330
18
100
AcDbEntity
  8
握り
100
AcDbLine
 10
592.4518415951173
 20
367.1677933646444
 30
0.0
 11
592.4518415951173
 21
338.7677933646444
 31
0.0
  0
LINE
  5
311
330
18
100
AcDbEntity
  8
握り
100
AcDbLine
 10
616.1251916789751
 20
366.6677933646444
 30
0.0
 11
616.1251916789751
 21
339.2677933646444
 31
0.0
  0
LINE
  5
312
330
18
100
AcDbEntity
  8
握り
100
AcDbLine
 10
582.4518415951174
 20
338.7677933646444
 30
0.0
 11
589.7985417628328
 21
338.7677933646444
 31
0.0
  0
ARC
  5
313
330
18
100
AcDbEntity
  8
握り
100
AcDbCircle
 10
571.1251916789751
 20
339.4677933646444
 30
0.0
 40
1.5
100
AcDbArc
 50
207.8181392846543
 51
332.1818607153458
  0
ARC
  5
314
330
18
100
AcDbEntity
  8
握り
100
AcDbCircle
 10
561.1251916789751
 20
339.4677933646444
 30
0.0
 40
1.5
100
AcDbArc
 50
207.8181392846543
 51
332.1818607153458
  0
LINE
  5
315
330
18
100
AcDbEntity
  8
握り
100
AcDbLine
 10
562.4518415951174
 20
338.7677933646444
 30
0.0
 11
569.798541762833
 21
338.7677933646444
 31
0.0
  0
LINE
  5
316
330
18
100
AcDbEntity
  8
握り
100
AcDbLine
 10
572.4518415951173
 20
338.7677933646444
 30
0.0
 11
579.7985417628329
 21
338.7677933646444
 31
0.0
  0
ARC
  5
317
330
18
100
AcDbEntity
  8
握り
100
AcDbCircle
 10
581.1251916789752
 20
339.4677933646444
 30
0.0
 40
1.5
100
AcDbArc
 50
207.8181392846543
 51
332.1818607153458
  0
LINE
  5
318
330
18
100
AcDbEntity
  8
握り
100
AcDbLine
 10
602.4518415951174
 20
338.7677933646444
 30
0.0
 11
609.7985417628329
 21
338.7677933646444
 31
0.0
  0
LINE
  5
319
330
18
100
AcDbEntity
  8
握り
100
AcDbLine
 10
592.4518415951172
 20
338.7677933646444
 30
0.0
 11
599.798541762833
 21
338.7677933646444
 31
0.0
  0
ARC
  5
31A
330
18
100
AcDbEntity
  8
握り
100
AcDbCircle
 10
591.1251916789751
 20
339.4677933646444
 30
0.0
 40
1.5
100
AcDbArc
 50
207.8181392846543
 51
332.1818607153458
  0
ARC
  5
31B
330
18
100
AcDbEntity
  8
握り
100
AcDbCircle
 10
601.1251916789752
 20
339.4677933646444
 30
0.0
 40
1.5
100
AcDbArc
 50
207.8181392846543
 51
332.1818607153458
  0
LINE
  5
31C
330
18
100
AcDbEntity
  8
握り
100
AcDbLine
 10
612.4518415951173
 20
338.7677933646444
 30
0.0
 11
615.6251916789751
 21
338.7677933646444
 31
0.0
  0
ARC
  5
31D
330
18
100
AcDbEntity
  8
握り
100
AcDbCircle
 10
611.1251916789751
 20
339.4677933646444
 30
0.0
 40
1.5
100
AcDbArc
 50
207.8181392846543
 51
332.1818607153458
  0
ARC
  5
31E
330
18
100
AcDbEntity
  8
握り
100
AcDbCircle
 10
615.6251916789751
 20
339.2677933646444
 30
0.0
 40
0.5
100
AcDbArc
 50
270.0
 51
0.0
  0
LINE
  5
31F
330
18
100
AcDbEntity
  8
握り
100
AcDbLine
 10
582.4518415951173
 20
346.3144933646444
 30
0.0
 11
589.7985417628328
 21
346.3144933646444
 31
0.0
  0
LINE
  5
320
330
18
100
AcDbEntity
  8
握り
100
AcDbLine
 10
582.4518415951174
 20
359.6210933646444
 30
0.0
 11
589.7985417628328
 21
359.6210933646444
 31
0.0
  0
LINE
  5
321
330
18
100
AcDbEntity
  8
握り
100
AcDbLine
 10
582.4518415951174
 20
367.1677933646444
 30
0.0
 11
589.7985417628328
 21
367.1677933646444
 31
0.0
  0
LINE
  5
322
330
18
100
AcDbEntity
  8
握り
100
AcDbLine
 10
562.4518415951171
 20
346.3144933646444
 30
0.0
 11
569.798541762833
 21
346.3144933646444
 31
0.0
  0
LINE
  5
323
330
18
100
AcDbEntity
  8
握り
100
AcDbLine
 10
572.4518415951173
 20
346.3144933646444
 30
0.0
 11
579.7985417628329
 21
346.3144933646444
 31
0.0
  0
LINE
  5
324
330
18
100
AcDbEntity
  8
握り
100
AcDbLine
 10
569.798541762833
 20
367.1677933646444
 30
0.0
 11
569.7985417628331
 21
359.6210933646444
 31
0.0
  0
LINE
  5
325
330
18
100
AcDbEntity
  8
握り
100
AcDbLine
 10
562.4518415951173
 20
367.1677933646444
 30
0.0
 11
562.4518415951174
 21
359.6210933646444
 31
0.0
  0
LINE
  5
326
330
18
100
AcDbEntity
  8
握り
100
AcDbLine
 10
559.7985417628329
 20
367.1677933646444
 30
0.0
 11
559.7985417628331
 21
359.6210933646444
 31
0.0
  0
LINE
  5
327
330
18
100
AcDbEntity
  8
握り
100
AcDbLine
 10
562.4518415951173
 20
359.6210933646444
 30
0.0
 11
569.7985417628331
 21
359.6210933646444
 31
0.0
  0
LINE
  5
328
330
18
100
AcDbEntity
  8
握り
100
AcDbLine
 10
562.4518415951174
 20
367.1677933646444
 30
0.0
 11
569.798541762833
 21
367.1677933646445
 31
0.0
  0
LINE
  5
329
330
18
100
AcDbEntity
  8
握り
100
AcDbLine
 10
582.4518415951173
 20
367.1677933646444
 30
0.0
 11
582.4518415951174
 21
359.6210933646444
 31
0.0
  0
LINE
  5
32A
330
18
100
AcDbEntity
  8
握り
100
AcDbLine
 10
579.7985417628329
 20
367.1677933646444
 30
0.0
 11
579.7985417628331
 21
359.6210933646444
 31
0.0
  0
LINE
  5
32B
330
18
100
AcDbEntity
  8
握り
100
AcDbLine
 10
572.4518415951173
 20
367.1677933646444
 30
0.0
 11
572.4518415951174
 21
359.6210933646444
 31
0.0
  0
LINE
  5
32C
330
18
100
AcDbEntity
  8
握り
100
AcDbLine
 10
572.4518415951174
 20
359.6210933646444
 30
0.0
 11
579.7985417628329
 21
359.6210933646444
 31
0.0
  0
LINE
  5
32D
330
18
100
AcDbEntity
  8
握り
100
AcDbLine
 10
572.4518415951173
 20
367.1677933646445
 30
0.0
 11
579.7985417628329
 21
367.1677933646444
 31
0.0
  0
LINE
  5
32E
330
18
100
AcDbEntity
  8
握り
100
AcDbLine
 10
589.7985417628331
 20
356.9677933646445
 30
0.0
 11
589.7985417628328
 21
348.9677933646444
 31
0.0
  0
LINE
  5
32F
330
18
100
AcDbEntity
  8
握り
100
AcDbLine
 10
602.4518415951174
 20
367.1677933646444
 30
0.0
 11
609.7985417628329
 21
367.1677933646444
 31
0.0
  0
LINE
  5
330
330
18
100
AcDbEntity
  8
握り
100
AcDbLine
 10
589.798541762833
 20
367.1677933646444
 30
0.0
 11
589.798541762833
 21
359.6210933646445
 31
0.0
  0
LINE
  5
331
330
18
100
AcDbEntity
  8
握り
100
AcDbLine
 10
592.4518415951172
 20
367.1677933646444
 30
0.0
 11
599.798541762833
 21
367.1677933646444
 31
0.0
  0
LINE
  5
332
330
18
100
AcDbEntity
  8
握り
100
AcDbLine
 10
612.4518415951173
 20
367.1677933646444
 30
0.0
 11
615.6251916789751
 21
367.1677933646444
 31
0.0
  0
TEXT
  5
384
330
18
100
AcDbEntity
  8
文字
100
AcDbText
 10
572.9005280107663
 20
350.6771842131053
 30
0.0
 40
3.0
  1
LA-8
  7
STYLE3
100
AcDbText
  0
LINE
  5
385
102
{ACAD_REACTORS
330
3C3
102
}
330
18
100
AcDbEntity
  8
ROGO
 62
     4
100
AcDbLine
 10
547.0529883184185
 20
353.6798829930304
 30
0.0
 11
549.3565573369687
 21
353.6798829930304
 31
0.0
  0
LINE
  5
386
102
{ACAD_REACTORS
330
3C1
330
3C2
330
3C3
102
}
330
18
100
AcDbEntity
  8
ROGO
 62
     4
100
AcDbLine
 10
545.6026304040005
 20
350.7486275860218
 30
0.0
 11
565.4443122140344
 21
350.7486275860218
 31
0.0
  0
LINE
  5
387
102
{ACAD_REACTORS
330
3C3
102
}
330
18
100
AcDbEntity
  8
ROGO
 62
     4
100
AcDbLine
 10
547.0529883184185
 20
353.6798829930304
 30
0.0
 11
545.6026304040005
 21
350.7486275860218
 31
0.0
  0
SPLINE
  5
388
102
{ACAD_REACTORS
330
3C3
102
}
330
18
100
AcDbEntity
  8
ROGO
 62
     4
100
AcDbSpline
210
0.0
220
0.0
230
1.0
 70
     8
 71
     3
 72
    18
 73
    14
 74
     0
 42
0.0000000001
 43
0.0000000001
 40
0.1087402787915014
 40
0.1087402787915014
 40
0.1087402787915014
 40
0.1087402787915014
 40
0.5992371417938475
 40
1.083176791562496
 40
1.448211145705696
 40
1.714037220764907
 40
2.164002567013297
 40
2.740236056362883
 40
3.395137510199602
 40
4.071816045172726
 40
4.784906178399433
 40
5.506895915094292
 40
6.060470601257719
 40
6.060470601257719
 40
6.060470601257719
 40
6.060470601257719
 10
549.3565573369687
 20
353.6798829930305
 30
0.0
 10
549.4303566764488
 20
353.6528367718194
 30
0.0
 10
549.5754823162354
 20
353.5956569270833
 30
0.0
 10
549.7526040813027
 20
353.4651536273813
 30
0.0
 10
549.8491986440523
 20
353.3144982314202
 30
0.0
 10
549.9421117991138
 20
353.1660543138448
 30
0.0
 10
549.9551148255579
 20
352.9530864079069
 30
0.0
 10
549.9338149897763
 20
352.6838433570902
 30
0.0
 10
549.796305174239
 20
352.4029160177749
 30
0.0
 10
549.5755938326943
 20
352.1572059737723
 30
0.0
 10
549.3015652997042
 20
351.9605428589984
 30
0.0
 10
549.012592759551
 20
351.8061673782908
 30
0.0
 10
548.8060351066173
 20
351.8046292059927
 30
0.0
 10
548.7163923681963
 20
351.8039616636625
 30
0.0
  0
LINE
  5
389
102
{ACAD_REACTORS
330
3C3
102
}
330
18
100
AcDbEntity
  8
ROGO
 62
     4
100
AcDbLine
 10
548.7163923686379
 20
351.8039616636626
 30
0.0
 11
547.4426662708075
 21
351.8039616636626
 31
0.0
  0
LINE
  5
38A
102
{ACAD_REACTORS
330
3C3
102
}
330
18
100
AcDbEntity
  8
ROGO
 62
     4
100
AcDbLine
 10
547.9631838260469
 20
352.9544588341542
 30
0.0
 11
547.7374726883933
 21
352.4555707128893
 31
0.0
  0
SPLINE
  5
38B
102
{ACAD_REACTORS
330
3C3
102
}
330
18
100
AcDbEntity
  8
ROGO
 62
     4
100
AcDbSpline
210
0.0
220
0.0
230
1.0
 70
     8
 71
     3
 72
    15
 73
    11
 74
     9
 42
0.0000000001
 43
0.0000000001
 44
0.0000000001
 40
0.0
 40
0.0
 40
0.0
 40
0.0
 40
0.2199578613106558
 40
0.3202465475123651
 40
0.4340808827708152
 40
0.5116301246390283
 40
0.634275054953107
 40
0.7077360179240892
 40
0.8337709579493377
 40
0.875782631437913
 40
0.875782631437913
 40
0.875782631437913
 40
0.875782631437913
 10
548.5431652533289
 20
352.9544588341541
 30
0.0
 10
548.6257771605563
 20
352.9548372407862
 30
0.0
 10
548.7460555534965
 20
352.9553881800286
 30
0.0
 10
548.8118280625886
 20
352.8066034601293
 30
0.0
 10
548.7823456879696
 20
352.7108093106475
 30
0.0
 10
548.7452839402208
 20
352.6124585760076
 30
0.0
 10
548.6797874380174
 20
352.54562776848
 30
0.0
 10
548.5918815385957
 20
352.4812584347128
 30
0.0
 10
548.5088062628019
 20
352.473466238628
 30
0.0
 10
548.4547751214125
 20
352.4591498194076
 30
0.0
 10
548.4412673295992
 20
352.4555707128893
 30
0.0
 11
548.5431652533289
 21
352.9544588341541
 31
0.0
 11
548.7571510689415
 21
352.9035517475257
 31
0.0
 11
548.79791035562
 21
352.811919323518
 31
0.0
 11
548.7775310052475
 21
352.6999240648589
 31
0.0
 11
548.746961686722
 21
352.6286541435791
 31
0.0
 11
548.6654431133647
 21
352.5370217195713
 31
0.0
 11
548.6043044763135
 21
352.4962960502687
 31
0.0
 11
548.4820266162778
 21
352.465752130215
 31
0.0
 11
548.4412673295992
 21
352.4555707128893
 31
0.0
  0
LINE
  5
38C
102
{ACAD_REACTORS
330
3C3
102
}
330
18
100
AcDbEntity
  8
ROGO
 62
     4
100
AcDbLine
 10
548.5431652533289
 20
352.9544588341542
 30
0.0
 11
547.9631838260469
 21
352.9544588341542
 31
0.0
  0
LINE
  5
38D
102
{ACAD_REACTORS
330
3C3
102
}
330
18
100
AcDbEntity
  8
ROGO
 62
     4
100
AcDbLine
 10
548.4412673295993
 20
352.4555707128893
 30
0.0
 11
547.7374726883935
 21
352.4555707128893
 31
0.0
  0
LINE
  5
38E
102
{ACAD_REACTORS
330
3C1
330
3C3
102
}
330
18
100
AcDbEntity
  8
ROGO
 62
     4
100
AcDbLine
 10
547.4426662708075
 20
351.8039616636626
 30
0.0
 11
546.9652031981954
 21
350.7486275860218
 31
0.0
  0
LINE
  5
38F
102
{ACAD_REACTORS
330
3BE
102
}
330
18
100
AcDbEntity
  8
ROGO
 62
     4
100
AcDbLine
 10
550.7174487558338
 20
353.6798829930304
 30
0.0
 11
549.7892603283195
 21
351.8039616636626
 31
0.0
  0
LINE
  5
390
102
{ACAD_REACTORS
330
3BE
102
}
330
18
100
AcDbEntity
  8
ROGO
 62
     4
100
AcDbLine
 10
553.2547103965253
 20
353.6798829930304
 30
0.0
 11
553.0420901169044
 21
353.2501653777559
 31
0.0
  0
LINE
  5
391
102
{ACAD_REACTORS
330
3BE
102
}
330
18
100
AcDbEntity
  8
ROGO
 62
     4
100
AcDbLine
 10
549.7892603283194
 20
351.8039616636626
 30
0.0
 11
552.3265219690109
 21
351.8039616636626
 31
0.0
  0
LINE
  5
392
102
{ACAD_REACTORS
330
3BE
102
}
330
18
100
AcDbEntity
  8
ROGO
 62
     4
100
AcDbLine
 10
551.7085695137359
 20
353.2501653777559
 30
0.0
 11
551.5423268764837
 21
352.9141796017786
 31
0.0
  0
LINE
  5
393
102
{ACAD_REACTORS
330
3BE
102
}
330
18
100
AcDbEntity
  8
ROGO
 62
     4
100
AcDbLine
 10
551.7085695137359
 20
353.2501653777559
 30
0.0
 11
553.0420901169044
 21
353.2501653777559
 31
0.0
  0
LINE
  5
394
102
{ACAD_REACTORS
330
3BE
102
}
330
18
100
AcDbEntity
  8
ROGO
 62
     4
100
AcDbLine
 10
551.5423268764837
 20
352.9141796017786
 30
0.0
 11
552.8758474796522
 21
352.9141796017786
 31
0.0
  0
LINE
  5
395
102
{ACAD_REACTORS
330
3BE
102
}
330
18
100
AcDbEntity
  8
ROGO
 62
     4
100
AcDbLine
 10
551.2056109504262
 20
352.2336576636626
 30
0.0
 11
552.5391315535948
 21
352.2336576636626
 31
0.0
  0
LINE
  5
396
102
{ACAD_REACTORS
330
3BE
102
}
330
18
100
AcDbEntity
  8
ROGO
 62
     4
100
AcDbLine
 10
551.3718606255926
 20
352.5696576636625
 30
0.0
 11
552.705381228761
 21
352.5696576636626
 31
0.0
  0
LINE
  5
397
102
{ACAD_REACTORS
330
3BE
102
}
330
18
100
AcDbEntity
  8
ROGO
 62
     4
100
AcDbLine
 10
552.8758474796522
 20
352.9141796017786
 30
0.0
 11
552.705381228761
 21
352.5696576636625
 31
0.0
  0
LINE
  5
398
102
{ACAD_REACTORS
330
3BE
102
}
330
18
100
AcDbEntity
  8
ROGO
 62
     4
100
AcDbLine
 10
552.5391315535948
 20
352.2336576636626
 30
0.0
 11
552.3265219690109
 21
351.8039616636626
 31
0.0
  0
LINE
  5
399
102
{ACAD_REACTORS
330
3BE
102
}
330
18
100
AcDbEntity
  8
ROGO
 62
     4
100
AcDbLine
 10
551.3718606255926
 20
352.5696576636625
 30
0.0
 11
551.2056109504262
 21
352.2336576636626
 31
0.0
  0
LINE
  5
39A
102
{ACAD_REACTORS
330
3C7
102
}
330
18
100
AcDbEntity
  8
ROGO
 62
     4
100
AcDbLine
 10
553.9897022039505
 20
353.6798829930304
 30
0.0
 11
552.6369388752374
 21
351.8039616636626
 31
0.0
  0
LINE
  5
39B
102
{ACAD_REACTORS
330
3C7
102
}
330
18
100
AcDbEntity
  8
ROGO
 62
     4
100
AcDbLine
 10
554.6670277134243
 20
353.178441597385
 30
0.0
 11
554.2050752329767
 21
352.537836923358
 31
0.0
  0
LINE
  5
39C
102
{ACAD_REACTORS
330
3C7
102
}
330
18
100
AcDbEntity
  8
ROGO
 62
     4
100
AcDbLine
 10
553.9334212884837
 20
352.161125478078
 30
0.0
 11
555.11895984389
 21
352.161125478078
 31
0.0
  0
LINE
  5
39D
102
{ACAD_REACTORS
330
3C7
102
}
330
18
100
AcDbEntity
  8
ROGO
 62
     4
100
AcDbLine
 10
554.2050752329769
 20
352.537836923358
 30
0.0
 11
554.9516096930321
 21
352.537836923358
 31
0.0
  0
LINE
  5
39E
102
{ACAD_REACTORS
330
3C7
102
}
330
18
100
AcDbEntity
  8
ROGO
 62
     4
100
AcDbLine
 10
553.9334212884837
 20
352.161125478078
 30
0.0
 11
553.6758635205111
 21
351.8039616636626
 31
0.0
  0
LINE
  5
39F
102
{ACAD_REACTORS
330
3C7
102
}
330
18
100
AcDbEntity
  8
ROGO
 62
     4
100
AcDbLine
 10
552.6369388752374
 20
351.8039616636626
 30
0.0
 11
553.6758635205111
 21
351.8039616636626
 31
0.0
  0
LINE
  5
3A0
102
{ACAD_REACTORS
330
3C7
102
}
330
18
100
AcDbEntity
  8
ROGO
 62
     4
100
AcDbLine
 10
553.9897022039505
 20
353.6798829930304
 30
0.0
 11
555.4902786079096
 21
353.6798829930304
 31
0.0
  0
LINE
  5
3A1
102
{ACAD_REACTORS
330
3C7
102
}
330
18
100
AcDbEntity
  8
ROGO
 62
     4
100
AcDbLine
 10
556.3236371941716
 20
351.8039616636626
 30
0.0
 11
555.27762616256
 21
351.8039616636626
 31
0.0
  0
LINE
  5
3A2
102
{ACAD_REACTORS
330
3BF
102
}
330
18
100
AcDbEntity
  8
ROGO
 62
     4
100
AcDbLine
 10
556.8373792156084
 20
351.8039616636626
 30
0.0
 11
558.4531349513293
 21
351.8039616636626
 31
0.0
  0
LINE
  5
3A3
102
{ACAD_REACTORS
330
3BF
102
}
330
18
100
AcDbEntity
  8
ROGO
 62
     4
100
AcDbLine
 10
559.388529912771
 20
353.6798829930304
 30
0.0
 11
559.0405023405701
 21
352.9819186327206
 31
0.0
  0
LINE
  5
3A4
102
{ACAD_REACTORS
330
3BF
102
}
330
18
100
AcDbEntity
  8
ROGO
 62
     4
100
AcDbLine
 10
557.8665495929255
 20
352.9819186327206
 30
0.0
 11
559.0405023405701
 21
352.9819186327206
 31
0.0
  0
LINE
  5
3A5
102
{ACAD_REACTORS
330
3BF
102
}
330
18
100
AcDbEntity
  8
ROGO
 62
     4
100
AcDbLine
 10
557.6016145224817
 20
352.5019186327206
 30
0.0
 11
558.8011588380133
 21
352.5019186327206
 31
0.0
  0
SPLINE
  5
3A6
102
{ACAD_REACTORS
330
3BF
102
}
330
18
100
AcDbEntity
  8
ROGO
 62
     4
100
AcDbSpline
210
0.0
220
0.0
230
1.0
 70
     8
 71
     3
 72
    26
 73
    22
 74
    20
 42
0.0000000001
 43
0.0000000001
 44
0.0000000001
 40
0.0
 40
0.0
 40
0.0
 40
0.0
 40
0.3403136209417982
 40
0.5681272389515159
 40
0.7323994099697078
 40
0.8550561247337057
 40
1.014148321321447
 40
1.13027011535643
 40
1.339959009791999
 40
1.510642755247373
 40
1.626735051276186
 40
1.740569491433665
 40
1.944197174100541
 40
2.088186249714737
 40
2.16573549158295
 40
2.275891898886404
 40
2.355438312276705
 40
2.470674802865115
 40
2.535888688806235
 40
2.677801419664453
 40
2.742600005358966
 40
2.742600005358966
 40
2.742600005358966
 40
2.742600005358966
 10
557.5099065669049
 20
353.6798829930304
 30
0.0
 10
557.3943988658211
 20
353.6729916055088
 30
0.0
 10
557.2015677028697
 20
353.6614869676564
 30
0.0
 10
556.9898402589959
 20
353.5328648192873
 30
0.0
 10
556.8347163384097
 20
353.4580895545123
 30
0.0
 10
556.7240821463752
 20
353.3564389524844
 30
0.0
 10
556.6429868351358
 20
353.2514413060255
 30
0.0
 10
556.5407509712823
 20
353.1263373801317
 30
0.0
 10
556.4573805457023
 20
352.980658920897
 30
0.0
 10
556.4149250563692
 20
352.8200958622349
 30
0.0
 10
556.377318386864
 20
352.6921261728651
 30
0.0
 10
556.3494286511883
 20
352.5495206544473
 30
0.0
 10
556.3565245894924
 20
352.3954565285583
 30
0.0
 10
556.3666862978989
 20
352.2523696556957
 30
0.0
 10
556.4120558549332
 20
352.1502270515149
 30
0.0
 10
556.4637237440617
 20
352.0775085559014
 30
0.0
 10
556.5269903667115
 20
351.9974171949033
 30
0.0
 10
556.5962178871652
 20
351.9443729458601
 30
0.0
 10
556.6534746973231
 20
351.8482797242306
 30
0.0
 10
556.7537008119836
 20
351.8360175361219
 30
0.0
 10
556.8174085178064
 20
351.8116121220118
 30
0.0
 10
556.8373792156084
 20
351.8039616636625
 30
0.0
 11
557.5099065669049
 21
353.6798829930304
 31
0.0
 11
557.1736428912565
 21
353.6275370186108
 31
0.0
 11
556.9698464578638
 21
353.5257231772774
 31
0.0
 11
556.8271892474554
 21
353.4442721705953
 31
0.0
 11
556.7354812918786
 21
353.3628208319898
 31
0.0
 11
556.6335833681489
 21
353.240644156005
 31
0.0
 11
556.5622547629447
 21
353.1490117319973
 31
0.0
 11
556.4603562532815
 21
352.9657465520584
 31
0.0
 11
556.4094075843834
 21
352.8028442067709
 31
0.0
 11
556.3788382658579
 21
352.6908489481118
 31
0.0
 11
556.3584583295518
 21
352.5788536894526
 31
0.0
 11
556.3584583295518
 21
352.3752260067857
 31
0.0
 11
556.3788382658579
 21
352.2326864961496
 31
0.0
 11
556.4094075843834
 21
352.1614165748699
 31
0.0
 11
556.4705462214345
 21
352.0697841508621
 31
0.0
 11
556.5214954762661
 21
352.0086956469079
 31
0.0
 11
556.6030134636898
 21
351.9272446402259
 31
0.0
 11
556.6437727503685
 21
351.8763375535975
 31
0.0
 11
556.7762405785572
 21
351.8254307988925
 31
0.0
 11
556.8373792156084
 21
351.8039616636625
 31
0.0
  0
SPLINE
  5
3A7
102
{ACAD_REACTORS
330
3BF
102
}
330
18
100
AcDbEntity
  8
ROGO
 62
     4
100
AcDbSpline
210
0.0
220
0.0
230
1.0
 70
     8
 71
     3
 72
    16
 73
    12
 74
    10
 42
0.0000000001
 43
0.0000000001
 44
0.0000000001
 40
0.0
 40
0.0
 40
0.0
 40
0.0
 40
0.1794152893756658
 40
0.2670467197814556
 40
0.3102605435414121
 40
0.3558008766977565
 40
0.4210145035340276
 40
0.4803947587045229
 40
0.5423269814405317
 40
0.646160827944346
 40
0.7489346372632694
 40
0.7489346372632694
 40
0.7489346372632694
 40
0.7489346372632694
 10
557.8665495929256
 20
352.9819186327206
 30
0.0
 10
557.8057914391807
 20
352.9726556422862
 30
0.0
 10
557.7153573088788
 20
352.9588683490211
 30
0.0
 10
557.6335776640346
 20
352.8941324819133
 30
0.0
 10
557.5874596224284
 20
352.8556189500325
 30
0.0
 10
557.5717700592124
 20
352.8046161012007
 30
0.0
 10
557.529632819411
 20
352.7654537425783
 30
0.0
 10
557.494899748158
 20
352.711632055841
 30
0.0
 10
557.4866062780698
 20
352.6377070973279
 30
0.0
 10
557.4926938749948
 20
352.5339646842748
 30
0.0
 10
557.5654320386649
 20
352.51256404999
 30
0.0
 10
557.6016145224818
 20
352.5019186327206
 30
0.0
 11
557.8665495929256
 21
352.9819186327206
 31
0.0
 11
557.6933230639918
 21
352.9352023000813
 31
0.0
 11
557.6219944587876
 21
352.8842955453764
 31
0.0
 11
557.5914251402621
 21
352.8537512933992
 31
0.0
 11
557.5710452039561
 21
352.8130256240965
 31
0.0
 11
557.5302859172775
 21
352.7621188693915
 31
0.0
 11
557.4997165987518
 21
352.7112117827631
 31
0.0
 11
557.4895266305989
 21
352.6501236107324
 31
0.0
 11
557.5099065669048
 21
352.5483094374757
 31
0.0
 11
557.6016145224818
 21
352.5019186327206
 31
0.0
  0
LINE
  5
3A8
102
{ACAD_REACTORS
330
3BF
102
}
330
18
100
AcDbEntity
  8
ROGO
 62
     4
100
AcDbLine
 10
558.8011588380132
 20
352.5019186327206
 30
0.0
 11
558.4531349513293
 21
351.8039616636625
 31
0.0
  0
LINE
  5
3A9
102
{ACAD_REACTORS
330
3BF
102
}
330
18
100
AcDbEntity
  8
ROGO
 62
     4
100
AcDbLine
 10
557.5099065669055
 20
353.6798829930305
 30
0.0
 11
559.3885299127711
 21
353.6798829930305
 31
0.0
  0
LINE
  5
3AA
102
{ACAD_REACTORS
330
3C0
102
}
330
18
100
AcDbEntity
  8
ROGO
 62
     4
100
AcDbLine
 10
562.8817646026482
 20
351.8039616636625
 30
0.0
 11
564.497520338369
 21
351.8039616636625
 31
0.0
  0
LINE
  5
3AB
102
{ACAD_REACTORS
330
3C0
102
}
330
18
100
AcDbEntity
  8
ROGO
 62
     4
100
AcDbLine
 10
563.5542919539452
 20
353.6798829930304
 30
0.0
 11
565.4329152998109
 21
353.6798829930304
 31
0.0
  0
SPLINE
  5
3AC
102
{ACAD_REACTORS
330
3C0
102
}
330
18
100
AcDbEntity
  8
ROGO
 62
     4
100
AcDbSpline
210
0.0
220
0.0
230
1.0
 70
     8
 71
     3
 72
    16
 73
    12
 74
    10
 42
0.0000000001
 43
0.0000000001
 44
0.0000000001
 40
0.0
 40
0.0
 40
0.0
 40
0.0
 40
0.1794152893756658
 40
0.2670467197815217
 40
0.3102605435413978
 40
0.3558008766977931
 40
0.4210145035340376
 40
0.4803947587045328
 40
0.5423269814405045
 40
0.6461608279444525
 40
0.7489346372632488
 40
0.7489346372632488
 40
0.7489346372632488
 40
0.7489346372632488
 10
563.9109349799655
 20
352.9819186327206
 30
0.0
 10
563.8501768262206
 20
352.9726556422863
 30
0.0
 10
563.7597426959184
 20
352.9588683490213
 30
0.0
 10
563.6779630510743
 20
352.8941324819131
 30
0.0
 10
563.6318450094683
 20
352.8556189500323
 30
0.0
 10
563.616155446252
 20
352.8046161012008
 30
0.0
 10
563.5740182064508
 20
352.7654537425783
 30
0.0
 10
563.5392851351978
 20
352.7116320558409
 30
0.0
 10
563.5309916651094
 20
352.637707097328
 30
0.0
 10
563.5370792620348
 20
352.5339646842748
 30
0.0
 10
563.6098174257045
 20
352.5125640499898
 30
0.0
 10
563.6459999095214
 20
352.5019186327205
 30
0.0
 11
563.9109349799655
 21
352.9819186327206
 31
0.0
 11
563.7377084510315
 21
352.9352023000813
 31
0.0
 11
563.6663798458275
 21
352.8842955453762
 31
0.0
 11
563.6358105273019
 21
352.8537512933992
 31
0.0
 11
563.6154305909959
 21
352.8130256240965
 31
0.0
 11
563.5746713043173
 21
352.7621188693915
 31
0.0
 11
563.5441019857917
 21
352.7112117827631
 31
0.0
 11
563.5339120176386
 21
352.6501236107324
 31
0.0
 11
563.5542919539447
 21
352.5483094374755
 31
0.0
 11
563.6459999095214
 21
352.5019186327205
 31
0.0
  0
SPLINE
  5
3AD
102
{ACAD_REACTORS
330
3C0
102
}
330
18
100
AcDbEntity
  8
ROGO
 62
     4
100
AcDbSpline
210
0.0
220
0.0
230
1.0
 70
     8
 71
     3
 72
    26
 73
    22
 74
    20
 42
0.0000000001
 43
0.0000000001
 44
0.0000000001
 40
0.0
 40
0.0
 40
0.0
 40
0.0
 40
0.3403136209416859
 40
0.5681272389515052
 40
0.7323994099695983
 40
0.8550561247335963
 40
1.014148321321381
 40
1.13027011535639
 40
1.339959009792003
 40
1.510642755247356
 40
1.626735051276114
 40
1.740569491433573
 40
1.94419717410045
 40
2.088186249714629
 40
2.165735491582895
 40
2.275891898886364
 40
2.355438312276665
 40
2.470674802864995
 40
2.535888688806186
 40
2.677801419664424
 40
2.74260000535881
 40
2.74260000535881
 40
2.74260000535881
 40
2.74260000535881
 10
563.5542919539447
 20
353.6798829930304
 30
0.0
 10
563.4387842528609
 20
353.6729916055088
 30
0.0
 10
563.2459530899096
 20
353.6614869676563
 30
0.0
 10
563.0342256460356
 20
353.5328648192873
 30
0.0
 10
562.8791017254496
 20
353.4580895545124
 30
0.0
 10
562.768467533415
 20
353.3564389524844
 30
0.0
 10
562.6873722221757
 20
353.2514413060252
 30
0.0
 10
562.5851363583221
 20
353.126337380132
 30
0.0
 10
562.5017659327422
 20
352.9806589208967
 30
0.0
 10
562.4593104434092
 20
352.820095862235
 30
0.0
 10
562.4217037739036
 20
352.692126172865
 30
0.0
 10
562.3938140382282
 20
352.5495206544473
 30
0.0
 10
562.4009099765324
 20
352.3954565285583
 30
0.0
 10
562.4110716849387
 20
352.2523696556957
 30
0.0
 10
562.4564412419728
 20
352.1502270515148
 30
0.0
 10
562.5081091311017
 20
352.0775085559015
 30
0.0
 10
562.5713757537514
 20
351.9974171949033
 30
0.0
 10
562.640603274205
 20
351.94437294586
 30
0.0
 10
562.697860084363
 20
351.8482797242306
 30
0.0
 10
562.7980861990236
 20
351.8360175361217
 30
0.0
 10
562.8617939048462
 20
351.8116121220117
 30
0.0
 10
562.8817646026482
 20
351.8039616636625
 30
0.0
 11
563.5542919539447
 21
353.6798829930304
 31
0.0
 11
563.2180282782964
 21
353.6275370186108
 31
0.0
 11
563.0142318449035
 21
353.5257231772774
 31
0.0
 11
562.8715746344952
 21
353.4442721705953
 31
0.0
 11
562.7798666789184
 21
353.3628208319898
 31
0.0
 11
562.6779687551887
 21
353.240644156005
 31
0.0
 11
562.6066401499845
 21
353.1490117319973
 31
0.0
 11
562.5047416403214
 21
352.9657465520583
 31
0.0
 11
562.4537929714231
 21
352.8028442067708
 31
0.0
 11
562.4232236528976
 21
352.6908489481118
 31
0.0
 11
562.4028437165916
 21
352.5788536894526
 31
0.0
 11
562.4028437165916
 21
352.3752260067857
 31
0.0
 11
562.4232236528976
 21
352.2326864961496
 31
0.0
 11
562.4537929714231
 21
352.1614165748698
 31
0.0
 11
562.5149316084742
 21
352.0697841508621
 31
0.0
 11
562.565880863306
 21
352.0086956469079
 31
0.0
 11
562.6473988507296
 21
351.9272446402259
 31
0.0
 11
562.6881581374083
 21
351.8763375535975
 31
0.0
 11
562.820625965597
 21
351.8254307988924
 31
0.0
 11
562.8817646026482
 21
351.8039616636625
 31
0.0
  0
LINE
  5
3AE
102
{ACAD_REACTORS
330
3C0
102
}
330
18
100
AcDbEntity
  8
ROGO
 62
     4
100
AcDbLine
 10
564.8455442250531
 20
352.5019186327206
 30
0.0
 11
564.497520338369
 21
351.8039616636625
 31
0.0
  0
LINE
  5
3AF
102
{ACAD_REACTORS
330
3C0
102
}
330
18
100
AcDbEntity
  8
ROGO
 62
     4
100
AcDbLine
 10
563.6459999095214
 20
352.5019186327206
 30
0.0
 11
564.8455442250531
 21
352.5019186327206
 31
0.0
  0
LINE
  5
3B0
102
{ACAD_REACTORS
330
3C0
102
}
330
18
100
AcDbEntity
  8
ROGO
 62
     4
100
AcDbLine
 10
563.9109349799654
 20
352.9819186327206
 30
0.0
 11
565.0848877276099
 21
352.9819186327206
 31
0.0
  0
LINE
  5
3B1
102
{ACAD_REACTORS
330
3C0
102
}
330
18
100
AcDbEntity
  8
ROGO
 62
     4
100
AcDbLine
 10
565.4329152998109
 20
353.6798829930304
 30
0.0
 11
565.0848877276099
 21
352.9819186327206
 31
0.0
  0
LINE
  5
3B2
102
{ACAD_REACTORS
330
3C2
102
}
330
18
100
AcDbEntity
  8
ROGO
 62
     4
100
AcDbLine
 10
565.8258111985568
 20
353.6798829930304
 30
0.0
 11
566.9059308307056
 21
353.6798829930304
 31
0.0
  0
LINE
  5
3B3
102
{ACAD_REACTORS
330
3C1
330
3C2
102
}
330
18
100
AcDbEntity
  8
ROGO
 62
     4
100
AcDbLine
 10
565.8258111985568
 20
353.6798829930304
 30
0.0
 11
564.3641925818855
 21
350.7486275860218
 31
0.0
  0
LINE
  5
3B4
102
{ACAD_REACTORS
330
3C2
102
}
330
18
100
AcDbEntity
  8
ROGO
 62
     4
100
AcDbLine
 10
566.9059308307056
 20
353.6798829930304
 30
0.0
 11
566.7463518208185
 21
353.3598495518567
 31
0.0
  0
LINE
  5
3B5
102
{ACAD_REACTORS
330
3C2
102
}
330
18
100
AcDbEntity
  8
ROGO
 62
     4
100
AcDbLine
 10
566.7463518208185
 20
353.3598495518567
 30
0.0
 11
567.2520847966454
 21
353.6798829930304
 31
0.0
  0
LINE
  5
3B6
102
{ACAD_REACTORS
330
3C2
102
}
330
18
100
AcDbEntity
  8
ROGO
 62
     4
100
AcDbLine
 10
565.8258111985568
 20
351.5137183890498
 30
0.0
 11
566.2073101830792
 21
350.7486275860218
 31
0.0
  0
LINE
  5
3B7
102
{ACAD_REACTORS
330
3C2
102
}
330
18
100
AcDbEntity
  8
ROGO
 62
     4
100
AcDbLine
 10
566.5565968747436
 20
352.2142552895261
 30
0.0
 11
567.2874061830791
 21
350.7486275860218
 31
0.0
  0
LINE
  5
3B8
102
{ACAD_REACTORS
330
3C2
102
}
330
18
100
AcDbEntity
  8
ROGO
 62
     4
100
AcDbLine
 10
565.8258111985568
 20
351.5137183890498
 30
0.0
 11
565.4443122140344
 21
350.7486275860218
 31
0.0
  0
LINE
  5
3B9
102
{ACAD_REACTORS
330
3C2
102
}
330
18
100
AcDbEntity
  8
ROGO
 62
     4
100
AcDbLine
 10
566.5565968747436
 20
352.2142552895261
 30
0.0
 11
568.3321807966454
 21
353.6798829930304
 31
0.0
  0
LINE
  5
3BA
102
{ACAD_REACTORS
330
3C2
102
}
330
18
100
AcDbEntity
  8
ROGO
 62
     4
100
AcDbLine
 10
567.2520847966454
 20
353.6798829930304
 30
0.0
 11
568.3321807966454
 21
353.6798829930304
 31
0.0
  0
LINE
  5
3BB
102
{ACAD_REACTORS
330
3C2
102
}
330
18
100
AcDbEntity
  8
ROGO
 62
     4
100
AcDbLine
 10
566.2073101830792
 20
350.7486275860218
 30
0.0
 11
567.2874061830791
 21
350.7486275860218
 31
0.0
  0
LINE
  5
3BC
102
{ACAD_REACTORS
330
3BE
102
}
330
18
100
AcDbEntity
  8
ROGO
 62
     4
100
AcDbLine
 10
550.7174487558338
 20
353.6798829930304
 30
0.0
 11
553.2547103965253
 21
353.6798829930305
 31
0.0
  0
LINE
  5
3BD
102
{ACAD_REACTORS
330
3C1
102
}
330
18
100
AcDbEntity
  8
ROGO
 62
     4
100
AcDbLine
 10
547.0777568960602
 20
351.0424421664379
 30
0.0
 11
564.5106980210085
 21
351.0424421664379
 31
0.0
  0
HATCH
  5
3BE
330
18
100
AcDbEntity
  8
ROGO
 62
     4
100
AcDbHatch
 10
0.0
 20
0.0
 30
0.0
210
0.0
220
0.0
230
1.0
  2
SOLID
 70
     1
 71
     1
 91
        1
 92
        1
 93
       12
 72
     1
 10
550.7174487558338
 20
353.6798829930304
 11
553.2547103965253
 21
353.6798829930305
 72
     1
 10
553.2547103965253
 20
353.6798829930304
 11
553.0420901169044
 21
353.2501653777559
 72
     1
 10
553.0420901169044
 20
353.2501653777559
 11
551.7085695137359
 21
353.2501653777559
 72
     1
 10
551.7085695137359
 20
353.2501653777559
 11
551.5423268764837
 21
352.9141796017786
 72
     1
 10
551.5423268764837
 20
352.9141796017786
 11
552.8758474796522
 21
352.9141796017786
 72
     1
 10
552.8758474796522
 20
352.9141796017786
 11
552.705381228761
 21
352.5696576636625
 72
     1
 10
552.705381228761
 20
352.5696576636626
 11
551.3718606255926
 21
352.5696576636625
 72
     1
 10
551.3718606255926
 20
352.5696576636625
 11
551.2056109504262
 21
352.2336576636626
 72
     1
 10
551.2056109504262
 20
352.2336576636626
 11
552.5391315535948
 21
352.2336576636626
 72
     1
 10
552.5391315535948
 20
352.2336576636626
 11
552.3265219690109
 21
351.8039616636626
 72
     1
 10
552.3265219690109
 20
351.8039616636626
 11
549.7892603283194
 21
351.8039616636626
 72
     1
 10
549.7892603283195
 20
351.8039616636626
 11
550.7174487558338
 21
353.6798829930304
 97
       12
330
3BC
330
390
330
393
330
392
330
394
330
397
330
396
330
399
330
395
330
398
330
391
330
38F
 75
     0
 76
     1
 98
        1
 10
446.931550214821
 20
223.9683172100142
450
        0
451
        0
460
0.0
461
0.0
452
        0
462
0.0
453
        0
470

  0
HATCH
  5
3BF
330
18
100
AcDbEntity
  8
ROGO
 62
     4
100
AcDbHatch
 10
0.0
 20
0.0
 30
0.0
210
0.0
220
0.0
230
1.0
  2
SOLID
 70
     1
 71
     1
 91
        1
 92
        5
 93
        8
 72
     1
 10
559.0405023405702
 20
352.9819186327207
 11
559.388529912771
 21
353.6798829930305
 72
     1
 10
559.388529912771
 20
353.6798829930305
 11
557.5099065669051
 21
353.6798829930305
 72
     4
 94
        3
 73
     0
 74
     0
 95
       26
 96
       22
 40
0.0
 40
0.0
 40
0.0
 40
0.0
 40
0.3403136209417982
 40
0.5681272389515159
 40
0.7323994099697078
 40
0.8550561247337057
 40
1.014148321321447
 40
1.13027011535643
 40
1.339959009791999
 40
1.510642755247373
 40
1.626735051276186
 40
1.740569491433665
 40
1.944197174100541
 40
2.088186249714737
 40
2.16573549158295
 40
2.275891898886404
 40
2.355438312276705
 40
2.470674802865115
 40
2.535888688806235
 40
2.677801419664453
 40
2.742600005358966
 40
2.742600005358966
 40
2.742600005358966
 40
2.742600005358966
 10
557.5099065669049
 20
353.6798829930304
 10
557.3943988658211
 20
353.6729916055088
 10
557.2015677028697
 20
353.6614869676564
 10
556.9898402589958
 20
353.5328648192873
 10
556.8347163384097
 20
353.4580895545123
 10
556.7240821463753
 20
353.3564389524844
 10
556.6429868351358
 20
353.2514413060254
 10
556.5407509712822
 20
353.1263373801317
 10
556.4573805457023
 20
352.9806589208969
 10
556.4149250563693
 20
352.8200958622349
 10
556.3773183868642
 20
352.6921261728651
 10
556.3494286511883
 20
352.5495206544473
 10
556.3565245894924
 20
352.3954565285583
 10
556.3666862978988
 20
352.2523696556957
 10
556.4120558549332
 20
352.1502270515148
 10
556.4637237440616
 20
352.0775085559014
 10
556.5269903667117
 20
351.9974171949033
 10
556.5962178871652
 20
351.9443729458601
 10
556.653474697323
 20
351.8482797242306
 10
556.7537008119837
 20
351.8360175361219
 10
556.8174085178064
 20
351.8116121220118
 10
556.8373792156084
 20
351.8039616636625
 72
     1
 10
556.8373792156083
 20
351.8039616636626
 11
558.4531349513293
 21
351.8039616636626
 72
     1
 10
558.4531349513293
 20
351.8039616636626
 11
558.8011588380132
 21
352.5019186327206
 72
     1
 10
558.8011588380132
 20
352.5019186327206
 11
557.6016145224818
 21
352.5019186327206
 72
     4
 94
        3
 73
     0
 74
     0
 95
       16
 96
       12
 40
0.0
 40
0.0
 40
0.0
 40
0.0
 40
0.1027738093189234
 40
0.2066076558227377
 40
0.2685398785587465
 40
0.3279201337292418
 40
0.3931337605655129
 40
0.4386740937218573
 40
0.4818879174818138
 40
0.5695193478876036
 40
0.7489346372632694
 40
0.7489346372632694
 40
0.7489346372632694
 40
0.7489346372632694
 10
557.6016145224818
 20
352.5019186327206
 10
557.5654320386648
 20
352.51256404999
 10
557.492693874995
 20
352.5339646842748
 10
557.4866062780698
 20
352.6377070973279
 10
557.4948997481579
 20
352.711632055841
 10
557.5296328194111
 20
352.7654537425783
 10
557.5717700592123
 20
352.8046161012007
 10
557.5874596224284
 20
352.8556189500325
 10
557.6335776640346
 20
352.8941324819133
 10
557.7153573088788
 20
352.9588683490211
 10
557.8057914391807
 20
352.9726556422862
 10
557.8665495929256
 20
352.9819186327206
 72
     1
 10
557.8665495929254
 20
352.9819186327205
 11
559.0405023405702
 21
352.9819186327207
 97
        8
330
3A9
330
3A6
330
3A2
330
3A8
330
3A5
330
3A7
330
3A4
330
3A3
 75
     0
 76
     1
 47
0.0514683685270805
 98
        1
 10
558.1669307057719
 20
353.2622809125347
450
        0
451
        0
460
0.0
461
0.0
452
        0
462
0.0
453
        0
470

  0
HATCH
  5
3C0
330
18
100
AcDbEntity
  8
ROGO
 62
     4
100
AcDbHatch
 10
0.0
 20
0.0
 30
0.0
210
0.0
220
0.0
230
1.0
  2
SOLID
 70
     1
 71
     1
 91
        1
 92
        5
 93
        8
 72
     4
 94
        3
 73
     0
 74
     0
 95
       26
 96
       22
 40
0.0
 40
0.0
 40
0.0
 40
0.0
 40
0.3403136209416859
 40
0.5681272389515052
 40
0.7323994099695983
 40
0.8550561247335963
 40
1.014148321321381
 40
1.13027011535639
 40
1.339959009792003
 40
1.510642755247356
 40
1.626735051276114
 40
1.740569491433573
 40
1.94419717410045
 40
2.088186249714629
 40
2.165735491582895
 40
2.275891898886364
 40
2.355438312276665
 40
2.470674802864995
 40
2.535888688806186
 40
2.677801419664424
 40
2.74260000535881
 40
2.74260000535881
 40
2.74260000535881
 40
2.74260000535881
 10
563.5542919539447
 20
353.6798829930304
 10
563.4387842528608
 20
353.6729916055088
 10
563.2459530899094
 20
353.6614869676563
 10
563.0342256460358
 20
353.5328648192873
 10
562.8791017254496
 20
353.4580895545124
 10
562.7684675334152
 20
353.3564389524844
 10
562.6873722221756
 20
353.2514413060252
 10
562.5851363583222
 20
353.1263373801321
 10
562.5017659327421
 20
352.9806589208967
 10
562.459310443409
 20
352.820095862235
 10
562.4217037739036
 20
352.692126172865
 10
562.3938140382281
 20
352.5495206544473
 10
562.4009099765324
 20
352.3954565285584
 10
562.4110716849386
 20
352.2523696556957
 10
562.4564412419728
 20
352.1502270515148
 10
562.5081091311017
 20
352.0775085559015
 10
562.5713757537514
 20
351.9974171949034
 10
562.6406032742048
 20
351.94437294586
 10
562.697860084363
 20
351.8482797242306
 10
562.7980861990236
 20
351.8360175361217
 10
562.861793904846
 20
351.8116121220117
 10
562.8817646026482
 20
351.8039616636625
 72
     1
 10
562.881764602648
 20
351.8039616636625
 11
564.497520338369
 21
351.8039616636625
 72
     1
 10
564.497520338369
 20
351.8039616636625
 11
564.8455442250529
 21
352.5019186327206
 72
     1
 10
564.8455442250529
 20
352.5019186327206
 11
563.6459999095214
 21
352.5019186327206
 72
     4
 94
        3
 73
     0
 74
     0
 95
       16
 96
       12
 40
0.0
 40
0.0
 40
0.0
 40
0.0
 40
0.1027738093187964
 40
0.2066076558227444
 40
0.268539878558716
 40
0.3279201337292112
 40
0.3931337605654557
 40
0.4386740937218511
 40
0.4818879174817272
 40
0.569519347887583
 40
0.7489346372632488
 40
0.7489346372632488
 40
0.7489346372632488
 40
0.7489346372632488
 10
563.6459999095214
 20
352.5019186327205
 10
563.6098174257047
 20
352.5125640499899
 10
563.5370792620347
 20
352.5339646842748
 10
563.5309916651094
 20
352.637707097328
 10
563.5392851351978
 20
352.7116320558409
 10
563.5740182064507
 20
352.7654537425783
 10
563.6161554462521
 20
352.8046161012008
 10
563.6318450094681
 20
352.8556189500323
 10
563.6779630510744
 20
352.8941324819131
 10
563.7597426959184
 20
352.9588683490213
 10
563.8501768262206
 20
352.9726556422863
 10
563.9109349799655
 20
352.9819186327206
 72
     1
 10
563.9109349799655
 20
352.9819186327205
 11
565.0848877276099
 21
352.9819186327206
 72
     1
 10
565.0848877276099
 20
352.9819186327206
 11
565.4329152998109
 21
353.6798829930305
 72
     1
 10
565.4329152998109
 20
353.6798829930305
 11
563.5542919539442
 21
353.6798829930304
 97
        8
330
3AB
330
3AD
330
3AA
330
3AE
330
3AF
330
3AC
330
3B0
330
3B1
 75
     0
 76
     1
 47
0.0514683685270805
 98
        1
 10
563.8784597106373
 20
353.3363954170603
450
        0
451
        0
460
0.0
461
0.0
452
        0
462
0.0
453
        0
470

  0
HATCH
  5
3C1
330
18
100
AcDbEntity
  8
ROGO
 62
     4
100
AcDbHatch
 10
0.0
 20
0.0
 30
0.0
210
0.0
220
0.0
230
1.0
  2
SOLID
 70
     1
 71
     1
 91
        1
 92
        7
 72
     0
 73
     1
 93
        4
 10
547.0981332487983
 20
351.0424421664379
 10
546.9652031981954
 20
350.7486275860219
 10
564.3641925818855
 20
350.7486275860218
 10
564.5106980210086
 20
351.0424421664379
 97
        4
330
3BD
330
38E
330
386
330
3B3
 75
     0
 76
     1
 47
0.0514683685270805
 98
        1
 10
558.0927550500672
 20
350.9647329318596
450
        0
451
        0
460
0.0
461
0.0
452
        0
462
0.0
453
        0
470

  0
HATCH
  5
3C2
330
18
100
AcDbEntity
  8
ROGO
 62
     4
100
AcDbHatch
 10
0.0
 20
0.0
 30
0.0
210
0.0
220
0.0
230
1.0
  2
SOLID
 70
     1
 71
     1
 91
        1
 92
        7
 72
     0
 73
     1
 93
       11
 10
564.3641925818857
 20
350.7486275860218
 10
565.4443122140344
 20
350.7486275860218
 10
565.8258111985568
 20
351.5137183890498
 10
566.2073101830792
 20
350.7486275860218
 10
567.287406183079
 20
350.7486275860218
 10
566.5565968747436
 20
352.2142552895261
 10
568.3321807966454
 20
353.6798829930304
 10
567.2520847966454
 20
353.6798829930304
 10
566.7463518208185
 20
353.3598495518567
 10
566.9059308307056
 20
353.6798829930304
 10
565.8258111985568
 20
353.6798829930304
 97
       11
330
3BA
330
3B5
330
3B4
330
3B2
330
3B3
330
386
330
3B8
330
3B6
330
3BB
330
3B7
330
3B9
 75
     0
 76
     1
 47
0.0514683685270805
 98
        1
 10
565.7328522751226
 20
352.4223173023997
450
        0
451
        0
460
0.0
461
0.0
452
        0
462
0.0
453
        0
470

  0
HATCH
  5
3C3
330
18
100
AcDbEntity
  8
ROGO
 62
     4
100
AcDbHatch
 10
0.0
 20
0.0
 30
0.0
210
0.0
220
0.0
230
1.0
  2
SOLID
 70
     1
 71
     1
 91
        2
 92
        5
 93
        6
 72
     1
 10
545.6026304040005
 20
350.7486275860219
 11
546.9652031981954
 21
350.7486275860218
 72
     1
 10
546.9652031981954
 20
350.7486275860218
 11
547.4426662708074
 21
351.8039616636626
 72
     1
 10
547.4426662708074
 20
351.8039616636626
 11
548.7163923681968
 21
351.8039616636626
 72
     4
 94
        3
 73
     0
 74
     0
 95
       18
 96
       14
 40
0.108740278791501
 40
0.108740278791501
 40
0.108740278791501
 40
0.108740278791501
 40
0.6623149649549278
 40
1.384304701649787
 40
2.097394834876493
 40
2.774073369849618
 40
3.428974823686337
 40
4.005208313035923
 40
4.455173659284313
 40
4.720999734343524
 40
5.086034088486724
 40
5.569973738255373
 40
6.060470601257719
 40
6.060470601257719
 40
6.060470601257719
 40
6.060470601257719
 10
548.7163923681963
 20
351.8039616636625
 10
548.8060351066173
 20
351.8046292059927
 10
549.012592759551
 20
351.8061673782908
 10
549.3015652997042
 20
351.9605428589984
 10
549.5755938326943
 20
352.1572059737723
 10
549.796305174239
 20
352.4029160177749
 10
549.9338149897763
 20
352.6838433570902
 10
549.9551148255579
 20
352.9530864079069
 10
549.9421117991138
 20
353.1660543138448
 10
549.8491986440523
 20
353.3144982314202
 10
549.7526040813027
 20
353.4651536273813
 10
549.5754823162354
 20
353.5956569270833
 10
549.4303566764488
 20
353.6528367718194
 10
549.3565573369687
 20
353.6798829930305
 72
     1
 10
549.3565573369687
 20
353.6798829930304
 11
547.0529883184185
 21
353.6798829930304
 72
     1
 10
547.0529883184185
 20
353.6798829930304
 11
545.6026304040005
 21
350.7486275860219
 97
        6
330
388
330
385
330
387
330
386
330
38E
330
389
 92
       20
 93
        4
 72
     1
 10
547.7374726883933
 20
352.4555707128895
 11
547.9631838260469
 21
352.9544588341542
 72
     1
 10
547.9631838260469
 20
352.9544588341542
 11
548.5431652533268
 21
352.9544588341542
 72
     4
 94
        3
 73
     0
 74
     0
 95
       15
 96
       11
 40
0.0
 40
0.0
 40
0.0
 40
0.0
 40
0.2199578613106558
 40
0.3202465475123651
 40
0.4340808827708152
 40
0.5116301246390283
 40
0.634275054953107
 40
0.7077360179240892
 40
0.8337709579493377
 40
0.875782631437913
 40
0.875782631437913
 40
0.875782631437913
 40
0.875782631437913
 10
548.5431652533289
 20
352.9544588341541
 10
548.6257771605563
 20
352.9548372407861
 10
548.7460555534965
 20
352.9553881800286
 10
548.8118280625887
 20
352.8066034601293
 10
548.7823456879696
 20
352.7108093106475
 10
548.7452839402207
 20
352.6124585760076
 10
548.6797874380174
 20
352.54562776848
 10
548.5918815385957
 20
352.4812584347128
 10
548.5088062628019
 20
352.473466238628
 10
548.4547751214124
 20
352.4591498194076
 10
548.4412673295992
 20
352.4555707128893
 72
     1
 10
548.4412673295991
 20
352.4555707128892
 11
547.7374726883933
 21
352.4555707128895
 97
        4
330
38A
330
38C
330
38B
330
38D
 75
     0
 76
     1
 47
0.0514683685270805
 98
        2
 10
547.0653005374284
 20
352.7681847689033
 10
547.0653005374284
 20
352.7681847689033
450
        0
451
        0
460
0.0
461
0.0
452
        0
462
0.0
453
        0
470

  0
LINE
  5
3C4
102
{ACAD_REACTORS
330
3C7
102
}
330
18
100
AcDbEntity
  8
ROGO
 62
     4
100
AcDbLine
 10
555.4902786079096
 20
353.6798829930304
 30
0.0
 11
556.3236371941716
 21
351.8039616636626
 31
0.0
  0
LINE
  5
3C5
102
{ACAD_REACTORS
330
3C7
102
}
330
18
100
AcDbEntity
  8
ROGO
 62
     4
100
AcDbLine
 10
554.6670277134244
 20
353.178441597385
 30
0.0
 11
554.9516096930321
 21
352.537836923358
 31
0.0
  0
LINE
  5
3C6
102
{ACAD_REACTORS
330
3C7
102
}
330
18
100
AcDbEntity
  8
ROGO
 62
     4
100
AcDbLine
 10
555.11895984389
 20
352.161125478078
 30
0.0
 11
555.27762616256
 21
351.8039616636626
 31
0.0
  0
HATCH
  5
3C7
330
18
100
AcDbEntity
  8
ROGO
 62
     4
100
AcDbHatch
 10
0.0
 20
0.0
 30
0.0
210
0.0
220
0.0
230
1.0
  2
SOLID
 70
     1
 71
     1
 91
        2
 92
        7
 72
     0
 73
     1
 93
        8
 10
555.4902786079095
 20
353.6798829930305
 10
553.9897022039505
 20
353.6798829930304
 10
552.6369388752374
 20
351.8039616636625
 10
553.675863520511
 20
351.8039616636625
 10
553.9334212884837
 20
352.161125478078
 10
555.1189598438901
 20
352.161125478078
 10
555.27762616256
 20
351.8039616636626
 10
556.3236371941716
 20
351.8039616636627
 97
        8
330
3A0
330
39A
330
39F
330
39E
330
39C
330
3C6
330
3A1
330
3C4
 92
       22
 72
     0
 73
     1
 93
        3
 10
554.9516096930319
 20
352.5378369233581
 10
554.2050752329767
 20
352.537836923358
 10
554.6670277134244
 20
353.1784415973852
 97
        3
330
39D
330
39B
330
3C5
 75
     0
 76
     1
 47
0.0128389261915577
 98
        2
 10
555.37277161863
 20
353.2298231118746
 10
555.37277161863
 20
353.2298231118746
450
        0
451
        0
460
0.0
461
0.0
452
        0
462
0.0
453
        0
470

  0
SPLINE
  5
3C8
102
{ACAD_REACTORS
330
3CF
102
}
330
18
100
AcDbEntity
  8
ROGO
 62
     4
100
AcDbSpline
210
0.0
220
0.0
230
1.0
 70
     8
 71
     3
 72
    38
 73
    34
 74
    32
 42
0.0000000001
 43
0.0000000001
 44
0.0000000001
 40
0.0
 40
0.0
 40
0.0
 40
0.0
 40
0.2582400211805774
 40
0.3393418442955424
 40
0.443552172800835
 40
0.530394283206717
 40
0.6036667919818254
 40
0.7009894053152177
 40
0.7507174249931042
 40
0.8067242281503032
 40
0.8892677166883521
 40
0.9827715778106668
 40
1.043426616793024
 40
1.109318337455068
 40
1.182564491755753
 40
1.293719242428883
 40
1.399327847180614
 40
1.448424760475743
 40
1.50441322219426
 40
1.570741059842362
 40
1.617957956886697
 40
1.657539314700464
 40
1.714052551848318
 40
1.776150918813051
 40
1.838248940024221
 40
1.892584795022379
 40
2.017023561310864
 40
2.066120474605993
 40
2.164314359515976
 40
2.251113385583432
 40
2.417283613623161
 40
2.622320469312984
 40
2.918423525691272
 40
2.918423525691272
 40
2.918423525691272
 40
2.918423525691272
 10
560.4302803699749
 20
353.687707591848
 30
0.0
 10
560.3442012305097
 20
353.6816267074181
 30
0.0
 10
560.2310884224796
 20
353.6736360848651
 30
0.0
 10
560.0874616046087
 20
353.634286618858
 30
0.0
 10
560.0091690982644
 20
353.5874087339181
 30
0.0
 10
559.9276900963828
 20
353.5529512414888
 30
0.0
 10
559.8582216586899
 20
353.5019265282758
 30
0.0
 10
559.7879558005529
 20
353.4756339851422
 30
0.0
 10
559.7387534957304
 20
353.4282238303242
 30
0.0
 10
559.6818058412546
 20
353.3992636615029
 30
0.0
 10
559.6364574129186
 20
353.3344423843394
 30
0.0
 10
559.5857707321588
 20
353.2738368391131
 30
0.0
 10
559.5269678058631
 20
353.2295974940023
 30
0.0
 10
559.4787074550638
 20
353.1831332383418
 30
0.0
 10
559.4344352937435
 20
353.1114249309363
 30
0.0
 10
559.4082330472131
 20
353.0161458242425
 30
0.0
 10
559.3343733123429
 20
352.9559900324066
 30
0.0
 10
559.3232523487954
 20
352.8836648214408
 30
0.0
 10
559.2823982770872
 20
352.8409941640254
 30
0.0
 10
559.2646334978645
 20
352.7859124754754
 30
0.0
 10
559.2578678148306
 20
352.7354479193029
 30
0.0
 10
559.2497473819128
 20
352.6883175172625
 30
0.0
 10
559.2285058672949
 20
352.6387384162085
 30
0.0
 10
559.2354391709538
 20
352.577495160587
 30
0.0
 10
559.233464080894
 20
352.5181912834064
 30
0.0
 10
559.2346264237127
 20
352.4381292025328
 30
0.0
 10
559.2304313675041
 20
352.3601789212193
 30
0.0
 10
559.2638852968113
 20
352.2753505266929
 30
0.0
 10
559.283682221958
 20
352.1997377485978
 30
0.0
 10
559.3378993218777
 20
352.0950426882388
 30
0.0
 10
559.4314226830461
 20
351.9742472257973
 30
0.0
 10
559.6092651773569
 20
351.8276244210934
 30
0.0
 10
559.7802659352987
 20
351.8127502200687
 30
0.0
 10
559.8813032820562
 20
351.8039616636625
 30
0.0
 11
560.4302803699749
 21
353.687707591848
 31
0.0
 11
560.1739137457646
 21
353.6566582354889
 31
0.0
 11
560.0962269084386
 21
353.6333717368498
 31
0.0
 11
560.0030030698558
 21
353.5867980480646
 31
0.0
 11
559.9253162325299
 21
353.5479868712461
 31
0.0
 11
559.863167006808
 21
353.5091753486739
 31
0.0
 11
559.7777116688535
 21
353.4626020056423
 31
0.0
 11
559.7388679450169
 21
353.4315529950367
 31
0.0
 11
559.692255720552
 21
353.4005036386775
 31
0.0
 11
559.6378749954586
 21
353.3384056174664
 31
0.0
 11
559.5757257697366
 21
353.2685454300422
 31
0.0
 11
559.5291135452716
 21
353.22973390747
 31
0.0
 11
559.4825019311538
 21
353.1831605644384
 31
0.0
 11
559.4436582073171
 21
353.1210625432272
 31
0.0
 11
559.3970465931995
 21
353.0201529994439
 31
0.0
 11
559.3348967571302
 21
352.9347681338401
 31
0.0
 11
559.3193597558735
 21
352.888194445055
 31
0.0
 11
559.2882851430125
 21
352.8416211020233
 31
0.0
 11
559.2649790307801
 21
352.7795227350586
 31
0.0
 11
559.2572099198044
 21
352.732949392027
 31
0.0
 11
559.2494414191759
 21
352.6941378694548
 31
0.0
 11
559.233904417919
 21
352.6398023602102
 31
0.0
 11
559.233904417919
 21
352.5777039932454
 31
0.0
 11
559.233904417919
 21
352.5156059720343
 31
0.0
 11
559.233904417919
 21
352.4612701170361
 31
0.0
 11
559.2416729185475
 21
352.3370740746137
 31
0.0
 11
559.2572099198044
 21
352.2905003858286
 31
0.0
 11
559.2882851430125
 21
352.1973533540118
 31
0.0
 11
559.3271282565019
 21
352.119730654621
 31
0.0
 11
559.4281212060604
 21
351.9877724459856
 31
0.0
 11
559.5912633813408
 21
351.8635760578097
 31
0.0
 11
559.8813032820562
 21
351.8039616636625
 31
0.0
  0
SPLINE
  5
3C9
102
{ACAD_REACTORS
330
3CF
102
}
330
18
100
AcDbEntity
  8
ROGO
 62
     4
100
AcDbSpline
210
0.0
220
0.0
230
1.0
 70
     8
 71
     3
 72
    25
 73
    21
 74
     0
 42
0.0000000001
 43
0.0000000001
 40
0.0
 40
0.0
 40
0.0
 40
0.0
 40
0.4087168505087288
 40
0.6887487002771746
 40
0.9415836120477687
 40
1.17452070575514
 40
1.41154617586699
 40
1.599156012919487
 40
1.80099909059943
 40
2.178735911501585
 40
2.521686161369157
 40
2.762704659361267
 40
3.06256558063785
 40
3.222432137207705
 40
3.399493810628493
 40
3.567459719866414
 40
3.743172740007509
 40
3.995988754699505
 40
4.17170091132118
 40
4.337226830236035
 40
4.337226830236035
 40
4.337226830236035
 40
4.337226830236035
 10
561.5023572602398
 20
353.687707591848
 30
0.0
 10
561.5726716179905
 20
353.6854484640536
 30
0.0
 10
561.6911617718742
 20
353.6816414976164
 30
0.0
 10
561.8183755699043
 20
353.5822090842228
 30
0.0
 10
561.9157158852748
 20
353.4997719952013
 30
0.0
 10
561.9848092493614
 20
353.400109414724
 30
0.0
 10
562.0453715188506
 20
353.3084749808995
 30
0.0
 10
562.0852774628066
 20
353.2117301028051
 30
0.0
 10
562.1395574309134
 20
353.095645109181
 30
0.0
 10
562.1620266561238
 20
352.9403406342795
 30
0.0
 10
562.1468460227856
 20
352.7798191299287
 30
0.0
 10
562.1072316577892
 20
352.6375315817809
 30
0.0
 10
562.0656793739321
 20
352.5283719172893
 30
0.0
 10
562.0167050611931
 20
352.4333416573027
 30
0.0
 10
561.9583214221871
 20
352.3718095565898
 30
0.0
 10
561.9178171999886
 20
352.293572090379
 30
0.0
 10
561.8400137703924
 20
352.229578043417
 30
0.0
 10
561.7769421135259
 20
352.1506183713398
 30
0.0
 10
561.7053689183263
 20
352.0828464451418
 30
0.0
 10
561.6650156336065
 20
352.0410319833965
 30
0.0
 10
561.6437404087583
 20
352.023450920617
 30
0.0
  0
LINE
  5
3CA
102
{ACAD_REACTORS
330
3CF
102
}
330
18
100
AcDbEntity
  8
ROGO
 62
     4
100
AcDbLine
 10
560.4302803699749
 20
353.687707591848
 30
0.0
 11
561.5023572602398
 21
353.687707591848
 31
0.0
  0
LINE
  5
3CB
102
{ACAD_REACTORS
330
3CF
102
}
330
18
100
AcDbEntity
  8
ROGO
 62
     4
100
AcDbLine
 10
559.8813032820562
 20
351.8039616636625
 30
0.0
 11
560.9533801723209
 21
351.8039616636625
 31
0.0
  0
SPLINE
  5
3CC
102
{ACAD_REACTORS
330
3CF
102
}
330
18
100
AcDbEntity
  8
ROGO
 62
     4
100
AcDbSpline
210
0.0
220
0.0
230
1.0
 70
     8
 71
     3
 72
    11
 73
     7
 74
     0
 42
0.0000000001
 43
0.0000000001
 40
0.1647869275458134
 40
0.1647869275458134
 40
0.1647869275458134
 40
0.1647869275458134
 40
0.2895635144633836
 40
0.5387013147903714
 40
0.7953622617455423
 40
0.8850764140209602
 40
0.8850764140209602
 40
0.8850764140209602
 40
0.8850764140209602
 10
561.3105479703468
 20
351.8457851592462
 30
0.0
 10
561.2905786234883
 20
351.840226683937
 30
0.0
 10
561.2286628928682
 20
351.8303301271028
 30
0.0
 10
561.1248075112422
 20
351.8167409922838
 30
0.0
 10
561.0260981653903
 20
351.8025602343058
 30
0.0
 10
560.9683400299209
 20
351.8036733556011
 30
0.0
 10
560.9533801723211
 20
351.8039616636625
 30
0.0
  0
SPLINE
  5
3CD
102
{ACAD_REACTORS
330
3CF
102
}
330
18
100
AcDbEntity
  8
ROGO
 62
     4
100
AcDbSpline
210
0.0
220
0.0
230
1.0
 70
     8
 71
     3
 72
     9
 73
     5
 74
     3
 42
0.0000000001
 43
0.0000000001
 44
0.0000000001
 40
0.0
 40
0.0
 40
0.0
 40
0.0
 40
0.1622561919360204
 40
0.3804197703110171
 40
0.3804197703110171
 40
0.3804197703110171
 40
0.3804197703110171
 10
561.3105479703468
 20
351.8457851592462
 30
0.0
 10
561.3626693536581
 20
351.8617313588508
 30
0.0
 10
561.48487119034
 20
351.8991182192136
 30
0.0
 10
561.5858379006785
 20
351.9781358160342
 30
0.0
 10
561.6437404087583
 20
352.023450920617
 30
0.0
 11
561.3105479703468
 21
351.8457851592462
 31
0.0
 11
561.4630490620962
 21
351.9011971510602
 31
0.0
 11
561.6437404087583
 21
352.023450920617
 31
0.0
  0
ELLIPSE
  5
3CE
102
{ACAD_REACTORS
330
3CF
102
}
330
18
100
AcDbEntity
  8
ROGO
 62
     4
100
AcDbEllipse
 10
560.6766495051617
 20
352.7195704601066
 30
0.0
 11
0.2546924415247531
 21
0.2239701316915159
 31
0.0
210
0.0
220
0.0
230
1.0
 40
0.6788083417438792
 41
0.0
 42
6.283185307179586
  0
HATCH
  5
3CF
330
18
100
AcDbEntity
  8
ROGO
 62
     4
100
AcDbHatch
 10
0.0
 20
0.0
 30
0.0
210
0.0
220
0.0
230
1.0
  2
SOLID
 70
     1
 71
     1
 91
        2
 92
        5
 93
        6
 72
     4
 94
        3
 73
     0
 74
     0
 95
       38
 96
       34
 40
0.0
 40
0.0
 40
0.0
 40
0.0
 40
0.2582400211805774
 40
0.3393418442955424
 40
0.443552172800835
 40
0.530394283206717
 40
0.6036667919818254
 40
0.7009894053152177
 40
0.7507174249931042
 40
0.8067242281503032
 40
0.8892677166883521
 40
0.9827715778106668
 40
1.043426616793024
 40
1.109318337455068
 40
1.182564491755753
 40
1.293719242428883
 40
1.399327847180614
 40
1.448424760475743
 40
1.50441322219426
 40
1.570741059842362
 40
1.617957956886697
 40
1.657539314700464
 40
1.714052551848318
 40
1.776150918813051
 40
1.838248940024221
 40
1.892584795022379
 40
2.017023561310864
 40
2.066120474605993
 40
2.164314359515976
 40
2.251113385583432
 40
2.417283613623161
 40
2.622320469312984
 40
2.918423525691272
 40
2.918423525691272
 40
2.918423525691272
 40
2.918423525691272
 10
560.4302803699749
 20
353.687707591848
 10
560.3442012305097
 20
353.6816267074181
 10
560.2310884224796
 20
353.6736360848651
 10
560.0874616046087
 20
353.634286618858
 10
560.0091690982644
 20
353.5874087339181
 10
559.9276900963827
 20
353.5529512414888
 10
559.8582216586899
 20
353.5019265282758
 10
559.7879558005529
 20
353.4756339851422
 10
559.7387534957302
 20
353.4282238303242
 10
559.6818058412548
 20
353.3992636615028
 10
559.6364574129185
 20
353.3344423843394
 10
559.5857707321591
 20
353.2738368391131
 10
559.526967805863
 20
353.2295974940023
 10
559.4787074550638
 20
353.1831332383418
 10
559.4344352937435
 20
353.1114249309363
 10
559.4082330472131
 20
353.0161458242425
 10
559.3343733123426
 20
352.9559900324066
 10
559.3232523487954
 20
352.8836648214408
 10
559.2823982770873
 20
352.8409941640255
 10
559.2646334978645
 20
352.7859124754755
 10
559.2578678148306
 20
352.7354479193028
 10
559.2497473819128
 20
352.6883175172625
 10
559.2285058672949
 20
352.6387384162085
 10
559.2354391709538
 20
352.577495160587
 10
559.233464080894
 20
352.5181912834065
 10
559.2346264237127
 20
352.4381292025328
 10
559.2304313675042
 20
352.3601789212193
 10
559.2638852968113
 20
352.275350526693
 10
559.2836822219582
 20
352.1997377485978
 10
559.3378993218777
 20
352.0950426882388
 10
559.4314226830463
 20
351.9742472257973
 10
559.6092651773568
 20
351.8276244210934
 10
559.7802659352988
 20
351.8127502200687
 10
559.8813032820562
 20
351.8039616636625
 72
     1
 10
559.881303282056
 20
351.8039616636624
 11
560.9533801723204
 21
351.8039616636624
 72
     4
 94
        3
 73
     0
 74
     0
 95
       11
 96
        7
 40
0.1647869275458135
 40
0.1647869275458135
 40
0.1647869275458135
 40
0.1647869275458135
 40
0.2545010798212315
 40
0.5111620267764023
 40
0.7602998271033902
 40
0.8850764140209603
 40
0.8850764140209603
 40
0.8850764140209603
 40
0.8850764140209603
 10
560.9533801723211
 20
351.8039616636625
 10
560.9683400299209
 20
351.8036733556011
 10
561.0260981653903
 20
351.8025602343058
 10
561.1248075112422
 20
351.8167409922838
 10
561.2286628928682
 20
351.8303301271028
 10
561.2905786234883
 20
351.840226683937
 10
561.3105479703468
 20
351.8457851592462
 72
     4
 94
        3
 73
     0
 74
     0
 95
        9
 96
        5
 40
0.0
 40
0.0
 40
0.0
 40
0.0
 40
0.1622561919360204
 40
0.3804197703110171
 40
0.3804197703110171
 40
0.3804197703110171
 40
0.3804197703110171
 10
561.3105479703468
 20
351.8457851592462
 10
561.3626693536581
 20
351.8617313588508
 10
561.48487119034
 20
351.8991182192136
 10
561.5858379006783
 20
351.9781358160342
 10
561.6437404087583
 20
352.023450920617
 72
     4
 94
        3
 73
     0
 74
     0
 95
       25
 96
       21
 40
0.0
 40
0.0
 40
0.0
 40
0.0
 40
0.165525918914855
 40
0.3412380755365305
 40
0.5940540902285263
 40
0.7697671103696209
 40
0.9377330196075423
 40
1.11479469302833
 40
1.274661249598185
 40
1.574522170874768
 40
1.815540668866877
 40
2.15849091873445
 40
2.536227739636605
 40
2.738070817316548
 40
2.925680654369045
 40
3.162706124480894
 40
3.395643218188267
 40
3.648478129958861
 40
3.928509979727306
 40
4.337226830236035
 40
4.337226830236035
 40
4.337226830236035
 40
4.337226830236035
 10
561.6437404087583
 20
352.023450920617
 10
561.6650156336065
 20
352.0410319833965
 10
561.7053689183263
 20
352.0828464451418
 10
561.7769421135259
 20
352.1506183713398
 10
561.8400137703924
 20
352.229578043417
 10
561.9178171999886
 20
352.293572090379
 10
561.9583214221871
 20
352.3718095565898
 10
562.0167050611931
 20
352.4333416573027
 10
562.0656793739321
 20
352.5283719172893
 10
562.1072316577892
 20
352.6375315817809
 10
562.1468460227856
 20
352.7798191299287
 10
562.1620266561238
 20
352.9403406342795
 10
562.1395574309134
 20
353.095645109181
 10
562.0852774628066
 20
353.2117301028051
 10
562.0453715188506
 20
353.3084749808995
 10
561.9848092493614
 20
353.400109414724
 10
561.9157158852748
 20
353.4997719952013
 10
561.8183755699043
 20
353.5822090842228
 10
561.6911617718742
 20
353.6816414976164
 10
561.5726716179905
 20
353.6854484640536
 10
561.5023572602398
 20
353.687707591848
 72
     1
 10
561.5023572602402
 20
353.687707591848
 11
560.4302803699749
 21
353.687707591848
 97
        6
330
3C9
330
3CA
330
3C8
330
3CB
330
3CC
330
3CD
 92
       20
 93
        1
 72
     3
 10
560.6766495051617
 20
352.7195704601066
 11
0.2546924415247531
 21
0.2239701316915159
 40
0.6788083417438792
 50
0.0
 51
360.0
 73
     1
 97
        1
330
3CE
 75
     0
 76
     1
 47
0.088756267210375
 98
        2
 10
560.7515513276884
 20
353.1674094177123
 10
560.7515513276884
 20
353.1674094177123
450
        0
451
        0
460
0.0
461
0.0
452
        0
462
0.0
453
        0
470

  0
DIMENSION
  5
3DC
330
18
100
AcDbEntity
  8
外形線
100
AcDbDimension
  2
*D1
 10
626.0878123845824
 20
337.9677933646444
 30
0.0
 11
624.2128123845824
 21
352.9677933646444
 31
0.0
 12
0.5
 22
0.0
 32
0.0
 70
    32
 71
     5
 42
-1.0
  3
STYLE3
100
AcDbAlignedDimension
 13
611.1251916789751
 23
367.9677933646444
 33
0.0
 14
611.1251916789751
 24
337.9677933646444
 34
0.0
 50
90.0
100
AcDbRotatedDimension
1001
ACAD
1000
DSTYLE
1002
{
1070
   271
1070
     2
1002
}
  0
LINE
  5
3DF
330
18
100
AcDbEntity
  8
隠れ線2
 48
0.7
100
AcDbLine
 10
491.4565394552875
 20
333.8596956837378
 30
0.0
 11
477.1111080335252
 21
329.4922578680444
 31
0.0
  0
ARC
  5
3E0
330
18
100
AcDbEntity
  8
隠れ線2
 48
0.7
100
AcDbCircle
 10
471.1251916789751
 20
346.4677933646445
 30
0.0
 40
18.0
100
AcDbArc
 50
230.6152845627631
 51
289.4236785934398
  0
ARC
  5
3E1
330
18
100
AcDbEntity
  8
隠れ線2
 48
0.7
100
AcDbCircle
 10
349.1251916789752
 20
194.3477933646444
 30
0.0
 40
177.0
100
AcDbArc
 50
51.33706673514661
 51
55.30437779506129
  0
TEXT
  5
4F7
330
18
100
AcDbEntity
  8
文字
100
AcDbText
 10
458.7798355887211
 20
395.9766989866385
 30
0.0
 40
1.0
  1
0.1mm
  7
STYLE3
100
AcDbText
  0
HATCH
  5
4F8
330
18
100
AcDbEntity
  8
ROGO
 62
     4
100
AcDbHatch
 10
0.0
 20
0.0
 30
0.0
210
0.0
220
0.0
230
1.0
  2
SOLID
 70
     1
 71
     1
 91
        1
 92
        7
 72
     0
 73
     1
 93
       11
 10
458.5756585485603
 20
403.7808812208449
 10
459.3317422910645
 20
403.7808812208449
 10
459.5987915802301
 20
404.3164447829644
 10
459.8658408693959
 20
403.7808812208449
 10
460.6219080693957
 20
403.7808812208449
 10
460.1103415535609
 20
404.8068206132979
 10
461.3532502988921
 20
405.8327600057509
 10
460.5971830988922
 20
405.832760005751
 10
460.2431700158133
 20
405.6087365969292
 10
460.3548753227343
 20
405.8327600057509
 10
459.5987915802301
 20
405.8327600057509
 97
       11
330
5CD
330
5D0
330
5D1
330
4FA
330
58C
330
554
330
58B
330
4F9
330
5CC
330
5CF
330
5CE
 75
     0
 76
     1
 47
0.0514683685270805
 98
        1
 10
459.5337203338263
 20
404.9524640223094
450
        0
451
        0
460
0.0
461
0.0
452
        0
462
0.0
453
        0
470

  0
LINE
  5
4F9
102
{ACAD_REACTORS
330
4F8
102
}
330
18
100
AcDbEntity
  8
ROGO
 62
     4
100
AcDbLine
 10
459.5987915802301
 20
404.3164447829645
 30
0.0
 11
459.8658408693959
 21
403.7808812208449
 31
0.0
  0
LINE
  5
4FA
102
{ACAD_REACTORS
330
4F8
102
}
330
18
100
AcDbEntity
  8
ROGO
 62
     4
100
AcDbLine
 10
459.5987915802301
 20
405.8327600057509
 30
0.0
 11
460.3548753227343
 21
405.8327600057509
 31
0.0
  0
LINE
  5
4FB
330
18
100
AcDbEntity
  8
目盛
100
AcDbLine
 10
460.2325825495992
 20
418.3420932394329
 30
0.0
 11
459.3055315664742
 21
415.4889236905474
 31
0.0
  0
LINE
  5
4FC
330
18
100
AcDbEntity
  8
目盛
100
AcDbLine
 10
460.232582549599
 20
374.593493489856
 30
0.0
 11
459.3055315664742
 21
377.4466630387414
 31
0.0
  0
CIRCLE
  5
4FD
330
18
100
AcDbEntity
  8
外形線
100
AcDbCircle
 10
453.1251916789752
 20
396.4677933646445
 30
0.0
 40
23.0
  0
CIRCLE
  5
4FE
330
18
100
AcDbEntity
  8
外形線
100
AcDbCircle
 10
453.1251916789752
 20
396.4677933646445
 30
0.0
 40
15.5
  0
LINE
  5
4FF
330
18
100
AcDbEntity
  8
中心線
 48
0.2
100
AcDbLine
 10
449.9251916789751
 20
394.2570293718523
 30
0.0
 11
449.9251916789751
 21
378.5674353498168
 31
0.0
  0
LINE
  5
500
330
18
100
AcDbEntity
  8
目盛
100
AcDbLine
 10
439.6061308762482
 20
377.8604024940207
 30
0.0
 11
441.3694866331257
 21
380.2874534771455
 31
0.0
  0
LINE
  5
501
330
18
100
AcDbEntity
  8
目盛
100
AcDbLine
 10
438.4644399147553
 20
378.7459887808013
 30
0.0
 11
439.7392878942526
 21
380.2870152663528
 31
0.0
  0
LINE
  5
502
330
18
100
AcDbEntity
  8
目盛
100
AcDbLine
 10
437.3806082426153
 20
379.7015149339519
 30
0.0
 11
438.7497024544726
 21
381.1594521887948
 31
0.0
  0
LINE
  5
503
330
18
100
AcDbEntity
  8
目盛
100
AcDbLine
 10
440.8011753944582
 20
377.0482510780981
 30
0.0
 11
441.8728289844162
 21
378.7369069291021
 31
0.0
  0
LINE
  5
504
330
18
100
AcDbEntity
  8
目盛
100
AcDbLine
 10
446.0178008083514
 20
374.5934934898559
 30
0.0
 11
446.9448517914763
 21
377.4466630387414
 31
0.0
  0
LINE
  5
505
330
18
100
AcDbEntity
  8
目盛
100
AcDbLine
 10
444.6583269672276
 20
375.0829341892147
 30
0.0
 11
445.394576072597
 21
376.9424871609912
 31
0.0
  0
LINE
  5
506
330
18
100
AcDbEntity
  8
目盛
100
AcDbLine
 10
443.3322679729786
 20
375.656771157926
 30
0.0
 11
444.1838265561087
 21
377.4664252628581
 31
0.0
  0
LINE
  5
507
330
18
100
AcDbEntity
  8
目盛
100
AcDbLine
 10
442.0448571746359
 20
376.3127397236356
 30
0.0
 11
443.0083645228392
 21
378.0653530837233
 31
0.0
  0
TEXT
  5
508
330
18
100
AcDbEntity
  8
文字
100
AcDbText
 10
451.99452526293
 20
377.0670336817321
 30
0.0
 40
2.0
  1
5
  7
STYLE3
100
AcDbText
  0
LINE
  5
509
330
18
100
AcDbEntity
  8
目盛
100
AcDbLine
 10
453.1251916789752
 20
376.4677933646445
 30
0.0
 11
453.1251916789752
 21
373.4677933646445
 31
0.0
  0
LINE
  5
50A
330
18
100
AcDbEntity
  8
目盛
100
AcDbLine
 10
451.681009729801
 20
373.5131786107942
 30
0.0
 11
451.8065907688596
 21
375.5092320676508
 31
0.0
  0
LINE
  5
50B
330
18
100
AcDbEntity
  8
目盛
100
AcDbLine
 10
450.2425273069962
 20
373.6491552344115
 30
0.0
 11
450.4931937741249
 21
375.6333846370404
 31
0.0
  0
LINE
  5
50C
330
18
100
AcDbEntity
  8
目盛
100
AcDbLine
 10
448.8154214435035
 20
373.8751865978847
 30
0.0
 11
449.190184072675
 21
375.839761099342
 31
0.0
  0
LINE
  5
50D
330
18
100
AcDbEntity
  8
目盛
100
AcDbLine
 10
447.4053242741836
 20
374.190380658686
 30
0.0
 11
447.9027040485132
 21
376.1275469809433
 31
0.0
  0
LINE
  5
50E
330
18
100
AcDbEntity
  8
目盛
100
AcDbLine
 10
458.8450590837667
 20
374.190380658686
 30
0.0
 11
458.3476793094371
 21
376.1275469809433
 31
0.0
  0
LINE
  5
50F
330
18
100
AcDbEntity
  8
目盛
100
AcDbLine
 10
457.4349619144468
 20
373.8751865978847
 30
0.0
 11
457.0601992852754
 21
375.8397610993421
 31
0.0
  0
LINE
  5
510
330
18
100
AcDbEntity
  8
目盛
100
AcDbLine
 10
456.0078560509542
 20
373.6491552344115
 30
0.0
 11
455.7571895838255
 21
375.6333846370405
 31
0.0
  0
LINE
  5
511
330
18
100
AcDbEntity
  8
目盛
100
AcDbLine
 10
454.5693736281494
 20
373.5131786107942
 30
0.0
 11
454.4437925890907
 21
375.5092320676508
 31
0.0
  0
LINE
  5
512
330
18
100
AcDbEntity
  8
外形線
  6
Continuous
100
AcDbLine
 10
449.4251916789752
 20
424.4677933646443
 30
0.0
 11
449.4251916789752
 21
422.6072271764163
 31
0.0
  0
LINE
  5
513
330
18
100
AcDbEntity
  8
外形線
  6
Continuous
100
AcDbLine
 10
456.8251916789752
 20
424.4677933646443
 30
0.0
 11
456.8251916789752
 21
422.6072271764163
 31
0.0
  0
TEXT
  5
514
330
18
100
AcDbEntity
  8
文字
100
AcDbText
 10
434.7022145941068
 20
401.5348189365939
 30
0.0
 40
2.0
  1
2
  7
STYLE3
100
AcDbText
  0
TEXT
  5
515
330
18
100
AcDbEntity
  8
文字
100
AcDbText
 10
434.5965322392651
 20
389.38536726465
 30
0.0
 40
2.0
  1
3
  7
STYLE3
100
AcDbText
  0
LINE
  5
516
330
18
100
AcDbEntity
  8
目盛
100
AcDbLine
 10
434.5178008083514
 20
382.9487325619176
 30
0.0
 11
436.9448517914761
 21
384.712088318795
 31
0.0
  0
LINE
  5
517
330
18
100
AcDbEntity
  8
目盛
100
AcDbLine
 10
433.7056493924288
 20
384.1437770801276
 30
0.0
 11
435.3943052434329
 21
385.2154306700855
 31
0.0
  0
LINE
  5
518
330
18
100
AcDbEntity
  8
目盛
100
AcDbLine
 10
433.7056493924288
 20
408.7918096491613
 30
0.0
 11
435.3943052434329
 21
407.7201560592034
 31
0.0
  0
LINE
  5
519
330
18
100
AcDbEntity
  8
目盛
100
AcDbLine
 10
434.5178008083513
 20
409.9868541673713
 30
0.0
 11
436.9448517914761
 21
408.2234984104939
 31
0.0
  0
LINE
  5
51A
330
18
100
AcDbEntity
  8
目盛
100
AcDbLine
 10
430.8477789730166
 20
390.7479259598528
 30
0.0
 11
432.7849452952739
 21
391.2453057341825
 31
0.0
  0
LINE
  5
51B
330
18
100
AcDbEntity
  8
目盛
100
AcDbLine
 10
432.9701380379663
 20
385.387458860305
 30
0.0
 11
434.722751398054
 21
386.3509662085084
 31
0.0
  0
LINE
  5
51C
330
18
100
AcDbEntity
  8
目盛
100
AcDbLine
 10
432.3141694722568
 20
386.6748696586478
 30
0.0
 11
434.1238235771887
 21
387.5264282417779
 31
0.0
  0
LINE
  5
51D
330
18
100
AcDbEntity
  8
目盛
100
AcDbLine
 10
431.7403325035454
 20
388.0009286528968
 30
0.0
 11
433.5998854753218
 21
388.7371777582662
 31
0.0
  0
LINE
  5
51E
330
18
100
AcDbEntity
  8
目盛
100
AcDbLine
 10
431.2508918041867
 20
389.3604024940207
 30
0.0
 11
434.104061353072
 21
390.2874534771455
 31
0.0
  0
LINE
  5
51F
330
18
100
AcDbEntity
  8
目盛
100
AcDbLine
 10
430.1251916789752
 20
396.4677933646445
 30
0.0
 11
433.1251916789752
 21
396.4677933646445
 31
0.0
  0
LINE
  5
520
330
18
100
AcDbEntity
  8
目盛
100
AcDbLine
 10
430.5325849122153
 20
392.1580231291728
 30
0.0
 11
432.4971594136726
 21
392.5327857583443
 31
0.0
  0
LINE
  5
521
330
18
100
AcDbEntity
  8
目盛
100
AcDbLine
 10
430.3065535487422
 20
393.5851289926655
 30
0.0
 11
432.2907829513712
 21
393.8357954597941
 31
0.0
  0
LINE
  5
522
330
18
100
AcDbEntity
  8
目盛
100
AcDbLine
 10
430.1705769251248
 20
395.0236114154703
 30
0.0
 11
432.1666303819814
 21
395.1491924545289
 31
0.0
  0
LINE
  5
523
330
18
100
AcDbEntity
  8
目盛
100
AcDbLine
 10
430.1705769251248
 20
397.9119753138187
 30
0.0
 11
432.1666303819814
 21
397.7863942747601
 31
0.0
  0
LINE
  5
524
330
18
100
AcDbEntity
  8
目盛
100
AcDbLine
 10
430.3065535487422
 20
399.3504577366235
 30
0.0
 11
432.290782951371
 21
399.0997912694949
 31
0.0
  0
LINE
  5
525
330
18
100
AcDbEntity
  8
目盛
100
AcDbLine
 10
430.5325849122153
 20
400.7775636001161
 30
0.0
 11
432.4971594136727
 21
400.4028009709446
 31
0.0
  0
LINE
  5
526
330
18
100
AcDbEntity
  8
目盛
100
AcDbLine
 10
430.8477789730166
 20
402.1876607694361
 30
0.0
 11
432.7849452952739
 21
401.6902809951064
 31
0.0
  0
LINE
  5
527
330
18
100
AcDbEntity
  8
目盛
100
AcDbLine
 10
431.2508918041865
 20
403.5751842352683
 30
0.0
 11
434.104061353072
 21
402.6481332521434
 31
0.0
  0
LINE
  5
528
330
18
100
AcDbEntity
  8
目盛
100
AcDbLine
 10
431.7403325035453
 20
404.934658076392
 30
0.0
 11
433.5998854753218
 21
404.1984089710227
 31
0.0
  0
LINE
  5
529
330
18
100
AcDbEntity
  8
目盛
100
AcDbLine
 10
432.3141694722568
 20
406.2607170706411
 30
0.0
 11
434.1238235771887
 21
405.4091584875109
 31
0.0
  0
LINE
  5
52A
330
18
100
AcDbEntity
  8
目盛
100
AcDbLine
 10
432.9701380379663
 20
407.548127868984
 30
0.0
 11
434.722751398054
 21
406.5846205207805
 31
0.0
  0
HATCH
  5
52B
330
18
100
AcDbEntity
  8
針
  6
Continuous
100
AcDbHatch
 10
0.0
 20
0.0
 30
0.0
210
0.0
220
0.0
230
1.0
  2
SOLID
 70
     1
 71
     0
 91
        1
 92
        1
 93
        3
 72
     1
 10
453.1251916789752
 20
419.4677933646445
 11
453.6251916789752
 21
397.8820069270176
 72
     2
 10
453.1251916789752
 20
396.4677933646445
 40
1.5
 50
70.52877936551252
 51
109.4712206344913
 73
     1
 72
     1
 10
452.6251916789751
 20
397.8820069270176
 11
453.1251916789751
 21
419.4677933646435
 97
        0
 75
     0
 76
     1
 98
        1
 10
225.572770929509
 20
410.7233885948771
450
        0
451
        0
460
0.0
461
0.0
452
        0
462
0.0
453
        0
470

  0
LINE
  5
52C
330
18
100
AcDbEntity
  8
針
  6
Continuous
100
AcDbLine
 10
453.1251916789752
 20
419.4677933646436
 30
0.0
 11
452.6251916789751
 21
397.8820069270176
 31
0.0
  0
LINE
  5
52D
330
18
100
AcDbEntity
  8
針
  6
Continuous
100
AcDbLine
 10
453.1251916789752
 20
419.4677933646445
 30
0.0
 11
453.6251916789751
 21
397.8820069270176
 31
0.0
  0
LINE
  5
52E
330
18
100
AcDbEntity
  8
目盛
100
AcDbLine
 10
447.1332117305858
 20
382.5509912298496
 30
0.0
 11
447.427104356732
 21
382.955499727037
 31
0.0
  0
LINE
  5
52F
330
18
100
AcDbEntity
  8
目盛
100
AcDbLine
 10
447.1332117305858
 20
390.2366526764116
 30
0.0
 11
447.4271043567322
 21
389.8321441792241
 31
0.0
  0
LINE
  5
530
330
18
100
AcDbEntity
  8
中心線
 48
0.2
100
AcDbLine
 10
442.9659164920454
 20
386.3938219531306
 30
0.0
 11
457.4939039400256
 21
386.3938219531306
 31
0.0
  0
CIRCLE
  5
531
330
18
100
AcDbEntity
  8
外形線
100
AcDbCircle
 10
449.9251916789751
 20
386.3938219531306
 30
0.0
 40
4.75
  0
TEXT
  5
532
330
18
100
AcDbEntity
  8
文字
100
AcDbText
 10
440.975388705811
 20
380.7503384506251
 30
0.0
 40
2.0
  1
4
  7
STYLE3
100
AcDbText
  0
LINE
  5
533
330
18
100
AcDbEntity
  8
目盛
100
AcDbLine
 10
436.3589132482828
 20
380.7232099282846
 30
0.0
 11
437.8168505031256
 21
382.092304140142
 31
0.0
  0
LINE
  5
534
330
18
100
AcDbEntity
  8
目盛
100
AcDbLine
 10
435.403387095132
 20
381.8070416004246
 30
0.0
 11
436.9444135806836
 21
383.081889579922
 31
0.0
  0
TEXT
  5
535
330
18
100
AcDbEntity
  8
文字
100
AcDbText
 10
446.1640812986451
 20
387.1084882606765
 30
0.0
 40
0.7
  1
80
  7
STYLE3
100
AcDbText
  0
TEXT
  5
536
330
18
100
AcDbEntity
  8
文字
100
AcDbText
 10
446.2240276195942
 20
384.9536794278845
 30
0.0
 40
0.7
  1
70
  7
STYLE3
100
AcDbText
  0
LINE
  5
537
330
18
100
AcDbEntity
  8
目盛
100
AcDbLine
 10
445.4076732265731
 20
384.9259912298496
 30
0.0
 11
445.8832014847207
 21
385.080499727037
 31
0.0
  0
LINE
  5
538
330
18
100
AcDbEntity
  8
目盛
100
AcDbLine
 10
445.4076732265731
 20
387.8616526764115
 30
0.0
 11
445.8832014847208
 21
387.7071441792241
 31
0.0
  0
HATCH
  5
539
330
18
100
AcDbEntity
  8
針
100
AcDbHatch
 10
0.0
 20
0.0
 30
0.0
210
0.0
220
0.0
230
1.0
  2
SOLID
 70
     1
 71
     0
 91
        3
 92
        7
 72
     1
 73
     1
 93
        5
 10
450.1251916789751
 20
391.1396095589974
 42
0.0105298176880202
 10
449.9251916789751
 20
391.1438219531305
 42
0.0
 10
449.9251916789751
 20
390.6438219531306
 42
0.0
 10
449.9251916789751
 20
387.5438219531305
 42
-0.0437283108272093
 10
450.1251916789751
 20
387.5262971184211
 42
0.0
 97
        0
 92
        7
 72
     1
 73
     1
 93
        4
 10
449.9251916789752
 20
391.1438219531305
 42
0.0105298176880232
 10
449.7251916789752
 20
391.1396095589974
 42
0.0
 10
449.7251916789752
 20
387.5262971184211
 42
-0.0437283108272093
 10
449.9251916789751
 20
387.5438219531305
 42
0.0
 97
        0
 92
      137
 93
        4
 72
     1
 10
449.3316723827019
 20
389.1715958816054
 11
450.4983390493686
 21
389.1715958816054
 72
     1
 10
450.4983390493686
 20
389.1715958816054
 11
450.4983390493686
 21
390.6715958816054
 72
     1
 10
450.4983390493686
 20
390.6715958816054
 11
449.3316723827019
 21
390.6715958816054
 72
     1
 10
449.3316723827019
 20
390.6715958816054
 11
449.3316723827019
 21
389.1715958816054
 97
        0
 75
     0
 76
     1
 47
0.0128177587452554
 98
        3
 10
450.0738942339065
 20
388.077601202278
 10
449.9969241518878
 20
389.282470890026
 10
449.8173270261408
 20
389.2311997233258
450
        0
451
        0
460
0.0
461
0.0
452
        0
462
0.0
453
        0
470

  0
LINE
  5
53A
330
18
100
AcDbEntity
  8
針
 48
0.2
100
AcDbLine
 10
449.7251916789752
 20
391.1396095589974
 30
0.0
 11
449.7251916789752
 21
387.5262971184211
 31
0.0
  0
LINE
  5
53B
330
18
100
AcDbEntity
  8
針
 48
0.2
100
AcDbLine
 10
450.1251916789751
 20
391.1396095589974
 30
0.0
 11
450.1251916789751
 21
387.5262971184211
 31
0.0
  0
LINE
  5
53C
330
18
100
AcDbEntity
  8
目盛
100
AcDbLine
 10
449.9251916789751
 20
391.1438219531305
 30
0.0
 11
449.9251916789751
 21
390.6438219531306
 31
0.0
  0
TEXT
  5
53D
330
18
100
AcDbEntity
  8
文字
100
AcDbText
 10
452.41512268578
 20
384.9089948268
 30
0.0
 40
0.7
  1
30
  7
STYLE3
100
AcDbText
  0
TEXT
  5
53E
330
18
100
AcDbEntity
  8
文字
100
AcDbText
 10
452.4424901997958
 20
386.9553600274702
 30
0.0
 40
0.7
  1
20
  7
STYLE3
100
AcDbText
  0
TEXT
  5
53F
330
18
100
AcDbEntity
  8
文字
100
AcDbText
 10
447.3510319844009
 20
388.8009423273
 30
0.0
 40
0.7
  1
90
  7
STYLE3
100
AcDbText
  0
TEXT
  5
540
330
18
100
AcDbEntity
  8
文字
100
AcDbText
 10
447.4324849037366
 20
383.2458069712458
 30
0.0
 40
0.7
  1
60
  7
STYLE3
100
AcDbText
  0
TEXT
  5
541
330
18
100
AcDbEntity
  8
文字
100
AcDbText
 10
449.2629345520045
 20
382.6252017635386
 30
0.0
 40
0.7
  1
50
  7
STYLE3
100
AcDbText
  0
TEXT
  5
542
330
18
100
AcDbEntity
  8
文字
100
AcDbText
 10
451.3563916373534
 20
383.2380382050659
 30
0.0
 40
0.7
  1
40
  7
STYLE3
100
AcDbText
  0
TEXT
  5
543
330
18
100
AcDbEntity
  8
文字
100
AcDbText
 10
451.2475888809298
 20
388.8171732979712
 30
0.0
 40
0.7
  1
10
  7
STYLE3
100
AcDbText
  0
TEXT
  5
544
330
18
100
AcDbEntity
  8
文字
100
AcDbText
 10
449.5853612020893
 20
389.4467609504686
 30
0.0
 40
0.7
  1
0
  7
STYLE3
100
AcDbText
  0
CIRCLE
  5
545
330
18
100
AcDbEntity
  8
外形線
100
AcDbCircle
 10
449.9251916789751
 20
386.3938219531306
 30
0.0
 40
1.149999999999999
  0
LINE
  5
546
330
18
100
AcDbEntity
  8
目盛
100
AcDbLine
 10
452.7171716273644
 20
390.2366526764116
 30
0.0
 11
452.4232790012182
 21
389.8321441792241
 31
0.0
  0
LINE
  5
547
330
18
100
AcDbEntity
  8
目盛
100
AcDbLine
 10
452.7171716273644
 20
382.5509912298496
 30
0.0
 11
452.4232790012182
 21
382.9554997270371
 31
0.0
  0
LINE
  5
548
330
18
100
AcDbEntity
  8
目盛
100
AcDbLine
 10
449.9251916789751
 20
381.6438219531306
 30
0.0
 11
449.9251916789751
 21
382.1438219531306
 31
0.0
  0
LINE
  5
549
330
18
100
AcDbEntity
  8
目盛
100
AcDbLine
 10
454.442710131377
 20
387.8616526764115
 30
0.0
 11
453.9671818732295
 21
387.707144179224
 31
0.0
  0
LINE
  5
54A
330
18
100
AcDbEntity
  8
目盛
100
AcDbLine
 10
454.442710131377
 20
384.9259912298496
 30
0.0
 11
453.9671818732295
 21
385.080499727037
 31
0.0
  0
CIRCLE
  5
54B
330
18
100
AcDbEntity
  8
外形線
100
AcDbCircle
 10
453.1251916789752
 20
396.4677933646445
 30
0.0
 40
1.5
  0
POINT
  5
54C
330
18
100
AcDbEntity
  8
DEFPOINTS
  6
ByBlock
 62
     0
100
AcDbPoint
 10
453.1251916789751
 20
396.4677933646445
 30
0.0
  0
POINT
  5
54D
330
18
100
AcDbEntity
  8
DEFPOINTS
  6
ByBlock
 62
     0
100
AcDbPoint
 10
453.1251916789751
 20
396.4677933646445
 30
0.0
  0
HATCH
  5
54E
330
18
100
AcDbEntity
  8
ROGO
 62
     4
100
AcDbHatch
 10
0.0
 20
0.0
 30
0.0
210
0.0
220
0.0
230
1.0
  2
SOLID
 70
     1
 71
     1
 91
        2
 92
        5
 93
        6
 72
     1
 10
445.4425650240407
 20
403.7808812208449
 11
446.3963659799772
 21
403.7808812208449
 72
     1
 10
446.3963659799772
 20
403.7808812208449
 11
446.7305901308057
 21
404.5196150751935
 72
     1
 10
446.7305901308057
 20
404.5196150751935
 11
447.6221983989781
 21
404.5196150751935
 72
     4
 94
        3
 73
     0
 74
     0
 95
       18
 96
       14
 40
0.108740278791501
 40
0.108740278791501
 40
0.108740278791501
 40
0.108740278791501
 40
0.6623149649549278
 40
1.384304701649787
 40
2.097394834876493
 40
2.774073369849618
 40
3.428974823686337
 40
4.005208313035923
 40
4.455173659284313
 40
4.720999734343524
 40
5.086034088486724
 40
5.569973738255373
 40
6.060470601257719
 40
6.060470601257719
 40
6.060470601257719
 40
6.060470601257719
 10
447.6221983989778
 20
404.5196150751935
 10
447.6849483158725
 20
404.5200823548246
 10
447.8295386729261
 20
404.5211590754332
 10
448.0318194510333
 20
404.6292219119285
 10
448.2236394241263
 20
404.7668860922703
 10
448.3781373632077
 20
404.9388831230722
 10
448.4743942340839
 20
405.1355322605928
 10
448.4893041191309
 20
405.3240023961645
 10
448.48020200062
 20
405.473079930321
 10
448.415162792077
 20
405.5769906726238
 10
448.3475465981523
 20
405.6824494497966
 10
448.2235613626051
 20
405.7738017595879
 10
448.1219734147546
 20
405.8138276509033
 10
448.0703138771185
 20
405.832760005751
 72
     1
 10
448.0703138771186
 20
405.8327600057509
 11
446.4578155641333
 21
405.8327600057509
 72
     1
 10
446.4578155641333
 20
405.8327600057509
 11
445.4425650240407
 21
403.7808812208449
 97
        6
330
581
330
555
330
55C
330
554
330
55A
330
553
 92
       20
 93
        4
 72
     1
 10
446.9369546231158
 20
404.9757414096522
 11
447.0949524194733
 21
405.3249630945376
 72
     1
 10
447.0949524194733
 20
405.3249630945376
 11
447.5009394185706
 21
405.3249630945376
 72
     4
 94
        3
 73
     0
 74
     0
 95
       15
 96
       11
 40
0.0
 40
0.0
 40
0.0
 40
0.0
 40
0.4399157226213117
 40
0.6404930950247764
 40
0.8681617655417579
 40
1.023260249278236
 40
1.268550109906271
 40
1.415472035848321
 40
1.667541915898791
 40
1.751565262875804
 40
1.751565262875804
 40
1.751565262875804
 40
1.751565262875804
 10
447.5009394185707
 20
405.3249630945376
 10
447.5587677536299
 20
405.32522797918
 10
447.6429626286879
 20
405.3256136366497
 10
447.6890033850525
 20
405.2214643327202
 10
447.6683657228191
 20
405.1544084280828
 10
447.642422499395
 20
405.085562913835
 10
447.5965749478526
 20
405.0387813485657
 10
447.5350408182574
 20
404.9937228149286
 10
447.4768881252017
 20
404.9882682776692
 10
447.4390663262291
 20
404.978246784215
 10
447.4296108719598
 20
404.9757414096522
 72
     1
 10
447.4296108719597
 20
404.9757414096522
 11
446.9369546231158
 21
404.9757414096522
 97
        4
330
55B
330
552
330
580
330
551
 75
     0
 76
     1
 47
0.0514683685270805
 98
        2
 10
446.4664341174403
 20
405.194571248862
 10
446.4664341174403
 20
405.194571248862
450
        0
451
        0
460
0.0
461
0.0
452
        0
462
0.0
453
        0
470

  0
HATCH
  5
54F
330
18
100
AcDbEntity
  8
ROGO
 62
     4
100
AcDbHatch
 10
0.0
 20
0.0
 30
0.0
210
0.0
220
0.0
230
1.0
  2
SOLID
 70
     1
 71
     1
 91
        1
 92
        7
 72
     0
 73
     1
 93
        4
 10
446.4894170153992
 20
403.9865514271362
 10
446.3963659799772
 20
403.7808812208449
 10
458.5756585485603
 20
403.7808812208449
 10
458.6782123559465
 20
403.9865514271362
 97
        4
330
550
330
55A
330
554
330
58C
 75
     0
 76
     1
 47
0.0514683685270805
 98
        1
 10
454.1856522762874
 20
403.9321549629314
450
        0
451
        0
460
0.0
461
0.0
452
        0
462
0.0
453
        0
470

  0
LINE
  5
550
102
{ACAD_REACTORS
330
54F
102
}
330
18
100
AcDbEntity
  8
ROGO
 62
     4
100
AcDbLine
 10
446.4751535684825
 20
403.9865514271362
 30
0.0
 11
458.6782123559465
 21
403.9865514271362
 31
0.0
  0
LINE
  5
551
102
{ACAD_REACTORS
330
54E
102
}
330
18
100
AcDbEntity
  8
ROGO
 62
     4
100
AcDbLine
 10
447.4296108719599
 20
404.9757414096522
 30
0.0
 11
446.9369546231158
 21
404.9757414096522
 31
0.0
  0
LINE
  5
552
102
{ACAD_REACTORS
330
54E
102
}
330
18
100
AcDbEntity
  8
ROGO
 62
     4
100
AcDbLine
 10
447.5009394185707
 20
405.3249630945376
 30
0.0
 11
447.0949524194733
 21
405.3249630945376
 31
0.0
  0
LINE
  5
553
102
{ACAD_REACTORS
330
54E
102
}
330
18
100
AcDbEntity
  8
ROGO
 62
     4
100
AcDbLine
 10
447.622198399287
 20
404.5196150751935
 30
0.0
 11
446.7305901308057
 21
404.5196150751935
 31
0.0
  0
LINE
  5
554
102
{ACAD_REACTORS
330
54F
330
4F8
330
54E
102
}
330
18
100
AcDbEntity
  8
ROGO
 62
     4
100
AcDbLine
 10
445.4425650240407
 20
403.7808812208449
 30
0.0
 11
459.3317422910645
 21
403.7808812208449
 31
0.0
  0
LINE
  5
555
102
{ACAD_REACTORS
330
54E
102
}
330
18
100
AcDbEntity
  8
ROGO
 62
     4
100
AcDbLine
 10
446.4578155641333
 20
405.8327600057509
 30
0.0
 11
448.0703138771185
 21
405.8327600057509
 31
0.0
  0
TEXT
  5
556
330
18
100
AcDbEntity
  8
文字
100
AcDbText
 10
441.4082676422425
 20
410.4851866933018
 30
0.0
 40
2.0
  1
1
  7
STYLE3
100
AcDbText
  0
LINE
  5
557
330
18
100
AcDbEntity
  8
目盛
100
AcDbLine
 10
437.3806082426154
 20
413.2340717953369
 30
0.0
 11
438.7497024544727
 21
411.7761345404941
 31
0.0
  0
LINE
  5
558
330
18
100
AcDbEntity
  8
目盛
100
AcDbLine
 10
435.4033870951321
 20
411.1285451288643
 30
0.0
 11
436.9444135806836
 21
409.8536971493669
 31
0.0
  0
LINE
  5
559
330
18
100
AcDbEntity
  8
目盛
100
AcDbLine
 10
436.3589132482827
 20
412.2123768010043
 30
0.0
 11
437.8168505031255
 21
410.8432825891469
 31
0.0
  0
LINE
  5
55A
102
{ACAD_REACTORS
330
54F
330
54E
102
}
330
18
100
AcDbEntity
  8
ROGO
 62
     4
100
AcDbLine
 10
446.7305901308057
 20
404.5196150751935
 30
0.0
 11
446.3963659799772
 21
403.7808812208449
 31
0.0
  0
LINE
  5
55B
102
{ACAD_REACTORS
330
54E
102
}
330
18
100
AcDbEntity
  8
ROGO
 62
     4
100
AcDbLine
 10
447.0949524194733
 20
405.3249630945376
 30
0.0
 11
446.9369546231158
 21
404.9757414096522
 31
0.0
  0
LINE
  5
55C
102
{ACAD_REACTORS
330
54E
102
}
330
18
100
AcDbEntity
  8
ROGO
 62
     4
100
AcDbLine
 10
446.4578155641333
 20
405.8327600057509
 30
0.0
 11
445.4425650240407
 21
403.7808812208449
 31
0.0
  0
LINE
  5
55D
330
18
100
AcDbEntity
  8
目盛
100
AcDbLine
 10
439.6061308762482
 20
415.0751842352683
 30
0.0
 11
441.3694866331257
 21
412.6481332521434
 31
0.0
  0
LINE
  5
55E
330
18
100
AcDbEntity
  8
目盛
100
AcDbLine
 10
440.8011753944582
 20
415.8873356511907
 30
0.0
 11
441.8728289844162
 21
414.1986798001867
 31
0.0
  0
LINE
  5
55F
330
18
100
AcDbEntity
  8
目盛
100
AcDbLine
 10
438.4644399147553
 20
414.1895979484877
 30
0.0
 11
439.7392878942526
 21
412.648571462936
 31
0.0
  0
LINE
  5
560
330
18
100
AcDbEntity
  8
目盛
100
AcDbLine
 10
442.0448571746356
 20
416.6228470056533
 30
0.0
 11
443.0083645228391
 21
414.8702336455656
 31
0.0
  0
LINE
  5
561
330
18
100
AcDbEntity
  8
目盛
100
AcDbLine
 10
443.3322679729783
 20
417.2788155713629
 30
0.0
 11
444.1838265561086
 21
415.4691614664308
 31
0.0
  0
LINE
  5
562
330
18
100
AcDbEntity
  8
目盛
100
AcDbLine
 10
444.6583269672276
 20
417.8526525400742
 30
0.0
 11
445.394576072597
 21
415.9930995682977
 31
0.0
  0
LINE
  5
563
330
18
100
AcDbEntity
  8
目盛
100
AcDbLine
 10
446.0178008083514
 20
418.342093239433
 30
0.0
 11
446.9448517914762
 21
415.4889236905475
 31
0.0
  0
HATCH
  5
564
330
18
100
AcDbEntity
  8
ROGO
 62
     4
100
AcDbHatch
 10
0.0
 20
0.0
 30
0.0
210
0.0
220
0.0
230
1.0
  2
SOLID
 70
     1
 71
     1
 91
        1
 92
        5
 93
        8
 72
     1
 10
454.8490753796395
 20
405.3441849535341
 11
455.0926946801801
 21
405.832760005751
 72
     1
 10
455.0926946801801
 20
405.832760005751
 11
453.777658338074
 21
405.832760005751
 72
     4
 94
        3
 73
     0
 74
     0
 95
       26
 96
       22
 40
0.0
 40
0.0
 40
0.0
 40
0.0
 40
0.6806272418834842
 40
1.136254477903046
 40
1.46479881993938
 40
1.710112249467339
 40
2.028296642642858
 40
2.26054023071286
 40
2.679918019583943
 40
3.021285510494669
 40
3.253470102552404
 40
3.481138982867296
 40
3.88839434820105
 40
4.176372499429433
 40
4.331470983165859
 40
4.55178379777286
 40
4.710876624553383
 40
4.941349605730123
 40
5.071777377612479
 40
5.355602839328967
 40
5.485200010717811
 40
5.485200010717811
 40
5.485200010717811
 40
5.485200010717811
 10
453.7776583380739
 20
405.8327600057509
 10
453.6968029473152
 20
405.8279360344859
 10
453.5618211332493
 20
405.8198827879892
 10
453.4136119225375
 20
405.7298472841307
 10
453.3050251781273
 20
405.6775045987883
 10
453.227581243703
 20
405.6063491773687
 10
453.1708145258355
 20
405.5328508248475
 10
453.0992494211381
 20
405.445278076722
 10
453.0408901232321
 20
405.3433031552574
 10
453.0111712806989
 20
405.2309090141942
 10
452.9848466120451
 20
405.1413302316352
 10
452.9653237970722
 20
405.0415063687428
 10
452.9702909538851
 20
404.9336614806205
 10
452.9774041497696
 20
404.8335006696167
 10
453.0091628396936
 20
404.76200084669
 10
453.0453303620837
 20
404.7110978997607
 10
453.0896169979386
 20
404.655033947062
 10
453.138076262256
 20
404.6179029727317
 10
453.1781560293666
 20
404.5506377175911
 10
453.2483143096291
 20
404.5420541859149
 10
453.2929097037049
 20
404.5249703960379
 10
453.3068891921663
 20
404.5196150751935
 72
     1
 10
453.3068891921663
 20
404.5196150751935
 11
454.4379182071708
 21
404.5196150751935
 72
     1
 10
454.4379182071708
 20
404.5196150751935
 11
454.6815349278497
 21
405.0081849535341
 72
     1
 10
454.6815349278497
 20
405.0081849535341
 11
453.8418539069776
 21
405.0081849535341
 72
     4
 94
        3
 73
     0
 74
     0
 95
       16
 96
       12
 40
0.0
 40
0.0
 40
0.0
 40
0.0
 40
0.2055476186376435
 40
0.413215311645417
 40
0.5370797571173976
 40
0.655840267458388
 40
0.7862675211309036
 40
0.8773481874435923
 40
0.9637758349635053
 40
1.139038695775164
 40
1.497869274526411
 40
1.497869274526411
 40
1.497869274526411
 40
1.497869274526411
 10
453.8418539069776
 20
405.0081849535341
 10
453.8165261683059
 20
405.0156367456227
 10
453.7656094537368
 20
405.0306171896219
 10
453.7613481358891
 20
405.1032368787592
 10
453.767153564951
 20
405.1549843497184
 10
453.7914667148282
 20
405.1926595304346
 10
453.8209627826888
 20
405.2200731814702
 10
453.8319454769403
 20
405.2557751756524
 10
453.8642281060645
 20
405.2827346479689
 10
453.9214738574556
 20
405.3280497549446
 10
453.9847777486669
 20
405.3377008602301
 10
454.0273084562884
 20
405.3441849535341
 72
     1
 10
454.0273084562884
 20
405.3441849535341
 11
454.8490753796395
 21
405.3441849535341
 97
        8
330
595
330
565
330
566
330
596
330
598
330
597
330
599
330
59A
 75
     0
 76
     1
 47
0.0514683685270805
 98
        1
 10
454.2375752352808
 20
405.540438549404
450
        0
451
        0
460
0.0
461
0.0
452
        0
462
0.0
453
        0
470

  0
SPLINE
  5
565
102
{ACAD_REACTORS
330
564
102
}
330
18
100
AcDbEntity
  8
ROGO
 62
     4
100
AcDbSpline
210
0.0
220
0.0
230
1.0
 70
     8
 71
     3
 72
    26
 73
    22
 74
    20
 42
0.0000000001
 43
0.0000000001
 44
0.0000000001
 40
0.0
 40
0.0
 40
0.0
 40
0.0
 40
0.2382195346591896
 40
0.397689067266058
 40
0.5126795869787669
 40
0.5985392873135731
 40
0.7099038249249733
 40
0.7911890807494741
 40
0.9379713068543702
 40
1.057449928673087
 40
1.138714535893316
 40
1.218398644003506
 40
1.36093802187036
 40
1.461730374800257
 40
1.516014844108008
 40
1.593124329220501
 40
1.648806818593631
 40
1.729472362005518
 40
1.775122082164342
 40
1.874460993765092
 40
1.919820003751207
 40
1.919820003751207
 40
1.919820003751207
 40
1.919820003751207
 10
453.7776583380739
 20
405.8327600057509
 30
0.0
 10
453.6968029473151
 20
405.8279360344858
 30
0.0
 10
453.5618211332492
 20
405.8198827879891
 30
0.0
 10
453.4136119225374
 20
405.7298472841308
 30
0.0
 10
453.3050251781274
 20
405.6775045987883
 30
0.0
 10
453.2275812437029
 20
405.6063491773687
 30
0.0
 10
453.1708145258355
 20
405.5328508248474
 30
0.0
 10
453.0992494211381
 20
405.445278076722
 30
0.0
 10
453.0408901232322
 20
405.3433031552576
 30
0.0
 10
453.0111712806989
 20
405.2309090141941
 30
0.0
 10
452.9848466120451
 20
405.1413302316352
 30
0.0
 10
452.9653237970721
 20
405.0415063687428
 30
0.0
 10
452.9702909538851
 20
404.9336614806206
 30
0.0
 10
452.9774041497697
 20
404.8335006696167
 30
0.0
 10
453.0091628396936
 20
404.7620008466902
 30
0.0
 10
453.0453303620837
 20
404.7110978997607
 30
0.0
 10
453.0896169979386
 20
404.6550339470619
 30
0.0
 10
453.1380762622561
 20
404.6179029727317
 30
0.0
 10
453.1781560293665
 20
404.5506377175911
 30
0.0
 10
453.2483143096292
 20
404.5420541859149
 30
0.0
 10
453.2929097037048
 20
404.5249703960378
 30
0.0
 10
453.3068891921663
 20
404.5196150751935
 30
0.0
 11
453.7776583380739
 21
405.8327600057509
 31
0.0
 11
453.5422737651201
 21
405.7961178236572
 31
0.0
 11
453.399616261745
 21
405.7248481347238
 31
0.0
 11
453.2997562144592
 21
405.6678324300464
 31
0.0
 11
453.2355606455554
 21
405.6108164930225
 31
0.0
 11
453.1642320989447
 21
405.5252928198332
 31
0.0
 11
453.1143020753017
 21
405.4611501230278
 31
0.0
 11
453.0429731185375
 21
405.3328644970705
 31
0.0
 11
453.0073090503087
 21
405.2188328553693
 31
0.0
 11
452.9859105273409
 21
405.1404361743079
 31
0.0
 11
452.9716445719266
 21
405.0620394932465
 31
0.0
 11
452.9716445719266
 21
404.9195001153797
 31
0.0
 11
452.9859105273409
 21
404.8197224579344
 31
0.0
 11
453.0073090503087
 21
404.7698335130386
 31
0.0
 11
453.0501060962445
 21
404.7056908162331
 31
0.0
 11
453.0857705746267
 21
404.6629288634653
 31
0.0
 11
453.1428331658232
 21
404.6059131587877
 31
0.0
 11
453.1713646664983
 21
404.5702781981479
 31
0.0
 11
453.2640921462305
 21
404.5346434698544
 31
0.0
 11
453.3068891921663
 21
404.5196150751935
 31
0.0
  0
LINE
  5
566
102
{ACAD_REACTORS
330
564
102
}
330
18
100
AcDbEntity
  8
ROGO
 62
     4
100
AcDbLine
 10
453.3068891921662
 20
404.5196150751935
 30
0.0
 11
454.4379182071708
 21
404.5196150751935
 31
0.0
  0
HATCH
  5
567
330
18
100
AcDbEntity
  8
ROGO
 62
     4
100
AcDbHatch
 10
0.0
 20
0.0
 30
0.0
210
0.0
220
0.0
230
1.0
  2
SOLID
 70
     1
 71
     1
 91
        2
 92
        7
 72
     0
 73
     1
 93
        8
 10
452.3639187667772
 20
405.832760005751
 10
451.3135152840057
 20
405.8327600057508
 10
450.3665809539066
 20
404.5196150751934
 10
451.0938282055982
 20
404.5196150751935
 10
451.2741186431791
 20
404.7696297452842
 10
452.1039956319634
 20
404.7696297452842
 10
452.2150620550323
 20
404.5196150751935
 10
452.9472697771605
 20
404.5196150751935
 97
        8
330
56E
330
574
330
56F
330
570
330
572
330
568
330
56D
330
56A
 92
       22
 72
     0
 73
     1
 93
        3
 10
451.9868505263628
 20
405.0333277569803
 10
451.4642764043243
 20
405.0333277569803
 10
451.7876431406374
 20
405.4817510287993
 97
        3
330
571
330
573
330
569
 75
     0
 76
     1
 47
0.0128389261915577
 98
        2
 10
452.2816638742814
 20
405.5177180889419
 10
452.2816638742814
 20
405.5177180889419
450
        0
451
        0
460
0.0
461
0.0
452
        0
462
0.0
453
        0
470

  0
LINE
  5
568
102
{ACAD_REACTORS
330
567
102
}
330
18
100
AcDbEntity
  8
ROGO
 62
     4
100
AcDbLine
 10
452.1039956319635
 20
404.7696297452842
 30
0.0
 11
452.2150620550323
 21
404.5196150751935
 31
0.0
  0
LINE
  5
569
102
{ACAD_REACTORS
330
567
102
}
330
18
100
AcDbEntity
  8
ROGO
 62
     4
100
AcDbLine
 10
451.7876431406374
 20
405.4817510287992
 30
0.0
 11
451.9868505263628
 21
405.0333277569803
 31
0.0
  0
LINE
  5
56A
102
{ACAD_REACTORS
330
567
102
}
330
18
100
AcDbEntity
  8
ROGO
 62
     4
100
AcDbLine
 10
452.3639187667772
 20
405.8327600057509
 30
0.0
 11
452.9472697771605
 21
404.5196150751935
 31
0.0
  0
HATCH
  5
56B
330
18
100
AcDbEntity
  8
ROGO
 62
     4
100
AcDbHatch
 10
0.0
 20
0.0
 30
0.0
210
0.0
220
0.0
230
1.0
  2
SOLID
 70
     1
 71
     1
 91
        1
 92
        1
 93
       12
 72
     1
 10
449.0229378703241
 20
405.8327600057509
 11
450.799021018808
 21
405.832760005751
 72
     1
 10
450.799021018808
 20
405.8327600057509
 11
450.6501868230735
 21
405.5319576750589
 72
     1
 10
450.6501868230735
 20
405.5319576750589
 11
449.7167224008555
 21
405.5319576750589
 72
     1
 10
449.7167224008555
 20
405.5319576750589
 11
449.6003525547791
 21
405.2967676318747
 72
     1
 10
449.6003525547791
 20
405.2967676318747
 11
450.5338169769969
 21
405.2967676318747
 72
     1
 10
450.5338169769969
 20
405.2967676318747
 11
450.4144906013731
 21
405.0556022751934
 72
     1
 10
450.4144906013731
 20
405.0556022751934
 11
449.4810261791552
 21
405.0556022751934
 72
     1
 10
449.4810261791552
 20
405.0556022751934
 11
449.3646514065388
 21
404.8204022751935
 72
     1
 10
449.3646514065388
 20
404.8204022751935
 11
450.2981158287568
 21
404.8204022751935
 72
     1
 10
450.2981158287568
 20
404.8204022751935
 11
450.1492891195479
 21
404.5196150751935
 72
     1
 10
450.1492891195479
 20
404.5196150751935
 11
448.373205971064
 21
404.5196150751935
 72
     1
 10
448.373205971064
 20
404.5196150751935
 11
449.0229378703241
 21
405.8327600057509
 97
       12
330
56C
330
57E
330
57B
330
57C
330
57A
330
577
330
578
330
575
330
579
330
576
330
57D
330
57F
 75
     0
 76
     1
 98
        1
 10
376.3728088916152
 20
315.0346639576397
450
        0
451
        0
460
0.0
461
0.0
452
        0
462
0.0
453
        0
470

  0
LINE
  5
56C
102
{ACAD_REACTORS
330
56B
102
}
330
18
100
AcDbEntity
  8
ROGO
 62
     4
100
AcDbLine
 10
449.0229378703241
 20
405.8327600057509
 30
0.0
 11
450.799021018808
 21
405.832760005751
 31
0.0
  0
LINE
  5
56D
102
{ACAD_REACTORS
330
567
102
}
330
18
100
AcDbEntity
  8
ROGO
 62
     4
100
AcDbLine
 10
452.9472697771605
 20
404.5196150751935
 30
0.0
 11
452.2150620550323
 21
404.5196150751935
 31
0.0
  0
LINE
  5
56E
102
{ACAD_REACTORS
330
567
102
}
330
18
100
AcDbEntity
  8
ROGO
 62
     4
100
AcDbLine
 10
451.3135152840057
 20
405.8327600057509
 30
0.0
 11
452.3639187667772
 21
405.832760005751
 31
0.0
  0
LINE
  5
56F
102
{ACAD_REACTORS
330
567
102
}
330
18
100
AcDbEntity
  8
ROGO
 62
     4
100
AcDbLine
 10
450.3665809539066
 20
404.5196150751935
 30
0.0
 11
451.0938282055981
 21
404.5196150751935
 31
0.0
  0
LINE
  5
570
102
{ACAD_REACTORS
330
567
102
}
330
18
100
AcDbEntity
  8
ROGO
 62
     4
100
AcDbLine
 10
451.2741186431791
 20
404.7696297452842
 30
0.0
 11
451.0938282055982
 21
404.5196150751935
 31
0.0
  0
LINE
  5
571
102
{ACAD_REACTORS
330
567
102
}
330
18
100
AcDbEntity
  8
ROGO
 62
     4
100
AcDbLine
 10
451.4642764043242
 20
405.0333277569803
 30
0.0
 11
451.9868505263628
 21
405.0333277569803
 31
0.0
  0
LINE
  5
572
102
{ACAD_REACTORS
330
567
102
}
330
18
100
AcDbEntity
  8
ROGO
 62
     4
100
AcDbLine
 10
451.2741186431791
 20
404.7696297452842
 30
0.0
 11
452.1039956319635
 21
404.7696297452842
 31
0.0
  0
LINE
  5
573
102
{ACAD_REACTORS
330
567
102
}
330
18
100
AcDbEntity
  8
ROGO
 62
     4
100
AcDbLine
 10
451.7876431406374
 20
405.4817510287992
 30
0.0
 11
451.4642764043242
 21
405.0333277569803
 31
0.0
  0
LINE
  5
574
102
{ACAD_REACTORS
330
567
102
}
330
18
100
AcDbEntity
  8
ROGO
 62
     4
100
AcDbLine
 10
451.3135152840057
 20
405.8327600057509
 30
0.0
 11
450.3665809539066
 21
404.5196150751935
 31
0.0
  0
LINE
  5
575
102
{ACAD_REACTORS
330
56B
102
}
330
18
100
AcDbEntity
  8
ROGO
 62
     4
100
AcDbLine
 10
449.4810261791552
 20
405.0556022751934
 30
0.0
 11
449.3646514065388
 21
404.8204022751935
 31
0.0
  0
LINE
  5
576
102
{ACAD_REACTORS
330
56B
102
}
330
18
100
AcDbEntity
  8
ROGO
 62
     4
100
AcDbLine
 10
450.2981158287568
 20
404.8204022751935
 30
0.0
 11
450.1492891195479
 21
404.5196150751935
 31
0.0
  0
LINE
  5
577
102
{ACAD_REACTORS
330
56B
102
}
330
18
100
AcDbEntity
  8
ROGO
 62
     4
100
AcDbLine
 10
450.5338169769969
 20
405.2967676318747
 30
0.0
 11
450.4144906013731
 21
405.0556022751934
 31
0.0
  0
LINE
  5
578
102
{ACAD_REACTORS
330
56B
102
}
330
18
100
AcDbEntity
  8
ROGO
 62
     4
100
AcDbLine
 10
449.4810261791552
 20
405.0556022751934
 30
0.0
 11
450.4144906013731
 21
405.0556022751934
 31
0.0
  0
LINE
  5
579
102
{ACAD_REACTORS
330
56B
102
}
330
18
100
AcDbEntity
  8
ROGO
 62
     4
100
AcDbLine
 10
449.3646514065388
 20
404.8204022751935
 30
0.0
 11
450.2981158287568
 21
404.8204022751935
 31
0.0
  0
LINE
  5
57A
102
{ACAD_REACTORS
330
56B
102
}
330
18
100
AcDbEntity
  8
ROGO
 62
     4
100
AcDbLine
 10
449.6003525547791
 20
405.2967676318747
 30
0.0
 11
450.5338169769969
 21
405.2967676318747
 31
0.0
  0
LINE
  5
57B
102
{ACAD_REACTORS
330
56B
102
}
330
18
100
AcDbEntity
  8
ROGO
 62
     4
100
AcDbLine
 10
449.7167224008555
 20
405.5319576750589
 30
0.0
 11
450.6501868230735
 21
405.5319576750589
 31
0.0
  0
LINE
  5
57C
102
{ACAD_REACTORS
330
56B
102
}
330
18
100
AcDbEntity
  8
ROGO
 62
     4
100
AcDbLine
 10
449.7167224008555
 20
405.5319576750589
 30
0.0
 11
449.6003525547791
 21
405.2967676318747
 31
0.0
  0
LINE
  5
57D
102
{ACAD_REACTORS
330
56B
102
}
330
18
100
AcDbEntity
  8
ROGO
 62
     4
100
AcDbLine
 10
448.373205971064
 20
404.5196150751935
 30
0.0
 11
450.1492891195479
 21
404.5196150751935
 31
0.0
  0
LINE
  5
57E
102
{ACAD_REACTORS
330
56B
102
}
330
18
100
AcDbEntity
  8
ROGO
 62
     4
100
AcDbLine
 10
450.799021018808
 20
405.8327600057509
 30
0.0
 11
450.6501868230735
 21
405.5319576750589
 31
0.0
  0
LINE
  5
57F
102
{ACAD_REACTORS
330
56B
102
}
330
18
100
AcDbEntity
  8
ROGO
 62
     4
100
AcDbLine
 10
449.0229378703241
 20
405.8327600057509
 30
0.0
 11
448.373205971064
 21
404.5196150751935
 31
0.0
  0
SPLINE
  5
580
102
{ACAD_REACTORS
330
54E
102
}
330
18
100
AcDbEntity
  8
ROGO
 62
     4
100
AcDbSpline
210
0.0
220
0.0
230
1.0
 70
     8
 71
     3
 72
    15
 73
    11
 74
     9
 42
0.0000000001
 43
0.0000000001
 44
0.0000000001
 40
0.0
 40
0.0
 40
0.0
 40
0.0
 40
0.1539705029175028
 40
0.2241725832587281
 40
0.3038566179396687
 40
0.3581410872474193
 40
0.443992538467216
 40
0.4954152125469665
 40
0.5836396705646186
 40
0.6130478420065743
 40
0.6130478420065743
 40
0.6130478420065743
 40
0.6130478420065743
 10
447.5009394185707
 20
405.3249630945376
 30
0.0
 10
447.5587677536299
 20
405.32522797918
 30
0.0
 10
447.6429626286881
 20
405.3256136366498
 30
0.0
 10
447.6890033850524
 20
405.2214643327202
 30
0.0
 10
447.6683657228191
 20
405.1544084280829
 30
0.0
 10
447.6424224993948
 20
405.0855629138348
 30
0.0
 10
447.5965749478527
 20
405.0387813485657
 30
0.0
 10
447.5350408182574
 20
404.9937228149287
 30
0.0
 10
447.4768881252017
 20
404.9882682776691
 30
0.0
 10
447.4390663262291
 20
404.978246784215
 30
0.0
 10
447.4296108719598
 20
404.9757414096522
 30
0.0
 11
447.5009394185707
 21
405.3249630945376
 31
0.0
 11
447.6507294894995
 21
405.2893281338977
 31
0.0
 11
447.6792609901744
 21
405.2251854370923
 31
0.0
 11
447.6649954449136
 21
405.1467887560309
 31
0.0
 11
447.6435969219457
 21
405.0968998111351
 31
0.0
 11
447.5865339205957
 21
405.0327571143297
 31
0.0
 11
447.5437368746598
 21
405.0042491458177
 31
0.0
 11
447.4581423726348
 21
404.9828684017802
 31
0.0
 11
447.4296108719598
 21
404.9757414096522
 31
0.0
  0
SPLINE
  5
581
102
{ACAD_REACTORS
330
54E
102
}
330
18
100
AcDbEntity
  8
ROGO
 62
     4
100
AcDbSpline
210
0.0
220
0.0
230
1.0
 70
     8
 71
     3
 72
    18
 73
    14
 74
     0
 42
0.0000000001
 43
0.0000000001
 40
0.1087402787915014
 40
0.1087402787915014
 40
0.1087402787915014
 40
0.1087402787915014
 40
0.5992371417938475
 40
1.083176791562496
 40
1.448211145705696
 40
1.714037220764907
 40
2.164002567013297
 40
2.740236056362883
 40
3.395137510199602
 40
4.071816045172726
 40
4.784906178399433
 40
5.506895915094292
 40
6.060470601257719
 40
6.060470601257719
 40
6.060470601257719
 40
6.060470601257719
 10
448.0703138771185
 20
405.832760005751
 30
0.0
 10
448.1219734147546
 20
405.8138276509033
 30
0.0
 10
448.2235613626051
 20
405.7738017595879
 30
0.0
 10
448.3475465981523
 20
405.6824494497966
 30
0.0
 10
448.415162792077
 20
405.5769906726238
 30
0.0
 10
448.48020200062
 20
405.473079930321
 30
0.0
 10
448.4893041191309
 20
405.3240023961645
 30
0.0
 10
448.4743942340839
 20
405.1355322605928
 30
0.0
 10
448.3781373632077
 20
404.9388831230722
 30
0.0
 10
448.2236394241263
 20
404.7668860922703
 30
0.0
 10
448.0318194510333
 20
404.6292219119285
 30
0.0
 10
447.8295386729261
 20
404.5211590754332
 30
0.0
 10
447.6849483158725
 20
404.5200823548246
 30
0.0
 10
447.6221983989778
 20
404.5196150751935
 30
0.0
  0
HATCH
  5
582
330
18
100
AcDbEntity
  8
ROGO
 62
     4
100
AcDbHatch
 10
0.0
 20
0.0
 30
0.0
210
0.0
220
0.0
230
1.0
  2
SOLID
 70
     1
 71
     1
 91
        2
 92
        5
 93
        6
 72
     4
 94
        3
 73
     0
 74
     0
 95
       38
 96
       34
 40
0.0
 40
0.0
 40
0.0
 40
0.0
 40
0.5164800423611548
 40
0.6786836885910848
 40
0.88710434560167
 40
1.060788566413433
 40
1.20733358396365
 40
1.401978810630435
 40
1.501434849986208
 40
1.613448456300606
 40
1.778535433376704
 40
1.965543155621333
 40
2.086853233586049
 40
2.218636674910137
 40
2.365128983511507
 40
2.587438484857767
 40
2.798655694361229
 40
2.896849520951487
 40
3.008826444388521
 40
3.141482119684725
 40
3.235915913773394
 40
3.315078629400928
 40
3.428105103696636
 40
3.552301837626102
 40
3.676497880048442
 40
3.785169590044758
 40
4.034047122621728
 40
4.132240949211986
 40
4.328628719031952
 40
4.502226771166864
 40
4.834567227246322
 40
5.244640938625969
 40
5.836847051382449
 40
5.836847051382449
 40
5.836847051382449
 40
5.836847051382449
 10
455.8219200002229
 20
405.8382372249233
 10
455.7616646025971
 20
405.8339806058224
 10
455.682485636976
 20
405.8283871700352
 10
455.5819468644665
 20
405.8008425438303
 10
455.5271421100256
 20
405.7680280243724
 10
455.4701068087083
 20
405.7439077796719
 10
455.4214789023233
 20
405.7081904804226
 10
455.3722928016274
 20
405.6897857002292
 10
455.3378511882516
 20
405.6565985918566
 10
455.2979878301187
 20
405.6363264736816
 10
455.2662439302833
 20
405.5909515796672
 10
455.2307632537516
 20
405.5485276980088
 10
455.1896012053445
 20
405.5175601564313
 10
455.1558189597852
 20
405.4850351774689
 10
455.1248284468607
 20
405.434839362285
 10
455.1064868742896
 20
405.3681439875994
 10
455.0547850598803
 20
405.3260349333143
 10
455.0470003853972
 20
405.2754072856381
 10
455.0184025352016
 20
405.2455378254475
 10
455.0059671897456
 20
405.2069806434625
 10
455.0012312116217
 20
405.1716554541417
 10
454.9955469085793
 20
405.1386641727135
 10
454.9806778483469
 20
405.1039588019755
 10
454.9855311609083
 20
405.0610885230407
 10
454.9841485978661
 20
405.0195758090141
 10
454.9849622378393
 20
404.9635323524027
 10
454.9820256984933
 20
404.9089671554832
 10
455.0054434490084
 20
404.8495872793147
 10
455.0193012966111
 20
404.7966583346482
 10
455.0572532665547
 20
404.7233717923967
 10
455.1227196193727
 20
404.6388149686879
 10
455.2472093653902
 20
404.536179005395
 10
455.3669098959495
 20
404.5257670646777
 10
455.4376360386798
 20
404.5196150751935
 72
     1
 10
455.4376360386799
 20
404.5196150751935
 11
456.1880898618659
 21
404.5196150751935
 72
     4
 94
        3
 73
     0
 74
     0
 95
       11
 96
        7
 40
0.1647869275458135
 40
0.1647869275458135
 40
0.1647869275458135
 40
0.1647869275458135
 40
0.2545010798212315
 40
0.5111620267764023
 40
0.7602998271033902
 40
0.8850764140209603
 40
0.8850764140209603
 40
0.8850764140209603
 40
0.8850764140209603
 10
456.1880898618651
 20
404.5196150751935
 10
456.198561762185
 20
404.5194132595504
 10
456.2389924570136
 20
404.5186340746437
 10
456.3080889991099
 20
404.5285606052283
 10
456.3807877662481
 20
404.5380729996017
 10
456.4241287776822
 20
404.5450005893855
 10
456.4381073204831
 20
404.5488915221021
 72
     4
 94
        3
 73
     0
 74
     0
 95
        9
 96
        5
 40
0.0
 40
0.0
 40
0.0
 40
0.0
 40
0.3245123838720408
 40
0.7608395406220814
 40
0.7608395406220814
 40
0.7608395406220814
 40
0.7608395406220814
 10
456.4381073204831
 20
404.5488915221021
 10
456.4745922888011
 20
404.5600538618253
 10
456.5601335744785
 20
404.5862246640792
 10
456.6308102717153
 20
404.6415369818537
 10
456.6713420273712
 20
404.6732575550616
 72
     4
 94
        3
 73
     0
 74
     0
 95
       25
 96
       21
 40
0.0
 40
0.0
 40
0.0
 40
0.0
 40
0.165525918914855
 40
0.3412380755365305
 40
0.5940540902285263
 40
0.7697671103696209
 40
0.9377330196075423
 40
1.11479469302833
 40
1.274661249598185
 40
1.574522170874768
 40
1.815540668866877
 40
2.15849091873445
 40
2.536227739636605
 40
2.738070817316548
 40
2.925680654369045
 40
3.162706124480894
 40
3.395643218188267
 40
3.648478129958861
 40
3.928509979727306
 40
4.337226830236035
 40
4.337226830236035
 40
4.337226830236035
 40
4.337226830236035
 10
456.6713420273712
 20
404.6732575550616
 10
456.6862346847649
 20
404.6855642990072
 10
456.7144819840688
 20
404.7148344222289
 10
456.7645832207086
 20
404.7622747705676
 10
456.8087333805151
 20
404.8175465410215
 10
456.8631957812324
 20
404.862342373895
 10
456.8915487367714
 20
404.9171086002425
 10
456.9324172840755
 20
404.9601810707415
 10
456.9666993029929
 20
405.0267022527322
 10
456.9957859016929
 20
405.1031140178763
 10
457.0235159571904
 20
405.2027153015798
 10
457.034142400527
 20
405.3150803546254
 10
457.0184139428798
 20
405.4237934870563
 10
456.980417965205
 20
405.5050529825932
 10
456.9524838044358
 20
405.5727743972593
 10
456.9100902157934
 20
405.6369185009365
 10
456.8617248609328
 20
405.7066823072706
 10
456.7935866401734
 20
405.7643882695856
 10
456.7045369815523
 20
405.8339909589611
 10
456.6215938738338
 20
405.8366558354672
 10
456.5723738234082
 20
405.8382372249233
 72
     1
 10
456.5723738234082
 20
405.8382372249233
 11
455.8219200002227
 21
405.8382372249233
 97
        6
330
588
330
587
330
589
330
586
330
585
330
584
 92
       20
 93
        1
 72
     3
 10
455.9943783948536
 20
405.1605412327043
 11
0.1782847090673272
 21
0.1567790921840611
 40
0.6788083417438792
 50
0.0
 51
360.0
 73
     1
 97
        1
330
583
 75
     0
 76
     1
 47
0.088756267210375
 98
        2
 10
456.0468096706222
 20
405.4740285030282
 10
456.0468096706222
 20
405.4740285030282
450
        0
451
        0
460
0.0
461
0.0
452
        0
462
0.0
453
        0
470

  0
ELLIPSE
  5
583
102
{ACAD_REACTORS
330
582
102
}
330
18
100
AcDbEntity
  8
ROGO
 62
     4
100
AcDbEllipse
 10
455.9943783948536
 20
405.1605412327043
 30
0.0
 11
0.1782847090673272
 21
0.1567790921840611
 31
0.0
210
0.0
220
0.0
230
0.9999999999999998
 40
0.6788083417438792
 41
0.0
 42
6.283185307179586
  0
SPLINE
  5
584
102
{ACAD_REACTORS
330
582
102
}
330
18
100
AcDbEntity
  8
ROGO
 62
     4
100
AcDbSpline
210
0.0
220
0.0
230
1.0
 70
     8
 71
     3
 72
     9
 73
     5
 74
     3
 42
0.0000000001
 43
0.0000000001
 44
0.0000000001
 40
0.0
 40
0.0
 40
0.0
 40
0.0
 40
0.1135793343552172
 40
0.2662938392177403
 40
0.2662938392177403
 40
0.2662938392177403
 40
0.2662938392177403
 10
456.4381073204831
 20
404.5488915221021
 30
0.0
 10
456.4745922888011
 20
404.5600538618253
 30
0.0
 10
456.5601335744785
 20
404.5862246640792
 30
0.0
 10
456.6308102717153
 20
404.6415369818537
 30
0.0
 10
456.6713420273712
 20
404.6732575550616
 30
0.0
 11
456.4381073204831
 21
404.5488915221021
 31
0.0
 11
456.5448580847077
 21
404.5876799163718
 31
0.0
 11
456.6713420273712
 21
404.6732575550616
 31
0.0
  0
SPLINE
  5
585
102
{ACAD_REACTORS
330
582
102
}
330
18
100
AcDbEntity
  8
ROGO
 62
     4
100
AcDbSpline
210
0.0
220
0.0
230
1.0
 70
     8
 71
     3
 72
    11
 73
     7
 74
     0
 42
0.0000000001
 43
0.0000000001
 40
0.1647869275458134
 40
0.1647869275458134
 40
0.1647869275458134
 40
0.1647869275458134
 40
0.2895635144633836
 40
0.5387013147903714
 40
0.7953622617455423
 40
0.8850764140209602
 40
0.8850764140209602
 40
0.8850764140209602
 40
0.8850764140209602
 10
456.4381073204831
 20
404.5488915221021
 30
0.0
 10
456.4241287776822
 20
404.5450005893855
 30
0.0
 10
456.3807877662481
 20
404.5380729996017
 30
0.0
 10
456.3080889991099
 20
404.5285606052283
 30
0.0
 10
456.2389924570136
 20
404.5186340746437
 30
0.0
 10
456.198561762185
 20
404.5194132595504
 30
0.0
 10
456.1880898618651
 20
404.5196150751935
 30
0.0
  0
LINE
  5
586
102
{ACAD_REACTORS
330
582
102
}
330
18
100
AcDbEntity
  8
ROGO
 62
     4
100
AcDbLine
 10
455.4376360386798
 20
404.5196150751935
 30
0.0
 11
456.1880898618651
 21
404.5196150751935
 31
0.0
  0
LINE
  5
587
102
{ACAD_REACTORS
330
582
102
}
330
18
100
AcDbEntity
  8
ROGO
 62
     4
100
AcDbLine
 10
455.8219200002229
 20
405.8382372249233
 30
0.0
 11
456.5723738234082
 21
405.8382372249233
 31
0.0
  0
SPLINE
  5
588
102
{ACAD_REACTORS
330
582
102
}
330
18
100
AcDbEntity
  8
ROGO
 62
     4
100
AcDbSpline
210
0.0
220
0.0
230
1.0
 70
     8
 71
     3
 72
    25
 73
    21
 74
     0
 42
0.0000000001
 43
0.0000000001
 40
0.0
 40
0.0
 40
0.0
 40
0.0
 40
0.4087168505087288
 40
0.6887487002771746
 40
0.9415836120477687
 40
1.17452070575514
 40
1.41154617586699
 40
1.599156012919487
 40
1.80099909059943
 40
2.178735911501585
 40
2.521686161369157
 40
2.762704659361267
 40
3.06256558063785
 40
3.222432137207705
 40
3.399493810628493
 40
3.567459719866414
 40
3.743172740007509
 40
3.995988754699505
 40
4.17170091132118
 40
4.337226830236035
 40
4.337226830236035
 40
4.337226830236035
 40
4.337226830236035
 10
456.5723738234082
 20
405.8382372249233
 30
0.0
 10
456.6215938738338
 20
405.8366558354672
 30
0.0
 10
456.7045369815523
 20
405.8339909589611
 30
0.0
 10
456.7935866401734
 20
405.7643882695856
 30
0.0
 10
456.8617248609328
 20
405.7066823072706
 30
0.0
 10
456.9100902157934
 20
405.6369185009365
 30
0.0
 10
456.9524838044358
 20
405.5727743972593
 30
0.0
 10
456.980417965205
 20
405.5050529825932
 30
0.0
 10
457.0184139428798
 20
405.4237934870563
 30
0.0
 10
457.034142400527
 20
405.3150803546254
 30
0.0
 10
457.0235159571904
 20
405.2027153015798
 30
0.0
 10
456.9957859016929
 20
405.1031140178763
 30
0.0
 10
456.9666993029929
 20
405.0267022527322
 30
0.0
 10
456.9324172840755
 20
404.9601810707415
 30
0.0
 10
456.8915487367714
 20
404.9171086002425
 30
0.0
 10
456.8631957812324
 20
404.862342373895
 30
0.0
 10
456.8087333805151
 20
404.8175465410215
 30
0.0
 10
456.7645832207086
 20
404.7622747705676
 30
0.0
 10
456.7144819840688
 20
404.7148344222289
 30
0.0
 10
456.6862346847649
 20
404.6855642990072
 30
0.0
 10
456.6713420273712
 20
404.6732575550616
 30
0.0
  0
SPLINE
  5
589
102
{ACAD_REACTORS
330
582
102
}
330
18
100
AcDbEntity
  8
ROGO
 62
     4
100
AcDbSpline
210
0.0
220
0.0
230
1.0
 70
     8
 71
     3
 72
    38
 73
    34
 74
    32
 42
0.0000000001
 43
0.0000000001
 44
0.0000000001
 40
0.0
 40
0.0
 40
0.0
 40
0.0
 40
0.1807680148264315
 40
0.2375392910068956
 40
0.3104865209606157
 40
0.3712759982447458
 40
0.422566754387306
 40
0.490692583720658
 40
0.5255021974951946
 40
0.5647069597052371
 40
0.622487401681883
 40
0.6879401044674746
 40
0.7303986317551266
 40
0.7765228362185534
 40
0.8277951442290254
 40
0.9056034697002209
 40
0.9795294930264187
 40
1.013897332332996
 40
1.053089255536027
 40
1.099518741889647
 40
1.132570569820733
 40
1.160277520290299
 40
1.19983678629386
 40
1.243305643169139
 40
1.286774258016964
 40
1.324809356515675
 40
1.411916492917645
 40
1.446284332224223
 40
1.5150200516612
 40
1.575779369908399
 40
1.69209852953623
 40
1.835624328519098
 40
2.042896467983898
 40
2.042896467983898
 40
2.042896467983898
 40
2.042896467983898
 10
455.8219200002229
 20
405.8382372249233
 30
0.0
 10
455.7616646025971
 20
405.8339806058223
 30
0.0
 10
455.682485636976
 20
405.8283871700351
 30
0.0
 10
455.5819468644666
 20
405.8008425438305
 30
0.0
 10
455.5271421100254
 20
405.7680280243723
 30
0.0
 10
455.4701068087084
 20
405.7439077796717
 30
0.0
 10
455.4214789023231
 20
405.7081904804226
 30
0.0
 10
455.3722928016274
 20
405.6897857002292
 30
0.0
 10
455.3378511882517
 20
405.6565985918568
 30
0.0
 10
455.2979878301187
 20
405.6363264736815
 30
0.0
 10
455.2662439302834
 20
405.5909515796671
 30
0.0
 10
455.2307632537517
 20
405.5485276980087
 30
0.0
 10
455.1896012053445
 20
405.5175601564314
 30
0.0
 10
455.1558189597852
 20
405.485035177469
 30
0.0
 10
455.1248284468607
 20
405.4348393622849
 30
0.0
 10
455.1064868742896
 20
405.3681439875996
 30
0.0
 10
455.0547850598804
 20
405.3260349333143
 30
0.0
 10
455.0470003853972
 20
405.2754072856382
 30
0.0
 10
455.0184025352015
 20
405.2455378254474
 30
0.0
 10
455.0059671897457
 20
405.2069806434626
 30
0.0
 10
455.0012312116217
 20
405.1716554541417
 30
0.0
 10
454.9955469085793
 20
405.1386641727135
 30
0.0
 10
454.9806778483469
 20
405.1039588019756
 30
0.0
 10
454.9855311609081
 20
405.0610885230407
 30
0.0
 10
454.9841485978661
 20
405.0195758090141
 30
0.0
 10
454.9849622378392
 20
404.9635323524027
 30
0.0
 10
454.9820256984935
 20
404.9089671554833
 30
0.0
 10
455.0054434490083
 20
404.8495872793147
 30
0.0
 10
455.0193012966112
 20
404.7966583346482
 30
0.0
 10
455.0572532665548
 20
404.7233717923968
 30
0.0
 10
455.1227196193727
 20
404.6388149686879
 30
0.0
 10
455.2472093653902
 20
404.536179005395
 30
0.0
 10
455.3669098959495
 20
404.5257670646777
 30
0.0
 10
455.4376360386798
 20
404.5196150751935
 30
0.0
 11
455.8219200002229
 21
405.8382372249233
 31
0.0
 11
455.6424633632756
 21
405.8165026754719
 31
0.0
 11
455.5880825771474
 21
405.8002021264246
 31
0.0
 11
455.5228258901395
 21
405.7676005442749
 31
0.0
 11
455.4684451040113
 21
405.7404327205019
 31
0.0
 11
455.4249406460059
 21
405.7132646547014
 31
0.0
 11
455.3651219094379
 21
405.6806633145793
 31
0.0
 11
455.3379313027522
 21
405.6589290071554
 31
0.0
 11
455.3053027456268
 21
405.637194457704
 31
0.0
 11
455.2672362380613
 21
405.5937258428561
 31
0.0
 11
455.223731780056
 21
405.5448237116592
 31
0.0
 11
455.1911032229305
 21
405.5176556458587
 31
0.0
 11
455.158475093048
 21
405.4850543057366
 31
0.0
 11
455.1312844863624
 21
405.4415856908887
 31
0.0
 11
455.0986563564801
 21
405.3709490102404
 31
0.0
 11
455.0551514712316
 21
405.3111796043178
 31
0.0
 11
455.0442755703518
 21
405.2785780221682
 31
0.0
 11
455.0225233413492
 21
405.245976682046
 31
0.0
 11
455.0062090627864
 21
405.2025078251707
 31
0.0
 11
455.0007706851034
 21
405.1699064850486
 31
0.0
 11
454.9953327346635
 21
405.1427384192481
 31
0.0
 11
454.9844568337838
 21
405.1047035627767
 31
0.0
 11
454.9844568337838
 21
405.0612347059015
 31
0.0
 11
454.9844568337838
 21
405.0177660910537
 31
0.0
 11
454.9844568337838
 21
404.9797309925549
 31
0.0
 11
454.9898947842237
 21
404.8927937628593
 31
0.0
 11
455.0007706851034
 21
404.8601921807096
 31
0.0
 11
455.0225233413492
 21
404.7949892584379
 31
0.0
 11
455.0497135207917
 21
404.7406533688644
 31
0.0
 11
455.1204085854826
 21
404.6482826228196
 31
0.0
 11
455.234608108179
 21
404.5613451510964
 31
0.0
 11
455.4376360386798
 21
404.5196150751935
 31
0.0
  0
HATCH
  5
58A
330
18
100
AcDbEntity
  8
ROGO
 62
     4
100
AcDbHatch
 10
0.0
 20
0.0
 30
0.0
210
0.0
220
0.0
230
1.0
  2
SOLID
 70
     1
 71
     1
 91
        1
 92
        5
 93
        8
 72
     4
 94
        3
 73
     0
 74
     0
 95
       26
 96
       22
 40
0.0
 40
0.0
 40
0.0
 40
0.0
 40
0.680627241883428
 40
1.136254477903041
 40
1.464798819939375
 40
1.710112249467291
 40
2.028296642642898
 40
2.260540230712845
 40
2.679918019584077
 40
3.021285510494803
 40
3.253470102552373
 40
3.481138982867256
 40
3.888394348201009
 40
4.176372499429384
 40
4.331470983165915
 40
4.5517837977729
 40
4.710876624553423
 40
4.941349605730163
 40
5.071777377612483
 40
5.355602839329045
 40
5.485200010717817
 40
5.485200010717817
 40
5.485200010717817
 40
5.485200010717817
 10
458.0087281090016
 20
405.8327600057509
 10
457.9278727182431
 20
405.8279360344858
 10
457.7928909041771
 20
405.8198827879892
 10
457.6446816934653
 20
405.7298472841307
 10
457.5360949490551
 20
405.6775045987883
 10
457.458651014631
 20
405.6063491773688
 10
457.4018842967634
 20
405.5328508248474
 10
457.3303191920659
 20
405.445278076722
 10
457.2719598941599
 20
405.3433031552574
 10
457.2422410516268
 20
405.2309090141941
 10
457.215916382973
 20
405.1413302316352
 10
457.1963935680001
 20
405.0415063687428
 10
457.201360724813
 20
404.9336614806205
 10
457.2084739206975
 20
404.8335006696167
 10
457.2402326106215
 20
404.76200084669
 10
457.2764001330115
 20
404.7110978997607
 10
457.3206867688664
 20
404.655033947062
 10
457.3691460331839
 20
404.6179029727317
 10
457.4092258002944
 20
404.550637717591
 10
457.4793840805568
 20
404.5420541859149
 10
457.5239794746327
 20
404.5249703960379
 10
457.5379589630942
 20
404.5196150751935
 72
     1
 10
457.5379589630943
 20
404.5196150751935
 11
458.6689879780987
 21
404.5196150751935
 72
     1
 10
458.6689879780987
 20
404.5196150751935
 11
458.9126046987776
 21
405.0081849535341
 72
     1
 10
458.9126046987776
 20
405.0081849535341
 11
458.0729236779055
 21
405.0081849535342
 72
     4
 94
        3
 73
     0
 74
     0
 95
       16
 96
       12
 40
0.0
 40
0.0
 40
0.0
 40
0.0
 40
0.2055476186376692
 40
0.4132153116455541
 40
0.5370797571174224
 40
0.6558402674583835
 40
0.7862675211309879
 40
0.877348187443702
 40
0.9637758349634946
 40
1.139038695775252
 40
1.497869274526499
 40
1.497869274526499
 40
1.497869274526499
 40
1.497869274526499
 10
458.0729236779054
 20
405.008184953534
 10
458.0475959392337
 20
405.0156367456226
 10
457.9966792246647
 20
405.0306171896219
 10
457.992417906817
 20
405.1032368787592
 10
457.9982233358789
 20
405.1549843497183
 10
458.022536485756
 20
405.1926595304345
 10
458.0520325536167
 20
405.2200731814702
 10
458.0630152478683
 20
405.2557751756524
 10
458.0952978769924
 20
405.2827346479688
 10
458.1525436283834
 20
405.3280497549446
 10
458.2158475195948
 20
405.3377008602301
 10
458.2583782272163
 20
405.3441849535341
 72
     1
 10
458.2583782272163
 20
405.3441849535341
 11
459.0801451505675
 21
405.3441849535341
 72
     1
 10
459.0801451505675
 20
405.3441849535341
 11
459.323764451108
 21
405.8327600057509
 72
     1
 10
459.323764451108
 20
405.8327600057509
 11
458.0087281090017
 21
405.8327600057509
 97
        8
330
593
330
591
330
594
330
590
330
58F
330
592
330
58E
330
58D
 75
     0
 76
     1
 47
0.0514683685270805
 98
        1
 10
458.2356455386865
 20
405.5923187025719
450
        0
451
        0
460
0.0
461
0.0
452
        0
462
0.0
453
        0
470

  0
LINE
  5
58B
102
{ACAD_REACTORS
330
4F8
102
}
330
18
100
AcDbEntity
  8
ROGO
 62
     4
100
AcDbLine
 10
459.5987915802301
 20
404.3164447829645
 30
0.0
 11
459.3317422910645
 21
403.7808812208449
 31
0.0
  0
LINE
  5
58C
102
{ACAD_REACTORS
330
54F
330
4F8
102
}
330
18
100
AcDbEntity
  8
ROGO
 62
     4
100
AcDbLine
 10
459.5987915802301
 20
405.8327600057509
 30
0.0
 11
458.5756585485603
 21
403.7808812208449
 31
0.0
  0
LINE
  5
58D
102
{ACAD_REACTORS
330
58A
102
}
330
18
100
AcDbEntity
  8
ROGO
 62
     4
100
AcDbLine
 10
459.323764451108
 20
405.8327600057509
 30
0.0
 11
459.0801451505674
 21
405.3441849535341
 31
0.0
  0
LINE
  5
58E
102
{ACAD_REACTORS
330
58A
102
}
330
18
100
AcDbEntity
  8
ROGO
 62
     4
100
AcDbLine
 10
458.2583782272162
 20
405.3441849535341
 30
0.0
 11
459.0801451505674
 21
405.3441849535341
 31
0.0
  0
LINE
  5
58F
102
{ACAD_REACTORS
330
58A
102
}
330
18
100
AcDbEntity
  8
ROGO
 62
     4
100
AcDbLine
 10
458.0729236779054
 20
405.0081849535341
 30
0.0
 11
458.9126046987776
 21
405.0081849535341
 31
0.0
  0
LINE
  5
590
102
{ACAD_REACTORS
330
58A
102
}
330
18
100
AcDbEntity
  8
ROGO
 62
     4
100
AcDbLine
 10
458.9126046987776
 20
405.0081849535341
 30
0.0
 11
458.6689879780987
 21
404.5196150751935
 31
0.0
  0
SPLINE
  5
591
102
{ACAD_REACTORS
330
58A
102
}
330
18
100
AcDbEntity
  8
ROGO
 62
     4
100
AcDbSpline
210
0.0
220
0.0
230
1.0
 70
     8
 71
     3
 72
    26
 73
    22
 74
    20
 42
0.0000000001
 43
0.0000000001
 44
0.0000000001
 40
0.0
 40
0.0
 40
0.0
 40
0.0
 40
0.2382195346591896
 40
0.397689067266058
 40
0.5126795869787176
 40
0.5985392873135238
 40
0.7099038249250041
 40
0.7911890807494602
 40
0.9379713068544059
 40
1.057449928673177
 40
1.138714535893296
 40
1.218398644003487
 40
1.36093802187034
 40
1.461730374800238
 40
1.51601484410804
 40
1.593124329220486
 40
1.648806818593696
 40
1.729472362005543
 40
1.775122082164332
 40
1.874460993765135
 40
1.919820003751196
 40
1.919820003751196
 40
1.919820003751196
 40
1.919820003751196
 10
458.0087281090016
 20
405.8327600057509
 30
0.0
 10
457.9278727182431
 20
405.8279360344858
 30
0.0
 10
457.792890904177
 20
405.8198827879891
 30
0.0
 10
457.6446816934654
 20
405.7298472841308
 30
0.0
 10
457.536094949055
 20
405.6775045987883
 30
0.0
 10
457.458651014631
 20
405.6063491773687
 30
0.0
 10
457.4018842967634
 20
405.5328508248475
 30
0.0
 10
457.3303191920657
 20
405.4452780767219
 30
0.0
 10
457.2719598941601
 20
405.3433031552574
 30
0.0
 10
457.2422410516266
 20
405.2309090141941
 30
0.0
 10
457.2159163829732
 20
405.1413302316352
 30
0.0
 10
457.1963935679998
 20
405.0415063687428
 30
0.0
 10
457.201360724813
 20
404.9336614806207
 30
0.0
 10
457.2084739206975
 20
404.8335006696166
 30
0.0
 10
457.2402326106214
 20
404.7620008466901
 30
0.0
 10
457.2764001330115
 20
404.7110978997606
 30
0.0
 10
457.3206867688664
 20
404.6550339470619
 30
0.0
 10
457.3691460331839
 20
404.6179029727317
 30
0.0
 10
457.4092258002943
 20
404.5506377175911
 30
0.0
 10
457.479384080557
 20
404.542054185915
 30
0.0
 10
457.5239794746327
 20
404.5249703960379
 30
0.0
 10
457.5379589630942
 20
404.5196150751935
 30
0.0
 11
458.0087281090016
 21
405.8327600057509
 31
0.0
 11
457.7733435360478
 21
405.7961178236572
 31
0.0
 11
457.6306860326728
 21
405.7248481347238
 31
0.0
 11
457.530825985387
 21
405.6678324300464
 31
0.0
 11
457.4666304164833
 21
405.6108164930225
 31
0.0
 11
457.3953018698725
 21
405.5252928198331
 31
0.0
 11
457.3453718462295
 21
405.4611501230278
 31
0.0
 11
457.2740428894653
 21
405.3328644970705
 31
0.0
 11
457.2383788212365
 21
405.2188328553692
 31
0.0
 11
457.2169802982688
 21
405.1404361743079
 31
0.0
 11
457.2027143428544
 21
405.0620394932465
 31
0.0
 11
457.2027143428544
 21
404.9195001153797
 31
0.0
 11
457.2169802982688
 21
404.8197224579344
 31
0.0
 11
457.2383788212365
 21
404.7698335130386
 31
0.0
 11
457.2811758671724
 21
404.7056908162331
 31
0.0
 11
457.3168403455546
 21
404.6629288634652
 31
0.0
 11
457.3739029367511
 21
404.6059131587877
 31
0.0
 11
457.4024344374262
 21
404.5702781981479
 31
0.0
 11
457.4951619171583
 21
404.5346434698544
 31
0.0
 11
457.5379589630942
 21
404.5196150751935
 31
0.0
  0
SPLINE
  5
592
102
{ACAD_REACTORS
330
58A
102
}
330
18
100
AcDbEntity
  8
ROGO
 62
     4
100
AcDbSpline
210
0.0
220
0.0
230
1.0
 70
     8
 71
     3
 72
    16
 73
    12
 74
    10
 42
0.0000000001
 43
0.0000000001
 44
0.0000000001
 40
0.0
 40
0.0
 40
0.0
 40
0.0
 40
0.1255907025629163
 40
0.1869327038470616
 40
0.217182380479003
 40
0.2490606136884339
 40
0.2947101524738157
 40
0.3362763310931585
 40
0.3796288870082937
 40
0.4523125795610796
 40
0.5242542460842448
 40
0.5242542460842448
 40
0.5242542460842448
 40
0.5242542460842448
 10
458.2583782272163
 20
405.3441849535341
 30
0.0
 10
458.2158475195948
 20
405.3377008602301
 30
0.0
 10
458.1525436283834
 20
405.3280497549446
 30
0.0
 10
458.0952978769923
 20
405.2827346479689
 30
0.0
 10
458.0630152478683
 20
405.2557751756523
 30
0.0
 10
458.0520325536166
 20
405.2200731814703
 30
0.0
 10
458.0225364857561
 20
405.1926595304344
 30
0.0
 10
457.9982233358788
 20
405.1549843497184
 30
0.0
 10
457.9924179068171
 20
405.1032368787592
 30
0.0
 10
457.9966792246647
 20
405.0306171896218
 30
0.0
 10
458.0475959392336
 20
405.0156367456225
 30
0.0
 10
458.0729236779054
 20
405.008184953534
 30
0.0
 11
458.2583782272163
 21
405.3441849535341
 31
0.0
 11
458.1371196569626
 21
405.3114835206867
 31
0.0
 11
458.0871896333196
 21
405.2758487923931
 31
0.0
 11
458.0657911103517
 21
405.2544678160091
 31
0.0
 11
458.0515251549375
 21
405.2259598474972
 31
0.0
 11
458.0229936542625
 21
405.1903251192037
 31
0.0
 11
458.0015951312946
 21
405.1546901585639
 31
0.0
 11
457.9944621535875
 21
405.1119284381424
 31
0.0
 11
458.0087281090016
 21
405.0406585168626
 31
0.0
 11
458.0729236779054
 21
405.008184953534
 31
0.0
  0
LINE
  5
593
102
{ACAD_REACTORS
330
58A
102
}
330
18
100
AcDbEntity
  8
ROGO
 62
     4
100
AcDbLine
 10
458.008728109002
 20
405.8327600057509
 30
0.0
 11
459.323764451108
 21
405.8327600057509
 31
0.0
  0
LINE
  5
594
102
{ACAD_REACTORS
330
58A
102
}
330
18
100
AcDbEntity
  8
ROGO
 62
     4
100
AcDbLine
 10
457.5379589630941
 20
404.5196150751935
 30
0.0
 11
458.6689879780988
 21
404.5196150751935
 31
0.0
  0
LINE
  5
595
102
{ACAD_REACTORS
330
564
102
}
330
18
100
AcDbEntity
  8
ROGO
 62
     4
100
AcDbLine
 10
453.7776583380742
 20
405.832760005751
 30
0.0
 11
455.0926946801801
 21
405.832760005751
 31
0.0
  0
LINE
  5
596
102
{ACAD_REACTORS
330
564
102
}
330
18
100
AcDbEntity
  8
ROGO
 62
     4
100
AcDbLine
 10
454.6815349278497
 20
405.0081849535341
 30
0.0
 11
454.4379182071708
 21
404.5196150751935
 31
0.0
  0
SPLINE
  5
597
102
{ACAD_REACTORS
330
564
102
}
330
18
100
AcDbEntity
  8
ROGO
 62
     4
100
AcDbSpline
210
0.0
220
0.0
230
1.0
 70
     8
 71
     3
 72
    16
 73
    12
 74
    10
 42
0.0000000001
 43
0.0000000001
 44
0.0000000001
 40
0.0
 40
0.0
 40
0.0
 40
0.0
 40
0.1255907025629711
 40
0.1869327038470372
 40
0.2171823804790188
 40
0.2490606136884497
 40
0.2947101524738226
 40
0.3362763310931653
 40
0.3796288870083566
 40
0.452312579561098
 40
0.5242542460842631
 40
0.5242542460842631
 40
0.5242542460842631
 40
0.5242542460842631
 10
454.0273084562884
 20
405.3441849535341
 30
0.0
 10
453.984777748667
 20
405.3377008602302
 30
0.0
 10
453.9214738574557
 20
405.3280497549447
 30
0.0
 10
453.8642281060644
 20
405.2827346479688
 30
0.0
 10
453.8319454769405
 20
405.2557751756524
 30
0.0
 10
453.8209627826888
 20
405.2200731814701
 30
0.0
 10
453.7914667148283
 20
405.1926595304347
 30
0.0
 10
453.7671535649509
 20
405.1549843497183
 30
0.0
 10
453.7613481358893
 20
405.1032368787595
 30
0.0
 10
453.7656094537369
 20
405.0306171896219
 30
0.0
 10
453.8165261683059
 20
405.0156367456226
 30
0.0
 10
453.8418539069776
 20
405.0081849535341
 30
0.0
 11
454.0273084562884
 21
405.3441849535341
 31
0.0
 11
453.9060498860346
 21
405.3114835206867
 31
0.0
 11
453.8561198623917
 21
405.2758487923931
 31
0.0
 11
453.8347213394239
 21
405.2544678160091
 31
0.0
 11
453.8204553840096
 21
405.2259598474972
 31
0.0
 11
453.7919238833346
 21
405.1903251192038
 31
0.0
 11
453.7705253603667
 21
405.1546901585639
 31
0.0
 11
453.7633923826596
 21
405.1119284381424
 31
0.0
 11
453.7776583380739
 21
405.0406585168627
 31
0.0
 11
453.8418539069776
 21
405.0081849535341
 31
0.0
  0
LINE
  5
598
102
{ACAD_REACTORS
330
564
102
}
330
18
100
AcDbEntity
  8
ROGO
 62
     4
100
AcDbLine
 10
453.8418539069775
 20
405.0081849535341
 30
0.0
 11
454.6815349278497
 21
405.0081849535341
 31
0.0
  0
LINE
  5
599
102
{ACAD_REACTORS
330
564
102
}
330
18
100
AcDbEntity
  8
ROGO
 62
     4
100
AcDbLine
 10
454.0273084562883
 20
405.3441849535341
 30
0.0
 11
454.8490753796395
 21
405.3441849535341
 31
0.0
  0
LINE
  5
59A
102
{ACAD_REACTORS
330
564
102
}
330
18
100
AcDbEntity
  8
ROGO
 62
     4
100
AcDbLine
 10
455.0926946801801
 20
405.8327600057509
 30
0.0
 11
454.8490753796395
 21
405.3441849535341
 31
0.0
  0
TEXT
  5
59B
330
18
100
AcDbEntity
  8
文字
100
AcDbText
 10
452.1434277755765
 20
413.3891987095395
 30
0.0
 40
2.0
  1
0
  7
STYLE3
100
AcDbText
  0
LINE
  5
59C
330
18
100
AcDbEntity
  8
目盛
100
AcDbLine
 10
453.1251916789752
 20
419.4677933646445
 30
0.0
 11
453.1251916789752
 21
416.4677933646444
 31
0.0
  0
LINE
  5
59D
330
18
100
AcDbEntity
  8
目盛
100
AcDbLine
 10
447.4053242741836
 20
418.7452060706029
 30
0.0
 11
447.9027040485132
 21
416.8080397483457
 31
0.0
  0
LINE
  5
59E
330
18
100
AcDbEntity
  8
目盛
100
AcDbLine
 10
448.8154214435035
 20
419.0604001314043
 30
0.0
 11
449.1901840726749
 21
417.0958256299469
 31
0.0
  0
LINE
  5
59F
330
18
100
AcDbEntity
  8
目盛
100
AcDbLine
 10
450.2425273069962
 20
419.2864314948774
 30
0.0
 11
450.4931937741248
 21
417.3022020922484
 31
0.0
  0
LINE
  5
5A0
330
18
100
AcDbEntity
  8
目盛
100
AcDbLine
 10
451.681009729801
 20
419.4224081184946
 30
0.0
 11
451.8065907688596
 21
417.4263546616382
 31
0.0
  0
LINE
  5
5A1
330
18
100
AcDbEntity
  8
目盛
100
AcDbLine
 10
454.5693736281497
 20
419.4224081184946
 30
0.0
 11
454.443792589091
 21
417.4263546616382
 31
0.0
  0
LINE
  5
5A2
330
18
100
AcDbEntity
  8
目盛
100
AcDbLine
 10
456.0078560509544
 20
419.2864314948774
 30
0.0
 11
455.7571895838258
 21
417.3022020922484
 31
0.0
  0
LINE
  5
5A3
330
18
100
AcDbEntity
  8
目盛
100
AcDbLine
 10
457.4349619144469
 20
419.0604001314042
 30
0.0
 11
457.0601992852756
 21
417.0958256299469
 31
0.0
  0
LINE
  5
5A4
330
18
100
AcDbEntity
  8
目盛
100
AcDbLine
 10
458.845059083767
 20
418.7452060706029
 30
0.0
 11
458.3476793094373
 21
416.8080397483456
 31
0.0
  0
LINE
  5
5A5
330
18
100
AcDbEntity
  8
外形線
  6
Continuous
100
AcDbLine
 10
449.4251916789752
 20
436.9677933646443
 30
0.0
 11
449.4251916789752
 21
430.4677933646443
 31
0.0
  0
LINE
  5
5A6
330
18
100
AcDbEntity
  8
外形線
  6
Continuous
100
AcDbLine
 10
456.8251916789752
 20
436.9677933646443
 30
0.0
 11
456.8251916789752
 21
430.4677933646443
 31
0.0
  0
LINE
  5
5A7
330
18
100
AcDbEntity
  8
外形線
  6
Continuous
100
AcDbLine
 10
449.1251916789751
 20
424.4677933646443
 30
0.0
 11
457.1251916789751
 21
424.4677933646443
 31
0.0
  0
LINE
  5
5A8
330
18
100
AcDbEntity
  8
外形線
  6
Continuous
100
AcDbLine
 10
449.1251916789752
 20
430.4677933646443
 30
0.0
 11
457.1251916789751
 21
430.4677933646443
 31
0.0
  0
HATCH
  5
5A9
330
18
100
AcDbEntity
  8
ﾊｯﾁﾝｸ
  6
Continuous
100
AcDbHatch
 10
0.0
 20
0.0
 30
0.0
210
0.0
220
0.0
230
1.0
  2
ANSI37
 70
     0
 71
     0
 91
        1
 92
        7
 72
     0
 73
     1
 93
        4
 10
453.1251916789752
 20
430.4677933646443
 10
449.1251916789752
 20
430.4677933646443
 10
449.1251916789752
 20
424.4677933646443
 10
453.1251916789752
 20
424.4677933646443
 97
        0
 75
     0
 76
     1
 52
0.0
 41
10.0
 77
     0
 78
     2
 53
45.0
 43
260.6521875425171
 44
275.348855130845
 45
-0.8838834764831842
 46
0.8838834764831844
 79
     0
 53
135.0
 43
260.6521875425171
 44
275.348855130845
 45
-0.8838834764831844
 46
-0.8838834764831842
 79
     0
 47
0.1856754751158765
 98
        1
 10
451.3783438960191
 20
428.2438394088308
  0
LINE
  5
5AA
330
18
100
AcDbEntity
  8
外形線
  6
Continuous
100
AcDbLine
 10
449.1251916789752
 20
430.4677933646443
 30
0.0
 11
449.1251916789752
 21
424.4677933646443
 31
0.0
  0
LINE
  5
5AB
330
18
100
AcDbEntity
  8
外形線
  6
Continuous
100
AcDbLine
 10
457.1251916789751
 20
430.4677933646443
 30
0.0
 11
457.1251916789751
 21
424.4677933646443
 31
0.0
  0
ARC
  5
5AC
330
18
100
AcDbEntity
  8
外形線
  6
Continuous
100
AcDbCircle
 10
453.1251916789751
 20
430.6227933646446
 30
0.0
 40
7.344999999999885
100
AcDbArc
 50
59.75198538337817
 51
120.2480146166212
  0
LINE
  5
5AD
330
18
100
AcDbEntity
  8
外形線
  6
Continuous
100
AcDbLine
 10
449.4251916789752
 20
436.9677933646443
 30
0.0
 11
456.8251916789752
 21
436.9677933646443
 31
0.0
  0
POINT
  5
5AE
330
18
100
AcDbEntity
  8
DEFPOINTS
  6
ByBlock
 62
     0
100
AcDbPoint
 10
453.1251916789751
 20
437.9677933646444
 30
0.0
  0
LINE
  5
5AF
330
18
100
AcDbEntity
  8
目盛
100
AcDbLine
 10
468.869775115335
 20
379.7015149339521
 30
0.0
 11
467.5006809034776
 21
381.1594521887949
 31
0.0
  0
LINE
  5
5B0
330
18
100
AcDbEntity
  8
目盛
100
AcDbLine
 10
467.785943443195
 20
378.7459887808014
 30
0.0
 11
466.5110954636978
 21
380.2870152663529
 31
0.0
  0
LINE
  5
5B1
330
18
100
AcDbEntity
  8
目盛
100
AcDbLine
 10
466.6442524817021
 20
377.8604024940207
 30
0.0
 11
464.8808967248245
 21
380.2874534771455
 31
0.0
  0
LINE
  5
5B2
330
18
100
AcDbEntity
  8
目盛
100
AcDbLine
 10
465.4492079634921
 20
377.0482510780982
 30
0.0
 11
464.3775543735342
 21
378.7369069291022
 31
0.0
  0
LINE
  5
5B3
330
18
100
AcDbEntity
  8
目盛
100
AcDbLine
 10
464.2055261833146
 20
376.3127397236357
 30
0.0
 11
463.2420188351112
 21
378.0653530837235
 31
0.0
  0
LINE
  5
5B4
330
18
100
AcDbEntity
  8
目盛
100
AcDbLine
 10
462.9181153849718
 20
375.6567711579261
 30
0.0
 11
462.0665568018416
 21
377.4664252628582
 31
0.0
  0
LINE
  5
5B5
330
18
100
AcDbEntity
  8
目盛
100
AcDbLine
 10
461.5920563907228
 20
375.0829341892147
 30
0.0
 11
460.8558072853535
 21
376.9424871609912
 31
0.0
  0
TEXT
  5
5B6
330
18
100
AcDbEntity
  8
文字
100
AcDbText
 10
469.216719530892
 20
401.1362035954246
 30
0.0
 40
2.0
  1
8
  7
STYLE3
100
AcDbText
  0
LINE
  5
5B7
330
18
100
AcDbEntity
  8
目盛
100
AcDbLine
 10
473.280245319984
 20
385.3874588603051
 30
0.0
 11
471.5276319598963
 21
386.3509662085085
 31
0.0
  0
LINE
  5
5B8
330
18
100
AcDbEntity
  8
目盛
100
AcDbLine
 10
472.5447339655216
 20
384.1437770801276
 30
0.0
 11
470.8560781145175
 21
385.2154306700856
 31
0.0
  0
TEXT
  5
5B9
330
18
100
AcDbEntity
  8
文字
100
AcDbText
 10
469.3523931577575
 20
389.6405016886587
 30
0.0
 40
2.0
  1
7
  7
STYLE3
100
AcDbText
  0
TEXT
  5
5BA
330
18
100
AcDbEntity
  8
文字
100
AcDbText
 10
462.4121424101341
 20
380.542278951113
 30
0.0
 40
2.0
  1
6
  7
STYLE3
100
AcDbText
  0
LINE
  5
5BB
330
18
100
AcDbEntity
  8
目盛
100
AcDbLine
 10
471.7325825495989
 20
382.9487325619176
 30
0.0
 11
469.3055315664742
 21
384.7120883187951
 31
0.0
  0
LINE
  5
5BC
330
18
100
AcDbEntity
  8
目盛
100
AcDbLine
 10
470.8469962628183
 20
381.8070416004246
 30
0.0
 11
469.3059697772667
 21
383.081889579922
 31
0.0
  0
LINE
  5
5BD
330
18
100
AcDbEntity
  8
目盛
100
AcDbLine
 10
469.8914701096676
 20
380.7232099282847
 30
0.0
 11
468.4335328548248
 21
382.0923041401421
 31
0.0
  0
LINE
  5
5BE
330
18
100
AcDbEntity
  8
目盛
100
AcDbLine
 10
475.4026043849337
 20
390.7479259598528
 30
0.0
 11
473.4654380626764
 21
391.2453057341825
 31
0.0
  0
LINE
  5
5BF
330
18
100
AcDbEntity
  8
目盛
100
AcDbLine
 10
474.9994915537636
 20
389.3604024940207
 30
0.0
 11
472.1463220048781
 21
390.2874534771456
 31
0.0
  0
LINE
  5
5C0
330
18
100
AcDbEntity
  8
目盛
100
AcDbLine
 10
474.5100508544049
 20
388.0009286528969
 30
0.0
 11
472.6504978826283
 21
388.7371777582663
 31
0.0
  0
LINE
  5
5C1
330
18
100
AcDbEntity
  8
目盛
100
AcDbLine
 10
473.9362138856937
 20
386.6748696586479
 30
0.0
 11
472.1265597807614
 21
387.526428241778
 31
0.0
  0
LINE
  5
5C2
330
18
100
AcDbEntity
  8
目盛
100
AcDbLine
 10
473.1251916789751
 20
396.4677933646445
 30
0.0
 11
476.1251916789752
 21
396.4677933646445
 31
0.0
  0
LINE
  5
5C3
330
18
100
AcDbEntity
  8
目盛
100
AcDbLine
 10
475.7177984457349
 20
400.777563600116
 30
0.0
 11
473.7532239442776
 21
400.4028009709446
 31
0.0
  0
LINE
  5
5C4
330
18
100
AcDbEntity
  8
目盛
100
AcDbLine
 10
475.9438298092082
 20
399.3504577366235
 30
0.0
 11
473.959600406579
 21
399.0997912694949
 31
0.0
  0
LINE
  5
5C5
330
18
100
AcDbEntity
  8
目盛
100
AcDbLine
 10
476.0798064328254
 20
397.9119753138186
 30
0.0
 11
474.0837529759688
 21
397.7863942747601
 31
0.0
  0
LINE
  5
5C6
330
18
100
AcDbEntity
  8
目盛
100
AcDbLine
 10
476.0798064328254
 20
395.0236114154703
 30
0.0
 11
474.0837529759688
 21
395.1491924545289
 31
0.0
  0
LINE
  5
5C7
330
18
100
AcDbEntity
  8
目盛
100
AcDbLine
 10
475.9438298092082
 20
393.5851289926656
 30
0.0
 11
473.9596004065792
 21
393.8357954597941
 31
0.0
  0
LINE
  5
5C8
330
18
100
AcDbEntity
  8
目盛
100
AcDbLine
 10
475.7177984457349
 20
392.1580231291728
 30
0.0
 11
473.7532239442776
 21
392.5327857583443
 31
0.0
  0
LINE
  5
5C9
330
18
100
AcDbEntity
  8
目盛
100
AcDbLine
 10
472.5447339655216
 20
408.7918096491613
 30
0.0
 11
470.8560781145175
 21
407.7201560592033
 31
0.0
  0
LINE
  5
5CA
330
18
100
AcDbEntity
  8
目盛
100
AcDbLine
 10
473.280245319984
 20
407.5481278689839
 30
0.0
 11
471.5276319598963
 21
406.5846205207804
 31
0.0
  0
LINE
  5
5CB
330
18
100
AcDbEntity
  8
目盛
100
AcDbLine
 10
468.869775115335
 20
413.2340717953368
 30
0.0
 11
467.5006809034776
 21
411.776134540494
 31
0.0
  0
LINE
  5
5CC
102
{ACAD_REACTORS
330
4F8
102
}
330
18
100
AcDbEntity
  8
ROGO
 62
     4
100
AcDbLine
 10
459.8658408693959
 20
403.7808812208449
 30
0.0
 11
460.6219080693958
 21
403.7808812208449
 31
0.0
  0
LINE
  5
5CD
102
{ACAD_REACTORS
330
4F8
102
}
330
18
100
AcDbEntity
  8
ROGO
 62
     4
100
AcDbLine
 10
460.5971830988921
 20
405.8327600057509
 30
0.0
 11
461.3532502988921
 21
405.8327600057509
 31
0.0
  0
LINE
  5
5CE
102
{ACAD_REACTORS
330
4F8
102
}
330
18
100
AcDbEntity
  8
ROGO
 62
     4
100
AcDbLine
 10
460.1103415535609
 20
404.8068206132979
 30
0.0
 11
461.3532502988921
 21
405.8327600057509
 31
0.0
  0
LINE
  5
5CF
102
{ACAD_REACTORS
330
4F8
102
}
330
18
100
AcDbEntity
  8
ROGO
 62
     4
100
AcDbLine
 10
460.1103415535609
 20
404.8068206132979
 30
0.0
 11
460.6219080693958
 21
403.7808812208449
 31
0.0
  0
LINE
  5
5D0
102
{ACAD_REACTORS
330
4F8
102
}
330
18
100
AcDbEntity
  8
ROGO
 62
     4
100
AcDbLine
 10
460.2431700158133
 20
405.6087365969293
 30
0.0
 11
460.5971830988921
 21
405.8327600057509
 31
0.0
  0
LINE
  5
5D1
102
{ACAD_REACTORS
330
4F8
102
}
330
18
100
AcDbEntity
  8
ROGO
 62
     4
100
AcDbLine
 10
460.3548753227343
 20
405.8327600057509
 30
0.0
 11
460.2431700158133
 21
405.6087365969293
 31
0.0
  0
TEXT
  5
5D2
330
18
100
AcDbEntity
  8
文字
100
AcDbText
 10
462.5643889847189
 20
410.2283327129556
 30
0.0
 40
2.0
  1
9
  7
STYLE3
100
AcDbText
  0
LINE
  5
5D3
330
18
100
AcDbEntity
  8
目盛
100
AcDbLine
 10
469.8914701096676
 20
412.2123768010042
 30
0.0
 11
468.4335328548248
 21
410.8432825891468
 31
0.0
  0
LINE
  5
5D4
330
18
100
AcDbEntity
  8
目盛
100
AcDbLine
 10
470.8469962628183
 20
411.1285451288642
 30
0.0
 11
469.3059697772667
 21
409.8536971493668
 31
0.0
  0
LINE
  5
5D5
330
18
100
AcDbEntity
  8
目盛
100
AcDbLine
 10
471.7325825495989
 20
409.9868541673712
 30
0.0
 11
469.3055315664741
 21
408.2234984104939
 31
0.0
  0
LINE
  5
5D6
330
18
100
AcDbEntity
  8
目盛
100
AcDbLine
 10
466.6442524817021
 20
415.0751842352681
 30
0.0
 11
464.8808967248247
 21
412.6481332521434
 31
0.0
  0
LINE
  5
5D7
330
18
100
AcDbEntity
  8
目盛
100
AcDbLine
 10
461.5920563907229
 20
417.8526525400742
 30
0.0
 11
460.8558072853535
 21
415.9930995682977
 31
0.0
  0
LINE
  5
5D8
330
18
100
AcDbEntity
  8
目盛
100
AcDbLine
 10
462.918115384972
 20
417.2788155713628
 30
0.0
 11
462.0665568018418
 21
415.4691614664308
 31
0.0
  0
LINE
  5
5D9
330
18
100
AcDbEntity
  8
目盛
100
AcDbLine
 10
464.2055261833148
 20
416.6228470056532
 30
0.0
 11
463.2420188351113
 21
414.8702336455655
 31
0.0
  0
LINE
  5
5DA
330
18
100
AcDbEntity
  8
目盛
100
AcDbLine
 10
465.4492079634922
 20
415.8873356511907
 30
0.0
 11
464.3775543735342
 21
414.1986798001867
 31
0.0
  0
LINE
  5
5DB
330
18
100
AcDbEntity
  8
目盛
100
AcDbLine
 10
467.785943443195
 20
414.1895979484875
 30
0.0
 11
466.5110954636976
 21
412.6485714629359
 31
0.0
  0
LINE
  5
5DC
330
18
100
AcDbEntity
  8
目盛
100
AcDbLine
 10
473.9362138856937
 20
406.2607170706411
 30
0.0
 11
472.1265597807616
 21
405.4091584875109
 31
0.0
  0
LINE
  5
5DD
330
18
100
AcDbEntity
  8
目盛
100
AcDbLine
 10
474.5100508544049
 20
404.934658076392
 30
0.0
 11
472.6504978826283
 21
404.1984089710227
 31
0.0
  0
LINE
  5
5DE
330
18
100
AcDbEntity
  8
目盛
100
AcDbLine
 10
474.9994915537636
 20
403.5751842352682
 30
0.0
 11
472.1463220048781
 21
402.6481332521434
 31
0.0
  0
LINE
  5
5DF
330
18
100
AcDbEntity
  8
目盛
100
AcDbLine
 10
475.4026043849338
 20
402.1876607694361
 30
0.0
 11
473.4654380626764
 21
401.6902809951063
 31
0.0
  0
CIRCLE
  5
5E0
330
18
100
AcDbEntity
  8
外形線
100
AcDbCircle
 10
453.1251916789752
 20
396.4677933646445
 30
0.0
 40
26.4
  0
ARC
  5
5E2
330
18
100
AcDbEntity
  8
隠れ線2
100
AcDbCircle
 10
453.1251916789751
 20
396.4677933646445
 30
0.0
 40
25.0
100
AcDbArc
 50
338.0344784320621
 51
178.8304778399841
  0
ARC
  5
5E3
330
18
100
AcDbEntity
  8
隠れ線2
100
AcDbCircle
 10
413.1351916789752
 20
397.4677933646445
 30
0.0
 40
15.0
100
AcDbArc
 50
338.642844790992
 51
357.6643373567535
  0
ARC
  5
5E4
330
18
100
AcDbEntity
  8
隠れ線2
100
AcDbCircle
 10
490.9751916789751
 20
380.7177933646445
 30
0.0
 40
16.0
100
AcDbArc
 50
156.4265668446785
 51
176.4979078699153
  0
LINE
  5
5E5
330
18
100
AcDbEntity
  8
中心線
 48
0.5
100
AcDbLine
 10
422.433562785091
 20
396.4677933646445
 30
0.0
 11
483.2760751325424
 21
396.4677933646445
 31
0.0
  0
LINE
  5
5E7
330
18
100
AcDbEntity
  8
中心線
 48
0.5
100
AcDbLine
 10
453.1251916789752
 20
439.7060504925867
 30
0.0
 11
453.1251916789752
 21
327.1693817781121
 31
0.0
  0
LINE
  5
626
330
18
100
AcDbEntity
  8
外形線
 48
0.5
100
AcDbLine
 10
450.1251916789751
 20
366.6630036531247
 30
0.0
 11
456.1251916789752
 21
366.6630036531247
 31
0.0
  0
LINE
  5
627
330
18
100
AcDbEntity
  8
外形線
 48
0.5
100
AcDbLine
 10
451.3751916789752
 20
365.4677933646445
 30
0.0
 11
454.8751916789753
 21
365.4677933646445
 31
0.0
  0
LINE
  5
628
330
18
100
AcDbEntity
  8
外形線
 48
0.5
100
AcDbLine
 10
457.1251916789752
 20
367.6630036531247
 30
0.0
 11
457.1251916789751
 21
370.3725830761643
 31
0.0
  0
LINE
  5
629
330
18
100
AcDbEntity
  8
外形線
 48
0.5
100
AcDbLine
 10
449.1251916789751
 20
367.6630036531248
 30
0.0
 11
449.1251916789752
 21
370.3725830761643
 31
0.0
  0
LINE
  5
62A
330
18
100
AcDbEntity
  8
外形線
 48
0.5
100
AcDbLine
 10
449.1251916789751
 20
367.6630036531246
 30
0.0
 11
457.1251916789752
 21
367.6630036531247
 31
0.0
  0
LINE
  5
62B
330
18
100
AcDbEntity
  8
外形線
 48
0.5
100
AcDbLine
 10
449.1251916789751
 20
367.6630036531248
 30
0.0
 11
450.1251916789751
 21
366.6630036531247
 31
0.0
  0
LINE
  5
62C
330
18
100
AcDbEntity
  8
外形線
 48
0.5
100
AcDbLine
 10
456.1251916789752
 20
366.6630036531247
 30
0.0
 11
457.1251916789752
 21
367.6630036531247
 31
0.0
  0
LINE
  5
62D
330
18
100
AcDbEntity
  8
外形線
 48
0.5
100
AcDbLine
 10
454.8751916789752
 20
364.4038996502098
 30
0.0
 11
454.8751916789752
 21
366.6630036531247
 31
0.0
  0
LINE
  5
62E
330
18
100
AcDbEntity
  8
外形線
 48
0.5
100
AcDbLine
 10
451.3751916789752
 20
364.4038996502102
 30
0.0
 11
451.3751916789752
 21
366.6630036531247
 31
0.0
  0
ARC
  5
62F
330
18
100
AcDbEntity
  8
外形線
100
AcDbCircle
 10
453.1251916789752
 20
362.0677933646445
 30
0.0
 40
0.6
100
AcDbArc
 50
201.3119739705772
 51
338.6880260293593
  0
LINE
  5
630
330
18
100
AcDbEntity
  8
外形線
100
AcDbLine
 10
453.6841608548382
 20
361.8497258053078
 30
0.0
 11
454.8751916789752
 21
364.4038996502098
 31
0.0
  0
LINE
  5
631
330
18
100
AcDbEntity
  8
外形線
100
AcDbLine
 10
452.5662225031123
 20
361.8497258053078
 30
0.0
 11
451.3751916789751
 21
364.4038996502102
 31
0.0
  0
LINE
  5
632
330
18
100
AcDbEntity
  8
外形線
100
AcDbLine
 10
451.3751916789752
 20
364.4038996502102
 30
0.0
 11
454.8751916789752
 21
364.4038996502098
 31
0.0
  0
LINE
  5
633
330
18
100
AcDbEntity
  8
外形線
 48
0.5
100
AcDbLine
 10
461.1251916789752
 20
350.9677933646446
 30
0.0
 11
461.1251916789752
 21
361.4677933646445
 31
0.0
  0
LINE
  5
634
330
18
100
AcDbEntity
  8
外形線
 48
0.5
100
AcDbLine
 10
451.1251916789752
 20
345.9677933646445
 30
0.0
 11
451.1251916789752
 21
361.4677933646445
 31
0.0
  0
LINE
  5
635
330
18
100
AcDbEntity
  8
外形線
100
AcDbLine
 10
451.1251916789752
 20
361.4677933646445
 30
0.0
 11
461.1251916789752
 21
361.4677933646445
 31
0.0
  0
LINE
  5
636
330
18
100
AcDbEntity
  8
外形線
100
AcDbLine
 10
451.1251916789752
 20
345.9677933646445
 30
0.0
 11
459.1251916789752
 21
345.9677933646445
 31
0.0
  0
LINE
  5
637
330
18
100
AcDbEntity
  8
中心線
100
AcDbLine
 10
453.746103534825
 20
348.9677933646445
 30
0.0
 11
458.6283945001484
 21
348.9677933646445
 31
0.0
  0
LINE
  5
638
330
18
100
AcDbEntity
  8
中心線
100
AcDbLine
 10
453.746103534825
 20
354.9677933646445
 30
0.0
 11
458.6283945001484
 21
354.9677933646445
 31
0.0
  0
LINE
  5
639
330
18
100
AcDbEntity
  8
中心線
 48
0.5
100
AcDbLine
 10
456.1251916789752
 20
346.2440729914054
 30
0.0
 11
456.1251916789752
 21
357.6006881772423
 31
0.0
  0
CIRCLE
  5
63A
330
18
100
AcDbEntity
  8
外形線
100
AcDbCircle
 10
456.1251916789752
 20
354.9677933646445
 30
0.0
 40
1.8
  0
CIRCLE
  5
63B
330
18
100
AcDbEntity
  8
外形線
100
AcDbCircle
 10
456.1251916789752
 20
348.9677933646445
 30
0.0
 40
1.8
  0
LINE
  5
63C
330
18
100
AcDbEntity
  8
想像線
 48
0.5
100
AcDbLine
 10
461.9378315508965
 20
370.8605066754054
 30
0.0
 11
439.9378315508966
 21
370.8605066754055
 31
0.0
  0
LINE
  5
63D
330
18
100
AcDbEntity
  8
想像線
100
AcDbLine
 10
443.6766058952657
 20
362.5217323310364
 30
0.0
 11
442.1990013734643
 21
363.9993368528376
 31
0.0
  0
LINE
  5
63E
330
18
100
AcDbEntity
  8
想像線
100
AcDbLine
 10
443.6870182416148
 20
364.0096933661236
 30
0.0
 11
442.1615189150802
 21
362.484194039589
 31
0.0
  0
CIRCLE
  5
63F
330
18
100
AcDbEntity
  8
想像線
100
AcDbCircle
 10
442.9378315508966
 20
363.2605066754053
 30
0.0
 40
1.5
  0
LINE
  5
640
330
18
100
AcDbEntity
  8
想像線
 48
0.5
100
AcDbLine
 10
439.9378315508966
 20
370.8605066754055
 30
0.0
 11
439.9378315508963
 21
360.8605066754054
 31
0.0
  0
LINE
  5
641
330
18
100
AcDbEntity
  8
中心線
100
AcDbLine
 10
442.9378315508966
 20
360.8028107900374
 30
0.0
 11
442.9378315508966
 21
370.1297308719218
 31
0.0
  0
LINE
  5
642
330
18
100
AcDbEntity
  8
想像線
 48
0.5
100
AcDbLine
 10
445.9378315508965
 20
360.8605066754054
 30
0.0
 11
439.9378315508963
 21
360.8605066754054
 31
0.0
  0
LINE
  5
643
330
18
100
AcDbEntity
  8
想像線
100
AcDbLine
 10
443.6766058952657
 20
367.5217323310365
 30
0.0
 11
442.1990013734643
 21
368.9993368528377
 31
0.0
  0
LINE
  5
644
330
18
100
AcDbEntity
  8
想像線
100
AcDbLine
 10
443.6870182416146
 20
369.0096933661236
 30
0.0
 11
442.1615189150802
 21
367.484194039589
 31
0.0
  0
CIRCLE
  5
645
330
18
100
AcDbEntity
  8
想像線
100
AcDbCircle
 10
442.9378315508966
 20
368.2605066754054
 30
0.0
 40
1.5
  0
LINE
  5
646
330
18
100
AcDbEntity
  8
中心線
100
AcDbLine
 10
445.0350043619646
 20
368.2605066754053
 30
0.0
 11
440.7094013472139
 21
368.2605066754053
 31
0.0
  0
LINE
  5
647
330
18
100
AcDbEntity
  8
中心線
100
AcDbLine
 10
445.2364339150865
 20
363.2605066754053
 30
0.0
 11
440.4555040065111
 21
363.2605066754053
 31
0.0
  0
LINE
  5
648
330
18
100
AcDbEntity
  8
想像線
 48
0.5
100
AcDbLine
 10
445.9378315508965
 20
370.8605066754054
 30
0.0
 11
445.9378315508963
 21
335.8605066754054
 31
0.0
  0
LINE
  5
649
330
18
100
AcDbEntity
  8
想像線
 48
0.5
100
AcDbLine
 10
461.9378315508965
 20
335.8605066754054
 30
0.0
 11
445.9378315508963
 21
335.8605066754054
 31
0.0
  0
LINE
  5
64A
330
18
100
AcDbEntity
  8
想像線
 48
0.5
100
AcDbLine
 10
461.9378315508965
 20
370.8605066754054
 30
0.0
 11
461.9378315508965
 21
335.8605066754054
 31
0.0
  0
LINE
  5
64B
330
18
100
AcDbEntity
  8
想像線
100
AcDbLine
 10
456.8639660233445
 20
354.2290190202757
 30
0.0
 11
455.3863615015432
 21
355.7066235420769
 31
0.0
  0
LINE
  5
64C
330
18
100
AcDbEntity
  8
想像線
100
AcDbLine
 10
456.8743783696934
 20
355.7169800553627
 30
0.0
 11
455.3488790431591
 21
354.1914807288281
 31
0.0
  0
LINE
  5
64D
330
18
100
AcDbEntity
  8
想像線
100
AcDbLine
 10
456.8639660233443
 20
348.2290190202755
 30
0.0
 11
455.3863615015429
 21
349.7066235420768
 31
0.0
  0
LINE
  5
64E
330
18
100
AcDbEntity
  8
想像線
100
AcDbLine
 10
456.8743783696933
 20
349.7169800553627
 30
0.0
 11
455.3488790431587
 21
348.1914807288281
 31
0.0
  0
LINE
  5
6C7
330
18
100
AcDbEntity
  8
想像線
 48
0.3
100
AcDbLine
 10
363.096176217541
 20
387.6675268816168
 30
0.0
 11
363.096176217541
 21
370.7955521801737
 31
0.0
  0
LINE
  5
6C8
330
18
100
AcDbEntity
  8
想像線
 48
0.3
100
AcDbLine
 10
366.096176217541
 20
387.7263571576179
 30
0.0
 11
366.096176217541
 21
370.5323150565109
 31
0.0
  0
LINE
  5
6C9
330
18
100
AcDbEntity
  8
想像線
 48
0.3
100
AcDbLine
 10
354.91750003872
 20
228.0980996047598
 30
0.0
 11
354.91750003872
 21
209.7137716114016
 31
0.0
  0
LINE
  5
6CA
330
18
100
AcDbEntity
  8
想像線
 48
0.3
100
AcDbLine
 10
357.9175000387201
 20
227.9785186155926
 30
0.0
 11
357.9175000387201
 21
209.4789319774197
 31
0.0
  0
DIMENSION
  5
6E8
330
18
100
AcDbEntity
  8
外形線
100
AcDbDimension
  2
*D5
 10
366.096176217541
 20
402.4501718828012
 30
0.0
 11
374.1021285984934
 21
404.9799337875631
 31
0.0
 70
    32
  1
(3)
 71
     5
 42
-1.0
  3
STYLE3
100
AcDbAlignedDimension
 13
363.096176217541
 23
387.6675268816168
 33
0.0
 14
366.096176217541
 24
387.7263571576179
 34
0.0
100
AcDbRotatedDimension
1001
ACAD
1000
DSTYLE
1002
{
1070
   271
1070
     2
1002
}
  0
DIMENSION
  5
6F7
330
18
100
AcDbEntity
  8
外形線
100
AcDbDimension
  2
*D6
 10
357.9175000387201
 20
191.6140381372833
 30
0.0
 11
365.9234524196725
 21
194.1438000420452
 31
0.0
 70
    32
  1
(3)
 71
     5
 42
-1.0
  3
STYLE3
100
AcDbAlignedDimension
 13
354.91750003872
 23
209.7137716114016
 33
0.0
 14
357.9175000387201
 24
209.4789319774197
 34
0.0
100
AcDbRotatedDimension
1001
ACAD
1000
DSTYLE
1002
{
1070
   271
1070
     2
1002
}
  0
ARC
  5
713
330
18
100
AcDbEntity
  8
寸法線
100
AcDbCircle
 10
471.1251916789751
 20
346.4677933646445
 30
0.0
 40
18.0
100
AcDbArc
 50
165.0824465554838
 51
213.161399573728
  0
LINE
  5
720
330
18
100
AcDbEntity
  8
0
  6
ByBlock
 62
     2
100
AcDbLine
 10
471.1251916789752
 20
346.4677933646444
 30
0.0
 11
455.6382220911451
 21
337.2942568063901
 31
0.0
  0
MTEXT
  5
721
330
18
100
AcDbEntity
  8
0
  6
ByBlock
 62
     6
100
AcDbMText
 10
468.3648442570748
 20
342.3044961498614
 30
0.0
 40
2.5
 41
0.0
 71
     5
 72
     1
  1
\A1;R18
  7
STYLE3
 11
0.8603871993238886
 21
0.5096409199030188
 31
0.0
 73
     1
 44
1.0
  0
INSERT
  5
722
330
18
100
AcDbEntity
  8
0
  6
ByBlock
 62
     2
100
AcDbBlockReference
  2
_OPEN
 10
455.6382220911451
 20
337.2942568063901
 30
0.0
 41
2.5
 42
2.5
 43
2.5
 50
210.6399145582246
  0
POINT
  5
723
330
18
100
AcDbEntity
  8
DEFPOINTS
  6
ByBlock
 62
     0
100
AcDbPoint
 10
455.6382220911451
 20
337.2942568063901
 30
0.0
  0
POINT
  5
724
330
18
100
AcDbEntity
  8
DEFPOINTS
  6
ByBlock
 62
     0
100
AcDbPoint
 10
471.1251916789752
 20
346.4677933646444
 30
0.0
  0
ARC
  5
725
330
18
100
AcDbEntity
  8
寸法線
100
AcDbCircle
 10
471.1251916789751
 20
346.4677933646445
 30
0.0
 40
180.0
100
AcDbArc
 50
167.0343444669444
 51
206.7570130137813
  0
POINT
  5
73C
330
18
100
AcDbEntity
  8
DEFPOINTS
  6
ByBlock
 62
     0
100
AcDbPoint
 10
291.5253955787991
 20
358.4641778522788
 30
0.0
  0
POINT
  5
753
330
18
100
AcDbEntity
  8
DEFPOINTS
  6
ByBlock
 62
     0
100
AcDbPoint
 10
291.5253955787991
 20
358.4641778522788
 30
0.0
  0
POINT
  5
754
330
18
100
AcDbEntity
  8
寸法線
  6
ByBlock
100
AcDbPoint
 10
304.0838493058529
 20
279.4378716665779
 30
0.0
  0
POINT
  5
76A
330
18
100
AcDbEntity
  8
DEFPOINTS
  6
ByBlock
 62
     0
100
AcDbPoint
 10
292.3968899828542
 20
358.6025449741672
 30
0.0
  0
POINT
  5
76B
330
18
100
AcDbEntity
  8
寸法線
  6
ByBlock
100
AcDbPoint
 10
304.0719310637614
 20
279.4546393533505
 30
0.0
  0
LINE
  5
77B
330
18
100
AcDbEntity
  8
寸法線
100
AcDbLine
 10
306.7487300195367
 20
278.2409058357029
 30
0.0
 11
307.0845914724127
 21
277.421316357139
 31
0.0
  0
ARC
  5
77C
330
18
100
AcDbEntity
  8
寸法線
100
AcDbCircle
 10
304.8486086469637
 20
277.6167754250582
 30
0.0
 40
2.0
100
AcDbArc
 50
18.18373351465518
 51
206.3831472299545
  0
LINE
  5
77D
330
18
100
AcDbEntity
  8
寸法線
100
AcDbLine
 10
303.0569236372666
 20
276.7280320278807
 30
0.0
 11
303.3364365907347
 21
275.7567192427194
 31
0.0
  0
LINE
  5
78D
330
18
100
AcDbEntity
  8
0
  6
ByBlock
 62
     2
100
AcDbLine
 10
291.525395578799
 20
358.4641778522788
 30
0.0
 11
318.2857811873902
 21
362.8476971901193
 31
0.0
  0
LINE
  5
78E
330
18
100
AcDbEntity
  8
0
  6
ByBlock
 62
     2
100
AcDbLine
 10
304.0691556438682
 20
279.458636716243
 30
0.0
 11
330.8295412524593
 21
283.8421560540835
 31
0.0
  0
LINE
  5
78F
330
18
100
AcDbEntity
  8
0
  6
ByBlock
 62
     2
100
AcDbLine
 10
317.4432608617611
 20
360.1826156714971
 30
0.0
 11
329.2029882329389
 21
286.1152212257601
 31
0.0
  0
INSERT
  5
790
330
18
100
AcDbEntity
  8
0
  6
ByBlock
 62
     2
100
AcDbBlockReference
  2
_OPEN
 10
317.0512445148154
 20
362.6516890166465
 30
0.0
 41
2.5
 42
2.5
 43
2.5
 50
99.02158463404109
  0
INSERT
  5
791
330
18
100
AcDbEntity
  8
0
  6
ByBlock
 62
     2
100
AcDbBlockReference
  2
_OPEN
 10
329.5950045798846
 20
283.6461478806107
 30
0.0
 41
2.5
 42
2.5
 43
2.5
 50
279.021584634041
  0
POINT
  5
793
330
18
100
AcDbEntity
  8
DEFPOINTS
  6
ByBlock
 62
     0
100
AcDbPoint
 10
291.525395578799
 20
358.4641778522788
 30
0.0
  0
POINT
  5
794
330
18
100
AcDbEntity
  8
DEFPOINTS
  6
ByBlock
 62
     0
100
AcDbPoint
 10
304.0691556438682
 20
279.458636716243
 30
0.0
  0
POINT
  5
795
330
18
100
AcDbEntity
  8
DEFPOINTS
  6
ByBlock
 62
     0
100
AcDbPoint
 10
329.5950045798846
 20
283.6461478806107
 30
0.0
  0
MTEXT
  5
797
330
18
100
AcDbEntity
  8
0
  6
ByBlock
 62
     6
100
AcDbMText
 10
321.4228749163277
 20
323.0633273042536
 30
0.0
 40
2.5
 41
0.0
 71
     5
 72
     1
  1
\A1;80
  7
STYLE3
 11
-0.1515785052524083
 21
0.9884452219245362
 31
0.0
 73
     1
 44
1.0
  0
POINT
  5
7A5
330
18
100
AcDbEntity
  8
DEFPOINTS
  6
ByBlock
 62
     0
100
AcDbPoint
 10
471.1251916789753
 20
346.4677933646446
 30
0.0
  0
LINE
  5
7AF
330
18
100
AcDbEntity
  8
0
  6
ByBlock
 62
     2
100
AcDbLine
 10
471.1251916789752
 20
346.4677933646445
 30
0.0
 11
308.1408664464312
 21
270.0733581714165
 31
0.0
  0
MTEXT
  5
7B0
330
18
100
AcDbEntity
  8
0
  6
ByBlock
 62
     6
100
AcDbMText
 10
385.2006953995856
 20
308.2637921292959
 30
0.0
 40
2.5
 41
0.0
 71
     5
 72
     1
  1
\A1;R180
  7
STYLE3
 11
0.9054684735141334
 21
0.4244135288512667
 31
0.0
 73
     1
 44
1.0
  0
INSERT
  5
7B1
330
18
100
AcDbEntity
  8
0
  6
ByBlock
 62
     2
100
AcDbBlockReference
  2
_OPEN
 10
308.1408664464312
 20
270.0733581714165
 30
0.0
 41
2.5
 42
2.5
 43
2.5
 50
205.1135473481012
  0
POINT
  5
7B2
330
18
100
AcDbEntity
  8
DEFPOINTS
  6
ByBlock
 62
     0
100
AcDbPoint
 10
308.1408664464312
 20
270.0733581714165
 30
0.0
  0
POINT
  5
7B3
330
18
100
AcDbEntity
  8
DEFPOINTS
  6
ByBlock
 62
     0
100
AcDbPoint
 10
471.1251916789752
 20
346.4677933646445
 30
0.0
  0
LINE
  5
7B7
330
18
100
AcDbEntity
  8
外形線
100
AcDbLine
 10
290.1722535784506
 20
364.7977047104591
 30
0.0
 11
295.9189068195779
 21
363.7345575667333
 31
0.0
  0
LINE
  5
7B9
330
18
100
AcDbEntity
  8
外形線
100
AcDbLine
 10
288.747239518419
 20
352.8577077493983
 30
0.0
 11
293.0888651921616
 21
352.0544946894677
 31
0.0
  0
LINE
  5
7E5
330
18
100
AcDbEntity
  8
0
  6
ByBlock
 62
     2
100
AcDbLine
 10
293.0888651921616
 20
352.0544946894677
 30
0.0
 11
310.3095509866607
 21
348.8686189897832
 31
0.0
  0
LINE
  5
7E7
330
18
100
AcDbEntity
  8
0
  6
ByBlock
 62
     2
100
AcDbLine
 10
308.6256186308525
 20
346.6377286246908
 30
0.0
 11
308.1708288922428
 21
344.1794433902936
 31
0.0
  0
LINE
  5
7E8
330
18
100
AcDbEntity
  8
0
  6
ByBlock
 62
     2
100
AcDbLine
 10
310.1719037421253
 20
354.9958984216414
 30
0.0
 11
309.0804083694621
 21
349.096013859088
 31
0.0
  0
INSERT
  5
7EA
330
18
100
AcDbEntity
  8
0
  6
ByBlock
 62
     2
100
AcDbBlockReference
  2
_OPEN
 10
309.0804083694621
 20
349.096013859088
 30
0.0
 41
2.5
 42
2.5
 43
2.5
 50
79.51862477502544
  0
MTEXT
  5
7EB
330
18
100
AcDbEntity
  8
0
  6
ByBlock
 62
     6
100
AcDbMText
 10
307.7824421299959
 20
352.3870484443219
 30
0.0
 40
2.5
 41
0.0
 71
     5
 72
     1
  1
\A1;6
  7
STYLE3
 11
0.1819158954438661
 21
0.9833140937588845
 31
0.0
 73
     1
 44
1.0
  0
POINT
  5
7EC
330
18
100
AcDbEntity
  8
DEFPOINTS
  6
ByBlock
 62
     0
100
AcDbPoint
 10
294.8274114469147
 20
357.8346730041801
 30
0.0
  0
POINT
  5
7ED
330
18
100
AcDbEntity
  8
DEFPOINTS
  6
ByBlock
 62
     0
100
AcDbPoint
 10
293.0888651921616
 20
352.0544946894677
 30
0.0
  0
POINT
  5
7EE
330
18
100
AcDbEntity
  8
DEFPOINTS
  6
ByBlock
 62
     0
100
AcDbPoint
 10
309.0804083694621
 20
349.096013859088
 30
0.0
  0
LINE
  5
7EF
330
18
100
AcDbEntity
  8
0
  6
ByBlock
 62
     2
100
AcDbLine
 10
295.9189068195779
 20
363.7345575667333
 30
0.0
 11
312.4925417319871
 21
360.6683881148899
 31
0.0
  0
LINE
  5
7F0
330
18
100
AcDbEntity
  8
0
  6
ByBlock
 62
     2
100
AcDbLine
 10
291.5241678021537
 20
358.4457824445105
 30
0.0
 11
311.4010463593239
 21
354.7685035523366
 31
0.0
  0
LINE
  5
7F1
330
18
100
AcDbEntity
  8
0
  6
ByBlock
 62
     2
100
AcDbLine
 10
311.7181888533981
 20
363.3540682185919
 30
0.0
 11
312.1729785920078
 21
365.8123534529891
 31
0.0
  0
LINE
  5
7F2
330
18
100
AcDbEntity
  8
0
  6
ByBlock
 62
     2
100
AcDbLine
 10
309.7171140035157
 20
352.5376131872442
 30
0.0
 11
309.262324264906
 21
350.079327952847
 31
0.0
  0
LINE
  5
7F3
330
18
100
AcDbEntity
  8
0
  6
ByBlock
 62
     2
100
AcDbLine
 10
311.2633991147885
 20
360.8957829841947
 30
0.0
 11
310.1719037421253
 21
354.9958984216414
 31
0.0
  0
INSERT
  5
7F4
330
18
100
AcDbEntity
  8
0
  6
ByBlock
 62
     2
100
AcDbBlockReference
  2
_OPEN
 10
311.2633991147885
 20
360.8957829841947
 30
0.0
 41
2.5
 42
2.5
 43
2.5
 50
259.5186247750254
  0
MTEXT
  5
7F6
330
18
100
AcDbEntity
  8
0
  6
ByBlock
 62
     6
100
AcDbMText
 10
308.8739375026591
 20
358.2869330068752
 30
0.0
 40
2.5
 41
0.0
 71
     5
 72
     1
  1
\A1;6
  7
STYLE3
 11
0.1819158954438661
 21
0.9833140937588845
 31
0.0
 73
     1
 44
1.0
  0
POINT
  5
7F7
330
18
100
AcDbEntity
  8
DEFPOINTS
  6
ByBlock
 62
     0
100
AcDbPoint
 10
295.9189068195779
 20
363.7345575667333
 30
0.0
  0
POINT
  5
7F8
330
18
100
AcDbEntity
  8
DEFPOINTS
  6
ByBlock
 62
     0
100
AcDbPoint
 10
294.8274114469147
 20
357.8346730041801
 30
0.0
  0
POINT
  5
7F9
330
18
100
AcDbEntity
  8
DEFPOINTS
  6
ByBlock
 62
     0
100
AcDbPoint
 10
310.1719037421253
 20
354.9958984216414
 30
0.0
  0
DIMENSION
  5
82D
330
18
100
AcDbEntity
  8
寸法線
100
AcDbDimension
  2
*D7
 10
616.1251916789751
 20
270.0646929169618
 30
0.0
 11
566.1251916789751
 21
271.9396929169618
 31
0.0
 70
    32
 71
     5
 42
-1.0
  3
STYLE3
100
AcDbAlignedDimension
 13
516.1251916789751
 23
339.2677933646444
 33
0.0
 14
616.1251916789751
 24
339.2677933646444
 34
0.0
100
AcDbRotatedDimension
1001
ACAD
1000
DSTYLE
1002
{
1070
    75
1070
     1
1070
   271
1070
     2
1070
   279
1070
     1
1002
}
  0
LINE
  5
82F
330
18
100
AcDbEntity
  8
0
  6
ByBlock
 62
     2
100
AcDbLine
 10
516.1251916789751
 20
339.2677933646444
 30
0.0
 11
516.1251916789751
 21
268.8146929169618
 31
0.0
  0
LINE
  5
830
330
18
100
AcDbEntity
  8
0
  6
ByBlock
 62
     2
100
AcDbLine
 10
473.6251916789751
 20
270.0646929169618
 30
0.0
 11
513.6251916789752
 21
270.0646929169618
 31
0.0
  0
INSERT
  5
831
330
18
100
AcDbEntity
  8
0
  6
ByBlock
 62
     2
100
AcDbBlockReference
  2
_OPEN
 10
471.1251916789751
 20
270.0646929169618
 30
0.0
 41
2.5
 42
2.5
 43
2.5
 50
180.0
  0
INSERT
  5
832
330
18
100
AcDbEntity
  8
0
  6
ByBlock
 62
     2
100
AcDbBlockReference
  2
_OPEN
 10
516.1251916789751
 20
270.0646929169618
 30
0.0
 41
2.5
 42
2.5
 43
2.5
  0
MTEXT
  5
833
330
18
100
AcDbEntity
  8
0
  6
ByBlock
 62
     6
100
AcDbMText
 10
493.6251916789752
 20
271.9396929169618
 30
0.0
 40
2.5
 41
0.0
 71
     5
 72
     1
  1
\A1;45
  7
STYLE3
 73
     1
 44
1.0
  0
POINT
  5
834
330
18
100
AcDbEntity
  8
DEFPOINTS
  6
ByBlock
 62
     0
100
AcDbPoint
 10
471.1251916789751
 20
302.2076689096181
 30
0.0
  0
POINT
  5
835
330
18
100
AcDbEntity
  8
DEFPOINTS
  6
ByBlock
 62
     0
100
AcDbPoint
 10
516.1251916789751
 20
339.2677933646444
 30
0.0
  0
POINT
  5
836
330
18
100
AcDbEntity
  8
DEFPOINTS
  6
ByBlock
 62
     0
100
AcDbPoint
 10
516.1251916789751
 20
270.0646929169618
 30
0.0
  0
ARC
  5
83C
330
18
100
AcDbEntity
  8
寸法線
100
AcDbCircle
 10
471.1251916789751
 20
346.4677933646445
 30
0.0
 40
14.00279972005601
100
AcDbArc
 50
314.4761706626058
 51
22.33421773993891
  0
CIRCLE
  5
84F
330
18
100
AcDbEntity
  8
外形線
100
AcDbCircle
 10
483.8020774878478
 20
340.4376512502548
 30
0.0
 40
1.274999999999999
  0
LINE
  5
868
330
18
100
AcDbEntity
  8
中心線
100
AcDbLine
 10
426.3096898964831
 20
366.3996610190317
 30
0.0
 11
425.2584508440476
 21
257.0103277504652
 31
0.0
  0
LINE
  5
869
330
18
100
AcDbEntity
  8
外形線
100
AcDbLine
 10
427.9941637915983
 20
359.5727681498085
 30
0.0
 11
427.0740923273647
 21
263.8324093810447
 31
0.0
  0
LINE
  5
86A
330
18
100
AcDbEntity
  8
外形線
100
AcDbLine
 10
424.494325398904
 20
359.6064018386307
 30
0.0
 11
423.5742539346706
 21
263.8660430698668
 31
0.0
  0
LINE
  5
86B
330
18
100
AcDbEntity
  8
中心線
100
AcDbLine
 10
423.7887385330788
 20
363.6133672797653
 30
0.0
 11
429.0083849065803
 21
363.5632061173945
 31
0.0
  0
LINE
  5
86C
330
18
100
AcDbEntity
  8
外形線
100
AcDbLine
 10
424.494325398904
 20
359.6064018386307
 30
0.0
 11
427.9941637915983
 21
359.5727681498085
 31
0.0
  0
CIRCLE
  5
86D
330
18
100
AcDbEntity
  8
外形線
100
AcDbCircle
 10
426.2826830967621
 20
363.5894003001558
 30
0.0
 40
2.0
  0
CIRCLE
  5
86E
330
18
100
AcDbEntity
  8
外形線
100
AcDbCircle
 10
426.2826830967621
 20
363.5894003001558
 30
0.0
 40
1.25
  0
LINE
  5
86F
330
18
100
AcDbEntity
  8
外形線
100
AcDbLine
 10
425.2789873470033
 20
362.8443534278612
 30
0.0
 11
427.9941637915983
 21
359.5727681498085
 31
0.0
  0
LINE
  5
870
330
18
100
AcDbEntity
  8
中心線
100
AcDbLine
 10
422.6163459151887
 20
259.8750639295415
 30
0.0
 11
428.3576829570706
 21
259.819889283794
 31
0.0
  0
LINE
  5
871
330
18
100
AcDbEntity
  8
外形線
100
AcDbLine
 10
423.5742539346706
 20
263.8660430698668
 30
0.0
 11
427.0740923273647
 21
263.8324093810447
 31
0.0
  0
CIRCLE
  5
872
330
18
100
AcDbEntity
  8
外形線
100
AcDbCircle
 10
425.2857346295067
 20
259.8494109195195
 30
0.0
 40
2.0
  0
CIRCLE
  5
873
330
18
100
AcDbEntity
  8
外形線
100
AcDbCircle
 10
425.2857346295067
 20
259.8494109195195
 30
0.0
 40
1.25
  0
LINE
  5
874
330
18
100
AcDbEntity
  8
外形線
100
AcDbLine
 10
423.5742539346706
 20
263.8660430698668
 30
0.0
 11
426.3692135481048
 21
260.4727675052342
 31
0.0
  0
LINE
  5
875
330
18
100
AcDbEntity
  8
想像線
100
AcDbLine
 10
427.694177643653
 20
359.5756510374219
 30
0.0
 11
426.7741061794195
 21
263.835292268658
 31
0.0
  0
LINE
  5
876
330
18
100
AcDbEntity
  8
想像線
100
AcDbLine
 10
424.7943115468492
 20
359.6035189510173
 30
0.0
 11
423.8742400826159
 21
263.8631601822535
 31
0.0
  0
LINE
  5
878
330
18
100
AcDbEntity
  8
寸法線
100
AcDbLine
 10
291.9595016087606
 20
403.7455406143299
 30
0.0
 11
290.383814534226
 21
239.7834445298166
 31
0.0
  0
LINE
  5
87A
330
18
100
AcDbEntity
  8
寸法線
  6
PHANTOM2
100
AcDbLine
 10
421.9534990516875
 20
402.4962893152227
 30
0.0
 11
420.1547303836461
 21
215.3208748882757
 31
0.0
  0
DIMENSION
  5
888
330
18
100
AcDbEntity
  8
外形線
100
AcDbDimension
  2
*D8
 10
422.0285958001023
 20
410.3106710400216
 30
0.0
 11
357.0496151262223
 21
412.8102101142326
 31
0.0
 70
    33
 71
     5
 42
-1.0
  3
STYLE3
100
AcDbAlignedDimension
 13
291.9595016087606
 23
403.7455406143299
 33
0.0
 14
421.9534990516875
 24
402.4962893152227
 34
0.0
1001
ACAD
1000
DSTYLE
1002
{
1070
   271
1070
     2
1002
}
  0
ARC
  5
8A5
330
18
100
AcDbEntity
  8
隠れ線
 62
     4
 48
0.35
100
AcDbCircle
 10
349.1251916789752
 20
194.3477933646444
 30
0.0
 40
177.0
100
AcDbArc
 50
63.56247536868058
 51
64.81526078581199
  0
ARC
  5
8A6
330
18
100
AcDbEntity
  8
外形線
100
AcDbCircle
 10
349.1251916789752
 20
194.3477933646444
 30
0.0
 40
177.0
100
AcDbArc
 50
64.81526078581199
 51
104.1636884021542
  0
ARC
  5
8A9
330
18
100
AcDbEntity
  8
隠れ線
 62
     4
 48
0.35
100
AcDbCircle
 10
307.1251916789752
 20
348.9677933646446
 30
0.0
 40
142.0
100
AcDbArc
 50
325.1175678132968
 51
327.708193089203
  0
ARC
  5
8AA
330
18
100
AcDbEntity
  8
外形線
100
AcDbCircle
 10
307.1251916789752
 20
348.9677933646445
 30
0.0
 40
142.0
100
AcDbArc
 50
327.708193089203
 51
350.7957853501007
  0
LINE
  5
8BE
330
18
100
AcDbEntity
  8
外形線
100
AcDbLine
 10
459.1251916789753
 20
345.9677933646445
 30
0.0
 11
461.1251916789752
 21
350.9677933646445
 31
0.0
  0
LINE
  5
8C9
330
18
100
AcDbEntity
  8
中心線
 48
0.5
100
AcDbLine
 10
281.1986091397804
 20
398.6732087411255
 30
0.0
 11
270.8416336344839
 21
342.6904153836549
 31
0.0
  0
LINE
  5
8CA
330
18
100
AcDbEntity
  8
外形線
100
AcDbLine
 10
280.009310607568
 20
375.7535293022411
 30
0.0
 11
278.3858538884516
 21
366.9782220723828
 31
0.0
  0
LINE
  5
8CB
330
18
100
AcDbEntity
  8
外形線
100
AcDbLine
 10
273.7017370019526
 20
374.6413338927666
 30
0.0
 11
272.4859693258983
 21
368.0697174450459
 31
0.0
  0
LINE
  5
8D1
330
18
100
AcDbEntity
  8
外形線
100
AcDbLine
 10
274.8360732813911
 20
361.533127248439
 30
0.0
 11
278.3858538884516
 21
366.9782220723826
 31
0.0
  0
LINE
  5
8D2
330
18
100
AcDbEntity
  8
外形線
100
AcDbLine
 10
273.8527591876323
 20
361.7150431438828
 30
0.0
 11
272.4859693258983
 21
368.0697174450459
 31
0.0
  0
LINE
  5
8D3
330
18
100
AcDbEntity
  8
外形線
100
AcDbLine
 10
274.8360732813911
 20
361.533127248439
 30
0.0
 11
276.202863143125
 21
355.1784529472759
 31
0.0
  0
LINE
  5
8D4
330
18
100
AcDbEntity
  8
外形線
100
AcDbLine
 10
273.8527591876323
 20
361.7150431438828
 30
0.0
 11
270.3029785805718
 21
356.2699483199391
 31
0.0
  0
LINE
  5
8D5
330
18
100
AcDbEntity
  8
外形線
100
AcDbLine
 10
270.3029785805717
 20
356.2699483199391
 30
0.0
 11
267.8638609515417
 21
343.0857307719962
 31
0.0
  0
LINE
  5
8D6
330
18
100
AcDbEntity
  8
外形線
100
AcDbLine
 10
276.2028631431251
 20
355.1784529472759
 30
0.0
 11
274.1714345571572
 21
344.1979261814708
 31
0.0
  0
LINE
  5
8D7
330
18
100
AcDbEntity
  8
外形線
100
AcDbLine
 10
273.8527591876323
 20
361.7150431438828
 30
0.0
 11
274.8360732813911
 21
361.533127248439
 31
0.0
  0
LINE
  5
8DF
330
18
100
AcDbEntity
  8
外形線
100
AcDbLine
 10
284.0377366625144
 20
396.218173401144
 30
0.0
 11
282.3498273441474
 21
387.0944790824723
 31
0.0
  0
LINE
  5
8E0
330
18
100
AcDbEntity
  8
外形線
100
AcDbLine
 10
277.7301630568991
 20
395.1059779916694
 30
0.0
 11
276.449942781594
 21
388.1859744551354
 31
0.0
  0
LINE
  5
8E1
330
18
100
AcDbEntity
  8
外形線
100
AcDbLine
 10
277.816732643328
 20
381.8313001539723
 30
0.0
 11
276.449942781594
 21
388.1859744551354
 31
0.0
  0
LINE
  5
8E2
330
18
100
AcDbEntity
  8
外形線
100
AcDbLine
 10
278.8000467370868
 20
381.6493842585284
 30
0.0
 11
282.3498273441473
 21
387.0944790824721
 31
0.0
  0
LINE
  5
8E3
330
18
100
AcDbEntity
  8
外形線
100
AcDbLine
 10
277.816732643328
 20
381.8313001539723
 30
0.0
 11
278.8000467370868
 21
381.6493842585284
 31
0.0
  0
LINE
  5
8F6
330
18
100
AcDbEntity
  8
想像線
 48
0.3
100
AcDbLine
 10
265.0648787117463
 20
342.5921946845964
 30
0.0
 11
277.106758953774
 21
344.7155030697261
 31
0.0
  0
LINE
  5
8F8
330
18
100
AcDbEntity
  8
想像線
 48
0.3
100
AcDbLine
 10
270.902754762157
 20
374.1477978053668
 30
0.0
 11
282.9446350041848
 21
376.2711061904965
 31
0.0
  0
LINE
  5
8F9
330
18
100
AcDbEntity
  8
想像線
 48
0.3
100
AcDbLine
 10
274.9311808171035
 20
394.6124419042697
 30
0.0
 11
286.9730610591314
 21
396.7357502893994
 31
0.0
  0
LINE
  5
90C
330
18
100
AcDbEntity
  8
寸法線
100
AcDbLine
 10
277.816732643328
 20
381.8313001539723
 30
0.0
 11
271.2148768473264
 21
377.6971692220566
 31
0.0
  0
LINE
  5
90D
330
18
100
AcDbEntity
  8
寸法線
100
AcDbLine
 10
278.8000467370868
 20
381.6493842585284
 30
0.0
 11
272.1981909410853
 21
377.5152533266127
 31
0.0
  0
LINE
  5
92E
330
18
100
AcDbEntity
  8
0
  6
ByBlock
 62
     2
100
AcDbLine
 10
274.9963251600959
 20
377.2732795359553
 30
0.0
 11
277.4546103944932
 21
376.8184897973457
 31
0.0
  0
LINE
  5
92F
330
18
100
AcDbEntity
  8
0
  6
ByBlock
 62
     2
100
AcDbLine
 10
269.0964405975427
 20
378.3647749086186
 30
0.0
 11
264.823706737757
 21
379.1552427876307
 31
0.0
  0
LINE
  5
930
330
18
100
AcDbEntity
  8
0
  6
ByBlock
 62
     2
100
AcDbLine
 10
272.5380399256987
 20
377.728069274565
 30
0.0
 11
271.5547258319399
 21
377.9099851700089
 31
0.0
  0
INSERT
  5
931
330
18
100
AcDbEntity
  8
0
  6
ByBlock
 62
     2
100
AcDbBlockReference
  2
_OPEN
 10
272.5380399256987
 20
377.728069274565
 30
0.0
 41
2.5
 42
2.5
 43
2.5
 50
169.5186247750251
  0
INSERT
  5
932
330
18
100
AcDbEntity
  8
0
  6
ByBlock
 62
     2
100
AcDbBlockReference
  2
_OPEN
 10
271.5547258319399
 20
377.9099851700089
 30
0.0
 41
2.5
 42
2.5
 43
2.5
 50
349.5186247750252
  0
MTEXT
  5
933
330
18
100
AcDbEntity
  8
0
  6
ByBlock
 62
     6
100
AcDbMText
 10
266.0720233544085
 20
380.8311176432273
 30
0.0
 40
2.5
 41
0.0
 71
     5
 72
     1
  1
\A1;1
  7
STYLE3
 11
0.9833140937588835
 21
-0.1819158954438713
 31
0.0
 73
     1
 44
1.0
  0
POINT
  5
934
330
18
100
AcDbEntity
  8
DEFPOINTS
  6
ByBlock
 62
     0
100
AcDbPoint
 10
272.1981909410853
 20
377.5152533266127
 30
0.0
  0
POINT
  5
935
330
18
100
AcDbEntity
  8
DEFPOINTS
  6
ByBlock
 62
     0
100
AcDbPoint
 10
271.2148768473264
 20
377.6971692220566
 30
0.0
  0
POINT
  5
936
330
18
100
AcDbEntity
  8
DEFPOINTS
  6
ByBlock
 62
     0
100
AcDbPoint
 10
271.5547258319399
 20
377.9099851700089
 30
0.0
  0
LINE
  5
944
330
18
100
AcDbEntity
  8
隠れ線2
100
AcDbLine
 10
516.1251916789751
 20
364.7177933646445
 30
0.0
 11
604.6251916789751
 21
364.7177933646446
 31
0.0
  0
LINE
  5
945
330
18
100
AcDbEntity
  8
隠れ線2
100
AcDbLine
 10
516.1251916789751
 20
341.2177933646443
 30
0.0
 11
604.6251916789751
 21
341.2177933646445
 31
0.0
  0
LINE
  5
946
330
18
100
AcDbEntity
  8
隠れ線2
100
AcDbLine
 10
606.1251916789752
 20
363.2177933646445
 30
0.0
 11
606.1251916789752
 21
342.7177933646445
 31
0.0
  0
ARC
  5
947
330
18
100
AcDbEntity
  8
隠れ線2
100
AcDbCircle
 10
604.6251916789751
 20
363.2177933646445
 30
0.0
 40
1.5
100
AcDbArc
 50
0.0
 51
90.0
  0
ARC
  5
948
330
18
100
AcDbEntity
  8
隠れ線2
100
AcDbCircle
 10
604.6251916789751
 20
342.7177933646445
 30
0.0
 40
1.5
100
AcDbArc
 50
270.0
 51
0.0
  0
TEXT
  5
A61
330
18
100
AcDbEntity
  8
文字
100
AcDbText
 10
489.7267063168214
 20
447.669299604116
 30
0.0
 40
4.0
  1
Model No.LA-8 Outside Dial Caliper Gauge
  7
STYLE3
100
AcDbText
  0
LINE
  5
A62
330
18
100
AcDbEntity
  8
外形線
100
AcDbLine
 10
488.4237563168214
 20
443.7458696041161
 30
0.0
 11
615.4237563168215
 21
443.7458696041161
 31
0.0
  0
LINE
  5
A63
330
18
100
AcDbEntity
  8
外形線
100
AcDbLine
 10
488.4237563168214
 20
444.745869604116
 30
0.0
 11
615.4237563168215
 21
444.745869604116
 31
0.0
  0
TEXT
  5
A64
330
18
100
AcDbEntity
  8
0
  6
Continuous
100
AcDbText
 10
596.6064745405871
 20
178.9358227008279
 30
0.0
 40
2.1
  1
OZAKI MFG. CO., LTD.
  7
STYLE3
100
AcDbText
  0
TEXT
  5
A65
330
18
100
AcDbEntity
  8
0
  6
Continuous
100
AcDbText
 10
595.7319965405872
 20
182.7234617008279
 30
0.0
 40
3.0
  1
株式会社　尾崎製作所
  7
STYLE3
100
AcDbText
  0
TEXT
  5
A66
330
18
100
AcDbEntity
  8
0
  6
Continuous
100
AcDbText
 10
575.3274415405871
 20
180.6839637008279
 30
0.0
 40
2.1
  1
2010.06.28
  7
STYLE3
100
AcDbText
  0
TEXT
  5
A67
330
18
100
AcDbEntity
  8
0
  6
Continuous
100
AcDbText
 10
566.1992735405871
 20
182.2689067008279
 30
0.0
 40
3.0
  1
日 付
  7
STYLE3
100
AcDbText
  0
TEXT
  5
A68
330
18
100
AcDbEntity
  8
0
  6
Continuous
100
AcDbText
 10
566.5826345405871
 20
178.9358237008279
 30
0.0
 40
2.1
  1
Date
  7
STYLE3
100
AcDbText
  0
TEXT
  5
A69
330
18
100
AcDbEntity
  8
0
  6
Continuous
100
AcDbText
 10
556.4888625405871
 20
180.9753227008279
 30
0.0
 40
2.399999999999999
  1
1/1
  7
STYLE3
100
AcDbText
  0
TEXT
  5
A6A
330
18
100
AcDbEntity
  8
0
  6
Continuous
100
AcDbText
 10
546.8695735405871
 20
179.2271797008279
 30
0.0
 40
2.1
  1
Scale
  7
STYLE3
100
AcDbText
  0
TEXT
  5
A6B
330
18
100
AcDbEntity
  8
0
  6
Continuous
100
AcDbText
 10
537.1305105405871
 20
180.6839657008279
 30
0.0
 40
2.399999999999999
  1
mm
  7
STYLE3
100
AcDbText
  0
TEXT
  5
A6C
330
18
100
AcDbEntity
  8
0
  6
Continuous
100
AcDbText
 10
546.4063585405872
 20
182.1467017008279
 30
0.0
 40
3.0
  1
尺 度
  7
STYLE3
100
AcDbText
  0
TEXT
  5
A6D
330
18
100
AcDbEntity
  8
0
  6
Continuous
100
AcDbText
 10
529.2601835405872
 20
178.9358227008279
 30
0.0
 40
2.1
  1
Unit
  7
STYLE3
100
AcDbText
  0
TEXT
  5
A6E
330
18
100
AcDbEntity
  8
0
  6
Continuous
100
AcDbText
 10
529.0884625405872
 20
182.4380597008279
 30
0.0
 40
3.0
  1
単位
  7
STYLE3
100
AcDbText
  0
LINE
  5
A6F
330
18
100
AcDbEntity
  8
外形線
100
AcDbLine
 10
527.6309935405871
 20
186.8024597008279
 30
0.0
 11
527.6309935405871
 21
177.1876817008279
 31
0.0
  0
LINE
  5
A70
330
18
100
AcDbEntity
  8
外形線
100
AcDbLine
 10
545.1206115405871
 20
186.8024597008279
 30
0.0
 11
545.1206115405871
 21
177.1876817008279
 31
0.0
  0
LINE
  5
A71
330
18
100
AcDbEntity
  8
外形線
100
AcDbLine
 10
564.6506835405872
 20
186.8024597008279
 30
0.0
 11
564.6506835405872
 21
177.1876817008279
 31
0.0
  0
LINE
  5
A72
330
18
100
AcDbEntity
  8
外形線
100
AcDbLine
 10
594.3830325405871
 20
186.8024597008279
 30
0.0
 11
594.3830325405871
 21
177.1876817008279
 31
0.0
  0
LINE
  5
A73
330
18
100
AcDbEntity
  8
外形線
100
AcDbLine
 10
492.3602665405872
 20
177.1876817008279
 30
0.0
 11
492.3602665405872
 21
197.5826647008279
 31
0.0
  0
TEXT
  5
A74
330
18
100
AcDbEntity
  8
0
  6
Continuous
100
AcDbText
 10
496.1496845405871
 20
182.4321047008279
 30
0.0
 40
3.0
  1
三　　角　　法
  7
STYLE3
100
AcDbText
  0
TEXT
  5
A75
330
18
100
AcDbEntity
  8
0
  6
Continuous
100
AcDbText
 10
493.5262415405872
 20
178.9358217008279
 30
0.0
 40
2.1
  1
3RD Angle Projection
  7
STYLE3
100
AcDbText
  0
TEXT
  5
A76
330
18
100
AcDbEntity
  8
0
  6
Continuous
100
AcDbText
 10
494.1092275405871
 20
192.6295977008279
 30
0.0
 40
3.5
  1
仕様及び外観は予告なく変更される場合がございますのでご了承下さい。
  7
STYLE3
100
AcDbText
  0
TEXT
  5
A77
330
18
100
AcDbEntity
  8
0
  6
Continuous
100
AcDbText
 10
493.8177335405872
 20
188.7004497008279
 30
0.0
 40
2.1
  1
Design and specifications are subject to change without notice for future improvement.
  7
STYLE3
100
AcDbText
  0
LINE
  5
A78
330
18
100
AcDbEntity
  8
外形線
100
AcDbLine
 10
492.3602665405872
 20
186.8024597008279
 30
0.0
 11
633.1516835405872
 21
186.8024597008279
 31
0.0
  0
LINE
  5
A79
330
18
100
AcDbEntity
  8
外形線
100
AcDbLine
 10
492.3602665405872
 20
197.5826647008279
 30
0.0
 11
633.1516835405872
 21
197.5826647008279
 31
0.0
  0
ENDSEC
  0
SECTION
  2
OBJECTS
  0
DICTIONARY
  5
C
330
0
100
AcDbDictionary
281
     1
  3
ACAD_COLOR
350
997
  3
ACAD_GROUP
350
D
  3
ACAD_LAYOUT
350
99A
  3
ACAD_MATERIAL
350
996
  3
ACAD_MLINESTYLE
350
1B
  3
ACAD_PLOTSETTINGS
350
99B
  3
ACAD_PLOTSTYLENAME
350
994
  3
ACAD_TABLESTYLE
350
998
  3
AcDbVariableDictionary
350
9A6
  0
DICTIONARY
  5
9C3
330
18
100
AcDbDictionary
280
     1
281
     1
  3
ACAD_SORTENTS
360
9C4
  0
DICTIONARY
  5
997
102
{ACAD_REACTORS
330
C
102
}
330
C
100
AcDbDictionary
281
     1
  0
DICTIONARY
  5
D
102
{ACAD_REACTORS
330
C
102
}
330
C
100
AcDbDictionary
281
     1
  0
DICTIONARY
  5
99A
102
{ACAD_REACTORS
330
C
102
}
330
C
100
AcDbDictionary
281
     1
  3
Model
350
99C
  3
レイアウト1
350
99D
  0
DICTIONARY
  5
996
102
{ACAD_REACTORS
330
C
102
}
330
C
100
AcDbDictionary
281
     1
  0
DICTIONARY
  5
1B
102
{ACAD_REACTORS
330
C
102
}
330
C
100
AcDbDictionary
281
     1
  3
STANDARD
350
1C
  0
DICTIONARY
  5
99B
102
{ACAD_REACTORS
330
C
102
}
330
C
100
AcDbDictionary
281
     1
  0
ACDBDICTIONARYWDFLT
  5
994
102
{ACAD_REACTORS
330
C
102
}
330
C
100
AcDbDictionary
281
     1
  3
Normal
350
995
100
AcDbDictionaryWithDefault
340
995
  0
DICTIONARY
  5
998
102
{ACAD_REACTORS
330
C
102
}
330
C
100
AcDbDictionary
281
     1
  3
Standard
350
999
  0
DICTIONARY
  5
9A6
102
{ACAD_REACTORS
330
C
102
}
330
C
100
AcDbDictionary
281
     1
  3
CTABLESTYLE
350
9A7
  0
SORTENTSTABLE
  5
9C4
102
{ACAD_REACTORS
330
9C3
102
}
330
9C3
100
AcDbSortentsTable
330
18
331
558
  5
558
331
519
  5
519
331
645
  5
645
331
5D6
  5
5D6
331
560
  5
560
331
521
  5
521
331
597
  5
597
331
713
  5
713
331
723
  5
723
331
5DE
  5
5DE
331
568
  5
568
331
529
  5
529
331
59F
  5
59F
331
64D
  5
64D
331
1C0
  5
1C0
331
32C
  5
32C
331
2ED
  5
2ED
331
1C8
  5
1C8
331
5A7
  5
5A7
331
531
  5
531
331
570
  5
570
331
7B2
  5
7B2
331
189
  5
189
331
3AB
  5
3AB
331
2F5
  5
2F5
331
665
  5
665
331
5AF
  5
5AF
331
626
  5
626
331
753
  5
753
331
191
  5
191
331
3B3
  5
3B3
331
3BB
  5
3BB
331
2FD
  5
2FD
331
199
  5
199
331
227
  5
227
331
384
  5
384
331
3C3
  5
3C3
331
38C
  5
38C
331
305
  5
305
331
4FA
  5
4FA
331
932
  5
932
331
8CB
  5
8CB
331
8D3
  5
8D3
331
82D
  5
82D
331
8E3
  5
8E3
331
835
  5
835
331
578
  5
578
331
539
  5
539
331
66D
  5
66D
331
62E
  5
62E
331
580
  5
580
331
541
  5
541
331
5B7
  5
5B7
331
76B
  5
76B
331
77B
  5
77B
331
636
  5
636
331
5BF
  5
5BF
331
549
  5
549
331
588
  5
588
331
7EA
  5
7EA
331
502
  5
502
331
394
  5
394
331
30D
  5
30D
331
237
  5
237
331
7F2
  5
7F2
331
551
  5
551
331
5C7
  5
5C7
331
63E
  5
63E
331
1A9
  5
1A9
331
2D6
  5
2D6
331
3CB
  5
3CB
331
50A
  5
50A
331
315
  5
315
331
5CF
  5
5CF
331
793
  5
793
331
208
  5
208
331
2DE
  5
2DE
331
39C
  5
39C
331
512
  5
512
331
31D
  5
31D
331
2E6
  5
2E6
331
1B9
  5
1B9
331
3A4
  5
3A4
331
325
  5
325
331
86D
  5
86D
331
9C2
  5
9C2
331
875
  5
875
331
590
  5
590
331
51A
  5
51A
331
559
  5
559
331
5D7
  5
5D7
331
598
  5
598
331
522
  5
522
331
561
  5
561
331
646
  5
646
331
64E
  5
64E
331
5A0
  5
5A0
331
569
  5
569
331
52A
  5
52A
331
5DF
  5
5DF
331
724
  5
724
331
1C1
  5
1C1
331
3AC
  5
3AC
331
32D
  5
32D
331
1C9
  5
1C9
331
7B3
  5
7B3
331
73C
  5
73C
331
5E7
  5
5E7
331
571
  5
571
331
532
  5
532
331
5A8
  5
5A8
331
18A
  5
18A
331
2EE
  5
2EE
331
3B4
  5
3B4
331
267
  5
267
331
754
  5
754
331
627
  5
627
331
666
  5
666
331
192
  5
192
331
2F6
  5
2F6
331
385
  5
385
331
2FE
  5
2FE
331
1F1
  5
1F1
331
19A
  5
19A
331
3BC
  5
3BC
331
3C4
  5
3C4
331
306
  5
306
331
38D
  5
38D
331
4FB
  5
4FB
331
933
  5
933
331
8D4
  5
8D4
331
8A5
  5
8A5
331
836
  5
836
331
579
  5
579
331
53A
  5
53A
331
5B0
  5
5B0
331
62F
  5
62F
331
5B8
  5
5B8
331
542
  5
542
331
581
  5
581
331
66E
  5
66E
331
7EB
  5
7EB
331
77C
  5
77C
331
5C0
  5
5C0
331
589
  5
589
331
54A
  5
54A
331
637
  5
637
331
3CC
  5
3CC
331
30E
  5
30E
331
201
  5
201
331
63F
  5
63F
331
552
  5
552
331
5C8
  5
5C8
331
7F3
  5
7F3
331
1AA
  5
1AA
331
2D7
  5
2D7
331
395
  5
395
331
503
  5
503
331
39D
  5
39D
331
2DF
  5
2DF
331
794
  5
794
331
240
  5
240
331
316
  5
316
331
50B
  5
50B
331
513
  5
513
331
3A5
  5
3A5
331
31E
  5
31E
331
2E7
  5
2E7
331
1BA
  5
1BA
331
3DC
  5
3DC
331
326
  5
326
331
90C
  5
90C
331
86E
  5
86E
331
876
  5
876
331
591
  5
591
331
55A
  5
55A
331
51B
  5
51B
331
5D0
  5
5D0
331
647
  5
647
331
5D8
  5
5D8
331
562
  5
562
331
523
  5
523
331
599
  5
599
331
725
  5
725
331
5E0
  5
5E0
331
5A1
  5
5A1
331
52B
  5
52B
331
56A
  5
56A
331
1C2
  5
1C2
331
32E
  5
32E
331
2EF
  5
2EF
331
1CA
  5
1CA
331
5A9
  5
5A9
331
533
  5
533
331
572
  5
572
331
65F
  5
65F
331
18B
  5
18B
331
3AD
  5
3AD
331
2F7
  5
2F7
331
268
  5
268
331
667
  5
667
331
193
  5
193
331
3B5
  5
3B5
331
3BD
  5
3BD
331
386
  5
386
331
19B
  5
19B
331
2FF
  5
2FF
331
3C5
  5
3C5
331
38E
  5
38E
331
307
  5
307
331
4FC
  5
4FC
331
934
  5
934
331
944
  5
944
331
8D5
  5
8D5
331
82F
  5
82F
331
8A6
  5
8A6
331
5B1
  5
5B1
331
57A
  5
57A
331
53B
  5
53B
331
628
  5
628
331
66F
  5
66F
331
630
  5
630
331
582
  5
582
331
543
  5
543
331
5B9
  5
5B9
331
231
  5
231
331
77D
  5
77D
331
638
  5
638
331
5C1
  5
5C1
331
54B
  5
54B
331
58A
  5
58A
331
677
  5
677
331
7EC
  5
7EC
331
1FA
  5
1FA
331
504
  5
504
331
396
  5
396
331
30F
  5
30F
331
2D8
  5
2D8
331
78D
  5
78D
331
553
  5
553
331
5C9
  5
5C9
331
7F4
  5
7F4
331
1AB
  5
1AB
331
3CD
  5
3CD
331
317
  5
317
331
2E0
  5
2E0
331
6C7
  5
6C7
331
795
  5
795
331
1B3
  5
1B3
331
39E
  5
39E
331
50C
  5
50C
331
514
  5
514
331
31F
  5
31F
331
1BB
  5
1BB
331
249
  5
249
331
3A6
  5
3A6
331
327
  5
327
331
8BE
  5
8BE
331
84F
  5
84F
331
86F
  5
86F
331
90D
  5
90D
331
5D1
  5
5D1
331
592
  5
592
331
51C
  5
51C
331
55B
  5
55B
331
640
  5
640
331
7A5
  5
7A5
331
648
  5
648
331
59A
  5
59A
331
524
  5
524
331
563
  5
563
331
5D9
  5
5D9
331
2E8
  5
2E8
331
251
  5
251
331
1C3
  5
1C3
331
5A2
  5
5A2
331
56B
  5
56B
331
52C
  5
52C
331
184
  5
184
331
212
  5
212
331
3AE
  5
3AE
331
32F
  5
32F
331
573
  5
573
331
534
  5
534
331
5AA
  5
5AA
331
18C
  5
18C
331
2F0
  5
2F0
331
6F7
  5
6F7
331
194
  5
194
331
2F8
  5
2F8
331
3B6
  5
3B6
331
387
  5
387
331
300
  5
300
331
271
  5
271
331
19C
  5
19C
331
3BE
  5
3BE
331
3C6
  5
3C6
331
38F
  5
38F
331
4FD
  5
4FD
331
7F8
  5
7F8
331
935
  5
935
331
8D6
  5
8D6
331
945
  5
945
331
830
  5
830
331
629
  5
629
331
5B2
  5
5B2
331
53C
  5
53C
331
57B
  5
57B
331
668
  5
668
331
7E5
  5
7E5
331
631
  5
631
331
5BA
  5
5BA
331
544
  5
544
331
583
  5
583
331
670
  5
670
331
308
  5
308
331
7ED
  5
7ED
331
678
  5
678
331
5C2
  5
5C2
331
58B
  5
58B
331
54C
  5
54C
331
639
  5
639
331
1FB
  5
1FB
331
3CE
  5
3CE
331
397
  5
397
331
2D9
  5
2D9
331
78E
  5
78E
331
554
  5
554
331
5CA
  5
5CA
331
1AC
  5
1AC
331
23A
  5
23A
331
310
  5
310
331
505
  5
505
331
39F
  5
39F
331
2E1
  5
2E1
331
1B4
  5
1B4
331
318
  5
318
331
50D
  5
50D
331
3A7
  5
3A7
331
320
  5
320
331
1BC
  5
1BC
331
515
  5
515
331
8F6
  5
8F6
331
868
  5
868
331
9C5
  5
9C5
331
8C7
  5
8C7
331
870
  5
870
331
92E
  5
92E
331
641
  5
641
331
593
  5
593
331
55C
  5
55C
331
51D
  5
51D
331
5D2
  5
5D2
331
6C8
  5
6C8
331
649
  5
649
331
5DA
  5
5DA
331
564
  5
564
331
525
  5
525
331
59B
  5
59B
331
328
  5
328
331
2E9
  5
2E9
331
185
  5
185
331
1C4
  5
1C4
331
5E2
  5
5E2
331
5A3
  5
5A3
331
52D
  5
52D
331
56C
  5
56C
331
6E8
  5
6E8
331
330
  5
330
331
2F1
  5
2F1
331
18D
  5
18D
331
3AF
  5
3AF
331
5AB
  5
5AB
331
535
  5
535
331
574
  5
574
331
661
  5
661
331
2F9
  5
2F9
331
1EC
  5
1EC
331
195
  5
195
331
3B7
  5
3B7
331
3BF
  5
3BF
331
388
  5
388
331
272
  5
272
331
19D
  5
19D
331
22B
  5
22B
331
301
  5
301
331
4FE
  5
4FE
331
3C7
  5
3C7
331
878
  5
878
331
7F9
  5
7F9
331
936
  5
936
331
946
  5
946
331
8D7
  5
8D7
331
888
  5
888
331
831
  5
831
331
8DF
  5
8DF
331
5B3
  5
5B3
331
57C
  5
57C
331
53D
  5
53D
331
62A
  5
62A
331
671
  5
671
331
632
  5
632
331
584
  5
584
331
545
  5
545
331
5BB
  5
5BB
331
390
  5
390
331
309
  5
309
331
1FC
  5
1FC
331
7EE
  5
7EE
331
63A
  5
63A
331
5C3
  5
5C3
331
54D
  5
54D
331
58C
  5
58C
331
679
  5
679
331
506
  5
506
331
398
  5
398
331
311
  5
311
331
2DA
  5
2DA
331
1AD
  5
1AD
331
3CF
  5
3CF
331
7F6
  5
7F6
331
555
  5
555
331
5CB
  5
5CB
331
78F
  5
78F
331
319
  5
319
331
2E2
  5
2E2
331
1B5
  5
1B5
331
3A0
  5
3A0
331
50E
  5
50E
331
797
  5
797
331
3DF
  5
3DF
331
1BD
  5
1BD
331
321
  5
321
331
516
  5
516
331
869
  5
869
331
9C6
  5
9C6
331
871
  5
871
331
92F
  5
92F
331
6C9
  5
6C9
331
5D3
  5
5D3
331
594
  5
594
331
51E
  5
51E
331
55D
  5
55D
331
642
  5
642
331
64A
  5
64A
331
59C
  5
59C
331
565
  5
565
331
526
  5
526
331
5DB
  5
5DB
331
720
  5
720
331
3A8
  5
3A8
331
2EA
  5
2EA
331
186
  5
186
331
329
  5
329
331
7AF
  5
7AF
331
5A4
  5
5A4
331
56D
  5
56D
331
52E
  5
52E
331
5E3
  5
5E3
331
3B0
  5
3B0
331
331
  5
331
331
18E
  5
18E
331
21C
  5
21C
331
2F2
  5
2F2
331
7B7
  5
7B7
331
662
  5
662
331
575
  5
575
331
536
  5
536
331
5AC
  5
5AC
331
2FA
  5
2FA
331
196
  5
196
331
1ED
  5
1ED
331
26B
  5
26B
331
3B8
  5
3B8
331
4F7
  5
4F7
331
389
  5
389
331
302
  5
302
331
19E
  5
19E
331
3C0
  5
3C0
331
4FF
  5
4FF
331
947
  5
947
331
832
  5
832
331
8E0
  5
8E0
331
62B
  5
62B
331
5B4
  5
5B4
331
53E
  5
53E
331
57D
  5
57D
331
7E7
  5
7E7
331
5BC
  5
5BC
331
546
  5
546
331
585
  5
585
331
633
  5
633
331
3C8
  5
3C8
331
30A
  5
30A
331
234
  5
234
331
391
  5
391
331
7EF
  5
7EF
331
67A
  5
67A
331
5C4
  5
5C4
331
58D
  5
58D
331
54E
  5
54E
331
63B
  5
63B
331
399
  5
399
331
2DB
  5
2DB
331
1AE
  5
1AE
331
205
  5
205
331
312
  5
312
331
507
  5
507
331
790
  5
790
331
556
  5
556
331
5CC
  5
5CC
331
7F7
  5
7F7
331
3A1
  5
3A1
331
2E3
  5
2E3
331
1B6
  5
1B6
331
31A
  5
31A
331
50F
  5
50F
331
24C
  5
24C
331
1BE
  5
1BE
331
322
  5
322
331
3E0
  5
3E0
331
517
  5
517
331
8A9
  5
8A9
331
8F8
  5
8F8
331
86A
  5
86A
331
872
  5
872
331
643
  5
643
331
5D4
  5
5D4
331
55E
  5
55E
331
51F
  5
51F
331
595
  5
595
331
6CA
  5
6CA
331
64B
  5
64B
331
5DC
  5
5DC
331
566
  5
566
331
527
  5
527
331
59D
  5
59D
331
721
  5
721
331
3E8
  5
3E8
331
32A
  5
32A
331
215
  5
215
331
1C6
  5
1C6
331
5E4
  5
5E4
331
5A5
  5
5A5
331
52F
  5
52F
331
56E
  5
56E
331
7B0
  5
7B0
331
187
  5
187
331
2EB
  5
2EB
331
3A9
  5
3A9
331
3B1
  5
3B1
331
2F3
  5
2F3
331
5AD
  5
5AD
331
576
  5
576
331
537
  5
537
331
663
  5
663
331
18F
  5
18F
331
332
  5
332
331
3B9
  5
3B9
331
26C
  5
26C
331
197
  5
197
331
3C1
  5
3C1
331
38A
  5
38A
331
19F
  5
19F
331
303
  5
303
331
4F8
  5
4F8
331
8C9
  5
8C9
331
87A
  5
87A
331
930
  5
930
331
8D1
  5
8D1
331
948
  5
948
331
833
  5
833
331
8E1
  5
8E1
331
66B
  5
66B
331
5B5
  5
5B5
331
57E
  5
57E
331
53F
  5
53F
331
62C
  5
62C
331
7E8
  5
7E8
331
634
  5
634
331
586
  5
586
331
547
  5
547
331
5BD
  5
5BD
331
500
  5
500
331
392
  5
392
331
7F0
  5
7F0
331
67B
  5
67B
331
5C5
  5
5C5
331
54F
  5
54F
331
58E
  5
58E
331
63C
  5
63C
331
1A7
  5
1A7
331
30B
  5
30B
331
3C9
  5
3C9
331
39A
  5
39A
331
313
  5
313
331
23D
  5
23D
331
557
  5
557
331
5CD
  5
5CD
331
791
  5
791
331
1AF
  5
1AF
331
2DC
  5
2DC
331
508
  5
508
331
510
  5
510
331
31B
  5
31B
331
2E4
  5
2E4
331
1B7
  5
1B7
331
245
  5
245
331
3A2
  5
3A2
331
3E1
  5
3E1
331
1BF
  5
1BF
331
24D
  5
24D
331
323
  5
323
331
8AA
  5
8AA
331
8F9
  5
8F9
331
86B
  5
86B
331
9C0
  5
9C0
331
873
  5
873
331
518
  5
518
331
5D5
  5
5D5
331
596
  5
596
331
520
  5
520
331
55F
  5
55F
331
644
  5
644
331
64C
  5
64C
331
59E
  5
59E
331
567
  5
567
331
528
  5
528
331
5DD
  5
5DD
331
722
  5
722
331
3AA
  5
3AA
331
2EC
  5
2EC
331
1C7
  5
1C7
331
7B1
  5
7B1
331
5E5
  5
5E5
331
56F
  5
56F
331
530
  5
530
331
5A6
  5
5A6
331
188
  5
188
331
32B
  5
32B
331
3B2
  5
3B2
331
664
  5
664
331
577
  5
577
331
5AE
  5
5AE
331
7B9
  5
7B9
331
190
  5
190
331
2F4
  5
2F4
331
2FC
  5
2FC
331
198
  5
198
331
3BA
  5
3BA
331
4F9
  5
4F9
331
3C2
  5
3C2
331
304
  5
304
331
1F7
  5
1F7
331
38B
  5
38B
331
931
  5
931
331
8CA
  5
8CA
331
8D2
  5
8D2
331
834
  5
834
331
8E2
  5
8E2
331
538
  5
538
331
76A
  5
76A
331
62D
  5
62D
331
5B6
  5
5B6
331
540
  5
540
331
57F
  5
57F
331
66C
  5
66C
331
5BE
  5
5BE
331
587
  5
587
331
548
  5
548
331
635
  5
635
331
1A0
  5
1A0
331
3CA
  5
3CA
331
30C
  5
30C
331
7F1
  5
7F1
331
5C6
  5
5C6
331
58F
  5
58F
331
550
  5
550
331
63D
  5
63D
331
1A8
  5
1A8
331
393
  5
393
331
501
  5
501
331
39B
  5
39B
331
5CE
  5
5CE
331
2DD
  5
2DD
331
314
  5
314
331
509
  5
509
331
511
  5
511
331
3A3
  5
3A3
331
31C
  5
31C
331
1B8
  5
1B8
331
20F
  5
20F
331
2E5
  5
2E5
331
324
  5
324
331
83C
  5
83C
331
9C1
  5
9C1
331
86C
  5
86C
331
874
  5
874
  0
LAYOUT
  5
99C
102
{ACAD_REACTORS
330
99A
102
}
330
99A
100
AcDbPlotSettings
  1

  2
none_device
  4
ISO_A4_(210.00_x_297.00_MM)
  6

 40
7.5
 41
20.0
 42
7.5
 43
20.0
 44
210.0
 45
297.0
 46
0.0
 47
0.0
 48
0.0
 49
0.0
140
0.0
141
0.0
142
1.0
143
1.736693540201298
 70
 11952
 72
     1
 73
     1
 74
     0
  7
monochrome.ctb
 75
     0
147
0.5758068288110814
 76
     0
 77
     2
 78
   300
148
-221.8240027022373
149
-174.935317372709
100
AcDbLayout
  1
Model
 70
     1
 71
     0
 10
0.0
 20
0.0
 11
12.0
 21
9.0
 12
0.0
 22
0.0
 32
0.0
 14
0.0
 24
0.0
 34
0.0
 15
0.0
 25
0.0
 35
0.0
146
0.0
 13
0.0
 23
0.0
 33
0.0
 16
1.0
 26
0.0
 36
0.0
 17
0.0
 27
1.0
 37
0.0
 76
     0
330
18
1001
ACAD_PSEXT
1000
なし
1000
なし
1000
適切ではありません
1000
新しいプロッタ環境設定名を選択しない限り、レイアウトは印刷されません。
1070
     0
  0
LAYOUT
  5
99D
102
{ACAD_REACTORS
330
99A
102
}
330
99A
100
AcDbPlotSettings
  1

  2
WIDR Printer
  4

  6

 40
0.0
 41
0.0
 42
0.0
 43
0.0
 44
0.0
 45
0.0
 46
0.0
 47
0.0
 48
0.0
 49
0.0
140
0.0
141
0.0
142
1.0
143
1.0
 70
   688
 72
     0
 73
     0
 74
     5
  7
monochrome.ctb
 75
    16
147
1.0
 76
     0
 77
     2
 78
   300
148
0.0
149
0.0
100
AcDbLayout
  1
レイアウト1
 70
     1
 71
     1
 10
0.0
 20
0.0
 11
420.0
 21
297.0
 12
0.0
 22
0.0
 32
0.0
 14
1.000000000000000E+20
 24
1.000000000000000E+20
 34
1.000000000000000E+20
 15
-1.000000000000000E+20
 25
-1.000000000000000E+20
 35
-1.000000000000000E+20
146
0.0
 13
0.0
 23
0.0
 33
0.0
 16
1.0
 26
0.0
 36
0.0
 17
0.0
 27
1.0
 37
0.0
 76
     0
330
15
  0
MLINESTYLE
  5
1C
102
{ACAD_REACTORS
330
1B
102
}
330
1B
100
AcDbMlineStyle
  2
STANDARD
 70
     0
  3

 62
   256
 51
90.0
 52
90.0
 71
     2
 49
0.5
 62
   256
  6
BYLAYER
 49
-0.5
 62
   256
  6
BYLAYER
  0
ACDBPLACEHOLDER
  5
995
102
{ACAD_REACTORS
330
994
102
}
330
994
  0
ACAD_PROXY_OBJECT
  5
999
102
{ACAD_REACTORS
330
998
102
}
330
998
100
AcDbProxyObject
 90
      499
 91
      502
 95
  2555929
 70
     0
 93
     1849
310
4214DD185B99185C992420000000000000F83F0000000000003E0FC00000000000004901028000000C1008070000C3001FDFF8000000C1003FBFF000000182007F7FE00000030400FEFFC00000060801FDFF8000000C1003FBFF000000182000000000000000C2020B0000001820100E000186003FBFF000000182007F7FE0
310
0000030400FEFFC00000060801FDFF8000000C1003FBFF000000182007F7FE0000003040000000000000012404160000003040201C00030C007F7FE00000030400FEFFC00000060801FDFF8000000C1003FBFF000000182007F7FE00000030400FEFFC000000608000
340
F
340
F
340
F
 94
        0
  0
DICTIONARYVAR
  5
9A7
102
{ACAD_REACTORS
330
9A6
102
}
330
9A6
100
DictionaryVariables
280
     0
  1
STANDARD
  0
ENDSEC
  0
EOF
