  0
SECTION
  2
HEADER
  9
$ACADVER
  1
AC1018
  9
$ACADMAINTVER
 70
     0
  9
$DWGCODEPAGE
  3
ANSI_932
  9
$INSBASE
 10
0.0
 20
0.0
 30
0.0
  9
$EXTMIN
 10
79.77794223276601
 20
271.1717555746593
 30
-0.0000457647233993
  9
$EXTMAX
 10
458.1167715968208
 20
554.5025772014644
 30
0.0000305338773714
  9
$LIMMIN
 10
0.0
 20
0.0
  9
$LIMMAX
 10
400.0
 20
267.0
  9
$ORTHOMODE
 70
     0
  9
$REGENMODE
 70
     1
  9
$FILLMODE
 70
     1
  9
$QTEXTMODE
 70
     0
  9
$MIRRTEXT
 70
     1
  9
$LTSCALE
 40
1.0
  9
$ATTMODE
 70
     1
  9
$TEXTSIZE
 40
0.2
  9
$TRACEWID
 40
1.0
  9
$TEXTSTYLE
  7
BIGFONT
  9
$CLAYER
  8
外形線
  9
$CELTYPE
  6
BYLAYER
  9
$CECOLOR
 62
   256
  9
$CELTSCALE
 40
1.0
  9
$DISPSILH
 70
     0
  9
$DIMSCALE
 40
1.0
  9
$DIMASZ
 40
2.5
  9
$DIMEXO
 40
0.0
  9
$DIMDLI
 40
3.75
  9
$DIMRND
 40
0.0
  9
$DIMDLE
 40
0.0
  9
$DIMEXE
 40
1.25
  9
$DIMTP
 40
0.0
  9
$DIMTM
 40
0.0
  9
$DIMTXT
 40
2.5
  9
$DIMCEN
 40
2.5
  9
$DIMTSZ
 40
0.0
  9
$DIMTOL
 70
     0
  9
$DIMLIM
 70
     0
  9
$DIMTIH
 70
     0
  9
$DIMTOH
 70
     0
  9
$DIMSE1
 70
     1
  9
$DIMSE2
 70
     0
  9
$DIMTAD
 70
     1
  9
$DIMZIN
 70
     8
  9
$DIMBLK
  1

  9
$DIMASO
 70
     1
  9
$DIMSHO
 70
     1
  9
$DIMPOST
  1

  9
$DIMAPOST
  1

  9
$DIMALT
 70
     0
  9
$DIMALTD
 70
     4
  9
$DIMALTF
 40
0.0394
  9
$DIMLFAC
 40
1.0
  9
$DIMTOFL
 70
     1
  9
$DIMTVP
 40
0.0
  9
$DIMTIX
 70
     0
  9
$DIMSOXD
 70
     0
  9
$DIMSAH
 70
     1
  9
$DIMBLK1
  1
OPEN
  9
$DIMBLK2
  1
OPEN
  9
$DIMSTYLE
  2
STANDARD
  9
$DIMCLRD
 70
     2
  9
$DIMCLRE
 70
     2
  9
$DIMCLRT
 70
     6
  9
$DIMTFAC
 40
1.0
  9
$DIMGAP
 40
0.625
  9
$DIMJUST
 70
     0
  9
$DIMSD1
 70
     0
  9
$DIMSD2
 70
     0
  9
$DIMTOLJ
 70
     1
  9
$DIMTZIN
 70
     0
  9
$DIMALTZ
 70
     0
  9
$DIMALTTZ
 70
     0
  9
$DIMUPT
 70
     0
  9
$DIMDEC
 70
     2
  9
$DIMTDEC
 70
     4
  9
$DIMALTU
 70
     8
  9
$DIMALTTD
 70
     4
  9
$DIMTXSTY
  7
STYLE3
  9
$DIMAUNIT
 70
     0
  9
$DIMADEC
 70
     0
  9
$DIMALTRND
 40
0.0
  9
$DIMAZIN
 70
     0
  9
$DIMDSEP
 70
    46
  9
$DIMATFIT
 70
     3
  9
$DIMFRAC
 70
     0
  9
$DIMLDRBLK
  1

  9
$DIMLUNIT
 70
     2
  9
$DIMLWD
 70
    -2
  9
$DIMLWE
 70
    -2
  9
$DIMTMOVE
 70
     1
  9
$LUNITS
 70
     2
  9
$LUPREC
 70
     4
  9
$SKETCHINC
 40
1.0
  9
$FILLETRAD
 40
4.0
  9
$AUNITS
 70
     0
  9
$AUPREC
 70
     0
  9
$MENU
  1
acad
  9
$ELEVATION
 40
0.0
  9
$PELEVATION
 40
0.0
  9
$THICKNESS
 40
0.0
  9
$LIMCHECK
 70
     0
  9
$CHAMFERA
 40
1.0
  9
$CHAMFERB
 40
1.0
  9
$CHAMFERC
 40
20.0
  9
$CHAMFERD
 40
0.0
  9
$SKPOLY
 70
     0
  9
$TDCREATE
 40
2447851.677997998
  9
$TDUCREATE
 40
2447851.302997998
  9
$TDUPDATE
 40
2455377.649794733
  9
$TDUUPDATE
 40
2455377.274794734
  9
$TDINDWG
 40
0.5781717708
  9
$TDUSRTIMER
 40
0.5781717708
  9
$USRTIMER
 70
     1
  9
$ANGBASE
 50
0.0
  9
$ANGDIR
 70
     0
  9
$PDMODE
 70
     0
  9
$PDSIZE
 40
0.0
  9
$PLINEWID
 40
0.0
  9
$SPLFRAME
 70
     0
  9
$SPLINETYPE
 70
     6
  9
$SPLINESEGS
 70
     8
  9
$HANDSEED
  5
1000153C
  9
$SURFTAB1
 70
     6
  9
$SURFTAB2
 70
     6
  9
$SURFTYPE
 70
     6
  9
$SURFU
 70
     6
  9
$SURFV
 70
     6
  9
$UCSBASE
  2

  9
$UCSNAME
  2

  9
$UCSORG
 10
0.0
 20
0.0
 30
0.0
  9
$UCSXDIR
 10
1.0
 20
0.0
 30
0.0
  9
$UCSYDIR
 10
0.0
 20
1.0
 30
0.0
  9
$UCSORTHOREF
  2

  9
$UCSORTHOVIEW
 70
     0
  9
$UCSORGTOP
 10
0.0
 20
0.0
 30
0.0
  9
$UCSORGBOTTOM
 10
0.0
 20
0.0
 30
0.0
  9
$UCSORGLEFT
 10
0.0
 20
0.0
 30
0.0
  9
$UCSORGRIGHT
 10
0.0
 20
0.0
 30
0.0
  9
$UCSORGFRONT
 10
0.0
 20
0.0
 30
0.0
  9
$UCSORGBACK
 10
0.0
 20
0.0
 30
0.0
  9
$PUCSBASE
  2

  9
$PUCSNAME
  2

  9
$PUCSORG
 10
0.0
 20
0.0
 30
0.0
  9
$PUCSXDIR
 10
1.0
 20
0.0
 30
0.0
  9
$PUCSYDIR
 10
0.0
 20
1.0
 30
0.0
  9
$PUCSORTHOREF
  2

  9
$PUCSORTHOVIEW
 70
     0
  9
$PUCSORGTOP
 10
0.0
 20
0.0
 30
0.0
  9
$PUCSORGBOTTOM
 10
0.0
 20
0.0
 30
0.0
  9
$PUCSORGLEFT
 10
0.0
 20
0.0
 30
0.0
  9
$PUCSORGRIGHT
 10
0.0
 20
0.0
 30
0.0
  9
$PUCSORGFRONT
 10
0.0
 20
0.0
 30
0.0
  9
$PUCSORGBACK
 10
0.0
 20
0.0
 30
0.0
  9
$USERI1
 70
     0
  9
$USERI2
 70
     0
  9
$USERI3
 70
     0
  9
$USERI4
 70
     0
  9
$USERI5
 70
     0
  9
$USERR1
 40
0.0
  9
$USERR2
 40
0.0
  9
$USERR3
 40
0.0
  9
$USERR4
 40
0.0
  9
$USERR5
 40
0.0
  9
$WORLDVIEW
 70
     1
  9
$SHADEDGE
 70
     3
  9
$SHADEDIF
 70
    70
  9
$TILEMODE
 70
     1
  9
$MAXACTVP
 70
    48
  9
$PINSBASE
 10
0.0
 20
0.0
 30
0.0
  9
$PLIMCHECK
 70
     0
  9
$PEXTMIN
 10
1.000000000000000E+20
 20
1.000000000000000E+20
 30
1.000000000000000E+20
  9
$PEXTMAX
 10
-1.000000000000000E+20
 20
-1.000000000000000E+20
 30
-1.000000000000000E+20
  9
$PLIMMIN
 10
0.0
 20
0.0
  9
$PLIMMAX
 10
400.0
 20
267.0
  9
$UNITMODE
 70
     0
  9
$VISRETAIN
 70
     1
  9
$PLINEGEN
 70
     0
  9
$PSLTSCALE
 70
     1
  9
$TREEDEPTH
 70
  3020
  9
$CMLSTYLE
  2
STANDARD
  9
$CMLJUST
 70
     0
  9
$CMLSCALE
 40
20.0
  9
$PROXYGRAPHICS
 70
     1
  9
$MEASUREMENT
 70
     1
  9
$CELWEIGHT
370
    -1
  9
$ENDCAPS
280
     0
  9
$JOINSTYLE
280
     0
  9
$LWDISPLAY
290
     0
  9
$INSUNITS
 70
     0
  9
$HYPERLINKBASE
  1

  9
$STYLESHEET
  1

  9
$XEDIT
290
     1
  9
$CEPSNTYPE
380
     0
  9
$PSTYLEMODE
290
     1
  9
$FINGERPRINTGUID
  2
{B85A2243-D787-482E-80CE-1A70FCFF42BB}
  9
$VERSIONGUID
  2
{867EE93A-1544-4038-8BFB-AE1ECC6212D7}
  9
$EXTNAMES
290
     1
  9
$PSVPSCALE
 40
0.0
  9
$OLESTARTUP
290
     0
  9
$SORTENTS
280
   127
  9
$INDEXCTL
280
     0
  9
$HIDETEXT
280
     0
  9
$XCLIPFRAME
290
     0
  9
$HALOGAP
280
     0
  9
$OBSCOLOR
 70
   257
  9
$OBSLTYPE
280
     0
  9
$INTERSECTIONDISPLAY
280
     0
  9
$INTERSECTIONCOLOR
 70
   257
  9
$DIMASSOC
280
     1
  9
$PROJECTNAME
  1

  0
ENDSEC
  0
SECTION
  2
CLASSES
  0
CLASS
  1
HATCH
  2
AcDbHatch
  3
ObjectDBX Classes
 90
        0
 91
       49
280
     0
281
     1
  0
CLASS
  1
LWPOLYLINE
  2
AcDbPolyline
  3
ObjectDBX Classes
 90
        0
 91
        4
280
     0
281
     1
  0
CLASS
  1
ACDBDICTIONARYWDFLT
  2
AcDbDictionaryWithDefault
  3
ObjectDBX Classes
 90
        0
 91
        1
280
     0
281
     0
  0
CLASS
  1
TABLESTYLE
  2
AcDbTableStyle
  3
ObjectDBX Classes
 90
     2047
 91
        1
280
     0
281
     0
  0
CLASS
  1
DICTIONARYVAR
  2
AcDbDictionaryVar
  3
ObjectDBX Classes
 90
        0
 91
        1
280
     0
281
     0
  0
ENDSEC
  0
SECTION
  2
TABLES
  0
TABLE
  2
VPORT
  5
A2
330
0
100
AcDbSymbolTable
 70
     2
  0
VPORT
  5
1000153B
330
A2
100
AcDbSymbolTableRecord
100
AcDbViewportTableRecord
  2
*Active
 70
     0
 10
0.0
 20
0.0
 11
1.0
 21
1.0
 12
268.9473569147935
 22
412.8371663880618
 13
0.0
 23
0.0
 14
10.0
 24
10.0
 15
10.0
 25
10.0
 16
0.0
 26
0.0
 36
1.0
 17
0.0
 27
0.0
 37
0.0
 40
285.485428635374
 41
1.530456852791878
 42
50.0
 43
0.0
 44
0.0
 50
0.0
 51
0.0
 71
     0
 72
   100
 73
     1
 74
     1
 75
     0
 76
     0
 77
     0
 78
     0
281
     0
 65
     1
110
0.0
120
0.0
130
0.0
111
1.0
121
0.0
131
0.0
112
0.0
122
1.0
132
0.0
 79
     0
146
0.0
  0
ENDTAB
  0
TABLE
  2
LTYPE
  5
A8
330
0
100
AcDbSymbolTable
 70
    12
  0
LTYPE
  5
AB
330
A8
100
AcDbSymbolTableRecord
100
AcDbLinetypeTableRecord
  2
BYBLOCK
 70
     0
  3
BYBLOCK
 72
    65
 73
     0
 40
0.0
  0
LTYPE
  5
AE
330
A8
100
AcDbSymbolTableRecord
100
AcDbLinetypeTableRecord
  2
BYLAYER
 70
     0
  3
BYLAYER
 72
    65
 73
     0
 40
0.0
  0
LTYPE
  5
B1
330
A8
100
AcDbSymbolTableRecord
100
AcDbLinetypeTableRecord
  2
CONTINUOUS
 70
     0
  3
実線
 72
    65
 73
     0
 40
0.0
  0
LTYPE
  5
10000031
330
A8
100
AcDbSymbolTableRecord
100
AcDbLinetypeTableRecord
  2
CENTER2
 70
     0
  3
Center (.5x) ___ _ ___ _ ___ _ ___ _ ___ _ ___
 72
    65
 73
     4
 40
28.575
 49
19.05
 74
     0
 49
-3.174999999999999
 74
     0
 49
3.174999999999999
 74
     0
 49
-3.174999999999999
 74
     0
  0
LTYPE
  5
10000032
330
A8
100
AcDbSymbolTableRecord
100
AcDbLinetypeTableRecord
  2
HIDDEN2
 70
     0
  3
Hidden (.5x) _ _ _ _ _ _ _ _ _ _ _ _ _ _ _ _ _
 72
    65
 73
     2
 40
4.762499999999999
 49
3.174999999999999
 74
     0
 49
-1.587499999999999
 74
     0
  0
LTYPE
  5
10000033
330
A8
100
AcDbSymbolTableRecord
100
AcDbLinetypeTableRecord
  2
PHANTOM2
 70
     0
  3
Phantom (.5x) ___ _ _ ___ _ _ ___ _ _ ___ _ _
 72
    65
 73
     6
 40
31.75
 49
15.875
 74
     0
 49
-3.174999999999999
 74
     0
 49
3.174999999999999
 74
     0
 49
-3.174999999999999
 74
     0
 49
3.174999999999999
 74
     0
 49
-3.174999999999999
 74
     0
  0
ENDTAB
  0
TABLE
  2
LAYER
  5
CC
330
0
100
AcDbSymbolTable
 70
    15
  0
LAYER
  5
CF
330
CC
100
AcDbSymbolTableRecord
100
AcDbLayerTableRecord
  2
0
 70
     0
 62
     1
  6
CONTINUOUS
370
    -3
390
100014BD
  0
LAYER
  5
10000034
330
CC
100
AcDbSymbolTableRecord
100
AcDbLayerTableRecord
  2
外形線
 70
     0
 62
     7
  6
CONTINUOUS
370
    -3
390
100014BD
  0
LAYER
  5
10000035
330
CC
100
AcDbSymbolTableRecord
100
AcDbLayerTableRecord
  2
寸法線
 70
     0
 62
     2
  6
CONTINUOUS
370
    -3
390
100014BD
  0
LAYER
  5
10000036
330
CC
100
AcDbSymbolTableRecord
100
AcDbLayerTableRecord
  2
中心線
 70
     0
 62
     4
  6
CENTER2
370
    -3
390
100014BD
  0
LAYER
  5
10000037
330
CC
100
AcDbSymbolTableRecord
100
AcDbLayerTableRecord
  2
隠れ線
 70
     0
 62
     6
  6
HIDDEN2
370
    -3
390
100014BD
  0
LAYER
  5
10000038
330
CC
100
AcDbSymbolTableRecord
100
AcDbLayerTableRecord
  2
想像線
 70
     0
 62
     1
  6
PHANTOM2
370
    -3
390
100014BD
  0
LAYER
  5
10000039
330
CC
100
AcDbSymbolTableRecord
100
AcDbLayerTableRecord
  2
ﾊｯﾁﾝｸ
 70
     0
 62
     6
  6
CONTINUOUS
370
    -3
390
100014BD
  0
LAYER
  5
1000003A
330
CC
100
AcDbSymbolTableRecord
100
AcDbLayerTableRecord
  2
文字
 70
     0
 62
     6
  6
CONTINUOUS
370
    -3
390
100014BD
  0
LAYER
  5
1000003B
330
CC
100
AcDbSymbolTableRecord
100
AcDbLayerTableRecord
  2
目盛
 70
     0
 62
    72
  6
CONTINUOUS
370
    -3
390
100014BD
  0
LAYER
  5
1000003C
330
CC
100
AcDbSymbolTableRecord
100
AcDbLayerTableRecord
  2
針
 70
     0
 62
     5
  6
CONTINUOUS
370
    -3
390
100014BD
  0
LAYER
  5
1000003D
330
CC
100
AcDbSymbolTableRecord
100
AcDbLayerTableRecord
  2
DEFPOINTS
 70
     0
 62
     7
  6
CONTINUOUS
290
     0
370
    -3
390
100014BD
  0
LAYER
  5
1000003E
330
CC
100
AcDbSymbolTableRecord
100
AcDbLayerTableRecord
  2
C
 70
     0
 62
     7
  6
CONTINUOUS
370
    -3
390
100014BD
  0
LAYER
  5
1000003F
330
CC
100
AcDbSymbolTableRecord
100
AcDbLayerTableRecord
  2
握り
 70
     0
 62
     3
  6
CONTINUOUS
370
    -3
390
100014BD
  0
LAYER
  5
10000040
330
CC
100
AcDbSymbolTableRecord
100
AcDbLayerTableRecord
  2
ROGO
 70
     0
 62
     6
  6
CONTINUOUS
370
    -3
390
100014BD
  0
LAYER
  5
100011E5
330
CC
100
AcDbSymbolTableRecord
100
AcDbLayerTableRecord
  2
隠れ線2
 70
     0
 62
     1
  6
HIDDEN2
370
    -3
390
100014BD
  0
ENDTAB
  0
TABLE
  2
STYLE
  5
D2
330
0
100
AcDbSymbolTable
 70
     3
  0
STYLE
  5
D5
330
D2
100
AcDbSymbolTableRecord
100
AcDbTextStyleTableRecord
  2
STANDARD
 70
     0
 40
0.0
 41
0.5
 50
0.0
 71
     0
 42
0.3
  3
txt
  4

  0
STYLE
  5
D8
330
D2
100
AcDbSymbolTableRecord
100
AcDbTextStyleTableRecord
  2
BIGFONT
 70
     0
 40
0.0
 41
1.0
 50
0.0
 71
     0
 42
0.2
  3
txt.shx
  4
bigfont
  0
STYLE
  5
10000041
330
D2
100
AcDbSymbolTableRecord
100
AcDbTextStyleTableRecord
  2
STYLE3
 70
     0
 40
0.0
 41
1.0
 50
0.0
 71
     0
 42
3.0
  3
romans.shx
  4
bigfont.shx
  0
ENDTAB
  0
TABLE
  2
VIEW
  5
DB
330
0
100
AcDbSymbolTable
 70
     0
  0
ENDTAB
  0
TABLE
  2
UCS
  5
DE
330
0
100
AcDbSymbolTable
 70
     0
  0
ENDTAB
  0
TABLE
  2
APPID
  5
E1
330
0
100
AcDbSymbolTable
 70
     3
  0
APPID
  5
E4
330
E1
100
AcDbSymbolTableRecord
100
AcDbRegAppTableRecord
  2
ACAD
 70
     0
  0
APPID
  5
E7
330
E1
100
AcDbSymbolTableRecord
100
AcDbRegAppTableRecord
  2
CONTENTTABDATA
 70
     0
  0
APPID
  5
EA
330
E1
100
AcDbSymbolTableRecord
100
AcDbRegAppTableRecord
  2
CONTENTCURRENTTAB
 70
     0
  0
ENDTAB
  0
TABLE
  2
DIMSTYLE
  5
ED
330
0
100
AcDbSymbolTable
 70
     2
100
AcDbDimStyleTable
 71
     0
  0
DIMSTYLE
105
F0
102
{ACAD_REACTORS
330
10001203
330
100012E4
330
100012F1
330
100012FD
330
10001309
330
1000132A
330
1000134A
330
1000135B
330
1000136D
330
10001436
330
10001458
102
}
330
ED
100
AcDbSymbolTableRecord
100
AcDbDimStyleTableRecord
  2
STANDARD
 70
     0
340
D5
  0
DIMSTYLE
105
10000042
102
{ACAD_REACTORS
330
100002BA
330
100002BB
330
10000B37
102
}
330
ED
100
AcDbSymbolTableRecord
100
AcDbDimStyleTableRecord
  2
STYLE3
 70
     0
 41
2.5
 42
0.0
 43
3.75
 44
1.25
 73
     0
 74
     0
 77
     1
 78
     8
140
2.5
141
2.5
143
0.0394
147
0.625
171
     4
172
     1
173
     1
176
     2
177
     2
178
     6
271
     1
273
     8
274
     4
340
10000041
341
10000009
343
10000009
344
10000009
  0
ENDTAB
  0
TABLE
  2
BLOCK_RECORD
  5
F3
330
0
100
AcDbSymbolTable
 70
    27
  0
BLOCK_RECORD
  5
F6
330
F3
100
AcDbSymbolTableRecord
100
AcDbBlockTableRecord
  2
*MODEL_SPACE
340
100014C4
  0
BLOCK_RECORD
  5
F9
330
F3
100
AcDbSymbolTableRecord
100
AcDbBlockTableRecord
  2
*PAPER_SPACE
340
100014C5
  0
BLOCK_RECORD
  5
10000009
330
F3
100
AcDbSymbolTableRecord
100
AcDbBlockTableRecord
  2
_OPEN
340
0
102
{BLKREFS
331
100011C3
331
1000121F
331
10001465
331
10001466
331
10001479
331
1000147A
331
10000017
331
10000018
331
10000023
331
10000024
331
10000296
331
100002A0
331
100002A1
331
100002A8
331
100002AF
331
100002B0
331
100002BE
331
100002BF
331
100002CB
331
100002CC
331
100002D8
331
100002D9
331
100002E5
331
100002E7
331
10000BB6
331
10000BB7
331
10000C2A
331
10001207
331
10001208
331
100012DD
331
100012DE
331
1000130E
331
1000130F
331
10001318
331
10001319
331
10001302
331
10001303
331
10001338
331
10001339
331
10001343
331
10001344
331
10001354
331
10001355
331
10001366
331
10001367
331
100013C9
331
100013CA
331
10001405
331
10001406
331
10001419
331
1000141A
331
1000140F
331
10001410
331
10001423
331
10001424
331
10001446
331
10001447
331
1000146E
331
1000146F
102
}
  0
BLOCK_RECORD
  5
10000B80
330
F3
100
AcDbSymbolTableRecord
100
AcDbBlockTableRecord
  2
*D6
340
0
  0
BLOCK_RECORD
  5
100011F8
330
F3
100
AcDbSymbolTableRecord
100
AcDbBlockTableRecord
  2
*D9
340
0
  0
BLOCK_RECORD
  5
100012D9
330
F3
100
AcDbSymbolTableRecord
100
AcDbBlockTableRecord
  2
*D11
340
0
  0
BLOCK_RECORD
  5
100012E6
330
F3
100
AcDbSymbolTableRecord
100
AcDbBlockTableRecord
  2
*D12
340
0
  0
BLOCK_RECORD
  5
100012F2
330
F3
100
AcDbSymbolTableRecord
100
AcDbBlockTableRecord
  2
*D13
340
0
  0
BLOCK_RECORD
  5
100012FE
330
F3
100
AcDbSymbolTableRecord
100
AcDbBlockTableRecord
  2
*D14
340
0
  0
BLOCK_RECORD
  5
1000131F
330
F3
100
AcDbSymbolTableRecord
100
AcDbBlockTableRecord
  2
*D15
340
0
  0
BLOCK_RECORD
  5
1000133F
330
F3
100
AcDbSymbolTableRecord
100
AcDbBlockTableRecord
  2
*D16
340
0
  0
BLOCK_RECORD
  5
1000134E
330
F3
100
AcDbSymbolTableRecord
100
AcDbBlockTableRecord
  2
*D17
340
0
  0
BLOCK_RECORD
  5
10001360
330
F3
100
AcDbSymbolTableRecord
100
AcDbBlockTableRecord
  2
*D18
340
0
  0
BLOCK_RECORD
  5
1000142B
330
F3
100
AcDbSymbolTableRecord
100
AcDbBlockTableRecord
  2
*D24
340
0
  0
BLOCK_RECORD
  5
1000144D
330
F3
100
AcDbSymbolTableRecord
100
AcDbBlockTableRecord
  2
*D25
340
0
  0
ENDTAB
  0
ENDSEC
  0
SECTION
  2
BLOCKS
  0
BLOCK
  5
FC
330
F6
100
AcDbEntity
  8
0
100
AcDbBlockBegin
  2
*MODEL_SPACE
 70
     0
 10
0.0
 20
0.0
 30
0.0
  3
*MODEL_SPACE
  1
 
  0
ENDBLK
  5
FF
330
F6
100
AcDbEntity
  8
0
100
AcDbBlockEnd
  0
BLOCK
  5
102
330
F9
100
AcDbEntity
 67
     1
  8
0
100
AcDbBlockBegin
  2
*PAPER_SPACE
 70
     0
 10
0.0
 20
0.0
 30
0.0
  3
*PAPER_SPACE
  1
 
  0
ENDBLK
  5
105
330
F9
100
AcDbEntity
 67
     1
  8
0
100
AcDbBlockEnd
  0
BLOCK
  5
1000000D
330
10000009
100
AcDbEntity
  8
0
100
AcDbBlockBegin
  2
_OPEN
 70
     0
 10
0.0
 20
0.0
 30
0.0
  3
_OPEN
  1

  0
LINE
  5
1000000A
330
10000009
100
AcDbEntity
  8
0
  6
ByBlock
 62
     0
100
AcDbLine
 10
-1.0
 20
0.1666666666666666
 30
0.0
 11
0.0
 21
0.0
 31
0.0
  0
LINE
  5
1000000B
330
10000009
100
AcDbEntity
  8
0
  6
ByBlock
 62
     0
100
AcDbLine
 10
0.0
 20
0.0
 30
0.0
 11
-1.0
 21
-0.1666666666666666
 31
0.0
  0
LINE
  5
1000000C
330
10000009
100
AcDbEntity
  8
0
  6
ByBlock
 62
     0
100
AcDbLine
 10
0.0
 20
0.0
 30
0.0
 11
-1.0
 21
0.0
 31
0.0
  0
ENDBLK
  5
1000000E
330
10000009
100
AcDbEntity
  8
0
100
AcDbBlockEnd
  0
BLOCK
  5
10000BB2
330
10000B80
100
AcDbEntity
  8
0
100
AcDbBlockBegin
  2
*D6
 70
     1
 10
0.0
 20
0.0
 30
0.0
  3
*D6
  1

  0
LINE
  5
10000BB3
330
10000B80
100
AcDbEntity
  8
0
  6
ByBlock
 62
     2
100
AcDbLine
 10
415.0230923985601
 20
434.3829900661494
 30
0.0
 11
429.4615084882723
 21
434.3829900661494
 31
0.0
  0
LINE
  5
10000BB4
330
10000B80
100
AcDbEntity
  8
0
  6
ByBlock
 62
     2
100
AcDbLine
 10
415.0230923985601
 20
404.3829900661494
 30
0.0
 11
429.4615084882723
 21
404.3829900661494
 31
0.0
  0
LINE
  5
10000BB5
330
10000B80
100
AcDbEntity
  8
0
  6
ByBlock
 62
     2
100
AcDbLine
 10
428.2115084882723
 20
431.8829900661494
 30
0.0
 11
428.2115084882723
 21
406.8829900661494
 31
0.0
  0
INSERT
  5
10000BB6
330
10000B80
100
AcDbEntity
  8
0
  6
ByBlock
 62
     2
100
AcDbBlockReference
  2
_OPEN
 10
428.2115084882723
 20
434.3829900661494
 30
0.0
 41
2.5
 42
2.5
 43
2.5
 50
90.0
  0
INSERT
  5
10000BB7
330
10000B80
100
AcDbEntity
  8
0
  6
ByBlock
 62
     2
100
AcDbBlockReference
  2
_OPEN
 10
428.2115084882723
 20
404.3829900661494
 30
0.0
 41
2.5
 42
2.5
 43
2.5
 50
270.0
  0
MTEXT
  5
10000BB8
330
10000B80
100
AcDbEntity
  8
0
  6
ByBlock
 62
     6
100
AcDbMText
 10
426.3365084882723
 20
419.3829900661494
 30
0.0
 40
2.5
 41
0.0
 71
     5
 72
     1
  1
\A1;30
  7
STYLE3
 11
0.0000000000000001
 21
1.0
 31
0.0
 73
     1
 44
1.0
  0
POINT
  5
10000BB9
330
10000B80
100
AcDbEntity
  8
DEFPOINTS
  6
ByBlock
 62
     0
100
AcDbPoint
 10
415.0230923985601
 20
434.3829900661494
 30
0.0
  0
POINT
  5
10000BBA
330
10000B80
100
AcDbEntity
  8
DEFPOINTS
  6
ByBlock
 62
     0
100
AcDbPoint
 10
415.0230923985601
 20
404.3829900661494
 30
0.0
  0
POINT
  5
10000BBB
330
10000B80
100
AcDbEntity
  8
DEFPOINTS
  6
ByBlock
 62
     0
100
AcDbPoint
 10
428.2115084882723
 20
404.3829900661494
 30
0.0
  0
ENDBLK
  5
10000BBC
330
10000B80
100
AcDbEntity
  8
0
100
AcDbBlockEnd
  0
BLOCK
  5
10001204
330
100011F8
100
AcDbEntity
  8
0
100
AcDbBlockBegin
  2
*D9
 70
     1
 10
0.0
 20
0.0
 30
0.0
  3
*D9
  1

  0
LINE
  5
10001205
330
100011F8
100
AcDbEntity
  8
0
  6
ByBlock
 62
     2
100
AcDbLine
 10
320.0230923985602
 20
395.7078685470843
 30
0.0
 11
320.0230923985602
 21
391.3720073491341
 31
0.0
  0
LINE
  5
10001206
330
100011F8
100
AcDbEntity
  8
0
  6
ByBlock
 62
     2
100
AcDbLine
 10
277.5230923985601
 20
392.622007349134
 30
0.0
 11
317.5230923985602
 21
392.622007349134
 31
0.0
  0
INSERT
  5
10001207
330
100011F8
100
AcDbEntity
  8
0
  6
ByBlock
 62
     2
100
AcDbBlockReference
  2
_OPEN
 10
275.0230923985601
 20
392.622007349134
 30
0.0
 41
2.5
 42
2.5
 43
2.5
 50
180.0
  0
INSERT
  5
10001208
330
100011F8
100
AcDbEntity
  8
0
  6
ByBlock
 62
     2
100
AcDbBlockReference
  2
_OPEN
 10
320.0230923985602
 20
392.622007349134
 30
0.0
 41
2.5
 42
2.5
 43
2.5
  0
MTEXT
  5
10001209
330
100011F8
100
AcDbEntity
  8
0
  6
ByBlock
 62
     6
100
AcDbMText
 10
297.5230923985602
 20
394.4970073491341
 30
0.0
 40
2.5
 41
0.0
 71
     5
 72
     1
  1
\A1;45
  7
STYLE3
 73
     1
 44
1.0
  0
POINT
  5
1000120A
330
100011F8
100
AcDbEntity
  8
DEFPOINTS
  6
ByBlock
 62
     0
100
AcDbPoint
 10
275.0230923985601
 20
390.9475988935897
 30
0.0
  0
POINT
  5
1000120B
330
100011F8
100
AcDbEntity
  8
DEFPOINTS
  6
ByBlock
 62
     0
100
AcDbPoint
 10
320.0230923985602
 20
395.7078685470843
 30
0.0
  0
POINT
  5
1000120C
330
100011F8
100
AcDbEntity
  8
DEFPOINTS
  6
ByBlock
 62
     0
100
AcDbPoint
 10
320.0230923985602
 20
392.622007349134
 30
0.0
  0
ENDBLK
  5
1000120D
330
100011F8
100
AcDbEntity
  8
0
100
AcDbBlockEnd
  0
BLOCK
  5
100012DA
330
100012D9
100
AcDbEntity
  8
0
100
AcDbBlockBegin
  2
*D11
 70
     1
 10
0.0
 20
0.0
 30
0.0
  3
*D11
  1

  0
LINE
  5
100012DB
330
100012D9
100
AcDbEntity
  8
0
  6
ByBlock
 62
     2
100
AcDbLine
 10
138.0480923985601
 20
413.8579900661493
 30
0.0
 11
129.2840581396921
 21
413.8579900661493
 31
0.0
  0
LINE
  5
100012DC
330
100012D9
100
AcDbEntity
  8
0
  6
ByBlock
 62
     2
100
AcDbLine
 10
130.5340581396921
 20
422.3579900661493
 30
0.0
 11
130.5340581396921
 21
416.3579900661494
 31
0.0
  0
INSERT
  5
100012DD
330
100012D9
100
AcDbEntity
  8
0
  6
ByBlock
 62
     2
100
AcDbBlockReference
  2
_OPEN
 10
130.5340581396921
 20
424.8579900661494
 30
0.0
 41
2.5
 42
2.5
 43
2.5
 50
90.0
  0
INSERT
  5
100012DE
330
100012D9
100
AcDbEntity
  8
0
  6
ByBlock
 62
     2
100
AcDbBlockReference
  2
_OPEN
 10
130.5340581396921
 20
413.8579900661493
 30
0.0
 41
2.5
 42
2.5
 43
2.5
 50
270.0
  0
MTEXT
  5
100012DF
330
100012D9
100
AcDbEntity
  8
0
  6
ByBlock
 62
     6
100
AcDbMText
 10
128.6590581396921
 20
419.3579900661494
 30
0.0
 40
2.5
 41
0.0
 71
     5
 72
     1
  1
\A1;11
  7
STYLE3
 11
0.0000000000000001
 21
1.0
 31
0.0
 73
     1
 44
1.0
  0
POINT
  5
100012E0
330
100012D9
100
AcDbEntity
  8
DEFPOINTS
  6
ByBlock
 62
     0
100
AcDbPoint
 10
138.0480923985601
 20
424.8579900661494
 30
0.0
  0
POINT
  5
100012E1
330
100012D9
100
AcDbEntity
  8
DEFPOINTS
  6
ByBlock
 62
     0
100
AcDbPoint
 10
138.0480923985601
 20
413.8579900661493
 30
0.0
  0
POINT
  5
100012E2
330
100012D9
100
AcDbEntity
  8
DEFPOINTS
  6
ByBlock
 62
     0
100
AcDbPoint
 10
130.5340581396921
 20
413.8579900661493
 30
0.0
  0
ENDBLK
  5
100012E3
330
100012D9
100
AcDbEntity
  8
0
100
AcDbBlockEnd
  0
BLOCK
  5
1000130B
330
100012E6
100
AcDbEntity
  8
0
100
AcDbBlockBegin
  2
*D12
 70
     1
 10
0.0
 20
0.0
 30
0.0
  3
*D12
  1

  0
LINE
  5
1000130C
330
100012E6
100
AcDbEntity
  8
0
  6
ByBlock
 62
     2
100
AcDbLine
 10
271.147366613826
 20
329.4782328920492
 30
0.0
 11
271.147366613826
 21
317.6708414670747
 31
0.0
  0
LINE
  5
1000130D
330
100012E6
100
AcDbEntity
  8
0
  6
ByBlock
 62
     2
100
AcDbLine
 10
278.3505122805518
 20
318.9208414670747
 30
0.0
 11
273.647366613826
 21
318.9208414670747
 31
0.0
  0
INSERT
  5
1000130E
330
100012E6
100
AcDbEntity
  8
0
  6
ByBlock
 62
     2
100
AcDbBlockReference
  2
_OPEN
 10
280.8505122805519
 20
318.9208414670747
 30
0.0
 41
2.5
 42
2.5
 43
2.5
  0
INSERT
  5
1000130F
330
100012E6
100
AcDbEntity
  8
0
  6
ByBlock
 62
     2
100
AcDbBlockReference
  2
_OPEN
 10
271.147366613826
 20
318.9208414670747
 30
0.0
 41
2.5
 42
2.5
 43
2.5
 50
180.0
  0
MTEXT
  5
10001310
330
100012E6
100
AcDbEntity
  8
0
  6
ByBlock
 62
     6
100
AcDbMText
 10
275.9989394471889
 20
320.7958414670747
 30
0.0
 40
2.5
 41
0.0
 71
     5
 72
     1
  1
\A1;10
  7
STYLE3
 73
     1
 44
1.0
  0
POINT
  5
10001311
330
100012E6
100
AcDbEntity
  8
DEFPOINTS
  6
ByBlock
 62
     0
100
AcDbPoint
 10
280.8505122805519
 20
329.4999183455964
 30
0.0
  0
POINT
  5
10001312
330
100012E6
100
AcDbEntity
  8
DEFPOINTS
  6
ByBlock
 62
     0
100
AcDbPoint
 10
271.147366613826
 20
329.4782328920492
 30
0.0
  0
POINT
  5
10001313
330
100012E6
100
AcDbEntity
  8
DEFPOINTS
  6
ByBlock
 62
     0
100
AcDbPoint
 10
271.147366613826
 20
318.9208414670747
 30
0.0
  0
ENDBLK
  5
10001314
330
100012E6
100
AcDbEntity
  8
0
100
AcDbBlockEnd
  0
BLOCK
  5
10001315
330
100012F2
100
AcDbEntity
  8
0
100
AcDbBlockBegin
  2
*D13
 70
     1
 10
0.0
 20
0.0
 30
0.0
  3
*D13
  1

  0
LINE
  5
10001316
330
100012F2
100
AcDbEntity
  8
0
  6
ByBlock
 62
     2
100
AcDbLine
 10
171.0730923985601
 20
329.3579900661494
 30
0.0
 11
171.0730923985601
 21
317.6708414670747
 31
0.0
  0
LINE
  5
10001317
330
100012F2
100
AcDbEntity
  8
0
  6
ByBlock
 62
     2
100
AcDbLine
 10
268.647366613826
 20
318.9208414670747
 30
0.0
 11
173.5730923985601
 21
318.9208414670747
 31
0.0
  0
INSERT
  5
10001318
330
100012F2
100
AcDbEntity
  8
0
  6
ByBlock
 62
     2
100
AcDbBlockReference
  2
_OPEN
 10
271.147366613826
 20
318.9208414670747
 30
0.0
 41
2.5
 42
2.5
 43
2.5
  0
INSERT
  5
10001319
330
100012F2
100
AcDbEntity
  8
0
  6
ByBlock
 62
     2
100
AcDbBlockReference
  2
_OPEN
 10
171.0730923985601
 20
318.9208414670747
 30
0.0
 41
2.5
 42
2.5
 43
2.5
 50
180.0
  0
MTEXT
  5
1000131A
330
100012F2
100
AcDbEntity
  8
0
  6
ByBlock
 62
     6
100
AcDbMText
 10
221.1102295061931
 20
320.7958414670747
 30
0.0
 40
2.5
 41
0.0
 71
     5
 72
     1
  1
\A1;100
  7
STYLE3
 73
     1
 44
1.0
  0
POINT
  5
1000131B
330
100012F2
100
AcDbEntity
  8
DEFPOINTS
  6
ByBlock
 62
     0
100
AcDbPoint
 10
271.147366613826
 20
329.4782328920492
 30
0.0
  0
POINT
  5
1000131C
330
100012F2
100
AcDbEntity
  8
DEFPOINTS
  6
ByBlock
 62
     0
100
AcDbPoint
 10
171.0730923985601
 20
329.3579900661494
 30
0.0
  0
POINT
  5
1000131D
330
100012F2
100
AcDbEntity
  8
DEFPOINTS
  6
ByBlock
 62
     0
100
AcDbPoint
 10
171.0730923985601
 20
318.9208414670747
 30
0.0
  0
ENDBLK
  5
1000131E
330
100012F2
100
AcDbEntity
  8
0
100
AcDbBlockEnd
  0
BLOCK
  5
100012FF
330
100012FE
100
AcDbEntity
  8
0
100
AcDbBlockBegin
  2
*D14
 70
     1
 10
0.0
 20
0.0
 30
0.0
  3
*D14
  1

  0
LINE
  5
10001300
330
100012FE
100
AcDbEntity
  8
0
  6
ByBlock
 62
     2
100
AcDbLine
 10
131.0730923985601
 20
329.3579900661494
 30
0.0
 11
131.0730923985601
 21
317.6708414670747
 31
0.0
  0
LINE
  5
10001301
330
100012FE
100
AcDbEntity
  8
0
  6
ByBlock
 62
     2
100
AcDbLine
 10
168.5730923985601
 20
318.9208414670747
 30
0.0
 11
133.5730923985601
 21
318.9208414670747
 31
0.0
  0
INSERT
  5
10001302
330
100012FE
100
AcDbEntity
  8
0
  6
ByBlock
 62
     2
100
AcDbBlockReference
  2
_OPEN
 10
171.0730923985601
 20
318.9208414670747
 30
0.0
 41
2.5
 42
2.5
 43
2.5
  0
INSERT
  5
10001303
330
100012FE
100
AcDbEntity
  8
0
  6
ByBlock
 62
     2
100
AcDbBlockReference
  2
_OPEN
 10
131.0730923985601
 20
318.9208414670747
 30
0.0
 41
2.5
 42
2.5
 43
2.5
 50
180.0
  0
MTEXT
  5
10001304
330
100012FE
100
AcDbEntity
  8
0
  6
ByBlock
 62
     6
100
AcDbMText
 10
151.0730923985601
 20
320.7958414670747
 30
0.0
 40
2.5
 41
0.0
 71
     5
 72
     1
  1
\A1;40
  7
STYLE3
 73
     1
 44
1.0
  0
POINT
  5
10001305
330
100012FE
100
AcDbEntity
  8
DEFPOINTS
  6
ByBlock
 62
     0
100
AcDbPoint
 10
171.0730923985601
 20
329.3579900661494
 30
0.0
  0
POINT
  5
10001306
330
100012FE
100
AcDbEntity
  8
DEFPOINTS
  6
ByBlock
 62
     0
100
AcDbPoint
 10
131.0730923985601
 20
329.3579900661494
 30
0.0
  0
POINT
  5
10001307
330
100012FE
100
AcDbEntity
  8
DEFPOINTS
  6
ByBlock
 62
     0
100
AcDbPoint
 10
131.0730923985601
 20
318.9208414670747
 30
0.0
  0
ENDBLK
  5
10001308
330
100012FE
100
AcDbEntity
  8
0
100
AcDbBlockEnd
  0
BLOCK
  5
10001335
330
1000131F
100
AcDbEntity
  8
0
100
AcDbBlockBegin
  2
*D15
 70
     1
 10
0.0
 20
0.0
 30
0.0
  3
*D15
  1

  0
LINE
  5
10001336
330
1000131F
100
AcDbEntity
  8
0
  6
ByBlock
 62
     2
100
AcDbLine
 10
131.0730923985601
 20
317.6708414670747
 30
0.0
 11
131.0730923985601
 21
311.3987249431541
 31
0.0
  0
LINE
  5
10001337
330
1000131F
100
AcDbEntity
  8
0
  6
ByBlock
 62
     2
100
AcDbLine
 10
278.3505122805518
 20
312.648724943154
 30
0.0
 11
133.5730923985601
 21
312.648724943154
 31
0.0
  0
INSERT
  5
10001338
330
1000131F
100
AcDbEntity
  8
0
  6
ByBlock
 62
     2
100
AcDbBlockReference
  2
_OPEN
 10
280.8505122805519
 20
312.648724943154
 30
0.0
 41
2.5
 42
2.5
 43
2.5
  0
INSERT
  5
10001339
330
1000131F
100
AcDbEntity
  8
0
  6
ByBlock
 62
     2
100
AcDbBlockReference
  2
_OPEN
 10
131.0730923985601
 20
312.648724943154
 30
0.0
 41
2.5
 42
2.5
 43
2.5
 50
180.0
  0
MTEXT
  5
1000133A
330
1000131F
100
AcDbEntity
  8
0
  6
ByBlock
 62
     6
100
AcDbMText
 10
205.961802339556
 20
314.5237249431541
 30
0.0
 40
2.5
 41
0.0
 71
     5
 72
     1
  1
\A1;150
  7
STYLE3
 73
     1
 44
1.0
  0
POINT
  5
1000133B
330
1000131F
100
AcDbEntity
  8
DEFPOINTS
  6
ByBlock
 62
     0
100
AcDbPoint
 10
280.8505122805519
 20
310.697400023967
 30
0.0
  0
POINT
  5
1000133C
330
1000131F
100
AcDbEntity
  8
DEFPOINTS
  6
ByBlock
 62
     0
100
AcDbPoint
 10
131.0730923985601
 20
317.6708414670747
 30
0.0
  0
POINT
  5
1000133D
330
1000131F
100
AcDbEntity
  8
DEFPOINTS
  6
ByBlock
 62
     0
100
AcDbPoint
 10
131.0730923985601
 20
312.648724943154
 30
0.0
  0
ENDBLK
  5
1000133E
330
1000131F
100
AcDbEntity
  8
0
100
AcDbBlockEnd
  0
BLOCK
  5
10001340
330
1000133F
100
AcDbEntity
  8
0
100
AcDbBlockBegin
  2
*D16
 70
     1
 10
0.0
 20
0.0
 30
0.0
  3
*D16
  1

  0
LINE
  5
10001341
330
1000133F
100
AcDbEntity
  8
0
  6
ByBlock
 62
     2
100
AcDbLine
 10
127.0394703212018
 20
329.3579900661494
 30
0.0
 11
121.8747203686007
 21
329.3579900661494
 31
0.0
  0
LINE
  5
10001342
330
1000133F
100
AcDbEntity
  8
0
  6
ByBlock
 62
     2
100
AcDbLine
 10
123.1247203686007
 20
396.8579900661494
 30
0.0
 11
123.1247203686007
 21
331.8579900661494
 31
0.0
  0
INSERT
  5
10001343
330
1000133F
100
AcDbEntity
  8
0
  6
ByBlock
 62
     2
100
AcDbBlockReference
  2
_OPEN
 10
123.1247203686007
 20
399.3579900661494
 30
0.0
 41
2.5
 42
2.5
 43
2.5
 50
90.0
  0
INSERT
  5
10001344
330
1000133F
100
AcDbEntity
  8
0
  6
ByBlock
 62
     2
100
AcDbBlockReference
  2
_OPEN
 10
123.1247203686007
 20
329.3579900661494
 30
0.0
 41
2.5
 42
2.5
 43
2.5
 50
270.0
  0
MTEXT
  5
10001345
330
1000133F
100
AcDbEntity
  8
0
  6
ByBlock
 62
     6
100
AcDbMText
 10
121.2497203686007
 20
364.3579900661494
 30
0.0
 40
2.5
 41
0.0
 71
     5
 72
     1
  1
\A1;70
  7
STYLE3
 11
0.0000000000000001
 21
1.0
 31
0.0
 73
     1
 44
1.0
  0
POINT
  5
10001346
330
1000133F
100
AcDbEntity
  8
DEFPOINTS
  6
ByBlock
 62
     0
100
AcDbPoint
 10
168.230548896063
 20
399.3579900661494
 30
0.0
  0
POINT
  5
10001347
330
1000133F
100
AcDbEntity
  8
DEFPOINTS
  6
ByBlock
 62
     0
100
AcDbPoint
 10
127.0394703212018
 20
329.3579900661494
 30
0.0
  0
POINT
  5
10001348
330
1000133F
100
AcDbEntity
  8
DEFPOINTS
  6
ByBlock
 62
     0
100
AcDbPoint
 10
123.1247203686007
 20
329.3579900661494
 30
0.0
  0
ENDBLK
  5
10001349
330
1000133F
100
AcDbEntity
  8
0
100
AcDbBlockEnd
  0
BLOCK
  5
1000134F
330
1000134E
100
AcDbEntity
  8
0
100
AcDbBlockBegin
  2
*D17
 70
     1
 10
0.0
 20
0.0
 30
0.0
  3
*D17
  1

  0
LINE
  5
10001350
330
1000134E
100
AcDbEntity
  8
0
  6
ByBlock
 62
     2
100
AcDbLine
 10
177.9980923985601
 20
387.0276131232752
 30
0.0
 11
168.6864577197657
 21
387.0276131232752
 31
0.0
  0
LINE
  5
10001351
330
1000134E
100
AcDbEntity
  8
0
  6
ByBlock
 62
     2
100
AcDbLine
 10
169.9364577197657
 20
392.5276131232751
 30
0.0
 11
169.9364577197657
 21
395.0276131232752
 31
0.0
  0
LINE
  5
10001352
330
1000134E
100
AcDbEntity
  8
0
  6
ByBlock
 62
     2
100
AcDbLine
 10
169.9364577197657
 20
384.5276131232751
 30
0.0
 11
169.9364577197657
 21
382.0276131232752
 31
0.0
  0
LINE
  5
10001353
330
1000134E
100
AcDbEntity
  8
0
  6
ByBlock
 62
     2
100
AcDbLine
 10
169.9364577197657
 20
390.0276131232752
 30
0.0
 11
169.9364577197657
 21
387.0276131232752
 31
0.0
  0
INSERT
  5
10001354
330
1000134E
100
AcDbEntity
  8
0
  6
ByBlock
 62
     2
100
AcDbBlockReference
  2
_OPEN
 10
169.9364577197657
 20
390.0276131232752
 30
0.0
 41
2.5
 42
2.5
 43
2.5
 50
270.0
  0
INSERT
  5
10001355
330
1000134E
100
AcDbEntity
  8
0
  6
ByBlock
 62
     2
100
AcDbBlockReference
  2
_OPEN
 10
169.9364577197657
 20
387.0276131232752
 30
0.0
 41
2.5
 42
2.5
 43
2.5
 50
90.0
  0
MTEXT
  5
10001356
330
1000134E
100
AcDbEntity
  8
0
  6
ByBlock
 62
     6
100
AcDbMText
 10
168.0614577197657
 20
388.5276131232751
 30
0.0
 40
2.5
 41
0.0
 71
     5
 72
     1
  1
\A1;3
  7
STYLE3
 11
0.0000000000000001
 21
1.0
 31
0.0
 73
     1
 44
1.0
  0
POINT
  5
10001357
330
1000134E
100
AcDbEntity
  8
DEFPOINTS
  6
ByBlock
 62
     0
100
AcDbPoint
 10
177.9980923985601
 20
390.0276131232752
 30
0.0
  0
POINT
  5
10001358
330
1000134E
100
AcDbEntity
  8
DEFPOINTS
  6
ByBlock
 62
     0
100
AcDbPoint
 10
177.9980923985601
 20
387.0276131232752
 30
0.0
  0
POINT
  5
10001359
330
1000134E
100
AcDbEntity
  8
DEFPOINTS
  6
ByBlock
 62
     0
100
AcDbPoint
 10
169.9364577197657
 20
387.0276131232752
 30
0.0
  0
ENDBLK
  5
1000135A
330
1000134E
100
AcDbEntity
  8
0
100
AcDbBlockEnd
  0
BLOCK
  5
10001361
330
10001360
100
AcDbEntity
  8
0
100
AcDbBlockBegin
  2
*D18
 70
     1
 10
0.0
 20
0.0
 30
0.0
  3
*D18
  1

  0
LINE
  5
10001362
330
10001360
100
AcDbEntity
  8
0
  6
ByBlock
 62
     2
100
AcDbLine
 10
268.7230923985601
 20
368.6776394246948
 30
0.0
 11
279.0538532302504
 21
368.6776394246948
 31
0.0
  0
LINE
  5
10001363
330
10001360
100
AcDbEntity
  8
0
  6
ByBlock
 62
     2
100
AcDbLine
 10
277.8038532302504
 20
374.1776394246949
 30
0.0
 11
277.8038532302504
 21
376.6776394246948
 31
0.0
  0
LINE
  5
10001364
330
10001360
100
AcDbEntity
  8
0
  6
ByBlock
 62
     2
100
AcDbLine
 10
277.8038532302504
 20
366.1776394246949
 30
0.0
 11
277.8038532302504
 21
363.6776394246949
 31
0.0
  0
LINE
  5
10001365
330
10001360
100
AcDbEntity
  8
0
  6
ByBlock
 62
     2
100
AcDbLine
 10
277.8038532302504
 20
371.6776394246949
 30
0.0
 11
277.8038532302504
 21
368.6776394246948
 31
0.0
  0
INSERT
  5
10001366
330
10001360
100
AcDbEntity
  8
0
  6
ByBlock
 62
     2
100
AcDbBlockReference
  2
_OPEN
 10
277.8038532302504
 20
371.6776394246949
 30
0.0
 41
2.5
 42
2.5
 43
2.5
 50
270.0
  0
INSERT
  5
10001367
330
10001360
100
AcDbEntity
  8
0
  6
ByBlock
 62
     2
100
AcDbBlockReference
  2
_OPEN
 10
277.8038532302504
 20
368.6776394246948
 30
0.0
 41
2.5
 42
2.5
 43
2.5
 50
90.0
  0
MTEXT
  5
10001368
330
10001360
100
AcDbEntity
  8
0
  6
ByBlock
 62
     6
100
AcDbMText
 10
275.9288532302504
 20
370.1776394246949
 30
0.0
 40
2.5
 41
0.0
 71
     5
 72
     1
  1
\A1;3
  7
STYLE3
 11
0.0000000000000001
 21
1.0
 31
0.0
 73
     1
 44
1.0
  0
POINT
  5
10001369
330
10001360
100
AcDbEntity
  8
DEFPOINTS
  6
ByBlock
 62
     0
100
AcDbPoint
 10
268.7230923985601
 20
371.6776394246949
 30
0.0
  0
POINT
  5
1000136A
330
10001360
100
AcDbEntity
  8
DEFPOINTS
  6
ByBlock
 62
     0
100
AcDbPoint
 10
268.7230923985601
 20
368.6776394246948
 30
0.0
  0
POINT
  5
1000136B
330
10001360
100
AcDbEntity
  8
DEFPOINTS
  6
ByBlock
 62
     0
100
AcDbPoint
 10
277.8038532302504
 20
368.6776394246948
 30
0.0
  0
ENDBLK
  5
1000136C
330
10001360
100
AcDbEntity
  8
0
100
AcDbBlockEnd
  0
BLOCK
  5
10001443
330
1000142B
100
AcDbEntity
  8
0
100
AcDbBlockBegin
  2
*D24
 70
     1
 10
0.0
 20
0.0
 30
0.0
  3
*D24
  1

  0
LINE
  5
10001444
330
1000142B
100
AcDbEntity
  8
0
  6
ByBlock
 62
     2
100
AcDbLine
 10
203.0480923985601
 20
407.5579900661494
 30
0.0
 11
203.0480923985601
 21
391.288404601485
 31
0.0
  0
LINE
  5
10001445
330
1000142B
100
AcDbEntity
  8
0
  6
ByBlock
 62
     2
100
AcDbLine
 10
272.5230923985602
 20
392.5384046014851
 30
0.0
 11
205.5480923985601
 21
392.5384046014851
 31
0.0
  0
INSERT
  5
10001446
330
1000142B
100
AcDbEntity
  8
0
  6
ByBlock
 62
     2
100
AcDbBlockReference
  2
_OPEN
 10
275.0230923985601
 20
392.5384046014851
 30
0.0
 41
2.5
 42
2.5
 43
2.5
  0
INSERT
  5
10001447
330
1000142B
100
AcDbEntity
  8
0
  6
ByBlock
 62
     2
100
AcDbBlockReference
  2
_OPEN
 10
203.0480923985601
 20
392.5384046014851
 30
0.0
 41
2.5
 42
2.5
 43
2.5
 50
180.0
  0
MTEXT
  5
10001448
330
1000142B
100
AcDbEntity
  8
0
  6
ByBlock
 62
     6
100
AcDbMText
 10
239.0355923985601
 20
394.413404601485
 30
0.0
 40
2.5
 41
0.0
 71
     5
 72
     1
  1
\A1;72
  7
STYLE3
 73
     1
 44
1.0
  0
POINT
  5
10001449
330
1000142B
100
AcDbEntity
  8
DEFPOINTS
  6
ByBlock
 62
     0
100
AcDbPoint
 10
275.0230923985601
 20
396.7554875659552
 30
0.0
  0
POINT
  5
1000144A
330
1000142B
100
AcDbEntity
  8
DEFPOINTS
  6
ByBlock
 62
     0
100
AcDbPoint
 10
203.0480923985601
 20
407.5579900661494
 30
0.0
  0
POINT
  5
1000144B
330
1000142B
100
AcDbEntity
  8
DEFPOINTS
  6
ByBlock
 62
     0
100
AcDbPoint
 10
203.0480923985601
 20
392.5384046014851
 30
0.0
  0
ENDBLK
  5
1000144C
330
1000142B
100
AcDbEntity
  8
0
100
AcDbBlockEnd
  0
BLOCK
  5
1000146B
330
1000144D
100
AcDbEntity
  8
0
100
AcDbBlockBegin
  2
*D25
 70
     1
 10
0.0
 20
0.0
 30
0.0
  3
*D25
  1

  0
LINE
  5
1000146C
330
1000144D
100
AcDbEntity
  8
0
  6
ByBlock
 62
     2
100
AcDbLine
 10
420.0230923985601
 20
391.3720073491341
 30
0.0
 11
420.0230923985601
 21
384.1720772235853
 31
0.0
  0
LINE
  5
1000146D
330
1000144D
100
AcDbEntity
  8
0
  6
ByBlock
 62
     2
100
AcDbLine
 10
140.5480923985601
 20
385.4220772235853
 30
0.0
 11
417.5230923985601
 21
385.4220772235853
 31
0.0
  0
INSERT
  5
1000146E
330
1000144D
100
AcDbEntity
  8
0
  6
ByBlock
 62
     2
100
AcDbBlockReference
  2
_OPEN
 10
138.0480923985601
 20
385.4220772235853
 30
0.0
 41
2.5
 42
2.5
 43
2.5
 50
180.0
  0
INSERT
  5
1000146F
330
1000144D
100
AcDbEntity
  8
0
  6
ByBlock
 62
     2
100
AcDbBlockReference
  2
_OPEN
 10
420.0230923985601
 20
385.4220772235853
 30
0.0
 41
2.5
 42
2.5
 43
2.5
  0
MTEXT
  5
10001470
330
1000144D
100
AcDbEntity
  8
0
  6
ByBlock
 62
     6
100
AcDbMText
 10
279.0355923985601
 20
387.2970772235853
 30
0.0
 40
2.5
 41
0.0
 71
     5
 72
     1
  1
\A1;282
  7
STYLE3
 73
     1
 44
1.0
  0
POINT
  5
10001471
330
1000144D
100
AcDbEntity
  8
DEFPOINTS
  6
ByBlock
 62
     0
100
AcDbPoint
 10
138.0480923985601
 20
383.117805983894
 30
0.0
  0
POINT
  5
10001472
330
1000144D
100
AcDbEntity
  8
DEFPOINTS
  6
ByBlock
 62
     0
100
AcDbPoint
 10
420.0230923985601
 20
391.3720073491341
 30
0.0
  0
POINT
  5
10001473
330
1000144D
100
AcDbEntity
  8
DEFPOINTS
  6
ByBlock
 62
     0
100
AcDbPoint
 10
420.0230923985601
 20
385.4220772235853
 30
0.0
  0
ENDBLK
  5
10001474
330
1000144D
100
AcDbEntity
  8
0
100
AcDbBlockEnd
  0
ENDSEC
  0
SECTION
  2
ENTITIES
  0
SPLINE
  5
111
330
F6
100
AcDbEntity
  8
外形線
100
AcDbSpline
210
0.0
220
0.0
230
1.0
 70
    24
 71
     3
 72
     8
 73
     4
 74
     0
 42
0.0000000001
 43
0.0000000001
 40
78.12294724048109
 40
78.12294724048109
 40
78.12294724048109
 40
78.12294724048109
 40
98.00818744332822
 40
98.00818744332822
 40
98.00818744332822
 40
98.00818744332822
 10
320.0230923985603
 20
431.1579900661493
 30
0.0
 10
310.592360631777
 20
431.1579900661493
 30
0.0
 10
301.8661595725007
 20
431.1579900661493
 30
0.0
 10
294.8141606983376
 20
431.1579900661493
 30
0.0
  0
SPLINE
  5
11A
330
F6
100
AcDbEntity
  8
外形線
100
AcDbSpline
210
0.0
220
0.0
230
1.0
 70
    24
 71
     3
 72
     8
 73
     4
 74
     0
 42
0.0000000001
 43
0.0000000001
 40
90.39383222711686
 40
90.39383222711686
 40
90.39383222711686
 40
90.39383222711686
 40
117.8836729457701
 40
117.8836729457701
 40
117.8836729457701
 40
117.8836729457701
 10
320.0230923985603
 20
407.5579900661494
 30
0.0
 10
306.4310242382479
 20
407.5579900661494
 30
0.0
 10
292.4422541747101
 20
407.5579900661494
 30
0.0
 10
279.0751751963413
 20
407.5579900661494
 30
0.0
  0
LINE
  5
11D
330
F6
100
AcDbEntity
  8
外形線
100
AcDbLine
 10
177.9980923985601
 20
413.8579900661493
 30
0.0
 11
138.0480923985601
 21
413.8579900661493
 31
0.0
  0
LINE
  5
120
330
F6
100
AcDbEntity
  8
外形線
100
AcDbLine
 10
138.0480923985601
 20
424.8579900661494
 30
0.0
 11
177.9980923985601
 21
424.8579900661494
 31
0.0
  0
LINE
  5
123
330
F6
100
AcDbEntity
  8
外形線
100
AcDbLine
 10
238.9789655673229
 20
472.2570081285826
 30
0.0
 11
203.0480923985601
 21
431.5579900661494
 31
0.0
  0
ARC
  5
13E
330
F6
100
AcDbEntity
  8
外形線
100
AcDbCircle
 10
278.9480923985601
 20
441.0579900661494
 30
0.0
 40
10.0
100
AcDbArc
 50
163.2612914312411
 51
196.1480869533802
  0
LINE
  5
141
330
F6
100
AcDbEntity
  8
外形線
100
AcDbLine
 10
270.7662086930294
 20
453.897236780247
 30
0.0
 11
269.3718110204348
 21
443.9380655802586
 31
0.0
  0
ARC
  5
144
330
F6
100
AcDbEntity
  8
中心線
100
AcDbCircle
 10
275.0480923985601
 20
419.3579900661494
 30
0.0
 40
15.0
100
AcDbArc
 50
175.703125
 51
215.078125
  0
LINE
  5
147
330
F6
100
AcDbEntity
  8
外形線
100
AcDbLine
 10
150.5480923985601
 20
414.8579900661493
 30
0.0
 11
150.5480923985601
 21
423.8579900661494
 31
0.0
  0
LINE
  5
14A
330
F6
100
AcDbEntity
  8
外形線
100
AcDbLine
 10
160.5480923985601
 20
414.8579900661493
 30
0.0
 11
160.5480923985601
 21
423.8579900661494
 31
0.0
  0
LINE
  5
14D
330
F6
100
AcDbEntity
  8
外形線
100
AcDbLine
 10
170.5480923985601
 20
414.8579900661493
 30
0.0
 11
170.5480923985601
 21
423.8579900661494
 31
0.0
  0
LINE
  5
150
330
F6
100
AcDbEntity
  8
中心線
 48
0.2
100
AcDbLine
 10
245.9480923985601
 20
458.3579900661494
 30
0.0
 11
238.1730923985601
 21
458.3579900661494
 31
0.0
  0
LINE
  5
153
330
F6
100
AcDbEntity
  8
中心線
 48
0.2
100
AcDbLine
 10
242.0480923985601
 20
454.4829900661493
 30
0.0
 11
242.0480923985601
 21
462.255720621726
 31
0.0
  0
LINE
  5
156
330
F6
100
AcDbEntity
  8
外形線
100
AcDbLine
 10
177.9980923985601
 20
413.9079900661494
 30
0.0
 11
177.9980923985601
 21
327.4079900661494
 31
0.0
  0
LINE
  5
159
330
F6
100
AcDbEntity
  8
外形線
100
AcDbLine
 10
177.9980923985601
 20
327.4079900661494
 30
0.0
 11
181.9980923985601
 21
327.4079900661494
 31
0.0
  0
LINE
  5
15C
330
F6
100
AcDbEntity
  8
外形線
100
AcDbLine
 10
181.9980923985601
 20
327.4079900661494
 30
0.0
 11
181.9980923985601
 21
336.8579900661494
 31
0.0
  0
LINE
  5
162
330
F6
100
AcDbEntity
  8
外形線
100
AcDbLine
 10
202.9980923985601
 20
407.9079900661493
 30
0.0
 11
199.9980923985601
 21
407.9079900661493
 31
0.0
  0
LINE
  5
165
330
F6
100
AcDbEntity
  8
外形線
100
AcDbLine
 10
181.9980923985601
 20
336.8579900661494
 30
0.0
 11
190.0730923985601
 21
399.2079900661494
 31
0.0
  0
ARC
  5
168
330
F6
100
AcDbEntity
  8
外形線
100
AcDbCircle
 10
199.8980923985601
 20
397.9079900661494
 30
0.0
 40
10.0
100
AcDbArc
 50
89.703125
 51
180.421875
  0
LINE
  5
177
330
F6
100
AcDbEntity
  8
外形線
100
AcDbLine
 10
138.0480923985601
 20
424.8579900661494
 30
0.0
 11
138.0480923985601
 21
413.8579900661493
 31
0.0
  0
LINE
  5
180
330
F6
100
AcDbEntity
  8
中心線
 48
0.2
100
AcDbLine
 10
295.1253618429833
 20
442.3829900661494
 30
0.0
 11
302.9208229541366
 21
442.3829900661494
 31
0.0
  0
LINE
  5
183
330
F6
100
AcDbEntity
  8
中心線
 48
0.2
100
AcDbLine
 10
299.0230923985602
 20
438.4852595105727
 30
0.0
 11
299.0230923985602
 21
446.280720621726
 31
0.0
  0
ARC
  5
192
330
F6
100
AcDbEntity
  8
外形線
100
AcDbCircle
 10
275.2028403613397
 20
419.2842654518674
 30
0.0
 40
12.30417748757589
100
AcDbArc
 50
282.2242844956203
 51
335.4979008526083
  0
ARC
  5
198
330
F6
100
AcDbEntity
  8
外形線
100
AcDbCircle
 10
332.9730923985601
 20
361.1329900661494
 30
0.0
 40
100.0
100
AcDbArc
 50
84.35937499999999
 51
105.7862380219403
  0
ARC
  5
19B
330
F6
100
AcDbEntity
  8
外形線
100
AcDbCircle
 10
339.1480923985601
 20
398.6079900661494
 30
0.0
 40
55.0
100
AcDbArc
 50
86.76562500000001
 51
163.5515337605696
  0
ARC
  5
19E
330
F6
100
AcDbEntity
  8
外形線
100
AcDbCircle
 10
341.5730923985601
 20
457.1579900661494
 30
0.0
 40
3.7
100
AcDbArc
 50
280.5423464371809
 51
70.65569830361119
  0
ARC
  5
1A1
330
F6
100
AcDbEntity
  8
外形線
100
AcDbCircle
 10
276.2439342598828
 20
399.6242637882756
 30
0.0
 40
7.566369912770124
100
AcDbArc
 50
86.44483681661622
 51
186.3802018836794
  0
LINE
  5
1A4
330
F6
100
AcDbEntity
  8
中心線
100
AcDbLine
 10
257.2230923985602
 20
414.3829900661494
 30
0.0
 11
265.4730923985602
 21
414.3829900661494
 31
0.0
  0
LINE
  5
1A7
330
F6
100
AcDbEntity
  8
外形線
100
AcDbLine
 10
264.7230923985601
 20
327.3829900661494
 30
0.0
 11
268.7230923985601
 21
327.3829900661494
 31
0.0
  0
LINE
  5
1AA
330
F6
100
AcDbEntity
  8
外形線
100
AcDbLine
 10
264.7230923985601
 20
327.3829900661494
 30
0.0
 11
264.7230923985601
 21
336.8829900661495
 31
0.0
  0
LINE
  5
1AD
330
F6
100
AcDbEntity
  8
外形線
100
AcDbLine
 10
268.7230923985601
 20
327.3829900661494
 30
0.0
 11
268.7230923985601
 21
398.7579900661494
 31
0.0
  0
LINE
  5
1B0
330
F6
100
AcDbEntity
  8
外形線
100
AcDbLine
 10
264.7230923985601
 20
336.8829900661495
 30
0.0
 11
254.9230923985601
 21
411.0579900661494
 31
0.0
  0
LINE
  5
1B3
330
F6
100
AcDbEntity
  8
中心線
100
AcDbLine
 10
127.0394703212018
 20
329.3579900661494
 30
0.0
 11
290.3480923985601
 21
329.3579900661494
 31
0.0
  0
CIRCLE
  5
1B6
330
F6
100
AcDbEntity
  8
隠れ線
 62
     1
 48
0.5
100
AcDbCircle
 10
260.8980923985602
 20
414.3829900661494
 30
0.0
 40
2.375
  0
ARC
  5
1BC
330
F6
100
AcDbEntity
  8
0
  6
ByBlock
 62
     2
100
AcDbCircle
 10
275.0480923985601
 20
419.3579900661494
 30
0.0
 40
90.0
100
AcDbArc
 50
238.8879382902242
 51
279.796875
  0
LINE
  5
1BF
330
F6
100
AcDbEntity
  8
外形線
100
AcDbLine
 10
268.7230923985601
 20
330.8579900661494
 30
0.0
 11
270.7230923985601
 21
330.8579900661494
 31
0.0
  0
LINE
  5
1C2
330
F6
100
AcDbEntity
  8
外形線
100
AcDbLine
 10
270.7230923985601
 20
330.8579900661494
 30
0.0
 11
274.3757810986823
 21
329.8707769039542
 31
0.0
  0
LINE
  5
1C8
330
F6
100
AcDbEntity
  8
外形線
100
AcDbLine
 10
268.7230923985601
 20
327.8579900661494
 30
0.0
 11
270.7230923985601
 21
327.8579900661494
 31
0.0
  0
LINE
  5
1CB
330
F6
100
AcDbEntity
  8
外形線
100
AcDbLine
 10
270.7230923985601
 20
327.8579900661494
 30
0.0
 11
274.3757810986823
 21
328.8452032283446
 31
0.0
  0
LINE
  5
1CE
330
F6
100
AcDbEntity
  8
外形線
100
AcDbLine
 10
270.7230923985601
 20
330.8579900661494
 30
0.0
 11
270.7230923985601
 21
327.8579900661494
 31
0.0
  0
LINE
  5
1D1
330
F6
100
AcDbEntity
  8
外形線
100
AcDbLine
 10
274.3757810986822
 20
329.8707769039542
 30
0.0
 11
274.3757810986822
 21
328.8452032283446
 31
0.0
  0
LINE
  5
1D4
330
F6
100
AcDbEntity
  8
外形線
100
AcDbLine
 10
178.0230923985601
 20
330.8579900661494
 30
0.0
 11
176.0230923985601
 21
330.8579900661494
 31
0.0
  0
LINE
  5
1D7
330
F6
100
AcDbEntity
  8
外形線
100
AcDbLine
 10
176.0230923985601
 20
330.8579900661494
 30
0.0
 11
172.370403698438
 21
329.8707769039542
 31
0.0
  0
LINE
  5
1DD
330
F6
100
AcDbEntity
  8
外形線
100
AcDbLine
 10
178.0230923985601
 20
327.8579900661494
 30
0.0
 11
176.0230923985601
 21
327.8579900661494
 31
0.0
  0
LINE
  5
1E0
330
F6
100
AcDbEntity
  8
外形線
100
AcDbLine
 10
176.0230923985601
 20
327.8579900661494
 30
0.0
 11
172.370403698438
 21
328.8452032283446
 31
0.0
  0
LINE
  5
1E3
330
F6
100
AcDbEntity
  8
外形線
100
AcDbLine
 10
176.0230923985601
 20
330.8579900661494
 30
0.0
 11
176.0230923985601
 21
327.8579900661494
 31
0.0
  0
LINE
  5
1E6
330
F6
100
AcDbEntity
  8
外形線
100
AcDbLine
 10
172.370403698438
 20
329.8707769039542
 30
0.0
 11
172.370403698438
 21
328.8452032283446
 31
0.0
  0
LINE
  5
1E9
330
F6
100
AcDbEntity
  8
想像線
100
AcDbLine
 10
137.9980923985601
 20
327.4079900661494
 30
0.0
 11
141.9980923985601
 21
327.4079900661494
 31
0.0
  0
LINE
  5
1EC
330
F6
100
AcDbEntity
  8
想像線
100
AcDbLine
 10
141.9980923985601
 20
327.4079900661494
 30
0.0
 11
141.9980923985601
 21
336.8579900661494
 31
0.0
  0
LINE
  5
204
330
F6
100
AcDbEntity
  8
想像線
100
AcDbLine
 10
137.9980923985601
 20
365.6579900661494
 30
0.0
 11
137.9980923985601
 21
327.4079900661494
 31
0.0
  0
LINE
  5
207
330
F6
100
AcDbEntity
  8
想像線
100
AcDbLine
 10
141.9980923985601
 20
336.8579900661494
 30
0.0
 11
145.7230923985601
 21
365.6579900661494
 31
0.0
  0
LINE
  5
21F
330
F6
100
AcDbEntity
  8
外形線
100
AcDbLine
 10
203.0480923985601
 20
407.5579900661494
 30
0.0
 11
203.0480923985601
 21
431.5579900661494
 31
0.0
  0
LINE
  5
240
330
F6
100
AcDbEntity
  8
想像線
 48
0.5
100
AcDbLine
 10
276.9824166611082
 20
330.5106675568059
 30
0.0
 11
279.5162125065786
 21
329.9701244431055
 31
0.0
  0
LINE
  5
249
330
F6
100
AcDbEntity
  8
想像線
 48
0.5
100
AcDbLine
 10
277.2508418998168
 20
328.1813330010568
 30
0.0
 11
279.5908800189566
 21
328.9496684406066
 31
0.0
  0
LINE
  5
24F
330
F6
100
AcDbEntity
  8
想像線
 48
0.5
100
AcDbLine
 10
279.5162125065786
 20
329.9701244431055
 30
0.0
 11
279.5912125065786
 21
328.9451244431055
 31
0.0
  0
LINE
  5
25B
330
F6
100
AcDbEntity
  8
想像線
 48
0.5
100
AcDbLine
 10
267.4534146074628
 20
330.7949389289759
 30
0.0
 11
269.8617012353253
 21
330.0031734622814
 31
0.0
  0
LINE
  5
264
330
F6
100
AcDbEntity
  8
想像線
 48
0.5
100
AcDbLine
 10
267.0698276878789
 20
328.3871327812333
 30
0.0
 11
269.8367012353253
 21
328.9781734622814
 31
0.0
  0
LINE
  5
26A
330
F6
100
AcDbEntity
  8
想像線
 48
0.5
100
AcDbLine
 10
269.8617012353253
 20
330.0031734622814
 30
0.0
 11
269.8367012353253
 21
328.9781734622814
 31
0.0
  0
LWPOLYLINE
  5
100008DC
330
F6
100
AcDbEntity
  8
C
100
AcDbPolyline
 90
        5
 70
     0
 43
0.8
 10
80.20278287631384
 20
554.0876985277297
 10
457.7027828763138
 20
554.0876985277297
 10
457.7027828763138
 20
271.5876985277297
 10
80.20278287631384
 20
271.5876985277297
 10
80.20278287631384
 20
554.0876985277297
  0
LINE
  5
10000906
330
F6
100
AcDbEntity
  8
中心線
100
AcDbLine
 10
136.1039827415839
 20
419.3829900661494
 30
0.0
 11
422.5540240124231
 21
419.3829900661494
 31
0.0
  0
LINE
  5
10000907
330
F6
100
AcDbEntity
  8
中心線
 48
0.5
100
AcDbLine
 10
275.0230923985601
 20
433.7320384785031
 30
0.0
 11
275.0230923985601
 21
390.9475988935897
 31
0.0
  0
ARC
  5
1000092C
330
F6
100
AcDbEntity
  8
握り
100
AcDbCircle
 10
415.0230923985601
 20
432.8829900661494
 30
0.0
 40
1.5
100
AcDbArc
 50
27.81813928465427
 51
152.1818607153457
  0
ARC
  5
1000092D
330
F6
100
AcDbEntity
  8
握り
100
AcDbCircle
 10
405.0230923985601
 20
432.8829900661494
 30
0.0
 40
1.5
100
AcDbArc
 50
27.81813928465427
 51
152.1818607153457
  0
ARC
  5
1000092E
330
F6
100
AcDbEntity
  8
握り
100
AcDbCircle
 10
395.0230923985602
 20
432.8829900661494
 30
0.0
 40
1.5
100
AcDbArc
 50
27.81813928465427
 51
152.1818607153457
  0
ARC
  5
1000092F
330
F6
100
AcDbEntity
  8
握り
100
AcDbCircle
 10
385.0230923985602
 20
432.8829900661494
 30
0.0
 40
1.5
100
AcDbArc
 50
27.81813928465427
 51
152.1818607153457
  0
ARC
  5
10000930
330
F6
100
AcDbEntity
  8
握り
100
AcDbCircle
 10
375.0230923985601
 20
432.8829900661494
 30
0.0
 40
1.5
100
AcDbArc
 50
27.81813928465427
 51
152.1818607153457
  0
ARC
  5
10000931
330
F6
100
AcDbEntity
  8
握り
100
AcDbCircle
 10
365.0230923985601
 20
432.8829900661494
 30
0.0
 40
1.5
100
AcDbArc
 50
27.81813928465427
 51
152.1818607153457
  0
ARC
  5
10000932
330
F6
100
AcDbEntity
  8
握り
100
AcDbCircle
 10
355.0230923985602
 20
432.8829900661494
 30
0.0
 40
1.5
100
AcDbArc
 50
27.81813928465427
 51
152.1818607153457
  0
ARC
  5
10000933
330
F6
100
AcDbEntity
  8
握り
100
AcDbCircle
 10
345.0230923985602
 20
432.8829900661494
 30
0.0
 40
1.5
100
AcDbArc
 50
27.81813928465427
 51
152.1818607153457
  0
ARC
  5
10000934
330
F6
100
AcDbEntity
  8
握り
100
AcDbCircle
 10
335.0230923985602
 20
432.8829900661494
 30
0.0
 40
1.5
100
AcDbArc
 50
27.81813928465427
 51
152.1818607153457
  0
ARC
  5
10000935
330
F6
100
AcDbEntity
  8
握り
100
AcDbCircle
 10
325.0230923985601
 20
432.8829900661494
 30
0.0
 40
1.5
100
AcDbArc
 50
27.81813928465427
 51
152.1818607153457
  0
ARC
  5
10000936
330
F6
100
AcDbEntity
  8
握り
100
AcDbCircle
 10
320.5230923985602
 20
433.0829900661495
 30
0.0
 40
0.5
100
AcDbArc
 50
90.0
 51
180.0
  0
ARC
  5
10000937
330
F6
100
AcDbEntity
  8
握り
100
AcDbCircle
 10
419.5230923985601
 20
433.0829900661494
 30
0.0
 40
0.5
100
AcDbArc
 50
0.0
 51
90.0
  0
LINE
  5
10000938
330
F6
100
AcDbEntity
  8
握り
100
AcDbLine
 10
356.3497423147023
 20
412.7296900661494
 30
0.0
 11
363.6964424824177
 21
412.7296900661494
 31
0.0
  0
LINE
  5
10000939
330
F6
100
AcDbEntity
  8
握り
100
AcDbLine
 10
356.3497423147024
 20
426.0362900661495
 30
0.0
 11
363.6964424824182
 21
426.0362900661495
 31
0.0
  0
LINE
  5
1000093A
330
F6
100
AcDbEntity
  8
握り
100
AcDbLine
 10
346.3497423147023
 20
415.3829900661494
 30
0.0
 11
393.6964424824179
 21
415.3829900661494
 31
0.0
  0
LINE
  5
1000093B
330
F6
100
AcDbEntity
  8
握り
100
AcDbLine
 10
346.3497423147023
 20
423.3829900661494
 30
0.0
 11
393.6964424824181
 21
423.3829900661494
 31
0.0
  0
LINE
  5
1000093C
330
F6
100
AcDbEntity
  8
握り
100
AcDbLine
 10
356.3497423147023
 20
405.1829900661493
 30
0.0
 11
363.696442482418
 21
405.1829900661493
 31
0.0
  0
LINE
  5
1000093D
330
F6
100
AcDbEntity
  8
握り
100
AcDbLine
 10
356.3497423147023
 20
433.5829900661495
 30
0.0
 11
363.696442482418
 21
433.5829900661495
 31
0.0
  0
LINE
  5
1000093E
330
F6
100
AcDbEntity
  8
握り
100
AcDbLine
 10
356.3497423147022
 20
412.7296900661494
 30
0.0
 11
356.3497423147023
 21
405.1829900661493
 31
0.0
  0
LINE
  5
1000093F
330
F6
100
AcDbEntity
  8
握り
100
AcDbLine
 10
353.696442482418
 20
412.7296900661494
 30
0.0
 11
353.696442482418
 21
405.1829900661493
 31
0.0
  0
LINE
  5
10000940
330
F6
100
AcDbEntity
  8
握り
100
AcDbLine
 10
346.3497423147023
 20
412.7296900661495
 30
0.0
 11
346.3497423147023
 21
405.1829900661493
 31
0.0
  0
LINE
  5
10000941
330
F6
100
AcDbEntity
  8
握り
100
AcDbLine
 10
343.696442482418
 20
433.5829900661495
 30
0.0
 11
343.696442482418
 21
405.1829900661493
 31
0.0
  0
LINE
  5
10000942
330
F6
100
AcDbEntity
  8
握り
100
AcDbLine
 10
336.3497423147023
 20
433.5829900661495
 30
0.0
 11
336.3497423147023
 21
405.1829900661493
 31
0.0
  0
LINE
  5
10000943
330
F6
100
AcDbEntity
  8
握り
100
AcDbLine
 10
333.696442482418
 20
433.5829900661495
 30
0.0
 11
333.696442482418
 21
405.1829900661493
 31
0.0
  0
LINE
  5
10000944
330
F6
100
AcDbEntity
  8
握り
100
AcDbLine
 10
323.696442482418
 20
433.5829900661495
 30
0.0
 11
323.696442482418
 21
405.1829900661493
 31
0.0
  0
LINE
  5
10000945
330
F6
100
AcDbEntity
  8
握り
100
AcDbLine
 10
326.3497423147023
 20
433.5829900661495
 30
0.0
 11
326.3497423147023
 21
405.1829900661493
 31
0.0
  0
LINE
  5
10000946
330
F6
100
AcDbEntity
  8
握り
100
AcDbLine
 10
320.0230923985602
 20
433.0829900661495
 30
0.0
 11
320.0230923985602
 21
405.6829900661494
 31
0.0
  0
LINE
  5
10000947
330
F6
100
AcDbEntity
  8
握り
100
AcDbLine
 10
320.5230923985602
 20
405.1829900661494
 30
0.0
 11
323.6964424824181
 21
405.1829900661495
 31
0.0
  0
ARC
  5
10000948
330
F6
100
AcDbEntity
  8
握り
100
AcDbCircle
 10
320.5230923985602
 20
405.6829900661494
 30
0.0
 40
0.5
100
AcDbArc
 50
180.0
 51
270.0
  0
LINE
  5
10000949
330
F6
100
AcDbEntity
  8
握り
100
AcDbLine
 10
336.3497423147023
 20
405.1829900661495
 30
0.0
 11
343.696442482418
 21
405.1829900661494
 31
0.0
  0
LINE
  5
1000094A
330
F6
100
AcDbEntity
  8
握り
100
AcDbLine
 10
326.3497423147023
 20
405.1829900661495
 30
0.0
 11
333.6964424824181
 21
405.1829900661495
 31
0.0
  0
ARC
  5
1000094B
330
F6
100
AcDbEntity
  8
握り
100
AcDbCircle
 10
325.0230923985601
 20
405.8829900661494
 30
0.0
 40
1.5
100
AcDbArc
 50
207.8181392846543
 51
332.1818607153458
  0
ARC
  5
1000094C
330
F6
100
AcDbEntity
  8
握り
100
AcDbCircle
 10
335.0230923985602
 20
405.8829900661494
 30
0.0
 40
1.5
100
AcDbArc
 50
207.8181392846543
 51
332.1818607153458
  0
LINE
  5
1000094D
330
F6
100
AcDbEntity
  8
握り
100
AcDbLine
 10
346.3497423147023
 20
405.1829900661494
 30
0.0
 11
353.696442482418
 21
405.1829900661493
 31
0.0
  0
ARC
  5
1000094E
330
F6
100
AcDbEntity
  8
握り
100
AcDbCircle
 10
345.0230923985602
 20
405.8829900661494
 30
0.0
 40
1.5
100
AcDbArc
 50
207.8181392846543
 51
332.1818607153458
  0
ARC
  5
1000094F
330
F6
100
AcDbEntity
  8
握り
100
AcDbCircle
 10
355.0230923985602
 20
405.8829900661494
 30
0.0
 40
1.5
100
AcDbArc
 50
207.8181392846543
 51
332.1818607153458
  0
LINE
  5
10000950
330
F6
100
AcDbEntity
  8
握り
100
AcDbLine
 10
320.5230923985602
 20
433.5829900661495
 30
0.0
 11
323.696442482418
 21
433.5829900661495
 31
0.0
  0
LINE
  5
10000951
330
F6
100
AcDbEntity
  8
握り
100
AcDbLine
 10
346.3497423147023
 20
423.3829900661494
 30
0.0
 11
346.3497423147023
 21
415.3829900661494
 31
0.0
  0
LINE
  5
10000952
330
F6
100
AcDbEntity
  8
握り
100
AcDbLine
 10
346.3497423147023
 20
412.7296900661494
 30
0.0
 11
353.6964424824181
 21
412.7296900661494
 31
0.0
  0
LINE
  5
10000953
330
F6
100
AcDbEntity
  8
握り
100
AcDbLine
 10
336.3497423147023
 20
433.5829900661495
 30
0.0
 11
343.696442482418
 21
433.5829900661495
 31
0.0
  0
LINE
  5
10000954
330
F6
100
AcDbEntity
  8
握り
100
AcDbLine
 10
326.3497423147023
 20
433.5829900661495
 30
0.0
 11
333.6964424824181
 21
433.5829900661495
 31
0.0
  0
LINE
  5
10000955
330
F6
100
AcDbEntity
  8
握り
100
AcDbLine
 10
356.3497423147023
 20
433.5829900661495
 30
0.0
 11
356.3497423147024
 21
426.0362900661494
 31
0.0
  0
LINE
  5
10000956
330
F6
100
AcDbEntity
  8
握り
100
AcDbLine
 10
353.696442482418
 20
433.5829900661495
 30
0.0
 11
353.6964424824181
 21
426.0362900661494
 31
0.0
  0
LINE
  5
10000957
330
F6
100
AcDbEntity
  8
握り
100
AcDbLine
 10
346.3497423147023
 20
433.5829900661495
 30
0.0
 11
346.3497423147023
 21
426.0362900661495
 31
0.0
  0
LINE
  5
10000958
330
F6
100
AcDbEntity
  8
握り
100
AcDbLine
 10
346.3497423147024
 20
426.0362900661494
 30
0.0
 11
353.6964424824182
 21
426.0362900661495
 31
0.0
  0
LINE
  5
10000959
330
F6
100
AcDbEntity
  8
握り
100
AcDbLine
 10
346.3497423147023
 20
433.5829900661495
 30
0.0
 11
353.696442482418
 21
433.5829900661495
 31
0.0
  0
LINE
  5
1000095A
330
F6
100
AcDbEntity
  8
握り
100
AcDbLine
 10
386.3497423147023
 20
412.7296900661494
 30
0.0
 11
386.3497423147023
 21
405.1829900661493
 31
0.0
  0
LINE
  5
1000095B
330
F6
100
AcDbEntity
  8
握り
100
AcDbLine
 10
383.6964424824181
 20
412.7296900661494
 30
0.0
 11
383.696442482418
 21
405.1829900661493
 31
0.0
  0
LINE
  5
1000095C
330
F6
100
AcDbEntity
  8
握り
100
AcDbLine
 10
376.3497423147023
 20
412.7296900661494
 30
0.0
 11
376.3497423147023
 21
405.1829900661493
 31
0.0
  0
LINE
  5
1000095D
330
F6
100
AcDbEntity
  8
握り
100
AcDbLine
 10
373.696442482418
 20
412.7296900661494
 30
0.0
 11
373.696442482418
 21
405.1829900661493
 31
0.0
  0
LINE
  5
1000095E
330
F6
100
AcDbEntity
  8
握り
100
AcDbLine
 10
366.3497423147022
 20
412.7296900661494
 30
0.0
 11
366.3497423147023
 21
405.1829900661493
 31
0.0
  0
LINE
  5
1000095F
330
F6
100
AcDbEntity
  8
握り
100
AcDbLine
 10
363.6964424824179
 20
412.7296900661494
 30
0.0
 11
363.696442482418
 21
405.1829900661493
 31
0.0
  0
LINE
  5
10000960
330
F6
100
AcDbEntity
  8
握り
100
AcDbLine
 10
393.6964424824179
 20
412.7296900661495
 30
0.0
 11
393.696442482418
 21
405.1829900661493
 31
0.0
  0
LINE
  5
10000961
330
F6
100
AcDbEntity
  8
握り
100
AcDbLine
 10
416.3497423147023
 20
433.5829900661495
 30
0.0
 11
416.3497423147023
 21
405.1829900661493
 31
0.0
  0
LINE
  5
10000962
330
F6
100
AcDbEntity
  8
握り
100
AcDbLine
 10
413.696442482418
 20
433.5829900661495
 30
0.0
 11
413.696442482418
 21
405.1829900661493
 31
0.0
  0
LINE
  5
10000963
330
F6
100
AcDbEntity
  8
握り
100
AcDbLine
 10
406.3497423147023
 20
433.5829900661495
 30
0.0
 11
406.3497423147023
 21
405.1829900661493
 31
0.0
  0
LINE
  5
10000964
330
F6
100
AcDbEntity
  8
握り
100
AcDbLine
 10
403.6964424824179
 20
433.5829900661495
 30
0.0
 11
403.6964424824179
 21
405.1829900661493
 31
0.0
  0
LINE
  5
10000965
330
F6
100
AcDbEntity
  8
握り
100
AcDbLine
 10
396.3497423147023
 20
433.5829900661495
 30
0.0
 11
396.3497423147023
 21
405.1829900661493
 31
0.0
  0
LINE
  5
10000966
330
F6
100
AcDbEntity
  8
握り
100
AcDbLine
 10
420.0230923985601
 20
433.0829900661494
 30
0.0
 11
420.0230923985601
 21
405.6829900661494
 31
0.0
  0
LINE
  5
10000967
330
F6
100
AcDbEntity
  8
握り
100
AcDbLine
 10
386.3497423147024
 20
405.1829900661494
 30
0.0
 11
393.6964424824179
 21
405.1829900661494
 31
0.0
  0
ARC
  5
10000968
330
F6
100
AcDbEntity
  8
握り
100
AcDbCircle
 10
375.0230923985601
 20
405.8829900661494
 30
0.0
 40
1.5
100
AcDbArc
 50
207.8181392846543
 51
332.1818607153458
  0
ARC
  5
10000969
330
F6
100
AcDbEntity
  8
握り
100
AcDbCircle
 10
365.0230923985601
 20
405.8829900661494
 30
0.0
 40
1.5
100
AcDbArc
 50
207.8181392846543
 51
332.1818607153458
  0
LINE
  5
1000096A
330
F6
100
AcDbEntity
  8
握り
100
AcDbLine
 10
366.3497423147024
 20
405.1829900661493
 30
0.0
 11
373.696442482418
 21
405.1829900661494
 31
0.0
  0
LINE
  5
1000096B
330
F6
100
AcDbEntity
  8
握り
100
AcDbLine
 10
376.3497423147023
 20
405.1829900661494
 30
0.0
 11
383.696442482418
 21
405.1829900661494
 31
0.0
  0
ARC
  5
1000096C
330
F6
100
AcDbEntity
  8
握り
100
AcDbCircle
 10
385.0230923985602
 20
405.8829900661494
 30
0.0
 40
1.5
100
AcDbArc
 50
207.8181392846543
 51
332.1818607153458
  0
LINE
  5
1000096D
330
F6
100
AcDbEntity
  8
握り
100
AcDbLine
 10
406.3497423147024
 20
405.1829900661493
 30
0.0
 11
413.696442482418
 21
405.1829900661493
 31
0.0
  0
LINE
  5
1000096E
330
F6
100
AcDbEntity
  8
握り
100
AcDbLine
 10
396.3497423147022
 20
405.1829900661494
 30
0.0
 11
403.6964424824181
 21
405.1829900661493
 31
0.0
  0
ARC
  5
1000096F
330
F6
100
AcDbEntity
  8
握り
100
AcDbCircle
 10
395.0230923985602
 20
405.8829900661494
 30
0.0
 40
1.5
100
AcDbArc
 50
207.8181392846543
 51
332.1818607153458
  0
ARC
  5
10000970
330
F6
100
AcDbEntity
  8
握り
100
AcDbCircle
 10
405.0230923985601
 20
405.8829900661494
 30
0.0
 40
1.5
100
AcDbArc
 50
207.8181392846543
 51
332.1818607153458
  0
LINE
  5
10000971
330
F6
100
AcDbEntity
  8
握り
100
AcDbLine
 10
416.3497423147023
 20
405.1829900661493
 30
0.0
 11
419.5230923985601
 21
405.1829900661493
 31
0.0
  0
ARC
  5
10000972
330
F6
100
AcDbEntity
  8
握り
100
AcDbCircle
 10
415.0230923985601
 20
405.8829900661494
 30
0.0
 40
1.5
100
AcDbArc
 50
207.8181392846543
 51
332.1818607153458
  0
ARC
  5
10000973
330
F6
100
AcDbEntity
  8
握り
100
AcDbCircle
 10
419.5230923985601
 20
405.6829900661494
 30
0.0
 40
0.5
100
AcDbArc
 50
270.0
 51
0.0
  0
LINE
  5
10000974
330
F6
100
AcDbEntity
  8
握り
100
AcDbLine
 10
386.3497423147023
 20
412.7296900661495
 30
0.0
 11
393.6964424824179
 21
412.7296900661495
 31
0.0
  0
LINE
  5
10000975
330
F6
100
AcDbEntity
  8
握り
100
AcDbLine
 10
386.3497423147024
 20
426.0362900661495
 30
0.0
 11
393.6964424824179
 21
426.0362900661495
 31
0.0
  0
LINE
  5
10000976
330
F6
100
AcDbEntity
  8
握り
100
AcDbLine
 10
386.3497423147024
 20
433.5829900661494
 30
0.0
 11
393.6964424824179
 21
433.5829900661494
 31
0.0
  0
LINE
  5
10000977
330
F6
100
AcDbEntity
  8
握り
100
AcDbLine
 10
366.3497423147021
 20
412.7296900661494
 30
0.0
 11
373.696442482418
 21
412.7296900661494
 31
0.0
  0
LINE
  5
10000978
330
F6
100
AcDbEntity
  8
握り
100
AcDbLine
 10
376.3497423147023
 20
412.7296900661494
 30
0.0
 11
383.696442482418
 21
412.7296900661495
 31
0.0
  0
LINE
  5
10000979
330
F6
100
AcDbEntity
  8
握り
100
AcDbLine
 10
373.696442482418
 20
433.5829900661495
 30
0.0
 11
373.6964424824181
 21
426.0362900661495
 31
0.0
  0
LINE
  5
1000097A
330
F6
100
AcDbEntity
  8
握り
100
AcDbLine
 10
366.3497423147023
 20
433.5829900661495
 30
0.0
 11
366.3497423147024
 21
426.0362900661494
 31
0.0
  0
LINE
  5
1000097B
330
F6
100
AcDbEntity
  8
握り
100
AcDbLine
 10
363.696442482418
 20
433.5829900661495
 30
0.0
 11
363.6964424824181
 21
426.0362900661494
 31
0.0
  0
LINE
  5
1000097C
330
F6
100
AcDbEntity
  8
握り
100
AcDbLine
 10
366.3497423147023
 20
426.0362900661495
 30
0.0
 11
373.6964424824181
 21
426.0362900661495
 31
0.0
  0
LINE
  5
1000097D
330
F6
100
AcDbEntity
  8
握り
100
AcDbLine
 10
366.3497423147024
 20
433.5829900661495
 30
0.0
 11
373.696442482418
 21
433.5829900661495
 31
0.0
  0
LINE
  5
1000097E
330
F6
100
AcDbEntity
  8
握り
100
AcDbLine
 10
386.3497423147023
 20
433.5829900661495
 30
0.0
 11
386.3497423147024
 21
426.0362900661495
 31
0.0
  0
LINE
  5
1000097F
330
F6
100
AcDbEntity
  8
握り
100
AcDbLine
 10
383.696442482418
 20
433.5829900661495
 30
0.0
 11
383.6964424824181
 21
426.0362900661495
 31
0.0
  0
LINE
  5
10000980
330
F6
100
AcDbEntity
  8
握り
100
AcDbLine
 10
376.3497423147023
 20
433.5829900661495
 30
0.0
 11
376.3497423147025
 21
426.0362900661495
 31
0.0
  0
LINE
  5
10000981
330
F6
100
AcDbEntity
  8
握り
100
AcDbLine
 10
376.3497423147025
 20
426.0362900661495
 30
0.0
 11
383.696442482418
 21
426.0362900661495
 31
0.0
  0
LINE
  5
10000982
330
F6
100
AcDbEntity
  8
握り
100
AcDbLine
 10
376.3497423147023
 20
433.5829900661495
 30
0.0
 11
383.696442482418
 21
433.5829900661494
 31
0.0
  0
LINE
  5
10000983
330
F6
100
AcDbEntity
  8
握り
100
AcDbLine
 10
393.6964424824181
 20
423.3829900661494
 30
0.0
 11
393.6964424824179
 21
415.3829900661494
 31
0.0
  0
LINE
  5
10000984
330
F6
100
AcDbEntity
  8
握り
100
AcDbLine
 10
406.3497423147024
 20
433.5829900661493
 30
0.0
 11
413.696442482418
 21
433.5829900661493
 31
0.0
  0
LINE
  5
10000985
330
F6
100
AcDbEntity
  8
握り
100
AcDbLine
 10
393.696442482418
 20
433.5829900661495
 30
0.0
 11
393.696442482418
 21
426.0362900661495
 31
0.0
  0
LINE
  5
10000986
330
F6
100
AcDbEntity
  8
握り
100
AcDbLine
 10
396.3497423147022
 20
433.5829900661494
 30
0.0
 11
403.6964424824181
 21
433.5829900661493
 31
0.0
  0
LINE
  5
10000987
330
F6
100
AcDbEntity
  8
握り
100
AcDbLine
 10
416.3497423147023
 20
433.5829900661493
 30
0.0
 11
419.5230923985601
 21
433.5829900661494
 31
0.0
  0
TEXT
  5
10000A74
330
F6
100
AcDbEntity
  8
文字
100
AcDbText
 10
376.7984287303513
 20
417.952137576685
 30
0.0
 40
3.0
  1
LB-14
  7
STYLE3
100
AcDbText
  0
LINE
  5
10000A75
102
{ACAD_REACTORS
330
10000AB3
102
}
330
F6
100
AcDbEntity
  8
ROGO
 62
     4
100
AcDbLine
 10
350.9508890380035
 20
420.9548363566101
 30
0.0
 11
353.2544580565537
 21
420.9548363566101
 31
0.0
  0
LINE
  5
10000A76
102
{ACAD_REACTORS
330
10000AB1
330
10000AB2
330
10000AB3
102
}
330
F6
100
AcDbEntity
  8
ROGO
 62
     4
100
AcDbLine
 10
349.5005311235855
 20
418.0235809496015
 30
0.0
 11
369.3422129336194
 21
418.0235809496015
 31
0.0
  0
LINE
  5
10000A77
102
{ACAD_REACTORS
330
10000AB3
102
}
330
F6
100
AcDbEntity
  8
ROGO
 62
     4
100
AcDbLine
 10
350.9508890380035
 20
420.9548363566101
 30
0.0
 11
349.5005311235855
 21
418.0235809496015
 31
0.0
  0
SPLINE
  5
10000A78
102
{ACAD_REACTORS
330
10000AB3
102
}
330
F6
100
AcDbEntity
  8
ROGO
 62
     4
100
AcDbSpline
210
0.0
220
0.0
230
1.0
 70
     8
 71
     3
 72
    18
 73
    14
 74
     0
 42
0.0000000001
 43
0.0000000001
 40
0.1087402787915014
 40
0.1087402787915014
 40
0.1087402787915014
 40
0.1087402787915014
 40
0.5992371417938475
 40
1.083176791562496
 40
1.448211145705696
 40
1.714037220764907
 40
2.164002567013297
 40
2.740236056362883
 40
3.395137510199602
 40
4.071816045172726
 40
4.784906178399433
 40
5.506895915094292
 40
6.060470601257719
 40
6.060470601257719
 40
6.060470601257719
 40
6.060470601257719
 10
353.2544580565537
 20
420.9548363566102
 30
0.0
 10
353.3282573960338
 20
420.9277901353991
 30
0.0
 10
353.4733830358204
 20
420.8706102906631
 30
0.0
 10
353.6505048008877
 20
420.740106990961
 30
0.0
 10
353.7470993636373
 20
420.5894515949999
 30
0.0
 10
353.8400125186988
 20
420.4410076774244
 30
0.0
 10
353.853015545143
 20
420.2280397714867
 30
0.0
 10
353.8317157093613
 20
419.9587967206699
 30
0.0
 10
353.694205893824
 20
419.6778693813546
 30
0.0
 10
353.4734945522793
 20
419.432159337352
 30
0.0
 10
353.1994660192893
 20
419.2354962225781
 30
0.0
 10
352.910493479136
 20
419.0811207418705
 30
0.0
 10
352.7039358262023
 20
419.0795825695724
 30
0.0
 10
352.6142930877814
 20
419.0789150272422
 30
0.0
  0
LINE
  5
10000A79
102
{ACAD_REACTORS
330
10000AB3
102
}
330
F6
100
AcDbEntity
  8
ROGO
 62
     4
100
AcDbLine
 10
352.6142930882229
 20
419.0789150272423
 30
0.0
 11
351.3405669903925
 21
419.0789150272423
 31
0.0
  0
LINE
  5
10000A7A
102
{ACAD_REACTORS
330
10000AB3
102
}
330
F6
100
AcDbEntity
  8
ROGO
 62
     4
100
AcDbLine
 10
351.8610845456319
 20
420.2294121977339
 30
0.0
 11
351.6353734079784
 21
419.730524076469
 31
0.0
  0
SPLINE
  5
10000A7B
102
{ACAD_REACTORS
330
10000AB3
102
}
330
F6
100
AcDbEntity
  8
ROGO
 62
     4
100
AcDbSpline
210
0.0
220
0.0
230
1.0
 70
     8
 71
     3
 72
    15
 73
    11
 74
     9
 42
0.0000000001
 43
0.0000000001
 44
0.0000000001
 40
0.0
 40
0.0
 40
0.0
 40
0.0
 40
0.2199578613106558
 40
0.3202465475123651
 40
0.4340808827708152
 40
0.5116301246390283
 40
0.634275054953107
 40
0.7077360179240892
 40
0.8337709579493377
 40
0.875782631437913
 40
0.875782631437913
 40
0.875782631437913
 40
0.875782631437913
 10
352.441065972914
 20
420.2294121977338
 30
0.0
 10
352.5236778801414
 20
420.2297906043659
 30
0.0
 10
352.6439562730815
 20
420.2303415436083
 30
0.0
 10
352.7097287821737
 20
420.081556823709
 30
0.0
 10
352.6802464075546
 20
419.9857626742272
 30
0.0
 10
352.6431846598058
 20
419.8874119395872
 30
0.0
 10
352.5776881576025
 20
419.8205811320597
 30
0.0
 10
352.4897822581808
 20
419.7562117982925
 30
0.0
 10
352.4067069823869
 20
419.7484196022079
 30
0.0
 10
352.3526758409975
 20
419.7341031829873
 30
0.0
 10
352.3391680491842
 20
419.730524076469
 30
0.0
 11
352.441065972914
 21
420.2294121977338
 31
0.0
 11
352.6550517885265
 21
420.1785051111054
 31
0.0
 11
352.695811075205
 21
420.0868726870977
 31
0.0
 11
352.6754317248325
 21
419.9748774284386
 31
0.0
 11
352.644862406307
 21
419.9036075071588
 31
0.0
 11
352.5633438329497
 21
419.811975083151
 31
0.0
 11
352.5022051958986
 21
419.7712494138484
 31
0.0
 11
352.3799273358628
 21
419.7407054937947
 31
0.0
 11
352.3391680491842
 21
419.730524076469
 31
0.0
  0
LINE
  5
10000A7C
102
{ACAD_REACTORS
330
10000AB3
102
}
330
F6
100
AcDbEntity
  8
ROGO
 62
     4
100
AcDbLine
 10
352.441065972914
 20
420.2294121977339
 30
0.0
 11
351.8610845456319
 21
420.2294121977339
 31
0.0
  0
LINE
  5
10000A7D
102
{ACAD_REACTORS
330
10000AB3
102
}
330
F6
100
AcDbEntity
  8
ROGO
 62
     4
100
AcDbLine
 10
352.3391680491843
 20
419.730524076469
 30
0.0
 11
351.6353734079785
 21
419.730524076469
 31
0.0
  0
LINE
  5
10000A7E
102
{ACAD_REACTORS
330
10000AB1
330
10000AB3
102
}
330
F6
100
AcDbEntity
  8
ROGO
 62
     4
100
AcDbLine
 10
351.3405669903925
 20
419.0789150272423
 30
0.0
 11
350.8631039177804
 21
418.0235809496015
 31
0.0
  0
LINE
  5
10000A7F
102
{ACAD_REACTORS
330
10000AAE
102
}
330
F6
100
AcDbEntity
  8
ROGO
 62
     4
100
AcDbLine
 10
354.6153494754189
 20
420.9548363566101
 30
0.0
 11
353.6871610479045
 21
419.0789150272423
 31
0.0
  0
LINE
  5
10000A80
102
{ACAD_REACTORS
330
10000AAE
102
}
330
F6
100
AcDbEntity
  8
ROGO
 62
     4
100
AcDbLine
 10
357.1526111161103
 20
420.9548363566101
 30
0.0
 11
356.9399908364894
 21
420.5251187413357
 31
0.0
  0
LINE
  5
10000A81
102
{ACAD_REACTORS
330
10000AAE
102
}
330
F6
100
AcDbEntity
  8
ROGO
 62
     4
100
AcDbLine
 10
353.6871610479044
 20
419.0789150272423
 30
0.0
 11
356.2244226885959
 21
419.0789150272423
 31
0.0
  0
LINE
  5
10000A82
102
{ACAD_REACTORS
330
10000AAE
102
}
330
F6
100
AcDbEntity
  8
ROGO
 62
     4
100
AcDbLine
 10
355.6064702333209
 20
420.5251187413357
 30
0.0
 11
355.4402275960687
 21
420.1891329653583
 31
0.0
  0
LINE
  5
10000A83
102
{ACAD_REACTORS
330
10000AAE
102
}
330
F6
100
AcDbEntity
  8
ROGO
 62
     4
100
AcDbLine
 10
355.6064702333209
 20
420.5251187413357
 30
0.0
 11
356.9399908364894
 21
420.5251187413357
 31
0.0
  0
LINE
  5
10000A84
102
{ACAD_REACTORS
330
10000AAE
102
}
330
F6
100
AcDbEntity
  8
ROGO
 62
     4
100
AcDbLine
 10
355.4402275960687
 20
420.1891329653583
 30
0.0
 11
356.7737481992373
 21
420.1891329653583
 31
0.0
  0
LINE
  5
10000A85
102
{ACAD_REACTORS
330
10000AAE
102
}
330
F6
100
AcDbEntity
  8
ROGO
 62
     4
100
AcDbLine
 10
355.1035116700112
 20
419.5086110272423
 30
0.0
 11
356.4370322731798
 21
419.5086110272423
 31
0.0
  0
LINE
  5
10000A86
102
{ACAD_REACTORS
330
10000AAE
102
}
330
F6
100
AcDbEntity
  8
ROGO
 62
     4
100
AcDbLine
 10
355.2697613451776
 20
419.8446110272422
 30
0.0
 11
356.6032819483461
 21
419.8446110272423
 31
0.0
  0
LINE
  5
10000A87
102
{ACAD_REACTORS
330
10000AAE
102
}
330
F6
100
AcDbEntity
  8
ROGO
 62
     4
100
AcDbLine
 10
356.7737481992373
 20
420.1891329653583
 30
0.0
 11
356.6032819483461
 21
419.8446110272422
 31
0.0
  0
LINE
  5
10000A88
102
{ACAD_REACTORS
330
10000AAE
102
}
330
F6
100
AcDbEntity
  8
ROGO
 62
     4
100
AcDbLine
 10
356.4370322731798
 20
419.5086110272423
 30
0.0
 11
356.2244226885959
 21
419.0789150272423
 31
0.0
  0
LINE
  5
10000A89
102
{ACAD_REACTORS
330
10000AAE
102
}
330
F6
100
AcDbEntity
  8
ROGO
 62
     4
100
AcDbLine
 10
355.2697613451776
 20
419.8446110272422
 30
0.0
 11
355.1035116700112
 21
419.5086110272423
 31
0.0
  0
LINE
  5
10000A8A
102
{ACAD_REACTORS
330
10000AB7
102
}
330
F6
100
AcDbEntity
  8
ROGO
 62
     4
100
AcDbLine
 10
357.8876029235355
 20
420.9548363566101
 30
0.0
 11
356.5348395948224
 21
419.0789150272423
 31
0.0
  0
LINE
  5
10000A8B
102
{ACAD_REACTORS
330
10000AB7
102
}
330
F6
100
AcDbEntity
  8
ROGO
 62
     4
100
AcDbLine
 10
358.5649284330093
 20
420.4533949609647
 30
0.0
 11
358.1029759525618
 21
419.8127902869377
 31
0.0
  0
LINE
  5
10000A8C
102
{ACAD_REACTORS
330
10000AB7
102
}
330
F6
100
AcDbEntity
  8
ROGO
 62
     4
100
AcDbLine
 10
357.8313220080688
 20
419.4360788416577
 30
0.0
 11
359.016860563475
 21
419.4360788416577
 31
0.0
  0
LINE
  5
10000A8D
102
{ACAD_REACTORS
330
10000AB7
102
}
330
F6
100
AcDbEntity
  8
ROGO
 62
     4
100
AcDbLine
 10
358.1029759525619
 20
419.8127902869377
 30
0.0
 11
358.8495104126171
 21
419.8127902869377
 31
0.0
  0
LINE
  5
10000A8E
102
{ACAD_REACTORS
330
10000AB7
102
}
330
F6
100
AcDbEntity
  8
ROGO
 62
     4
100
AcDbLine
 10
357.8313220080688
 20
419.4360788416577
 30
0.0
 11
357.5737642400961
 21
419.0789150272423
 31
0.0
  0
LINE
  5
10000A8F
102
{ACAD_REACTORS
330
10000AB7
102
}
330
F6
100
AcDbEntity
  8
ROGO
 62
     4
100
AcDbLine
 10
356.5348395948224
 20
419.0789150272423
 30
0.0
 11
357.5737642400961
 21
419.0789150272423
 31
0.0
  0
LINE
  5
10000A90
102
{ACAD_REACTORS
330
10000AB7
102
}
330
F6
100
AcDbEntity
  8
ROGO
 62
     4
100
AcDbLine
 10
357.8876029235355
 20
420.9548363566101
 30
0.0
 11
359.3881793274946
 21
420.9548363566101
 31
0.0
  0
LINE
  5
10000A91
102
{ACAD_REACTORS
330
10000AB7
102
}
330
F6
100
AcDbEntity
  8
ROGO
 62
     4
100
AcDbLine
 10
360.2215379137566
 20
419.0789150272423
 30
0.0
 11
359.175526882145
 21
419.0789150272423
 31
0.0
  0
LINE
  5
10000A92
102
{ACAD_REACTORS
330
10000AAF
102
}
330
F6
100
AcDbEntity
  8
ROGO
 62
     4
100
AcDbLine
 10
360.7352799351934
 20
419.0789150272423
 30
0.0
 11
362.3510356709143
 21
419.0789150272423
 31
0.0
  0
LINE
  5
10000A93
102
{ACAD_REACTORS
330
10000AAF
102
}
330
F6
100
AcDbEntity
  8
ROGO
 62
     4
100
AcDbLine
 10
363.286430632356
 20
420.9548363566101
 30
0.0
 11
362.9384030601551
 21
420.2568719963003
 31
0.0
  0
LINE
  5
10000A94
102
{ACAD_REACTORS
330
10000AAF
102
}
330
F6
100
AcDbEntity
  8
ROGO
 62
     4
100
AcDbLine
 10
361.7644503125106
 20
420.2568719963003
 30
0.0
 11
362.9384030601551
 21
420.2568719963004
 31
0.0
  0
LINE
  5
10000A95
102
{ACAD_REACTORS
330
10000AAF
102
}
330
F6
100
AcDbEntity
  8
ROGO
 62
     4
100
AcDbLine
 10
361.4995152420667
 20
419.7768719963002
 30
0.0
 11
362.6990595575984
 21
419.7768719963002
 31
0.0
  0
SPLINE
  5
10000A96
102
{ACAD_REACTORS
330
10000AAF
102
}
330
F6
100
AcDbEntity
  8
ROGO
 62
     4
100
AcDbSpline
210
0.0
220
0.0
230
1.0
 70
     8
 71
     3
 72
    26
 73
    22
 74
    20
 42
0.0000000001
 43
0.0000000001
 44
0.0000000001
 40
0.0
 40
0.0
 40
0.0
 40
0.0
 40
0.3403136209417982
 40
0.5681272389515159
 40
0.7323994099697078
 40
0.8550561247337057
 40
1.014148321321447
 40
1.13027011535643
 40
1.339959009791999
 40
1.510642755247373
 40
1.626735051276186
 40
1.740569491433665
 40
1.944197174100541
 40
2.088186249714737
 40
2.16573549158295
 40
2.275891898886404
 40
2.355438312276705
 40
2.470674802865115
 40
2.535888688806235
 40
2.677801419664453
 40
2.742600005358966
 40
2.742600005358966
 40
2.742600005358966
 40
2.742600005358966
 10
361.40780728649
 20
420.9548363566101
 30
0.0
 10
361.2922995854062
 20
420.9479449690886
 30
0.0
 10
361.0994684224548
 20
420.9364403312362
 30
0.0
 10
360.8877409785808
 20
420.8078181828668
 30
0.0
 10
360.7326170579948
 20
420.733042918092
 30
0.0
 10
360.6219828659602
 20
420.6313923160641
 30
0.0
 10
360.5408875547208
 20
420.5263946696052
 30
0.0
 10
360.4386516908673
 20
420.4012907437114
 30
0.0
 10
360.3552812652874
 20
420.2556122844767
 30
0.0
 10
360.3128257759543
 20
420.0950492258146
 30
0.0
 10
360.2752191064491
 20
419.9670795364448
 30
0.0
 10
360.2473293707733
 20
419.824474018027
 30
0.0
 10
360.2544253090774
 20
419.6704098921379
 30
0.0
 10
360.2645870174839
 20
419.5273230192753
 30
0.0
 10
360.3099565745183
 20
419.4251804150947
 30
0.0
 10
360.3616244636468
 20
419.352461919481
 30
0.0
 10
360.4248910862966
 20
419.272370558483
 30
0.0
 10
360.4941186067502
 20
419.2193263094398
 30
0.0
 10
360.5513754169082
 20
419.1232330878103
 30
0.0
 10
360.6516015315688
 20
419.1109708997016
 30
0.0
 10
360.7153092373914
 20
419.0865654855915
 30
0.0
 10
360.7352799351935
 20
419.0789150272422
 30
0.0
 11
361.40780728649
 21
420.9548363566101
 31
0.0
 11
361.0715436108415
 21
420.9024903821905
 31
0.0
 11
360.8677471774488
 21
420.8006765408571
 31
0.0
 11
360.7250899670404
 21
420.719225534175
 31
0.0
 11
360.6333820114636
 21
420.6377741955695
 31
0.0
 11
360.5314840877339
 21
420.5155975195848
 31
0.0
 11
360.4601554825298
 21
420.423965095577
 31
0.0
 11
360.3582569728666
 21
420.2406999156381
 31
0.0
 11
360.3073083039684
 21
420.0777975703506
 31
0.0
 11
360.2767389854429
 21
419.9658023116914
 31
0.0
 11
360.2563590491368
 21
419.8538070530323
 31
0.0
 11
360.2563590491368
 21
419.6501793703655
 31
0.0
 11
360.2767389854429
 21
419.5076398597293
 31
0.0
 11
360.3073083039684
 21
419.4363699384496
 31
0.0
 11
360.3684469410195
 21
419.3447375144418
 31
0.0
 11
360.4193961958511
 21
419.2836490104877
 31
0.0
 11
360.5009141832749
 21
419.2021980038056
 31
0.0
 11
360.5416734699535
 21
419.1512909171771
 31
0.0
 11
360.6741412981422
 21
419.1003841624722
 31
0.0
 11
360.7352799351935
 21
419.0789150272422
 31
0.0
  0
SPLINE
  5
10000A97
102
{ACAD_REACTORS
330
10000AAF
102
}
330
F6
100
AcDbEntity
  8
ROGO
 62
     4
100
AcDbSpline
210
0.0
220
0.0
230
1.0
 70
     8
 71
     3
 72
    16
 73
    12
 74
    10
 42
0.0000000001
 43
0.0000000001
 44
0.0000000001
 40
0.0
 40
0.0
 40
0.0
 40
0.0
 40
0.1794152893756658
 40
0.2670467197814556
 40
0.3102605435414121
 40
0.3558008766977565
 40
0.4210145035340276
 40
0.4803947587045229
 40
0.5423269814405317
 40
0.646160827944346
 40
0.7489346372632694
 40
0.7489346372632694
 40
0.7489346372632694
 40
0.7489346372632694
 10
361.7644503125107
 20
420.2568719963003
 30
0.0
 10
361.7036921587658
 20
420.2476090058659
 30
0.0
 10
361.6132580284637
 20
420.2338217126008
 30
0.0
 10
361.5314783836196
 20
420.1690858454929
 30
0.0
 10
361.4853603420135
 20
420.1305723136123
 30
0.0
 10
361.4696707787973
 20
420.0795694647805
 30
0.0
 10
361.4275335389962
 20
420.0404071061581
 30
0.0
 10
361.3928004677429
 20
419.9865854194208
 30
0.0
 10
361.3845069976547
 20
419.9126604609077
 30
0.0
 10
361.3905945945799
 20
419.8089180478545
 30
0.0
 10
361.46333275825
 20
419.7875174135697
 30
0.0
 10
361.4995152420668
 20
419.7768719963002
 30
0.0
 11
361.7644503125107
 21
420.2568719963003
 31
0.0
 11
361.5912237835768
 21
420.2101556636611
 31
0.0
 11
361.5198951783726
 21
420.1592489089561
 31
0.0
 11
361.4893258598471
 21
420.1287046569789
 31
0.0
 11
361.4689459235411
 21
420.0879789876762
 31
0.0
 11
361.4281866368625
 21
420.0370722329712
 31
0.0
 11
361.3976173183369
 21
419.9861651463429
 31
0.0
 11
361.3874273501839
 21
419.925076974312
 31
0.0
 11
361.4078072864899
 21
419.8232628010554
 31
0.0
 11
361.4995152420668
 21
419.7768719963002
 31
0.0
  0
LINE
  5
10000A98
102
{ACAD_REACTORS
330
10000AAF
102
}
330
F6
100
AcDbEntity
  8
ROGO
 62
     4
100
AcDbLine
 10
362.6990595575983
 20
419.7768719963002
 30
0.0
 11
362.3510356709143
 21
419.0789150272422
 31
0.0
  0
LINE
  5
10000A99
102
{ACAD_REACTORS
330
10000AAF
102
}
330
F6
100
AcDbEntity
  8
ROGO
 62
     4
100
AcDbLine
 10
361.4078072864905
 20
420.9548363566102
 30
0.0
 11
363.2864306323561
 21
420.9548363566102
 31
0.0
  0
LINE
  5
10000A9A
102
{ACAD_REACTORS
330
10000AB0
102
}
330
F6
100
AcDbEntity
  8
ROGO
 62
     4
100
AcDbLine
 10
366.7796653222332
 20
419.0789150272422
 30
0.0
 11
368.3954210579541
 21
419.0789150272422
 31
0.0
  0
LINE
  5
10000A9B
102
{ACAD_REACTORS
330
10000AB0
102
}
330
F6
100
AcDbEntity
  8
ROGO
 62
     4
100
AcDbLine
 10
367.4521926735303
 20
420.9548363566101
 30
0.0
 11
369.3308160193959
 21
420.9548363566101
 31
0.0
  0
SPLINE
  5
10000A9C
102
{ACAD_REACTORS
330
10000AB0
102
}
330
F6
100
AcDbEntity
  8
ROGO
 62
     4
100
AcDbSpline
210
0.0
220
0.0
230
1.0
 70
     8
 71
     3
 72
    16
 73
    12
 74
    10
 42
0.0000000001
 43
0.0000000001
 44
0.0000000001
 40
0.0
 40
0.0
 40
0.0
 40
0.0
 40
0.1794152893756658
 40
0.2670467197815217
 40
0.3102605435413978
 40
0.3558008766977931
 40
0.4210145035340376
 40
0.4803947587045328
 40
0.5423269814405045
 40
0.6461608279444525
 40
0.7489346372632488
 40
0.7489346372632488
 40
0.7489346372632488
 40
0.7489346372632488
 10
367.8088356995505
 20
420.2568719963003
 30
0.0
 10
367.7480775458056
 20
420.2476090058659
 30
0.0
 10
367.6576434155035
 20
420.233821712601
 30
0.0
 10
367.5758637706594
 20
420.1690858454927
 30
0.0
 10
367.5297457290533
 20
420.1305723136121
 30
0.0
 10
367.514056165837
 20
420.0795694647805
 30
0.0
 10
367.4719189260359
 20
420.040407106158
 30
0.0
 10
367.4371858547828
 20
419.9865854194207
 30
0.0
 10
367.4288923846944
 20
419.9126604609076
 30
0.0
 10
367.4349799816197
 20
419.8089180478545
 30
0.0
 10
367.5077181452896
 20
419.7875174135695
 30
0.0
 10
367.5439006291065
 20
419.7768719963002
 30
0.0
 11
367.8088356995505
 21
420.2568719963003
 31
0.0
 11
367.6356091706166
 21
420.2101556636611
 31
0.0
 11
367.5642805654125
 21
420.1592489089559
 31
0.0
 11
367.5337112468869
 21
420.1287046569789
 31
0.0
 11
367.5133313105809
 21
420.0879789876762
 31
0.0
 11
367.4725720239023
 21
420.0370722329712
 31
0.0
 11
367.4420027053767
 21
419.9861651463428
 31
0.0
 11
367.4318127372236
 21
419.925076974312
 31
0.0
 11
367.4521926735297
 21
419.8232628010552
 31
0.0
 11
367.5439006291065
 21
419.7768719963002
 31
0.0
  0
SPLINE
  5
10000A9D
102
{ACAD_REACTORS
330
10000AB0
102
}
330
F6
100
AcDbEntity
  8
ROGO
 62
     4
100
AcDbSpline
210
0.0
220
0.0
230
1.0
 70
     8
 71
     3
 72
    26
 73
    22
 74
    20
 42
0.0000000001
 43
0.0000000001
 44
0.0000000001
 40
0.0
 40
0.0
 40
0.0
 40
0.0
 40
0.3403136209416859
 40
0.5681272389515052
 40
0.7323994099695983
 40
0.8550561247335963
 40
1.014148321321381
 40
1.13027011535639
 40
1.339959009792003
 40
1.510642755247356
 40
1.626735051276114
 40
1.740569491433573
 40
1.94419717410045
 40
2.088186249714629
 40
2.165735491582895
 40
2.275891898886364
 40
2.355438312276665
 40
2.470674802864995
 40
2.535888688806186
 40
2.677801419664424
 40
2.74260000535881
 40
2.74260000535881
 40
2.74260000535881
 40
2.74260000535881
 10
367.4521926735297
 20
420.9548363566101
 30
0.0
 10
367.3366849724459
 20
420.9479449690885
 30
0.0
 10
367.1438538094946
 20
420.936440331236
 30
0.0
 10
366.9321263656207
 20
420.8078181828672
 30
0.0
 10
366.7770024450346
 20
420.7330429180919
 30
0.0
 10
366.6663682530001
 20
420.6313923160642
 30
0.0
 10
366.5852729417606
 20
420.5263946696049
 30
0.0
 10
366.4830370779071
 20
420.4012907437117
 30
0.0
 10
366.3996666523272
 20
420.2556122844764
 30
0.0
 10
366.3572111629941
 20
420.0950492258146
 30
0.0
 10
366.3196044934887
 20
419.9670795364448
 30
0.0
 10
366.2917147578132
 20
419.824474018027
 30
0.0
 10
366.2988106961174
 20
419.670409892138
 30
0.0
 10
366.3089724045236
 20
419.5273230192754
 30
0.0
 10
366.3543419615579
 20
419.4251804150945
 30
0.0
 10
366.4060098506866
 20
419.3524619194812
 30
0.0
 10
366.4692764733364
 20
419.2723705584829
 30
0.0
 10
366.5385039937898
 20
419.2193263094396
 30
0.0
 10
366.595760803948
 20
419.1232330878103
 30
0.0
 10
366.6959869186085
 20
419.1109708997015
 30
0.0
 10
366.7596946244311
 20
419.0865654855914
 30
0.0
 10
366.7796653222332
 20
419.0789150272422
 30
0.0
 11
367.4521926735297
 21
420.9548363566101
 31
0.0
 11
367.1159289978814
 21
420.9024903821905
 31
0.0
 11
366.9121325644885
 21
420.8006765408571
 31
0.0
 11
366.7694753540802
 21
420.719225534175
 31
0.0
 11
366.6777673985034
 21
420.6377741955695
 31
0.0
 11
366.5758694747737
 21
420.5155975195847
 31
0.0
 11
366.5045408695695
 21
420.423965095577
 31
0.0
 11
366.4026423599064
 21
420.240699915638
 31
0.0
 11
366.3516936910081
 21
420.0777975703505
 31
0.0
 11
366.3211243724826
 21
419.9658023116914
 31
0.0
 11
366.3007444361766
 21
419.8538070530323
 31
0.0
 11
366.3007444361766
 21
419.6501793703655
 31
0.0
 11
366.3211243724826
 21
419.5076398597293
 31
0.0
 11
366.3516936910081
 21
419.4363699384495
 31
0.0
 11
366.4128323280593
 21
419.3447375144418
 31
0.0
 11
366.463781582891
 21
419.2836490104877
 31
0.0
 11
366.5452995703146
 21
419.2021980038056
 31
0.0
 11
366.5860588569933
 21
419.1512909171771
 31
0.0
 11
366.7185266851821
 21
419.1003841624721
 31
0.0
 11
366.7796653222332
 21
419.0789150272422
 31
0.0
  0
LINE
  5
10000A9E
102
{ACAD_REACTORS
330
10000AB0
102
}
330
F6
100
AcDbEntity
  8
ROGO
 62
     4
100
AcDbLine
 10
368.7434449446381
 20
419.7768719963002
 30
0.0
 11
368.3954210579541
 21
419.0789150272422
 31
0.0
  0
LINE
  5
10000A9F
102
{ACAD_REACTORS
330
10000AB0
102
}
330
F6
100
AcDbEntity
  8
ROGO
 62
     4
100
AcDbLine
 10
367.5439006291064
 20
419.7768719963002
 30
0.0
 11
368.7434449446381
 21
419.7768719963002
 31
0.0
  0
LINE
  5
10000AA0
102
{ACAD_REACTORS
330
10000AB0
102
}
330
F6
100
AcDbEntity
  8
ROGO
 62
     4
100
AcDbLine
 10
367.8088356995504
 20
420.2568719963003
 30
0.0
 11
368.9827884471949
 21
420.2568719963003
 31
0.0
  0
LINE
  5
10000AA1
102
{ACAD_REACTORS
330
10000AB0
102
}
330
F6
100
AcDbEntity
  8
ROGO
 62
     4
100
AcDbLine
 10
369.3308160193959
 20
420.9548363566101
 30
0.0
 11
368.9827884471949
 21
420.2568719963003
 31
0.0
  0
LINE
  5
10000AA2
102
{ACAD_REACTORS
330
10000AB2
102
}
330
F6
100
AcDbEntity
  8
ROGO
 62
     4
100
AcDbLine
 10
369.7237119181418
 20
420.9548363566101
 30
0.0
 11
370.8038315502906
 21
420.9548363566101
 31
0.0
  0
LINE
  5
10000AA3
102
{ACAD_REACTORS
330
10000AB1
330
10000AB2
102
}
330
F6
100
AcDbEntity
  8
ROGO
 62
     4
100
AcDbLine
 10
369.7237119181418
 20
420.9548363566101
 30
0.0
 11
368.2620933014706
 21
418.0235809496015
 31
0.0
  0
LINE
  5
10000AA4
102
{ACAD_REACTORS
330
10000AB2
102
}
330
F6
100
AcDbEntity
  8
ROGO
 62
     4
100
AcDbLine
 10
370.8038315502906
 20
420.9548363566101
 30
0.0
 11
370.6442525404035
 21
420.6348029154364
 31
0.0
  0
LINE
  5
10000AA5
102
{ACAD_REACTORS
330
10000AB2
102
}
330
F6
100
AcDbEntity
  8
ROGO
 62
     4
100
AcDbLine
 10
370.6442525404035
 20
420.6348029154364
 30
0.0
 11
371.1499855162305
 21
420.9548363566101
 31
0.0
  0
LINE
  5
10000AA6
102
{ACAD_REACTORS
330
10000AB2
102
}
330
F6
100
AcDbEntity
  8
ROGO
 62
     4
100
AcDbLine
 10
369.7237119181418
 20
418.7886717526295
 30
0.0
 11
370.1052109026642
 21
418.0235809496015
 31
0.0
  0
LINE
  5
10000AA7
102
{ACAD_REACTORS
330
10000AB2
102
}
330
F6
100
AcDbEntity
  8
ROGO
 62
     4
100
AcDbLine
 10
370.4544975943286
 20
419.4892086531058
 30
0.0
 11
371.1853069026641
 21
418.0235809496015
 31
0.0
  0
LINE
  5
10000AA8
102
{ACAD_REACTORS
330
10000AB2
102
}
330
F6
100
AcDbEntity
  8
ROGO
 62
     4
100
AcDbLine
 10
369.7237119181418
 20
418.7886717526295
 30
0.0
 11
369.3422129336194
 21
418.0235809496015
 31
0.0
  0
LINE
  5
10000AA9
102
{ACAD_REACTORS
330
10000AB2
102
}
330
F6
100
AcDbEntity
  8
ROGO
 62
     4
100
AcDbLine
 10
370.4544975943286
 20
419.4892086531058
 30
0.0
 11
372.2300815162304
 21
420.9548363566101
 31
0.0
  0
LINE
  5
10000AAA
102
{ACAD_REACTORS
330
10000AB2
102
}
330
F6
100
AcDbEntity
  8
ROGO
 62
     4
100
AcDbLine
 10
371.1499855162305
 20
420.9548363566101
 30
0.0
 11
372.2300815162304
 21
420.9548363566101
 31
0.0
  0
LINE
  5
10000AAB
102
{ACAD_REACTORS
330
10000AB2
102
}
330
F6
100
AcDbEntity
  8
ROGO
 62
     4
100
AcDbLine
 10
370.1052109026642
 20
418.0235809496015
 30
0.0
 11
371.1853069026641
 21
418.0235809496015
 31
0.0
  0
LINE
  5
10000AAC
102
{ACAD_REACTORS
330
10000AAE
102
}
330
F6
100
AcDbEntity
  8
ROGO
 62
     4
100
AcDbLine
 10
354.6153494754189
 20
420.9548363566101
 30
0.0
 11
357.1526111161103
 21
420.9548363566102
 31
0.0
  0
LINE
  5
10000AAD
102
{ACAD_REACTORS
330
10000AB1
102
}
330
F6
100
AcDbEntity
  8
ROGO
 62
     4
100
AcDbLine
 10
350.9756576156452
 20
418.3173955300176
 30
0.0
 11
368.4085987405936
 21
418.3173955300176
 31
0.0
  0
HATCH
  5
10000AAE
330
F6
100
AcDbEntity
  8
ROGO
 62
     4
100
AcDbHatch
 10
0.0
 20
0.0
 30
0.0
210
0.0
220
0.0
230
1.0
  2
SOLID
 70
     1
 71
     1
 91
        1
 92
        1
 93
       12
 72
     1
 10
354.6153494754189
 20
420.9548363566101
 11
357.1526111161103
 21
420.9548363566102
 72
     1
 10
357.1526111161103
 20
420.9548363566101
 11
356.9399908364894
 21
420.5251187413357
 72
     1
 10
356.9399908364894
 20
420.5251187413357
 11
355.6064702333209
 21
420.5251187413357
 72
     1
 10
355.6064702333209
 20
420.5251187413357
 11
355.4402275960687
 21
420.1891329653583
 72
     1
 10
355.4402275960687
 20
420.1891329653583
 11
356.7737481992373
 21
420.1891329653583
 72
     1
 10
356.7737481992373
 20
420.1891329653583
 11
356.6032819483461
 21
419.8446110272422
 72
     1
 10
356.6032819483461
 20
419.8446110272423
 11
355.2697613451776
 21
419.8446110272422
 72
     1
 10
355.2697613451776
 20
419.8446110272422
 11
355.1035116700112
 21
419.5086110272423
 72
     1
 10
355.1035116700112
 20
419.5086110272423
 11
356.4370322731798
 21
419.5086110272423
 72
     1
 10
356.4370322731798
 20
419.5086110272423
 11
356.2244226885959
 21
419.0789150272423
 72
     1
 10
356.2244226885959
 20
419.0789150272423
 11
353.6871610479044
 21
419.0789150272423
 72
     1
 10
353.6871610479045
 20
419.0789150272423
 11
354.6153494754189
 21
420.9548363566101
 97
       12
330
10000AAC
330
10000A80
330
10000A83
330
10000A82
330
10000A84
330
10000A87
330
10000A86
330
10000A89
330
10000A85
330
10000A88
330
10000A81
330
10000A7F
 75
     0
 76
     1
 98
        1
 10
250.829450934406
 20
291.243270573594
450
        0
451
        0
460
0.0
461
0.0
452
        0
462
0.0
453
        0
470

  0
HATCH
  5
10000AAF
330
F6
100
AcDbEntity
  8
ROGO
 62
     4
100
AcDbHatch
 10
0.0
 20
0.0
 30
0.0
210
0.0
220
0.0
230
1.0
  2
SOLID
 70
     1
 71
     1
 91
        1
 92
        5
 93
        8
 72
     1
 10
362.9384030601551
 20
420.2568719963004
 11
363.286430632356
 21
420.9548363566102
 72
     1
 10
363.286430632356
 20
420.9548363566102
 11
361.4078072864902
 21
420.9548363566102
 72
     4
 94
        3
 73
     0
 74
     0
 95
       26
 96
       22
 40
0.0
 40
0.0
 40
0.0
 40
0.0
 40
0.3403136209417982
 40
0.5681272389515159
 40
0.7323994099697078
 40
0.8550561247337057
 40
1.014148321321447
 40
1.13027011535643
 40
1.339959009791999
 40
1.510642755247373
 40
1.626735051276186
 40
1.740569491433665
 40
1.944197174100541
 40
2.088186249714737
 40
2.16573549158295
 40
2.275891898886404
 40
2.355438312276705
 40
2.470674802865115
 40
2.535888688806235
 40
2.677801419664453
 40
2.742600005358966
 40
2.742600005358966
 40
2.742600005358966
 40
2.742600005358966
 10
361.40780728649
 20
420.9548363566101
 10
361.2922995854062
 20
420.9479449690886
 10
361.0994684224548
 20
420.9364403312362
 10
360.8877409785808
 20
420.8078181828669
 10
360.7326170579947
 20
420.733042918092
 10
360.6219828659602
 20
420.6313923160642
 10
360.5408875547208
 20
420.5263946696051
 10
360.4386516908672
 20
420.4012907437115
 10
360.3552812652873
 20
420.2556122844766
 10
360.3128257759542
 20
420.0950492258146
 10
360.2752191064491
 20
419.9670795364449
 10
360.2473293707734
 20
419.824474018027
 10
360.2544253090774
 20
419.6704098921379
 10
360.2645870174839
 20
419.5273230192753
 10
360.3099565745183
 20
419.4251804150946
 10
360.3616244636468
 20
419.3524619194811
 10
360.4248910862966
 20
419.272370558483
 10
360.4941186067502
 20
419.2193263094398
 10
360.5513754169081
 20
419.1232330878103
 10
360.6516015315687
 20
419.1109708997016
 10
360.7153092373915
 20
419.0865654855914
 10
360.7352799351935
 20
419.0789150272422
 72
     1
 10
360.7352799351933
 20
419.0789150272423
 11
362.3510356709143
 21
419.0789150272423
 72
     1
 10
362.3510356709143
 20
419.0789150272423
 11
362.6990595575983
 21
419.7768719963002
 72
     1
 10
362.6990595575983
 20
419.7768719963002
 11
361.4995152420668
 21
419.7768719963002
 72
     4
 94
        3
 73
     0
 74
     0
 95
       16
 96
       12
 40
0.0
 40
0.0
 40
0.0
 40
0.0
 40
0.1027738093189234
 40
0.2066076558227377
 40
0.2685398785587465
 40
0.3279201337292418
 40
0.3931337605655129
 40
0.4386740937218573
 40
0.4818879174818138
 40
0.5695193478876036
 40
0.7489346372632694
 40
0.7489346372632694
 40
0.7489346372632694
 40
0.7489346372632694
 10
361.4995152420668
 20
419.7768719963002
 10
361.4633327582499
 20
419.7875174135697
 10
361.39059459458
 20
419.8089180478545
 10
361.3845069976548
 20
419.9126604609077
 10
361.3928004677429
 20
419.9865854194207
 10
361.4275335389962
 20
420.0404071061582
 10
361.4696707787973
 20
420.0795694647805
 10
361.4853603420134
 20
420.1305723136123
 10
361.5314783836196
 20
420.1690858454928
 10
361.6132580284636
 20
420.2338217126008
 10
361.7036921587656
 20
420.2476090058659
 10
361.7644503125107
 20
420.2568719963003
 72
     1
 10
361.7644503125107
 20
420.2568719963003
 11
362.9384030601551
 21
420.2568719963004
 97
        8
330
10000A99
330
10000A96
330
10000A92
330
10000A98
330
10000A95
330
10000A97
330
10000A94
330
10000A93
 75
     0
 76
     1
 47
0.0514683685270805
 98
        1
 10
362.0648314253569
 20
420.5372342761144
450
        0
451
        0
460
0.0
461
0.0
452
        0
462
0.0
453
        0
470

  0
HATCH
  5
10000AB0
330
F6
100
AcDbEntity
  8
ROGO
 62
     4
100
AcDbHatch
 10
0.0
 20
0.0
 30
0.0
210
0.0
220
0.0
230
1.0
  2
SOLID
 70
     1
 71
     1
 91
        1
 92
        5
 93
        8
 72
     4
 94
        3
 73
     0
 74
     0
 95
       26
 96
       22
 40
0.0
 40
0.0
 40
0.0
 40
0.0
 40
0.3403136209416859
 40
0.5681272389515052
 40
0.7323994099695983
 40
0.8550561247335963
 40
1.014148321321381
 40
1.13027011535639
 40
1.339959009792003
 40
1.510642755247356
 40
1.626735051276114
 40
1.740569491433573
 40
1.94419717410045
 40
2.088186249714629
 40
2.165735491582895
 40
2.275891898886364
 40
2.355438312276665
 40
2.470674802864995
 40
2.535888688806186
 40
2.677801419664424
 40
2.74260000535881
 40
2.74260000535881
 40
2.74260000535881
 40
2.74260000535881
 10
367.4521926735297
 20
420.9548363566101
 10
367.3366849724459
 20
420.9479449690885
 10
367.1438538094944
 20
420.9364403312361
 10
366.9321263656208
 20
420.8078181828671
 10
366.7770024450346
 20
420.733042918092
 10
366.6663682530002
 20
420.6313923160642
 10
366.5852729417605
 20
420.5263946696049
 10
366.4830370779072
 20
420.4012907437117
 10
366.3996666523271
 20
420.2556122844764
 10
366.3572111629942
 20
420.0950492258146
 10
366.3196044934886
 20
419.9670795364447
 10
366.2917147578132
 20
419.824474018027
 10
366.2988106961174
 20
419.6704098921381
 10
366.3089724045236
 20
419.5273230192753
 10
366.3543419615579
 20
419.4251804150945
 10
366.4060098506866
 20
419.3524619194812
 10
366.4692764733364
 20
419.272370558483
 10
366.53850399379
 20
419.2193263094397
 10
366.595760803948
 20
419.1232330878103
 10
366.6959869186085
 20
419.1109708997014
 10
366.759694624431
 20
419.0865654855915
 10
366.7796653222332
 20
419.0789150272422
 72
     1
 10
366.7796653222331
 20
419.0789150272422
 11
368.3954210579541
 21
419.0789150272422
 72
     1
 10
368.3954210579541
 20
419.0789150272422
 11
368.7434449446381
 21
419.7768719963002
 72
     1
 10
368.7434449446381
 20
419.7768719963002
 11
367.5439006291064
 21
419.7768719963002
 72
     4
 94
        3
 73
     0
 74
     0
 95
       16
 96
       12
 40
0.0
 40
0.0
 40
0.0
 40
0.0
 40
0.1027738093187964
 40
0.2066076558227444
 40
0.268539878558716
 40
0.3279201337292112
 40
0.3931337605654557
 40
0.4386740937218511
 40
0.4818879174817272
 40
0.569519347887583
 40
0.7489346372632488
 40
0.7489346372632488
 40
0.7489346372632488
 40
0.7489346372632488
 10
367.5439006291065
 20
419.7768719963002
 10
367.5077181452897
 20
419.7875174135696
 10
367.4349799816197
 20
419.8089180478544
 10
367.4288923846944
 20
419.9126604609078
 10
367.4371858547828
 20
419.9865854194206
 10
367.4719189260359
 20
420.040407106158
 10
367.5140561658369
 20
420.0795694647805
 10
367.5297457290532
 20
420.1305723136121
 10
367.5758637706596
 20
420.1690858454928
 10
367.6576434155032
 20
420.2338217126009
 10
367.7480775458055
 20
420.2476090058659
 10
367.8088356995505
 20
420.2568719963003
 72
     1
 10
367.8088356995505
 20
420.2568719963003
 11
368.9827884471949
 21
420.2568719963003
 72
     1
 10
368.9827884471949
 20
420.2568719963003
 11
369.3308160193959
 21
420.9548363566101
 72
     1
 10
369.3308160193959
 20
420.9548363566101
 11
367.4521926735297
 21
420.9548363566101
 97
        8
330
10000A9B
330
10000A9D
330
10000A9A
330
10000A9E
330
10000A9F
330
10000A9C
330
10000AA0
330
10000AA1
 75
     0
 76
     1
 47
0.0514683685270805
 98
        1
 10
367.7763604302223
 20
420.6113487806399
450
        0
451
        0
460
0.0
461
0.0
452
        0
462
0.0
453
        0
470

  0
HATCH
  5
10000AB1
330
F6
100
AcDbEntity
  8
ROGO
 62
     4
100
AcDbHatch
 10
0.0
 20
0.0
 30
0.0
210
0.0
220
0.0
230
1.0
  2
SOLID
 70
     1
 71
     1
 91
        1
 92
        7
 72
     0
 73
     1
 93
        4
 10
350.9960339683833
 20
418.3173955300176
 10
350.8631039177804
 20
418.0235809496015
 10
368.2620933014706
 20
418.0235809496015
 10
368.4085987405937
 20
418.3173955300176
 97
        4
330
10000AAD
330
10000A7E
330
10000A76
330
10000AA3
 75
     0
 76
     1
 47
0.0514683685270805
 98
        1
 10
361.9906557696522
 20
418.2396862954393
450
        0
451
        0
460
0.0
461
0.0
452
        0
462
0.0
453
        0
470

  0
HATCH
  5
10000AB2
330
F6
100
AcDbEntity
  8
ROGO
 62
     4
100
AcDbHatch
 10
0.0
 20
0.0
 30
0.0
210
0.0
220
0.0
230
1.0
  2
SOLID
 70
     1
 71
     1
 91
        1
 92
        7
 72
     0
 73
     1
 93
       11
 10
368.2620933014706
 20
418.0235809496015
 10
369.3422129336194
 20
418.0235809496015
 10
369.7237119181418
 20
418.7886717526295
 10
370.1052109026642
 20
418.0235809496015
 10
371.1853069026641
 20
418.0235809496015
 10
370.4544975943286
 20
419.4892086531058
 10
372.2300815162304
 20
420.9548363566101
 10
371.1499855162305
 20
420.9548363566101
 10
370.6442525404035
 20
420.6348029154364
 10
370.8038315502906
 20
420.9548363566101
 10
369.7237119181418
 20
420.9548363566101
 97
       11
330
10000AAA
330
10000AA5
330
10000AA4
330
10000AA2
330
10000AA3
330
10000A76
330
10000AA8
330
10000AA6
330
10000AAB
330
10000AA7
330
10000AA9
 75
     0
 76
     1
 47
0.0514683685270805
 98
        1
 10
369.6307529947077
 20
419.6972706659794
450
        0
451
        0
460
0.0
461
0.0
452
        0
462
0.0
453
        0
470

  0
HATCH
  5
10000AB3
330
F6
100
AcDbEntity
  8
ROGO
 62
     4
100
AcDbHatch
 10
0.0
 20
0.0
 30
0.0
210
0.0
220
0.0
230
1.0
  2
SOLID
 70
     1
 71
     1
 91
        2
 92
        5
 93
        6
 72
     1
 10
349.5005311235855
 20
418.0235809496015
 11
350.8631039177804
 21
418.0235809496015
 72
     1
 10
350.8631039177804
 20
418.0235809496015
 11
351.3405669903925
 21
419.0789150272423
 72
     1
 10
351.3405669903925
 20
419.0789150272423
 11
352.6142930877816
 21
419.0789150272423
 72
     4
 94
        3
 73
     0
 74
     0
 95
       18
 96
       14
 40
0.108740278791501
 40
0.108740278791501
 40
0.108740278791501
 40
0.108740278791501
 40
0.6623149649549278
 40
1.384304701649787
 40
2.097394834876493
 40
2.774073369849618
 40
3.428974823686337
 40
4.005208313035923
 40
4.455173659284313
 40
4.720999734343524
 40
5.086034088486724
 40
5.569973738255373
 40
6.060470601257719
 40
6.060470601257719
 40
6.060470601257719
 40
6.060470601257719
 10
352.6142930877814
 20
419.0789150272422
 10
352.7039358262023
 20
419.0795825695724
 10
352.910493479136
 20
419.0811207418705
 10
353.1994660192893
 20
419.2354962225781
 10
353.4734945522793
 20
419.432159337352
 10
353.694205893824
 20
419.6778693813546
 10
353.8317157093613
 20
419.9587967206699
 10
353.853015545143
 20
420.2280397714867
 10
353.8400125186988
 20
420.4410076774244
 10
353.7470993636373
 20
420.5894515949999
 10
353.6505048008877
 20
420.740106990961
 10
353.4733830358204
 20
420.8706102906631
 10
353.3282573960338
 20
420.9277901353991
 10
353.2544580565537
 20
420.9548363566102
 72
     1
 10
353.2544580565538
 20
420.9548363566101
 11
350.9508890380035
 21
420.9548363566101
 72
     1
 10
350.9508890380035
 20
420.9548363566101
 11
349.5005311235855
 21
418.0235809496015
 97
        6
330
10000A78
330
10000A75
330
10000A77
330
10000A76
330
10000A7E
330
10000A79
 92
       20
 93
        4
 72
     1
 10
351.6353734079784
 20
419.730524076469
 11
351.8610845456319
 21
420.2294121977339
 72
     1
 10
351.8610845456319
 20
420.2294121977339
 11
352.4410659729135
 21
420.2294121977339
 72
     4
 94
        3
 73
     0
 74
     0
 95
       15
 96
       11
 40
0.0
 40
0.0
 40
0.0
 40
0.0
 40
0.2199578613106558
 40
0.3202465475123651
 40
0.4340808827708152
 40
0.5116301246390283
 40
0.634275054953107
 40
0.7077360179240892
 40
0.8337709579493377
 40
0.875782631437913
 40
0.875782631437913
 40
0.875782631437913
 40
0.875782631437913
 10
352.441065972914
 20
420.2294121977338
 10
352.5236778801414
 20
420.2297906043659
 10
352.6439562730816
 20
420.2303415436083
 10
352.7097287821736
 20
420.081556823709
 10
352.6802464075546
 20
419.9857626742271
 10
352.6431846598058
 20
419.8874119395873
 10
352.5776881576025
 20
419.8205811320597
 10
352.4897822581808
 20
419.7562117982926
 10
352.4067069823871
 20
419.7484196022077
 10
352.3526758409976
 20
419.7341031829873
 10
352.3391680491842
 20
419.730524076469
 72
     1
 10
352.3391680491842
 20
419.730524076469
 11
351.6353734079784
 21
419.730524076469
 97
        4
330
10000A7A
330
10000A7C
330
10000A7B
330
10000A7D
 75
     0
 76
     1
 47
0.0514683685270805
 98
        2
 10
350.9632012570135
 20
420.043138132483
 10
350.9632012570135
 20
420.043138132483
450
        0
451
        0
460
0.0
461
0.0
452
        0
462
0.0
453
        0
470

  0
LINE
  5
10000AB4
102
{ACAD_REACTORS
330
10000AB7
102
}
330
F6
100
AcDbEntity
  8
ROGO
 62
     4
100
AcDbLine
 10
359.3881793274946
 20
420.9548363566101
 30
0.0
 11
360.2215379137566
 21
419.0789150272423
 31
0.0
  0
LINE
  5
10000AB5
102
{ACAD_REACTORS
330
10000AB7
102
}
330
F6
100
AcDbEntity
  8
ROGO
 62
     4
100
AcDbLine
 10
358.5649284330094
 20
420.4533949609647
 30
0.0
 11
358.8495104126171
 21
419.8127902869377
 31
0.0
  0
LINE
  5
10000AB6
102
{ACAD_REACTORS
330
10000AB7
102
}
330
F6
100
AcDbEntity
  8
ROGO
 62
     4
100
AcDbLine
 10
359.016860563475
 20
419.4360788416577
 30
0.0
 11
359.175526882145
 21
419.0789150272423
 31
0.0
  0
HATCH
  5
10000AB7
330
F6
100
AcDbEntity
  8
ROGO
 62
     4
100
AcDbHatch
 10
0.0
 20
0.0
 30
0.0
210
0.0
220
0.0
230
1.0
  2
SOLID
 70
     1
 71
     1
 91
        2
 92
        7
 72
     0
 73
     1
 93
        8
 10
359.3881793274946
 20
420.9548363566101
 10
357.8876029235355
 20
420.9548363566101
 10
356.5348395948224
 20
419.0789150272423
 10
357.5737642400961
 20
419.0789150272423
 10
357.8313220080688
 20
419.4360788416577
 10
359.016860563475
 20
419.4360788416577
 10
359.175526882145
 20
419.0789150272423
 10
360.2215379137566
 20
419.0789150272423
 97
        8
330
10000A90
330
10000A8A
330
10000A8F
330
10000A8E
330
10000A8C
330
10000AB6
330
10000A91
330
10000AB4
 92
       22
 72
     0
 73
     1
 93
        3
 10
358.8495104126171
 20
419.8127902869377
 10
358.1029759525618
 20
419.8127902869377
 10
358.5649284330094
 20
420.4533949609648
 97
        3
330
10000A8D
330
10000A8B
330
10000AB5
 75
     0
 76
     1
 47
0.0128389261915577
 98
        2
 10
359.270672338215
 20
420.5047764754543
 10
359.270672338215
 20
420.5047764754543
450
        0
451
        0
460
0.0
461
0.0
452
        0
462
0.0
453
        0
470

  0
SPLINE
  5
10000AB8
102
{ACAD_REACTORS
330
10000ABF
102
}
330
F6
100
AcDbEntity
  8
ROGO
 62
     4
100
AcDbSpline
210
0.0
220
0.0
230
1.0
 70
     8
 71
     3
 72
    38
 73
    34
 74
    32
 42
0.0000000001
 43
0.0000000001
 44
0.0000000001
 40
0.0
 40
0.0
 40
0.0
 40
0.0
 40
0.2582400211805774
 40
0.3393418442955424
 40
0.443552172800835
 40
0.530394283206717
 40
0.6036667919818254
 40
0.7009894053152177
 40
0.7507174249931042
 40
0.8067242281503032
 40
0.8892677166883521
 40
0.9827715778106668
 40
1.043426616793024
 40
1.109318337455068
 40
1.182564491755753
 40
1.293719242428883
 40
1.399327847180614
 40
1.448424760475743
 40
1.50441322219426
 40
1.570741059842362
 40
1.617957956886697
 40
1.657539314700464
 40
1.714052551848318
 40
1.776150918813051
 40
1.838248940024221
 40
1.892584795022379
 40
2.017023561310864
 40
2.066120474605993
 40
2.164314359515976
 40
2.251113385583432
 40
2.417283613623161
 40
2.622320469312984
 40
2.918423525691272
 40
2.918423525691272
 40
2.918423525691272
 40
2.918423525691272
 10
364.3281810895599
 20
420.9626609554277
 30
0.0
 10
364.2421019500947
 20
420.9565800709978
 30
0.0
 10
364.1289891420645
 20
420.9485894484447
 30
0.0
 10
363.9853623241937
 20
420.9092399824378
 30
0.0
 10
363.9070698178496
 20
420.8623620974979
 30
0.0
 10
363.8255908159676
 20
420.8279046050686
 30
0.0
 10
363.756122378275
 20
420.7768798918555
 30
0.0
 10
363.6858565201378
 20
420.7505873487218
 30
0.0
 10
363.6366542153154
 20
420.7031771939039
 30
0.0
 10
363.5797065608397
 20
420.6742170250825
 30
0.0
 10
363.5343581325036
 20
420.6093957479192
 30
0.0
 10
363.4836714517439
 20
420.5487902026927
 30
0.0
 10
363.424868525448
 20
420.504550857582
 30
0.0
 10
363.3766081746489
 20
420.4580866019214
 30
0.0
 10
363.3323360133283
 20
420.3863782945161
 30
0.0
 10
363.3061337667982
 20
420.2910991878221
 30
0.0
 10
363.2322740319277
 20
420.2309433959863
 30
0.0
 10
363.2211530683804
 20
420.1586181850204
 30
0.0
 10
363.1802989966723
 20
420.1159475276051
 30
0.0
 10
363.1625342174495
 20
420.060865839055
 30
0.0
 10
363.1557685344156
 20
420.0104012828826
 30
0.0
 10
363.1476481014978
 20
419.9632708808422
 30
0.0
 10
363.1264065868799
 20
419.9136917797881
 30
0.0
 10
363.1333398905391
 20
419.8524485241668
 30
0.0
 10
363.1313648004789
 20
419.7931446469861
 30
0.0
 10
363.1325271432978
 20
419.7130825661124
 30
0.0
 10
363.1283320870892
 20
419.6351322847989
 30
0.0
 10
363.1617860163963
 20
419.5503038902727
 30
0.0
 10
363.1815829415432
 20
419.4746911121775
 30
0.0
 10
363.2358000414628
 20
419.3699960518186
 30
0.0
 10
363.3293234026311
 20
419.2492005893769
 30
0.0
 10
363.5071658969419
 20
419.1025777846732
 30
0.0
 10
363.6781666548838
 20
419.0877035836483
 30
0.0
 10
363.7792040016412
 20
419.0789150272422
 30
0.0
 11
364.3281810895599
 21
420.9626609554277
 31
0.0
 11
364.0718144653496
 21
420.9316115990686
 31
0.0
 11
363.9941276280236
 21
420.9083251004296
 31
0.0
 11
363.9009037894408
 21
420.8617514116443
 31
0.0
 11
363.8232169521149
 21
420.8229402348258
 31
0.0
 11
363.761067726393
 21
420.7841287122536
 31
0.0
 11
363.6756123884386
 21
420.737555369222
 31
0.0
 11
363.6367686646019
 21
420.7065063586163
 31
0.0
 11
363.590156440137
 21
420.6754570022573
 31
0.0
 11
363.5357757150436
 21
420.6133589810461
 31
0.0
 11
363.4736264893216
 21
420.5434987936219
 31
0.0
 11
363.4270142648566
 21
420.5046872710497
 31
0.0
 11
363.3804026507388
 21
420.4581139280181
 31
0.0
 11
363.3415589269022
 21
420.3960159068069
 31
0.0
 11
363.2949473127845
 21
420.2951063630236
 31
0.0
 11
363.2327974767153
 21
420.2097214974198
 31
0.0
 11
363.2172604754585
 21
420.1631478086347
 31
0.0
 11
363.1861858625975
 21
420.116574465603
 31
0.0
 11
363.1628797503651
 21
420.0544760986383
 31
0.0
 11
363.1551106393894
 21
420.0079027556067
 31
0.0
 11
363.1473421387609
 21
419.9690912330345
 31
0.0
 11
363.1318051375041
 21
419.9147557237899
 31
0.0
 11
363.1318051375041
 21
419.8526573568251
 31
0.0
 11
363.1318051375041
 21
419.790559335614
 31
0.0
 11
363.1318051375041
 21
419.7362234806158
 31
0.0
 11
363.1395736381326
 21
419.6120274381934
 31
0.0
 11
363.1551106393894
 21
419.5654537494083
 31
0.0
 11
363.1861858625975
 21
419.4723067175915
 31
0.0
 11
363.2250289760869
 21
419.3946840182007
 31
0.0
 11
363.3260219256454
 21
419.2627258095654
 31
0.0
 11
363.4891641009258
 21
419.1385294213894
 31
0.0
 11
363.7792040016412
 21
419.0789150272422
 31
0.0
  0
SPLINE
  5
10000AB9
102
{ACAD_REACTORS
330
10000ABF
102
}
330
F6
100
AcDbEntity
  8
ROGO
 62
     4
100
AcDbSpline
210
0.0
220
0.0
230
1.0
 70
     8
 71
     3
 72
    25
 73
    21
 74
     0
 42
0.0000000001
 43
0.0000000001
 40
0.0
 40
0.0
 40
0.0
 40
0.0
 40
0.4087168505087288
 40
0.6887487002771746
 40
0.9415836120477687
 40
1.17452070575514
 40
1.41154617586699
 40
1.599156012919487
 40
1.80099909059943
 40
2.178735911501585
 40
2.521686161369157
 40
2.762704659361267
 40
3.06256558063785
 40
3.222432137207705
 40
3.399493810628493
 40
3.567459719866414
 40
3.743172740007509
 40
3.995988754699505
 40
4.17170091132118
 40
4.337226830236035
 40
4.337226830236035
 40
4.337226830236035
 40
4.337226830236035
 10
365.4002579798248
 20
420.9626609554277
 30
0.0
 10
365.4705723375755
 20
420.9604018276333
 30
0.0
 10
365.5890624914592
 20
420.956594861196
 30
0.0
 10
365.7162762894893
 20
420.8571624478025
 30
0.0
 10
365.8136166048598
 20
420.774725358781
 30
0.0
 10
365.8827099689464
 20
420.6750627783037
 30
0.0
 10
365.9432722384356
 20
420.5834283444792
 30
0.0
 10
365.9831781823916
 20
420.4866834663849
 30
0.0
 10
366.0374581504984
 20
420.3705984727607
 30
0.0
 10
366.0599273757088
 20
420.2152939978592
 30
0.0
 10
366.0447467423706
 20
420.0547724935084
 30
0.0
 10
366.0051323773743
 20
419.9124849453607
 30
0.0
 10
365.9635800935172
 20
419.803325280869
 30
0.0
 10
365.9146057807781
 20
419.7082950208824
 30
0.0
 10
365.8562221417721
 20
419.6467629201696
 30
0.0
 10
365.8157179195736
 20
419.5685254539587
 30
0.0
 10
365.7379144899775
 20
419.5045314069967
 30
0.0
 10
365.6748428331109
 20
419.4255717349196
 30
0.0
 10
365.6032696379114
 20
419.3577998087215
 30
0.0
 10
365.5629163531916
 20
419.3159853469762
 30
0.0
 10
365.5416411283433
 20
419.2984042841967
 30
0.0
  0
LINE
  5
10000ABA
102
{ACAD_REACTORS
330
10000ABF
102
}
330
F6
100
AcDbEntity
  8
ROGO
 62
     4
100
AcDbLine
 10
364.3281810895599
 20
420.9626609554277
 30
0.0
 11
365.4002579798248
 21
420.9626609554277
 31
0.0
  0
LINE
  5
10000ABB
102
{ACAD_REACTORS
330
10000ABF
102
}
330
F6
100
AcDbEntity
  8
ROGO
 62
     4
100
AcDbLine
 10
363.7792040016412
 20
419.0789150272422
 30
0.0
 11
364.8512808919059
 21
419.0789150272422
 31
0.0
  0
SPLINE
  5
10000ABC
102
{ACAD_REACTORS
330
10000ABF
102
}
330
F6
100
AcDbEntity
  8
ROGO
 62
     4
100
AcDbSpline
210
0.0
220
0.0
230
1.0
 70
     8
 71
     3
 72
    11
 73
     7
 74
     0
 42
0.0000000001
 43
0.0000000001
 40
0.1647869275458134
 40
0.1647869275458134
 40
0.1647869275458134
 40
0.1647869275458134
 40
0.2895635144633836
 40
0.5387013147903714
 40
0.7953622617455423
 40
0.8850764140209602
 40
0.8850764140209602
 40
0.8850764140209602
 40
0.8850764140209602
 10
365.2084486899318
 20
419.120738522826
 30
0.0
 10
365.1884793430734
 20
419.1151800475167
 30
0.0
 10
365.1265636124532
 20
419.1052834906826
 30
0.0
 10
365.0227082308272
 20
419.0916943558635
 30
0.0
 10
364.9239988849753
 20
419.0775135978855
 30
0.0
 10
364.8662407495059
 20
419.0786267191809
 30
0.0
 10
364.8512808919061
 20
419.0789150272422
 30
0.0
  0
SPLINE
  5
10000ABD
102
{ACAD_REACTORS
330
10000ABF
102
}
330
F6
100
AcDbEntity
  8
ROGO
 62
     4
100
AcDbSpline
210
0.0
220
0.0
230
1.0
 70
     8
 71
     3
 72
     9
 73
     5
 74
     3
 42
0.0000000001
 43
0.0000000001
 44
0.0000000001
 40
0.0
 40
0.0
 40
0.0
 40
0.0
 40
0.1622561919360204
 40
0.3804197703110171
 40
0.3804197703110171
 40
0.3804197703110171
 40
0.3804197703110171
 10
365.2084486899318
 20
419.120738522826
 30
0.0
 10
365.2605700732431
 20
419.1366847224306
 30
0.0
 10
365.3827719099251
 20
419.1740715827934
 30
0.0
 10
365.4837386202634
 20
419.2530891796139
 30
0.0
 10
365.5416411283433
 20
419.2984042841967
 30
0.0
 11
365.2084486899318
 21
419.120738522826
 31
0.0
 11
365.3609497816812
 21
419.1761505146399
 31
0.0
 11
365.5416411283433
 21
419.2984042841967
 31
0.0
  0
ELLIPSE
  5
10000ABE
102
{ACAD_REACTORS
330
10000ABF
102
}
330
F6
100
AcDbEntity
  8
ROGO
 62
     4
100
AcDbEllipse
 10
364.5745502247468
 20
419.9945238236863
 30
0.0
 11
0.2546924415247531
 21
0.2239701316915159
 31
0.0
210
0.0
220
0.0
230
1.0
 40
0.6788083417438792
 41
0.0
 42
6.283185307179586
  0
HATCH
  5
10000ABF
330
F6
100
AcDbEntity
  8
ROGO
 62
     4
100
AcDbHatch
 10
0.0
 20
0.0
 30
0.0
210
0.0
220
0.0
230
1.0
  2
SOLID
 70
     1
 71
     1
 91
        2
 92
        5
 93
        6
 72
     4
 94
        3
 73
     0
 74
     0
 95
       38
 96
       34
 40
0.0
 40
0.0
 40
0.0
 40
0.0
 40
0.2582400211805774
 40
0.3393418442955424
 40
0.443552172800835
 40
0.530394283206717
 40
0.6036667919818254
 40
0.7009894053152177
 40
0.7507174249931042
 40
0.8067242281503032
 40
0.8892677166883521
 40
0.9827715778106668
 40
1.043426616793024
 40
1.109318337455068
 40
1.182564491755753
 40
1.293719242428883
 40
1.399327847180614
 40
1.448424760475743
 40
1.50441322219426
 40
1.570741059842362
 40
1.617957956886697
 40
1.657539314700464
 40
1.714052551848318
 40
1.776150918813051
 40
1.838248940024221
 40
1.892584795022379
 40
2.017023561310864
 40
2.066120474605993
 40
2.164314359515976
 40
2.251113385583432
 40
2.417283613623161
 40
2.622320469312984
 40
2.918423525691272
 40
2.918423525691272
 40
2.918423525691272
 40
2.918423525691272
 10
364.3281810895599
 20
420.9626609554277
 10
364.2421019500946
 20
420.9565800709979
 10
364.1289891420644
 20
420.9485894484448
 10
363.9853623241937
 20
420.9092399824377
 10
363.9070698178496
 20
420.862362097498
 10
363.8255908159678
 20
420.8279046050685
 10
363.756122378275
 20
420.7768798918555
 10
363.6858565201379
 20
420.7505873487219
 10
363.6366542153153
 20
420.7031771939039
 10
363.5797065608398
 20
420.6742170250826
 10
363.5343581325036
 20
420.6093957479192
 10
363.4836714517439
 20
420.5487902026927
 10
363.424868525448
 20
420.504550857582
 10
363.3766081746488
 20
420.4580866019215
 10
363.3323360133283
 20
420.3863782945161
 10
363.3061337667982
 20
420.2910991878221
 10
363.2322740319278
 20
420.2309433959863
 10
363.2211530683804
 20
420.1586181850204
 10
363.1802989966724
 20
420.1159475276052
 10
363.1625342174495
 20
420.0608658390551
 10
363.1557685344156
 20
420.0104012828827
 10
363.1476481014978
 20
419.9632708808422
 10
363.1264065868799
 20
419.9136917797881
 10
363.133339890539
 20
419.8524485241668
 10
363.131364800479
 20
419.7931446469861
 10
363.1325271432977
 20
419.7130825661124
 10
363.1283320870891
 20
419.635132284799
 10
363.1617860163964
 20
419.5503038902726
 10
363.1815829415432
 20
419.4746911121776
 10
363.2358000414628
 20
419.3699960518184
 10
363.3293234026311
 20
419.2492005893771
 10
363.5071658969418
 20
419.1025777846731
 10
363.6781666548837
 20
419.0877035836484
 10
363.7792040016412
 20
419.0789150272422
 72
     1
 10
363.7792040016412
 20
419.0789150272422
 11
364.8512808919063
 21
419.0789150272422
 72
     4
 94
        3
 73
     0
 74
     0
 95
       11
 96
        7
 40
0.1647869275458135
 40
0.1647869275458135
 40
0.1647869275458135
 40
0.1647869275458135
 40
0.2545010798212315
 40
0.5111620267764023
 40
0.7602998271033902
 40
0.8850764140209603
 40
0.8850764140209603
 40
0.8850764140209603
 40
0.8850764140209603
 10
364.8512808919061
 20
419.0789150272422
 10
364.8662407495059
 20
419.0786267191809
 10
364.9239988849753
 20
419.0775135978855
 10
365.0227082308272
 20
419.0916943558635
 10
365.1265636124532
 20
419.1052834906826
 10
365.1884793430734
 20
419.1151800475167
 10
365.2084486899318
 20
419.120738522826
 72
     4
 94
        3
 73
     0
 74
     0
 95
        9
 96
        5
 40
0.0
 40
0.0
 40
0.0
 40
0.0
 40
0.1622561919360204
 40
0.3804197703110171
 40
0.3804197703110171
 40
0.3804197703110171
 40
0.3804197703110171
 10
365.2084486899318
 20
419.120738522826
 10
365.2605700732431
 20
419.1366847224306
 10
365.382771909925
 20
419.1740715827934
 10
365.4837386202635
 20
419.2530891796139
 10
365.5416411283433
 20
419.2984042841967
 72
     4
 94
        3
 73
     0
 74
     0
 95
       25
 96
       21
 40
0.0
 40
0.0
 40
0.0
 40
0.0
 40
0.165525918914855
 40
0.3412380755365305
 40
0.5940540902285263
 40
0.7697671103696209
 40
0.9377330196075423
 40
1.11479469302833
 40
1.274661249598185
 40
1.574522170874768
 40
1.815540668866877
 40
2.15849091873445
 40
2.536227739636605
 40
2.738070817316548
 40
2.925680654369045
 40
3.162706124480894
 40
3.395643218188267
 40
3.648478129958861
 40
3.928509979727306
 40
4.337226830236035
 40
4.337226830236035
 40
4.337226830236035
 40
4.337226830236035
 10
365.5416411283433
 20
419.2984042841967
 10
365.5629163531916
 20
419.3159853469762
 10
365.6032696379114
 20
419.3577998087215
 10
365.6748428331109
 20
419.4255717349196
 10
365.7379144899775
 20
419.5045314069967
 10
365.8157179195736
 20
419.5685254539587
 10
365.8562221417721
 20
419.6467629201696
 10
365.9146057807781
 20
419.7082950208824
 10
365.9635800935172
 20
419.803325280869
 10
366.0051323773743
 20
419.9124849453607
 10
366.0447467423706
 20
420.0547724935084
 10
366.0599273757088
 20
420.2152939978592
 10
366.0374581504984
 20
420.3705984727607
 10
365.9831781823916
 20
420.4866834663849
 10
365.9432722384356
 20
420.5834283444792
 10
365.8827099689464
 20
420.6750627783037
 10
365.8136166048598
 20
420.774725358781
 10
365.7162762894893
 20
420.8571624478025
 10
365.5890624914592
 20
420.956594861196
 10
365.4705723375755
 20
420.9604018276333
 10
365.4002579798248
 20
420.9626609554277
 72
     1
 10
365.4002579798248
 20
420.9626609554277
 11
364.3281810895599
 21
420.9626609554277
 97
        6
330
10000AB9
330
10000ABA
330
10000AB8
330
10000ABB
330
10000ABC
330
10000ABD
 92
       20
 93
        1
 72
     3
 10
364.5745502247468
 20
419.9945238236863
 11
0.2546924415247531
 21
0.2239701316915159
 40
0.6788083417438792
 50
0.0
 51
360.0
 73
     1
 97
        1
330
10000ABE
 75
     0
 76
     1
 47
0.088756267210375
 98
        2
 10
364.6494520472734
 20
420.442362781292
 10
364.6494520472734
 20
420.442362781292
450
        0
451
        0
460
0.0
461
0.0
452
        0
462
0.0
453
        0
470

  0
POINT
  5
10000B14
330
F6
100
AcDbEntity
  8
DEFPOINTS
  6
ByBlock
 62
     0
100
AcDbPoint
 10
275.0230923985601
 20
419.3829900661494
 30
0.0
  0
POINT
  5
10000B26
330
F6
100
AcDbEntity
  8
DEFPOINTS
  6
ByBlock
 62
     0
100
AcDbPoint
 10
275.0230923985601
 20
419.3829900661494
 30
0.0
  0
DIMENSION
  5
10000B37
330
F6
100
AcDbEntity
  8
文字
100
AcDbDimension
  2
*D6
 10
428.2115084882723
 20
404.3829900661494
 30
0.0
 11
426.3365084882723
 21
419.3829900661494
 31
0.0
 70
    32
 71
     5
 42
-1.0
  3
STYLE3
100
AcDbAlignedDimension
 13
415.0230923985601
 23
434.3829900661494
 33
0.0
 14
415.0230923985601
 24
404.3829900661494
 34
0.0
 50
90.0
100
AcDbRotatedDimension
1001
ACAD
1000
DSTYLE
1002
{
1070
   271
1070
     2
1002
}
  0
LINE
  5
10000B38
330
F6
100
AcDbEntity
  8
0
  6
ByBlock
 62
     2
100
AcDbLine
 10
320.0230923985602
 20
404.8232334040746
 30
0.0
 11
320.0230923985602
 21
391.3720073491341
 31
0.0
  0
POINT
  5
10000B3E
330
F6
100
AcDbEntity
  8
DEFPOINTS
  6
ByBlock
 62
     0
100
AcDbPoint
 10
320.0230923985602
 20
405.6829900661494
 30
0.0
  0
LINE
  5
10000B70
330
F6
100
AcDbEntity
  8
隠れ線2
100
AcDbLine
 10
410.0230923985601
 20
429.6329900661494
 30
0.0
 11
410.02309239856
 21
409.1329900661494
 31
0.0
  0
LINE
  5
10000B71
330
F6
100
AcDbEntity
  8
隠れ線2
100
AcDbLine
 10
320.0230923985602
 20
431.1329900661495
 30
0.0
 11
408.5230923985601
 21
431.1329900661494
 31
0.0
  0
LINE
  5
10000B72
330
F6
100
AcDbEntity
  8
隠れ線2
100
AcDbLine
 10
320.0230923985601
 20
407.6329900661494
 30
0.0
 11
408.52309239856
 21
407.6329900661494
 31
0.0
  0
ARC
  5
10000B73
330
F6
100
AcDbEntity
  8
隠れ線2
100
AcDbCircle
 10
408.5230923985601
 20
429.6329900661494
 30
0.0
 40
1.5
100
AcDbArc
 50
0.0
 51
90.0
  0
ARC
  5
10000B74
330
F6
100
AcDbEntity
  8
隠れ線2
100
AcDbCircle
 10
408.52309239856
 20
409.1329900661494
 30
0.0
 40
1.5
100
AcDbArc
 50
270.0
 51
0.0
  0
LINE
  5
10000FFF
330
F6
100
AcDbEntity
  8
外形線
  6
Continuous
100
AcDbLine
 10
237.0142887703757
 20
484.8484713345797
 30
0.0
 11
279.4452568528417
 21
460.3410653603697
 31
0.0
  0
LINE
  5
10001000
330
F6
100
AcDbEntity
  8
外形線
  6
Continuous
100
AcDbLine
 10
238.063120385408
 20
483.6652755590176
 30
0.0
 11
277.8962740954784
 21
460.6583230117998
 31
0.0
  0
LINE
  5
10001001
330
F6
100
AcDbEntity
  8
中心線
 48
0.45
100
AcDbLine
 10
223.5861018892223
 20
500.7795522504323
 30
0.0
 11
313.0035424440781
 21
449.1335583953395
 31
0.0
  0
LINE
  5
10001002
330
F6
100
AcDbEntity
  8
外形線
100
AcDbLine
 10
270.7662086930294
 20
453.8972367802471
 30
0.0
 11
238.9789655673229
 21
472.2570081285826
 31
0.0
  0
LINE
  5
10001003
330
F6
100
AcDbEntity
  8
外形線
  6
Continuous
100
AcDbLine
 10
235.5339738771394
 20
489.2834085175466
 30
0.0
 11
239.5351830157858
 21
496.2109135106024
 31
0.0
  0
LINE
  5
10001004
330
F6
100
AcDbEntity
  8
外形線
100
AcDbLine
 10
243.0661175925784
 20
495.3263226365763
 30
0.0
 11
237.0142887703757
 21
484.8484713345797
 31
0.0
  0
LINE
  5
10001005
330
F6
100
AcDbEntity
  8
外形線
100
AcDbLine
 10
238.9789655673229
 20
472.2570081285826
 30
0.0
 11
243.6907857900741
 21
480.4148316735251
 31
0.0
  0
LINE
  5
10001006
330
F6
100
AcDbEntity
  8
外形線
  6
Continuous
100
AcDbLine
 10
234.3395542709942
 20
499.2118203645871
 30
0.0
 11
239.5351830157858
 21
496.2109135106024
 31
0.0
  0
HATCH
  5
10001007
330
F6
100
AcDbEntity
  8
寸法線
  6
Continuous
100
AcDbHatch
 10
0.0
 20
0.0
 30
0.0
210
0.0
220
0.0
230
1.0
  2
ANSI37
 70
     0
 71
     0
 91
        1
 92
        7
 72
     0
 73
     1
 93
        4
 10
232.3389497016708
 20
495.7480678680592
 10
234.3395542709942
 20
499.2118203645871
 10
239.5351830157858
 20
496.2109135106024
 10
237.5345784464629
 20
492.7471610140744
 97
        0
 75
     0
 76
     1
 52
-15.67000000000003
 41
10.0
 77
     0
 78
     2
 53
194.9900000000001
 43
462.9279449798822
 44
584.8348658612487
 45
-0.3233130691266873
 46
1.207463730027482
 79
     0
 53
104.99
 43
462.9279449798822
 44
584.8348658612487
 45
1.207463730027482
 46
0.3233130691266873
 79
     0
 47
0.1856754751158765
 98
        1
 10
235.1384441324475
 20
496.1484168488849
  0
LINE
  5
10001008
330
F6
100
AcDbEntity
  8
外形線
  6
Continuous
100
AcDbLine
 10
230.3383451323477
 20
492.2843153715313
 30
0.0
 11
234.3395542709942
 21
499.2118203645871
 31
0.0
  0
LINE
  5
10001009
330
F6
100
AcDbEntity
  8
外形線
  6
Continuous
100
AcDbLine
 10
224.859792668189
 20
495.7950792339214
 30
0.0
 11
228.5609111214371
 21
502.2030213524981
 31
0.0
  0
ARC
  5
1000100A
330
F6
100
AcDbEntity
  8
外形線
  6
Continuous
100
AcDbCircle
 10
232.2047292924302
 20
495.8255912951208
 30
0.0
 40
7.344999999999885
100
AcDbArc
 50
119.7419853833782
 51
180.2380146166212
  0
LINE
  5
1000100B
330
F6
100
AcDbEntity
  8
外形線
  6
Continuous
100
AcDbLine
 10
224.859792668189
 20
495.7950792339214
 30
0.0
 11
230.488390475047
 21
492.544096808771
 31
0.0
  0
LINE
  5
1000100C
330
F6
100
AcDbEntity
  8
外形線
  6
Continuous
100
AcDbLine
 10
230.3383451323477
 20
492.2843153715313
 30
0.0
 11
235.5339738771394
 21
489.2834085175466
 31
0.0
  0
LINE
  5
1000100D
330
F6
100
AcDbEntity
  8
外形線
100
AcDbLine
 10
238.3131959565737
 20
484.0982446210834
 30
0.0
 11
238.063120385408
 21
483.6652755590176
 31
0.0
  0
POINT
  5
1000100E
330
F6
100
AcDbEntity
  8
DEFPOINTS
  6
ByBlock
 62
     0
100
AcDbPoint
 10
238.063120385408
 20
483.6652755590176
 30
0.0
  0
LINE
  5
1000100F
330
F6
100
AcDbEntity
  8
外形線
  6
Continuous
100
AcDbLine
 10
235.6840192198386
 20
489.5431899547862
 30
0.0
 11
238.7148026543004
 21
487.7926609566284
 31
0.0
  0
LINE
  5
10001010
330
F6
100
AcDbEntity
  8
外形線
  6
Continuous
100
AcDbLine
 10
228.5609111214371
 20
502.2030213524981
 30
0.0
 11
234.189508928295
 21
498.9520389273477
 31
0.0
  0
LINE
  5
10001011
330
F6
100
AcDbEntity
  8
外形線
  6
Continuous
100
AcDbLine
 10
244.9375743352129
 20
500.3659307225735
 30
0.0
 11
243.0369999943561
 21
497.0753658508718
 31
0.0
  0
LINE
  5
10001012
330
F6
100
AcDbEntity
  8
外形線
  6
Continuous
100
AcDbLine
 10
244.0716362110811
 20
500.8660818649042
 30
0.0
 11
242.1710618702239
 21
497.5755169932027
 31
0.0
  0
LINE
  5
10001013
330
F6
100
AcDbEntity
  8
外形線
  6
Continuous
100
AcDbLine
 10
245.803512459345
 20
499.8657795802428
 30
0.0
 11
243.9029381184879
 21
496.5752147085413
 31
0.0
  0
LINE
  5
10001014
330
F6
100
AcDbEntity
  8
外形線
  6
Continuous
100
AcDbLine
 10
246.6694505834772
 20
499.3656284379118
 30
0.0
 11
244.76887624262
 21
496.0750635662103
 31
0.0
  0
LINE
  5
10001015
330
F6
100
AcDbEntity
  8
外形線
  6
Continuous
100
AcDbLine
 10
247.535388707609
 20
498.8654772955809
 30
0.0
 11
245.6348143667517
 21
495.5749124238795
 31
0.0
  0
ARC
  5
10001016
330
F6
100
AcDbEntity
  8
外形線
  6
Continuous
100
AcDbCircle
 10
216.1837334463315
 20
399.7982367121144
 30
0.0
 40
105.6666666666664
100
AcDbArc
 50
46.30445317473807
 51
73.67554682526193
  0
LINE
  5
10001017
330
F6
100
AcDbEntity
  8
外形線
  6
Continuous
100
AcDbLine
 10
245.8841309556629
 20
501.2049960145994
 30
0.0
 11
289.1810371622609
 21
476.1974388980585
 31
0.0
  0
LINE
  5
10001018
330
F6
100
AcDbEntity
  8
外形線
  6
Continuous
100
AcDbLine
 10
244.0716362110811
 20
500.8660818649042
 30
0.0
 11
289.7931691652485
 21
474.458101549837
 31
0.0
  0
LINE
  5
10001019
330
F6
100
AcDbEntity
  8
中心線
 48
0.5
100
AcDbLine
 10
250.2665874045703
 20
458.807684304538
 30
0.0
 11
301.1570209291022
 21
546.916983299893
 31
0.0
  0
LINE
  5
1000101A
330
F6
100
AcDbEntity
  8
外形線
100
AcDbLine
 10
310.238555165333
 20
446.6956227958511
 30
0.0
 11
310.9220726399167
 21
446.8767411602947
 31
0.0
  0
CIRCLE
  5
1000101B
330
F6
100
AcDbEntity
  8
外形線
100
AcDbCircle
 10
309.8212662138197
 20
450.9535861841508
 30
0.0
 40
1.25
  0
LINE
  5
1000101C
330
F6
100
AcDbEntity
  8
外形線
100
AcDbLine
 10
313.8115201269008
 20
451.8495203746848
 30
0.0
 11
304.0263863027795
 21
457.5012473556396
 31
0.0
  0
LINE
  5
1000101D
330
F6
100
AcDbEntity
  8
外形線
100
AcDbLine
 10
313.7311154487244
 20
452.7620705195825
 30
0.0
 11
304.4031856353847
 21
458.1497242349101
 31
0.0
  0
LINE
  5
1000101E
330
F6
100
AcDbEntity
  8
外形線
100
AcDbLine
 10
311.0483250211292
 20
447.0940232600352
 30
0.0
 11
301.2631911970083
 21
452.7457502409898
 31
0.0
  0
LINE
  5
1000101F
330
F6
100
AcDbEntity
  8
外形線
100
AcDbLine
 10
270.7662086930294
 20
453.897236780247
 30
0.0
 11
275.4780289157805
 21
462.0550603251897
 31
0.0
  0
LINE
  5
10001020
330
F6
100
AcDbEntity
  8
外形線
  6
Continuous
100
AcDbLine
 10
242.1710618702239
 20
497.5755169932027
 30
0.0
 11
287.8925948243916
 21
471.1675366781356
 31
0.0
  0
LINE
  5
10001021
330
F6
100
AcDbEntity
  8
外形線
  6
Continuous
100
AcDbLine
 10
242.6331485305126
 20
495.5763982077416
 30
0.0
 11
285.9300547371107
 21
470.5688410912009
 31
0.0
  0
LINE
  5
10001022
330
F6
100
AcDbEntity
  8
中心線
 48
0.3
100
AcDbLine
 10
244.2243440605571
 20
468.3425378384963
 30
0.0
 11
250.3313308730116
 21
478.9158870861477
 31
0.0
  0
CIRCLE
  5
10001023
330
F6
100
AcDbEntity
  8
外形線
100
AcDbCircle
 10
247.1083190858347
 20
473.3357163240921
 30
0.0
 40
3.5
  0
LINE
  5
10001024
330
F6
100
AcDbEntity
  8
外形線
100
AcDbLine
 10
244.9688197184065
 20
472.4806933496643
 30
0.0
 11
249.1660156481758
 21
474.1580478760371
 31
0.0
  0
LINE
  5
10001025
330
F6
100
AcDbEntity
  8
中心線
 48
0.3
100
AcDbLine
 10
251.344243013211
 20
470.8891186607459
 30
0.0
 11
243.2229998251717
 21
475.5798106910983
 31
0.0
  0
LINE
  5
10001026
330
F6
100
AcDbEntity
  8
外形線
100
AcDbLine
 10
247.9045402367499
 20
471.3433550663658
 30
0.0
 11
246.3859526174674
 21
475.1432731364191
 31
0.0
  0
LINE
  5
10001027
330
F6
100
AcDbEntity
  8
外形線
  6
Continuous
100
AcDbLine
 10
248.4013268317408
 20
498.3653261532501
 30
0.0
 11
246.5007524908838
 21
495.0747612815487
 31
0.0
  0
LINE
  5
10001028
330
F6
100
AcDbEntity
  8
外形線
  6
CENTER2
100
AcDbLine
 10
242.6331485305126
 20
495.5763982077416
 30
0.0
 11
243.3833752440088
 21
496.8753053939395
 31
0.0
  0
LINE
  5
10001029
330
F6
100
AcDbEntity
  8
外形線
  6
Continuous
100
AcDbLine
 10
239.3851376730866
 20
495.9511320733629
 30
0.0
 11
242.4159211075485
 21
494.2006030752051
 31
0.0
  0
LINE
  5
1000102A
330
F6
100
AcDbEntity
  8
外形線
100
AcDbLine
 10
265.7585715027834
 20
460.4591752836813
 30
0.0
 11
269.9415705181558
 21
462.1716270691078
 31
0.0
  0
LINE
  5
1000102B
330
F6
100
AcDbEntity
  8
中心線
 48
0.3
100
AcDbLine
 10
272.253815604128
 20
458.8121049278308
 30
0.0
 11
263.0627255468684
 21
464.1207223258835
 31
0.0
  0
CIRCLE
  5
1000102C
330
F6
100
AcDbEntity
  8
外形線
100
AcDbCircle
 10
267.8908340650019
 20
461.3320889081525
 30
0.0
 40
3.5
  0
LINE
  5
1000102D
330
F6
100
AcDbEntity
  8
中心線
 48
0.3
100
AcDbLine
 10
264.9018208465323
 20
456.1570522435456
 30
0.0
 11
271.0145103505317
 21
466.740274862666
 31
0.0
  0
LINE
  5
1000102E
330
F6
100
AcDbEntity
  8
外形線
100
AcDbLine
 10
268.7037154863357
 20
459.3464667645153
 30
0.0
 11
267.1533526744918
 21
463.1335317029874
 31
0.0
  0
LINE
  5
1000102F
330
F6
100
AcDbEntity
  8
外形線
  6
Continuous
100
AcDbLine
 10
265.0318283473079
 20
484.3715268356691
 30
0.0
 11
266.9324026881649
 21
487.6620917073706
 31
0.0
  0
LINE
  5
10001030
330
F6
100
AcDbEntity
  8
外形線
  6
Continuous
100
AcDbLine
 10
265.8977664714397
 20
483.8713756933383
 30
0.0
 11
267.7983408122966
 21
487.1619405650399
 31
0.0
  0
LINE
  5
10001031
330
F6
100
AcDbEntity
  8
外形線
  6
Continuous
100
AcDbLine
 10
262.4340139749119
 20
485.8719802626618
 30
0.0
 11
264.3345883157691
 21
489.1625451343631
 31
0.0
  0
LINE
  5
10001032
330
F6
100
AcDbEntity
  8
外形線
  6
Continuous
100
AcDbLine
 10
263.2999520990437
 20
485.3718291203309
 30
0.0
 11
265.2005264399009
 21
488.6623939920323
 31
0.0
  0
LINE
  5
10001033
330
F6
100
AcDbEntity
  8
外形線
  6
Continuous
100
AcDbLine
 10
264.1658902231757
 20
484.871677978
 30
0.0
 11
266.066464564033
 21
488.1622428497016
 31
0.0
  0
LINE
  5
10001034
330
F6
100
AcDbEntity
  8
外形線
  6
Continuous
100
AcDbLine
 10
266.7637045955715
 20
483.3712245510077
 30
0.0
 11
268.6642789364288
 21
486.6617894227092
 31
0.0
  0
CIRCLE
  5
10001035
330
F6
100
AcDbEntity
  8
外形線
100
AcDbCircle
 10
304.6334511796564
 20
453.9679808449922
 30
0.0
 40
1.25
  0
LINE
  5
10001036
330
F6
100
AcDbEntity
  8
中心線
 48
0.5
100
AcDbLine
 10
303.7427419623501
 20
452.4258488702722
 30
0.0
 11
305.6599857205538
 21
455.7452743858187
 31
0.0
  0
LINE
  5
10001037
330
F6
100
AcDbEntity
  8
外形線
100
AcDbLine
 10
299.2403636373027
 20
456.7783823751132
 30
0.0
 11
301.2631911970081
 21
452.7457502409899
 31
0.0
  0
LINE
  5
10001038
330
F6
100
AcDbEntity
  8
外形線
100
AcDbLine
 10
297.7018018637204
 20
455.9716618976764
 30
0.0
 11
300.8863918644031
 21
452.0972733617197
 31
0.0
  0
LINE
  5
10001039
330
F6
100
AcDbEntity
  8
外形線
100
AcDbLine
 10
310.238555165333
 20
446.6956227958511
 30
0.0
 11
300.8880791061374
 21
452.0962988395713
 31
0.0
  0
LINE
  5
1000103A
330
F6
100
AcDbEntity
  8
外形線
100
AcDbLine
 10
301.2631911970081
 20
452.7457502409899
 30
0.0
 11
300.8877133665993
 21
452.0956656153664
 31
0.0
  0
LINE
  5
1000103B
330
F6
100
AcDbEntity
  8
外形線
100
AcDbLine
 10
304.4508316603701
 20
454.6571634853939
 30
0.0
 11
304.8157977481476
 21
453.279828285881
 31
0.0
  0
LINE
  5
1000103C
330
F6
100
AcDbEntity
  8
外形線
100
AcDbLine
 10
305.4112084156304
 20
454.1740708481769
 30
0.0
 11
303.9597237011694
 21
453.7894566323402
 31
0.0
  0
LINE
  5
1000103D
330
F6
100
AcDbEntity
  8
外形線
100
AcDbLine
 10
310.615354497938
 20
447.3440996751217
 30
0.0
 11
310.2385551653331
 21
446.6956227958511
 31
0.0
  0
LINE
  5
1000103E
330
F6
100
AcDbEntity
  8
外形線
100
AcDbLine
 10
309.6386466945333
 20
451.6427688245525
 30
0.0
 11
310.0036127823107
 21
450.2654336250396
 31
0.0
  0
LINE
  5
1000103F
330
F6
100
AcDbEntity
  8
外形線
100
AcDbLine
 10
310.5990234497937
 20
451.1596761873357
 30
0.0
 11
309.1475387353323
 21
450.7750619714985
 31
0.0
  0
LINE
  5
10001040
330
F6
100
AcDbEntity
  8
中心線
 48
0.5
100
AcDbLine
 10
308.8710052389979
 20
449.3083086185428
 30
0.0
 11
310.8732052526089
 21
452.7748233921441
 31
0.0
  0
LINE
  5
10001041
330
F6
100
AcDbEntity
  8
外形線
100
AcDbLine
 10
288.3263228687123
 20
465.7203465783166
 30
0.0
 11
296.5527350479657
 21
460.968910726173
 31
0.0
  0
LINE
  5
10001042
330
F6
100
AcDbEntity
  8
外形線
100
AcDbLine
 10
286.3257182993889
 20
462.2565940817885
 30
0.0
 11
294.5521304786423
 21
457.5051582296454
 31
0.0
  0
LINE
  5
10001043
330
F6
100
AcDbEntity
  8
外形線
  6
Continuous
100
AcDbLine
 10
285.4634785445888
 20
476.9588572614912
 30
0.0
 11
283.5629042037316
 21
473.6682923897896
 31
0.0
  0
LINE
  5
10001044
330
F6
100
AcDbEntity
  8
外形線
100
AcDbLine
 10
285.4970856750446
 20
470.8189166623663
 30
0.0
 11
279.4452568528417
 21
460.3410653603697
 31
0.0
  0
LINE
  5
10001045
330
F6
100
AcDbEntity
  8
外形線
100
AcDbLine
 10
280.9957253940671
 20
463.0254735451784
 30
0.0
 11
285.3254160147272
 21
460.5247178335246
 31
0.0
  0
LINE
  5
10001046
330
F6
100
AcDbEntity
  8
外形線
100
AcDbLine
 10
278.1463496666436
 20
461.0912920738657
 30
0.0
 11
277.8962740954784
 21
460.6583230117998
 31
0.0
  0
LINE
  5
10001047
330
F6
100
AcDbEntity
  8
外形線
100
AcDbLine
 10
289.3266251533738
 20
467.4522228265801
 30
0.0
 11
285.3254160147272
 21
460.5247178335246
 31
0.0
  0
LINE
  5
10001048
330
F6
100
AcDbEntity
  8
外形線
100
AcDbLine
 10
284.9969345327137
 20
469.9529785382341
 30
0.0
 11
289.3266251533738
 21
467.4522228265801
 31
0.0
  0
LINE
  5
10001049
330
F6
100
AcDbEntity
  8
外形線
  6
Continuous
100
AcDbLine
 10
289.7931691652485
 20
474.458101549837
 30
0.0
 11
287.8925948243916
 21
471.1675366781356
 31
0.0
  0
LINE
  5
1000104A
330
F6
100
AcDbEntity
  8
外形線
  6
Continuous
100
AcDbLine
 10
288.9272310411166
 20
474.9582526921678
 30
0.0
 11
287.0266567002596
 21
471.6676878204666
 31
0.0
  0
LINE
  5
1000104B
330
F6
100
AcDbEntity
  8
外形線
  6
Continuous
100
AcDbLine
 10
288.0612929169846
 20
475.4584038344987
 30
0.0
 11
286.1607185761275
 21
472.1678389627974
 31
0.0
  0
LINE
  5
1000104C
330
F6
100
AcDbEntity
  8
外形線
  6
CENTER2
100
AcDbLine
 10
285.9300547371107
 20
470.5688410912009
 30
0.0
 11
286.6802814506069
 21
471.8677482773988
 31
0.0
  0
LINE
  5
1000104D
330
F6
100
AcDbEntity
  8
外形線
  6
Continuous
100
AcDbLine
 10
287.1953547928529
 20
475.9585549768295
 30
0.0
 11
285.2947804519955
 21
472.6679901051282
 31
0.0
  0
LINE
  5
1000104E
330
F6
100
AcDbEntity
  8
外形線
  6
Continuous
100
AcDbLine
 10
286.3294166687207
 20
476.4587061191602
 30
0.0
 11
284.4288423278637
 21
473.1681412474588
 31
0.0
  0
LINE
  5
1000104F
330
F6
100
AcDbEntity
  8
外形線
  6
Continuous
100
AcDbLine
 10
289.0138248535298
 20
474.9082375779349
 30
0.0
 11
289.1810371622609
 21
476.1974388980585
 31
0.0
  0
LINE
  5
10001050
330
F6
100
AcDbEntity
  8
外形線
100
AcDbLine
 10
299.4601987492115
 20
458.9978873342718
 30
0.0
 11
304.4031856353847
 21
458.1497242349101
 31
0.0
  0
LINE
  5
10001051
330
F6
100
AcDbEntity
  8
外形線
100
AcDbLine
 10
299.5212132778299
 20
457.2617285030751
 30
0.0
 11
304.0263863027795
 21
457.5012473556396
 31
0.0
  0
LINE
  5
10001052
330
F6
100
AcDbEntity
  8
外形線
100
AcDbLine
 10
299.3177617290923
 20
460.7576586193043
 30
0.0
 11
296.1167944181752
 21
455.2156546248599
 31
0.0
  0
ARC
  5
10001053
330
F6
100
AcDbEntity
  8
外形線
100
AcDbCircle
 10
299.0133182259794
 20
457.2335750609037
 30
0.0
 40
1.5
100
AcDbArc
 50
79.31236944608503
 51
220.3699281771059
  0
LINE
  5
10001054
330
F6
100
AcDbEntity
  8
外形線
100
AcDbLine
 10
297.1529164187627
 20
462.0080364751316
 30
0.0
 11
299.3177617290923
 21
460.7576586193043
 31
0.0
  0
LINE
  5
10001055
330
F6
100
AcDbEntity
  8
外形線
100
AcDbLine
 10
293.9519491078453
 20
456.4660324806872
 30
0.0
 11
296.1167944181752
 21
455.2156546248599
 31
0.0
  0
LINE
  5
10001056
330
F6
100
AcDbEntity
  8
外形線
100
AcDbLine
 10
297.1529164187627
 20
462.0080364751316
 30
0.0
 11
293.9519491078453
 21
456.4660324806872
 31
0.0
  0
ARC
  5
10001057
330
F6
100
AcDbEntity
  8
外形線
100
AcDbCircle
 10
299.5969474173228
 20
456.894455661559
 30
0.0
 40
0.375
100
AcDbArc
 50
101.6514637073841
 51
198.0308339158068
  0
LINE
  5
10001058
330
F6
100
AcDbEntity
  8
外形線
100
AcDbLine
 10
299.4601987492115
 20
458.9978873342718
 30
0.0
 11
297.7018018637204
 21
455.9716618976764
 31
0.0
  0
LINE
  5
10001059
330
F6
100
AcDbEntity
  8
外形線
100
AcDbLine
 10
304.4031856353847
 20
458.1497242349101
 30
0.0
 11
304.0263863027795
 21
457.5012473556396
 31
0.0
  0
LINE
  5
1000105A
330
F6
100
AcDbEntity
  8
外形線
100
AcDbLine
 10
313.7311154487243
 20
452.7620705195824
 30
0.0
 11
313.3560033578534
 21
452.1126191181639
 31
0.0
  0
LINE
  5
1000105B
330
F6
100
AcDbEntity
  8
外形線
100
AcDbLine
 10
313.9223710613221
 20
452.0402963708118
 30
0.0
 11
313.7311154487243
 21
452.7620705195824
 31
0.0
  0
LINE
  5
1000105C
330
F6
100
AcDbEntity
  8
外形線
100
AcDbLine
 10
313.9223710613221
 20
452.0402963708118
 30
0.0
 11
310.9220726399168
 21
446.8767411602947
 31
0.0
  0
LINE
  5
1000105D
330
F6
100
AcDbEntity
  8
目盛
100
AcDbLine
 10
274.9156775059548
 20
542.4578719364421
 30
0.0
 11
276.5491554592337
 21
539.9415750985965
 31
0.0
  0
LINE
  5
1000105E
330
F6
100
AcDbEntity
  8
目盛
100
AcDbLine
 10
274.3158929284507
 20
542.0549853597929
 30
0.0
 11
275.4570334112892
 21
540.412487749923
 31
0.0
  0
TEXT
  5
1000105F
330
F6
100
AcDbEntity
  8
文字
100
AcDbText
 10
275.3063032005435
 20
534.444735536963
 30
0.0
 40
2.0
  1
.1
 50
59.99000000000019
  7
STYLE3
100
AcDbText
  0
LINE
  5
10001060
330
F6
100
AcDbEntity
  8
目盛
100
AcDbLine
 10
274.707659482217
 20
504.0112960577842
 30
0.0
 11
275.814733308206
 21
505.6769453437417
 31
0.0
  0
LINE
  5
10001061
330
F6
100
AcDbEntity
  8
目盛
100
AcDbLine
 10
274.1122695874671
 20
504.420649213734
 30
0.0
 11
275.2711164477824
 21
506.0507025730869
 31
0.0
  0
TEXT
  5
10001062
330
F6
100
AcDbEntity
  8
文字
100
AcDbText
 10
274.1054640266611
 20
509.3966482293762
 30
0.0
 40
2.0
  1
.6
 50
59.99000000000019
  7
STYLE3
100
AcDbText
  0
LINE
  5
10001063
330
F6
100
AcDbEntity
  8
針
  6
Continuous
100
AcDbLine
 10
267.522431626057
 20
534.6697391199011
 30
0.0
 11
286.4644626129343
 21
524.3065524370788
 31
0.0
  0
LINE
  5
10001064
330
F6
100
AcDbEntity
  8
針
  6
Continuous
100
AcDbLine
 10
267.5224316260579
 20
534.6697391199007
 30
0.0
 11
285.9643114706035
 21
523.4406143129469
 31
0.0
  0
HATCH
  5
10001065
330
F6
100
AcDbEntity
  8
ﾊｯﾁﾝｸ
  6
Continuous
100
AcDbHatch
 10
0.0
 20
0.0
 30
0.0
210
0.0
220
0.0
230
1.0
  2
SOLID
 70
     1
 71
     0
 91
        1
 92
        1
 93
        3
 72
     1
 10
267.522431626057
 20
534.6697391199011
 11
286.4644626129342
 21
524.3065524370789
 72
     2
 10
287.4390084810923
 20
523.1662628462922
 40
1.499999999999999
 50
-589.4812206344872
 51
-550.5387793655085
 73
     1
 72
     1
 10
285.9643114706035
 20
523.4406143129469
 11
267.5224316260578
 21
534.6697391199005
 97
        0
 75
     0
 76
     1
 98
        1
 10
161.2839419110523
 20
333.2498987198192
450
        0
451
        0
460
0.0
461
0.0
452
        0
462
0.0
453
        0
470

  0
CIRCLE
  5
10001066
330
F6
100
AcDbEntity
  8
外形線
100
AcDbCircle
 10
287.4390084810923
 20
523.166262846292
 30
0.0
 40
15.5
  0
LINE
  5
10001067
330
F6
100
AcDbEntity
  8
中心線
 48
0.5
100
AcDbLine
 10
264.3392491226897
 20
536.5082912299637
 30
0.0
 11
310.8796477740144
 21
509.6273480063064
 31
0.0
  0
CIRCLE
  5
10001068
330
F6
100
AcDbEntity
  8
外形線
100
AcDbCircle
 10
287.4390084810923
 20
523.166262846292
 30
0.0
 40
23.0
  0
LINE
  5
10001069
330
F6
100
AcDbEntity
  8
外形線
  6
Continuous
100
AcDbLine
 10
244.8509805227998
 20
500.4159458368065
 30
0.0
 11
245.8841309556629
 21
501.2049960145994
 31
0.0
  0
TEXT
  5
1000106A
330
F6
100
AcDbEntity
  8
文字
100
AcDbText
 10
269.3234334966775
 20
519.3198732842984
 30
0.0
 40
2.0
  1
.8
 50
59.99000000000019
  7
STYLE3
100
AcDbText
  0
LINE
  5
1000106B
330
F6
100
AcDbEntity
  8
目盛
100
AcDbLine
 10
264.6512637000961
 20
520.0487818445565
 30
0.0
 11
266.6328067245305
 21
520.3198671490552
 31
0.0
  0
LINE
  5
1000106C
330
F6
100
AcDbEntity
  8
目盛
100
AcDbLine
 10
265.2216758485865
 20
517.2173023743612
 30
0.0
 11
268.1195888006525
 21
517.9932537402653
 31
0.0
  0
LINE
  5
1000106D
330
F6
100
AcDbEntity
  8
目盛
100
AcDbLine
 10
266.1424686046827
 20
514.4796415645453
 30
0.0
 11
267.994341637414
 21
515.2349999368712
 31
0.0
  0
LINE
  5
1000106E
330
F6
100
AcDbEntity
  8
目盛
100
AcDbLine
 10
265.6390549981619
 20
515.834003430391
 30
0.0
 11
267.5347031271122
 21
516.471591205687
 31
0.0
  0
LINE
  5
1000106F
330
F6
100
AcDbEntity
  8
目盛
100
AcDbLine
 10
265.4195001252242
 20
516.5223745445623
 30
0.0
 11
267.3342399822563
 21
517.1001039621041
 31
0.0
  0
LINE
  5
10001070
330
F6
100
AcDbEntity
  8
目盛
100
AcDbLine
 10
265.8801237932467
 20
515.1528683710291
 30
0.0
 11
267.7548094182768
 21
515.8496852819214
 31
0.0
  0
LINE
  5
10001071
330
F6
100
AcDbEntity
  8
目盛
100
AcDbLine
 10
264.891978360778
 20
518.6240791474924
 30
0.0
 11
266.8525896755879
 21
519.0190516430404
 31
0.0
  0
LINE
  5
10001072
330
F6
100
AcDbEntity
  8
目盛
100
AcDbLine
 10
265.0457773969261
 20
517.9181011099192
 30
0.0
 11
266.9930148825057
 21
518.3744630000385
 31
0.0
  0
LINE
  5
10001073
330
F6
100
AcDbEntity
  8
目盛
100
AcDbLine
 10
264.7604305212227
 20
519.3345397719922
 30
0.0
 11
266.7324807786027
 21
519.6677330828006
 31
0.0
  0
LINE
  5
10001074
330
F6
100
AcDbEntity
  8
目盛
100
AcDbLine
 10
269.4115657901477
 20
508.8830100646354
 30
0.0
 11
270.9791695024037
 21
510.125032045649
 31
0.0
  0
LINE
  5
10001075
330
F6
100
AcDbEntity
  8
目盛
100
AcDbLine
 10
269.8691090568523
 20
508.3238023285044
 30
0.0
 11
271.3969263980905
 21
509.6144510691815
 31
0.0
  0
LINE
  5
10001076
330
F6
100
AcDbEntity
  8
目盛
100
AcDbLine
 10
270.3439916930494
 20
507.7792423089519
 30
0.0
 11
272.5737764914896
 21
509.7862449877354
 31
0.0
  0
LINE
  5
10001077
330
F6
100
AcDbEntity
  8
目盛
100
AcDbLine
 10
272.9615200435858
 20
505.2944322589722
 30
0.0
 11
274.8498881006519
 21
507.6255405964488
 31
0.0
  0
LINE
  5
10001078
330
F6
100
AcDbEntity
  8
目盛
100
AcDbLine
 10
272.4072960453224
 20
505.7579998298876
 30
0.0
 11
273.7144014745197
 21
507.2717618313141
 31
0.0
  0
LINE
  5
10001079
330
F6
100
AcDbEntity
  8
目盛
100
AcDbLine
 10
273.5300315750492
 20
504.848502027154
 30
0.0
 11
274.7395078277485
 21
506.4413507940356
 31
0.0
  0
LINE
  5
1000107A
330
F6
100
AcDbEntity
  8
目盛
100
AcDbLine
 10
271.8679065324319
 20
506.2387472546754
 30
0.0
 11
273.2219153975329
 21
507.7107051322074
 31
0.0
  0
LINE
  5
1000107B
330
F6
100
AcDbEntity
  8
目盛
100
AcDbLine
 10
270.8357450469096
 20
507.2498674209726
 30
0.0
 11
272.2795070846646
 21
508.6339018057832
 31
0.0
  0
LINE
  5
1000107C
330
F6
100
AcDbEntity
  8
目盛
100
AcDbLine
 10
271.3438838172431
 20
506.7362000936683
 30
0.0
 11
272.7434598749693
 21
508.1649012025921
 31
0.0
  0
TEXT
  5
1000107D
330
F6
100
AcDbEntity
  8
文字
100
AcDbText
 10
271.1929501788992
 20
513.949785460252
 30
0.0
 40
2.0
  1
.7
 50
59.99000000000019
  7
STYLE3
100
AcDbText
  0
LINE
  5
1000107E
330
F6
100
AcDbEntity
  8
目盛
100
AcDbLine
 10
268.1473993909421
 20
510.6429318711546
 30
0.0
 11
270.6636962287877
 21
512.2764098244338
 31
0.0
  0
LINE
  5
1000107F
330
F6
100
AcDbEntity
  8
目盛
100
AcDbLine
 10
268.5502859675919
 20
510.0431472936507
 30
0.0
 11
270.1927835774615
 21
511.1842877764892
 31
0.0
  0
LINE
  5
10001080
330
F6
100
AcDbEntity
  8
目盛
100
AcDbLine
 10
267.3991205165663
 20
511.8789739614779
 30
0.0
 11
269.1417194700032
 21
512.8604773427662
 31
0.0
  0
LINE
  5
10001081
330
F6
100
AcDbEntity
  8
目盛
100
AcDbLine
 10
267.7635513033605
 20
511.2550754643708
 30
0.0
 11
269.4744606231631
 21
512.2908308888859
 31
0.0
  0
LINE
  5
10001082
330
F6
100
AcDbEntity
  8
目盛
100
AcDbLine
 10
267.0544666797482
 20
512.5140116499835
 30
0.0
 11
268.8270355320388
 21
513.4402943627065
 31
0.0
  0
LINE
  5
10001083
330
F6
100
AcDbEntity
  8
目盛
100
AcDbLine
 10
266.4258305298144
 20
513.8149874045175
 30
0.0
 11
269.1666798278072
 21
515.0347189838796
 31
0.0
  0
LINE
  5
10001084
330
F6
100
AcDbEntity
  8
目盛
100
AcDbLine
 10
266.7299299246323
 20
513.1595618243582
 30
0.0
 11
268.5307193643246
 21
514.029709739309
 31
0.0
  0
LINE
  5
10001085
330
F6
100
AcDbEntity
  8
目盛
100
AcDbLine
 10
268.971813432899
 20
509.4563136468241
 30
0.0
 11
270.5776564805682
 21
510.6484831424301
 31
0.0
  0
LINE
  5
10001086
330
F6
100
AcDbEntity
  8
目盛
100
AcDbLine
 10
265.492681686169
 20
530.048031529591
 30
0.0
 11
267.4010579292058
 21
529.449616861478
 31
0.0
  0
LINE
  5
10001087
330
F6
100
AcDbEntity
  8
目盛
100
AcDbLine
 10
265.7196724517787
 20
530.7339865757739
 30
0.0
 11
267.6083103673709
 21
530.0759236427757
 31
0.0
  0
LINE
  5
10001088
330
F6
100
AcDbEntity
  8
目盛
100
AcDbLine
 10
265.968097579842
 20
531.4124731922984
 30
0.0
 11
268.7686511756575
 21
530.3368805384716
 31
0.0
  0
LINE
  5
10001089
330
F6
100
AcDbEntity
  8
目盛
100
AcDbLine
 10
264.5645856318705
 20
520.7661004944916
 30
0.0
 11
267.5482060035081
 21
521.0791651490744
 31
0.0
  0
LINE
  5
1000108A
330
F6
100
AcDbEntity
  8
目盛
100
AcDbLine
 10
264.4402278995409
 20
522.9294258524419
 30
0.0
 11
266.4401218631539
 21
522.9500203736465
 31
0.0
  0
LINE
  5
1000108B
330
F6
100
AcDbEntity
  8
目盛
100
AcDbLine
 10
264.520008971825
 20
525.094853392316
 30
0.0
 11
266.5129654508917
 21
524.927149866575
 31
0.0
  0
LINE
  5
1000108C
330
F6
100
AcDbEntity
  8
目盛
100
AcDbLine
 10
264.4441371796649
 20
523.6519518731393
 30
0.0
 11
266.4436912058761
 21
523.6097180447177
 31
0.0
  0
LINE
  5
1000108D
330
F6
100
AcDbEntity
  8
目盛
100
AcDbLine
 10
264.5004818573345
 20
521.4857878148928
 30
0.0
 11
266.495136346357
 21
521.6319160784928
 31
0.0
  0
LINE
  5
1000108E
330
F6
100
AcDbEntity
  8
目盛
100
AcDbLine
 10
264.4590156391743
 20
522.2071335612636
 30
0.0
 11
266.4572758862976
 21
522.2905361077878
 31
0.0
  0
LINE
  5
1000108F
330
F6
100
AcDbEntity
  8
目盛
100
AcDbLine
 10
264.9424486178836
 20
527.952158198374
 30
0.0
 11
267.8767825130845
 21
527.3279109785371
 31
0.0
  0
LINE
  5
10001090
330
F6
100
AcDbEntity
  8
目盛
100
AcDbLine
 10
264.8032207062776
 20
527.2431626259719
 30
0.0
 11
266.7715500780007
 21
526.8886496016518
 31
0.0
  0
LINE
  5
10001091
330
F6
100
AcDbEntity
  8
目盛
100
AcDbLine
 10
264.4707396215592
 20
524.3739985774052
 30
0.0
 11
267.4666007771504
 21
524.2164678298689
 31
0.0
  0
LINE
  5
10001092
330
F6
100
AcDbEntity
  8
目盛
100
AcDbLine
 10
264.5918966075624
 20
525.8138049211997
 30
0.0
 11
266.5786019878693
 21
525.583583871208
 31
0.0
  0
LINE
  5
10001093
330
F6
100
AcDbEntity
  8
目盛
100
AcDbLine
 10
264.6863315843533
 20
526.5301436456972
 30
0.0
 11
266.6648252275479
 21
526.237632271836
 31
0.0
  0
LINE
  5
10001094
330
F6
100
AcDbEntity
  8
目盛
100
AcDbLine
 10
265.1038779180324
 20
528.6564306698717
 30
0.0
 11
267.0460631843854
 21
528.1790247721692
 31
0.0
  0
LINE
  5
10001095
330
F6
100
AcDbEntity
  8
目盛
100
AcDbLine
 10
265.2873492954936
 20
529.3552850085636
 30
0.0
 11
267.2135805290237
 21
528.8171091683659
 31
0.0
  0
TEXT
  5
10001096
330
F6
100
AcDbEntity
  8
文字
100
AcDbText
 10
269.9401932583135
 20
524.8573011434564
 30
0.0
 40
2.0
  1
.9
 50
59.99000000000019
  7
STYLE3
100
AcDbText
  0
LINE
  5
10001097
330
F6
100
AcDbEntity
  8
目盛
100
AcDbLine
 10
270.5114928894757
 20
538.7373647949525
 30
0.0
 11
271.9834507670075
 21
537.3833559298516
 31
0.0
  0
LINE
  5
10001098
330
F6
100
AcDbEntity
  8
目盛
100
AcDbLine
 10
270.0307454646876
 20
538.1979752820621
 30
0.0
 11
271.5445074661142
 21
536.8908698528651
 31
0.0
  0
LINE
  5
10001099
330
F6
100
AcDbEntity
  8
目盛
100
AcDbLine
 10
269.121247661954
 20
537.0752397523354
 30
0.0
 11
270.7140964288356
 21
535.8657634996361
 31
0.0
  0
LINE
  5
1000109A
330
F6
100
AcDbEntity
  8
目盛
100
AcDbLine
 10
269.5671778937723
 20
537.6437512837985
 30
0.0
 11
271.8982862312488
 21
535.7553832267326
 31
0.0
  0
LINE
  5
1000109B
330
F6
100
AcDbEntity
  8
目盛
100
AcDbLine
 10
268.6933948485342
 20
536.4930017399173
 30
0.0
 11
270.3234482078873
 21
535.334154879602
 31
0.0
  0
LINE
  5
1000109C
330
F6
100
AcDbEntity
  8
目盛
100
AcDbLine
 10
267.1709263326651
 20
534.0384680515212
 30
0.0
 11
268.9333682586154
 21
533.0930589032404
 31
0.0
  0
LINE
  5
1000109D
330
F6
100
AcDbEntity
  8
目盛
100
AcDbLine
 10
266.8394231893583
 20
533.3964674292213
 30
0.0
 11
268.630691475596
 21
532.5068844220099
 31
0.0
  0
LINE
  5
1000109E
330
F6
100
AcDbEntity
  8
目盛
100
AcDbLine
 10
267.522431626057
 20
534.6697391199011
 30
0.0
 11
270.120245998453
 21
533.1692856929085
 31
0.0
  0
LINE
  5
1000109F
330
F6
100
AcDbEntity
  8
目盛
100
AcDbLine
 10
267.8935921762477
 20
535.2896576460304
 30
0.0
 11
269.5931935940603
 21
534.2354494025748
 31
0.0
  0
LINE
  5
100010A0
330
F6
100
AcDbEntity
  8
目盛
100
AcDbLine
 10
268.2840416925843
 20
535.8976118451676
 30
0.0
 11
269.9496909785416
 21
534.7905380191782
 31
0.0
  0
LINE
  5
100010A1
330
F6
100
AcDbEntity
  8
目盛
100
AcDbLine
 10
266.5282493497165
 20
532.7443708301053
 30
0.0
 11
268.3465762307057
 21
531.911491874991
 31
0.0
  0
LINE
  5
100010A2
330
F6
100
AcDbEntity
  8
目盛
100
AcDbLine
 10
266.2377119047505
 20
532.0828217947883
 30
0.0
 11
268.081302911389
 21
531.3074688427453
 31
0.0
  0
LINE
  5
100010A3
330
F6
100
AcDbEntity
  8
目盛
100
AcDbLine
 10
273.7290592816245
 20
541.6334578944854
 30
0.0
 11
274.9212287772305
 21
540.0276148468164
 31
0.0
  0
LINE
  5
100010A4
330
F6
100
AcDbEntity
  8
目盛
100
AcDbLine
 10
272.5965479633044
 20
540.736162270532
 30
0.0
 11
273.8871967039818
 21
539.2083449292938
 31
0.0
  0
LINE
  5
100010A5
330
F6
100
AcDbEntity
  8
目盛
100
AcDbLine
 10
272.051987943752
 20
540.2612796343353
 30
0.0
 11
274.0589906225355
 21
538.0314948358948
 31
0.0
  0
LINE
  5
100010A6
330
F6
100
AcDbEntity
  8
目盛
100
AcDbLine
 10
273.1557556994354
 20
541.193705537237
 30
0.0
 11
274.3977776804491
 21
539.6261018249808
 31
0.0
  0
LINE
  5
100010A7
330
F6
100
AcDbEntity
  8
目盛
100
AcDbLine
 10
271.0089457284685
 20
539.2613875101412
 30
0.0
 11
272.4376468373922
 21
537.8618114524151
 31
0.0
  0
TEXT
  5
100010A8
330
F6
100
AcDbEntity
  8
文字
100
AcDbText
 10
272.295088141273
 20
530.7793762665347
 30
0.0
 40
2.0
  1
0
 50
59.99000000000019
  7
STYLE3
100
AcDbText
  0
LINE
  5
100010A9
330
F6
100
AcDbEntity
  8
目盛
100
AcDbLine
 10
271.5226130557729
 20
539.769526280475
 30
0.0
 11
272.9066474405834
 21
538.3257642427199
 31
0.0
  0
LINE
  5
100010AA
330
F6
100
AcDbEntity
  8
目盛
100
AcDbLine
 10
298.3112136863214
 20
543.4343449947191
 30
0.0
 11
297.3658045380405
 21
541.6719030687691
 31
0.0
  0
LINE
  5
100010AB
330
F6
100
AcDbEntity
  8
目盛
100
AcDbLine
 10
297.4420313277085
 20
540.4850253289317
 30
0.0
 11
298.9424847547009
 21
543.0828397013274
 31
0.0
  0
TEXT
  5
100010AC
330
F6
100
AcDbEntity
  8
文字
100
AcDbText
 10
291.3436276354931
 20
538.9411908979043
 30
0.0
 40
2.0
  1
.4
 50
59.99000000000019
  7
STYLE3
100
AcDbText
  0
TEXT
  5
100010AD
330
F6
100
AcDbEntity
  8
文字
100
AcDbText
 10
285.8319218906828
 20
539.1129571218304
 30
0.0
 40
2.0
  1
.3
 50
59.99000000000019
  7
STYLE3
100
AcDbText
  0
LINE
  5
100010AE
330
F6
100
AcDbEntity
  8
目盛
100
AcDbLine
 10
278.0877330393177
 20
544.1794407975701
 30
0.0
 11
279.3074646186797
 21
541.438591499577
 31
0.0
  0
LINE
  5
100010AF
330
F6
100
AcDbEntity
  8
目盛
100
AcDbLine
 10
276.1517195962785
 20
543.2061508108181
 30
0.0
 11
277.1332229775666
 21
541.4635518573811
 31
0.0
  0
LINE
  5
100010B0
330
F6
100
AcDbEntity
  8
目盛
100
AcDbLine
 10
275.527821099171
 20
542.8417200240241
 30
0.0
 11
276.5635765236859
 21
541.1308107042214
 31
0.0
  0
LINE
  5
100010B1
330
F6
100
AcDbEntity
  8
目盛
100
AcDbLine
 10
300.7657473747171
 20
541.9118764788501
 30
0.0
 11
299.6069005144019
 21
540.2818231194974
 31
0.0
  0
LINE
  5
100010B2
330
F6
100
AcDbEntity
  8
目盛
100
AcDbLine
 10
300.1703574799673
 20
542.3212296347998
 30
0.0
 11
299.063283653978
 21
540.6555803488429
 31
0.0
  0
LINE
  5
100010B3
330
F6
100
AcDbEntity
  8
目盛
100
AcDbLine
 10
299.5624032808304
 20
542.7116791511366
 30
0.0
 11
298.5081950373749
 21
541.012077733324
 31
0.0
  0
TEXT
  5
100010B4
330
F6
100
AcDbEntity
  8
文字
100
AcDbText
 10
290.9539088095221
 20
528.4901203174731
 30
0.0
 40
1.0
  1
0.01mm
 50
59.99000000000019
  7
STYLE3
100
AcDbText
  0
TEXT
  5
100010B5
330
F6
100
AcDbEntity
  8
文字
100
AcDbText
 10
293.4214374733366
 20
518.1398731190795
 30
0.0
 40
0.7
  1
8
 50
59.99000000000019
  7
STYLE3
100
AcDbText
  0
LINE
  5
100010B6
330
F6
100
AcDbEntity
  8
中心線
 48
0.2
100
AcDbLine
 10
290.689579504644
 20
518.1489414663064
 30
0.0
 11
293.8184845013393
 21
516.3417391215541
 31
0.0
  0
LINE
  5
100010B7
330
F6
100
AcDbEntity
  8
中心線
 48
0.2
100
AcDbLine
 10
290.4895190477118
 20
517.8025662166537
 30
0.0
 11
293.6184240444071
 21
515.9953638719014
 31
0.0
  0
HATCH
  5
100010B8
330
F6
100
AcDbEntity
  8
ﾊｯﾁﾝｸ
100
AcDbHatch
 10
0.0
 20
0.0
 30
0.0
210
0.0
220
0.0
230
1.0
  2
SOLID
 70
     1
 71
     0
 91
        3
 92
        7
 72
     1
 73
     1
 93
        5
 10
290.689579504644
 20
518.1489414663064
 42
0.0105298176880202
 10
290.585901603504
 20
517.9778606752177
 42
0.0
 10
291.01887066557
 20
517.7277851040523
 42
0.0
 10
293.7032788503791
 20
516.1773165628267
 42
-0.0437283108272093
 10
293.8184845013393
 20
516.3417391215541
 42
0.0
 97
        0
 92
        7
 72
     1
 73
     1
 93
        4
 10
290.5859016035042
 20
517.9778606752177
 42
0.0105298176880232
 10
290.4895190477118
 20
517.8025662166537
 42
0.0
 10
293.6184240444071
 20
515.9953638719014
 42
-0.0437283108272093
 10
293.7032788503791
 20
516.1773165628267
 42
0.0
 97
        0
 92
      137
 93
        4
 72
     1
 10
291.9968779942183
 20
516.4774985665587
 11
292.5803876602709
 21
517.4877597113793
 72
     1
 10
292.580387660271
 20
517.4877597113796
 11
291.281480474073
 21
518.2379864248757
 72
     1
 10
291.2814804740731
 20
518.2379864248757
 11
290.6979708080204
 21
517.2277252800552
 72
     1
 10
290.6979708080204
 20
517.2277252800552
 11
291.9968779942184
 21
516.4774985665591
 97
        0
 75
     0
 76
     1
 47
0.0128177587452554
 98
        3
 10
293.3154328013883
 20
516.5730540755114
 10
292.2335935297094
 20
517.1090196977607
 10
292.1881654800222
 20
516.9278563669979
450
        0
451
        0
460
0.0
461
0.0
452
        0
462
0.0
453
        0
470

  0
CIRCLE
  5
100010B9
330
F6
100
AcDbEntity
  8
外形線
100
AcDbCircle
 10
294.6991076931311
 20
515.6021427491461
 30
0.0
 40
4.75
  0
LINE
  5
100010BA
330
F6
100
AcDbEntity
  8
中心線
 48
0.2
100
AcDbLine
 10
291.2184182585935
 20
509.5758410484586
 30
0.0
 11
298.4846077764684
 21
522.156179246575
 31
0.0
  0
LINE
  5
100010BB
330
F6
100
AcDbEntity
  8
中心線
 48
0.2
100
AcDbLine
 10
287.8900566113025
 20
519.5349349220041
 30
0.0
 11
301.4762742271362
 21
511.6877665491765
 31
0.0
  0
LINE
  5
100010BC
330
F6
100
AcDbEntity
  8
目盛
100
AcDbLine
 10
293.3879689530231
 20
500.9489302137863
 30
0.0
 11
292.612017587119
 21
503.8468431658524
 31
0.0
  0
TEXT
  5
100010BD
330
F6
100
AcDbEntity
  8
文字
100
AcDbText
 10
283.2009529994804
 20
503.9138112651765
 30
0.0
 40
2.0
  1
.4
 50
59.99000000000019
  7
STYLE3
100
AcDbText
  0
LINE
  5
100010BE
330
F6
100
AcDbEntity
  8
目盛
100
AcDbLine
 10
279.192798135086
 20
501.6953519450422
 30
0.0
 11
280.2683907889129
 21
504.4959055408572
 31
0.0
  0
LINE
  5
100010BF
330
F6
100
AcDbEntity
  8
目盛
100
AcDbLine
 10
278.5224495325963
 20
501.9649662699507
 30
0.0
 11
279.2978024846395
 21
503.808557276589
 31
0.0
  0
TEXT
  5
100010C0
330
F6
100
AcDbEntity
  8
文字
100
AcDbText
 10
278.3043811021993
 20
505.5443906116986
 30
0.0
 40
2.0
  1
.5
 50
59.99000000000019
  7
STYLE3
100
AcDbText
  0
LINE
  5
100010C1
330
F6
100
AcDbEntity
  8
目盛
100
AcDbLine
 10
277.860900497279
 20
502.2555037149163
 30
0.0
 11
278.6937794523933
 21
504.0738305959055
 31
0.0
  0
LINE
  5
100010C2
330
F6
100
AcDbEntity
  8
目盛
100
AcDbLine
 10
277.2088038981633
 20
502.566677554558
 30
0.0
 11
278.0983869053746
 21
504.3579458407958
 31
0.0
  0
LINE
  5
100010C3
330
F6
100
AcDbEntity
  8
目盛
100
AcDbLine
 10
275.315613681354
 20
503.6208465414475
 30
0.0
 11
276.3698219248095
 21
505.3204479592602
 31
0.0
  0
LINE
  5
100010C4
330
F6
100
AcDbEntity
  8
目盛
100
AcDbLine
 10
275.9355322074835
 20
503.2496859912574
 30
0.0
 11
277.4359856344759
 21
505.8475003636531
 31
0.0
  0
LINE
  5
100010C5
330
F6
100
AcDbEntity
  8
目盛
100
AcDbLine
 10
276.5668032758631
 20
502.8981806978651
 30
0.0
 11
277.5122124241439
 21
504.6606226238153
 31
0.0
  0
LINE
  5
100010C6
330
F6
100
AcDbEntity
  8
目盛
100
AcDbLine
 10
279.8712847516106
 20
501.4469268169786
 30
0.0
 11
280.5293476846086
 21
503.3355647325713
 31
0.0
  0
LINE
  5
100010C7
330
F6
100
AcDbEntity
  8
目盛
100
AcDbLine
 10
282.6531131290106
 20
500.6697029830838
 30
0.0
 11
283.2773603488473
 21
503.6040368782849
 31
0.0
  0
LINE
  5
100010C8
330
F6
100
AcDbEntity
  8
目盛
100
AcDbLine
 10
280.5572397977933
 20
501.219936051369
 30
0.0
 11
281.1556544659062
 21
503.1283122944058
 31
0.0
  0
LINE
  5
100010C9
330
F6
100
AcDbEntity
  8
目盛
100
AcDbLine
 10
281.2499863188209
 20
501.0146036606935
 30
0.0
 11
281.7881621590184
 21
502.9408348942241
 31
0.0
  0
LINE
  5
100010CA
330
F6
100
AcDbEntity
  8
目盛
100
AcDbLine
 10
281.9488406575125
 20
500.8311322832323
 30
0.0
 11
282.4262465552152
 21
502.7733175495852
 31
0.0
  0
LINE
  5
100010CB
330
F6
100
AcDbEntity
  8
目盛
100
AcDbLine
 10
283.3621087014123
 20
500.5304750714772
 30
0.0
 11
283.7166217257323
 21
502.4988044432007
 31
0.0
  0
TEXT
  5
100010CC
330
F6
100
AcDbEntity
  8
文字
100
AcDbText
 10
289.3065577564389
 20
503.3815901981948
 30
0.0
 40
2.0
  1
.3
 50
59.99000000000019
  7
STYLE3
100
AcDbText
  0
LINE
  5
100010CD
330
F6
100
AcDbEntity
  8
目盛
100
AcDbLine
 10
287.6758454749424
 20
500.1674822647408
 30
0.0
 11
287.6552509537381
 21
502.1673762283539
 31
0.0
  0
LINE
  5
100010CE
330
F6
100
AcDbEntity
  8
目盛
100
AcDbLine
 10
288.3981377661207
 20
500.1862700043743
 30
0.0
 11
288.3147352195965
 21
502.1845302514974
 31
0.0
  0
LINE
  5
100010CF
330
F6
100
AcDbEntity
  8
目盛
100
AcDbLine
 10
286.9533194542451
 20
500.1713915448652
 30
0.0
 11
286.9955532826669
 21
502.1709455710761
 31
0.0
  0
LINE
  5
100010D0
330
F6
100
AcDbEntity
  8
目盛
100
AcDbLine
 10
285.5104179350683
 20
500.247263337025
 30
0.0
 11
285.6781214608094
 21
502.2402198160919
 31
0.0
  0
LINE
  5
100010D1
330
F6
100
AcDbEntity
  8
目盛
100
AcDbLine
 10
284.0751276816872
 20
500.4135859495534
 30
0.0
 11
284.3676390555485
 21
502.392079592748
 31
0.0
  0
LINE
  5
100010D2
330
F6
100
AcDbEntity
  8
目盛
100
AcDbLine
 10
284.7914664061843
 20
500.3191509727624
 30
0.0
 11
285.0216874561763
 21
502.3058563530693
 31
0.0
  0
LINE
  5
100010D3
330
F6
100
AcDbEntity
  8
目盛
100
AcDbLine
 10
286.231272749979
 20
500.1979939867592
 30
0.0
 11
286.3888034975154
 21
503.1938551423505
 31
0.0
  0
LINE
  5
100010D4
330
F6
100
AcDbEntity
  8
目盛
100
AcDbLine
 10
291.981192179892
 20
500.6192327259777
 30
0.0
 11
291.5862196843442
 21
502.5798440407879
 31
0.0
  0
LINE
  5
100010D5
330
F6
100
AcDbEntity
  8
目盛
100
AcDbLine
 10
292.6871702174656
 20
500.7730317621262
 30
0.0
 11
292.2308083273462
 21
502.7202692477056
 31
0.0
  0
LINE
  5
100010D6
330
F6
100
AcDbEntity
  8
目盛
100
AcDbLine
 10
289.1194835124917
 20
500.2277362225342
 30
0.0
 11
288.9733552488917
 21
502.2223907115567
 31
0.0
  0
LINE
  5
100010D7
330
F6
100
AcDbEntity
  8
目盛
100
AcDbLine
 10
289.8391708328932
 20
500.2918399970706
 30
0.0
 11
289.5261061783103
 21
503.2754603687081
 31
0.0
  0
LINE
  5
100010D8
330
F6
100
AcDbEntity
  8
目盛
100
AcDbLine
 10
290.5564894828278
 20
500.3785180652959
 30
0.0
 11
290.2854041783291
 21
502.3600610897304
 31
0.0
  0
LINE
  5
100010D9
330
F6
100
AcDbEntity
  8
目盛
100
AcDbLine
 10
291.2707315553925
 20
500.4876848864226
 30
0.0
 11
290.9375382445837
 21
502.4597351438027
 31
0.0
  0
LINE
  5
100010DA
330
F6
100
AcDbEntity
  8
目盛
100
AcDbLine
 10
292.7678660258079
 20
519.9418208043016
 30
0.0
 11
292.9711546223683
 21
519.4850125879695
 31
0.0
  0
LINE
  5
100010DB
330
F6
100
AcDbEntity
  8
目盛
100
AcDbLine
 10
290.585901603504
 20
517.9778606752177
 30
0.0
 11
291.01887066557
 21
517.7277851040523
 31
0.0
  0
TEXT
  5
100010DC
330
F6
100
AcDbEntity
  8
文字
100
AcDbText
 10
291.8821184109198
 20
516.8658460706772
 30
0.0
 40
0.7
  1
0
 50
59.99000000000019
  7
STYLE3
100
AcDbText
  0
LINE
  5
100010DD
330
F6
100
AcDbEntity
  8
目盛
100
AcDbLine
 10
291.1686150956002
 20
512.4243885077391
 30
0.0
 11
291.5402458953405
 21
512.7588889542032
 31
0.0
  0
LINE
  5
100010DE
330
F6
100
AcDbEntity
  8
目盛
100
AcDbLine
 10
289.9750421047048
 20
515.1064570460571
 30
0.0
 11
290.4723121666442
 21
515.1586344884877
 31
0.0
  0
TEXT
  5
100010DF
330
F6
100
AcDbEntity
  8
文字
100
AcDbText
 10
292.3351438029818
 20
513.0926979201797
 30
0.0
 40
0.7
  1
4
 50
59.99000000000019
  7
STYLE3
100
AcDbText
  0
TEXT
  5
100010E0
330
F6
100
AcDbEntity
  8
文字
100
AcDbText
 10
291.6415635132406
 20
514.9376126760323
 30
0.0
 40
0.7
  1
2
 50
59.99000000000019
  7
STYLE3
100
AcDbText
  0
HATCH
  5
100010E1
330
F6
100
AcDbEntity
  8
ROGO
 62
     4
100
AcDbHatch
 10
0.0
 20
0.0
 30
0.0
210
0.0
220
0.0
230
1.0
  2
SOLID
 70
     1
 71
     1
 91
        1
 92
        7
 72
     0
 73
     1
 93
       11
 10
283.4033608351019
 20
531.7914757126954
 10
283.781516982613
 20
532.4461974503662
 10
283.4513170833124
 20
532.9453083382619
 10
284.0486469966826
 20
532.908693771388
 10
284.4267948704414
 20
533.5634011842735
 10
283.2825342601944
 20
533.6335409942805
 10
283.0157764560109
 20
535.2229478207773
 10
282.6376285822521
 20
534.5682404078913
 10
282.654558944747
 20
534.1496414189811
 10
282.5164380712111
 20
534.3584168667429
 10
282.1382819236999
 20
533.7036951290722
 97
       11
330
1000112B
330
10001129
330
1000112A
330
10001126
330
10001128
330
100010E9
330
1000111E
330
100010E3
330
1000112F
330
100010E2
330
1000111D
 75
     0
 76
     1
 47
0.0514683685270805
 98
        1
 10
282.8680183180604
 20
533.2070664143186
450
        0
451
        0
460
0.0
461
0.0
452
        0
462
0.0
453
        0
470

  0
LINE
  5
100010E2
102
{ACAD_REACTORS
330
100010E1
102
}
330
F6
100
AcDbEntity
  8
ROGO
 62
     4
100
AcDbLine
 10
283.2825342601944
 20
533.6335409942805
 30
0.0
 11
284.4267948704414
 21
533.5634011842735
 31
0.0
  0
LINE
  5
100010E3
102
{ACAD_REACTORS
330
100010E1
102
}
330
F6
100
AcDbEntity
  8
ROGO
 62
     4
100
AcDbLine
 10
283.4513170833123
 20
532.9453083382618
 30
0.0
 11
284.0486469966826
 21
532.908693771388
 31
0.0
  0
HATCH
  5
100010E4
330
F6
100
AcDbEntity
  8
ROGO
 62
     4
100
AcDbHatch
 10
0.0
 20
0.0
 30
0.0
210
0.0
220
0.0
230
1.0
  2
SOLID
 70
     1
 71
     1
 91
        2
 92
        5
 93
        6
 72
     4
 94
        3
 73
     0
 74
     0
 95
       38
 96
       34
 40
0.0
 40
0.0
 40
0.0
 40
0.0
 40
0.1807680148265013
 40
0.2375392910069014
 40
0.3104865209603737
 40
0.3712759982446718
 40
0.4225667543871336
 40
0.4906925837207608
 40
0.5255021974952654
 40
0.564706959705533
 40
0.6224874016816921
 40
0.687940104467272
 40
0.7303986317547928
 40
0.7765228362184616
 40
0.8277951442289449
 40
0.90560346969994
 40
0.979529493026396
 40
1.013897332332981
 40
1.053089255535906
 40
1.099518741889219
 40
1.132570569820449
 40
1.160277520290302
 40
1.199836786293811
 40
1.243305643169128
 40
1.286774258016755
 40
1.324809356515657
 40
1.411916492917567
 40
1.44628433222431
 40
1.515020051661053
 40
1.575779369908426
 40
1.692098529536101
 40
1.835624328519011
 40
2.042896467984035
 40
2.042896467984035
 40
2.042896467984035
 40
2.042896467984035
 10
280.2445323556269
 20
530.4358974754193
 10
280.2180815184321
 20
530.3815910765247
 10
280.1833236376209
 20
530.3102294282655
 10
280.1568909976486
 20
530.2093925959345
 10
280.1578956805325
 20
530.1455228502884
 10
280.1502560488756
 20
530.0840700405164
 10
280.1568637170587
 20
530.0240972344602
 10
280.1482006334452
 20
529.9722999428523
 10
280.15971260354
 20
529.9258770666098
 10
280.1573292994183
 20
529.8812187419843
 10
280.1807444022589
 20
529.8310361838339
 10
280.1997351578627
 20
529.7790937604816
 10
280.2059638871932
 20
529.7279615222034
 10
280.2172322777565
 20
529.6824407824724
 10
280.2451988073557
 20
529.6304994215407
 10
280.2937793165252
 20
529.5812589867568
 10
280.3043844304648
 20
529.5154275229704
 10
280.3443313268874
 20
529.4833650007324
 10
280.3558931837699
 20
529.4436617873448
 10
280.3830617653749
 20
529.4136091290129
 10
280.4112824886813
 20
529.3918401312089
 10
280.437007886374
 20
529.3704172494017
 10
280.4596238125475
 20
529.3401836324569
 10
280.4991742112908
 20
529.3229446818502
 10
280.5344301625181
 20
529.3009848364622
 10
280.5833672711679
 20
529.2736591994894
 10
280.629148641923
 20
529.243825492546
 10
280.6922803551742
 20
529.2344049026012
 10
280.7450445645399
 20
529.2199324690214
 10
280.8274878965822
 20
529.2161421788573
 10
280.9334519450333
 20
529.2305407976402
 10
281.0845920272348
 20
529.2870077204952
 10
281.153476480745
 20
529.3854534293418
 10
281.1941774840578
 20
529.4436209681366
 72
     1
 10
281.1941774840578
 20
529.4436209681365
 11
281.5695178209902
 21
530.0934675440327
 72
     4
 94
        3
 73
     0
 74
     0
 95
       11
 96
        7
 40
0.1647869275458135
 40
0.1647869275458135
 40
0.1647869275458135
 40
0.1647869275458135
 40
0.2545010798212315
 40
0.5111620267764023
 40
0.7602998271033902
 40
0.8850764140209603
 40
0.8850764140209603
 40
0.8850764140209603
 40
0.8850764140209603
 10
281.5695178209905
 20
530.0934675440335
 10
281.5749301137571
 20
530.1024346234282
 10
281.5958262978774
 20
530.1370553932436
 10
281.6217892510647
 20
530.2018534889018
 10
281.6499124775548
 20
530.2695637578567
 10
281.6655906698315
 20
530.31055923394
 10
281.6692127470038
 20
530.3246098415138
 72
     4
 94
        3
 73
     0
 74
     0
 95
        9
 96
        5
 40
0.0
 40
0.0
 40
0.0
 40
0.0
 40
0.1135793343550752
 40
0.2662938392177697
 40
0.2662938392177697
 40
0.2662938392177697
 40
0.2662938392177697
 10
281.6692127470038
 20
530.3246098415138
 10
281.6777948500651
 20
530.3617864235018
 10
281.6979161264021
 20
530.4489492406003
 10
281.6853681125662
 20
530.5378154061452
 10
281.678172062798
 20
530.5887784795308
 72
     4
 94
        3
 73
     0
 74
     0
 95
       25
 96
       21
 40
0.0
 40
0.0
 40
0.0
 40
0.0
 40
0.165525918914855
 40
0.3412380755365305
 40
0.5940540902285263
 40
0.7697671103696209
 40
0.9377330196075423
 40
1.11479469302833
 40
1.274661249598185
 40
1.574522170874768
 40
1.815540668866877
 40
2.15849091873445
 40
2.536227739636605
 40
2.738070817316548
 40
2.925680654369045
 40
3.162706124480894
 40
3.395643218188267
 40
3.648478129958861
 40
3.928509979727306
 40
4.337226830236035
 40
4.337226830236035
 40
4.337226830236035
 40
4.337226830236035
 10
281.678172062798
 20
530.5887784795308
 10
281.6749637636395
 20
530.6078298313803
 10
281.6637455670587
 20
530.6469297303172
 10
281.6477233515474
 20
530.7140416456038
 10
281.6219431711844
 20
530.779917191298
 10
281.61039218363
 20
530.8494829473941
 10
281.577148783422
 20
530.9014262431958
 10
281.5602911397357
 20
530.9583586217077
 10
281.5198341031106
 20
531.0213153740221
 10
281.4682139381066
 20
531.0847200003622
 10
281.3958346082694
 20
531.1585482084235
 10
281.3038482527904
 20
531.2239495604715
 10
281.2018428007657
 20
531.2647026867325
 10
281.1124733739945
 20
531.2724425506185
 10
281.039859516796
 20
531.2821242387483
 10
280.963111490197
 20
531.2774957608521
 10
280.8785103631247
 20
531.2705068036225
 10
280.7944611614174
 20
531.2403650235274
 10
280.6896512506614
 20
531.1980653937869
 10
280.645859542425
 20
531.1275746357077
 10
280.6198726925599
 20
531.0857440513161
 72
     1
 10
280.6198726925599
 20
531.0857440513161
 11
280.2445323556268
 21
530.4358974754182
 97
        6
330
100010E6
330
100010E7
330
10001110
330
10001111
330
10001112
330
10001113
 92
       20
 93
        1
 72
     3
 10
280.9176304149401
 20
530.2462853494953
 11
-0.0465916920888373
 21
0.2327967685806204
 40
0.6788083417438788
 50
0.0
 51
360.0
 73
     1
 97
        1
330
10001114
 75
     0
 76
     1
 47
0.088756267210375
 98
        2
 10
280.672393398606
 20
530.4484786064388
 10
280.672393398606
 20
530.4484786064388
450
        0
451
        0
460
0.0
461
0.0
452
        0
462
0.0
453
        0
470

  0
HATCH
  5
100010E5
330
F6
100
AcDbEntity
  8
ROGO
 62
     4
100
AcDbHatch
 10
0.0
 20
0.0
 30
0.0
210
0.0
220
0.0
230
1.0
  2
SOLID
 70
     1
 71
     1
 91
        1
 92
        7
 72
     0
 73
     1
 93
        4
 10
277.1803156531792
 20
521.4284045802843
 10
277.3118737441437
 20
521.2449619526021
 10
283.4033608351018
 20
531.7914757126954
 10
283.2765555663905
 20
531.9831471529059
 97
        4
330
100010E8
330
10001106
330
100010E9
330
10001128
 75
     0
 76
     1
 47
0.0514683685270805
 98
        1
 10
281.0767004827322
 20
528.0656616512653
450
        0
451
        0
460
0.0
461
0.0
452
        0
462
0.0
453
        0
470

  0
SPLINE
  5
100010E6
102
{ACAD_REACTORS
330
100010E4
102
}
330
F6
100
AcDbEntity
  8
ROGO
 62
     4
100
AcDbSpline
210
0.0
220
0.0
230
1.0
 70
     8
 71
     3
 72
    25
 73
    21
 74
     0
 42
0.0000000001
 43
0.0000000001
 40
0.0
 40
0.0
 40
0.0
 40
0.0
 40
0.4087168505087288
 40
0.6887487002771746
 40
0.9415836120477687
 40
1.17452070575514
 40
1.41154617586699
 40
1.599156012919487
 40
1.80099909059943
 40
2.178735911501585
 40
2.521686161369157
 40
2.762704659361267
 40
3.06256558063785
 40
3.222432137207705
 40
3.399493810628493
 40
3.567459719866414
 40
3.743172740007509
 40
3.995988754699505
 40
4.17170091132118
 40
4.337226830236035
 40
4.337226830236035
 40
4.337226830236035
 40
4.337226830236035
 10
280.6198726925599
 20
531.0857440513161
 30
0.0
 10
280.645859542425
 20
531.1275746357077
 30
0.0
 10
280.6896512506614
 20
531.1980653937869
 30
0.0
 10
280.7944611614174
 20
531.2403650235274
 30
0.0
 10
280.8785103631247
 20
531.2705068036225
 30
0.0
 10
280.963111490197
 20
531.2774957608521
 30
0.0
 10
281.039859516796
 20
531.2821242387483
 30
0.0
 10
281.1124733739945
 20
531.2724425506185
 30
0.0
 10
281.2018428007657
 20
531.2647026867325
 30
0.0
 10
281.3038482527904
 20
531.2239495604715
 30
0.0
 10
281.3958346082694
 20
531.1585482084235
 30
0.0
 10
281.4682139381066
 20
531.0847200003622
 30
0.0
 10
281.5198341031106
 20
531.0213153740221
 30
0.0
 10
281.5602911397357
 20
530.9583586217077
 30
0.0
 10
281.577148783422
 20
530.9014262431958
 30
0.0
 10
281.61039218363
 20
530.8494829473941
 30
0.0
 10
281.6219431711844
 20
530.779917191298
 30
0.0
 10
281.6477233515474
 20
530.7140416456038
 30
0.0
 10
281.6637455670587
 20
530.6469297303172
 30
0.0
 10
281.6749637636395
 20
530.6078298313803
 30
0.0
 10
281.678172062798
 20
530.5887784795308
 30
0.0
  0
LINE
  5
100010E7
102
{ACAD_REACTORS
330
100010E4
102
}
330
F6
100
AcDbEntity
  8
ROGO
 62
     4
100
AcDbLine
 10
280.2445323556272
 20
530.435897475419
 30
0.0
 11
280.6198726925597
 21
531.0857440513159
 31
0.0
  0
LINE
  5
100010E8
102
{ACAD_REACTORS
330
100010E5
102
}
330
F6
100
AcDbEntity
  8
ROGO
 62
     4
100
AcDbLine
 10
277.1731817739101
 20
521.4160533178174
 30
0.0
 11
283.2765555663905
 21
531.9831471529059
 31
0.0
  0
LINE
  5
100010E9
102
{ACAD_REACTORS
330
100010E5
330
100010E1
330
100010F1
102
}
330
F6
100
AcDbEntity
  8
ROGO
 62
     4
100
AcDbLine
 10
276.8348291064758
 20
520.4190293420231
 30
0.0
 11
283.781516982613
 21
532.4461974503661
 31
0.0
  0
HATCH
  5
100010EA
330
F6
100
AcDbEntity
  8
ROGO
 62
     4
100
AcDbHatch
 10
0.0
 20
0.0
 30
0.0
210
0.0
220
0.0
230
1.0
  2
SOLID
 70
     1
 71
     1
 91
        1
 92
        5
 93
        8
 72
     1
 10
280.1857817044419
 20
529.3463734216927
 11
279.8845524116867
 21
529.801694032286
 72
     1
 10
279.8845524116867
 20
529.801694032286
 11
279.2268354829757
 21
528.6629539290364
 72
     4
 94
        3
 73
     0
 74
     0
 95
       26
 96
       22
 40
0.0
 40
0.0
 40
0.0
 40
0.0
 40
0.238219534659247
 40
0.3976890672664337
 40
0.5126795869789984
 40
0.5985392873137064
 40
0.7099038249250742
 40
0.7911890807497832
 40
0.9379713068541047
 40
1.057449928672938
 40
1.138714535893056
 40
1.218398644003436
 40
1.360938021870149
 40
1.46173037480013
 40
1.516014844108016
 40
1.593124329220221
 40
1.648806818593663
 40
1.729472362005683
 40
1.775122082164199
 40
1.874460993765249
 40
1.919820003751124
 40
1.919820003751124
 40
1.919820003751124
 40
1.919820003751124
 10
279.2268354829758
 20
528.6629539290372
 10
279.1905728275525
 20
528.5905254488989
 10
279.1300351322179
 20
528.4696117095998
 10
279.1338733014928
 20
528.2962403435917
 10
279.1248890439916
 20
528.1760316879647
 10
279.1477715638686
 20
528.0733815673584
 10
279.1830246505895
 20
527.9874648172017
 10
279.2230638629618
 20
527.8816942546752
 10
279.2821793656493
 20
527.7801558402609
 10
279.3646418242835
 20
527.6982071034629
 10
279.4290451941159
 20
527.6306086388447
 10
279.5057221244825
 20
527.5637760700119
 10
279.6015934537544
 20
527.5141385764754
 10
279.6918841915938
 20
527.4702026199361
 10
279.7696827591791
 20
527.4619429622005
 10
279.8318507891945
 20
527.4678026316387
 10
279.9025487147387
 20
527.478111668029
 10
279.9589387974023
 20
527.501503293242
 10
280.0372322875629
 20
527.5025670973914
 10
280.0797548388982
 20
527.559026763821
 10
280.1168527811469
 20
527.5890991386902
 10
280.1284820147561
 20
527.5985260408667
 72
     1
 10
280.1284820147563
 20
527.5985260408669
 11
280.6941674686202
 21
528.5779271844586
 72
     1
 10
280.6941674686202
 20
528.5779271844586
 11
280.3929413658009
 21
529.0332429733305
 72
     1
 10
280.3929413658009
 20
529.0332429733305
 11
279.9729739440185
 21
528.3061311652475
 72
     4
 94
        3
 73
     0
 74
     0
 95
       16
 96
       12
 40
0.0
 40
0.0
 40
0.0
 40
0.0
 40
0.0719416665235162
 40
0.1446253590760785
 40
0.1879779149914732
 40
0.2295440936108388
 40
0.2751936323960479
 40
0.3070718656055231
 40
0.3373215422375683
 40
0.3986635435216763
 40
0.5242542460842601
 40
0.5242542460842601
 40
0.5242542460842601
 40
0.5242542460842601
 10
279.9729739440185
 20
528.3061311652475
 10
279.9538534557264
 20
528.2879259330593
 10
279.9154152651954
 20
528.2513276949371
 10
279.8503998048196
 20
528.2839584778319
 10
279.8084932888653
 20
528.3148671768958
 10
279.7880291632348
 20
528.3547641449656
 10
279.7790431297161
 20
528.3940168835186
 10
279.753620418922
 20
528.4213836103506
 10
279.7464213778701
 20
528.4628221805316
 10
279.7358128270935
 20
528.5350578616251
 10
279.7591170805899
 20
528.5947021257639
 10
279.7747740389983
 20
528.6347741136124
 72
     1
 10
279.7747740389984
 20
528.6347741136126
 11
280.1857817044419
 21
529.3463734216927
 97
        8
330
100010EE
330
100010EF
330
10001119
330
10001115
330
10001117
330
10001116
330
10001118
330
1000110F
 75
     0
 76
     1
 47
0.0514683685270805
 98
        1
 10
279.7099957380435
 20
528.9150085939414
450
        0
451
        0
460
0.0
461
0.0
452
        0
462
0.0
453
        0
470

  0
HATCH
  5
100010EB
330
F6
100
AcDbEntity
  8
ROGO
 62
     4
100
AcDbHatch
 10
0.0
 20
0.0
 30
0.0
210
0.0
220
0.0
230
1.0
  2
SOLID
 70
     1
 71
     1
 91
        2
 92
        7
 72
     0
 73
     1
 93
        8
 10
278.5197520214334
 20
527.4387429366572
 10
277.994391519617
 20
526.5291585152044
 10
278.6578834905861
 20
525.052401040658
 10
279.0216170342765
 20
525.6821521615678
 10
278.89529226816
 20
525.9633176477309
 10
279.3103561920947
 20
526.681939770659
 10
279.5824034248911
 20
526.6530712978603
 10
279.9486179535367
 20
527.2871178792349
 97
        8
330
10001105
330
10001104
330
10001103
330
10001102
330
100010F2
330
100010EC
330
1000111A
330
100010ED
 92
       22
 72
     0
 73
     1
 93
        3
 10
279.0234197721243
 20
526.7123882194445
 10
278.7620537280345
 20
526.2598713644864
 10
278.5354791637772
 20
526.7641663611843
 97
        3
330
100010F6
330
100010F5
330
100010F7
 75
     0
 76
     1
 47
0.0128389261915577
 98
        2
 10
278.751418949454
 20
527.2099467147746
 10
278.751418949454
 20
527.2099467147746
450
        0
451
        0
460
0.0
461
0.0
452
        0
462
0.0
453
        0
470

  0
LINE
  5
100010EC
102
{ACAD_REACTORS
330
100010EB
102
}
330
F6
100
AcDbEntity
  8
ROGO
 62
     4
100
AcDbLine
 10
279.3103561920947
 20
526.681939770659
 30
0.0
 11
279.5824034248911
 21
526.6530712978603
 31
0.0
  0
LINE
  5
100010ED
102
{ACAD_REACTORS
330
100010EB
102
}
330
F6
100
AcDbEntity
  8
ROGO
 62
     4
100
AcDbLine
 10
278.5197520214334
 20
527.4387429366572
 30
0.0
 11
279.9486179535368
 21
527.287117879235
 31
0.0
  0
LINE
  5
100010EE
102
{ACAD_REACTORS
330
100010EA
102
}
330
F6
100
AcDbEntity
  8
ROGO
 62
     4
100
AcDbLine
 10
279.2268354829761
 20
528.6629539290372
 30
0.0
 11
279.8845524116866
 21
529.8016940322859
 31
0.0
  0
SPLINE
  5
100010EF
102
{ACAD_REACTORS
330
100010EA
102
}
330
F6
100
AcDbEntity
  8
ROGO
 62
     4
100
AcDbSpline
210
0.0
220
0.0
230
1.0
 70
     8
 71
     3
 72
    26
 73
    22
 74
    20
 42
0.0000000001
 43
0.0000000001
 44
0.0000000001
 40
0.0
 40
0.0
 40
0.0
 40
0.0
 40
0.2382195346593735
 40
0.3976890672665602
 40
0.5126795869791251
 40
0.5985392873138444
 40
0.7099038249252122
 40
0.7911890807499212
 40
0.937971306854145
 40
1.057449928673062
 40
1.13871453589314
 40
1.21839864400349
 40
1.36093802187021
 40
1.461730374800191
 40
1.516014844108077
 40
1.593124329220282
 40
1.64880681859378
 40
1.729472362005745
 40
1.775122082164262
 40
1.874460993765383
 40
1.919820003751184
 40
1.919820003751184
 40
1.919820003751184
 40
1.919820003751184
 10
279.2268354829758
 20
528.6629539290372
 30
0.0
 10
279.1905728275525
 20
528.5905254488989
 30
0.0
 10
279.1300351322181
 20
528.4696117095998
 30
0.0
 10
279.1338733014927
 20
528.2962403435916
 30
0.0
 10
279.1248890439916
 20
528.1760316879647
 30
0.0
 10
279.1477715638686
 20
528.0733815673581
 30
0.0
 10
279.1830246505896
 20
527.9874648172017
 30
0.0
 10
279.2230638629618
 20
527.8816942546751
 30
0.0
 10
279.2821793656495
 20
527.7801558402611
 30
0.0
 10
279.3646418242835
 20
527.6982071034626
 30
0.0
 10
279.4290451941158
 20
527.6306086388444
 30
0.0
 10
279.5057221244825
 20
527.5637760700119
 30
0.0
 10
279.6015934537544
 20
527.5141385764754
 30
0.0
 10
279.6918841915938
 20
527.4702026199361
 30
0.0
 10
279.769682759179
 20
527.4619429622001
 30
0.0
 10
279.8318507891945
 20
527.4678026316388
 30
0.0
 10
279.9025487147388
 20
527.4781116680288
 30
0.0
 10
279.9589387974024
 20
527.5015032932418
 30
0.0
 10
280.0372322875628
 20
527.5025670973914
 30
0.0
 10
280.0797548388981
 20
527.5590267638212
 30
0.0
 10
280.1168527811468
 20
527.58909913869
 30
0.0
 10
280.1284820147561
 20
527.5985260408667
 30
0.0
 11
279.2268354829758
 21
528.6629539290372
 31
0.0
 11
279.1408374823522
 21
528.4407988242521
 31
0.0
 11
279.1312023098195
 21
528.2816206370523
 31
0.0
 11
279.1306292654508
 21
528.1666315452048
 31
0.0
 11
279.147894051883
 21
528.0825255686572
 31
0.0
 11
279.1862772069452
 21
527.9779846979661
 31
0.0
 11
279.2168482551325
 21
527.9026673438754
 31
0.0
 11
279.2922604102197
 21
527.7767386784922
 31
0.0
 11
279.3731673316614
 21
527.6888227462923
 31
0.0
 11
279.4303515108912
 21
527.6310827598665
 31
0.0
 11
279.4911030519311
 21
527.5795191356085
 31
0.0
 11
279.6145333334158
 21
527.5082279029411
 31
0.0
 11
279.7080697448312
 21
527.470677428261
 31
0.0
 11
279.7619729798959
 21
527.4642552123196
 31
0.0
 11
279.8389215778573
 21
527.4692337629162
 31
0.0
 11
279.8937884126251
 21
527.4787295548994
 31
0.0
 11
279.971700405151
 21
527.4996257582531
 31
0.0
 11
280.0168281387757
 21
527.5065094061553
 31
0.0
 11
280.0940633634618
 21
527.5689829159477
 31
0.0
 11
280.1284820147561
 21
527.5985260408667
 31
0.0
  0
HATCH
  5
100010F0
330
F6
100
AcDbEntity
  8
ROGO
 62
     4
100
AcDbHatch
 10
0.0
 20
0.0
 30
0.0
210
0.0
220
0.0
230
1.0
  2
SOLID
 70
     1
 71
     1
 91
        1
 92
        1
 93
       12
 72
     1
 10
276.8487566095671
 20
524.5456602064221
 11
277.7370666251559
 21
526.0836383163225
 72
     1
 10
277.7370666251559
 20
526.0836383163223
 11
277.9231032381152
 21
525.8043104827497
 72
     1
 10
277.9231032381152
 20
525.8043104827497
 11
277.4562299410178
 21
524.9959880520306
 72
     1
 10
277.4562299410178
 20
524.9959880520306
 11
277.6016874543792
 21
524.7775883970507
 72
     1
 10
277.6016874543792
 20
524.7775883970507
 11
278.0685607514767
 21
525.5859108277697
 72
     1
 10
278.0685607514767
 20
525.5859108277697
 11
278.2177138049682
 21
525.3619624412679
 72
     1
 10
278.2177138049682
 20
525.3619624412679
 11
277.750840507871
 21
524.5536400105484
 72
     1
 10
277.750840507871
 20
524.5536400105484
 11
277.8963041792042
 21
524.3352311095764
 72
     1
 10
277.8963041792041
 20
524.3352311095766
 11
278.3631774763015
 21
525.1435535402959
 72
     1
 10
278.3631774763015
 20
525.1435535402959
 11
278.5492047314124
 21
524.8642397572243
 72
     1
 10
278.5492047314124
 20
524.8642397572243
 11
277.6608947158237
 21
523.3262616473239
 72
     1
 10
277.6608947158237
 20
523.3262616473239
 11
276.8487566095671
 21
524.5456602064221
 97
       12
330
100010FD
330
100010F9
330
100010FB
330
100010FA
330
100010FC
330
100010F8
330
100010FF
330
10001101
330
100010FE
330
10001100
330
100010F4
330
100010F3
 75
     0
 76
     1
 98
        1
 10
319.1382445770397
 20
416.2223723407278
450
        0
451
        0
460
0.0
461
0.0
452
        0
462
0.0
453
        0
470

  0
HATCH
  5
100010F1
330
F6
100
AcDbEntity
  8
ROGO
 62
     4
100
AcDbHatch
 10
0.0
 20
0.0
 30
0.0
210
0.0
220
0.0
230
1.0
  2
SOLID
 70
     1
 71
     1
 91
        2
 92
        5
 93
        6
 72
     1
 10
276.8348291064758
 20
520.4190293420231
 11
277.3118737441436
 21
521.244961952602
 72
     1
 10
277.3118737441436
 20
521.244961952602
 11
276.8393385269076
 21
521.9038579679408
 72
     1
 10
276.8393385269076
 20
521.9038579679408
 11
277.2852774207458
 21
522.6759355591427
 72
     4
 94
        3
 73
     0
 74
     0
 95
       18
 96
       14
 40
0.108740278791501
 40
0.108740278791501
 40
0.108740278791501
 40
0.108740278791501
 40
0.6623149649549278
 40
1.384304701649787
 40
2.097394834876493
 40
2.774073369849618
 40
3.428974823686337
 40
4.005208313035923
 40
4.455173659284313
 40
4.720999734343524
 40
5.086034088486724
 40
5.569973738255373
 40
6.060470601257719
 40
6.060470601257719
 40
6.060470601257719
 40
6.060470601257719
 10
277.2852774207457
 20
522.6759355591427
 10
277.3162572281145
 20
522.7305068149092
 10
277.3876418869411
 20
522.8562516405059
 10
277.3952371192595
 20
523.0854620291645
 10
277.3719674358387
 20
523.3204191538921
 10
277.3003009703491
 20
523.5402293208756
 10
277.1781579690181
 20
523.7219361058462
 10
277.0224116894044
 20
523.8291106973362
 10
276.8887673341561
 20
523.8957901249116
 10
276.7662576264399
 20
523.891441271134
 10
276.6411185341302
 20
523.8856351588776
 10
276.5000017291632
 20
523.8239615786849
 10
276.4145324557567
 20
523.7560116969523
 10
276.3723006311536
 20
523.7207467727426
 72
     1
 10
276.3723006311534
 20
523.7207467727424
 11
275.5658077579075
 21
522.3244230084304
 72
     1
 10
275.5658077579075
 20
522.3244230084304
 11
276.8348291064758
 21
520.4190293420231
 97
        6
330
1000110C
330
1000110B
330
10001108
330
100010E9
330
10001106
330
10001107
 92
       20
 93
        4
 72
     1
 10
276.5475747810447
 20
522.3106889565262
 11
276.3241931886631
 21
522.6221688965429
 72
     1
 10
276.3241931886631
 20
522.6221688965429
 11
276.5272480500331
 21
522.9737285169636
 72
     4
 94
        3
 73
     0
 74
     0
 95
       15
 96
       11
 40
0.0
 40
0.0
 40
0.0
 40
0.0
 40
0.1539705029172936
 40
0.2241725832585268
 40
0.3038566179396359
 40
0.358141087247661
 40
0.4439925384672723
 40
0.4954152125471019
 40
0.5836396705647208
 40
0.6130478420065115
 40
0.6130478420065115
 40
0.6130478420065115
 40
0.6130478420065115
 10
276.5272480500329
 20
522.9737285169635
 10
276.5559415841614
 20
523.0239367593026
 10
276.5977177915942
 20
523.0970371984958
 10
276.710931981358
 20
523.0848152513633
 10
276.7586762952908
 20
523.0334062255374
 10
276.8053167179222
 20
522.9765078367163
 10
276.822895953518
 20
522.9134088406281
 10
276.8311374904031
 20
522.8375880148062
 10
276.8067756463042
 20
522.7845032878271
 10
276.7965370235853
 20
522.7467396887745
 10
276.7939773666803
 20
522.7372987844923
 72
     1
 10
276.7939773666803
 20
522.7372987844915
 11
276.5475747810447
 21
522.3106889565262
 97
        4
330
10001109
330
1000110E
330
1000110D
330
1000110A
 75
     0
 76
     1
 47
0.0514683685270805
 98
        2
 10
276.1227503121718
 20
522.0126953065328
 10
276.1227503121718
 20
522.0126953065328
450
        0
451
        0
460
0.0
461
0.0
452
        0
462
0.0
453
        0
470

  0
LINE
  5
100010F2
102
{ACAD_REACTORS
330
100010EB
102
}
330
F6
100
AcDbEntity
  8
ROGO
 62
     4
100
AcDbLine
 10
278.89529226816
 20
525.9633176477309
 30
0.0
 11
279.3103561920947
 21
526.681939770659
 31
0.0
  0
LINE
  5
100010F3
102
{ACAD_REACTORS
330
100010F0
102
}
330
F6
100
AcDbEntity
  8
ROGO
 62
     4
100
AcDbLine
 10
276.8487566095671
 20
524.5456602064221
 30
0.0
 11
277.6608947158237
 21
523.3262616473239
 31
0.0
  0
LINE
  5
100010F4
102
{ACAD_REACTORS
330
100010F0
102
}
330
F6
100
AcDbEntity
  8
ROGO
 62
     4
100
AcDbLine
 10
277.6608947158237
 20
523.3262616473239
 30
0.0
 11
278.5492047314124
 21
524.8642397572243
 31
0.0
  0
LINE
  5
100010F5
102
{ACAD_REACTORS
330
100010EB
102
}
330
F6
100
AcDbEntity
  8
ROGO
 62
     4
100
AcDbLine
 10
278.5354791637772
 20
526.7641663611841
 30
0.0
 11
278.7620537280345
 21
526.2598713644863
 31
0.0
  0
LINE
  5
100010F6
102
{ACAD_REACTORS
330
100010EB
102
}
330
F6
100
AcDbEntity
  8
ROGO
 62
     4
100
AcDbLine
 10
278.7620537280344
 20
526.2598713644863
 30
0.0
 11
279.0234197721244
 21
526.7123882194446
 31
0.0
  0
LINE
  5
100010F7
102
{ACAD_REACTORS
330
100010EB
102
}
330
F6
100
AcDbEntity
  8
ROGO
 62
     4
100
AcDbLine
 10
278.5354791637772
 20
526.7641663611841
 30
0.0
 11
279.0234197721247
 21
526.7123882194444
 31
0.0
  0
LINE
  5
100010F8
102
{ACAD_REACTORS
330
100010F0
102
}
330
F6
100
AcDbEntity
  8
ROGO
 62
     4
100
AcDbLine
 10
278.0685607514767
 20
525.5859108277697
 30
0.0
 11
278.2177138049682
 21
525.3619624412679
 31
0.0
  0
LINE
  5
100010F9
102
{ACAD_REACTORS
330
100010F0
102
}
330
F6
100
AcDbEntity
  8
ROGO
 62
     4
100
AcDbLine
 10
277.7370666251559
 20
526.0836383163223
 30
0.0
 11
277.9231032381152
 21
525.8043104827497
 31
0.0
  0
LINE
  5
100010FA
102
{ACAD_REACTORS
330
100010F0
102
}
330
F6
100
AcDbEntity
  8
ROGO
 62
     4
100
AcDbLine
 10
277.4562299410178
 20
524.9959880520306
 30
0.0
 11
277.6016874543792
 21
524.7775883970507
 31
0.0
  0
LINE
  5
100010FB
102
{ACAD_REACTORS
330
100010F0
102
}
330
F6
100
AcDbEntity
  8
ROGO
 62
     4
100
AcDbLine
 10
277.4562299410178
 20
524.9959880520306
 30
0.0
 11
277.9231032381152
 21
525.8043104827497
 31
0.0
  0
LINE
  5
100010FC
102
{ACAD_REACTORS
330
100010F0
102
}
330
F6
100
AcDbEntity
  8
ROGO
 62
     4
100
AcDbLine
 10
277.6016874543792
 20
524.7775883970507
 30
0.0
 11
278.0685607514767
 21
525.5859108277697
 31
0.0
  0
LINE
  5
100010FD
102
{ACAD_REACTORS
330
100010F0
102
}
330
F6
100
AcDbEntity
  8
ROGO
 62
     4
100
AcDbLine
 10
276.8487566095671
 20
524.5456602064221
 30
0.0
 11
277.7370666251559
 21
526.0836383163225
 31
0.0
  0
LINE
  5
100010FE
102
{ACAD_REACTORS
330
100010F0
102
}
330
F6
100
AcDbEntity
  8
ROGO
 62
     4
100
AcDbLine
 10
277.8963041792041
 20
524.3352311095766
 30
0.0
 11
278.3631774763015
 21
525.1435535402959
 31
0.0
  0
LINE
  5
100010FF
102
{ACAD_REACTORS
330
100010F0
102
}
330
F6
100
AcDbEntity
  8
ROGO
 62
     4
100
AcDbLine
 10
277.750840507871
 20
524.5536400105484
 30
0.0
 11
278.2177138049682
 21
525.3619624412679
 31
0.0
  0
LINE
  5
10001100
102
{ACAD_REACTORS
330
100010F0
102
}
330
F6
100
AcDbEntity
  8
ROGO
 62
     4
100
AcDbLine
 10
278.3631774763015
 20
525.1435535402959
 30
0.0
 11
278.5492047314124
 21
524.8642397572243
 31
0.0
  0
LINE
  5
10001101
102
{ACAD_REACTORS
330
100010F0
102
}
330
F6
100
AcDbEntity
  8
ROGO
 62
     4
100
AcDbLine
 10
277.750840507871
 20
524.5536400105484
 30
0.0
 11
277.8963041792042
 21
524.3352311095764
 31
0.0
  0
LINE
  5
10001102
102
{ACAD_REACTORS
330
100010EB
102
}
330
F6
100
AcDbEntity
  8
ROGO
 62
     4
100
AcDbLine
 10
278.89529226816
 20
525.9633176477309
 30
0.0
 11
279.0216170342765
 21
525.6821521615679
 31
0.0
  0
LINE
  5
10001103
102
{ACAD_REACTORS
330
100010EB
102
}
330
F6
100
AcDbEntity
  8
ROGO
 62
     4
100
AcDbLine
 10
278.6578834905861
 20
525.052401040658
 30
0.0
 11
279.0216170342766
 21
525.6821521615679
 31
0.0
  0
LINE
  5
10001104
102
{ACAD_REACTORS
330
100010EB
102
}
330
F6
100
AcDbEntity
  8
ROGO
 62
     4
100
AcDbLine
 10
277.994391519617
 20
526.5291585152044
 30
0.0
 11
278.6578834905861
 21
525.052401040658
 31
0.0
  0
LINE
  5
10001105
102
{ACAD_REACTORS
330
100010EB
102
}
330
F6
100
AcDbEntity
  8
ROGO
 62
     4
100
AcDbLine
 10
277.994391519617
 20
526.5291585152044
 30
0.0
 11
278.5197520214334
 21
527.4387429366572
 31
0.0
  0
LINE
  5
10001106
102
{ACAD_REACTORS
330
100010E5
330
100010F1
102
}
330
F6
100
AcDbEntity
  8
ROGO
 62
     4
100
AcDbLine
 10
276.8393385269077
 20
521.9038579679408
 30
0.0
 11
277.3118737441436
 21
521.2449619526021
 31
0.0
  0
LINE
  5
10001107
102
{ACAD_REACTORS
330
100010F1
102
}
330
F6
100
AcDbEntity
  8
ROGO
 62
     4
100
AcDbLine
 10
277.2852774209003
 20
522.6759355594103
 30
0.0
 11
276.8393385269077
 21
521.9038579679408
 31
0.0
  0
LINE
  5
10001108
102
{ACAD_REACTORS
330
100010F1
102
}
330
F6
100
AcDbEntity
  8
ROGO
 62
     4
100
AcDbLine
 10
275.5658077579075
 20
522.3244230084303
 30
0.0
 11
276.8348291064758
 21
520.4190293420231
 31
0.0
  0
LINE
  5
10001109
102
{ACAD_REACTORS
330
100010F1
102
}
330
F6
100
AcDbEntity
  8
ROGO
 62
     4
100
AcDbLine
 10
276.3241931886631
 20
522.6221688965429
 30
0.0
 11
276.5475747810448
 21
522.3106889565262
 31
0.0
  0
LINE
  5
1000110A
102
{ACAD_REACTORS
330
100010F1
102
}
330
F6
100
AcDbEntity
  8
ROGO
 62
     4
100
AcDbLine
 10
276.7939773666807
 20
522.7372987844922
 30
0.0
 11
276.5475747810448
 21
522.3106889565262
 31
0.0
  0
LINE
  5
1000110B
102
{ACAD_REACTORS
330
100010F1
102
}
330
F6
100
AcDbEntity
  8
ROGO
 62
     4
100
AcDbLine
 10
275.5658077579075
 20
522.3244230084303
 30
0.0
 11
276.3723006311535
 21
523.7207467727426
 31
0.0
  0
SPLINE
  5
1000110C
102
{ACAD_REACTORS
330
100010F1
102
}
330
F6
100
AcDbEntity
  8
ROGO
 62
     4
100
AcDbSpline
210
0.0
220
0.0
230
1.0
 70
     8
 71
     3
 72
    18
 73
    14
 74
     0
 42
0.0000000001
 43
0.0000000001
 40
0.1087402787915014
 40
0.1087402787915014
 40
0.1087402787915014
 40
0.1087402787915014
 40
0.5992371417938475
 40
1.083176791562496
 40
1.448211145705696
 40
1.714037220764907
 40
2.164002567013297
 40
2.740236056362883
 40
3.395137510199602
 40
4.071816045172726
 40
4.784906178399433
 40
5.506895915094292
 40
6.060470601257719
 40
6.060470601257719
 40
6.060470601257719
 40
6.060470601257719
 10
276.3723006311536
 20
523.7207467727426
 30
0.0
 10
276.4145324557567
 20
523.7560116969523
 30
0.0
 10
276.5000017291632
 20
523.8239615786849
 30
0.0
 10
276.6411185341302
 20
523.8856351588776
 30
0.0
 10
276.7662576264399
 20
523.891441271134
 30
0.0
 10
276.8887673341561
 20
523.8957901249116
 30
0.0
 10
277.0224116894044
 20
523.8291106973362
 30
0.0
 10
277.1781579690181
 20
523.7219361058462
 30
0.0
 10
277.3003009703491
 20
523.5402293208756
 30
0.0
 10
277.3719674358387
 20
523.3204191538921
 30
0.0
 10
277.3952371192595
 20
523.0854620291645
 30
0.0
 10
277.3876418869411
 20
522.8562516405059
 30
0.0
 10
277.3162572281145
 20
522.7305068149092
 30
0.0
 10
277.2852774207457
 20
522.6759355591427
 30
0.0
  0
SPLINE
  5
1000110D
102
{ACAD_REACTORS
330
100010F1
102
}
330
F6
100
AcDbEntity
  8
ROGO
 62
     4
100
AcDbSpline
210
0.0
220
0.0
230
1.0
 70
     8
 71
     3
 72
    15
 73
    11
 74
     9
 42
0.0000000001
 43
0.0000000001
 44
0.0000000001
 40
0.0
 40
0.0
 40
0.0
 40
0.0
 40
0.15397050291725
 40
0.2241725832584148
 40
0.3038566179395239
 40
0.358141087247583
 40
0.4439925384672844
 40
0.4954152125471138
 40
0.5836396705646236
 40
0.6130478420064142
 40
0.6130478420064142
 40
0.6130478420064142
 40
0.6130478420064142
 10
276.5272480500329
 20
522.9737285169635
 30
0.0
 10
276.5559415841614
 20
523.0239367593026
 30
0.0
 10
276.5977177915942
 20
523.0970371984956
 30
0.0
 10
276.7109319813581
 20
523.0848152513633
 30
0.0
 10
276.7586762952907
 20
523.0334062255375
 30
0.0
 10
276.8053167179223
 20
522.9765078367164
 30
0.0
 10
276.8228959535179
 20
522.9134088406278
 30
0.0
 10
276.8311374904031
 20
522.8375880148063
 30
0.0
 10
276.8067756463041
 20
522.7845032878271
 30
0.0
 10
276.7965370235853
 20
522.7467396887745
 30
0.0
 10
276.7939773666803
 20
522.7372987844923
 30
0.0
 11
276.5272480500329
 21
522.9737285169635
 31
0.0
 11
276.6330233960876
 21
523.085614583726
 31
0.0
 11
276.7028370652911
 21
523.0782400548203
 31
0.0
 11
276.7635888114695
 21
523.0266767857294
 31
0.0
 11
276.7960870551211
 21
522.9831949761119
 31
0.0
 11
276.8230905363591
 21
522.901700904686
 31
0.0
 11
276.8263716817222
 21
522.8503830179931
 31
0.0
 11
276.8020758951416
 21
522.7655698719195
 31
0.0
 11
276.7939773666803
 21
522.7372987844923
 31
0.0
  0
LINE
  5
1000110E
102
{ACAD_REACTORS
330
100010F1
102
}
330
F6
100
AcDbEntity
  8
ROGO
 62
     4
100
AcDbLine
 10
276.527248050033
 20
522.9737285169635
 30
0.0
 11
276.3241931886631
 21
522.6221688965429
 31
0.0
  0
LINE
  5
1000110F
102
{ACAD_REACTORS
330
100010EA
102
}
330
F6
100
AcDbEntity
  8
ROGO
 62
     4
100
AcDbLine
 10
279.8845524116869
 20
529.8016940322859
 30
0.0
 11
280.1857817044419
 21
529.3463734216927
 31
0.0
  0
SPLINE
  5
10001110
102
{ACAD_REACTORS
330
100010E4
102
}
330
F6
100
AcDbEntity
  8
ROGO
 62
     4
100
AcDbSpline
210
0.0
220
0.0
230
1.0
 70
     8
 71
     3
 72
    38
 73
    34
 74
    32
 42
0.0000000001
 43
0.0000000001
 44
0.0000000001
 40
0.0
 40
0.0
 40
0.0
 40
0.0
 40
0.1807680148266058
 40
0.237539291007006
 40
0.3104865209604783
 40
0.3712759982446628
 40
0.4225667543871246
 40
0.4906925837208655
 40
0.5255021974953701
 40
0.5647069597056377
 40
0.6224874016817969
 40
0.6879401044673945
 40
0.7303986317549058
 40
0.7765228362185745
 40
0.8277951442290579
 40
0.9056034696999601
 40
0.97952949302652
 40
1.013897332333143
 40
1.053089255536042
 40
1.099518741889355
 40
1.132570569820513
 40
1.160277520290408
 40
1.199836786293878
 40
1.243305643169244
 40
1.286774258016822
 40
1.324809356515724
 40
1.411916492917736
 40
1.446284332224456
 40
1.515020051661143
 40
1.575779369908573
 40
1.692098529536248
 40
1.835624328519061
 40
2.042896467984086
 40
2.042896467984086
 40
2.042896467984086
 40
2.042896467984086
 10
280.2445323556269
 20
530.4358974754193
 30
0.0
 10
280.2180815184321
 20
530.3815910765247
 30
0.0
 10
280.1833236376209
 20
530.3102294282655
 30
0.0
 10
280.1568909976484
 20
530.2093925959342
 30
0.0
 10
280.1578956805325
 20
530.1455228502886
 30
0.0
 10
280.1502560488756
 20
530.0840700405164
 30
0.0
 10
280.1568637170587
 20
530.0240972344603
 30
0.0
 10
280.1482006334451
 20
529.9722999428521
 30
0.0
 10
280.15971260354
 20
529.9258770666098
 30
0.0
 10
280.1573292994182
 20
529.8812187419842
 30
0.0
 10
280.1807444022588
 20
529.8310361838339
 30
0.0
 10
280.199735157863
 20
529.7790937604818
 30
0.0
 10
280.2059638871931
 20
529.7279615222032
 30
0.0
 10
280.2172322777565
 20
529.6824407824723
 30
0.0
 10
280.2451988073556
 20
529.6304994215404
 30
0.0
 10
280.2937793165254
 20
529.5812589867571
 30
0.0
 10
280.3043844304647
 20
529.5154275229699
 30
0.0
 10
280.3443313268875
 20
529.4833650007325
 30
0.0
 10
280.3558931837699
 20
529.4436617873445
 30
0.0
 10
280.3830617653749
 20
529.4136091290131
 30
0.0
 10
280.4112824886813
 20
529.3918401312088
 30
0.0
 10
280.4370078863739
 20
529.3704172494017
 30
0.0
 10
280.4596238125476
 20
529.3401836324571
 30
0.0
 10
280.4991742112907
 20
529.3229446818502
 30
0.0
 10
280.5344301625181
 20
529.3009848364621
 30
0.0
 10
280.5833672711679
 20
529.2736591994895
 30
0.0
 10
280.629148641923
 20
529.2438254925457
 30
0.0
 10
280.6922803551743
 20
529.2344049026016
 30
0.0
 10
280.74504456454
 20
529.2199324690215
 30
0.0
 10
280.8274878965823
 20
529.2161421788574
 30
0.0
 10
280.9334519450334
 20
529.2305407976404
 30
0.0
 10
281.0845920272347
 20
529.2870077204951
 30
0.0
 10
281.1534764807448
 20
529.3854534293417
 30
0.0
 10
281.1941774840578
 20
529.4436209681366
 30
0.0
 11
280.2445323556269
 21
530.4358974754193
 31
0.0
 11
280.1735976886398
 21
530.2696285721217
 31
0.0
 11
280.1605143432016
 21
530.2143854379664
 31
0.0
 11
280.1561070895399
 21
530.141571466278
 31
0.0
 11
280.1524341315919
 21
530.0808930522546
 31
0.0
 11
280.1542011911597
 21
530.0296327443532
 31
0.0
 11
280.152513525042
 21
529.9615278223175
 31
0.0
 11
280.157734677447
 21
529.9271120006842
 31
0.0
 11
280.1602362423093
 21
529.8879871293975
 31
0.0
 11
280.178838365866
 21
529.8332830118729
 31
0.0
 11
280.1994257812529
 21
529.7711523863358
 31
0.0
 11
280.2066324350691
 21
529.7293099356404
 31
0.0
 11
280.218544181946
 21
529.6847503965523
 31
0.0
 11
280.2425858997515
 21
529.6394641362333
 31
0.0
 11
280.2874338980539
 21
529.5758811781325
 31
0.0
 11
280.3174314872454
 21
529.5083149027609
 31
0.0
 11
280.340222845887
 21
529.482591327001
 31
0.0
 11
280.3575741870125
 21
529.4474496451191
 31
0.0
 11
280.3870559223336
 21
529.4115814909223
 31
0.0
 11
280.4125666548328
 21
529.3905665948495
 31
0.0
 11
280.433372721644
 21
529.3722695271013
 31
0.0
 11
280.4608689596595
 21
529.3438284929827
 31
0.0
 11
280.4985103000401
 21
529.3220874945604
 31
0.0
 11
280.5361514308401
 21
529.3003466171892
 31
0.0
 11
280.5690874726853
 21
529.2813233192261
 31
0.0
 11
280.6470895314096
 21
529.2425504930856
 31
0.0
 11
280.680760078549
 21
529.235662631738
 31
0.0
 11
280.7481013906187
 21
529.2218877700247
 31
0.0
 11
280.8087521082176
 21
529.2182566257663
 31
0.0
 11
280.9240976761345
 21
529.233274843318
 31
0.0
 11
281.0564971690453
 21
529.2886826879846
 31
0.0
 11
281.1941774840578
 21
529.4436209681366
 31
0.0
  0
LINE
  5
10001111
102
{ACAD_REACTORS
330
100010E4
102
}
330
F6
100
AcDbEntity
  8
ROGO
 62
     4
100
AcDbLine
 10
281.1941774840577
 20
529.4436209681363
 30
0.0
 11
281.5695178209905
 21
530.0934675440332
 31
0.0
  0
SPLINE
  5
10001112
102
{ACAD_REACTORS
330
100010E4
102
}
330
F6
100
AcDbEntity
  8
ROGO
 62
     4
100
AcDbSpline
210
0.0
220
0.0
230
1.0
 70
     8
 71
     3
 72
    11
 73
     7
 74
     0
 42
0.0000000001
 43
0.0000000001
 40
0.1647869275458134
 40
0.1647869275458134
 40
0.1647869275458134
 40
0.1647869275458134
 40
0.2895635144633836
 40
0.5387013147903714
 40
0.7953622617455423
 40
0.8850764140209602
 40
0.8850764140209602
 40
0.8850764140209602
 40
0.8850764140209602
 10
281.6692127470038
 20
530.3246098415138
 30
0.0
 10
281.6655906698315
 20
530.31055923394
 30
0.0
 10
281.6499124775548
 20
530.2695637578567
 30
0.0
 10
281.6217892510647
 20
530.2018534889018
 30
0.0
 10
281.5958262978774
 20
530.1370553932436
 30
0.0
 10
281.5749301137571
 20
530.1024346234282
 30
0.0
 10
281.5695178209905
 20
530.0934675440335
 30
0.0
  0
SPLINE
  5
10001113
102
{ACAD_REACTORS
330
100010E4
102
}
330
F6
100
AcDbEntity
  8
ROGO
 62
     4
100
AcDbSpline
210
0.0
220
0.0
230
1.0
 70
     8
 71
     3
 72
     9
 73
     5
 74
     3
 42
0.0000000001
 43
0.0000000001
 44
0.0000000001
 40
0.0
 40
0.0
 40
0.0
 40
0.0
 40
0.1135793343551872
 40
0.2662938392177682
 40
0.2662938392177682
 40
0.2662938392177682
 40
0.2662938392177682
 10
281.6692127470038
 20
530.3246098415138
 30
0.0
 10
281.677794850065
 20
530.3617864235016
 30
0.0
 10
281.6979161264019
 20
530.4489492406
 30
0.0
 10
281.6853681125661
 20
530.537815406145
 30
0.0
 10
281.678172062798
 20
530.5887784795308
 30
0.0
 11
281.6692127470038
 21
530.3246098415138
 31
0.0
 11
281.6890159143032
 21
530.4364494577393
 31
0.0
 11
281.678172062798
 21
530.5887784795308
 31
0.0
  0
ELLIPSE
  5
10001114
102
{ACAD_REACTORS
330
100010E4
102
}
330
F6
100
AcDbEntity
  8
ROGO
 62
     4
100
AcDbEllipse
 10
280.9176304149401
 20
530.2462853494953
 30
0.0
 11
-0.0465916920888372
 21
0.2327967685806201
 31
0.0
210
0.0
220
0.0
230
0.9999999999999998
 40
0.6788083417438791
 41
0.0
 42
6.283185307179586
  0
LINE
  5
10001115
102
{ACAD_REACTORS
330
100010EA
102
}
330
F6
100
AcDbEntity
  8
ROGO
 62
     4
100
AcDbLine
 10
280.3929413658009
 20
529.0332429733305
 30
0.0
 11
280.6941674686202
 21
528.5779271844585
 31
0.0
  0
SPLINE
  5
10001116
102
{ACAD_REACTORS
330
100010EA
102
}
330
F6
100
AcDbEntity
  8
ROGO
 62
     4
100
AcDbSpline
210
0.0
220
0.0
230
1.0
 70
     8
 71
     3
 72
    16
 73
    12
 74
    10
 42
0.0000000001
 43
0.0000000001
 44
0.0000000001
 40
0.0
 40
0.0
 40
0.0
 40
0.0
 40
0.1255907025626936
 40
0.1869327038466885
 40
0.2171823804788434
 40
0.2490606136882238
 40
0.2947101524735388
 40
0.336276331092805
 40
0.379628887008272
 40
0.4523125795608882
 40
0.5242542460843568
 40
0.5242542460843568
 40
0.5242542460843568
 40
0.5242542460843568
 10
279.7747740389983
 20
528.6347741136124
 30
0.0
 10
279.7591170805899
 20
528.5947021257639
 30
0.0
 10
279.7358128270935
 20
528.5350578616248
 30
0.0
 10
279.74642137787
 20
528.4628221805319
 30
0.0
 10
279.7536204189218
 20
528.4213836103504
 30
0.0
 10
279.7790431297162
 20
528.3940168835187
 30
0.0
 10
279.7880291632346
 20
528.3547641449652
 30
0.0
 10
279.8084932888654
 20
528.314867176896
 30
0.0
 10
279.8503998048196
 20
528.2839584778318
 30
0.0
 10
279.9154152651955
 20
528.2513276949371
 30
0.0
 10
279.9538534557265
 20
528.287925933059
 30
0.0
 10
279.9729739440185
 20
528.3061311652475
 30
0.0
 11
279.7747740389983
 21
528.6347741136124
 31
0.0
 11
279.7424438439848
 21
528.5134160357577
 31
0.0
 11
279.7483287553953
 21
528.4523569746839
 31
0.0
 11
279.756140862271
 21
528.4231334580831
 31
0.0
 11
279.7736918651502
 21
528.3965217303962
 31
0.0
 11
279.7902792722675
 21
528.3539924661604
 31
0.0
 11
279.8104344475307
 21
528.3176398030514
 31
0.0
 11
279.843895884549
 21
528.2900757623992
 31
0.0
 11
279.9127463603858
 21
528.2667834645276
 31
0.0
 11
279.9729739440185
 21
528.3061311652475
 31
0.0
  0
LINE
  5
10001117
102
{ACAD_REACTORS
330
100010EA
102
}
330
F6
100
AcDbEntity
  8
ROGO
 62
     4
100
AcDbLine
 10
279.9729739440183
 20
528.3061311652472
 30
0.0
 11
280.3929413658009
 21
529.0332429733305
 31
0.0
  0
LINE
  5
10001118
102
{ACAD_REACTORS
330
100010EA
102
}
330
F6
100
AcDbEntity
  8
ROGO
 62
     4
100
AcDbLine
 10
279.7747740389981
 20
528.6347741136124
 30
0.0
 11
280.1857817044419
 21
529.3463734216927
 31
0.0
  0
LINE
  5
10001119
102
{ACAD_REACTORS
330
100010EA
102
}
330
F6
100
AcDbEntity
  8
ROGO
 62
     4
100
AcDbLine
 10
280.1284820147562
 20
527.5985260408665
 30
0.0
 11
280.6941674686202
 21
528.5779271844585
 31
0.0
  0
LINE
  5
1000111A
102
{ACAD_REACTORS
330
100010EB
102
}
330
F6
100
AcDbEntity
  8
ROGO
 62
     4
100
AcDbLine
 10
279.9486179535368
 20
527.287117879235
 30
0.0
 11
279.5824034248911
 21
526.6530712978603
 31
0.0
  0
TEXT
  5
1000111B
330
F6
100
AcDbEntity
  8
文字
100
AcDbText
 10
280.4065449037708
 20
537.8812706895412
 30
0.0
 40
2.0
  1
.2
 50
59.99000000000019
  7
STYLE3
100
AcDbText
  0
HATCH
  5
1000111C
330
F6
100
AcDbEntity
  8
ROGO
 62
     4
100
AcDbHatch
 10
0.0
 20
0.0
 30
0.0
210
0.0
220
0.0
230
1.0
  2
SOLID
 70
     1
 71
     1
 91
        1
 92
        5
 93
        8
 72
     4
 94
        3
 73
     0
 74
     0
 95
       26
 96
       22
 40
0.0
 40
0.0
 40
0.0
 40
0.0
 40
0.2382195346592674
 40
0.3976890672661997
 40
0.512679586978766
 40
0.5985392873137423
 40
0.709903824925587
 40
0.7911890807496808
 40
0.9379713068548502
 40
1.057449928673471
 40
1.138714535893228
 40
1.218398644003565
 40
1.360938021870573
 40
1.461730374800417
 40
1.516014844107924
 40
1.593124329220489
 40
1.648806818593838
 40
1.729472362005305
 40
1.775122082164357
 40
1.87446099376523
 40
1.919820003751098
 40
1.919820003751098
 40
1.919820003751098
 40
1.919820003751098
 10
281.3430098621865
 20
532.3267985495458
 10
281.306747206763
 20
532.2543700694075
 10
281.2462095114284
 20
532.1334563301086
 10
281.2500476807041
 20
531.9600849641005
 10
281.2410634232024
 20
531.8398763084737
 10
281.2639459430796
 20
531.7372261878667
 10
281.2991990298011
 20
531.6513094377103
 10
281.3392382421723
 20
531.5455388751834
 10
281.3983537448604
 20
531.4440004607693
 10
281.4808162034948
 20
531.3620517239712
 10
281.5452195733268
 20
531.294453259353
 10
281.6218965036934
 20
531.2276206905202
 10
281.7177678329654
 20
531.1779831969841
 10
281.8080585708047
 20
531.1340472404447
 10
281.8858571383901
 20
531.1257875827098
 10
281.9480251684055
 20
531.1316472521468
 10
282.0187230939497
 20
531.1419562885378
 10
282.0751131766133
 20
531.16534791375
 10
282.1534066667737
 20
531.1664117179007
 10
282.1959292181087
 20
531.2228713843303
 10
282.2330271603578
 20
531.2529437591988
 10
282.2446563939672
 20
531.2623706613753
 72
     1
 10
282.2446563939672
 20
531.2623706613755
 11
282.810341847831
 21
532.241771804967
 72
     1
 10
282.810341847831
 20
532.241771804967
 11
282.5091157450117
 21
532.6970875938394
 72
     1
 10
282.5091157450117
 20
532.6970875938394
 11
282.0891483232291
 21
531.9699757857563
 72
     4
 94
        3
 73
     0
 74
     0
 95
       16
 96
       12
 40
0.0
 40
0.0
 40
0.0
 40
0.0
 40
0.0719416665231686
 40
0.1446253590760002
 40
0.1879779149912193
 40
0.2295440936103418
 40
0.2751936323955508
 40
0.307071865604901
 40
0.3373215422370265
 40
0.3986635435214208
 40
0.5242542460840193
 40
0.5242542460840193
 40
0.5242542460840193
 40
0.5242542460840193
 10
282.0891483232292
 20
531.9699757857563
 10
282.0700278349373
 20
531.9517705535679
 10
282.0315896444064
 20
531.9151723154459
 10
281.9665741840304
 20
531.9478030983405
 10
281.9246676680764
 20
531.9787117974047
 10
281.9042035424455
 20
532.0186087654738
 10
281.895217508927
 20
532.0578615040272
 10
281.869794798133
 20
532.085228230859
 10
281.8625957570814
 20
532.1266668010407
 10
281.8519872063034
 20
532.1989024821334
 10
281.8752914598002
 20
532.2585467462724
 10
281.8909484182089
 20
532.2986187341212
 72
     1
 10
281.890948418209
 20
532.2986187341212
 11
282.3019560836528
 21
533.0102180422016
 72
     1
 10
282.3019560836528
 20
533.0102180422016
 11
282.0007267908975
 21
533.4655386527948
 72
     1
 10
282.0007267908975
 20
533.4655386527948
 11
281.3430098621862
 21
532.3267985495449
 97
        8
330
10001125
330
10001123
330
10001120
330
10001127
330
10001121
330
10001124
330
10001122
330
1000111F
 75
     0
 76
     1
 47
0.0514683685270805
 98
        1
 10
281.6647101648971
 20
532.4030380104914
450
        0
451
        0
460
0.0
461
0.0
452
        0
462
0.0
453
        0
470

  0
LINE
  5
1000111D
102
{ACAD_REACTORS
330
100010E1
102
}
330
F6
100
AcDbEntity
  8
ROGO
 62
     4
100
AcDbLine
 10
283.2825342601944
 20
533.6335409942805
 30
0.0
 11
283.0157764560109
 21
535.2229478207773
 31
0.0
  0
LINE
  5
1000111E
102
{ACAD_REACTORS
330
100010E1
102
}
330
F6
100
AcDbEntity
  8
ROGO
 62
     4
100
AcDbLine
 10
283.4513170833123
 20
532.9453083382618
 30
0.0
 11
283.781516982613
 21
532.4461974503661
 31
0.0
  0
LINE
  5
1000111F
102
{ACAD_REACTORS
330
1000111C
102
}
330
F6
100
AcDbEntity
  8
ROGO
 62
     4
100
AcDbLine
 10
282.0007267908976
 20
533.4655386527948
 30
0.0
 11
282.3019560836528
 21
533.0102180422016
 31
0.0
  0
LINE
  5
10001120
102
{ACAD_REACTORS
330
1000111C
102
}
330
F6
100
AcDbEntity
  8
ROGO
 62
     4
100
AcDbLine
 10
282.2446563939672
 20
531.2623706613753
 30
0.0
 11
282.8103418478311
 21
532.2417718049671
 31
0.0
  0
LINE
  5
10001121
102
{ACAD_REACTORS
330
1000111C
102
}
330
F6
100
AcDbEntity
  8
ROGO
 62
     4
100
AcDbLine
 10
282.0891483232291
 20
531.9699757857563
 30
0.0
 11
282.5091157450117
 21
532.6970875938393
 31
0.0
  0
LINE
  5
10001122
102
{ACAD_REACTORS
330
1000111C
102
}
330
F6
100
AcDbEntity
  8
ROGO
 62
     4
100
AcDbLine
 10
281.8909484182089
 20
532.2986187341212
 30
0.0
 11
282.3019560836528
 21
533.0102180422016
 31
0.0
  0
SPLINE
  5
10001123
102
{ACAD_REACTORS
330
1000111C
102
}
330
F6
100
AcDbEntity
  8
ROGO
 62
     4
100
AcDbSpline
210
0.0
220
0.0
230
1.0
 70
     8
 71
     3
 72
    26
 73
    22
 74
    20
 42
0.0000000001
 43
0.0000000001
 44
0.0000000001
 40
0.0
 40
0.0
 40
0.0
 40
0.0
 40
0.2382195346591614
 40
0.3976890672660938
 40
0.5126795869786597
 40
0.5985392873136246
 40
0.7099038249255761
 40
0.7911890807495645
 40
0.9379713068548607
 40
1.057449928673443
 40
1.138714535893119
 40
1.21839864400353
 40
1.360938021870531
 40
1.461730374800322
 40
1.516014844107842
 40
1.593124329220471
 40
1.648806818593745
 40
1.729472362005212
 40
1.775122082164281
 40
1.874460993765083
 40
1.919820003750994
 40
1.919820003750994
 40
1.919820003750994
 40
1.919820003750994
 10
281.3430098621865
 20
532.3267985495458
 30
0.0
 10
281.306747206763
 20
532.2543700694075
 30
0.0
 10
281.2462095114284
 20
532.1334563301085
 30
0.0
 10
281.2500476807041
 20
531.9600849641008
 30
0.0
 10
281.2410634232024
 20
531.8398763084736
 30
0.0
 10
281.2639459430796
 20
531.7372261878668
 30
0.0
 10
281.2991990298012
 20
531.6513094377106
 30
0.0
 10
281.3392382421722
 20
531.5455388751831
 30
0.0
 10
281.3983537448605
 20
531.4440004607694
 30
0.0
 10
281.4808162034946
 20
531.362051723971
 30
0.0
 10
281.5452195733269
 20
531.2944532593531
 30
0.0
 10
281.6218965036933
 20
531.2276206905202
 30
0.0
 10
281.7177678329655
 20
531.1779831969842
 30
0.0
 10
281.8080585708047
 20
531.1340472404445
 30
0.0
 10
281.8858571383901
 20
531.1257875827098
 30
0.0
 10
281.9480251684055
 20
531.1316472521468
 30
0.0
 10
282.0187230939496
 20
531.1419562885378
 30
0.0
 10
282.0751131766133
 20
531.1653479137499
 30
0.0
 10
282.1534066667735
 20
531.1664117179008
 30
0.0
 10
282.1959292181088
 20
531.2228713843303
 30
0.0
 10
282.2330271603577
 20
531.2529437591987
 30
0.0
 10
282.2446563939672
 20
531.2623706613753
 30
0.0
 11
281.3430098621865
 21
532.3267985495458
 31
0.0
 11
281.2570118615629
 21
532.104643444761
 31
0.0
 11
281.2473766890306
 21
531.9454652575614
 31
0.0
 11
281.2468036446617
 21
531.8304761657138
 31
0.0
 11
281.264068431094
 21
531.7463701891661
 31
0.0
 11
281.3024515861566
 21
531.6418293184745
 31
0.0
 11
281.3330226343431
 21
531.5665119643843
 31
0.0
 11
281.4084347894309
 21
531.4405832990001
 31
0.0
 11
281.4893417108726
 21
531.3526673668007
 31
0.0
 11
281.5465258901021
 21
531.2949273803751
 31
0.0
 11
281.6072774311418
 21
531.2433637561168
 31
0.0
 11
281.730707712627
 21
531.1720725234497
 31
0.0
 11
281.8242441240423
 21
531.1345220487699
 31
0.0
 11
281.8781473591066
 21
531.1280998328286
 31
0.0
 11
281.9550959570685
 21
531.1330783834248
 31
0.0
 11
282.0099627918361
 21
531.1425741754081
 31
0.0
 11
282.0878747843615
 21
531.1634703787615
 31
0.0
 11
282.1330025179867
 21
531.1703540266644
 31
0.0
 11
282.2102377426726
 21
531.2328275364566
 31
0.0
 11
282.2446563939672
 21
531.2623706613753
 31
0.0
  0
SPLINE
  5
10001124
102
{ACAD_REACTORS
330
1000111C
102
}
330
F6
100
AcDbEntity
  8
ROGO
 62
     4
100
AcDbSpline
210
0.0
220
0.0
230
1.0
 70
     8
 71
     3
 72
    16
 73
    12
 74
    10
 42
0.0000000001
 43
0.0000000001
 44
0.0000000001
 40
0.0
 40
0.0
 40
0.0
 40
0.0
 40
0.1255907025626936
 40
0.1869327038469694
 40
0.2171823804790949
 40
0.24906061368854
 40
0.2947101524736431
 40
0.3362763310927655
 40
0.379628887008057
 40
0.4523125795608886
 40
0.5242542460841669
 40
0.5242542460841669
 40
0.5242542460841669
 40
0.5242542460841669
 10
281.8909484182089
 20
532.2986187341212
 30
0.0
 10
281.8752914598002
 20
532.2585467462726
 30
0.0
 10
281.8519872063035
 20
532.1989024821335
 30
0.0
 10
281.8625957570813
 20
532.1266668010405
 30
0.0
 10
281.869794798133
 20
532.085228230859
 30
0.0
 10
281.8952175089268
 20
532.057861504027
 30
0.0
 10
281.9042035424455
 20
532.0186087654739
 30
0.0
 10
281.9246676680764
 20
531.978711797405
 30
0.0
 10
281.9665741840303
 20
531.9478030983402
 30
0.0
 10
282.0315896444063
 20
531.9151723154456
 30
0.0
 10
282.0700278349373
 20
531.9517705535678
 30
0.0
 10
282.0891483232292
 20
531.9699757857563
 30
0.0
 11
281.8909484182089
 21
532.2986187341212
 31
0.0
 11
281.8586182231954
 21
532.1772606562665
 31
0.0
 11
281.8645031346065
 21
532.1162015951925
 31
0.0
 11
281.872315241482
 21
532.0869780785917
 31
0.0
 11
281.8898662443611
 21
532.0603663509046
 31
0.0
 11
281.9064536514784
 21
532.017837086669
 31
0.0
 11
281.9266088267417
 21
531.9814844235602
 31
0.0
 11
281.9600702637598
 21
531.9539203829081
 31
0.0
 11
282.0289207395967
 21
531.9306280850364
 31
0.0
 11
282.0891483232292
 21
531.9699757857563
 31
0.0
  0
LINE
  5
10001125
102
{ACAD_REACTORS
330
1000111C
102
}
330
F6
100
AcDbEntity
  8
ROGO
 62
     4
100
AcDbLine
 10
281.3430098621868
 20
532.3267985495458
 30
0.0
 11
282.0007267908976
 21
533.4655386527948
 31
0.0
  0
LINE
  5
10001126
102
{ACAD_REACTORS
330
100010E1
102
}
330
F6
100
AcDbEntity
  8
ROGO
 62
     4
100
AcDbLine
 10
282.1382819236999
 20
533.7036951290722
 30
0.0
 11
282.5164380712111
 21
534.358416866743
 31
0.0
  0
LINE
  5
10001127
102
{ACAD_REACTORS
330
1000111C
102
}
330
F6
100
AcDbEntity
  8
ROGO
 62
     4
100
AcDbLine
 10
282.5091157450117
 20
532.6970875938393
 30
0.0
 11
282.810341847831
 21
532.2417718049669
 31
0.0
  0
LINE
  5
10001128
102
{ACAD_REACTORS
330
100010E5
330
100010E1
102
}
330
F6
100
AcDbEntity
  8
ROGO
 62
     4
100
AcDbLine
 10
282.1382819236999
 20
533.7036951290722
 30
0.0
 11
283.4033608351017
 21
531.7914757126954
 31
0.0
  0
LINE
  5
10001129
102
{ACAD_REACTORS
330
100010E1
102
}
330
F6
100
AcDbEntity
  8
ROGO
 62
     4
100
AcDbLine
 10
282.654558944747
 20
534.1496414189812
 30
0.0
 11
282.6376285822522
 21
534.5682404078913
 31
0.0
  0
LINE
  5
1000112A
102
{ACAD_REACTORS
330
100010E1
102
}
330
F6
100
AcDbEntity
  8
ROGO
 62
     4
100
AcDbLine
 10
282.5164380712111
 20
534.358416866743
 30
0.0
 11
282.654558944747
 21
534.1496414189812
 31
0.0
  0
LINE
  5
1000112B
102
{ACAD_REACTORS
330
100010E1
102
}
330
F6
100
AcDbEntity
  8
ROGO
 62
     4
100
AcDbLine
 10
282.6376285822522
 20
534.5682404078913
 30
0.0
 11
283.0157764560109
 21
535.2229478207773
 31
0.0
  0
CIRCLE
  5
1000112C
330
F6
100
AcDbEntity
  8
外形線
100
AcDbCircle
 10
287.4390084810923
 20
523.166262846292
 30
0.0
 40
1.5
  0
POINT
  5
1000112D
330
F6
100
AcDbEntity
  8
DEFPOINTS
  6
ByBlock
 62
     0
100
AcDbPoint
 10
287.4390084810923
 20
523.1662628462922
 30
0.0
  0
POINT
  5
1000112E
330
F6
100
AcDbEntity
  8
DEFPOINTS
  6
ByBlock
 62
     0
100
AcDbPoint
 10
287.4390084810923
 20
523.1662628462922
 30
0.0
  0
LINE
  5
1000112F
102
{ACAD_REACTORS
330
100010E1
102
}
330
F6
100
AcDbEntity
  8
ROGO
 62
     4
100
AcDbLine
 10
284.0486469966826
 20
532.908693771388
 30
0.0
 11
284.4267948704414
 21
533.5634011842735
 31
0.0
  0
LINE
  5
10001130
330
F6
100
AcDbEntity
  8
目盛
100
AcDbLine
 10
310.1916853778312
 20
519.8023820468872
 30
0.0
 11
308.2131917346365
 21
520.0948934207485
 31
0.0
  0
LINE
  5
10001131
330
F6
100
AcDbEntity
  8
目盛
100
AcDbLine
 10
295.6874991245391
 20
520.2481714165481
 30
0.0
 11
295.583457921233
 21
519.759115767348
 31
0.0
  0
TEXT
  5
10001132
330
F6
100
AcDbEntity
  8
文字
100
AcDbText
 10
305.0430865941487
 20
517.3753640278935
 30
0.0
 40
2.0
  1
.9
 50
59.99000000000019
  7
STYLE3
100
AcDbText
  0
LINE
  5
10001133
330
F6
100
AcDbEntity
  8
目盛
100
AcDbLine
 10
302.8260290184326
 20
506.0712460582492
 30
0.0
 11
300.819026339649
 21
508.3010308566898
 31
0.0
  0
LINE
  5
10001134
330
F6
100
AcDbEntity
  8
目盛
100
AcDbLine
 10
302.2814689988802
 20
505.5963634220522
 30
0.0
 11
300.990820258203
 21
507.1241807632904
 31
0.0
  0
TEXT
  5
10001135
330
F6
100
AcDbEntity
  8
文字
100
AcDbText
 10
299.1038666925637
 20
507.8492018064523
 30
0.0
 40
2.0
  1
.1
 50
59.99000000000019
  7
STYLE3
100
AcDbText
  0
LINE
  5
10001136
330
F6
100
AcDbEntity
  8
目盛
100
AcDbLine
 10
298.0912596774007
 20
502.7817210449482
 30
0.0
 11
297.1649769646783
 21
504.5542898972388
 31
0.0
  0
LINE
  5
10001137
330
F6
100
AcDbEntity
  8
目盛
100
AcDbLine
 10
297.4457095030262
 20
502.4571842898322
 30
0.0
 11
296.5755615880753
 21
504.2579737295245
 31
0.0
  0
LINE
  5
10001138
330
F6
100
AcDbEntity
  8
目盛
100
AcDbLine
 10
296.1256297628393
 20
501.8697229698826
 30
0.0
 11
295.3702713905134
 21
503.7215960026139
 31
0.0
  0
LINE
  5
10001139
330
F6
100
AcDbEntity
  8
目盛
100
AcDbLine
 10
296.7902839228668
 20
502.1530848950146
 30
0.0
 11
295.5705523435049
 21
504.8939341930072
 31
0.0
  0
LINE
  5
1000113A
330
F6
100
AcDbEntity
  8
目盛
100
AcDbLine
 10
294.7712678969932
 20
501.3663093633617
 30
0.0
 11
294.1336801216973
 21
503.2619574923121
 31
0.0
  0
LINE
  5
1000113B
330
F6
100
AcDbEntity
  8
目盛
100
AcDbLine
 10
294.0828967828221
 20
501.1467544904242
 30
0.0
 11
293.5051673652804
 21
503.0614943474563
 31
0.0
  0
LINE
  5
1000113C
330
F6
100
AcDbEntity
  8
目盛
100
AcDbLine
 10
295.4524029563554
 20
501.6073781584466
 30
0.0
 11
294.755586045463
 21
503.4820637834767
 31
0.0
  0
TEXT
  5
1000113D
330
F6
100
AcDbEntity
  8
文字
100
AcDbText
 10
294.2378856859711
 20
504.6348362949736
 30
0.0
 40
2.0
  1
.2
 50
59.99000000000019
  7
STYLE3
100
AcDbText
  0
LINE
  5
1000113E
330
F6
100
AcDbEntity
  8
目盛
100
AcDbLine
 10
301.1489576805602
 20
504.6990677980992
 30
0.0
 11
299.9567881849541
 21
506.304910845768
 31
0.0
  0
LINE
  5
1000113F
330
F6
100
AcDbEntity
  8
目盛
100
AcDbLine
 10
300.5621240337339
 20
504.2775403327921
 30
0.0
 11
299.4209835508952
 21
505.9200379426616
 31
0.0
  0
LINE
  5
10001140
330
F6
100
AcDbEntity
  8
目盛
100
AcDbLine
 10
299.3501958630135
 20
503.4908056685607
 30
0.0
 11
298.3144404384987
 21
505.2017149883634
 31
0.0
  0
LINE
  5
10001141
330
F6
100
AcDbEntity
  8
目盛
100
AcDbLine
 10
298.7262973659063
 20
503.126374881766
 30
0.0
 11
297.744793984618
 21
504.8689738352032
 31
0.0
  0
LINE
  5
10001142
330
F6
100
AcDbEntity
  8
目盛
100
AcDbLine
 10
301.7222612627493
 20
505.1388201553475
 30
0.0
 11
300.4802392817355
 21
506.7064238676037
 31
0.0
  0
LINE
  5
10001143
330
F6
100
AcDbEntity
  8
目盛
100
AcDbLine
 10
299.9623394562298
 20
503.874653756142
 30
0.0
 11
298.328861502951
 21
506.3909505939878
 31
0.0
  0
TEXT
  5
10001144
330
F6
100
AcDbEntity
  8
文字
100
AcDbText
 10
297.4682920412272
 20
517.3491195602773
 30
0.0
 40
0.7
  1
4
 50
59.99000000000019
  7
STYLE3
100
AcDbText
  0
TEXT
  5
10001145
330
F6
100
AcDbEntity
  8
文字
100
AcDbText
 10
297.6963512586608
 20
513.4866449403337
 30
0.0
 40
0.7
  1
0
 50
59.99000000000019
  7
STYLE3
100
AcDbText
  0
TEXT
  5
10001146
330
F6
100
AcDbEntity
  8
文字
100
AcDbText
 10
295.5547394752504
 20
518.4505372127212
 30
0.0
 40
0.7
  1
6
 50
59.99000000000019
  7
STYLE3
100
AcDbText
  0
LINE
  5
10001147
330
F6
100
AcDbEntity
  8
目盛
100
AcDbLine
 10
296.6303493604539
 20
511.2624646939912
 30
0.0
 11
296.4270607638935
 21
511.7192729103233
 31
0.0
  0
TEXT
  5
10001148
330
F6
100
AcDbEntity
  8
文字
100
AcDbText
 10
296.2320549001407
 20
512.1151946232071
 30
0.0
 40
0.7
  1
8
 50
59.99000000000019
  7
STYLE3
100
AcDbText
  0
LINE
  5
10001149
330
F6
100
AcDbEntity
  8
目盛
100
AcDbLine
 10
293.7107162617227
 20
510.9561140817445
 30
0.0
 11
293.8147574650289
 21
511.4451697309447
 31
0.0
  0
TEXT
  5
1000114A
330
F6
100
AcDbEntity
  8
文字
100
AcDbText
 10
294.133155363556
 20
511.9686440197643
 30
0.0
 40
0.7
  1
6
 50
59.99000000000019
  7
STYLE3
100
AcDbText
  0
CIRCLE
  5
1000114B
330
F6
100
AcDbEntity
  8
外形線
100
AcDbCircle
 10
294.6991076931311
 20
515.6021427491461
 30
0.0
 40
1.149999999999999
  0
LINE
  5
1000114C
330
F6
100
AcDbEntity
  8
目盛
100
AcDbLine
 10
298.2296002906614
 20
518.7798969905536
 30
0.0
 11
297.8579694909215
 21
518.4453965440898
 31
0.0
  0
LINE
  5
1000114D
330
F6
100
AcDbEntity
  8
目盛
100
AcDbLine
 10
299.4231732815571
 20
516.0978284522359
 30
0.0
 11
298.9259032196176
 21
516.0456510098054
 31
0.0
  0
TEXT
  5
1000114E
330
F6
100
AcDbEntity
  8
文字
100
AcDbText
 10
298.0633959809536
 20
515.4704020635684
 30
0.0
 40
0.7
  1
2
 50
59.99000000000019
  7
STYLE3
100
AcDbText
  0
LINE
  5
1000114F
330
F6
100
AcDbEntity
  8
目盛
100
AcDbLine
 10
298.8123137827579
 20
513.2264248230749
 30
0.0
 11
298.379344720692
 21
513.4765003942402
 31
0.0
  0
LINE
  5
10001150
330
F6
100
AcDbEntity
  8
目盛
100
AcDbLine
 10
305.3108390684123
 20
508.6887744087858
 30
0.0
 11
302.9797307309358
 21
510.5771424658518
 31
0.0
  0
LINE
  5
10001151
330
F6
100
AcDbEntity
  8
目盛
100
AcDbLine
 10
304.8472714974969
 20
508.1345504105224
 30
0.0
 11
303.3335094960704
 21
509.4416558397197
 31
0.0
  0
LINE
  5
10001152
330
F6
100
AcDbEntity
  8
目盛
100
AcDbLine
 10
304.3665240727089
 20
507.5951608976317
 30
0.0
 11
302.894566195177
 21
508.9491697627328
 31
0.0
  0
LINE
  5
10001153
330
F6
100
AcDbEntity
  8
目盛
100
AcDbLine
 10
303.3554039064116
 20
506.5629994121095
 30
0.0
 11
301.9713695216012
 21
508.0067614498644
 31
0.0
  0
LINE
  5
10001154
330
F6
100
AcDbEntity
  8
目盛
100
AcDbLine
 10
303.8690712337162
 20
507.0711381824436
 30
0.0
 11
302.4403701247921
 21
508.4707142401694
 31
0.0
  0
LINE
  5
10001155
330
F6
100
AcDbEntity
  8
目盛
100
AcDbLine
 10
308.9099193823422
 20
514.9200525002859
 30
0.0
 11
306.1093657865271
 21
515.9956451541127
 31
0.0
  0
LINE
  5
10001156
330
F6
100
AcDbEntity
  8
目盛
100
AcDbLine
 10
306.9844247859367
 20
511.0428680465541
 30
0.0
 11
305.284823368124
 21
512.0970762900094
 31
0.0
  0
LINE
  5
10001157
330
F6
100
AcDbEntity
  8
目盛
100
AcDbLine
 10
306.5939752696
 20
510.4349138474172
 30
0.0
 11
304.9283259836429
 21
511.5419876734065
 31
0.0
  0
LINE
  5
10001158
330
F6
100
AcDbEntity
  8
目盛
100
AcDbLine
 10
304.7577709637313
 20
513.1632399996759
 30
0.0
 11
307.3555853361273
 21
511.6627865726837
 31
0.0
  0
LINE
  5
10001159
330
F6
100
AcDbEntity
  8
目盛
100
AcDbLine
 10
307.7070906295194
 20
512.2940576410631
 30
0.0
 11
305.944648703569
 21
513.2394667893438
 31
0.0
  0
LINE
  5
1000115A
330
F6
100
AcDbEntity
  8
目盛
100
AcDbLine
 10
308.0385937728262
 20
512.9360582633633
 30
0.0
 11
306.2473254865884
 21
513.8256412705746
 31
0.0
  0
LINE
  5
1000115B
330
F6
100
AcDbEntity
  8
目盛
100
AcDbLine
 10
305.7567693002306
 20
509.2572859402492
 30
0.0
 11
304.163920533349
 21
510.4667621929486
 31
0.0
  0
LINE
  5
1000115C
330
F6
100
AcDbEntity
  8
目盛
100
AcDbLine
 10
306.1846221136502
 20
509.8395239526673
 30
0.0
 11
304.5545687542974
 21
510.9983708129823
 31
0.0
  0
TEXT
  5
1000115D
330
F6
100
AcDbEntity
  8
文字
100
AcDbText
 10
303.806146700281
 20
512.6340097849195
 30
0.0
 40
2.0
  1
0
 50
59.99000000000019
  7
STYLE3
100
AcDbText
  0
LINE
  5
1000115E
330
F6
100
AcDbEntity
  8
目盛
100
AcDbLine
 10
309.7741390441521
 20
517.6760950227124
 30
0.0
 11
307.8319537777991
 21
518.1535009204151
 31
0.0
  0
LINE
  5
1000115F
330
F6
100
AcDbEntity
  8
目盛
100
AcDbLine
 10
309.5906676666907
 20
516.9772406840211
 30
0.0
 11
307.6644364331604
 21
517.5154165242186
 31
0.0
  0
LINE
  5
10001160
330
F6
100
AcDbEntity
  8
目盛
100
AcDbLine
 10
308.6403050574338
 20
514.2497038977965
 30
0.0
 11
306.7967140507954
 21
515.0250568498395
 31
0.0
  0
LINE
  5
10001161
330
F6
100
AcDbEntity
  8
目盛
100
AcDbLine
 10
308.3497676124681
 20
513.5881548624791
 30
0.0
 11
306.5314407314788
 21
514.4210338175932
 31
0.0
  0
LINE
  5
10001162
330
F6
100
AcDbEntity
  8
目盛
100
AcDbLine
 10
309.158344510406
 20
515.5985391168107
 30
0.0
 11
307.2697065948132
 21
516.2566020498091
 31
0.0
  0
LINE
  5
10001163
330
F6
100
AcDbEntity
  8
目盛
100
AcDbLine
 10
309.3853352760155
 20
516.2844941629934
 30
0.0
 11
307.4769590329786
 21
516.8829088311063
 31
0.0
  0
LINE
  5
10001164
330
F6
100
AcDbEntity
  8
目盛
100
AcDbLine
 10
310.0747962559069
 20
519.0893630666123
 30
0.0
 11
308.1064668841839
 21
519.4438760909322
 31
0.0
  0
LINE
  5
10001165
330
F6
100
AcDbEntity
  8
目盛
100
AcDbLine
 10
309.9355683443007
 20
518.380367494211
 30
0.0
 11
307.0012344490997
 21
519.0046147140476
 31
0.0
  0
LINE
  5
10001166
330
F6
100
AcDbEntity
  8
目盛
100
AcDbLine
 10
303.0101104297525
 20
540.0937784379088
 30
0.0
 11
301.6561015646516
 21
538.6218205603768
 31
0.0
  0
LINE
  5
10001167
330
F6
100
AcDbEntity
  8
目盛
100
AcDbLine
 10
302.4707209168621
 20
540.5745258626969
 30
0.0
 11
301.1636154876648
 21
539.0607638612705
 31
0.0
  0
TEXT
  5
10001168
330
F6
100
AcDbEntity
  8
文字
100
AcDbText
 10
296.4764876267352
 20
536.6181042407402
 30
0.0
 40
2.0
  1
.5
 50
59.99000000000019
  7
STYLE3
100
AcDbText
  0
LINE
  5
10001169
330
F6
100
AcDbEntity
  8
目盛
100
AcDbLine
 10
301.3479853871349
 20
541.4840236654308
 30
0.0
 11
300.1385091344357
 21
539.891174898549
 31
0.0
  0
TEXT
  5
1000116A
330
F6
100
AcDbEntity
  8
文字
100
AcDbText
 10
300.4744874031412
 20
533.1112034372481
 30
0.0
 40
2.0
  1
.6
 50
59.99000000000019
  7
STYLE3
100
AcDbText
  0
LINE
  5
1000116B
330
F6
100
AcDbEntity
  8
目盛
100
AcDbLine
 10
301.9164969185986
 20
541.0380934336122
 30
0.0
 11
300.0281288615326
 21
538.7069850961354
 31
0.0
  0
LINE
  5
1000116C
330
F6
100
AcDbEntity
  8
目盛
100
AcDbLine
 10
308.9978931689376
 20
531.1796573215556
 30
0.0
 11
307.1232075439077
 21
530.4828404106634
 31
0.0
  0
TEXT
  5
1000116D
330
F6
100
AcDbEntity
  8
文字
100
AcDbText
 10
303.6221763383738
 20
528.3517771144857
 30
0.0
 40
2.0
  1
.7
 50
59.99000000000019
  7
STYLE3
100
AcDbText
  0
TEXT
  5
1000116E
330
F6
100
AcDbEntity
  8
文字
100
AcDbText
 10
305.2663858295392
 20
523.5077198837959
 30
0.0
 40
2.0
  1
.8
 50
59.99000000000019
  7
STYLE3
100
AcDbText
  0
LINE
  5
1000116F
330
F6
100
AcDbEntity
  8
目盛
100
AcDbLine
 10
309.2389619640227
 20
530.4985222621929
 30
0.0
 11
307.3433138350721
 21
529.8609344868971
 31
0.0
  0
LINE
  5
10001170
330
F6
100
AcDbEntity
  8
目盛
100
AcDbLine
 10
309.45851683696
 20
529.8101511480222
 30
0.0
 11
307.5437769799281
 21
529.2324217304804
 31
0.0
  0
LINE
  5
10001171
330
F6
100
AcDbEntity
  8
目盛
100
AcDbLine
 10
309.8322395652585
 20
528.4144245826655
 30
0.0
 11
307.8850020796787
 21
527.9580626925462
 31
0.0
  0
LINE
  5
10001172
330
F6
100
AcDbEntity
  8
目盛
100
AcDbLine
 10
310.3775351048501
 20
524.8467378776915
 30
0.0
 11
308.3828806158275
 21
524.7006096140917
 31
0.0
  0
LINE
  5
10001173
330
F6
100
AcDbEntity
  8
目盛
100
AcDbLine
 10
309.9860386014065
 20
527.7084465450916
 30
0.0
 11
308.0254272865964
 21
527.3134740495443
 31
0.0
  0
LINE
  5
10001174
330
F6
100
AcDbEntity
  8
目盛
100
AcDbLine
 10
310.2267532620883
 20
526.2837438480278
 30
0.0
 11
308.2452102376539
 21
526.0126585435291
 31
0.0
  0
LINE
  5
10001175
330
F6
100
AcDbEntity
  8
目盛
100
AcDbLine
 10
310.1175864409615
 20
526.9979859205925
 30
0.0
 11
308.1455361835817
 21
526.6647926097841
 31
0.0
  0
LINE
  5
10001176
330
F6
100
AcDbEntity
  8
目盛
100
AcDbLine
 10
310.4072773406252
 20
521.9585271151791
 30
0.0
 11
307.4114161850338
 21
522.1160578627155
 31
0.0
  0
LINE
  5
10001177
330
F6
100
AcDbEntity
  8
目盛
100
AcDbLine
 10
310.2861203546223
 20
520.5187207713841
 30
0.0
 11
308.2994149743153
 21
520.7489418213762
 31
0.0
  0
LINE
  5
10001178
330
F6
100
AcDbEntity
  8
目盛
100
AcDbLine
 10
310.3580079903593
 20
521.2376723002683
 30
0.0
 11
308.3650515112926
 21
521.4053758260095
 31
0.0
  0
LINE
  5
10001179
330
F6
100
AcDbEntity
  8
目盛
100
AcDbLine
 10
309.6563411135978
 20
529.1152233182233
 30
0.0
 11
306.7584281615319
 21
528.339271952319
 31
0.0
  0
LINE
  5
1000117A
330
F6
100
AcDbEntity
  8
目盛
100
AcDbLine
 10
310.3134313303137
 20
525.5664251980931
 30
0.0
 11
307.3298109586763
 21
525.2533605435103
 31
0.0
  0
LINE
  5
1000117B
330
F6
100
AcDbEntity
  8
目盛
100
AcDbLine
 10
310.4377890626438
 20
523.4030998401424
 30
0.0
 11
308.4378950990303
 21
523.382505318938
 31
0.0
  0
LINE
  5
1000117C
330
F6
100
AcDbEntity
  8
目盛
100
AcDbLine
 10
310.4190013230101
 20
524.1253921313211
 30
0.0
 11
308.4207410758869
 21
524.041989584797
 31
0.0
  0
LINE
  5
1000117D
330
F6
100
AcDbEntity
  8
目盛
100
AcDbLine
 10
310.4338797825194
 20
522.6805738194452
 30
0.0
 11
308.4343257563081
 21
522.7228076478668
 31
0.0
  0
LINE
  5
1000117E
330
F6
100
AcDbEntity
  8
目盛
100
AcDbLine
 10
308.4521864323699
 20
532.517538288067
 30
0.0
 11
305.7113371343772
 21
531.2978067087051
 31
0.0
  0
LINE
  5
1000117F
330
F6
100
AcDbEntity
  8
目盛
100
AcDbLine
 10
306.7306175712422
 20
535.6895938214297
 30
0.0
 11
304.2143207333967
 21
534.0561158681508
 31
0.0
  0
LINE
  5
10001180
330
F6
100
AcDbEntity
  8
目盛
100
AcDbLine
 10
308.148087037552
 20
533.1729638682259
 30
0.0
 11
306.3472975978599
 21
532.3028159532753
 31
0.0
  0
LINE
  5
10001181
330
F6
100
AcDbEntity
  8
目盛
100
AcDbLine
 10
307.8235502824361
 20
533.8185140426007
 30
0.0
 11
306.0509814301456
 21
532.8922313298785
 31
0.0
  0
LINE
  5
10001182
330
F6
100
AcDbEntity
  8
目盛
100
AcDbLine
 10
307.4788964456181
 20
534.4535517311062
 30
0.0
 11
305.7362974921812
 21
533.472048349818
 31
0.0
  0
LINE
  5
10001183
330
F6
100
AcDbEntity
  8
目盛
100
AcDbLine
 10
307.1144656588241
 20
535.0774502282138
 30
0.0
 11
305.4035563390213
 21
534.0416948036986
 31
0.0
  0
LINE
  5
10001184
330
F6
100
AcDbEntity
  8
目盛
100
AcDbLine
 10
304.0422719152749
 20
539.0826582716115
 30
0.0
 11
302.5985098775199
 21
537.698623886801
 31
0.0
  0
LINE
  5
10001185
330
F6
100
AcDbEntity
  8
目盛
100
AcDbLine
 10
304.5340252691351
 20
538.5532833836325
 30
0.0
 11
302.3042404706947
 21
536.5462807048488
 31
0.0
  0
LINE
  5
10001186
330
F6
100
AcDbEntity
  8
目盛
100
AcDbLine
 10
303.5341331449412
 20
539.5963255989161
 30
0.0
 11
302.1345570872153
 21
538.1676244899922
 31
0.0
  0
LINE
  5
10001187
330
F6
100
AcDbEntity
  8
目盛
100
AcDbLine
 10
305.9062035292854
 20
536.8762120457599
 30
0.0
 11
304.3003604816164
 21
535.6840425501541
 31
0.0
  0
LINE
  5
10001188
330
F6
100
AcDbEntity
  8
目盛
100
AcDbLine
 10
305.4664511720367
 20
537.449515627949
 30
0.0
 11
303.8988474597808
 21
536.2074936469355
 31
0.0
  0
LINE
  5
10001189
330
F6
100
AcDbEntity
  8
目盛
100
AcDbLine
 10
306.3277309945926
 20
536.2893783989338
 30
0.0
 11
304.685233384723
 21
535.1482379160956
 31
0.0
  0
LINE
  5
1000118A
330
F6
100
AcDbEntity
  8
目盛
100
AcDbLine
 10
305.0089079053321
 20
538.0087233640802
 30
0.0
 11
303.4810905640938
 21
536.718074623403
 31
0.0
  0
LINE
  5
1000118B
330
F6
100
AcDbEntity
  8
目盛
100
AcDbLine
 10
308.7355483575017
 20
531.8528841280392
 30
0.0
 11
306.8836753247704
 21
531.0975257557133
 31
0.0
  0
LINE
  5
1000118C
330
F6
100
AcDbEntity
  8
目盛
100
AcDbLine
 10
279.4256140058292
 20
544.7251475341379
 30
0.0
 11
280.1224309167214
 21
542.8504619091077
 31
0.0
  0
LINE
  5
1000118D
330
F6
100
AcDbEntity
  8
目盛
100
AcDbLine
 10
277.4323074591583
 20
543.8753414027521
 30
0.0
 11
278.3024553741092
 21
542.0745519630598
 31
0.0
  0
LINE
  5
1000118E
330
F6
100
AcDbEntity
  8
目盛
100
AcDbLine
 10
278.7523871993454
 20
544.4628027227017
 30
0.0
 11
279.5077455716711
 21
542.6109296899703
 31
0.0
  0
LINE
  5
1000118F
330
F6
100
AcDbEntity
  8
目盛
100
AcDbLine
 10
276.7867572847838
 20
543.5508046476366
 30
0.0
 11
277.7130399975062
 21
541.7782357953456
 31
0.0
  0
LINE
  5
10001190
330
F6
100
AcDbEntity
  8
目盛
100
AcDbLine
 10
283.607285406792
 20
545.8448408061618
 30
0.0
 11
283.9404787176006
 21
543.8727905487815
 31
0.0
  0
LINE
  5
10001191
330
F6
100
AcDbEntity
  8
目盛
100
AcDbLine
 10
282.8968247822927
 20
545.7132929666065
 30
0.0
 11
283.2917972778405
 21
543.7526816517963
 31
0.0
  0
LINE
  5
10001192
330
F6
100
AcDbEntity
  8
目盛
100
AcDbLine
 10
282.1908467447189
 20
545.5594939304583
 30
0.0
 11
282.6472086348383
 21
543.6122564448787
 31
0.0
  0
LINE
  5
10001193
330
F6
100
AcDbEntity
  8
目盛
100
AcDbLine
 10
281.4900480091615
 20
545.383595478798
 30
0.0
 11
282.2659993750654
 21
542.485682526732
 31
0.0
  0
LINE
  5
10001194
330
F6
100
AcDbEntity
  8
目盛
100
AcDbLine
 10
280.1067490651913
 20
544.9662163292227
 30
0.0
 11
280.7443368404872
 21
543.0705682002722
 31
0.0
  0
LINE
  5
10001195
330
F6
100
AcDbEntity
  8
目盛
100
AcDbLine
 10
280.7951201793624
 20
545.1857712021601
 30
0.0
 11
281.3728495969041
 21
543.2710313451281
 31
0.0
  0
LINE
  5
10001196
330
F6
100
AcDbEntity
  8
目盛
100
AcDbLine
 10
288.6467442122056
 20
546.1345317058251
 30
0.0
 11
288.4892134646691
 21
543.1386705502339
 31
0.0
  0
LINE
  5
10001197
330
F6
100
AcDbEntity
  8
目盛
100
AcDbLine
 10
287.2021714872423
 20
546.1650434278435
 30
0.0
 11
287.2227660084466
 21
544.1651494642303
 31
0.0
  0
LINE
  5
10001198
330
F6
100
AcDbEntity
  8
目盛
100
AcDbLine
 10
287.9246975079392
 20
546.1611341477196
 30
0.0
 11
287.8824636795177
 21
544.1615801215085
 31
0.0
  0
LINE
  5
10001199
330
F6
100
AcDbEntity
  8
目盛
100
AcDbLine
 10
285.758533449693
 20
546.10478947005
 30
0.0
 11
285.9046617132928
 21
544.1101349810276
 31
0.0
  0
LINE
  5
1000119A
330
F6
100
AcDbEntity
  8
目盛
100
AcDbLine
 10
285.0388461292914
 20
546.0406856955142
 30
0.0
 11
285.3519107838741
 21
543.0570653238762
 31
0.0
  0
LINE
  5
1000119B
330
F6
100
AcDbEntity
  8
目盛
100
AcDbLine
 10
286.4798791960637
 20
546.1462556882102
 30
0.0
 11
286.5632817425877
 21
544.1479954410867
 31
0.0
  0
LINE
  5
1000119C
330
F6
100
AcDbEntity
  8
目盛
100
AcDbLine
 10
284.3215274793565
 20
545.9540076272883
 30
0.0
 11
284.5926127838556
 21
543.9724646028537
 31
0.0
  0
LINE
  5
1000119D
330
F6
100
AcDbEntity
  8
目盛
100
AcDbLine
 10
292.9291763046718
 20
545.5013934093519
 30
0.0
 11
292.4517704069692
 21
543.5592081429988
 31
0.0
  0
LINE
  5
1000119E
330
F6
100
AcDbEntity
  8
目盛
100
AcDbLine
 10
290.0865505560001
 20
546.0133747198222
 30
0.0
 11
289.8563295060082
 21
544.0266693395149
 31
0.0
  0
LINE
  5
1000119F
330
F6
100
AcDbEntity
  8
目盛
100
AcDbLine
 10
290.8028892804971
 20
545.9189397430309
 30
0.0
 11
290.5103779066358
 21
543.9404460998364
 31
0.0
  0
LINE
  5
100011A0
330
F6
100
AcDbEntity
  8
目盛
100
AcDbLine
 10
291.5159082607721
 20
545.8020506211067
 30
0.0
 11
291.161395236452
 21
543.8337212493839
 31
0.0
  0
LINE
  5
100011A1
330
F6
100
AcDbEntity
  8
目盛
100
AcDbLine
 10
292.2249038331737
 20
545.6628227095007
 30
0.0
 11
291.6006566133372
 21
542.7284888142996
 31
0.0
  0
LINE
  5
100011A2
330
F6
100
AcDbEntity
  8
目盛
100
AcDbLine
 10
289.3675990271163
 20
546.0852623555594
 30
0.0
 11
289.1998955013747
 21
544.0923058764929
 31
0.0
  0
LINE
  5
100011A3
330
F6
100
AcDbEntity
  8
目盛
100
AcDbLine
 10
297.6692130640208
 20
543.765848138026
 30
0.0
 11
296.7796300568098
 21
541.9745798517886
 31
0.0
  0
LINE
  5
100011A4
330
F6
100
AcDbEntity
  8
目盛
100
AcDbLine
 10
296.3555674295881
 20
544.367559422634
 30
0.0
 11
295.5802144775447
 21
542.5239684159955
 31
0.0
  0
LINE
  5
100011A5
330
F6
100
AcDbEntity
  8
目盛
100
AcDbLine
 10
297.0171164649053
 20
544.077021977668
 30
0.0
 11
296.1842375097912
 21
542.2586950966787
 31
0.0
  0
LINE
  5
100011A6
330
F6
100
AcDbEntity
  8
目盛
100
AcDbLine
 10
293.6280306433636
 20
545.3179220318909
 30
0.0
 11
293.089854803166
 21
543.3916907983607
 31
0.0
  0
LINE
  5
100011A7
330
F6
100
AcDbEntity
  8
目盛
100
AcDbLine
 10
294.3207771643912
 20
545.1125896412151
 30
0.0
 11
293.7223624962783
 21
543.2042133981785
 31
0.0
  0
LINE
  5
100011A8
330
F6
100
AcDbEntity
  8
目盛
100
AcDbLine
 10
295.6852188270985
 20
544.6371737475422
 30
0.0
 11
294.6096261732717
 21
541.8366201517269
 31
0.0
  0
LINE
  5
100011A9
330
F6
100
AcDbEntity
  8
目盛
100
AcDbLine
 10
295.0067322105739
 20
544.8855988756058
 30
0.0
 11
294.3486692775754
 21
542.9969609600134
 31
0.0
  0
ARC
  5
100011B5
330
F6
100
AcDbEntity
  8
0
  6
ByBlock
 62
     2
100
AcDbCircle
 10
275.0230923985601
 20
419.3829900661494
 30
0.0
 40
44.77087544044699
100
AcDbArc
 50
20.51425525350291
 51
76.99290942784621
  0
LINE
  5
100011C1
330
F6
100
AcDbEntity
  8
0
  6
ByBlock
 62
     2
100
AcDbLine
 10
275.0230923985601
 20
419.3829900661495
 30
0.0
 11
315.8553647723876
 21
437.7448205983593
 31
0.0
  0
MTEXT
  5
100011C2
330
F6
100
AcDbEntity
  8
0
  6
ByBlock
 62
     6
100
AcDbMText
 10
304.3103331151123
 20
434.6090038562295
 30
0.0
 40
2.5
 41
0.0
 71
     5
 72
     1
  1
R45
  7
STYLE3
 11
0.913545457642601
 21
0.4067366430758003
 31
0.0
 73
     1
 44
1.0
  0
INSERT
  5
100011C3
330
F6
100
AcDbEntity
  8
0
  6
ByBlock
 62
     2
100
AcDbBlockReference
  2
_OPEN
 10
315.8553647723876
 20
437.7448205983593
 30
0.0
 41
2.5
 42
2.5
 43
2.5
 50
24.21293324631533
  0
POINT
  5
100011C4
330
F6
100
AcDbEntity
  8
DEFPOINTS
  6
ByBlock
 62
     0
100
AcDbPoint
 10
315.8553647723876
 20
437.7448205983593
 30
0.0
  0
POINT
  5
100011C5
330
F6
100
AcDbEntity
  8
DEFPOINTS
  6
ByBlock
 62
     0
100
AcDbPoint
 10
275.0230923985602
 20
419.3829900661494
 30
0.0
  0
LINE
  5
100011C6
330
F6
100
AcDbEntity
  8
中心線
100
AcDbLine
 10
238.0286094718922
 20
459.4849973457196
 30
0.0
 11
302.520382910748
 21
441.4023982990198
 31
0.0
  0
CIRCLE
  5
100011CB
330
F6
100
AcDbEntity
  8
外形線
100
AcDbCircle
 10
242.0480923985601
 20
458.3579900661494
 30
0.0
 40
2.0
  0
CIRCLE
  5
100011CC
330
F6
100
AcDbEntity
  8
外形線
100
AcDbCircle
 10
242.0480923985601
 20
458.3579900661494
 30
0.0
 40
1.25
  0
CIRCLE
  5
100011CF
330
F6
100
AcDbEntity
  8
外形線
100
AcDbCircle
 10
299.02309239856
 20
442.3829900661494
 30
0.0
 40
2.0
  0
CIRCLE
  5
100011D0
330
F6
100
AcDbEntity
  8
外形線
100
AcDbCircle
 10
299.02309239856
 20
442.3829900661494
 30
0.0
 40
1.25
  0
LINE
  5
100011D1
330
F6
100
AcDbEntity
  8
外形線
100
AcDbLine
 10
246.4500977941157
 20
459.097001489933
 30
0.0
 11
245.4241940304053
 21
455.4381052810191
 31
0.0
  0
LINE
  5
100011D2
330
F6
100
AcDbEntity
  8
外形線
100
AcDbLine
 10
296.3106937260414
 20
445.116781744211
 30
0.0
 11
295.2847899623311
 21
441.457885535297
 31
0.0
  0
LINE
  5
100011D5
330
F6
100
AcDbEntity
  8
中心線
100
AcDbLine
 10
244.6830242068527
 20
459.1770385905244
 30
0.0
 11
297.5582656666903
 21
444.3515540390385
 31
0.0
  0
LINE
  5
100011D6
330
F6
100
AcDbEntity
  8
中心線
100
AcDbLine
 10
243.8731001828708
 20
456.2884363203291
 30
0.0
 11
296.7483416427084
 21
441.4629517688434
 31
0.0
  0
LINE
  5
100011D7
330
F6
100
AcDbEntity
  8
外形線
100
AcDbLine
 10
246.4500977941157
 20
459.0970014899329
 30
0.0
 11
296.3106937260415
 21
445.1167817442109
 31
0.0
  0
LINE
  5
100011D8
330
F6
100
AcDbEntity
  8
外形線
100
AcDbLine
 10
245.4241940304053
 20
455.438105281019
 30
0.0
 11
295.2847899623311
 21
441.4578855352969
 31
0.0
  0
ARC
  5
100011DE
330
F6
100
AcDbEntity
  8
隠れ線2
100
AcDbCircle
 10
278.9480923985601
 20
441.0579900661494
 30
0.0
 40
10.0
100
AcDbArc
 50
196.1480869533802
 51
271.0616786510346
  0
LINE
  5
100011ED
330
F6
100
AcDbEntity
  8
隠れ線2
100
AcDbLine
 10
279.1333796755637
 20
431.059706782256
 30
0.0
 11
294.8141606983376
 21
431.1579900661493
 31
0.0
  0
DIMENSION
  5
10001203
330
F6
100
AcDbEntity
  8
寸法線
100
AcDbDimension
  2
*D9
 10
320.0230923985602
 20
392.622007349134
 30
0.0
 11
297.5230923985602
 21
394.4970073491341
 31
0.0
 70
    32
 71
     5
 42
-1.0
  3
STANDARD
100
AcDbAlignedDimension
 13
275.0230923985601
 23
390.9475988935897
 33
0.0
 14
320.0230923985602
 24
395.7078685470843
 34
0.0
100
AcDbRotatedDimension
1001
ACAD
1000
DSTYLE
1002
{
1070
    41
1040
2.5
1070
    42
1040
0.0
1070
    43
1040
3.75
1070
    44
1040
1.25
1070
    73
1070
     0
1070
    74
1070
     0
1070
    75
1070
     1
1070
    77
1070
     1
1070
    78
1070
     8
1070
   140
1040
2.5
1070
   141
1040
2.5
1070
   143
1040
0.0394
1070
   147
1040
0.625
1070
   171
1070
     4
1070
   172
1070
     1
1070
   173
1070
     1
1070
   176
1070
     2
1070
   177
1070
     2
1070
   178
1070
     6
1070
   271
1070
     2
1070
   273
1070
     8
1070
   274
1070
     4
1070
   279
1070
     1
1070
   340
1005
10000041
1070
   343
1005
10000009
1070
   344
1005
10000009
1002
}
  0
SPLINE
  5
10001210
330
F6
100
AcDbEntity
  8
外形線
100
AcDbSpline
210
0.0
220
0.0
230
1.0
 70
    24
 71
     3
 72
     8
 73
     4
 74
     0
 42
0.0000000001
 43
0.0000000001
 40
134.767205644683
 40
134.767205644683
 40
134.767205644683
 40
134.767205644683
 40
200.466512217782
 40
200.466512217782
 40
200.466512217782
 40
200.466512217782
 10
255.3855123513744
 20
407.5579900661494
 30
0.0
 10
226.1820625124156
 20
407.5579900661494
 30
0.0
 10
204.1022152785878
 20
407.5579900661494
 30
0.0
 10
203.0480923985602
 20
407.5579900661494
 30
0.0
  0
SPLINE
  5
10001211
330
F6
100
AcDbEntity
  8
隠れ線2
100
AcDbSpline
210
0.0
220
0.0
230
1.0
 70
    24
 71
     3
 72
     8
 73
     4
 74
     0
 42
0.0000000001
 43
0.0000000001
 40
118.7202976174927
 40
118.7202976174927
 40
118.7202976174927
 40
118.7202976174927
 40
134.1554904769813
 40
134.1554904769813
 40
134.1554904769813
 40
134.1554904769813
 10
279.0222482855397
 20
407.5579900661494
 30
0.0
 10
270.3728255482023
 20
407.5579900661494
 30
0.0
 10
263.0949296276686
 20
407.5579900661494
 30
0.0
 10
255.3707355726898
 20
407.5579900661494
 30
0.0
  0
ARC
  5
10001213
330
F6
100
AcDbEntity
  8
外形線
100
AcDbCircle
 10
276.9611590112674
 20
411.1683749110531
 30
0.0
 40
4.0
100
AcDbArc
 50
266.444836816616
 51
282.2242844956201
  0
LINE
  5
1000121D
330
F6
100
AcDbEntity
  8
0
  6
ByBlock
 62
     2
100
AcDbLine
 10
275.0230923985601
 20
419.303464814926
 30
0.0
 11
237.5376871367822
 21
337.5474192510207
 31
0.0
  0
MTEXT
  5
1000121E
330
F6
100
AcDbEntity
  8
0
  6
ByBlock
 62
     6
100
AcDbMText
 10
243.7944587168198
 20
355.692252655854
 30
0.0
 40
2.5
 41
0.0
 71
     5
 72
     1
  1
\A1;R90
  7
STYLE3
 11
0.4167822806864218
 21
0.9090063423903183
 31
0.0
 73
     1
 44
1.0
  0
INSERT
  5
1000121F
330
F6
100
AcDbEntity
  8
0
  6
ByBlock
 62
     2
100
AcDbBlockReference
  2
_OPEN
 10
237.5376871367822
 20
337.5474192510207
 30
0.0
 41
2.5
 42
2.5
 43
2.5
 50
245.3683945674744
  0
POINT
  5
10001220
330
F6
100
AcDbEntity
  8
DEFPOINTS
  6
ByBlock
 62
     0
100
AcDbPoint
 10
237.5376871367822
 20
337.5474192510207
 30
0.0
  0
POINT
  5
10001221
330
F6
100
AcDbEntity
  8
DEFPOINTS
  6
ByBlock
 62
     0
100
AcDbPoint
 10
275.0480923985602
 20
419.3579900661493
 30
0.0
  0
ARC
  5
10001224
330
F6
100
AcDbEntity
  8
隠れ線2
100
AcDbCircle
 10
332.9730923985601
 20
361.1329900661494
 30
0.0
 40
100.0
100
AcDbArc
 50
105.7862380219402
 51
110.1663634116726
  0
ARC
  5
10001225
330
F6
100
AcDbEntity
  8
外形線
100
AcDbCircle
 10
332.9730923985601
 20
361.1329900661494
 30
0.0
 40
100.0
100
AcDbArc
 50
110.1663634116726
 51
137.875
  0
LINE
  5
1000122A
330
F6
100
AcDbEntity
  8
中心線
 48
0.1
100
AcDbLine
 10
274.9230923985601
 20
330.8171538595747
 30
0.0
 11
274.9230923985601
 21
327.8372334661446
 31
0.0
  0
ARC
  5
1000122B
330
F6
100
AcDbEntity
  8
外形線
100
AcDbCircle
 10
274.9230923985601
 20
329.3579900661494
 30
0.0
 40
0.75
100
AcDbArc
 50
223.1346943282474
 51
136.8653056717526
  0
LINE
  5
1000122E
330
F6
100
AcDbEntity
  8
中心線
 48
0.08
100
AcDbLine
 10
280.0003691991378
 20
330.8685404582547
 30
0.0
 11
280.196468929781
 21
328.1885108061318
 31
0.0
  0
ARC
  5
1000122F
330
F6
100
AcDbEntity
  8
想像線
100
AcDbCircle
 10
280.1005122805518
 20
329.4999183455964
 30
0.0
 40
0.75
100
AcDbArc
 50
227.1946602525478
 51
141.1751719976933
  0
LINE
  5
10001232
330
F6
100
AcDbEntity
  8
中心線
 48
0.1
100
AcDbLine
 10
270.4333162056053
 20
330.9521661549974
 30
0.0
 11
270.3614170220468
 21
328.004299629101
 31
0.0
  0
ARC
  5
10001234
330
F6
100
AcDbEntity
  8
想像線
100
AcDbCircle
 10
270.397366613826
 20
329.4782328920492
 30
0.0
 40
0.75
100
AcDbArc
 50
221.626284880508
 51
135.5793530649019
  0
LINE
  5
10001236
330
F6
100
AcDbEntity
  8
中心線
 48
0.1
100
AcDbLine
 10
171.8230923985601
 20
331.3375645818334
 30
0.0
 11
171.8230923985601
 21
327.2315600467471
 31
0.0
  0
ARC
  5
10001237
330
F6
100
AcDbEntity
  8
外形線
100
AcDbCircle
 10
171.8230923985601
 20
329.3579900661494
 30
0.0
 40
0.75
100
AcDbArc
 50
43.13469432825354
 51
316.8653056717464
  0
LINE
  5
10001238
330
F6
100
AcDbEntity
  8
中心線
 48
0.1
100
AcDbLine
 10
131.8230923985601
 20
331.3625645818334
 30
0.0
 11
131.8230923985601
 21
327.2565600467471
 31
0.0
  0
LINE
  5
10001239
330
F6
100
AcDbEntity
  8
想像線
100
AcDbLine
 10
136.0230923985601
 20
327.8579900661494
 30
0.0
 11
132.370403698438
 21
328.8452032283446
 31
0.0
  0
LINE
  5
1000123A
330
F6
100
AcDbEntity
  8
想像線
100
AcDbLine
 10
136.0230923985601
 20
330.8579900661494
 30
0.0
 11
132.370403698438
 21
329.8707769039542
 31
0.0
  0
LINE
  5
1000123B
330
F6
100
AcDbEntity
  8
想像線
100
AcDbLine
 10
132.370403698438
 20
329.8707769039542
 30
0.0
 11
132.370403698438
 21
328.8452032283446
 31
0.0
  0
ARC
  5
1000123C
330
F6
100
AcDbEntity
  8
想像線
100
AcDbCircle
 10
131.8230923985601
 20
329.3579900661494
 30
0.0
 40
0.75
100
AcDbArc
 50
43.13469432825354
 51
316.8653056717464
  0
LINE
  5
1000123D
330
F6
100
AcDbEntity
  8
想像線
100
AcDbLine
 10
136.0230923985601
 20
330.8579900661494
 30
0.0
 11
136.0230923985601
 21
327.8579900661494
 31
0.0
  0
LINE
  5
1000123E
330
F6
100
AcDbEntity
  8
想像線
100
AcDbLine
 10
138.0230923985601
 20
327.8579900661494
 30
0.0
 11
136.0230923985601
 21
327.8579900661494
 31
0.0
  0
LINE
  5
1000123F
330
F6
100
AcDbEntity
  8
想像線
100
AcDbLine
 10
138.0230923985601
 20
330.8579900661494
 30
0.0
 11
136.0230923985601
 21
330.8579900661494
 31
0.0
  0
LINE
  5
1000128B
330
F6
100
AcDbEntity
  8
外形線
100
AcDbLine
 10
190.4980923985601
 20
429.3829900661494
 30
0.0
 11
190.4980923985601
 21
409.3829900661493
 31
0.0
  0
ARC
  5
1000128C
330
F6
100
AcDbEntity
  8
外形線
100
AcDbCircle
 10
185.4980923985602
 20
419.3829900661494
 30
0.0
 40
3.5
100
AcDbArc
 50
90.0
 51
270.0
  0
ARC
  5
1000128D
330
F6
100
AcDbEntity
  8
外形線
100
AcDbCircle
 10
195.4980923985602
 20
419.3829900661494
 30
0.0
 40
3.5
100
AcDbArc
 50
270.0
 51
90.0
  0
LINE
  5
1000128F
330
F6
100
AcDbEntity
  8
隠れ線2
 48
0.5
100
AcDbLine
 10
180.4980923985602
 20
415.8829900661494
 30
0.0
 11
180.4980923985602
 21
422.8829900661494
 31
0.0
  0
LINE
  5
10001290
330
F6
100
AcDbEntity
  8
外形線
100
AcDbLine
 10
202.9980923985601
 20
407.8829900661494
 30
0.0
 11
202.9980923985604
 21
429.3829900661494
 31
0.0
  0
LINE
  5
10001291
330
F6
100
AcDbEntity
  8
外形線
100
AcDbLine
 10
177.9980923985602
 20
407.8829900661494
 30
0.0
 11
177.99809239856
 21
429.3829900661494
 31
0.0
  0
LINE
  5
10001292
330
F6
100
AcDbEntity
  8
隠れ線2
100
AcDbLine
 10
177.9980923985601
 20
413.8829900661494
 30
0.0
 11
202.9980923985602
 21
413.8829900661494
 31
0.0
  0
LINE
  5
10001293
330
F6
100
AcDbEntity
  8
外形線
100
AcDbLine
 10
185.4980923985602
 20
415.8829900661494
 30
0.0
 11
195.4980923985601
 21
415.8829900661494
 31
0.0
  0
LINE
  5
10001294
330
F6
100
AcDbEntity
  8
外形線
100
AcDbLine
 10
177.9980923985601
 20
409.3829900661494
 30
0.0
 11
202.9980923985602
 21
409.3829900661493
 31
0.0
  0
LINE
  5
10001296
330
F6
100
AcDbEntity
  8
外形線
100
AcDbLine
 10
202.9980923985602
 20
410.3829900661494
 30
0.0
 11
202.9980923985602
 21
413.3587259974376
 31
0.0
  0
CIRCLE
  5
10001297
330
F6
100
AcDbEntity
  8
外形線
100
AcDbCircle
 10
200.4980923985602
 20
411.3829900661492
 30
0.0
 40
1.25
  0
LINE
  5
10001298
330
F6
100
AcDbEntity
  8
外形線
100
AcDbLine
 10
201.058694036702
 20
410.8223884280074
 30
0.0
 11
199.9779555501695
 21
411.9031269145398
 31
0.0
  0
LINE
  5
10001299
330
F6
100
AcDbEntity
  8
外形線
100
AcDbLine
 10
199.9801204345337
 20
410.8650181021229
 30
0.0
 11
201.0424909232365
 21
411.9273885908257
 31
0.0
  0
LINE
  5
1000129A
330
F6
100
AcDbEntity
  8
中心線
100
AcDbLine
 10
198.6276508510866
 20
411.3829900661492
 30
0.0
 11
202.3531249311258
 21
411.3829900661492
 31
0.0
  0
LINE
  5
1000129B
330
F6
100
AcDbEntity
  8
中心線
100
AcDbLine
 10
200.4980923985601
 20
409.5092116772608
 30
0.0
 11
200.4980923985601
 21
413.2188978557477
 31
0.0
  0
LINE
  5
1000129D
330
F6
100
AcDbEntity
  8
外形線
100
AcDbLine
 10
181.0586940367021
 20
410.8223884280076
 30
0.0
 11
179.9779555501696
 21
411.9031269145399
 31
0.0
  0
LINE
  5
1000129E
330
F6
100
AcDbEntity
  8
外形線
100
AcDbLine
 10
179.9801204345338
 20
410.865018102123
 30
0.0
 11
181.0424909232366
 21
411.9273885908259
 31
0.0
  0
CIRCLE
  5
1000129F
330
F6
100
AcDbEntity
  8
外形線
100
AcDbCircle
 10
180.4980923985602
 20
411.3829900661494
 30
0.0
 40
1.25
  0
LINE
  5
100012A0
330
F6
100
AcDbEntity
  8
中心線
100
AcDbLine
 10
178.8083639052409
 20
411.3829900661494
 30
0.0
 11
182.2819488951445
 21
411.3829900661495
 31
0.0
  0
LINE
  5
100012A1
330
F6
100
AcDbEntity
  8
中心線
100
AcDbLine
 10
180.4980923985602
 20
409.619061083866
 30
0.0
 11
180.4980923985602
 21
413.2158503941764
 31
0.0
  0
LINE
  5
100012A9
330
F6
100
AcDbEntity
  8
隠れ線2
100
AcDbLine
 10
177.99809239856
 20
424.8829900661494
 30
0.0
 11
202.9980923985604
 21
424.8829900661495
 31
0.0
  0
LINE
  5
100012AA
330
F6
100
AcDbEntity
  8
外形線
100
AcDbLine
 10
185.4980923985602
 20
422.8829900661494
 30
0.0
 11
195.4980923985601
 21
422.8829900661494
 31
0.0
  0
LINE
  5
100012AB
330
F6
100
AcDbEntity
  8
外形線
100
AcDbLine
 10
185.4980923985602
 20
430.3829900661494
 30
0.0
 11
195.4980923985601
 21
430.3829900661494
 31
0.0
  0
LINE
  5
100012AC
330
F6
100
AcDbEntity
  8
外形線
100
AcDbLine
 10
185.4980923985602
 20
433.3829900661494
 30
0.0
 11
195.4980923985601
 21
433.3829900661494
 31
0.0
  0
LINE
  5
100012AD
330
F6
100
AcDbEntity
  8
外形線
100
AcDbLine
 10
177.99809239856
 20
429.3829900661494
 30
0.0
 11
202.9980923985604
 21
429.3829900661494
 31
0.0
  0
LINE
  5
100012AE
330
F6
100
AcDbEntity
  8
外形線
100
AcDbLine
 10
202.9980923985601
 20
425.4072541348612
 30
0.0
 11
202.9980923985602
 21
428.5009900661496
 31
0.0
  0
CIRCLE
  5
100012AF
330
F6
100
AcDbEntity
  8
外形線
100
AcDbCircle
 10
200.4980923985602
 20
427.3829900661495
 30
0.0
 40
1.25
  0
LINE
  5
100012B0
330
F6
100
AcDbEntity
  8
外形線
100
AcDbLine
 10
201.0586940367021
 20
426.8223884280075
 30
0.0
 11
199.9779555501696
 21
427.9031269145399
 31
0.0
  0
LINE
  5
100012B1
330
F6
100
AcDbEntity
  8
外形線
100
AcDbLine
 10
199.9801204345338
 20
426.8650181021231
 30
0.0
 11
201.0424909232366
 21
427.9273885908259
 31
0.0
  0
LINE
  5
100012B2
330
F6
100
AcDbEntity
  8
中心線
100
AcDbLine
 10
200.4980923985601
 20
429.2567684550379
 30
0.0
 11
200.4980923985601
 21
425.5470822765511
 31
0.0
  0
LINE
  5
100012B3
330
F6
100
AcDbEntity
  8
中心線
100
AcDbLine
 10
198.6276508510866
 20
427.3829900661495
 30
0.0
 11
202.3531249311258
 21
427.3829900661495
 31
0.0
  0
LINE
  5
100012B4
330
F6
100
AcDbEntity
  8
外形線
100
AcDbLine
 10
195.4980923985601
 20
430.3829900661494
 30
0.0
 11
195.4980923985601
 21
433.3829900661494
 31
0.0
  0
LINE
  5
100012B5
330
F6
100
AcDbEntity
  8
中心線
100
AcDbLine
 10
190.4980923985601
 20
429.3829900661494
 30
0.0
 11
190.4980923985601
 21
436.518517837817
 31
0.0
  0
LINE
  5
100012B6
330
F6
100
AcDbEntity
  8
隠れ線2
 48
0.3
100
AcDbLine
 10
188.9980923985602
 20
424.9829900661494
 30
0.0
 11
188.9980923985602
 21
429.3829900661494
 31
0.0
  0
LINE
  5
100012B7
330
F6
100
AcDbEntity
  8
隠れ線2
 48
0.3
100
AcDbLine
 10
191.9980923985601
 20
424.9829900661494
 30
0.0
 11
191.9980923985601
 21
429.3829900661494
 31
0.0
  0
LINE
  5
100012B8
330
F6
100
AcDbEntity
  8
隠れ線2
 48
0.3
100
AcDbLine
 10
189.3980923985601
 20
424.9829900661494
 30
0.0
 11
189.3980923985601
 21
429.3829900661494
 31
0.0
  0
LINE
  5
100012B9
330
F6
100
AcDbEntity
  8
隠れ線2
 48
0.3
100
AcDbLine
 10
191.5980923985602
 20
424.9829900661494
 30
0.0
 11
191.5980923985602
 21
429.3829900661494
 31
0.0
  0
LINE
  5
100012BA
330
F6
100
AcDbEntity
  8
外形線
100
AcDbLine
 10
188.9980923985602
 20
429.3829900661494
 30
0.0
 11
188.9980923985602
 21
430.3829900661494
 31
0.0
  0
LINE
  5
100012BB
330
F6
100
AcDbEntity
  8
外形線
100
AcDbLine
 10
191.9980923985601
 20
429.3829900661494
 30
0.0
 11
191.9980923985601
 21
430.3829900661494
 31
0.0
  0
LINE
  5
100012BC
330
F6
100
AcDbEntity
  8
外形線
100
AcDbLine
 10
189.3980923985601
 20
429.3829900661494
 30
0.0
 11
189.3980923985601
 21
430.3829900661494
 31
0.0
  0
LINE
  5
100012BD
330
F6
100
AcDbEntity
  8
外形線
100
AcDbLine
 10
191.5980923985602
 20
429.3829900661494
 30
0.0
 11
191.5980923985602
 21
430.3829900661494
 31
0.0
  0
LINE
  5
100012BE
330
F6
100
AcDbEntity
  8
外形線
100
AcDbLine
 10
185.4980923985602
 20
430.3829900661494
 30
0.0
 11
185.4980923985602
 21
433.3829900661494
 31
0.0
  0
LINE
  5
100012BF
330
F6
100
AcDbEntity
  8
外形線
100
AcDbLine
 10
186.1980923985601
 20
430.3829900661494
 30
0.0
 11
186.1980923985601
 21
433.3829900661494
 31
0.0
  0
LINE
  5
100012C0
330
F6
100
AcDbEntity
  8
外形線
100
AcDbLine
 10
186.8980923985601
 20
430.3829900661494
 30
0.0
 11
186.8980923985601
 21
433.3829900661494
 31
0.0
  0
LINE
  5
100012C1
330
F6
100
AcDbEntity
  8
外形線
100
AcDbLine
 10
187.5980923985601
 20
430.3829900661494
 30
0.0
 11
187.5980923985601
 21
433.3829900661494
 31
0.0
  0
LINE
  5
100012C2
330
F6
100
AcDbEntity
  8
外形線
100
AcDbLine
 10
188.2980923985601
 20
430.3829900661494
 30
0.0
 11
188.2980923985601
 21
433.3829900661494
 31
0.0
  0
LINE
  5
100012C3
330
F6
100
AcDbEntity
  8
外形線
100
AcDbLine
 10
188.99809239856
 20
430.3829900661494
 30
0.0
 11
188.9980923985601
 21
433.3829900661494
 31
0.0
  0
LINE
  5
100012C4
330
F6
100
AcDbEntity
  8
外形線
100
AcDbLine
 10
189.6980923985601
 20
430.3829900661494
 30
0.0
 11
189.6980923985601
 21
433.3829900661494
 31
0.0
  0
LINE
  5
100012C5
330
F6
100
AcDbEntity
  8
外形線
100
AcDbLine
 10
179.9801204345339
 20
426.865018102123
 30
0.0
 11
181.0424909232366
 21
427.9273885908257
 31
0.0
  0
LINE
  5
100012C6
330
F6
100
AcDbEntity
  8
外形線
100
AcDbLine
 10
181.0586940367021
 20
426.8223884280073
 30
0.0
 11
179.9779555501696
 21
427.9031269145398
 31
0.0
  0
CIRCLE
  5
100012C7
330
F6
100
AcDbEntity
  8
外形線
100
AcDbCircle
 10
180.4980923985602
 20
427.3829900661493
 30
0.0
 40
1.25
  0
LINE
  5
100012C8
330
F6
100
AcDbEntity
  8
中心線
100
AcDbLine
 10
180.4980923985602
 20
429.1469190484328
 30
0.0
 11
180.4980923985602
 21
425.5501297381224
 31
0.0
  0
LINE
  5
100012C9
330
F6
100
AcDbEntity
  8
中心線
100
AcDbLine
 10
178.8083639052409
 20
427.3829900661494
 30
0.0
 11
182.2819488951445
 21
427.3829900661493
 31
0.0
  0
TEXT
  5
100012CC
330
F6
100
AcDbEntity
  8
文字
100
AcDbText
 10
164.6944332641786
 20
418.4674794819561
 30
0.0
 40
2.0
  1
120
  7
STYLE3
100
AcDbText
  0
TEXT
  5
100012CD
330
F6
100
AcDbEntity
  8
文字
100
AcDbText
 10
154.5122664464285
 20
418.3873418770464
 30
0.0
 40
2.0
  1
130
  7
STYLE3
100
AcDbText
  0
TEXT
  5
100012CE
330
F6
100
AcDbEntity
  8
文字
100
AcDbText
 10
144.3300996286782
 20
418.3873418770464
 30
0.0
 40
2.0
  1
140
  7
STYLE3
100
AcDbText
  0
TEXT
  5
100012CF
330
F6
100
AcDbEntity
  8
文字
100
AcDbText
 10
174.1550288766929
 20
418.3072049369531
 30
0.0
 40
2.0
  1
11
  7
STYLE3
100
AcDbText
  0
TEXT
  5
100012D0
330
F6
100
AcDbEntity
  8
文字
100
AcDbText
 10
184.0966723069079
 20
418.5476164220494
 30
0.0
 40
2.0
  1
100
  7
STYLE3
100
AcDbText
  0
LINE
  5
100012D1
330
F6
100
AcDbEntity
  8
想像線
100
AcDbLine
 10
168.230548896063
 20
399.3579900661494
 30
0.0
 11
280.2320742302853
 21
399.3579900661494
 31
0.0
  0
DIMENSION
  5
100012E4
330
F6
100
AcDbEntity
  8
寸法線
100
AcDbDimension
  2
*D11
 10
130.5340581396921
 20
413.8579900661493
 30
0.0
 11
128.6590581396921
 21
419.3579900661494
 31
0.0
 70
    32
 71
     5
 42
-1.0
  3
STANDARD
100
AcDbAlignedDimension
 13
138.0480923985601
 23
424.8579900661494
 33
0.0
 14
138.0480923985601
 24
413.8579900661493
 34
0.0
 50
90.0
100
AcDbRotatedDimension
1001
ACAD
1000
DSTYLE
1002
{
1070
    41
1040
2.5
1070
    42
1040
0.0
1070
    43
1040
3.75
1070
    44
1040
1.25
1070
    73
1070
     0
1070
    74
1070
     0
1070
    75
1070
     1
1070
    77
1070
     1
1070
    78
1070
     8
1070
   140
1040
2.5
1070
   141
1040
2.5
1070
   143
1040
0.0394
1070
   147
1040
0.625
1070
   171
1070
     4
1070
   172
1070
     1
1070
   173
1070
     1
1070
   176
1070
     2
1070
   177
1070
     2
1070
   178
1070
     6
1070
   271
1070
     2
1070
   273
1070
     8
1070
   274
1070
     4
1070
   279
1070
     1
1070
   340
1005
10000041
1070
   343
1005
10000009
1070
   344
1005
10000009
1002
}
  0
LINE
  5
100012E5
330
F6
100
AcDbEntity
  8
寸法線
100
AcDbLine
 10
138.0480923985601
 20
424.8579900661494
 30
0.0
 11
129.2341097369682
 21
424.8579900661494
 31
0.0
  0
DIMENSION
  5
100012F1
330
F6
100
AcDbEntity
  8
寸法線
100
AcDbDimension
  2
*D12
 10
271.147366613826
 20
318.9208414670747
 30
0.0
 11
275.9989394471889
 21
320.7958414670747
 31
0.0
 70
    32
  1
10
 71
     5
 42
-1.0
  3
STANDARD
100
AcDbAlignedDimension
 13
280.8505122805519
 23
329.4999183455964
 33
0.0
 14
271.147366613826
 24
329.4782328920492
 34
0.0
100
AcDbRotatedDimension
1001
ACAD
1000
DSTYLE
1002
{
1070
    41
1040
2.5
1070
    42
1040
0.0
1070
    43
1040
3.75
1070
    44
1040
1.25
1070
    73
1070
     0
1070
    74
1070
     0
1070
    75
1070
     1
1070
    77
1070
     1
1070
    78
1070
     8
1070
   140
1040
2.5
1070
   141
1040
2.5
1070
   143
1040
0.0394
1070
   147
1040
0.625
1070
   171
1070
     4
1070
   172
1070
     1
1070
   173
1070
     1
1070
   176
1070
     2
1070
   177
1070
     2
1070
   178
1070
     6
1070
   271
1070
     2
1070
   273
1070
     8
1070
   274
1070
     4
1070
   279
1070
     1
1070
   340
1005
10000041
1070
   343
1005
10000009
1070
   344
1005
10000009
1002
}
  0
DIMENSION
  5
100012FD
330
F6
100
AcDbEntity
  8
寸法線
100
AcDbDimension
  2
*D13
 10
171.0730923985601
 20
318.9208414670747
 30
0.0
 11
221.1102295061931
 21
320.7958414670747
 31
0.0
 70
    32
  1
100
 71
     5
 42
-1.0
  3
STANDARD
100
AcDbAlignedDimension
 13
271.147366613826
 23
329.4782328920492
 33
0.0
 14
171.0730923985601
 24
329.3579900661494
 34
0.0
100
AcDbRotatedDimension
1001
ACAD
1000
DSTYLE
1002
{
1070
    41
1040
2.5
1070
    42
1040
0.0
1070
    43
1040
3.75
1070
    44
1040
1.25
1070
    73
1070
     0
1070
    74
1070
     0
1070
    75
1070
     1
1070
    77
1070
     1
1070
    78
1070
     8
1070
   140
1040
2.5
1070
   141
1040
2.5
1070
   143
1040
0.0394
1070
   147
1040
0.625
1070
   171
1070
     4
1070
   172
1070
     1
1070
   173
1070
     1
1070
   176
1070
     2
1070
   177
1070
     2
1070
   178
1070
     6
1070
   271
1070
     2
1070
   273
1070
     8
1070
   274
1070
     4
1070
   279
1070
     1
1070
   340
1005
10000041
1070
   343
1005
10000009
1070
   344
1005
10000009
1002
}
  0
DIMENSION
  5
10001309
330
F6
100
AcDbEntity
  8
寸法線
100
AcDbDimension
  2
*D14
 10
131.0730923985601
 20
318.9208414670747
 30
0.0
 11
151.0730923985601
 21
320.7958414670747
 31
0.0
 70
    32
 71
     5
 42
-1.0
  3
STANDARD
100
AcDbAlignedDimension
 13
171.0730923985601
 23
329.3579900661494
 33
0.0
 14
131.0730923985601
 24
329.3579900661494
 34
0.0
100
AcDbRotatedDimension
1001
ACAD
1000
DSTYLE
1002
{
1070
    41
1040
2.5
1070
    42
1040
0.0
1070
    43
1040
3.75
1070
    44
1040
1.25
1070
    73
1070
     0
1070
    74
1070
     0
1070
    75
1070
     1
1070
    77
1070
     1
1070
    78
1070
     8
1070
   140
1040
2.5
1070
   141
1040
2.5
1070
   143
1040
0.0394
1070
   147
1040
0.625
1070
   171
1070
     4
1070
   172
1070
     1
1070
   173
1070
     1
1070
   176
1070
     2
1070
   177
1070
     2
1070
   178
1070
     6
1070
   271
1070
     2
1070
   273
1070
     8
1070
   274
1070
     4
1070
   279
1070
     1
1070
   340
1005
10000041
1070
   343
1005
10000009
1070
   344
1005
10000009
1002
}
  0
LINE
  5
1000130A
330
F6
100
AcDbEntity
  8
寸法線
100
AcDbLine
 10
280.8505122805519
 20
329.4999183455964
 30
0.0
 11
280.8505122805519
 21
310.697400023967
 31
0.0
  0
DIMENSION
  5
1000132A
330
F6
100
AcDbEntity
  8
寸法線
100
AcDbDimension
  2
*D15
 10
131.0730923985601
 20
312.648724943154
 30
0.0
 11
205.961802339556
 21
314.5237249431541
 31
0.0
 70
    32
  1
150
 71
     5
 42
-1.0
  3
STANDARD
100
AcDbAlignedDimension
 13
280.8505122805519
 23
310.697400023967
 33
0.0
 14
131.0730923985601
 24
317.6708414670747
 34
0.0
100
AcDbRotatedDimension
1001
ACAD
1000
DSTYLE
1002
{
1070
    41
1040
2.5
1070
    42
1040
0.0
1070
    43
1040
3.75
1070
    44
1040
1.25
1070
    73
1070
     0
1070
    74
1070
     0
1070
    75
1070
     1
1070
    77
1070
     1
1070
    78
1070
     8
1070
   140
1040
2.5
1070
   141
1040
2.5
1070
   143
1040
0.0394
1070
   147
1040
0.625
1070
   171
1070
     4
1070
   172
1070
     1
1070
   173
1070
     1
1070
   176
1070
     2
1070
   177
1070
     2
1070
   178
1070
     6
1070
   271
1070
     2
1070
   273
1070
     8
1070
   274
1070
     4
1070
   279
1070
     1
1070
   340
1005
10000041
1070
   343
1005
10000009
1070
   344
1005
10000009
1002
}
  0
DIMENSION
  5
1000134A
330
F6
100
AcDbEntity
  8
寸法線
100
AcDbDimension
  2
*D16
 10
123.1247203686007
 20
329.3579900661494
 30
0.0
 11
121.2497203686007
 21
364.3579900661494
 31
0.0
 70
    32
 71
     5
 42
-1.0
  3
STANDARD
100
AcDbAlignedDimension
 13
168.230548896063
 23
399.3579900661494
 33
0.0
 14
127.0394703212018
 24
329.3579900661494
 34
0.0
 50
90.0
100
AcDbRotatedDimension
1001
ACAD
1000
DSTYLE
1002
{
1070
    41
1040
2.5
1070
    42
1040
0.0
1070
    43
1040
3.75
1070
    44
1040
1.25
1070
    73
1070
     0
1070
    74
1070
     0
1070
    75
1070
     1
1070
    77
1070
     1
1070
    78
1070
     8
1070
   140
1040
2.5
1070
   141
1040
2.5
1070
   143
1040
0.0394
1070
   147
1040
0.625
1070
   171
1070
     4
1070
   172
1070
     1
1070
   173
1070
     1
1070
   176
1070
     2
1070
   177
1070
     2
1070
   178
1070
     6
1070
   271
1070
     2
1070
   273
1070
     8
1070
   274
1070
     4
1070
   279
1070
     1
1070
   340
1005
10000041
1070
   343
1005
10000009
1070
   344
1005
10000009
1002
}
  0
LINE
  5
1000134B
330
F6
100
AcDbEntity
  8
寸法線
100
AcDbLine
 10
168.230548896063
 20
399.3579900661494
 30
0.0
 11
121.421420806169
 21
399.3579900661494
 31
0.0
  0
LINE
  5
1000134C
330
F6
100
AcDbEntity
  8
想像線
 48
0.25
100
AcDbLine
 10
186.9595326587909
 20
375.1670674934421
 30
0.0
 11
177.9980923985601
 21
375.167067493442
 31
0.0
  0
LINE
  5
1000134D
330
F6
100
AcDbEntity
  8
想像線
 48
0.25
100
AcDbLine
 10
187.348065136738
 20
378.167067493442
 30
0.0
 11
177.9980923985601
 21
378.167067493442
 31
0.0
  0
DIMENSION
  5
1000135B
330
F6
100
AcDbEntity
  8
寸法線
100
AcDbDimension
  2
*D17
 10
169.9364577197657
 20
375.167067493442
 30
0.0
 11
168.0614577197657
 21
376.667067493442
 31
0.0
 12
0.0
 22
-11.86054562983315
 32
0.0
 70
    32
 71
     5
 42
-1.0
  3
STANDARD
100
AcDbAlignedDimension
 13
177.9980923985601
 23
378.167067493442
 33
0.0
 14
177.9980923985601
 24
375.167067493442
 34
0.0
 50
90.0
100
AcDbRotatedDimension
1001
ACAD
1000
DSTYLE
1002
{
1070
    41
1040
2.5
1070
    42
1040
0.0
1070
    43
1040
3.75
1070
    44
1040
1.25
1070
    73
1070
     0
1070
    74
1070
     0
1070
    75
1070
     1
1070
    77
1070
     1
1070
    78
1070
     8
1070
   140
1040
2.5
1070
   141
1040
2.5
1070
   143
1040
0.0394
1070
   147
1040
0.625
1070
   171
1070
     4
1070
   172
1070
     1
1070
   173
1070
     1
1070
   176
1070
     2
1070
   177
1070
     2
1070
   178
1070
     6
1070
   271
1070
     2
1070
   273
1070
     8
1070
   274
1070
     4
1070
   279
1070
     1
1070
   340
1005
10000041
1070
   343
1005
10000009
1070
   344
1005
10000009
1002
}
  0
LINE
  5
1000135C
330
F6
100
AcDbEntity
  8
寸法線
100
AcDbLine
 10
177.9980923985601
 20
378.167067493442
 30
0.0
 11
168.6413436217843
 21
378.167067493442
 31
0.0
  0
LINE
  5
1000135D
330
F6
100
AcDbEntity
  8
想像線
 48
0.2
100
AcDbLine
 10
260.5223837539528
 20
368.6776394246948
 30
0.0
 11
268.7230923985601
 21
368.6776394246948
 31
0.0
  0
LINE
  5
1000135F
330
F6
100
AcDbEntity
  8
想像線
 48
0.2
100
AcDbLine
 10
260.1260237943977
 20
371.6776394246949
 30
0.0
 11
268.7230923985601
 21
371.6776394246949
 31
0.0
  0
DIMENSION
  5
1000136D
330
F6
100
AcDbEntity
  8
寸法線
100
AcDbDimension
  2
*D18
 10
277.8038532302504
 20
368.6776394246948
 30
0.0
 11
275.9288532302504
 21
370.1776394246949
 31
0.0
 70
    32
 71
     5
 42
-1.0
  3
STANDARD
100
AcDbAlignedDimension
 13
268.7230923985601
 23
371.6776394246949
 33
0.0
 14
268.7230923985601
 24
368.6776394246948
 34
0.0
 50
90.0
100
AcDbRotatedDimension
1001
ACAD
1000
DSTYLE
1002
{
1070
    41
1040
2.5
1070
    42
1040
0.0
1070
    43
1040
3.75
1070
    44
1040
1.25
1070
    73
1070
     0
1070
    74
1070
     0
1070
    75
1070
     1
1070
    77
1070
     1
1070
    78
1070
     8
1070
   140
1040
2.5
1070
   141
1040
2.5
1070
   143
1040
0.0394
1070
   147
1040
0.625
1070
   171
1070
     4
1070
   172
1070
     1
1070
   173
1070
     1
1070
   176
1070
     2
1070
   177
1070
     2
1070
   178
1070
     6
1070
   271
1070
     2
1070
   273
1070
     8
1070
   274
1070
     4
1070
   279
1070
     1
1070
   340
1005
10000041
1070
   343
1005
10000009
1070
   344
1005
10000009
1002
}
  0
LINE
  5
1000136E
330
F6
100
AcDbEntity
  8
寸法線
100
AcDbLine
 10
268.7230923985601
 20
371.6776394246949
 30
0.0
 11
279.1155292788768
 21
371.6776394246949
 31
0.0
  0
DIMENSION
  5
10001436
330
F6
100
AcDbEntity
  8
寸法線
100
AcDbDimension
  2
*D24
 10
203.0480923985601
 20
392.5384046014851
 30
0.0
 11
239.0355923985601
 21
394.413404601485
 31
0.0
 70
    32
  1
72
 71
     5
 42
-1.0
  3
STANDARD
100
AcDbAlignedDimension
 13
275.0230923985601
 23
396.7554875659552
 33
0.0
 14
203.0480923985601
 24
407.5579900661494
 34
0.0
100
AcDbRotatedDimension
1001
ACAD
1000
DSTYLE
1002
{
1070
    41
1040
2.5
1070
    42
1040
0.0
1070
    43
1040
3.75
1070
    44
1040
1.25
1070
    73
1070
     0
1070
    74
1070
     0
1070
    75
1070
     1
1070
    77
1070
     1
1070
    78
1070
     8
1070
   140
1040
2.5
1070
   141
1040
2.5
1070
   143
1040
0.0394
1070
   147
1040
0.625
1070
   171
1070
     4
1070
   172
1070
     1
1070
   173
1070
     1
1070
   176
1070
     2
1070
   177
1070
     2
1070
   178
1070
     6
1070
   271
1070
     2
1070
   273
1070
     8
1070
   274
1070
     4
1070
   279
1070
     1
1070
   340
1005
10000041
1070
   343
1005
10000009
1070
   344
1005
10000009
1002
}
  0
DIMENSION
  5
10001458
330
F6
100
AcDbEntity
  8
寸法線
100
AcDbDimension
  2
*D25
 10
420.0230923985601
 20
385.4220772235853
 30
0.0
 11
279.0355923985601
 21
387.2970772235853
 31
0.0
 70
    32
  1
282
 71
     5
 42
-1.0
  3
STANDARD
100
AcDbAlignedDimension
 13
138.0480923985601
 23
383.117805983894
 33
0.0
 14
420.0230923985601
 24
391.3720073491341
 34
0.0
100
AcDbRotatedDimension
1001
ACAD
1000
DSTYLE
1002
{
1070
    41
1040
2.5
1070
    42
1040
0.0
1070
    43
1040
3.75
1070
    44
1040
1.25
1070
    73
1070
     0
1070
    74
1070
     0
1070
    75
1070
     1
1070
    77
1070
     1
1070
    78
1070
     8
1070
   140
1040
2.5
1070
   141
1040
2.5
1070
   143
1040
0.0394
1070
   147
1040
0.625
1070
   171
1070
     4
1070
   172
1070
     1
1070
   173
1070
     1
1070
   176
1070
     2
1070
   177
1070
     2
1070
   178
1070
     6
1070
   271
1070
     2
1070
   273
1070
     8
1070
   274
1070
     4
1070
   279
1070
     1
1070
   340
1005
10000041
1070
   343
1005
10000009
1070
   344
1005
10000009
1002
}
  0
LINE
  5
10001463
330
F6
100
AcDbEntity
  8
0
  6
ByBlock
 62
     2
100
AcDbLine
 10
138.0480923985601
 20
413.8579900661493
 30
0.0
 11
138.0480923985601
 21
383.117805983894
 31
0.0
  0
LINE
  5
10001464
330
F6
100
AcDbEntity
  8
0
  6
ByBlock
 62
     2
100
AcDbLine
 10
200.5480923985601
 20
392.5384046014851
 30
0.0
 11
140.5480923985601
 21
392.5384046014851
 31
0.0
  0
INSERT
  5
10001465
330
F6
100
AcDbEntity
  8
0
  6
ByBlock
 62
     2
100
AcDbBlockReference
  2
_OPEN
 10
203.0480923985601
 20
392.5384046014851
 30
0.0
 41
2.5
 42
2.5
 43
2.5
  0
INSERT
  5
10001466
330
F6
100
AcDbEntity
  8
0
  6
ByBlock
 62
     2
100
AcDbBlockReference
  2
_OPEN
 10
138.0480923985601
 20
392.5384046014851
 30
0.0
 41
2.5
 42
2.5
 43
2.5
 50
180.0
  0
MTEXT
  5
10001467
330
F6
100
AcDbEntity
  8
0
  6
ByBlock
 62
     6
100
AcDbMText
 10
170.5480923985601
 20
394.413404601485
 30
0.0
 40
2.5
 41
0.0
 71
     5
 72
     1
  1
\A1;65
  7
STYLE3
 73
     1
 44
1.0
  0
POINT
  5
10001468
330
F6
100
AcDbEntity
  8
DEFPOINTS
  6
ByBlock
 62
     0
100
AcDbPoint
 10
203.0480923985601
 20
407.5579900661494
 30
0.0
  0
POINT
  5
10001469
330
F6
100
AcDbEntity
  8
DEFPOINTS
  6
ByBlock
 62
     0
100
AcDbPoint
 10
138.0480923985601
 20
413.8579900661493
 30
0.0
  0
POINT
  5
1000146A
330
F6
100
AcDbEntity
  8
DEFPOINTS
  6
ByBlock
 62
     0
100
AcDbPoint
 10
138.0480923985601
 20
392.5384046014851
 30
0.0
  0
CIRCLE
  5
10001475
330
F6
100
AcDbEntity
  8
外形線
100
AcDbCircle
 10
260.8971427837816
 20
414.3829900661494
 30
0.0
 40
1.274999999999999
  0
ARC
  5
10001476
330
F6
100
AcDbEntity
  8
外形線
100
AcDbCircle
 10
274.3980923985601
 20
415.6829900661493
 30
0.0
 40
20.0
100
AcDbArc
 50
141.1929654987687
 51
193.296875
  0
LINE
  5
10001477
330
F6
100
AcDbEntity
  8
0
  6
ByBlock
 62
     2
100
AcDbLine
 10
420.0230923985601
 20
405.6829900661494
 30
0.0
 11
420.0230923985601
 21
391.3720073491341
 31
0.0
  0
LINE
  5
10001478
330
F6
100
AcDbEntity
  8
0
  6
ByBlock
 62
     2
100
AcDbLine
 10
322.5230923985602
 20
392.622007349134
 30
0.0
 11
417.5230923985601
 21
392.622007349134
 31
0.0
  0
INSERT
  5
10001479
330
F6
100
AcDbEntity
  8
0
  6
ByBlock
 62
     2
100
AcDbBlockReference
  2
_OPEN
 10
320.0230923985602
 20
392.622007349134
 30
0.0
 41
2.5
 42
2.5
 43
2.5
 50
180.0
  0
INSERT
  5
1000147A
330
F6
100
AcDbEntity
  8
0
  6
ByBlock
 62
     2
100
AcDbBlockReference
  2
_OPEN
 10
420.0230923985601
 20
392.622007349134
 30
0.0
 41
2.5
 42
2.5
 43
2.5
  0
MTEXT
  5
1000147B
330
F6
100
AcDbEntity
  8
0
  6
ByBlock
 62
     6
100
AcDbMText
 10
370.0230923985602
 20
394.4970073491341
 30
0.0
 40
2.5
 41
0.0
 71
     5
 72
     1
  1
\A1;100
  7
STYLE3
 73
     1
 44
1.0
  0
POINT
  5
1000147C
330
F6
100
AcDbEntity
  8
DEFPOINTS
  6
ByBlock
 62
     0
100
AcDbPoint
 10
320.0230923985602
 20
404.8232334040746
 30
0.0
  0
POINT
  5
1000147D
330
F6
100
AcDbEntity
  8
DEFPOINTS
  6
ByBlock
 62
     0
100
AcDbPoint
 10
420.0230923985601
 20
404.8232334040746
 30
0.0
  0
POINT
  5
1000147E
330
F6
100
AcDbEntity
  8
DEFPOINTS
  6
ByBlock
 62
     0
100
AcDbPoint
 10
420.0230923985601
 20
392.622007349134
 30
0.0
  0
LINE
  5
10001499
330
F6
100
AcDbEntity
  8
想像線
 48
0.4
100
AcDbLine
 10
261.0728887437568
 20
434.9517953417349
 30
0.0
 11
272.3714961902758
 21
428.4259117206751
 31
0.0
  0
LINE
  5
1000149A
330
F6
100
AcDbEntity
  8
想像線
 48
0.7
100
AcDbLine
 10
261.0728887437568
 20
434.9517953417349
 30
0.0
 11
275.8165764945925
 21
460.4783216918467
 31
0.0
  0
LINE
  5
1000149B
330
F6
100
AcDbEntity
  8
想像線
 48
0.7
100
AcDbLine
 10
306.6764333405253
 20
425.9342169411584
 30
0.0
 11
321.920272233692
 21
452.3266814154021
 31
0.0
  0
LINE
  5
1000149C
330
F6
100
AcDbEntity
  8
想像線
100
AcDbLine
 10
289.0146235166773
 20
471.3324248239731
 30
0.0
 11
321.920272233692
 21
452.3266814154021
 31
0.0
  0
LINE
  5
1000149D
330
F6
100
AcDbEntity
  8
想像線
100
AcDbLine
 10
281.7624319528805
 20
458.7763220240598
 30
0.0
 11
314.6680806698951
 21
439.7705786154888
 31
0.0
  0
LINE
  5
1000149E
330
F6
100
AcDbEntity
  8
想像線
 48
0.3
100
AcDbLine
 10
281.5123563817152
 20
458.3433529619937
 30
0.0
 11
289.0146235166773
 21
471.3324248239731
 31
0.0
  0
LINE
  5
100014A1
330
F6
100
AcDbEntity
  8
想像線
100
AcDbLine
 10
281.5123563817151
 20
458.3433529619938
 30
0.0
 11
275.8165764945925
 21
460.4783216918467
 31
0.0
  0
LINE
  5
100014A4
330
F6
100
AcDbEntity
  8
想像線
 48
0.7
100
AcDbLine
 10
284.2857094647251
 20
421.4138972553489
 30
0.0
 11
306.6764333405253
 21
425.9342169411583
 31
0.0
  0
LINE
  5
100014A5
330
F6
100
AcDbEntity
  8
中心線
100
AcDbLine
 10
265.1886923927068
 20
438.348661724442
 30
0.0
 11
270.6179777594345
 21
435.2127987770392
 31
0.0
  0
LINE
  5
100014A6
330
F6
100
AcDbEntity
  8
中心線
100
AcDbLine
 10
266.3354036023692
 20
434.0660875673768
 30
0.0
 11
269.471266549772
 21
439.4953729341044
 31
0.0
  0
LINE
  5
100014A7
330
F6
100
AcDbEntity
  8
中心線
100
AcDbLine
 10
283.6541660850085
 20
424.0630647207605
 30
0.0
 11
286.7900290324111
 21
429.4923500874881
 31
0.0
  0
CIRCLE
  5
100014A8
330
F6
100
AcDbEntity
  8
想像線
100
AcDbCircle
 10
267.9033350760708
 20
436.7807302507405
 30
0.0
 40
1.0
  0
CIRCLE
  5
100014A9
330
F6
100
AcDbEntity
  8
想像線
100
AcDbCircle
 10
285.2220975587099
 20
426.7777074041243
 30
0.0
 40
1.0
  0
LINE
  5
100014AC
330
F6
100
AcDbEntity
  8
中心線
100
AcDbLine
 10
282.507454875346
 20
428.3456388778256
 30
0.0
 11
287.9367402420736
 21
425.2097759304229
 31
0.0
  0
LINE
  5
100014B3
330
F6
100
AcDbEntity
  8
隠れ線2
100
AcDbLine
 10
282.2625830952113
 20
459.6422601481917
 30
0.0
 11
315.1682318122259
 21
440.6365167396207
 31
0.0
  0
LINE
  5
100014B4
330
F6
100
AcDbEntity
  8
隠れ線2
100
AcDbLine
 10
288.5144723743465
 20
470.4664866998412
 30
0.0
 11
321.4201210913611
 21
451.4607432912702
 31
0.0
  0
CIRCLE
  5
100014B7
330
F6
100
AcDbEntity
  8
外形線
100
AcDbCircle
 10
275.0230923985601
 20
419.303464814926
 30
0.0
 40
9.5
  0
CIRCLE
  5
100014B8
330
F6
100
AcDbEntity
  8
外形線
100
AcDbCircle
 10
275.2028403613397
 20
419.2842654518674
 30
0.0
 40
8.5
  0
LINE
  5
10001522
330
F6
100
AcDbEntity
  8
外形線
100
AcDbLine
 10
107.0306347602682
 20
534.5144977535539
 30
0.0
 11
233.0306347602683
 21
534.5144977535539
 31
0.0
  0
LINE
  5
10001523
330
F6
100
AcDbEntity
  8
外形線
100
AcDbLine
 10
107.0306347602682
 20
535.5144977535539
 30
0.0
 11
233.0306347602683
 21
535.5144977535539
 31
0.0
  0
TEXT
  5
10001524
330
F6
100
AcDbEntity
  8
文字
100
AcDbText
 10
107.8497137602682
 20
537.9876097535539
 30
0.0
 40
4.0
  1
Model No.LB-14 Inside Dial Caliper Gauge
  7
STYLE3
100
AcDbText
  0
TEXT
  5
10001525
330
F6
100
AcDbEntity
  8
C
  6
Continuous
100
AcDbText
 10
390.4824603419574
 20
274.2379594462124
 30
0.0
 40
2.1
  1
Date
  7
STYLE3
100
AcDbText
  0
TEXT
  5
10001526
330
F6
100
AcDbEntity
  8
C
  6
Continuous
100
AcDbText
 10
390.0990993419573
 20
277.5710424462125
 30
0.0
 40
3.0
  1
日 付
  7
STYLE3
100
AcDbText
  0
TEXT
  5
10001527
330
F6
100
AcDbEntity
  8
C
  6
Continuous
100
AcDbText
 10
399.2272673419574
 20
275.9860994462124
 30
0.0
 40
2.1
  1
2010.06.29
  7
STYLE3
100
AcDbText
  0
TEXT
  5
10001528
330
F6
100
AcDbEntity
  8
C
  6
Continuous
100
AcDbText
 10
380.3886883419573
 20
276.2774574462124
 30
0.0
 40
2.399999999999999
  1
1/1
  7
STYLE3
100
AcDbText
  0
TEXT
  5
10001529
330
F6
100
AcDbEntity
  8
C
  6
Continuous
100
AcDbText
 10
361.0303363419574
 20
275.9861004462124
 30
0.0
 40
2.399999999999999
  1
mm
  7
STYLE3
100
AcDbText
  0
TEXT
  5
1000152A
330
F6
100
AcDbEntity
  8
C
  6
Continuous
100
AcDbText
 10
370.3061843419574
 20
277.4488374462124
 30
0.0
 40
3.0
  1
尺 度
  7
STYLE3
100
AcDbText
  0
TEXT
  5
1000152B
330
F6
100
AcDbEntity
  8
C
  6
Continuous
100
AcDbText
 10
370.7693993419574
 20
274.5293154462124
 30
0.0
 40
2.1
  1
Scale
  7
STYLE3
100
AcDbText
  0
LINE
  5
1000152C
330
F6
100
AcDbEntity
  8
C
100
AcDbLine
 10
418.2828583419573
 20
282.1045944462124
 30
0.0
 11
418.2828583419573
 21
272.4898164462124
 31
0.0
  0
LINE
  5
1000152D
330
F6
100
AcDbEntity
  8
C
100
AcDbLine
 10
388.5505093419574
 20
282.1045944462124
 30
0.0
 11
388.5505093419574
 21
272.4898164462124
 31
0.0
  0
LINE
  5
1000152E
330
F6
100
AcDbEntity
  8
C
100
AcDbLine
 10
369.0204363419574
 20
282.1045944462124
 30
0.0
 11
369.0204363419574
 21
272.4898164462124
 31
0.0
  0
TEXT
  5
1000152F
330
F6
100
AcDbEntity
  8
C
  6
Continuous
100
AcDbText
 10
317.4260673419574
 20
274.2379574462124
 30
0.0
 40
2.1
  1
3RD Angle Projection
  7
STYLE3
100
AcDbText
  0
TEXT
  5
10001530
330
F6
100
AcDbEntity
  8
C
  6
Continuous
100
AcDbText
 10
320.0495103419574
 20
277.7342404462124
 30
0.0
 40
3.0
  1
三　　角　　法
  7
STYLE3
100
AcDbText
  0
LINE
  5
10001531
330
F6
100
AcDbEntity
  8
C
100
AcDbLine
 10
316.2600913419574
 20
272.4898164462124
 30
0.0
 11
316.2600913419574
 21
292.8848004462125
 31
0.0
  0
LINE
  5
10001532
330
F6
100
AcDbEntity
  8
C
100
AcDbLine
 10
351.5308193419573
 20
282.1045944462124
 30
0.0
 11
351.5308193419573
 21
272.4898164462124
 31
0.0
  0
TEXT
  5
10001533
330
F6
100
AcDbEntity
  8
C
  6
Continuous
100
AcDbText
 10
352.9882883419574
 20
277.7401944462125
 30
0.0
 40
3.0
  1
単位
  7
STYLE3
100
AcDbText
  0
TEXT
  5
10001534
330
F6
100
AcDbEntity
  8
C
  6
Continuous
100
AcDbText
 10
353.1600093419573
 20
274.2379584462125
 30
0.0
 40
2.1
  1
Unit
  7
STYLE3
100
AcDbText
  0
LINE
  5
10001535
330
F6
100
AcDbEntity
  8
C
100
AcDbLine
 10
316.2600913419574
 20
292.8848004462125
 30
0.0
 11
457.0515093419573
 21
292.8848004462125
 31
0.0
  0
LINE
  5
10001536
330
F6
100
AcDbEntity
  8
C
100
AcDbLine
 10
316.2600913419574
 20
282.1045944462124
 30
0.0
 11
457.0515093419573
 21
282.1045944462124
 31
0.0
  0
TEXT
  5
10001537
330
F6
100
AcDbEntity
  8
C
  6
Continuous
100
AcDbText
 10
317.7175593419573
 20
284.0025844462124
 30
0.0
 40
2.1
  1
Design and specifications are subject to change without notice for future improvement.
  7
STYLE3
100
AcDbText
  0
TEXT
  5
10001538
330
F6
100
AcDbEntity
  8
C
  6
Continuous
100
AcDbText
 10
318.0090533419573
 20
287.9317324462125
 30
0.0
 40
3.5
  1
仕様及び外観は予告なく変更される場合がございますのでご了承下さい。
  7
STYLE3
100
AcDbText
  0
TEXT
  5
10001539
330
F6
100
AcDbEntity
  8
C
  6
Continuous
100
AcDbText
 10
419.6318213419574
 20
278.0255974462124
 30
0.0
 40
3.0
  1
株式会社　尾崎製作所
  7
STYLE3
100
AcDbText
  0
TEXT
  5
1000153A
330
F6
100
AcDbEntity
  8
C
  6
Continuous
100
AcDbText
 10
420.5063003419573
 20
274.2379574462124
 30
0.0
 40
2.1
  1
OZAKI MFG. CO., LTD.
  7
STYLE3
100
AcDbText
  0
ENDSEC
  0
SECTION
  2
OBJECTS
  0
DICTIONARY
  5
275
330
0
100
AcDbDictionary
281
     1
  3
ACAD_COLOR
350
100014BF
  3
ACAD_GROUP
350
276
  3
ACAD_LAYOUT
350
100014C2
  3
ACAD_MATERIAL
350
100014BE
  3
ACAD_MLINESTYLE
350
277
  3
ACAD_PLOTSETTINGS
350
100014C3
  3
ACAD_PLOTSTYLENAME
350
100014BC
  3
ACAD_TABLESTYLE
350
100014C0
  3
AcDbVariableDictionary
350
100014CC
  3
CONTENTDICTIONARY
350
278
  0
DICTIONARY
  5
100014BF
102
{ACAD_REACTORS
330
275
102
}
330
275
100
AcDbDictionary
281
     1
  0
DICTIONARY
  5
276
102
{ACAD_REACTORS
330
275
102
}
330
0
100
AcDbDictionary
281
     1
  0
DICTIONARY
  5
100014C2
102
{ACAD_REACTORS
330
275
102
}
330
275
100
AcDbDictionary
281
     1
  3
Model
350
100014C4
  3
レイアウト1
350
100014C5
  0
DICTIONARY
  5
100014BE
102
{ACAD_REACTORS
330
275
102
}
330
275
100
AcDbDictionary
281
     1
  0
DICTIONARY
  5
277
102
{ACAD_REACTORS
330
275
102
}
330
0
100
AcDbDictionary
281
     1
  3
STANDARD
350
279
  0
DICTIONARY
  5
100014C3
102
{ACAD_REACTORS
330
275
102
}
330
275
100
AcDbDictionary
281
     1
  0
ACDBDICTIONARYWDFLT
  5
100014BC
102
{ACAD_REACTORS
330
275
102
}
330
275
100
AcDbDictionary
281
     1
  3
Normal
350
100014BD
100
AcDbDictionaryWithDefault
340
100014BD
  0
DICTIONARY
  5
100014C0
102
{ACAD_REACTORS
330
275
102
}
330
275
100
AcDbDictionary
281
     1
  3
Standard
350
100014C1
  0
DICTIONARY
  5
100014CC
102
{ACAD_REACTORS
330
275
102
}
330
275
100
AcDbDictionary
281
     1
  3
CTABLESTYLE
350
100014CD
  0
DICTIONARY
  5
278
102
{ACAD_REACTORS
330
275
102
}
330
0
100
AcDbDictionary
281
     1
  0
LAYOUT
  5
100014C4
102
{ACAD_REACTORS
330
100014C2
102
}
330
100014C2
100
AcDbPlotSettings
  1

  2
Mytalk FAX
  4

  6

 40
0.0
 41
0.0
 42
0.0
 43
0.0
 44
0.0
 45
0.0
 46
0.0
 47
0.0
 48
0.0
 49
0.0
140
0.0
141
0.0
142
1.0
143
1.0
 70
  1712
 72
     0
 73
     0
 74
     0
  7
AutoCAD LT 98.ctb
 75
     0
147
1.0
 76
     0
 77
     2
 78
   300
148
0.0
149
0.0
100
AcDbLayout
  1
Model
 70
     1
 71
     0
 10
0.0
 20
0.0
 11
12.0
 21
9.0
 12
0.0
 22
0.0
 32
0.0
 14
0.0
 24
0.0
 34
0.0
 15
0.0
 25
0.0
 35
0.0
146
0.0
 13
0.0
 23
0.0
 33
0.0
 16
1.0
 26
0.0
 36
0.0
 17
0.0
 27
1.0
 37
0.0
 76
     0
330
F6
  0
LAYOUT
  5
100014C5
102
{ACAD_REACTORS
330
100014C2
102
}
330
100014C2
100
AcDbPlotSettings
  1

  2
Mytalk FAX
  4

  6

 40
0.0
 41
0.0
 42
0.0
 43
0.0
 44
0.0
 45
0.0
 46
0.0
 47
0.0
 48
0.0
 49
0.0
140
0.0
141
0.0
142
1.0
143
1.0
 70
   688
 72
     0
 73
     0
 74
     5
  7
AutoCAD LT 98.ctb
 75
    16
147
1.0
 76
     0
 77
     2
 78
   300
148
0.0
149
0.0
100
AcDbLayout
  1
レイアウト1
 70
     1
 71
     1
 10
0.0
 20
0.0
 11
400.0
 21
267.0
 12
0.0
 22
0.0
 32
0.0
 14
1.000000000000000E+20
 24
1.000000000000000E+20
 34
1.000000000000000E+20
 15
-1.000000000000000E+20
 25
-1.000000000000000E+20
 35
-1.000000000000000E+20
146
0.0
 13
0.0
 23
0.0
 33
0.0
 16
1.0
 26
0.0
 36
0.0
 17
0.0
 27
1.0
 37
0.0
 76
     0
330
F9
  0
MLINESTYLE
  5
279
102
{ACAD_REACTORS
330
277
102
}
330
0
100
AcDbMlineStyle
  2
STANDARD
 70
     0
  3
 
 62
   256
 51
90.0
 52
90.0
 71
     2
 49
0.5
 62
   256
  6
BYLAYER
 49
-0.5
 62
   256
  6
BYLAYER
  0
ACDBPLACEHOLDER
  5
100014BD
102
{ACAD_REACTORS
330
100014BC
102
}
330
100014BC
  0
ACAD_PROXY_OBJECT
  5
100014C1
102
{ACAD_REACTORS
330
100014C0
102
}
330
100014C0
100
AcDbProxyObject
 90
      499
 91
      503
 95
  2555929
 70
     0
 93
     1849
310
4214DD185B99185C992420000000000000F83F0000000000003E0FC00000000000004901028000000C1008070000C3001FDFF8000000C1003FBFF000000182007F7FE00000030400FEFFC00000060801FDFF8000000C1003FBFF000000182000000000000000C2020B0000001820100E000186003FBFF000000182007F7FE0
310
0000030400FEFFC00000060801FDFF8000000C1003FBFF000000182007F7FE0000003040000000000000012404160000003040201C00030C007F7FE00000030400FEFFC00000060801FDFF8000000C1003FBFF000000182007F7FE00000030400FEFFC000000608000
340
D5
340
D5
340
D5
 94
        0
  0
DICTIONARYVAR
  5
100014CD
102
{ACAD_REACTORS
330
100014CC
102
}
330
100014CC
100
DictionaryVariables
280
     0
  1
STANDARD
  0
ENDSEC
  0
EOF
