  0
SECTION
  2
HEADER
  9
$ACADVER
  1
AC1018
  9
$ACADMAINTVER
 70
     0
  9
$DWGCODEPAGE
  3
ANSI_932
  9
$INSBASE
 10
0.0
 20
0.0
 30
0.0
  9
$EXTMIN
 10
75.17796739223093
 20
-3.970982667609519
 30
-0.0000152557620687
  9
$EXTMAX
 10
452.4487310778404
 20
274.7483380578677
 30
0.0000610416757212
  9
$LIMMIN
 10
0.0
 20
0.0
  9
$LIMMAX
 10
400.0
 20
257.0
  9
$ORTHOMODE
 70
     0
  9
$REGENMODE
 70
     1
  9
$FILLMODE
 70
     1
  9
$QTEXTMODE
 70
     0
  9
$MIRRTEXT
 70
     1
  9
$LTSCALE
 40
1.0
  9
$ATTMODE
 70
     1
  9
$TEXTSIZE
 40
0.2
  9
$TRACEWID
 40
1.0
  9
$TEXTSTYLE
  7
BIGFONT
  9
$CLAYER
  8
寸法線
  9
$CELTYPE
  6
BYLAYER
  9
$CECOLOR
 62
   256
  9
$CELTSCALE
 40
1.0
  9
$DISPSILH
 70
     0
  9
$DIMSCALE
 40
1.0
  9
$DIMASZ
 40
2.5
  9
$DIMEXO
 40
0.0
  9
$DIMDLI
 40
3.75
  9
$DIMRND
 40
0.0
  9
$DIMDLE
 40
0.0
  9
$DIMEXE
 40
1.25
  9
$DIMTP
 40
0.0
  9
$DIMTM
 40
0.0
  9
$DIMTXT
 40
2.5
  9
$DIMCEN
 40
2.5
  9
$DIMTSZ
 40
0.0
  9
$DIMTOL
 70
     0
  9
$DIMLIM
 70
     0
  9
$DIMTIH
 70
     0
  9
$DIMTOH
 70
     0
  9
$DIMSE1
 70
     0
  9
$DIMSE2
 70
     0
  9
$DIMTAD
 70
     1
  9
$DIMZIN
 70
     8
  9
$DIMBLK
  1

  9
$DIMASO
 70
     1
  9
$DIMSHO
 70
     1
  9
$DIMPOST
  1

  9
$DIMAPOST
  1

  9
$DIMALT
 70
     0
  9
$DIMALTD
 70
     4
  9
$DIMALTF
 40
0.0394
  9
$DIMLFAC
 40
1.0
  9
$DIMTOFL
 70
     1
  9
$DIMTVP
 40
0.0
  9
$DIMTIX
 70
     0
  9
$DIMSOXD
 70
     0
  9
$DIMSAH
 70
     1
  9
$DIMBLK1
  1
OPEN
  9
$DIMBLK2
  1
OPEN
  9
$DIMSTYLE
  2
STYLE3
  9
$DIMCLRD
 70
     2
  9
$DIMCLRE
 70
     2
  9
$DIMCLRT
 70
     6
  9
$DIMTFAC
 40
1.0
  9
$DIMGAP
 40
0.625
  9
$DIMJUST
 70
     0
  9
$DIMSD1
 70
     0
  9
$DIMSD2
 70
     0
  9
$DIMTOLJ
 70
     1
  9
$DIMTZIN
 70
     0
  9
$DIMALTZ
 70
     0
  9
$DIMALTTZ
 70
     0
  9
$DIMUPT
 70
     0
  9
$DIMDEC
 70
     1
  9
$DIMTDEC
 70
     1
  9
$DIMALTU
 70
     8
  9
$DIMALTTD
 70
     4
  9
$DIMTXSTY
  7
STYLE3
  9
$DIMAUNIT
 70
     0
  9
$DIMADEC
 70
     8
  9
$DIMALTRND
 40
0.0
  9
$DIMAZIN
 70
     2
  9
$DIMDSEP
 70
    46
  9
$DIMATFIT
 70
     3
  9
$DIMFRAC
 70
     0
  9
$DIMLDRBLK
  1

  9
$DIMLUNIT
 70
     2
  9
$DIMLWD
 70
    -2
  9
$DIMLWE
 70
    -2
  9
$DIMTMOVE
 70
     0
  9
$LUNITS
 70
     2
  9
$LUPREC
 70
     8
  9
$SKETCHINC
 40
1.0
  9
$FILLETRAD
 40
1.0
  9
$AUNITS
 70
     0
  9
$AUPREC
 70
     8
  9
$MENU
  1
acad
  9
$ELEVATION
 40
0.0
  9
$PELEVATION
 40
0.0
  9
$THICKNESS
 40
0.0
  9
$LIMCHECK
 70
     0
  9
$CHAMFERA
 40
10.0
  9
$CHAMFERB
 40
10.0
  9
$CHAMFERC
 40
20.0
  9
$CHAMFERD
 40
0.0
  9
$SKPOLY
 70
     0
  9
$TDCREATE
 40
2447851.677997998
  9
$TDUCREATE
 40
2447851.302997998
  9
$TDUPDATE
 40
2455377.468566794
  9
$TDUUPDATE
 40
2455377.093566794
  9
$TDINDWG
 40
1.7361471991
  9
$TDUSRTIMER
 40
1.7361471991
  9
$USRTIMER
 70
     1
  9
$ANGBASE
 50
0.0
  9
$ANGDIR
 70
     0
  9
$PDMODE
 70
     0
  9
$PDSIZE
 40
0.0
  9
$PLINEWID
 40
0.0
  9
$SPLFRAME
 70
     0
  9
$SPLINETYPE
 70
     6
  9
$SPLINESEGS
 70
     8
  9
$HANDSEED
  5
100037E2
  9
$SURFTAB1
 70
     6
  9
$SURFTAB2
 70
     6
  9
$SURFTYPE
 70
     6
  9
$SURFU
 70
     6
  9
$SURFV
 70
     6
  9
$UCSBASE
  2

  9
$UCSNAME
  2

  9
$UCSORG
 10
0.0
 20
0.0
 30
0.0
  9
$UCSXDIR
 10
1.0
 20
0.0
 30
0.0
  9
$UCSYDIR
 10
0.0
 20
1.0
 30
0.0
  9
$UCSORTHOREF
  2

  9
$UCSORTHOVIEW
 70
     0
  9
$UCSORGTOP
 10
0.0
 20
0.0
 30
0.0
  9
$UCSORGBOTTOM
 10
0.0
 20
0.0
 30
0.0
  9
$UCSORGLEFT
 10
0.0
 20
0.0
 30
0.0
  9
$UCSORGRIGHT
 10
0.0
 20
0.0
 30
0.0
  9
$UCSORGFRONT
 10
0.0
 20
0.0
 30
0.0
  9
$UCSORGBACK
 10
0.0
 20
0.0
 30
0.0
  9
$PUCSBASE
  2

  9
$PUCSNAME
  2

  9
$PUCSORG
 10
0.0
 20
0.0
 30
0.0
  9
$PUCSXDIR
 10
1.0
 20
0.0
 30
0.0
  9
$PUCSYDIR
 10
0.0
 20
1.0
 30
0.0
  9
$PUCSORTHOREF
  2

  9
$PUCSORTHOVIEW
 70
     0
  9
$PUCSORGTOP
 10
0.0
 20
0.0
 30
0.0
  9
$PUCSORGBOTTOM
 10
0.0
 20
0.0
 30
0.0
  9
$PUCSORGLEFT
 10
0.0
 20
0.0
 30
0.0
  9
$PUCSORGRIGHT
 10
0.0
 20
0.0
 30
0.0
  9
$PUCSORGFRONT
 10
0.0
 20
0.0
 30
0.0
  9
$PUCSORGBACK
 10
0.0
 20
0.0
 30
0.0
  9
$USERI1
 70
     0
  9
$USERI2
 70
     0
  9
$USERI3
 70
     0
  9
$USERI4
 70
     0
  9
$USERI5
 70
     0
  9
$USERR1
 40
0.0
  9
$USERR2
 40
0.0
  9
$USERR3
 40
0.0
  9
$USERR4
 40
0.0
  9
$USERR5
 40
0.0
  9
$WORLDVIEW
 70
     1
  9
$SHADEDGE
 70
     3
  9
$SHADEDIF
 70
    70
  9
$TILEMODE
 70
     1
  9
$MAXACTVP
 70
    48
  9
$PINSBASE
 10
0.0
 20
0.0
 30
0.0
  9
$PLIMCHECK
 70
     0
  9
$PEXTMIN
 10
1.000000000000000E+20
 20
1.000000000000000E+20
 30
1.000000000000000E+20
  9
$PEXTMAX
 10
-1.000000000000000E+20
 20
-1.000000000000000E+20
 30
-1.000000000000000E+20
  9
$PLIMMIN
 10
0.0
 20
0.0
  9
$PLIMMAX
 10
400.0
 20
257.0
  9
$UNITMODE
 70
     0
  9
$VISRETAIN
 70
     1
  9
$PLINEGEN
 70
     0
  9
$PSLTSCALE
 70
     1
  9
$TREEDEPTH
 70
  3020
  9
$CMLSTYLE
  2
STANDARD
  9
$CMLJUST
 70
     0
  9
$CMLSCALE
 40
20.0
  9
$PROXYGRAPHICS
 70
     1
  9
$MEASUREMENT
 70
     1
  9
$CELWEIGHT
370
    -1
  9
$ENDCAPS
280
     0
  9
$JOINSTYLE
280
     0
  9
$LWDISPLAY
290
     0
  9
$INSUNITS
 70
     0
  9
$HYPERLINKBASE
  1

  9
$STYLESHEET
  1
AutoCAD LT 98.ctb
  9
$XEDIT
290
     1
  9
$CEPSNTYPE
380
     0
  9
$PSTYLEMODE
290
     1
  9
$FINGERPRINTGUID
  2
{DFE52BDC-B2D5-474B-9A0E-A0D74DEA80B2}
  9
$VERSIONGUID
  2
{BBDBF563-AFBD-4A5F-B910-6CCD7F70A098}
  9
$EXTNAMES
290
     1
  9
$PSVPSCALE
 40
0.0
  9
$OLESTARTUP
290
     0
  9
$SORTENTS
280
   127
  9
$INDEXCTL
280
     0
  9
$HIDETEXT
280
     0
  9
$XCLIPFRAME
290
     0
  9
$HALOGAP
280
     0
  9
$OBSCOLOR
 70
   257
  9
$OBSLTYPE
280
     0
  9
$INTERSECTIONDISPLAY
280
     0
  9
$INTERSECTIONCOLOR
 70
   257
  9
$DIMASSOC
280
     1
  9
$PROJECTNAME
  1

  0
ENDSEC
  0
SECTION
  2
CLASSES
  0
CLASS
  1
HATCH
  2
AcDbHatch
  3
ObjectDBX Classes
 90
        0
 91
       70
280
     0
281
     1
  0
CLASS
  1
LWPOLYLINE
  2
AcDbPolyline
  3
ObjectDBX Classes
 90
        0
 91
        8
280
     0
281
     1
  0
CLASS
  1
ACDBDICTIONARYWDFLT
  2
AcDbDictionaryWithDefault
  3
ObjectDBX Classes
 90
        0
 91
        1
280
     0
281
     0
  0
CLASS
  1
TABLESTYLE
  2
AcDbTableStyle
  3
ObjectDBX Classes
 90
     2047
 91
        1
280
     0
281
     0
  0
CLASS
  1
DICTIONARYVAR
  2
AcDbDictionaryVar
  3
ObjectDBX Classes
 90
        0
 91
        1
280
     0
281
     0
  0
CLASS
  1
SORTENTSTABLE
  2
AcDbSortentsTable
  3
ObjectDBX Classes
 90
        0
 91
        2
280
     0
281
     0
  0
ENDSEC
  0
SECTION
  2
TABLES
  0
TABLE
  2
VPORT
  5
A2
330
0
100
AcDbSymbolTable
 70
     2
  0
VPORT
  5
100037E1
330
A2
100
AcDbSymbolTableRecord
100
AcDbViewportTableRecord
  2
*Active
 70
     0
 10
0.0
 20
0.0
 11
1.0
 21
1.0
 12
263.8133492350357
 22
135.3886776951291
 13
0.0
 23
0.0
 14
10.0
 24
10.0
 15
10.0
 25
10.0
 16
0.0
 26
0.0
 36
1.0
 17
0.0
 27
0.0
 37
0.0
 40
280.8388592861272
 41
1.530456852791878
 42
50.0
 43
0.0
 44
0.0
 50
0.0
 51
0.0
 71
     0
 72
   100
 73
     1
 74
     1
 75
     0
 76
     0
 77
     0
 78
     0
281
     0
 65
     1
110
0.0
120
0.0
130
0.0
111
1.0
121
0.0
131
0.0
112
0.0
122
1.0
132
0.0
 79
     0
146
0.0
  0
ENDTAB
  0
TABLE
  2
LTYPE
  5
A8
330
0
100
AcDbSymbolTable
 70
    12
  0
LTYPE
  5
AB
330
A8
100
AcDbSymbolTableRecord
100
AcDbLinetypeTableRecord
  2
BYBLOCK
 70
     0
  3
BYBLOCK
 72
    65
 73
     0
 40
0.0
  0
LTYPE
  5
AE
330
A8
100
AcDbSymbolTableRecord
100
AcDbLinetypeTableRecord
  2
BYLAYER
 70
     0
  3
BYLAYER
 72
    65
 73
     0
 40
0.0
  0
LTYPE
  5
B1
330
A8
100
AcDbSymbolTableRecord
100
AcDbLinetypeTableRecord
  2
CONTINUOUS
 70
     0
  3
実線
 72
    65
 73
     0
 40
0.0
  0
LTYPE
  5
100000DC
330
A8
100
AcDbSymbolTableRecord
100
AcDbLinetypeTableRecord
  2
CENTER2
 70
     0
  3
Center (.5x) ___ _ ___ _ ___ _ ___ _ ___ _ ___
 72
    65
 73
     4
 40
28.575
 49
19.05
 74
     0
 49
-3.174999999999999
 74
     0
 49
3.174999999999999
 74
     0
 49
-3.174999999999999
 74
     0
  0
LTYPE
  5
100000DD
330
A8
100
AcDbSymbolTableRecord
100
AcDbLinetypeTableRecord
  2
HIDDEN2
 70
     0
  3
Hidden (.5x) _ _ _ _ _ _ _ _ _ _ _ _ _ _ _ _ _
 72
    65
 73
     2
 40
4.762499999999999
 49
3.174999999999999
 74
     0
 49
-1.587499999999999
 74
     0
  0
LTYPE
  5
100000DE
330
A8
100
AcDbSymbolTableRecord
100
AcDbLinetypeTableRecord
  2
PHANTOM2
 70
     0
  3
Phantom (.5x) ___ _ _ ___ _ _ ___ _ _ ___ _ _
 72
    65
 73
     6
 40
31.75
 49
15.875
 74
     0
 49
-3.174999999999999
 74
     0
 49
3.174999999999999
 74
     0
 49
-3.174999999999999
 74
     0
 49
3.174999999999999
 74
     0
 49
-3.174999999999999
 74
     0
  0
ENDTAB
  0
TABLE
  2
LAYER
  5
CC
330
0
100
AcDbSymbolTable
 70
    15
  0
LAYER
  5
CF
330
CC
100
AcDbSymbolTableRecord
100
AcDbLayerTableRecord
  2
0
 70
     0
 62
     1
  6
CONTINUOUS
370
    -3
390
1000168A
  0
LAYER
  5
100000DF
330
CC
100
AcDbSymbolTableRecord
100
AcDbLayerTableRecord
  2
外形線
 70
     0
 62
     7
  6
CONTINUOUS
370
    -3
390
1000168A
  0
LAYER
  5
100000E0
330
CC
100
AcDbSymbolTableRecord
100
AcDbLayerTableRecord
  2
寸法線
 70
     0
 62
     2
  6
CONTINUOUS
370
    -3
390
1000168A
  0
LAYER
  5
100000E1
330
CC
100
AcDbSymbolTableRecord
100
AcDbLayerTableRecord
  2
中心線
 70
     0
 62
     4
  6
CENTER2
370
    -3
390
1000168A
  0
LAYER
  5
100000E2
330
CC
100
AcDbSymbolTableRecord
100
AcDbLayerTableRecord
  2
想像線
 70
     0
 62
     1
  6
PHANTOM2
370
    -3
390
1000168A
  0
LAYER
  5
100000E3
330
CC
100
AcDbSymbolTableRecord
100
AcDbLayerTableRecord
  2
文字
 70
     0
 62
     6
  6
CONTINUOUS
370
    -3
390
1000168A
  0
LAYER
  5
100000E4
330
CC
100
AcDbSymbolTableRecord
100
AcDbLayerTableRecord
  2
目盛
 70
     0
 62
    70
  6
CONTINUOUS
370
    -3
390
1000168A
  0
LAYER
  5
100000E5
330
CC
100
AcDbSymbolTableRecord
100
AcDbLayerTableRecord
  2
針
 70
     0
 62
     5
  6
CONTINUOUS
370
    -3
390
1000168A
  0
LAYER
  5
100000E6
330
CC
100
AcDbSymbolTableRecord
100
AcDbLayerTableRecord
  2
DEFPOINTS
 70
     0
 62
     7
  6
CONTINUOUS
290
     0
370
    -3
390
1000168A
  0
LAYER
  5
100000E7
330
CC
100
AcDbSymbolTableRecord
100
AcDbLayerTableRecord
  2
隠れ線2
 70
     0
 62
     1
  6
HIDDEN2
370
    -3
390
1000168A
  0
LAYER
  5
100000E8
330
CC
100
AcDbSymbolTableRecord
100
AcDbLayerTableRecord
  2
ROGO
 70
     0
 62
     6
  6
CONTINUOUS
370
    -3
390
1000168A
  0
LAYER
  5
100000E9
330
CC
100
AcDbSymbolTableRecord
100
AcDbLayerTableRecord
  2
握り
 70
     0
 62
     3
  6
CONTINUOUS
370
    -3
390
1000168A
  0
LAYER
  5
10000340
330
CC
100
AcDbSymbolTableRecord
100
AcDbLayerTableRecord
  2
ﾊｯﾁﾝｸ
 70
     0
 62
     6
  6
CONTINUOUS
370
    -3
390
1000168A
  0
LAYER
  5
10000A07
330
CC
100
AcDbSymbolTableRecord
100
AcDbLayerTableRecord
  2
C
 70
     0
 62
     7
  6
CONTINUOUS
370
    -3
390
1000168A
  0
ENDTAB
  0
TABLE
  2
STYLE
  5
D2
330
0
100
AcDbSymbolTable
 70
     3
  0
STYLE
  5
D5
330
D2
100
AcDbSymbolTableRecord
100
AcDbTextStyleTableRecord
  2
STANDARD
 70
     0
 40
0.0
 41
0.5
 50
0.0
 71
     0
 42
0.3
  3
txt
  4

  0
STYLE
  5
D8
330
D2
100
AcDbSymbolTableRecord
100
AcDbTextStyleTableRecord
  2
BIGFONT
 70
     0
 40
0.0
 41
1.0
 50
0.0
 71
     0
 42
0.2
  3
txt.shx
  4
bigfont
  0
STYLE
  5
100000EA
330
D2
100
AcDbSymbolTableRecord
100
AcDbTextStyleTableRecord
  2
STYLE3
 70
     0
 40
0.0
 41
1.0
 50
0.0
 71
     0
 42
3.0
  3
romans.shx
  4
bigfont.shx
  0
ENDTAB
  0
TABLE
  2
VIEW
  5
DB
330
0
100
AcDbSymbolTable
 70
     0
  0
ENDTAB
  0
TABLE
  2
UCS
  5
DE
330
0
100
AcDbSymbolTable
 70
     0
  0
ENDTAB
  0
TABLE
  2
APPID
  5
E1
330
0
100
AcDbSymbolTable
 70
     5
  0
APPID
  5
E4
330
E1
100
AcDbSymbolTableRecord
100
AcDbRegAppTableRecord
  2
ACAD
 70
     0
  0
APPID
  5
E7
330
E1
100
AcDbSymbolTableRecord
100
AcDbRegAppTableRecord
  2
CONTENTTABDATA
 70
     0
  0
APPID
  5
EA
330
E1
100
AcDbSymbolTableRecord
100
AcDbRegAppTableRecord
  2
CONTENTCURRENTTAB
 70
     0
  0
APPID
  5
10001C02
330
E1
100
AcDbSymbolTableRecord
100
AcDbRegAppTableRecord
  2
ACAD_DSTYLE_DIMTEXT_FILL
 70
     0
  0
APPID
  5
10001FFC
330
E1
100
AcDbSymbolTableRecord
100
AcDbRegAppTableRecord
  2
ACAD_PSEXT
 70
     0
  0
ENDTAB
  0
TABLE
  2
DIMSTYLE
  5
ED
330
0
100
AcDbSymbolTable
 70
     2
100
AcDbDimStyleTable
 71
     1
340
100000EB
  0
DIMSTYLE
105
F0
330
ED
100
AcDbSymbolTableRecord
100
AcDbDimStyleTableRecord
  2
STANDARD
 70
     0
340
D5
  0
DIMSTYLE
105
100000EB
102
{ACAD_REACTORS
330
10000161
330
10000124
330
1000010D
330
1000011E
330
10000103
330
1000022A
330
1000035D
330
100005A3
330
100005A7
330
100005F2
330
10000A09
330
10000A33
330
10000A34
330
10000A38
330
10000A39
330
10000A42
330
10000A44
330
10000ABF
330
10000ADA
330
1000197C
330
10001B03
330
10001F00
330
10001F62
330
10001FBA
330
10001FDD
330
10001FEC
330
10001F47
102
}
330
ED
100
AcDbSymbolTableRecord
100
AcDbDimStyleTableRecord
  2
STYLE3
 70
     0
 41
2.5
 42
0.0
 43
3.75
 44
1.25
 73
     0
 74
     0
 77
     1
 78
     8
140
2.5
141
2.5
143
0.0394
147
0.625
171
     4
172
     1
173
     1
176
     2
177
     2
178
     6
271
     1
273
     8
274
     4
340
100000EA
341
10000009
343
10000009
344
10000009
  0
ENDTAB
  0
TABLE
  2
BLOCK_RECORD
  5
F3
330
0
100
AcDbSymbolTable
 70
    67
  0
BLOCK_RECORD
  5
F6
102
{ACAD_XDICTIONARY
360
10001B11
102
}
330
F3
100
AcDbSymbolTableRecord
100
AcDbBlockTableRecord
  2
*MODEL_SPACE
340
10001691
  0
BLOCK_RECORD
  5
F9
330
F3
100
AcDbSymbolTableRecord
100
AcDbBlockTableRecord
  2
*PAPER_SPACE
340
10001692
  0
BLOCK_RECORD
  5
10000009
330
F3
100
AcDbSymbolTableRecord
100
AcDbBlockTableRecord
  2
_OPEN
340
0
102
{BLKREFS
331
10000015
331
10000016
331
100000A2
331
100000A3
331
100000B0
331
100000B1
331
100000BC
331
100000BD
331
100000C8
331
100000C9
331
100000D4
331
100000D5
331
10000115
331
1000013B
331
10000149
331
1000015B
331
1000015E
331
10000169
331
1000016B
331
1000016D
331
1000016E
331
10000239
331
10000314
331
10000315
331
10000320
331
10000321
331
1000032C
331
1000032D
331
10000337
331
10000338
331
100005B0
331
100005BB
331
100005BC
331
100005CE
331
100005DB
331
100005E6
331
1000099F
331
100009A0
331
100009AB
331
100009AC
331
100009B7
331
100009B8
331
100009C2
331
100009C3
331
100009CE
331
100009CF
331
100009DA
331
100009DB
331
100009E6
331
100009E7
331
100009F1
331
100009F2
331
100009FF
331
10000A00
331
10000A50
331
10000A7E
331
10000A7F
331
10000A91
331
10000A9E
331
10000AA9
331
10000B05
331
100019B3
331
100019B4
331
10001F18
331
10001F2E
331
10001F41
331
10001F42
331
1000261C
331
1000261D
331
10003183
331
10003184
331
1000318C
331
1000318D
331
10003197
331
10003198
331
100031A2
331
100031A3
331
100031AB
331
100031AC
331
100031B3
331
100031B4
331
100031BB
331
100031BC
331
100031C4
331
100031C5
331
100031CD
331
100031CE
331
100031D6
331
100031D7
331
100031DF
331
100031E0
331
100031E8
331
100031E9
331
100031F0
331
100031F1
331
100031FA
331
100031FB
331
10003202
331
10003203
331
1000320A
331
1000320B
331
10003213
331
10003214
331
1000321D
331
1000321E
331
10003228
331
10003229
331
10003230
331
10003231
331
10003238
331
1000323F
331
10003240
331
1000324A
331
1000324B
331
10003255
331
10003256
331
10003341
331
10003342
331
1000334A
331
1000334B
331
100036DD
331
100036DE
331
100036F6
331
100036F7
331
1000374B
331
1000374C
331
10003756
331
10003757
331
10003761
331
10003762
331
1000376A
331
1000376B
331
10003773
331
10003774
331
1000377C
331
1000377D
331
10003785
331
10003786
331
1000378D
331
1000378E
102
}
  0
BLOCK_RECORD
  5
100019E1
330
F3
100
AcDbSymbolTableRecord
100
AcDbBlockTableRecord
  2
*D26
340
0
  0
BLOCK_RECORD
  5
10001B04
330
F3
100
AcDbSymbolTableRecord
100
AcDbBlockTableRecord
  2
*D27
340
0
  0
BLOCK_RECORD
  5
10001F01
330
F3
100
AcDbSymbolTableRecord
100
AcDbBlockTableRecord
  2
*D28
340
0
  0
BLOCK_RECORD
  5
10001F48
330
F3
100
AcDbSymbolTableRecord
100
AcDbBlockTableRecord
  2
*D29
340
0
  0
BLOCK_RECORD
  5
10001F63
330
F3
100
AcDbSymbolTableRecord
100
AcDbBlockTableRecord
  2
*D30
340
0
  0
BLOCK_RECORD
  5
10001FBB
330
F3
100
AcDbSymbolTableRecord
100
AcDbBlockTableRecord
  2
*D31
340
0
  0
BLOCK_RECORD
  5
10001FDE
330
F3
100
AcDbSymbolTableRecord
100
AcDbBlockTableRecord
  2
*D32
340
0
  0
BLOCK_RECORD
  5
10001FED
330
F3
100
AcDbSymbolTableRecord
100
AcDbBlockTableRecord
  2
*D33
340
0
  0
ENDTAB
  0
ENDSEC
  0
SECTION
  2
BLOCKS
  0
BLOCK
  5
FC
330
F6
100
AcDbEntity
  8
0
100
AcDbBlockBegin
  2
*MODEL_SPACE
 70
     0
 10
0.0
 20
0.0
 30
0.0
  3
*MODEL_SPACE
  1
 
  0
ENDBLK
  5
FF
330
F6
100
AcDbEntity
  8
0
100
AcDbBlockEnd
  0
BLOCK
  5
102
330
F9
100
AcDbEntity
 67
     1
  8
0
100
AcDbBlockBegin
  2
*PAPER_SPACE
 70
     0
 10
0.0
 20
0.0
 30
0.0
  3
*PAPER_SPACE
  1
 
  0
ENDBLK
  5
105
330
F9
100
AcDbEntity
 67
     1
  8
0
100
AcDbBlockEnd
  0
BLOCK
  5
1000000D
330
10000009
100
AcDbEntity
  8
0
100
AcDbBlockBegin
  2
_OPEN
 70
     0
 10
0.0
 20
0.0
 30
0.0
  3
_OPEN
  1

  0
LINE
  5
1000000A
330
10000009
100
AcDbEntity
  8
0
  6
ByBlock
 62
     0
100
AcDbLine
 10
-1.0
 20
0.1666666666666666
 30
0.0
 11
0.0
 21
0.0
 31
0.0
  0
LINE
  5
1000000B
330
10000009
100
AcDbEntity
  8
0
  6
ByBlock
 62
     0
100
AcDbLine
 10
0.0
 20
0.0
 30
0.0
 11
-1.0
 21
-0.1666666666666666
 31
0.0
  0
LINE
  5
1000000C
330
10000009
100
AcDbEntity
  8
0
  6
ByBlock
 62
     0
100
AcDbLine
 10
0.0
 20
0.0
 30
0.0
 11
-1.0
 21
0.0
 31
0.0
  0
ENDBLK
  5
1000000E
330
10000009
100
AcDbEntity
  8
0
100
AcDbBlockEnd
  0
BLOCK
  5
100019EA
330
100019E1
100
AcDbEntity
  8
0
100
AcDbBlockBegin
  2
*D26
 70
     1
 10
0.0
 20
0.0
 30
0.0
  3
*D26
  1

  0
LINE
  5
1000378B
330
100019E1
100
AcDbEntity
  8
寸法線
 62
     2
370
    -2
100
AcDbLine
 10
410.660867404642
 20
111.5190569370752
 30
0.0
 11
410.660867404642
 21
68.0411240729411
 31
0.0
  0
LINE
  5
1000378C
330
100019E1
100
AcDbEntity
  8
寸法線
 62
     2
370
    -2
100
AcDbLine
 10
313.1608674046421
 20
69.2911240729411
 30
0.0
 11
408.160867404642
 21
69.2911240729411
 31
0.0
  0
INSERT
  5
1000378D
330
100019E1
100
AcDbEntity
  8
寸法線
 62
     2
370
    -2
100
AcDbBlockReference
  2
_OPEN
 10
310.6608674046421
 20
69.2911240729411
 30
0.0
 41
2.5
 42
2.5
 43
2.5
 50
180.0
  0
INSERT
  5
1000378E
330
100019E1
100
AcDbEntity
  8
寸法線
 62
     2
370
    -2
100
AcDbBlockReference
  2
_OPEN
 10
410.660867404642
 20
69.2911240729411
 30
0.0
 41
2.5
 42
2.5
 43
2.5
  0
MTEXT
  5
1000378F
330
100019E1
100
AcDbEntity
  8
寸法線
 62
     6
100
AcDbMText
 10
360.6608674046421
 20
71.1661240729411
 30
0.0
 40
2.5
 41
0.0
 71
     5
 72
     1
  1
\A1;100
  7
STYLE3
 73
     1
 44
1.0
  0
POINT
  5
10003790
330
100019E1
100
AcDbEntity
  8
DEFPOINTS
 62
     0
100
AcDbPoint
 10
310.6608674046421
 20
111.5190569370752
 30
0.0
  0
POINT
  5
10003791
330
100019E1
100
AcDbEntity
  8
DEFPOINTS
 62
     0
100
AcDbPoint
 10
410.660867404642
 20
111.5190569370752
 30
0.0
  0
POINT
  5
10003792
330
100019E1
100
AcDbEntity
  8
DEFPOINTS
 62
     0
100
AcDbPoint
 10
410.660867404642
 20
69.2911240729411
 30
0.0
  0
ENDBLK
  5
100019EB
330
100019E1
100
AcDbEntity
  8
0
100
AcDbBlockEnd
  0
BLOCK
  5
10001B0E
330
10001B04
100
AcDbEntity
  8
0
100
AcDbBlockBegin
  2
*D27
 70
     1
 10
0.0
 20
0.0
 30
0.0
  3
*D27
  1

  0
LINE
  5
10003782
330
10001B04
100
AcDbEntity
  8
寸法線
 62
     2
370
    -2
100
AcDbLine
 10
405.6608674046421
 20
110.2190569370752
 30
0.0
 11
425.365746047385
 21
110.2190569370752
 31
0.0
  0
LINE
  5
10003783
330
10001B04
100
AcDbEntity
  8
寸法線
 62
     2
370
    -2
100
AcDbLine
 10
405.6608674046421
 20
140.2190569370752
 30
0.0
 11
425.365746047385
 21
140.2190569370752
 31
0.0
  0
LINE
  5
10003784
330
10001B04
100
AcDbEntity
  8
寸法線
 62
     2
370
    -2
100
AcDbLine
 10
424.115746047385
 20
112.7190569370752
 30
0.0
 11
424.115746047385
 21
137.7190569370752
 31
0.0
  0
INSERT
  5
10003785
330
10001B04
100
AcDbEntity
  8
寸法線
 62
     2
370
    -2
100
AcDbBlockReference
  2
_OPEN
 10
424.115746047385
 20
110.2190569370752
 30
0.0
 41
2.5
 42
2.5
 43
2.5
 50
270.0
  0
INSERT
  5
10003786
330
10001B04
100
AcDbEntity
  8
寸法線
 62
     2
370
    -2
100
AcDbBlockReference
  2
_OPEN
 10
424.115746047385
 20
140.2190569370752
 30
0.0
 41
2.5
 42
2.5
 43
2.5
 50
90.0
  0
MTEXT
  5
10003787
330
10001B04
100
AcDbEntity
  8
寸法線
 62
     6
100
AcDbMText
 10
422.240746047385
 20
125.2190569370753
 30
0.0
 40
2.5
 41
0.0
 71
     5
 72
     1
  1
\A1;30
  7
STYLE3
 11
0.0000000000000001
 21
1.0
 31
0.0
 73
     1
 44
1.0
  0
POINT
  5
10003788
330
10001B04
100
AcDbEntity
  8
DEFPOINTS
 62
     0
100
AcDbPoint
 10
405.6608674046421
 20
110.2190569370752
 30
0.0
  0
POINT
  5
10003789
330
10001B04
100
AcDbEntity
  8
DEFPOINTS
 62
     0
100
AcDbPoint
 10
405.6608674046421
 20
140.2190569370752
 30
0.0
  0
POINT
  5
1000378A
330
10001B04
100
AcDbEntity
  8
DEFPOINTS
 62
     0
100
AcDbPoint
 10
424.115746047385
 20
140.2190569370752
 30
0.0
  0
ENDBLK
  5
10001B0F
330
10001B04
100
AcDbEntity
  8
0
100
AcDbBlockEnd
  0
BLOCK
  5
10001F0B
330
10001F01
100
AcDbEntity
  8
0
100
AcDbBlockBegin
  2
*D28
 70
     1
 10
0.0
 20
0.0
 30
0.0
  3
*D28
  1

  0
LINE
  5
10003779
330
10001F01
100
AcDbEntity
  8
寸法線
 62
     2
370
    -2
100
AcDbLine
 10
235.6608674046421
 20
86.1879857240981
 30
0.0
 11
235.6608674046421
 21
68.0411240729411
 31
0.0
  0
LINE
  5
1000377A
330
10001F01
100
AcDbEntity
  8
寸法線
 62
     2
370
    -2
100
AcDbLine
 10
310.6608674046421
 20
71.70394321283288
 30
0.0
 11
310.6608674046421
 21
68.0411240729411
 31
0.0
  0
LINE
  5
1000377B
330
10001F01
100
AcDbEntity
  8
寸法線
 62
     2
370
    -2
100
AcDbLine
 10
238.1608674046421
 20
69.2911240729411
 30
0.0
 11
308.1608674046421
 21
69.2911240729411
 31
0.0
  0
INSERT
  5
1000377C
330
10001F01
100
AcDbEntity
  8
寸法線
 62
     2
370
    -2
100
AcDbBlockReference
  2
_OPEN
 10
235.6608674046421
 20
69.2911240729411
 30
0.0
 41
2.5
 42
2.5
 43
2.5
 50
180.0
  0
INSERT
  5
1000377D
330
10001F01
100
AcDbEntity
  8
寸法線
 62
     2
370
    -2
100
AcDbBlockReference
  2
_OPEN
 10
310.6608674046421
 20
69.2911240729411
 30
0.0
 41
2.5
 42
2.5
 43
2.5
  0
MTEXT
  5
1000377E
330
10001F01
100
AcDbEntity
  8
寸法線
 62
     6
100
AcDbMText
 10
273.1608674046421
 20
71.1661240729411
 30
0.0
 40
2.5
 41
0.0
 71
     5
 72
     1
  1
\A1;75
  7
STYLE3
 73
     1
 44
1.0
  0
POINT
  5
1000377F
330
10001F01
100
AcDbEntity
  8
DEFPOINTS
 62
     0
100
AcDbPoint
 10
235.6608674046421
 20
86.1879857240981
 30
0.0
  0
POINT
  5
10003780
330
10001F01
100
AcDbEntity
  8
DEFPOINTS
 62
     0
100
AcDbPoint
 10
310.6608674046421
 20
71.70394321283288
 30
0.0
  0
POINT
  5
10003781
330
10001F01
100
AcDbEntity
  8
DEFPOINTS
 62
     0
100
AcDbPoint
 10
310.6608674046421
 20
69.2911240729411
 30
0.0
  0
ENDBLK
  5
10001F0C
330
10001F01
100
AcDbEntity
  8
0
100
AcDbBlockEnd
  0
BLOCK
  5
10001F52
330
10001F48
100
AcDbEntity
  8
0
100
AcDbBlockBegin
  2
*D29
 70
     1
 10
0.0
 20
0.0
 30
0.0
  3
*D29
  1

  0
LINE
  5
10003770
330
10001F48
100
AcDbEntity
  8
寸法線
 62
     2
370
    -2
100
AcDbLine
 10
147.6292229302173
 20
103.0120896518492
 30
0.0
 11
148.2209326474585
 21
89.86854457537264
 31
0.0
  0
LINE
  5
10003771
330
10001F48
100
AcDbEntity
  8
寸法線
 62
     2
370
    -2
100
AcDbLine
 10
227.5482774086131
 20
106.6099683712086
 30
0.0
 11
228.1399871258543
 21
93.4664232947321
 31
0.0
  0
LINE
  5
10003772
330
10001F48
100
AcDbEntity
  8
寸法線
 62
     2
370
    -2
100
AcDbLine
 10
150.6621862449184
 20
91.22971351157756
 30
0.0
 11
225.5862998184145
 21
94.60272481097703
 31
0.0
  0
INSERT
  5
10003773
330
10001F48
100
AcDbEntity
  8
寸法線
 62
     2
370
    -2
100
AcDbBlockReference
  2
_OPEN
 10
148.1647157924685
 20
91.11727980159757
 30
0.0
 41
2.5
 42
2.5
 43
2.5
 50
182.5776602566228
  0
INSERT
  5
10003774
330
10001F48
100
AcDbEntity
  8
寸法線
 62
     2
370
    -2
100
AcDbBlockReference
  2
_OPEN
 10
228.0837702708644
 20
94.71515852095704
 30
0.0
 41
2.5
 42
2.5
 43
2.5
 50
2.577660256622827
  0
MTEXT
  5
10003775
330
10001F48
100
AcDbEntity
  8
寸法線
 62
     6
100
AcDbMText
 10
188.0399177491814
 20
94.78932200061469
 30
0.0
 40
2.5
 41
0.0
 71
     5
 72
     1
  1
\A1;80
  7
STYLE3
 11
0.9989881809799463
 21
0.0449734839919931
 31
0.0
 73
     1
 44
1.0
  0
POINT
  5
10003776
330
10001F48
100
AcDbEntity
  8
DEFPOINTS
 62
     0
100
AcDbPoint
 10
147.6292229302172
 20
103.0120896518492
 30
0.0
  0
POINT
  5
10003777
330
10001F48
100
AcDbEntity
  8
DEFPOINTS
 62
     0
100
AcDbPoint
 10
227.5482774086131
 20
106.6099683712086
 30
0.0
  0
POINT
  5
10003778
330
10001F48
100
AcDbEntity
  8
DEFPOINTS
 62
     0
100
AcDbPoint
 10
228.0837702708643
 20
94.71515852095699
 30
0.0
  0
ENDBLK
  5
10001F53
330
10001F48
100
AcDbEntity
  8
0
100
AcDbBlockEnd
  0
BLOCK
  5
10001F6D
330
10001F63
100
AcDbEntity
  8
0
100
AcDbBlockBegin
  2
*D30
 70
     1
 10
0.0
 20
0.0
 30
0.0
  3
*D30
  1

  0
LINE
  5
10003767
330
10001F63
100
AcDbEntity
  8
寸法線
 62
     2
370
    -2
100
AcDbLine
 10
151.0996683806813
 20
156.0314508659815
 30
0.0
 11
120.8766098336206
 21
158.2247887790332
 31
0.0
  0
LINE
  5
10003768
330
10001F63
100
AcDbEntity
  8
寸法線
 62
     2
370
    -2
100
AcDbLine
 10
147.4847914185186
 20
106.2203217108502
 30
0.0
 11
117.2617328714578
 21
108.4136596239019
 31
0.0
  0
LINE
  5
10003769
330
10001F63
100
AcDbEntity
  8
寸法線
 62
     2
370
    -2
100
AcDbLine
 10
121.942377825125
 20
155.6408695488163
 30
0.0
 11
118.6894074607287
 21
110.8166255552356
 31
0.0
  0
INSERT
  5
1000376A
330
10001F63
100
AcDbEntity
  8
寸法線
 62
     2
370
    -2
100
AcDbBlockReference
  2
_OPEN
 10
122.1233311240082
 20
158.1343121295916
 30
0.0
 41
2.5
 42
2.5
 43
2.5
 50
85.84922612375313
  0
INSERT
  5
1000376B
330
10001F63
100
AcDbEntity
  8
寸法線
 62
     2
370
    -2
100
AcDbBlockReference
  2
_OPEN
 10
118.5084541618455
 20
108.3231829744603
 30
0.0
 41
2.5
 42
2.5
 43
2.5
 50
265.8492261237531
  0
MTEXT
  5
1000376C
330
10001F63
100
AcDbEntity
  8
寸法線
 62
     6
100
AcDbMText
 10
118.4458107073454
 20
133.3644625261884
 30
0.0
 40
2.5
 41
0.0
 71
     5
 72
     1
  1
\A1;50
  7
STYLE3
 11
0.0723813195532961
 21
0.9973770323101106
 31
0.0
 73
     1
 44
1.0
  0
POINT
  5
1000376D
330
10001F63
100
AcDbEntity
  8
DEFPOINTS
 62
     0
100
AcDbPoint
 10
151.0996683806813
 20
156.0314508659815
 30
0.0
  0
POINT
  5
1000376E
330
10001F63
100
AcDbEntity
  8
DEFPOINTS
 62
     0
100
AcDbPoint
 10
147.4847914185186
 20
106.2203217108502
 30
0.0
  0
POINT
  5
1000376F
330
10001F63
100
AcDbEntity
  8
DEFPOINTS
 62
     0
100
AcDbPoint
 10
118.5084541618455
 20
108.3231829744603
 30
0.0
  0
ENDBLK
  5
10001F6E
330
10001F63
100
AcDbEntity
  8
0
100
AcDbBlockEnd
  0
BLOCK
  5
10001FC5
330
10001FBB
100
AcDbEntity
  8
0
100
AcDbBlockBegin
  2
*D31
 70
     1
 10
0.0
 20
0.0
 30
0.0
  3
*D31
  1

  0
LINE
  5
10003748
330
10001FBB
100
AcDbEntity
  8
寸法線
 62
     2
370
    -2
100
AcDbLine
 10
105.2752701614211
 20
220.6298664826983
 30
0.0
 11
92.69027011769651
 21
220.6298664826983
 31
0.0
  0
LINE
  5
10003749
330
10001FBB
100
AcDbEntity
  8
寸法線
 62
     2
370
    -2
100
AcDbLine
 10
101.2752701614211
 20
212.6298664826983
 30
0.0
 11
92.69027011769651
 21
212.6298664826983
 31
0.0
  0
LINE
  5
1000374A
330
10001FBB
100
AcDbEntity
  8
寸法線
 62
     2
370
    -2
100
AcDbLine
 10
93.94027011769651
 20
218.1298664826983
 30
0.0
 11
93.94027011769651
 21
215.1298664826983
 31
0.0
  0
INSERT
  5
1000374B
330
10001FBB
100
AcDbEntity
  8
寸法線
 62
     2
370
    -2
100
AcDbBlockReference
  2
_OPEN
 10
93.94027011769651
 20
220.6298664826983
 30
0.0
 41
2.5
 42
2.5
 43
2.5
 50
90.0
  0
INSERT
  5
1000374C
330
10001FBB
100
AcDbEntity
  8
寸法線
 62
     2
370
    -2
100
AcDbBlockReference
  2
_OPEN
 10
93.94027011769651
 20
212.6298664826983
 30
0.0
 41
2.5
 42
2.5
 43
2.5
 50
270.0
  0
MTEXT
  5
1000374D
330
10001FBB
100
AcDbEntity
  8
寸法線
 62
     6
100
AcDbMText
 10
92.06527011769649
 20
216.6298664826983
 30
0.0
 40
2.5
 41
0.0
 71
     5
 72
     1
  1
\A1;4
  7
STYLE3
 11
0.0000000000000001
 21
1.0
 31
0.0
 73
     1
 44
1.0
  0
POINT
  5
1000374E
330
10001FBB
100
AcDbEntity
  8
DEFPOINTS
 62
     0
100
AcDbPoint
 10
105.2752701614211
 20
220.6298664826983
 30
0.0
  0
POINT
  5
1000374F
330
10001FBB
100
AcDbEntity
  8
DEFPOINTS
 62
     0
100
AcDbPoint
 10
101.2752701614211
 20
212.6298664826983
 30
0.0
  0
POINT
  5
10003750
330
10001FBB
100
AcDbEntity
  8
DEFPOINTS
 62
     0
100
AcDbPoint
 10
93.94027011769651
 20
212.6298664826983
 30
0.0
  0
ENDBLK
  5
10001FC6
330
10001FBB
100
AcDbEntity
  8
0
100
AcDbBlockEnd
  0
BLOCK
  5
10001FEA
330
10001FDE
100
AcDbEntity
  8
0
100
AcDbBlockBegin
  2
*D32
 70
     1
 10
0.0
 20
0.0
 30
0.0
  3
*D32
  1

  0
LINE
  5
1000375C
330
10001FDE
100
AcDbEntity
  8
寸法線
 62
     2
370
    -2
100
AcDbLine
 10
194.8628121595218
 20
136.493190099221
 30
0.0
 11
194.8628121595218
 21
143.2281327575686
 31
0.0
  0
LINE
  5
1000375D
330
10001FDE
100
AcDbEntity
  8
寸法線
 62
     2
370
    -2
100
AcDbLine
 10
191.8628121595219
 20
136.2144660049225
 30
0.0
 11
191.8628121595219
 21
143.2281327575686
 31
0.0
  0
LINE
  5
1000375E
330
10001FDE
100
AcDbEntity
  8
寸法線
 62
     2
370
    -2
100
AcDbLine
 10
197.3628121595218
 20
141.9781327575686
 30
0.0
 11
199.8628121595218
 21
141.9781327575686
 31
0.0
  0
LINE
  5
1000375F
330
10001FDE
100
AcDbEntity
  8
寸法線
 62
     2
370
    -2
100
AcDbLine
 10
189.3628121595219
 20
141.9781327575686
 30
0.0
 11
186.8628121595219
 21
141.9781327575686
 31
0.0
  0
LINE
  5
10003760
330
10001FDE
100
AcDbEntity
  8
寸法線
 62
     2
370
    -2
100
AcDbLine
 10
194.8628121595218
 20
141.9781327575686
 30
0.0
 11
191.8628121595219
 21
141.9781327575686
 31
0.0
  0
INSERT
  5
10003761
330
10001FDE
100
AcDbEntity
  8
寸法線
 62
     2
370
    -2
100
AcDbBlockReference
  2
_OPEN
 10
194.8628121595218
 20
141.9781327575686
 30
0.0
 41
2.5
 42
2.5
 43
2.5
 50
180.0
  0
INSERT
  5
10003762
330
10001FDE
100
AcDbEntity
  8
寸法線
 62
     2
370
    -2
100
AcDbBlockReference
  2
_OPEN
 10
191.8628121595219
 20
141.9781327575686
 30
0.0
 41
2.5
 42
2.5
 43
2.5
  0
MTEXT
  5
10003763
330
10001FDE
100
AcDbEntity
  8
寸法線
 62
     6
100
AcDbMText
 10
193.3628121595218
 20
143.8531327575685
 30
0.0
 40
2.5
 41
0.0
 71
     5
 72
     1
  1
\A1;3
  7
STYLE3
 73
     1
 44
1.0
  0
POINT
  5
10003764
330
10001FDE
100
AcDbEntity
  8
DEFPOINTS
 62
     0
100
AcDbPoint
 10
194.8628121595218
 20
136.493190099221
 30
0.0
  0
POINT
  5
10003765
330
10001FDE
100
AcDbEntity
  8
DEFPOINTS
 62
     0
100
AcDbPoint
 10
191.8628121595219
 20
136.2144660049225
 30
0.0
  0
POINT
  5
10003766
330
10001FDE
100
AcDbEntity
  8
DEFPOINTS
 62
     0
100
AcDbPoint
 10
191.8628121595219
 20
141.9781327575686
 30
0.0
  0
ENDBLK
  5
10001FEB
330
10001FDE
100
AcDbEntity
  8
0
100
AcDbBlockEnd
  0
BLOCK
  5
10001FF9
330
10001FED
100
AcDbEntity
  8
0
100
AcDbBlockBegin
  2
*D33
 70
     1
 10
0.0
 20
0.0
 30
0.0
  3
*D33
  1

  0
LINE
  5
10003751
330
10001FED
100
AcDbEntity
  8
寸法線
 62
     2
370
    -2
100
AcDbLine
 10
200.3037433387978
 20
110.3132223703881
 30
0.0
 11
200.3037433387978
 21
102.4134406099182
 31
0.0
  0
LINE
  5
10003752
330
10001FED
100
AcDbEntity
  8
寸法線
 62
     2
370
    -2
100
AcDbLine
 10
203.3037433387978
 20
110.3052280529796
 30
0.0
 11
203.3037433387978
 21
102.4134406099182
 31
0.0
  0
LINE
  5
10003753
330
10001FED
100
AcDbEntity
  8
寸法線
 62
     2
370
    -2
100
AcDbLine
 10
197.8037433387978
 20
103.6634406099182
 30
0.0
 11
195.3037433387978
 21
103.6634406099182
 31
0.0
  0
LINE
  5
10003754
330
10001FED
100
AcDbEntity
  8
寸法線
 62
     2
370
    -2
100
AcDbLine
 10
205.8037433387978
 20
103.6634406099182
 30
0.0
 11
208.3037433387978
 21
103.6634406099182
 31
0.0
  0
LINE
  5
10003755
330
10001FED
100
AcDbEntity
  8
寸法線
 62
     2
370
    -2
100
AcDbLine
 10
200.3037433387978
 20
103.6634406099182
 30
0.0
 11
203.3037433387978
 21
103.6634406099182
 31
0.0
  0
INSERT
  5
10003756
330
10001FED
100
AcDbEntity
  8
寸法線
 62
     2
370
    -2
100
AcDbBlockReference
  2
_OPEN
 10
200.3037433387978
 20
103.6634406099182
 30
0.0
 41
2.5
 42
2.5
 43
2.5
  0
INSERT
  5
10003757
330
10001FED
100
AcDbEntity
  8
寸法線
 62
     2
370
    -2
100
AcDbBlockReference
  2
_OPEN
 10
203.3037433387978
 20
103.6634406099182
 30
0.0
 41
2.5
 42
2.5
 43
2.5
 50
180.0
  0
MTEXT
  5
10003758
330
10001FED
100
AcDbEntity
  8
寸法線
 62
     6
100
AcDbMText
 10
201.8037433387978
 20
105.5384406099182
 30
0.0
 40
2.5
 41
0.0
 71
     5
 72
     1
  1
\A1;3
  7
STYLE3
 73
     1
 44
1.0
  0
POINT
  5
10003759
330
10001FED
100
AcDbEntity
  8
DEFPOINTS
 62
     0
100
AcDbPoint
 10
200.3037433387978
 20
110.3132223703881
 30
0.0
  0
POINT
  5
1000375A
330
10001FED
100
AcDbEntity
  8
DEFPOINTS
 62
     0
100
AcDbPoint
 10
203.3037433387978
 20
110.3052280529796
 30
0.0
  0
POINT
  5
1000375B
330
10001FED
100
AcDbEntity
  8
DEFPOINTS
 62
     0
100
AcDbPoint
 10
203.3037433387978
 20
103.6634406099182
 30
0.0
  0
ENDBLK
  5
10001FFA
330
10001FED
100
AcDbEntity
  8
0
100
AcDbBlockEnd
  0
ENDSEC
  0
SECTION
  2
ENTITIES
  0
LINE
  5
100016A3
330
F6
100
AcDbEntity
  8
中心線
100
AcDbLine
 10
235.6608674046421
 20
149.5120505084081
 30
0.0
 11
235.6608674046421
 21
86.1879857240981
 31
0.0
  0
LINE
  5
100016A7
330
F6
100
AcDbEntity
  8
中心線
 48
0.5
100
AcDbLine
 10
293.7249573315138
 20
179.2190569370752
 30
0.0
 11
321.9426319299962
 21
172.8128142098744
 31
0.0
  0
ARC
  5
100016A8
330
F6
100
AcDbEntity
  8
隠れ線2
100
AcDbCircle
 10
293.7249573315138
 20
179.2190569370752
 30
0.0
 40
24.5
100
AcDbArc
 50
307.8605525449758
 51
179.4470187848346
  0
LINE
  5
100016E4
330
F6
100
AcDbEntity
  8
隠れ線2
100
AcDbLine
 10
400.6608674046421
 20
135.4190569370752
 30
0.0
 11
400.6608674046421
 21
115.0190569370753
 31
0.0
  0
LINE
  5
100016E5
330
F6
100
AcDbEntity
  8
握り
100
AcDbLine
 10
410.660867404642
 20
138.9190569370752
 30
0.0
 11
410.660867404642
 21
111.5190569370752
 31
0.0
  0
LINE
  5
100016E6
330
F6
100
AcDbEntity
  8
握り
100
AcDbLine
 10
386.9875173207843
 20
139.4190569370752
 30
0.0
 11
386.9875173207843
 21
111.0190569370752
 31
0.0
  0
LINE
  5
100016E7
330
F6
100
AcDbEntity
  8
握り
100
AcDbLine
 10
394.3342174884999
 20
139.4190569370752
 30
0.0
 11
394.3342174884999
 21
111.0190569370752
 31
0.0
  0
LINE
  5
100016E8
330
F6
100
AcDbEntity
  8
握り
100
AcDbLine
 10
396.9875173207843
 20
139.4190569370752
 30
0.0
 11
396.9875173207843
 21
111.0190569370752
 31
0.0
  0
LINE
  5
100016E9
330
F6
100
AcDbEntity
  8
握り
100
AcDbLine
 10
404.3342174884998
 20
139.4190569370752
 30
0.0
 11
404.3342174884998
 21
111.0190569370752
 31
0.0
  0
LINE
  5
100016EA
330
F6
100
AcDbEntity
  8
握り
100
AcDbLine
 10
406.9875173207842
 20
139.4190569370752
 30
0.0
 11
406.9875173207842
 21
111.0190569370752
 31
0.0
  0
LINE
  5
100016EB
330
F6
100
AcDbEntity
  8
握り
100
AcDbLine
 10
384.3342174884998
 20
118.5657569370752
 30
0.0
 11
384.3342174884999
 21
111.0190569370752
 31
0.0
  0
LINE
  5
100016EC
330
F6
100
AcDbEntity
  8
握り
100
AcDbLine
 10
354.3342174884998
 20
118.5657569370752
 30
0.0
 11
354.3342174884999
 21
111.0190569370752
 31
0.0
  0
LINE
  5
100016ED
330
F6
100
AcDbEntity
  8
握り
100
AcDbLine
 10
356.9875173207841
 20
118.5657569370752
 30
0.0
 11
356.9875173207843
 21
111.0190569370752
 31
0.0
  0
LINE
  5
100016EE
330
F6
100
AcDbEntity
  8
握り
100
AcDbLine
 10
364.3342174884999
 20
118.5657569370752
 30
0.0
 11
364.3342174884999
 21
111.0190569370752
 31
0.0
  0
LINE
  5
100016EF
330
F6
100
AcDbEntity
  8
握り
100
AcDbLine
 10
366.9875173207842
 20
118.5657569370752
 30
0.0
 11
366.9875173207842
 21
111.0190569370752
 31
0.0
  0
LINE
  5
100016F0
330
F6
100
AcDbEntity
  8
握り
100
AcDbLine
 10
374.3342174885
 20
118.5657569370752
 30
0.0
 11
374.3342174884999
 21
111.0190569370752
 31
0.0
  0
LINE
  5
100016F1
330
F6
100
AcDbEntity
  8
握り
100
AcDbLine
 10
376.9875173207843
 20
118.5657569370752
 30
0.0
 11
376.9875173207843
 21
111.0190569370752
 31
0.0
  0
LINE
  5
100016F2
330
F6
100
AcDbEntity
  8
握り
100
AcDbLine
 10
310.6608674046421
 20
138.9190569370752
 30
0.0
 11
310.6608674046421
 21
111.5190569370752
 31
0.0
  0
LINE
  5
100016F3
330
F6
100
AcDbEntity
  8
握り
100
AcDbLine
 10
316.9875173207842
 20
139.4190569370752
 30
0.0
 11
316.9875173207842
 21
111.0190569370752
 31
0.0
  0
LINE
  5
100016F4
330
F6
100
AcDbEntity
  8
握り
100
AcDbLine
 10
314.3342174884999
 20
139.4190569370752
 30
0.0
 11
314.3342174884999
 21
111.0190569370752
 31
0.0
  0
LINE
  5
100016F5
330
F6
100
AcDbEntity
  8
握り
100
AcDbLine
 10
324.3342174884999
 20
139.4190569370752
 30
0.0
 11
324.3342174884999
 21
111.0190569370752
 31
0.0
  0
LINE
  5
100016F6
330
F6
100
AcDbEntity
  8
握り
100
AcDbLine
 10
326.9875173207843
 20
139.4190569370752
 30
0.0
 11
326.9875173207843
 21
111.0190569370752
 31
0.0
  0
LINE
  5
100016F7
330
F6
100
AcDbEntity
  8
握り
100
AcDbLine
 10
334.3342174884999
 20
139.4190569370752
 30
0.0
 11
334.3342174884999
 21
111.0190569370752
 31
0.0
  0
LINE
  5
100016F8
330
F6
100
AcDbEntity
  8
握り
100
AcDbLine
 10
336.9875173207843
 20
118.5657569370752
 30
0.0
 11
336.9875173207843
 21
111.0190569370752
 31
0.0
  0
LINE
  5
100016F9
330
F6
100
AcDbEntity
  8
握り
100
AcDbLine
 10
344.3342174884999
 20
118.5657569370752
 30
0.0
 11
344.3342174884999
 21
111.0190569370752
 31
0.0
  0
LINE
  5
100016FA
330
F6
100
AcDbEntity
  8
握り
100
AcDbLine
 10
346.9875173207841
 20
118.5657569370752
 30
0.0
 11
346.9875173207843
 21
111.0190569370752
 31
0.0
  0
LINE
  5
100016FB
330
F6
100
AcDbEntity
  8
隠れ線2
100
AcDbLine
 10
399.1608674046421
 20
113.5190569370752
 30
0.0
 11
310.660867404642
 21
113.5190569370752
 31
0.0
  0
LINE
  5
100016FC
330
F6
100
AcDbEntity
  8
握り
100
AcDbLine
 10
396.9875173207844
 20
111.0190569370752
 30
0.0
 11
404.3342174884998
 21
111.0190569370752
 31
0.0
  0
LINE
  5
100016FD
330
F6
100
AcDbEntity
  8
握り
100
AcDbLine
 10
326.9875173207843
 20
111.0190569370752
 30
0.0
 11
334.3342174884999
 21
111.0190569370752
 31
0.0
  0
ARC
  5
100016FE
330
F6
100
AcDbEntity
  8
握り
100
AcDbCircle
 10
315.6608674046421
 20
111.7190569370752
 30
0.0
 40
1.5
100
AcDbArc
 50
207.8181392846543
 51
332.1818607153458
  0
LINE
  5
100016FF
330
F6
100
AcDbEntity
  8
握り
100
AcDbLine
 10
311.1608674046421
 20
111.0190569370752
 30
0.0
 11
314.3342174885
 21
111.0190569370753
 31
0.0
  0
ARC
  5
10001700
330
F6
100
AcDbEntity
  8
握り
100
AcDbCircle
 10
311.1608674046421
 20
111.5190569370752
 30
0.0
 40
0.5
100
AcDbArc
 50
180.0
 51
270.0
  0
ARC
  5
10001701
330
F6
100
AcDbEntity
  8
握り
100
AcDbCircle
 10
325.6608674046421
 20
111.7190569370752
 30
0.0
 40
1.5
100
AcDbArc
 50
207.8181392846543
 51
332.1818607153458
  0
LINE
  5
10001702
330
F6
100
AcDbEntity
  8
握り
100
AcDbLine
 10
316.9875173207842
 20
111.0190569370753
 30
0.0
 11
324.3342174885
 21
111.0190569370752
 31
0.0
  0
ARC
  5
10001703
330
F6
100
AcDbEntity
  8
握り
100
AcDbCircle
 10
365.6608674046421
 20
111.7190569370752
 30
0.0
 40
1.5
100
AcDbArc
 50
207.8181392846543
 51
332.1818607153458
  0
LINE
  5
10001704
330
F6
100
AcDbEntity
  8
握り
100
AcDbLine
 10
346.9875173207843
 20
111.0190569370752
 30
0.0
 11
354.3342174884999
 21
111.0190569370752
 31
0.0
  0
LINE
  5
10001705
330
F6
100
AcDbEntity
  8
握り
100
AcDbLine
 10
336.9875173207843
 20
111.0190569370752
 30
0.0
 11
344.3342174884999
 21
111.0190569370752
 31
0.0
  0
ARC
  5
10001706
330
F6
100
AcDbEntity
  8
握り
100
AcDbCircle
 10
335.6608674046421
 20
111.7190569370752
 30
0.0
 40
1.5
100
AcDbArc
 50
207.8181392846543
 51
332.1818607153458
  0
ARC
  5
10001707
330
F6
100
AcDbEntity
  8
握り
100
AcDbCircle
 10
345.6608674046421
 20
111.7190569370752
 30
0.0
 40
1.5
100
AcDbArc
 50
207.8181392846543
 51
332.1818607153458
  0
LINE
  5
10001708
330
F6
100
AcDbEntity
  8
握り
100
AcDbLine
 10
356.9875173207844
 20
111.0190569370752
 30
0.0
 11
364.3342174884999
 21
111.0190569370752
 31
0.0
  0
ARC
  5
10001709
330
F6
100
AcDbEntity
  8
握り
100
AcDbCircle
 10
355.6608674046421
 20
111.7190569370752
 30
0.0
 40
1.5
100
AcDbArc
 50
207.8181392846543
 51
332.1818607153458
  0
LINE
  5
1000170A
330
F6
100
AcDbEntity
  8
握り
100
AcDbLine
 10
376.9875173207844
 20
111.0190569370752
 30
0.0
 11
384.3342174884998
 21
111.0190569370752
 31
0.0
  0
LINE
  5
1000170B
330
F6
100
AcDbEntity
  8
握り
100
AcDbLine
 10
366.9875173207842
 20
111.0190569370752
 30
0.0
 11
374.3342174884999
 21
111.0190569370752
 31
0.0
  0
ARC
  5
1000170C
330
F6
100
AcDbEntity
  8
握り
100
AcDbCircle
 10
375.6608674046421
 20
111.7190569370752
 30
0.0
 40
1.5
100
AcDbArc
 50
207.8181392846543
 51
332.1818607153458
  0
LINE
  5
1000170D
330
F6
100
AcDbEntity
  8
握り
100
AcDbLine
 10
386.9875173207842
 20
111.0190569370752
 30
0.0
 11
394.3342174885001
 21
111.0190569370752
 31
0.0
  0
ARC
  5
1000170E
330
F6
100
AcDbEntity
  8
握り
100
AcDbCircle
 10
385.6608674046421
 20
111.7190569370752
 30
0.0
 40
1.5
100
AcDbArc
 50
207.8181392846543
 51
332.1818607153458
  0
ARC
  5
1000170F
330
F6
100
AcDbEntity
  8
握り
100
AcDbCircle
 10
395.6608674046421
 20
111.7190569370752
 30
0.0
 40
1.5
100
AcDbArc
 50
207.8181392846543
 51
332.1818607153458
  0
ARC
  5
10001710
330
F6
100
AcDbEntity
  8
握り
100
AcDbCircle
 10
405.6608674046421
 20
111.7190569370752
 30
0.0
 40
1.5
100
AcDbArc
 50
207.8181392846543
 51
332.1818607153458
  0
ARC
  5
10001711
330
F6
100
AcDbEntity
  8
隠れ線2
100
AcDbCircle
 10
399.1608674046421
 20
115.0190569370753
 30
0.0
 40
1.5
100
AcDbArc
 50
270.0
 51
0.0
  0
ARC
  5
10001712
330
F6
100
AcDbEntity
  8
握り
100
AcDbCircle
 10
410.1608674046421
 20
111.5190569370752
 30
0.0
 40
0.5
100
AcDbArc
 50
270.0
 51
0.0
  0
LINE
  5
10001713
330
F6
100
AcDbEntity
  8
握り
100
AcDbLine
 10
406.9875173207842
 20
111.0190569370752
 30
0.0
 11
410.1608674046421
 21
111.0190569370752
 31
0.0
  0
LINE
  5
10001714
330
F6
100
AcDbEntity
  8
握り
100
AcDbLine
 10
396.9875173207844
 20
139.4190569370752
 30
0.0
 11
404.3342174884998
 21
139.4190569370752
 31
0.0
  0
LINE
  5
10001715
330
F6
100
AcDbEntity
  8
隠れ線2
100
AcDbLine
 10
399.1608674046421
 20
136.9190569370752
 30
0.0
 11
310.6608674046421
 21
136.9190569370752
 31
0.0
  0
LINE
  5
10001716
330
F6
100
AcDbEntity
  8
握り
100
AcDbLine
 10
326.9875173207843
 20
139.4190569370752
 30
0.0
 11
334.3342174884999
 21
139.4190569370752
 31
0.0
  0
ARC
  5
10001717
330
F6
100
AcDbEntity
  8
握り
100
AcDbCircle
 10
325.6608674046421
 20
138.7190569370752
 30
0.0
 40
1.5
100
AcDbArc
 50
27.81813928465427
 51
152.1818607153457
  0
ARC
  5
10001718
330
F6
100
AcDbEntity
  8
握り
100
AcDbCircle
 10
315.6608674046421
 20
138.7190569370752
 30
0.0
 40
1.5
100
AcDbArc
 50
27.81813928465427
 51
152.1818607153457
  0
LINE
  5
10001719
330
F6
100
AcDbEntity
  8
握り
100
AcDbLine
 10
311.1608674046421
 20
139.4190569370752
 30
0.0
 11
314.3342174884999
 21
139.4190569370752
 31
0.0
  0
ARC
  5
1000171A
330
F6
100
AcDbEntity
  8
握り
100
AcDbCircle
 10
311.1608674046421
 20
138.9190569370752
 30
0.0
 40
0.5
100
AcDbArc
 50
90.0
 51
180.0
  0
LINE
  5
1000171B
330
F6
100
AcDbEntity
  8
握り
100
AcDbLine
 10
316.9875173207842
 20
139.4190569370752
 30
0.0
 11
324.3342174885
 21
139.4190569370752
 31
0.0
  0
ARC
  5
1000171C
330
F6
100
AcDbEntity
  8
握り
100
AcDbCircle
 10
365.6608674046421
 20
138.7190569370752
 30
0.0
 40
1.5
100
AcDbArc
 50
27.81813928465427
 51
152.1818607153457
  0
LINE
  5
1000171D
330
F6
100
AcDbEntity
  8
握り
100
AcDbLine
 10
336.9875173207843
 20
129.2190569370752
 30
0.0
 11
384.3342174885
 21
129.2190569370752
 31
0.0
  0
LINE
  5
1000171E
330
F6
100
AcDbEntity
  8
握り
100
AcDbLine
 10
336.9875173207843
 20
121.2190569370752
 30
0.0
 11
384.3342174884998
 21
121.2190569370752
 31
0.0
  0
ARC
  5
1000171F
330
F6
100
AcDbEntity
  8
握り
100
AcDbCircle
 10
355.6608674046421
 20
138.7190569370752
 30
0.0
 40
1.5
100
AcDbArc
 50
27.81813928465427
 51
152.1818607153457
  0
ARC
  5
10001720
330
F6
100
AcDbEntity
  8
握り
100
AcDbCircle
 10
345.6608674046421
 20
138.7190569370752
 30
0.0
 40
1.5
100
AcDbArc
 50
27.81813928465427
 51
152.1818607153457
  0
ARC
  5
10001721
330
F6
100
AcDbEntity
  8
握り
100
AcDbCircle
 10
335.6608674046421
 20
138.7190569370752
 30
0.0
 40
1.5
100
AcDbArc
 50
27.81813928465427
 51
152.1818607153457
  0
LINE
  5
10001722
102
{ACAD_REACTORS
330
10001725
102
}
330
F6
100
AcDbEntity
  8
ROGO
 62
     4
100
AcDbLine
 10
348.5253779296174
 20
125.9311465654612
 30
0.0
 11
350.0259543335766
 21
125.9311465654612
 31
0.0
  0
LINE
  5
10001723
102
{ACAD_REACTORS
330
10001725
102
}
330
F6
100
AcDbEntity
  8
ROGO
 62
     4
100
AcDbLine
 10
348.7407509586438
 20
124.7891004957888
 30
0.0
 11
349.487285418699
 21
124.7891004957888
 31
0.0
  0
LINE
  5
10001724
102
{ACAD_REACTORS
330
10001725
102
}
330
F6
100
AcDbEntity
  8
ROGO
 62
     4
100
AcDbLine
 10
348.4690970141508
 20
124.4123890505087
 30
0.0
 11
349.6546355695569
 21
124.4123890505087
 31
0.0
  0
HATCH
  5
10001725
330
F6
100
AcDbEntity
  8
ROGO
 62
     4
100
AcDbHatch
 10
0.0
 20
0.0
 30
0.0
210
0.0
220
0.0
230
1.0
  2
SOLID
 70
     1
 71
     1
 91
        2
 92
        7
 72
     0
 73
     1
 93
        8
 10
350.0259543335766
 20
125.9311465654612
 10
348.5253779296174
 20
125.9311465654612
 10
347.1726146009044
 20
124.0552252360934
 10
348.211539246178
 20
124.0552252360933
 10
348.4690970141508
 20
124.4123890505087
 10
349.654635569557
 20
124.4123890505087
 10
349.813301888227
 20
124.0552252360934
 10
350.8593129198386
 20
124.0552252360934
 97
        8
330
10001722
330
10001747
330
10001746
330
10001741
330
10001724
330
10001756
330
10001757
330
10001759
 92
       22
 72
     0
 73
     1
 93
        3
 10
349.487285418699
 20
124.7891004957888
 10
348.7407509586438
 20
124.7891004957888
 10
349.2027034390913
 20
125.4297051698159
 97
        3
330
10001723
330
10001726
330
10001758
 75
     0
 76
     1
 47
0.0128389261915577
 98
        2
 10
349.908447344297
 20
125.4810866843054
 10
349.908447344297
 20
125.4810866843054
450
        0
451
        0
460
0.0
461
0.0
452
        0
462
0.0
453
        0
470

  0
LINE
  5
10001726
102
{ACAD_REACTORS
330
10001725
102
}
330
F6
100
AcDbEntity
  8
ROGO
 62
     4
100
AcDbLine
 10
349.2027034390912
 20
125.4297051698157
 30
0.0
 11
348.7407509586437
 21
124.7891004957888
 31
0.0
  0
LINE
  5
10001727
330
F6
100
AcDbEntity
  8
握り
100
AcDbLine
 10
346.9875173207843
 20
139.4190569370752
 30
0.0
 11
354.3342174884999
 21
139.4190569370752
 31
0.0
  0
LINE
  5
10001728
330
F6
100
AcDbEntity
  8
握り
100
AcDbLine
 10
346.9875173207844
 20
131.8723569370752
 30
0.0
 11
354.3342174885002
 21
131.8723569370752
 31
0.0
  0
LINE
  5
10001729
330
F6
100
AcDbEntity
  8
握り
100
AcDbLine
 10
346.9875173207843
 20
118.5657569370752
 30
0.0
 11
354.3342174884997
 21
118.5657569370752
 31
0.0
  0
HATCH
  5
1000172A
330
F6
100
AcDbEntity
  8
ROGO
 62
     4
100
AcDbHatch
 10
0.0
 20
0.0
 30
0.0
210
0.0
220
0.0
230
1.0
  2
SOLID
 70
     1
 71
     0
 91
        1
 92
        7
 72
     0
 73
     1
 93
        4
 10
341.6338089744652
 20
123.2937057388687
 10
341.5008789238624
 20
122.9998911584526
 10
358.8998683075526
 20
122.9998911584526
 10
359.0463737466756
 20
123.2937057388687
 97
        0
 75
     0
 76
     1
 47
0.0514683685270805
 98
        1
 10
352.6284307757342
 20
123.2159965042904
450
        0
451
        0
460
0.0
461
0.0
452
        0
462
0.0
453
        0
470

  0
LINE
  5
1000172B
330
F6
100
AcDbEntity
  8
ROGO
 62
     4
100
AcDbLine
 10
341.6134326217271
 20
123.2937057388687
 30
0.0
 11
359.0463737466755
 21
123.2937057388687
 31
0.0
  0
LINE
  5
1000172C
102
{ACAD_REACTORS
330
1000176B
330
1000172F
102
}
330
F6
100
AcDbEntity
  8
ROGO
 62
     4
100
AcDbLine
 10
340.1383061296674
 20
122.9998911584526
 30
0.0
 11
359.9799879397013
 21
122.9998911584526
 31
0.0
  0
LINE
  5
1000172D
330
F6
100
AcDbEntity
  8
握り
100
AcDbLine
 10
336.9875173207843
 20
129.2190569370752
 30
0.0
 11
336.9875173207843
 21
121.2190569370752
 31
0.0
  0
LINE
  5
1000172E
330
F6
100
AcDbEntity
  8
握り
100
AcDbLine
 10
336.9875173207843
 20
118.5657569370752
 30
0.0
 11
344.3342174885
 21
118.5657569370752
 31
0.0
  0
HATCH
  5
1000172F
330
F6
100
AcDbEntity
  8
ROGO
 62
     4
100
AcDbHatch
 10
0.0
 20
0.0
 30
0.0
210
0.0
220
0.0
230
1.0
  2
SOLID
 70
     1
 71
     1
 91
        2
 92
        5
 93
        6
 72
     1
 10
340.1383061296674
 20
122.9998911584526
 11
341.5008789238624
 21
122.9998911584526
 72
     1
 10
341.5008789238624
 20
122.9998911584526
 11
341.9783419964745
 21
124.0552252360934
 72
     1
 10
341.9783419964745
 20
124.0552252360934
 11
343.2520680938635
 21
124.0552252360933
 72
     4
 94
        3
 73
     0
 74
     0
 95
       18
 96
       14
 40
0.108740278791501
 40
0.108740278791501
 40
0.108740278791501
 40
0.108740278791501
 40
0.6623149649549278
 40
1.384304701649787
 40
2.097394834876493
 40
2.774073369849618
 40
3.428974823686337
 40
4.005208313035923
 40
4.455173659284313
 40
4.720999734343524
 40
5.086034088486724
 40
5.569973738255373
 40
6.060470601257719
 40
6.060470601257719
 40
6.060470601257719
 40
6.060470601257719
 10
343.2520680938633
 20
124.0552252360933
 10
343.3417108322842
 20
124.0558927784235
 10
343.5482684852179
 20
124.0574309507215
 10
343.8372410253712
 20
124.2118064314292
 10
344.1112695583612
 20
124.408469546203
 10
344.3319808999059
 20
124.6541795902057
 10
344.4694907154433
 20
124.935106929521
 10
344.4907905512249
 20
125.2043499803377
 10
344.4777875247808
 20
125.4173178862756
 10
344.3848743697192
 20
125.5657618038511
 10
344.2882798069696
 20
125.7164171998121
 10
344.1111580419023
 20
125.8469204995141
 10
343.9660324021157
 20
125.9041003442502
 10
343.8922330626357
 20
125.9311465654612
 72
     1
 10
343.8922330626358
 20
125.9311465654612
 11
341.5886640440854
 21
125.9311465654612
 72
     1
 10
341.5886640440854
 20
125.9311465654612
 11
340.1383061296674
 21
122.9998911584526
 97
        6
330
1000173B
330
10001735
330
10001730
330
1000172C
330
10001736
330
10001738
 92
       20
 93
        4
 72
     1
 10
342.2731484140603
 20
124.7068342853202
 11
342.4988595517139
 21
125.205722406585
 72
     1
 10
342.4988595517139
 20
125.205722406585
 11
343.0788409789958
 21
125.205722406585
 72
     4
 94
        3
 73
     0
 74
     0
 95
       15
 96
       11
 40
0.0
 40
0.0
 40
0.0
 40
0.0
 40
0.2199578613106558
 40
0.3202465475123651
 40
0.4340808827708152
 40
0.5116301246390283
 40
0.634275054953107
 40
0.7077360179240892
 40
0.8337709579493377
 40
0.875782631437913
 40
0.875782631437913
 40
0.875782631437913
 40
0.875782631437913
 10
343.0788409789959
 20
125.2057224065849
 10
343.1614528862234
 20
125.2061008132169
 10
343.2817312791635
 20
125.2066517524593
 10
343.3475037882556
 20
125.0578670325602
 10
343.3180214136365
 20
124.9620728830781
 10
343.2809596658878
 20
124.8637221484385
 10
343.2154631636845
 20
124.7968913409108
 10
343.1275572642627
 20
124.7325220071436
 10
343.044481988469
 20
124.7247298110587
 10
342.9904508470794
 20
124.7104133918384
 10
342.9769430552661
 20
124.7068342853201
 72
     1
 10
342.9769430552662
 20
124.7068342853201
 11
342.2731484140603
 21
124.7068342853202
 97
        4
330
1000173A
330
10001734
330
10001739
330
10001737
 75
     0
 76
     1
 47
0.0514683685270805
 98
        2
 10
341.6009762630954
 20
125.0194483413341
 10
341.6009762630954
 20
125.0194483413341
450
        0
451
        0
460
0.0
461
0.0
452
        0
462
0.0
453
        0
470

  0
LINE
  5
10001730
102
{ACAD_REACTORS
330
1000172F
102
}
330
F6
100
AcDbEntity
  8
ROGO
 62
     4
100
AcDbLine
 10
341.5886640440855
 20
125.9311465654612
 30
0.0
 11
340.1383061296674
 21
122.9998911584526
 31
0.0
  0
LINE
  5
10001731
102
{ACAD_REACTORS
330
10001732
102
}
330
F6
100
AcDbEntity
  8
ROGO
 62
     4
100
AcDbLine
 10
344.3249360539863
 20
124.0552252360934
 30
0.0
 11
346.8621976946778
 21
124.0552252360934
 31
0.0
  0
HATCH
  5
10001732
330
F6
100
AcDbEntity
  8
ROGO
 62
     4
100
AcDbHatch
 10
0.0
 20
0.0
 30
0.0
210
0.0
220
0.0
230
1.0
  2
SOLID
 70
     1
 71
     1
 91
        1
 92
        1
 93
       12
 72
     1
 10
345.2531244815008
 20
125.9311465654612
 11
347.7903861221922
 21
125.9311465654612
 72
     1
 10
347.7903861221922
 20
125.9311465654612
 11
347.5777658425713
 21
125.5014289501867
 72
     1
 10
347.5777658425713
 20
125.5014289501867
 11
346.2442452394029
 21
125.5014289501867
 72
     1
 10
346.2442452394029
 20
125.5014289501867
 11
346.0780026021506
 21
125.1654431742094
 72
     1
 10
346.0780026021506
 20
125.1654431742094
 11
347.4115232053192
 21
125.1654431742094
 72
     1
 10
347.4115232053192
 20
125.1654431742094
 11
347.241056954428
 21
124.8209212360933
 72
     1
 10
347.241056954428
 20
124.8209212360934
 11
345.9075363512595
 21
124.8209212360933
 72
     1
 10
345.9075363512595
 20
124.8209212360933
 11
345.7412866760932
 21
124.4849212360933
 72
     1
 10
345.7412866760932
 20
124.4849212360933
 11
347.0748072792618
 21
124.4849212360933
 72
     1
 10
347.0748072792618
 20
124.4849212360933
 11
346.8621976946778
 21
124.0552252360934
 72
     1
 10
346.8621976946778
 20
124.0552252360934
 11
344.3249360539863
 21
124.0552252360934
 72
     1
 10
344.3249360539864
 20
124.0552252360934
 11
345.2531244815008
 21
125.9311465654612
 97
       12
330
1000173C
330
10001740
330
1000173E
330
1000173F
330
1000173D
330
10001748
330
10001744
330
10001742
330
10001745
330
10001743
330
10001731
330
10001733
 75
     0
 76
     1
 98
        1
 10
241.467225940488
 20
-3.780419217554964
450
        0
451
        0
460
0.0
461
0.0
452
        0
462
0.0
453
        0
470

  0
LINE
  5
10001733
102
{ACAD_REACTORS
330
10001732
102
}
330
F6
100
AcDbEntity
  8
ROGO
 62
     4
100
AcDbLine
 10
345.2531244815008
 20
125.9311465654612
 30
0.0
 11
344.3249360539864
 21
124.0552252360934
 31
0.0
  0
LINE
  5
10001734
102
{ACAD_REACTORS
330
1000172F
102
}
330
F6
100
AcDbEntity
  8
ROGO
 62
     4
100
AcDbLine
 10
343.0788409789959
 20
125.205722406585
 30
0.0
 11
342.4988595517139
 21
125.205722406585
 31
0.0
  0
LINE
  5
10001735
102
{ACAD_REACTORS
330
1000172F
102
}
330
F6
100
AcDbEntity
  8
ROGO
 62
     4
100
AcDbLine
 10
341.5886640440855
 20
125.9311465654612
 30
0.0
 11
343.8922330626357
 21
125.9311465654612
 31
0.0
  0
LINE
  5
10001736
102
{ACAD_REACTORS
330
1000172F
102
}
330
F6
100
AcDbEntity
  8
ROGO
 62
     4
100
AcDbLine
 10
341.9783419964744
 20
124.0552252360934
 30
0.0
 11
341.5008789238624
 21
122.9998911584526
 31
0.0
  0
LINE
  5
10001737
102
{ACAD_REACTORS
330
1000172F
102
}
330
F6
100
AcDbEntity
  8
ROGO
 62
     4
100
AcDbLine
 10
342.9769430552663
 20
124.7068342853201
 30
0.0
 11
342.2731484140604
 21
124.7068342853202
 31
0.0
  0
LINE
  5
10001738
102
{ACAD_REACTORS
330
1000172F
102
}
330
F6
100
AcDbEntity
  8
ROGO
 62
     4
100
AcDbLine
 10
343.2520680943048
 20
124.0552252360934
 30
0.0
 11
341.9783419964744
 21
124.0552252360934
 31
0.0
  0
SPLINE
  5
10001739
102
{ACAD_REACTORS
330
1000172F
102
}
330
F6
100
AcDbEntity
  8
ROGO
 62
     4
100
AcDbSpline
210
0.0
220
0.0
230
1.0
 70
     8
 71
     3
 72
    15
 73
    11
 74
     9
 42
0.0000000001
 43
0.0000000001
 44
0.0000000001
 40
0.0
 40
0.0
 40
0.0
 40
0.0
 40
0.2199578613106558
 40
0.3202465475123651
 40
0.4340808827708152
 40
0.5116301246390283
 40
0.634275054953107
 40
0.7077360179240892
 40
0.8337709579493377
 40
0.875782631437913
 40
0.875782631437913
 40
0.875782631437913
 40
0.875782631437913
 10
343.0788409789959
 20
125.2057224065849
 30
0.0
 10
343.1614528862234
 20
125.2061008132169
 30
0.0
 10
343.2817312791635
 20
125.2066517524593
 30
0.0
 10
343.3475037882556
 20
125.0578670325602
 30
0.0
 10
343.3180214136365
 20
124.9620728830781
 30
0.0
 10
343.2809596658878
 20
124.8637221484385
 30
0.0
 10
343.2154631636845
 20
124.7968913409108
 30
0.0
 10
343.1275572642627
 20
124.7325220071436
 30
0.0
 10
343.044481988469
 20
124.7247298110587
 30
0.0
 10
342.9904508470794
 20
124.7104133918384
 30
0.0
 10
342.9769430552661
 20
124.7068342853201
 30
0.0
 11
343.0788409789959
 21
125.2057224065849
 31
0.0
 11
343.2928267946085
 21
125.1548153199565
 31
0.0
 11
343.333586081287
 21
125.0631828959488
 31
0.0
 11
343.3132067309144
 21
124.9511876372896
 31
0.0
 11
343.2826374123889
 21
124.8799177160099
 31
0.0
 11
343.2011188390317
 21
124.7882852920021
 31
0.0
 11
343.1399802019805
 21
124.7475596226994
 31
0.0
 11
343.0177023419448
 21
124.7170157026458
 31
0.0
 11
342.9769430552661
 21
124.7068342853201
 31
0.0
  0
LINE
  5
1000173A
102
{ACAD_REACTORS
330
1000172F
102
}
330
F6
100
AcDbEntity
  8
ROGO
 62
     4
100
AcDbLine
 10
342.4988595517139
 20
125.205722406585
 30
0.0
 11
342.2731484140603
 21
124.7068342853202
 31
0.0
  0
SPLINE
  5
1000173B
102
{ACAD_REACTORS
330
1000172F
102
}
330
F6
100
AcDbEntity
  8
ROGO
 62
     4
100
AcDbSpline
210
0.0
220
0.0
230
1.0
 70
     8
 71
     3
 72
    18
 73
    14
 74
     0
 42
0.0000000001
 43
0.0000000001
 40
0.1087402787915014
 40
0.1087402787915014
 40
0.1087402787915014
 40
0.1087402787915014
 40
0.5992371417938475
 40
1.083176791562496
 40
1.448211145705696
 40
1.714037220764907
 40
2.164002567013297
 40
2.740236056362883
 40
3.395137510199602
 40
4.071816045172726
 40
4.784906178399433
 40
5.506895915094292
 40
6.060470601257719
 40
6.060470601257719
 40
6.060470601257719
 40
6.060470601257719
 10
343.8922330626357
 20
125.9311465654612
 30
0.0
 10
343.9660324021157
 20
125.9041003442502
 30
0.0
 10
344.1111580419023
 20
125.8469204995141
 30
0.0
 10
344.2882798069696
 20
125.7164171998121
 30
0.0
 10
344.3848743697192
 20
125.5657618038511
 30
0.0
 10
344.4777875247808
 20
125.4173178862756
 30
0.0
 10
344.4907905512249
 20
125.2043499803377
 30
0.0
 10
344.4694907154433
 20
124.935106929521
 30
0.0
 10
344.3319808999059
 20
124.6541795902057
 30
0.0
 10
344.1112695583612
 20
124.408469546203
 30
0.0
 10
343.8372410253712
 20
124.2118064314292
 30
0.0
 10
343.5482684852179
 20
124.0574309507215
 30
0.0
 10
343.3417108322842
 20
124.0558927784235
 30
0.0
 10
343.2520680938633
 20
124.0552252360933
 30
0.0
  0
LINE
  5
1000173C
102
{ACAD_REACTORS
330
10001732
102
}
330
F6
100
AcDbEntity
  8
ROGO
 62
     4
100
AcDbLine
 10
345.2531244815008
 20
125.9311465654612
 30
0.0
 11
347.7903861221922
 21
125.9311465654612
 31
0.0
  0
LINE
  5
1000173D
102
{ACAD_REACTORS
330
10001732
102
}
330
F6
100
AcDbEntity
  8
ROGO
 62
     4
100
AcDbLine
 10
346.0780026021506
 20
125.1654431742094
 30
0.0
 11
347.4115232053192
 21
125.1654431742094
 31
0.0
  0
LINE
  5
1000173E
102
{ACAD_REACTORS
330
10001732
102
}
330
F6
100
AcDbEntity
  8
ROGO
 62
     4
100
AcDbLine
 10
346.2442452394029
 20
125.5014289501867
 30
0.0
 11
347.5777658425713
 21
125.5014289501867
 31
0.0
  0
LINE
  5
1000173F
102
{ACAD_REACTORS
330
10001732
102
}
330
F6
100
AcDbEntity
  8
ROGO
 62
     4
100
AcDbLine
 10
346.2442452394029
 20
125.5014289501867
 30
0.0
 11
346.0780026021506
 21
125.1654431742094
 31
0.0
  0
LINE
  5
10001740
102
{ACAD_REACTORS
330
10001732
102
}
330
F6
100
AcDbEntity
  8
ROGO
 62
     4
100
AcDbLine
 10
347.7903861221922
 20
125.9311465654612
 30
0.0
 11
347.5777658425713
 21
125.5014289501867
 31
0.0
  0
LINE
  5
10001741
102
{ACAD_REACTORS
330
10001725
102
}
330
F6
100
AcDbEntity
  8
ROGO
 62
     4
100
AcDbLine
 10
348.4690970141508
 20
124.4123890505087
 30
0.0
 11
348.2115392461781
 21
124.0552252360934
 31
0.0
  0
LINE
  5
10001742
102
{ACAD_REACTORS
330
10001732
102
}
330
F6
100
AcDbEntity
  8
ROGO
 62
     4
100
AcDbLine
 10
345.9075363512595
 20
124.8209212360933
 30
0.0
 11
345.7412866760932
 21
124.4849212360933
 31
0.0
  0
LINE
  5
10001743
102
{ACAD_REACTORS
330
10001732
102
}
330
F6
100
AcDbEntity
  8
ROGO
 62
     4
100
AcDbLine
 10
347.0748072792618
 20
124.4849212360933
 30
0.0
 11
346.8621976946778
 21
124.0552252360934
 31
0.0
  0
LINE
  5
10001744
102
{ACAD_REACTORS
330
10001732
102
}
330
F6
100
AcDbEntity
  8
ROGO
 62
     4
100
AcDbLine
 10
345.9075363512595
 20
124.8209212360933
 30
0.0
 11
347.241056954428
 21
124.8209212360934
 31
0.0
  0
LINE
  5
10001745
102
{ACAD_REACTORS
330
10001732
102
}
330
F6
100
AcDbEntity
  8
ROGO
 62
     4
100
AcDbLine
 10
345.7412866760932
 20
124.4849212360933
 30
0.0
 11
347.0748072792618
 21
124.4849212360933
 31
0.0
  0
LINE
  5
10001746
102
{ACAD_REACTORS
330
10001725
102
}
330
F6
100
AcDbEntity
  8
ROGO
 62
     4
100
AcDbLine
 10
347.1726146009043
 20
124.0552252360934
 30
0.0
 11
348.2115392461781
 21
124.0552252360934
 31
0.0
  0
LINE
  5
10001747
102
{ACAD_REACTORS
330
10001725
102
}
330
F6
100
AcDbEntity
  8
ROGO
 62
     4
100
AcDbLine
 10
348.5253779296174
 20
125.9311465654612
 30
0.0
 11
347.1726146009043
 21
124.0552252360934
 31
0.0
  0
LINE
  5
10001748
102
{ACAD_REACTORS
330
10001732
102
}
330
F6
100
AcDbEntity
  8
ROGO
 62
     4
100
AcDbLine
 10
347.4115232053192
 20
125.1654431742094
 30
0.0
 11
347.241056954428
 21
124.8209212360933
 31
0.0
  0
LINE
  5
10001749
330
F6
100
AcDbEntity
  8
握り
100
AcDbLine
 10
336.9875173207843
 20
139.4190569370752
 30
0.0
 11
344.3342174884999
 21
139.4190569370752
 31
0.0
  0
LINE
  5
1000174A
330
F6
100
AcDbEntity
  8
握り
100
AcDbLine
 10
336.9875173207844
 20
131.8723569370752
 30
0.0
 11
344.3342174885001
 21
131.8723569370752
 31
0.0
  0
LINE
  5
1000174B
330
F6
100
AcDbEntity
  8
握り
100
AcDbLine
 10
336.9875173207843
 20
139.4190569370752
 30
0.0
 11
336.9875173207843
 21
131.8723569370752
 31
0.0
  0
LINE
  5
1000174C
330
F6
100
AcDbEntity
  8
握り
100
AcDbLine
 10
344.3342174884999
 20
139.4190569370752
 30
0.0
 11
344.3342174885
 21
131.8723569370752
 31
0.0
  0
LINE
  5
1000174D
330
F6
100
AcDbEntity
  8
握り
100
AcDbLine
 10
346.9875173207843
 20
139.4190569370752
 30
0.0
 11
346.9875173207844
 21
131.8723569370752
 31
0.0
  0
LINE
  5
1000174E
330
F6
100
AcDbEntity
  8
握り
100
AcDbLine
 10
356.9875173207841
 20
118.5657569370752
 30
0.0
 11
364.3342174884999
 21
118.5657569370752
 31
0.0
  0
HATCH
  5
1000174F
330
F6
100
AcDbEntity
  8
ROGO
 62
     4
100
AcDbHatch
 10
0.0
 20
0.0
 30
0.0
210
0.0
220
0.0
230
1.0
  2
SOLID
 70
     1
 71
     1
 91
        1
 92
        5
 93
        8
 72
     4
 94
        3
 73
     0
 74
     0
 95
       26
 96
       22
 40
0.0
 40
0.0
 40
0.0
 40
0.0
 40
0.3403136209416859
 40
0.5681272389515052
 40
0.7323994099695983
 40
0.8550561247335963
 40
1.014148321321381
 40
1.13027011535639
 40
1.339959009792003
 40
1.510642755247356
 40
1.626735051276114
 40
1.740569491433573
 40
1.94419717410045
 40
2.088186249714629
 40
2.165735491582895
 40
2.275891898886364
 40
2.355438312276665
 40
2.470674802864995
 40
2.535888688806186
 40
2.677801419664424
 40
2.74260000535881
 40
2.74260000535881
 40
2.74260000535881
 40
2.74260000535881
 10
358.0899676796116
 20
125.9311465654612
 10
357.9744599785279
 20
125.9242551779396
 10
357.7816288155765
 20
125.9127505400872
 10
357.5699013717025
 20
125.7841283917181
 10
357.4147774511165
 20
125.7093531269432
 10
357.304143259082
 20
125.6077025249152
 10
357.2230479478426
 20
125.502704878456
 10
357.120812083989
 20
125.3776009525627
 10
357.0374416584091
 20
125.2319224933275
 10
356.9949861690761
 20
125.0713594346657
 10
356.9573794995705
 20
124.9433897452958
 10
356.9294897638952
 20
124.8007842268781
 10
356.9365857021993
 20
124.6467201009891
 10
356.9467474106056
 20
124.5036332281265
 10
356.9921169676399
 20
124.4014906239455
 10
357.0437848567685
 20
124.3287721283322
 10
357.1070514794184
 20
124.2486807673341
 10
357.1762789998718
 20
124.1956365182908
 10
357.2335358100299
 20
124.0995432966614
 10
357.3337619246904
 20
124.0872811085526
 10
357.3974696305131
 20
124.0628756944426
 10
357.4174403283151
 20
124.0552252360933
 72
     1
 10
357.417440328315
 20
124.0552252360933
 11
359.033196064036
 21
124.0552252360933
 72
     1
 10
359.033196064036
 20
124.0552252360933
 11
359.3812199507201
 21
124.7531822051514
 72
     1
 10
359.3812199507201
 20
124.7531822051514
 11
358.1816756351884
 21
124.7531822051514
 72
     4
 94
        3
 73
     0
 74
     0
 95
       16
 96
       12
 40
0.0
 40
0.0
 40
0.0
 40
0.0
 40
0.1027738093187964
 40
0.2066076558227444
 40
0.268539878558716
 40
0.3279201337292112
 40
0.3931337605654557
 40
0.4386740937218511
 40
0.4818879174817272
 40
0.569519347887583
 40
0.7489346372632488
 40
0.7489346372632488
 40
0.7489346372632488
 40
0.7489346372632488
 10
358.1816756351884
 20
124.7531822051513
 10
358.1454931513716
 20
124.7638276224207
 10
358.0727549877016
 20
124.7852282567055
 10
358.0666673907764
 20
124.8889706697587
 10
358.0749608608647
 20
124.9628956282718
 10
358.1096939321179
 20
125.0167173150091
 10
358.1518311719189
 20
125.0558796736315
 10
358.1675207351352
 20
125.1068825224632
 10
358.2136387767414
 20
125.1453960543438
 10
358.2954184215854
 20
125.2101319214521
 10
358.3858525518875
 20
125.2239192147171
 10
358.4466107056325
 20
125.2331822051514
 72
     1
 10
358.4466107056325
 20
125.2331822051514
 11
359.6205634532767
 21
125.2331822051514
 72
     1
 10
359.6205634532767
 20
125.2331822051514
 11
359.9685910254778
 21
125.9311465654612
 72
     1
 10
359.9685910254778
 20
125.9311465654612
 11
358.0899676796116
 21
125.9311465654612
 97
        8
330
1000176F
330
10001750
330
10001773
330
10001772
330
10001771
330
10001776
330
1000176E
330
1000176D
 75
     0
 76
     1
 47
0.0514683685270805
 98
        1
 10
358.4141354363043
 20
125.587658989491
450
        0
451
        0
460
0.0
461
0.0
452
        0
462
0.0
453
        0
470

  0
SPLINE
  5
10001750
102
{ACAD_REACTORS
330
1000174F
102
}
330
F6
100
AcDbEntity
  8
ROGO
 62
     4
100
AcDbSpline
210
0.0
220
0.0
230
1.0
 70
     8
 71
     3
 72
    26
 73
    22
 74
    20
 42
0.0000000001
 43
0.0000000001
 44
0.0000000001
 40
0.0
 40
0.0
 40
0.0
 40
0.0
 40
0.3403136209416859
 40
0.5681272389515052
 40
0.7323994099695983
 40
0.8550561247335963
 40
1.014148321321381
 40
1.13027011535639
 40
1.339959009792003
 40
1.510642755247356
 40
1.626735051276114
 40
1.740569491433573
 40
1.94419717410045
 40
2.088186249714629
 40
2.165735491582895
 40
2.275891898886364
 40
2.355438312276665
 40
2.470674802864995
 40
2.535888688806186
 40
2.677801419664424
 40
2.74260000535881
 40
2.74260000535881
 40
2.74260000535881
 40
2.74260000535881
 10
358.0899676796116
 20
125.9311465654612
 30
0.0
 10
357.9744599785279
 20
125.9242551779396
 30
0.0
 10
357.7816288155765
 20
125.9127505400872
 30
0.0
 10
357.5699013717025
 20
125.7841283917181
 30
0.0
 10
357.4147774511165
 20
125.7093531269432
 30
0.0
 10
357.304143259082
 20
125.6077025249152
 30
0.0
 10
357.2230479478426
 20
125.502704878456
 30
0.0
 10
357.120812083989
 20
125.3776009525627
 30
0.0
 10
357.0374416584091
 20
125.2319224933275
 30
0.0
 10
356.9949861690761
 20
125.0713594346657
 30
0.0
 10
356.9573794995705
 20
124.9433897452958
 30
0.0
 10
356.9294897638952
 20
124.8007842268781
 30
0.0
 10
356.9365857021993
 20
124.6467201009891
 30
0.0
 10
356.9467474106056
 20
124.5036332281265
 30
0.0
 10
356.9921169676399
 20
124.4014906239455
 30
0.0
 10
357.0437848567685
 20
124.3287721283322
 30
0.0
 10
357.1070514794184
 20
124.2486807673341
 30
0.0
 10
357.1762789998718
 20
124.1956365182908
 30
0.0
 10
357.2335358100299
 20
124.0995432966614
 30
0.0
 10
357.3337619246904
 20
124.0872811085526
 30
0.0
 10
357.3974696305131
 20
124.0628756944426
 30
0.0
 10
357.4174403283151
 20
124.0552252360933
 30
0.0
 11
358.0899676796116
 21
125.9311465654612
 31
0.0
 11
357.7537040039633
 21
125.8788005910416
 31
0.0
 11
357.5499075705705
 21
125.7769867497082
 31
0.0
 11
357.4072503601621
 21
125.6955357430261
 31
0.0
 11
357.3155424045854
 21
125.6140844044206
 31
0.0
 11
357.2136444808557
 21
125.4919077284358
 31
0.0
 11
357.1423158756514
 21
125.4002753044281
 31
0.0
 11
357.0404173659883
 21
125.2170101244891
 31
0.0
 11
356.9894686970901
 21
125.0541077792016
 31
0.0
 11
356.9588993785645
 21
124.9421125205425
 31
0.0
 11
356.9385194422586
 21
124.8301172618834
 31
0.0
 11
356.9385194422586
 21
124.6264895792165
 31
0.0
 11
356.9588993785645
 21
124.4839500685804
 31
0.0
 11
356.9894686970901
 21
124.4126801473006
 31
0.0
 11
357.0506073341412
 21
124.3210477232929
 31
0.0
 11
357.1015565889729
 21
124.2599592193387
 31
0.0
 11
357.1830745763965
 21
124.1785082126567
 31
0.0
 11
357.2238338630752
 21
124.1276011260282
 31
0.0
 11
357.356301691264
 21
124.0766943713232
 31
0.0
 11
357.4174403283151
 21
124.0552252360933
 31
0.0
  0
LINE
  5
10001751
102
{ACAD_REACTORS
330
10001753
102
}
330
F6
100
AcDbEntity
  8
ROGO
 62
     4
100
AcDbLine
 10
352.4022253185925
 20
125.2331822051514
 30
0.0
 11
353.5761780662371
 21
125.2331822051514
 31
0.0
  0
LINE
  5
10001752
102
{ACAD_REACTORS
330
10001753
102
}
330
F6
100
AcDbEntity
  8
ROGO
 62
     4
100
AcDbLine
 10
353.3368345636802
 20
124.7531822051513
 30
0.0
 11
352.9888106769962
 21
124.0552252360933
 31
0.0
  0
HATCH
  5
10001753
330
F6
100
AcDbEntity
  8
ROGO
 62
     4
100
AcDbHatch
 10
0.0
 20
0.0
 30
0.0
210
0.0
220
0.0
230
1.0
  2
SOLID
 70
     1
 71
     1
 91
        1
 92
        5
 93
        8
 72
     1
 10
353.5761780662371
 20
125.2331822051514
 11
353.924205638438
 21
125.9311465654612
 72
     1
 10
353.924205638438
 20
125.9311465654612
 11
352.045582292572
 21
125.9311465654612
 72
     4
 94
        3
 73
     0
 74
     0
 95
       26
 96
       22
 40
0.0
 40
0.0
 40
0.0
 40
0.0
 40
0.3403136209417982
 40
0.5681272389515159
 40
0.7323994099697078
 40
0.8550561247337057
 40
1.014148321321447
 40
1.13027011535643
 40
1.339959009791999
 40
1.510642755247373
 40
1.626735051276186
 40
1.740569491433665
 40
1.944197174100541
 40
2.088186249714737
 40
2.16573549158295
 40
2.275891898886404
 40
2.355438312276705
 40
2.470674802865115
 40
2.535888688806235
 40
2.677801419664453
 40
2.742600005358966
 40
2.742600005358966
 40
2.742600005358966
 40
2.742600005358966
 10
352.0455822925719
 20
125.9311465654612
 10
351.9300745914881
 20
125.9242551779396
 10
351.7372434285367
 20
125.9127505400872
 10
351.5255159846628
 20
125.784128391718
 10
351.3703920640768
 20
125.7093531269432
 10
351.2597578720421
 20
125.6077025249152
 10
351.1786625608028
 20
125.5027048784562
 10
351.0764266969492
 20
125.3776009525626
 10
350.9930562713693
 20
125.2319224933277
 10
350.9506007820363
 20
125.0713594346657
 10
350.9129941125309
 20
124.9433897452958
 10
350.8851043768553
 20
124.8007842268781
 10
350.8922003151594
 20
124.6467201009891
 10
350.9023620235659
 20
124.5036332281265
 10
350.9477315806002
 20
124.4014906239456
 10
350.9993994697286
 20
124.3287721283322
 10
351.0626660923786
 20
124.248680767334
 10
351.1318936128321
 20
124.1956365182909
 10
351.1891504229901
 20
124.0995432966613
 10
351.2893765376507
 20
124.0872811085526
 10
351.3530842434733
 20
124.0628756944426
 10
351.3730549412754
 20
124.0552252360933
 72
     1
 10
351.3730549412754
 20
124.0552252360934
 11
352.9888106769963
 21
124.0552252360934
 72
     1
 10
352.9888106769963
 20
124.0552252360934
 11
353.3368345636802
 21
124.7531822051513
 72
     1
 10
353.3368345636802
 20
124.7531822051513
 11
352.1372902481487
 21
124.7531822051513
 72
     4
 94
        3
 73
     0
 74
     0
 95
       16
 96
       12
 40
0.0
 40
0.0
 40
0.0
 40
0.0
 40
0.1027738093189234
 40
0.2066076558227377
 40
0.2685398785587465
 40
0.3279201337292418
 40
0.3931337605655129
 40
0.4386740937218573
 40
0.4818879174818138
 40
0.5695193478876036
 40
0.7489346372632694
 40
0.7489346372632694
 40
0.7489346372632694
 40
0.7489346372632694
 10
352.1372902481487
 20
124.7531822051513
 10
352.1011077643319
 20
124.7638276224207
 10
352.0283696006618
 20
124.7852282567055
 10
352.0222820037367
 20
124.8889706697588
 10
352.0305754738249
 20
124.9628956282719
 10
352.065308545078
 20
125.0167173150092
 10
352.1074457848792
 20
125.0558796736315
 10
352.1231353480954
 20
125.1068825224633
 10
352.1692533897014
 20
125.1453960543439
 10
352.2510330345456
 20
125.210131921452
 10
352.3414671648477
 20
125.2239192147171
 10
352.4022253185926
 20
125.2331822051514
 72
     1
 10
352.4022253185926
 20
125.2331822051514
 11
353.5761780662371
 21
125.2331822051514
 97
        8
330
10001754
330
1000175A
330
1000175C
330
10001752
330
10001755
330
1000175B
330
10001751
330
1000175E
 75
     0
 76
     1
 47
0.0514683685270805
 98
        1
 10
352.7026064314389
 20
125.5135444849655
450
        0
451
        0
460
0.0
461
0.0
452
        0
462
0.0
453
        0
470

  0
LINE
  5
10001754
102
{ACAD_REACTORS
330
10001753
102
}
330
F6
100
AcDbEntity
  8
ROGO
 62
     4
100
AcDbLine
 10
352.0455822925725
 20
125.9311465654612
 30
0.0
 11
353.924205638438
 21
125.9311465654612
 31
0.0
  0
LINE
  5
10001755
102
{ACAD_REACTORS
330
10001753
102
}
330
F6
100
AcDbEntity
  8
ROGO
 62
     4
100
AcDbLine
 10
352.1372902481486
 20
124.7531822051513
 30
0.0
 11
353.3368345636803
 21
124.7531822051513
 31
0.0
  0
LINE
  5
10001756
102
{ACAD_REACTORS
330
10001725
102
}
330
F6
100
AcDbEntity
  8
ROGO
 62
     4
100
AcDbLine
 10
349.6546355695569
 20
124.4123890505087
 30
0.0
 11
349.8133018882269
 21
124.0552252360934
 31
0.0
  0
LINE
  5
10001757
102
{ACAD_REACTORS
330
10001725
102
}
330
F6
100
AcDbEntity
  8
ROGO
 62
     4
100
AcDbLine
 10
350.8593129198386
 20
124.0552252360934
 30
0.0
 11
349.8133018882269
 21
124.0552252360934
 31
0.0
  0
LINE
  5
10001758
102
{ACAD_REACTORS
330
10001725
102
}
330
F6
100
AcDbEntity
  8
ROGO
 62
     4
100
AcDbLine
 10
349.2027034390913
 20
125.4297051698158
 30
0.0
 11
349.487285418699
 21
124.7891004957888
 31
0.0
  0
LINE
  5
10001759
102
{ACAD_REACTORS
330
10001725
102
}
330
F6
100
AcDbEntity
  8
ROGO
 62
     4
100
AcDbLine
 10
350.0259543335766
 20
125.9311465654612
 30
0.0
 11
350.8593129198386
 21
124.0552252360934
 31
0.0
  0
SPLINE
  5
1000175A
102
{ACAD_REACTORS
330
10001753
102
}
330
F6
100
AcDbEntity
  8
ROGO
 62
     4
100
AcDbSpline
210
0.0
220
0.0
230
1.0
 70
     8
 71
     3
 72
    26
 73
    22
 74
    20
 42
0.0000000001
 43
0.0000000001
 44
0.0000000001
 40
0.0
 40
0.0
 40
0.0
 40
0.0
 40
0.3403136209417982
 40
0.5681272389515159
 40
0.7323994099697078
 40
0.8550561247337057
 40
1.014148321321447
 40
1.13027011535643
 40
1.339959009791999
 40
1.510642755247373
 40
1.626735051276186
 40
1.740569491433665
 40
1.944197174100541
 40
2.088186249714737
 40
2.16573549158295
 40
2.275891898886404
 40
2.355438312276705
 40
2.470674802865115
 40
2.535888688806235
 40
2.677801419664453
 40
2.742600005358966
 40
2.742600005358966
 40
2.742600005358966
 40
2.742600005358966
 10
352.0455822925719
 20
125.9311465654612
 30
0.0
 10
351.9300745914881
 20
125.9242551779396
 30
0.0
 10
351.7372434285367
 20
125.9127505400872
 30
0.0
 10
351.5255159846628
 20
125.784128391718
 30
0.0
 10
351.3703920640768
 20
125.7093531269432
 30
0.0
 10
351.2597578720421
 20
125.6077025249152
 30
0.0
 10
351.1786625608028
 20
125.5027048784562
 30
0.0
 10
351.0764266969492
 20
125.3776009525626
 30
0.0
 10
350.9930562713693
 20
125.2319224933277
 30
0.0
 10
350.9506007820363
 20
125.0713594346657
 30
0.0
 10
350.9129941125309
 20
124.9433897452958
 30
0.0
 10
350.8851043768553
 20
124.8007842268781
 30
0.0
 10
350.8922003151594
 20
124.6467201009891
 30
0.0
 10
350.9023620235659
 20
124.5036332281265
 30
0.0
 10
350.9477315806002
 20
124.4014906239456
 30
0.0
 10
350.9993994697286
 20
124.3287721283322
 30
0.0
 10
351.0626660923786
 20
124.248680767334
 30
0.0
 10
351.1318936128321
 20
124.1956365182909
 30
0.0
 10
351.1891504229901
 20
124.0995432966613
 30
0.0
 10
351.2893765376507
 20
124.0872811085526
 30
0.0
 10
351.3530842434733
 20
124.0628756944426
 30
0.0
 10
351.3730549412754
 20
124.0552252360933
 30
0.0
 11
352.0455822925719
 21
125.9311465654612
 31
0.0
 11
351.7093186169235
 21
125.8788005910416
 31
0.0
 11
351.5055221835307
 21
125.7769867497082
 31
0.0
 11
351.3628649731223
 21
125.6955357430261
 31
0.0
 11
351.2711570175455
 21
125.6140844044206
 31
0.0
 11
351.1692590938159
 21
125.4919077284358
 31
0.0
 11
351.0979304886117
 21
125.4002753044281
 31
0.0
 11
350.9960319789485
 21
125.2170101244892
 31
0.0
 11
350.9450833100503
 21
125.0541077792017
 31
0.0
 11
350.9145139915248
 21
124.9421125205425
 31
0.0
 11
350.8941340552187
 21
124.8301172618834
 31
0.0
 11
350.8941340552187
 21
124.6264895792165
 31
0.0
 11
350.9145139915248
 21
124.4839500685804
 31
0.0
 11
350.9450833100503
 21
124.4126801473006
 31
0.0
 11
351.0062219471014
 21
124.3210477232929
 31
0.0
 11
351.0571712019331
 21
124.2599592193387
 31
0.0
 11
351.1386891893568
 21
124.1785082126567
 31
0.0
 11
351.1794484760354
 21
124.1276011260282
 31
0.0
 11
351.3119163042242
 21
124.0766943713232
 31
0.0
 11
351.3730549412754
 21
124.0552252360933
 31
0.0
  0
SPLINE
  5
1000175B
102
{ACAD_REACTORS
330
10001753
102
}
330
F6
100
AcDbEntity
  8
ROGO
 62
     4
100
AcDbSpline
210
0.0
220
0.0
230
1.0
 70
     8
 71
     3
 72
    16
 73
    12
 74
    10
 42
0.0000000001
 43
0.0000000001
 44
0.0000000001
 40
0.0
 40
0.0
 40
0.0
 40
0.0
 40
0.1794152893756658
 40
0.2670467197814556
 40
0.3102605435414121
 40
0.3558008766977565
 40
0.4210145035340276
 40
0.4803947587045229
 40
0.5423269814405317
 40
0.646160827944346
 40
0.7489346372632694
 40
0.7489346372632694
 40
0.7489346372632694
 40
0.7489346372632694
 10
352.4022253185926
 20
125.2331822051514
 30
0.0
 10
352.3414671648477
 20
125.2239192147171
 30
0.0
 10
352.2510330345456
 20
125.210131921452
 30
0.0
 10
352.1692533897014
 20
125.1453960543439
 30
0.0
 10
352.1231353480954
 20
125.1068825224633
 30
0.0
 10
352.1074457848792
 20
125.0558796736315
 30
0.0
 10
352.065308545078
 20
125.0167173150092
 30
0.0
 10
352.0305754738249
 20
124.9628956282719
 30
0.0
 10
352.0222820037367
 20
124.8889706697588
 30
0.0
 10
352.0283696006618
 20
124.7852282567055
 30
0.0
 10
352.1011077643319
 20
124.7638276224207
 30
0.0
 10
352.1372902481487
 20
124.7531822051513
 30
0.0
 11
352.4022253185926
 21
125.2331822051514
 31
0.0
 11
352.2289987896587
 21
125.1864658725121
 31
0.0
 11
352.1576701844546
 21
125.1355591178071
 31
0.0
 11
352.1271008659291
 21
125.10501486583
 31
0.0
 11
352.106720929623
 21
125.0642891965273
 31
0.0
 11
352.0659616429445
 21
125.0133824418223
 31
0.0
 11
352.0353923244188
 21
124.9624753551939
 31
0.0
 11
352.0252023562658
 21
124.9013871831631
 31
0.0
 11
352.0455822925718
 21
124.7995730099065
 31
0.0
 11
352.1372902481487
 21
124.7531822051513
 31
0.0
  0
LINE
  5
1000175C
102
{ACAD_REACTORS
330
10001753
102
}
330
F6
100
AcDbEntity
  8
ROGO
 62
     4
100
AcDbLine
 10
351.3730549412753
 20
124.0552252360934
 30
0.0
 11
352.9888106769962
 21
124.0552252360934
 31
0.0
  0
LINE
  5
1000175D
102
{ACAD_REACTORS
330
10001762
102
}
330
F6
100
AcDbEntity
  8
ROGO
 62
     4
100
AcDbLine
 10
354.9659560956419
 20
125.9389711642788
 30
0.0
 11
356.0380329859067
 21
125.9389711642788
 31
0.0
  0
LINE
  5
1000175E
102
{ACAD_REACTORS
330
10001753
102
}
330
F6
100
AcDbEntity
  8
ROGO
 62
     4
100
AcDbLine
 10
353.9242056384379
 20
125.9311465654612
 30
0.0
 11
353.5761780662371
 21
125.2331822051514
 31
0.0
  0
SPLINE
  5
1000175F
102
{ACAD_REACTORS
330
10001762
102
}
330
F6
100
AcDbEntity
  8
ROGO
 62
     4
100
AcDbSpline
210
0.0
220
0.0
230
1.0
 70
     8
 71
     3
 72
     9
 73
     5
 74
     3
 42
0.0000000001
 43
0.0000000001
 44
0.0000000001
 40
0.0
 40
0.0
 40
0.0
 40
0.0
 40
0.1622561919360204
 40
0.3804197703110171
 40
0.3804197703110171
 40
0.3804197703110171
 40
0.3804197703110171
 10
355.8462236960137
 20
124.097048731677
 30
0.0
 10
355.8983450793251
 20
124.1129949312816
 30
0.0
 10
356.0205469160071
 20
124.1503817916444
 30
0.0
 10
356.1215136263454
 20
124.229399388465
 30
0.0
 10
356.1794161344252
 20
124.2747144930478
 30
0.0
 11
355.8462236960137
 21
124.097048731677
 31
0.0
 11
355.9987247877632
 21
124.1524607234909
 31
0.0
 11
356.1794161344252
 21
124.2747144930478
 31
0.0
  0
SPLINE
  5
10001760
102
{ACAD_REACTORS
330
10001762
102
}
330
F6
100
AcDbEntity
  8
ROGO
 62
     4
100
AcDbSpline
210
0.0
220
0.0
230
1.0
 70
     8
 71
     3
 72
    11
 73
     7
 74
     0
 42
0.0000000001
 43
0.0000000001
 40
0.1647869275458134
 40
0.1647869275458134
 40
0.1647869275458134
 40
0.1647869275458134
 40
0.2895635144633836
 40
0.5387013147903714
 40
0.7953622617455423
 40
0.8850764140209602
 40
0.8850764140209602
 40
0.8850764140209602
 40
0.8850764140209602
 10
355.8462236960137
 20
124.097048731677
 30
0.0
 10
355.8262543491553
 20
124.0914902563678
 30
0.0
 10
355.7643386185351
 20
124.0815936995336
 30
0.0
 10
355.6604832369091
 20
124.0680045647146
 30
0.0
 10
355.5617738910572
 20
124.0538238067365
 30
0.0
 10
355.5040157555878
 20
124.0549369280319
 30
0.0
 10
355.489055897988
 20
124.0552252360933
 30
0.0
  0
LINE
  5
10001761
102
{ACAD_REACTORS
330
10001762
102
}
330
F6
100
AcDbEntity
  8
ROGO
 62
     4
100
AcDbLine
 10
354.4169790077232
 20
124.0552252360933
 30
0.0
 11
355.4890558979879
 21
124.0552252360933
 31
0.0
  0
HATCH
  5
10001762
330
F6
100
AcDbEntity
  8
ROGO
 62
     4
100
AcDbHatch
 10
0.0
 20
0.0
 30
0.0
210
0.0
220
0.0
230
1.0
  2
SOLID
 70
     1
 71
     1
 91
        2
 92
        5
 93
        6
 72
     4
 94
        3
 73
     0
 74
     0
 95
       38
 96
       34
 40
0.0
 40
0.0
 40
0.0
 40
0.0
 40
0.2582400211805774
 40
0.3393418442955424
 40
0.443552172800835
 40
0.530394283206717
 40
0.6036667919818254
 40
0.7009894053152177
 40
0.7507174249931042
 40
0.8067242281503032
 40
0.8892677166883521
 40
0.9827715778106668
 40
1.043426616793024
 40
1.109318337455068
 40
1.182564491755753
 40
1.293719242428883
 40
1.399327847180614
 40
1.448424760475743
 40
1.50441322219426
 40
1.570741059842362
 40
1.617957956886697
 40
1.657539314700464
 40
1.714052551848318
 40
1.776150918813051
 40
1.838248940024221
 40
1.892584795022379
 40
2.017023561310864
 40
2.066120474605993
 40
2.164314359515976
 40
2.251113385583432
 40
2.417283613623161
 40
2.622320469312984
 40
2.918423525691272
 40
2.918423525691272
 40
2.918423525691272
 40
2.918423525691272
 10
354.9659560956419
 20
125.9389711642788
 10
354.8798769561766
 20
125.932890279849
 10
354.7667641481465
 20
125.9248996572959
 10
354.6231373302756
 20
125.8855501912888
 10
354.5448448239315
 20
125.8386723063489
 10
354.4633658220496
 20
125.8042148139197
 10
354.393897384357
 20
125.7531901007064
 10
354.3236315262197
 20
125.726897557573
 10
354.2744292213973
 20
125.679487402755
 10
354.2174815669216
 20
125.6505272339336
 10
354.1721331385855
 20
125.5857059567702
 10
354.1214464578259
 20
125.5251004115438
 10
354.0626435315299
 20
125.4808610664331
 10
354.0143831807307
 20
125.4343968107726
 10
353.9701110194104
 20
125.3626885033671
 10
353.9439087728802
 20
125.2674093966733
 10
353.8700490380096
 20
125.2072536048373
 10
353.8589280744624
 20
125.1349283938715
 10
353.8180740027542
 20
125.0922577364562
 10
353.8003092235315
 20
125.0371760479062
 10
353.7935435404975
 20
124.9867114917337
 10
353.7854231075797
 20
124.9395810896933
 10
353.7641815929618
 20
124.8900019886392
 10
353.7711148966209
 20
124.8287587330179
 10
353.7691398065608
 20
124.7694548558372
 10
353.7703021493797
 20
124.6893927749636
 10
353.7661070931711
 20
124.6114424936501
 10
353.7995610224783
 20
124.5266140991238
 10
353.8193579476251
 20
124.4510013210287
 10
353.8735750475447
 20
124.3463062606695
 10
353.9670984087131
 20
124.2255107982282
 10
354.1449409030239
 20
124.0788879935242
 10
354.3159416609658
 20
124.0640137924995
 10
354.4169790077232
 20
124.0552252360933
 72
     1
 10
354.4169790077232
 20
124.0552252360933
 11
355.489055897988
 21
124.0552252360933
 72
     4
 94
        3
 73
     0
 74
     0
 95
       11
 96
        7
 40
0.1647869275458135
 40
0.1647869275458135
 40
0.1647869275458135
 40
0.1647869275458135
 40
0.2545010798212315
 40
0.5111620267764023
 40
0.7602998271033902
 40
0.8850764140209603
 40
0.8850764140209603
 40
0.8850764140209603
 40
0.8850764140209603
 10
355.489055897988
 20
124.0552252360933
 10
355.5040157555878
 20
124.0549369280319
 10
355.5617738910572
 20
124.0538238067365
 10
355.6604832369091
 20
124.0680045647146
 10
355.7643386185351
 20
124.0815936995336
 10
355.8262543491553
 20
124.0914902563678
 10
355.8462236960137
 20
124.097048731677
 72
     4
 94
        3
 73
     0
 74
     0
 95
        9
 96
        5
 40
0.0
 40
0.0
 40
0.0
 40
0.0
 40
0.1622561919360204
 40
0.3804197703110171
 40
0.3804197703110171
 40
0.3804197703110171
 40
0.3804197703110171
 10
355.8462236960137
 20
124.097048731677
 10
355.8983450793251
 20
124.1129949312816
 10
356.0205469160071
 20
124.1503817916444
 10
356.1215136263454
 20
124.229399388465
 10
356.1794161344252
 20
124.2747144930478
 72
     4
 94
        3
 73
     0
 74
     0
 95
       25
 96
       21
 40
0.0
 40
0.0
 40
0.0
 40
0.0
 40
0.165525918914855
 40
0.3412380755365305
 40
0.5940540902285263
 40
0.7697671103696209
 40
0.9377330196075423
 40
1.11479469302833
 40
1.274661249598185
 40
1.574522170874768
 40
1.815540668866877
 40
2.15849091873445
 40
2.536227739636605
 40
2.738070817316548
 40
2.925680654369045
 40
3.162706124480894
 40
3.395643218188267
 40
3.648478129958861
 40
3.928509979727306
 40
4.337226830236035
 40
4.337226830236035
 40
4.337226830236035
 40
4.337226830236035
 10
356.1794161344252
 20
124.2747144930478
 10
356.2006913592735
 20
124.2922955558273
 10
356.2410446439933
 20
124.3341100175726
 10
356.3126178391929
 20
124.4018819437706
 10
356.3756894960594
 20
124.4808416158478
 10
356.4534929256555
 20
124.5448356628098
 10
356.4939971478541
 20
124.6230731290206
 10
356.55238078686
 20
124.6846052297335
 10
356.6013550995991
 20
124.7796354897201
 10
356.6429073834562
 20
124.8887951542117
 10
356.6825217484526
 20
125.0310827023595
 10
356.6977023817907
 20
125.1916042067103
 10
356.6752331565804
 20
125.3469086816118
 10
356.6209531884735
 20
125.4629936752359
 10
356.5810472445175
 20
125.5597385533302
 10
356.5204849750283
 20
125.6513729871548
 10
356.4513916109417
 20
125.7510355676321
 10
356.3540512955713
 20
125.8334726566536
 10
356.2268374975412
 20
125.9329050700471
 10
356.1083473436574
 20
125.9367120364843
 10
356.0380329859067
 20
125.9389711642788
 72
     1
 10
356.0380329859067
 20
125.9389711642788
 11
354.965956095642
 21
125.9389711642788
 97
        6
330
10001764
330
1000175D
330
10001765
330
10001761
330
10001760
330
1000175F
 92
       20
 93
        1
 72
     3
 10
355.2123252308287
 20
124.9708340325374
 11
0.2546924415247531
 21
0.2239701316915159
 40
0.6788083417438792
 50
0.0
 51
360.0
 73
     1
 97
        1
330
10001763
 75
     0
 76
     1
 47
0.088756267210375
 98
        2
 10
355.2872270533553
 20
125.4186729901431
 10
355.2872270533553
 20
125.4186729901431
450
        0
451
        0
460
0.0
461
0.0
452
        0
462
0.0
453
        0
470

  0
ELLIPSE
  5
10001763
102
{ACAD_REACTORS
330
10001762
102
}
330
F6
100
AcDbEntity
  8
ROGO
 62
     4
100
AcDbEllipse
 10
355.2123252308287
 20
124.9708340325374
 30
0.0
 11
0.2546924415247531
 21
0.2239701316915159
 31
0.0
210
0.0
220
0.0
230
1.0
 40
0.6788083417438792
 41
0.0
 42
6.283185307179586
  0
SPLINE
  5
10001764
102
{ACAD_REACTORS
330
10001762
102
}
330
F6
100
AcDbEntity
  8
ROGO
 62
     4
100
AcDbSpline
210
0.0
220
0.0
230
1.0
 70
     8
 71
     3
 72
    25
 73
    21
 74
     0
 42
0.0000000001
 43
0.0000000001
 40
0.0
 40
0.0
 40
0.0
 40
0.0
 40
0.4087168505087288
 40
0.6887487002771746
 40
0.9415836120477687
 40
1.17452070575514
 40
1.41154617586699
 40
1.599156012919487
 40
1.80099909059943
 40
2.178735911501585
 40
2.521686161369157
 40
2.762704659361267
 40
3.06256558063785
 40
3.222432137207705
 40
3.399493810628493
 40
3.567459719866414
 40
3.743172740007509
 40
3.995988754699505
 40
4.17170091132118
 40
4.337226830236035
 40
4.337226830236035
 40
4.337226830236035
 40
4.337226830236035
 10
356.0380329859067
 20
125.9389711642788
 30
0.0
 10
356.1083473436574
 20
125.9367120364843
 30
0.0
 10
356.2268374975412
 20
125.9329050700471
 30
0.0
 10
356.3540512955713
 20
125.8334726566536
 30
0.0
 10
356.4513916109417
 20
125.7510355676321
 30
0.0
 10
356.5204849750283
 20
125.6513729871548
 30
0.0
 10
356.5810472445175
 20
125.5597385533302
 30
0.0
 10
356.6209531884735
 20
125.4629936752359
 30
0.0
 10
356.6752331565804
 20
125.3469086816118
 30
0.0
 10
356.6977023817907
 20
125.1916042067103
 30
0.0
 10
356.6825217484526
 20
125.0310827023595
 30
0.0
 10
356.6429073834562
 20
124.8887951542117
 30
0.0
 10
356.6013550995991
 20
124.7796354897201
 30
0.0
 10
356.55238078686
 20
124.6846052297335
 30
0.0
 10
356.4939971478541
 20
124.6230731290206
 30
0.0
 10
356.4534929256555
 20
124.5448356628098
 30
0.0
 10
356.3756894960594
 20
124.4808416158478
 30
0.0
 10
356.3126178391929
 20
124.4018819437706
 30
0.0
 10
356.2410446439933
 20
124.3341100175726
 30
0.0
 10
356.2006913592735
 20
124.2922955558273
 30
0.0
 10
356.1794161344252
 20
124.2747144930478
 30
0.0
  0
SPLINE
  5
10001765
102
{ACAD_REACTORS
330
10001762
102
}
330
F6
100
AcDbEntity
  8
ROGO
 62
     4
100
AcDbSpline
210
0.0
220
0.0
230
1.0
 70
     8
 71
     3
 72
    38
 73
    34
 74
    32
 42
0.0000000001
 43
0.0000000001
 44
0.0000000001
 40
0.0
 40
0.0
 40
0.0
 40
0.0
 40
0.2582400211805774
 40
0.3393418442955424
 40
0.443552172800835
 40
0.530394283206717
 40
0.6036667919818254
 40
0.7009894053152177
 40
0.7507174249931042
 40
0.8067242281503032
 40
0.8892677166883521
 40
0.9827715778106668
 40
1.043426616793024
 40
1.109318337455068
 40
1.182564491755753
 40
1.293719242428883
 40
1.399327847180614
 40
1.448424760475743
 40
1.50441322219426
 40
1.570741059842362
 40
1.617957956886697
 40
1.657539314700464
 40
1.714052551848318
 40
1.776150918813051
 40
1.838248940024221
 40
1.892584795022379
 40
2.017023561310864
 40
2.066120474605993
 40
2.164314359515976
 40
2.251113385583432
 40
2.417283613623161
 40
2.622320469312984
 40
2.918423525691272
 40
2.918423525691272
 40
2.918423525691272
 40
2.918423525691272
 10
354.9659560956419
 20
125.9389711642788
 30
0.0
 10
354.8798769561766
 20
125.932890279849
 30
0.0
 10
354.7667641481465
 20
125.9248996572959
 30
0.0
 10
354.6231373302756
 20
125.8855501912888
 30
0.0
 10
354.5448448239315
 20
125.8386723063489
 30
0.0
 10
354.4633658220496
 20
125.8042148139197
 30
0.0
 10
354.393897384357
 20
125.7531901007064
 30
0.0
 10
354.3236315262197
 20
125.726897557573
 30
0.0
 10
354.2744292213973
 20
125.679487402755
 30
0.0
 10
354.2174815669216
 20
125.6505272339336
 30
0.0
 10
354.1721331385855
 20
125.5857059567702
 30
0.0
 10
354.1214464578259
 20
125.5251004115438
 30
0.0
 10
354.0626435315299
 20
125.4808610664331
 30
0.0
 10
354.0143831807307
 20
125.4343968107726
 30
0.0
 10
353.9701110194104
 20
125.3626885033671
 30
0.0
 10
353.9439087728802
 20
125.2674093966733
 30
0.0
 10
353.8700490380096
 20
125.2072536048373
 30
0.0
 10
353.8589280744624
 20
125.1349283938715
 30
0.0
 10
353.8180740027542
 20
125.0922577364562
 30
0.0
 10
353.8003092235315
 20
125.0371760479062
 30
0.0
 10
353.7935435404975
 20
124.9867114917337
 30
0.0
 10
353.7854231075797
 20
124.9395810896933
 30
0.0
 10
353.7641815929618
 20
124.8900019886392
 30
0.0
 10
353.7711148966209
 20
124.8287587330179
 30
0.0
 10
353.7691398065608
 20
124.7694548558372
 30
0.0
 10
353.7703021493797
 20
124.6893927749636
 30
0.0
 10
353.7661070931711
 20
124.6114424936501
 30
0.0
 10
353.7995610224783
 20
124.5266140991238
 30
0.0
 10
353.8193579476251
 20
124.4510013210287
 30
0.0
 10
353.8735750475447
 20
124.3463062606695
 30
0.0
 10
353.9670984087131
 20
124.2255107982282
 30
0.0
 10
354.1449409030239
 20
124.0788879935242
 30
0.0
 10
354.3159416609658
 20
124.0640137924995
 30
0.0
 10
354.4169790077232
 20
124.0552252360933
 30
0.0
 11
354.9659560956419
 21
125.9389711642788
 31
0.0
 11
354.7095894714315
 21
125.9079218079196
 31
0.0
 11
354.6319026341056
 21
125.8846353092806
 31
0.0
 11
354.5386787955227
 21
125.8380616204954
 31
0.0
 11
354.4609919581968
 21
125.7992504436769
 31
0.0
 11
354.3988427324749
 21
125.7604389211047
 31
0.0
 11
354.3133873945205
 21
125.7138655780731
 31
0.0
 11
354.2745436706839
 21
125.6828165674675
 31
0.0
 11
354.2279314462189
 21
125.6517672111083
 31
0.0
 11
354.1735507211255
 21
125.5896691898972
 31
0.0
 11
354.1114014954036
 21
125.5198090024729
 31
0.0
 11
354.0647892709385
 21
125.4809974799008
 31
0.0
 11
354.0181776568207
 21
125.4344241368692
 31
0.0
 11
353.9793339329841
 21
125.372326115658
 31
0.0
 11
353.9327223188664
 21
125.2714165718747
 31
0.0
 11
353.8705724827972
 21
125.1860317062709
 31
0.0
 11
353.8550354815404
 21
125.1394580174858
 31
0.0
 11
353.8239608686795
 21
125.0928846744541
 31
0.0
 11
353.800654756447
 21
125.0307863074894
 31
0.0
 11
353.7928856454713
 21
124.9842129644578
 31
0.0
 11
353.7851171448429
 21
124.9454014418856
 31
0.0
 11
353.7695801435861
 21
124.891065932641
 31
0.0
 11
353.7695801435861
 21
124.8289675656762
 31
0.0
 11
353.7695801435861
 21
124.7668695444651
 31
0.0
 11
353.7695801435861
 21
124.7125336894669
 31
0.0
 11
353.7773486442145
 21
124.5883376470445
 31
0.0
 11
353.7928856454713
 21
124.5417639582594
 31
0.0
 11
353.8239608686795
 21
124.4486169264426
 31
0.0
 11
353.8628039821689
 21
124.3709942270518
 31
0.0
 11
353.9637969317273
 21
124.2390360184164
 31
0.0
 11
354.1269391070077
 21
124.1148396302405
 31
0.0
 11
354.4169790077232
 21
124.0552252360933
 31
0.0
  0
LINE
  5
10001766
102
{ACAD_REACTORS
330
1000176B
102
}
330
F6
100
AcDbEntity
  8
ROGO
 62
     4
100
AcDbLine
 10
361.2820275464855
 20
125.6111131242874
 30
0.0
 11
361.7877605223124
 21
125.9311465654612
 31
0.0
  0
LINE
  5
10001767
102
{ACAD_REACTORS
330
1000176B
102
}
330
F6
100
AcDbEntity
  8
ROGO
 62
     4
100
AcDbLine
 10
361.4416065563726
 20
125.9311465654612
 30
0.0
 11
361.2820275464855
 21
125.6111131242874
 31
0.0
  0
LINE
  5
10001768
102
{ACAD_REACTORS
330
1000176B
102
}
330
F6
100
AcDbEntity
  8
ROGO
 62
     4
100
AcDbLine
 10
360.3614869242238
 20
125.9311465654612
 30
0.0
 11
361.4416065563726
 21
125.9311465654612
 31
0.0
  0
LINE
  5
10001769
102
{ACAD_REACTORS
330
1000176B
102
}
330
F6
100
AcDbEntity
  8
ROGO
 62
     4
100
AcDbLine
 10
360.7429859087462
 20
122.9998911584526
 30
0.0
 11
361.8230819087461
 21
122.9998911584526
 31
0.0
  0
LINE
  5
1000176A
102
{ACAD_REACTORS
330
1000176B
102
}
330
F6
100
AcDbEntity
  8
ROGO
 62
     4
100
AcDbLine
 10
361.0922726004105
 20
124.4655188619569
 30
0.0
 11
361.8230819087461
 21
122.9998911584526
 31
0.0
  0
HATCH
  5
1000176B
330
F6
100
AcDbEntity
  8
ROGO
 62
     4
100
AcDbHatch
 10
0.0
 20
0.0
 30
0.0
210
0.0
220
0.0
230
1.0
  2
SOLID
 70
     1
 71
     1
 91
        1
 92
        7
 72
     0
 73
     1
 93
       11
 10
358.8998683075526
 20
122.9998911584526
 10
359.9799879397013
 20
122.9998911584526
 10
360.3614869242237
 20
123.7649819614805
 10
360.7429859087463
 20
122.9998911584526
 10
361.823081908746
 20
122.9998911584526
 10
361.0922726004105
 20
124.4655188619568
 10
362.8678565223122
 20
125.9311465654612
 10
361.7877605223124
 20
125.9311465654612
 10
361.2820275464855
 20
125.6111131242874
 10
361.4416065563726
 20
125.9311465654612
 10
360.3614869242237
 20
125.9311465654612
 97
       11
330
10001777
330
10001766
330
10001767
330
10001768
330
10001775
330
1000172C
330
10001770
330
10001774
330
10001769
330
1000176A
330
1000176C
 75
     0
 76
     1
 47
0.0514683685270805
 98
        1
 10
360.2685280007896
 20
124.6735808748305
450
        0
451
        0
460
0.0
461
0.0
452
        0
462
0.0
453
        0
470

  0
LINE
  5
1000176C
102
{ACAD_REACTORS
330
1000176B
102
}
330
F6
100
AcDbEntity
  8
ROGO
 62
     4
100
AcDbLine
 10
361.0922726004105
 20
124.4655188619569
 30
0.0
 11
362.8678565223123
 21
125.9311465654612
 31
0.0
  0
LINE
  5
1000176D
102
{ACAD_REACTORS
330
1000174F
102
}
330
F6
100
AcDbEntity
  8
ROGO
 62
     4
100
AcDbLine
 10
359.9685910254779
 20
125.9311465654612
 30
0.0
 11
359.6205634532769
 21
125.2331822051514
 31
0.0
  0
LINE
  5
1000176E
102
{ACAD_REACTORS
330
1000174F
102
}
330
F6
100
AcDbEntity
  8
ROGO
 62
     4
100
AcDbLine
 10
358.4466107056323
 20
125.2331822051514
 30
0.0
 11
359.6205634532769
 21
125.2331822051514
 31
0.0
  0
LINE
  5
1000176F
102
{ACAD_REACTORS
330
1000174F
102
}
330
F6
100
AcDbEntity
  8
ROGO
 62
     4
100
AcDbLine
 10
358.0899676796122
 20
125.9311465654612
 30
0.0
 11
359.9685910254779
 21
125.9311465654612
 31
0.0
  0
LINE
  5
10001770
102
{ACAD_REACTORS
330
1000176B
102
}
330
F6
100
AcDbEntity
  8
ROGO
 62
     4
100
AcDbLine
 10
360.3614869242238
 20
123.7649819614806
 30
0.0
 11
359.9799879397013
 21
122.9998911584526
 31
0.0
  0
LINE
  5
10001771
102
{ACAD_REACTORS
330
1000174F
102
}
330
F6
100
AcDbEntity
  8
ROGO
 62
     4
100
AcDbLine
 10
358.1816756351883
 20
124.7531822051513
 30
0.0
 11
359.38121995072
 21
124.7531822051513
 31
0.0
  0
LINE
  5
10001772
102
{ACAD_REACTORS
330
1000174F
102
}
330
F6
100
AcDbEntity
  8
ROGO
 62
     4
100
AcDbLine
 10
359.38121995072
 20
124.7531822051513
 30
0.0
 11
359.033196064036
 21
124.0552252360933
 31
0.0
  0
LINE
  5
10001773
102
{ACAD_REACTORS
330
1000174F
102
}
330
F6
100
AcDbEntity
  8
ROGO
 62
     4
100
AcDbLine
 10
357.4174403283151
 20
124.0552252360933
 30
0.0
 11
359.033196064036
 21
124.0552252360933
 31
0.0
  0
LINE
  5
10001774
102
{ACAD_REACTORS
330
1000176B
102
}
330
F6
100
AcDbEntity
  8
ROGO
 62
     4
100
AcDbLine
 10
360.3614869242238
 20
123.7649819614806
 30
0.0
 11
360.7429859087462
 21
122.9998911584526
 31
0.0
  0
LINE
  5
10001775
102
{ACAD_REACTORS
330
1000176B
102
}
330
F6
100
AcDbEntity
  8
ROGO
 62
     4
100
AcDbLine
 10
360.3614869242238
 20
125.9311465654612
 30
0.0
 11
358.8998683075526
 21
122.9998911584526
 31
0.0
  0
SPLINE
  5
10001776
102
{ACAD_REACTORS
330
1000174F
102
}
330
F6
100
AcDbEntity
  8
ROGO
 62
     4
100
AcDbSpline
210
0.0
220
0.0
230
1.0
 70
     8
 71
     3
 72
    16
 73
    12
 74
    10
 42
0.0000000001
 43
0.0000000001
 44
0.0000000001
 40
0.0
 40
0.0
 40
0.0
 40
0.0
 40
0.1794152893756658
 40
0.2670467197815217
 40
0.3102605435413978
 40
0.3558008766977931
 40
0.4210145035340376
 40
0.4803947587045328
 40
0.5423269814405045
 40
0.6461608279444525
 40
0.7489346372632488
 40
0.7489346372632488
 40
0.7489346372632488
 40
0.7489346372632488
 10
358.4466107056325
 20
125.2331822051514
 30
0.0
 10
358.3858525518875
 20
125.2239192147171
 30
0.0
 10
358.2954184215854
 20
125.2101319214521
 30
0.0
 10
358.2136387767414
 20
125.1453960543438
 30
0.0
 10
358.1675207351352
 20
125.1068825224632
 30
0.0
 10
358.1518311719189
 20
125.0558796736315
 30
0.0
 10
358.1096939321179
 20
125.0167173150091
 30
0.0
 10
358.0749608608647
 20
124.9628956282718
 30
0.0
 10
358.0666673907764
 20
124.8889706697587
 30
0.0
 10
358.0727549877016
 20
124.7852282567055
 30
0.0
 10
358.1454931513716
 20
124.7638276224207
 30
0.0
 10
358.1816756351884
 20
124.7531822051513
 30
0.0
 11
358.4466107056325
 21
125.2331822051514
 31
0.0
 11
358.2733841766985
 21
125.1864658725121
 31
0.0
 11
358.2020555714944
 21
125.135559117807
 31
0.0
 11
358.1714862529689
 21
125.10501486583
 31
0.0
 11
358.1511063166628
 21
125.0642891965273
 31
0.0
 11
358.1103470299843
 21
125.0133824418223
 31
0.0
 11
358.0797777114586
 21
124.9624753551939
 31
0.0
 11
358.0695877433055
 21
124.9013871831631
 31
0.0
 11
358.0899676796116
 21
124.7995730099063
 31
0.0
 11
358.1816756351884
 21
124.7531822051513
 31
0.0
  0
LINE
  5
10001777
102
{ACAD_REACTORS
330
1000176B
102
}
330
F6
100
AcDbEntity
  8
ROGO
 62
     4
100
AcDbLine
 10
361.7877605223124
 20
125.9311465654612
 30
0.0
 11
362.8678565223123
 21
125.9311465654612
 31
0.0
  0
LINE
  5
10001778
330
F6
100
AcDbEntity
  8
握り
100
AcDbLine
 10
356.9875173207844
 20
139.4190569370752
 30
0.0
 11
364.3342174884999
 21
139.4190569370753
 31
0.0
  0
LINE
  5
10001779
330
F6
100
AcDbEntity
  8
握り
100
AcDbLine
 10
356.9875173207843
 20
131.8723569370752
 30
0.0
 11
364.3342174885
 21
131.8723569370752
 31
0.0
  0
LINE
  5
1000177A
330
F6
100
AcDbEntity
  8
握り
100
AcDbLine
 10
354.3342174884999
 20
139.4190569370752
 30
0.0
 11
354.3342174885
 21
131.8723569370752
 31
0.0
  0
LINE
  5
1000177B
330
F6
100
AcDbEntity
  8
握り
100
AcDbLine
 10
356.9875173207843
 20
139.4190569370752
 30
0.0
 11
356.9875173207844
 21
131.8723569370752
 31
0.0
  0
LINE
  5
1000177C
330
F6
100
AcDbEntity
  8
握り
100
AcDbLine
 10
364.3342174884999
 20
139.4190569370752
 30
0.0
 11
364.3342174885
 21
131.8723569370752
 31
0.0
  0
ARC
  5
1000177D
330
F6
100
AcDbEntity
  8
握り
100
AcDbCircle
 10
395.6608674046421
 20
138.7190569370752
 30
0.0
 40
1.5
100
AcDbArc
 50
27.81813928465427
 51
152.1818607153457
  0
ARC
  5
1000177E
330
F6
100
AcDbEntity
  8
握り
100
AcDbCircle
 10
375.6608674046421
 20
138.7190569370752
 30
0.0
 40
1.5
100
AcDbArc
 50
27.81813928465427
 51
152.1818607153457
  0
ARC
  5
1000177F
330
F6
100
AcDbEntity
  8
握り
100
AcDbCircle
 10
385.6608674046421
 20
138.7190569370752
 30
0.0
 40
1.5
100
AcDbArc
 50
27.81813928465427
 51
152.1818607153457
  0
LINE
  5
10001780
330
F6
100
AcDbEntity
  8
握り
100
AcDbLine
 10
376.9875173207844
 20
139.4190569370752
 30
0.0
 11
384.3342174884998
 21
139.4190569370752
 31
0.0
  0
LINE
  5
10001781
330
F6
100
AcDbEntity
  8
握り
100
AcDbLine
 10
376.9875173207844
 20
131.8723569370752
 30
0.0
 11
384.3342174884998
 21
131.8723569370752
 31
0.0
  0
LINE
  5
10001782
330
F6
100
AcDbEntity
  8
握り
100
AcDbLine
 10
376.9875173207843
 20
118.5657569370752
 30
0.0
 11
384.3342174884998
 21
118.5657569370752
 31
0.0
  0
LINE
  5
10001783
330
F6
100
AcDbEntity
  8
握り
100
AcDbLine
 10
366.9875173207842
 20
118.5657569370752
 30
0.0
 11
374.3342174884999
 21
118.5657569370752
 31
0.0
  0
TEXT
  5
10001784
330
F6
100
AcDbEntity
  8
文字
100
AcDbText
 10
367.4723580032611
 20
123.3585708848125
 30
0.0
 40
3.0
  1
LB-6
  7
STYLE3
100
AcDbText
  0
LINE
  5
10001785
330
F6
100
AcDbEntity
  8
握り
100
AcDbLine
 10
366.9875173207842
 20
139.4190569370753
 30
0.0
 11
374.3342174884999
 21
139.4190569370752
 31
0.0
  0
LINE
  5
10001786
330
F6
100
AcDbEntity
  8
握り
100
AcDbLine
 10
366.9875173207844
 20
131.8723569370752
 30
0.0
 11
374.3342174884999
 21
131.8723569370752
 31
0.0
  0
LINE
  5
10001787
330
F6
100
AcDbEntity
  8
握り
100
AcDbLine
 10
366.9875173207842
 20
139.4190569370752
 30
0.0
 11
366.9875173207844
 21
131.8723569370752
 31
0.0
  0
LINE
  5
10001788
330
F6
100
AcDbEntity
  8
握り
100
AcDbLine
 10
374.3342174884999
 20
139.4190569370752
 30
0.0
 11
374.3342174885
 21
131.8723569370752
 31
0.0
  0
LINE
  5
10001789
330
F6
100
AcDbEntity
  8
握り
100
AcDbLine
 10
376.9875173207843
 20
139.4190569370752
 30
0.0
 11
376.9875173207844
 21
131.8723569370752
 31
0.0
  0
LINE
  5
1000178A
330
F6
100
AcDbEntity
  8
握り
100
AcDbLine
 10
384.3342174885
 20
129.2190569370752
 30
0.0
 11
384.3342174884998
 21
121.2190569370752
 31
0.0
  0
LINE
  5
1000178B
330
F6
100
AcDbEntity
  8
握り
100
AcDbLine
 10
386.9875173207842
 20
139.4190569370752
 30
0.0
 11
394.3342174885001
 21
139.4190569370752
 31
0.0
  0
LINE
  5
1000178C
330
F6
100
AcDbEntity
  8
握り
100
AcDbLine
 10
384.3342174884999
 20
139.4190569370752
 30
0.0
 11
384.3342174884999
 21
131.8723569370753
 31
0.0
  0
ARC
  5
1000178D
330
F6
100
AcDbEntity
  8
握り
100
AcDbCircle
 10
405.6608674046421
 20
138.7190569370752
 30
0.0
 40
1.5
100
AcDbArc
 50
27.81813928465427
 51
152.1818607153457
  0
ARC
  5
1000178E
330
F6
100
AcDbEntity
  8
隠れ線2
100
AcDbCircle
 10
399.1608674046421
 20
135.4190569370752
 30
0.0
 40
1.5
100
AcDbArc
 50
0.0000000000001527
 51
89.99999999999998
  0
ARC
  5
1000178F
330
F6
100
AcDbEntity
  8
握り
100
AcDbCircle
 10
410.1608674046421
 20
138.9190569370752
 30
0.0
 40
0.5
100
AcDbArc
 50
0.0
 51
90.0
  0
LINE
  5
10001790
330
F6
100
AcDbEntity
  8
握り
100
AcDbLine
 10
406.9875173207842
 20
139.4190569370752
 30
0.0
 11
410.1608674046421
 21
139.4190569370752
 31
0.0
  0
CIRCLE
  5
10001791
330
F6
100
AcDbEntity
  8
外形線
100
AcDbCircle
 10
268.1608674046421
 20
159.2190569370752
 30
0.0
 40
2.0
  0
CIRCLE
  5
10001792
330
F6
100
AcDbEntity
  8
外形線
100
AcDbCircle
 10
268.1608674046421
 20
159.2190569370752
 30
0.0
 40
1.25
  0
LINE
  5
10001793
330
F6
100
AcDbEntity
  8
中心線
 48
0.5
100
AcDbLine
 10
265.7629522001835
 20
185.5645813260793
 30
0.0
 11
321.686962462844
 21
172.8735325480711
 31
0.0
  0
CIRCLE
  5
10001794
330
F6
100
AcDbEntity
  8
外形線
100
AcDbCircle
 10
293.7249573315138
 20
179.2190569370752
 30
0.0
 40
26.4
  0
HATCH
  5
10001796
330
F6
100
AcDbEntity
  8
ﾊｯﾁﾝｸ
  6
Continuous
100
AcDbHatch
 10
0.0
 20
0.0
 30
0.0
210
0.0
220
0.0
230
1.0
  2
ANSI37
 70
     0
 71
     0
 91
        1
 92
        7
 72
     0
 73
     1
 93
        4
 10
301.2667488754064
 20
212.3720565043611
 10
297.3663959851375
 20
213.2593260977603
 10
296.0354915950388
 20
207.4087967623569
 10
299.9358444853077
 20
206.5215271689577
 97
        0
 75
     0
 76
     1
 52
-12.81580000000004
 41
10.0
 77
     0
 78
     2
 53
32.18419999999994
 43
79.18051006600904
 44
103.8112677655645
 45
-0.6658036348426791
 46
1.057925101238398
 79
     0
 53
122.1841999999999
 43
79.18051006600904
 44
103.8112677655645
 45
-1.057925101238398
 46
-0.6658036348426791
 79
     0
 47
0.1856754751158765
 98
        1
 10
299.0701064950999
 20
210.590986425044
  0
LINE
  5
10001797
330
F6
100
AcDbEntity
  8
外形線
  6
Continuous
100
AcDbLine
 10
297.3663959851375
 20
213.2593260977603
 30
0.0
 11
296.0354915950388
 21
207.4087967623569
 31
0.0
  0
LINE
  5
10001798
330
F6
100
AcDbEntity
  8
外形線
  6
Continuous
100
AcDbLine
 10
305.1671017656752
 20
211.4847869109621
 30
0.0
 11
303.8361973755765
 21
205.6342575755587
 31
0.0
  0
LINE
  5
10001799
330
F6
100
AcDbEntity
  8
目盛
100
AcDbLine
 10
310.928097427021
 20
163.9530171475828
 30
0.0
 11
309.4321722013245
 21
165.2804988684081
 31
0.0
  0
LINE
  5
1000179A
330
F6
100
AcDbEntity
  8
目盛
100
AcDbLine
 10
311.3991266137686
 20
164.5009137056004
 30
0.0
 11
309.0938001856482
 21
166.4206715184013
 31
0.0
  0
LINE
  5
1000179B
330
F6
100
AcDbEntity
  8
目盛
100
AcDbLine
 10
310.4400908179586
 20
163.4201863277458
 30
0.0
 11
308.9866009495722
 21
164.7940011633397
 31
0.0
  0
LINE
  5
1000179C
330
F6
100
AcDbEntity
  8
目盛
100
AcDbLine
 10
276.4231696498772
 20
164.0649108700888
 30
0.0
 11
278.6799245648735
 21
166.0415386179566
 31
0.0
  0
LINE
  5
1000179D
330
F6
100
AcDbEntity
  8
目盛
100
AcDbLine
 10
275.955703806518
 20
164.6158508108706
 30
0.0
 11
277.5008562869524
 21
165.885694821845
 31
0.0
  0
LINE
  5
1000179E
330
F6
100
AcDbEntity
  8
目盛
100
AcDbLine
 10
275.5057740710802
 20
165.1812023530325
 30
0.0
 11
277.0900508763352
 21
166.4018853603405
 31
0.0
  0
LINE
  5
1000179F
330
F6
100
AcDbEntity
  8
中心線
 48
0.2
100
AcDbLine
 10
290.390042735424
 20
177.7129588173413
 30
0.0
 11
286.9178286856546
 21
162.4124003252835
 31
0.0
  0
CIRCLE
  5
100017A0
330
F6
100
AcDbEntity
  8
外形線
100
AcDbCircle
 10
293.7249573315138
 20
179.2190569370752
 30
0.0
 40
23.0
  0
CIRCLE
  5
100017A1
330
F6
100
AcDbEntity
  8
外形線
100
AcDbCircle
 10
293.7249573315138
 20
179.2190569370752
 30
0.0
 40
15.5
  0
TEXT
  5
100017A2
330
F6
100
AcDbEntity
  8
文字
100
AcDbText
 10
299.3299926984503
 20
162.2922865845308
 30
0.0
 40
2.0
  1
.2
 50
347.2142000000002
  7
STYLE3
100
AcDbText
  0
LINE
  5
100017A3
330
F6
100
AcDbEntity
  8
目盛
100
AcDbLine
 10
300.7613765008084
 20
157.3218241147757
 30
0.0
 11
300.149513964348
 21
159.2259313167149
 31
0.0
  0
LINE
  5
100017A5
330
F6
100
AcDbEntity
  8
想像線
 48
0.5
100
AcDbLine
 10
278.3050780684697
 20
156.5168581904182
 30
0.0
 11
270.5414691262271
 21
122.3887704005649
 31
0.0
  0
LINE
  5
100017A6
330
F6
100
AcDbEntity
  8
外形線
 48
0.5
100
AcDbLine
 10
275.0646308145543
 20
131.9032227113291
 30
0.0
 11
278.5028004889758
 21
147.0170901611214
 31
0.0
  0
LINE
  5
100017A7
330
F6
100
AcDbEntity
  8
外形線
 48
0.5
100
AcDbLine
 10
284.8087695315763
 20
129.6554049040707
 30
0.0
 11
288.2536827146482
 21
144.7989161776235
 31
0.0
  0
LINE
  5
100017A8
330
F6
100
AcDbEntity
  8
想像線
 48
0.5
100
AcDbLine
 10
290.0432335775718
 20
117.9524224335693
 30
0.0
 11
270.5414691262271
 21
122.3887704005649
 31
0.0
  0
CIRCLE
  5
100017A9
330
F6
100
AcDbEntity
  8
外形線
100
AcDbCircle
 10
281.9364285125384
 20
139.5699297226854
 30
0.0
 40
1.8
  0
LINE
  5
100017AA
330
F6
100
AcDbEntity
  8
中心線
100
AcDbLine
 10
279.6166076827283
 20
140.0976528652656
 30
0.0
 11
284.3772721021615
 21
139.0146757853509
 31
0.0
  0
LINE
  5
100017AB
330
F6
100
AcDbEntity
  8
中心線
100
AcDbLine
 10
278.2857032926297
 20
134.2471235298622
 30
0.0
 11
283.0463677120629
 21
133.1641464499475
 31
0.0
  0
LINE
  5
100017AC
330
F6
100
AcDbEntity
  8
外形線
100
AcDbLine
 10
275.0646308145543
 20
131.9032227113291
 30
0.0
 11
284.8155130402267
 21
129.6850487278314
 31
0.0
  0
LINE
  5
100017AD
330
F6
100
AcDbEntity
  8
中心線
 48
0.5
100
AcDbLine
 10
280.0013555554156
 20
131.06353272977
 30
0.0
 11
282.5204503899976
 21
142.1372344457078
 31
0.0
  0
LINE
  5
100017AE
330
F6
100
AcDbEntity
  8
想像線
100
AcDbLine
 10
281.5022298836766
 20
134.2837408632921
 30
0.0
 11
279.6763511650421
 21
133.1346267282502
 31
0.0
  0
LINE
  5
100017AF
330
F6
100
AcDbEntity
  8
想像線
100
AcDbLine
 10
281.1620212817333
 20
132.8351572219174
 30
0.0
 11
280.0489849057286
 21
134.6037103795538
 31
0.0
  0
CIRCLE
  5
100017B0
330
F6
100
AcDbEntity
  8
外形線
100
AcDbCircle
 10
280.6055241224398
 20
133.719400387282
 30
0.0
 40
1.8
  0
LINE
  5
100017B1
330
F6
100
AcDbEntity
  8
想像線
100
AcDbLine
 10
282.8331342737753
 20
140.1342701986955
 30
0.0
 11
281.0072555551412
 21
138.9851560636536
 31
0.0
  0
LINE
  5
100017B2
330
F6
100
AcDbEntity
  8
想像線
100
AcDbLine
 10
282.4929256718323
 20
138.6856865573209
 30
0.0
 11
281.3798892958275
 21
140.4542397149573
 31
0.0
  0
LINE
  5
100017B3
330
F6
100
AcDbEntity
  8
想像線
 48
0.5
100
AcDbLine
 10
293.9064896295455
 20
152.9677798168216
 30
0.0
 11
278.3050780684698
 21
156.5168581904182
 31
0.0
  0
LINE
  5
100017B4
330
F6
100
AcDbEntity
  8
外形線
100
AcDbLine
 10
278.5028004889758
 20
147.0170901611214
 30
0.0
 11
288.2536827146482
 21
144.7989161776235
 31
0.0
  0
LINE
  5
100017B5
330
F6
100
AcDbEntity
  8
外形線
 48
0.5
100
AcDbLine
 10
283.5162880423705
 20
152.3132495325509
 30
0.0
 11
284.2695588665879
 21
151.1163439116339
 31
0.0
  0
LINE
  5
100017B6
330
F6
100
AcDbEntity
  8
外形線
 48
0.5
100
AcDbLine
 10
283.5162880423705
 20
152.3132495325508
 30
0.0
 11
291.3169938229084
 21
150.5387103457526
 31
0.0
  0
LINE
  5
100017B7
330
F6
100
AcDbEntity
  8
外形線
 48
0.5
100
AcDbLine
 10
283.5162880423705
 20
152.3132495325509
 30
0.0
 11
284.0497122397582
 21
154.6581316580047
 31
0.0
  0
LINE
  5
100017B8
330
F6
100
AcDbEntity
  8
目盛
100
AcDbLine
 10
283.8645987989643
 20
158.4399008038349
 30
0.0
 11
284.7220212800557
 21
160.2467839458558
 31
0.0
  0
TEXT
  5
100017B9
330
F6
100
AcDbEntity
  8
文字
100
AcDbText
 10
282.548913438083
 20
163.5417702176198
 30
0.0
 40
2.0
  1
.9
 50
347.2142000000002
  7
STYLE3
100
AcDbText
  0
LINE
  5
100017C5
330
F6
100
AcDbEntity
  8
目盛
100
AcDbLine
 10
281.9528680832771
 20
159.4600611444863
 30
0.0
 11
283.4883579852211
 21
162.0373214652587
 31
0.0
  0
LINE
  5
100017C6
330
F6
100
AcDbEntity
  8
目盛
100
AcDbLine
 10
282.5793219551569
 20
159.1000407569212
 30
0.0
 11
283.5485076400575
 21
160.8495204247607
 31
0.0
  0
LINE
  5
100017C7
330
F6
100
AcDbEntity
  8
目盛
100
AcDbLine
 10
283.2167752235251
 20
158.7598754093275
 30
0.0
 11
284.130530189437
 21
160.53893467261
 31
0.0
  0
LINE
  5
100017C8
330
F6
100
AcDbEntity
  8
目盛
100
AcDbLine
 10
279.5692356884836
 20
161.091300739326
 30
0.0
 11
280.8001680052689
 21
162.6676273652174
 31
0.0
  0
LINE
  5
100017C9
330
F6
100
AcDbEntity
  8
目盛
100
AcDbLine
 10
279.0068141000391
 20
161.5448876548206
 30
0.0
 11
280.9265719128402
 21
163.8502140829408
 31
0.0
  0
LINE
  5
100017CA
330
F6
100
AcDbEntity
  8
目盛
100
AcDbLine
 10
278.4589175420217
 20
162.0159168415685
 30
0.0
 11
279.7863992628471
 21
163.5118420672647
 31
0.0
  0
LINE
  5
100017CB
330
F6
100
AcDbEntity
  8
目盛
100
AcDbLine
 10
276.9077102688076
 20
163.528926241893
 30
0.0
 11
278.3700795786083
 21
164.8932854327784
 31
0.0
  0
LINE
  5
100017CC
330
F6
100
AcDbEntity
  8
目盛
100
AcDbLine
 10
277.4088474802184
 20
163.0084258784007
 30
0.0
 11
278.8276396412007
 21
164.4180459704594
 31
0.0
  0
LINE
  5
100017CD
330
F6
100
AcDbEntity
  8
目盛
100
AcDbLine
 10
277.9260867221844
 20
162.5039234506303
 30
0.0
 11
279.2999015577785
 21
163.9574133190169
 31
0.0
  0
LINE
  5
100017CE
330
F6
100
AcDbEntity
  8
目盛
100
AcDbLine
 10
281.3380318422234
 20
159.8395812753663
 30
0.0
 11
282.4151557978138
 21
161.5247530720367
 31
0.0
  0
LINE
  5
100017CF
330
F6
100
AcDbEntity
  8
目盛
100
AcDbLine
 10
280.1456272651481
 20
160.6556037306081
 30
0.0
 11
281.326438575267
 21
162.2698170529096
 31
0.0
  0
LINE
  5
100017D0
330
F6
100
AcDbEntity
  8
目盛
100
AcDbLine
 10
280.7354200011364
 20
160.2382266090118
 30
0.0
 11
281.8649449863867
 21
161.8887335940609
 31
0.0
  0
LINE
  5
100017D1
330
F6
100
AcDbEntity
  8
外形線
100
AcDbLine
 10
285.5602677277779
 20
145.8072730916758
 30
0.0
 11
284.9654677956565
 21
148.562009284994
 31
0.0
  0
LINE
  5
100017D2
330
F6
100
AcDbEntity
  8
外形線
100
AcDbLine
 10
286.650356248102
 20
145.5592949149805
 30
0.0
 11
288.3782765746419
 21
147.7856483907693
 31
0.0
  0
ARC
  5
100017D3
330
F6
100
AcDbEntity
  8
外形線
100
AcDbCircle
 10
286.1536831666165
 20
145.8959191121614
 30
0.0
 40
0.6
100
AcDbArc
 50
188.4961739705771
 51
325.8722260293593
  0
LINE
  5
100017D4
330
F6
100
AcDbEntity
  8
外形線
100
AcDbLine
 10
284.9654677956566
 20
148.562009284994
 30
0.0
 11
288.3782765746418
 21
147.7856483907693
 31
0.0
  0
LINE
  5
100017D5
330
F6
100
AcDbEntity
  8
外形線
 48
0.5
100
AcDbLine
 10
285.2014579315131
 20
149.5993995160022
 30
0.0
 11
288.6142667104985
 21
148.823038621778
 31
0.0
  0
LINE
  5
100017D6
330
F6
100
AcDbEntity
  8
外形線
 48
0.5
100
AcDbLine
 10
284.2695588665879
 20
151.1163439116339
 30
0.0
 11
290.1200882019915
 21
149.7854395215352
 31
0.0
  0
LINE
  5
100017D7
330
F6
100
AcDbEntity
  8
外形線
 48
0.5
100
AcDbLine
 10
284.9654677956566
 20
148.5620092849939
 30
0.0
 11
285.4837079691037
 21
150.8401438828614
 31
0.0
  0
LINE
  5
100017D8
330
F6
100
AcDbEntity
  8
外形線
 48
0.5
100
AcDbLine
 10
288.3782765746418
 20
147.7856483907693
 30
0.0
 11
288.8965167480891
 21
150.0637829886372
 31
0.0
  0
LINE
  5
100017D9
330
F6
100
AcDbEntity
  8
外形線
 48
0.5
100
AcDbLine
 10
290.1200882019915
 20
149.7854395215352
 30
0.0
 11
291.3169938229085
 21
150.5387103457526
 31
0.0
  0
LINE
  5
100017DA
330
F6
100
AcDbEntity
  8
外形線
 48
0.5
100
AcDbLine
 10
291.3169938229085
 20
150.5387103457526
 30
0.0
 11
291.850418020296
 21
152.8835924712065
 31
0.0
  0
LINE
  5
100017DB
330
F6
100
AcDbEntity
  8
目盛
100
AcDbLine
 10
292.206345382236
 20
156.2692460936823
 30
0.0
 11
292.404425201707
 21
159.2626996819509
 31
0.0
  0
LINE
  5
100017DC
330
F6
100
AcDbEntity
  8
目盛
100
AcDbLine
 10
289.2988210721656
 20
159.7149722927327
 30
0.0
 11
288.6349006332636
 21
156.7893595960812
 31
0.0
  0
LINE
  5
100017DD
330
F6
100
AcDbEntity
  8
目盛
100
AcDbLine
 10
285.8638507550399
 20
157.6041777240582
 30
0.0
 11
286.5474252399506
 21
159.4837324382336
 31
0.0
  0
LINE
  5
100017DE
330
F6
100
AcDbEntity
  8
目盛
100
AcDbLine
 10
284.5221533578209
 20
158.1404327167478
 30
0.0
 11
285.3223971816202
 21
159.9733565619935
 31
0.0
  0
LINE
  5
100017DF
330
F6
100
AcDbEntity
  8
目盛
100
AcDbLine
 10
285.1887899731307
 20
157.8617666869131
 30
0.0
 11
286.3022031068329
 21
160.6475001978038
 31
0.0
  0
LINE
  5
100017E0
330
F6
100
AcDbEntity
  8
目盛
100
AcDbLine
 10
287.9328784496054
 20
156.9603098423768
 30
0.0
 11
288.4365374828148
 21
158.8958530680027
 31
0.0
  0
LINE
  5
100017E1
330
F6
100
AcDbEntity
  8
目盛
100
AcDbLine
 10
287.2365723485184
 20
157.1532267847236
 30
0.0
 11
287.800779738344
 21
159.0719946240584
 31
0.0
  0
LINE
  5
100017E2
330
F6
100
AcDbEntity
  8
目盛
100
AcDbLine
 10
286.5466695000565
 20
157.3679200373907
 30
0.0
 11
287.1708684419223
 21
159.268018898233
 31
0.0
  0
LINE
  5
100017E3
330
F6
100
AcDbEntity
  8
目盛
100
AcDbLine
 10
290.0533170463705
 20
156.5140121756898
 30
0.0
 11
290.372590114644
 21
158.4883638940712
 31
0.0
  0
LINE
  5
100017E4
330
F6
100
AcDbEntity
  8
目盛
100
AcDbLine
 10
290.7683114700678
 20
156.4098867362548
 30
0.0
 11
291.0254111101937
 21
158.393292840674
 31
0.0
  0
LINE
  5
100017E5
330
F6
100
AcDbEntity
  8
目盛
100
AcDbLine
 10
291.4862237462708
 20
156.3282711940234
 30
0.0
 11
291.6808962319441
 21
158.3187743021149
 31
0.0
  0
LINE
  5
100017E6
330
F6
100
AcDbEntity
  8
目盛
100
AcDbLine
 10
289.3419460883519
 20
156.6405447530911
 30
0.0
 11
289.7230775008008
 21
158.6038936386551
 31
0.0
  0
TEXT
  5
100017E7
330
F6
100
AcDbEntity
  8
文字
100
AcDbText
 10
288.5115381522256
 20
160.4672082683212
 30
0.0
 40
2.0
  1
0
 50
347.2142000000002
  7
STYLE3
100
AcDbText
  0
LINE
  5
100017E8
330
F6
100
AcDbEntity
  8
目盛
100
AcDbLine
 10
299.3725531097285
 20
156.9232128865376
 30
0.0
 11
298.6359101821351
 21
159.8313664583468
 31
0.0
  0
LINE
  5
100017E9
330
F6
100
AcDbEntity
  8
目盛
100
AcDbLine
 10
295.8151833973848
 20
156.3142331003035
 30
0.0
 11
295.5425452148799
 21
159.3018188181431
 31
0.0
  0
LINE
  5
100017EA
330
F6
100
AcDbEntity
  8
目盛
100
AcDbLine
 10
296.5336099002625
 20
156.391190835574
 30
0.0
 11
296.2893792421105
 21
158.3762226704873
 31
0.0
  0
LINE
  5
100017EB
330
F6
100
AcDbEntity
  8
目盛
100
AcDbLine
 10
294.3728530252723
 20
156.2281841574263
 30
0.0
 11
294.3165142692931
 21
158.2273904860914
 31
0.0
  0
LINE
  5
100017EC
330
F6
100
AcDbEntity
  8
目盛
100
AcDbLine
 10
293.6503725619802
 20
156.2191778697377
 30
0.0
 11
293.6568581941136
 21
158.219167353854
 31
0.0
  0
LINE
  5
100017ED
330
F6
100
AcDbEntity
  8
目盛
100
AcDbLine
 10
295.0946940937349
 20
156.2598796608263
 30
0.0
 11
294.975586549194
 21
158.256329858761
 31
0.0
  0
LINE
  5
100017EE
330
F6
100
AcDbEntity
  8
目盛
100
AcDbLine
 10
292.9279657048519
 20
156.2328696858795
 30
0.0
 11
292.9972693245613
 21
158.231668577288
 31
0.0
  0
LINE
  5
100017EF
330
F6
100
AcDbEntity
  8
目盛
100
AcDbLine
 10
300.0700957480482
 20
157.1116098100318
 30
0.0
 11
299.5183445813932
 21
159.0339965167314
 31
0.0
  0
LINE
  5
100017F0
330
F6
100
AcDbEntity
  8
目盛
100
AcDbLine
 10
298.6694369762183
 20
156.7568192693116
 30
0.0
 11
298.2394822245049
 21
158.7100573273779
 31
0.0
  0
LINE
  5
100017F1
330
F6
100
AcDbEntity
  8
目盛
100
AcDbLine
 10
297.9614412382527
 20
156.6125931687643
 30
0.0
 11
297.5930513333189
 21
158.5783726268784
 31
0.0
  0
LINE
  5
100017F2
330
F6
100
AcDbEntity
  8
目盛
100
AcDbLine
 10
297.2492646021487
 20
156.4906769186455
 30
0.0
 11
296.9428031003543
 21
158.4670577898134
 31
0.0
  0
TEXT
  5
100017F3
330
F6
100
AcDbEntity
  8
文字
100
AcDbText
 10
293.4065308101692
 20
160.6897104864843
 30
0.0
 40
2.0
  1
.1
 50
347.2142000000002
  7
STYLE3
100
AcDbText
  0
LINE
  5
100017F4
330
F6
100
AcDbEntity
  8
目盛
100
AcDbLine
 10
308.8791033985004
 20
161.9172692554385
 30
0.0
 11
306.9024756506329
 21
164.1740241704346
 31
0.0
  0
LINE
  5
100017F5
330
F6
100
AcDbEntity
  8
目盛
100
AcDbLine
 10
309.415088026696
 20
162.401809874369
 30
0.0
 11
308.0507288358106
 21
163.8641791841694
 31
0.0
  0
LINE
  5
100017F6
330
F6
100
AcDbEntity
  8
目盛
100
AcDbLine
 10
309.9355883901886
 20
162.9029470857799
 30
0.0
 11
308.5259682981298
 21
164.321739246762
 31
0.0
  0
LINE
  5
100017F7
330
F6
100
AcDbEntity
  8
目盛
100
AcDbLine
 10
301.4457131573662
 20
157.5536483446307
 30
0.0
 11
300.7743430855531
 21
159.4375969178867
 31
0.0
  0
LINE
  5
100017F8
330
F6
100
AcDbEntity
  8
目盛
100
AcDbLine
 10
302.1224303600613
 20
157.8068537170695
 30
0.0
 11
301.3922153141006
 21
159.6687844318527
 31
0.0
  0
LINE
  5
100017F9
330
F6
100
AcDbEntity
  8
目盛
100
AcDbLine
 10
302.7908602707173
 20
158.0811903489604
 30
0.0
 11
301.6083511916905
 21
160.8383033821926
 31
0.0
  0
LINE
  5
100017FA
330
F6
100
AcDbEntity
  8
目盛
100
AcDbLine
 10
304.1002284069842
 20
158.6921538557406
 30
0.0
 11
303.1980309221609
 21
160.4771019497696
 31
0.0
  0
LINE
  5
100017FB
330
F6
100
AcDbEntity
  8
目盛
100
AcDbLine
 10
303.4503432297112
 20
158.3763875031676
 30
0.0
 11
302.6046574994331
 21
160.1887935408987
 31
0.0
  0
LINE
  5
100017FC
330
F6
100
AcDbEntity
  8
目盛
100
AcDbLine
 10
305.3686500883269
 20
159.3841276711327
 30
0.0
 11
304.3561550659955
 21
161.1089041290409
 31
0.0
  0
LINE
  5
100017FD
330
F6
100
AcDbEntity
  8
目盛
100
AcDbLine
 10
305.9859348133354
 20
159.7596522393393
 30
0.0
 11
304.3866768809239
 21
162.2978354607831
 31
0.0
  0
LINE
  5
100017FE
330
F6
100
AcDbEntity
  8
目盛
100
AcDbLine
 10
304.7398744443268
 20
159.0281777834113
 30
0.0
 11
303.7820555649517
 21
160.7839064054691
 31
0.0
  0
LINE
  5
100017FF
330
F6
100
AcDbEntity
  8
目盛
100
AcDbLine
 10
307.7628119155568
 20
160.9998736766415
 30
0.0
 11
306.5421289082489
 21
162.5841504818966
 31
0.0
  0
LINE
  5
10001800
330
F6
100
AcDbEntity
  8
目盛
100
AcDbLine
 10
306.5911194338557
 20
160.1543808906205
 30
0.0
 11
305.4723227293043
 21
161.8121788077034
 31
0.0
  0
LINE
  5
10001801
330
F6
100
AcDbEntity
  8
目盛
100
AcDbLine
 10
307.183606705731
 20
160.5679240754527
 30
0.0
 11
306.0132893688424
 21
162.189761715594
 31
0.0
  0
LINE
  5
10001802
330
F6
100
AcDbEntity
  8
目盛
100
AcDbLine
 10
308.3281634577184
 20
161.4498034120791
 30
0.0
 11
307.0583194467441
 21
162.9949558925137
 31
0.0
  0
LINE
  5
10001803
330
F6
100
AcDbEntity
  8
目盛
100
AcDbLine
 10
301.5860639079883
 20
200.8339361500922
 30
0.0
 11
300.9024894230777
 21
198.9543814359167
 31
0.0
  0
LINE
  5
10001804
330
F6
100
AcDbEntity
  8
目盛
100
AcDbLine
 10
302.2611246898973
 20
200.5763471872373
 30
0.0
 11
301.1477115561951
 21
197.7906136763465
 31
0.0
  0
TEXT
  5
10001805
330
F6
100
AcDbEntity
  8
文字
100
AcDbText
 10
300.904995018249
 20
194.1473368941205
 30
0.0
 40
2.0
  1
.9
 50
347.2142000000002
  7
STYLE3
100
AcDbText
  0
LINE
  5
10001806
102
{ACAD_REACTORS
330
1000180D
102
}
330
F6
100
AcDbEntity
  8
ROGO
 62
     4
100
AcDbLine
 10
300.6695786390458
 20
187.7542106221157
 30
0.0
 11
301.9520076453868
 21
187.4631841203079
 31
0.0
  0
LINE
  5
10001807
102
{ACAD_REACTORS
330
1000180D
102
}
330
F6
100
AcDbEntity
  8
ROGO
 62
     4
100
AcDbLine
 10
300.8049135032002
 20
187.2225008914192
 30
0.0
 11
301.6063040847483
 21
187.0406382726102
 31
0.0
  0
LINE
  5
10001808
102
{ACAD_REACTORS
330
1000180D
102
}
330
F6
100
AcDbEntity
  8
ROGO
 62
     4
100
AcDbLine
 10
300.5496983526716
 20
186.9358746246525
 30
0.0
 11
301.3685588379384
 21
186.750047494014
 31
0.0
  0
LINE
  5
10001809
102
{ACAD_REACTORS
330
1000180D
102
}
330
F6
100
AcDbEntity
  8
ROGO
 62
     4
100
AcDbLine
 10
301.3685588379384
 20
186.750047494014
 30
0.0
 11
301.0228589382061
 21
186.3275061209615
 31
0.0
  0
TEXT
  5
1000180A
330
F6
100
AcDbEntity
  8
文字
100
AcDbText
 10
298.1622456919602
 20
177.6489214600687
 30
0.0
 40
1.0
  1
0.01mm
 50
347.2142000000002
  7
STYLE3
100
AcDbText
  0
LINE
  5
1000180B
102
{ACAD_REACTORS
330
1000180E
330
1000181F
102
}
330
F6
100
AcDbEntity
  8
ROGO
 62
     4
100
AcDbLine
 10
287.9609084613777
 20
188.5341872506404
 30
0.0
 11
301.5056929141934
 21
185.4604176949358
 31
0.0
  0
LINE
  5
1000180C
102
{ACAD_REACTORS
330
1000180E
102
}
330
F6
100
AcDbEntity
  8
ROGO
 62
     4
100
AcDbLine
 10
302.2202152656813
 20
187.4023187428823
 30
0.0
 11
300.7683568485929
 21
185.6277441783259
 31
0.0
  0
HATCH
  5
1000180D
330
F6
100
AcDbEntity
  8
ROGO
 62
     4
100
AcDbHatch
 10
0.0
 20
0.0
 30
0.0
210
0.0
220
0.0
230
1.0
  2
SOLID
 70
     1
 71
     1
 91
        1
 92
        5
 93
        8
 72
     4
 94
        3
 73
     0
 74
     0
 95
       26
 96
       22
 40
0.0
 40
0.0
 40
0.0
 40
0.0
 40
0.2382195346592319
 40
0.3976890672662581
 40
0.5126795869788961
 40
0.5985392873137517
 40
0.7099038249254655
 40
0.791189080749763
 40
0.9379713068547605
 40
1.057449928673506
 40
1.138714535893223
 40
1.218398644003529
 40
1.360938021870514
 40
1.461730374800524
 40
1.516014844108063
 40
1.593124329220578
 40
1.64880681859379
 40
1.729472362005469
 40
1.775122082164339
 40
1.874460993765357
 40
1.919820003751283
 40
1.919820003751283
 40
1.919820003751283
 40
1.919820003751283
 10
300.6695786390456
 20
187.7542106221158
 10
300.5896605420736
 20
187.7674001137621
 10
300.4562434674078
 20
187.789418948775
 10
300.2917837474555
 20
187.7344156524371
 10
300.1743057018685
 20
187.7074018305018
 10
300.0830348697187
 20
187.6551496326992
 10
300.0114100400506
 20
187.5960365896729
 10
299.9222390012797
 20
187.5264731203147
 10
299.8427590221009
 20
187.4399420555488
 10
299.7889034919311
 20
187.3369117958337
 10
299.7434071687706
 20
187.2553800164878
 10
299.7022767360295
 20
187.1623518948806
 10
299.6832539198905
 20
187.0560818379169
 10
299.6680244687539
 20
186.9568303924124
 10
299.6831722796383
 20
186.8800750480406
 10
299.7071778315856
 20
186.8224301596495
 10
299.7379590116081
 20
186.757955421465
 10
299.776999353669
 20
186.7110207728069
 10
299.8011990529434
 20
186.636553485789
 10
299.8677181107411
 20
186.612656283963
 10
299.9074269686901
 20
186.5861268352366
 10
299.9198746560134
 20
186.5778105476458
 72
     1
 10
299.9198746560134
 20
186.5778105476458
 11
301.022858938206
 21
186.3275061209614
 72
     1
 10
301.022858938206
 20
186.3275061209614
 11
301.3685588379384
 21
186.750047494014
 72
     1
 10
301.3685588379384
 20
186.750047494014
 11
300.5496983526716
 21
186.9358746246525
 72
     4
 94
        3
 73
     0
 74
     0
 95
       16
 96
       12
 40
0.0
 40
0.0
 40
0.0
 40
0.0
 40
0.0719416665232509
 40
0.1446253590759663
 40
0.1879779149910311
 40
0.2295440936104315
 40
0.2751936323958317
 40
0.3070718656050609
 40
0.3373215422371788
 40
0.3986635435213581
 40
0.5242542460840522
 40
0.5242542460840522
 40
0.5242542460840522
 40
0.5242542460840522
 10
300.5496983526716
 20
186.9358746246523
 10
300.5266477670844
 20
186.9487468449598
 10
300.4803088458644
 20
186.9746240531767
 10
300.4922244226267
 20
187.0463861400374
 10
300.5093379694942
 20
187.0955657117199
 10
300.5413860303252
 20
187.1269260416913
 10
300.5762175482794
 20
187.147132269428
 10
300.5948290127435
 20
187.1795184601908
 10
300.6322774841901
 20
187.1986650859264
 10
300.698132325127
 20
187.2301876952366
 10
300.7620024031045
 20
187.225589911544
 10
300.8049135032002
 20
187.2225008914192
 72
     1
 10
300.8049135032002
 20
187.2225008914192
 11
301.6063040847483
 21
187.0406382726102
 72
     1
 10
301.6063040847483
 20
187.0406382726102
 11
301.9520076453868
 21
187.4631841203079
 72
     1
 10
301.9520076453868
 20
187.4631841203079
 11
300.6695786390455
 21
187.7542106221158
 97
        8
330
10001806
330
10001879
330
10001872
330
10001809
330
10001808
330
10001877
330
10001807
330
100018DF
 75
     0
 76
     1
 47
0.0514683685270805
 98
        1
 10
300.8376581783258
 20
187.4695128724854
450
        0
451
        0
460
0.0
461
0.0
452
        0
462
0.0
453
        0
470

  0
HATCH
  5
1000180E
330
F6
100
AcDbEntity
  8
ROGO
 62
     4
100
AcDbHatch
 10
0.0
 20
0.0
 30
0.0
210
0.0
220
0.0
230
1.0
  2
SOLID
 70
     1
 71
     1
 91
        1
 92
        7
 72
     0
 73
     1
 93
       11
 10
300.7683568485929
 20
185.6277441783258
 10
301.5056929141934
 20
185.4604176949358
 10
301.8846443762724
 20
185.9236017202458
 10
302.0265481082034
 20
185.342218040755
 10
302.7638680414836
 20
185.1748952183338
 10
302.4920335874227
 20
186.2886088110925
 10
303.9311708333707
 20
187.0140450753723
 10
303.19385090009
 20
187.1813678977934
 10
302.7990379365751
 20
187.0412448285597
 10
302.9575513312821
 20
187.2349922594923
 10
302.2202152656813
 20
187.4023187428823
 97
       11
330
100018DA
330
100018DC
330
100018DB
330
100018E2
330
1000180C
330
1000180B
330
100018DE
330
100018DD
330
100018E0
330
100018E1
330
100018E3
 75
     0
 76
     1
 47
0.0514683685270805
 98
        1
 10
301.9619420122291
 20
186.5582510843839
450
        0
451
        0
460
0.0
461
0.0
452
        0
462
0.0
453
        0
470

  0
LINE
  5
1000180F
330
F6
100
AcDbEntity
  8
外形線
  6
Continuous
100
AcDbLine
 10
296.0354915950386
 20
207.4087967623569
 30
0.0
 11
303.8361973755765
 21
205.6342575755587
 31
0.0
  0
LINE
  5
10001810
102
{ACAD_REACTORS
330
1000181E
102
}
330
F6
100
AcDbEntity
  8
ROGO
 62
     4
100
AcDbLine
 10
298.5382062622365
 20
188.2435075625585
 30
0.0
 11
299.2700520066907
 21
188.0774270186701
 31
0.0
  0
LINE
  5
10001811
102
{ACAD_REACTORS
330
10001821
102
}
330
F6
100
AcDbEntity
  8
ROGO
 62
     4
100
AcDbLine
 10
292.9261152474327
 20
188.4733661085268
 30
0.0
 11
292.714412554132
 21
188.2129735227895
 31
0.0
  0
LINE
  5
10001812
102
{ACAD_REACTORS
330
10001821
102
}
330
F6
100
AcDbEntity
  8
ROGO
 62
     4
100
AcDbLine
 10
290.9823687509609
 20
188.6060328239456
 30
0.0
 11
292.714412554132
 21
188.2129735227895
 31
0.0
  0
LINE
  5
10001813
102
{ACAD_REACTORS
330
1000181F
102
}
330
F6
100
AcDbEntity
  8
ROGO
 62
     4
100
AcDbLine
 10
289.3804828316339
 20
188.969554900483
 30
0.0
 11
288.8910591902998
 21
188.3231046008768
 31
0.0
  0
LINE
  5
10001814
330
F6
100
AcDbEntity
  8
ROGO
 62
     4
100
AcDbLine
 10
289.0134093979331
 20
188.5062388263797
 30
0.0
 11
300.9138839734623
 21
185.8056187776719
 31
0.0
  0
HATCH
  5
10001815
330
F6
100
AcDbEntity
  8
ROGO
 62
     4
100
AcDbHatch
 10
0.0
 20
0.0
 30
0.0
210
0.0
220
0.0
230
1.0
  2
SOLID
 70
     1
 71
     0
 91
        1
 92
        7
 72
     0
 73
     1
 93
        4
 10
289.0273191717323
 20
188.5030822284006
 10
288.8910591902998
 20
188.3231046008768
 10
300.7683568485928
 20
185.6277441783258
 10
300.9138839734625
 20
185.8056187776718
 97
        0
 75
     0
 76
     1
 47
0.0514683685270805
 98
        1
 10
296.5206820621597
 20
186.7468052688556
450
        0
451
        0
460
0.0
461
0.0
452
        0
462
0.0
453
        0
470

  0
HATCH
  5
10001816
330
F6
100
AcDbEntity
  8
ﾊｯﾁﾝｸ
  6
Continuous
100
AcDbHatch
 10
0.0
 20
0.0
 30
0.0
210
0.0
220
0.0
230
1.0
  2
SOLID
 70
     1
 71
     0
 91
        1
 92
        1
 93
        3
 72
     1
 10
298.8150140297648
 20
201.6487542780692
 11
294.5255345439668
 21
180.4875505818766
 72
     2
 10
293.7249573315141
 20
179.2190569370752
 40
1.499999999999999
 50
-662.2570206344874
 51
-623.3145793655086
 73
     1
 72
     1
 10
293.5503303117495
 20
180.7088573948441
 11
298.8150140297645
 21
201.6487542780683
 97
        0
 75
     0
 76
     1
 98
        1
 10
74.96973391273785
 20
243.4800747574588
450
        0
451
        0
460
0.0
461
0.0
452
        0
462
0.0
453
        0
470

  0
LINE
  5
10001817
330
F6
100
AcDbEntity
  8
針
  6
Continuous
100
AcDbLine
 10
298.8150140297645
 20
201.6487542780683
 30
0.0
 11
293.5503303117495
 21
180.7088573948441
 31
0.0
  0
LINE
  5
10001818
330
F6
100
AcDbEntity
  8
針
  6
Continuous
100
AcDbLine
 10
298.8150140297648
 20
201.6487542780692
 30
0.0
 11
294.5255345439666
 21
180.4875505818765
 31
0.0
  0
SPLINE
  5
10001819
102
{ACAD_REACTORS
330
10001822
102
}
330
F6
100
AcDbEntity
  8
ROGO
 62
     4
100
AcDbSpline
210
0.0
220
0.0
230
1.0
 70
     8
 71
     3
 72
    26
 73
    22
 74
    20
 42
0.0000000001
 43
0.0000000001
 44
0.0000000001
 40
0.0
 40
0.0
 40
0.0
 40
0.0
 40
0.2382195346593942
 40
0.3976890672663257
 40
0.5126795869788916
 40
0.598539287313538
 40
0.7099038249250209
 40
0.7911890807496706
 40
0.9379713068542915
 40
1.057449928672926
 40
1.138714535892943
 40
1.21839864400339
 40
1.36093802187026
 40
1.461730374800209
 40
1.516014844107845
 40
1.593124329220304
 40
1.648806818593568
 40
1.729472362005609
 40
1.775122082164098
 40
1.874460993765116
 40
1.91982000375105
 40
1.91982000375105
 40
1.91982000375105
 40
1.91982000375105
 10
296.5434214916308
 20
188.6905751885624
 30
0.0
 10
296.4635033946588
 20
188.7037646802086
 30
0.0
 10
296.3300863199931
 20
188.7257835152214
 30
0.0
 10
296.1656266000405
 20
188.6707802188842
 30
0.0
 10
296.0481485544537
 20
188.6437663969483
 30
0.0
 10
295.956877722304
 20
188.591514199146
 30
0.0
 10
295.8852528926353
 20
188.5324011561204
 30
0.0
 10
295.7960818538655
 20
188.4628376867612
 30
0.0
 10
295.7166018746861
 20
188.376306621996
 30
0.0
 10
295.6627463445165
 20
188.2732763622808
 30
0.0
 10
295.6172500213562
 20
188.1917445829346
 30
0.0
 10
295.576119588615
 20
188.0987164613275
 30
0.0
 10
295.5570967724757
 20
187.9924464043638
 30
0.0
 10
295.5418673213389
 20
187.8931949588593
 30
0.0
 10
295.5570151322239
 20
187.8164396144877
 30
0.0
 10
295.5810206841707
 20
187.7587947260964
 30
0.0
 10
295.6118018641935
 20
187.6943199879118
 30
0.0
 10
295.6508422062543
 20
187.6473853392536
 30
0.0
 10
295.6750419055287
 20
187.5729180522358
 30
0.0
 10
295.7415609633262
 20
187.5490208504096
 30
0.0
 10
295.7812698212754
 20
187.5224914016835
 30
0.0
 10
295.7937175085987
 20
187.5141751140929
 30
0.0
 11
296.5434214916308
 21
188.6905751885624
 31
0.0
 11
296.3057642953481
 21
188.706933787169
 31
0.0
 11
296.1508716265801
 21
188.6690023623103
 31
0.0
 11
296.0408697219465
 21
188.6355001146135
 31
0.0
 11
295.9656479161509
 21
188.5941048482849
 31
0.0
 11
295.8771610440713
 21
188.52648729356
 31
0.0
 11
295.8142738578949
 21
188.474984918573
 31
0.0
 11
295.7163230743488
 21
188.365665817301
 31
0.0
 11
295.6563073448718
 21
188.2623543789845
 31
0.0
 11
295.6180896950776
 21
188.1906372427419
 31
0.0
 11
295.586827755348
 21
188.1173416207056
 31
0.0
 11
295.5552828199097
 21
187.9783366161522
 31
0.0
 11
295.5471135646318
 21
187.8778758692042
 31
0.0
 11
295.5569407313964
 21
187.8244883200809
 31
0.0
 11
295.5844813759136
 21
187.7524648128497
 31
0.0
 11
295.6097980146886
 21
187.7028703834857
 31
0.0
 11
295.6528277312336
 21
187.6346400867839
 31
0.0
 11
295.672765511874
 21
187.5935745068697
 31
0.0
 11
295.7553075344021
 21
187.5383021460099
 31
0.0
 11
295.7937175085987
 21
187.5141751140929
 31
0.0
  0
LINE
  5
1000181A
102
{ACAD_REACTORS
330
10001820
102
}
330
F6
100
AcDbEntity
  8
ROGO
 62
     4
100
AcDbLine
 10
295.1647366784493
 20
189.0034453874522
 30
0.0
 11
295.4430151330973
 21
187.5937613407088
 31
0.0
  0
LINE
  5
1000181B
102
{ACAD_REACTORS
330
10001820
102
}
330
F6
100
AcDbEntity
  8
ROGO
 62
     4
100
AcDbLine
 10
294.140378756515
 20
189.2359068345542
 30
0.0
 11
292.9263164706247
 21
188.1648853594436
 31
0.0
  0
SPLINE
  5
1000181C
102
{ACAD_REACTORS
330
1000181E
102
}
330
F6
100
AcDbEntity
  8
ROGO
 62
     4
100
AcDbSpline
210
0.0
220
0.0
230
1.0
 70
     8
 71
     3
 72
    38
 73
    34
 74
    32
 42
0.0000000001
 43
0.0000000001
 44
0.0000000001
 40
0.0
 40
0.0
 40
0.0
 40
0.0
 40
0.1807680148264561
 40
0.237539291006816
 40
0.310486520960424
 40
0.3712759982445016
 40
0.4225667543870744
 40
0.4906925837205537
 40
0.5255021974950586
 40
0.5647069597052357
 40
0.6224874016815676
 40
0.6879401044673575
 40
0.730398631754726
 40
0.7765228362183933
 40
0.8277951442288873
 40
0.9056034696996475
 40
0.9795294930261341
 40
1.013897332332718
 40
1.053089255535661
 40
1.09951874188931
 40
1.132570569820301
 40
1.16027752029014
 40
1.199836786293463
 40
1.243305643168835
 40
1.286774258016579
 40
1.324809356515509
 40
1.411916492917288
 40
1.446284332224026
 40
1.515020051660903
 40
1.575779369908168
 40
1.692098529535816
 40
1.835624328518783
 40
2.042896467983714
 40
2.042896467983714
 40
2.042896467983714
 40
2.042896467983714
 10
298.5382062622365
 20
188.2435075625586
 30
0.0
 10
298.4785029246507
 20
188.2526914196093
 30
0.0
 10
298.4000493968268
 20
188.2647595218928
 30
0.0
 10
298.295907746934
 20
188.260147801166
 30
0.0
 10
298.2351998417373
 20
188.2402756084537
 30
0.0
 10
298.1742408000244
 20
188.2293757445005
 30
0.0
 10
298.1189141782491
 20
188.2053057700927
 30
0.0
 10
298.0668745814363
 20
188.198242569742
 30
0.0
 10
298.025942441122
 20
188.1735005248926
 30
0.0
 10
297.9825811676954
 20
188.1625531021939
 30
0.0
 10
297.9415826090457
 20
188.1253284548187
 30
0.0
 10
297.8975930090866
 20
188.0918086213235
 30
0.0
 10
297.8505982773413
 20
188.0707183854641
 30
0.0
 10
297.8104556890618
 20
188.0464761294269
 30
0.0
 10
297.7691249338169
 20
188.0043833696675
 30
0.0
 10
297.7364780138084
 20
187.9434008729756
 30
0.0
 10
297.6767391649826
 20
187.9137779087933
 30
0.0
 10
297.6579432741247
 20
187.8661284140122
 30
0.0
 10
297.6234442145418
 20
187.8433284891048
 30
0.0
 10
297.6027842459622
 20
187.8084793887215
 30
0.0
 10
297.5903479949861
 20
187.7750782188169
 30
0.0
 10
297.577503443253
 20
187.7441629565321
 30
0.0
 10
297.5553225377946
 20
187.7136087564397
 30
0.0
 10
297.5505680239421
 20
187.6707274078509
 30
0.0
 10
297.5400326961739
 20
187.6305500040617
 30
0.0
 10
297.5284233625481
 20
187.575716123917
 30
0.0
 10
297.5134839871214
 20
187.523153789113
 30
0.0
 10
297.5231799053831
 20
187.4600637748316
 30
0.0
 10
297.5249806009567
 20
187.4053804078985
 30
0.0
 10
297.5457727115677
 20
187.3255120322163
 30
0.0
 10
297.5909027747343
 20
187.228563709974
 30
0.0
 10
297.6895916639859
 20
187.1009222552548
 30
0.0
 10
297.804019894569
 20
187.064277943673
 30
0.0
 10
297.8716308511017
 20
187.0426263202502
 30
0.0
 11
298.5382062622365
 21
188.2435075625586
 31
0.0
 11
298.3583893865157
 21
188.2620269143369
 31
0.0
 11
298.3017495911731
 21
188.258165388383
 31
0.0
 11
298.2308960415792
 21
188.2408139369204
 31
0.0
 11
298.1718512443014
 21
188.2263545986614
 31
0.0
 11
298.1234130346775
 21
188.2094880188626
 31
0.0
 11
298.0578626509294
 21
188.1909333479452
 31
0.0
 11
298.0265363059048
 21
188.1757554258697
 31
0.0
 11
297.9899067950346
 21
188.161780723248
 31
0.0
 11
297.9431642751353
 21
188.12781432355
 31
0.0
 11
297.8899161687655
 21
188.0897525911933
 31
0.0
 11
297.8520841837089
 21
188.0704791004329
 31
0.0
 11
297.8130501946771
 21
188.0459069630071
 31
0.0
 11
297.7769138993446
 21
188.0095336523471
 31
0.0
 11
297.7294624303213
 21
187.9478692898669
 31
0.0
 11
297.6738089053672
 21
187.8992098397565
 31
0.0
 11
297.6559877285567
 21
187.8698235498291
 31
0.0
 11
297.6275599640923
 21
187.8428445014415
 31
0.0
 11
297.6020302564141
 21
187.8040639492416
 31
0.0
 11
297.5895118288003
 21
187.7734745344114
 31
0.0
 11
297.5781962384598
 21
187.7481835771424
 31
0.0
 11
297.5591726410254
 21
187.7134987351018
 31
0.0
 11
297.5495526868467
 21
187.6711077219074
 31
0.0
 11
297.539932786231
 21
187.6287169447392
 31
0.0
 11
297.531515359801
 21
187.5916249557103
 31
0.0
 11
297.5175786708527
 21
187.505639945893
 31
0.0
 11
297.5209699431765
 21
187.4714398340417
 31
0.0
 11
297.5277533746849
 21
187.4030396572622
 31
0.0
 11
297.5422444502009
 21
187.3440336958323
 31
0.0
 11
297.5907443010659
 21
187.2383080538973
 31
0.0
 11
297.682872304122
 21
187.1282531311243
 31
0.0
 11
297.8716308511017
 21
187.0426263202502
 31
0.0
  0
LINE
  5
1000181D
102
{ACAD_REACTORS
330
10001822
102
}
330
F6
100
AcDbEntity
  8
ROGO
 62
     4
100
AcDbLine
 10
297.8258504979721
 20
188.3995486867546
 30
0.0
 11
297.4801469373335
 21
187.977002839057
 31
0.0
  0
HATCH
  5
1000181E
330
F6
100
AcDbEntity
  8
ROGO
 62
     4
100
AcDbHatch
 10
0.0
 20
0.0
 30
0.0
210
0.0
220
0.0
230
1.0
  2
SOLID
 70
     1
 71
     1
 91
        2
 92
        5
 93
        6
 72
     4
 94
        3
 73
     0
 74
     0
 95
       38
 96
       34
 40
0.0
 40
0.0
 40
0.0
 40
0.0
 40
0.1807680148264561
 40
0.237539291006816
 40
0.310486520960424
 40
0.3712759982445016
 40
0.4225667543870744
 40
0.4906925837205537
 40
0.5255021974950586
 40
0.5647069597052357
 40
0.6224874016815676
 40
0.6879401044673575
 40
0.730398631754726
 40
0.7765228362183933
 40
0.8277951442288873
 40
0.9056034696996475
 40
0.9795294930261341
 40
1.013897332332718
 40
1.053089255535661
 40
1.09951874188931
 40
1.132570569820301
 40
1.16027752029014
 40
1.199836786293463
 40
1.243305643168835
 40
1.286774258016579
 40
1.324809356515509
 40
1.411916492917288
 40
1.446284332224026
 40
1.515020051660903
 40
1.575779369908168
 40
1.692098529535816
 40
1.835624328518783
 40
2.042896467983714
 40
2.042896467983714
 40
2.042896467983714
 40
2.042896467983714
 10
298.5382062622365
 20
188.2435075625586
 10
298.4785029246507
 20
188.2526914196093
 10
298.4000493968268
 20
188.2647595218928
 10
298.295907746934
 20
188.260147801166
 10
298.2351998417373
 20
188.2402756084537
 10
298.1742408000244
 20
188.2293757445005
 10
298.1189141782491
 20
188.2053057700927
 10
298.0668745814363
 20
188.198242569742
 10
298.025942441122
 20
188.1735005248926
 10
297.9825811676954
 20
188.1625531021939
 10
297.9415826090457
 20
188.1253284548187
 10
297.8975930090866
 20
188.0918086213235
 10
297.8505982773413
 20
188.0707183854641
 10
297.8104556890618
 20
188.0464761294269
 10
297.7691249338169
 20
188.0043833696675
 10
297.7364780138084
 20
187.9434008729756
 10
297.6767391649826
 20
187.9137779087933
 10
297.6579432741247
 20
187.8661284140122
 10
297.6234442145418
 20
187.8433284891048
 10
297.6027842459622
 20
187.8084793887215
 10
297.5903479949861
 20
187.7750782188169
 10
297.577503443253
 20
187.7441629565321
 10
297.5553225377946
 20
187.7136087564397
 10
297.5505680239421
 20
187.6707274078509
 10
297.5400326961739
 20
187.6305500040617
 10
297.5284233625481
 20
187.575716123917
 10
297.5134839871214
 20
187.523153789113
 10
297.5231799053831
 20
187.4600637748316
 10
297.5249806009567
 20
187.4053804078985
 10
297.5457727115677
 20
187.3255120322163
 10
297.5909027747343
 20
187.228563709974
 10
297.6895916639859
 20
187.1009222552548
 10
297.804019894569
 20
187.064277943673
 10
297.8716308511017
 20
187.0426263202502
 72
     1
 10
297.8716308511015
 20
187.0426263202505
 11
298.6034765955554
 21
186.8765457763619
 72
     4
 94
        3
 73
     0
 74
     0
 95
       11
 96
        7
 40
0.1647869275458135
 40
0.1647869275458135
 40
0.1647869275458135
 40
0.1647869275458135
 40
0.2545010798212315
 40
0.5111620267764023
 40
0.7602998271033902
 40
0.8850764140209603
 40
0.8850764140209603
 40
0.8850764140209603
 40
0.8850764140209603
 10
298.6034765955557
 20
186.8765457763619
 10
298.6136441738901
 20
186.8740314620073
 10
298.6528999196699
 20
186.8643240093699
 10
298.7224799688016
 20
186.8587128684887
 10
298.795481271874
 20
186.8519006632784
 10
298.8392807324699
 20
186.8490648170433
 10
298.8537737564885
 20
186.8497657243383
 72
     4
 94
        3
 73
     0
 74
     0
 95
        9
 96
        5
 40
0.0
 40
0.0
 40
0.0
 40
0.0
 40
0.113579334354931
 40
0.2662938392175417
 40
0.2662938392175417
 40
0.2662938392175417
 40
0.2662938392175417
 10
298.8537737564885
 20
186.8497657243383
 10
298.8918243538338
 20
186.8525769132182
 10
298.9810363544953
 20
186.8591679210266
 10
299.0622015615242
 20
186.8974674927974
 10
299.1087482801411
 20
186.91943157637
 72
     4
 94
        3
 73
     0
 74
     0
 95
       25
 96
       21
 40
0.0
 40
0.0
 40
0.0
 40
0.0
 40
0.165525918914855
 40
0.3412380755365305
 40
0.5940540902285263
 40
0.7697671103696209
 40
0.9377330196075423
 40
1.11479469302833
 40
1.274661249598185
 40
1.574522170874768
 40
1.815540668866877
 40
2.15849091873445
 40
2.536227739636605
 40
2.738070817316548
 40
2.925680654369045
 40
3.162706124480894
 40
3.395643218188267
 40
3.648478129958861
 40
3.928509979727306
 40
4.337226830236035
 40
4.337226830236035
 40
4.337226830236035
 40
4.337226830236035
 10
299.1087482801411
 20
186.91943157637
 10
299.125995228941
 20
186.928137318606
 10
299.1600197924563
 20
186.9504303468654
 10
299.2193776027638
 20
186.9856066303368
 10
299.2746650448264
 20
187.0297371636467
 10
299.33769063151
 20
187.0613693491213
 10
299.3774606927587
 20
187.1085029026096
 10
299.4268481042269
 20
187.141462870178
 10
299.4750016649453
 20
187.1987477640386
 10
299.5202774833158
 20
187.2668277783398
 10
299.5693623934602
 20
187.3578225215359
 10
299.6045924977537
 20
187.4650496925117
 10
299.6133129961561
 20
187.5745480141904
 10
299.5942424379011
 20
187.6622013868708
 10
299.5819881365449
 20
187.7344256171576
 10
299.5548412566375
 20
187.8063612085279
 10
299.5231143635252
 20
187.8850987502629
 10
299.469436404874
 20
187.9564533014141
 10
299.3979983502685
 20
188.044037434812
 10
299.3177016359147
 20
188.0649921084858
 10
299.2700520066907
 20
188.0774270186701
 72
     1
 10
299.2700520066907
 20
188.0774270186701
 11
298.5382062622361
 21
188.2435075625586
 97
        6
330
10001878
330
10001810
330
1000181C
330
10001876
330
10001875
330
10001874
 92
       20
 93
        1
 72
     3
 10
298.5564096783631
 20
187.5444493451047
 11
0.2085602840532375
 21
0.1134360134565419
 40
0.6788083417438788
 50
0.0
 51
360.0
 73
     1
 97
        1
330
10001873
 75
     0
 76
     1
 47
0.088756267210375
 98
        2
 10
298.6769177490945
 20
187.8385600593308
 10
298.6769177490945
 20
187.8385600593308
450
        0
451
        0
460
0.0
461
0.0
452
        0
462
0.0
453
        0
470

  0
HATCH
  5
1000181F
330
F6
100
AcDbEntity
  8
ROGO
 62
     4
100
AcDbHatch
 10
0.0
 20
0.0
 30
0.0
210
0.0
220
0.0
230
1.0
  2
SOLID
 70
     1
 71
     1
 91
        2
 92
        5
 93
        6
 72
     1
 10
287.9609084613777
 20
188.5341872506403
 11
288.8910591902998
 21
188.3231046008768
 72
     1
 10
288.8910591902998
 20
188.3231046008768
 11
289.3804828316339
 21
188.969554900483
 72
     1
 10
289.3804828316339
 20
188.969554900483
 11
290.2499829882354
 21
188.7722359162384
 72
     4
 94
        3
 73
     0
 74
     0
 95
       18
 96
       14
 40
0.108740278791501
 40
0.108740278791501
 40
0.108740278791501
 40
0.108740278791501
 40
0.6623149649549278
 40
1.384304701649787
 40
2.097394834876493
 40
2.774073369849618
 40
3.428974823686337
 40
4.005208313035923
 40
4.455173659284313
 40
4.720999734343524
 40
5.086034088486724
 40
5.569973738255373
 40
6.060470601257719
 40
6.060470601257719
 40
6.060470601257719
 40
6.060470601257719
 10
290.2499829882355
 20
188.7722359162384
 10
290.3112803849284
 20
188.7588046251902
 10
290.4525237986709
 20
188.7278558165791
 10
290.6737039115224
 20
188.7884730377477
 10
290.8912335821177
 20
188.8802726621327
 10
291.0799647409054
 20
189.0138134479914
 10
291.2173546426615
 20
189.1842842178437
 10
291.2736045507037
 20
189.3647814325584
 10
291.2977200001792
 20
189.512176835635
 10
291.2572896439601
 20
189.6279046512621
 10
291.2146887913536
 20
189.745712421468
 10
291.113994753453
 20
189.8622383579334
 10
291.0237837592097
 20
189.923753881517
 10
290.9775950185862
 20
189.9536494017238
 72
     1
 10
290.9775950185862
 20
189.9536494017238
 11
289.40507983932
 21
190.3105062642858
 72
     1
 10
289.40507983932
 20
190.3105062642858
 11
287.9609084613777
 21
188.5341872506403
 97
        6
330
100018AD
330
100018A4
330
100018A3
330
1000180B
330
10001813
330
100018A8
 92
       20
 93
        4
 72
     1
 10
289.6826742233038
 20
189.3687013641701
 11
289.9140394810935
 21
189.6742978404843
 72
     1
 10
289.9140394810935
 20
189.6742978404843
 11
290.3099597208386
 21
189.584450151608
 72
     4
 94
        3
 73
     0
 74
     0
 95
       15
 96
       11
 40
0.0
 40
0.0
 40
0.0
 40
0.0
 40
0.1539705029172196
 40
0.2241725832585449
 40
0.3038566179395171
 40
0.3581410872474577
 40
0.4439925384670227
 40
0.4954152125467389
 40
0.5836396705644265
 40
0.6130478420062997
 40
0.6130478420062997
 40
0.6130478420062997
 40
0.6130478420062997
 10
290.3099597208385
 20
189.5844501516079
 10
290.3664127787063
 20
189.5719106637012
 10
290.4486053258194
 20
189.5536538590307
 10
290.4704555157552
 20
189.4418978839985
 10
290.4354896516564
 20
189.3810719372569
 10
290.3949537290304
 20
189.3196749124872
 10
290.3398899236139
 20
189.2841997075616
 10
290.269909819531
 20
189.2538763569699
 10
290.2119919408912
 20
189.2614266563157
 10
290.1728901376855
 20
189.2600238752774
 10
290.1631146822048
 20
189.2596731798499
 72
     1
 10
290.1631146822045
 20
189.2596731798498
 11
289.6826742233038
 21
189.3687013641701
 97
        4
330
100018AC
330
100018AB
330
100018A9
330
100018AA
 75
     0
 76
     1
 47
0.0514683685270805
 98
        2
 10
289.2722491691219
 20
189.6862345430496
 10
289.2722491691219
 20
189.6862345430496
450
        0
451
        0
460
0.0
461
0.0
452
        0
462
0.0
453
        0
470

  0
HATCH
  5
10001820
330
F6
100
AcDbEntity
  8
ROGO
 62
     4
100
AcDbHatch
 10
0.0
 20
0.0
 30
0.0
210
0.0
220
0.0
230
1.0
  2
SOLID
 70
     1
 71
     1
 91
        2
 92
        7
 72
     0
 73
     1
 93
        8
 10
295.1647366784493
 20
189.0034453874522
 10
294.140378756515
 20
189.2359068345542
 10
292.9263164706247
 20
188.1648853594436
 10
293.6355310683425
 20
188.0039405879324
 10
293.8666810159325
 20
188.207856450172
 10
294.6759805676146
 20
188.024199018629
 10
294.7289630636158
 20
187.7558038981229
 10
295.4430151330973
 20
187.5937613407089
 97
        8
330
100018B2
330
1000181B
330
10001865
330
1000186E
330
1000186F
330
1000186D
330
1000186C
330
1000181A
 92
       22
 72
     0
 73
     1
 93
        3
 10
294.5250695709021
 20
188.7886736697944
 10
294.6200983314038
 20
188.3072834456376
 10
294.1104818359446
 20
188.4229326591251
 97
        3
330
100018B5
330
100018B6
330
100018B4
 75
     0
 76
     1
 47
0.0128389261915577
 98
        2
 10
295.0148004366068
 20
188.7144187449633
 10
295.0148004366068
 20
188.7144187449633
450
        0
451
        0
460
0.0
461
0.0
452
        0
462
0.0
453
        0
470

  0
HATCH
  5
10001821
330
F6
100
AcDbEntity
  8
ROGO
 62
     4
100
AcDbHatch
 10
0.0
 20
0.0
 30
0.0
210
0.0
220
0.0
230
1.0
  2
SOLID
 70
     1
 71
     1
 91
        1
 92
        1
 93
       12
 72
     1
 10
291.9065979684717
 20
189.7428272218311
 11
293.6386417716428
 21
189.349767920675
 72
     1
 10
293.6386417716426
 20
189.349767920675
 11
293.426928428925
 21
189.0893622362418
 72
     1
 10
293.426928428925
 20
189.0893622362418
 11
292.5166099737542
 21
189.2959442725416
 72
     1
 10
292.5166099737542
 20
189.2959442725416
 11
292.3510764484593
 21
189.0923393868138
 72
     1
 10
292.3510764484593
 20
189.0923393868138
 11
293.2613949036301
 21
188.885757350514
 72
     1
 10
293.2613949036301
 20
188.885757350514
 11
293.0916557806215
 21
188.6769796139068
 72
     1
 10
293.0916557806215
 20
188.6769796139068
 11
292.1813373254503
 21
188.8835616502062
 72
     1
 10
292.1813373254503
 20
188.8835616502062
 11
292.0157967922616
 21
188.6799481448262
 72
     1
 10
292.0157967922618
 20
188.6799481448263
 11
292.9261152474327
 21
188.4733661085268
 72
     1
 10
292.9261152474327
 20
188.4733661085268
 11
292.714412554132
 21
188.2129735227895
 72
     1
 10
292.714412554132
 20
188.2129735227895
 11
290.9823687509609
 21
188.6060328239456
 72
     1
 10
290.9823687509609
 20
188.6060328239456
 11
291.9065979684717
 21
189.7428272218311
 97
       12
330
1000189F
330
100018B7
330
100018A2
330
100018A7
330
100018A1
330
100018B3
330
100018A0
330
100018A5
330
100018A6
330
10001811
330
10001812
330
100018AE
 75
     0
 76
     1
 98
        1
 10
200.963647457397
 20
117.2741081844059
450
        0
451
        0
460
0.0
461
0.0
452
        0
462
0.0
453
        0
470

  0
HATCH
  5
10001822
330
F6
100
AcDbEntity
  8
ROGO
 62
     4
100
AcDbHatch
 10
0.0
 20
0.0
 30
0.0
210
0.0
220
0.0
230
1.0
  2
SOLID
 70
     1
 71
     1
 91
        1
 92
        5
 93
        8
 72
     1
 10
297.4801469373336
 20
187.977002839057
 11
297.8258504979722
 21
188.3995486867547
 72
     1
 10
297.8258504979722
 20
188.3995486867547
 11
296.5434214916307
 21
188.6905751885624
 72
     4
 94
        3
 73
     0
 74
     0
 95
       26
 96
       22
 40
0.0
 40
0.0
 40
0.0
 40
0.0
 40
0.2382195346593942
 40
0.3976890672663257
 40
0.5126795869788916
 40
0.598539287313538
 40
0.7099038249250209
 40
0.7911890807496706
 40
0.9379713068542915
 40
1.057449928672926
 40
1.138714535892943
 40
1.21839864400339
 40
1.36093802187026
 40
1.461730374800209
 40
1.516014844107845
 40
1.593124329220304
 40
1.648806818593568
 40
1.729472362005609
 40
1.775122082164098
 40
1.874460993765116
 40
1.91982000375105
 40
1.91982000375105
 40
1.91982000375105
 40
1.91982000375105
 10
296.5434214916308
 20
188.6905751885624
 10
296.4635033946588
 20
188.7037646802086
 10
296.3300863199931
 20
188.7257835152214
 10
296.1656266000405
 20
188.6707802188842
 10
296.0481485544537
 20
188.6437663969483
 10
295.956877722304
 20
188.591514199146
 10
295.8852528926353
 20
188.5324011561204
 10
295.7960818538655
 20
188.4628376867612
 10
295.7166018746861
 20
188.376306621996
 10
295.6627463445165
 20
188.2732763622808
 10
295.6172500213562
 20
188.1917445829346
 10
295.576119588615
 20
188.0987164613275
 10
295.5570967724757
 20
187.9924464043638
 10
295.5418673213389
 20
187.8931949588593
 10
295.5570151322239
 20
187.8164396144877
 10
295.5810206841707
 20
187.7587947260964
 10
295.6118018641935
 20
187.6943199879118
 10
295.6508422062543
 20
187.6473853392536
 10
295.6750419055287
 20
187.5729180522358
 10
295.7415609633262
 20
187.5490208504096
 10
295.7812698212754
 20
187.5224914016835
 10
295.7937175085987
 20
187.5141751140929
 72
     1
 10
295.7937175085988
 20
187.5141751140927
 11
296.8967017907912
 21
187.2638706874082
 72
     1
 10
296.8967017907912
 20
187.2638706874082
 11
297.2424016905234
 21
187.6864120604609
 72
     1
 10
297.2424016905234
 20
187.6864120604609
 11
296.4235412052568
 21
187.8722391910991
 72
     4
 94
        3
 73
     0
 74
     0
 95
       16
 96
       12
 40
0.0
 40
0.0
 40
0.0
 40
0.0
 40
0.0719416665236223
 40
0.1446253590762001
 40
0.1879779149915567
 40
0.229544093610651
 40
0.2751936323961039
 40
0.3070718656053911
 40
0.3373215422373977
 40
0.3986635435216245
 40
0.5242542460843719
 40
0.5242542460843719
 40
0.5242542460843719
 40
0.5242542460843719
 10
296.4235412052568
 20
187.872239191099
 10
296.4004906196695
 20
187.8851114114067
 10
296.3541516984493
 20
187.9109886196235
 10
296.3660672752117
 20
187.9827507064843
 10
296.3831808220795
 20
188.0319302781668
 10
296.4152288829107
 20
188.0632906081378
 10
296.4500604008646
 20
188.0834968358751
 10
296.4686718653286
 20
188.1158830266375
 10
296.5061203367752
 20
188.1350296523734
 10
296.5719751777125
 20
188.166552261683
 10
296.6358452556899
 20
188.1619544779905
 10
296.6787563557856
 20
188.1588654578657
 72
     1
 10
296.6787563557859
 20
188.1588654578658
 11
297.4801469373336
 21
187.977002839057
 97
        8
330
100018B1
330
10001819
330
10001870
330
1000186A
330
1000186B
330
10001871
330
10001869
330
1000181D
 75
     0
 76
     1
 47
0.0514683685270805
 98
        1
 10
296.9272416663889
 20
188.3037193244144
450
        0
451
        0
460
0.0
461
0.0
452
        0
462
0.0
453
        0
470

  0
LINE
  5
10001823
330
F6
100
AcDbEntity
  8
目盛
100
AcDbLine
 10
272.9458011982736
 20
189.0794154696246
 30
0.0
 11
274.7526843402946
 21
188.2219929885333
 31
0.0
  0
TEXT
  5
10001824
330
F6
100
AcDbEntity
  8
文字
100
AcDbText
 10
276.6246474996922
 20
187.8772956767021
 30
0.0
 40
2.0
  1
.4
 50
347.2142000000002
  7
STYLE3
100
AcDbText
  0
LINE
  5
10001825
330
F6
100
AcDbEntity
  8
目盛
100
AcDbLine
 10
283.9195173086385
 20
169.6130485415034
 30
0.0
 11
284.4174482616117
 21
169.6584882385874
 31
0.0
  0
LINE
  5
10001826
330
F6
100
AcDbEntity
  8
中心線
 48
0.2
100
AcDbLine
 10
281.8631467464276
 20
171.5848606759854
 30
0.0
 11
296.0309015912949
 21
168.3697180750423
 31
0.0
  0
CIRCLE
  5
10001827
330
F6
100
AcDbEntity
  8
外形線
100
AcDbCircle
 10
288.6498613618846
 20
170.0447256638026
 30
0.0
 40
4.75
  0
LINE
  5
10001828
330
F6
100
AcDbEntity
  8
目盛
100
AcDbLine
 10
270.8201334947421
 20
177.1288308712046
 30
0.0
 11
273.8077192125819
 21
177.4014690537095
 31
0.0
  0
TEXT
  5
10001829
330
F6
100
AcDbEntity
  8
文字
100
AcDbText
 10
275.3805632283968
 20
171.5767917573173
 30
0.0
 40
2.0
  1
.7
 50
347.2142000000002
  7
STYLE3
100
AcDbText
  0
LINE
  5
1000182A
330
F6
100
AcDbEntity
  8
目盛
100
AcDbLine
 10
274.6602812850591
 20
166.3528948347336
 30
0.0
 11
276.3180792021421
 21
167.471691539285
 31
0.0
  0
LINE
  5
1000182B
330
F6
100
AcDbEntity
  8
目盛
100
AcDbLine
 10
274.2655526337778
 20
166.9580794552537
 30
0.0
 11
276.8037358552218
 21
168.5573373876653
 31
0.0
  0
LINE
  5
1000182C
330
F6
100
AcDbEntity
  8
目盛
100
AcDbLine
 10
275.0738244698916
 20
165.7604075628582
 30
0.0
 11
276.6956621100326
 21
166.9307248997467
 31
0.0
  0
LINE
  5
1000182D
330
F6
100
AcDbEntity
  8
目盛
100
AcDbLine
 10
272.3127541115082
 20
170.8215839085277
 30
0.0
 11
274.1746848262914
 21
171.5517989544884
 31
0.0
  0
LINE
  5
1000182E
330
F6
100
AcDbEntity
  8
目盛
100
AcDbLine
 10
272.5870907433991
 20
170.1531539978719
 30
0.0
 11
275.3442037766312
 21
171.3356630768986
 31
0.0
  0
LINE
  5
1000182F
330
F6
100
AcDbEntity
  8
目盛
100
AcDbLine
 10
273.1980542501791
 20
168.8437858616049
 30
0.0
 11
274.983002344208
 21
169.7459833464285
 31
0.0
  0
LINE
  5
10001830
330
F6
100
AcDbEntity
  8
目盛
100
AcDbLine
 10
273.8900280655717
 20
167.5753641802623
 30
0.0
 11
275.6148045234795
 21
168.5878592025938
 31
0.0
  0
LINE
  5
10001831
330
F6
100
AcDbEntity
  8
目盛
100
AcDbLine
 10
273.53407817785
 20
168.2041398242621
 30
0.0
 11
275.2898067999077
 21
169.1619587036372
 31
0.0
  0
LINE
  5
10001832
330
F6
100
AcDbEntity
  8
目盛
100
AcDbLine
 10
272.8822878976061
 20
169.493671038878
 30
0.0
 11
274.6946939353374
 21
170.3393567691561
 31
0.0
  0
LINE
  5
10001833
330
F6
100
AcDbEntity
  8
目盛
100
AcDbLine
 10
270.8970912300127
 20
176.4104043683266
 30
0.0
 11
272.8821230649259
 21
176.6546350264786
 31
0.0
  0
LINE
  5
10001834
330
F6
100
AcDbEntity
  8
目盛
100
AcDbLine
 10
271.2627196637503
 20
174.2745772923708
 30
0.0
 11
273.2159577218168
 21
174.7045320440844
 31
0.0
  0
LINE
  5
10001835
330
F6
100
AcDbEntity
  8
目盛
100
AcDbLine
 10
271.6175102044707
 20
172.8739185205409
 30
0.0
 11
273.53989691117
 21
173.4256696871959
 31
0.0
  0
LINE
  5
10001836
330
F6
100
AcDbEntity
  8
目盛
100
AcDbLine
 10
271.1184935632032
 20
174.9825730303365
 30
0.0
 11
273.0842730213173
 21
175.3509629352701
 31
0.0
  0
LINE
  5
10001837
330
F6
100
AcDbEntity
  8
目盛
100
AcDbLine
 10
271.4291132809762
 20
173.5714611588608
 30
0.0
 11
274.3372668527856
 21
174.3081040864542
 31
0.0
  0
LINE
  5
10001838
330
F6
100
AcDbEntity
  8
目盛
100
AcDbLine
 10
271.8277245092145
 20
172.1826377677807
 30
0.0
 11
273.7318317111536
 21
172.7945003042411
 31
0.0
  0
LINE
  5
10001839
330
F6
100
AcDbEntity
  8
目盛
100
AcDbLine
 10
272.0595487390694
 20
171.4983011112232
 30
0.0
 11
273.9434973123254
 21
172.1696711830364
 31
0.0
  0
LINE
  5
1000183A
330
F6
100
AcDbEntity
  8
目盛
100
AcDbLine
 10
270.9965773130842
 20
175.6947496664406
 30
0.0
 11
272.9729581842522
 21
176.0012111682349
 31
0.0
  0
TEXT
  5
1000183B
330
F6
100
AcDbEntity
  8
文字
100
AcDbText
 10
278.0378284034723
 20
167.2377178103779
 30
0.0
 40
2.0
  1
.8
 50
347.2142000000002
  7
STYLE3
100
AcDbText
  0
TEXT
  5
1000183C
330
F6
100
AcDbEntity
  8
文字
100
AcDbText
 10
274.1884982716933
 20
182.7259880466803
 30
0.0
 40
2.0
  1
.5
 50
347.2142000000002
  7
STYLE3
100
AcDbText
  0
TEXT
  5
1000183D
330
F6
100
AcDbEntity
  8
文字
100
AcDbText
 10
274.0809761697298
 20
177.5661775513096
 30
0.0
 40
2.0
  1
.6
 50
347.2142000000002
  7
STYLE3
100
AcDbText
  0
LINE
  5
1000183E
330
F6
100
AcDbEntity
  8
目盛
100
AcDbLine
 10
270.7387700803183
 20
180.0160485637376
 30
0.0
 11
272.7375689717267
 21
179.946744944028
 31
0.0
  0
LINE
  5
1000183F
330
F6
100
AcDbEntity
  8
目盛
100
AcDbLine
 10
270.7340845518648
 20
178.5711612433172
 30
0.0
 11
272.7332908805301
 21
178.6274999992963
 31
0.0
  0
LINE
  5
10001840
330
F6
100
AcDbEntity
  8
目盛
100
AcDbLine
 10
270.7250782641762
 20
179.293641706609
 30
0.0
 11
272.7250677482927
 21
179.2871560744758
 31
0.0
  0
LINE
  5
10001841
330
F6
100
AcDbEntity
  8
目盛
100
AcDbLine
 10
270.7657800552651
 20
177.849320174854
 30
0.0
 11
272.7622302531998
 21
177.9684277193951
 31
0.0
  0
LINE
  5
10001842
330
F6
100
AcDbEntity
  8
目盛
100
AcDbLine
 10
270.8341715884624
 20
181.4577905223185
 30
0.0
 11
272.8246746965538
 21
181.2631180366451
 31
0.0
  0
LINE
  5
10001843
330
F6
100
AcDbEntity
  8
目盛
100
AcDbLine
 10
271.0199125701285
 20
182.8906972222186
 30
0.0
 11
272.9942642885098
 21
182.5714241539451
 31
0.0
  0
LINE
  5
10001844
330
F6
100
AcDbEntity
  8
目盛
100
AcDbLine
 10
270.9157871306933
 20
182.1757027985213
 30
0.0
 11
272.8991932351127
 21
181.9186031583955
 31
0.0
  0
LINE
  5
10001845
330
F6
100
AcDbEntity
  8
目盛
100
AcDbLine
 10
270.7751464881211
 20
180.737668886353
 30
0.0
 11
273.7686000763897
 21
180.539589066882
 31
0.0
  0
LINE
  5
10001846
330
F6
100
AcDbEntity
  8
目盛
100
AcDbLine
 10
271.6591271791621
 20
185.7074419200711
 30
0.0
 11
273.5778950184972
 21
185.1432345302455
 31
0.0
  0
LINE
  5
10001847
330
F6
100
AcDbEntity
  8
目盛
100
AcDbLine
 10
272.3676670813516
 20
187.7552242954585
 30
0.0
 11
275.1534005922425
 21
186.6418111617563
 31
0.0
  0
LINE
  5
10001848
330
F6
100
AcDbEntity
  8
目盛
100
AcDbLine
 10
271.8738204318293
 20
186.3973447685327
 30
0.0
 11
273.7739192926716
 21
185.7731458266668
 31
0.0
  0
LINE
  5
10001849
330
F6
100
AcDbEntity
  8
目盛
100
AcDbLine
 10
272.110078118497
 20
187.0801635135494
 30
0.0
 11
273.9896328326725
 21
186.3965890286386
 31
0.0
  0
LINE
  5
1000184A
330
F6
100
AcDbEntity
  8
目盛
100
AcDbLine
 10
271.29525999052
 20
184.309113635326
 30
0.0
 11
274.2208726871715
 21
183.6451931964238
 31
0.0
  0
LINE
  5
1000184B
330
F6
100
AcDbEntity
  8
目盛
100
AcDbLine
 10
271.4662102368154
 20
185.0111358189838
 30
0.0
 11
273.4017534624414
 21
184.5074767857744
 31
0.0
  0
LINE
  5
1000184C
330
F6
100
AcDbEntity
  8
目盛
100
AcDbLine
 10
271.1464451475298
 20
183.6020681802372
 30
0.0
 11
273.1097940330938
 21
183.2209367677883
 31
0.0
  0
LINE
  5
1000184D
330
F6
100
AcDbEntity
  8
目盛
100
AcDbLine
 10
272.6463331111865
 20
188.4218609107684
 30
0.0
 11
274.4792569564324
 21
187.621617086969
 31
0.0
  0
LINE
  5
1000184E
330
F6
100
AcDbEntity
  8
目盛
100
AcDbLine
 10
292.7305235364414
 20
167.6135333190584
 30
0.0
 11
292.300980149646
 21
167.8694483027155
 31
0.0
  0
CIRCLE
  5
1000184F
330
F6
100
AcDbEntity
  8
外形線
100
AcDbCircle
 10
288.6498613618846
 20
170.0447256638026
 30
0.0
 40
1.149999999999999
  0
LINE
  5
10001850
330
F6
100
AcDbEntity
  8
目盛
100
AcDbLine
 10
287.5986540002896
 20
165.4125055607713
 30
0.0
 11
287.7093074067735
 21
165.9001076768797
 31
0.0
  0
TEXT
  5
10001851
330
F6
100
AcDbEntity
  8
文字
100
AcDbText
 10
285.7732143811185
 20
167.5480005046155
 30
0.0
 40
0.7
  1
2
 50
347.2142000000002
  7
STYLE3
100
AcDbText
  0
TEXT
  5
10001852
330
F6
100
AcDbEntity
  8
文字
100
AcDbText
 10
287.5167547828019
 20
166.5554751066431
 30
0.0
 40
0.7
  1
0
 50
347.2142000000002
  7
STYLE3
100
AcDbText
  0
TEXT
  5
10001853
330
F6
100
AcDbEntity
  8
文字
100
AcDbText
 10
285.0117277779836
 20
169.5093761691149
 30
0.0
 40
0.7
  1
4
 50
347.2142000000002
  7
STYLE3
100
AcDbText
  0
LINE
  5
10001854
330
F6
100
AcDbEntity
  8
目盛
100
AcDbLine
 10
285.0766660798076
 20
166.915065063012
 30
0.0
 11
285.4527918989735
 21
167.2445030209901
 31
0.0
  0
TEXT
  5
10001855
330
F6
100
AcDbEntity
  8
文字
100
AcDbText
 10
291.1384795086444
 20
167.9170298086604
 30
0.0
 40
0.7
  1
6
 50
347.2142000000002
  7
STYLE3
100
AcDbText
  0
TEXT
  5
10001856
330
F6
100
AcDbEntity
  8
文字
100
AcDbText
 10
289.5202332666364
 20
166.7923044058419
 30
0.0
 40
0.7
  1
8
 50
347.2142000000002
  7
STYLE3
100
AcDbText
  0
TEXT
  5
10001857
330
F6
100
AcDbEntity
  8
文字
100
AcDbText
 10
291.6238773720369
 20
170.0709084454654
 30
0.0
 40
0.7
  1
4
 50
347.2142000000002
  7
STYLE3
100
AcDbText
  0
LINE
  5
10001858
330
F6
100
AcDbEntity
  8
目盛
100
AcDbLine
 10
290.522167403677
 20
165.6792966945182
 30
0.0
 11
290.3250825571725
 21
166.1388155333902
 31
0.0
  0
TEXT
  5
10001859
330
F6
100
AcDbEntity
  8
文字
100
AcDbText
 10
287.1097592107529
 20
172.7683743184813
 30
0.0
 40
0.7
  1
8
 50
347.2142000000002
  7
STYLE3
100
AcDbText
  0
LINE
  5
1000185A
330
F6
100
AcDbEntity
  8
目盛
100
AcDbLine
 10
286.7775553200929
 20
174.4101546330873
 30
0.0
 11
286.9746401665972
 21
173.9506357942154
 31
0.0
  0
TEXT
  5
1000185B
330
F6
100
AcDbEntity
  8
文字
100
AcDbText
 10
285.5529597510244
 20
171.5595982776574
 30
0.0
 40
0.7
  1
6
 50
347.2142000000002
  7
STYLE3
100
AcDbText
  0
LINE
  5
1000185C
330
F6
100
AcDbEntity
  8
目盛
100
AcDbLine
 10
284.5691991873285
 20
172.4759180085473
 30
0.0
 11
284.9987425741242
 21
172.2200030248899
 31
0.0
  0
LINE
  5
1000185D
330
F6
100
AcDbEntity
  8
目盛
100
AcDbLine
 10
292.223056643962
 20
173.1743862645935
 30
0.0
 11
291.8469308247962
 21
172.8449483066155
 31
0.0
  0
TEXT
  5
1000185E
330
F6
100
AcDbEntity
  8
文字
100
AcDbText
 10
289.0031044417487
 20
173.1100308019715
 30
0.0
 40
0.7
  1
0
 50
347.2142000000002
  7
STYLE3
100
AcDbText
  0
TEXT
  5
1000185F
330
F6
100
AcDbEntity
  8
文字
100
AcDbText
 10
290.695450248472
 20
172.0165478485093
 30
0.0
 40
0.7
  1
2
 50
347.2142000000002
  7
STYLE3
100
AcDbText
  0
LINE
  5
10001860
330
F6
100
AcDbEntity
  8
目盛
100
AcDbLine
 10
289.70106872348
 20
174.6769457668342
 30
0.0
 11
289.5904153169963
 21
174.1893436507255
 31
0.0
  0
HATCH
  5
10001861
330
F6
100
AcDbEntity
  8
ﾊｯﾁﾝｸ
100
AcDbHatch
 10
0.0
 20
0.0
 30
0.0
210
0.0
220
0.0
230
1.0
  2
SOLID
 70
     1
 71
     0
 91
        3
 92
        7
 72
     1
 73
     1
 93
        5
 10
289.8951773384031
 20
174.6285764596542
 42
0.0105298176880202
 10
289.70106872348
 20
174.6769457668342
 42
0.0
 10
289.5904153169963
 20
174.1893436507255
 42
0.0
 10
288.9043641967973
 20
171.1662105308524
 42
-0.0437283108272093
 10
289.0955266779235
 20
171.1048588752814
 42
0.0
 97
        0
 92
        7
 72
     1
 73
     1
 93
        4
 10
289.7010687234802
 20
174.676945766834
 42
0.0105298176880232
 10
289.5050956455161
 20
174.7170991848411
 42
0.0
 10
288.7054449850366
 20
171.1933816004683
 42
-0.0437283108272093
 10
288.9043641967973
 20
171.1662105308524
 42
0.0
 97
        0
 92
      137
 93
        4
 72
     1
 10
288.6857991275114
 20
172.8849724188868
 11
289.8235373984314
 21
172.6267811370914
 72
     1
 10
289.8235373984316
 20
172.6267811370914
 11
290.1554976178826
 21
174.0895874854171
 72
     1
 10
290.1554976178827
 20
174.089587485417
 11
289.0177593469628
 21
174.3477787672124
 72
     1
 10
289.0177593469626
 20
174.3477787672124
 11
288.6857991275117
 21
172.8849724188867
 97
        0
 75
     0
 76
     1
 47
0.0128177587452554
 98
        3
 10
289.1675085421651
 20
171.6538454251788
 10
289.3590928630628
 20
172.8458734474861
 10
289.1726023274406
 20
172.8356196562464
450
        0
451
        0
460
0.0
461
0.0
452
        0
462
0.0
453
        0
470

  0
LINE
  5
10001862
330
F6
100
AcDbEntity
  8
中心線
 48
0.2
100
AcDbLine
 10
289.5050956455161
 20
174.7170991848411
 30
0.0
 11
288.7054449850366
 21
171.1933816004683
 31
0.0
  0
LINE
  5
10001863
330
F6
100
AcDbEntity
  8
中心線
 48
0.2
100
AcDbLine
 10
289.8951773384031
 20
174.6285764596542
 30
0.0
 11
289.0955266779235
 21
171.1048588752814
 31
0.0
  0
LINE
  5
10001864
330
F6
100
AcDbEntity
  8
目盛
100
AcDbLine
 10
293.3802054151311
 20
170.4764027861022
 30
0.0
 11
292.882274462158
 21
170.4309630890179
 31
0.0
  0
LINE
  5
10001865
102
{ACAD_REACTORS
330
10001820
102
}
330
F6
100
AcDbEntity
  8
ROGO
 62
     4
100
AcDbLine
 10
292.9263164706247
 20
188.1648853594436
 30
0.0
 11
293.6355310683426
 21
188.0039405879325
 31
0.0
  0
CIRCLE
  5
10001866
330
F6
100
AcDbEntity
  8
外形線
100
AcDbCircle
 10
293.7249573315138
 20
179.2190569370752
 30
0.0
 40
1.5
  0
POINT
  5
10001867
330
F6
100
AcDbEntity
  8
DEFPOINTS
  6
ByBlock
 62
     0
100
AcDbPoint
 10
293.7249573315141
 20
179.2190569370752
 30
0.0
  0
POINT
  5
10001868
330
F6
100
AcDbEntity
  8
DEFPOINTS
  6
ByBlock
 62
     0
100
AcDbPoint
 10
293.7249573315141
 20
179.2190569370752
 30
0.0
  0
LINE
  5
10001869
102
{ACAD_REACTORS
330
10001822
102
}
330
F6
100
AcDbEntity
  8
ROGO
 62
     4
100
AcDbLine
 10
296.6787563557855
 20
188.1588654578659
 30
0.0
 11
297.4801469373335
 21
187.977002839057
 31
0.0
  0
LINE
  5
1000186A
102
{ACAD_REACTORS
330
10001822
102
}
330
F6
100
AcDbEntity
  8
ROGO
 62
     4
100
AcDbLine
 10
297.2424016905234
 20
187.6864120604609
 30
0.0
 11
296.8967017907914
 21
187.2638706874083
 31
0.0
  0
LINE
  5
1000186B
102
{ACAD_REACTORS
330
10001822
102
}
330
F6
100
AcDbEntity
  8
ROGO
 62
     4
100
AcDbLine
 10
296.4235412052565
 20
187.8722391910992
 30
0.0
 11
297.2424016905234
 21
187.6864120604609
 31
0.0
  0
LINE
  5
1000186C
102
{ACAD_REACTORS
330
10001820
102
}
330
F6
100
AcDbEntity
  8
ROGO
 62
     4
100
AcDbLine
 10
295.4430151330973
 20
187.5937613407088
 30
0.0
 11
294.7289630636158
 21
187.7558038981229
 31
0.0
  0
LINE
  5
1000186D
102
{ACAD_REACTORS
330
10001820
102
}
330
F6
100
AcDbEntity
  8
ROGO
 62
     4
100
AcDbLine
 10
294.6759805676146
 20
188.0241990186289
 30
0.0
 11
294.7289630636158
 21
187.7558038981229
 31
0.0
  0
LINE
  5
1000186E
102
{ACAD_REACTORS
330
10001820
102
}
330
F6
100
AcDbEntity
  8
ROGO
 62
     4
100
AcDbLine
 10
293.8666810159325
 20
188.207856450172
 30
0.0
 11
293.6355310683427
 21
188.0039405879326
 31
0.0
  0
LINE
  5
1000186F
102
{ACAD_REACTORS
330
10001820
102
}
330
F6
100
AcDbEntity
  8
ROGO
 62
     4
100
AcDbLine
 10
293.8666810159325
 20
188.207856450172
 30
0.0
 11
294.6759805676146
 21
188.0241990186289
 31
0.0
  0
LINE
  5
10001870
102
{ACAD_REACTORS
330
10001822
102
}
330
F6
100
AcDbEntity
  8
ROGO
 62
     4
100
AcDbLine
 10
295.7937175085985
 20
187.5141751140927
 30
0.0
 11
296.8967017907914
 21
187.2638706874083
 31
0.0
  0
SPLINE
  5
10001871
102
{ACAD_REACTORS
330
10001822
102
}
330
F6
100
AcDbEntity
  8
ROGO
 62
     4
100
AcDbSpline
210
0.0
220
0.0
230
1.0
 70
     8
 71
     3
 72
    16
 73
    12
 74
    10
 42
0.0000000001
 43
0.0000000001
 44
0.0000000001
 40
0.0
 40
0.0
 40
0.0
 40
0.0
 40
0.1255907025627474
 40
0.1869327038469742
 40
0.2171823804789807
 40
0.2490606136882679
 40
0.2947101524737208
 40
0.3362763310928152
 40
0.3796288870081717
 40
0.4523125795607496
 40
0.5242542460843719
 40
0.5242542460843719
 40
0.5242542460843719
 40
0.5242542460843719
 10
296.6787563557856
 20
188.1588654578657
 30
0.0
 10
296.6358452556899
 20
188.1619544779905
 30
0.0
 10
296.5719751777125
 20
188.166552261683
 30
0.0
 10
296.5061203367752
 20
188.1350296523734
 30
0.0
 10
296.4686718653286
 20
188.1158830266375
 30
0.0
 10
296.4500604008646
 20
188.0834968358751
 30
0.0
 10
296.4152288829107
 20
188.0632906081378
 30
0.0
 10
296.3831808220795
 20
188.0319302781668
 30
0.0
 10
296.3660672752117
 20
187.9827507064843
 30
0.0
 10
296.3541516984493
 20
187.9109886196235
 30
0.0
 10
296.4004906196695
 20
187.8851114114067
 30
0.0
 10
296.4235412052568
 20
187.872239191099
 30
0.0
 11
296.6787563557856
 21
188.1588654578657
 31
0.0
 11
296.5532674349987
 21
188.1538102298813
 31
0.0
 11
296.4966892564777
 21
188.1301089464394
 31
0.0
 11
296.4710895705746
 21
188.113993766701
 31
0.0
 11
296.4508683428227
 21
188.0893498282829
 31
0.0
 11
296.4151580944633
 21
188.0609129059207
 31
0.0
 11
296.3864039047323
 21
188.0308971804104
 31
0.0
 11
296.3699843346205
 21
187.9907743462416
 31
0.0
 11
296.3681240355779
 21
187.9181144642533
 31
0.0
 11
296.4235412052568
 21
187.872239191099
 31
0.0
  0
LINE
  5
10001872
102
{ACAD_REACTORS
330
1000180D
102
}
330
F6
100
AcDbEntity
  8
ROGO
 62
     4
100
AcDbLine
 10
299.9198746560134
 20
186.5778105476458
 30
0.0
 11
301.0228589382061
 21
186.3275061209615
 31
0.0
  0
ELLIPSE
  5
10001873
102
{ACAD_REACTORS
330
1000181E
102
}
330
F6
100
AcDbEntity
  8
ROGO
 62
     4
100
AcDbEllipse
 10
298.5564096783631
 20
187.5444493451047
 30
0.0
 11
0.2085602840532375
 21
0.1134360134565419
 31
0.0
210
0.0
220
0.0
230
1.0
 40
0.6788083417438788
 41
0.0
 42
6.283185307179586
  0
SPLINE
  5
10001874
102
{ACAD_REACTORS
330
1000181E
102
}
330
F6
100
AcDbEntity
  8
ROGO
 62
     4
100
AcDbSpline
210
0.0
220
0.0
230
1.0
 70
     8
 71
     3
 72
     9
 73
     5
 74
     3
 42
0.0000000001
 43
0.0000000001
 44
0.0000000001
 40
0.0
 40
0.0
 40
0.0
 40
0.0
 40
0.113579334354931
 40
0.2662938392175417
 40
0.2662938392175417
 40
0.2662938392175417
 40
0.2662938392175417
 10
298.8537737564885
 20
186.8497657243383
 30
0.0
 10
298.8918243538338
 20
186.8525769132182
 30
0.0
 10
298.9810363544953
 20
186.8591679210266
 30
0.0
 10
299.0622015615242
 20
186.8974674927974
 30
0.0
 10
299.1087482801411
 20
186.91943157637
 30
0.0
 11
298.8537737564885
 21
186.8497657243383
 31
0.0
 11
298.9664616894685
 21
186.8639676591788
 31
0.0
 11
299.1087482801411
 21
186.91943157637
 31
0.0
  0
SPLINE
  5
10001875
102
{ACAD_REACTORS
330
1000181E
102
}
330
F6
100
AcDbEntity
  8
ROGO
 62
     4
100
AcDbSpline
210
0.0
220
0.0
230
1.0
 70
     8
 71
     3
 72
    11
 73
     7
 74
     0
 42
0.0000000001
 43
0.0000000001
 40
0.1647869275458134
 40
0.1647869275458134
 40
0.1647869275458134
 40
0.1647869275458134
 40
0.2895635144633836
 40
0.5387013147903714
 40
0.7953622617455423
 40
0.8850764140209602
 40
0.8850764140209602
 40
0.8850764140209602
 40
0.8850764140209602
 10
298.8537737564885
 20
186.8497657243383
 30
0.0
 10
298.8392807324699
 20
186.8490648170433
 30
0.0
 10
298.795481271874
 20
186.8519006632784
 30
0.0
 10
298.7224799688016
 20
186.8587128684887
 30
0.0
 10
298.6528999196699
 20
186.8643240093699
 30
0.0
 10
298.6136441738901
 20
186.8740314620073
 30
0.0
 10
298.6034765955557
 20
186.8765457763619
 30
0.0
  0
LINE
  5
10001876
102
{ACAD_REACTORS
330
1000181E
102
}
330
F6
100
AcDbEntity
  8
ROGO
 62
     4
100
AcDbLine
 10
297.8716308511017
 20
187.0426263202504
 30
0.0
 11
298.6034765955555
 21
186.8765457763619
 31
0.0
  0
SPLINE
  5
10001877
102
{ACAD_REACTORS
330
1000180D
102
}
330
F6
100
AcDbEntity
  8
ROGO
 62
     4
100
AcDbSpline
210
0.0
220
0.0
230
1.0
 70
     8
 71
     3
 72
    16
 73
    12
 74
    10
 42
0.0000000001
 43
0.0000000001
 44
0.0000000001
 40
0.0
 40
0.0
 40
0.0
 40
0.0
 40
0.125590702562694
 40
0.1869327038468733
 40
0.2171823804789912
 40
0.2490606136882204
 40
0.2947101524736206
 40
0.336276331093021
 40
0.3796288870080859
 40
0.4523125795608013
 40
0.5242542460840522
 40
0.5242542460840522
 40
0.5242542460840522
 40
0.5242542460840522
 10
300.8049135032002
 20
187.2225008914192
 30
0.0
 10
300.7620024031045
 20
187.225589911544
 30
0.0
 10
300.698132325127
 20
187.2301876952366
 30
0.0
 10
300.6322774841901
 20
187.1986650859264
 30
0.0
 10
300.5948290127435
 20
187.1795184601908
 30
0.0
 10
300.5762175482794
 20
187.147132269428
 30
0.0
 10
300.5413860303252
 20
187.1269260416913
 30
0.0
 10
300.5093379694942
 20
187.0955657117199
 30
0.0
 10
300.4922244226267
 20
187.0463861400374
 30
0.0
 10
300.4803088458644
 20
186.9746240531767
 30
0.0
 10
300.5266477670844
 20
186.9487468449598
 30
0.0
 10
300.5496983526716
 20
186.9358746246523
 30
0.0
 11
300.8049135032002
 21
187.2225008914192
 31
0.0
 11
300.6794245824135
 21
187.2174456634347
 31
0.0
 11
300.6228464038926
 21
187.1937443799926
 31
0.0
 11
300.5972467179893
 21
187.177629200254
 31
0.0
 11
300.5770254902375
 21
187.152985261836
 31
0.0
 11
300.541315241878
 21
187.1245483394741
 31
0.0
 11
300.512561052147
 21
187.0945326139634
 31
0.0
 11
300.4961414820355
 21
187.0544097797948
 31
0.0
 11
300.494281182993
 21
186.9817498978063
 31
0.0
 11
300.5496983526716
 21
186.9358746246523
 31
0.0
  0
SPLINE
  5
10001878
102
{ACAD_REACTORS
330
1000181E
102
}
330
F6
100
AcDbEntity
  8
ROGO
 62
     4
100
AcDbSpline
210
0.0
220
0.0
230
1.0
 70
     8
 71
     3
 72
    25
 73
    21
 74
     0
 42
0.0000000001
 43
0.0000000001
 40
0.0
 40
0.0
 40
0.0
 40
0.0
 40
0.4087168505087288
 40
0.6887487002771746
 40
0.9415836120477687
 40
1.17452070575514
 40
1.41154617586699
 40
1.599156012919487
 40
1.80099909059943
 40
2.178735911501585
 40
2.521686161369157
 40
2.762704659361267
 40
3.06256558063785
 40
3.222432137207705
 40
3.399493810628493
 40
3.567459719866414
 40
3.743172740007509
 40
3.995988754699505
 40
4.17170091132118
 40
4.337226830236035
 40
4.337226830236035
 40
4.337226830236035
 40
4.337226830236035
 10
299.2700520066907
 20
188.0774270186701
 30
0.0
 10
299.3177016359147
 20
188.0649921084858
 30
0.0
 10
299.3979983502685
 20
188.044037434812
 30
0.0
 10
299.469436404874
 20
187.9564533014141
 30
0.0
 10
299.5231143635252
 20
187.8850987502629
 30
0.0
 10
299.5548412566375
 20
187.8063612085279
 30
0.0
 10
299.5819881365449
 20
187.7344256171576
 30
0.0
 10
299.5942424379011
 20
187.6622013868708
 30
0.0
 10
299.6133129961561
 20
187.5745480141904
 30
0.0
 10
299.6045924977537
 20
187.4650496925117
 30
0.0
 10
299.5693623934602
 20
187.3578225215359
 30
0.0
 10
299.5202774833158
 20
187.2668277783398
 30
0.0
 10
299.4750016649453
 20
187.1987477640386
 30
0.0
 10
299.4268481042269
 20
187.141462870178
 30
0.0
 10
299.3774606927587
 20
187.1085029026096
 30
0.0
 10
299.33769063151
 20
187.0613693491213
 30
0.0
 10
299.2746650448264
 20
187.0297371636467
 30
0.0
 10
299.2193776027638
 20
186.9856066303368
 30
0.0
 10
299.1600197924563
 20
186.9504303468654
 30
0.0
 10
299.125995228941
 20
186.928137318606
 30
0.0
 10
299.1087482801411
 20
186.91943157637
 30
0.0
  0
SPLINE
  5
10001879
102
{ACAD_REACTORS
330
1000180D
102
}
330
F6
100
AcDbEntity
  8
ROGO
 62
     4
100
AcDbSpline
210
0.0
220
0.0
230
1.0
 70
     8
 71
     3
 72
    26
 73
    22
 74
    20
 42
0.0000000001
 43
0.0000000001
 44
0.0000000001
 40
0.0
 40
0.0
 40
0.0
 40
0.0
 40
0.2382195346592319
 40
0.3976890672662581
 40
0.5126795869788961
 40
0.5985392873137517
 40
0.7099038249254655
 40
0.791189080749763
 40
0.9379713068547605
 40
1.057449928673506
 40
1.138714535893223
 40
1.218398644003529
 40
1.360938021870514
 40
1.461730374800524
 40
1.516014844108063
 40
1.593124329220578
 40
1.64880681859379
 40
1.729472362005469
 40
1.775122082164339
 40
1.874460993765357
 40
1.919820003751283
 40
1.919820003751283
 40
1.919820003751283
 40
1.919820003751283
 10
300.6695786390456
 20
187.7542106221158
 30
0.0
 10
300.5896605420736
 20
187.7674001137621
 30
0.0
 10
300.4562434674078
 20
187.789418948775
 30
0.0
 10
300.2917837474555
 20
187.7344156524371
 30
0.0
 10
300.1743057018685
 20
187.7074018305018
 30
0.0
 10
300.0830348697187
 20
187.6551496326992
 30
0.0
 10
300.0114100400506
 20
187.5960365896729
 30
0.0
 10
299.9222390012797
 20
187.5264731203147
 30
0.0
 10
299.8427590221009
 20
187.4399420555488
 30
0.0
 10
299.7889034919311
 20
187.3369117958337
 30
0.0
 10
299.7434071687706
 20
187.2553800164878
 30
0.0
 10
299.7022767360295
 20
187.1623518948806
 30
0.0
 10
299.6832539198905
 20
187.0560818379169
 30
0.0
 10
299.6680244687539
 20
186.9568303924124
 30
0.0
 10
299.6831722796383
 20
186.8800750480406
 30
0.0
 10
299.7071778315856
 20
186.8224301596495
 30
0.0
 10
299.7379590116081
 20
186.757955421465
 30
0.0
 10
299.776999353669
 20
186.7110207728069
 30
0.0
 10
299.8011990529434
 20
186.636553485789
 30
0.0
 10
299.8677181107411
 20
186.612656283963
 30
0.0
 10
299.9074269686901
 20
186.5861268352366
 30
0.0
 10
299.9198746560134
 20
186.5778105476458
 30
0.0
 11
300.6695786390456
 21
187.7542106221158
 31
0.0
 11
300.431921442763
 21
187.7705692207225
 31
0.0
 11
300.2770287739951
 21
187.7326377958634
 31
0.0
 11
300.1670268693613
 21
187.6991355481669
 31
0.0
 11
300.0918050635656
 21
187.6577402818381
 31
0.0
 11
300.003318191486
 21
187.5901227271127
 31
0.0
 11
299.9404310053096
 21
187.5386203521264
 31
0.0
 11
299.8424802217634
 21
187.4293012508539
 31
0.0
 11
299.7824644922863
 21
187.3259898125373
 31
0.0
 11
299.7442468424921
 21
187.2542726762951
 31
0.0
 11
299.7129849027626
 21
187.1809770542588
 31
0.0
 11
299.6814399673246
 21
187.0419720497053
 31
0.0
 11
299.6732707120466
 21
186.9415113027572
 31
0.0
 11
299.6830978788109
 21
186.888123753634
 31
0.0
 11
299.7106385233284
 21
186.8161002464028
 31
0.0
 11
299.7359551621033
 21
186.7665058170388
 31
0.0
 11
299.7789848786481
 21
186.6982755203373
 31
0.0
 11
299.7989226592887
 21
186.6572099404228
 31
0.0
 11
299.881464681817
 21
186.601937579563
 31
0.0
 11
299.9198746560134
 21
186.5778105476458
 31
0.0
  0
LINE
  5
1000187A
330
F6
100
AcDbEntity
  8
目盛
100
AcDbLine
 10
284.6590543923111
 20
200.3569235251903
 30
0.0
 11
285.8415634713375
 21
197.5998104919579
 31
0.0
  0
LINE
  5
1000187B
330
F6
100
AcDbEntity
  8
目盛
100
AcDbLine
 10
276.5218172360071
 20
194.4850967265676
 30
0.0
 11
278.0177424617035
 21
193.1576150057423
 31
0.0
  0
LINE
  5
1000187C
330
F6
100
AcDbEntity
  8
目盛
100
AcDbLine
 10
275.1615041250468
 20
192.7983870034409
 30
0.0
 11
276.7757174473484
 21
191.6175756933222
 31
0.0
  0
LINE
  5
1000187D
330
F6
100
AcDbEntity
  8
目盛
100
AcDbLine
 10
275.5972011337648
 20
193.3747785801058
 30
0.0
 11
277.173527759656
 21
192.1438462633205
 31
0.0
  0
LINE
  5
1000187E
330
F6
100
AcDbEntity
  8
目盛
100
AcDbLine
 10
276.0507880492594
 20
193.93720016855
 30
0.0
 11
278.3561144773795
 21
192.017442355749
 31
0.0
  0
LINE
  5
1000187F
330
F6
100
AcDbEntity
  8
目盛
100
AcDbLine
 10
273.6059411513598
 20
190.3646923134322
 30
0.0
 11
275.3554208191995
 21
189.3955066285316
 31
0.0
  0
LINE
  5
10001880
330
F6
100
AcDbEntity
  8
目盛
100
AcDbLine
 10
273.2657758037664
 20
189.7272390450647
 30
0.0
 11
275.0448350670488
 21
188.8134840791524
 31
0.0
  0
LINE
  5
10001881
330
F6
100
AcDbEntity
  8
目盛
100
AcDbLine
 10
273.9659615389249
 20
190.991146185312
 30
0.0
 11
276.5432218596974
 21
189.4556562833681
 31
0.0
  0
LINE
  5
10001882
330
F6
100
AcDbEntity
  8
目盛
100
AcDbLine
 10
274.3454816698051
 20
191.6059824263658
 30
0.0
 11
276.0306534664754
 21
190.5288584707752
 31
0.0
  0
LINE
  5
10001883
330
F6
100
AcDbEntity
  8
目盛
100
AcDbLine
 10
274.7441270034507
 20
192.2085942674527
 30
0.0
 11
276.3946339884997
 21
191.0790692822025
 31
0.0
  0
LINE
  5
10001884
330
F6
100
AcDbEntity
  8
目盛
100
AcDbLine
 10
277.0098238450691
 20
195.0179275464045
 30
0.0
 11
278.4633137134555
 21
193.6441127108107
 31
0.0
  0
LINE
  5
10001885
330
F6
100
AcDbEntity
  8
目盛
100
AcDbLine
 10
278.5708112645275
 20
196.520844618712
 30
0.0
 11
280.5474390123954
 21
194.264089703716
 31
0.0
  0
LINE
  5
10001886
330
F6
100
AcDbEntity
  8
目盛
100
AcDbLine
 10
277.5143262728395
 20
195.5351667883705
 30
0.0
 11
278.9239463648983
 21
194.1163746273885
 31
0.0
  0
TEXT
  5
10001887
330
F6
100
AcDbEntity
  8
文字
100
AcDbText
 10
280.1111630532468
 20
192.0074294337875
 30
0.0
 40
2.0
  1
.3
 50
347.2142000000002
  7
STYLE3
100
AcDbText
  0
LINE
  5
10001888
330
F6
100
AcDbEntity
  8
目盛
100
AcDbLine
 10
279.6871027474713
 20
197.4382401975089
 30
0.0
 11
280.9077857547793
 21
195.8539633922538
 31
0.0
  0
LINE
  5
10001889
330
F6
100
AcDbEntity
  8
目盛
100
AcDbLine
 10
280.8587952291723
 20
198.28373298353
 30
0.0
 11
281.9775919337237
 21
196.6259350664469
 31
0.0
  0
LINE
  5
1000188A
330
F6
100
AcDbEntity
  8
目盛
100
AcDbLine
 10
280.2663079572967
 20
197.8701897986975
 30
0.0
 11
281.4366252941853
 21
196.2483521585564
 31
0.0
  0
LINE
  5
1000188B
330
F6
100
AcDbEntity
  8
目盛
100
AcDbLine
 10
279.1217512053095
 20
196.9883104620712
 30
0.0
 11
280.3915952162838
 21
195.4431579816367
 31
0.0
  0
LINE
  5
1000188C
330
F6
100
AcDbEntity
  8
目盛
100
AcDbLine
 10
278.0348266363317
 20
196.0363039997815
 30
0.0
 11
279.3991858272172
 21
194.5739346899808
 31
0.0
  0
LINE
  5
1000188D
330
F6
100
AcDbEntity
  8
目盛
100
AcDbLine
 10
281.4639798496925
 20
198.6784616348112
 30
0.0
 11
283.063237782104
 21
196.1402784133673
 31
0.0
  0
LINE
  5
1000188E
330
F6
100
AcDbEntity
  8
目盛
100
AcDbLine
 10
283.349686256044
 20
199.74596001841
 30
0.0
 11
284.2518837408673
 21
197.9610119243809
 31
0.0
  0
LINE
  5
1000188F
330
F6
100
AcDbEntity
  8
目盛
100
AcDbLine
 10
282.0812645747015
 20
199.0539862030177
 30
0.0
 11
283.0937595970327
 21
197.3292097451097
 31
0.0
  0
LINE
  5
10001890
330
F6
100
AcDbEntity
  8
目盛
100
AcDbLine
 10
283.9995714333168
 20
200.0617263709828
 30
0.0
 11
284.8452571635948
 21
198.2493203332517
 31
0.0
  0
LINE
  5
10001891
330
F6
100
AcDbEntity
  8
目盛
100
AcDbLine
 10
282.710040218701
 20
199.4099360907391
 30
0.0
 11
283.6678590980761
 21
197.6542074686814
 31
0.0
  0
LINE
  5
10001892
330
F6
100
AcDbEntity
  8
目盛
100
AcDbLine
 10
300.9032451629716
 20
201.0701938367597
 30
0.0
 11
300.2790462211057
 21
199.1700949759174
 31
0.0
  0
LINE
  5
10001893
330
F6
100
AcDbEntity
  8
目盛
100
AcDbLine
 10
300.21334231451
 20
201.284887089427
 30
0.0
 11
299.6491349246842
 21
199.3661192500919
 31
0.0
  0
LINE
  5
10001894
330
F6
100
AcDbEntity
  8
目盛
100
AcDbLine
 10
295.2435692807918
 20
202.168867780468
 30
0.0
 11
295.0454894613209
 21
199.1754141921993
 31
0.0
  0
LINE
  5
10001895
330
F6
100
AcDbEntity
  8
目盛
100
AcDbLine
 10
298.8150140297648
 20
201.6487542780692
 30
0.0
 11
298.1510935908625
 21
198.7231415814178
 31
0.0
  0
LINE
  5
10001896
330
F6
100
AcDbEntity
  8
目盛
100
AcDbLine
 10
299.5170362134226
 20
201.4778040317737
 30
0.0
 11
299.0133771802131
 21
199.5422608061477
 31
0.0
  0
LINE
  5
10001897
330
F6
100
AcDbEntity
  8
目盛
100
AcDbLine
 10
291.6347312656434
 20
202.1238807738473
 30
0.0
 11
291.907369448148
 21
199.1362950560074
 31
0.0
  0
LINE
  5
10001898
330
F6
100
AcDbEntity
  8
目盛
100
AcDbLine
 10
288.7804776868094
 20
201.6812946048391
 30
0.0
 11
289.2104324385231
 21
199.7280565467726
 31
0.0
  0
LINE
  5
10001899
330
F6
100
AcDbEntity
  8
目盛
100
AcDbLine
 10
289.488473424775
 20
201.8255207053858
 30
0.0
 11
289.856863329709
 21
199.8597412472718
 31
0.0
  0
LINE
  5
1000189A
330
F6
100
AcDbEntity
  8
目盛
100
AcDbLine
 10
288.0773615532994
 20
201.5149009876129
 30
0.0
 11
288.8140044808927
 21
198.6067474158035
 31
0.0
  0
LINE
  5
1000189B
330
F6
100
AcDbEntity
  8
目盛
100
AcDbLine
 10
287.3798189149795
 20
201.3265040641187
 30
0.0
 11
287.9315700816349
 21
199.4041173574192
 31
0.0
  0
LINE
  5
1000189C
330
F6
100
AcDbEntity
  8
目盛
100
AcDbLine
 10
286.0042015056617
 20
200.8844655295198
 30
0.0
 11
286.675571577475
 21
199.0005169562637
 31
0.0
  0
LINE
  5
1000189D
330
F6
100
AcDbEntity
  8
目盛
100
AcDbLine
 10
286.6885381622194
 20
201.1162897593746
 30
0.0
 11
287.3004006986799
 21
199.2121825574356
 31
0.0
  0
LINE
  5
1000189E
330
F6
100
AcDbEntity
  8
目盛
100
AcDbLine
 10
285.3274843029666
 20
200.6312601570808
 30
0.0
 11
286.0576993489272
 21
198.7693294422976
 31
0.0
  0
LINE
  5
1000189F
102
{ACAD_REACTORS
330
10001821
102
}
330
F6
100
AcDbEntity
  8
ROGO
 62
     4
100
AcDbLine
 10
291.9065979684717
 20
189.7428272218311
 30
0.0
 11
293.6386417716428
 21
189.349767920675
 31
0.0
  0
LINE
  5
100018A0
102
{ACAD_REACTORS
330
10001821
102
}
330
F6
100
AcDbEntity
  8
ROGO
 62
     4
100
AcDbLine
 10
292.1813373254503
 20
188.8835616502062
 30
0.0
 11
293.0916557806215
 21
188.6769796139068
 31
0.0
  0
LINE
  5
100018A1
102
{ACAD_REACTORS
330
10001821
102
}
330
F6
100
AcDbEntity
  8
ROGO
 62
     4
100
AcDbLine
 10
292.3510764484593
 20
189.0923393868138
 30
0.0
 11
293.2613949036301
 21
188.885757350514
 31
0.0
  0
LINE
  5
100018A2
102
{ACAD_REACTORS
330
10001821
102
}
330
F6
100
AcDbEntity
  8
ROGO
 62
     4
100
AcDbLine
 10
292.5166099737542
 20
189.2959442725416
 30
0.0
 11
293.426928428925
 21
189.0893622362418
 31
0.0
  0
LINE
  5
100018A3
102
{ACAD_REACTORS
330
1000181F
102
}
330
F6
100
AcDbEntity
  8
ROGO
 62
     4
100
AcDbLine
 10
289.40507983932
 20
190.3105062642858
 30
0.0
 11
287.9609084613777
 21
188.5341872506404
 31
0.0
  0
LINE
  5
100018A4
102
{ACAD_REACTORS
330
1000181F
102
}
330
F6
100
AcDbEntity
  8
ROGO
 62
     4
100
AcDbLine
 10
289.40507983932
 20
190.3105062642858
 30
0.0
 11
290.9775950185862
 21
189.9536494017238
 31
0.0
  0
LINE
  5
100018A5
102
{ACAD_REACTORS
330
10001821
102
}
330
F6
100
AcDbEntity
  8
ROGO
 62
     4
100
AcDbLine
 10
292.1813373254503
 20
188.8835616502062
 30
0.0
 11
292.0157967922616
 21
188.6799481448262
 31
0.0
  0
LINE
  5
100018A6
102
{ACAD_REACTORS
330
10001821
102
}
330
F6
100
AcDbEntity
  8
ROGO
 62
     4
100
AcDbLine
 10
292.0157967922618
 20
188.6799481448263
 30
0.0
 11
292.9261152474327
 21
188.4733661085268
 31
0.0
  0
LINE
  5
100018A7
102
{ACAD_REACTORS
330
10001821
102
}
330
F6
100
AcDbEntity
  8
ROGO
 62
     4
100
AcDbLine
 10
292.5166099737542
 20
189.2959442725416
 30
0.0
 11
292.3510764484593
 21
189.0923393868138
 31
0.0
  0
LINE
  5
100018A8
102
{ACAD_REACTORS
330
1000181F
102
}
330
F6
100
AcDbEntity
  8
ROGO
 62
     4
100
AcDbLine
 10
290.2499829885369
 20
188.7722359161699
 30
0.0
 11
289.3804828316339
 21
188.969554900483
 31
0.0
  0
SPLINE
  5
100018A9
102
{ACAD_REACTORS
330
1000181F
102
}
330
F6
100
AcDbEntity
  8
ROGO
 62
     4
100
AcDbSpline
210
0.0
220
0.0
230
1.0
 70
     8
 71
     3
 72
    15
 73
    11
 74
     9
 42
0.0000000001
 43
0.0000000001
 44
0.0000000001
 40
0.0
 40
0.0
 40
0.0
 40
0.0
 40
0.1539705029172196
 40
0.2241725832585449
 40
0.3038566179395171
 40
0.3581410872474577
 40
0.4439925384670227
 40
0.4954152125467389
 40
0.5836396705644265
 40
0.6130478420062997
 40
0.6130478420062997
 40
0.6130478420062997
 40
0.6130478420062997
 10
290.3099597208385
 20
189.5844501516079
 30
0.0
 10
290.3664127787063
 20
189.5719106637012
 30
0.0
 10
290.4486053258194
 20
189.5536538590307
 30
0.0
 10
290.4704555157552
 20
189.4418978839985
 30
0.0
 10
290.4354896516564
 20
189.3810719372569
 30
0.0
 10
290.3949537290304
 20
189.3196749124872
 30
0.0
 10
290.3398899236139
 20
189.2841997075616
 30
0.0
 10
290.269909819531
 20
189.2538763569699
 30
0.0
 10
290.2119919408912
 20
189.2614266563157
 30
0.0
 10
290.1728901376855
 20
189.2600238752774
 30
0.0
 10
290.1631146822048
 20
189.2596731798499
 30
0.0
 11
290.3099597208385
 21
189.5844501516079
 31
0.0
 11
290.4481493723828
 21
189.5165492239659
 31
0.0
 11
290.4617781967875
 21
189.4476827790918
 31
0.0
 11
290.4305166570415
 21
189.3743870662857
 31
0.0
 11
290.3986079634827
 21
189.3304707950026
 31
0.0
 11
290.328764667258
 21
189.2805469965797
 31
0.0
 11
290.2807197992796
 21
189.2622171828751
 31
0.0
 11
290.1925159743284
 21
189.2603092372525
 31
0.0
 11
290.1631146822048
 21
189.2596731798499
 31
0.0
  0
LINE
  5
100018AA
102
{ACAD_REACTORS
330
1000181F
102
}
330
F6
100
AcDbEntity
  8
ROGO
 62
     4
100
AcDbLine
 10
290.1631146822049
 20
189.2596731798497
 30
0.0
 11
289.6826742233038
 21
189.3687013641701
 31
0.0
  0
LINE
  5
100018AB
102
{ACAD_REACTORS
330
1000181F
102
}
330
F6
100
AcDbEntity
  8
ROGO
 62
     4
100
AcDbLine
 10
290.3099597208385
 20
189.5844501516079
 30
0.0
 11
289.9140394810935
 21
189.6742978404843
 31
0.0
  0
LINE
  5
100018AC
102
{ACAD_REACTORS
330
1000181F
102
}
330
F6
100
AcDbEntity
  8
ROGO
 62
     4
100
AcDbLine
 10
289.9140394810935
 20
189.6742978404843
 30
0.0
 11
289.6826742233038
 21
189.3687013641701
 31
0.0
  0
SPLINE
  5
100018AD
102
{ACAD_REACTORS
330
1000181F
102
}
330
F6
100
AcDbEntity
  8
ROGO
 62
     4
100
AcDbSpline
210
0.0
220
0.0
230
1.0
 70
     8
 71
     3
 72
    18
 73
    14
 74
     0
 42
0.0000000001
 43
0.0000000001
 40
0.1087402787915014
 40
0.1087402787915014
 40
0.1087402787915014
 40
0.1087402787915014
 40
0.5992371417938475
 40
1.083176791562496
 40
1.448211145705696
 40
1.714037220764907
 40
2.164002567013297
 40
2.740236056362883
 40
3.395137510199602
 40
4.071816045172726
 40
4.784906178399433
 40
5.506895915094292
 40
6.060470601257719
 40
6.060470601257719
 40
6.060470601257719
 40
6.060470601257719
 10
290.9775950185862
 20
189.9536494017238
 30
0.0
 10
291.0237837592097
 20
189.923753881517
 30
0.0
 10
291.113994753453
 20
189.8622383579334
 30
0.0
 10
291.2146887913536
 20
189.745712421468
 30
0.0
 10
291.2572896439601
 20
189.6279046512621
 30
0.0
 10
291.2977200001792
 20
189.512176835635
 30
0.0
 10
291.2736045507037
 20
189.3647814325584
 30
0.0
 10
291.2173546426615
 20
189.1842842178437
 30
0.0
 10
291.0799647409054
 20
189.0138134479914
 30
0.0
 10
290.8912335821177
 20
188.8802726621327
 30
0.0
 10
290.6737039115224
 20
188.7884730377477
 30
0.0
 10
290.4525237986709
 20
188.7278558165791
 30
0.0
 10
290.3112803849284
 20
188.7588046251902
 30
0.0
 10
290.2499829882355
 20
188.7722359162384
 30
0.0
  0
LINE
  5
100018AE
102
{ACAD_REACTORS
330
10001821
102
}
330
F6
100
AcDbEntity
  8
ROGO
 62
     4
100
AcDbLine
 10
291.9065979684717
 20
189.7428272218311
 30
0.0
 11
290.9823687509609
 21
188.6060328239456
 31
0.0
  0
TEXT
  5
100018AF
330
F6
100
AcDbEntity
  8
文字
100
AcDbText
 10
284.6868351858211
 20
195.3832493931834
 30
0.0
 40
2.0
  1
.2
 50
347.2142000000002
  7
STYLE3
100
AcDbText
  0
TEXT
  5
100018B0
330
F6
100
AcDbEntity
  8
文字
100
AcDbText
 10
290.1585577761649
 20
196.4338453161125
 30
0.0
 40
2.0
  1
.1
 50
347.2142000000002
  7
STYLE3
100
AcDbText
  0
LINE
  5
100018B1
102
{ACAD_REACTORS
330
10001822
102
}
330
F6
100
AcDbEntity
  8
ROGO
 62
     4
100
AcDbLine
 10
296.543421491631
 20
188.6905751885624
 30
0.0
 11
297.825850497972
 21
188.3995486867547
 31
0.0
  0
LINE
  5
100018B2
102
{ACAD_REACTORS
330
10001820
102
}
330
F6
100
AcDbEntity
  8
ROGO
 62
     4
100
AcDbLine
 10
294.140378756515
 20
189.2359068345542
 30
0.0
 11
295.1647366784493
 21
189.0034453874522
 31
0.0
  0
LINE
  5
100018B3
102
{ACAD_REACTORS
330
10001821
102
}
330
F6
100
AcDbEntity
  8
ROGO
 62
     4
100
AcDbLine
 10
293.2613949036301
 20
188.885757350514
 30
0.0
 11
293.0916557806215
 21
188.6769796139068
 31
0.0
  0
LINE
  5
100018B4
102
{ACAD_REACTORS
330
10001820
102
}
330
F6
100
AcDbEntity
  8
ROGO
 62
     4
100
AcDbLine
 10
294.5250695709022
 20
188.7886736697944
 30
0.0
 11
294.6200983314038
 21
188.3072834456374
 31
0.0
  0
LINE
  5
100018B5
102
{ACAD_REACTORS
330
10001820
102
}
330
F6
100
AcDbEntity
  8
ROGO
 62
     4
100
AcDbLine
 10
294.1104818359445
 20
188.4229326591251
 30
0.0
 11
294.6200983314037
 21
188.3072834456376
 31
0.0
  0
LINE
  5
100018B6
102
{ACAD_REACTORS
330
10001820
102
}
330
F6
100
AcDbEntity
  8
ROGO
 62
     4
100
AcDbLine
 10
294.5250695709022
 20
188.7886736697944
 30
0.0
 11
294.1104818359445
 21
188.422932659125
 31
0.0
  0
LINE
  5
100018B7
102
{ACAD_REACTORS
330
10001821
102
}
330
F6
100
AcDbEntity
  8
ROGO
 62
     4
100
AcDbLine
 10
293.6386417716426
 20
189.349767920675
 30
0.0
 11
293.426928428925
 21
189.0893622362418
 31
0.0
  0
TEXT
  5
100018B8
330
F6
100
AcDbEntity
  8
文字
100
AcDbText
 10
296.5123593056901
 20
195.9381540850262
 30
0.0
 40
2.0
  1
0
 50
347.2142000000002
  7
STYLE3
100
AcDbText
  0
LINE
  5
100018B9
330
F6
100
AcDbEntity
  8
目盛
100
AcDbLine
 10
292.3552205692928
 20
202.1782342133241
 30
0.0
 11
292.4743281138338
 21
200.1817840153893
 31
0.0
  0
LINE
  5
100018BA
330
F6
100
AcDbEntity
  8
目盛
100
AcDbLine
 10
290.9163047627651
 20
202.0469230385764
 30
0.0
 11
291.1605354209174
 21
200.061891203663
 31
0.0
  0
LINE
  5
100018BB
330
F6
100
AcDbEntity
  8
目盛
100
AcDbLine
 10
290.2006500608793
 20
201.9474369555049
 30
0.0
 11
290.5071115626736
 21
199.9710560843372
 31
0.0
  0
LINE
  5
100018BC
330
F6
100
AcDbEntity
  8
目盛
100
AcDbLine
 10
293.0770616377562
 20
202.2099297167243
 30
0.0
 11
293.1334003937348
 21
200.2107233880594
 31
0.0
  0
LINE
  5
100018BD
330
F6
100
AcDbEntity
  8
外形線
  6
Continuous
100
AcDbLine
 10
296.3280180618089
 20
207.342251542852
 30
0.0
 11
295.9153121104786
 21
205.528035365404
 31
0.0
  0
LINE
  5
100018BE
330
F6
100
AcDbEntity
  8
目盛
100
AcDbLine
 10
297.3965976166574
 20
201.9241016984606
 30
0.0
 11
297.0773245483841
 21
199.9497499800792
 31
0.0
  0
LINE
  5
100018BF
330
F6
100
AcDbEntity
  8
目盛
100
AcDbLine
 10
294.5219489581764
 20
202.2052441882709
 30
0.0
 11
294.4526453384667
 21
200.2064452968627
 31
0.0
  0
LINE
  5
100018C0
330
F6
100
AcDbEntity
  8
目盛
100
AcDbLine
 10
295.9636909167575
 20
202.1098426801271
 30
0.0
 11
295.7690184310839
 21
200.1193395720355
 31
0.0
  0
LINE
  5
100018C1
330
F6
100
AcDbEntity
  8
目盛
100
AcDbLine
 10
296.6816031929599
 20
202.0282271378956
 30
0.0
 11
296.4245035528342
 21
200.0448210334764
 31
0.0
  0
LINE
  5
100018C2
330
F6
100
AcDbEntity
  8
目盛
100
AcDbLine
 10
293.7995421010478
 20
202.2189360044128
 30
0.0
 11
293.7930564689144
 21
200.2189465202965
 31
0.0
  0
LINE
  5
100018C3
330
F6
100
AcDbEntity
  8
目盛
100
AcDbLine
 10
298.1079685746759
 20
201.7975691210593
 30
0.0
 11
297.7268371622269
 21
199.8342202354953
 31
0.0
  0
LINE
  5
100018C4
330
F6
100
AcDbEntity
  8
目盛
100
AcDbLine
 10
314.8628239196289
 20
188.2849598762783
 30
0.0
 11
312.1057108863966
 21
187.1024507972518
 31
0.0
  0
TEXT
  5
100018C5
330
F6
100
AcDbEntity
  8
文字
100
AcDbText
 10
307.0838562114552
 20
169.712986518636
 30
0.0
 40
2.0
  1
.4
 50
347.2142000000002
  7
STYLE3
100
AcDbText
  0
TEXT
  5
100018C6
330
F6
100
AcDbEntity
  8
文字
100
AcDbText
 10
303.4699409836932
 20
165.2971399088297
 30
0.0
 40
2.0
  1
.3
 50
347.2142000000002
  7
STYLE3
100
AcDbText
  0
LINE
  5
100018C7
330
F6
100
AcDbEntity
  8
目盛
100
AcDbLine
 10
314.8035815518415
 20
170.016252963382
 30
0.0
 11
312.9706577065956
 21
170.8164967871814
 31
0.0
  0
LINE
  5
100018C8
330
F6
100
AcDbEntity
  8
目盛
100
AcDbLine
 10
314.5041134647542
 20
169.3586984045257
 30
0.0
 11
312.6972303227333
 21
170.2161208856169
 31
0.0
  0
LINE
  5
100018C9
330
F6
100
AcDbEntity
  8
目盛
100
AcDbLine
 10
314.1841388592618
 20
168.7108748290859
 30
0.0
 11
312.4050795959793
 21
169.624629794998
 31
0.0
  0
LINE
  5
100018CA
330
F6
100
AcDbEntity
  8
目盛
100
AcDbLine
 10
313.1044329932227
 20
166.8321314477846
 30
0.0
 11
311.4192611965524
 21
167.9092554033752
 31
0.0
  0
LINE
  5
100018CB
330
F6
100
AcDbEntity
  8
目盛
100
AcDbLine
 10
313.8439735116679
 20
168.0734215607181
 30
0.0
 11
312.0944938438283
 21
169.0426072456187
 31
0.0
  0
LINE
  5
100018CC
330
F6
100
AcDbEntity
  8
目盛
100
AcDbLine
 10
313.483953124103
 20
167.4469676888384
 30
0.0
 11
310.9066928033303
 21
168.9824575907823
 31
0.0
  0
LINE
  5
100018CD
330
F6
100
AcDbEntity
  8
目盛
100
AcDbLine
 10
311.8527135292633
 20
165.0633352940447
 30
0.0
 11
310.2763869033722
 21
166.2942676108299
 31
0.0
  0
LINE
  5
100018CE
330
F6
100
AcDbEntity
  8
目盛
100
AcDbLine
 10
312.288410537981
 20
165.6397268707094
 30
0.0
 11
310.6741972156794
 21
166.8205381808282
 31
0.0
  0
LINE
  5
100018CF
330
F6
100
AcDbEntity
  8
目盛
100
AcDbLine
 10
312.7057876595771
 20
166.2295196066977
 30
0.0
 11
311.0552806745283
 21
167.3590445919479
 31
0.0
  0
LINE
  5
100018D0
330
F6
100
AcDbEntity
  8
目盛
100
AcDbLine
 10
315.082247581676
 20
170.6828895786919
 30
0.0
 11
312.2965140707853
 21
171.796302712394
 31
0.0
  0
LINE
  5
100018D1
330
F6
100
AcDbEntity
  8
目盛
100
AcDbLine
 10
313.2290419758568
 20
174.7929206777268
 30
0.0
 11
316.1546546725081
 21
174.1290002388245
 31
0.0
  0
TEXT
  5
100018D2
330
F6
100
AcDbEntity
  8
文字
100
AcDbText
 10
309.2496306351722
 20
174.5701231857733
 30
0.0
 40
2.0
  1
.5
 50
347.2142000000002
  7
STYLE3
100
AcDbText
  0
LINE
  5
100018D3
330
F6
100
AcDbEntity
  8
目盛
100
AcDbLine
 10
316.4300020928992
 20
175.5474166519321
 30
0.0
 11
314.455650374518
 21
175.8666897202053
 31
0.0
  0
LINE
  5
100018D4
330
F6
100
AcDbEntity
  8
目盛
100
AcDbLine
 10
315.3398365445309
 20
171.3579503606013
 30
0.0
 11
313.4602818303557
 21
172.041524845512
 31
0.0
  0
LINE
  5
100018D5
330
F6
100
AcDbEntity
  8
目盛
100
AcDbLine
 10
315.5760942311985
 20
172.0407691056178
 30
0.0
 11
313.6759953703561
 21
172.6649680474836
 31
0.0
  0
LINE
  5
100018D6
330
F6
100
AcDbEntity
  8
目盛
100
AcDbLine
 10
316.303469515498
 20
174.8360456939131
 30
0.0
 11
314.3401206299342
 21
175.217177106362
 31
0.0
  0
LINE
  5
100018D7
330
F6
100
AcDbEntity
  8
目盛
100
AcDbLine
 10
315.7907874838655
 20
172.7306719540794
 30
0.0
 11
313.8720196445308
 21
173.2948793439053
 31
0.0
  0
LINE
  5
100018D8
330
F6
100
AcDbEntity
  8
目盛
100
AcDbLine
 10
315.9837044262124
 20
173.4269780551665
 30
0.0
 11
314.0481612005864
 21
173.930637088376
 31
0.0
  0
TEXT
  5
100018D9
330
F6
100
AcDbEntity
  8
文字
100
AcDbText
 10
308.4806194217521
 20
185.4760707540068
 30
0.0
 40
2.0
  1
.7
 50
347.2142000000002
  7
STYLE3
100
AcDbText
  0
LINE
  5
100018DA
102
{ACAD_REACTORS
330
1000180E
102
}
330
F6
100
AcDbEntity
  8
ROGO
 62
     4
100
AcDbLine
 10
303.19385090009
 20
187.1813678977934
 30
0.0
 11
303.9311708333708
 21
187.0140450753724
 31
0.0
  0
LINE
  5
100018DB
102
{ACAD_REACTORS
330
1000180E
102
}
330
F6
100
AcDbEntity
  8
ROGO
 62
     4
100
AcDbLine
 10
302.9575513312821
 20
187.2349922594923
 30
0.0
 11
302.7990379365751
 21
187.0412448285598
 31
0.0
  0
LINE
  5
100018DC
102
{ACAD_REACTORS
330
1000180E
102
}
330
F6
100
AcDbEntity
  8
ROGO
 62
     4
100
AcDbLine
 10
302.7990379365751
 20
187.0412448285598
 30
0.0
 11
303.19385090009
 21
187.1813678977934
 31
0.0
  0
LINE
  5
100018DD
102
{ACAD_REACTORS
330
1000180E
102
}
330
F6
100
AcDbEntity
  8
ROGO
 62
     4
100
AcDbLine
 10
301.8846443762725
 20
185.9236017202458
 30
0.0
 11
302.0265481082034
 21
185.342218040755
 31
0.0
  0
LINE
  5
100018DE
102
{ACAD_REACTORS
330
1000180E
102
}
330
F6
100
AcDbEntity
  8
ROGO
 62
     4
100
AcDbLine
 10
301.8846443762725
 20
185.9236017202458
 30
0.0
 11
301.5056929141934
 21
185.4604176949358
 31
0.0
  0
LINE
  5
100018DF
102
{ACAD_REACTORS
330
1000180D
102
}
330
F6
100
AcDbEntity
  8
ROGO
 62
     4
100
AcDbLine
 10
301.9520076453868
 20
187.4631841203079
 30
0.0
 11
301.6063040847483
 21
187.0406382726102
 31
0.0
  0
LINE
  5
100018E0
102
{ACAD_REACTORS
330
1000180E
102
}
330
F6
100
AcDbEntity
  8
ROGO
 62
     4
100
AcDbLine
 10
302.0265481082034
 20
185.342218040755
 30
0.0
 11
302.7638680414837
 21
185.1748952183337
 31
0.0
  0
LINE
  5
100018E1
102
{ACAD_REACTORS
330
1000180E
102
}
330
F6
100
AcDbEntity
  8
ROGO
 62
     4
100
AcDbLine
 10
302.4920335874228
 20
186.2886088110926
 30
0.0
 11
302.7638680414837
 21
185.1748952183337
 31
0.0
  0
LINE
  5
100018E2
102
{ACAD_REACTORS
330
1000180E
102
}
330
F6
100
AcDbEntity
  8
ROGO
 62
     4
100
AcDbLine
 10
302.2202152656813
 20
187.4023187428823
 30
0.0
 11
302.9575513312821
 21
187.2349922594923
 31
0.0
  0
LINE
  5
100018E3
102
{ACAD_REACTORS
330
1000180E
102
}
330
F6
100
AcDbEntity
  8
ROGO
 62
     4
100
AcDbLine
 10
302.4920335874228
 20
186.2886088110926
 30
0.0
 11
303.9311708333708
 21
187.0140450753724
 31
0.0
  0
LINE
  5
100018E4
330
F6
100
AcDbEntity
  8
目盛
100
AcDbLine
 10
316.552823433015
 20
182.0277095058239
 30
0.0
 11
314.5677915981019
 21
181.7834788476718
 31
0.0
  0
TEXT
  5
100018E5
330
F6
100
AcDbEntity
  8
文字
100
AcDbText
 10
309.9486358117972
 20
180.1606844339342
 30
0.0
 40
2.0
  1
.6
 50
347.2142000000002
  7
STYLE3
100
AcDbText
  0
LINE
  5
100018E6
330
F6
100
AcDbEntity
  8
目盛
100
AcDbLine
 10
316.7158301111633
 20
179.8669526308332
 30
0.0
 11
314.7166237824982
 21
179.8106138748544
 31
0.0
  0
LINE
  5
100018E7
330
F6
100
AcDbEntity
  8
目盛
100
AcDbLine
 10
316.6841346077627
 20
180.5887936992963
 30
0.0
 11
314.6876844098281
 21
180.4696861547552
 31
0.0
  0
LINE
  5
100018E8
330
F6
100
AcDbEntity
  8
目盛
100
AcDbLine
 10
316.6157430745658
 20
176.980323351832
 30
0.0
 11
314.6252399664742
 21
177.1749958375055
 31
0.0
  0
LINE
  5
100018E9
330
F6
100
AcDbEntity
  8
目盛
100
AcDbLine
 10
316.7111445827096
 20
178.4220653104128
 30
0.0
 11
314.7123456913013
 21
178.4913689301226
 31
0.0
  0
LINE
  5
100018EA
330
F6
100
AcDbEntity
  8
目盛
100
AcDbLine
 10
316.5341275323342
 20
176.2624110756291
 30
0.0
 11
314.5507214279152
 21
176.5195107157549
 31
0.0
  0
LINE
  5
100018EB
330
F6
100
AcDbEntity
  8
目盛
100
AcDbLine
 10
316.6747681749068
 20
177.7004449877972
 30
0.0
 11
313.681314586638
 21
177.8985248072681
 31
0.0
  0
LINE
  5
100018EC
330
F6
100
AcDbEntity
  8
目盛
100
AcDbLine
 10
316.7248363988516
 20
179.1444721675412
 30
0.0
 11
314.7248469147351
 21
179.1509577996746
 31
0.0
  0
LINE
  5
100018ED
330
F6
100
AcDbEntity
  8
目盛
100
AcDbLine
 10
316.6297811682858
 20
181.309283002946
 30
0.0
 11
313.6421954504462
 21
181.036644820441
 31
0.0
  0
LINE
  5
100018EE
330
F6
100
AcDbEntity
  8
目盛
100
AcDbLine
 10
315.1371605515197
 20
187.6165299656225
 30
0.0
 11
313.2752298367364
 21
186.8863149196618
 31
0.0
  0
LINE
  5
100018EF
330
F6
100
AcDbEntity
  8
目盛
100
AcDbLine
 10
315.3903659239586
 20
186.9398127629271
 30
0.0
 11
313.5064173507024
 21
186.2684426911141
 31
0.0
  0
LINE
  5
100018F0
330
F6
100
AcDbEntity
  8
目盛
100
AcDbLine
 10
316.0208013820517
 20
184.8666527152894
 30
0.0
 11
313.1126478102423
 21
184.1300097876962
 31
0.0
  0
LINE
  5
100018F1
330
F6
100
AcDbEntity
  8
目盛
100
AcDbLine
 10
315.8324044585575
 20
185.5641953536096
 30
0.0
 11
313.9100177518579
 21
185.0124441869543
 31
0.0
  0
LINE
  5
100018F2
330
F6
100
AcDbEntity
  8
目盛
100
AcDbLine
 10
315.6221901538135
 20
186.2554761063695
 30
0.0
 11
313.7180829518744
 21
185.6436135699091
 31
0.0
  0
LINE
  5
100018F3
330
F6
100
AcDbEntity
  8
目盛
100
AcDbLine
 10
316.4533373499435
 20
182.7433642077099
 30
0.0
 11
314.4769564787758
 21
182.4369027059157
 31
0.0
  0
LINE
  5
100018F4
330
F6
100
AcDbEntity
  8
目盛
100
AcDbLine
 10
316.3314210998247
 20
183.4555408438139
 30
0.0
 11
314.3656416417104
 21
183.0871509388801
 31
0.0
  0
LINE
  5
100018F5
330
F6
100
AcDbEntity
  8
目盛
100
AcDbLine
 10
316.1871949992778
 20
184.1635365817794
 30
0.0
 11
314.2339569412115
 21
183.7335818300664
 31
0.0
  0
LINE
  5
100018F6
330
F6
100
AcDbEntity
  8
目盛
100
AcDbLine
 10
302.9277613052072
 20
200.2976811574028
 30
0.0
 11
302.1275174814081
 21
198.4647573121569
 31
0.0
  0
LINE
  5
100018F7
330
F6
100
AcDbEntity
  8
目盛
100
AcDbLine
 10
304.2331394395034
 20
199.6782384648228
 30
0.0
 11
303.3193844735912
 21
197.8991792015404
 31
0.0
  0
LINE
  5
100018F8
330
F6
100
AcDbEntity
  8
目盛
100
AcDbLine
 10
303.5853158640636
 20
199.9982130703153
 30
0.0
 11
302.7278933829724
 21
198.1913299282944
 31
0.0
  0
LINE
  5
100018F9
330
F6
100
AcDbEntity
  8
目盛
100
AcDbLine
 10
311.0267450131509
 20
194.3732030040616
 30
0.0
 11
308.7699900981547
 21
192.3965752561938
 31
0.0
  0
LINE
  5
100018FA
330
F6
100
AcDbEntity
  8
目盛
100
AcDbLine
 10
310.0410671828096
 20
195.4296879957498
 30
0.0
 11
308.6222750218273
 21
194.0200679036909
 31
0.0
  0
LINE
  5
100018FB
330
F6
100
AcDbEntity
  8
目盛
100
AcDbLine
 10
310.5422043942204
 20
194.9091876322574
 30
0.0
 11
309.0798350844196
 21
193.5448284413719
 31
0.0
  0
TEXT
  5
100018FC
330
F6
100
AcDbEntity
  8
文字
100
AcDbText
 10
305.6976534234955
 20
190.2934213920803
 30
0.0
 40
2.0
  1
.8
 50
347.2142000000002
  7
STYLE3
100
AcDbText
  0
LINE
  5
100018FD
330
F6
100
AcDbEntity
  8
目盛
100
AcDbLine
 10
306.1118828208045
 20
198.5985325987839
 30
0.0
 11
305.0347588652141
 21
196.9133608021135
 31
0.0
  0
LINE
  5
100018FE
330
F6
100
AcDbEntity
  8
目盛
100
AcDbLine
 10
304.8705927078711
 20
199.3380731172291
 30
0.0
 11
303.9014070229705
 21
197.5885934493895
 31
0.0
  0
LINE
  5
100018FF
330
F6
100
AcDbEntity
  8
目盛
100
AcDbLine
 10
305.497046579751
 20
198.9780527296642
 30
0.0
 11
303.961556677807
 21
196.4007924088916
 31
0.0
  0
LINE
  5
10001900
330
F6
100
AcDbEntity
  8
目盛
100
AcDbLine
 10
307.3042873978799
 20
197.7825101435422
 30
0.0
 11
306.1234760877611
 21
196.1682968212406
 31
0.0
  0
LINE
  5
10001901
330
F6
100
AcDbEntity
  8
目盛
100
AcDbLine
 10
306.7144946618916
 20
198.1998872651385
 30
0.0
 11
305.5849696766414
 21
196.5493802800894
 31
0.0
  0
LINE
  5
10001902
330
F6
100
AcDbEntity
  8
目盛
100
AcDbLine
 10
307.8806789745448
 20
197.3468131348244
 30
0.0
 11
306.6497466577593
 21
195.7704865089331
 31
0.0
  0
LINE
  5
10001903
330
F6
100
AcDbEntity
  8
目盛
100
AcDbLine
 10
308.9909971210066
 20
196.4221970325819
 30
0.0
 11
307.6635154001811
 21
194.9262718068857
 31
0.0
  0
LINE
  5
10001904
330
F6
100
AcDbEntity
  8
目盛
100
AcDbLine
 10
309.5238279408434
 20
195.9341904235199
 30
0.0
 11
308.1500131052496
 21
194.4807005551334
 31
0.0
  0
LINE
  5
10001905
330
F6
100
AcDbEntity
  8
目盛
100
AcDbLine
 10
308.4431005629889
 20
196.8932262193297
 30
0.0
 11
306.5233427501879
 21
194.5878997912093
 31
0.0
  0
LINE
  5
10001906
330
F6
100
AcDbEntity
  8
目盛
100
AcDbLine
 10
311.4942108565101
 20
193.8222630632796
 30
0.0
 11
309.9490583760754
 21
192.5524190523053
 31
0.0
  0
LINE
  5
10001907
330
F6
100
AcDbEntity
  8
目盛
100
AcDbLine
 10
314.2518604128488
 20
189.5943280125454
 30
0.0
 11
312.4669123188196
 21
188.6921305277219
 31
0.0
  0
LINE
  5
10001908
330
F6
100
AcDbEntity
  8
目盛
100
AcDbLine
 10
314.5676267654215
 20
188.9444428352724
 30
0.0
 11
312.7552207276905
 21
188.0987571049941
 31
0.0
  0
LINE
  5
10001909
330
F6
100
AcDbEntity
  8
目盛
100
AcDbLine
 10
313.9158364851778
 20
190.2339740498881
 30
0.0
 11
312.16010786312
 21
189.2761551705129
 31
0.0
  0
LINE
  5
1000190A
330
F6
100
AcDbEntity
  8
目盛
100
AcDbLine
 10
311.9441405919479
 20
193.2569115211178
 30
0.0
 11
310.3598637866927
 21
192.0362285138099
 31
0.0
  0
LINE
  5
1000190B
330
F6
100
AcDbEntity
  8
目盛
100
AcDbLine
 10
313.5598865974564
 20
190.8627496938881
 30
0.0
 11
311.8351101395485
 21
189.8502546715566
 31
0.0
  0
LINE
  5
1000190C
330
F6
100
AcDbEntity
  8
目盛
100
AcDbLine
 10
312.7896333779688
 20
192.0852190394167
 30
0.0
 11
311.1318354608858
 21
190.9664223348654
 31
0.0
  0
LINE
  5
1000190D
330
F6
100
AcDbEntity
  8
目盛
100
AcDbLine
 10
312.3760901931363
 20
192.6777063112921
 30
0.0
 11
310.7542525529952
 21
191.5073889744037
 31
0.0
  0
LINE
  5
1000190E
330
F6
100
AcDbEntity
  8
目盛
100
AcDbLine
 10
313.1843620292499
 20
191.4800344188965
 30
0.0
 11
310.646178807806
 21
189.880776486485
 31
0.0
  0
LINE
  5
1000190F
330
F6
100
AcDbEntity
  8
外形線
  6
Continuous
100
AcDbLine
 10
303.5436709088064
 20
205.7008027950636
 30
0.0
 11
303.1309649574761
 21
203.8865866176156
 31
0.0
  0
LINE
  5
10001910
330
F6
100
AcDbEntity
  8
外形線
  6
Continuous
100
AcDbLine
 10
297.3663959851375
 20
213.2593260977603
 30
0.0
 11
305.1671017656752
 21
211.4847869109621
 31
0.0
  0
ARC
  5
10001911
330
F6
100
AcDbEntity
  8
外形線
  6
Continuous
100
AcDbCircle
 10
301.3011305721505
 20
212.5231951788594
 30
0.0
 40
7.344999999999885
100
AcDbArc
 50
46.93618538337815
 51
107.4322146166212
  0
LINE
  5
10001912
330
F6
100
AcDbEntity
  8
外形線
  6
Continuous
100
AcDbLine
 10
299.1007355411811
 20
219.5308543249424
 30
0.0
 11
306.3163883881788
 21
217.889405577154
 31
0.0
  0
LINE
  5
10001913
330
F6
100
AcDbEntity
  8
外形線
  6
Continuous
100
AcDbLine
 10
299.1007355411811
 20
219.5308543249424
 30
0.0
 11
297.6589224519075
 21
213.1927808782553
 31
0.0
  0
LINE
  5
10001914
330
F6
100
AcDbEntity
  8
外形線
  6
Continuous
100
AcDbLine
 10
306.3163883881788
 20
217.889405577154
 30
0.0
 11
304.8745752989051
 21
211.551332130467
 31
0.0
  0
POINT
  5
10001915
330
F6
100
AcDbEntity
  8
DEFPOINTS
  6
ByBlock
 62
     0
100
AcDbPoint
 10
302.9303793630297
 20
219.6852181736156
 30
0.0
  0
CIRCLE
  5
10001916
330
F6
100
AcDbEntity
  8
外形線
100
AcDbCircle
 10
235.6608674046421
 20
125.2190569370752
 30
0.0
 40
9.5
  0
CIRCLE
  5
10001917
330
F6
100
AcDbEntity
  8
外形線
100
AcDbCircle
 10
235.6608674046421
 20
125.2190569370752
 30
0.0
 40
8.5
  0
CIRCLE
  5
1000191A
330
F6
100
AcDbEntity
  8
外形線
100
AcDbCircle
 10
214.6608674046421
 20
129.7190569370752
 30
0.0
 40
2.0
  0
CIRCLE
  5
1000191B
330
F6
100
AcDbEntity
  8
外形線
100
AcDbCircle
 10
214.6608674046421
 20
129.7190569370752
 30
0.0
 40
1.25
  0
LINE
  5
10001920
330
F6
100
AcDbEntity
  8
中心線
100
AcDbLine
 10
211.1076732011638
 20
127.7598916454015
 30
0.0
 11
271.5458035541155
 21
161.0854478627634
 31
0.0
  0
LINE
  5
10001921
330
F6
100
AcDbEntity
  8
中心線
 48
0.2
100
AcDbLine
 10
216.6200326963159
 20
126.1658627335969
 30
0.0
 11
212.7017021129684
 21
133.2722511405535
 31
0.0
  0
LINE
  5
10001922
330
F6
100
AcDbEntity
  8
中心線
 48
0.2
100
AcDbLine
 10
270.0272583303303
 20
155.8341207876018
 30
0.0
 11
266.2944764789538
 21
162.6039930865486
 31
0.0
  0
LINE
  5
10001923
330
F6
100
AcDbEntity
  8
外形線
100
AcDbLine
 10
218.7776879129529
 20
129.819313868406
 30
0.0
 11
216.9428683684125
 21
133.1469913225731
 31
0.0
  0
LINE
  5
10001924
330
F6
100
AcDbEntity
  8
外形線
100
AcDbLine
 10
266.4589266537048
 20
156.1109569796957
 30
0.0
 11
264.6241071091643
 21
159.4386344338629
 31
0.0
  0
LINE
  5
10001925
330
F6
100
AcDbEntity
  8
外形線
100
AcDbLine
 10
216.9428683684125
 20
133.1469913225731
 30
0.0
 11
264.6241071091644
 21
159.4386344338629
 31
0.0
  0
LINE
  5
10001926
330
F6
100
AcDbEntity
  8
外形線
100
AcDbLine
 10
218.7776879129529
 20
129.819313868406
 30
0.0
 11
266.4589266537048
 21
156.1109569796957
 31
0.0
  0
LINE
  5
10001927
330
F6
100
AcDbEntity
  8
中心線
100
AcDbLine
 10
215.9406206704008
 20
132.023401757094
 30
0.0
 11
266.022643805873
 21
159.6387927947773
 31
0.0
  0
LINE
  5
10001928
330
F6
100
AcDbEntity
  8
中心線
100
AcDbLine
 10
217.2925929663779
 20
129.5714288961287
 30
0.0
 11
267.3746161018502
 21
157.186819933812
 31
0.0
  0
CIRCLE
  5
10001929
330
F6
100
AcDbEntity
  8
外形線
100
AcDbCircle
 10
255.2790448962297
 20
129.3050947289529
 30
0.0
 40
1.703881747015341
  0
LWPOLYLINE
  5
1000192C
330
F6
100
AcDbEntity
  8
C
100
AcDbPolyline
 90
        5
 70
     0
 43
0.8
 10
75.60702358794213
 20
274.3426598062737
 10
452.0389095529217
 20
274.3426598062737
 10
452.0389095529217
 20
-3.566177553518286
 10
75.60702358794213
 20
-3.566177553518286
 10
75.60702358794213
 20
274.3426598062737
  0
DIMENSION
  5
1000197C
330
F6
100
AcDbEntity
  8
寸法線
100
AcDbDimension
  2
*D26
 10
410.660867404642
 20
69.2911240729411
 30
0.0
 11
360.6608674046421
 21
71.1661240729411
 31
0.0
 70
    32
 71
     5
 42
100.0
  3
STYLE3
100
AcDbAlignedDimension
 13
310.6608674046421
 23
111.5190569370752
 33
0.0
 14
410.660867404642
 24
111.5190569370752
 34
0.0
100
AcDbRotatedDimension
1001
ACAD
1000
DSTYLE
1002
{
1070
    75
1070
     1
1070
   279
1070
     1
1002
}
  0
LINE
  5
100019A6
330
F6
100
AcDbEntity
  8
中心線
 48
0.4
100
AcDbLine
 10
105.2752701614211
 20
223.6481859553593
 30
0.0
 11
105.2752701614211
 21
201.0246022934329
 31
0.0
  0
LINE
  5
100019A7
330
F6
100
AcDbEntity
  8
中心線
 48
0.25
100
AcDbLine
 10
99.28251630413434
 20
218.1298664826983
 30
0.0
 11
111.498748577319
 21
218.1298664826983
 31
0.0
  0
ARC
  5
100019A8
330
F6
100
AcDbEntity
  8
外形線
100
AcDbCircle
 10
105.2752701614211
 20
218.1298664826983
 30
0.0
 40
2.5
100
AcDbArc
 50
0.0
 51
180.0
  0
LINE
  5
100019A9
330
F6
100
AcDbEntity
  8
外形線
100
AcDbLine
 10
101.2752701614211
 20
212.6298664826983
 30
0.0
 11
115.5754098553043
 21
212.6298664826983
 31
0.0
  0
LINE
  5
100019AA
330
F6
100
AcDbEntity
  8
外形線
100
AcDbLine
 10
102.775270161421
 20
218.1298664826983
 30
0.0
 11
102.775270161421
 21
212.6298664826983
 31
0.0
  0
LINE
  5
100019AB
330
F6
100
AcDbEntity
  8
外形線
100
AcDbLine
 10
107.775270161421
 20
218.1298664826983
 30
0.0
 11
107.775270161421
 21
212.6298664826983
 31
0.0
  0
LINE
  5
100019AC
330
F6
100
AcDbEntity
  8
外形線
100
AcDbLine
 10
101.2752701614211
 20
212.6298664826983
 30
0.0
 11
101.2752701614211
 21
203.0272835216361
 31
0.0
  0
SPLINE
  5
100019AD
330
F6
100
AcDbEntity
  8
外形線
100
AcDbSpline
210
0.0
220
0.0
230
1.0
 70
     8
 71
     3
 72
    10
 73
     6
 74
     4
 42
0.0000000001
 43
0.0000000001
 44
0.0000000001
 40
0.0
 40
0.0
 40
0.0
 40
0.0
 40
6.058706403875467
 40
12.8458200542764
 40
23.30864949506514
 40
23.30864949506514
 40
23.30864949506514
 40
23.30864949506514
 10
101.2752701614211
 20
203.0272835216361
 30
0.0
 10
103.1915035686617
 20
203.7542967215685
 30
0.0
 10
107.2543493133673
 20
205.2957281956933
 30
0.0
 10
116.2970842445802
 20
199.4708193788612
 30
0.0
 10
115.8478746921612
 20
207.6617289464096
 30
0.0
 10
115.5754098553043
 20
212.6298664826983
 30
0.0
 11
101.2752701614211
 21
203.0272835216361
 31
0.0
 11
107.2287973665034
 21
204.151310704006
 31
0.0
 11
113.7655129193717
 21
202.324767114505
 31
0.0
 11
115.5754098553043
 21
212.6298664826983
 31
0.0
  0
LINE
  5
100019AE
330
F6
100
AcDbEntity
  8
0
  6
ByBlock
 62
     2
100
AcDbLine
 10
102.775270161421
 20
218.1298664826983
 30
0.0
 11
102.775270161421
 21
230.7222825765125
 31
0.0
  0
LINE
  5
100019AF
330
F6
100
AcDbEntity
  8
0
  6
ByBlock
 62
     2
100
AcDbLine
 10
107.775270161421
 20
218.1298664826983
 30
0.0
 11
107.775270161421
 21
230.7222825765125
 31
0.0
  0
LINE
  5
100019B0
330
F6
100
AcDbEntity
  8
0
  6
ByBlock
 62
     2
100
AcDbLine
 10
100.2752701614211
 20
229.4722825765125
 30
0.0
 11
97.77527016142109
 21
229.4722825765125
 31
0.0
  0
LINE
  5
100019B1
330
F6
100
AcDbEntity
  8
0
  6
ByBlock
 62
     2
100
AcDbLine
 10
110.275270161421
 20
229.4722825765125
 30
0.0
 11
112.7752701614211
 21
229.4722825765125
 31
0.0
  0
LINE
  5
100019B2
330
F6
100
AcDbEntity
  8
0
  6
ByBlock
 62
     2
100
AcDbLine
 10
102.775270161421
 20
229.4722825765125
 30
0.0
 11
107.775270161421
 21
229.4722825765125
 31
0.0
  0
INSERT
  5
100019B3
330
F6
100
AcDbEntity
  8
0
  6
ByBlock
 62
     2
100
AcDbBlockReference
  2
_OPEN
 10
102.775270161421
 20
229.4722825765125
 30
0.0
 41
2.5
 42
2.5
 43
2.5
  0
INSERT
  5
100019B4
330
F6
100
AcDbEntity
  8
0
  6
ByBlock
 62
     2
100
AcDbBlockReference
  2
_OPEN
 10
107.775270161421
 20
229.4722825765125
 30
0.0
 41
2.5
 42
2.5
 43
2.5
 50
180.0
  0
MTEXT
  5
100019B5
330
F6
100
AcDbEntity
  8
0
  6
ByBlock
 62
     6
100
AcDbMText
 10
103.9713785994026
 20
232.6505142459298
 30
0.0
 40
2.5
 41
0.0
 71
     5
 72
     1
  1
φ2.5
  7
STYLE3
 73
     1
 44
1.0
  0
POINT
  5
100019B6
330
F6
100
AcDbEntity
  8
DEFPOINTS
  6
ByBlock
 62
     0
100
AcDbPoint
 10
102.775270161421
 20
218.1298664826983
 30
0.0
  0
POINT
  5
100019B7
330
F6
100
AcDbEntity
  8
DEFPOINTS
  6
ByBlock
 62
     0
100
AcDbPoint
 10
107.775270161421
 20
218.1298664826983
 30
0.0
  0
POINT
  5
100019B8
330
F6
100
AcDbEntity
  8
DEFPOINTS
  6
ByBlock
 62
     0
100
AcDbPoint
 10
107.775270161421
 20
229.4722825765125
 30
0.0
  0
POINT
  5
100019BC
330
F6
100
AcDbEntity
  8
DEFPOINTS
  6
ByBlock
 62
     0
100
AcDbPoint
 10
107.0856593687945
 20
219.8539578137553
 30
0.0
  0
POINT
  5
100019BD
330
F6
100
AcDbEntity
  8
DEFPOINTS
  6
ByBlock
 62
     0
100
AcDbPoint
 10
105.2752701614211
 20
218.1298664826983
 30
0.0
  0
MTEXT
  5
100019C0
330
F6
100
AcDbEntity
  8
0
  6
ByBlock
 62
     6
100
AcDbMText
 10
109.1632514684655
 20
195.5733660469774
 30
0.0
 40
2.5
 41
0.0
 71
     5
 72
     1
  1
先端測定端子拡大図 S=2/1 
  7
STYLE3
 73
     1
 44
1.0
  0
MTEXT
  5
100019C1
330
F6
100
AcDbEntity
  8
0
  6
ByBlock
 62
     6
100
AcDbMText
 10
105.577548869482
 20
191.0120548715309
 30
0.0
 40
2.5
 41
0.0
 71
     5
 72
     1
  1
(上下共形状寸法は同じ)
  7
STYLE3
 73
     1
 44
1.0
  0
DIMENSION
  5
10001B03
330
F6
100
AcDbEntity
  8
寸法線
100
AcDbDimension
  2
*D27
 10
424.115746047385
 20
140.2190569370752
 30
0.0
 11
422.240746047385
 21
125.2190569370753
 31
0.0
 70
    32
 71
     5
 42
30.0
  3
STYLE3
100
AcDbAlignedDimension
 13
405.6608674046421
 23
110.2190569370752
 33
0.0
 14
405.6608674046421
 24
140.2190569370752
 34
0.0
 50
90.0
100
AcDbRotatedDimension
1001
ACAD
1000
DSTYLE
1002
{
1070
   341
1005
0
1002
}
  0
ARC
  5
10001B14
330
F6
100
AcDbEntity
  8
中心線
 48
0.2
100
AcDbCircle
 10
235.6608674046421
 20
125.2190569370752
 30
0.0
 40
20.0
100
AcDbArc
 50
344.397694447143
 51
28.62100139881932
  0
LINE
  5
10001B15
330
F6
100
AcDbEntity
  8
中心線
 48
0.15
100
AcDbLine
 10
259.3754924115728
 20
129.2190569370752
 30
0.0
 11
251.1380782822422
 21
129.2190569370752
 31
0.0
  0
ARC
  5
10001B28
330
F6
100
AcDbEntity
  8
中心線
100
AcDbCircle
 10
235.6608674046421
 20
125.2190569370752
 30
0.0
 40
45.0
100
AcDbArc
 50
327.5734490886662
 51
39.57863892167316
  0
ARC
  5
10001B29
330
F6
100
AcDbEntity
  8
中心線
100
AcDbCircle
 10
235.6608674046421
 20
125.2190569370752
 30
0.0
 40
90.0
100
AcDbArc
 50
144.991304832585
 51
200.0829492202443
  0
LINE
  5
10001B3A
330
F6
100
AcDbEntity
  8
中心線
100
AcDbLine
 10
279.5941877250391
 20
115.4792743098605
 30
0.0
 11
303.5449931037547
 21
223.5143758011879
 31
0.0
  0
LINE
  5
10001B7F
330
F6
100
AcDbEntity
  8
想像線
 48
0.5
100
AcDbLine
 10
303.6573718552178
 20
150.7496058333238
 30
0.0
 11
293.9064896295455
 21
152.9677798168216
 31
0.0
  0
CIRCLE
  5
10001B80
330
F6
100
AcDbEntity
  8
想像線
100
AcDbCircle
 10
300.1555795577916
 20
148.8806973068468
 30
0.0
 40
1.5
  0
LINE
  5
10001B81
330
F6
100
AcDbEntity
  8
想像線
100
AcDbLine
 10
300.7120767170854
 20
147.9964541414823
 30
0.0
 11
299.5990403410805
 21
149.7650072991187
 31
0.0
  0
LINE
  5
10001B82
330
F6
100
AcDbEntity
  8
中心線
 48
0.3
100
AcDbLine
 10
298.5013328588154
 20
141.6087858815363
 30
0.0
 11
300.6856876850993
 21
151.2242599981594
 31
0.0
  0
LINE
  5
10001B83
330
F6
100
AcDbEntity
  8
中心線
100
AcDbLine
 10
301.3474585481188
 20
143.4830892146055
 30
0.0
 11
296.6856301013475
 21
144.5435826486183
 31
0.0
  0
LINE
  5
10001B84
330
F6
100
AcDbEntity
  8
想像線
 48
0.5
100
AcDbLine
 10
301.4393954777049
 20
140.9995922647999
 30
0.0
 11
295.5888661423013
 21
142.3304966548986
 31
0.0
  0
CIRCLE
  5
10001B85
330
F6
100
AcDbEntity
  8
想像線
100
AcDbCircle
 10
299.0464925660427
 20
144.0052561940105
 30
0.0
 40
1.5
  0
LINE
  5
10001B86
330
F6
100
AcDbEntity
  8
想像線
100
AcDbLine
 10
299.9431983272796
 20
144.5695966700206
 30
0.0
 11
298.1173196086451
 21
143.4204825349788
 31
0.0
  0
LINE
  5
10001B87
330
F6
100
AcDbEntity
  8
想像線
100
AcDbLine
 10
299.6029897253363
 20
143.121013028646
 30
0.0
 11
298.4899533493317
 21
144.8895661862824
 31
0.0
  0
LINE
  5
10001B88
330
F6
100
AcDbEntity
  8
中心線
100
AcDbLine
 10
302.2005080665522
 20
148.4155078900057
 30
0.0
 11
297.9826635113676
 21
149.3750018970317
 31
0.0
  0
LINE
  5
10001B89
330
F6
100
AcDbEntity
  8
想像線
100
AcDbLine
 10
301.0522853190282
 20
149.4450377828569
 30
0.0
 11
299.2264066003941
 21
148.2959236478149
 31
0.0
  0
LINE
  5
10001B8A
330
F6
100
AcDbEntity
  8
想像線
 48
0.5
100
AcDbLine
 10
303.6575694612029
 20
150.7504744904723
 30
0.0
 11
301.4393954777048
 21
140.9995922647999
 31
0.0
  0
ARC
  5
10001BA9
330
F6
100
AcDbEntity
  8
外形線
100
AcDbCircle
 10
344.1608674046421
 20
83.2190569370752
 30
0.0
 40
2.7
100
AcDbArc
 50
233.0955477139132
 51
41.46288975125011
  0
ARC
  5
10001BAA
330
F6
100
AcDbEntity
  8
外形線
100
AcDbCircle
 10
235.6608674046421
 20
125.2190569370752
 30
0.0
 40
15.0
100
AcDbArc
 50
72.01714602169213
 51
95.30800036771656
  0
ARC
  5
10001BAF
330
F6
100
AcDbEntity
  8
外形線
100
AcDbCircle
 10
304.3105339829211
 20
125.2190569370752
 30
0.0
 40
20.0
100
AcDbArc
 50
167.1842000000002
 51
267.7868211830431
  0
ARC
  5
10001BB5
330
F6
100
AcDbEntity
  8
外形線
100
AcDbCircle
 10
146.1905510980591
 20
134.9690569370752
 30
0.0
 40
1.25
100
AcDbArc
 50
2.577660256621818
 51
182.5776602566231
  0
ARC
  5
10001BB8
330
F6
100
AcDbEntity
  8
外形線
100
AcDbCircle
 10
147.4285745635286
 20
107.4690569370752
 30
0.0
 40
1.25
100
AcDbArc
 50
182.5776602566231
 51
2.577660256623119
  0
LINE
  5
10001BBB
330
F6
100
AcDbEntity
  8
中心線
100
AcDbLine
 10
145.977513795074
 20
139.7012175103559
 30
0.0
 11
147.6292229302173
 21
103.0120896518492
 31
0.0
  0
LINE
  5
10001BC9
330
F6
100
AcDbEntity
  8
外形線
100
AcDbLine
 10
144.9418158718342
 20
134.9128400820852
 30
0.0
 11
145.0654929528122
 21
132.1656225843905
 31
0.0
  0
LINE
  5
10001BCA
330
F6
100
AcDbEntity
  8
外形線
100
AcDbLine
 10
147.4392863242841
 20
135.0252737920652
 30
0.0
 11
147.562963405262
 21
132.2780562943704
 31
0.0
  0
LINE
  5
10001BCB
330
F6
100
AcDbEntity
  8
外形線
100
AcDbLine
 10
148.6773097897535
 20
107.5252737920652
 30
0.0
 11
148.5536327087755
 21
110.2724912897601
 31
0.0
  0
LINE
  5
10001BCC
330
F6
100
AcDbEntity
  8
外形線
100
AcDbLine
 10
146.1798393373037
 20
107.4128400820852
 30
0.0
 11
146.0561622563257
 21
110.1600575797801
 31
0.0
  0
LINE
  5
10001BCF
330
F6
100
AcDbEntity
  8
外形線
100
AcDbLine
 10
145.3069211205908
 20
110.1263274667861
 30
0.0
 11
152.2998383874503
 21
110.4411418547301
 31
0.0
  0
LINE
  5
10001BD0
330
F6
100
AcDbEntity
  8
外形線
100
AcDbLine
 10
144.3162518170772
 20
132.1318924713964
 30
0.0
 11
151.3091690839369
 21
132.4467068593404
 31
0.0
  0
LINE
  5
10001BD1
330
F6
100
AcDbEntity
  8
外形線
100
AcDbLine
 10
144.3162518170772
 20
132.1318924713964
 30
0.0
 11
144.5411192370372
 21
127.1369515664967
 31
0.0
  0
LINE
  5
10001BD3
330
F6
100
AcDbEntity
  8
外形線
100
AcDbLine
 10
144.5411192370372
 20
127.1369515664967
 30
0.0
 11
151.5340365038968
 21
127.4517659544407
 31
0.0
  0
LINE
  5
10001BD4
330
F6
100
AcDbEntity
  8
外形線
100
AcDbLine
 10
145.0820537006308
 20
115.1212683716858
 30
0.0
 11
152.0749709674904
 21
115.4360827596298
 31
0.0
  0
LINE
  5
10001BD5
330
F6
100
AcDbEntity
  8
外形線
100
AcDbLine
 10
145.0820537006308
 20
115.1212683716858
 30
0.0
 11
145.3069211205908
 21
110.1263274667861
 31
0.0
  0
LINE
  5
10001BD8
330
F6
100
AcDbEntity
  8
外形線
100
AcDbLine
 10
151.3091690839369
 20
132.4467068593404
 30
0.0
 11
234.2732230696702
 21
140.1547337948417
 31
0.0
  0
LINE
  5
10001BD9
330
F6
100
AcDbEntity
  8
外形線
100
AcDbLine
 10
152.2998383874504
 20
110.4411418547301
 30
0.0
 11
235.6208959595185
 21
110.2191101943839
 31
0.0
  0
ARC
  5
10001BDD
330
F6
100
AcDbEntity
  8
外形線
100
AcDbCircle
 10
208.621227181243
 20
109.6542416514404
 30
0.0
 40
16.20439462017136
100
AcDbArc
 50
30.90746233345187
 51
82.30584310198119
  0
LINE
  5
10001BE1
330
F6
100
AcDbEntity
  8
外形線
100
AcDbLine
 10
151.5340365038968
 20
127.4517659544407
 30
0.0
 11
210.7907545464724
 21
125.712745816454
 31
0.0
  0
ARC
  5
10001BE4
330
F6
100
AcDbEntity
  8
外形線
100
AcDbCircle
 10
209.0385083806938
 20
136.7190569370752
 30
0.0
 40
14.0
100
AcDbArc
 50
277.1764996325331
 51
297.0010009046514
  0
LINE
  5
10001BE6
330
F6
100
AcDbEntity
  8
外形線
100
AcDbLine
 10
152.0749709674904
 20
115.4360827596298
 30
0.0
 11
210.7874765592755
 21
122.8287325956385
 31
0.0
  0
LINE
  5
10001D2B
330
F6
100
AcDbEntity
  8
中心線
100
AcDbLine
 10
206.6608674046421
 20
125.2190569370752
 30
0.0
 11
413.928075996409
 21
125.2190569370752
 31
0.0
  0
ARC
  5
10001D32
330
F6
100
AcDbEntity
  8
外形線
100
AcDbCircle
 10
252.6411478959715
 20
177.5322491015358
 30
0.0
 40
40.0
100
AcDbArc
 50
252.0171460216921
 51
310.2813365633792
  0
ARC
  5
10001D3F
330
F6
100
AcDbEntity
  8
外形線
100
AcDbCircle
 10
229.227961344737
 20
179.8415588902486
 30
0.0
 40
40.0
100
AcDbArc
 50
276.7167990445064
 51
348.3366335294892
  0
ARC
  5
10001D42
330
F6
100
AcDbEntity
  8
隠れ線2
100
AcDbCircle
 10
229.227961344737
 20
179.8415588902486
 30
0.0
 40
40.0
100
AcDbArc
 50
348.3366335294892
 51
359.4470187848346
  0
LINE
  5
10001D43
330
F6
100
AcDbEntity
  8
外形線
100
AcDbLine
 10
310.6608674046421
 20
138.9190569370752
 30
0.0
 11
310.6608674046421
 21
139.1239738460421
 31
0.0
  0
ARC
  5
10001D4D
330
F6
100
AcDbEntity
  8
隠れ線2
100
AcDbCircle
 10
316.1265322887528
 20
150.4020577970676
 30
0.0
 40
12.0
100
AcDbArc
 50
127.8605525449757
 51
155.0374692334384
  0
ARC
  5
10001D50
330
F6
100
AcDbEntity
  8
外形線
100
AcDbCircle
 10
316.1265322887528
 20
150.4020577970676
 30
0.0
 40
12.0
100
AcDbArc
 50
155.0374692334384
 51
240.1745846246839
  0
ARC
  5
10001D58
330
F6
100
AcDbEntity
  8
外形線
100
AcDbCircle
 10
301.2211218006752
 20
45.27873211681826
 30
0.0
 40
60.0
100
AcDbArc
 50
41.46288975125012
 51
87.78682118304294
  0
ARC
  5
10001D5D
330
F6
100
AcDbEntity
  8
外形線
100
AcDbCircle
 10
241.3608674046421
 20
70.51521794930398
 30
0.0
 40
40.0
100
AcDbArc
 50
53.13010235415595
 51
95.9486073241767
  0
ARC
  5
10001D68
330
F6
100
AcDbEntity
  8
外形線
100
AcDbCircle
 10
295.3608674046421
 20
142.515217949304
 30
0.0
 40
50.0
100
AcDbArc
 50
233.130102354156
 51
275.8175722381885
  0
ARC
  5
10001DAA
330
F6
100
AcDbEntity
  8
外形線
100
AcDbCircle
 10
306.5106231410903
 20
33.0817543880261
 30
0.0
 40
60.0
100
AcDbArc
 50
53.09554771391272
 51
95.81757223818852
  0
LINE
  5
10001DAC
330
F6
100
AcDbEntity
  8
外形線
100
AcDbLine
 10
310.6608674046421
 20
111.5190569370752
 30
0.0
 11
310.6608674046421
 21
110.2324611893847
 31
0.0
  0
LINE
  5
10001DB1
330
F6
100
AcDbEntity
  8
外形線
100
AcDbLine
 10
309.6475529813594
 20
109.2325498302469
 30
0.0
 11
291.9859432526733
 21
109.467724824143
 31
0.0
  0
LINE
  5
10001DB3
330
F6
100
AcDbEntity
  8
隠れ線2
100
AcDbLine
 10
291.9859432526733
 20
109.467724824143
 30
0.0
 11
247.366090049204
 21
110.0618651016131
 31
0.0
  0
LINE
  5
10001DB5
330
F6
100
AcDbEntity
  8
外形線
100
AcDbLine
 10
247.3660900492041
 20
110.0618651016131
 30
0.0
 11
235.4611510554014
 21
110.2203865500093
 31
0.0
  0
ARC
  5
10001DB7
330
F6
100
AcDbEntity
  8
外形線
100
AcDbCircle
 10
235.6608674046421
 20
125.2190569370752
 30
0.0
 40
15.0
100
AcDbArc
 50
208.8657274150071
 51
275.9486073241767
  0
ARC
  5
10001DB8
330
F6
100
AcDbEntity
  8
隠れ線2
100
AcDbCircle
 10
235.6608674046421
 20
125.2190569370752
 30
0.0
 40
15.0
100
AcDbArc
 50
95.30800036771656
 51
156.6372136800014
  0
ARC
  5
10001DB9
330
F6
100
AcDbEntity
  8
隠れ線2
100
AcDbCircle
 10
209.0385083806938
 20
136.7190569370752
 30
0.0
 40
14.0
100
AcDbArc
 50
297.0010009046514
 51
336.6372136800013
  0
CIRCLE
  5
10001DC5
330
F6
100
AcDbEntity
  8
隠れ線2
100
AcDbCircle
 10
255.5748932073111
 20
127.4551627616546
 30
0.0
 40
3.7
  0
ARC
  5
10001EF1
330
F6
100
AcDbEntity
  8
外形線
100
AcDbCircle
 10
309.6608674046422
 20
110.2324611893847
 30
0.0
 40
1.0
100
AcDbArc
 50
269.2371171982534
 51
0.0
  0
ARC
  5
10001EF2
330
F6
100
AcDbEntity
  8
外形線
100
AcDbCircle
 10
309.6608674046421
 20
139.1239738460422
 30
0.0
 40
1.0
100
AcDbArc
 50
359.9999999999984
 51
60.17458462468443
  0
LINE
  5
10001EFF
330
F6
100
AcDbEntity
  8
寸法線
100
AcDbLine
 10
310.6608674046421
 20
110.2324611893847
 30
0.0
 11
310.6608674046421
 21
67.07912798987627
 31
0.0
  0
DIMENSION
  5
10001F00
330
F6
100
AcDbEntity
  8
寸法線
100
AcDbDimension
  2
*D28
 10
310.6608674046421
 20
69.2911240729411
 30
0.0
 11
273.1608674046421
 21
71.1661240729411
 31
0.0
 70
    32
 71
     5
 42
75.00000000000006
  3
STYLE3
100
AcDbAlignedDimension
 13
235.6608674046421
 23
86.1879857240981
 33
0.0
 14
310.6608674046421
 24
71.70394321283288
 34
0.0
100
AcDbRotatedDimension
1001
ACAD
1000
DSTYLE
1002
{
1070
   179
1070
     8
1070
   271
1070
     8
1070
   272
1070
     8
1070
   341
1005
0
1002
}
  0
LINE
  5
10001F16
330
F6
100
AcDbEntity
  8
寸法線
 62
     2
100
AcDbLine
 10
235.6608674046421
 20
125.2190569370752
 30
0.0
 11
161.4119910421783
 21
171.5154321614012
 31
0.0
  0
MTEXT
  5
10001F17
330
F6
100
AcDbEntity
  8
寸法線
 62
     6
100
AcDbMText
 10
184.9826798106586
 20
159.0280384533113
 30
0.0
 40
2.5
 41
0.0
 71
     5
 72
     1
  1
\A1;R90
  7
STYLE3
 11
0.8485585869995853
 21
-0.5291014311351532
 31
0.0
 73
     1
 44
1.0
  0
INSERT
  5
10001F18
330
F6
100
AcDbEntity
  8
寸法線
 62
     2
100
AcDbBlockReference
  2
_OPEN
 10
159.2905945746794
 20
172.838185739239
 30
0.0
 41
2.5
 42
2.5
 43
2.5
 50
148.0552377657123
  0
LINE
  5
10001F2C
330
F6
100
AcDbEntity
  8
寸法線
 62
     2
100
AcDbLine
 10
235.6608674046422
 20
125.2190569370752
 30
0.0
 11
269.3222660290005
 21
151.1643887455537
 31
0.0
  0
MTEXT
  5
10001F2D
330
F6
100
AcDbEntity
  8
寸法線
 62
     6
100
AcDbMText
 10
259.5986801878428
 20
146.0370271958121
 30
0.0
 40
2.5
 41
0.0
 71
     5
 72
     1
  1
\A1;R45
  7
STYLE3
 11
0.7920329088084318
 21
0.6104783954936118
 31
0.0
 73
     1
 44
1.0
  0
INSERT
  5
10001F2E
330
F6
100
AcDbEntity
  8
寸法線
 62
     2
100
AcDbBlockReference
  2
_OPEN
 10
271.3023483010216
 20
152.6905847342877
 30
0.0
 41
2.5
 42
2.5
 43
2.5
 50
37.62410211674904
  0
LINE
  5
10001F30
330
F6
100
AcDbEntity
  8
想像線
100
AcDbLine
 10
225.8965682734697
 20
143.2990962297154
 30
0.0
 11
227.548277408613
 21
106.6099683712087
 31
0.0
  0
LINE
  5
10001F3E
330
F6
100
AcDbEntity
  8
寸法線
 62
     2
100
AcDbLine
 10
146.1343342430691
 20
136.2177921633001
 30
0.0
 11
127.7540298933726
 21
135.3903285964857
 31
0.0
  0
LINE
  5
10001F3F
330
F6
100
AcDbEntity
  8
寸法線
 62
     2
100
AcDbLine
 10
147.4847914185185
 20
106.2203217108502
 30
0.0
 11
129.104487068822
 21
105.3928581440359
 31
0.0
  0
LINE
  5
10001F40
330
F6
100
AcDbEntity
  8
寸法線
 62
     2
100
AcDbLine
 10
129.1151988295775
 20
132.9490749990258
 30
0.0
 11
130.240788585067
 21
107.9465454514757
 31
0.0
  0
INSERT
  5
10001F41
330
F6
100
AcDbEntity
  8
寸法線
 62
     2
100
AcDbBlockReference
  2
_OPEN
 10
129.0027651195975
 20
135.4465454514757
 30
0.0
 41
2.5
 42
2.5
 43
2.5
 50
92.57766025662283
  0
INSERT
  5
10001F42
330
F6
100
AcDbEntity
  8
寸法線
 62
     2
100
AcDbBlockReference
  2
_OPEN
 10
130.3532222950469
 20
105.4490749990259
 30
0.0
 41
2.5
 42
2.5
 43
2.5
 50
272.5776602566228
  0
MTEXT
  5
10001F43
330
F6
100
AcDbEntity
  8
寸法線
 62
     6
100
AcDbMText
 10
127.9465342490554
 20
120.2188058169467
 30
0.0
 40
2.5
 41
0.0
 71
     5
 72
     1
  1
30
  7
STYLE3
 11
-0.044973483991993
 21
0.9989881809799463
 31
0.0
 73
     1
 44
1.0
  0
DIMENSION
  5
10001F47
330
F6
100
AcDbEntity
  8
寸法線
100
AcDbDimension
  2
*D29
 10
228.0837702708643
 20
94.71515852095699
 30
0.0
 11
188.0399177491814
 21
94.78932200061469
 31
0.0
 70
    32
 71
     5
 42
80.00000000000008
 51
87.42233974337718
  3
STYLE3
100
AcDbAlignedDimension
 13
147.6292229302173
 23
103.0120896518492
 33
0.0
 14
227.5482774086132
 24
106.6099683712087
 34
0.0
 50
2.577660256622833
100
AcDbRotatedDimension
1001
ACAD
1000
DSTYLE
1002
{
1070
   179
1070
     8
1070
   271
1070
     8
1070
   272
1070
     8
1070
   341
1005
0
1002
}
  0
ARC
  5
10001F56
330
F6
100
AcDbEntity
  8
想像線
 48
0.4
100
AcDbCircle
 10
150.679884763979
 20
154.854046213728
 30
0.0
 40
1.25
100
AcDbArc
 50
349.5719705149042
 51
169.5719705149055
  0
LINE
  5
10001F57
330
F6
100
AcDbEntity
  8
想像線
 48
0.4
100
AcDbLine
 10
148.2151678730422
 20
152.5114684353969
 30
0.0
 11
147.3101664056199
 21
147.5940532257605
 31
0.0
  0
LINE
  5
10001F58
330
F6
100
AcDbEntity
  8
想像線
 48
0.4
100
AcDbLine
 10
149.4505309615699
 20
155.0802965805835
 30
0.0
 11
148.9527801544877
 21
152.3757182152836
 31
0.0
  0
LINE
  5
10001F59
330
F6
100
AcDbEntity
  8
想像線
 48
0.4
100
AcDbLine
 10
151.9092385663881
 20
154.6277958468724
 30
0.0
 11
151.4114877593059
 21
151.9232174815724
 31
0.0
  0
LINE
  5
10001F5A
330
F6
100
AcDbEntity
  8
想像線
 48
0.4
100
AcDbLine
 10
148.2151678730422
 20
152.5114684353969
 30
0.0
 11
155.0995491665332
 21
151.2444663810058
 31
0.0
  0
LINE
  5
10001F5B
330
F6
100
AcDbEntity
  8
想像線
 48
0.4
100
AcDbLine
 10
147.3101664056199
 20
147.5940532257605
 30
0.0
 11
154.1945476991109
 21
146.3270511713693
 31
0.0
  0
LINE
  5
10001F5C
330
F6
100
AcDbEntity
  8
想像線
 48
0.4
100
AcDbLine
 10
155.0995491665332
 20
151.2444663810058
 30
0.0
 11
173.7259140383117
 21
148.7268479361401
 31
0.0
  0
LINE
  5
10001F5D
330
F6
100
AcDbEntity
  8
想像線
 48
0.4
100
AcDbLine
 10
154.1945476991109
 20
146.3270511713693
 30
0.0
 11
173.6975764539129
 21
141.2153733943215
 31
0.0
  0
DIMENSION
  5
10001F62
330
F6
100
AcDbEntity
  8
寸法線
100
AcDbDimension
  2
*D30
 10
118.5084541618455
 20
108.3231829744603
 30
0.0
 11
118.4458107073454
 21
133.3644625261884
 31
0.0
 70
    33
  1
50
 71
     5
 42
49.94212573730462
  3
STYLE3
100
AcDbAlignedDimension
 13
151.0996683806813
 23
156.0314508659815
 33
0.0
 14
147.4847914185186
 24
106.2203217108502
 34
0.0
1001
ACAD
1000
DSTYLE
1002
{
1070
   179
1070
     8
1070
   271
1070
     8
1070
   272
1070
     8
1070
   341
1005
0
1002
}
  0
DIMENSION
  5
10001FBA
330
F6
100
AcDbEntity
  8
寸法線
100
AcDbDimension
  2
*D31
 10
93.94027011769651
 20
212.6298664826983
 30
0.0
 11
92.06527011769649
 21
216.6298664826983
 31
0.0
 70
    32
  1
4
 71
     5
 42
7.999999999999971
  3
STYLE3
100
AcDbAlignedDimension
 13
105.2752701614211
 23
220.6298664826983
 33
0.0
 14
101.2752701614211
 24
212.6298664826983
 34
0.0
 50
90.0
100
AcDbRotatedDimension
1001
ACAD
1000
DSTYLE
1002
{
1070
   179
1070
     8
1070
   271
1070
     8
1070
   272
1070
     8
1070
   341
1005
0
1002
}
  0
LINE
  5
10001FD9
330
F6
100
AcDbEntity
  8
想像線
 48
0.3
100
AcDbLine
 10
194.8628121595218
 20
136.493190099221
 30
0.0
 11
194.8628121595218
 21
126.1801866988143
 31
0.0
  0
LINE
  5
10001FDA
330
F6
100
AcDbEntity
  8
想像線
 48
0.3
100
AcDbLine
 10
203.3037433387978
 20
121.8864355737782
 30
0.0
 11
203.3037433387978
 21
110.3052280529797
 31
0.0
  0
LINE
  5
10001FDB
330
F6
100
AcDbEntity
  8
想像線
 48
0.3
100
AcDbLine
 10
200.3037433387978
 20
121.5086974874116
 30
0.0
 11
200.3037433387978
 21
110.3132223703881
 31
0.0
  0
LINE
  5
10001FDC
330
F6
100
AcDbEntity
  8
想像線
 48
0.3
100
AcDbLine
 10
191.8628121595219
 20
136.2144660049225
 30
0.0
 11
191.8628121595219
 21
126.2682283687936
 31
0.0
  0
DIMENSION
  5
10001FDD
330
F6
100
AcDbEntity
  8
寸法線
100
AcDbDimension
  2
*D32
 10
191.8628121595219
 20
141.9781327575686
 30
0.0
 11
193.3628121595218
 21
143.8531327575685
 31
0.0
 70
    32
 71
     5
 42
2.999999999999971
  3
STYLE3
100
AcDbAlignedDimension
 13
194.8628121595218
 23
136.493190099221
 33
0.0
 14
191.8628121595219
 24
136.2144660049225
 34
0.0
100
AcDbRotatedDimension
1001
ACAD
1000
DSTYLE
1002
{
1070
   179
1070
     8
1070
   271
1070
     8
1070
   272
1070
     8
1070
   341
1005
0
1002
}
  0
DIMENSION
  5
10001FEC
330
F6
100
AcDbEntity
  8
寸法線
100
AcDbDimension
  2
*D33
 10
203.3037433387978
 20
103.6634406099182
 30
0.0
 11
201.8037433387978
 21
105.5384406099182
 31
0.0
 70
    32
 71
     5
 42
3.0
  3
STYLE3
100
AcDbAlignedDimension
 13
200.3037433387978
 23
110.3132223703881
 33
0.0
 14
203.3037433387978
 24
110.3052280529796
 34
0.0
100
AcDbRotatedDimension
1001
ACAD
1000
DSTYLE
1002
{
1070
   179
1070
     8
1070
   271
1070
     8
1070
   272
1070
     8
1070
   341
1005
0
1002
}
  0
LINE
  5
10002087
330
F6
100
AcDbEntity
  8
想像線
 48
0.5
100
AcDbLine
 10
297.8068425198144
 20
152.0805102234224
 30
0.0
 11
290.0432335775718
 21
117.9524224335691
 31
0.0
  0
LINE
  5
100020D5
330
F6
100
AcDbEntity
  8
寸法線
 62
     2
100
AcDbLine
 10
192.7879513191107
 20
151.9515909133097
 30
0.0
 11
175.2133593393233
 21
162.9098699415161
 31
0.0
  0
LINE
  5
100020D6
330
F6
100
AcDbEntity
  8
寸法線
 62
     2
100
AcDbLine
 10
247.3145130936066
 20
134.2013843665668
 30
0.0
 11
292.0817396657806
 21
168.7067999175381
 31
0.0
  0
LINE
  5
100037C8
330
F6
100
AcDbEntity
  8
外形線
100
AcDbLine
 10
202.5642824670187
 20
254.045166495257
 30
0.0
 11
324.5642824670187
 21
254.045166495257
 31
0.0
  0
LINE
  5
100037C9
330
F6
100
AcDbEntity
  8
外形線
100
AcDbLine
 10
202.5642824670187
 20
255.0451664952571
 30
0.0
 11
324.5642824670187
 21
255.0451664952571
 31
0.0
  0
TEXT
  5
100037CA
330
F6
100
AcDbEntity
  8
文字
100
AcDbText
 10
203.1849904670187
 20
257.5182794952571
 30
0.0
 40
4.0
  1
Model No.LB-6 Inside Dial Caliper Gauge
  7
STYLE3
100
AcDbText
  0
TEXT
  5
100037CB
330
F6
100
AcDbEntity
  8
C
  6
Continuous
100
AcDbText
 10
311.9988471195997
 20
-0.9520951047594437
 30
0.0
 40
2.1
  1
3RD Angle Projection
  7
STYLE3
100
AcDbText
  0
TEXT
  5
100037CC
330
F6
100
AcDbEntity
  8
C
  6
Continuous
100
AcDbText
 10
314.6222901195997
 20
2.544187895240554
 30
0.0
 40
3.0
  1
三　　角　　法
  7
STYLE3
100
AcDbText
  0
LINE
  5
100037CD
330
F6
100
AcDbEntity
  8
C
100
AcDbLine
 10
310.8328711195996
 20
17.69474889524055
 30
0.0
 11
451.6242891195996
 21
17.69474889524055
 31
0.0
  0
LINE
  5
100037CE
330
F6
100
AcDbEntity
  8
C
100
AcDbLine
 10
310.8328711195996
 20
6.914542895240554
 30
0.0
 11
451.6242891195996
 21
6.914542895240554
 31
0.0
  0
TEXT
  5
100037CF
330
F6
100
AcDbEntity
  8
C
  6
Continuous
100
AcDbText
 10
312.2903391195996
 20
8.812532895240554
 30
0.0
 40
2.1
  1
Design and specifications are subject to change without notice for future improvement.
  7
STYLE3
100
AcDbText
  0
TEXT
  5
100037D0
330
F6
100
AcDbEntity
  8
C
  6
Continuous
100
AcDbText
 10
312.5818331195997
 20
12.74168089524055
 30
0.0
 40
3.5
  1
仕様及び外観は予告なく変更される場合がございますのでご了承下さい。
  7
STYLE3
100
AcDbText
  0
LINE
  5
100037D1
330
F6
100
AcDbEntity
  8
C
100
AcDbLine
 10
310.8328711195996
 20
-2.700235104759443
 30
0.0
 11
310.8328711195996
 21
17.69474889524055
 31
0.0
  0
TEXT
  5
100037D2
330
F6
100
AcDbEntity
  8
C
  6
Continuous
100
AcDbText
 10
384.6718791195997
 20
2.380989895240553
 30
0.0
 40
3.0
  1
日 付
  7
STYLE3
100
AcDbText
  0
TEXT
  5
100037D3
330
F6
100
AcDbEntity
  8
C
  6
Continuous
100
AcDbText
 10
374.9614681195997
 20
1.08740589524055
 30
0.0
 40
2.399999999999999
  1
1/1
  7
STYLE3
100
AcDbText
  0
TEXT
  5
100037D4
330
F6
100
AcDbEntity
  8
C
  6
Continuous
100
AcDbText
 10
364.8789641195997
 20
2.258784895240552
 30
0.0
 40
3.0
  1
尺 度
  7
STYLE3
100
AcDbText
  0
LINE
  5
100037D5
330
F6
100
AcDbEntity
  8
C
100
AcDbLine
 10
412.8556381195996
 20
6.914542895240554
 30
0.0
 11
412.8556381195996
 21
-2.700235104759443
 31
0.0
  0
LINE
  5
100037D6
330
F6
100
AcDbEntity
  8
C
100
AcDbLine
 10
383.1232891195996
 20
6.914542895240554
 30
0.0
 11
383.1232891195996
 21
-2.700235104759443
 31
0.0
  0
LINE
  5
100037D7
330
F6
100
AcDbEntity
  8
C
100
AcDbLine
 10
363.5932171195997
 20
6.914542895240554
 30
0.0
 11
363.5932171195997
 21
-2.700235104759443
 31
0.0
  0
LINE
  5
100037D8
330
F6
100
AcDbEntity
  8
C
100
AcDbLine
 10
346.1035991195997
 20
6.914542895240554
 30
0.0
 11
346.1035991195997
 21
-2.700235104759443
 31
0.0
  0
TEXT
  5
100037D9
330
F6
100
AcDbEntity
  8
C
  6
Continuous
100
AcDbText
 10
347.5610681195996
 20
2.550142895240554
 30
0.0
 40
3.0
  1
単位
  7
STYLE3
100
AcDbText
  0
TEXT
  5
100037DA
330
F6
100
AcDbEntity
  8
C
  6
Continuous
100
AcDbText
 10
414.2046011195996
 20
2.835544895240552
 30
0.0
 40
3.0
  1
株式会社　尾崎製作所
  7
STYLE3
100
AcDbText
  0
TEXT
  5
100037DB
330
F6
100
AcDbEntity
  8
C
  6
Continuous
100
AcDbText
 10
393.8000471195996
 20
0.7960478952405552
 30
0.0
 40
2.1
  1
2010.06.29
  7
STYLE3
100
AcDbText
  0
TEXT
  5
100037DC
330
F6
100
AcDbEntity
  8
C
  6
Continuous
100
AcDbText
 10
365.3421791195997
 20
-0.6607371047594484
 30
0.0
 40
2.1
  1
Scale
  7
STYLE3
100
AcDbText
  0
TEXT
  5
100037DD
330
F6
100
AcDbEntity
  8
C
  6
Continuous
100
AcDbText
 10
347.7327891195996
 20
-0.9520941047594462
 30
0.0
 40
2.1
  1
Unit
  7
STYLE3
100
AcDbText
  0
TEXT
  5
100037DE
330
F6
100
AcDbEntity
  8
C
  6
Continuous
100
AcDbText
 10
355.6031161195996
 20
0.7960488952405527
 30
0.0
 40
2.399999999999999
  1
mm
  7
STYLE3
100
AcDbText
  0
TEXT
  5
100037DF
330
F6
100
AcDbEntity
  8
C
  6
Continuous
100
AcDbText
 10
385.0552401195997
 20
-0.9520931047594487
 30
0.0
 40
2.1
  1
Date
  7
STYLE3
100
AcDbText
  0
TEXT
  5
100037E0
330
F6
100
AcDbEntity
  8
C
  6
Continuous
100
AcDbText
 10
415.0790801195996
 20
-0.9520941047594462
 30
0.0
 40
2.1
  1
OZAKI MFG. CO., LTD.
  7
STYLE3
100
AcDbText
  0
ENDSEC
  0
SECTION
  2
OBJECTS
  0
DICTIONARY
  5
1E5
330
0
100
AcDbDictionary
281
     1
  3
ACAD_COLOR
350
1000168C
  3
ACAD_GROUP
350
1E6
  3
ACAD_LAYOUT
350
1000168F
  3
ACAD_MATERIAL
350
1000168B
  3
ACAD_MLINESTYLE
350
1E7
  3
ACAD_PLOTSETTINGS
350
10001690
  3
ACAD_PLOTSTYLENAME
350
10001689
  3
ACAD_TABLESTYLE
350
1000168D
  3
AcDbVariableDictionary
350
10001698
  3
CONTENTDICTIONARY
350
1E8
  0
DICTIONARY
  5
10001B11
330
F6
100
AcDbDictionary
280
     1
281
     1
  3
ACAD_SORTENTS
360
10001B12
  0
DICTIONARY
  5
1000168C
102
{ACAD_REACTORS
330
1E5
102
}
330
1E5
100
AcDbDictionary
281
     1
  0
DICTIONARY
  5
1E6
102
{ACAD_REACTORS
330
1E5
102
}
330
0
100
AcDbDictionary
281
     1
  0
DICTIONARY
  5
1000168F
102
{ACAD_REACTORS
330
1E5
102
}
330
1E5
100
AcDbDictionary
281
     1
  3
Model
350
10001691
  3
レイアウト1
350
10001692
  0
DICTIONARY
  5
1000168B
102
{ACAD_REACTORS
330
1E5
102
}
330
1E5
100
AcDbDictionary
281
     1
  0
DICTIONARY
  5
1E7
102
{ACAD_REACTORS
330
1E5
102
}
330
0
100
AcDbDictionary
281
     1
  3
STANDARD
350
1E9
  0
DICTIONARY
  5
10001690
102
{ACAD_REACTORS
330
1E5
102
}
330
1E5
100
AcDbDictionary
281
     1
  0
ACDBDICTIONARYWDFLT
  5
10001689
102
{ACAD_REACTORS
330
1E5
102
}
330
1E5
100
AcDbDictionary
281
     1
  3
Normal
350
1000168A
100
AcDbDictionaryWithDefault
340
1000168A
  0
DICTIONARY
  5
1000168D
102
{ACAD_REACTORS
330
1E5
102
}
330
1E5
100
AcDbDictionary
281
     1
  3
Standard
350
1000168E
  0
DICTIONARY
  5
10001698
102
{ACAD_REACTORS
330
1E5
102
}
330
1E5
100
AcDbDictionary
281
     1
  3
CTABLESTYLE
350
10001699
  0
DICTIONARY
  5
1E8
102
{ACAD_REACTORS
330
1E5
102
}
330
0
100
AcDbDictionary
281
     1
  0
SORTENTSTABLE
  5
10001B12
102
{ACAD_REACTORS
330
10001B11
102
}
330
10001B11
100
AcDbSortentsTable
330
F6
331
10001928
  5
1000193D
331
10001929
  5
1000193E
331
10001948
  5
1000195C
331
1000192B
  5
1000193F
331
10001949
  5
1000195D
331
10001968
  5
100019AB
331
1000192C
  5
10001940
331
1000194A
  5
1000195E
331
1000194B
  5
1000195F
331
1000192D
  5
10001941
331
10001969
  5
100019AC
331
1000196A
  5
100019AD
331
1000194C
  5
10001960
331
1000192E
  5
10001942
331
100019A8
  5
100019BC
331
1000196B
  5
100019AE
331
1000194D
  5
10001961
331
1000192F
  5
10001943
331
100019A9
  5
100019BD
331
100019AA
  5
100019BE
331
1000196C
  5
100019AF
331
1000194E
  5
10001962
331
10001930
  5
10001944
331
100019C0
  5
10001B83
331
100019C1
  5
10001B86
331
100019AB
  5
100019BF
331
1000196D
  5
100019B0
331
1000194F
  5
10001963
331
10001931
  5
10001945
331
100019C2
  5
10001B87
331
100019AC
  5
100019C0
331
1000196E
  5
100019B1
331
10001950
  5
10001964
331
10001932
  5
10001946
331
100019C3
  5
10001B88
331
100019AD
  5
100019C1
331
1000196F
  5
100019B5
331
10001933
  5
10001947
331
10001951
  5
10001965
331
100019C4
  5
10001B89
331
100019AE
  5
100019C2
331
10001970
  5
100019B7
331
10001934
  5
10001948
331
10001952
  5
10001966
331
10001B03
  5
10001BA7
331
100019AF
  5
100019C3
331
10001953
  5
10001967
331
10001935
  5
10001949
331
10001971
  5
100019B8
331
10001B3A
  5
10001BAC
331
10001954
  5
10001968
331
10001936
  5
1000194A
331
100019B0
  5
100019C4
331
10001955
  5
10001969
331
10001937
  5
1000194B
331
100019B1
  5
100019C8
331
100019B2
  5
10001B03
331
10001956
  5
1000196A
331
10001938
  5
1000194C
331
100019C8
  5
10001B8A
331
100019B3
  5
10001B10
331
10001957
  5
1000196B
331
10001939
  5
1000194D
331
10001BD8
  5
10001D2E
331
100019B4
  5
10001B14
331
10001958
  5
1000196C
331
10001BD9
  5
10001D33
331
100019B5
  5
10001B15
331
1000193B
  5
1000194F
331
10001959
  5
1000196D
331
100019B6
  5
10001B19
331
1000193C
  5
10001950
331
1000195A
  5
1000196E
331
1000195B
  5
1000196F
331
1000193D
  5
10001951
331
100019B7
  5
10001B28
331
10001BB5
  5
10001BD8
331
10001D50
  5
10001DB7
331
10001D32
  5
10001D5F
331
1000195C
  5
10001970
331
1000193E
  5
10001952
331
100019B8
  5
10001B29
331
10001D51
  5
100016E5
331
10001BDD
  5
10001D43
331
1000195D
  5
10001971
331
1000193F
  5
10001953
331
100019B9
  5
10001B2A
331
100019BA
  5
10001B2D
331
1000197C
  5
100019B9
331
1000195E
  5
10001972
331
10001940
  5
10001954
331
10001BB8
  5
10001BD9
331
100019BB
  5
10001B3A
331
1000195F
  5
10001974
331
10001941
  5
10001955
331
100019BC
  5
10001B7F
331
10001960
  5
10001979
331
10001942
  5
10001956
331
10001DAA
  5
10001DC9
331
10001BE1
  5
10001D4D
331
10001BBB
  5
10001BDB
331
100019BD
  5
10001B80
331
10001943
  5
10001957
331
10001961
  5
1000197C
331
10001B7F
  5
10001BAD
331
10001EF1
  5
10001DCB
331
10001EF2
  5
10001DB8
331
10001B80
  5
10001BAF
331
100019BE
  5
10001B81
331
10001944
  5
10001958
331
10001962
  5
1000199A
331
10001DAC
  5
10001DCA
331
10001B81
  5
10001BB7
331
10001963
  5
100019A6
331
100019BF
  5
10001B82
331
10001D58
  5
10001DB9
331
10001B82
  5
10001BB8
331
10001964
  5
100019A7
331
10001B14
  5
10001BA8
331
10001BE4
  5
10001D56
331
10001BA9
  5
10001BD2
331
10001B83
  5
10001BBB
331
10001965
  5
100019A8
331
10001947
  5
1000195B
331
10001B15
  5
100016AB
331
10001BAA
  5
10001BD3
331
10001966
  5
100019A9
331
10001B84
  5
10001BC9
331
10001BE6
  5
10001D57
331
10001BC9
  5
10001BE2
331
10001967
  5
100019AA
331
10001B85
  5
10001BCA
331
10001DB1
  5
10001EF1
331
10001F16
  5
10001F2D
331
10001BCA
  5
10001BE3
331
10001B86
  5
10001BCB
331
100019A6
  5
100019BA
331
10001B28
  5
10001BA9
331
10001F17
  5
10001F2E
331
10001DB3
  5
10001EF2
331
10001D3F
  5
10001D63
331
10001BCB
  5
10001BE4
331
10001B29
  5
10001BAA
331
100019A7
  5
100019BB
331
10001B87
  5
10001BCC
331
10001D5D
  5
10001DC5
331
10001F3E
  5
10001F41
331
10001F18
  5
10001F2F
331
10001B88
  5
10001BCD
331
10001BCC
  5
10001BE5
331
10001DB5
  5
10001EFC
331
10001B89
  5
10001BCE
331
10001BAF
  5
10001BD5
331
10001F3F
  5
10001F42
331
10001F40
  5
10001F43
331
10001D68
  5
10001DC8
331
10001B8A
  5
10001BD0
331
10001D42
  5
10001D68
331
10001EFC
  5
10001F17
331
10001DB7
  5
10001BD4
331
10001BCF
  5
10001D28
331
10001D43
  5
10001D6B
331
10001F41
  5
10001F47
331
10001BD0
  5
10001BE6
331
10001DB8
  5
10001EFF
331
10001F42
  5
10001F56
331
10001EFF
  5
10001F18
331
10001BD1
  5
10001BDD
331
10001DB9
  5
10001F00
331
10001F43
  5
10001F57
331
10001F00
  5
10001F2C
331
10001BD3
  5
10001CD2
331
10001BD4
  5
10001D2A
331
10001F47
  5
10001F58
331
10001D2B
  5
10001D58
331
10001BD5
  5
10001BDE
331
10001F2C
  5
10001F3E
331
10001F2D
  5
10001F3F
331
10001D4D
  5
10001DAF
331
10001F2E
  5
10001F40
331
10001F30
  5
10001BDC
331
10001DC5
  5
10001F16
331
100016D0
  5
100016DD
331
100016D1
  5
100016DE
331
100016F0
  5
100016FF
331
100016D2
  5
100016DF
331
100016F1
  5
10001700
331
100016D3
  5
100016E0
331
10001710
  5
1000171F
331
100016F2
  5
10001701
331
100016D4
  5
100016E1
331
10001711
  5
10001720
331
100016D5
  5
100016E2
331
100016F3
  5
10001702
331
10001730
  5
1000173F
331
10001712
  5
10001721
331
100016D6
  5
100016E3
331
100016F4
  5
10001703
331
10001731
  5
10001740
331
100016F5
  5
10001704
331
100016D7
  5
100016E4
331
10001713
  5
10001722
331
10001748
  5
10001757
331
10001714
  5
10001723
331
100016F6
  5
10001705
331
100016D8
  5
100016E6
331
10001732
  5
10001741
331
10001749
  5
10001758
331
10001715
  5
10001724
331
100016F7
  5
10001706
331
100016D9
  5
100016E7
331
100016A3
  5
100016AC
331
10001733
  5
10001742
331
10001768
  5
10001777
331
1000174A
  5
10001759
331
10001734
  5
10001743
331
10001716
  5
10001725
331
100016F8
  5
10001707
331
100016DA
  5
100016E8
331
1000174B
  5
1000175A
331
10001735
  5
10001744
331
10001717
  5
10001726
331
100016F9
  5
10001708
331
100016DB
  5
100016E9
331
10001769
  5
10001778
331
10001788
  5
10001797
331
1000174C
  5
1000175B
331
10001736
  5
10001745
331
10001718
  5
10001727
331
100016FA
  5
10001709
331
100016DC
  5
100016EA
331
1000176A
  5
10001779
331
10001FD9
  5
10001FDC
331
1000176B
  5
1000177A
331
1000174D
  5
1000175C
331
10001737
  5
10001746
331
10001719
  5
10001728
331
100016DD
  5
100016EB
331
100016A7
  5
100016DB
331
100016FB
  5
1000170A
331
10001789
  5
10001799
331
10001FDA
  5
10001FEC
331
1000178A
  5
1000179A
331
1000176C
  5
1000177B
331
10001F56
  5
10001F59
331
1000174E
  5
1000175D
331
10001738
  5
10001747
331
1000171A
  5
10001729
331
100016DE
  5
100016EC
331
100016A8
  5
100016DC
331
100016FC
  5
1000170B
331
100017A8
  5
100017BB
331
10001FDB
  5
10002086
331
1000178B
  5
1000179B
331
1000176D
  5
1000177C
331
10001F57
  5
10001F5A
331
1000174F
  5
1000175E
331
10001739
  5
10001748
331
100016FD
  5
1000170C
331
100016DF
  5
100016ED
331
1000171B
  5
1000172A
331
100017A9
  5
100017BC
331
100017AA
  5
100017C8
331
10001FDC
  5
10001FDD
331
1000178C
  5
1000179C
331
1000176E
  5
1000177D
331
10001F58
  5
10001F5B
331
10001750
  5
1000175F
331
1000171C
  5
1000172B
331
100016FE
  5
1000170D
331
100016E0
  5
100016EE
331
1000173A
  5
10001749
331
100017AB
  5
100017C9
331
10001FDD
  5
10002087
331
1000178D
  5
1000179D
331
1000176F
  5
1000177E
331
10001F59
  5
10001F5C
331
10001751
  5
10001760
331
1000171D
  5
1000172C
331
100016FF
  5
1000170E
331
100016E1
  5
100016EF
331
1000173B
  5
1000174A
331
100017AC
  5
100017CA
331
1000178E
  5
1000179E
331
10001770
  5
1000177F
331
10001F5A
  5
10001F5D
331
10001752
  5
10001761
331
1000173C
  5
1000174B
331
1000171E
  5
1000172D
331
10001700
  5
1000170F
331
100016E2
  5
100016F0
331
100017E0
  5
100017F4
331
100017E1
  5
100017F5
331
100017AD
  5
100017CB
331
1000178F
  5
1000179F
331
10001F5B
  5
10001F62
331
10001753
  5
10001762
331
1000173D
  5
1000174C
331
1000171F
  5
1000172E
331
10001701
  5
10001710
331
10001771
  5
10001780
331
10001800
  5
10001814
331
100017E2
  5
100017F6
331
100017AE
  5
100017CC
331
10001790
  5
100017A0
331
10001FBA
  5
10001FDB
331
10001F5C
  5
10001FBA
331
10001754
  5
10001763
331
1000173E
  5
1000174D
331
10001720
  5
1000172F
331
10001702
  5
10001711
331
100016E4
  5
100016F2
331
10001772
  5
10001781
331
10001801
  5
10001815
331
100017E3
  5
100017F7
331
100017C5
  5
100017D9
331
100017AF
  5
100017CD
331
10001773
  5
10001782
331
10001F5D
  5
10001FD9
331
10001755
  5
10001764
331
1000173F
  5
1000174E
331
10001721
  5
10001730
331
100016E5
  5
100016F4
331
10001703
  5
10001712
331
10001791
  5
100017A1
331
10001820
  5
10001834
331
10001802
  5
10001816
331
100017E4
  5
100017F8
331
100017C6
  5
100017DA
331
10001792
  5
100017A2
331
10001774
  5
10001783
331
10001756
  5
10001765
331
10001740
  5
1000174F
331
10001722
  5
10001731
331
100016E6
  5
100016F5
331
10001704
  5
10001713
331
100017B0
  5
100017CE
331
10001821
  5
10001835
331
10001803
  5
10001817
331
100017E5
  5
100017F9
331
100017C7
  5
100017DB
331
10001793
  5
100017A3
331
10001775
  5
10001784
331
10001741
  5
10001750
331
10001705
  5
10001714
331
100016E7
  5
100016F6
331
10001723
  5
10001732
331
10001757
  5
10001766
331
100017B1
  5
100017CF
331
10001838
  5
1000184C
331
10001822
  5
10001836
331
10001804
  5
10001818
331
100017E6
  5
100017FA
331
100017B2
  5
100017D1
331
10001794
  5
100017A4
331
10001776
  5
10001785
331
10001724
  5
10001733
331
10001706
  5
10001715
331
100016E8
  5
100016F7
331
10001742
  5
10001751
331
10001758
  5
10001767
331
100017C8
  5
100017DC
331
10001839
  5
1000184D
331
10001823
  5
10001837
331
10001805
  5
10001819
331
100017C9
  5
100017DD
331
100017B3
  5
100017D2
331
10001777
  5
10001786
331
10001725
  5
10001734
331
10001707
  5
10001716
331
100016E9
  5
100016F8
331
10001743
  5
10001752
331
10001759
  5
10001768
331
100017E7
  5
100017FB
331
10001858
  5
1000186C
331
1000183A
  5
1000184E
331
10001824
  5
10001838
331
10001806
  5
1000181A
331
100017CA
  5
100017DE
331
100017B4
  5
100017D3
331
10001796
  5
100017A5
331
10001778
  5
10001787
331
10001F62
  5
10001FDA
331
10001744
  5
10001753
331
10001726
  5
10001735
331
10001708
  5
10001717
331
100016EA
  5
100016F9
331
1000175A
  5
10001769
331
100017E8
  5
100017FC
331
10001859
  5
1000186D
331
1000183B
  5
1000184F
331
10001825
  5
10001839
331
100017E9
  5
100017FD
331
100017CB
  5
100017DF
331
100017B5
  5
100017D4
331
10001797
  5
100017A6
331
10001745
  5
10001754
331
10001727
  5
10001736
331
10001709
  5
10001718
331
100016EB
  5
100016FA
331
1000175B
  5
1000176A
331
10001779
  5
10001788
331
10001807
  5
1000181B
331
10001878
  5
1000188C
331
1000185A
  5
1000186E
331
1000183C
  5
10001850
331
10001808
  5
1000181C
331
100017EA
  5
100017FE
331
100017CC
  5
100017E0
331
100017B6
  5
100017D5
331
10001798
  5
100017A7
331
10001746
  5
10001755
331
10001728
  5
10001737
331
1000170A
  5
10001719
331
100016EC
  5
100016FB
331
1000175C
  5
1000176B
331
1000177A
  5
10001789
331
10001826
  5
1000183A
331
10001879
  5
1000188D
331
1000185B
  5
1000186F
331
1000183D
  5
10001851
331
10001809
  5
1000181D
331
100017EB
  5
100017FF
331
100017CD
  5
100017E1
331
10002087
  5
100017B6
331
100017B7
  5
100017D6
331
1000177B
  5
1000178A
331
10001747
  5
10001756
331
10001729
  5
10001738
331
100016ED
  5
100016FC
331
1000170B
  5
1000171A
331
1000175D
  5
1000176C
331
10001799
  5
100017A8
331
10001827
  5
1000183B
331
10001898
  5
100018AC
331
1000187A
  5
1000188E
331
1000185C
  5
10001870
331
10001828
  5
1000183C
331
1000180A
  5
1000181E
331
100017EC
  5
10001800
331
100017CE
  5
100017E2
331
1000179A
  5
100017A9
331
1000177C
  5
1000178B
331
1000172A
  5
10001739
331
100016EE
  5
100016FD
331
1000170C
  5
1000171B
331
1000175E
  5
1000176D
331
100017B8
  5
100017D7
331
1000183E
  5
10001852
331
10001899
  5
100018AD
331
1000187B
  5
1000188F
331
1000183F
  5
10001853
331
10001829
  5
1000183D
331
1000180B
  5
1000181F
331
100017ED
  5
10001801
331
100017CF
  5
100017E3
331
1000179B
  5
100017AA
331
1000177D
  5
1000178C
331
1000170D
  5
1000171C
331
100016EF
  5
100016FE
331
1000172B
  5
1000173A
331
1000175F
  5
1000176E
331
100017B9
  5
100017D8
331
1000185D
  5
10001871
331
100018B0
  5
100018C4
331
1000189A
  5
100018AE
331
1000187C
  5
10001890
331
10001840
  5
10001854
331
1000182A
  5
1000183E
331
1000180C
  5
10001820
331
100017EE
  5
10001802
331
10001FEC
  5
10002089
331
1000179C
  5
100017AB
331
1000177E
  5
1000178D
331
1000172C
  5
1000173B
331
1000170E
  5
1000171D
331
10001760
  5
1000176F
331
100017D0
  5
100017E4
331
1000185E
  5
10001872
331
100018B1
  5
100018C5
331
1000189B
  5
100018AF
331
1000185F
  5
10001873
331
10001841
  5
10001855
331
1000182B
  5
1000183F
331
1000180D
  5
10001821
331
100017D1
  5
100017E5
331
1000179D
  5
100017AC
331
1000177F
  5
1000178E
331
1000172D
  5
1000173C
331
1000170F
  5
1000171E
331
10001761
  5
10001770
331
100017EF
  5
10001803
331
1000187D
  5
10001891
331
100018D0
  5
100018E4
331
100018B2
  5
100018C6
331
1000187E
  5
10001892
331
10001860
  5
10001874
331
10001842
  5
10001856
331
1000182C
  5
10001840
331
1000180E
  5
10001822
331
100017D2
  5
100017E6
331
1000179E
  5
100017AD
331
10001780
  5
1000178F
331
1000172E
  5
1000173D
331
10001762
  5
10001771
331
100017F0
  5
10001804
331
1000189C
  5
100018B0
331
100018D1
  5
100018E5
331
100018B3
  5
100018C7
331
1000187F
  5
10001893
331
10001861
  5
10001875
331
10001843
  5
10001857
331
1000182D
  5
10001841
331
100017F1
  5
10001805
331
100020D5
  5
100020D5
331
100017D3
  5
100017E7
331
1000179F
  5
100017AF
331
1000172F
  5
1000173E
331
10001763
  5
10001772
331
10001781
  5
10001790
331
1000180F
  5
10001823
331
1000189D
  5
100018B1
331
100018F0
  5
10001904
331
100018D2
  5
100018E6
331
1000189E
  5
100018B2
331
10001880
  5
10001894
331
10001862
  5
10001876
331
10001844
  5
10001858
331
10001810
  5
10001824
331
100017F2
  5
10001806
331
100020D6
  5
100020D6
331
100017D4
  5
100017E8
331
100017A0
  5
100017B0
331
10001764
  5
10001773
331
10001782
  5
10001791
331
1000182E
  5
10001842
331
100018B4
  5
100018C8
331
100018F1
  5
10001905
331
100018B5
  5
100018C9
331
1000189F
  5
100018B3
331
10001881
  5
10001895
331
10001863
  5
10001877
331
10001845
  5
10001859
331
10001811
  5
10001825
331
100017F3
  5
10001807
331
100017D5
  5
100017E9
331
10001783
  5
10001792
331
10001765
  5
10001774
331
100017A1
  5
100017B1
331
1000182F
  5
10001843
331
100018D3
  5
100018E7
331
10001910
  5
10001926
331
100018F2
  5
10001906
331
100018B6
  5
100018CA
331
100018A0
  5
100018B4
331
10001882
  5
10001896
331
10001864
  5
10001878
331
10001830
  5
10001844
331
10001812
  5
10001826
331
100017F4
  5
10001808
331
100017A2
  5
100017B2
331
10001784
  5
10001793
331
10001766
  5
10001775
331
100017D6
  5
100017EA
331
10001846
  5
1000185A
331
100018D4
  5
100018E8
331
10001911
  5
10001927
331
100018D5
  5
100018E9
331
100018B7
  5
100018CB
331
100018A1
  5
100018B5
331
10001883
  5
10001897
331
10001847
  5
1000185B
331
10001831
  5
10001845
331
10001813
  5
10001827
331
100017F5
  5
10001809
331
100017A3
  5
100017B3
331
10001785
  5
10001794
331
10001767
  5
10001776
331
100017D7
  5
100017EB
331
10001865
  5
10001879
331
100018F3
  5
10001907
331
100018F4
  5
10001908
331
100018D6
  5
100018EA
331
100018B8
  5
100018CC
331
100018A2
  5
100018B6
331
10001884
  5
10001898
331
10001848
  5
1000185C
331
10001832
  5
10001846
331
10001814
  5
10001828
331
100017F6
  5
1000180A
331
10001786
  5
10001795
331
100017D8
  5
100017EC
331
10001866
  5
1000187A
331
10001912
  5
10001928
331
100018F5
  5
10001909
331
100018D7
  5
100018EB
331
100018B9
  5
100018CD
331
100018A3
  5
100018B7
331
10001867
  5
1000187B
331
10001849
  5
1000185D
331
10001833
  5
10001847
331
10001815
  5
10001829
331
100017D9
  5
100017ED
331
100017A5
  5
100017B5
331
10001787
  5
10001796
331
100017F7
  5
1000180B
331
10001885
  5
10001899
331
10001913
  5
10001929
331
10001914
  5
1000192D
331
100018F6
  5
1000190A
331
100018D8
  5
100018EC
331
100018BA
  5
100018CE
331
10001886
  5
1000189A
331
10001868
  5
1000187C
331
1000184A
  5
1000185E
331
10001834
  5
10001848
331
10001816
  5
1000182A
331
100017DA
  5
100017EE
331
100017A6
  5
100017B9
331
100017F8
  5
1000180C
331
100018A4
  5
100018B8
331
10001915
  5
10001930
331
100018F7
  5
1000190B
331
100018D9
  5
100018ED
331
100018BB
  5
100018CF
331
10001887
  5
1000189B
331
10001869
  5
1000187D
331
1000184B
  5
1000185F
331
10001835
  5
10001849
331
100017F9
  5
1000180D
331
100017DB
  5
100017EF
331
100017A7
  5
100017BA
331
10001817
  5
1000182B
331
100018A5
  5
100018B9
331
10001916
  5
10001931
331
100018F8
  5
1000190C
331
100018DA
  5
100018EE
331
100018A6
  5
100018BA
331
10001888
  5
1000189C
331
1000186A
  5
1000187E
331
1000184C
  5
10001860
331
10001818
  5
1000182C
331
100017FA
  5
1000180E
331
100017DC
  5
100017F0
331
10001836
  5
1000184A
331
100018BC
  5
100018D0
331
10001917
  5
10001932
331
100018F9
  5
1000190D
331
100018BD
  5
100018D1
331
100018A7
  5
100018BB
331
10001889
  5
1000189D
331
1000186B
  5
1000187F
331
1000184D
  5
10001861
331
10001819
  5
1000182D
331
100017FB
  5
1000180F
331
100017DD
  5
100017F1
331
10001837
  5
1000184B
331
100018DB
  5
100018EF
331
100018FA
  5
1000190E
331
100018BE
  5
100018D2
331
100018A8
  5
100018BC
331
1000188A
  5
1000189E
331
1000186C
  5
10001880
331
1000181A
  5
1000182E
331
100017FC
  5
10001810
331
100017DE
  5
100017F2
331
1000184E
  5
10001862
331
100018DC
  5
100018F0
331
100018DD
  5
100018F1
331
100018BF
  5
100018D3
331
100018A9
  5
100018BD
331
1000188B
  5
1000189F
331
1000184F
  5
10001863
331
1000181B
  5
1000182F
331
100017FD
  5
10001811
331
100017DF
  5
100017F3
331
1000186D
  5
10001881
331
100018FB
  5
1000190F
331
100018FC
  5
10001910
331
100018DE
  5
100018F2
331
100018C0
  5
100018D4
331
100018AA
  5
100018BE
331
1000188C
  5
100018A0
331
10001850
  5
10001864
331
1000181C
  5
10001830
331
100017FE
  5
10001812
331
1000186E
  5
10001882
331
1000191A
  5
10001933
331
100018FD
  5
10001911
331
100018DF
  5
100018F3
331
100018C1
  5
100018D5
331
100018AB
  5
100018BF
331
1000186F
  5
10001883
331
10001851
  5
10001865
331
1000181D
  5
10001831
331
100017FF
  5
10001813
331
1000188D
  5
100018A1
331
1000191B
  5
10001934
331
100018FE
  5
10001912
331
100018E0
  5
100018F4
331
100018C2
  5
100018D6
331
1000188E
  5
100018A2
331
10001870
  5
10001884
331
10001852
  5
10001866
331
1000181E
  5
10001832
331
100018AC
  5
100018C0
331
100018FF
  5
10001913
331
100018E1
  5
100018F5
331
100018C3
  5
100018D7
331
1000188F
  5
100018A3
331
10001871
  5
10001885
331
10001853
  5
10001867
331
1000181F
  5
10001833
331
100018AD
  5
100018C1
331
10001900
  5
10001914
331
100018E2
  5
100018F6
331
100018AE
  5
100018C2
331
10001890
  5
100018A4
331
10001872
  5
10001886
331
10001854
  5
10001868
331
100018C4
  5
100018D8
331
10001901
  5
10001915
331
100018C5
  5
100018D9
331
100018AF
  5
100018C3
331
10001891
  5
100018A5
331
10001873
  5
10001887
331
10001855
  5
10001869
331
100018E3
  5
100018F7
331
10001920
  5
10001935
331
10001902
  5
10001916
331
100018C6
  5
100018DA
331
10001892
  5
100018A6
331
10001874
  5
10001888
331
10001856
  5
1000186A
331
100018E4
  5
100018F8
331
10001921
  5
10001936
331
100018E5
  5
100018F9
331
100018C7
  5
100018DB
331
10001893
  5
100018A7
331
10001857
  5
1000186B
331
10001875
  5
10001889
331
10001903
  5
10001917
331
10001904
  5
10001918
331
100018E6
  5
100018FA
331
100018C8
  5
100018DC
331
10001894
  5
100018A8
331
10001876
  5
1000188A
331
10001922
  5
10001937
331
10001905
  5
10001919
331
100018E7
  5
100018FB
331
100018C9
  5
100018DD
331
10001877
  5
1000188B
331
10001895
  5
100018A9
331
10001923
  5
10001938
331
10001924
  5
10001939
331
10001906
  5
1000191A
331
100018E8
  5
100018FC
331
10001896
  5
100018AA
331
100018CA
  5
100018DE
331
10001925
  5
1000193A
331
10001907
  5
1000191B
331
100018E9
  5
100018FD
331
10001897
  5
100018AB
331
100018CB
  5
100018DF
331
10001926
  5
1000193B
331
10001908
  5
1000191C
331
100018EA
  5
100018FE
331
100018CC
  5
100018E0
331
10001927
  5
1000193C
331
10001909
  5
1000191D
331
100018CD
  5
100018E1
331
100018EB
  5
100018FF
331
1000190A
  5
1000191E
331
100018CE
  5
100018E2
331
100018EC
  5
10001900
331
100018ED
  5
10001901
331
100018CF
  5
100018E3
331
1000190B
  5
1000191F
331
1000190C
  5
10001920
331
100018EE
  5
10001902
331
1000190D
  5
10001923
331
100018EF
  5
10001903
331
1000190E
  5
10001924
331
1000190F
  5
10001925
  0
LAYOUT
  5
10001691
102
{ACAD_REACTORS
330
1000168F
102
}
330
1000168F
100
AcDbPlotSettings
  1

  2
Mytalk FAX
  4
A3
  6

 40
3.174999952316284
 41
9.810742378234863
 42
3.17498779296875
 43
3.17498779296875
 44
296.9259948730469
 45
420.1159973144531
 46
0.0119850735795524
 47
-0.691738684925241
 48
0.0
 49
0.0
140
0.0
141
0.0
142
1.0
143
0.9750999999999999
 70
 28324
 72
     1
 73
     1
 74
     1
  7
AutoCAD LT 98.ctb
 75
     0
147
0.7294640982734863
 76
     1
 77
     2
 78
   300
148
-54.11096567139953
149
3.97482252380189
100
AcDbLayout
  1
Model
 70
     1
 71
     0
 10
0.0
 20
0.0
 11
12.0
 21
9.0
 12
0.0
 22
0.0
 32
0.0
 14
0.0
 24
0.0
 34
0.0
 15
0.0
 25
0.0
 35
0.0
146
0.0
 13
0.0
 23
0.0
 33
0.0
 16
1.0
 26
0.0
 36
0.0
 17
0.0
 27
1.0
 37
0.0
 76
     0
330
F6
1001
ACAD_PSEXT
1000
Mytalk FAX
1000
Mytalk FAX
1000
NULL
1000

1070
     0
  0
LAYOUT
  5
10001692
102
{ACAD_REACTORS
330
1000168F
102
}
330
1000168F
100
AcDbPlotSettings
  1

  2
C:\Documents and Settings\佐藤\Application Data\Autodesk\AutoCAD LT 2005\R10\jpn\plotters\PEACOCK EPSON LP-6100.pc3
  4

  6

 40
0.0
 41
0.0
 42
0.0
 43
0.0
 44
0.0
 45
0.0
 46
0.0
 47
0.0
 48
0.0
 49
0.0
140
0.0
141
0.0
142
1.0
143
1.0
 70
   688
 72
     0
 73
     0
 74
     5
  7
AutoCAD LT 98.ctb
 75
    16
147
1.0
 76
     0
 77
     2
 78
   300
148
0.0
149
0.0
100
AcDbLayout
  1
レイアウト1
 70
     1
 71
     1
 10
0.0
 20
0.0
 11
400.0
 21
257.0
 12
0.0
 22
0.0
 32
0.0
 14
1.000000000000000E+20
 24
1.000000000000000E+20
 34
1.000000000000000E+20
 15
-1.000000000000000E+20
 25
-1.000000000000000E+20
 35
-1.000000000000000E+20
146
0.0
 13
0.0
 23
0.0
 33
0.0
 16
1.0
 26
0.0
 36
0.0
 17
0.0
 27
1.0
 37
0.0
 76
     0
330
F9
  0
MLINESTYLE
  5
1E9
102
{ACAD_REACTORS
330
1E7
102
}
330
0
100
AcDbMlineStyle
  2
STANDARD
 70
     0
  3
 
 62
   256
 51
90.0
 52
90.0
 71
     2
 49
0.5
 62
   256
  6
BYLAYER
 49
-0.5
 62
   256
  6
BYLAYER
  0
ACDBPLACEHOLDER
  5
1000168A
102
{ACAD_REACTORS
330
10001689
102
}
330
10001689
  0
ACAD_PROXY_OBJECT
  5
1000168E
102
{ACAD_REACTORS
330
1000168D
102
}
330
1000168D
100
AcDbProxyObject
 90
      499
 91
      503
 95
  2555929
 70
     0
 93
     1849
310
4214DD185B99185C992420000000000000F83F0000000000003E0FC00000000000004901028000000C1008070000C3001FDFF8000000C1003FBFF000000182007F7FE00000030400FEFFC00000060801FDFF8000000C1003FBFF000000182000000000000000C2020B0000001820100E000186003FBFF000000182007F7FE0
310
0000030400FEFFC00000060801FDFF8000000C1003FBFF000000182007F7FE0000003040000000000000012404160000003040201C00030C007F7FE00000030400FEFFC00000060801FDFF8000000C1003FBFF000000182007F7FE00000030400FEFFC000000608000
340
D5
340
D5
340
D5
 94
        0
  0
DICTIONARYVAR
  5
10001699
102
{ACAD_REACTORS
330
10001698
102
}
330
10001698
100
DictionaryVariables
280
     0
  1
STANDARD
  0
ENDSEC
  0
EOF
