  0
SECTION
  2
HEADER
  9
$ACADVER
  1
AC1018
  9
$ACADMAINTVER
 70
     0
  9
$DWGCODEPAGE
  3
ANSI_932
  9
$INSBASE
 10
0.0
 20
0.0
 30
0.0
  9
$EXTMIN
 10
-0.4128286110385489
 20
-0.4090752353065455
 30
-0.0015258207003583
  9
$EXTMAX
 10
377.9317758321901
 20
282.9186987961628
 30
0.0000000349246037
  9
$LIMMIN
 10
0.0
 20
0.0
  9
$LIMMAX
 10
420.0
 20
297.0
  9
$ORTHOMODE
 70
     0
  9
$REGENMODE
 70
     1
  9
$FILLMODE
 70
     1
  9
$QTEXTMODE
 70
     0
  9
$MIRRTEXT
 70
     1
  9
$LTSCALE
 40
1.0
  9
$ATTMODE
 70
     1
  9
$TEXTSIZE
 40
3.0
  9
$TRACEWID
 40
1.0
  9
$TEXTSTYLE
  7
STYLE3
  9
$CLAYER
  8
中心線
  9
$CELTYPE
  6
BYLAYER
  9
$CECOLOR
 62
   256
  9
$CELTSCALE
 40
1.0
  9
$DISPSILH
 70
     0
  9
$DIMSCALE
 40
1.0
  9
$DIMASZ
 40
2.5
  9
$DIMEXO
 40
0.0
  9
$DIMDLI
 40
3.75
  9
$DIMRND
 40
0.0
  9
$DIMDLE
 40
0.0
  9
$DIMEXE
 40
1.25
  9
$DIMTP
 40
0.0
  9
$DIMTM
 40
0.0
  9
$DIMTXT
 40
2.5
  9
$DIMCEN
 40
2.5
  9
$DIMTSZ
 40
0.0
  9
$DIMTOL
 70
     0
  9
$DIMLIM
 70
     0
  9
$DIMTIH
 70
     0
  9
$DIMTOH
 70
     0
  9
$DIMSE1
 70
     0
  9
$DIMSE2
 70
     0
  9
$DIMTAD
 70
     1
  9
$DIMZIN
 70
     8
  9
$DIMBLK
  1

  9
$DIMASO
 70
     1
  9
$DIMSHO
 70
     1
  9
$DIMPOST
  1

  9
$DIMAPOST
  1

  9
$DIMALT
 70
     0
  9
$DIMALTD
 70
     4
  9
$DIMALTF
 40
0.0394
  9
$DIMLFAC
 40
1.0
  9
$DIMTOFL
 70
     1
  9
$DIMTVP
 40
0.0
  9
$DIMTIX
 70
     0
  9
$DIMSOXD
 70
     0
  9
$DIMSAH
 70
     1
  9
$DIMBLK1
  1
OPEN
  9
$DIMBLK2
  1
OPEN
  9
$DIMSTYLE
  2
STYLE3
  9
$DIMCLRD
 70
     2
  9
$DIMCLRE
 70
     2
  9
$DIMCLRT
 70
     6
  9
$DIMTFAC
 40
1.0
  9
$DIMGAP
 40
0.625
  9
$DIMJUST
 70
     0
  9
$DIMSD1
 70
     0
  9
$DIMSD2
 70
     0
  9
$DIMTOLJ
 70
     1
  9
$DIMTZIN
 70
     0
  9
$DIMALTZ
 70
     0
  9
$DIMALTTZ
 70
     0
  9
$DIMUPT
 70
     0
  9
$DIMDEC
 70
     2
  9
$DIMTDEC
 70
     4
  9
$DIMALTU
 70
     8
  9
$DIMALTTD
 70
     4
  9
$DIMTXSTY
  7
STYLE3
  9
$DIMAUNIT
 70
     0
  9
$DIMADEC
 70
     0
  9
$DIMALTRND
 40
0.0
  9
$DIMAZIN
 70
     0
  9
$DIMDSEP
 70
    46
  9
$DIMATFIT
 70
     3
  9
$DIMFRAC
 70
     0
  9
$DIMLDRBLK
  1

  9
$DIMLUNIT
 70
     2
  9
$DIMLWD
 70
    -2
  9
$DIMLWE
 70
    -2
  9
$DIMTMOVE
 70
     0
  9
$LUNITS
 70
     2
  9
$LUPREC
 70
     4
  9
$SKETCHINC
 40
1.0
  9
$FILLETRAD
 40
0.0
  9
$AUNITS
 70
     0
  9
$AUPREC
 70
     0
  9
$MENU
  1
.
  9
$ELEVATION
 40
0.0
  9
$PELEVATION
 40
0.0
  9
$THICKNESS
 40
0.0
  9
$LIMCHECK
 70
     0
  9
$CHAMFERA
 40
10.0
  9
$CHAMFERB
 40
10.0
  9
$CHAMFERC
 40
20.0
  9
$CHAMFERD
 40
0.0
  9
$SKPOLY
 70
     0
  9
$TDCREATE
 40
2451249.428036690
  9
$TDUCREATE
 40
2451249.053036690
  9
$TDUPDATE
 40
2455377.474453843
  9
$TDUUPDATE
 40
2455377.099453843
  9
$TDINDWG
 40
0.9158973032
  9
$TDUSRTIMER
 40
0.9158973032
  9
$USRTIMER
 70
     1
  9
$ANGBASE
 50
0.0
  9
$ANGDIR
 70
     0
  9
$PDMODE
 70
     0
  9
$PDSIZE
 40
0.0
  9
$PLINEWID
 40
0.0
  9
$SPLFRAME
 70
     0
  9
$SPLINETYPE
 70
     6
  9
$SPLINESEGS
 70
     8
  9
$HANDSEED
  5
37DA
  9
$SURFTAB1
 70
     6
  9
$SURFTAB2
 70
     6
  9
$SURFTYPE
 70
     6
  9
$SURFU
 70
     6
  9
$SURFV
 70
     6
  9
$UCSBASE
  2

  9
$UCSNAME
  2

  9
$UCSORG
 10
0.0
 20
0.0
 30
0.0
  9
$UCSXDIR
 10
1.0
 20
0.0
 30
0.0
  9
$UCSYDIR
 10
0.0
 20
1.0
 30
0.0
  9
$UCSORTHOREF
  2

  9
$UCSORTHOVIEW
 70
     0
  9
$UCSORGTOP
 10
0.0
 20
0.0
 30
0.0
  9
$UCSORGBOTTOM
 10
0.0
 20
0.0
 30
0.0
  9
$UCSORGLEFT
 10
0.0
 20
0.0
 30
0.0
  9
$UCSORGRIGHT
 10
0.0
 20
0.0
 30
0.0
  9
$UCSORGFRONT
 10
0.0
 20
0.0
 30
0.0
  9
$UCSORGBACK
 10
0.0
 20
0.0
 30
0.0
  9
$PUCSBASE
  2

  9
$PUCSNAME
  2

  9
$PUCSORG
 10
0.0
 20
0.0
 30
0.0
  9
$PUCSXDIR
 10
1.0
 20
0.0
 30
0.0
  9
$PUCSYDIR
 10
0.0
 20
1.0
 30
0.0
  9
$PUCSORTHOREF
  2

  9
$PUCSORTHOVIEW
 70
     0
  9
$PUCSORGTOP
 10
0.0
 20
0.0
 30
0.0
  9
$PUCSORGBOTTOM
 10
0.0
 20
0.0
 30
0.0
  9
$PUCSORGLEFT
 10
0.0
 20
0.0
 30
0.0
  9
$PUCSORGRIGHT
 10
0.0
 20
0.0
 30
0.0
  9
$PUCSORGFRONT
 10
0.0
 20
0.0
 30
0.0
  9
$PUCSORGBACK
 10
0.0
 20
0.0
 30
0.0
  9
$USERI1
 70
     0
  9
$USERI2
 70
     0
  9
$USERI3
 70
     0
  9
$USERI4
 70
     0
  9
$USERI5
 70
     0
  9
$USERR1
 40
0.0
  9
$USERR2
 40
0.0
  9
$USERR3
 40
0.0
  9
$USERR4
 40
0.0
  9
$USERR5
 40
0.0
  9
$WORLDVIEW
 70
     1
  9
$SHADEDGE
 70
     3
  9
$SHADEDIF
 70
    70
  9
$TILEMODE
 70
     1
  9
$MAXACTVP
 70
    48
  9
$PINSBASE
 10
0.0
 20
0.0
 30
0.0
  9
$PLIMCHECK
 70
     0
  9
$PEXTMIN
 10
1.000000000000000E+20
 20
1.000000000000000E+20
 30
1.000000000000000E+20
  9
$PEXTMAX
 10
-1.000000000000000E+20
 20
-1.000000000000000E+20
 30
-1.000000000000000E+20
  9
$PLIMMIN
 10
0.0
 20
0.0
  9
$PLIMMAX
 10
420.0
 20
297.0
  9
$UNITMODE
 70
     0
  9
$VISRETAIN
 70
     1
  9
$PLINEGEN
 70
     0
  9
$PSLTSCALE
 70
     1
  9
$TREEDEPTH
 70
  3020
  9
$CMLSTYLE
  2
STANDARD
  9
$CMLJUST
 70
     0
  9
$CMLSCALE
 40
20.0
  9
$PROXYGRAPHICS
 70
     1
  9
$MEASUREMENT
 70
     1
  9
$CELWEIGHT
370
    -1
  9
$ENDCAPS
280
     0
  9
$JOINSTYLE
280
     0
  9
$LWDISPLAY
290
     0
  9
$INSUNITS
 70
     0
  9
$HYPERLINKBASE
  1

  9
$STYLESHEET
  1

  9
$XEDIT
290
     1
  9
$CEPSNTYPE
380
     0
  9
$PSTYLEMODE
290
     1
  9
$FINGERPRINTGUID
  2
{1581AB0A-33BB-4A0D-BFD0-36883C189A9C}
  9
$VERSIONGUID
  2
{0B9893FB-1FE4-42DC-82E6-7323123B10DE}
  9
$EXTNAMES
290
     1
  9
$PSVPSCALE
 40
0.0
  9
$OLESTARTUP
290
     0
  9
$SORTENTS
280
   127
  9
$INDEXCTL
280
     0
  9
$HIDETEXT
280
     0
  9
$XCLIPFRAME
290
     0
  9
$HALOGAP
280
     0
  9
$OBSCOLOR
 70
   257
  9
$OBSLTYPE
280
     0
  9
$INTERSECTIONDISPLAY
280
     0
  9
$INTERSECTIONCOLOR
 70
   257
  9
$DIMASSOC
280
     1
  9
$PROJECTNAME
  1

  0
ENDSEC
  0
SECTION
  2
CLASSES
  0
CLASS
  1
HATCH
  2
AcDbHatch
  3
ObjectDBX Classes
 90
        0
 91
       19
280
     0
281
     1
  0
CLASS
  1
LWPOLYLINE
  2
AcDbPolyline
  3
ObjectDBX Classes
 90
        0
 91
        5
280
     0
281
     1
  0
CLASS
  1
IMAGEDEF
  2
AcDbRasterImageDef
  3
ISM
 90
        0
 91
        1
280
     0
281
     0
  0
CLASS
  1
ACDBDICTIONARYWDFLT
  2
AcDbDictionaryWithDefault
  3
ObjectDBX Classes
 90
        0
 91
        1
280
     0
281
     0
  0
CLASS
  1
TABLESTYLE
  2
AcDbTableStyle
  3
ObjectDBX Classes
 90
     2047
 91
        1
280
     0
281
     0
  0
CLASS
  1
DICTIONARYVAR
  2
AcDbDictionaryVar
  3
ObjectDBX Classes
 90
        0
 91
        1
280
     0
281
     0
  0
ENDSEC
  0
SECTION
  2
TABLES
  0
TABLE
  2
VPORT
  5
8
330
0
100
AcDbSymbolTable
 70
     2
  0
VPORT
  5
37D9
330
8
100
AcDbSymbolTableRecord
100
AcDbViewportTableRecord
  2
*Active
 70
     0
 10
0.0
 20
0.0
 11
1.0
 21
1.0
 12
188.7594736105757
 22
141.2548117804281
 13
0.0
 23
0.0
 14
10.0
 24
10.0
 15
10.0
 25
10.0
 16
0.0
 26
0.0
 36
1.0
 17
0.0
 27
0.0
 37
0.0
 40
285.4823578644083
 41
1.530456852791878
 42
50.0
 43
0.0
 44
0.0
 50
0.0
 51
0.0
 71
     0
 72
   100
 73
     1
 74
     1
 75
     0
 76
     0
 77
     0
 78
     0
281
     0
 65
     1
110
0.0
120
0.0
130
0.0
111
1.0
121
0.0
131
0.0
112
0.0
122
1.0
132
0.0
 79
     0
146
0.0
  0
ENDTAB
  0
TABLE
  2
LTYPE
  5
5
330
0
100
AcDbSymbolTable
 70
     4
  0
LTYPE
  5
12
330
5
100
AcDbSymbolTableRecord
100
AcDbLinetypeTableRecord
  2
BYBLOCK
 70
     0
  3

 72
    65
 73
     0
 40
0.0
  0
LTYPE
  5
13
330
5
100
AcDbSymbolTableRecord
100
AcDbLinetypeTableRecord
  2
BYLAYER
 70
     0
  3

 72
    65
 73
     0
 40
0.0
  0
LTYPE
  5
14
330
5
100
AcDbSymbolTableRecord
100
AcDbLinetypeTableRecord
  2
CONTINUOUS
 70
     0
  3
Solid line
 72
    65
 73
     0
 40
0.0
  0
LTYPE
  5
22
330
5
100
AcDbSymbolTableRecord
100
AcDbLinetypeTableRecord
  2
CENTER2
 70
     0
  3
Center (.5x) ___ _ ___ _ ___ _ ___ _ ___ _ ___
 72
    65
 73
     4
 40
28.575
 49
19.05
 74
     0
 49
-3.174999999999999
 74
     0
 49
3.174999999999999
 74
     0
 49
-3.174999999999999
 74
     0
  0
LTYPE
  5
23
330
5
100
AcDbSymbolTableRecord
100
AcDbLinetypeTableRecord
  2
HIDDEN2
 70
     0
  3
Hidden (.5x) _ _ _ _ _ _ _ _ _ _ _ _ _ _ _ _ _
 72
    65
 73
     2
 40
4.762499999999999
 49
3.174999999999999
 74
     0
 49
-1.587499999999999
 74
     0
  0
LTYPE
  5
24
330
5
100
AcDbSymbolTableRecord
100
AcDbLinetypeTableRecord
  2
PHANTOM2
 70
     0
  3
Phantom (.5x) ___ _ _ ___ _ _ ___ _ _ ___ _ _
 72
    65
 73
     6
 40
31.75
 49
15.875
 74
     0
 49
-3.174999999999999
 74
     0
 49
3.174999999999999
 74
     0
 49
-3.174999999999999
 74
     0
 49
3.174999999999999
 74
     0
 49
-3.174999999999999
 74
     0
  0
ENDTAB
  0
TABLE
  2
LAYER
  5
2
330
0
100
AcDbSymbolTable
 70
    15
  0
LAYER
  5
E
330
2
100
AcDbSymbolTableRecord
100
AcDbLayerTableRecord
  2
0
 70
     0
 62
     7
  6
CONTINUOUS
370
    -3
390
3696
  0
LAYER
  5
25
330
2
100
AcDbSymbolTableRecord
100
AcDbLayerTableRecord
  2
外形線
 70
     0
 62
     7
  6
CONTINUOUS
370
    -3
390
3696
  0
LAYER
  5
26
330
2
100
AcDbSymbolTableRecord
100
AcDbLayerTableRecord
  2
寸法線
 70
     0
 62
     2
  6
CONTINUOUS
370
    -3
390
3696
  0
LAYER
  5
27
330
2
100
AcDbSymbolTableRecord
100
AcDbLayerTableRecord
  2
中心線
 70
     0
 62
     4
  6
CENTER2
370
    -3
390
3696
  0
LAYER
  5
29
330
2
100
AcDbSymbolTableRecord
100
AcDbLayerTableRecord
  2
想像線
 70
     0
 62
     1
  6
PHANTOM2
370
    -3
390
3696
  0
LAYER
  5
2A
330
2
100
AcDbSymbolTableRecord
100
AcDbLayerTableRecord
  2
ﾊｯﾁﾝｸ
 70
     0
 62
     6
  6
CONTINUOUS
370
    -3
390
3696
  0
LAYER
  5
2B
330
2
100
AcDbSymbolTableRecord
100
AcDbLayerTableRecord
  2
文字
 70
     0
 62
     6
  6
CONTINUOUS
370
    -3
390
3696
  0
LAYER
  5
2C
330
2
100
AcDbSymbolTableRecord
100
AcDbLayerTableRecord
  2
目盛
 70
     0
 62
    72
  6
CONTINUOUS
370
    -3
390
3696
  0
LAYER
  5
2D
330
2
100
AcDbSymbolTableRecord
100
AcDbLayerTableRecord
  2
針
 70
     0
 62
     5
  6
CONTINUOUS
370
    -3
390
3696
  0
LAYER
  5
53
330
2
100
AcDbSymbolTableRecord
100
AcDbLayerTableRecord
  2
DEFPOINTS
 70
     0
 62
     7
  6
CONTINUOUS
290
     0
370
    -3
390
3696
  0
LAYER
  5
A5
330
2
100
AcDbSymbolTableRecord
100
AcDbLayerTableRecord
  2
C
 70
     0
 62
     7
  6
CONTINUOUS
370
    -3
390
3696
  0
LAYER
  5
1FE
330
2
100
AcDbSymbolTableRecord
100
AcDbLayerTableRecord
  2
隠れ線2
 70
     0
 62
     1
  6
HIDDEN2
370
    -3
390
3696
  0
LAYER
  5
3F1
330
2
100
AcDbSymbolTableRecord
100
AcDbLayerTableRecord
  2
握り
 70
     0
 62
     3
  6
CONTINUOUS
370
    -3
390
3696
  0
LAYER
  5
3F2
330
2
100
AcDbSymbolTableRecord
100
AcDbLayerTableRecord
  2
ROGO
 70
     0
 62
     6
  6
CONTINUOUS
370
    -3
390
3696
  0
ENDTAB
  0
TABLE
  2
STYLE
  5
3
330
0
100
AcDbSymbolTable
 70
     3
  0
STYLE
  5
F
330
3
100
AcDbSymbolTableRecord
100
AcDbTextStyleTableRecord
  2
STANDARD
 70
     0
 40
0.0
 41
1.0
 50
0.0
 71
     0
 42
2.5
  3
txt
  4

  0
STYLE
  5
3F
330
3
100
AcDbSymbolTableRecord
100
AcDbTextStyleTableRecord
  2
STYLE3
 70
     0
 40
0.0
 41
1.0
 50
0.0
 71
     0
 42
3.0
  3
romans.shx
  4
bigfont.shx
  0
ENDTAB
  0
TABLE
  2
VIEW
  5
6
330
0
100
AcDbSymbolTable
 70
     0
  0
ENDTAB
  0
TABLE
  2
UCS
  5
7
330
0
100
AcDbSymbolTable
 70
     0
  0
ENDTAB
  0
TABLE
  2
APPID
  5
9
330
0
100
AcDbSymbolTable
 70
     1
  0
APPID
  5
10
330
9
100
AcDbSymbolTableRecord
100
AcDbRegAppTableRecord
  2
ACAD
 70
     0
  0
ENDTAB
  0
TABLE
  2
DIMSTYLE
  5
A
330
0
100
AcDbSymbolTable
 70
     2
100
AcDbDimStyleTable
 71
     1
340
8F
  0
DIMSTYLE
105
1D
330
A
100
AcDbSymbolTableRecord
100
AcDbDimStyleTableRecord
  2
STANDARD
 70
     0
 41
2.5
 42
0.625
 43
3.75
 44
1.25
 73
     0
 74
     0
 77
     1
 78
     8
140
2.5
141
2.5
143
0.0394
147
0.625
171
     4
172
     1
273
     8
274
     4
277
     6
340
F
  0
DIMSTYLE
105
8F
102
{ACAD_REACTORS
330
18F3
330
190E
330
1928
330
1A18
330
1A7C
330
1B24
330
359B
330
35C0
330
3704
102
}
330
A
100
AcDbSymbolTableRecord
100
AcDbDimStyleTableRecord
  2
STYLE3
 70
     0
 41
2.5
 42
0.0
 43
3.75
 44
1.25
 73
     0
 74
     0
 77
     1
 78
     8
140
2.5
141
2.5
143
0.0394
147
0.625
171
     4
172
     1
173
     1
176
     2
177
     2
178
     6
271
     1
273
     8
274
     4
340
3F
341
45
343
45
344
45
  0
ENDTAB
  0
TABLE
  2
BLOCK_RECORD
  5
1
330
0
100
AcDbSymbolTable
 70
    12
  0
BLOCK_RECORD
  5
18
330
1
100
AcDbSymbolTableRecord
100
AcDbBlockTableRecord
  2
*MODEL_SPACE
340
369D
  0
BLOCK_RECORD
  5
15
330
1
100
AcDbSymbolTableRecord
100
AcDbBlockTableRecord
  2
*PAPER_SPACE
340
369E
  0
BLOCK_RECORD
  5
45
330
1
100
AcDbSymbolTableRecord
100
AcDbBlockTableRecord
  2
_OPEN
340
0
102
{BLKREFS
331
1878
331
1888
331
18D7
331
18D8
331
18E0
331
18E1
331
196F
331
1970
331
197A
331
197B
331
19C3
331
19C4
331
19DD
331
19DE
331
19E6
331
19E7
331
1A2F
331
1A30
331
3773
331
3774
331
377E
331
377F
331
3787
331
3788
331
3790
331
3791
331
3799
331
379A
331
37A2
331
37A3
331
37AB
331
37AC
331
37B4
331
37B5
331
37BD
331
37BE
102
}
  0
BLOCK_RECORD
  5
18E7
330
1
100
AcDbSymbolTableRecord
100
AcDbBlockTableRecord
  2
*D1
340
0
  0
BLOCK_RECORD
  5
1902
330
1
100
AcDbSymbolTableRecord
100
AcDbBlockTableRecord
  2
*D2
340
0
  0
BLOCK_RECORD
  5
191C
330
1
100
AcDbSymbolTableRecord
100
AcDbBlockTableRecord
  2
*D3
340
0
  0
BLOCK_RECORD
  5
1A0C
330
1
100
AcDbSymbolTableRecord
100
AcDbBlockTableRecord
  2
*D4
340
0
  0
BLOCK_RECORD
  5
1A70
330
1
100
AcDbSymbolTableRecord
100
AcDbBlockTableRecord
  2
*D5
340
0
  0
BLOCK_RECORD
  5
1B18
330
1
100
AcDbSymbolTableRecord
100
AcDbBlockTableRecord
  2
*D7
340
0
  0
BLOCK_RECORD
  5
358F
330
1
100
AcDbSymbolTableRecord
100
AcDbBlockTableRecord
  2
*D8
340
0
  0
BLOCK_RECORD
  5
35B2
330
1
100
AcDbSymbolTableRecord
100
AcDbBlockTableRecord
  2
*D9
340
0
  0
BLOCK_RECORD
  5
3705
330
1
100
AcDbSymbolTableRecord
100
AcDbBlockTableRecord
  2
*D10
340
0
  0
ENDTAB
  0
ENDSEC
  0
SECTION
  2
BLOCKS
  0
BLOCK
  5
19
330
18
100
AcDbEntity
  8
0
100
AcDbBlockBegin
  2
*MODEL_SPACE
 70
     0
 10
0.0
 20
0.0
 30
0.0
  3
*MODEL_SPACE
  1

  0
ENDBLK
  5
1A
330
18
100
AcDbEntity
  8
0
100
AcDbBlockEnd
  0
BLOCK
  5
16
330
15
100
AcDbEntity
 67
     1
  8
0
100
AcDbBlockBegin
  2
*PAPER_SPACE
 70
     0
 10
0.0
 20
0.0
 30
0.0
  3
*PAPER_SPACE
  1

  0
ENDBLK
  5
17
330
15
100
AcDbEntity
 67
     1
  8
0
100
AcDbBlockEnd
  0
BLOCK
  5
46
330
45
100
AcDbEntity
  8
0
100
AcDbBlockBegin
  2
_OPEN
 70
     0
 10
0.0
 20
0.0
 30
0.0
  3
_OPEN
  1

  0
LINE
  5
47
330
45
100
AcDbEntity
  8
0
  6
ByBlock
 62
     0
100
AcDbLine
 10
-1.0
 20
0.1666666666666666
 30
0.0
 11
0.0
 21
0.0
 31
0.0
  0
LINE
  5
48
330
45
100
AcDbEntity
  8
0
  6
ByBlock
 62
     0
100
AcDbLine
 10
0.0
 20
0.0
 30
0.0
 11
-1.0
 21
-0.1666666666666666
 31
0.0
  0
LINE
  5
49
330
45
100
AcDbEntity
  8
0
  6
ByBlock
 62
     0
100
AcDbLine
 10
0.0
 20
0.0
 30
0.0
 11
-1.0
 21
0.0
 31
0.0
  0
ENDBLK
  5
4A
330
45
100
AcDbEntity
  8
0
100
AcDbBlockEnd
  0
BLOCK
  5
18F4
330
18E7
100
AcDbEntity
  8
0
100
AcDbBlockBegin
  2
*D1
 70
     1
 10
0.0
 20
0.0
 30
0.0
  3
*D1
  1

  0
LINE
  5
37BA
330
18E7
100
AcDbEntity
  8
外形線
 62
     2
370
    -2
100
AcDbLine
 10
46.65399399776394
 20
119.7205672732656
 30
0.0
 11
46.65399399776394
 21
43.75673290491579
 31
0.0
  0
LINE
  5
37BB
330
18E7
100
AcDbEntity
  8
外形線
 62
     2
370
    -2
100
AcDbLine
 10
350.2093721018568
 20
51.49664617343694
 30
0.0
 11
350.2093721018568
 21
43.75673290491579
 31
0.0
  0
LINE
  5
37BC
330
18E7
100
AcDbEntity
  8
外形線
 62
     2
370
    -2
100
AcDbLine
 10
49.15399399776394
 20
45.00673290491579
 30
0.0
 11
347.7093721018568
 21
45.00673290491579
 31
0.0
  0
INSERT
  5
37BD
330
18E7
100
AcDbEntity
  8
外形線
 62
     2
370
    -2
100
AcDbBlockReference
  2
_OPEN
 10
46.65399399776394
 20
45.00673290491579
 30
0.0
 41
2.5
 42
2.5
 43
2.5
 50
180.0
  0
INSERT
  5
37BE
330
18E7
100
AcDbEntity
  8
外形線
 62
     2
370
    -2
100
AcDbBlockReference
  2
_OPEN
 10
350.2093721018568
 20
45.00673290491579
 30
0.0
 41
2.5
 42
2.5
 43
2.5
  0
MTEXT
  5
37BF
330
18E7
100
AcDbEntity
  8
外形線
 62
     6
100
AcDbMText
 10
198.4316830498104
 20
46.88173290491579
 30
0.0
 40
2.5
 41
0.0
 71
     5
 72
     1
  1
\A1;302
  7
STYLE3
 73
     1
 44
1.0
  0
POINT
  5
37C0
330
18E7
100
AcDbEntity
  8
DEFPOINTS
 62
     0
100
AcDbPoint
 10
46.65399399776394
 20
119.7205672732656
 30
0.0
  0
POINT
  5
37C1
330
18E7
100
AcDbEntity
  8
DEFPOINTS
 62
     0
100
AcDbPoint
 10
350.2093721018568
 20
51.49664617343694
 30
0.0
  0
POINT
  5
37C2
330
18E7
100
AcDbEntity
  8
DEFPOINTS
 62
     0
100
AcDbPoint
 10
350.2093721018568
 20
45.00673290491579
 30
0.0
  0
ENDBLK
  5
18FE
330
18E7
100
AcDbEntity
  8
0
100
AcDbBlockEnd
  0
BLOCK
  5
1A46
330
1902
100
AcDbEntity
  8
0
100
AcDbBlockBegin
  2
*D2
 70
     1
 10
0.0
 20
0.0
 30
0.0
  3
*D2
  1

  0
LINE
  5
37B1
330
1902
100
AcDbEntity
  8
外形線
 62
     2
370
    -2
100
AcDbLine
 10
46.65399399776394
 20
119.7205672732656
 30
0.0
 11
46.65399399776394
 21
133.3940596775859
 31
0.0
  0
LINE
  5
37B2
330
1902
100
AcDbEntity
  8
外形線
 62
     2
370
    -2
100
AcDbLine
 10
54.65399399776394
 20
130.9222512739044
 30
0.0
 11
54.65399399776394
 21
133.3940596775859
 31
0.0
  0
LINE
  5
37B3
330
1902
100
AcDbEntity
  8
外形線
 62
     2
370
    -2
100
AcDbLine
 10
49.15399399776394
 20
132.1440596775859
 30
0.0
 11
52.15399399776394
 21
132.1440596775859
 31
0.0
  0
INSERT
  5
37B4
330
1902
100
AcDbEntity
  8
外形線
 62
     2
370
    -2
100
AcDbBlockReference
  2
_OPEN
 10
46.65399399776394
 20
132.1440596775859
 30
0.0
 41
2.5
 42
2.5
 43
2.5
 50
180.0
  0
INSERT
  5
37B5
330
1902
100
AcDbEntity
  8
外形線
 62
     2
370
    -2
100
AcDbBlockReference
  2
_OPEN
 10
54.65399399776394
 20
132.1440596775859
 30
0.0
 41
2.5
 42
2.5
 43
2.5
  0
MTEXT
  5
37B6
330
1902
100
AcDbEntity
  8
外形線
 62
     6
100
AcDbMText
 10
50.65399399776395
 20
134.0190596775859
 30
0.0
 40
2.5
 41
0.0
 71
     5
 72
     1
  1
\A1;8
  7
STYLE3
 73
     1
 44
1.0
  0
POINT
  5
37B7
330
1902
100
AcDbEntity
  8
DEFPOINTS
 62
     0
100
AcDbPoint
 10
46.65399399776394
 20
119.7205672732656
 30
0.0
  0
POINT
  5
37B8
330
1902
100
AcDbEntity
  8
DEFPOINTS
 62
     0
100
AcDbPoint
 10
54.65399399776394
 20
130.9222512739044
 30
0.0
  0
POINT
  5
37B9
330
1902
100
AcDbEntity
  8
DEFPOINTS
 62
     0
100
AcDbPoint
 10
54.65399399776394
 20
132.1440596775859
 30
0.0
  0
ENDBLK
  5
1A50
330
1902
100
AcDbEntity
  8
0
100
AcDbBlockEnd
  0
BLOCK
  5
191D
330
191C
100
AcDbEntity
  8
0
100
AcDbBlockBegin
  2
*D3
 70
     1
 10
0.0
 20
0.0
 30
0.0
  3
*D3
  1

  0
LINE
  5
37A8
330
191C
100
AcDbEntity
  8
外形線
 62
     2
370
    -2
100
AcDbLine
 10
46.65399399776394
 20
119.7205672732656
 30
0.0
 11
46.65399399776394
 21
107.6710817973018
 31
0.0
  0
LINE
  5
37A9
330
191C
100
AcDbEntity
  8
外形線
 62
     2
370
    -2
100
AcDbLine
 10
131.6539939977639
 20
119.7205672732656
 30
0.0
 11
131.6539939977639
 21
107.6710817973018
 31
0.0
  0
LINE
  5
37AA
330
191C
100
AcDbEntity
  8
外形線
 62
     2
370
    -2
100
AcDbLine
 10
49.15399399776394
 20
108.9210817973017
 30
0.0
 11
129.1539939977639
 21
108.9210817973017
 31
0.0
  0
INSERT
  5
37AB
330
191C
100
AcDbEntity
  8
外形線
 62
     2
370
    -2
100
AcDbBlockReference
  2
_OPEN
 10
46.65399399776394
 20
108.9210817973017
 30
0.0
 41
2.5
 42
2.5
 43
2.5
 50
180.0
  0
INSERT
  5
37AC
330
191C
100
AcDbEntity
  8
外形線
 62
     2
370
    -2
100
AcDbBlockReference
  2
_OPEN
 10
131.6539939977639
 20
108.9210817973017
 30
0.0
 41
2.5
 42
2.5
 43
2.5
  0
MTEXT
  5
37AD
330
191C
100
AcDbEntity
  8
外形線
 62
     6
100
AcDbMText
 10
89.15399399776395
 20
110.7960817973018
 30
0.0
 40
2.5
 41
0.0
 71
     5
 72
     1
  1
\A1;85
  7
STYLE3
 73
     1
 44
1.0
  0
POINT
  5
37AE
330
191C
100
AcDbEntity
  8
DEFPOINTS
 62
     0
100
AcDbPoint
 10
46.65399399776394
 20
119.7205672732656
 30
0.0
  0
POINT
  5
37AF
330
191C
100
AcDbEntity
  8
DEFPOINTS
 62
     0
100
AcDbPoint
 10
131.6539939977639
 20
119.7205672732656
 30
0.0
  0
POINT
  5
37B0
330
191C
100
AcDbEntity
  8
DEFPOINTS
 62
     0
100
AcDbPoint
 10
131.6539939977639
 20
108.9210817973017
 30
0.0
  0
ENDBLK
  5
1927
330
191C
100
AcDbEntity
  8
0
100
AcDbBlockEnd
  0
BLOCK
  5
1A0D
330
1A0C
100
AcDbEntity
  8
0
100
AcDbBlockBegin
  2
*D4
 70
     1
 10
0.0
 20
0.0
 30
0.0
  3
*D4
  1

  0
LINE
  5
379F
330
1A0C
100
AcDbEntity
  8
外形線
 62
     2
370
    -2
100
AcDbLine
 10
47.03654507378099
 20
163.2229906489345
 30
0.0
 11
22.00823045576455
 21
163.2229906489345
 31
0.0
  0
LINE
  5
37A0
330
1A0C
100
AcDbEntity
  8
外形線
 62
     2
370
    -2
100
AcDbLine
 10
46.65399399776394
 20
93.22299064893455
 30
0.0
 11
22.00823045576453
 21
93.22299064893455
 31
0.0
  0
LINE
  5
37A1
330
1A0C
100
AcDbEntity
  8
外形線
 62
     2
370
    -2
100
AcDbLine
 10
23.25823045576455
 20
160.7229906489345
 30
0.0
 11
23.25823045576453
 21
95.72299064893455
 31
0.0
  0
INSERT
  5
37A2
330
1A0C
100
AcDbEntity
  8
外形線
 62
     2
370
    -2
100
AcDbBlockReference
  2
_OPEN
 10
23.25823045576455
 20
163.2229906489345
 30
0.0
 41
2.5
 42
2.5
 43
2.5
 50
90.0
  0
INSERT
  5
37A3
330
1A0C
100
AcDbEntity
  8
外形線
 62
     2
370
    -2
100
AcDbBlockReference
  2
_OPEN
 10
23.25823045576453
 20
93.22299064893455
 30
0.0
 41
2.5
 42
2.5
 43
2.5
 50
270.0
  0
MTEXT
  5
37A4
330
1A0C
100
AcDbEntity
  8
外形線
 62
     6
100
AcDbMText
 10
21.38323045576452
 20
128.2229906489345
 30
0.0
 40
2.5
 41
0.0
 71
     5
 72
     1
  1
\A1;70
  7
STYLE3
 11
0.0000000000000001
 21
1.0
 31
0.0
 73
     1
 44
1.0
  0
POINT
  5
37A5
330
1A0C
100
AcDbEntity
  8
DEFPOINTS
 62
     0
100
AcDbPoint
 10
47.03654507378099
 20
163.2229906489345
 30
0.0
  0
POINT
  5
37A6
330
1A0C
100
AcDbEntity
  8
DEFPOINTS
 62
     0
100
AcDbPoint
 10
46.65399399776394
 20
93.22299064893455
 30
0.0
  0
POINT
  5
37A7
330
1A0C
100
AcDbEntity
  8
DEFPOINTS
 62
     0
100
AcDbPoint
 10
23.25823045576453
 20
93.22299064893455
 30
0.0
  0
ENDBLK
  5
1A17
330
1A0C
100
AcDbEntity
  8
0
100
AcDbBlockEnd
  0
BLOCK
  5
1A71
330
1A70
100
AcDbEntity
  8
0
100
AcDbBlockBegin
  2
*D5
 70
     1
 10
0.0
 20
0.0
 30
0.0
  3
*D5
  1

  0
LINE
  5
3796
330
1A70
100
AcDbEntity
  8
外形線
 62
     2
370
    -2
100
AcDbLine
 10
165.132661517624
 20
57.22299064893445
 30
0.0
 11
165.132661517624
 21
69.11050925752443
 31
0.0
  0
LINE
  5
3797
330
1A70
100
AcDbEntity
  8
外形線
 62
     2
370
    -2
100
AcDbLine
 10
176.132661517624
 20
57.22299064893445
 30
0.0
 11
176.132661517624
 21
69.11050925752443
 31
0.0
  0
LINE
  5
3798
330
1A70
100
AcDbEntity
  8
外形線
 62
     2
370
    -2
100
AcDbLine
 10
167.632661517624
 20
67.86050925752443
 30
0.0
 11
173.632661517624
 21
67.86050925752443
 31
0.0
  0
INSERT
  5
3799
330
1A70
100
AcDbEntity
  8
外形線
 62
     2
370
    -2
100
AcDbBlockReference
  2
_OPEN
 10
165.132661517624
 20
67.86050925752443
 30
0.0
 41
2.5
 42
2.5
 43
2.5
 50
180.0
  0
INSERT
  5
379A
330
1A70
100
AcDbEntity
  8
外形線
 62
     2
370
    -2
100
AcDbBlockReference
  2
_OPEN
 10
176.132661517624
 20
67.86050925752443
 30
0.0
 41
2.5
 42
2.5
 43
2.5
  0
MTEXT
  5
379B
330
1A70
100
AcDbEntity
  8
外形線
 62
     6
100
AcDbMText
 10
170.632661517624
 20
69.73550925752443
 30
0.0
 40
2.5
 41
0.0
 71
     5
 72
     1
  1
\A1;11
  7
STYLE3
 73
     1
 44
1.0
  0
POINT
  5
379C
330
1A70
100
AcDbEntity
  8
DEFPOINTS
 62
     0
100
AcDbPoint
 10
165.132661517624
 20
57.22299064893445
 30
0.0
  0
POINT
  5
379D
330
1A70
100
AcDbEntity
  8
DEFPOINTS
 62
     0
100
AcDbPoint
 10
176.132661517624
 20
57.22299064893445
 30
0.0
  0
POINT
  5
379E
330
1A70
100
AcDbEntity
  8
DEFPOINTS
 62
     0
100
AcDbPoint
 10
176.132661517624
 20
67.86050925752443
 30
0.0
  0
ENDBLK
  5
1A7B
330
1A70
100
AcDbEntity
  8
0
100
AcDbBlockEnd
  0
BLOCK
  5
1B19
330
1B18
100
AcDbEntity
  8
0
100
AcDbBlockBegin
  2
*D7
 70
     1
 10
0.0
 20
0.0
 30
0.0
  3
*D7
  1

  0
LINE
  5
378D
330
1B18
100
AcDbEntity
  8
外形線
 62
     2
370
    -2
100
AcDbLine
 10
22.00823045576454
 20
163.2229906489345
 30
0.0
 11
34.3726967226487
 21
163.2229906489345
 31
0.0
  0
LINE
  5
378E
330
1B18
100
AcDbEntity
  8
外形線
 62
     2
370
    -2
100
AcDbLine
 10
31.8726967226487
 20
153.2229906489344
 30
0.0
 11
34.3726967226487
 21
153.2229906489344
 31
0.0
  0
LINE
  5
378F
330
1B18
100
AcDbEntity
  8
外形線
 62
     2
370
    -2
100
AcDbLine
 10
33.1226967226487
 20
160.7229906489345
 30
0.0
 11
33.1226967226487
 21
155.7229906489344
 31
0.0
  0
INSERT
  5
3790
330
1B18
100
AcDbEntity
  8
外形線
 62
     2
370
    -2
100
AcDbBlockReference
  2
_OPEN
 10
33.1226967226487
 20
163.2229906489345
 30
0.0
 41
2.5
 42
2.5
 43
2.5
 50
90.0
  0
INSERT
  5
3791
330
1B18
100
AcDbEntity
  8
外形線
 62
     2
370
    -2
100
AcDbBlockReference
  2
_OPEN
 10
33.1226967226487
 20
153.2229906489344
 30
0.0
 41
2.5
 42
2.5
 43
2.5
 50
270.0
  0
MTEXT
  5
3792
330
1B18
100
AcDbEntity
  8
外形線
 62
     6
100
AcDbMText
 10
31.24769672264867
 20
158.2229906489344
 30
0.0
 40
2.5
 41
0.0
 71
     5
 72
     1
  1
\A1;10
  7
STYLE3
 11
0.0000000000000001
 21
1.0
 31
0.0
 73
     1
 44
1.0
  0
POINT
  5
3793
330
1B18
100
AcDbEntity
  8
DEFPOINTS
 62
     0
100
AcDbPoint
 10
22.00823045576454
 20
163.2229906489345
 30
0.0
  0
POINT
  5
3794
330
1B18
100
AcDbEntity
  8
DEFPOINTS
 62
     0
100
AcDbPoint
 10
31.8726967226487
 20
153.2229906489344
 30
0.0
  0
POINT
  5
3795
330
1B18
100
AcDbEntity
  8
DEFPOINTS
 62
     0
100
AcDbPoint
 10
33.1226967226487
 20
153.2229906489344
 30
0.0
  0
ENDBLK
  5
1B23
330
1B18
100
AcDbEntity
  8
0
100
AcDbBlockEnd
  0
BLOCK
  5
35A7
330
358F
100
AcDbEntity
  8
0
100
AcDbBlockBegin
  2
*D8
 70
     1
 10
0.0
 20
0.0
 30
0.0
  3
*D8
  1

  0
LINE
  5
3784
330
358F
100
AcDbEntity
  8
外形線
 62
     2
370
    -2
100
AcDbLine
 10
96.65399399776395
 20
153.9252667474342
 30
0.0
 11
106.54729964501
 21
156.576170006088
 31
0.0
  0
LINE
  5
3785
330
358F
100
AcDbEntity
  8
外形線
 62
     2
370
    -2
100
AcDbLine
 10
96.65399399776397
 20
144.5885216903977
 30
0.0
 11
106.54729964501
 21
147.2394249490515
 31
0.0
  0
LINE
  5
3786
330
358F
100
AcDbEntity
  8
外形線
 62
     2
370
    -2
100
AcDbLine
 10
105.29729964501
 20
153.7412335155491
 30
0.0
 11
105.29729964501
 21
149.4044884585126
 31
0.0
  0
INSERT
  5
3787
330
358F
100
AcDbEntity
  8
外形線
 62
     2
370
    -2
100
AcDbBlockReference
  2
_OPEN
 10
105.29729964501
 20
156.2412335155491
 30
0.0
 41
2.5
 42
2.5
 43
2.5
 50
90.0
  0
INSERT
  5
3788
330
358F
100
AcDbEntity
  8
外形線
 62
     2
370
    -2
100
AcDbBlockReference
  2
_OPEN
 10
105.29729964501
 20
146.9044884585126
 30
0.0
 41
2.5
 42
2.5
 43
2.5
 50
270.0
  0
MTEXT
  5
3789
330
358F
100
AcDbEntity
  8
外形線
 62
     6
100
AcDbMText
 10
103.42229964501
 20
151.5728609870309
 30
0.0
 40
2.5
 41
0.0
 71
     5
 72
     1
  1
\A1;10
  7
STYLE3
 11
0.0000000000000001
 21
1.0
 31
0.0
 73
     1
 44
1.0
  0
POINT
  5
378A
330
358F
100
AcDbEntity
  8
DEFPOINTS
 62
     0
100
AcDbPoint
 10
96.65399399776395
 20
153.9252667474342
 30
0.0
  0
POINT
  5
378B
330
358F
100
AcDbEntity
  8
DEFPOINTS
 62
     0
100
AcDbPoint
 10
96.65399399776397
 20
144.5885216903977
 30
0.0
  0
POINT
  5
378C
330
358F
100
AcDbEntity
  8
DEFPOINTS
 62
     0
100
AcDbPoint
 10
105.29729964501
 20
146.9044884585126
 30
0.0
  0
ENDBLK
  5
35B1
330
358F
100
AcDbEntity
  8
0
100
AcDbBlockEnd
  0
BLOCK
  5
35C1
330
35B2
100
AcDbEntity
  8
0
100
AcDbBlockBegin
  2
*D9
 70
     1
 10
0.0
 20
0.0
 30
0.0
  3
*D9
  1

  0
LINE
  5
3779
330
35B2
100
AcDbEntity
  8
外形線
 62
     2
370
    -2
100
AcDbLine
 10
14.98612051750115
 20
151.0229906489345
 30
0.0
 11
14.98612051750115
 21
168.8426209872868
 31
0.0
  0
LINE
  5
377A
330
35B2
100
AcDbEntity
  8
外形線
 62
     2
370
    -2
100
AcDbLine
 10
17.98612051750115
 20
151.0229906489345
 30
0.0
 11
17.98612051750115
 21
168.8426209872868
 31
0.0
  0
LINE
  5
377B
330
35B2
100
AcDbEntity
  8
外形線
 62
     2
370
    -2
100
AcDbLine
 10
12.48612051750115
 20
167.5926209872868
 30
0.0
 11
9.98612051750115
 21
167.5926209872868
 31
0.0
  0
LINE
  5
377C
330
35B2
100
AcDbEntity
  8
外形線
 62
     2
370
    -2
100
AcDbLine
 10
20.48612051750115
 20
167.5926209872868
 30
0.0
 11
31.3789776603583
 21
167.5926209872868
 31
0.0
  0
LINE
  5
377D
330
35B2
100
AcDbEntity
  8
外形線
 62
     2
370
    -2
100
AcDbLine
 10
14.98612051750115
 20
167.5926209872868
 30
0.0
 11
17.98612051750115
 21
167.5926209872868
 31
0.0
  0
INSERT
  5
377E
330
35B2
100
AcDbEntity
  8
外形線
 62
     2
370
    -2
100
AcDbBlockReference
  2
_OPEN
 10
14.98612051750115
 20
167.5926209872868
 30
0.0
 41
2.5
 42
2.5
 43
2.5
  0
INSERT
  5
377F
330
35B2
100
AcDbEntity
  8
外形線
 62
     2
370
    -2
100
AcDbBlockReference
  2
_OPEN
 10
17.98612051750115
 20
167.5926209872868
 30
0.0
 41
2.5
 42
2.5
 43
2.5
 50
180.0
  0
MTEXT
  5
3780
330
35B2
100
AcDbEntity
  8
外形線
 62
     6
100
AcDbMText
 10
27.18254908892972
 20
169.4676209872868
 30
0.0
 40
2.5
 41
0.0
 71
     5
 72
     1
  1
\A1;2-3
  7
STYLE3
 73
     1
 44
1.0
  0
POINT
  5
3781
330
35B2
100
AcDbEntity
  8
DEFPOINTS
 62
     0
100
AcDbPoint
 10
14.98612051750115
 20
151.0229906489345
 30
0.0
  0
POINT
  5
3782
330
35B2
100
AcDbEntity
  8
DEFPOINTS
 62
     0
100
AcDbPoint
 10
17.98612051750115
 20
151.0229906489345
 30
0.0
  0
POINT
  5
3783
330
35B2
100
AcDbEntity
  8
DEFPOINTS
 62
     0
100
AcDbPoint
 10
17.98612051750115
 20
167.5926209872868
 30
0.0
  0
ENDBLK
  5
35CD
330
35B2
100
AcDbEntity
  8
0
100
AcDbBlockEnd
  0
BLOCK
  5
3711
330
3705
100
AcDbEntity
  8
0
100
AcDbBlockBegin
  2
*D10
 70
     1
 10
0.0
 20
0.0
 30
0.0
  3
*D10
  1

  0
LINE
  5
376E
330
3705
100
AcDbEntity
  8
中心線
 62
     2
370
    -2
100
AcDbLine
 10
49.64332775769398
 20
151.0229906489344
 30
0.0
 11
25.99001733226203
 21
151.0229906489344
 31
0.0
  0
LINE
  5
376F
330
3705
100
AcDbEntity
  8
中心線
 62
     2
370
    -2
100
AcDbLine
 10
49.882661517624
 20
145.4229906489344
 30
0.0
 11
25.99001733226203
 21
145.4229906489344
 31
0.0
  0
LINE
  5
3770
330
3705
100
AcDbEntity
  8
中心線
 62
     2
370
    -2
100
AcDbLine
 10
27.24001733226203
 20
153.5229906489344
 30
0.0
 11
27.24001733226203
 21
156.0229906489345
 31
0.0
  0
LINE
  5
3771
330
3705
100
AcDbEntity
  8
中心線
 62
     2
370
    -2
100
AcDbLine
 10
27.24001733226203
 20
142.9229906489344
 30
0.0
 11
27.24001733226203
 21
133.9348954108392
 31
0.0
  0
LINE
  5
3772
330
3705
100
AcDbEntity
  8
中心線
 62
     2
370
    -2
100
AcDbLine
 10
27.24001733226203
 20
151.0229906489344
 30
0.0
 11
27.24001733226203
 21
145.4229906489344
 31
0.0
  0
INSERT
  5
3773
330
3705
100
AcDbEntity
  8
中心線
 62
     2
370
    -2
100
AcDbBlockReference
  2
_OPEN
 10
27.24001733226203
 20
151.0229906489344
 30
0.0
 41
2.5
 42
2.5
 43
2.5
 50
270.0
  0
INSERT
  5
3774
330
3705
100
AcDbEntity
  8
中心線
 62
     2
370
    -2
100
AcDbBlockReference
  2
_OPEN
 10
27.24001733226203
 20
145.4229906489344
 30
0.0
 41
2.5
 42
2.5
 43
2.5
 50
90.0
  0
MTEXT
  5
3775
330
3705
100
AcDbEntity
  8
中心線
 62
     6
100
AcDbMText
 10
25.365017332262
 20
137.1789430298868
 30
0.0
 40
2.5
 41
0.0
 71
     5
 72
     1
  1
\A1;5.6
  7
STYLE3
 11
0.0000000000000001
 21
1.0
 31
0.0
 73
     1
 44
1.0
  0
POINT
  5
3776
330
3705
100
AcDbEntity
  8
DEFPOINTS
 62
     0
100
AcDbPoint
 10
49.64332775769398
 20
151.0229906489344
 30
0.0
  0
POINT
  5
3777
330
3705
100
AcDbEntity
  8
DEFPOINTS
 62
     0
100
AcDbPoint
 10
49.882661517624
 20
145.4229906489344
 30
0.0
  0
POINT
  5
3778
330
3705
100
AcDbEntity
  8
DEFPOINTS
 62
     0
100
AcDbPoint
 10
27.24001733226203
 20
145.4229906489344
 30
0.0
  0
ENDBLK
  5
3712
330
3705
100
AcDbEntity
  8
0
100
AcDbBlockEnd
  0
ENDSEC
  0
SECTION
  2
ENTITIES
  0
LWPOLYLINE
  5
1A0
330
18
100
AcDbEntity
  8
C
100
AcDbPolyline
 90
        5
 70
     0
 43
0.8
 10
0.0
 20
282.5
 10
377.4999999999999
 20
282.5
 10
377.4999999999999
 20
0.0
 10
0.0
 20
0.0
 10
0.0
 20
282.5
  0
LINE
  5
213
330
18
100
AcDbEntity
  8
隠れ線2
100
AcDbLine
 10
165.132661517624
 20
140.5229906489345
 30
0.0
 11
165.132661517624
 21
115.5229906489344
 31
0.0
  0
LINE
  5
225
330
18
100
AcDbEntity
  8
外形線
100
AcDbLine
 10
160.632661517624
 20
115.5229906489344
 30
0.0
 11
180.632661517624
 21
115.5229906489344
 31
0.0
  0
ARC
  5
230
330
18
100
AcDbEntity
  8
外形線
100
AcDbCircle
 10
122.7483120803617
 20
107.2449535186615
 30
0.0
 40
37.05077739018311
100
AcDbArc
 50
12.91022771884081
 51
93.54586154372446
  0
ARC
  5
233
330
18
100
AcDbEntity
  8
外形線
100
AcDbCircle
 10
125.132661517624
 20
118.5229906489345
 30
0.0
 40
40.0
100
AcDbArc
 50
33.36701296923175
 51
35.53071666544397
  0
LINE
  5
237
330
18
100
AcDbEntity
  8
外形線
100
AcDbLine
 10
55.132661517624
 20
145.4229906489344
 30
0.0
 11
120.4568155389022
 21
144.2248013931104
 31
0.0
  0
LINE
  5
238
330
18
100
AcDbEntity
  8
外形線
100
AcDbLine
 10
160.632661517624
 20
140.5229906489345
 30
0.0
 11
165.132661517624
 21
140.5229906489345
 31
0.0
  0
LINE
  5
239
330
18
100
AcDbEntity
  8
中心線
100
AcDbLine
 10
158.5392476946041
 20
138.0229906489344
 30
0.0
 11
165.132661517624
 21
138.0229906489344
 31
0.0
  0
LINE
  5
23A
330
18
100
AcDbEntity
  8
中心線
100
AcDbLine
 10
158.8624949796981
 20
118.0229906489344
 30
0.0
 11
165.132661517624
 21
118.0229906489344
 31
0.0
  0
LINE
  5
23B
330
18
100
AcDbEntity
  8
中心線
100
AcDbLine
 10
162.632661517624
 20
140.5229906489345
 30
0.0
 11
162.632661517624
 21
115.5229906489344
 31
0.0
  0
LINE
  5
247
330
18
100
AcDbEntity
  8
中心線
100
AcDbLine
 10
170.632661517624
 20
182.2970513616809
 30
0.0
 11
170.632661517624
 21
53.02871443129948
 31
0.0
  0
ARC
  5
24F
330
18
100
AcDbEntity
  8
隠れ線2
100
AcDbCircle
 10
173.7200225858504
 20
151.406864161334
 30
0.0
 40
16.47706031609751
100
AcDbArc
 50
161.847017920881
 51
221.3416069534922
  0
LINE
  5
250
330
18
100
AcDbEntity
  8
隠れ線2
100
AcDbLine
 10
176.132661517624
 20
140.5229906489345
 30
0.0
 11
176.132661517624
 21
115.5229906489344
 31
0.0
  0
LINE
  5
251
330
18
100
AcDbEntity
  8
外形線
100
AcDbLine
 10
165.132661517624
 20
57.22299064893445
 30
0.0
 11
176.132661517624
 21
57.22299064893445
 31
0.0
  0
ARC
  5
27E
330
18
100
AcDbEntity
  8
外形線
100
AcDbCircle
 10
181.43469010214
 20
138.6588164962945
 30
0.0
 40
3.151959724913625
100
AcDbArc
 50
91.93716809071041
 51
143.7412096226341
  0
ARC
  5
282
330
18
100
AcDbEntity
  8
隠れ線2
100
AcDbCircle
 10
180.2761570603669
 20
44.16181421573557
 30
0.0
 40
97.65282718676736
100
AcDbArc
 50
60.20240583809147
 51
64.27685057750263
  0
LINE
  5
283
330
18
100
AcDbEntity
  8
外形線
100
AcDbLine
 10
240.632661517624
 20
126.4729906489344
 30
0.0
 11
250.2093721018568
 21
126.4729906489344
 31
0.0
  0
ARC
  5
288
330
18
100
AcDbEntity
  8
隠れ線2
100
AcDbCircle
 10
240.632661517624
 20
156.4729906489344
 30
0.0
 40
30.0
100
AcDbArc
 50
246.7773634847048
 51
259.9886457311305
  0
LINE
  5
294
330
18
100
AcDbEntity
  8
中心線
100
AcDbLine
 10
180.2055732160088
 20
153.2229906489344
 30
0.0
 11
160.8997748043716
 21
153.2229906489344
 31
0.0
  0
ARC
  5
2A9
330
18
100
AcDbEntity
  8
外形線
100
AcDbCircle
 10
255.375661517624
 20
155.9729906489344
 30
0.0
 40
6.0
100
AcDbArc
 50
175.2198081528005
 51
214.4156214837285
  0
LINE
  5
2C0
330
18
100
AcDbEntity
  8
中心線
100
AcDbLine
 10
264.9604906849081
 20
177.1757464051002
 30
0.0
 11
204.8126205605139
 21
183.7098961026153
 31
0.0
  0
LINE
  5
2C3
330
18
100
AcDbEntity
  8
中心線
100
AcDbLine
 10
232.2700212839076
 20
146.5270305951611
 30
0.0
 11
240.678071774273
 21
223.9244506582767
 31
0.0
  0
ARC
  5
2C7
330
18
100
AcDbEntity
  8
隠れ線2
100
AcDbCircle
 10
235.9419993779123
 20
180.3281633702198
 30
0.0
 40
25.0
100
AcDbArc
 50
306.2184957136165
 51
147.5464498560431
  0
LINE
  5
2CA
330
18
100
AcDbEntity
  8
外形線
100
AcDbLine
 10
249.3965311460733
 20
156.4729906489344
 30
0.0
 11
249.4927184337333
 21
157.9354953886273
 31
0.0
  0
ARC
  5
2CC
330
18
100
AcDbEntity
  8
外形線
100
AcDbCircle
 10
252.4862510904012
 20
157.7386141212018
 30
0.0
 40
3.0
100
AcDbArc
 50
126.2184957136167
 51
176.2371404144288
  0
LINE
  5
2F4
330
18
100
AcDbEntity
  8
中心線
100
AcDbLine
 10
168.343741922788
 20
60.22299064893445
 30
0.0
 11
173.0821346156526
 21
60.22299064893445
 31
0.0
  0
CIRCLE
  5
2F5
330
18
100
AcDbEntity
  8
外形線
100
AcDbCircle
 10
170.632661517624
 20
60.22299064893445
 30
0.0
 40
1.225
  0
LINE
  5
2FD
330
18
100
AcDbEntity
  8
中心線
100
AcDbLine
 10
243.2056818876031
 20
145.3390376823949
 30
0.0
 11
244.2323924150688
 21
154.7900686994602
 31
0.0
  0
LINE
  5
2FE
330
18
100
AcDbEntity
  8
中心線
100
AcDbLine
 10
246.8216917409939
 20
151.7211958109396
 30
0.0
 11
241.9700792787565
 21
152.2482495875243
 31
0.0
  0
LINE
  5
2FF
330
18
100
AcDbEntity
  8
中心線
100
AcDbLine
 10
246.2283515767275
 20
146.7562359372174
 30
0.0
 11
241.3492991369712
 21
147.2862706492939
 31
0.0
  0
CIRCLE
  5
3B6
330
18
100
AcDbEntity
  8
外形線
100
AcDbCircle
 10
170.632661517624
 20
153.2229906489344
 30
0.0
 40
7.9
  0
ARC
  5
3B8
330
18
100
AcDbEntity
  8
外形線
100
AcDbCircle
 10
180.632661517624
 20
132.7329906489344
 30
0.0
 40
10.5
100
AcDbArc
 50
69.87606949150846
 51
115.6317630181481
  0
ARC
  5
3B9
330
18
100
AcDbEntity
  8
外形線
100
AcDbCircle
 10
132.832661517624
 20
1.677990648934468
 30
0.0
 40
150.0
100
AcDbArc
 50
48.97941585119834
 51
69.9674273443329
  0
ARC
  5
3BA
330
18
100
AcDbEntity
  8
外形線
100
AcDbCircle
 10
265.5765546894841
 20
153.4611448171848
 30
0.0
 40
51.64358587077219
100
AcDbArc
 50
228.3276574820567
 51
249.3724321879665
  0
ARC
  5
3BB
330
18
100
AcDbEntity
  8
外形線
100
AcDbCircle
 10
237.932661517624
 20
75.26699064893444
 30
0.0
 40
40.0
100
AcDbArc
 50
29.1745556899739
 51
59.91326130816268
  0
ARC
  5
3BC
330
18
100
AcDbEntity
  8
外形線
100
AcDbCircle
 10
240.9290177176974
 20
70.71776396723649
 30
0.0
 40
35.01066140166247
100
AcDbArc
 50
37.76175226195498
 51
79.37726148598492
  0
ARC
  5
3BD
330
18
100
AcDbEntity
  8
外形線
100
AcDbCircle
 10
270.632661517624
 20
93.62299064893447
 30
0.0
 40
2.5
100
AcDbArc
 50
215.8854650113299
 51
29.64242117814413
  0
ARC
  5
3BE
330
18
100
AcDbEntity
  8
外形線
100
AcDbCircle
 10
282.9086615176241
 20
153.2229906489344
 30
0.0
 40
50.0
100
AcDbArc
 50
192.4612663434224
 51
240.1010657357103
  0
ARC
  5
3BF
330
18
100
AcDbEntity
  8
外形線
100
AcDbCircle
 10
247.809783025689
 20
262.4575319683168
 30
0.0
 40
120.8055136663535
100
AcDbArc
 50
235.3089778403543
 51
263.4772517207828
  0
LINE
  5
3C3
330
18
100
AcDbEntity
  8
中心線
100
AcDbLine
 10
229.977759882291
 20
125.8715436239223
 30
0.0
 11
231.7140729469894
 21
141.51625261258
 31
0.0
  0
LINE
  5
3C7
330
18
100
AcDbEntity
  8
外形線
100
AcDbLine
 10
97.132661517624
 20
145.7229906489344
 30
0.0
 11
169.0329534835837
 21
141.0274613776881
 31
0.0
  0
LINE
  5
3C8
330
18
100
AcDbEntity
  8
外形線
100
AcDbLine
 10
44.63266151762399
 20
151.0229906489344
 30
0.0
 11
44.63266151762399
 21
149.2229906489344
 31
0.0
  0
LINE
  5
3CA
330
18
100
AcDbEntity
  8
外形線
100
AcDbLine
 10
45.632661517624
 20
148.2229906489344
 30
0.0
 11
54.632661517624
 21
148.2229906489344
 31
0.0
  0
LINE
  5
3CB
330
18
100
AcDbEntity
  8
外形線
100
AcDbLine
 10
54.632661517624
 20
148.2229906489344
 30
0.0
 11
97.132661517624
 21
145.7229906489344
 31
0.0
  0
ARC
  5
3CF
330
18
100
AcDbEntity
  8
外形線
100
AcDbCircle
 10
170.632661517624
 20
153.2229906489344
 30
0.0
 40
12.3
100
AcDbArc
 50
262.5270812836444
 51
296.3419669531571
  0
CIRCLE
  5
3D0
330
18
100
AcDbEntity
  8
隠れ線2
 48
0.3
100
AcDbCircle
 10
185.6026547512739
 20
152.1971414190239
 30
0.0
 40
1.274999999999999
  0
LINE
  5
3DF
330
18
100
AcDbEntity
  8
外形線
100
AcDbLine
 10
44.63266151762399
 20
147.2229906489344
 30
0.0
 11
44.63266151762399
 21
145.4229906489344
 31
0.0
  0
LINE
  5
3E0
330
18
100
AcDbEntity
  8
外形線
100
AcDbLine
 10
45.632661517624
 20
148.2229906489344
 30
0.0
 11
55.132661517624
 21
148.2229906489344
 31
0.0
  0
LINE
  5
3F0
330
18
100
AcDbEntity
  8
隠れ線2
100
AcDbLine
 10
54.632661517624
 20
148.2229906489344
 30
0.0
 11
80.12730697459373
 21
152.7832427299405
 31
0.0
  0
LINE
  5
49F
330
18
100
AcDbEntity
  8
握り
100
AcDbLine
 10
346.536022017999
 20
152.6699574792747
 30
0.0
 11
349.7093721018568
 21
152.6699574792748
 31
0.0
  0
LINE
  5
4A0
330
18
100
AcDbEntity
  8
握り
100
AcDbLine
 10
326.5360220179989
 20
152.6699574792748
 30
0.0
 11
333.8827221857148
 21
152.6699574792747
 31
0.0
  0
LINE
  5
4A1
330
18
100
AcDbEntity
  8
握り
100
AcDbLine
 10
323.8827221857146
 20
152.6699574792748
 30
0.0
 11
323.8827221857146
 21
145.1232574792748
 31
0.0
  0
LINE
  5
4A2
330
18
100
AcDbEntity
  8
握り
100
AcDbLine
 10
336.5360220179991
 20
152.6699574792747
 30
0.0
 11
343.8827221857147
 21
152.6699574792747
 31
0.0
  0
LINE
  5
4A3
330
18
100
AcDbEntity
  8
握り
100
AcDbLine
 10
323.8827221857148
 20
142.4699574792748
 30
0.0
 11
323.8827221857146
 21
134.4699574792748
 31
0.0
  0
LINE
  5
4A4
330
18
100
AcDbEntity
  8
握り
100
AcDbLine
 10
306.536022017999
 20
152.6699574792748
 30
0.0
 11
313.8827221857147
 21
152.6699574792748
 31
0.0
  0
LINE
  5
4A5
330
18
100
AcDbEntity
  8
握り
100
AcDbLine
 10
306.5360220179991
 20
145.1232574792748
 30
0.0
 11
313.8827221857147
 21
145.1232574792748
 31
0.0
  0
LINE
  5
4A6
330
18
100
AcDbEntity
  8
握り
100
AcDbLine
 10
306.536022017999
 20
152.6699574792748
 30
0.0
 11
306.5360220179991
 21
145.1232574792748
 31
0.0
  0
LINE
  5
4A7
330
18
100
AcDbEntity
  8
握り
100
AcDbLine
 10
313.8827221857147
 20
152.6699574792748
 30
0.0
 11
313.8827221857148
 21
145.1232574792748
 31
0.0
  0
LINE
  5
4A8
330
18
100
AcDbEntity
  8
握り
100
AcDbLine
 10
316.536022017999
 20
152.6699574792748
 30
0.0
 11
316.5360220179991
 21
145.1232574792748
 31
0.0
  0
LINE
  5
4A9
330
18
100
AcDbEntity
  8
握り
100
AcDbLine
 10
296.5360220179992
 20
152.6699574792748
 30
0.0
 11
303.8827221857147
 21
152.6699574792748
 31
0.0
  0
LINE
  5
4AA
330
18
100
AcDbEntity
  8
握り
100
AcDbLine
 10
296.536022017999
 20
145.1232574792748
 30
0.0
 11
303.8827221857148
 21
145.1232574792748
 31
0.0
  0
LINE
  5
4AB
330
18
100
AcDbEntity
  8
握り
100
AcDbLine
 10
293.8827221857147
 20
152.6699574792748
 30
0.0
 11
293.8827221857148
 21
145.1232574792748
 31
0.0
  0
LINE
  5
4AC
330
18
100
AcDbEntity
  8
握り
100
AcDbLine
 10
296.536022017999
 20
152.6699574792748
 30
0.0
 11
296.5360220179992
 21
145.1232574792748
 31
0.0
  0
LINE
  5
4AD
330
18
100
AcDbEntity
  8
握り
100
AcDbLine
 10
303.8827221857147
 20
152.6699574792748
 30
0.0
 11
303.8827221857148
 21
145.1232574792748
 31
0.0
  0
LINE
  5
4AE
330
18
100
AcDbEntity
  8
握り
100
AcDbLine
 10
306.536022017999
 20
131.8166574792748
 30
0.0
 11
313.8827221857147
 21
131.8166574792748
 31
0.0
  0
LINE
  5
4AF
330
18
100
AcDbEntity
  8
握り
100
AcDbLine
 10
296.5360220179988
 20
131.8166574792748
 30
0.0
 11
303.8827221857147
 21
131.8166574792748
 31
0.0
  0
LINE
  5
4B0
330
18
100
AcDbEntity
  8
握り
100
AcDbLine
 10
316.5360220179991
 20
152.6699574792748
 30
0.0
 11
323.8827221857146
 21
152.6699574792748
 31
0.0
  0
LINE
  5
4B1
330
18
100
AcDbEntity
  8
握り
100
AcDbLine
 10
316.5360220179991
 20
145.1232574792748
 30
0.0
 11
323.8827221857146
 21
145.1232574792748
 31
0.0
  0
LINE
  5
4B2
330
18
100
AcDbEntity
  8
握り
100
AcDbLine
 10
316.536022017999
 20
131.8166574792748
 30
0.0
 11
323.8827221857146
 21
131.8166574792748
 31
0.0
  0
ARC
  5
4B3
330
18
100
AcDbEntity
  8
握り
100
AcDbCircle
 10
349.7093721018568
 20
124.7699574792747
 30
0.0
 40
0.5
100
AcDbArc
 50
270.0
 51
0.0
  0
ARC
  5
4B4
330
18
100
AcDbEntity
  8
握り
100
AcDbCircle
 10
345.2093721018568
 20
124.9699574792748
 30
0.0
 40
1.5
100
AcDbArc
 50
207.8181392846543
 51
332.1818607153458
  0
LINE
  5
4B5
330
18
100
AcDbEntity
  8
握り
100
AcDbLine
 10
346.536022017999
 20
124.2699574792747
 30
0.0
 11
349.7093721018568
 21
124.2699574792748
 31
0.0
  0
ARC
  5
4B6
330
18
100
AcDbEntity
  8
握り
100
AcDbCircle
 10
335.2093721018568
 20
124.9699574792748
 30
0.0
 40
1.5
100
AcDbArc
 50
207.8181392846543
 51
332.1818607153458
  0
ARC
  5
4B7
330
18
100
AcDbEntity
  8
握り
100
AcDbCircle
 10
325.2093721018568
 20
124.9699574792748
 30
0.0
 40
1.5
100
AcDbArc
 50
207.8181392846543
 51
332.1818607153458
  0
LINE
  5
4B8
330
18
100
AcDbEntity
  8
握り
100
AcDbLine
 10
326.5360220179989
 20
124.2699574792748
 30
0.0
 11
333.8827221857148
 21
124.2699574792748
 31
0.0
  0
LINE
  5
4B9
330
18
100
AcDbEntity
  8
握り
100
AcDbLine
 10
336.5360220179991
 20
124.2699574792748
 30
0.0
 11
343.8827221857147
 21
124.2699574792747
 31
0.0
  0
ARC
  5
4BA
330
18
100
AcDbEntity
  8
握り
100
AcDbCircle
 10
315.2093721018569
 20
124.9699574792748
 30
0.0
 40
1.5
100
AcDbArc
 50
207.8181392846543
 51
332.1818607153458
  0
LINE
  5
4BB
330
18
100
AcDbEntity
  8
握り
100
AcDbLine
 10
306.536022017999
 20
124.2699574792748
 30
0.0
 11
313.8827221857147
 21
124.2699574792748
 31
0.0
  0
LINE
  5
4BC
330
18
100
AcDbEntity
  8
握り
100
AcDbLine
 10
296.5360220179992
 20
124.2699574792748
 30
0.0
 11
303.8827221857147
 21
124.2699574792748
 31
0.0
  0
ARC
  5
4BD
330
18
100
AcDbEntity
  8
握り
100
AcDbCircle
 10
295.2093721018568
 20
124.9699574792748
 30
0.0
 40
1.5
100
AcDbArc
 50
207.8181392846543
 51
332.1818607153458
  0
ARC
  5
4BE
330
18
100
AcDbEntity
  8
握り
100
AcDbCircle
 10
305.2093721018569
 20
124.9699574792748
 30
0.0
 40
1.5
100
AcDbArc
 50
207.8181392846543
 51
332.1818607153458
  0
LINE
  5
4BF
330
18
100
AcDbEntity
  8
握り
100
AcDbLine
 10
316.5360220179991
 20
124.2699574792748
 30
0.0
 11
323.8827221857146
 21
124.2699574792748
 31
0.0
  0
LINE
  5
4C0
330
18
100
AcDbEntity
  8
握り
100
AcDbLine
 10
350.2093721018568
 20
152.1699574792748
 30
0.0
 11
350.2093721018568
 21
124.7699574792747
 31
0.0
  0
LINE
  5
4C1
330
18
100
AcDbEntity
  8
握り
100
AcDbLine
 10
326.536022017999
 20
152.6699574792748
 30
0.0
 11
326.536022017999
 21
124.2699574792748
 31
0.0
  0
LINE
  5
4C2
330
18
100
AcDbEntity
  8
握り
100
AcDbLine
 10
333.8827221857147
 20
152.6699574792748
 30
0.0
 11
333.8827221857147
 21
124.2699574792748
 31
0.0
  0
LINE
  5
4C3
330
18
100
AcDbEntity
  8
握り
100
AcDbLine
 10
336.536022017999
 20
152.6699574792748
 30
0.0
 11
336.536022017999
 21
124.2699574792748
 31
0.0
  0
LINE
  5
4C4
330
18
100
AcDbEntity
  8
握り
100
AcDbLine
 10
343.8827221857147
 20
152.6699574792748
 30
0.0
 11
343.8827221857147
 21
124.2699574792748
 31
0.0
  0
LINE
  5
4C5
330
18
100
AcDbEntity
  8
握り
100
AcDbLine
 10
346.536022017999
 20
152.6699574792748
 30
0.0
 11
346.536022017999
 21
124.2699574792748
 31
0.0
  0
LINE
  5
4C6
330
18
100
AcDbEntity
  8
握り
100
AcDbLine
 10
323.8827221857146
 20
131.8166574792748
 30
0.0
 11
323.8827221857146
 21
124.2699574792748
 31
0.0
  0
LINE
  5
4C7
330
18
100
AcDbEntity
  8
握り
100
AcDbLine
 10
293.8827221857145
 20
131.8166574792748
 30
0.0
 11
293.8827221857147
 21
124.2699574792748
 31
0.0
  0
LINE
  5
4C8
330
18
100
AcDbEntity
  8
握り
100
AcDbLine
 10
296.5360220179989
 20
131.8166574792748
 30
0.0
 11
296.536022017999
 21
124.2699574792748
 31
0.0
  0
LINE
  5
4C9
330
18
100
AcDbEntity
  8
握り
100
AcDbLine
 10
303.8827221857147
 20
131.8166574792748
 30
0.0
 11
303.8827221857147
 21
124.2699574792748
 31
0.0
  0
LINE
  5
4CA
330
18
100
AcDbEntity
  8
握り
100
AcDbLine
 10
306.536022017999
 20
131.8166574792748
 30
0.0
 11
306.536022017999
 21
124.2699574792748
 31
0.0
  0
LINE
  5
4CB
330
18
100
AcDbEntity
  8
握り
100
AcDbLine
 10
313.8827221857148
 20
131.8166574792748
 30
0.0
 11
313.8827221857147
 21
124.2699574792748
 31
0.0
  0
LINE
  5
4CC
330
18
100
AcDbEntity
  8
握り
100
AcDbLine
 10
316.536022017999
 20
131.8166574792748
 30
0.0
 11
316.536022017999
 21
124.2699574792748
 31
0.0
  0
LINE
  5
4CD
330
18
100
AcDbEntity
  8
握り
100
AcDbLine
 10
276.536022017999
 20
152.6699574792748
 30
0.0
 11
283.8827221857147
 21
152.6699574792748
 31
0.0
  0
LINE
  5
4CE
330
18
100
AcDbEntity
  8
握り
100
AcDbLine
 10
276.5360220179991
 20
145.1232574792748
 30
0.0
 11
283.8827221857149
 21
145.1232574792748
 31
0.0
  0
LINE
  5
4CF
330
18
100
AcDbEntity
  8
握り
100
AcDbLine
 10
276.536022017999
 20
152.6699574792748
 30
0.0
 11
276.536022017999
 21
145.1232574792748
 31
0.0
  0
LINE
  5
4D0
330
18
100
AcDbEntity
  8
握り
100
AcDbLine
 10
283.8827221857147
 20
152.6699574792748
 30
0.0
 11
283.8827221857148
 21
145.1232574792748
 31
0.0
  0
LINE
  5
4D1
330
18
100
AcDbEntity
  8
握り
100
AcDbLine
 10
286.536022017999
 20
152.6699574792748
 30
0.0
 11
286.5360220179992
 21
145.1232574792748
 31
0.0
  0
LINE
  5
4D2
330
18
100
AcDbEntity
  8
握り
100
AcDbLine
 10
256.536022017999
 20
152.6699574792748
 30
0.0
 11
263.8827221857148
 21
152.6699574792748
 31
0.0
  0
LINE
  5
4D3
330
18
100
AcDbEntity
  8
握り
100
AcDbLine
 10
266.536022017999
 20
152.6699574792748
 30
0.0
 11
273.8827221857146
 21
152.6699574792748
 31
0.0
  0
LINE
  5
4D4
330
18
100
AcDbEntity
  8
握り
100
AcDbLine
 10
276.536022017999
 20
131.8166574792748
 30
0.0
 11
283.8827221857148
 21
131.8166574792748
 31
0.0
  0
LINE
  5
4D5
330
18
100
AcDbEntity
  8
握り
100
AcDbLine
 10
276.536022017999
 20
142.4699574792748
 30
0.0
 11
276.536022017999
 21
134.4699574792748
 31
0.0
  0
LINE
  5
4D6
330
18
100
AcDbEntity
  8
握り
100
AcDbLine
 10
250.7093721018569
 20
152.6699574792748
 30
0.0
 11
253.8827221857147
 21
152.6699574792748
 31
0.0
  0
ARC
  5
4D7
330
18
100
AcDbEntity
  8
握り
100
AcDbCircle
 10
285.2093721018568
 20
124.9699574792748
 30
0.0
 40
1.5
100
AcDbArc
 50
207.8181392846543
 51
332.1818607153458
  0
ARC
  5
4D8
330
18
100
AcDbEntity
  8
握り
100
AcDbCircle
 10
275.2093721018568
 20
124.9699574792748
 30
0.0
 40
1.5
100
AcDbArc
 50
207.8181392846543
 51
332.1818607153458
  0
LINE
  5
4D9
330
18
100
AcDbEntity
  8
握り
100
AcDbLine
 10
276.536022017999
 20
124.2699574792748
 30
0.0
 11
283.8827221857147
 21
124.2699574792748
 31
0.0
  0
ARC
  5
4DA
330
18
100
AcDbEntity
  8
握り
100
AcDbCircle
 10
265.2093721018569
 20
124.9699574792748
 30
0.0
 40
1.5
100
AcDbArc
 50
207.8181392846543
 51
332.1818607153458
  0
ARC
  5
4DB
330
18
100
AcDbEntity
  8
握り
100
AcDbCircle
 10
255.2093721018569
 20
124.9699574792748
 30
0.0
 40
1.5
100
AcDbArc
 50
207.8181392846543
 51
332.1818607153458
  0
LINE
  5
4DC
330
18
100
AcDbEntity
  8
握り
100
AcDbLine
 10
256.536022017999
 20
124.2699574792748
 30
0.0
 11
263.8827221857148
 21
124.2699574792748
 31
0.0
  0
LINE
  5
4DD
330
18
100
AcDbEntity
  8
握り
100
AcDbLine
 10
266.536022017999
 20
124.2699574792748
 30
0.0
 11
273.8827221857146
 21
124.2699574792748
 31
0.0
  0
ARC
  5
4DE
330
18
100
AcDbEntity
  8
握り
100
AcDbCircle
 10
250.7093721018569
 20
124.7699574792748
 30
0.0
 40
0.5
100
AcDbArc
 50
180.0
 51
270.0
  0
LINE
  5
4DF
330
18
100
AcDbEntity
  8
握り
100
AcDbLine
 10
250.7093721018569
 20
124.2699574792748
 30
0.0
 11
253.8827221857148
 21
124.2699574792748
 31
0.0
  0
LINE
  5
4E0
330
18
100
AcDbEntity
  8
握り
100
AcDbLine
 10
250.2093721018568
 20
152.1699574792748
 30
0.0
 11
250.2093721018568
 21
124.7699574792748
 31
0.0
  0
LINE
  5
4E1
330
18
100
AcDbEntity
  8
握り
100
AcDbLine
 10
256.536022017999
 20
152.6699574792748
 30
0.0
 11
256.536022017999
 21
124.2699574792748
 31
0.0
  0
LINE
  5
4E2
330
18
100
AcDbEntity
  8
握り
100
AcDbLine
 10
253.8827221857147
 20
152.6699574792748
 30
0.0
 11
253.8827221857147
 21
124.2699574792748
 31
0.0
  0
LINE
  5
4E3
330
18
100
AcDbEntity
  8
握り
100
AcDbLine
 10
263.8827221857147
 20
152.6699574792748
 30
0.0
 11
263.8827221857147
 21
124.2699574792748
 31
0.0
  0
LINE
  5
4E4
330
18
100
AcDbEntity
  8
握り
100
AcDbLine
 10
266.536022017999
 20
152.6699574792748
 30
0.0
 11
266.536022017999
 21
124.2699574792748
 31
0.0
  0
LINE
  5
4E5
330
18
100
AcDbEntity
  8
握り
100
AcDbLine
 10
273.8827221857146
 20
152.6699574792748
 30
0.0
 11
273.8827221857146
 21
124.2699574792748
 31
0.0
  0
LINE
  5
4E6
330
18
100
AcDbEntity
  8
握り
100
AcDbLine
 10
276.536022017999
 20
131.8166574792748
 30
0.0
 11
276.536022017999
 21
124.2699574792748
 31
0.0
  0
LINE
  5
4E7
330
18
100
AcDbEntity
  8
握り
100
AcDbLine
 10
283.8827221857147
 20
131.8166574792748
 30
0.0
 11
283.8827221857147
 21
124.2699574792748
 31
0.0
  0
LINE
  5
4E8
330
18
100
AcDbEntity
  8
握り
100
AcDbLine
 10
286.5360220179989
 20
131.8166574792748
 30
0.0
 11
286.536022017999
 21
124.2699574792748
 31
0.0
  0
LINE
  5
4E9
330
18
100
AcDbEntity
  8
握り
100
AcDbLine
 10
286.536022017999
 20
152.6699574792748
 30
0.0
 11
293.8827221857147
 21
152.6699574792748
 31
0.0
  0
LINE
  5
4EA
330
18
100
AcDbEntity
  8
握り
100
AcDbLine
 10
286.536022017999
 20
124.2699574792748
 30
0.0
 11
293.8827221857147
 21
124.2699574792748
 31
0.0
  0
LINE
  5
4EB
330
18
100
AcDbEntity
  8
握り
100
AcDbLine
 10
276.536022017999
 20
142.4699574792748
 30
0.0
 11
323.8827221857148
 21
142.4699574792748
 31
0.0
  0
LINE
  5
4EC
330
18
100
AcDbEntity
  8
握り
100
AcDbLine
 10
276.536022017999
 20
134.4699574792748
 30
0.0
 11
323.8827221857146
 21
134.4699574792748
 31
0.0
  0
LINE
  5
4ED
330
18
100
AcDbEntity
  8
握り
100
AcDbLine
 10
286.5360220179992
 20
145.1232574792748
 30
0.0
 11
293.8827221857149
 21
145.1232574792748
 31
0.0
  0
LINE
  5
4EE
330
18
100
AcDbEntity
  8
握り
100
AcDbLine
 10
286.536022017999
 20
131.8166574792748
 30
0.0
 11
293.8827221857144
 21
131.8166574792748
 31
0.0
  0
ARC
  5
4EF
330
18
100
AcDbEntity
  8
握り
100
AcDbCircle
 10
349.7093721018568
 20
152.1699574792748
 30
0.0
 40
0.5
100
AcDbArc
 50
0.0
 51
90.0
  0
ARC
  5
4F0
330
18
100
AcDbEntity
  8
握り
100
AcDbCircle
 10
250.7093721018569
 20
152.1699574792748
 30
0.0
 40
0.5
100
AcDbArc
 50
90.0
 51
180.0
  0
ARC
  5
4F1
330
18
100
AcDbEntity
  8
握り
100
AcDbCircle
 10
255.2093721018569
 20
151.9699574792748
 30
0.0
 40
1.5
100
AcDbArc
 50
27.81813928465427
 51
152.1818607153457
  0
ARC
  5
4F2
330
18
100
AcDbEntity
  8
握り
100
AcDbCircle
 10
265.2093721018569
 20
151.9699574792748
 30
0.0
 40
1.5
100
AcDbArc
 50
27.81813928465427
 51
152.1818607153457
  0
ARC
  5
4F3
330
18
100
AcDbEntity
  8
握り
100
AcDbCircle
 10
275.2093721018568
 20
151.9699574792748
 30
0.0
 40
1.5
100
AcDbArc
 50
27.81813928465427
 51
152.1818607153457
  0
ARC
  5
4F4
330
18
100
AcDbEntity
  8
握り
100
AcDbCircle
 10
285.2093721018568
 20
151.9699574792748
 30
0.0
 40
1.5
100
AcDbArc
 50
27.81813928465427
 51
152.1818607153457
  0
ARC
  5
4F5
330
18
100
AcDbEntity
  8
握り
100
AcDbCircle
 10
295.2093721018568
 20
151.9699574792748
 30
0.0
 40
1.5
100
AcDbArc
 50
27.81813928465427
 51
152.1818607153457
  0
ARC
  5
4F6
330
18
100
AcDbEntity
  8
握り
100
AcDbCircle
 10
305.2093721018569
 20
151.9699574792748
 30
0.0
 40
1.5
100
AcDbArc
 50
27.81813928465427
 51
152.1818607153457
  0
ARC
  5
4F7
330
18
100
AcDbEntity
  8
握り
100
AcDbCircle
 10
315.2093721018569
 20
151.9699574792748
 30
0.0
 40
1.5
100
AcDbArc
 50
27.81813928465427
 51
152.1818607153457
  0
ARC
  5
4F8
330
18
100
AcDbEntity
  8
握り
100
AcDbCircle
 10
325.2093721018568
 20
151.9699574792748
 30
0.0
 40
1.5
100
AcDbArc
 50
27.81813928465427
 51
152.1818607153457
  0
ARC
  5
4F9
330
18
100
AcDbEntity
  8
握り
100
AcDbCircle
 10
335.2093721018568
 20
151.9699574792748
 30
0.0
 40
1.5
100
AcDbArc
 50
27.81813928465427
 51
152.1818607153457
  0
ARC
  5
4FA
330
18
100
AcDbEntity
  8
握り
100
AcDbCircle
 10
345.2093721018568
 20
151.9699574792748
 30
0.0
 40
1.5
100
AcDbArc
 50
27.81813928465427
 51
152.1818607153457
  0
HATCH
  5
4FB
330
18
100
AcDbEntity
  8
ROGO
 62
     4
100
AcDbHatch
 10
0.0
 20
0.0
 30
0.0
210
0.0
220
0.0
230
1.0
  2
SOLID
 70
     1
 71
     1
 91
        2
 92
        5
 93
        6
 72
     4
 94
        3
 73
     0
 74
     0
 95
       38
 96
       34
 40
0.0
 40
0.0
 40
0.0
 40
0.0
 40
0.2582400211805774
 40
0.3393418442955424
 40
0.443552172800835
 40
0.530394283206717
 40
0.6036667919818254
 40
0.7009894053152177
 40
0.7507174249931042
 40
0.8067242281503032
 40
0.8892677166883521
 40
0.9827715778106668
 40
1.043426616793024
 40
1.109318337455068
 40
1.182564491755753
 40
1.293719242428883
 40
1.399327847180614
 40
1.448424760475743
 40
1.50441322219426
 40
1.570741059842362
 40
1.617957956886697
 40
1.657539314700464
 40
1.714052551848318
 40
1.776150918813051
 40
1.838248940024221
 40
1.892584795022379
 40
2.017023561310864
 40
2.066120474605993
 40
2.164314359515976
 40
2.251113385583432
 40
2.417283613623161
 40
2.622320469312984
 40
2.918423525691272
 40
2.918423525691272
 40
2.918423525691272
 40
2.918423525691272
 10
294.5144607928567
 20
139.1898717064783
 10
294.4283816533913
 20
139.1837908220485
 10
294.3152688453612
 20
139.1758001994955
 10
294.1716420274904
 20
139.1364507334883
 10
294.0933495211463
 20
139.0895728485485
 10
294.0118705192644
 20
139.0551153561192
 10
293.9424020815716
 20
139.004090642906
 10
293.8721362234345
 20
138.9777980997725
 10
293.822933918612
 20
138.9303879449545
 10
293.7659862641364
 20
138.9014277761332
 10
293.7206378358003
 20
138.8366064989697
 10
293.6699511550406
 20
138.7760009537434
 10
293.6111482287447
 20
138.7317616086327
 10
293.5628878779456
 20
138.6852973529721
 10
293.5186157166251
 20
138.6135890455666
 10
293.4924134700949
 20
138.5183099388728
 10
293.4185537352245
 20
138.4581541470369
 10
293.4074327716771
 20
138.385828936071
 10
293.366578699969
 20
138.3431582786557
 10
293.3488139207462
 20
138.2880765901058
 10
293.3420482377122
 20
138.2376120339333
 10
293.3339278047945
 20
138.1904816318929
 10
293.3126862901766
 20
138.1409025308388
 10
293.3196195938357
 20
138.0796592752174
 10
293.3176445037755
 20
138.0203553980367
 10
293.3188068465944
 20
137.9402933171632
 10
293.3146117903858
 20
137.8623430358496
 10
293.348065719693
 20
137.7775146413233
 10
293.3678626448399
 20
137.7019018632283
 10
293.4220797447594
 20
137.597206802869
 10
293.5156031059279
 20
137.4764113404277
 10
293.6934456002386
 20
137.3297885357238
 10
293.8644463581805
 20
137.314914334699
 10
293.9654837049379
 20
137.3061257782929
 72
     1
 10
293.9654837049379
 20
137.3061257782929
 11
295.0375605952031
 21
137.3061257782929
 72
     4
 94
        3
 73
     0
 74
     0
 95
       11
 96
        7
 40
0.1647869275458135
 40
0.1647869275458135
 40
0.1647869275458135
 40
0.1647869275458135
 40
0.2545010798212315
 40
0.5111620267764023
 40
0.7602998271033902
 40
0.8850764140209603
 40
0.8850764140209603
 40
0.8850764140209603
 40
0.8850764140209603
 10
295.0375605952028
 20
137.3061257782929
 10
295.0525204528026
 20
137.3058374702315
 10
295.110278588272
 20
137.3047243489361
 10
295.2089879341239
 20
137.3189051069141
 10
295.3128433157499
 20
137.3324942417332
 10
295.37475904637
 20
137.3423907985674
 10
295.3947283932284
 20
137.3479492738766
 72
     4
 94
        3
 73
     0
 74
     0
 95
        9
 96
        5
 40
0.0
 40
0.0
 40
0.0
 40
0.0
 40
0.1622561919360204
 40
0.3804197703110171
 40
0.3804197703110171
 40
0.3804197703110171
 40
0.3804197703110171
 10
295.3947283932284
 20
137.3479492738766
 10
295.4468497765398
 20
137.3638954734812
 10
295.5690516132218
 20
137.401282333844
 10
295.6700183235601
 20
137.4802999306646
 10
295.7279208316399
 20
137.5256150352473
 72
     4
 94
        3
 73
     0
 74
     0
 95
       25
 96
       21
 40
0.0
 40
0.0
 40
0.0
 40
0.0
 40
0.165525918914855
 40
0.3412380755365305
 40
0.5940540902285263
 40
0.7697671103696209
 40
0.9377330196075423
 40
1.11479469302833
 40
1.274661249598185
 40
1.574522170874768
 40
1.815540668866877
 40
2.15849091873445
 40
2.536227739636605
 40
2.738070817316548
 40
2.925680654369045
 40
3.162706124480894
 40
3.395643218188267
 40
3.648478129958861
 40
3.928509979727306
 40
4.337226830236035
 40
4.337226830236035
 40
4.337226830236035
 40
4.337226830236035
 10
295.7279208316399
 20
137.5256150352473
 10
295.7491960564882
 20
137.5431960980269
 10
295.7895493412081
 20
137.5850105597722
 10
295.8611225364076
 20
137.6527824859702
 10
295.9241941932742
 20
137.7317421580473
 10
296.0019976228703
 20
137.7957362050094
 10
296.0425018450688
 20
137.8739736712202
 10
296.1008854840748
 20
137.9355057719331
 10
296.1498597968139
 20
138.0305360319196
 10
296.191412080671
 20
138.1396956964113
 10
296.2310264456673
 20
138.2819832445591
 10
296.2462070790055
 20
138.4425047489098
 10
296.2237378537951
 20
138.5978092238113
 10
296.1694578856883
 20
138.7138942174355
 10
296.1295519417323
 20
138.8106390955298
 10
296.0689896722431
 20
138.9022735293544
 10
295.9998963081565
 20
139.0019361098317
 10
295.902555992786
 20
139.0843731988532
 10
295.7753421947559
 20
139.1838056122467
 10
295.6568520408722
 20
139.1876125786839
 10
295.5865376831215
 20
139.1898717064783
 72
     1
 10
295.5865376831214
 20
139.1898717064783
 11
294.5144607928566
 21
139.1898717064783
 97
        6
330
501
330
500
330
502
330
4FF
330
4FE
330
4FD
 92
       20
 93
        1
 72
     3
 10
294.7608299280434
 20
138.2217345747369
 11
0.2546924415247531
 21
0.2239701316915159
 40
0.6788083417438792
 50
0.0
 51
360.0
 73
     1
 97
        1
330
4FC
 75
     0
 76
     1
 47
0.088756267210375
 98
        2
 10
294.8357317505701
 20
138.6695735323426
 10
294.8357317505701
 20
138.6695735323426
450
        0
451
        0
460
0.0
461
0.0
452
        0
462
0.0
453
        0
470

  0
ELLIPSE
  5
4FC
102
{ACAD_REACTORS
330
4FB
102
}
330
18
100
AcDbEntity
  8
ROGO
 62
     4
100
AcDbEllipse
 10
294.7608299280434
 20
138.2217345747369
 30
0.0
 11
0.2546924415247531
 21
0.2239701316915159
 31
0.0
210
0.0
220
0.0
230
1.0
 40
0.6788083417438792
 41
0.0
 42
6.283185307179586
  0
SPLINE
  5
4FD
102
{ACAD_REACTORS
330
4FB
102
}
330
18
100
AcDbEntity
  8
ROGO
 62
     4
100
AcDbSpline
210
0.0
220
0.0
230
1.0
 70
     8
 71
     3
 72
     9
 73
     5
 74
     3
 42
0.0000000001
 43
0.0000000001
 44
0.0000000001
 40
0.0
 40
0.0
 40
0.0
 40
0.0
 40
0.1622561919360204
 40
0.3804197703110171
 40
0.3804197703110171
 40
0.3804197703110171
 40
0.3804197703110171
 10
295.3947283932284
 20
137.3479492738766
 30
0.0
 10
295.4468497765398
 20
137.3638954734812
 30
0.0
 10
295.5690516132218
 20
137.401282333844
 30
0.0
 10
295.6700183235601
 20
137.4802999306646
 30
0.0
 10
295.7279208316399
 20
137.5256150352473
 30
0.0
 11
295.3947283932284
 21
137.3479492738766
 31
0.0
 11
295.547229484978
 21
137.4033612656905
 31
0.0
 11
295.7279208316399
 21
137.5256150352473
 31
0.0
  0
SPLINE
  5
4FE
102
{ACAD_REACTORS
330
4FB
102
}
330
18
100
AcDbEntity
  8
ROGO
 62
     4
100
AcDbSpline
210
0.0
220
0.0
230
1.0
 70
     8
 71
     3
 72
    11
 73
     7
 74
     0
 42
0.0000000001
 43
0.0000000001
 40
0.1647869275458134
 40
0.1647869275458134
 40
0.1647869275458134
 40
0.1647869275458134
 40
0.2895635144633836
 40
0.5387013147903714
 40
0.7953622617455423
 40
0.8850764140209602
 40
0.8850764140209602
 40
0.8850764140209602
 40
0.8850764140209602
 10
295.3947283932284
 20
137.3479492738766
 30
0.0
 10
295.37475904637
 20
137.3423907985674
 30
0.0
 10
295.3128433157499
 20
137.3324942417332
 30
0.0
 10
295.2089879341239
 20
137.3189051069141
 30
0.0
 10
295.110278588272
 20
137.3047243489361
 30
0.0
 10
295.0525204528026
 20
137.3058374702315
 30
0.0
 10
295.0375605952028
 20
137.3061257782929
 30
0.0
  0
LINE
  5
4FF
102
{ACAD_REACTORS
330
4FB
102
}
330
18
100
AcDbEntity
  8
ROGO
 62
     4
100
AcDbLine
 10
293.9654837049379
 20
137.3061257782929
 30
0.0
 11
295.0375605952027
 21
137.3061257782929
 31
0.0
  0
LINE
  5
500
102
{ACAD_REACTORS
330
4FB
102
}
330
18
100
AcDbEntity
  8
ROGO
 62
     4
100
AcDbLine
 10
294.5144607928567
 20
139.1898717064783
 30
0.0
 11
295.5865376831215
 21
139.1898717064783
 31
0.0
  0
SPLINE
  5
501
102
{ACAD_REACTORS
330
4FB
102
}
330
18
100
AcDbEntity
  8
ROGO
 62
     4
100
AcDbSpline
210
0.0
220
0.0
230
1.0
 70
     8
 71
     3
 72
    25
 73
    21
 74
     0
 42
0.0000000001
 43
0.0000000001
 40
0.0
 40
0.0
 40
0.0
 40
0.0
 40
0.4087168505087288
 40
0.6887487002771746
 40
0.9415836120477687
 40
1.17452070575514
 40
1.41154617586699
 40
1.599156012919487
 40
1.80099909059943
 40
2.178735911501585
 40
2.521686161369157
 40
2.762704659361267
 40
3.06256558063785
 40
3.222432137207705
 40
3.399493810628493
 40
3.567459719866414
 40
3.743172740007509
 40
3.995988754699505
 40
4.17170091132118
 40
4.337226830236035
 40
4.337226830236035
 40
4.337226830236035
 40
4.337226830236035
 10
295.5865376831215
 20
139.1898717064783
 30
0.0
 10
295.6568520408722
 20
139.1876125786839
 30
0.0
 10
295.7753421947559
 20
139.1838056122467
 30
0.0
 10
295.902555992786
 20
139.0843731988532
 30
0.0
 10
295.9998963081565
 20
139.0019361098317
 30
0.0
 10
296.0689896722431
 20
138.9022735293544
 30
0.0
 10
296.1295519417323
 20
138.8106390955298
 30
0.0
 10
296.1694578856883
 20
138.7138942174355
 30
0.0
 10
296.2237378537951
 20
138.5978092238113
 30
0.0
 10
296.2462070790055
 20
138.4425047489098
 30
0.0
 10
296.2310264456673
 20
138.2819832445591
 30
0.0
 10
296.191412080671
 20
138.1396956964113
 30
0.0
 10
296.1498597968139
 20
138.0305360319196
 30
0.0
 10
296.1008854840748
 20
137.9355057719331
 30
0.0
 10
296.0425018450688
 20
137.8739736712202
 30
0.0
 10
296.0019976228703
 20
137.7957362050094
 30
0.0
 10
295.9241941932742
 20
137.7317421580473
 30
0.0
 10
295.8611225364076
 20
137.6527824859702
 30
0.0
 10
295.7895493412081
 20
137.5850105597722
 30
0.0
 10
295.7491960564882
 20
137.5431960980269
 30
0.0
 10
295.7279208316399
 20
137.5256150352473
 30
0.0
  0
SPLINE
  5
502
102
{ACAD_REACTORS
330
4FB
102
}
330
18
100
AcDbEntity
  8
ROGO
 62
     4
100
AcDbSpline
210
0.0
220
0.0
230
1.0
 70
     8
 71
     3
 72
    38
 73
    34
 74
    32
 42
0.0000000001
 43
0.0000000001
 44
0.0000000001
 40
0.0
 40
0.0
 40
0.0
 40
0.0
 40
0.2582400211805774
 40
0.3393418442955424
 40
0.443552172800835
 40
0.530394283206717
 40
0.6036667919818254
 40
0.7009894053152177
 40
0.7507174249931042
 40
0.8067242281503032
 40
0.8892677166883521
 40
0.9827715778106668
 40
1.043426616793024
 40
1.109318337455068
 40
1.182564491755753
 40
1.293719242428883
 40
1.399327847180614
 40
1.448424760475743
 40
1.50441322219426
 40
1.570741059842362
 40
1.617957956886697
 40
1.657539314700464
 40
1.714052551848318
 40
1.776150918813051
 40
1.838248940024221
 40
1.892584795022379
 40
2.017023561310864
 40
2.066120474605993
 40
2.164314359515976
 40
2.251113385583432
 40
2.417283613623161
 40
2.622320469312984
 40
2.918423525691272
 40
2.918423525691272
 40
2.918423525691272
 40
2.918423525691272
 10
294.5144607928567
 20
139.1898717064783
 30
0.0
 10
294.4283816533913
 20
139.1837908220485
 30
0.0
 10
294.3152688453612
 20
139.1758001994955
 30
0.0
 10
294.1716420274904
 20
139.1364507334883
 30
0.0
 10
294.0933495211463
 20
139.0895728485485
 30
0.0
 10
294.0118705192644
 20
139.0551153561192
 30
0.0
 10
293.9424020815716
 20
139.004090642906
 30
0.0
 10
293.8721362234345
 20
138.9777980997725
 30
0.0
 10
293.822933918612
 20
138.9303879449545
 30
0.0
 10
293.7659862641364
 20
138.9014277761332
 30
0.0
 10
293.7206378358003
 20
138.8366064989697
 30
0.0
 10
293.6699511550406
 20
138.7760009537434
 30
0.0
 10
293.6111482287447
 20
138.7317616086327
 30
0.0
 10
293.5628878779456
 20
138.6852973529721
 30
0.0
 10
293.5186157166251
 20
138.6135890455666
 30
0.0
 10
293.4924134700949
 20
138.5183099388728
 30
0.0
 10
293.4185537352245
 20
138.4581541470369
 30
0.0
 10
293.4074327716771
 20
138.385828936071
 30
0.0
 10
293.366578699969
 20
138.3431582786557
 30
0.0
 10
293.3488139207462
 20
138.2880765901058
 30
0.0
 10
293.3420482377122
 20
138.2376120339333
 30
0.0
 10
293.3339278047945
 20
138.1904816318929
 30
0.0
 10
293.3126862901766
 20
138.1409025308388
 30
0.0
 10
293.3196195938357
 20
138.0796592752174
 30
0.0
 10
293.3176445037755
 20
138.0203553980367
 30
0.0
 10
293.3188068465944
 20
137.9402933171632
 30
0.0
 10
293.3146117903858
 20
137.8623430358496
 30
0.0
 10
293.348065719693
 20
137.7775146413233
 30
0.0
 10
293.3678626448399
 20
137.7019018632283
 30
0.0
 10
293.4220797447594
 20
137.597206802869
 30
0.0
 10
293.5156031059279
 20
137.4764113404277
 30
0.0
 10
293.6934456002386
 20
137.3297885357238
 30
0.0
 10
293.8644463581805
 20
137.314914334699
 30
0.0
 10
293.9654837049379
 20
137.3061257782929
 30
0.0
 11
294.5144607928567
 21
139.1898717064783
 31
0.0
 11
294.2580941686463
 21
139.1588223501192
 31
0.0
 11
294.1804073313203
 21
139.1355358514802
 31
0.0
 11
294.0871834927375
 21
139.088962162695
 31
0.0
 11
294.0094966554116
 21
139.0501509858764
 31
0.0
 11
293.9473474296897
 21
139.0113394633043
 31
0.0
 11
293.8618920917353
 21
138.9647661202726
 31
0.0
 11
293.8230483678987
 21
138.933717109667
 31
0.0
 11
293.7764361434337
 21
138.9026677533079
 31
0.0
 11
293.7220554183402
 21
138.8405697320967
 31
0.0
 11
293.6599061926184
 21
138.7707095446725
 31
0.0
 11
293.6132939681532
 21
138.7318980221003
 31
0.0
 11
293.5666823540355
 21
138.6853246790687
 31
0.0
 11
293.5278386301988
 21
138.6232266578576
 31
0.0
 11
293.4812270160812
 21
138.5223171140743
 31
0.0
 11
293.419077180012
 21
138.4369322484705
 31
0.0
 11
293.4035401787552
 21
138.3903585596853
 31
0.0
 11
293.3724655658942
 21
138.3437852166536
 31
0.0
 11
293.3491594536617
 21
138.281686849689
 31
0.0
 11
293.3413903426861
 21
138.2351135066573
 31
0.0
 11
293.3336218420576
 21
138.1963019840852
 31
0.0
 11
293.3180848408008
 21
138.1419664748405
 31
0.0
 11
293.3180848408008
 21
138.0798681078758
 31
0.0
 11
293.3180848408008
 21
138.0177700866646
 31
0.0
 11
293.3180848408008
 21
137.9634342316665
 31
0.0
 11
293.3258533414293
 21
137.8392381892441
 31
0.0
 11
293.3413903426861
 21
137.7926645004589
 31
0.0
 11
293.3724655658942
 21
137.6995174686421
 31
0.0
 11
293.4113086793836
 21
137.6218947692514
 31
0.0
 11
293.512301628942
 21
137.489936560616
 31
0.0
 11
293.6754438042225
 21
137.3657401724401
 31
0.0
 11
293.9654837049379
 21
137.3061257782929
 31
0.0
  0
HATCH
  5
503
330
18
100
AcDbEntity
  8
ROGO
 62
     4
100
AcDbHatch
 10
0.0
 20
0.0
 30
0.0
210
0.0
220
0.0
230
1.0
  2
SOLID
 70
     1
 71
     1
 91
        2
 92
        7
 72
     0
 73
     1
 93
        8
 10
289.5744590307913
 20
139.1820471076608
 10
288.0738826268322
 20
139.1820471076607
 10
286.7211192981191
 20
137.3061257782929
 10
287.7600439433928
 20
137.3061257782929
 10
288.0176017113655
 20
137.6632895927083
 10
289.2031402667717
 20
137.6632895927083
 10
289.3618065854416
 20
137.3061257782929
 10
290.4078176170532
 20
137.3061257782929
 97
        8
330
52A
330
530
330
52B
330
52C
330
52E
330
504
330
529
330
506
 92
       22
 72
     0
 73
     1
 93
        3
 10
289.0357901159138
 20
138.0400010379884
 10
288.2892556558585
 20
138.0400010379884
 10
288.751208136306
 20
138.6806057120154
 97
        3
330
52D
330
52F
330
505
 75
     0
 76
     1
 47
0.0128389261915577
 98
        2
 10
289.4569520415117
 20
138.731987226505
 10
289.4569520415117
 20
138.731987226505
450
        0
451
        0
460
0.0
461
0.0
452
        0
462
0.0
453
        0
470

  0
LINE
  5
504
102
{ACAD_REACTORS
330
503
102
}
330
18
100
AcDbEntity
  8
ROGO
 62
     4
100
AcDbLine
 10
289.2031402667717
 20
137.6632895927083
 30
0.0
 11
289.3618065854416
 21
137.3061257782929
 31
0.0
  0
LINE
  5
505
102
{ACAD_REACTORS
330
503
102
}
330
18
100
AcDbEntity
  8
ROGO
 62
     4
100
AcDbLine
 10
288.7512081363061
 20
138.6806057120154
 30
0.0
 11
289.0357901159138
 21
138.0400010379884
 31
0.0
  0
LINE
  5
506
102
{ACAD_REACTORS
330
503
102
}
330
18
100
AcDbEntity
  8
ROGO
 62
     4
100
AcDbLine
 10
289.5744590307913
 20
139.1820471076608
 30
0.0
 11
290.4078176170533
 21
137.3061257782929
 31
0.0
  0
HATCH
  5
507
330
18
100
AcDbEntity
  8
ROGO
 62
     4
100
AcDbHatch
 10
0.0
 20
0.0
 30
0.0
210
0.0
220
0.0
230
1.0
  2
SOLID
 70
     1
 71
     1
 91
        2
 92
        5
 93
        6
 72
     1
 10
279.6868108268821
 20
136.2507917006522
 11
281.0493836210771
 21
136.2507917006522
 72
     1
 10
281.0493836210771
 20
136.2507917006522
 11
281.5268466936892
 21
137.3061257782929
 72
     1
 10
281.5268466936892
 20
137.3061257782929
 11
282.8005727910781
 21
137.3061257782929
 72
     4
 94
        3
 73
     0
 74
     0
 95
       18
 96
       14
 40
0.108740278791501
 40
0.108740278791501
 40
0.108740278791501
 40
0.108740278791501
 40
0.6623149649549278
 40
1.384304701649787
 40
2.097394834876493
 40
2.774073369849618
 40
3.428974823686337
 40
4.005208313035923
 40
4.455173659284313
 40
4.720999734343524
 40
5.086034088486724
 40
5.569973738255373
 40
6.060470601257719
 40
6.060470601257719
 40
6.060470601257719
 40
6.060470601257719
 10
282.800572791078
 20
137.3061257782929
 10
282.890215529499
 20
137.3067933206231
 10
283.0967731824327
 20
137.3083314929211
 10
283.385745722586
 20
137.4627069736287
 10
283.6597742555759
 20
137.6593700884026
 10
283.8804855971207
 20
137.9050801324052
 10
284.017995412658
 20
138.1860074717206
 10
284.0392952484397
 20
138.4552505225373
 10
284.0262922219955
 20
138.6682184284751
 10
283.933379066934
 20
138.8166623460506
 10
283.8367845041844
 20
138.9673177420117
 10
283.659662739117
 20
139.0978210417137
 10
283.5145370993305
 20
139.1550008864498
 10
283.4407377598505
 20
139.1820471076608
 72
     1
 10
283.4407377598505
 20
139.1820471076608
 11
281.1371687413002
 21
139.1820471076608
 72
     1
 10
281.1371687413002
 20
139.1820471076608
 11
279.6868108268821
 21
136.2507917006522
 97
        6
330
542
330
545
330
543
330
544
330
53C
330
541
 92
       20
 93
        4
 72
     1
 10
281.8216531112751
 20
137.9577348275198
 11
282.0473642489286
 21
138.4566229487846
 72
     1
 10
282.0473642489286
 20
138.4566229487846
 11
282.6273456762105
 21
138.4566229487846
 72
     4
 94
        3
 73
     0
 74
     0
 95
       15
 96
       11
 40
0.0
 40
0.0
 40
0.0
 40
0.0
 40
0.2199578613106558
 40
0.3202465475123651
 40
0.4340808827708152
 40
0.5116301246390283
 40
0.634275054953107
 40
0.7077360179240892
 40
0.8337709579493377
 40
0.875782631437913
 40
0.875782631437913
 40
0.875782631437913
 40
0.875782631437913
 10
282.6273456762107
 20
138.4566229487844
 10
282.7099575834381
 20
138.4570013554165
 10
282.8302359763782
 20
138.4575522946589
 10
282.8960084854704
 20
138.3087675747597
 10
282.8665261108513
 20
138.2129734252777
 10
282.8294643631025
 20
138.114622690638
 10
282.7639678608992
 20
138.0477918831103
 10
282.6760619614774
 20
137.9834225493432
 10
282.5929866856836
 20
137.9756303532583
 10
282.5389555442942
 20
137.961313934038
 10
282.5254477524809
 20
137.9577348275196
 72
     1
 10
282.525447752481
 20
137.9577348275196
 11
281.8216531112751
 21
137.9577348275198
 97
        4
330
540
330
53E
330
53F
330
53D
 75
     0
 76
     1
 47
0.0514683685270805
 98
        2
 10
281.1494809603102
 20
138.2703488835336
 10
281.1494809603102
 20
138.2703488835336
450
        0
451
        0
460
0.0
461
0.0
452
        0
462
0.0
453
        0
470

  0
HATCH
  5
508
330
18
100
AcDbEntity
  8
ROGO
 62
     4
100
AcDbHatch
 10
0.0
 20
0.0
 30
0.0
210
0.0
220
0.0
230
1.0
  2
SOLID
 70
     1
 71
     1
 91
        1
 92
        7
 72
     0
 73
     1
 93
       11
 10
298.4483730047673
 20
136.2507917006522
 10
299.5284926369161
 20
136.2507917006522
 10
299.9099916214385
 20
137.0158825036801
 10
300.2914906059609
 20
136.2507917006521
 10
301.3715866059608
 20
136.2507917006522
 10
300.6407772976253
 20
137.7164194041564
 10
302.4163612195271
 20
139.1820471076608
 10
301.3362652195271
 20
139.1820471076608
 10
300.8305322437002
 20
138.862013666487
 10
300.9901112535874
 20
139.1820471076608
 10
299.9099916214385
 20
139.1820471076608
 97
       11
330
510
330
515
330
516
330
518
330
517
330
544
330
512
330
514
330
50F
330
513
330
511
 75
     0
 76
     1
 47
0.0514683685270805
 98
        1
 10
299.8170326980044
 20
137.92448141703
450
        0
451
        0
460
0.0
461
0.0
452
        0
462
0.0
453
        0
470

  0
HATCH
  5
509
330
18
100
AcDbEntity
  8
ROGO
 62
     4
100
AcDbHatch
 10
0.0
 20
0.0
 30
0.0
210
0.0
220
0.0
230
1.0
  2
SOLID
 70
     1
 71
     0
 91
        1
 92
        7
 72
     0
 73
     1
 93
        4
 10
281.18231367168
 20
136.5446062810683
 10
281.0493836210771
 20
136.2507917006522
 10
298.4483730047673
 20
136.2507917006522
 10
298.5948784438904
 20
136.5446062810683
 97
        0
 75
     0
 76
     1
 47
0.0514683685270805
 98
        1
 10
292.1769354729489
 20
136.4668970464899
450
        0
451
        0
460
0.0
461
0.0
452
        0
462
0.0
453
        0
470

  0
HATCH
  5
50A
330
18
100
AcDbEntity
  8
ROGO
 62
     4
100
AcDbHatch
 10
0.0
 20
0.0
 30
0.0
210
0.0
220
0.0
230
1.0
  2
SOLID
 70
     1
 71
     1
 91
        1
 92
        5
 93
        8
 72
     4
 94
        3
 73
     0
 74
     0
 95
       26
 96
       22
 40
0.0
 40
0.0
 40
0.0
 40
0.0
 40
0.3403136209416859
 40
0.5681272389515052
 40
0.7323994099695983
 40
0.8550561247335963
 40
1.014148321321381
 40
1.13027011535639
 40
1.339959009792003
 40
1.510642755247356
 40
1.626735051276114
 40
1.740569491433573
 40
1.94419717410045
 40
2.088186249714629
 40
2.165735491582895
 40
2.275891898886364
 40
2.355438312276665
 40
2.470674802864995
 40
2.535888688806186
 40
2.677801419664424
 40
2.74260000535881
 40
2.74260000535881
 40
2.74260000535881
 40
2.74260000535881
 10
297.6384723768264
 20
139.1820471076608
 10
297.5229646757426
 20
139.1751557201391
 10
297.3301335127912
 20
139.1636510822867
 10
297.1184060689173
 20
139.0350289339177
 10
296.9632821483313
 20
138.9602536691427
 10
296.8526479562968
 20
138.8586030671148
 10
296.7715526450573
 20
138.7536054206556
 10
296.6693167812039
 20
138.6285014947623
 10
296.5859463556239
 20
138.482823035527
 10
296.5434908662909
 20
138.3222599768653
 10
296.5058841967853
 20
138.1942902874953
 10
296.47799446111
 20
138.0516847690776
 10
296.4850903994141
 20
137.8976206431887
 10
296.4952521078203
 20
137.754533770326
 10
296.5406216648546
 20
137.6523911661451
 10
296.5922895539833
 20
137.5796726705318
 10
296.6555561766331
 20
137.4995813095337
 10
296.7247836970866
 20
137.4465370604904
 10
296.7820405072446
 20
137.350443838861
 10
296.8822666219052
 20
137.3381816507521
 10
296.9459743277278
 20
137.3137762366422
 10
296.9659450255299
 20
137.3061257782929
 72
     1
 10
296.9659450255299
 20
137.3061257782929
 11
298.5817007612508
 21
137.3061257782929
 72
     1
 10
298.5817007612508
 20
137.3061257782929
 11
298.9297246479348
 21
138.0040827473509
 72
     1
 10
298.9297246479348
 20
138.0040827473509
 11
297.7301803324031
 21
138.0040827473509
 72
     4
 94
        3
 73
     0
 74
     0
 95
       16
 96
       12
 40
0.0
 40
0.0
 40
0.0
 40
0.0
 40
0.1027738093187964
 40
0.2066076558227444
 40
0.268539878558716
 40
0.3279201337292112
 40
0.3931337605654557
 40
0.4386740937218511
 40
0.4818879174817272
 40
0.569519347887583
 40
0.7489346372632488
 40
0.7489346372632488
 40
0.7489346372632488
 40
0.7489346372632488
 10
297.7301803324031
 20
138.0040827473508
 10
297.6939978485864
 20
138.0147281646202
 10
297.6212596849164
 20
138.036128798905
 10
297.6151720879911
 20
138.1398712119582
 10
297.6234655580795
 20
138.2137961704714
 10
297.6581986293327
 20
138.2676178572086
 10
297.7003358691336
 20
138.3067802158311
 10
297.71602543235
 20
138.3577830646627
 10
297.762143473956
 20
138.3962965965434
 10
297.8439231188003
 20
138.4610324636517
 10
297.9343572491023
 20
138.4748197569166
 10
297.9951154028472
 20
138.4840827473509
 72
     1
 10
297.9951154028471
 20
138.4840827473509
 11
299.1690681504916
 21
138.4840827473509
 72
     1
 10
299.1690681504916
 20
138.4840827473509
 11
299.5170957226926
 21
139.1820471076608
 72
     1
 10
299.5170957226926
 20
139.1820471076608
 11
297.6384723768264
 21
139.1820471076608
 97
        8
330
51F
330
51D
330
520
330
51C
330
51B
330
51E
330
51A
330
519
 75
     0
 76
     1
 47
0.0514683685270805
 98
        1
 10
297.962640133519
 20
138.8385595316906
450
        0
451
        0
460
0.0
461
0.0
452
        0
462
0.0
453
        0
470

  0
HATCH
  5
50B
330
18
100
AcDbEntity
  8
ROGO
 62
     4
100
AcDbHatch
 10
0.0
 20
0.0
 30
0.0
210
0.0
220
0.0
230
1.0
  2
SOLID
 70
     1
 71
     1
 91
        1
 92
        5
 93
        8
 72
     1
 10
293.1246827634518
 20
138.484082747351
 11
293.4727103356527
 21
139.1820471076608
 72
     1
 10
293.4727103356527
 20
139.1820471076608
 11
291.5940869897868
 21
139.1820471076608
 72
     4
 94
        3
 73
     0
 74
     0
 95
       26
 96
       22
 40
0.0
 40
0.0
 40
0.0
 40
0.0
 40
0.3403136209417982
 40
0.5681272389515159
 40
0.7323994099697078
 40
0.8550561247337057
 40
1.014148321321447
 40
1.13027011535643
 40
1.339959009791999
 40
1.510642755247373
 40
1.626735051276186
 40
1.740569491433665
 40
1.944197174100541
 40
2.088186249714737
 40
2.16573549158295
 40
2.275891898886404
 40
2.355438312276705
 40
2.470674802865115
 40
2.535888688806235
 40
2.677801419664453
 40
2.742600005358966
 40
2.742600005358966
 40
2.742600005358966
 40
2.742600005358966
 10
291.5940869897866
 20
139.1820471076608
 10
291.4785792887029
 20
139.1751557201392
 10
291.2857481257515
 20
139.1636510822868
 10
291.0740206818776
 20
139.0350289339176
 10
290.9188967612914
 20
138.9602536691428
 10
290.808262569257
 20
138.8586030671147
 10
290.7271672580175
 20
138.7536054206558
 10
290.624931394164
 20
138.6285014947621
 10
290.5415609685841
 20
138.4828230355273
 10
290.499105479251
 20
138.3222599768652
 10
290.4614988097458
 20
138.1942902874954
 10
290.43360907407
 20
138.0516847690776
 10
290.4407050123742
 20
137.8976206431886
 10
290.4508667207806
 20
137.754533770326
 10
290.496236277815
 20
137.6523911661452
 10
290.5479041669434
 20
137.5796726705318
 10
290.6111707895933
 20
137.4995813095336
 10
290.6803983100469
 20
137.4465370604905
 10
290.7376551202048
 20
137.3504438388609
 10
290.8378812348655
 20
137.3381816507522
 10
290.9015889406881
 20
137.3137762366422
 10
290.9215596384902
 20
137.3061257782929
 72
     1
 10
290.9215596384901
 20
137.3061257782929
 11
292.537315374211
 21
137.3061257782929
 72
     1
 10
292.537315374211
 20
137.3061257782929
 11
292.885339260895
 21
138.0040827473509
 72
     1
 10
292.885339260895
 20
138.0040827473509
 11
291.6857949453634
 21
138.0040827473509
 72
     4
 94
        3
 73
     0
 74
     0
 95
       16
 96
       12
 40
0.0
 40
0.0
 40
0.0
 40
0.0
 40
0.1027738093189234
 40
0.2066076558227377
 40
0.2685398785587465
 40
0.3279201337292418
 40
0.3931337605655129
 40
0.4386740937218573
 40
0.4818879174818138
 40
0.5695193478876036
 40
0.7489346372632694
 40
0.7489346372632694
 40
0.7489346372632694
 40
0.7489346372632694
 10
291.6857949453635
 20
138.0040827473509
 10
291.6496124615466
 20
138.0147281646203
 10
291.5768742978766
 20
138.0361287989051
 10
291.5707867009515
 20
138.1398712119583
 10
291.5790801710396
 20
138.2137961704714
 10
291.6138132422928
 20
138.2676178572087
 10
291.655950482094
 20
138.3067802158311
 10
291.6716400453101
 20
138.3577830646628
 10
291.7177580869163
 20
138.3962965965435
 10
291.7995377317603
 20
138.4610324636516
 10
291.8899718620624
 20
138.4748197569166
 10
291.9507300158074
 20
138.4840827473509
 72
     1
 10
291.9507300158073
 20
138.4840827473509
 11
293.1246827634518
 21
138.484082747351
 97
        8
330
521
330
524
330
528
330
522
330
525
330
523
330
526
330
527
 75
     0
 76
     1
 47
0.0514683685270805
 98
        1
 10
292.2511111286537
 20
138.7644450271651
450
        0
451
        0
460
0.0
461
0.0
452
        0
462
0.0
453
        0
470

  0
HATCH
  5
50C
330
18
100
AcDbEntity
  8
ROGO
 62
     4
100
AcDbHatch
 10
0.0
 20
0.0
 30
0.0
210
0.0
220
0.0
230
1.0
  2
SOLID
 70
     1
 71
     1
 91
        1
 92
        1
 93
       12
 72
     1
 10
284.8016291787155
 20
139.1820471076608
 11
287.3388908194069
 21
139.1820471076608
 72
     1
 10
287.3388908194069
 20
139.1820471076608
 11
287.1262705397861
 21
138.7523294923863
 72
     1
 10
287.1262705397861
 20
138.7523294923863
 11
285.7927499366176
 21
138.7523294923863
 72
     1
 10
285.7927499366176
 20
138.7523294923863
 11
285.6265072993654
 21
138.4163437164089
 72
     1
 10
285.6265072993654
 20
138.4163437164089
 11
286.960027902534
 21
138.4163437164089
 72
     1
 10
286.960027902534
 20
138.4163437164089
 11
286.7895616516427
 21
138.0718217782929
 72
     1
 10
286.7895616516427
 20
138.071821778293
 11
285.4560410484743
 21
138.0718217782929
 72
     1
 10
285.4560410484743
 20
138.0718217782929
 11
285.2897913733079
 21
137.7358217782929
 72
     1
 10
285.2897913733079
 20
137.7358217782929
 11
286.6233119764766
 21
137.7358217782929
 72
     1
 10
286.6233119764766
 20
137.7358217782929
 11
286.4107023918925
 21
137.3061257782929
 72
     1
 10
286.4107023918925
 20
137.3061257782929
 11
283.8734407512011
 21
137.3061257782929
 72
     1
 10
283.8734407512012
 20
137.3061257782929
 11
284.8016291787155
 21
139.1820471076608
 97
       12
330
50E
330
53A
330
537
330
538
330
536
330
533
330
534
330
531
330
535
330
532
330
539
330
53B
 75
     0
 76
     1
 98
        1
 10
181.0157306377027
 20
9.470481324644595
450
        0
451
        0
460
0.0
461
0.0
452
        0
462
0.0
453
        0
470

  0
LINE
  5
50D
330
18
100
AcDbEntity
  8
ROGO
 62
     4
100
AcDbLine
 10
281.1619373189419
 20
136.5446062810683
 30
0.0
 11
298.5948784438903
 21
136.5446062810683
 31
0.0
  0
LINE
  5
50E
102
{ACAD_REACTORS
330
50C
102
}
330
18
100
AcDbEntity
  8
ROGO
 62
     4
100
AcDbLine
 10
284.8016291787155
 20
139.1820471076608
 30
0.0
 11
287.3388908194069
 21
139.1820471076608
 31
0.0
  0
LINE
  5
50F
102
{ACAD_REACTORS
330
508
102
}
330
18
100
AcDbEntity
  8
ROGO
 62
     4
100
AcDbLine
 10
300.2914906059609
 20
136.2507917006522
 30
0.0
 11
301.3715866059608
 21
136.2507917006522
 31
0.0
  0
LINE
  5
510
102
{ACAD_REACTORS
330
508
102
}
330
18
100
AcDbEntity
  8
ROGO
 62
     4
100
AcDbLine
 10
301.3362652195271
 20
139.1820471076608
 30
0.0
 11
302.4163612195271
 21
139.1820471076608
 31
0.0
  0
LINE
  5
511
102
{ACAD_REACTORS
330
508
102
}
330
18
100
AcDbEntity
  8
ROGO
 62
     4
100
AcDbLine
 10
300.6407772976253
 20
137.7164194041564
 30
0.0
 11
302.4163612195271
 21
139.1820471076608
 31
0.0
  0
LINE
  5
512
102
{ACAD_REACTORS
330
508
102
}
330
18
100
AcDbEntity
  8
ROGO
 62
     4
100
AcDbLine
 10
299.9099916214385
 20
137.0158825036801
 30
0.0
 11
299.5284926369161
 21
136.2507917006522
 31
0.0
  0
LINE
  5
513
102
{ACAD_REACTORS
330
508
102
}
330
18
100
AcDbEntity
  8
ROGO
 62
     4
100
AcDbLine
 10
300.6407772976253
 20
137.7164194041564
 30
0.0
 11
301.3715866059608
 21
136.2507917006522
 31
0.0
  0
LINE
  5
514
102
{ACAD_REACTORS
330
508
102
}
330
18
100
AcDbEntity
  8
ROGO
 62
     4
100
AcDbLine
 10
299.9099916214385
 20
137.0158825036801
 30
0.0
 11
300.2914906059609
 21
136.2507917006522
 31
0.0
  0
LINE
  5
515
102
{ACAD_REACTORS
330
508
102
}
330
18
100
AcDbEntity
  8
ROGO
 62
     4
100
AcDbLine
 10
300.8305322437002
 20
138.862013666487
 30
0.0
 11
301.3362652195271
 21
139.1820471076608
 31
0.0
  0
LINE
  5
516
102
{ACAD_REACTORS
330
508
102
}
330
18
100
AcDbEntity
  8
ROGO
 62
     4
100
AcDbLine
 10
300.9901112535873
 20
139.1820471076608
 30
0.0
 11
300.8305322437002
 21
138.862013666487
 31
0.0
  0
LINE
  5
517
102
{ACAD_REACTORS
330
508
102
}
330
18
100
AcDbEntity
  8
ROGO
 62
     4
100
AcDbLine
 10
299.9099916214385
 20
139.1820471076608
 30
0.0
 11
298.4483730047673
 21
136.2507917006522
 31
0.0
  0
LINE
  5
518
102
{ACAD_REACTORS
330
508
102
}
330
18
100
AcDbEntity
  8
ROGO
 62
     4
100
AcDbLine
 10
299.9099916214385
 20
139.1820471076608
 30
0.0
 11
300.9901112535873
 21
139.1820471076608
 31
0.0
  0
LINE
  5
519
102
{ACAD_REACTORS
330
50A
102
}
330
18
100
AcDbEntity
  8
ROGO
 62
     4
100
AcDbLine
 10
299.5170957226926
 20
139.1820471076608
 30
0.0
 11
299.1690681504916
 21
138.4840827473509
 31
0.0
  0
LINE
  5
51A
102
{ACAD_REACTORS
330
50A
102
}
330
18
100
AcDbEntity
  8
ROGO
 62
     4
100
AcDbLine
 10
297.9951154028471
 20
138.4840827473509
 30
0.0
 11
299.1690681504916
 21
138.4840827473509
 31
0.0
  0
LINE
  5
51B
102
{ACAD_REACTORS
330
50A
102
}
330
18
100
AcDbEntity
  8
ROGO
 62
     4
100
AcDbLine
 10
297.7301803324031
 20
138.0040827473509
 30
0.0
 11
298.9297246479348
 21
138.0040827473509
 31
0.0
  0
LINE
  5
51C
102
{ACAD_REACTORS
330
50A
102
}
330
18
100
AcDbEntity
  8
ROGO
 62
     4
100
AcDbLine
 10
298.9297246479348
 20
138.0040827473509
 30
0.0
 11
298.5817007612508
 21
137.3061257782929
 31
0.0
  0
SPLINE
  5
51D
102
{ACAD_REACTORS
330
50A
102
}
330
18
100
AcDbEntity
  8
ROGO
 62
     4
100
AcDbSpline
210
0.0
220
0.0
230
1.0
 70
     8
 71
     3
 72
    26
 73
    22
 74
    20
 42
0.0000000001
 43
0.0000000001
 44
0.0000000001
 40
0.0
 40
0.0
 40
0.0
 40
0.0
 40
0.3403136209416859
 40
0.5681272389515052
 40
0.7323994099695983
 40
0.8550561247335963
 40
1.014148321321381
 40
1.13027011535639
 40
1.339959009792003
 40
1.510642755247356
 40
1.626735051276114
 40
1.740569491433573
 40
1.94419717410045
 40
2.088186249714629
 40
2.165735491582895
 40
2.275891898886364
 40
2.355438312276665
 40
2.470674802864995
 40
2.535888688806186
 40
2.677801419664424
 40
2.74260000535881
 40
2.74260000535881
 40
2.74260000535881
 40
2.74260000535881
 10
297.6384723768264
 20
139.1820471076608
 30
0.0
 10
297.5229646757426
 20
139.1751557201391
 30
0.0
 10
297.3301335127912
 20
139.1636510822867
 30
0.0
 10
297.1184060689173
 20
139.0350289339177
 30
0.0
 10
296.9632821483313
 20
138.9602536691427
 30
0.0
 10
296.8526479562968
 20
138.8586030671148
 30
0.0
 10
296.7715526450573
 20
138.7536054206556
 30
0.0
 10
296.6693167812039
 20
138.6285014947623
 30
0.0
 10
296.5859463556239
 20
138.482823035527
 30
0.0
 10
296.5434908662909
 20
138.3222599768653
 30
0.0
 10
296.5058841967853
 20
138.1942902874953
 30
0.0
 10
296.47799446111
 20
138.0516847690776
 30
0.0
 10
296.4850903994141
 20
137.8976206431887
 30
0.0
 10
296.4952521078203
 20
137.754533770326
 30
0.0
 10
296.5406216648546
 20
137.6523911661451
 30
0.0
 10
296.5922895539833
 20
137.5796726705318
 30
0.0
 10
296.6555561766331
 20
137.4995813095337
 30
0.0
 10
296.7247836970866
 20
137.4465370604904
 30
0.0
 10
296.7820405072446
 20
137.350443838861
 30
0.0
 10
296.8822666219052
 20
137.3381816507521
 30
0.0
 10
296.9459743277278
 20
137.3137762366422
 30
0.0
 10
296.9659450255299
 20
137.3061257782929
 30
0.0
 11
297.6384723768264
 21
139.1820471076608
 31
0.0
 11
297.3022087011781
 21
139.1297011332411
 31
0.0
 11
297.0984122677852
 21
139.0278872919077
 31
0.0
 11
296.9557550573769
 21
138.9464362852256
 31
0.0
 11
296.8640471018001
 21
138.8649849466202
 31
0.0
 11
296.7621491780704
 21
138.7428082706353
 31
0.0
 11
296.6908205728662
 21
138.6511758466276
 31
0.0
 11
296.5889220632031
 21
138.4679106666887
 31
0.0
 11
296.5379733943048
 21
138.3050083214012
 31
0.0
 11
296.5074040757793
 21
138.1930130627421
 31
0.0
 11
296.4870241394733
 21
138.081017804083
 31
0.0
 11
296.4870241394733
 21
137.8773901214161
 31
0.0
 11
296.5074040757793
 21
137.7348506107799
 31
0.0
 11
296.5379733943048
 21
137.6635806895001
 31
0.0
 11
296.599112031356
 21
137.5719482654924
 31
0.0
 11
296.6500612861877
 21
137.5108597615383
 31
0.0
 11
296.7315792736112
 21
137.4294087548562
 31
0.0
 11
296.77233856029
 21
137.3785016682278
 31
0.0
 11
296.9048063884788
 21
137.3275949135227
 31
0.0
 11
296.9659450255299
 21
137.3061257782929
 31
0.0
  0
SPLINE
  5
51E
102
{ACAD_REACTORS
330
50A
102
}
330
18
100
AcDbEntity
  8
ROGO
 62
     4
100
AcDbSpline
210
0.0
220
0.0
230
1.0
 70
     8
 71
     3
 72
    16
 73
    12
 74
    10
 42
0.0000000001
 43
0.0000000001
 44
0.0000000001
 40
0.0
 40
0.0
 40
0.0
 40
0.0
 40
0.1794152893756658
 40
0.2670467197815217
 40
0.3102605435413978
 40
0.3558008766977931
 40
0.4210145035340376
 40
0.4803947587045328
 40
0.5423269814405045
 40
0.6461608279444525
 40
0.7489346372632488
 40
0.7489346372632488
 40
0.7489346372632488
 40
0.7489346372632488
 10
297.9951154028472
 20
138.4840827473509
 30
0.0
 10
297.9343572491023
 20
138.4748197569166
 30
0.0
 10
297.8439231188003
 20
138.4610324636517
 30
0.0
 10
297.762143473956
 20
138.3962965965434
 30
0.0
 10
297.71602543235
 20
138.3577830646627
 30
0.0
 10
297.7003358691336
 20
138.3067802158311
 30
0.0
 10
297.6581986293327
 20
138.2676178572086
 30
0.0
 10
297.6234655580795
 20
138.2137961704714
 30
0.0
 10
297.6151720879911
 20
138.1398712119582
 30
0.0
 10
297.6212596849164
 20
138.036128798905
 30
0.0
 10
297.6939978485864
 20
138.0147281646202
 30
0.0
 10
297.7301803324031
 20
138.0040827473508
 30
0.0
 11
297.9951154028472
 21
138.4840827473509
 31
0.0
 11
297.8218888739133
 21
138.4373664147117
 31
0.0
 11
297.7505602687092
 21
138.3864596600066
 31
0.0
 11
297.7199909501836
 21
138.3559154080296
 31
0.0
 11
297.6996110138775
 21
138.3151897387268
 31
0.0
 11
297.658851727199
 21
138.2642829840218
 31
0.0
 11
297.6282824086734
 21
138.2133758973934
 31
0.0
 11
297.6180924405203
 21
138.1522877253627
 31
0.0
 11
297.6384723768264
 21
138.0504735521059
 31
0.0
 11
297.7301803324031
 21
138.0040827473508
 31
0.0
  0
LINE
  5
51F
102
{ACAD_REACTORS
330
50A
102
}
330
18
100
AcDbEntity
  8
ROGO
 62
     4
100
AcDbLine
 10
297.6384723768269
 20
139.1820471076608
 30
0.0
 11
299.5170957226926
 21
139.1820471076608
 31
0.0
  0
LINE
  5
520
102
{ACAD_REACTORS
330
50A
102
}
330
18
100
AcDbEntity
  8
ROGO
 62
     4
100
AcDbLine
 10
296.9659450255299
 20
137.3061257782929
 30
0.0
 11
298.5817007612508
 21
137.3061257782929
 31
0.0
  0
LINE
  5
521
102
{ACAD_REACTORS
330
50B
102
}
330
18
100
AcDbEntity
  8
ROGO
 62
     4
100
AcDbLine
 10
291.5940869897872
 20
139.1820471076608
 30
0.0
 11
293.4727103356528
 21
139.1820471076608
 31
0.0
  0
LINE
  5
522
102
{ACAD_REACTORS
330
50B
102
}
330
18
100
AcDbEntity
  8
ROGO
 62
     4
100
AcDbLine
 10
292.8853392608949
 20
138.0040827473509
 30
0.0
 11
292.537315374211
 21
137.3061257782929
 31
0.0
  0
SPLINE
  5
523
102
{ACAD_REACTORS
330
50B
102
}
330
18
100
AcDbEntity
  8
ROGO
 62
     4
100
AcDbSpline
210
0.0
220
0.0
230
1.0
 70
     8
 71
     3
 72
    16
 73
    12
 74
    10
 42
0.0000000001
 43
0.0000000001
 44
0.0000000001
 40
0.0
 40
0.0
 40
0.0
 40
0.0
 40
0.1794152893756658
 40
0.2670467197814556
 40
0.3102605435414121
 40
0.3558008766977565
 40
0.4210145035340276
 40
0.4803947587045229
 40
0.5423269814405317
 40
0.646160827944346
 40
0.7489346372632694
 40
0.7489346372632694
 40
0.7489346372632694
 40
0.7489346372632694
 10
291.9507300158074
 20
138.4840827473509
 30
0.0
 10
291.8899718620624
 20
138.4748197569166
 30
0.0
 10
291.7995377317603
 20
138.4610324636516
 30
0.0
 10
291.7177580869163
 20
138.3962965965435
 30
0.0
 10
291.6716400453101
 20
138.3577830646628
 30
0.0
 10
291.655950482094
 20
138.3067802158311
 30
0.0
 10
291.6138132422928
 20
138.2676178572087
 30
0.0
 10
291.5790801710396
 20
138.2137961704714
 30
0.0
 10
291.5707867009515
 20
138.1398712119583
 30
0.0
 10
291.5768742978766
 20
138.0361287989051
 30
0.0
 10
291.6496124615466
 20
138.0147281646203
 30
0.0
 10
291.6857949453635
 20
138.0040827473509
 30
0.0
 11
291.9507300158074
 21
138.4840827473509
 31
0.0
 11
291.7775034868735
 21
138.4373664147117
 31
0.0
 11
291.7061748816693
 21
138.3864596600067
 31
0.0
 11
291.6756055631438
 21
138.3559154080296
 31
0.0
 11
291.6552256268378
 21
138.3151897387268
 31
0.0
 11
291.6144663401592
 21
138.2642829840219
 31
0.0
 11
291.5838970216336
 21
138.2133758973935
 31
0.0
 11
291.5737070534806
 21
138.1522877253627
 31
0.0
 11
291.5940869897866
 21
138.050473552106
 31
0.0
 11
291.6857949453635
 21
138.0040827473509
 31
0.0
  0
SPLINE
  5
524
102
{ACAD_REACTORS
330
50B
102
}
330
18
100
AcDbEntity
  8
ROGO
 62
     4
100
AcDbSpline
210
0.0
220
0.0
230
1.0
 70
     8
 71
     3
 72
    26
 73
    22
 74
    20
 42
0.0000000001
 43
0.0000000001
 44
0.0000000001
 40
0.0
 40
0.0
 40
0.0
 40
0.0
 40
0.3403136209417982
 40
0.5681272389515159
 40
0.7323994099697078
 40
0.8550561247337057
 40
1.014148321321447
 40
1.13027011535643
 40
1.339959009791999
 40
1.510642755247373
 40
1.626735051276186
 40
1.740569491433665
 40
1.944197174100541
 40
2.088186249714737
 40
2.16573549158295
 40
2.275891898886404
 40
2.355438312276705
 40
2.470674802865115
 40
2.535888688806235
 40
2.677801419664453
 40
2.742600005358966
 40
2.742600005358966
 40
2.742600005358966
 40
2.742600005358966
 10
291.5940869897866
 20
139.1820471076608
 30
0.0
 10
291.4785792887029
 20
139.1751557201392
 30
0.0
 10
291.2857481257515
 20
139.1636510822868
 30
0.0
 10
291.0740206818776
 20
139.0350289339176
 30
0.0
 10
290.9188967612914
 20
138.9602536691428
 30
0.0
 10
290.808262569257
 20
138.8586030671147
 30
0.0
 10
290.7271672580175
 20
138.7536054206558
 30
0.0
 10
290.624931394164
 20
138.6285014947621
 30
0.0
 10
290.5415609685841
 20
138.4828230355273
 30
0.0
 10
290.499105479251
 20
138.3222599768652
 30
0.0
 10
290.4614988097458
 20
138.1942902874954
 30
0.0
 10
290.43360907407
 20
138.0516847690776
 30
0.0
 10
290.4407050123742
 20
137.8976206431886
 30
0.0
 10
290.4508667207806
 20
137.754533770326
 30
0.0
 10
290.496236277815
 20
137.6523911661452
 30
0.0
 10
290.5479041669434
 20
137.5796726705318
 30
0.0
 10
290.6111707895933
 20
137.4995813095336
 30
0.0
 10
290.6803983100469
 20
137.4465370604905
 30
0.0
 10
290.7376551202048
 20
137.3504438388609
 30
0.0
 10
290.8378812348655
 20
137.3381816507522
 30
0.0
 10
290.9015889406881
 20
137.3137762366422
 30
0.0
 10
290.9215596384902
 20
137.3061257782929
 30
0.0
 11
291.5940869897866
 21
139.1820471076608
 31
0.0
 11
291.2578233141383
 21
139.1297011332411
 31
0.0
 11
291.0540268807455
 21
139.0278872919077
 31
0.0
 11
290.9113696703371
 21
138.9464362852256
 31
0.0
 11
290.8196617147603
 21
138.8649849466202
 31
0.0
 11
290.7177637910306
 21
138.7428082706354
 31
0.0
 11
290.6464351858265
 21
138.6511758466276
 31
0.0
 11
290.5445366761632
 21
138.4679106666888
 31
0.0
 11
290.4935880072651
 21
138.3050083214012
 31
0.0
 11
290.4630186887396
 21
138.1930130627421
 31
0.0
 11
290.4426387524335
 21
138.081017804083
 31
0.0
 11
290.4426387524335
 21
137.8773901214161
 31
0.0
 11
290.4630186887396
 21
137.7348506107799
 31
0.0
 11
290.4935880072651
 21
137.6635806895002
 31
0.0
 11
290.5547266443161
 21
137.5719482654924
 31
0.0
 11
290.6056758991478
 21
137.5108597615383
 31
0.0
 11
290.6871938865716
 21
137.4294087548562
 31
0.0
 11
290.7279531732502
 21
137.3785016682278
 31
0.0
 11
290.8604210014389
 21
137.3275949135228
 31
0.0
 11
290.9215596384902
 21
137.3061257782929
 31
0.0
  0
LINE
  5
525
102
{ACAD_REACTORS
330
50B
102
}
330
18
100
AcDbEntity
  8
ROGO
 62
     4
100
AcDbLine
 10
291.6857949453633
 20
138.0040827473509
 30
0.0
 11
292.8853392608951
 21
138.0040827473509
 31
0.0
  0
LINE
  5
526
102
{ACAD_REACTORS
330
50B
102
}
330
18
100
AcDbEntity
  8
ROGO
 62
     4
100
AcDbLine
 10
291.9507300158073
 20
138.4840827473509
 30
0.0
 11
293.1246827634518
 21
138.484082747351
 31
0.0
  0
LINE
  5
527
102
{ACAD_REACTORS
330
50B
102
}
330
18
100
AcDbEntity
  8
ROGO
 62
     4
100
AcDbLine
 10
293.4727103356527
 20
139.1820471076608
 30
0.0
 11
293.1246827634518
 21
138.4840827473509
 31
0.0
  0
LINE
  5
528
102
{ACAD_REACTORS
330
50B
102
}
330
18
100
AcDbEntity
  8
ROGO
 62
     4
100
AcDbLine
 10
290.9215596384901
 20
137.3061257782929
 30
0.0
 11
292.537315374211
 21
137.3061257782929
 31
0.0
  0
LINE
  5
529
102
{ACAD_REACTORS
330
503
102
}
330
18
100
AcDbEntity
  8
ROGO
 62
     4
100
AcDbLine
 10
290.4078176170533
 20
137.306125778293
 30
0.0
 11
289.3618065854416
 21
137.3061257782929
 31
0.0
  0
LINE
  5
52A
102
{ACAD_REACTORS
330
503
102
}
330
18
100
AcDbEntity
  8
ROGO
 62
     4
100
AcDbLine
 10
288.0738826268322
 20
139.1820471076608
 30
0.0
 11
289.5744590307913
 21
139.1820471076608
 31
0.0
  0
LINE
  5
52B
102
{ACAD_REACTORS
330
503
102
}
330
18
100
AcDbEntity
  8
ROGO
 62
     4
100
AcDbLine
 10
286.7211192981191
 20
137.3061257782929
 30
0.0
 11
287.7600439433928
 21
137.3061257782929
 31
0.0
  0
LINE
  5
52C
102
{ACAD_REACTORS
330
503
102
}
330
18
100
AcDbEntity
  8
ROGO
 62
     4
100
AcDbLine
 10
288.0176017113655
 20
137.6632895927083
 30
0.0
 11
287.7600439433928
 21
137.306125778293
 31
0.0
  0
LINE
  5
52D
102
{ACAD_REACTORS
330
503
102
}
330
18
100
AcDbEntity
  8
ROGO
 62
     4
100
AcDbLine
 10
288.2892556558586
 20
138.0400010379884
 30
0.0
 11
289.0357901159138
 21
138.0400010379884
 31
0.0
  0
LINE
  5
52E
102
{ACAD_REACTORS
330
503
102
}
330
18
100
AcDbEntity
  8
ROGO
 62
     4
100
AcDbLine
 10
288.0176017113655
 20
137.6632895927083
 30
0.0
 11
289.2031402667717
 21
137.6632895927083
 31
0.0
  0
LINE
  5
52F
102
{ACAD_REACTORS
330
503
102
}
330
18
100
AcDbEntity
  8
ROGO
 62
     4
100
AcDbLine
 10
288.751208136306
 20
138.6806057120153
 30
0.0
 11
288.2892556558585
 21
138.0400010379884
 31
0.0
  0
LINE
  5
530
102
{ACAD_REACTORS
330
503
102
}
330
18
100
AcDbEntity
  8
ROGO
 62
     4
100
AcDbLine
 10
288.0738826268322
 20
139.1820471076608
 30
0.0
 11
286.7211192981191
 21
137.3061257782929
 31
0.0
  0
LINE
  5
531
102
{ACAD_REACTORS
330
50C
102
}
330
18
100
AcDbEntity
  8
ROGO
 62
     4
100
AcDbLine
 10
285.4560410484743
 20
138.0718217782929
 30
0.0
 11
285.2897913733079
 21
137.7358217782929
 31
0.0
  0
LINE
  5
532
102
{ACAD_REACTORS
330
50C
102
}
330
18
100
AcDbEntity
  8
ROGO
 62
     4
100
AcDbLine
 10
286.6233119764766
 20
137.7358217782929
 30
0.0
 11
286.4107023918925
 21
137.3061257782929
 31
0.0
  0
LINE
  5
533
102
{ACAD_REACTORS
330
50C
102
}
330
18
100
AcDbEntity
  8
ROGO
 62
     4
100
AcDbLine
 10
286.960027902534
 20
138.4163437164089
 30
0.0
 11
286.7895616516427
 21
138.0718217782929
 31
0.0
  0
LINE
  5
534
102
{ACAD_REACTORS
330
50C
102
}
330
18
100
AcDbEntity
  8
ROGO
 62
     4
100
AcDbLine
 10
285.4560410484743
 20
138.0718217782929
 30
0.0
 11
286.7895616516427
 21
138.071821778293
 31
0.0
  0
LINE
  5
535
102
{ACAD_REACTORS
330
50C
102
}
330
18
100
AcDbEntity
  8
ROGO
 62
     4
100
AcDbLine
 10
285.2897913733079
 20
137.7358217782929
 30
0.0
 11
286.6233119764766
 21
137.7358217782929
 31
0.0
  0
LINE
  5
536
102
{ACAD_REACTORS
330
50C
102
}
330
18
100
AcDbEntity
  8
ROGO
 62
     4
100
AcDbLine
 10
285.6265072993654
 20
138.4163437164089
 30
0.0
 11
286.960027902534
 21
138.4163437164089
 31
0.0
  0
LINE
  5
537
102
{ACAD_REACTORS
330
50C
102
}
330
18
100
AcDbEntity
  8
ROGO
 62
     4
100
AcDbLine
 10
285.7927499366176
 20
138.7523294923863
 30
0.0
 11
287.1262705397861
 21
138.7523294923863
 31
0.0
  0
LINE
  5
538
102
{ACAD_REACTORS
330
50C
102
}
330
18
100
AcDbEntity
  8
ROGO
 62
     4
100
AcDbLine
 10
285.7927499366176
 20
138.7523294923863
 30
0.0
 11
285.6265072993654
 21
138.4163437164089
 31
0.0
  0
LINE
  5
539
102
{ACAD_REACTORS
330
50C
102
}
330
18
100
AcDbEntity
  8
ROGO
 62
     4
100
AcDbLine
 10
283.8734407512011
 20
137.3061257782929
 30
0.0
 11
286.4107023918925
 21
137.3061257782929
 31
0.0
  0
LINE
  5
53A
102
{ACAD_REACTORS
330
50C
102
}
330
18
100
AcDbEntity
  8
ROGO
 62
     4
100
AcDbLine
 10
287.3388908194069
 20
139.1820471076608
 30
0.0
 11
287.1262705397861
 21
138.7523294923863
 31
0.0
  0
LINE
  5
53B
102
{ACAD_REACTORS
330
50C
102
}
330
18
100
AcDbEntity
  8
ROGO
 62
     4
100
AcDbLine
 10
284.8016291787155
 20
139.1820471076608
 30
0.0
 11
283.8734407512012
 21
137.3061257782929
 31
0.0
  0
LINE
  5
53C
102
{ACAD_REACTORS
330
507
102
}
330
18
100
AcDbEntity
  8
ROGO
 62
     4
100
AcDbLine
 10
281.5268466936892
 20
137.3061257782929
 30
0.0
 11
281.0493836210771
 21
136.2507917006522
 31
0.0
  0
LINE
  5
53D
102
{ACAD_REACTORS
330
507
102
}
330
18
100
AcDbEntity
  8
ROGO
 62
     4
100
AcDbLine
 10
282.525447752481
 20
137.9577348275196
 30
0.0
 11
281.8216531112751
 21
137.9577348275197
 31
0.0
  0
LINE
  5
53E
102
{ACAD_REACTORS
330
507
102
}
330
18
100
AcDbEntity
  8
ROGO
 62
     4
100
AcDbLine
 10
282.6273456762107
 20
138.4566229487846
 30
0.0
 11
282.0473642489286
 21
138.4566229487846
 31
0.0
  0
SPLINE
  5
53F
102
{ACAD_REACTORS
330
507
102
}
330
18
100
AcDbEntity
  8
ROGO
 62
     4
100
AcDbSpline
210
0.0
220
0.0
230
1.0
 70
     8
 71
     3
 72
    15
 73
    11
 74
     9
 42
0.0000000001
 43
0.0000000001
 44
0.0000000001
 40
0.0
 40
0.0
 40
0.0
 40
0.0
 40
0.2199578613106558
 40
0.3202465475123651
 40
0.4340808827708152
 40
0.5116301246390283
 40
0.634275054953107
 40
0.7077360179240892
 40
0.8337709579493377
 40
0.875782631437913
 40
0.875782631437913
 40
0.875782631437913
 40
0.875782631437913
 10
282.6273456762107
 20
138.4566229487844
 30
0.0
 10
282.7099575834381
 20
138.4570013554165
 30
0.0
 10
282.8302359763782
 20
138.4575522946589
 30
0.0
 10
282.8960084854704
 20
138.3087675747597
 30
0.0
 10
282.8665261108513
 20
138.2129734252777
 30
0.0
 10
282.8294643631025
 20
138.114622690638
 30
0.0
 10
282.7639678608992
 20
138.0477918831103
 30
0.0
 10
282.6760619614774
 20
137.9834225493432
 30
0.0
 10
282.5929866856836
 20
137.9756303532583
 30
0.0
 10
282.5389555442942
 20
137.961313934038
 30
0.0
 10
282.5254477524809
 20
137.9577348275196
 30
0.0
 11
282.6273456762107
 21
138.4566229487844
 31
0.0
 11
282.8413314918232
 21
138.405715862156
 31
0.0
 11
282.8820907785017
 21
138.3140834381483
 31
0.0
 11
282.8617114281292
 21
138.2020881794892
 31
0.0
 11
282.8311421096037
 21
138.1308182582095
 31
0.0
 11
282.7496235362464
 21
138.0391858342017
 31
0.0
 11
282.6884848991952
 21
137.998460164899
 31
0.0
 11
282.5662070391595
 21
137.9679162448453
 31
0.0
 11
282.5254477524809
 21
137.9577348275196
 31
0.0
  0
LINE
  5
540
102
{ACAD_REACTORS
330
507
102
}
330
18
100
AcDbEntity
  8
ROGO
 62
     4
100
AcDbLine
 10
282.0473642489286
 20
138.4566229487846
 30
0.0
 11
281.8216531112751
 21
137.9577348275197
 31
0.0
  0
LINE
  5
541
102
{ACAD_REACTORS
330
507
102
}
330
18
100
AcDbEntity
  8
ROGO
 62
     4
100
AcDbLine
 10
282.8005727915196
 20
137.3061257782929
 30
0.0
 11
281.5268466936892
 21
137.3061257782929
 31
0.0
  0
SPLINE
  5
542
102
{ACAD_REACTORS
330
507
102
}
330
18
100
AcDbEntity
  8
ROGO
 62
     4
100
AcDbSpline
210
0.0
220
0.0
230
1.0
 70
     8
 71
     3
 72
    18
 73
    14
 74
     0
 42
0.0000000001
 43
0.0000000001
 40
0.1087402787915014
 40
0.1087402787915014
 40
0.1087402787915014
 40
0.1087402787915014
 40
0.5992371417938475
 40
1.083176791562496
 40
1.448211145705696
 40
1.714037220764907
 40
2.164002567013297
 40
2.740236056362883
 40
3.395137510199602
 40
4.071816045172726
 40
4.784906178399433
 40
5.506895915094292
 40
6.060470601257719
 40
6.060470601257719
 40
6.060470601257719
 40
6.060470601257719
 10
283.4407377598505
 20
139.1820471076608
 30
0.0
 10
283.5145370993305
 20
139.1550008864498
 30
0.0
 10
283.659662739117
 20
139.0978210417137
 30
0.0
 10
283.8367845041844
 20
138.9673177420117
 30
0.0
 10
283.933379066934
 20
138.8166623460506
 30
0.0
 10
284.0262922219955
 20
138.6682184284751
 30
0.0
 10
284.0392952484397
 20
138.4552505225373
 30
0.0
 10
284.017995412658
 20
138.1860074717206
 30
0.0
 10
283.8804855971207
 20
137.9050801324052
 30
0.0
 10
283.6597742555759
 20
137.6593700884026
 30
0.0
 10
283.385745722586
 20
137.4627069736287
 30
0.0
 10
283.0967731824327
 20
137.3083314929211
 30
0.0
 10
282.890215529499
 20
137.3067933206231
 30
0.0
 10
282.800572791078
 20
137.3061257782929
 30
0.0
  0
LINE
  5
543
102
{ACAD_REACTORS
330
507
102
}
330
18
100
AcDbEntity
  8
ROGO
 62
     4
100
AcDbLine
 10
281.1371687413002
 20
139.1820471076608
 30
0.0
 11
279.6868108268821
 21
136.2507917006521
 31
0.0
  0
LINE
  5
544
102
{ACAD_REACTORS
330
508
330
507
102
}
330
18
100
AcDbEntity
  8
ROGO
 62
     4
100
AcDbLine
 10
279.6868108268821
 20
136.2507917006522
 30
0.0
 11
299.5284926369161
 21
136.2507917006522
 31
0.0
  0
LINE
  5
545
102
{ACAD_REACTORS
330
507
102
}
330
18
100
AcDbEntity
  8
ROGO
 62
     4
100
AcDbLine
 10
281.1371687413002
 20
139.1820471076608
 30
0.0
 11
283.4407377598505
 21
139.1820471076608
 31
0.0
  0
TEXT
  5
546
330
18
100
AcDbEntity
  8
文字
100
AcDbText
 10
306.9847084336479
 20
136.1793483277357
 30
0.0
 40
3.0
  1
LB-7
  7
STYLE3
100
AcDbText
  0
LINE
  5
877
330
18
100
AcDbEntity
  8
外形線
  6
Continuous
100
AcDbLine
 10
235.2876227709834
 20
208.5639879775568
 30
0.0
 11
235.0866828214064
 21
206.7143043079956
 31
0.0
  0
LINE
  5
878
330
18
100
AcDbEntity
  8
外形線
  6
Continuous
100
AcDbLine
 10
242.6443399043785
 20
207.7647927453322
 30
0.0
 11
242.4433999548015
 21
205.915109075771
 31
0.0
  0
LINE
  5
879
330
18
100
AcDbEntity
  8
外形線
  6
Continuous
100
AcDbLine
 10
236.6376147173087
 20
220.9908750272107
 30
0.0
 11
235.9356189052196
 21
214.5288937613907
 31
0.0
  0
LINE
  5
87A
330
18
100
AcDbEntity
  8
外形線
  6
Continuous
100
AcDbLine
 10
243.9943318507038
 20
220.1916797949862
 30
0.0
 11
243.2923360386147
 21
213.7296985291661
 31
0.0
  0
LINE
  5
87B
330
18
100
AcDbEntity
  8
外形線
  6
Continuous
100
AcDbLine
 10
234.9893774817917
 20
208.5963877842686
 30
0.0
 11
242.9425851935702
 21
207.7323929386204
 31
0.0
  0
LINE
  5
87C
330
18
100
AcDbEntity
  8
外形線
  6
Continuous
100
AcDbLine
 10
235.6373736160279
 20
214.5612935681025
 30
0.0
 11
243.5905813278063
 21
213.6972987224543
 31
0.0
  0
HATCH
  5
87D
330
18
100
AcDbEntity
  8
ﾊｯﾁﾝｸ
  6
Continuous
100
AcDbHatch
 10
0.0
 20
0.0
 30
0.0
210
0.0
220
0.0
230
1.0
  2
ANSI37
 70
     0
 71
     0
 91
        1
 92
        7
 72
     0
 73
     1
 93
        4
 10
239.6139774719172
 20
214.1292961452784
 10
235.6373736160279
 20
214.5612935681025
 10
234.9893774817918
 20
208.5963877842686
 10
238.965981337681
 20
208.1643903614445
 97
        0
 75
     0
 76
     1
 52
-6.200000000000035
 41
9.999999999999998
 77
     0
 78
     2
 53
38.79999999999997
 43
31.51400948395707
 44
80.70461460732504
 45
-0.7832547642055749
 46
0.9741724561643431
 79
     0
 53
128.7999999999999
 43
31.51400948395707
 44
80.70461460732504
 45
-0.9741724561643431
 46
-0.7832547642055749
 79
     0
 47
0.1856754751158765
 98
        1
 10
237.6371614702307
 20
212.1070086113521
  0
LINE
  5
87E
330
18
100
AcDbEntity
  8
外形線
  6
Continuous
100
AcDbLine
 10
235.6373736160279
 20
214.5612935681025
 30
0.0
 11
234.9893774817918
 21
208.5963877842686
 31
0.0
  0
LINE
  5
87F
330
18
100
AcDbEntity
  8
外形線
  6
Continuous
100
AcDbLine
 10
243.5905813278063
 20
213.6972987224543
 30
0.0
 11
242.9425851935702
 21
207.7323929386204
 31
0.0
  0
ARC
  5
880
330
18
100
AcDbEntity
  8
外形線
  6
Continuous
100
AcDbCircle
 10
239.6307173720515
 20
214.2833895446944
 30
0.0
 40
7.344999999999885
100
AcDbArc
 50
53.55198538337814
 51
114.0480146166212
  0
LINE
  5
881
330
18
100
AcDbEntity
  8
外形線
  6
Continuous
100
AcDbLine
 10
236.6376147173087
 20
220.9908750272107
 30
0.0
 11
243.9943318507038
 21
220.1916797949862
 31
0.0
  0
POINT
  5
882
330
18
100
AcDbEntity
  8
DEFPOINTS
  6
ByBlock
 62
     0
100
AcDbPoint
 10
240.4239726397122
 20
221.5854283750709
 30
0.0
  0
CIRCLE
  5
883
330
18
100
AcDbEntity
  8
外形線
100
AcDbCircle
 10
235.9419993779123
 20
180.3281633702198
 30
0.0
 40
26.4
  0
LINE
  5
885
330
18
100
AcDbEntity
  8
想像線
 48
0.5
100
AcDbLine
 10
241.2314413631043
 20
154.9437883096144
 30
0.0
 11
237.4514639133936
 21
120.1485045705833
 31
0.0
  0
LINE
  5
886
330
18
100
AcDbEntity
  8
想像線
 48
0.6
100
AcDbLine
 10
225.3250259395473
 20
156.6717780009106
 30
0.0
 11
221.5450484898364
 21
121.8764942618797
 31
0.0
  0
LINE
  5
887
330
18
100
AcDbEntity
  8
想像線
 48
0.5
100
AcDbLine
 10
221.5450484898364
 20
121.8764942618797
 30
0.0
 11
237.4514639133936
 21
120.1485045705833
 31
0.0
  0
LINE
  5
888
330
18
100
AcDbEntity
  8
外形線
100
AcDbLine
 10
232.227409927251
 20
143.425584531132
 30
0.0
 11
234.2653039334261
 21
139.4005452412538
 31
0.0
  0
LINE
  5
889
330
18
100
AcDbEntity
  8
外形線
100
AcDbLine
 10
233.7911710604429
 20
144.1823020333497
 30
0.0
 11
235.0107042083017
 21
139.3176089390966
 31
0.0
  0
LINE
  5
88A
330
18
100
AcDbEntity
  8
外形線
100
AcDbLine
 10
230.275495999248
 20
144.564226565177
 30
0.0
 11
228.039790318063
 21
140.0748925269129
 31
0.0
  0
LINE
  5
88B
330
18
100
AcDbEntity
  8
外形線
100
AcDbLine
 10
231.6402841675611
 20
143.4893667996836
 30
0.0
 11
228.7856114567743
 21
139.9958303422016
 31
0.0
  0
LINE
  5
88C
330
18
100
AcDbEntity
  8
外形線
100
AcDbLine
 10
235.0107042083017
 20
139.3176089390966
 30
0.0
 11
234.2653039334261
 21
139.4005452412538
 31
0.0
  0
LINE
  5
88D
330
18
100
AcDbEntity
  8
外形線
100
AcDbLine
 10
233.8443072304916
 20
128.5807422949978
 30
0.0
 11
233.0989069556162
 21
128.6636785971548
 31
0.0
  0
LINE
  5
88E
330
18
100
AcDbEntity
  8
外形線
100
AcDbLine
 10
233.2920828458033
 20
128.1390996465188
 30
0.0
 11
233.8443072304916
 21
128.5807422949978
 31
0.0
  0
LINE
  5
88F
330
18
100
AcDbEntity
  8
外形線
100
AcDbLine
 10
234.2653039334261
 20
139.4005452412538
 30
0.0
 11
233.0448373160207
 21
128.165959106385
 31
0.0
  0
LINE
  5
890
330
18
100
AcDbEntity
  8
外形線
100
AcDbLine
 10
228.0397903180629
 20
140.0748925269128
 30
0.0
 11
226.873393340253
 21
129.338025882814
 31
0.0
  0
LINE
  5
891
330
18
100
AcDbEntity
  8
外形線
100
AcDbLine
 10
228.7856114567743
 20
139.9958303422016
 30
0.0
 11
227.5651448393689
 21
128.7612442073327
 31
0.0
  0
LINE
  5
892
330
18
100
AcDbEntity
  8
外形線
100
AcDbLine
 10
227.3178993095863
 20
128.7881036671988
 30
0.0
 11
230.3049910776948
 21
128.4636016568588
 31
0.0
  0
LINE
  5
893
330
18
100
AcDbEntity
  8
外形線
100
AcDbLine
 10
227.3178993095863
 20
128.7881036671988
 30
0.0
 11
226.873393340253
 21
129.338025882814
 31
0.0
  0
LINE
  5
894
330
18
100
AcDbEntity
  8
外形線
100
AcDbLine
 10
226.873393340253
 20
129.338025882814
 30
0.0
 11
227.6192144789643
 21
129.2589636981025
 31
0.0
  0
LINE
  5
895
330
18
100
AcDbEntity
  8
外形線
100
AcDbLine
 10
233.2920828458033
 20
128.1390996465188
 30
0.0
 11
230.3049910776948
 21
128.4636016568588
 31
0.0
  0
LINE
  5
896
330
18
100
AcDbEntity
  8
外形線
100
AcDbLine
 10
230.0195915494402
 20
130.9463896368385
 30
0.0
 11
231.1873798208289
 21
131.8903210562462
 31
0.0
  0
LINE
  5
897
330
18
100
AcDbEntity
  8
外形線
100
AcDbLine
 10
230.1971439739369
 20
132.0066618399699
 30
0.0
 11
231.0928543847484
 21
130.8985303689751
 31
0.0
  0
LINE
  5
898
330
18
100
AcDbEntity
  8
中心線
100
AcDbLine
 10
232.6195131681148
 20
131.2366137983988
 30
0.0
 11
229.0136887245347
 21
131.6283316871382
 31
0.0
  0
CIRCLE
  5
899
330
18
100
AcDbEntity
  8
外形線
100
AcDbCircle
 10
230.6453341212421
 20
131.452181729854
 30
0.0
 40
1.25
  0
LINE
  5
89A
330
18
100
AcDbEntity
  8
外形線
100
AcDbLine
 10
228.039790318063
 20
140.0748925269129
 30
0.0
 11
228.7856114567743
 21
139.9958303422016
 31
0.0
  0
LINE
  5
89B
330
18
100
AcDbEntity
  8
外形線
100
AcDbLine
 10
230.6520890271321
 20
136.912958746529
 30
0.0
 11
231.8198772985205
 21
137.8568901659369
 31
0.0
  0
LINE
  5
89C
330
18
100
AcDbEntity
  8
外形線
100
AcDbLine
 10
230.8296414516288
 20
137.9732309496604
 30
0.0
 11
231.7253518624402
 21
136.8650994786657
 31
0.0
  0
CIRCLE
  5
89D
330
18
100
AcDbEntity
  8
外形線
100
AcDbCircle
 10
231.2778315989341
 20
137.4187508395448
 30
0.0
 40
1.25
  0
LINE
  5
89E
330
18
100
AcDbEntity
  8
中心線
100
AcDbLine
 10
233.2553921716856
 20
137.2028359238672
 30
0.0
 11
229.513499118569
 21
137.6093355939401
 31
0.0
  0
LINE
  5
89F
330
18
100
AcDbEntity
  8
外形線
100
AcDbLine
 10
235.0107042083017
 20
139.3176089390966
 30
0.0
 11
233.8443072304916
 21
128.5807422949979
 31
0.0
  0
LINE
  5
8A0
330
18
100
AcDbEntity
  8
外形線
100
AcDbLine
 10
228.7794145286954
 20
151.4327073558605
 30
0.0
 11
236.7326222404739
 21
150.5687125102124
 31
0.0
  0
LINE
  5
8A1
330
18
100
AcDbEntity
  8
外形線
100
AcDbLine
 10
235.5930952836256
 20
147.5116217164602
 30
0.0
 11
235.3230968943609
 21
145.0262443065294
 31
0.0
  0
LINE
  5
8A2
330
18
100
AcDbEntity
  8
外形線
100
AcDbLine
 10
229.2305291142031
 20
148.2028175929788
 30
0.0
 11
228.9605307249381
 21
145.717440183048
 31
0.0
  0
LINE
  5
8A3
330
18
100
AcDbEntity
  8
外形線
100
AcDbLine
 10
228.9605307249381
 20
145.717440183048
 30
0.0
 11
235.3230968943609
 21
145.0262443065295
 31
0.0
  0
LINE
  5
8A6
330
18
100
AcDbEntity
  8
外形線
100
AcDbLine
 10
233.7911710604429
 20
144.1823020333497
 30
0.0
 11
232.0338296401072
 21
144.377831071831
 31
0.0
  0
ARC
  5
8A7
330
18
100
AcDbEntity
  8
外形線
100
AcDbCircle
 10
231.9219702123539
 20
143.2080263077447
 30
0.0
 40
0.375
100
AcDbArc
 50
35.4614637073841
 51
86.11278054262299
  0
ARC
  5
8A8
330
18
100
AcDbEntity
  8
外形線
100
AcDbCircle
 10
231.9966128842952
 20
143.8788865551327
 30
0.0
 40
1.5
100
AcDbArc
 50
13.12236944608503
 51
84.44503471626823
  0
ARC
  5
8A9
330
18
100
AcDbEntity
  8
外形線
100
AcDbCircle
 10
231.9630371997669
 20
143.8825340417096
 30
0.0
 40
1.5
100
AcDbArc
 50
83.1549652837317
 51
154.4776305539149
  0
ARC
  5
8AA
330
18
100
AcDbEntity
  8
外形線
100
AcDbCircle
 10
231.8918812335264
 20
143.2112950168693
 30
0.0
 40
0.375
100
AcDbArc
 50
81.48721945737694
 51
132.1385362926158
  0
LINE
  5
8AB
330
18
100
AcDbEntity
  8
外形線
100
AcDbLine
 10
230.275495999248
 20
144.564226565177
 30
0.0
 11
232.0338296401072
 21
144.377831071831
 31
0.0
  0
LINE
  5
8AC
330
18
100
AcDbEntity
  8
外形線
100
AcDbLine
 10
229.230529114203
 20
148.2028175929788
 30
0.0
 11
235.5930952836256
 21
147.5116217164603
 31
0.0
  0
LINE
  5
8AD
330
18
100
AcDbEntity
  8
外形線
100
AcDbLine
 10
229.1471296238542
 20
154.817582329691
 30
0.0
 11
228.7794145286954
 21
151.4327073558605
 31
0.0
  0
LINE
  5
8AE
330
18
100
AcDbEntity
  8
外形線
100
AcDbLine
 10
234.7443203125294
 20
150.7847112216244
 30
0.0
 11
234.4027963328012
 21
147.640929562497
 31
0.0
  0
LINE
  5
8AF
330
18
100
AcDbEntity
  8
外形線
100
AcDbLine
 10
230.7677164566403
 20
151.2167086444484
 30
0.0
 11
230.4261924769123
 21
148.0729269853211
 31
0.0
  0
LINE
  5
8B0
330
18
100
AcDbEntity
  8
想像線
 48
0.5
100
AcDbLine
 10
240.1514478060443
 20
145.0022786698911
 30
0.0
 11
246.1163535898784
 21
144.354282535655
 31
0.0
  0
LINE
  5
8B1
330
18
100
AcDbEntity
  8
外形線
100
AcDbLine
 10
237.1003373356327
 20
153.9535874840429
 30
0.0
 11
236.7326222404739
 21
150.5687125102124
 31
0.0
  0
LINE
  5
8B2
330
18
100
AcDbEntity
  8
想像線
100
AcDbLine
 10
242.7292061607843
 20
147.8899592669804
 30
0.0
 11
244.081029842402
 21
146.2086296965712
 31
0.0
  0
LINE
  5
8B3
330
18
100
AcDbEntity
  8
想像線
100
AcDbLine
 10
242.5788587718392
 20
146.4095768428981
 30
0.0
 11
244.2074010679009
 21
147.7189584662738
 31
0.0
  0
CIRCLE
  5
8B4
330
18
100
AcDbEntity
  8
想像線
100
AcDbCircle
 10
243.3930991516556
 20
147.0642429163067
 30
0.0
 40
1.5
  0
LINE
  5
8B6
330
18
100
AcDbEntity
  8
想像線
 48
0.5
100
AcDbLine
 10
225.3250259395473
 20
156.6717780009106
 30
0.0
 11
241.2314413631043
 21
154.9437883096144
 31
0.0
  0
LINE
  5
8B7
330
18
100
AcDbEntity
  8
想像線
 48
0.5
100
AcDbLine
 10
241.2314413631043
 20
154.9437883096144
 30
0.0
 11
247.1963471469384
 21
154.2957921753783
 31
0.0
  0
LINE
  5
8B8
330
18
100
AcDbEntity
  8
想像線
100
AcDbLine
 10
243.2692029393146
 20
152.860714086842
 30
0.0
 11
244.6210266209322
 21
151.1793845164329
 31
0.0
  0
LINE
  5
8B9
330
18
100
AcDbEntity
  8
想像線
100
AcDbLine
 10
243.1188555503695
 20
151.3803316627598
 30
0.0
 11
244.7473978464311
 21
152.6897132861356
 31
0.0
  0
CIRCLE
  5
8BA
330
18
100
AcDbEntity
  8
想像線
100
AcDbCircle
 10
243.9330959301858
 20
152.0349977361683
 30
0.0
 40
1.5
  0
LINE
  5
8BC
330
18
100
AcDbEntity
  8
想像線
100
AcDbLine
 10
247.1963471469384
 20
154.2957921753783
 30
0.0
 11
246.1163535898784
 21
144.354282535655
 31
0.0
  0
HATCH
  5
8BD
330
18
100
AcDbEntity
  8
ROGO
 62
     4
100
AcDbHatch
 10
0.0
 20
0.0
 30
0.0
210
0.0
220
0.0
230
1.0
  2
SOLID
 70
     1
 71
     1
 91
        1
 92
        7
 72
     0
 73
     1
 93
       11
 10
242.2001453444236
 20
187.5056530410725
 10
242.951849378113
 20
187.4243900641765
 10
243.2749134826599
 20
187.9281491695708
 10
243.4828541242141
 20
187.3669857873867
 10
244.2345417112237
 20
187.2857245884593
 10
243.8362052474475
 20
188.3607036574353
 10
245.1821810293739
 20
189.2471138224689
 10
244.4304934423639
 20
189.3283750213961
 10
244.0544532557536
 20
189.1436981989603
 10
244.1895892640399
 20
189.3544179715467
 10
243.4378852303503
 20
189.4356809484426
 97
       11
330
9FA
330
9D2
330
9D3
330
8C0
330
94B
330
94F
330
978
330
979
330
8C2
330
8C1
330
8BF
 75
     0
 76
     1
 47
0.0514683685270805
 98
        1
 10
243.2785777571278
 20
188.5674779684044
450
        0
451
        0
460
0.0
461
0.0
452
        0
462
0.0
453
        0
470

  0
LINE
  5
8BE
330
18
100
AcDbEntity
  8
目盛
100
AcDbLine
 10
240.6571962016254
 20
157.8166792140466
 30
0.0
 11
240.0421705289672
 21
160.7529597561559
 31
0.0
  0
LINE
  5
8BF
102
{ACAD_REACTORS
330
8BD
102
}
330
18
100
AcDbEntity
  8
ROGO
 62
     4
100
AcDbLine
 10
243.8362052474475
 20
188.3607036574353
 30
0.0
 11
245.1821810293739
 21
189.2471138224689
 31
0.0
  0
LINE
  5
8C0
102
{ACAD_REACTORS
330
8BD
102
}
330
18
100
AcDbEntity
  8
ROGO
 62
     4
100
AcDbLine
 10
243.4378852303503
 20
189.4356809484426
 30
0.0
 11
244.1895892640399
 21
189.3544179715467
 31
0.0
  0
LINE
  5
8C1
102
{ACAD_REACTORS
330
8BD
102
}
330
18
100
AcDbEntity
  8
ROGO
 62
     4
100
AcDbLine
 10
243.8362052474475
 20
188.3607036574353
 30
0.0
 11
244.2345417112237
 21
187.2857245884593
 31
0.0
  0
LINE
  5
8C2
102
{ACAD_REACTORS
330
8BD
102
}
330
18
100
AcDbEntity
  8
ROGO
 62
     4
100
AcDbLine
 10
243.4828541242142
 20
187.3669857873867
 30
0.0
 11
244.2345417112237
 21
187.2857245884593
 31
0.0
  0
LINE
  5
8C3
330
18
100
AcDbEntity
  8
目盛
100
AcDbLine
 10
245.3592434099209
 20
201.3118597758013
 30
0.0
 11
244.1309072318326
 21
198.5748558968123
 31
0.0
  0
CIRCLE
  5
8C4
330
18
100
AcDbEntity
  8
外形線
100
AcDbCircle
 10
235.9419993779123
 20
180.3281633702198
 30
0.0
 40
15.5
  0
CIRCLE
  5
8C5
330
18
100
AcDbEntity
  8
外形線
100
AcDbCircle
 10
235.9419993779123
 20
180.3281633702198
 30
0.0
 40
23.0
  0
LINE
  5
8C7
330
18
100
AcDbEntity
  8
目盛
100
AcDbLine
 10
213.7710061517056
 20
174.2087631248124
 30
0.0
 11
215.6989186061585
 21
174.7408848852827
 31
0.0
  0
LINE
  5
8C8
330
18
100
AcDbEntity
  8
中心線
 48
0.2
100
AcDbLine
 10
232.6665959814787
 20
175.3270176615
 30
0.0
 11
232.2782414793652
 21
171.7346357811995
 31
0.0
  0
LINE
  5
8C9
330
18
100
AcDbEntity
  8
中心線
 48
0.2
100
AcDbLine
 10
232.2689130310691
 20
175.3700091833791
 30
0.0
 11
231.8805585289555
 21
171.7776273030786
 31
0.0
  0
HATCH
  5
8CA
330
18
100
AcDbEntity
  8
ﾊｯﾁﾝｸ
100
AcDbHatch
 10
0.0
 20
0.0
 30
0.0
210
0.0
220
0.0
230
1.0
  2
SOLID
 70
     1
 71
     0
 91
        3
 92
        7
 72
     1
 73
     1
 93
        5
 10
232.6665959814787
 20
175.3270176615
 42
0.0105298176880202
 10
232.4682072493602
 20
175.3527014157575
 42
0.0
 10
232.4144678470112
 20
174.8555977277455
 42
0.0
 10
232.0812835524474
 20
171.7735548620708
 42
-0.0437283108272093
 10
232.2782414793652
 20
171.7346357811995
 42
0.0
 97
        0
 92
        7
 72
     1
 73
     1
 93
        4
 10
232.4682072493604
 20
175.3527014157574
 42
0.0105298176880232
 10
232.2689130310691
 20
175.3700091833791
 42
0.0
 10
231.8805585289555
 20
171.7776273030786
 42
-0.0437283108272093
 10
232.0812835524474
 20
171.7735548620708
 42
0.0
 97
        0
 92
      137
 93
        4
 72
     1
 10
231.666153486431
 20
173.4556904527889
 11
232.8260620917923
 21
173.3302985139746
 72
     1
 10
232.8260620917925
 20
173.3302985139745
 11
232.9872802988394
 21
174.8216095780106
 72
     1
 10
232.9872802988395
 20
174.8216095780106
 11
231.8273716934781
 21
174.9470015168249
 72
     1
 10
231.827371693478
 20
174.947001516825
 11
231.6661534864312
 21
173.4556904527889
 97
        0
 75
     0
 76
     1
 47
0.0128177587452554
 98
        3
 10
232.2864946850649
 20
172.2882597558823
 10
232.3394684156446
 20
173.494422739002
 10
232.1554010648017
 20
173.4627514512936
450
        0
451
        0
460
0.0
461
0.0
452
        0
462
0.0
453
        0
470

  0
CIRCLE
  5
8CC
330
18
100
AcDbEntity
  8
外形線
100
AcDbCircle
 10
231.9576829270446
 20
170.6302163796429
 30
0.0
 40
4.75
  0
LINE
  5
8CD
330
18
100
AcDbEntity
  8
中心線
 48
0.2
100
AcDbLine
 10
232.8028110615014
 20
178.4478751945436
 30
0.0
 11
231.1165122498162
 21
162.8491650910123
 31
0.0
  0
LINE
  5
8CE
330
18
100
AcDbEntity
  8
目盛
100
AcDbLine
 10
215.9893816300588
 20
168.8873135325535
 30
0.0
 11
218.5918969884743
 21
170.3795982939883
 31
0.0
  0
LINE
  5
8CF
330
18
100
AcDbEntity
  8
目盛
100
AcDbLine
 10
215.6398612645626
 20
169.5196857703692
 30
0.0
 11
217.405264578767
 21
170.4595533877476
 31
0.0
  0
LINE
  5
8D0
330
18
100
AcDbEntity
  8
目盛
100
AcDbLine
 10
215.3103766582781
 20
170.1627246706524
 30
0.0
 11
217.1044308078114
 21
171.0466758619191
 31
0.0
  0
LINE
  5
8D1
330
18
100
AcDbEntity
  8
目盛
100
AcDbLine
 10
216.3585928203625
 20
168.2662320322577
 30
0.0
 11
218.0614977384104
 21
169.3150956268631
 31
0.0
  0
LINE
  5
8D2
330
18
100
AcDbEntity
  8
目盛
100
AcDbLine
 10
215.0012529727314
 20
170.8157956316437
 30
0.0
 11
216.8221874427473
 21
171.6429580436939
 31
0.0
  0
LINE
  5
8D3
330
18
100
AcDbEntity
  8
目盛
100
AcDbLine
 10
214.4452882400445
 20
172.1494464625951
 30
0.0
 11
217.2492070841142
 21
173.2162356244594
 31
0.0
  0
LINE
  5
8D4
330
18
100
AcDbEntity
  8
目盛
100
AcDbLine
 10
213.9741612053056
 20
173.5153749526805
 30
0.0
 11
215.8844080029237
 21
174.1077913368142
 31
0.0
  0
LINE
  5
8D5
330
18
100
AcDbEntity
  8
目盛
100
AcDbLine
 10
214.7127952756803
 20
171.4782541511509
 30
0.0
 11
216.5588130237003
 21
172.2478114745481
 31
0.0
  0
LINE
  5
8D6
330
18
100
AcDbEntity
  8
目盛
100
AcDbLine
 10
214.1989958629729
 20
172.8287101801982
 30
0.0
 11
216.0896918207939
 21
173.4808365445481
 31
0.0
  0
LINE
  5
8D7
330
18
100
AcDbEntity
  8
目盛
100
AcDbLine
 10
227.860915324789
 20
158.7945598509213
 30
0.0
 11
228.5636182859299
 21
160.667047113469
 31
0.0
  0
LINE
  5
8D8
330
18
100
AcDbEntity
  8
中心線
 48
0.2
100
AcDbLine
 10
225.038720204418
 20
171.3781909582988
 30
0.0
 11
239.482552483985
 21
169.8167402327224
 31
0.0
  0
LINE
  5
8D9
330
18
100
AcDbEntity
  8
目盛
100
AcDbLine
 10
218.9656493411447
 20
164.8103175329543
 30
0.0
 11
220.441853692168
 21
166.1596954318471
 31
0.0
  0
LINE
  5
8DA
330
18
100
AcDbEntity
  8
目盛
100
AcDbLine
 10
219.4614534621042
 20
164.284734612098
 30
0.0
 11
220.8945444113048
 21
165.6798153736737
 31
0.0
  0
LINE
  5
8DB
330
18
100
AcDbEntity
  8
目盛
100
AcDbLine
 10
219.9735218921617
 20
163.7749846184792
 30
0.0
 11
221.3620851517922
 21
165.2143914664567
 31
0.0
  0
LINE
  5
8DC
330
18
100
AcDbEntity
  8
目盛
100
AcDbLine
 10
220.5013492816004
 20
163.2815706137991
 30
0.0
 11
222.51534712025
 21
165.5050392342017
 31
0.0
  0
TEXT
  5
8DD
330
18
100
AcDbEntity
  8
文字
100
AcDbText
 10
226.646573541065
 20
163.4676670992443
 30
0.0
 40
2.0
  1
.9
 50
353.8300000000002
  7
STYLE3
100
AcDbText
  0
LINE
  5
8DE
330
18
100
AcDbEntity
  8
目盛
100
AcDbLine
 10
222.1741015254133
 20
161.9041304587437
 30
0.0
 11
223.3713100343265
 21
163.5062202771329
 31
0.0
  0
LINE
  5
8DF
330
18
100
AcDbEntity
  8
目盛
100
AcDbLine
 10
221.6021822928646
 20
162.3456817292623
 30
0.0
 11
222.8491229089558
 21
163.9093757849977
 31
0.0
  0
LINE
  5
8E0
330
18
100
AcDbEntity
  8
目盛
100
AcDbLine
 10
221.0444147285115
 20
162.8049795381094
 30
0.0
 11
222.3398568719377
 21
164.3287346539452
 31
0.0
  0
LINE
  5
8E1
330
18
100
AcDbEntity
  8
目盛
100
AcDbLine
 10
227.1885160197194
 20
159.0590183686491
 30
0.0
 11
227.9496884856492
 21
160.908509238351
 31
0.0
  0
LINE
  5
8E2
330
18
100
AcDbEntity
  8
目盛
100
AcDbLine
 10
225.2257609268851
 20
159.9771871415294
 30
0.0
 11
226.1576077487136
 21
161.7468372483721
 31
0.0
  0
LINE
  5
8E3
330
18
100
AcDbEntity
  8
目盛
100
AcDbLine
 10
224.5918091323426
 20
160.3238343040058
 30
0.0
 11
225.5787821971748
 21
162.0633411793289
 31
0.0
  0
LINE
  5
8E4
330
18
100
AcDbEntity
  8
目盛
100
AcDbLine
 10
223.3581239251851
 20
161.0759926201396
 30
0.0
 11
224.9994989842365
 21
163.5871453266718
 31
0.0
  0
LINE
  5
8E5
330
18
100
AcDbEntity
  8
目盛
100
AcDbLine
 10
223.9690586052482
 20
160.6902233241186
 30
0.0
 11
225.0101838898277
 21
162.3978702846493
 31
0.0
  0
LINE
  5
8E6
330
18
100
AcDbEntity
  8
目盛
100
AcDbLine
 10
222.7596080109246
 20
161.4807614843482
 30
0.0
 11
223.9059029124018
 21
163.1196659961631
 31
0.0
  0
LINE
  5
8E7
330
18
100
AcDbEntity
  8
目盛
100
AcDbLine
 10
225.8702883549909
 20
159.6506239355878
 30
0.0
 11
226.7460893135057
 21
161.4486708429471
 31
0.0
  0
LINE
  5
8E8
330
18
100
AcDbEntity
  8
目盛
100
AcDbLine
 10
226.5247553459044
 20
159.3444669646385
 30
0.0
 11
227.7530915239925
 21
162.0814708436273
 31
0.0
  0
TEXT
  5
8E9
330
18
100
AcDbEntity
  8
文字
100
AcDbText
 10
221.7397135589487
 20
166.6192765156867
 30
0.0
 40
2.0
  1
.8
 50
353.8300000000002
  7
STYLE3
100
AcDbText
  0
LINE
  5
8EA
330
18
100
AcDbEntity
  8
目盛
100
AcDbLine
 10
218.0247746879662
 20
165.9068922955195
 30
0.0
 11
220.3618039953506
 21
167.7879276530893
 31
0.0
  0
LINE
  5
8EB
330
18
100
AcDbEntity
  8
目盛
100
AcDbLine
 10
217.1546111350378
 20
167.0603812265645
 30
0.0
 11
218.7882970692008
 21
168.2141014129693
 31
0.0
  0
LINE
  5
8EC
330
18
100
AcDbEntity
  8
目盛
100
AcDbLine
 10
218.4865988280924
 20
165.3512146941597
 30
0.0
 11
220.004459745468
 21
166.6535580572953
 31
0.0
  0
LINE
  5
8ED
330
18
100
AcDbEntity
  8
目盛
100
AcDbLine
 10
217.580632685437
 20
166.4768019503289
 30
0.0
 11
219.1772732673913
 21
167.681268160754
 31
0.0
  0
LINE
  5
8EE
330
18
100
AcDbEntity
  8
目盛
100
AcDbLine
 10
216.7471304686058
 20
167.6570542019372
 30
0.0
 11
218.4162495041976
 21
168.7588897817878
 31
0.0
  0
TEXT
  5
8EF
330
18
100
AcDbEntity
  8
文字
100
AcDbText
 10
218.6002336279981
 20
170.623310318096
 30
0.0
 40
2.0
  1
.7
 50
353.8300000000002
  7
STYLE3
100
AcDbText
  0
LINE
  5
8F0
330
18
100
AcDbEntity
  8
目盛
100
AcDbLine
 10
228.7688530158497
 20
167.1097243973387
 30
0.0
 11
229.1045193222913
 21
167.4803025007394
 31
0.0
  0
LINE
  5
8F1
330
18
100
AcDbEntity
  8
目盛
100
AcDbLine
 10
227.3085720687046
 20
169.6564257312677
 30
0.0
 11
227.797952159056
 21
169.7589300100439
 31
0.0
  0
TEXT
  5
8F2
330
18
100
AcDbEntity
  8
文字
100
AcDbText
 10
228.4054537501147
 20
169.6792784582521
 30
0.0
 40
0.7
  1
4
 50
353.8300000000002
  7
STYLE3
100
AcDbText
  0
LINE
  5
8F3
330
18
100
AcDbEntity
  8
目盛
100
AcDbLine
 10
227.6240934519791
 20
172.5750819949491
 30
0.0
 11
228.0802607651442
 21
172.370359298601
 31
0.0
  0
TEXT
  5
8F4
330
18
100
AcDbEntity
  8
文字
100
AcDbText
 10
228.7068733724548
 20
171.7782041249364
 30
0.0
 40
0.7
  1
6
 50
353.8300000000002
  7
STYLE3
100
AcDbText
  0
TEXT
  5
8F5
330
18
100
AcDbEntity
  8
文字
100
AcDbText
 10
237.7604792758268
 20
161.8855169712779
 30
0.0
 40
2.0
  1
.1
 50
353.8300000000002
  7
STYLE3
100
AcDbText
  0
TEXT
  5
8F6
330
18
100
AcDbEntity
  8
文字
100
AcDbText
 10
232.9237169357519
 20
161.1005389944898
 30
0.0
 40
2.0
  1
0
 50
353.8300000000002
  7
STYLE3
100
AcDbText
  0
LINE
  5
8F7
330
18
100
AcDbEntity
  8
目盛
100
AcDbLine
 10
231.3290046262024
 20
157.7955141824146
 30
0.0
 11
231.7301346046119
 21
159.7548749813543
 31
0.0
  0
LINE
  5
8F8
330
18
100
AcDbEntity
  8
目盛
100
AcDbLine
 10
232.0390484756761
 20
157.6617350178145
 30
0.0
 11
232.3784355106532
 21
159.6327287875887
 31
0.0
  0
LINE
  5
8F9
330
18
100
AcDbEntity
  8
目盛
100
AcDbLine
 10
229.9232705687324
 20
158.1296295555386
 30
0.0
 11
230.7083221525385
 21
161.0250904878883
 31
0.0
  0
LINE
  5
8FA
330
18
100
AcDbEntity
  8
目盛
100
AcDbLine
 10
228.5412896841765
 20
158.5513524000836
 30
0.0
 11
229.1848296575449
 21
160.4449881366172
 31
0.0
  0
LINE
  5
8FB
330
18
100
AcDbEntity
  8
目盛
100
AcDbLine
 10
229.2289676505345
 20
158.3296360325272
 30
0.0
 11
229.8127095398717
 21
160.2425514531959
 31
0.0
  0
LINE
  5
8FC
330
18
100
AcDbEntity
  8
目盛
100
AcDbLine
 10
230.6235132456157
 20
157.9515303513636
 30
0.0
 11
231.0859903005981
 21
159.8973245269163
 31
0.0
  0
LINE
  5
8FD
330
18
100
AcDbEntity
  8
目盛
100
AcDbLine
 10
234.1894692511321
 20
157.3950293027896
 30
0.0
 11
234.3418631752
 21
159.3892148738706
 31
0.0
  0
LINE
  5
8FE
330
18
100
AcDbEntity
  8
目盛
100
AcDbLine
 10
232.7529440664805
 20
157.5503248814469
 30
0.0
 11
233.0302532239963
 21
159.5310064891663
 31
0.0
  0
LINE
  5
8FF
330
18
100
AcDbEntity
  8
目盛
100
AcDbLine
 10
233.7924232839527
 20
160.4440158497382
 30
0.0
 11
233.4699868698589
 21
157.461393721666
 31
0.0
  0
LINE
  5
900
330
18
100
AcDbEntity
  8
目盛
100
AcDbLine
 10
237.0775723230719
 20
157.3562136469981
 30
0.0
 11
236.9294541128337
 21
160.3525549152444
 31
0.0
  0
LINE
  5
901
330
18
100
AcDbEntity
  8
目盛
100
AcDbLine
 10
236.3554456080625
 20
157.331879709272
 30
0.0
 11
236.3194937619625
 21
159.3315565493545
 31
0.0
  0
LINE
  5
902
330
18
100
AcDbEntity
  8
目盛
100
AcDbLine
 10
237.7985783646846
 20
157.4032181256641
 30
0.0
 11
237.6371367136608
 21
159.3966916251909
 31
0.0
  0
LINE
  5
903
330
18
100
AcDbEntity
  8
目盛
100
AcDbLine
 10
235.6329108715391
 20
157.3302403271442
 30
0.0
 11
235.659788132963
 21
159.3300597221942
 31
0.0
  0
LINE
  5
904
330
18
100
AcDbEntity
  8
目盛
100
AcDbLine
 10
239.947766731308
 20
157.6796793611195
 30
0.0
 11
239.5994391353605
 21
159.6491127532152
 31
0.0
  0
LINE
  5
905
330
18
100
AcDbEntity
  8
目盛
100
AcDbLine
 10
238.5177521869839
 20
157.4728467575243
 30
0.0
 11
238.2937736818473
 21
159.4602655934108
 31
0.0
  0
LINE
  5
906
330
18
100
AcDbEntity
  8
目盛
100
AcDbLine
 10
239.234384052236
 20
157.5650308275254
 30
0.0
 11
238.9480897327295
 21
159.5444336573249
 31
0.0
  0
LINE
  5
907
330
18
100
AcDbEntity
  8
目盛
100
AcDbLine
 10
234.9106811680556
 20
157.351297118487
 30
0.0
 11
235.0003610123909
 21
159.3492854882029
 31
0.0
  0
LINE
  5
908
330
18
100
AcDbEntity
  8
目盛
100
AcDbLine
 10
234.3204671326499
 20
166.5095670621517
 30
0.0
 11
234.0717530057441
 21
166.9433196218875
 31
0.0
  0
TEXT
  5
909
330
18
100
AcDbEntity
  8
文字
100
AcDbText
 10
234.9088785147598
 20
170.9988644092701
 30
0.0
 40
0.7
  1
4
 50
353.8300000000002
  7
STYLE3
100
AcDbText
  0
TEXT
  5
90A
330
18
100
AcDbEntity
  8
文字
100
AcDbText
 10
231.2341219949922
 20
167.0336541950274
 30
0.0
 40
0.7
  1
0
 50
353.8300000000002
  7
STYLE3
100
AcDbText
  0
TEXT
  5
90B
330
18
100
AcDbEntity
  8
文字
100
AcDbText
 10
229.3878418485025
 20
167.8186952249108
 30
0.0
 40
0.7
  1
2
 50
353.8300000000002
  7
STYLE3
100
AcDbText
  0
CIRCLE
  5
90C
330
18
100
AcDbEntity
  8
外形線
100
AcDbCircle
 10
231.9576829270446
 20
170.6302163796429
 30
0.0
 40
1.149999999999999
  0
LINE
  5
90D
330
18
100
AcDbEntity
  8
目盛
100
AcDbLine
 10
231.4471586047293
 20
165.9077313435287
 30
0.0
 11
231.5008980070784
 21
166.4048350315406
 31
0.0
  0
TEXT
  5
90E
330
18
100
AcDbEntity
  8
文字
100
AcDbText
 10
233.1969740212962
 20
167.4997293767112
 30
0.0
 40
0.7
  1
8
 50
353.8300000000002
  7
STYLE3
100
AcDbText
  0
TEXT
  5
90F
330
18
100
AcDbEntity
  8
文字
100
AcDbText
 10
234.6748635851806
 20
168.80340516788
 30
0.0
 40
0.7
  1
6
 50
353.8300000000002
  7
STYLE3
100
AcDbText
  0
LINE
  5
910
330
18
100
AcDbEntity
  8
目盛
100
AcDbLine
 10
236.2912724021105
 20
168.6853507643373
 30
0.0
 11
235.8351050889457
 21
168.8900734606851
 31
0.0
  0
LINE
  5
911
330
18
100
AcDbEntity
  8
目盛
100
AcDbLine
 10
236.6067937853848
 20
171.6040070280186
 30
0.0
 11
236.1174136950334
 21
171.5015027492422
 31
0.0
  0
TEXT
  5
912
330
18
100
AcDbEntity
  8
文字
100
AcDbText
 10
217.9580349116995
 20
186.958602005383
 30
0.0
 40
2.0
  1
.4
 50
353.8300000000002
  7
STYLE3
100
AcDbText
  0
LINE
  5
913
330
18
100
AcDbEntity
  8
目盛
100
AcDbLine
 10
218.418815545802
 20
195.2257480196207
 30
0.0
 11
219.9425706616378
 21
193.9303058761945
 31
0.0
  0
LINE
  5
914
330
18
100
AcDbEntity
  8
目盛
100
AcDbLine
 10
219.388820626172
 20
196.2966408559706
 30
0.0
 11
220.8282274741495
 21
194.90807759634
 31
0.0
  0
LINE
  5
915
330
18
100
AcDbEntity
  8
目盛
100
AcDbLine
 10
217.959517736955
 20
194.6679804552674
 30
0.0
 11
219.5232117926905
 21
193.4210398391766
 31
0.0
  0
LINE
  5
916
330
18
100
AcDbEntity
  8
目盛
100
AcDbLine
 10
218.8954066214916
 20
195.7688134665319
 30
0.0
 11
221.1188752418945
 21
193.7548156278826
 31
0.0
  0
TEXT
  5
917
330
18
100
AcDbEntity
  8
文字
100
AcDbText
 10
216.6192568678149
 20
176.4230861575527
 30
0.0
 40
2.0
  1
.6
 50
353.8300000000002
  7
STYLE3
100
AcDbText
  0
TEXT
  5
918
330
18
100
AcDbEntity
  8
文字
100
AcDbText
 10
216.1315956407287
 20
181.5609253802362
 30
0.0
 40
2.0
  1
.5
 50
353.8300000000002
  7
STYLE3
100
AcDbText
  0
LINE
  5
919
330
18
100
AcDbEntity
  8
目盛
100
AcDbLine
 10
216.6898286278322
 20
192.9120388229472
 30
0.0
 11
219.2009813343645
 21
191.2706637638959
 31
0.0
  0
LINE
  5
91A
330
18
100
AcDbEntity
  8
目盛
100
AcDbLine
 10
216.3040593318113
 20
192.3011041428843
 30
0.0
 11
218.0117062923417
 21
191.2599788583048
 31
0.0
  0
LINE
  5
91B
330
18
100
AcDbEntity
  8
目盛
100
AcDbLine
 10
212.9700496546908
 20
179.1925904250603
 30
0.0
 11
215.9663909229371
 21
179.3407086352985
 31
0.0
  0
LINE
  5
91C
330
18
100
AcDbEntity
  8
目盛
100
AcDbLine
 10
212.9440763348366
 20
180.6372518765931
 30
0.0
 11
214.9438957298869
 21
180.6103746151693
 31
0.0
  0
LINE
  5
91D
330
18
100
AcDbEntity
  8
目盛
100
AcDbLine
 10
212.9651331261796
 20
181.3594815800768
 30
0.0
 11
214.9631214958954
 21
181.2698017357412
 31
0.0
  0
LINE
  5
91E
330
18
100
AcDbEntity
  8
目盛
100
AcDbLine
 10
212.9457157169649
 20
179.9147171400699
 30
0.0
 11
214.9453925570473
 21
179.9506689861699
 31
0.0
  0
LINE
  5
91F
330
18
100
AcDbEntity
  8
目盛
100
AcDbLine
 10
213.0088653104821
 20
182.0806934970002
 30
0.0
 11
215.0030508815631
 21
181.9282995729323
 31
0.0
  0
LINE
  5
920
330
18
100
AcDbEntity
  8
目盛
100
AcDbLine
 10
213.5897311916832
 20
174.9081904061829
 30
0.0
 11
215.533406686138
 21
175.3794924030556
 31
0.0
  0
LINE
  5
921
330
18
100
AcDbEntity
  8
目盛
100
AcDbLine
 10
213.2935153688122
 20
176.3223960168241
 30
0.0
 11
215.2629487609079
 21
176.6707236127716
 31
0.0
  0
LINE
  5
922
330
18
100
AcDbEntity
  8
目盛
100
AcDbLine
 10
213.4305152217391
 20
175.6129665465071
 30
0.0
 11
216.3667957638486
 21
176.2279922191653
 31
0.0
  0
LINE
  5
923
330
18
100
AcDbEntity
  8
目盛
100
AcDbLine
 10
213.0866827652167
 20
177.7524105611483
 30
0.0
 11
215.0741016011034
 21
177.9763890662851
 31
0.0
  0
LINE
  5
924
330
18
100
AcDbEntity
  8
目盛
100
AcDbLine
 10
213.1788668352179
 20
177.0357786958965
 30
0.0
 11
215.1582696650176
 21
177.322073015403
 31
0.0
  0
LINE
  5
925
330
18
100
AcDbEntity
  8
目盛
100
AcDbLine
 10
213.0170541333568
 20
178.4715843834479
 30
0.0
 11
215.0105276328834
 21
178.6330260344717
 31
0.0
  0
LINE
  5
926
330
18
100
AcDbEntity
  8
目盛
100
AcDbLine
 10
213.1641608891394
 20
183.5172186816517
 30
0.0
 11
215.1448424968589
 21
183.2399095241359
 31
0.0
  0
LINE
  5
927
330
18
100
AcDbEntity
  8
目盛
100
AcDbLine
 10
213.0752297293587
 20
182.8001758782737
 30
0.0
 11
216.057851857431
 21
182.4777394641798
 31
0.0
  0
LINE
  5
928
330
18
100
AcDbEntity
  8
目盛
100
AcDbLine
 10
215.5910231492222
 20
191.0444018212473
 30
0.0
 11
217.3606732560647
 21
190.1125549994188
 31
0.0
  0
LINE
  5
929
330
18
100
AcDbEntity
  8
目盛
100
AcDbLine
 10
215.2644599432805
 20
190.3998743931414
 30
0.0
 11
217.0625068506398
 21
189.5240734346265
 31
0.0
  0
LINE
  5
92A
330
18
100
AcDbEntity
  8
目盛
100
AcDbLine
 10
214.958302972331
 20
189.7454074022279
 30
0.0
 11
217.6953068513199
 21
188.51707122414
 31
0.0
  0
LINE
  5
92B
330
18
100
AcDbEntity
  8
目盛
100
AcDbLine
 10
215.9376703116984
 20
191.6783536157895
 30
0.0
 11
217.6771771870215
 21
190.6913805509575
 31
0.0
  0
LINE
  5
92C
330
18
100
AcDbEntity
  8
目盛
100
AcDbLine
 10
213.9434720402198
 20
187.0411950975979
 30
0.0
 11
215.8563874608887
 21
186.4574532082607
 31
0.0
  0
LINE
  5
92D
330
18
100
AcDbEntity
  8
目盛
100
AcDbLine
 10
213.5653663590563
 20
185.6466495025166
 30
0.0
 11
215.5111605346091
 21
185.1841724475343
 31
0.0
  0
LINE
  5
92E
330
18
100
AcDbEntity
  8
目盛
100
AcDbLine
 10
214.1651884077762
 20
187.7288730639555
 30
0.0
 11
216.0588241443099
 21
187.0853330905871
 31
0.0
  0
LINE
  5
92F
330
18
100
AcDbEntity
  8
目盛
100
AcDbLine
 10
214.408395858614
 20
188.4092474233439
 30
0.0
 11
216.2808831211617
 21
187.7065444622025
 31
0.0
  0
LINE
  5
930
330
18
100
AcDbEntity
  8
目盛
100
AcDbLine
 10
213.4093501901072
 20
184.9411581219299
 30
0.0
 11
215.3687109890468
 21
184.5400281435202
 31
0.0
  0
LINE
  5
931
330
18
100
AcDbEntity
  8
目盛
100
AcDbLine
 10
213.7434655632311
 20
186.3468921793998
 30
0.0
 11
216.6389264955809
 21
185.5618405955937
 31
0.0
  0
LINE
  5
932
330
18
100
AcDbEntity
  8
目盛
100
AcDbLine
 10
213.2755710255069
 20
184.2311142724564
 30
0.0
 11
215.2465647952813
 21
183.8917272374795
 31
0.0
  0
LINE
  5
933
330
18
100
AcDbEntity
  8
目盛
100
AcDbLine
 10
214.6728543763417
 20
189.0816467284128
 30
0.0
 11
216.5223452460436
 21
188.3204742624829
 31
0.0
  0
LINE
  5
934
330
18
100
AcDbEntity
  8
目盛
100
AcDbLine
 10
217.0945974920407
 20
193.5105547372077
 30
0.0
 11
218.7335020038557
 21
192.3642598357307
 31
0.0
  0
LINE
  5
935
330
18
100
AcDbEntity
  8
目盛
100
AcDbLine
 10
217.5179664664362
 20
194.0960612227187
 30
0.0
 11
219.1200562848255
 21
192.8988527138058
 31
0.0
  0
HATCH
  5
936
330
18
100
AcDbEntity
  8
ROGO
 62
     4
100
AcDbHatch
 10
0.0
 20
0.0
 30
0.0
210
0.0
220
0.0
230
1.0
  2
SOLID
 70
     1
 71
     1
 91
        1
 92
        5
 93
        8
 72
     1
 10
238.6631708870845
 20
189.4604298476813
 11
238.9578904552414
 21
189.9199908571132
 72
     1
 10
238.9578904552414
 20
189.9199908571132
 11
237.6504716241798
 21
190.0613293912971
 72
     4
 94
        3
 73
     0
 74
     0
 95
       26
 96
       22
 40
0.0
 40
0.0
 40
0.0
 40
0.0
 40
0.2382195346592748
 40
0.3976890672662728
 40
0.5126795869788598
 40
0.5985392873135611
 40
0.7099038249249467
 40
0.7911890807496573
 40
0.9379713068542386
 40
1.057449928672903
 40
1.138714535892962
 40
1.218398644003344
 40
1.36093802187023
 40
1.461730374800155
 40
1.516014844107792
 40
1.593124329220214
 40
1.64880681859359
 40
1.72947236200559
 40
1.775122082164069
 40
1.874460993765123
 40
1.919820003751058
 40
1.919820003751058
 40
1.919820003751058
 40
1.919820003751058
 10
237.6504716241797
 20
190.0613293912971
 10
237.5695661236306
 20
190.0652236042357
 10
237.4345006551497
 20
190.0717246911994
 10
237.2774730563301
 20
189.9981400779723
 10
237.163889584844
 20
189.9577713676188
 10
237.079246554369
 20
189.8953517043026
 10
237.014909149676
 20
189.8283803190834
 10
236.9343463804276
 20
189.7490065788691
 10
236.8653649933215
 20
189.6538947473617
 10
236.8237383129318
 20
189.5453458089673
 10
236.7879383127092
 20
189.4591152665329
 10
236.7577996365985
 20
189.3619679345596
 10
236.7511469808714
 20
189.2542138872449
 10
236.7474538084423
 20
189.153868752365
 10
236.7713438167141
 20
189.0793697149955
 10
236.8018308463542
 20
189.0248743876211
 10
236.8398352597583
 20
188.9643753176333
 10
236.8840230250409
 20
188.9222510852698
 10
236.9166410359117
 20
188.8510677469974
 10
236.9854703679129
 20
188.8349934083903
 10
237.0279712923243
 20
188.813215518834
 10
237.0412942193826
 20
188.8063887206394
 72
     1
 10
237.0412942193826
 20
188.8063887206392
 11
238.1657716085971
 21
188.6848270740277
 72
     1
 10
238.1657716085971
 20
188.6848270740277
 11
238.4604880557541
 21
189.1443832168341
 72
     1
 10
238.4604880557541
 20
189.1443832168341
 11
237.6256709912959
 21
189.2346311292849
 72
     4
 94
        3
 73
     0
 74
     0
 95
       16
 96
       12
 40
0.0
 40
0.0
 40
0.0
 40
0.0
 40
0.0719416665236009
 40
0.1446253590762011
 40
0.1879779149915333
 40
0.2295440936106641
 40
0.2751936323960592
 40
0.3070718656054008
 40
0.3373215422373965
 40
0.3986635435216263
 40
0.5242542460843474
 40
0.5242542460843474
 40
0.5242542460843474
 40
0.5242542460843474
 10
237.6256709912959
 20
189.2346311292849
 10
237.6012908763968
 20
189.2447619510221
 10
237.5522791834241
 20
189.2651280865635
 10
237.5558476271748
 20
189.3377851184971
 10
237.5671811838937
 20
189.3886088752391
 10
237.5954027802264
 20
189.4234526695126
 10
237.6276743749027
 20
189.447537321459
 10
237.6424306581962
 20
189.4818521005633
 10
237.6774238580486
 20
189.5051857084034
 10
237.7392084198604
 20
189.5440856170701
 10
237.8031829046938
 20
189.5468769905716
 10
237.8461641505163
 20
189.5487523743431
 72
     1
 10
237.8461641505168
 20
189.5487523743434
 11
238.6631708870845
 21
189.4604298476813
 97
        8
330
99A
330
945
330
962
330
97E
330
961
330
960
330
97F
330
93D
 75
     0
 76
     1
 47
0.0514683685270805
 98
        1
 10
238.076306035025
 20
189.7212699248547
450
        0
451
        0
460
0.0
461
0.0
452
        0
462
0.0
453
        0
470

  0
HATCH
  5
937
330
18
100
AcDbEntity
  8
ROGO
 62
     4
100
AcDbHatch
 10
0.0
 20
0.0
 30
0.0
210
0.0
220
0.0
230
1.0
  2
SOLID
 70
     1
 71
     1
 91
        1
 92
        1
 93
       12
 72
     1
 10
232.92329346421
 20
190.5723610638439
 11
234.689088430865
 21
190.3814697700006
 72
     1
 10
234.6890884308648
 20
190.3814697700006
 11
234.5087865007077
 21
190.098406395557
 72
     1
 10
234.5087865007077
 20
190.098406395557
 11
233.5807292868828
 21
190.1987340358853
 72
     1
 10
233.5807292868828
 20
190.1987340358853
 11
233.4397555828486
 21
189.9774136521434
 72
     1
 10
233.4397555828486
 20
189.9774136521434
 11
234.3678127966735
 21
189.8770860118151
 72
     1
 10
234.3678127966735
 20
189.8770860118151
 11
234.2232574696035
 21
189.6501426915824
 72
     1
 10
234.2232574696035
 20
189.6501426915824
 11
233.2952002557783
 21
189.7504703319103
 72
     1
 10
233.2952002557783
 20
189.7504703319103
 11
233.154220583595
 21
189.5291405785272
 72
     1
 10
233.1542205835951
 20
189.5291405785273
 11
234.0822777974202
 21
189.4288129381992
 72
     1
 10
234.0822777974202
 20
189.4288129381992
 11
233.901984936651
 21
189.1457638021585
 72
     1
 10
233.901984936651
 20
189.1457638021585
 11
232.1361899699962
 21
189.3366550960017
 72
     1
 10
232.1361899699962
 20
189.3366550960017
 11
232.92329346421
 21
190.5723610638439
 97
       12
330
99C
330
941
330
969
330
968
330
96A
330
967
330
96D
330
96F
330
96C
330
96E
330
96B
330
940
 75
     0
 76
     1
 98
        1
 10
150.9351285323723
 20
108.1085732676554
450
        0
451
        0
460
0.0
461
0.0
452
        0
462
0.0
453
        0
470

  0
HATCH
  5
938
330
18
100
AcDbEntity
  8
ROGO
 62
     4
100
AcDbHatch
 10
0.0
 20
0.0
 30
0.0
210
0.0
220
0.0
230
1.0
  2
SOLID
 70
     1
 71
     1
 91
        2
 92
        7
 72
     0
 73
     1
 93
        8
 10
236.2449213146193
 20
190.2132764305745
 10
235.2006024242467
 20
190.3261725413533
 10
234.1180180811201
 20
189.1224095355308
 10
234.841052662945
 20
189.0442458701992
 10
235.0471700237128
 20
189.2734348985882
 10
235.872239847155
 20
189.184240711787
 10
235.9557916263004
 20
188.923736996275
 10
236.683757944422
 20
188.8450401855102
 97
        8
330
99B
330
942
330
971
330
970
330
963
330
972
330
973
330
944
 92
       22
 72
     0
 73
     1
 93
        3
 10
235.6342578112073
 20
189.9262381321124
 10
235.7841152662
 20
189.4590018359845
 10
235.26456821955
 20
189.5151674779872
 97
        3
330
965
330
964
330
966
 75
     0
 76
     1
 47
0.0128389261915577
 98
        2
 10
236.1292825651375
 20
189.908900090652
 10
236.1292825651375
 20
189.908900090652
450
        0
451
        0
460
0.0
461
0.0
452
        0
462
0.0
453
        0
470

  0
HATCH
  5
939
330
18
100
AcDbEntity
  8
ROGO
 62
     4
100
AcDbHatch
 10
0.0
 20
0.0
 30
0.0
210
0.0
220
0.0
230
1.0
  2
SOLID
 70
     1
 71
     1
 91
        2
 92
        5
 93
        6
 72
     1
 10
229.1431268923319
 20
188.9171822350748
 11
230.0914028379828
 21
188.8146688484109
 72
     1
 10
230.0914028379828
 20
188.8146688484109
 11
230.5030891856372
 21
189.5132014830907
 72
     1
 10
230.5030891856372
 20
189.5132014830907
 11
231.3895327023783
 21
189.4173724921687
 72
     4
 94
        3
 73
     0
 74
     0
 95
       18
 96
       14
 40
0.108740278791501
 40
0.108740278791501
 40
0.108740278791501
 40
0.108740278791501
 40
0.6623149649549278
 40
1.384304701649787
 40
2.097394834876493
 40
2.774073369849618
 40
3.428974823686337
 40
4.005208313035923
 40
4.455173659284313
 40
4.720999734343524
 40
5.086034088486724
 40
5.569973738255373
 40
6.060470601257719
 40
6.060470601257719
 40
6.060470601257719
 40
6.060470601257719
 10
231.3895327023782
 20
189.4173724921687
 10
231.451969355256
 20
189.4110927789618
 10
231.5958378793846
 20
189.3966228637856
 10
231.8085613855053
 20
189.4823188366594
 10
232.0140661991762
 20
189.5985689987441
 10
232.1861552250737
 20
189.7529644616007
 10
232.3029901303375
 20
189.938128911187
 10
232.3380701929191
 20
190.1239048135096
 10
232.3450434747368
 20
190.2730970823851
 10
232.2915492162505
 20
190.3833962452235
 10
232.2356592808271
 20
190.4955114470565
 10
232.1222106821911
 20
190.5996603721849
 10
232.0255131300782
 20
190.650372959769
 10
231.9761876635877
 20
190.6747479519603
 72
     1
 10
231.9761876635877
 20
190.6747479519603
 11
230.3730299469914
 21
190.8480573432175
 72
     1
 10
230.3730299469914
 20
190.8480573432175
 11
229.1431268923319
 21
188.9171822350748
 97
        6
330
943
330
981
330
93F
330
94F
330
952
330
957
 92
       20
 93
        4
 72
     1
 10
230.7572821992604
 20
189.9445058402429
 11
230.9518987030604
 21
190.2747232009258
 72
     1
 10
230.9518987030604
 20
190.2747232009258
 11
231.3555339721331
 21
190.23108820354
 72
     4
 94
        3
 73
     0
 74
     0
 95
       15
 96
       11
 40
0.0
 40
0.0
 40
0.0
 40
0.0
 40
0.1539705029172635
 40
0.2241725832585718
 40
0.3038566179395628
 40
0.3581410872474978
 40
0.44399253846701
 40
0.4954152125467842
 40
0.5836396705644774
 40
0.6130478420063669
 40
0.6130478420063669
 40
0.6130478420063669
 40
0.6130478420063669
 10
231.3555339721331
 20
190.23108820354
 10
231.4130557988768
 20
190.2251362334755
 10
231.4968044146868
 20
190.2164704924436
 10
231.5313846315658
 20
190.1079760808078
 10
231.5036594270712
 20
190.0435267170797
 10
231.4704670494049
 20
189.9778683456521
 10
231.4198570487715
 20
189.9362854084379
 10
231.3538365259143
 20
189.8981014966395
 10
231.2954344423978
 20
189.8989287374032
 10
231.256754632747
 20
189.8930303364375
 10
231.2470846757055
 20
189.8915557354902
 72
     1
 10
231.2470846757053
 20
189.89155573549
 11
230.7572821992604
 21
189.9445058402429
 97
        4
330
953
330
954
330
956
330
955
 75
     0
 76
     1
 47
0.0514683685270805
 98
        2
 10
230.3130068114978
 20
190.2126390620152
 10
230.3130068114978
 20
190.2126390620152
450
        0
451
        0
460
0.0
461
0.0
452
        0
462
0.0
453
        0
470

  0
HATCH
  5
93A
330
18
100
AcDbEntity
  8
ROGO
 62
     4
100
AcDbHatch
 10
0.0
 20
0.0
 30
0.0
210
0.0
220
0.0
230
1.0
  2
SOLID
 70
     1
 71
     1
 91
        1
 92
        5
 93
        8
 72
     4
 94
        3
 73
     0
 74
     0
 95
       26
 96
       22
 40
0.0
 40
0.0
 40
0.0
 40
0.0
 40
0.2382195346593004
 40
0.3976890672661942
 40
0.5126795869788614
 40
0.5985392873137176
 40
0.70990382492546
 40
0.7911890807496817
 40
0.9379713068547165
 40
1.05744992867349
 40
1.138714535893199
 40
1.218398644003522
 40
1.3609380218705
 40
1.46173037480051
 40
1.51601484410804
 40
1.59312432922054
 40
1.648806818593782
 40
1.729472362005387
 40
1.775122082164335
 40
1.874460993765249
 40
1.919820003751178
 40
1.919820003751178
 40
1.919820003751178
 40
1.919820003751178
 10
241.8570323989087
 20
189.6065790697242
 10
241.7761268983596
 20
189.6104732826629
 10
241.6410614298788
 20
189.6169743696269
 10
241.4840338310593
 20
189.5433897563987
 10
241.370450359573
 20
189.503021046046
 10
241.2858073290979
 20
189.4406013827295
 10
241.2214699244053
 20
189.3736299975099
 10
241.1409071551563
 20
189.2942562572961
 10
241.0719257680505
 20
189.1991444257883
 10
241.0302990876607
 20
189.0905954873939
 10
240.9944990874378
 20
189.0043649449598
 10
240.9643604113273
 20
188.9072176129864
 10
240.9577077556004
 20
188.7994635656717
 10
240.9540145831713
 20
188.6991184307918
 10
240.9779045914429
 20
188.6246193934222
 10
241.0083916210832
 20
188.5701240660479
 10
241.0463960344872
 20
188.5096249960603
 10
241.0905837997695
 20
188.4675007636966
 10
241.1232018106406
 20
188.3963174254244
 10
241.192031142642
 20
188.3802430868174
 10
241.2345320670531
 20
188.3584651972608
 10
241.2478549941113
 20
188.351638399066
 72
     1
 10
241.2478549941113
 20
188.351638399066
 11
242.372332383326
 21
188.2300767524546
 72
     1
 10
242.372332383326
 20
188.2300767524546
 11
242.6670488304832
 21
188.689632895261
 72
     1
 10
242.6670488304832
 20
188.689632895261
 11
241.8322317660249
 21
188.779880807712
 72
     4
 94
        3
 73
     0
 74
     0
 95
       16
 96
       12
 40
0.0
 40
0.0
 40
0.0
 40
0.0
 40
0.0719416665232529
 40
0.1446253590759482
 40
0.1879779149910472
 40
0.2295440936104216
 40
0.2751936323957962
 40
0.3070718656050524
 40
0.3373215422371723
 40
0.3986635435213401
 40
0.52425424608407
 40
0.52425424608407
 40
0.52425424608407
 40
0.52425424608407
 10
241.8322317660248
 20
188.7798808077118
 10
241.8078516511259
 20
188.790011629449
 10
241.7588399581533
 20
188.8103777649905
 10
241.7624084019041
 20
188.8830347969239
 10
241.7737419586227
 20
188.9338585536659
 10
241.8019635549551
 20
188.9687023479396
 10
241.8342351496319
 20
188.9927869998858
 10
241.8489914329251
 20
189.0271017789902
 10
241.8839846327777
 20
189.0504353868301
 10
241.945769194589
 20
189.0893352954974
 10
242.0097436794225
 20
189.0921266689988
 10
242.0527249252451
 20
189.0940020527703
 72
     1
 10
242.0527249252451
 20
189.0940020527703
 11
242.8697316618134
 21
189.0056795261081
 72
     1
 10
242.8697316618134
 20
189.0056795261081
 11
243.1644512299704
 21
189.4652405355401
 72
     1
 10
243.1644512299704
 20
189.4652405355401
 11
241.8570323989084
 21
189.6065790697242
 97
        8
330
99D
330
949
330
980
330
975
330
976
330
974
330
977
330
93C
 75
     0
 76
     1
 47
0.0514683685270805
 98
        1
 10
242.056793037384
 20
189.3431417384949
450
        0
451
        0
460
0.0
461
0.0
452
        0
462
0.0
453
        0
470

  0
HATCH
  5
93B
330
18
100
AcDbEntity
  8
ROGO
 62
     4
100
AcDbHatch
 10
0.0
 20
0.0
 30
0.0
210
0.0
220
0.0
230
1.0
  2
SOLID
 70
     1
 71
     1
 91
        2
 92
        5
 93
        6
 72
     4
 94
        3
 73
     0
 74
     0
 95
       38
 96
       34
 40
0.0
 40
0.0
 40
0.0
 40
0.0
 40
0.1807680148264893
 40
0.2375392910068456
 40
0.3104865209604922
 40
0.3712759982445946
 40
0.4225667543871468
 40
0.490692583720636
 40
0.5255021974951755
 40
0.5647069597053514
 40
0.6224874016816563
 40
0.6879401044674718
 40
0.7303986317548135
 40
0.7765228362185538
 40
0.8277951442289788
 40
0.9056034696997462
 40
0.9795294930262933
 40
1.013897332332815
 40
1.053089255535777
 40
1.09951874188943
 40
1.132570569820401
 40
1.160277520290202
 40
1.199836786293528
 40
1.243305643168933
 40
1.286774258016672
 40
1.324809356515585
 40
1.41191649291738
 40
1.446284332224135
 40
1.515020051660964
 40
1.575779369908271
 40
1.692098529535923
 40
1.835624328518853
 40
2.04289646798382
 40
2.04289646798382
 40
2.04289646798382
 40
2.04289646798382
 10
239.6834803321811
 20
189.8470600830609
 10
239.6231164750833
 20
189.8493042990674
 10
239.5437949876443
 20
189.8522533245328
 10
239.4408781349387
 20
189.8356740410845
 10
239.3828639785041
 20
189.8089399532982
 10
239.3235666461715
 20
189.7910895141164
 10
239.2713815703325
 20
189.7608055810044
 10
239.2205022624469
 20
189.7477938760923
 10
239.1826932456467
 20
189.7185007515976
 10
239.1408819779283
 20
189.7026305282629
 10
239.1044451191962
 20
189.6609302703584
 10
239.0646103007908
 20
189.6225655549976
 10
239.0203583342989
 20
189.5962014445059
 10
238.9832760307233
 20
189.5674957458892
 10
238.9470700479705
 20
189.5209215194739
 10
238.921666382082
 20
189.4565838163112
 10
238.8657382260212
 20
189.4202755331568
 10
238.8525572461731
 20
189.3707778399148
 10
238.820914718692
 20
189.3441550650314
 10
238.8044073266841
 20
189.3071577663687
 10
238.7959020731768
 20
189.2725462198545
 10
238.7867048336709
 20
189.2403569866105
 10
238.7681918125501
 20
189.2074507598561
 10
238.7684093653589
 20
189.1643071840938
 10
238.7625730741021
 20
189.123183533833
 10
238.7573585172365
 20
189.0673772668403
 10
238.7485743860162
 20
189.0134437613275
 10
238.7654744081943
 20
188.9518909386194
 10
238.7735632427899
 20
188.8977791665306
 10
238.8034186212809
 20
188.8208381132955
 10
238.8594176857929
 20
188.7297348501223
 10
238.9721551188689
 20
188.614313409272
 10
239.0900432063223
 20
188.5910965110659
 10
239.1596984506261
 20
188.5773785964617
 72
     1
 10
239.1596984506258
 20
188.577378596462
 11
239.9058051770029
 21
188.4967207165649
 72
     4
 94
        3
 73
     0
 74
     0
 95
       11
 96
        7
 40
0.1647869275458135
 40
0.1647869275458135
 40
0.1647869275458135
 40
0.1647869275458135
 40
0.2545010798212315
 40
0.5111620267764023
 40
0.7602998271033902
 40
0.8850764140209603
 40
0.8850764140209603
 40
0.8850764140209603
 40
0.8850764140209603
 10
239.9058051770025
 20
188.4967207165648
 10
239.9161947266373
 20
188.4953945626347
 10
239.9563074757911
 20
188.4902744484998
 10
240.0260706592433
 20
188.492717064672
 10
240.099370690537
 20
188.4943607807268
 10
240.1432052128586
 20
188.4965900014845
 10
240.1575209760149
 20
188.4989559984191
 72
     4
 94
        3
 73
     0
 74
     0
 95
        9
 96
        5
 40
0.0
 40
0.0
 40
0.0
 40
0.0
 40
0.1135793343549316
 40
0.2662938392176055
 40
0.2662938392176055
 40
0.2662938392176055
 40
0.2662938392176055
 10
240.1575209760149
 20
188.4989559984191
 10
240.1949943155616
 20
188.5061323181214
 10
240.2828528992809
 20
188.522957647622
 10
240.3590650947861
 20
188.5703533149993
 10
240.4027713545151
 20
188.5975338382041
 72
     4
 94
        3
 73
     0
 74
     0
 95
       25
 96
       21
 40
0.0
 40
0.0
 40
0.0
 40
0.0
 40
0.165525918914855
 40
0.3412380755365305
 40
0.5940540902285263
 40
0.7697671103696209
 40
0.9377330196075423
 40
1.11479469302833
 40
1.274661249598185
 40
1.574522170874768
 40
1.815540668866877
 40
2.15849091873445
 40
2.536227739636605
 40
2.738070817316548
 40
2.925680654369045
 40
3.162706124480894
 40
3.395643218188267
 40
3.648478129958861
 40
3.928509979727306
 40
4.337226830236035
 40
4.337226830236035
 40
4.337226830236035
 40
4.337226830236035
 10
240.4027713545151
 20
188.5975338382041
 10
240.4189004584735
 20
188.6081686487941
 10
240.4501300496515
 20
188.6342332352331
 10
240.5050399006007
 20
188.6760139584448
 10
240.5548748589549
 20
188.7262203539127
 10
240.6138363820367
 20
188.7649031476405
 10
240.6479113081112
 20
188.8163047920613
 10
240.6931724969329
 20
188.8547352573212
 10
240.734405550133
 20
188.9171865167023
 10
240.7715363062867
 20
188.9900294643624
 10
240.8098107589186
 20
189.0860734020626
 10
240.8324525088557
 20
189.1966454491802
 10
240.8284995177783
 20
189.3064193231411
 10
240.7994573099654
 20
189.3912918752399
 10
240.7789635779864
 20
189.4616233354254
 10
240.7437096910537
 20
189.5299522886636
 10
240.7031226290234
 20
189.6045102300299
 10
240.6415812752088
 20
189.6692053379254
 10
240.5605282616328
 20
189.747975795961
 10
240.4783520298902
 20
189.759539861915
 10
240.4295870585576
 20
189.7664022031638
 72
     1
 10
240.4295870585576
 20
189.7664022031638
 11
239.6834803321808
 21
189.8470600830608
 97
        6
330
94A
330
99F
330
93E
330
97A
330
97B
330
97C
 92
       20
 93
        1
 72
     3
 10
239.782101784988
 20
189.1547541067795
 11
0.1941024022166235
 21
0.1367091024292676
 40
0.6788083417438791
 50
0.0
 51
360.0
 73
     1
 97
        1
330
97D
 75
     0
 76
     1
 47
0.088756267210375
 98
        2
 10
239.8679225831939
 20
189.460790212377
 10
239.8679225831939
 20
189.460790212377
450
        0
451
        0
460
0.0
461
0.0
452
        0
462
0.0
453
        0
470

  0
LINE
  5
93C
102
{ACAD_REACTORS
330
93A
102
}
330
18
100
AcDbEntity
  8
ROGO
 62
     4
100
AcDbLine
 10
243.1644512299704
 20
189.4652405355401
 30
0.0
 11
242.8697316618134
 21
189.0056795261081
 31
0.0
  0
LINE
  5
93D
102
{ACAD_REACTORS
330
936
102
}
330
18
100
AcDbEntity
  8
ROGO
 62
     4
100
AcDbLine
 10
238.9578904552414
 20
189.919990857113
 30
0.0
 11
238.6631708870845
 21
189.4604298476812
 31
0.0
  0
SPLINE
  5
93E
102
{ACAD_REACTORS
330
93B
102
}
330
18
100
AcDbEntity
  8
ROGO
 62
     4
100
AcDbSpline
210
0.0
220
0.0
230
1.0
 70
     8
 71
     3
 72
    38
 73
    34
 74
    32
 42
0.0000000001
 43
0.0000000001
 44
0.0000000001
 40
0.0
 40
0.0
 40
0.0
 40
0.0
 40
0.1807680148264893
 40
0.2375392910068456
 40
0.3104865209604922
 40
0.3712759982445946
 40
0.4225667543871468
 40
0.490692583720636
 40
0.5255021974951755
 40
0.5647069597053514
 40
0.6224874016816563
 40
0.6879401044674718
 40
0.7303986317548135
 40
0.7765228362185538
 40
0.8277951442289788
 40
0.9056034696997462
 40
0.9795294930262933
 40
1.013897332332815
 40
1.053089255535777
 40
1.09951874188943
 40
1.132570569820401
 40
1.160277520290202
 40
1.199836786293528
 40
1.243305643168933
 40
1.286774258016672
 40
1.324809356515585
 40
1.41191649291738
 40
1.446284332224135
 40
1.515020051660964
 40
1.575779369908271
 40
1.692098529535923
 40
1.835624328518853
 40
2.04289646798382
 40
2.04289646798382
 40
2.04289646798382
 40
2.04289646798382
 10
239.6834803321811
 20
189.8470600830609
 30
0.0
 10
239.6231164750833
 20
189.8493042990674
 30
0.0
 10
239.5437949876443
 20
189.8522533245328
 30
0.0
 10
239.4408781349387
 20
189.8356740410845
 30
0.0
 10
239.3828639785041
 20
189.8089399532982
 30
0.0
 10
239.3235666461715
 20
189.7910895141164
 30
0.0
 10
239.2713815703325
 20
189.7608055810044
 30
0.0
 10
239.2205022624469
 20
189.7477938760923
 30
0.0
 10
239.1826932456467
 20
189.7185007515976
 30
0.0
 10
239.1408819779283
 20
189.7026305282629
 30
0.0
 10
239.1044451191962
 20
189.6609302703584
 30
0.0
 10
239.0646103007908
 20
189.6225655549976
 30
0.0
 10
239.0203583342989
 20
189.5962014445059
 30
0.0
 10
238.9832760307233
 20
189.5674957458892
 30
0.0
 10
238.9470700479705
 20
189.5209215194739
 30
0.0
 10
238.921666382082
 20
189.4565838163112
 30
0.0
 10
238.8657382260212
 20
189.4202755331568
 30
0.0
 10
238.8525572461731
 20
189.3707778399148
 30
0.0
 10
238.820914718692
 20
189.3441550650314
 30
0.0
 10
238.8044073266841
 20
189.3071577663687
 30
0.0
 10
238.7959020731768
 20
189.2725462198545
 30
0.0
 10
238.7867048336709
 20
189.2403569866105
 30
0.0
 10
238.7681918125501
 20
189.2074507598561
 30
0.0
 10
238.7684093653589
 20
189.1643071840938
 30
0.0
 10
238.7625730741021
 20
189.123183533833
 30
0.0
 10
238.7573585172365
 20
189.0673772668403
 30
0.0
 10
238.7485743860162
 20
189.0134437613275
 30
0.0
 10
238.7654744081943
 20
188.9518909386194
 30
0.0
 10
238.7735632427899
 20
188.8977791665306
 30
0.0
 10
238.8034186212809
 20
188.8208381132955
 30
0.0
 10
238.8594176857929
 20
188.7297348501223
 30
0.0
 10
238.9721551188689
 20
188.614313409272
 30
0.0
 10
239.0900432063223
 20
188.5910965110659
 30
0.0
 10
239.1596984506261
 20
188.5773785964617
 30
0.0
 11
239.6834803321811
 21
189.8470600830609
 31
0.0
 11
239.5027272166559
 21
189.8447392185159
 31
0.0
 11
239.4469094744459
 21
189.8343778743112
 31
0.0
 11
239.378526815807
 21
189.8089788515863
 31
0.0
 11
239.3215410718991
 21
189.7878131826922
 31
0.0
 11
239.2753686276221
 21
189.7654782984264
 31
0.0
 11
239.2123924454337
 21
189.7394950519136
 31
0.0
 11
239.1830233663251
 21
189.7208090570659
 31
0.0
 11
239.1482478107664
 21
189.7027072860051
 31
0.0
 11
239.1057298534
 21
189.6635818112301
 31
0.0
 11
239.0572214577527
 21
189.6196387588362
 31
0.0
 11
239.0218619143515
 21
189.5961349457442
 31
0.0
 11
238.9859188338883
 21
189.5672292853256
 31
0.0
 11
238.9542137773972
 21
189.526934881724
 31
0.0
 11
238.9141827039985
 21
189.4602142052053
 31
0.0
 11
238.8645058818853
 21
189.4054668740411
 31
0.0
 11
238.850189001929
 21
189.3742230694245
 31
0.0
 11
238.8250588223418
 21
189.3441484801794
 31
0.0
 11
238.8041670654817
 21
189.3026848612061
 31
0.0
 11
238.7952562372078
 21
189.2708568787213
 31
0.0
 11
238.7869297955317
 21
189.2444306517233
 31
0.0
 11
238.7720289537458
 21
189.2077850457003
 31
0.0
 11
238.7673569729669
 21
189.1645679875675
 31
0.0
 11
238.7626850182016
 21
189.1213511700603
 31
0.0
 11
238.7585970512781
 21
189.0835363945848
 31
0.0
 11
238.7546595921847
 21
188.9965182951572
 31
0.0
 11
238.7619685139795
 21
188.9629366328872
 31
0.0
 11
238.7765872331183
 21
188.8957734571341
 31
0.0
 11
238.797779953612
 21
188.8388299469512
 31
0.0
 11
238.8581376110024
 21
188.7393960488539
 31
0.0
 11
238.9623316832612
 21
188.6406881450173
 31
0.0
 11
239.1596984506261
 21
188.5773785964617
 31
0.0
  0
LINE
  5
93F
102
{ACAD_REACTORS
330
939
102
}
330
18
100
AcDbEntity
  8
ROGO
 62
     4
100
AcDbLine
 10
230.3730299469914
 20
190.8480573432175
 30
0.0
 11
229.1431268923319
 21
188.9171822350748
 31
0.0
  0
LINE
  5
940
102
{ACAD_REACTORS
330
937
102
}
330
18
100
AcDbEntity
  8
ROGO
 62
     4
100
AcDbLine
 10
232.92329346421
 20
190.5723610638439
 30
0.0
 11
232.1361899699962
 21
189.3366550960017
 31
0.0
  0
LINE
  5
941
102
{ACAD_REACTORS
330
937
102
}
330
18
100
AcDbEntity
  8
ROGO
 62
     4
100
AcDbLine
 10
234.6890884308648
 20
190.3814697700006
 30
0.0
 11
234.5087865007077
 21
190.098406395557
 31
0.0
  0
LINE
  5
942
102
{ACAD_REACTORS
330
938
102
}
330
18
100
AcDbEntity
  8
ROGO
 62
     4
100
AcDbLine
 10
235.2006024242466
 20
190.3261725413533
 30
0.0
 11
234.1180180811201
 21
189.1224095355308
 31
0.0
  0
SPLINE
  5
943
102
{ACAD_REACTORS
330
939
102
}
330
18
100
AcDbEntity
  8
ROGO
 62
     4
100
AcDbSpline
210
0.0
220
0.0
230
1.0
 70
     8
 71
     3
 72
    18
 73
    14
 74
     0
 42
0.0000000001
 43
0.0000000001
 40
0.1087402787915014
 40
0.1087402787915014
 40
0.1087402787915014
 40
0.1087402787915014
 40
0.5992371417938475
 40
1.083176791562496
 40
1.448211145705696
 40
1.714037220764907
 40
2.164002567013297
 40
2.740236056362883
 40
3.395137510199602
 40
4.071816045172726
 40
4.784906178399433
 40
5.506895915094292
 40
6.060470601257719
 40
6.060470601257719
 40
6.060470601257719
 40
6.060470601257719
 10
231.9761876635877
 20
190.6747479519603
 30
0.0
 10
232.0255131300782
 20
190.650372959769
 30
0.0
 10
232.1222106821911
 20
190.5996603721849
 30
0.0
 10
232.2356592808271
 20
190.4955114470565
 30
0.0
 10
232.2915492162505
 20
190.3833962452235
 30
0.0
 10
232.3450434747368
 20
190.2730970823851
 30
0.0
 10
232.3380701929191
 20
190.1239048135096
 30
0.0
 10
232.3029901303375
 20
189.938128911187
 30
0.0
 10
232.1861552250737
 20
189.7529644616007
 30
0.0
 10
232.0140661991762
 20
189.5985689987441
 30
0.0
 10
231.8085613855053
 20
189.4823188366594
 30
0.0
 10
231.5958378793846
 20
189.3966228637856
 30
0.0
 10
231.451969355256
 20
189.4110927789618
 30
0.0
 10
231.3895327023782
 20
189.4173724921687
 30
0.0
  0
LINE
  5
944
102
{ACAD_REACTORS
330
938
102
}
330
18
100
AcDbEntity
  8
ROGO
 62
     4
100
AcDbLine
 10
236.2449213146193
 20
190.2132764305744
 30
0.0
 11
236.683757944422
 21
188.8450401855102
 31
0.0
  0
SPLINE
  5
945
102
{ACAD_REACTORS
330
936
102
}
330
18
100
AcDbEntity
  8
ROGO
 62
     4
100
AcDbSpline
210
0.0
220
0.0
230
1.0
 70
     8
 71
     3
 72
    26
 73
    22
 74
    20
 42
0.0000000001
 43
0.0000000001
 44
0.0000000001
 40
0.0
 40
0.0
 40
0.0
 40
0.0
 40
0.2382195346592748
 40
0.3976890672662728
 40
0.5126795869788598
 40
0.5985392873135611
 40
0.7099038249249467
 40
0.7911890807496573
 40
0.9379713068542386
 40
1.057449928672903
 40
1.138714535892962
 40
1.218398644003344
 40
1.36093802187023
 40
1.461730374800155
 40
1.516014844107792
 40
1.593124329220214
 40
1.64880681859359
 40
1.72947236200559
 40
1.775122082164069
 40
1.874460993765123
 40
1.919820003751058
 40
1.919820003751058
 40
1.919820003751058
 40
1.919820003751058
 10
237.6504716241797
 20
190.0613293912971
 30
0.0
 10
237.5695661236306
 20
190.0652236042357
 30
0.0
 10
237.4345006551497
 20
190.0717246911994
 30
0.0
 10
237.2774730563301
 20
189.9981400779723
 30
0.0
 10
237.163889584844
 20
189.9577713676188
 30
0.0
 10
237.079246554369
 20
189.8953517043026
 30
0.0
 10
237.014909149676
 20
189.8283803190834
 30
0.0
 10
236.9343463804276
 20
189.7490065788691
 30
0.0
 10
236.8653649933215
 20
189.6538947473617
 30
0.0
 10
236.8237383129318
 20
189.5453458089673
 30
0.0
 10
236.7879383127092
 20
189.4591152665329
 30
0.0
 10
236.7577996365985
 20
189.3619679345596
 30
0.0
 10
236.7511469808714
 20
189.2542138872449
 30
0.0
 10
236.7474538084423
 20
189.153868752365
 30
0.0
 10
236.7713438167141
 20
189.0793697149955
 30
0.0
 10
236.8018308463542
 20
189.0248743876211
 30
0.0
 10
236.8398352597583
 20
188.9643753176333
 30
0.0
 10
236.8840230250409
 20
188.9222510852698
 30
0.0
 10
236.9166410359117
 20
188.8510677469974
 30
0.0
 10
236.9854703679129
 20
188.8349934083903
 30
0.0
 10
237.0279712923243
 20
188.813215518834
 30
0.0
 10
237.0412942193826
 20
188.8063887206394
 30
0.0
 11
237.6504716241797
 21
190.0613293912971
 31
0.0
 11
237.4125122876137
 21
190.0501983161313
 31
0.0
 11
237.2630211645351
 21
189.9946741236508
 31
0.0
 11
237.1576115891659
 21
189.9487215280305
 31
0.0
 11
237.0876598762936
 21
189.8989355259034
 31
0.0
 11
237.0075525269643
 21
189.8215735661245
 31
0.0
 11
236.9510177487907
 21
189.7631688431018
 31
0.0
 11
236.8663139881139
 21
189.6432926785509
 31
0.0
 11
236.8186005238742
 21
189.5337547106954
 31
0.0
 11
236.7888999729309
 21
189.4581120397993
 31
0.0
 11
236.7662906732592
 21
189.3817027690679
 31
0.0
 11
236.7509707113035
 21
189.2399890682188
 31
0.0
 11
236.7544300460446
 21
189.1392560973885
 31
0.0
 11
236.7703426112505
 21
189.0873562527203
 31
0.0
 11
236.8059977696086
 21
189.0189853350962
 31
0.0
 11
236.8368596535084
 21
188.9726379107344
 31
0.0
 11
236.8874637227834
 21
188.9098194575
 31
0.0
 11
236.9119999482285
 21
188.871324385199
 31
0.0
 11
237.0003603145359
 21
188.8259298368027
 31
0.0
 11
237.0412942193826
 21
188.8063887206394
 31
0.0
  0
LINE
  5
946
330
18
100
AcDbEntity
  8
針
  6
Continuous
100
AcDbLine
 10
238.4140118859664
 20
203.1949330187737
 30
0.0
 11
236.5911010491961
 21
181.6804455228554
 31
0.0
  0
LINE
  5
947
330
18
100
AcDbEntity
  8
針
  6
Continuous
100
AcDbLine
 10
238.4140118859662
 20
203.1949330187728
 30
0.0
 11
235.596893673172
 21
181.7879243275535
 31
0.0
  0
HATCH
  5
948
330
18
100
AcDbEntity
  8
ﾊｯﾁﾝｸ
  6
Continuous
100
AcDbHatch
 10
0.0
 20
0.0
 30
0.0
210
0.0
220
0.0
230
1.0
  2
SOLID
 70
     1
 71
     0
 91
        1
 92
        1
 93
        3
 72
     1
 10
238.4140118859664
 20
203.1949330187737
 11
236.5911010491962
 21
181.6804455228554
 72
     2
 10
235.9419993779126
 20
180.3281633702198
 40
1.499999999999999
 50
-655.6412206344873
 51
-616.6987793655084
 73
     1
 72
     1
 10
235.596893673172
 20
181.7879243275535
 11
238.4140118859662
 21
203.1949330187728
 97
        0
 75
     0
 76
     1
 98
        1
 10
11.23987857226169
 20
218.9582434860181
450
        0
451
        0
460
0.0
461
0.0
452
        0
462
0.0
453
        0
470

  0
SPLINE
  5
949
102
{ACAD_REACTORS
330
93A
102
}
330
18
100
AcDbEntity
  8
ROGO
 62
     4
100
AcDbSpline
210
0.0
220
0.0
230
1.0
 70
     8
 71
     3
 72
    26
 73
    22
 74
    20
 42
0.0000000001
 43
0.0000000001
 44
0.0000000001
 40
0.0
 40
0.0
 40
0.0
 40
0.0
 40
0.2382195346593004
 40
0.3976890672661942
 40
0.5126795869788614
 40
0.5985392873137176
 40
0.70990382492546
 40
0.7911890807496817
 40
0.9379713068547165
 40
1.05744992867349
 40
1.138714535893199
 40
1.218398644003522
 40
1.3609380218705
 40
1.46173037480051
 40
1.51601484410804
 40
1.59312432922054
 40
1.648806818593782
 40
1.729472362005387
 40
1.775122082164335
 40
1.874460993765249
 40
1.919820003751178
 40
1.919820003751178
 40
1.919820003751178
 40
1.919820003751178
 10
241.8570323989087
 20
189.6065790697242
 30
0.0
 10
241.7761268983596
 20
189.6104732826629
 30
0.0
 10
241.6410614298788
 20
189.6169743696269
 30
0.0
 10
241.4840338310593
 20
189.5433897563987
 30
0.0
 10
241.370450359573
 20
189.503021046046
 30
0.0
 10
241.2858073290979
 20
189.4406013827295
 30
0.0
 10
241.2214699244053
 20
189.3736299975099
 30
0.0
 10
241.1409071551563
 20
189.2942562572961
 30
0.0
 10
241.0719257680505
 20
189.1991444257883
 30
0.0
 10
241.0302990876607
 20
189.0905954873939
 30
0.0
 10
240.9944990874378
 20
189.0043649449598
 30
0.0
 10
240.9643604113273
 20
188.9072176129864
 30
0.0
 10
240.9577077556004
 20
188.7994635656717
 30
0.0
 10
240.9540145831713
 20
188.6991184307918
 30
0.0
 10
240.9779045914429
 20
188.6246193934222
 30
0.0
 10
241.0083916210832
 20
188.5701240660479
 30
0.0
 10
241.0463960344872
 20
188.5096249960603
 30
0.0
 10
241.0905837997695
 20
188.4675007636966
 30
0.0
 10
241.1232018106406
 20
188.3963174254244
 30
0.0
 10
241.192031142642
 20
188.3802430868174
 30
0.0
 10
241.2345320670531
 20
188.3584651972608
 30
0.0
 10
241.2478549941113
 20
188.351638399066
 30
0.0
 11
241.8570323989087
 21
189.6065790697242
 31
0.0
 11
241.6190730623426
 21
189.5954479945584
 31
0.0
 11
241.4695819392643
 21
189.5399238020776
 31
0.0
 11
241.3641723638949
 21
189.4939712064576
 31
0.0
 11
241.2942206510226
 21
189.4441852043302
 31
0.0
 11
241.2141133016933
 21
189.3668232445509
 31
0.0
 11
241.1575785235197
 21
189.3084185215288
 31
0.0
 11
241.0728747628428
 21
189.1885423569775
 31
0.0
 11
241.0251612986029
 21
189.0790043891219
 31
0.0
 11
240.9954607476596
 21
189.0033617182262
 31
0.0
 11
240.972851447988
 21
188.9269524474948
 31
0.0
 11
240.9575314860325
 21
188.7852387466456
 31
0.0
 11
240.9609908207736
 21
188.6845057758152
 31
0.0
 11
240.9769033859794
 21
188.6326059311471
 31
0.0
 11
241.0125585443377
 21
188.564235013523
 31
0.0
 11
241.0434204282374
 21
188.5178875891613
 31
0.0
 11
241.094024497512
 21
188.4550691359271
 31
0.0
 11
241.1185607229575
 21
188.4165740636259
 31
0.0
 11
241.2069210892648
 21
188.3711795152296
 31
0.0
 11
241.2478549941113
 21
188.351638399066
 31
0.0
  0
SPLINE
  5
94A
102
{ACAD_REACTORS
330
93B
102
}
330
18
100
AcDbEntity
  8
ROGO
 62
     4
100
AcDbSpline
210
0.0
220
0.0
230
1.0
 70
     8
 71
     3
 72
    25
 73
    21
 74
     0
 42
0.0000000001
 43
0.0000000001
 40
0.0
 40
0.0
 40
0.0
 40
0.0
 40
0.4087168505087288
 40
0.6887487002771746
 40
0.9415836120477687
 40
1.17452070575514
 40
1.41154617586699
 40
1.599156012919487
 40
1.80099909059943
 40
2.178735911501585
 40
2.521686161369157
 40
2.762704659361267
 40
3.06256558063785
 40
3.222432137207705
 40
3.399493810628493
 40
3.567459719866414
 40
3.743172740007509
 40
3.995988754699505
 40
4.17170091132118
 40
4.337226830236035
 40
4.337226830236035
 40
4.337226830236035
 40
4.337226830236035
 10
240.4295870585576
 20
189.7664022031638
 30
0.0
 10
240.4783520298902
 20
189.759539861915
 30
0.0
 10
240.5605282616328
 20
189.747975795961
 30
0.0
 10
240.6415812752088
 20
189.6692053379254
 30
0.0
 10
240.7031226290234
 20
189.6045102300299
 30
0.0
 10
240.7437096910537
 20
189.5299522886636
 30
0.0
 10
240.7789635779864
 20
189.4616233354254
 30
0.0
 10
240.7994573099654
 20
189.3912918752399
 30
0.0
 10
240.8284995177783
 20
189.3064193231411
 30
0.0
 10
240.8324525088557
 20
189.1966454491802
 30
0.0
 10
240.8098107589186
 20
189.0860734020626
 30
0.0
 10
240.7715363062867
 20
188.9900294643624
 30
0.0
 10
240.734405550133
 20
188.9171865167023
 30
0.0
 10
240.6931724969329
 20
188.8547352573212
 30
0.0
 10
240.6479113081112
 20
188.8163047920613
 30
0.0
 10
240.6138363820367
 20
188.7649031476405
 30
0.0
 10
240.5548748589549
 20
188.7262203539127
 30
0.0
 10
240.5050399006007
 20
188.6760139584448
 30
0.0
 10
240.4501300496515
 20
188.6342332352331
 30
0.0
 10
240.4189004584735
 20
188.6081686487941
 30
0.0
 10
240.4027713545151
 20
188.5975338382041
 30
0.0
  0
LINE
  5
94B
102
{ACAD_REACTORS
330
8BD
102
}
330
18
100
AcDbEntity
  8
ROGO
 62
     4
100
AcDbLine
 10
243.4378852303503
 20
189.4356809484426
 30
0.0
 11
242.2001453444236
 21
187.5056530410726
 31
0.0
  0
TEXT
  5
94C
330
18
100
AcDbEntity
  8
文字
100
AcDbText
 10
220.9454966984149
 20
191.4629185605896
 30
0.0
 40
2.0
  1
.3
 50
353.8300000000002
  7
STYLE3
100
AcDbText
  0
HATCH
  5
94D
330
18
100
AcDbEntity
  8
ROGO
 62
     4
100
AcDbHatch
 10
0.0
 20
0.0
 30
0.0
210
0.0
220
0.0
230
1.0
  2
SOLID
 70
     1
 71
     0
 91
        1
 92
        7
 72
     0
 73
     1
 93
        4
 10
230.2060200516804
 20
189.0091466704713
 10
230.0914028379828
 20
188.8146688484109
 10
242.2001453444235
 20
187.5056530410725
 10
242.3242102841003
 20
187.6991095165607
 97
        0
 75
     0
 76
     1
 47
0.0514683685270805
 98
        1
 10
237.8518274487197
 20
188.1278831380142
450
        0
451
        0
460
0.0
461
0.0
452
        0
462
0.0
453
        0
470

  0
LINE
  5
94E
330
18
100
AcDbEntity
  8
ROGO
 62
     4
100
AcDbLine
 10
230.1918392275482
 20
189.0106796886968
 30
0.0
 11
242.3242102841003
 21
187.6991095165607
 31
0.0
  0
LINE
  5
94F
102
{ACAD_REACTORS
330
8BD
330
939
102
}
330
18
100
AcDbEntity
  8
ROGO
 62
     4
100
AcDbLine
 10
229.1431268923319
 20
188.9171822350748
 30
0.0
 11
242.951849378113
 21
187.4243900641765
 31
0.0
  0
TEXT
  5
950
330
18
100
AcDbEntity
  8
文字
100
AcDbText
 10
241.1019013354547
 20
179.378639596742
 30
0.0
 40
1.0
  1
0.01mm
 50
353.8300000000002
  7
STYLE3
100
AcDbText
  0
LINE
  5
951
330
18
100
AcDbEntity
  8
目盛
100
AcDbLine
 10
229.5948987214398
 20
174.7508656971346
 30
0.0
 11
229.8436128483454
 21
174.3171131373988
 31
0.0
  0
LINE
  5
952
102
{ACAD_REACTORS
330
939
102
}
330
18
100
AcDbEntity
  8
ROGO
 62
     4
100
AcDbLine
 10
230.5030891856372
 20
189.5132014830907
 30
0.0
 11
230.0914028379827
 21
188.8146688484109
 31
0.0
  0
LINE
  5
953
102
{ACAD_REACTORS
330
939
102
}
330
18
100
AcDbEntity
  8
ROGO
 62
     4
100
AcDbLine
 10
230.9518987030605
 20
190.2747232009258
 30
0.0
 11
230.7572821992604
 21
189.9445058402429
 31
0.0
  0
LINE
  5
954
102
{ACAD_REACTORS
330
939
102
}
330
18
100
AcDbEntity
  8
ROGO
 62
     4
100
AcDbLine
 10
231.3555339721331
 20
190.23108820354
 30
0.0
 11
230.9518987030605
 21
190.2747232009258
 31
0.0
  0
LINE
  5
955
102
{ACAD_REACTORS
330
939
102
}
330
18
100
AcDbEntity
  8
ROGO
 62
     4
100
AcDbLine
 10
231.2470846757056
 20
189.8915557354899
 30
0.0
 11
230.7572821992604
 21
189.9445058402429
 31
0.0
  0
SPLINE
  5
956
102
{ACAD_REACTORS
330
939
102
}
330
18
100
AcDbEntity
  8
ROGO
 62
     4
100
AcDbSpline
210
0.0
220
0.0
230
1.0
 70
     8
 71
     3
 72
    15
 73
    11
 74
     9
 42
0.0000000001
 43
0.0000000001
 44
0.0000000001
 40
0.0
 40
0.0
 40
0.0
 40
0.0
 40
0.1539705029172635
 40
0.2241725832585718
 40
0.3038566179395628
 40
0.3581410872474978
 40
0.44399253846701
 40
0.4954152125467842
 40
0.5836396705644774
 40
0.6130478420063669
 40
0.6130478420063669
 40
0.6130478420063669
 40
0.6130478420063669
 10
231.3555339721331
 20
190.23108820354
 30
0.0
 10
231.4130557988768
 20
190.2251362334755
 30
0.0
 10
231.4968044146868
 20
190.2164704924436
 30
0.0
 10
231.5313846315658
 20
190.1079760808078
 30
0.0
 10
231.5036594270712
 20
190.0435267170797
 30
0.0
 10
231.4704670494049
 20
189.9778683456521
 30
0.0
 10
231.4198570487715
 20
189.9362854084379
 30
0.0
 10
231.3538365259143
 20
189.8981014966395
 30
0.0
 10
231.2954344423978
 20
189.8989287374032
 30
0.0
 10
231.256754632747
 20
189.8930303364375
 30
0.0
 10
231.2470846757055
 20
189.8915557354902
 30
0.0
 11
231.3555339721331
 21
190.23108820354
 31
0.0
 11
231.5006263625305
 21
190.1795604050487
 31
0.0
 11
231.5220986105679
 21
190.1127227311778
 31
0.0
 11
231.499489718674
 21
190.0363134163636
 31
0.0
 11
231.4728531451381
 21
189.9890133470369
 31
0.0
 11
231.4092267079151
 21
189.9313752679329
 31
0.0
 11
231.3636135667938
 21
189.9076322107044
 31
0.0
 11
231.2762169047206
 21
189.8955749120438
 31
0.0
 11
231.2470846757055
 21
189.8915557354902
 31
0.0
  0
LINE
  5
957
102
{ACAD_REACTORS
330
939
102
}
330
18
100
AcDbEntity
  8
ROGO
 62
     4
100
AcDbLine
 10
231.3895327026855
 20
189.4173724921355
 30
0.0
 11
230.5030891856372
 21
189.5132014830907
 31
0.0
  0
CIRCLE
  5
958
330
18
100
AcDbEntity
  8
外形線
100
AcDbCircle
 10
235.9419993779123
 20
180.3281633702198
 30
0.0
 40
1.5
  0
LINE
  5
959
330
18
100
AcDbEntity
  8
目盛
100
AcDbLine
 10
232.4682072493602
 20
175.3527014157575
 30
0.0
 11
232.4144678470112
 21
174.8555977277455
 31
0.0
  0
TEXT
  5
95A
330
18
100
AcDbEntity
  8
文字
100
AcDbText
 10
233.762474539124
 20
172.824582770654
 30
0.0
 40
0.7
  1
2
 50
353.8300000000002
  7
STYLE3
100
AcDbText
  0
TEXT
  5
95B
330
18
100
AcDbEntity
  8
文字
100
AcDbText
 10
231.9749823120937
 20
173.7176223186504
 30
0.0
 40
0.7
  1
0
 50
353.8300000000002
  7
STYLE3
100
AcDbText
  0
LINE
  5
95C
330
18
100
AcDbEntity
  8
目盛
100
AcDbLine
 10
235.1465128382396
 20
174.1507083619475
 30
0.0
 11
234.8108465317982
 21
173.780130258547
 31
0.0
  0
POINT
  5
95D
330
18
100
AcDbEntity
  8
DEFPOINTS
  6
ByBlock
 62
     0
100
AcDbPoint
 10
235.9419993779126
 20
180.3281633702198
 30
0.0
  0
POINT
  5
95E
330
18
100
AcDbEntity
  8
DEFPOINTS
  6
ByBlock
 62
     0
100
AcDbPoint
 10
235.9419993779126
 20
180.3281633702198
 30
0.0
  0
TEXT
  5
95F
330
18
100
AcDbEntity
  8
文字
100
AcDbText
 10
230.1140417613542
 20
173.1582915134604
 30
0.0
 40
0.7
  1
8
 50
353.8300000000002
  7
STYLE3
100
AcDbText
  0
SPLINE
  5
960
102
{ACAD_REACTORS
330
936
102
}
330
18
100
AcDbEntity
  8
ROGO
 62
     4
100
AcDbSpline
210
0.0
220
0.0
230
1.0
 70
     8
 71
     3
 72
    16
 73
    12
 74
    10
 42
0.0000000001
 43
0.0000000001
 44
0.0000000001
 40
0.0
 40
0.0
 40
0.0
 40
0.0
 40
0.1255907025627211
 40
0.1869327038469508
 40
0.2171823804789465
 40
0.2490606136882882
 40
0.2947101524736833
 40
0.3362763310928141
 40
0.3796288870081462
 40
0.4523125795607465
 40
0.5242542460843474
 40
0.5242542460843474
 40
0.5242542460843474
 40
0.5242542460843474
 10
237.8461641505163
 20
189.5487523743431
 30
0.0
 10
237.8031829046938
 20
189.5468769905716
 30
0.0
 10
237.7392084198604
 20
189.5440856170701
 30
0.0
 10
237.6774238580486
 20
189.5051857084034
 30
0.0
 10
237.6424306581962
 20
189.4818521005633
 30
0.0
 10
237.6276743749027
 20
189.447537321459
 30
0.0
 10
237.5954027802264
 20
189.4234526695126
 30
0.0
 10
237.5671811838937
 20
189.3886088752391
 30
0.0
 10
237.5558476271748
 20
189.3377851184971
 30
0.0
 10
237.5522791834241
 20
189.2651280865635
 30
0.0
 10
237.6012908763968
 20
189.2447619510221
 30
0.0
 10
237.6256709912959
 20
189.2346311292849
 30
0.0
 11
237.8461641505163
 21
189.5487523743431
 31
0.0
 11
237.7220932746498
 21
189.5292730947901
 31
0.0
 11
237.668622498856
 21
189.4992112043378
 31
0.0
 11
237.6450499277003
 21
189.4802539675811
 31
0.0
 11
237.6278026072216
 21
189.4534444228469
 31
0.0
 11
237.5956064007987
 21
189.4210826447237
 31
0.0
 11
237.5705018284529
 21
189.3879539916824
 31
0.0
 11
237.5588141908058
 21
189.3462066177455
 31
0.0
 11
237.5653375029543
 21
189.2738162484849
 31
0.0
 11
237.6256709912959
 21
189.2346311292849
 31
0.0
  0
LINE
  5
961
102
{ACAD_REACTORS
330
936
102
}
330
18
100
AcDbEntity
  8
ROGO
 62
     4
100
AcDbLine
 10
237.6256709912956
 20
189.2346311292849
 30
0.0
 11
238.4604880557541
 21
189.1443832168342
 31
0.0
  0
LINE
  5
962
102
{ACAD_REACTORS
330
936
102
}
330
18
100
AcDbEntity
  8
ROGO
 62
     4
100
AcDbLine
 10
237.0412942193823
 20
188.8063887206392
 30
0.0
 11
238.1657716085971
 21
188.6848270740277
 31
0.0
  0
LINE
  5
963
102
{ACAD_REACTORS
330
938
102
}
330
18
100
AcDbEntity
  8
ROGO
 62
     4
100
AcDbLine
 10
235.0471700237128
 20
189.2734348985881
 30
0.0
 11
235.872239847155
 21
189.184240711787
 31
0.0
  0
LINE
  5
964
102
{ACAD_REACTORS
330
938
102
}
330
18
100
AcDbEntity
  8
ROGO
 62
     4
100
AcDbLine
 10
235.6342578112073
 20
189.9262381321124
 30
0.0
 11
235.2645682195499
 21
189.5151674779871
 31
0.0
  0
LINE
  5
965
102
{ACAD_REACTORS
330
938
102
}
330
18
100
AcDbEntity
  8
ROGO
 62
     4
100
AcDbLine
 10
235.2645682195499
 20
189.5151674779872
 30
0.0
 11
235.7841152662
 21
189.4590018359845
 31
0.0
  0
LINE
  5
966
102
{ACAD_REACTORS
330
938
102
}
330
18
100
AcDbEntity
  8
ROGO
 62
     4
100
AcDbLine
 10
235.6342578112073
 20
189.9262381321124
 30
0.0
 11
235.7841152662001
 21
189.4590018359843
 31
0.0
  0
LINE
  5
967
102
{ACAD_REACTORS
330
937
102
}
330
18
100
AcDbEntity
  8
ROGO
 62
     4
100
AcDbLine
 10
234.3678127966735
 20
189.8770860118151
 30
0.0
 11
234.2232574696035
 21
189.6501426915824
 31
0.0
  0
LINE
  5
968
102
{ACAD_REACTORS
330
937
102
}
330
18
100
AcDbEntity
  8
ROGO
 62
     4
100
AcDbLine
 10
233.5807292868828
 20
190.1987340358853
 30
0.0
 11
233.4397555828486
 21
189.9774136521434
 31
0.0
  0
LINE
  5
969
102
{ACAD_REACTORS
330
937
102
}
330
18
100
AcDbEntity
  8
ROGO
 62
     4
100
AcDbLine
 10
233.5807292868828
 20
190.1987340358853
 30
0.0
 11
234.5087865007077
 21
190.098406395557
 31
0.0
  0
LINE
  5
96A
102
{ACAD_REACTORS
330
937
102
}
330
18
100
AcDbEntity
  8
ROGO
 62
     4
100
AcDbLine
 10
233.4397555828486
 20
189.9774136521434
 30
0.0
 11
234.3678127966735
 21
189.8770860118151
 31
0.0
  0
LINE
  5
96B
102
{ACAD_REACTORS
330
937
102
}
330
18
100
AcDbEntity
  8
ROGO
 62
     4
100
AcDbLine
 10
232.1361899699962
 20
189.3366550960017
 30
0.0
 11
233.901984936651
 21
189.1457638021585
 31
0.0
  0
LINE
  5
96C
102
{ACAD_REACTORS
330
937
102
}
330
18
100
AcDbEntity
  8
ROGO
 62
     4
100
AcDbLine
 10
233.1542205835951
 20
189.5291405785273
 30
0.0
 11
234.0822777974202
 21
189.4288129381992
 31
0.0
  0
LINE
  5
96D
102
{ACAD_REACTORS
330
937
102
}
330
18
100
AcDbEntity
  8
ROGO
 62
     4
100
AcDbLine
 10
233.2952002557783
 20
189.7504703319103
 30
0.0
 11
234.2232574696035
 21
189.6501426915824
 31
0.0
  0
LINE
  5
96E
102
{ACAD_REACTORS
330
937
102
}
330
18
100
AcDbEntity
  8
ROGO
 62
     4
100
AcDbLine
 10
234.0822777974202
 20
189.4288129381992
 30
0.0
 11
233.901984936651
 21
189.1457638021585
 31
0.0
  0
LINE
  5
96F
102
{ACAD_REACTORS
330
937
102
}
330
18
100
AcDbEntity
  8
ROGO
 62
     4
100
AcDbLine
 10
233.2952002557783
 20
189.7504703319103
 30
0.0
 11
233.154220583595
 21
189.5291405785272
 31
0.0
  0
LINE
  5
970
102
{ACAD_REACTORS
330
938
102
}
330
18
100
AcDbEntity
  8
ROGO
 62
     4
100
AcDbLine
 10
235.0471700237128
 20
189.2734348985881
 30
0.0
 11
234.8410526629451
 21
189.0442458701993
 31
0.0
  0
LINE
  5
971
102
{ACAD_REACTORS
330
938
102
}
330
18
100
AcDbEntity
  8
ROGO
 62
     4
100
AcDbLine
 10
234.1180180811201
 20
189.1224095355308
 30
0.0
 11
234.8410526629451
 21
189.0442458701992
 31
0.0
  0
LINE
  5
972
102
{ACAD_REACTORS
330
938
102
}
330
18
100
AcDbEntity
  8
ROGO
 62
     4
100
AcDbLine
 10
235.872239847155
 20
189.184240711787
 30
0.0
 11
235.9557916263004
 21
188.923736996275
 31
0.0
  0
LINE
  5
973
102
{ACAD_REACTORS
330
938
102
}
330
18
100
AcDbEntity
  8
ROGO
 62
     4
100
AcDbLine
 10
236.683757944422
 20
188.8450401855102
 30
0.0
 11
235.9557916263004
 21
188.923736996275
 31
0.0
  0
SPLINE
  5
974
102
{ACAD_REACTORS
330
93A
102
}
330
18
100
AcDbEntity
  8
ROGO
 62
     4
100
AcDbSpline
210
0.0
220
0.0
230
1.0
 70
     8
 71
     3
 72
    16
 73
    12
 74
    10
 42
0.0000000001
 43
0.0000000001
 44
0.0000000001
 40
0.0
 40
0.0
 40
0.0
 40
0.0
 40
0.1255907025627299
 40
0.1869327038468977
 40
0.2171823804790176
 40
0.2490606136882738
 40
0.2947101524736483
 40
0.3362763310930228
 40
0.3796288870081218
 40
0.4523125795608172
 40
0.52425424608407
 40
0.52425424608407
 40
0.52425424608407
 40
0.52425424608407
 10
242.0527249252451
 20
189.0940020527703
 30
0.0
 10
242.0097436794225
 20
189.0921266689988
 30
0.0
 10
241.945769194589
 20
189.0893352954974
 30
0.0
 10
241.8839846327777
 20
189.0504353868301
 30
0.0
 10
241.8489914329251
 20
189.0271017789902
 30
0.0
 10
241.8342351496319
 20
188.9927869998858
 30
0.0
 10
241.8019635549551
 20
188.9687023479396
 30
0.0
 10
241.7737419586227
 20
188.9338585536659
 30
0.0
 10
241.7624084019041
 20
188.8830347969239
 30
0.0
 10
241.7588399581533
 20
188.8103777649905
 30
0.0
 10
241.8078516511259
 20
188.790011629449
 30
0.0
 10
241.8322317660248
 20
188.7798808077118
 30
0.0
 11
242.0527249252451
 21
189.0940020527703
 31
0.0
 11
241.9286540493786
 21
189.0745227732172
 31
0.0
 11
241.875183273585
 21
189.0444608827647
 31
0.0
 11
241.8516107024292
 21
189.0255036460079
 31
0.0
 11
241.8343633819506
 21
188.9986941012737
 31
0.0
 11
241.8021671755276
 21
188.9663323231507
 31
0.0
 11
241.7770626031818
 21
188.9332036701091
 31
0.0
 11
241.7653749655349
 21
188.8914562961724
 31
0.0
 11
241.7718982776835
 21
188.8190659269117
 31
0.0
 11
241.8322317660248
 21
188.7798808077118
 31
0.0
  0
LINE
  5
975
102
{ACAD_REACTORS
330
93A
102
}
330
18
100
AcDbEntity
  8
ROGO
 62
     4
100
AcDbLine
 10
242.6670488304832
 20
188.689632895261
 30
0.0
 11
242.372332383326
 21
188.2300767524546
 31
0.0
  0
LINE
  5
976
102
{ACAD_REACTORS
330
93A
102
}
330
18
100
AcDbEntity
  8
ROGO
 62
     4
100
AcDbLine
 10
241.8322317660249
 20
188.779880807712
 30
0.0
 11
242.6670488304832
 21
188.689632895261
 31
0.0
  0
LINE
  5
977
102
{ACAD_REACTORS
330
93A
102
}
330
18
100
AcDbEntity
  8
ROGO
 62
     4
100
AcDbLine
 10
242.0527249252451
 20
189.0940020527703
 30
0.0
 11
242.8697316618134
 21
189.0056795261081
 31
0.0
  0
LINE
  5
978
102
{ACAD_REACTORS
330
8BD
102
}
330
18
100
AcDbEntity
  8
ROGO
 62
     4
100
AcDbLine
 10
243.2749134826599
 20
187.9281491695707
 30
0.0
 11
242.951849378113
 21
187.4243900641765
 31
0.0
  0
LINE
  5
979
102
{ACAD_REACTORS
330
8BD
102
}
330
18
100
AcDbEntity
  8
ROGO
 62
     4
100
AcDbLine
 10
243.2749134826599
 20
187.9281491695707
 30
0.0
 11
243.4828541242142
 21
187.3669857873867
 31
0.0
  0
LINE
  5
97A
102
{ACAD_REACTORS
330
93B
102
}
330
18
100
AcDbEntity
  8
ROGO
 62
     4
100
AcDbLine
 10
239.159698450626
 20
188.577378596462
 30
0.0
 11
239.9058051770024
 21
188.4967207165648
 31
0.0
  0
SPLINE
  5
97B
102
{ACAD_REACTORS
330
93B
102
}
330
18
100
AcDbEntity
  8
ROGO
 62
     4
100
AcDbSpline
210
0.0
220
0.0
230
1.0
 70
     8
 71
     3
 72
    11
 73
     7
 74
     0
 42
0.0000000001
 43
0.0000000001
 40
0.1647869275458134
 40
0.1647869275458134
 40
0.1647869275458134
 40
0.1647869275458134
 40
0.2895635144633836
 40
0.5387013147903714
 40
0.7953622617455423
 40
0.8850764140209602
 40
0.8850764140209602
 40
0.8850764140209602
 40
0.8850764140209602
 10
240.1575209760149
 20
188.4989559984191
 30
0.0
 10
240.1432052128586
 20
188.4965900014845
 30
0.0
 10
240.099370690537
 20
188.4943607807268
 30
0.0
 10
240.0260706592433
 20
188.492717064672
 30
0.0
 10
239.9563074757911
 20
188.4902744484998
 30
0.0
 10
239.9161947266373
 20
188.4953945626347
 30
0.0
 10
239.9058051770025
 20
188.4967207165648
 30
0.0
  0
SPLINE
  5
97C
102
{ACAD_REACTORS
330
93B
102
}
330
18
100
AcDbEntity
  8
ROGO
 62
     4
100
AcDbSpline
210
0.0
220
0.0
230
1.0
 70
     8
 71
     3
 72
     9
 73
     5
 74
     3
 42
0.0000000001
 43
0.0000000001
 44
0.0000000001
 40
0.0
 40
0.0
 40
0.0
 40
0.0
 40
0.1135793343549316
 40
0.2662938392176055
 40
0.2662938392176055
 40
0.2662938392176055
 40
0.2662938392176055
 10
240.1575209760149
 20
188.4989559984191
 30
0.0
 10
240.1949943155616
 20
188.5061323181214
 30
0.0
 10
240.2828528992809
 20
188.522957647622
 30
0.0
 10
240.3590650947861
 20
188.5703533149993
 30
0.0
 10
240.4027713545151
 20
188.5975338382041
 30
0.0
 11
240.1575209760149
 21
188.4989559984191
 31
0.0
 11
240.2678223034552
 21
188.5260462615669
 31
0.0
 11
240.4027713545151
 21
188.5975338382041
 31
0.0
  0
ELLIPSE
  5
97D
102
{ACAD_REACTORS
330
93B
102
}
330
18
100
AcDbEntity
  8
ROGO
 62
     4
100
AcDbEllipse
 10
239.782101784988
 20
189.1547541067795
 30
0.0
 11
0.1941024022166235
 21
0.1367091024292676
 31
0.0
210
0.0
220
0.0
230
1.0
 40
0.678808341743879
 41
0.0
 42
6.283185307179586
  0
LINE
  5
97E
102
{ACAD_REACTORS
330
936
102
}
330
18
100
AcDbEntity
  8
ROGO
 62
     4
100
AcDbLine
 10
238.4604880557541
 20
189.1443832168342
 30
0.0
 11
238.1657716085971
 21
188.6848270740277
 31
0.0
  0
LINE
  5
97F
102
{ACAD_REACTORS
330
936
102
}
330
18
100
AcDbEntity
  8
ROGO
 62
     4
100
AcDbLine
 10
237.8461641505162
 20
189.5487523743434
 30
0.0
 11
238.6631708870845
 21
189.4604298476812
 31
0.0
  0
LINE
  5
980
102
{ACAD_REACTORS
330
93A
102
}
330
18
100
AcDbEntity
  8
ROGO
 62
     4
100
AcDbLine
 10
241.2478549941113
 20
188.351638399066
 30
0.0
 11
242.3723323833261
 21
188.2300767524546
 31
0.0
  0
LINE
  5
981
102
{ACAD_REACTORS
330
939
102
}
330
18
100
AcDbEntity
  8
ROGO
 62
     4
100
AcDbLine
 10
230.3730299469914
 20
190.8480573432175
 30
0.0
 11
231.9761876635877
 21
190.6747479519603
 31
0.0
  0
TEXT
  5
982
330
18
100
AcDbEntity
  8
文字
100
AcDbText
 10
230.416013989715
 20
197.0174302868001
 30
0.0
 40
2.0
  1
.1
 50
353.8300000000002
  7
STYLE3
100
AcDbText
  0
LINE
  5
983
330
18
100
AcDbEntity
  8
目盛
100
AcDbLine
 10
232.6496147035894
 20
203.0912959129144
 30
0.0
 11
232.9359090230954
 21
201.1118930831151
 31
0.0
  0
LINE
  5
984
330
18
100
AcDbEntity
  8
目盛
100
AcDbLine
 10
225.1335217780619
 20
200.6303014835696
 30
0.0
 11
226.0733893954403
 21
198.8648981693651
 31
0.0
  0
LINE
  5
985
330
18
100
AcDbEntity
  8
目盛
100
AcDbLine
 10
226.4296316393364
 20
201.2689097754007
 30
0.0
 11
227.2567940513865
 21
199.4479753053851
 31
0.0
  0
LINE
  5
986
330
18
100
AcDbEntity
  8
目盛
100
AcDbLine
 10
225.7765606783448
 20
200.9597860898542
 30
0.0
 11
226.6605118696117
 21
199.1657319403208
 31
0.0
  0
LINE
  5
987
330
18
100
AcDbEntity
  8
目盛
100
AcDbLine
 10
227.0920901588435
 20
201.5573674724522
 30
0.0
 11
227.8616474822409
 21
199.7113497244319
 31
0.0
  0
LINE
  5
988
330
18
100
AcDbEntity
  8
目盛
100
AcDbLine
 10
227.7632824702876
 20
201.8248745080878
 30
0.0
 11
228.8300716321518
 21
199.0209556640179
 31
0.0
  0
TEXT
  5
989
330
18
100
AcDbEntity
  8
文字
100
AcDbText
 10
225.1017677136645
 20
195.3434271755615
 30
0.0
 40
2.0
  1
.2
 50
353.8300000000002
  7
STYLE3
100
AcDbText
  0
LINE
  5
98A
330
18
100
AcDbEntity
  8
目盛
100
AcDbLine
 10
222.6742172342574
 20
199.1155516130945
 30
0.0
 11
223.8279374206622
 21
197.4818656789315
 31
0.0
  0
LINE
  5
98B
330
18
100
AcDbEntity
  8
目盛
100
AcDbLine
 10
223.8800680399503
 20
199.9115699277696
 30
0.0
 11
224.9289316345557
 21
198.2086650097218
 31
0.0
  0
LINE
  5
98C
330
18
100
AcDbEntity
  8
目盛
100
AcDbLine
 10
224.5011495402466
 20
200.2807811180738
 30
0.0
 11
225.9934343016813
 21
197.6782657596581
 31
0.0
  0
LINE
  5
98D
330
18
100
AcDbEntity
  8
目盛
100
AcDbLine
 10
222.0906379580218
 20
198.6895300626955
 30
0.0
 11
223.2951041684469
 21
197.0928894807411
 31
0.0
  0
LINE
  5
98E
330
18
100
AcDbEntity
  8
目盛
100
AcDbLine
 10
223.27089020963
 20
199.5230322795265
 30
0.0
 11
224.3727257894805
 21
197.8539132439345
 31
0.0
  0
LINE
  5
98F
330
18
100
AcDbEntity
  8
目盛
100
AcDbLine
 10
221.5207283032122
 20
198.245388060166
 30
0.0
 11
223.4017636607819
 21
195.9083587527816
 31
0.0
  0
LINE
  5
990
330
18
100
AcDbEntity
  8
目盛
100
AcDbLine
 10
220.4241535406468
 20
197.3045134069874
 30
0.0
 11
221.7735314395396
 21
195.8283090559642
 31
0.0
  0
LINE
  5
991
330
18
100
AcDbEntity
  8
目盛
100
AcDbLine
 10
220.9650507018523
 20
197.7835639200399
 30
0.0
 11
222.267394064988
 21
196.2657030026641
 31
0.0
  0
LINE
  5
992
330
18
100
AcDbEntity
  8
目盛
100
AcDbLine
 10
219.8985706197907
 20
196.8087092860282
 30
0.0
 11
221.2936513813664
 21
195.3756183368274
 31
0.0
  0
LINE
  5
993
330
18
100
AcDbEntity
  8
目盛
100
AcDbLine
 10
229.129210960373
 20
202.2960015428265
 30
0.0
 11
229.721627344507
 21
200.3857547452085
 31
0.0
  0
LINE
  5
994
330
18
100
AcDbEntity
  8
目盛
100
AcDbLine
 10
229.822599132505
 20
202.4991565964267
 30
0.0
 11
230.3547208929753
 21
200.5712441419741
 31
0.0
  0
LINE
  5
995
330
18
100
AcDbEntity
  8
目盛
100
AcDbLine
 10
228.4425461878907
 20
202.0711668851595
 30
0.0
 11
229.0946725522406
 21
200.1804709273387
 31
0.0
  0
LINE
  5
996
330
18
100
AcDbEntity
  8
目盛
100
AcDbLine
 10
230.5220264138754
 20
202.6804315564489
 30
0.0
 11
230.9933284107483
 21
200.7367560619941
 31
0.0
  0
LINE
  5
997
330
18
100
AcDbEntity
  8
目盛
100
AcDbLine
 10
231.2268025541998
 20
202.8396475263935
 30
0.0
 11
231.8418282268577
 21
199.9033669842838
 31
0.0
  0
LINE
  5
998
330
18
100
AcDbEntity
  8
目盛
100
AcDbLine
 10
231.9362320245168
 20
202.9766473793201
 30
0.0
 11
232.2845596204643
 21
201.0072139872244
 31
0.0
  0
TEXT
  5
999
330
18
100
AcDbEntity
  8
文字
100
AcDbText
 10
236.7846148839187
 20
197.2570681876409
 30
0.0
 40
2.0
  1
0
 50
353.8300000000002
  7
STYLE3
100
AcDbText
  0
LINE
  5
99A
102
{ACAD_REACTORS
330
936
102
}
330
18
100
AcDbEntity
  8
ROGO
 62
     4
100
AcDbLine
 10
237.6504716241799
 20
190.0613293912971
 30
0.0
 11
238.9578904552414
 21
189.9199908571132
 31
0.0
  0
LINE
  5
99B
102
{ACAD_REACTORS
330
938
102
}
330
18
100
AcDbEntity
  8
ROGO
 62
     4
100
AcDbLine
 10
235.2006024242466
 20
190.3261725413533
 30
0.0
 11
236.2449213146193
 21
190.2132764305744
 31
0.0
  0
LINE
  5
99C
102
{ACAD_REACTORS
330
937
102
}
330
18
100
AcDbEntity
  8
ROGO
 62
     4
100
AcDbLine
 10
232.92329346421
 20
190.5723610638439
 30
0.0
 11
234.689088430865
 21
190.3814697700006
 31
0.0
  0
LINE
  5
99D
102
{ACAD_REACTORS
330
93A
102
}
330
18
100
AcDbEntity
  8
ROGO
 62
     4
100
AcDbLine
 10
241.8570323989089
 20
189.606579069724
 30
0.0
 11
243.1644512299704
 21
189.4652405355401
 31
0.0
  0
TEXT
  5
99E
330
18
100
AcDbEntity
  8
文字
100
AcDbText
 10
241.3543221618816
 20
195.9842562972877
 30
0.0
 40
2.0
  1
.9
 50
353.8300000000002
  7
STYLE3
100
AcDbText
  0
LINE
  5
99F
102
{ACAD_REACTORS
330
93B
102
}
330
18
100
AcDbEntity
  8
ROGO
 62
     4
100
AcDbLine
 10
239.6834803321811
 20
189.8470600830608
 30
0.0
 11
240.4295870585576
 21
189.7664022031638
 31
0.0
  0
LINE
  5
9A0
330
18
100
AcDbEntity
  8
目盛
100
AcDbLine
 10
239.1310546893444
 20
203.1060018589928
 30
0.0
 11
238.8537455318286
 21
201.1253202512733
 31
0.0
  0
LINE
  5
9A1
330
18
100
AcDbEntity
  8
目盛
100
AcDbLine
 10
238.4140118859664
 20
203.1949330187737
 30
0.0
 11
238.0915754718724
 21
200.2123108907015
 31
0.0
  0
LINE
  5
9A2
330
18
100
AcDbEntity
  8
目盛
100
AcDbLine
 10
233.366246568841
 20
203.1834799829155
 30
0.0
 11
233.5902250739777
 21
201.1960611470288
 31
0.0
  0
LINE
  5
9A3
330
18
100
AcDbEntity
  8
目盛
100
AcDbLine
 10
234.806426432753
 20
203.3001130934414
 30
0.0
 11
234.9545446429913
 21
200.3037718251951
 31
0.0
  0
LINE
  5
9A4
330
18
100
AcDbEntity
  8
目盛
100
AcDbLine
 10
236.2510878842857
 20
203.3260864132954
 30
0.0
 11
236.2242106228619
 21
201.3262670182453
 31
0.0
  0
LINE
  5
9A5
330
18
100
AcDbEntity
  8
目盛
100
AcDbLine
 10
237.6945295046927
 20
203.26129743765
 30
0.0
 11
237.5421355806248
 21
201.2671118665691
 31
0.0
  0
LINE
  5
9A6
330
18
100
AcDbEntity
  8
目盛
100
AcDbLine
 10
235.5285531477628
 20
203.3244470311677
 30
0.0
 11
235.5645049938626
 21
201.3247701910851
 31
0.0
  0
LINE
  5
9A7
330
18
100
AcDbEntity
  8
目盛
100
AcDbLine
 10
234.0854203911406
 20
203.2531086147756
 30
0.0
 11
234.2468620421643
 21
201.2596351152491
 31
0.0
  0
LINE
  5
9A8
330
18
100
AcDbEntity
  8
目盛
100
AcDbLine
 10
236.9733175877695
 20
203.3050296219526
 30
0.0
 11
236.8836377434341
 21
201.3070412522367
 31
0.0
  0
LINE
  5
9A9
330
18
100
AcDbEntity
  8
目盛
100
AcDbLine
 10
243.3427090716484
 20
202.1049743403559
 30
0.0
 11
242.69916909828
 21
200.2113386038223
 31
0.0
  0
LINE
  5
9AA
330
18
100
AcDbEntity
  8
目盛
100
AcDbLine
 10
244.6954827361056
 20
201.5973083717904
 30
0.0
 11
243.9343102701758
 21
199.7478175020885
 31
0.0
  0
LINE
  5
9AB
330
18
100
AcDbEntity
  8
目盛
100
AcDbLine
 10
244.0230834310365
 20
201.8617668895183
 30
0.0
 11
243.3203804698952
 21
199.9892796269706
 31
0.0
  0
LINE
  5
9AC
330
18
100
AcDbEntity
  8
目盛
100
AcDbLine
 10
239.8449502801492
 20
202.9945917226253
 30
0.0
 11
239.5055632451721
 21
201.0235979528509
 31
0.0
  0
LINE
  5
9AD
330
18
100
AcDbEntity
  8
目盛
100
AcDbLine
 10
240.5549941296226
 20
202.860812558025
 30
0.0
 11
240.1538641512131
 21
200.9014517590853
 31
0.0
  0
LINE
  5
9AE
330
18
100
AcDbEntity
  8
目盛
100
AcDbLine
 10
241.9607281870926
 20
202.526697184901
 30
0.0
 11
241.1756766032864
 21
199.6312362525512
 31
0.0
  0
LINE
  5
9AF
330
18
100
AcDbEntity
  8
目盛
100
AcDbLine
 10
242.6550311052906
 20
202.3266907079126
 30
0.0
 11
242.0712892159537
 21
200.4137752872438
 31
0.0
  0
LINE
  5
9B0
330
18
100
AcDbEntity
  8
目盛
100
AcDbLine
 10
241.2604855102094
 20
202.704796389076
 30
0.0
 11
240.7980084552272
 21
200.7590022135233
 31
0.0
  0
LINE
  5
9B1
330
18
100
AcDbEntity
  8
目盛
100
AcDbLine
 10
256.2929756066026
 20
169.6119249191923
 30
0.0
 11
254.5233254997602
 21
170.5437717410208
 31
0.0
  0
LINE
  5
9B2
330
18
100
AcDbEntity
  8
目盛
100
AcDbLine
 10
254.3660322893884
 20
166.5602655177208
 30
0.0
 11
252.7639424709992
 21
167.7574740266338
 31
0.0
  0
LINE
  5
9B3
330
18
100
AcDbEntity
  8
目盛
100
AcDbLine
 10
253.9244810188701
 20
165.9883462851722
 30
0.0
 11
252.3607869631346
 21
167.2352869012632
 31
0.0
  0
LINE
  5
9B4
330
18
100
AcDbEntity
  8
目盛
100
AcDbLine
 10
255.9463284441263
 20
168.9779731246499
 30
0.0
 11
254.2068215688033
 21
169.9649461894821
 31
0.0
  0
LINE
  5
9B5
330
18
100
AcDbEntity
  8
目盛
100
AcDbLine
 10
255.1941701279927
 20
167.7442879174925
 30
0.0
 11
252.6830174214603
 21
169.3856629765437
 31
0.0
  0
LINE
  5
9B6
330
18
100
AcDbEntity
  8
目盛
100
AcDbLine
 10
255.5799394240139
 20
168.3552225975554
 30
0.0
 11
253.8722924634833
 21
169.3963478821349
 31
0.0
  0
LINE
  5
9B7
330
18
100
AcDbEntity
  8
目盛
100
AcDbLine
 10
254.7894012637844
 20
167.1457720032319
 30
0.0
 11
253.1504967519693
 21
168.292066904709
 31
0.0
  0
LINE
  5
9B8
330
18
100
AcDbEntity
  8
目盛
100
AcDbLine
 10
249.2097815215674
 20
161.5407751273451
 30
0.0
 11
248.0560613351627
 21
163.1744610615082
 31
0.0
  0
LINE
  5
9B9
330
18
100
AcDbEntity
  8
目盛
100
AcDbLine
 10
248.0039307158747
 20
160.74475681267
 30
0.0
 11
246.9550671212692
 21
162.4476617307178
 31
0.0
  0
LINE
  5
9BA
330
18
100
AcDbEntity
  8
目盛
100
AcDbLine
 10
248.6131085461951
 20
161.1332944609134
 30
0.0
 11
247.5112729663447
 21
162.8024134965051
 31
0.0
  0
LINE
  5
9BB
330
18
100
AcDbEntity
  8
目盛
100
AcDbLine
 10
247.3828492155787
 20
160.3755456223661
 30
0.0
 11
245.8905644541438
 21
162.9780609807816
 31
0.0
  0
LINE
  5
9BC
330
18
100
AcDbEntity
  8
目盛
100
AcDbLine
 10
246.750476977763
 20
160.0260252568699
 30
0.0
 11
245.8106093603846
 21
161.7914285710744
 31
0.0
  0
LINE
  5
9BD
330
18
100
AcDbEntity
  8
目盛
100
AcDbLine
 10
246.1074380774802
 20
159.6965406505856
 30
0.0
 11
245.2234868862136
 21
161.4905948001189
 31
0.0
  0
LINE
  5
9BE
330
18
100
AcDbEntity
  8
目盛
100
AcDbLine
 10
244.1207162855373
 20
158.8314522323519
 30
0.0
 11
243.053927123673
 21
161.6353710764216
 31
0.0
  0
LINE
  5
9BF
330
18
100
AcDbEntity
  8
目盛
100
AcDbLine
 10
241.3619723419493
 20
157.9758951839906
 30
0.0
 11
240.8906703450766
 21
159.9195706784455
 31
0.0
  0
LINE
  5
9C0
330
18
100
AcDbEntity
  8
目盛
100
AcDbLine
 10
242.06139962332
 20
158.157170144013
 30
0.0
 11
241.5292778628497
 21
160.0850825984658
 31
0.0
  0
LINE
  5
9C1
330
18
100
AcDbEntity
  8
目盛
100
AcDbLine
 10
242.7547877954518
 20
158.3603251976128
 30
0.0
 11
242.1623714113179
 21
160.2705719952309
 31
0.0
  0
LINE
  5
9C2
330
18
100
AcDbEntity
  8
目盛
100
AcDbLine
 10
243.441452567934
 20
158.5851598552803
 30
0.0
 11
242.7893262035844
 21
160.4758558131011
 31
0.0
  0
LINE
  5
9C3
330
18
100
AcDbEntity
  8
目盛
100
AcDbLine
 10
244.7919085969813
 20
159.0989592679875
 30
0.0
 11
244.0223512735841
 21
160.9449770160078
 31
0.0
  0
LINE
  5
9C4
330
18
100
AcDbEntity
  8
目盛
100
AcDbLine
 10
245.4543671164884
 20
159.3874169650388
 30
0.0
 11
244.6272047044383
 21
161.2083514350546
 31
0.0
  0
TEXT
  5
9C5
330
18
100
AcDbEntity
  8
文字
100
AcDbText
 10
247.2260506058188
 20
167.6216820316046
 30
0.0
 40
2.0
  1
.3
 50
353.8300000000002
  7
STYLE3
100
AcDbText
  0
TEXT
  5
9C6
330
18
100
AcDbEntity
  8
文字
100
AcDbText
 10
243.4598625000786
 20
164.159870012269
 30
0.0
 40
2.0
  1
.2
 50
353.8300000000002
  7
STYLE3
100
AcDbText
  0
LINE
  5
9C7
330
18
100
AcDbEntity
  8
目盛
100
AcDbLine
 10
253.4651832100228
 20
165.4305787208189
 30
0.0
 11
251.9414280941871
 21
166.726020864245
 31
0.0
  0
LINE
  5
9C8
330
18
100
AcDbEntity
  8
目盛
100
AcDbLine
 10
252.4951781296529
 20
164.359685884469
 30
0.0
 11
251.0557712816754
 21
165.7482491440996
 31
0.0
  0
LINE
  5
9C9
330
18
100
AcDbEntity
  8
目盛
100
AcDbLine
 10
251.4598452151779
 20
163.351813333452
 30
0.0
 11
250.1104673162852
 21
164.8280176844754
 31
0.0
  0
LINE
  5
9CA
330
18
100
AcDbEntity
  8
目盛
100
AcDbLine
 10
250.3632704526126
 20
162.4109386802737
 30
0.0
 11
248.482235095043
 21
164.747967987658
 31
0.0
  0
LINE
  5
9CB
330
18
100
AcDbEntity
  8
目盛
100
AcDbLine
 10
249.7933607978036
 20
161.9667966777442
 30
0.0
 11
248.5888945873783
 21
163.5634372596987
 31
0.0
  0
LINE
  5
9CC
330
18
100
AcDbEntity
  8
目盛
100
AcDbLine
 10
250.9189480539728
 20
162.8727628203998
 30
0.0
 11
249.6166046908371
 21
164.3906237377754
 31
0.0
  0
LINE
  5
9CD
330
18
100
AcDbEntity
  8
目盛
100
AcDbLine
 10
251.9854281360345
 20
163.8476174544116
 30
0.0
 11
250.5903473744589
 21
165.2807084036122
 31
0.0
  0
LINE
  5
9CE
330
18
100
AcDbEntity
  8
目盛
100
AcDbLine
 10
252.9885921343332
 20
164.8875132739078
 30
0.0
 11
250.7651235139308
 21
166.9015111125573
 31
0.0
  0
LINE
  5
9CF
330
18
100
AcDbEntity
  8
目盛
100
AcDbLine
 10
257.4387105157804
 20
188.5068802778443
 30
0.0
 11
254.6347916717106
 21
187.4400911159802
 31
0.0
  0
LINE
  5
9D0
330
18
100
AcDbEntity
  8
目盛
100
AcDbLine
 10
257.6850028928522
 20
187.8276165602412
 30
0.0
 11
255.7943069350313
 21
187.1754901958919
 31
0.0
  0
TEXT
  5
9D1
330
18
100
AcDbEntity
  8
文字
100
AcDbText
 10
249.878526671098
 20
188.2435277100882
 30
0.0
 40
2.0
  1
.7
 50
353.8300000000002
  7
STYLE3
100
AcDbText
  0
LINE
  5
9D2
102
{ACAD_REACTORS
330
8BD
102
}
330
18
100
AcDbEntity
  8
ROGO
 62
     4
100
AcDbLine
 10
244.0544532557536
 20
189.1436981989603
 30
0.0
 11
244.4304934423639
 21
189.328375021396
 31
0.0
  0
LINE
  5
9D3
102
{ACAD_REACTORS
330
8BD
102
}
330
18
100
AcDbEntity
  8
ROGO
 62
     4
100
AcDbLine
 10
244.1895892640399
 20
189.3544179715467
 30
0.0
 11
244.0544532557536
 21
189.1436981989603
 31
0.0
  0
LINE
  5
9D4
330
18
100
AcDbEntity
  8
目盛
100
AcDbLine
 10
258.4534835340859
 20
185.0433601939327
 30
0.0
 11
255.5172029919765
 21
184.4283345212744
 31
0.0
  0
LINE
  5
9D5
330
18
100
AcDbEntity
  8
目盛
100
AcDbLine
 10
257.9098375505193
 20
187.1409517877591
 30
0.0
 11
255.9995907529011
 21
186.5485354036252
 31
0.0
  0
LINE
  5
9D6
330
18
100
AcDbEntity
  8
目盛
100
AcDbLine
 10
256.9256957834939
 20
170.9109193382118
 30
0.0
 11
254.1886919045049
 21
172.1392555162997
 31
0.0
  0
TEXT
  5
9D7
330
18
100
AcDbEntity
  8
文字
100
AcDbText
 10
251.8989030681826
 20
177.4988011048399
 30
0.0
 40
2.0
  1
.5
 50
353.8300000000002
  7
STYLE3
100
AcDbText
  0
TEXT
  5
9D8
330
18
100
AcDbEntity
  8
文字
100
AcDbText
 10
250.3071464299518
 20
172.4244867410737
 30
0.0
 40
2.0
  1
.4
 50
353.8300000000002
  7
STYLE3
100
AcDbText
  0
TEXT
  5
9D9
330
18
100
AcDbEntity
  8
文字
100
AcDbText
 10
251.9491589895054
 20
183.1326681292521
 30
0.0
 40
2.0
  1
.6
 50
353.8300000000002
  7
STYLE3
100
AcDbText
  0
LINE
  5
9DA
330
18
100
AcDbEntity
  8
目盛
100
AcDbLine
 10
258.7198378666855
 20
177.1391080587878
 30
0.0
 11
256.739156258966
 21
177.4164172163037
 31
0.0
  0
LINE
  5
9DB
330
18
100
AcDbEntity
  8
目盛
100
AcDbLine
 10
258.6084277303178
 20
176.4252124679833
 30
0.0
 11
256.6374339605436
 21
176.7645995029605
 31
0.0
  0
LINE
  5
9DC
330
18
100
AcDbEntity
  8
目盛
100
AcDbLine
 10
258.8751334453426
 20
178.5756332434394
 30
0.0
 11
256.8809478742618
 21
178.7280271675072
 31
0.0
  0
LINE
  5
9DD
330
18
100
AcDbEntity
  8
目盛
100
AcDbLine
 10
255.8261468983943
 20
178.1785872762601
 30
0.0
 11
258.8087690264665
 21
177.8561508621661
 31
0.0
  0
LINE
  5
9DE
330
18
100
AcDbEntity
  8
目盛
100
AcDbLine
 10
258.4746485657177
 20
175.7151686185097
 30
0.0
 11
256.515287766778
 21
176.1162985969193
 31
0.0
  0
LINE
  5
9DF
330
18
100
AcDbEntity
  8
目盛
100
AcDbLine
 10
258.3186323967686
 20
175.0096772379234
 30
0.0
 11
256.3728382212161
 21
175.4721542929055
 31
0.0
  0
LINE
  5
9E0
330
18
100
AcDbEntity
  8
目盛
100
AcDbLine
 10
257.211144379483
 20
171.5746800120267
 30
0.0
 11
255.3616535097811
 21
172.3358524779565
 31
0.0
  0
LINE
  5
9E1
330
18
100
AcDbEntity
  8
目盛
100
AcDbLine
 10
256.6195388125444
 20
170.2564523472982
 30
0.0
 11
254.821491905185
 21
171.1322533058131
 31
0.0
  0
LINE
  5
9E2
330
18
100
AcDbEntity
  8
目盛
100
AcDbLine
 10
257.4756028972111
 20
172.2470793170959
 30
0.0
 11
255.6031156346634
 21
172.9497822782371
 31
0.0
  0
LINE
  5
9E3
330
18
100
AcDbEntity
  8
目盛
100
AcDbLine
 10
258.1405331925936
 20
174.3094345610398
 30
0.0
 11
255.2450722602438
 21
175.0944861448457
 31
0.0
  0
LINE
  5
9E4
330
18
100
AcDbEntity
  8
目盛
100
AcDbLine
 10
257.7188103480487
 20
172.927453676484
 30
0.0
 11
255.825174611515
 21
173.5709936498523
 31
0.0
  0
LINE
  5
9E5
330
18
100
AcDbEntity
  8
目盛
100
AcDbLine
 10
257.9405267156053
 20
173.6151316428418
 30
0.0
 11
256.0276112949364
 21
174.198873532179
 31
0.0
  0
LINE
  5
9E6
330
18
100
AcDbEntity
  8
目盛
100
AcDbLine
 10
258.7973159906082
 20
182.9039161792911
 30
0.0
 11
256.8098971547214
 21
182.6799376741544
 31
0.0
  0
LINE
  5
9E7
330
18
100
AcDbEntity
  8
目盛
100
AcDbLine
 10
258.9139491011341
 20
181.4637363153791
 30
0.0
 11
255.9176078328877
 21
181.3156181051408
 31
0.0
  0
LINE
  5
9E8
330
18
100
AcDbEntity
  8
目盛
100
AcDbLine
 10
258.9399224209881
 20
180.0190748638465
 30
0.0
 11
256.940103025938
 21
180.0459521252703
 31
0.0
  0
LINE
  5
9E9
330
18
100
AcDbEntity
  8
目盛
100
AcDbLine
 10
258.9188656296451
 20
179.2968451603631
 30
0.0
 11
256.9208772599294
 21
179.3865250046984
 31
0.0
  0
LINE
  5
9EA
330
18
100
AcDbEntity
  8
目盛
100
AcDbLine
 10
258.8669446224681
 20
182.1847423569917
 30
0.0
 11
256.8734711229416
 21
182.0233007059681
 31
0.0
  0
LINE
  5
9EB
330
18
100
AcDbEntity
  8
目盛
100
AcDbLine
 10
258.9382830388603
 20
180.7416096003698
 30
0.0
 11
256.9386061987776
 21
180.70565775427
 31
0.0
  0
LINE
  5
9EC
330
18
100
AcDbEntity
  8
目盛
100
AcDbLine
 10
258.5904833870126
 20
184.3339307236154
 30
0.0
 11
256.621049994917
 21
183.9856031276679
 31
0.0
  0
LINE
  5
9ED
330
18
100
AcDbEntity
  8
目盛
100
AcDbLine
 10
258.7051319206072
 20
183.6205480445431
 30
0.0
 11
256.7257290908077
 21
183.3342537250369
 31
0.0
  0
LINE
  5
9EE
330
18
100
AcDbEntity
  8
目盛
100
AcDbLine
 10
258.2942675641415
 20
185.7481363342568
 30
0.0
 11
256.3505920696868
 21
185.2768343373839
 31
0.0
  0
LINE
  5
9EF
330
18
100
AcDbEntity
  8
目盛
100
AcDbLine
 10
258.1129926041192
 20
186.4475636156272
 30
0.0
 11
256.1850801496664
 21
185.9154418551572
 31
0.0
  0
LINE
  5
9F0
330
18
100
AcDbEntity
  8
目盛
100
AcDbLine
 10
256.8827457830936
 20
189.8405311087956
 30
0.0
 11
255.0618113130777
 21
189.0133686967456
 31
0.0
  0
LINE
  5
9F1
330
18
100
AcDbEntity
  8
目盛
100
AcDbLine
 10
257.1712034801449
 20
189.1780725892889
 30
0.0
 11
255.3251857321247
 21
188.4085152658914
 31
0.0
  0
LINE
  5
9F2
330
18
100
AcDbEntity
  8
目盛
100
AcDbLine
 10
256.5736220975471
 20
190.4936020697872
 30
0.0
 11
254.7795679480133
 21
189.6096508785206
 31
0.0
  0
LINE
  5
9F3
330
18
100
AcDbEntity
  8
目盛
100
AcDbLine
 10
248.52587483064
 20
199.5803341203
 30
0.0
 11
246.8844997715887
 21
197.0691814137676
 31
0.0
  0
LINE
  5
9F4
330
18
100
AcDbEntity
  8
目盛
100
AcDbLine
 10
249.7098972304116
 20
198.7521962816957
 30
0.0
 11
248.5126887214986
 21
197.1501064633065
 31
0.0
  0
LINE
  5
9F5
330
18
100
AcDbEntity
  8
目盛
100
AcDbLine
 10
250.8395840273135
 20
197.8513472023302
 30
0.0
 11
249.5441418838872
 21
196.3275920864944
 31
0.0
  0
LINE
  5
9F6
330
18
100
AcDbEntity
  8
目盛
100
AcDbLine
 10
249.1243907449007
 20
199.1755652560914
 30
0.0
 11
247.9780958434233
 21
197.5366607442766
 31
0.0
  0
LINE
  5
9F7
330
18
100
AcDbEntity
  8
目盛
100
AcDbLine
 10
250.2818164629605
 20
198.3106450111774
 30
0.0
 11
249.0348758468692
 21
196.7469509554417
 31
0.0
  0
LINE
  5
9F8
330
18
100
AcDbEntity
  8
目盛
100
AcDbLine
 10
251.3826494742247
 20
197.3747561266406
 30
0.0
 11
249.3686516355751
 21
195.1512875062378
 31
0.0
  0
LINE
  5
9F9
330
18
100
AcDbEntity
  8
目盛
100
AcDbLine
 10
251.9104768636633
 20
196.8813421219601
 30
0.0
 11
250.5219136040326
 21
195.4419352739827
 31
0.0
  0
LINE
  5
9FA
102
{ACAD_REACTORS
330
8BD
102
}
330
18
100
AcDbEntity
  8
ROGO
 62
     4
100
AcDbLine
 10
244.4304934423639
 20
189.328375021396
 30
0.0
 11
245.1821810293739
 21
189.2471138224689
 31
0.0
  0
TEXT
  5
9FB
330
18
100
AcDbEntity
  8
文字
100
AcDbText
 10
246.5590801802469
 20
192.708171247032
 30
0.0
 40
2.0
  1
.8
 50
353.8300000000002
  7
STYLE3
100
AcDbText
  0
LINE
  5
9FC
330
18
100
AcDbEntity
  8
目盛
100
AcDbLine
 10
253.8592240678586
 20
194.7494344449198
 30
0.0
 11
251.5221947604743
 21
192.8683990873502
 31
0.0
  0
LINE
  5
9FD
330
18
100
AcDbEntity
  8
目盛
100
AcDbLine
 10
254.7293876207871
 20
193.5959455138749
 30
0.0
 11
253.0957016866241
 21
192.44222532747
 31
0.0
  0
LINE
  5
9FE
330
18
100
AcDbEntity
  8
目盛
100
AcDbLine
 10
255.5254059354622
 20
192.390094708182
 30
0.0
 11
253.8225010174145
 21
191.3412311135764
 31
0.0
  0
LINE
  5
9FF
330
18
100
AcDbEntity
  8
目盛
100
AcDbLine
 10
255.1368682872191
 20
192.9992725385024
 30
0.0
 11
253.4677492516271
 21
191.8974369586517
 31
0.0
  0
LINE
  5
A00
330
18
100
AcDbEntity
  8
目盛
100
AcDbLine
 10
255.8946171257664
 20
191.769013207886
 30
0.0
 11
253.2921017673506
 21
190.2767284464512
 31
0.0
  0
LINE
  5
A01
330
18
100
AcDbEntity
  8
目盛
100
AcDbLine
 10
252.9183494146802
 20
195.8460092074852
 30
0.0
 11
251.4421450636568
 21
194.4966313085925
 31
0.0
  0
LINE
  5
A02
330
18
100
AcDbEntity
  8
目盛
100
AcDbLine
 10
253.3973999277325
 20
195.3051120462799
 30
0.0
 11
251.879539010357
 21
194.0027686831444
 31
0.0
  0
LINE
  5
A03
330
18
100
AcDbEntity
  8
目盛
100
AcDbLine
 10
254.303366070388
 20
194.1795247901108
 30
0.0
 11
252.7067254884338
 21
192.9750585796855
 31
0.0
  0
LINE
  5
A04
330
18
100
AcDbEntity
  8
目盛
100
AcDbLine
 10
252.4225452937209
 20
196.3715921283416
 30
0.0
 11
250.9894543445201
 21
194.9765113667659
 31
0.0
  0
LINE
  5
A05
330
18
100
AcDbEntity
  8
目盛
100
AcDbLine
 10
256.2441374912623
 20
191.1366409700702
 30
0.0
 11
254.4787341770578
 21
190.1967733526919
 31
0.0
  0
LINE
  5
A06
330
18
100
AcDbEntity
  8
目盛
100
AcDbLine
 10
247.9149401505772
 20
199.9661034163211
 30
0.0
 11
246.8738148659976
 21
198.2584564557904
 31
0.0
  0
LINE
  5
A07
330
18
100
AcDbEntity
  8
目盛
100
AcDbLine
 10
246.0137104008341
 20
201.0057028048517
 30
0.0
 11
245.1379094423192
 21
199.2076558974923
 31
0.0
  0
LINE
  5
A08
330
18
100
AcDbEntity
  8
目盛
100
AcDbLine
 10
246.6582378289401
 20
200.6791395989102
 30
0.0
 11
245.7263910071116
 21
198.9094894920674
 31
0.0
  0
LINE
  5
A09
330
18
100
AcDbEntity
  8
目盛
100
AcDbLine
 10
247.2921896234824
 20
200.3324924364337
 30
0.0
 11
246.3052165586503
 21
198.5929855611106
 31
0.0
  0
ARC
  5
A0A
330
18
100
AcDbEntity
  8
隠れ線2
100
AcDbCircle
 10
180.2761570603669
 20
44.16181421573557
 30
0.0
 40
97.65282718676736
100
AcDbArc
 50
64.27685057750263
 51
86.10119057929251
  0
ARC
  5
A0B
330
18
100
AcDbEntity
  8
隠れ線2
100
AcDbCircle
 10
240.632661517624
 20
156.4729906489344
 30
0.0
 40
30.0
100
AcDbArc
 50
259.9886457311305
 51
270.0
  0
ARC
  5
A0C
330
18
100
AcDbEntity
  8
外形線
100
AcDbCircle
 10
180.2761570603669
 20
44.16181421573557
 30
0.0
 40
97.65282718676736
100
AcDbArc
 50
86.10119057929251
 51
89.38275717403401
  0
MTEXT
  5
16DD
330
18
100
AcDbEntity
  8
DEFPOINTS
  6
Continuous
100
AcDbMText
 10
1185.7564125503
 20
418.731891290344
 30
0.0
 40
0.5
 41
0.0
 71
     4
 72
     1
  1
\A1;
 73
     1
 44
1.0
  0
CIRCLE
  5
1741
330
18
100
AcDbEntity
  8
外形線
100
AcDbCircle
 10
206.632661517624
 20
174.2229906489345
 30
0.0
 40
1.25
  0
CIRCLE
  5
1742
330
18
100
AcDbEntity
  8
外形線
100
AcDbCircle
 10
170.632661517624
 20
177.2229906489345
 30
0.0
 40
1.25
  0
LINE
  5
1744
330
18
100
AcDbEntity
  8
外形線
 48
0.7
100
AcDbLine
 10
202.7125204591971
 20
172.7618287544016
 30
0.0
 11
174.2948804338618
 21
175.1097248174471
 31
0.0
  0
LINE
  5
1745
330
18
100
AcDbEntity
  8
外形線
 48
0.7
100
AcDbLine
 10
202.97404942852
 20
176.2520440197117
 30
0.0
 11
174.5564094031849
 21
178.5999400827573
 31
0.0
  0
LINE
  5
1747
330
18
100
AcDbEntity
  8
外形線
100
AcDbLine
 10
202.7125204591971
 20
172.7618287544016
 30
0.0
 11
202.97404942852
 21
176.2520440197117
 31
0.0
  0
LINE
  5
1749
330
18
100
AcDbEntity
  8
外形線
100
AcDbLine
 10
174.5564094031849
 20
178.5999400827573
 30
0.0
 11
174.2948804338618
 21
175.1097248174471
 31
0.0
  0
LINE
  5
174A
330
18
100
AcDbEntity
  8
想像線
 48
0.7
100
AcDbLine
 10
202.7349372279961
 20
173.0609900628567
 30
0.0
 11
174.3172972026609
 21
175.4088861259023
 31
0.0
  0
LINE
  5
174B
330
18
100
AcDbEntity
  8
想像線
 48
0.7
100
AcDbLine
 10
202.9516326597208
 20
175.9528827112566
 30
0.0
 11
174.5339926343858
 21
178.3007787743021
 31
0.0
  0
CIRCLE
  5
17D5
330
18
100
AcDbEntity
  8
外形線
100
AcDbCircle
 10
206.632661517624
 20
174.2229906489345
 30
0.0
 40
2.0
  0
LINE
  5
181A
330
18
100
AcDbEntity
  8
中心線
100
AcDbLine
 10
206.5350781838172
 20
171.3898065187386
 30
0.0
 11
206.7491341703131
 21
177.0157548488175
 31
0.0
  0
CIRCLE
  5
181D
330
18
100
AcDbEntity
  8
外形線
100
AcDbCircle
 10
170.632661517624
 20
177.2229906489345
 30
0.0
 40
2.0
  0
LINE
  5
181E
330
18
100
AcDbEntity
  8
外形線
100
AcDbLine
 10
165.132661517624
 20
140.5229906489345
 30
0.0
 11
180.632661517624
 21
140.5229906489345
 31
0.0
  0
LINE
  5
181F
330
18
100
AcDbEntity
  8
外形線
100
AcDbLine
 10
160.632661517624
 20
140.5229906489345
 30
0.0
 11
160.632661517624
 21
115.5229906489344
 31
0.0
  0
LINE
  5
1820
330
18
100
AcDbEntity
  8
外形線
100
AcDbLine
 10
180.632661517624
 20
140.5229906489345
 30
0.0
 11
180.632661517624
 21
115.5229906489344
 31
0.0
  0
LINE
  5
1821
330
18
100
AcDbEntity
  8
外形線
100
AcDbLine
 10
165.132661517624
 20
115.5229906489344
 30
0.0
 11
165.132661517624
 21
57.22299064893445
 31
0.0
  0
LINE
  5
1822
330
18
100
AcDbEntity
  8
外形線
100
AcDbLine
 10
176.132661517624
 20
115.5229906489344
 30
0.0
 11
176.132661517624
 21
57.22299064893445
 31
0.0
  0
LINE
  5
1823
330
18
100
AcDbEntity
  8
外形線
100
AcDbLine
 10
158.5392476946041
 20
140.5229906489345
 30
0.0
 11
160.632661517624
 21
140.5229906489345
 31
0.0
  0
LINE
  5
1825
330
18
100
AcDbEntity
  8
中心線
100
AcDbLine
 10
182.7260753406439
 20
138.0229906489344
 30
0.0
 11
176.132661517624
 21
138.0229906489344
 31
0.0
  0
LINE
  5
1826
330
18
100
AcDbEntity
  8
中心線
100
AcDbLine
 10
178.632661517624
 20
140.5229906489345
 30
0.0
 11
178.632661517624
 21
115.5229906489344
 31
0.0
  0
LINE
  5
1828
330
18
100
AcDbEntity
  8
中心線
100
AcDbLine
 10
182.4028280555498
 20
118.0229906489344
 30
0.0
 11
176.132661517624
 21
118.0229906489344
 31
0.0
  0
LINE
  5
1829
330
18
100
AcDbEntity
  8
外形線
100
AcDbLine
 10
158.8624949796981
 20
115.5229906489344
 30
0.0
 11
160.632661517624
 21
115.5229906489344
 31
0.0
  0
LINE
  5
182A
330
18
100
AcDbEntity
  8
外形線
100
AcDbLine
 10
160.632661517624
 20
128.0229906489344
 30
0.0
 11
189.6265366493035
 21
128.0229906489344
 31
0.0
  0
LINE
  5
182B
330
18
100
AcDbEntity
  8
隠れ線2
100
AcDbLine
 10
160.632661517624
 20
118.0229906489344
 30
0.0
 11
180.632661517624
 21
118.0229906489344
 31
0.0
  0
LINE
  5
182C
330
18
100
AcDbEntity
  8
外形線
100
AcDbLine
 10
165.132661517624
 20
108.0229906489345
 30
0.0
 11
176.132661517624
 21
108.0229906489345
 31
0.0
  0
LINE
  5
182D
330
18
100
AcDbEntity
  8
外形線
100
AcDbLine
 10
165.132661517624
 20
98.02299064893446
 30
0.0
 11
176.132661517624
 21
98.02299064893446
 31
0.0
  0
LINE
  5
182E
330
18
100
AcDbEntity
  8
外形線
100
AcDbLine
 10
165.132661517624
 20
88.02299064893446
 30
0.0
 11
176.132661517624
 21
88.02299064893446
 31
0.0
  0
LINE
  5
182F
330
18
100
AcDbEntity
  8
外形線
100
AcDbLine
 10
165.132661517624
 20
78.02299064893446
 30
0.0
 11
176.132661517624
 21
78.02299064893446
 31
0.0
  0
TEXT
  5
1830
330
18
100
AcDbEntity
  8
外形線
100
AcDbText
 10
168.1003274667162
 20
129.0408270861311
 30
0.0
 40
2.5
  1
10
  7
STYLE3
100
AcDbText
  0
TEXT
  5
1831
330
18
100
AcDbEntity
  8
隠れ線2
100
AcDbText
 10
168.0474377923216
 20
119.2314710429174
 30
0.0
 40
2.5
  1
20
  7
STYLE3
100
AcDbText
  0
TEXT
  5
1832
330
18
100
AcDbEntity
  8
外形線
100
AcDbText
 10
168.216497238962
 20
108.7992090906191
 30
0.0
 40
2.5
  1
30
  7
STYLE3
100
AcDbText
  0
TEXT
  5
1833
330
18
100
AcDbEntity
  8
外形線
100
AcDbText
 10
168.2164984414531
 20
98.70477800667615
 30
0.0
 40
2.5
  1
40
  7
STYLE3
100
AcDbText
  0
TEXT
  5
1834
330
18
100
AcDbEntity
  8
外形線
100
AcDbText
 10
168.0474377923218
 20
88.77926103756326
 30
0.0
 40
2.5
  1
50
  7
STYLE3
100
AcDbText
  0
TEXT
  5
1835
330
18
100
AcDbEntity
  8
外形線
100
AcDbText
 10
168.0474377923216
 20
78.5159138597688
 30
0.0
 40
2.5
  1
60
  7
STYLE3
100
AcDbText
  0
LINE
  5
1837
330
18
100
AcDbEntity
  8
外形線
100
AcDbLine
 10
166.632661517624
 20
132.0229906489345
 30
0.0
 11
166.632661517624
 21
124.0229906489344
 31
0.0
  0
LINE
  5
1838
330
18
100
AcDbEntity
  8
外形線
100
AcDbLine
 10
174.632661517624
 20
132.0229906489345
 30
0.0
 11
174.632661517624
 21
124.0229906489344
 31
0.0
  0
LINE
  5
1839
330
18
100
AcDbEntity
  8
外形線
100
AcDbLine
 10
170.632661517624
 20
136.0229906489344
 30
0.0
 11
170.632661517624
 21
136.0229906489344
 31
0.0
  0
LINE
  5
183A
330
18
100
AcDbEntity
  8
外形線
100
AcDbLine
 10
170.632661517624
 20
120.0229906489344
 30
0.0
 11
170.632661517624
 21
120.0229906489344
 31
0.0
  0
ARC
  5
183D
330
18
100
AcDbEntity
  8
外形線
100
AcDbCircle
 10
170.632661517624
 20
132.0229906489345
 30
0.0
 40
4.0
100
AcDbArc
 50
90.0
 51
180.0
  0
ARC
  5
183E
330
18
100
AcDbEntity
  8
外形線
100
AcDbCircle
 10
170.632661517624
 20
132.0229906489345
 30
0.0
 40
4.0
100
AcDbArc
 50
0.0
 51
90.0
  0
ARC
  5
183F
330
18
100
AcDbEntity
  8
外形線
100
AcDbCircle
 10
170.632661517624
 20
124.0229906489344
 30
0.0
 40
4.0
100
AcDbArc
 50
270.0000000000003
 51
0.0
  0
ARC
  5
1840
330
18
100
AcDbEntity
  8
外形線
100
AcDbCircle
 10
170.632661517624
 20
124.0229906489344
 30
0.0
 40
4.0
100
AcDbArc
 50
180.0
 51
270.0000000000004
  0
ARC
  5
1841
330
18
100
AcDbEntity
  8
外形線
100
AcDbCircle
 10
45.632661517624
 20
149.2229906489344
 30
0.0
 40
1.0
100
AcDbArc
 50
180.0
 51
270.0
  0
ARC
  5
1842
330
18
100
AcDbEntity
  8
外形線
100
AcDbCircle
 10
45.632661517624
 20
147.2229906489344
 30
0.0
 40
1.0
100
AcDbArc
 50
90.0
 51
180.0
  0
ARC
  5
1843
330
18
100
AcDbEntity
  8
寸法線
100
AcDbCircle
 10
170.632661517624
 20
153.2229906489344
 30
0.0
 40
124.0
100
AcDbArc
 50
141.461087439654
 51
180.924165548584
  0
LINE
  5
1844
330
18
100
AcDbEntity
  8
中心線
100
AcDbLine
 10
46.65399399776394
 20
150.9229906489344
 30
0.0
 11
46.65399399776394
 21
119.7205672732656
 31
0.0
  0
LINE
  5
185E
330
18
100
AcDbEntity
  8
外形線
100
AcDbLine
 10
46.65399399776393
 20
143.2229906489345
 30
0.0
 11
46.65399399776393
 21
143.2229906489345
 31
0.0
  0
LINE
  5
1864
330
18
100
AcDbEntity
  8
外形線
100
AcDbLine
 10
45.42480133869995
 20
145.4101273683251
 30
0.0
 11
45.42480133869995
 21
144.6601273683251
 31
0.0
  0
LINE
  5
1865
330
18
100
AcDbEntity
  8
外形線
100
AcDbLine
 10
47.92480133869995
 20
145.4101273683251
 30
0.0
 11
47.92480133869995
 21
144.6601273683251
 31
0.0
  0
ARC
  5
1866
330
18
100
AcDbEntity
  8
外形線
100
AcDbCircle
 10
46.67480133869995
 20
144.6601273683251
 30
0.0
 40
1.25
100
AcDbArc
 50
180.0
 51
269.9999999999998
  0
ARC
  5
1867
330
18
100
AcDbEntity
  8
外形線
100
AcDbCircle
 10
46.67480133869995
 20
144.6601273683251
 30
0.0
 40
1.25
100
AcDbArc
 50
269.9999999999996
 51
0.0
  0
LINE
  5
1868
330
18
100
AcDbEntity
  8
外形線
100
AcDbLine
 10
47.92684543449309
 20
151.0399832643525
 30
0.0
 11
47.92684543449309
 21
151.7899832643524
 31
0.0
  0
ARC
  5
1869
330
18
100
AcDbEntity
  8
外形線
100
AcDbCircle
 10
46.67684543449309
 20
151.7899832643524
 30
0.0
 40
1.25
100
AcDbArc
 50
0.0
 51
90.00000000000042
  0
ARC
  5
186A
330
18
100
AcDbEntity
  8
外形線
100
AcDbCircle
 10
46.67684543449309
 20
151.7899832643524
 30
0.0
 40
1.25
100
AcDbArc
 50
90.00000000000017
 51
180.0
  0
LINE
  5
186B
330
18
100
AcDbEntity
  8
外形線
100
AcDbLine
 10
45.42684543449309
 20
151.0399832643525
 30
0.0
 11
45.42684543449309
 21
151.7899832643524
 31
0.0
  0
LINE
  5
1876
330
18
100
AcDbEntity
  8
0
  6
ByBlock
 62
     2
100
AcDbLine
 10
170.0172041474441
 20
153.6985783485994
 30
0.0
 11
72.51386163521747
 21
229.0431799762915
 31
0.0
  0
MTEXT
  5
1877
330
18
100
AcDbEntity
  8
0
  6
ByBlock
 62
     6
100
AcDbMText
 10
97.80280088501264
 20
213.4307945665958
 30
0.0
 40
2.5
 41
0.0
 71
     5
 72
     1
  1
\A1;R124
  7
STYLE3
 11
0.7912806442129562
 21
-0.6114531397367499
 31
0.0
 73
     1
 44
1.0
  0
INSERT
  5
1878
330
18
100
AcDbEntity
  8
0
  6
ByBlock
 62
     2
100
AcDbBlockReference
  2
_OPEN
 10
72.51386163521747
 20
229.0431799762915
 30
0.0
 41
2.5
 42
2.5
 43
2.5
 50
142.3053512450639
  0
POINT
  5
1879
330
18
100
AcDbEntity
  8
DEFPOINTS
  6
ByBlock
 62
     0
100
AcDbPoint
 10
72.51386163521747
 20
229.0431799762915
 30
0.0
  0
POINT
  5
187A
330
18
100
AcDbEntity
  8
DEFPOINTS
  6
ByBlock
 62
     0
100
AcDbPoint
 10
170.632661517624
 20
153.2229906489345
 30
0.0
  0
ARC
  5
187B
330
18
100
AcDbEntity
  8
寸法線
100
AcDbCircle
 10
170.632661517624
 20
153.2229906489344
 30
0.0
 40
62.0
100
AcDbArc
 50
304.7014808362012
 51
355.036318975263
  0
LINE
  5
1886
330
18
100
AcDbEntity
  8
0
  6
ByBlock
 62
     2
100
AcDbLine
 10
170.6326615176239
 20
153.2229906489344
 30
0.0
 11
205.9293093777621
 21
102.2509723463656
 31
0.0
  0
MTEXT
  5
1887
330
18
100
AcDbEntity
  8
0
  6
ByBlock
 62
     6
100
AcDbMText
 10
202.4317871842673
 20
111.9021529250971
 30
0.0
 40
2.5
 41
0.0
 71
     5
 72
     1
  1
\A1;R62
  7
STYLE3
 11
0.5693007719377111
 21
-0.8221293274607873
 31
0.0
 73
     1
 44
1.0
  0
INSERT
  5
1888
330
18
100
AcDbEntity
  8
0
  6
ByBlock
 62
     2
100
AcDbBlockReference
  2
_OPEN
 10
205.9293093777621
 20
102.2509723463656
 30
0.0
 41
2.5
 42
2.5
 43
2.5
 50
304.7014808362012
  0
POINT
  5
1889
330
18
100
AcDbEntity
  8
DEFPOINTS
  6
ByBlock
 62
     0
100
AcDbPoint
 10
205.9293093777621
 20
102.2509723463656
 30
0.0
  0
POINT
  5
188A
330
18
100
AcDbEntity
  8
DEFPOINTS
  6
ByBlock
 62
     0
100
AcDbPoint
 10
170.6326615176239
 20
153.2229906489344
 30
0.0
  0
CIRCLE
  5
188B
330
18
100
AcDbEntity
  8
隠れ線2
 48
0.5
100
AcDbCircle
 10
185.462661517624
 20
150.9679906489344
 30
0.0
 40
2.5
  0
ARC
  5
188E
330
18
100
AcDbEntity
  8
中心線
100
AcDbCircle
 10
170.632661517624
 20
153.2229906489344
 30
0.0
 40
15.0
100
AcDbArc
 50
337.8222818808735
 51
9.496202404119738
  0
LINE
  5
1891
330
18
100
AcDbEntity
  8
中心線
100
AcDbLine
 10
183.2612070884955
 20
152.6004924165424
 30
0.0
 11
187.8752971949147
 21
151.7968343601833
 31
0.0
  0
LINE
  5
18D4
330
18
100
AcDbEntity
  8
0
  6
ByBlock
 62
     2
100
AcDbLine
 10
250.2093721018568
 20
126.4729906489344
 30
0.0
 11
250.2093721018568
 21
51.49664617343694
 31
0.0
  0
LINE
  5
18D5
330
18
100
AcDbEntity
  8
0
  6
ByBlock
 62
     2
100
AcDbLine
 10
350.2093721018568
 20
105.6044885099509
 30
0.0
 11
350.2093721018568
 21
51.49664617343694
 31
0.0
  0
LINE
  5
18D6
330
18
100
AcDbEntity
  8
0
  6
ByBlock
 62
     2
100
AcDbLine
 10
252.7093721018569
 20
52.74664617343694
 30
0.0
 11
347.7093721018568
 21
52.74664617343694
 31
0.0
  0
INSERT
  5
18D7
330
18
100
AcDbEntity
  8
0
  6
ByBlock
 62
     2
100
AcDbBlockReference
  2
_OPEN
 10
250.2093721018568
 20
52.74664617343694
 30
0.0
 41
2.5
 42
2.5
 43
2.5
 50
180.0
  0
INSERT
  5
18D8
330
18
100
AcDbEntity
  8
0
  6
ByBlock
 62
     2
100
AcDbBlockReference
  2
_OPEN
 10
350.2093721018568
 20
52.74664617343694
 30
0.0
 41
2.5
 42
2.5
 43
2.5
  0
MTEXT
  5
18D9
330
18
100
AcDbEntity
  8
0
  6
ByBlock
 62
     6
100
AcDbMText
 10
300.2093721018568
 20
54.62164617343694
 30
0.0
 40
2.5
 41
0.0
 71
     5
 72
     1
  1
\A1;100
  7
STYLE3
 73
     1
 44
1.0
  0
POINT
  5
18DA
330
18
100
AcDbEntity
  8
DEFPOINTS
  6
ByBlock
 62
     0
100
AcDbPoint
 10
250.2093721018568
 20
107.3075216796105
 30
0.0
  0
POINT
  5
18DB
330
18
100
AcDbEntity
  8
DEFPOINTS
  6
ByBlock
 62
     0
100
AcDbPoint
 10
350.2093721018568
 20
105.6044885099509
 30
0.0
  0
POINT
  5
18DC
330
18
100
AcDbEntity
  8
DEFPOINTS
  6
ByBlock
 62
     0
100
AcDbPoint
 10
350.2093721018568
 20
52.74664617343694
 30
0.0
  0
LINE
  5
18DD
330
18
100
AcDbEntity
  8
0
  6
ByBlock
 62
     2
100
AcDbLine
 10
170.632661517624
 20
51.70238042745371
 30
0.0
 11
170.632661517624
 21
54.10302254471765
 31
0.0
  0
LINE
  5
18DE
330
18
100
AcDbEntity
  8
0
  6
ByBlock
 62
     2
100
AcDbLine
 10
250.2093721018568
 20
51.91632805754228
 30
0.0
 11
250.2093721018568
 21
54.10302254471765
 31
0.0
  0
LINE
  5
18DF
330
18
100
AcDbEntity
  8
0
  6
ByBlock
 62
     2
100
AcDbLine
 10
173.132661517624
 20
52.85302254471765
 30
0.0
 11
247.7093721018568
 21
52.85302254471765
 31
0.0
  0
INSERT
  5
18E0
330
18
100
AcDbEntity
  8
0
  6
ByBlock
 62
     2
100
AcDbBlockReference
  2
_OPEN
 10
170.632661517624
 20
52.85302254471765
 30
0.0
 41
2.5
 42
2.5
 43
2.5
 50
180.0
  0
INSERT
  5
18E1
330
18
100
AcDbEntity
  8
0
  6
ByBlock
 62
     2
100
AcDbBlockReference
  2
_OPEN
 10
250.2093721018568
 20
52.85302254471765
 30
0.0
 41
2.5
 42
2.5
 43
2.5
  0
MTEXT
  5
18E2
330
18
100
AcDbEntity
  8
0
  6
ByBlock
 62
     6
100
AcDbMText
 10
210.4210168097404
 20
54.72802254471765
 30
0.0
 40
2.5
 41
0.0
 71
     5
 72
     1
  1
\A1;78
  7
STYLE3
 73
     1
 44
1.0
  0
POINT
  5
18E4
330
18
100
AcDbEntity
  8
DEFPOINTS
  6
ByBlock
 62
     0
100
AcDbPoint
 10
250.2093721018568
 20
51.91632805754228
 30
0.0
  0
POINT
  5
18E5
330
18
100
AcDbEntity
  8
DEFPOINTS
  6
ByBlock
 62
     0
100
AcDbPoint
 10
250.2093721018568
 20
52.85302254471765
 30
0.0
  0
LINE
  5
18E6
330
18
100
AcDbEntity
  8
寸法線
100
AcDbLine
 10
350.2093721018568
 20
105.6044885099509
 30
0.0
 11
350.2093721018568
 21
124.7699574792747
 31
0.0
  0
DIMENSION
  5
18F3
330
18
100
AcDbEntity
  8
外形線
100
AcDbDimension
  2
*D1
 10
350.2093721018568
 20
45.00673290491579
 30
0.0
 11
198.4316830498104
 21
46.88173290491579
 31
0.0
 70
    32
  1
302
 71
     5
 42
303.5553781040929
  3
STYLE3
100
AcDbAlignedDimension
 13
46.65399399776394
 23
119.7205672732656
 33
0.0
 14
350.2093721018568
 24
51.49664617343694
 34
0.0
100
AcDbRotatedDimension
1001
ACAD
1000
DSTYLE
1002
{
1070
   271
1070
     2
1002
}
  0
LINE
  5
18FF
330
18
100
AcDbEntity
  8
想像線
100
AcDbLine
 10
54.65399399776396
 20
145.4229906489344
 30
0.0
 11
54.65399399776394
 21
130.9222512739044
 31
0.0
  0
LINE
  5
1900
330
18
100
AcDbEntity
  8
寸法線
100
AcDbLine
 10
96.65399399776397
 20
144.6613977096827
 30
0.0
 11
96.65399399776395
 21
119.7205672732656
 31
0.0
  0
DIMENSION
  5
190E
330
18
100
AcDbEntity
  8
外形線
100
AcDbDimension
  2
*D2
 10
54.65399399776394
 20
132.1440596775859
 30
0.0
 11
50.65399399776395
 21
134.0190596775859
 31
0.0
 70
    32
 71
     5
 42
8.0
  3
STYLE3
100
AcDbAlignedDimension
 13
46.65399399776394
 23
119.7205672732656
 33
0.0
 14
54.65399399776394
 24
130.9222512739044
 34
0.0
100
AcDbRotatedDimension
1001
ACAD
1000
DSTYLE
1002
{
1070
   271
1070
     2
1002
}
  0
DIMENSION
  5
1928
330
18
100
AcDbEntity
  8
外形線
100
AcDbDimension
  2
*D3
 10
131.6539939977639
 20
108.9210817973017
 30
0.0
 11
89.15399399776395
 21
110.7960817973018
 31
0.0
 70
    32
 71
     5
 42
85.00000000000001
  3
STYLE3
100
AcDbAlignedDimension
 13
46.65399399776394
 23
119.7205672732656
 33
0.0
 14
131.6539939977639
 24
119.7205672732656
 34
0.0
100
AcDbRotatedDimension
1001
ACAD
1000
DSTYLE
1002
{
1070
   271
1070
     2
1002
}
  0
LINE
  5
196C
330
18
100
AcDbEntity
  8
0
  6
ByBlock
 62
     2
100
AcDbLine
 10
46.65399399776394
 20
133.3940596775859
 30
0.0
 11
46.65399399776394
 21
119.8056106549893
 31
0.0
  0
LINE
  5
196D
330
18
100
AcDbEntity
  8
0
  6
ByBlock
 62
     2
100
AcDbLine
 10
96.65399399776395
 20
119.7205672732656
 30
0.0
 11
96.65399399776395
 21
122.3056106549893
 31
0.0
  0
LINE
  5
196E
330
18
100
AcDbEntity
  8
0
  6
ByBlock
 62
     2
100
AcDbLine
 10
49.15399399776394
 20
121.0556106549893
 30
0.0
 11
94.15399399776395
 21
121.0556106549893
 31
0.0
  0
INSERT
  5
196F
330
18
100
AcDbEntity
  8
0
  6
ByBlock
 62
     2
100
AcDbBlockReference
  2
_OPEN
 10
46.65399399776394
 20
121.0556106549893
 30
0.0
 41
2.5
 42
2.5
 43
2.5
 50
180.0
  0
INSERT
  5
1970
330
18
100
AcDbEntity
  8
0
  6
ByBlock
 62
     2
100
AcDbBlockReference
  2
_OPEN
 10
96.65399399776395
 20
121.0556106549893
 30
0.0
 41
2.5
 42
2.5
 43
2.5
  0
MTEXT
  5
1971
330
18
100
AcDbEntity
  8
0
  6
ByBlock
 62
     6
100
AcDbMText
 10
71.65399399776394
 20
122.9306106549893
 30
0.0
 40
2.5
 41
0.0
 71
     5
 72
     1
  1
\A1;50
  7
STYLE3
 73
     1
 44
1.0
  0
POINT
  5
1972
330
18
100
AcDbEntity
  8
DEFPOINTS
  6
ByBlock
 62
     0
100
AcDbPoint
 10
46.65399399776394
 20
133.3940596775859
 30
0.0
  0
POINT
  5
1973
330
18
100
AcDbEntity
  8
DEFPOINTS
  6
ByBlock
 62
     0
100
AcDbPoint
 10
96.65399399776395
 20
119.7205672732656
 30
0.0
  0
POINT
  5
1974
330
18
100
AcDbEntity
  8
DEFPOINTS
  6
ByBlock
 62
     0
100
AcDbPoint
 10
96.65399399776395
 20
121.0556106549893
 30
0.0
  0
LINE
  5
1977
330
18
100
AcDbEntity
  8
0
  6
ByBlock
 62
     2
100
AcDbLine
 10
345.2093721018568
 20
153.4699574792748
 30
0.0
 11
364.3662823545794
 21
153.4699574792748
 31
0.0
  0
LINE
  5
1978
330
18
100
AcDbEntity
  8
0
  6
ByBlock
 62
     2
100
AcDbLine
 10
345.2093721018568
 20
123.4699574792748
 30
0.0
 11
364.3662823545794
 21
123.4699574792748
 31
0.0
  0
LINE
  5
1979
330
18
100
AcDbEntity
  8
0
  6
ByBlock
 62
     2
100
AcDbLine
 10
363.1162823545794
 20
150.9699574792748
 30
0.0
 11
363.1162823545794
 21
125.9699574792747
 31
0.0
  0
INSERT
  5
197A
330
18
100
AcDbEntity
  8
0
  6
ByBlock
 62
     2
100
AcDbBlockReference
  2
_OPEN
 10
363.1162823545794
 20
153.4699574792748
 30
0.0
 41
2.5
 42
2.5
 43
2.5
 50
90.0
  0
INSERT
  5
197B
330
18
100
AcDbEntity
  8
0
  6
ByBlock
 62
     2
100
AcDbBlockReference
  2
_OPEN
 10
363.1162823545794
 20
123.4699574792748
 30
0.0
 41
2.5
 42
2.5
 43
2.5
 50
270.0
  0
MTEXT
  5
197C
330
18
100
AcDbEntity
  8
0
  6
ByBlock
 62
     6
100
AcDbMText
 10
361.2412823545794
 20
138.4699574792748
 30
0.0
 40
2.5
 41
0.0
 71
     5
 72
     1
  1
\A1;30
  7
STYLE3
 11
0.0000000000000001
 21
1.0
 31
0.0
 73
     1
 44
1.0
  0
POINT
  5
197D
330
18
100
AcDbEntity
  8
DEFPOINTS
  6
ByBlock
 62
     0
100
AcDbPoint
 10
345.2093721018568
 20
153.4699574792748
 30
0.0
  0
POINT
  5
197E
330
18
100
AcDbEntity
  8
DEFPOINTS
  6
ByBlock
 62
     0
100
AcDbPoint
 10
345.2093721018568
 20
123.4699574792748
 30
0.0
  0
POINT
  5
197F
330
18
100
AcDbEntity
  8
DEFPOINTS
  6
ByBlock
 62
     0
100
AcDbPoint
 10
363.1162823545794
 20
123.4699574792748
 30
0.0
  0
LINE
  5
19BE
330
18
100
AcDbEntity
  8
0
  6
ByBlock
 62
     2
100
AcDbLine
 10
46.65399399776393
 20
153.2229906489344
 30
0.0
 11
37.39593573531351
 21
153.2229906489344
 31
0.0
  0
LINE
  5
19BF
330
18
100
AcDbEntity
  8
0
  6
ByBlock
 62
     2
100
AcDbLine
 10
44.63266151762399
 20
151.015061693716
 30
0.0
 11
37.39593573531351
 21
151.015061693716
 31
0.0
  0
LINE
  5
19C0
330
18
100
AcDbEntity
  8
0
  6
ByBlock
 62
     2
100
AcDbLine
 10
38.64593573531351
 20
155.7229906489344
 30
0.0
 11
38.64593573531351
 21
158.2229906489344
 31
0.0
  0
LINE
  5
19C1
330
18
100
AcDbEntity
  8
0
  6
ByBlock
 62
     2
100
AcDbLine
 10
38.64593573531351
 20
148.7229906489344
 30
0.0
 11
38.64593573531351
 21
148.3336799404333
 31
0.0
  0
LINE
  5
19C2
330
18
100
AcDbEntity
  8
0
  6
ByBlock
 62
     2
100
AcDbLine
 10
38.64593573531351
 20
153.2229906489344
 30
0.0
 11
38.64593573531351
 21
151.2229906489344
 31
0.0
  0
INSERT
  5
19C3
330
18
100
AcDbEntity
  8
0
  6
ByBlock
 62
     2
100
AcDbBlockReference
  2
_OPEN
 10
38.64593573531351
 20
153.2229906489344
 30
0.0
 41
2.5
 42
2.5
 43
2.5
 50
270.0
  0
INSERT
  5
19C4
330
18
100
AcDbEntity
  8
0
  6
ByBlock
 62
     2
100
AcDbBlockReference
  2
_OPEN
 10
38.64593573531351
 20
151.2229906489344
 30
0.0
 41
2.5
 42
2.5
 43
2.5
 50
90.0
  0
MTEXT
  5
19C5
330
18
100
AcDbEntity
  8
0
  6
ByBlock
 62
     6
100
AcDbMText
 10
36.77093573531351
 20
157.8897376610017
 30
0.0
 40
2.5
 41
0.0
 71
     5
 72
     1
  1
\A1;2
  7
STYLE3
 11
0.0000000000000001
 21
1.0
 31
0.0
 73
     1
 44
1.0
  0
POINT
  5
19C6
330
18
100
AcDbEntity
  8
DEFPOINTS
  6
ByBlock
 62
     0
100
AcDbPoint
 10
46.65399399776393
 20
153.2229906489344
 30
0.0
  0
POINT
  5
19C8
330
18
100
AcDbEntity
  8
DEFPOINTS
  6
ByBlock
 62
     0
100
AcDbPoint
 10
38.64593573531351
 20
151.2229906489344
 30
0.0
  0
LINE
  5
19D8
330
18
100
AcDbEntity
  8
0
  6
ByBlock
 62
     2
100
AcDbLine
 10
44.71589208389537
 20
145.4309196041529
 30
0.0
 11
37.47916630158488
 21
145.4309196041529
 31
0.0
  0
LINE
  5
19D9
330
18
100
AcDbEntity
  8
0
  6
ByBlock
 62
     2
100
AcDbLine
 10
46.65399399776393
 20
143.2229906489345
 30
0.0
 11
37.39593573531351
 21
143.2229906489345
 31
0.0
  0
LINE
  5
19DA
330
18
100
AcDbEntity
  8
0
  6
ByBlock
 62
     2
100
AcDbLine
 10
38.64593573531351
 20
147.7229906489344
 30
0.0
 11
38.64593573531351
 21
148.0434730830112
 31
0.0
  0
LINE
  5
19DB
330
18
100
AcDbEntity
  8
0
  6
ByBlock
 62
     2
100
AcDbLine
 10
38.64593573531351
 20
140.7229906489345
 30
0.0
 11
38.64593573531351
 21
135.3063239822678
 31
0.0
  0
LINE
  5
19DC
330
18
100
AcDbEntity
  8
0
  6
ByBlock
 62
     2
100
AcDbLine
 10
38.64593573531351
 20
145.2229906489344
 30
0.0
 11
38.64593573531351
 21
143.2229906489345
 31
0.0
  0
INSERT
  5
19DD
330
18
100
AcDbEntity
  8
0
  6
ByBlock
 62
     2
100
AcDbBlockReference
  2
_OPEN
 10
38.64593573531351
 20
145.2229906489344
 30
0.0
 41
2.5
 42
2.5
 43
2.5
 50
270.0
  0
INSERT
  5
19DE
330
18
100
AcDbEntity
  8
0
  6
ByBlock
 62
     2
100
AcDbBlockReference
  2
_OPEN
 10
38.64593573531351
 20
143.2229906489345
 30
0.0
 41
2.5
 42
2.5
 43
2.5
 50
90.0
  0
MTEXT
  5
19DF
330
18
100
AcDbEntity
  8
0
  6
ByBlock
 62
     6
100
AcDbMText
 10
36.77093573531351
 20
136.7646573156011
 30
0.0
 40
2.5
 41
0.0
 71
     5
 72
     1
  1
\A1;2
  7
STYLE3
 11
0.0000000000000001
 21
1.0
 31
0.0
 73
     1
 44
1.0
  0
POINT
  5
19E1
330
18
100
AcDbEntity
  8
DEFPOINTS
  6
ByBlock
 62
     0
100
AcDbPoint
 10
46.65399399776393
 20
143.2229906489345
 30
0.0
  0
POINT
  5
19E2
330
18
100
AcDbEntity
  8
DEFPOINTS
  6
ByBlock
 62
     0
100
AcDbPoint
 10
38.64593573531351
 20
143.2229906489345
 30
0.0
  0
LINE
  5
19E3
330
18
100
AcDbEntity
  8
0
  6
ByBlock
 62
     2
100
AcDbLine
 10
46.65399399776393
 20
153.2229906489344
 30
0.0
 11
31.8726967226487
 21
153.2229906489344
 31
0.0
  0
LINE
  5
19E4
330
18
100
AcDbEntity
  8
0
  6
ByBlock
 62
     2
100
AcDbLine
 10
46.65399399776393
 20
143.2229906489345
 30
0.0
 11
31.8726967226487
 21
143.2229906489345
 31
0.0
  0
LINE
  5
19E5
330
18
100
AcDbEntity
  8
0
  6
ByBlock
 62
     2
100
AcDbLine
 10
33.1226967226487
 20
150.7229906489344
 30
0.0
 11
33.1226967226487
 21
145.7229906489345
 31
0.0
  0
INSERT
  5
19E6
330
18
100
AcDbEntity
  8
0
  6
ByBlock
 62
     2
100
AcDbBlockReference
  2
_OPEN
 10
33.1226967226487
 20
153.2229906489344
 30
0.0
 41
2.5
 42
2.5
 43
2.5
 50
90.0
  0
INSERT
  5
19E7
330
18
100
AcDbEntity
  8
0
  6
ByBlock
 62
     2
100
AcDbBlockReference
  2
_OPEN
 10
33.1226967226487
 20
143.2229906489345
 30
0.0
 41
2.5
 42
2.5
 43
2.5
 50
270.0
  0
MTEXT
  5
19E8
330
18
100
AcDbEntity
  8
0
  6
ByBlock
 62
     6
100
AcDbMText
 10
31.2476967226487
 20
148.2229906489344
 30
0.0
 40
2.5
 41
0.0
 71
     5
 72
     1
  1
\A1;10
  7
STYLE3
 11
0.0000000000000001
 21
1.0
 31
0.0
 73
     1
 44
1.0
  0
POINT
  5
19E9
330
18
100
AcDbEntity
  8
DEFPOINTS
  6
ByBlock
 62
     0
100
AcDbPoint
 10
46.65399399776393
 20
153.2229906489344
 30
0.0
  0
POINT
  5
19EA
330
18
100
AcDbEntity
  8
DEFPOINTS
  6
ByBlock
 62
     0
100
AcDbPoint
 10
46.65399399776393
 20
143.2229906489345
 30
0.0
  0
POINT
  5
19EB
330
18
100
AcDbEntity
  8
DEFPOINTS
  6
ByBlock
 62
     0
100
AcDbPoint
 10
33.1226967226487
 20
143.2229906489345
 30
0.0
  0
LINE
  5
19ED
330
18
100
AcDbEntity
  8
想像線
100
AcDbLine
 10
45.632661517624
 20
98.22299064893449
 30
0.0
 11
55.132661517624
 21
98.22299064893449
 31
0.0
  0
LINE
  5
19EE
330
18
100
AcDbEntity
  8
想像線
100
AcDbLine
 10
44.63266151762399
 20
97.22299064893448
 30
0.0
 11
44.63266151762399
 21
95.22299064893449
 31
0.0
  0
LINE
  5
19F0
330
18
100
AcDbEntity
  8
想像線
100
AcDbLine
 10
44.63266151762399
 20
95.22299064893449
 30
0.0
 11
55.132661517624
 21
95.22299064893449
 31
0.0
  0
ARC
  5
19F1
330
18
100
AcDbEntity
  8
想像線
100
AcDbCircle
 10
46.65399399776394
 20
94.47299064893455
 30
0.0
 40
1.25
100
AcDbArc
 50
180.0
 51
269.9999999999998
  0
POINT
  5
19F2
330
18
100
AcDbEntity
  8
想像線
  6
ByBlock
100
AcDbPoint
 10
44.63266151762399
 20
95.22299064893449
 30
0.0
  0
LINE
  5
19F3
330
18
100
AcDbEntity
  8
想像線
100
AcDbLine
 10
45.40399399776394
 20
95.2229906489345
 30
0.0
 11
45.40399399776394
 21
94.47299064893455
 31
0.0
  0
POINT
  5
19F4
330
18
100
AcDbEntity
  8
想像線
  6
ByBlock
100
AcDbPoint
 10
46.65399399776394
 20
93.22299064893455
 30
0.0
  0
POINT
  5
19F5
330
18
100
AcDbEntity
  8
想像線
  6
ByBlock
100
AcDbPoint
 10
46.65399399776394
 20
93.22299064893455
 30
0.0
  0
LINE
  5
19F6
330
18
100
AcDbEntity
  8
想像線
100
AcDbLine
 10
47.90399399776394
 20
95.2229906489345
 30
0.0
 11
47.90399399776394
 21
94.47299064893455
 31
0.0
  0
ARC
  5
19F7
330
18
100
AcDbEntity
  8
想像線
100
AcDbCircle
 10
46.65399399776394
 20
94.47299064893455
 30
0.0
 40
1.25
100
AcDbArc
 50
269.9999999999996
 51
0.0
  0
LINE
  5
19F8
330
18
100
AcDbEntity
  8
想像線
100
AcDbLine
 10
46.65399399776393
 20
93.22299064893455
 30
0.0
 11
46.65399399776393
 21
93.22299064893455
 31
0.0
  0
LINE
  5
19F9
330
18
100
AcDbEntity
  8
想像線
 48
0.5
100
AcDbLine
 10
55.132661517624
 20
95.22299064893449
 30
0.0
 11
81.45116841815816
 21
94.31044932808019
 31
0.0
  0
LINE
  5
19FA
330
18
100
AcDbEntity
  8
想像線
 48
0.5
100
AcDbLine
 10
54.632661517624
 20
98.22299064893449
 30
0.0
 11
82.07959936100133
 21
103.6698578505329
 31
0.0
  0
ARC
  5
19FB
330
18
100
AcDbEntity
  8
想像線
100
AcDbCircle
 10
45.632661517624
 20
97.22299064893448
 30
0.0
 40
1.0
100
AcDbArc
 50
90.0
 51
180.0
  0
SPLINE
  5
19FC
330
18
100
AcDbEntity
  8
寸法線
100
AcDbSpline
210
0.0
220
0.0
230
1.0
 70
     8
 71
     3
 72
    11
 73
     7
 74
     5
 42
0.0000000001
 43
0.0000000001
 44
0.0000000001
 40
0.0
 40
0.0
 40
0.0
 40
0.0
 40
7.191121153331306
 40
9.672442569983605
 40
11.59739933300602
 40
14.32003080979627
 40
14.32003080979627
 40
14.32003080979627
 40
14.32003080979627
 10
83.44326958935358
 20
105.2548757894798
 30
0.0
 10
81.29363354112284
 20
102.812822354904
 30
0.0
 10
78.40225808247878
 20
99.52812987161539
 30
0.0
 10
82.92050318716775
 20
97.08442803376208
 30
0.0
 10
81.61063569830629
 20
94.59723396680642
 30
0.0
 10
80.90454636350139
 20
93.29601462808374
 30
0.0
 10
80.49090794521431
 20
92.53373954108997
 30
0.0
 11
83.44326958935358
 21
105.2548757894798
 31
0.0
 11
80.67542978784308
 21
98.61776148618027
 31
0.0
 11
82.33613366874942
 21
96.77411873535243
 31
0.0
 11
81.78256570844723
 21
94.93047531732589
 31
0.0
 11
80.49090794521431
 21
92.53373954108997
 31
0.0
  0
LINE
  5
19FE
330
18
100
AcDbEntity
  8
想像線
 48
0.2
100
AcDbLine
 10
45.78654507378099
 20
161.2229906489345
 30
0.0
 11
45.78654507378099
 21
161.9729906489345
 31
0.0
  0
LINE
  5
19FF
330
18
100
AcDbEntity
  8
想像線
 48
0.2
100
AcDbLine
 10
48.286545073781
 20
161.2229906489345
 30
0.0
 11
48.286545073781
 21
161.9729906489345
 31
0.0
  0
POINT
  5
1A00
330
18
100
AcDbEntity
  8
想像線
  6
ByBlock
 48
0.2
100
AcDbPoint
 10
45.01521259364105
 20
161.2229906489345
 30
0.0
  0
LINE
  5
1A01
330
18
100
AcDbEntity
  8
想像線
 48
0.2
100
AcDbLine
 10
45.01521259364105
 20
161.2229906489345
 30
0.0
 11
45.01521259364105
 21
159.2229906489345
 31
0.0
  0
ARC
  5
1A03
330
18
100
AcDbEntity
  8
想像線
 48
0.2
100
AcDbCircle
 10
46.01521259364105
 20
159.2229906489345
 30
0.0
 40
1.0
100
AcDbArc
 50
180.0
 51
270.0
  0
ARC
  5
1A04
330
18
100
AcDbEntity
  8
想像線
 48
0.2
100
AcDbCircle
 10
47.03654507378099
 20
161.9729906489345
 30
0.0
 40
1.25
100
AcDbArc
 50
90.00000000000017
 51
180.0
  0
POINT
  5
1A05
330
18
100
AcDbEntity
  8
想像線
  6
ByBlock
 48
0.2
100
AcDbPoint
 10
47.03654507378099
 20
163.2229906489345
 30
0.0
  0
POINT
  5
1A06
330
18
100
AcDbEntity
  8
想像線
  6
ByBlock
 48
0.2
100
AcDbPoint
 10
47.03654507378099
 20
163.2229906489345
 30
0.0
  0
ARC
  5
1A07
330
18
100
AcDbEntity
  8
想像線
 48
0.2
100
AcDbCircle
 10
47.03654507378099
 20
161.9729906489345
 30
0.0
 40
1.25
100
AcDbArc
 50
0.0
 51
90.00000000000042
  0
LINE
  5
1A08
330
18
100
AcDbEntity
  8
想像線
 48
0.2
100
AcDbLine
 10
45.01521259364105
 20
161.2229906489345
 30
0.0
 11
55.51521259364105
 21
161.2229906489345
 31
0.0
  0
LINE
  5
1A09
330
18
100
AcDbEntity
  8
想像線
 48
0.2
100
AcDbLine
 10
46.01521259364105
 20
158.2229906489345
 30
0.0
 11
55.51521259364105
 21
158.2229906489345
 31
0.0
  0
DIMENSION
  5
1A18
330
18
100
AcDbEntity
  8
外形線
100
AcDbDimension
  2
*D4
 10
23.25823045576453
 20
93.22299064893455
 30
0.0
 11
21.38323045576452
 21
128.2229906489345
 31
0.0
 70
    32
 71
     5
 42
69.99999999999992
  3
STYLE3
100
AcDbAlignedDimension
 13
47.03654507378099
 23
163.2229906489345
 33
0.0
 14
46.65399399776394
 24
93.22299064893455
 34
0.0
 50
90.0
100
AcDbRotatedDimension
1001
ACAD
1000
DSTYLE
1002
{
1070
   271
1070
     2
1002
}
  0
LINE
  5
1A2A
330
18
100
AcDbEntity
  8
0
  6
ByBlock
 62
     2
100
AcDbLine
 10
45.78654507378099
 20
161.9729906489345
 30
0.0
 11
45.78654507378099
 21
187.3147286299533
 31
0.0
  0
LINE
  5
1A2B
330
18
100
AcDbEntity
  8
0
  6
ByBlock
 62
     2
100
AcDbLine
 10
48.286545073781
 20
161.9729906489345
 30
0.0
 11
48.286545073781
 21
187.3147286299533
 31
0.0
  0
LINE
  5
1A2C
330
18
100
AcDbEntity
  8
0
  6
ByBlock
 62
     2
100
AcDbLine
 10
43.28654507378099
 20
186.0647286299533
 30
0.0
 11
26.39377810592634
 21
186.0647286299533
 31
0.0
  0
LINE
  5
1A2D
330
18
100
AcDbEntity
  8
0
  6
ByBlock
 62
     2
100
AcDbLine
 10
50.786545073781
 20
186.0647286299533
 30
0.0
 11
53.50086968971637
 21
186.0647286299533
 31
0.0
  0
LINE
  5
1A2E
330
18
100
AcDbEntity
  8
0
  6
ByBlock
 62
     2
100
AcDbLine
 10
45.78654507378099
 20
186.0647286299533
 30
0.0
 11
48.286545073781
 21
186.0647286299533
 31
0.0
  0
INSERT
  5
1A2F
330
18
100
AcDbEntity
  8
0
  6
ByBlock
 62
     2
100
AcDbBlockReference
  2
_OPEN
 10
45.78654507378099
 20
186.0647286299533
 30
0.0
 41
2.5
 42
2.5
 43
2.5
  0
INSERT
  5
1A30
330
18
100
AcDbEntity
  8
0
  6
ByBlock
 62
     2
100
AcDbBlockReference
  2
_OPEN
 10
48.286545073781
 20
186.0647286299533
 30
0.0
 41
2.5
 42
2.5
 43
2.5
 50
180.0
  0
MTEXT
  5
1A31
330
18
100
AcDbEntity
  8
0
  6
ByBlock
 62
     6
100
AcDbMText
 10
35.6795332601851
 20
188.30845664636
 30
0.0
 40
2.5
 41
0.0
 71
     5
 72
     1
  1
2-φ2.5
  7
STYLE3
 73
     1
 44
1.0
  0
POINT
  5
1A32
330
18
100
AcDbEntity
  8
DEFPOINTS
  6
ByBlock
 62
     0
100
AcDbPoint
 10
45.78654507378099
 20
161.9729906489345
 30
0.0
  0
POINT
  5
1A33
330
18
100
AcDbEntity
  8
DEFPOINTS
  6
ByBlock
 62
     0
100
AcDbPoint
 10
48.286545073781
 20
161.9729906489345
 30
0.0
  0
POINT
  5
1A34
330
18
100
AcDbEntity
  8
DEFPOINTS
  6
ByBlock
 62
     0
100
AcDbPoint
 10
48.286545073781
 20
186.0647286299533
 30
0.0
  0
CIRCLE
  5
1A5C
330
18
100
AcDbEntity
  8
外形線
100
AcDbCircle
 10
162.632661517624
 20
138.0229906489344
 30
0.0
 40
1.75
  0
CIRCLE
  5
1A5D
330
18
100
AcDbEntity
  8
外形線
100
AcDbCircle
 10
178.632661517624
 20
138.0229906489344
 30
0.0
 40
1.75
  0
CIRCLE
  5
1A5E
330
18
100
AcDbEntity
  8
外形線
100
AcDbCircle
 10
178.632661517624
 20
118.0229906489344
 30
0.0
 40
1.75
  0
CIRCLE
  5
1A5F
330
18
100
AcDbEntity
  8
外形線
100
AcDbCircle
 10
162.632661517624
 20
118.0229906489344
 30
0.0
 40
1.75
  0
LINE
  5
1A60
330
18
100
AcDbEntity
  8
外形線
100
AcDbLine
 10
162.632661517624
 20
118.0229906489344
 30
0.0
 11
163.4991736285635
 21
117.1525178657656
 31
0.0
  0
LINE
  5
1A61
330
18
100
AcDbEntity
  8
外形線
100
AcDbLine
 10
162.632661517624
 20
118.0229906489344
 30
0.0
 11
161.8572227396282
 21
118.7783522264579
 31
0.0
  0
LINE
  5
1A62
330
18
100
AcDbEntity
  8
外形線
100
AcDbLine
 10
162.632661517624
 20
118.0229906489344
 30
0.0
 11
163.4081002956197
 21
118.7783522264579
 31
0.0
  0
LINE
  5
1A63
330
18
100
AcDbEntity
  8
外形線
100
AcDbLine
 10
162.632661517624
 20
118.0229906489344
 30
0.0
 11
161.8029503692146
 21
117.1819336217007
 31
0.0
  0
LINE
  5
1A64
330
18
100
AcDbEntity
  8
外形線
100
AcDbLine
 10
178.632661517624
 20
118.0229906489344
 30
0.0
 11
179.4081002956197
 21
118.7783522264579
 31
0.0
  0
LINE
  5
1A65
330
18
100
AcDbEntity
  8
外形線
100
AcDbLine
 10
178.632661517624
 20
118.0229906489344
 30
0.0
 11
177.8572227396282
 21
118.7783522264579
 31
0.0
  0
LINE
  5
1A66
330
18
100
AcDbEntity
  8
外形線
100
AcDbLine
 10
178.632661517624
 20
118.0229906489344
 30
0.0
 11
177.8029503692146
 21
117.1819336217007
 31
0.0
  0
LINE
  5
1A67
330
18
100
AcDbEntity
  8
外形線
100
AcDbLine
 10
178.632661517624
 20
118.0229906489344
 30
0.0
 11
179.4991736285635
 21
117.1525178657656
 31
0.0
  0
LINE
  5
1A68
330
18
100
AcDbEntity
  8
外形線
100
AcDbLine
 10
178.632661517624
 20
138.0229906489344
 30
0.0
 11
179.4081002956197
 21
138.778352226458
 31
0.0
  0
LINE
  5
1A69
330
18
100
AcDbEntity
  8
外形線
100
AcDbLine
 10
178.632661517624
 20
138.0229906489344
 30
0.0
 11
177.8572227396282
 21
138.778352226458
 31
0.0
  0
LINE
  5
1A6A
330
18
100
AcDbEntity
  8
外形線
100
AcDbLine
 10
178.632661517624
 20
138.0229906489344
 30
0.0
 11
177.8029503692146
 21
137.1819336217007
 31
0.0
  0
LINE
  5
1A6B
330
18
100
AcDbEntity
  8
外形線
100
AcDbLine
 10
178.632661517624
 20
138.0229906489344
 30
0.0
 11
179.4991736285635
 21
137.1525178657656
 31
0.0
  0
LINE
  5
1A6C
330
18
100
AcDbEntity
  8
外形線
100
AcDbLine
 10
162.632661517624
 20
138.0229906489344
 30
0.0
 11
163.4081002956197
 21
138.778352226458
 31
0.0
  0
LINE
  5
1A6D
330
18
100
AcDbEntity
  8
外形線
100
AcDbLine
 10
162.632661517624
 20
138.0229906489344
 30
0.0
 11
161.8572227396282
 21
138.778352226458
 31
0.0
  0
LINE
  5
1A6E
330
18
100
AcDbEntity
  8
外形線
100
AcDbLine
 10
162.632661517624
 20
138.0229906489344
 30
0.0
 11
161.8029503692146
 21
137.1819336217007
 31
0.0
  0
LINE
  5
1A6F
330
18
100
AcDbEntity
  8
外形線
100
AcDbLine
 10
162.632661517624
 20
138.0229906489344
 30
0.0
 11
163.4991736285635
 21
137.1525178657656
 31
0.0
  0
DIMENSION
  5
1A7C
330
18
100
AcDbEntity
  8
外形線
100
AcDbDimension
  2
*D5
 10
176.132661517624
 20
67.86050925752443
 30
0.0
 11
170.632661517624
 21
69.73550925752443
 31
0.0
 70
    32
 71
     5
 42
11.0
  3
STYLE3
100
AcDbAlignedDimension
 13
165.132661517624
 23
57.22299064893445
 33
0.0
 14
176.132661517624
 24
57.22299064893445
 34
0.0
100
AcDbRotatedDimension
1001
ACAD
1000
DSTYLE
1002
{
1070
   271
1070
     2
1002
}
  0
LINE
  5
1A81
330
18
100
AcDbEntity
  8
0
  6
ByBlock
 62
     2
100
AcDbLine
 10
38.64593573531351
 20
148.0434730830112
 30
0.0
 11
38.64593573531351
 21
143.3063239822678
 31
0.0
  0
LINE
  5
1A82
330
18
100
AcDbEntity
  8
0
  6
ByBlock
 62
     2
100
AcDbLine
 10
38.64593573531351
 20
148.3336799404333
 30
0.0
 11
38.64593573531351
 21
150.2229906489344
 31
0.0
  0
LINE
  5
1A83
330
18
100
AcDbEntity
  8
外形線
100
AcDbLine
 10
44.63266151762399
 20
151.0229906489344
 30
0.0
 11
54.65399399776396
 21
151.0229906489344
 31
0.0
  0
LINE
  5
1A84
330
18
100
AcDbEntity
  8
外形線
100
AcDbLine
 10
44.63266151762399
 20
145.4229906489344
 30
0.0
 11
55.132661517624
 21
145.4229906489344
 31
0.0
  0
LINE
  5
1A8E
330
18
100
AcDbEntity
  8
外形線
100
AcDbLine
 10
14.98612051750115
 20
151.0229906489345
 30
0.0
 11
14.98612051750115
 21
148.3229906489345
 31
0.0
  0
LINE
  5
1A8F
330
18
100
AcDbEntity
  8
外形線
100
AcDbLine
 10
17.98612051750115
 20
151.0229906489345
 30
0.0
 11
17.98612051750115
 21
148.3229906489345
 31
0.0
  0
LINE
  5
1A90
330
18
100
AcDbEntity
  8
外形線
100
AcDbLine
 10
17.98612051750115
 20
151.0229906489345
 30
0.0
 11
14.98612051750115
 21
151.0229906489345
 31
0.0
  0
LINE
  5
1A91
330
18
100
AcDbEntity
  8
外形線
100
AcDbLine
 10
17.98612051750115
 20
145.4229906489344
 30
0.0
 11
14.98612051750115
 21
145.4229906489344
 31
0.0
  0
LINE
  5
1A93
330
18
100
AcDbEntity
  8
外形線
100
AcDbLine
 10
17.73612051750115
 20
145.4291602199044
 30
0.0
 11
17.73612051750115
 21
144.6791602199044
 31
0.0
  0
ARC
  5
1A94
330
18
100
AcDbEntity
  8
外形線
100
AcDbCircle
 10
16.48612051750115
 20
144.6791602199044
 30
0.0
 40
1.25
100
AcDbArc
 50
269.9999999999996
 51
0.0
  0
ARC
  5
1A95
330
18
100
AcDbEntity
  8
外形線
100
AcDbCircle
 10
16.48612051750115
 20
144.6791602199044
 30
0.0
 40
1.25
100
AcDbArc
 50
180.0
 51
269.9999999999998
  0
LINE
  5
1A96
330
18
100
AcDbEntity
  8
外形線
100
AcDbLine
 10
15.23612051750115
 20
144.6791602199044
 30
0.0
 11
15.23612051750115
 21
145.4420235005137
 31
0.0
  0
LINE
  5
1A97
330
18
100
AcDbEntity
  8
中心線
 48
0.2
100
AcDbLine
 10
16.48612051750115
 20
153.8613426012111
 30
0.0
 11
16.48612051750115
 21
141.9167915277247
 31
0.0
  0
ARC
  5
1A98
330
18
100
AcDbEntity
  8
外形線
100
AcDbCircle
 10
16.48612051750115
 20
151.7668210779644
 30
0.0
 40
1.25
100
AcDbArc
 50
0.0
 51
90.00000000000042
  0
ARC
  5
1A99
330
18
100
AcDbEntity
  8
外形線
100
AcDbCircle
 10
16.48612051750115
 20
151.7668210779644
 30
0.0
 40
1.25
100
AcDbArc
 50
90.00000000000017
 51
180.0
  0
LINE
  5
1A9A
330
18
100
AcDbEntity
  8
外形線
100
AcDbLine
 10
15.23612051750115
 20
151.7668210779644
 30
0.0
 11
15.23612051750115
 21
151.0039577973552
 31
0.0
  0
LINE
  5
1A9B
330
18
100
AcDbEntity
  8
外形線
100
AcDbLine
 10
17.73612051750115
 20
151.0168210779645
 30
0.0
 11
17.73612051750115
 21
151.7668210779644
 31
0.0
  0
LINE
  5
1A9C
330
18
100
AcDbEntity
  8
外形線
100
AcDbLine
 10
17.88612051750115
 20
148.2229906489345
 30
0.0
 11
15.08612051750114
 21
148.2229906489345
 31
0.0
  0
ARC
  5
1A9E
330
18
100
AcDbEntity
  8
外形線
100
AcDbCircle
 10
15.08612051750114
 20
148.3229906489345
 30
0.0
 40
0.1
100
AcDbArc
 50
180.0
 51
270.0
  0
ARC
  5
1A9F
330
18
100
AcDbEntity
  8
外形線
100
AcDbCircle
 10
17.88612051750115
 20
148.3229906489345
 30
0.0
 40
0.1
100
AcDbArc
 50
270.0
 51
0.0
  0
ARC
  5
1AA0
330
18
100
AcDbEntity
  8
外形線
100
AcDbCircle
 10
15.08612051750114
 20
148.1229906489345
 30
0.0
 40
0.1
100
AcDbArc
 50
90.00000000000003
 51
180.0
  0
ARC
  5
1AA1
330
18
100
AcDbEntity
  8
外形線
100
AcDbCircle
 10
17.88612051750115
 20
148.1229906489345
 30
0.0
 40
0.1
100
AcDbArc
 50
0.0
 51
90.00000000000003
  0
LINE
  5
1AA2
330
18
100
AcDbEntity
  8
外形線
100
AcDbLine
 10
14.98612051750115
 20
148.1229906489345
 30
0.0
 11
14.98612051750115
 21
145.4229906489344
 31
0.0
  0
LINE
  5
1AA3
330
18
100
AcDbEntity
  8
外形線
100
AcDbLine
 10
17.98612051750115
 20
148.1229906489345
 30
0.0
 11
17.98612051750115
 21
145.4229906489344
 31
0.0
  0
LINE
  5
1AA4
330
18
100
AcDbEntity
  8
外形線
100
AcDbLine
 10
182.3231190948743
 20
132.9424378240948
 30
0.0
 11
182.3231190948743
 21
122.9424378240947
 31
0.0
  0
LINE
  5
1AA5
330
18
100
AcDbEntity
  8
外形線
100
AcDbLine
 10
185.8231190948743
 20
132.9424378240948
 30
0.0
 11
185.8231190948743
 21
122.9424378240947
 31
0.0
  0
LINE
  5
1AA6
330
18
100
AcDbEntity
  8
外形線
100
AcDbLine
 10
182.3231190948743
 20
132.9424378240948
 30
0.0
 11
185.8231190948743
 21
132.9424378240948
 31
0.0
  0
LINE
  5
1AA7
330
18
100
AcDbEntity
  8
外形線
100
AcDbLine
 10
182.3231190948743
 20
122.9424378240947
 30
0.0
 11
185.8231190948743
 21
122.9424378240947
 31
0.0
  0
LINE
  5
1AA8
330
18
100
AcDbEntity
  8
隠れ線2
 48
0.5
100
AcDbLine
 10
176.132661517624
 20
129.5229906489344
 30
0.0
 11
182.1363123921246
 21
129.5229906489344
 31
0.0
  0
LINE
  5
1AA9
330
18
100
AcDbEntity
  8
隠れ線2
 48
0.5
100
AcDbLine
 10
176.132661517624
 20
126.5229906489345
 30
0.0
 11
182.1363123921246
 21
126.5229906489344
 31
0.0
  0
LINE
  5
1AAA
330
18
100
AcDbEntity
  8
隠れ線2
 48
0.5
100
AcDbLine
 10
176.132661517624
 20
129.2729906489344
 30
0.0
 11
182.1363123921246
 21
129.2729906489344
 31
0.0
  0
LINE
  5
1AAB
330
18
100
AcDbEntity
  8
隠れ線2
 48
0.5
100
AcDbLine
 10
176.132661517624
 20
126.7729906489345
 30
0.0
 11
182.1363123921246
 21
126.7729906489345
 31
0.0
  0
LINE
  5
1AAD
330
18
100
AcDbEntity
  8
外形線
100
AcDbLine
 10
182.3231190948743
 20
131.9424378240948
 30
0.0
 11
185.8231190948743
 21
131.9424378240948
 31
0.0
  0
LINE
  5
1AAE
330
18
100
AcDbEntity
  8
外形線
100
AcDbLine
 10
182.3231190948743
 20
130.9424378240948
 30
0.0
 11
185.8231190948743
 21
130.9424378240948
 31
0.0
  0
LINE
  5
1AAF
330
18
100
AcDbEntity
  8
外形線
100
AcDbLine
 10
182.3231190948743
 20
129.9424378240948
 30
0.0
 11
185.8231190948743
 21
129.9424378240948
 31
0.0
  0
LINE
  5
1AB0
330
18
100
AcDbEntity
  8
外形線
100
AcDbLine
 10
182.3231190948743
 20
128.9424378240948
 30
0.0
 11
185.8231190948743
 21
128.9424378240948
 31
0.0
  0
LINE
  5
1AB1
330
18
100
AcDbEntity
  8
外形線
100
AcDbLine
 10
182.3231190948743
 20
132.4424378240948
 30
0.0
 11
185.8231190948743
 21
132.4424378240948
 31
0.0
  0
LINE
  5
1AB2
330
18
100
AcDbEntity
  8
外形線
100
AcDbLine
 10
182.3231190948743
 20
131.4424378240948
 30
0.0
 11
185.8231190948743
 21
131.4424378240948
 31
0.0
  0
LINE
  5
1AB3
330
18
100
AcDbEntity
  8
外形線
100
AcDbLine
 10
182.3231190948743
 20
130.4424378240948
 30
0.0
 11
185.8231190948743
 21
130.4424378240948
 31
0.0
  0
LINE
  5
1AB4
330
18
100
AcDbEntity
  8
外形線
100
AcDbLine
 10
182.3231190948743
 20
129.4424378240948
 30
0.0
 11
185.8231190948743
 21
129.4424378240948
 31
0.0
  0
LINE
  5
1AC2
330
18
100
AcDbEntity
  8
寸法線
100
AcDbLine
 10
131.6539939977639
 20
143.4685362828845
 30
0.0
 11
131.6539939977639
 21
119.7205672732656
 31
0.0
  0
LINE
  5
1AE5
330
18
100
AcDbEntity
  8
隠れ線2
100
AcDbLine
 10
250.2093721018568
 20
150.2199574792748
 30
0.0
 11
337.7093721018568
 21
150.2199574792747
 31
0.0
  0
LINE
  5
1AE6
330
18
100
AcDbEntity
  8
隠れ線2
100
AcDbLine
 10
250.2093721018568
 20
126.7199574792748
 30
0.0
 11
337.7093721018568
 21
126.7199574792748
 31
0.0
  0
LINE
  5
1AF0
330
18
100
AcDbEntity
  8
隠れ線2
100
AcDbLine
 10
339.7093721018568
 20
148.2199574792747
 30
0.0
 11
339.7093721018568
 21
128.7199574792748
 31
0.0
  0
ARC
  5
1AF1
330
18
100
AcDbEntity
  8
隠れ線2
100
AcDbCircle
 10
337.7093721018568
 20
148.2199574792747
 30
0.0
 40
2.0
100
AcDbArc
 50
0.0
 51
89.99999999999994
  0
ARC
  5
1AF2
330
18
100
AcDbEntity
  8
隠れ線2
100
AcDbCircle
 10
337.7093721018568
 20
128.7199574792748
 30
0.0
 40
2.0
100
AcDbArc
 50
270.0
 51
0.0
  0
DIMENSION
  5
1B24
330
18
100
AcDbEntity
  8
外形線
100
AcDbDimension
  2
*D7
 10
33.1226967226487
 20
153.2229906489344
 30
0.0
 11
31.24769672264867
 21
158.2229906489344
 31
0.0
 70
    32
 71
     5
 42
10.00000000000008
  3
STYLE3
100
AcDbAlignedDimension
 13
22.00823045576454
 23
163.2229906489345
 33
0.0
 14
31.8726967226487
 24
153.2229906489344
 34
0.0
 50
90.0
100
AcDbRotatedDimension
1001
ACAD
1000
DSTYLE
1002
{
1070
   271
1070
     2
1002
}
  0
LINE
  5
1B25
330
18
100
AcDbEntity
  8
想像線
 48
0.2
100
AcDbLine
 10
96.65399399776395
 20
153.9252667474342
 30
0.0
 11
96.65399399776397
 21
144.5885216903977
 31
0.0
  0
LINE
  5
1B2C
330
18
100
AcDbEntity
  8
想像線
 48
0.1
100
AcDbLine
 10
54.65399399776396
 20
145.4229906489344
 30
0.0
 11
54.65399399776396
 21
151.0229906489344
 31
0.0
  0
MTEXT
  5
31D4
330
18
100
AcDbEntity
  8
DEFPOINTS
  6
Continuous
100
AcDbMText
 10
1941.979128215745
 20
732.3565829646542
 30
0.0
 40
0.5
 41
0.0
 71
     4
 72
     1
  1
\A1;
 73
     1
 44
1.0
  0
MTEXT
  5
327B
330
18
100
AcDbEntity
  8
文字
 62
     6
100
AcDbMText
 10
637.2122791256511
 20
339.9419202573997
 30
0.0
 40
2.5
 41
0.0
 71
     4
 72
     1
  1
\A1;
  7
STYLE3
 73
     1
 44
1.0
  0
ARC
  5
328A
330
18
100
AcDbEntity
  8
外形線
100
AcDbCircle
 10
170.632661517624
 20
177.2229906489344
 30
0.0
 40
3.5
100
AcDbArc
 50
3.933831781054928
 51
176.066168219286
  0
LINE
  5
328B
330
18
100
AcDbEntity
  8
外形線
100
AcDbLine
 10
166.0896022691153
 20
165.403327781565
 30
0.0
 11
167.1431327219858
 21
177.4935249063066
 31
0.0
  0
LINE
  5
328C
330
18
100
AcDbEntity
  8
外形線
100
AcDbLine
 10
175.1626996518529
 20
165.4081765113836
 30
0.0
 11
174.1221903132622
 21
177.4935249063066
 31
0.0
  0
ARC
  5
3517
330
18
100
AcDbEntity
  8
隠れ線2
100
AcDbCircle
 10
170.632661517624
 20
153.2229906489344
 30
0.0
 40
13.0
100
AcDbArc
 50
95.04220563188512
 51
115.7293131469163
  0
ARC
  5
3518
330
18
100
AcDbEntity
  8
隠れ線2
100
AcDbCircle
 10
164.2167248650953
 20
225.94049718533
 30
0.0
 40
60.0
100
AcDbArc
 50
275.0422056318851
 51
280.3848304828295
  0
ARC
  5
3519
330
18
100
AcDbEntity
  8
外形線
100
AcDbCircle
 10
164.2167248650953
 20
225.94049718533
 30
0.0
 40
60.0
100
AcDbArc
 50
280.3848304828295
 51
327.5464498560431
  0
ARC
  5
351A
330
18
100
AcDbEntity
  8
隠れ線2
100
AcDbCircle
 10
170.632661517624
 20
153.2229906489344
 30
0.0
 40
13.0
100
AcDbArc
 50
123.5346986182304
 51
165.2155292469056
  0
ARC
  5
351B
330
18
100
AcDbEntity
  8
隠れ線2
100
AcDbCircle
 10
123.4135383082497
 20
106.544852834472
 30
0.0
 40
49.14499855686891
100
AcDbArc
 50
45.78518568922565
 51
91.86689777758653
  0
ARC
  5
3541
330
18
100
AcDbEntity
  8
外形線
100
AcDbCircle
 10
170.632661517624
 20
153.2229906489344
 30
0.0
 40
13.0
100
AcDbArc
 50
49.62880925773233
 51
69.60657591660741
  0
ARC
  5
354D
330
18
100
AcDbEntity
  8
外形線
100
AcDbCircle
 10
123.132661517624
 20
255.7549906489345
 30
0.0
 40
100.0
100
AcDbArc
 50
269.9999999999999
 51
295.443021463395
  0
LINE
  5
3550
330
18
100
AcDbEntity
  8
外形線
100
AcDbLine
 10
54.65399399776396
 20
151.0229906489344
 30
0.0
 11
123.132661517624
 21
155.7549906489344
 31
0.0
  0
DIMENSION
  5
359B
330
18
100
AcDbEntity
  8
外形線
100
AcDbDimension
  2
*D8
 10
105.29729964501
 20
146.9044884585126
 30
0.0
 11
103.42229964501
 21
151.5728609870309
 31
0.0
 70
    32
  1
10
 71
     5
 42
9.336745057036495
  3
STYLE3
100
AcDbAlignedDimension
 13
96.65399399776395
 23
153.9252667474342
 33
0.0
 14
96.65399399776397
 24
144.5885216903977
 34
0.0
 50
90.0
100
AcDbRotatedDimension
1001
ACAD
1000
DSTYLE
1002
{
1070
   271
1070
     2
1002
}
  0
DIMENSION
  5
35C0
330
18
100
AcDbEntity
  8
外形線
100
AcDbDimension
  2
*D9
 10
17.98612051750115
 20
167.5926209872868
 30
0.0
 11
27.18254908892972
 21
169.4676209872868
 31
0.0
 70
    32
  1
2-3
 71
     5
 42
3.0
  3
STYLE3
100
AcDbAlignedDimension
 13
14.98612051750115
 23
151.0229906489345
 33
0.0
 14
17.98612051750115
 24
151.0229906489345
 34
0.0
100
AcDbRotatedDimension
1001
ACAD
1000
DSTYLE
1002
{
1070
   271
1070
     2
1002
}
  0
LINE
  5
35CE
330
18
100
AcDbEntity
  8
想像線
 48
0.5
100
AcDbLine
 10
131.6539939977639
 20
139.0652419916157
 30
0.0
 11
131.6539939977639
 21
163.6743776467159
 31
0.0
  0
LINE
  5
35F1
330
18
100
AcDbEntity
  8
中心線
 48
0.5
100
AcDbLine
 10
166.2197779892558
 20
177.5941374843159
 30
0.0
 11
209.3391288032317
 21
173.997223571004
 31
0.0
  0
LINE
  5
361B
330
18
100
AcDbEntity
  8
中心線
100
AcDbLine
 10
246.0051590635569
 20
138.4699574792748
 30
0.0
 11
355.8186748407256
 21
138.4699574792748
 31
0.0
  0
DIMENSION
  5
3704
330
18
100
AcDbEntity
  8
中心線
100
AcDbDimension
  2
*D10
 10
27.24001733226203
 20
145.4229906489344
 30
0.0
 11
25.365017332262
 21
137.1789430298868
 31
0.0
 70
    32
 71
     5
 42
5.600000000000022
  3
STYLE3
100
AcDbAlignedDimension
 13
49.64332775769398
 23
151.0229906489344
 33
0.0
 14
49.882661517624
 24
145.4229906489344
 34
0.0
 50
90.0
100
AcDbRotatedDimension
1001
ACAD
1000
DSTYLE
1002
{
1070
   271
1070
     2
1070
   341
1005
0
1002
}
  0
LINE
  5
3755
330
18
100
AcDbEntity
  8
外形線
100
AcDbLine
 10
107.3123754415754
 20
262.6443918019842
 30
0.0
 11
229.3123754415754
 21
262.6443918019842
 31
0.0
  0
LINE
  5
3756
330
18
100
AcDbEntity
  8
外形線
100
AcDbLine
 10
107.3123754415754
 20
263.6443918019842
 30
0.0
 11
229.3123754415754
 21
263.6443918019842
 31
0.0
  0
TEXT
  5
3757
330
18
100
AcDbEntity
  8
文字
100
AcDbText
 10
107.9330824415754
 20
266.1175038019842
 30
0.0
 40
4.0
  1
Model No.LB-7 Inside Dial Caliper Gauge
  7
STYLE3
100
AcDbText
  0
TEXT
  5
3758
330
18
100
AcDbEntity
  8
0
  6
Continuous
100
AcDbText
 10
310.43015598774
 20
2.636549277875765
 30
0.0
 40
2.1
  1
Date
  7
STYLE3
100
AcDbText
  0
TEXT
  5
3759
330
18
100
AcDbEntity
  8
0
  6
Continuous
100
AcDbText
 10
310.04679498774
 20
5.969632277875767
 30
0.0
 40
3.0
  1
日 付
  7
STYLE3
100
AcDbText
  0
TEXT
  5
375A
330
18
100
AcDbEntity
  8
0
  6
Continuous
100
AcDbText
 10
319.1749629877401
 20
4.384689277875768
 30
0.0
 40
2.1
  1
2010.06.29
  7
STYLE3
100
AcDbText
  0
TEXT
  5
375B
330
18
100
AcDbEntity
  8
0
  6
Continuous
100
AcDbText
 10
300.3363839877401
 20
4.676047277875767
 30
0.0
 40
2.399999999999999
  1
1/1
  7
STYLE3
100
AcDbText
  0
TEXT
  5
375C
330
18
100
AcDbEntity
  8
0
  6
Continuous
100
AcDbText
 10
280.97803198774
 20
4.384690277875769
 30
0.0
 40
2.399999999999999
  1
mm
  7
STYLE3
100
AcDbText
  0
TEXT
  5
375D
330
18
100
AcDbEntity
  8
0
  6
Continuous
100
AcDbText
 10
290.2538799877401
 20
5.847427277875766
 30
0.0
 40
3.0
  1
尺 度
  7
STYLE3
100
AcDbText
  0
TEXT
  5
375E
330
18
100
AcDbEntity
  8
0
  6
Continuous
100
AcDbText
 10
290.71709498774
 20
2.927905277875765
 30
0.0
 40
2.1
  1
Scale
  7
STYLE3
100
AcDbText
  0
LINE
  5
375F
330
18
100
AcDbEntity
  8
外形線
100
AcDbLine
 10
338.2305539877401
 20
10.50318427787577
 30
0.0
 11
338.2305539877401
 21
0.8884062778757666
 31
0.0
  0
LINE
  5
3760
330
18
100
AcDbEntity
  8
外形線
100
AcDbLine
 10
308.49820498774
 20
10.50318427787577
 30
0.0
 11
308.49820498774
 21
0.8884062778757666
 31
0.0
  0
LINE
  5
3761
330
18
100
AcDbEntity
  8
外形線
100
AcDbLine
 10
288.96813198774
 20
10.50318427787577
 30
0.0
 11
288.96813198774
 21
0.8884062778757666
 31
0.0
  0
TEXT
  5
3762
330
18
100
AcDbEntity
  8
0
  6
Continuous
100
AcDbText
 10
237.3737629877401
 20
2.636547277875767
 30
0.0
 40
2.1
  1
3RD Angle Projection
  7
STYLE3
100
AcDbText
  0
TEXT
  5
3763
330
18
100
AcDbEntity
  8
0
  6
Continuous
100
AcDbText
 10
239.99720598774
 20
6.132830277875768
 30
0.0
 40
3.0
  1
三　　角　　法
  7
STYLE3
100
AcDbText
  0
LINE
  5
3764
330
18
100
AcDbEntity
  8
外形線
100
AcDbLine
 10
236.20778698774
 20
0.8884062778757666
 30
0.0
 11
236.20778698774
 21
21.28339027787577
 31
0.0
  0
LINE
  5
3765
330
18
100
AcDbEntity
  8
外形線
100
AcDbLine
 10
271.4785149877401
 20
10.50318427787577
 30
0.0
 11
271.4785149877401
 21
0.8884062778757666
 31
0.0
  0
TEXT
  5
3766
330
18
100
AcDbEntity
  8
0
  6
Continuous
100
AcDbText
 10
272.93598398774
 20
6.138784277875767
 30
0.0
 40
3.0
  1
単位
  7
STYLE3
100
AcDbText
  0
TEXT
  5
3767
330
18
100
AcDbEntity
  8
0
  6
Continuous
100
AcDbText
 10
273.1077049877401
 20
2.636548277875768
 30
0.0
 40
2.1
  1
Unit
  7
STYLE3
100
AcDbText
  0
LINE
  5
3768
330
18
100
AcDbEntity
  8
外形線
100
AcDbLine
 10
236.20778698774
 20
21.28339027787577
 30
0.0
 11
376.99920498774
 21
21.28339027787577
 31
0.0
  0
LINE
  5
3769
330
18
100
AcDbEntity
  8
外形線
100
AcDbLine
 10
236.20778698774
 20
10.50318427787577
 30
0.0
 11
376.99920498774
 21
10.50318427787577
 31
0.0
  0
TEXT
  5
376A
330
18
100
AcDbEntity
  8
0
  6
Continuous
100
AcDbText
 10
237.66525498774
 20
12.40117527787577
 30
0.0
 40
2.1
  1
Design and specifications are subject to change without notice for future improvement.
  7
STYLE3
100
AcDbText
  0
TEXT
  5
376B
330
18
100
AcDbEntity
  8
0
  6
Continuous
100
AcDbText
 10
237.9567489877401
 20
16.33032327787576
 30
0.0
 40
3.5
  1
仕様及び外観は予告なく変更される場合がございますのでご了承下さい。
  7
STYLE3
100
AcDbText
  0
TEXT
  5
376C
330
18
100
AcDbEntity
  8
0
  6
Continuous
100
AcDbText
 10
339.5795169877401
 20
6.424187277875766
 30
0.0
 40
3.0
  1
株式会社　尾崎製作所
  7
STYLE3
100
AcDbText
  0
TEXT
  5
376D
330
18
100
AcDbEntity
  8
0
  6
Continuous
100
AcDbText
 10
340.4539959877401
 20
2.636547277875767
 30
0.0
 40
2.1
  1
OZAKI MFG. CO., LTD.
  7
STYLE3
100
AcDbText
  0
ENDSEC
  0
SECTION
  2
OBJECTS
  0
DICTIONARY
  5
C
330
0
100
AcDbDictionary
281
     1
  3
ACAD_COLOR
350
3698
  3
ACAD_GROUP
350
D
  3
ACAD_IMAGE_DICT
350
1525
  3
ACAD_LAYOUT
350
369B
  3
ACAD_MATERIAL
350
3697
  3
ACAD_MLINESTYLE
350
1B
  3
ACAD_PLOTSETTINGS
350
369C
  3
ACAD_PLOTSTYLENAME
350
3695
  3
ACAD_TABLESTYLE
350
3699
  3
AcDbVariableDictionary
350
36A7
  0
DICTIONARY
  5
3698
102
{ACAD_REACTORS
330
C
102
}
330
C
100
AcDbDictionary
281
     1
  0
DICTIONARY
  5
D
102
{ACAD_REACTORS
330
C
102
}
330
C
100
AcDbDictionary
281
     1
  0
DICTIONARY
  5
1525
102
{ACAD_REACTORS
330
C
102
}
330
C
100
AcDbDictionary
281
     1
  3
ROGO01
350
1526
  0
DICTIONARY
  5
369B
102
{ACAD_REACTORS
330
C
102
}
330
C
100
AcDbDictionary
281
     1
  3
Model
350
369D
  3
レイアウト1
350
369E
  0
DICTIONARY
  5
3697
102
{ACAD_REACTORS
330
C
102
}
330
C
100
AcDbDictionary
281
     1
  0
DICTIONARY
  5
1B
102
{ACAD_REACTORS
330
C
102
}
330
C
100
AcDbDictionary
281
     1
  3
STANDARD
350
1C
  0
DICTIONARY
  5
369C
102
{ACAD_REACTORS
330
C
102
}
330
C
100
AcDbDictionary
281
     1
  0
ACDBDICTIONARYWDFLT
  5
3695
102
{ACAD_REACTORS
330
C
102
}
330
C
100
AcDbDictionary
281
     1
  3
Normal
350
3696
100
AcDbDictionaryWithDefault
340
3696
  0
DICTIONARY
  5
3699
102
{ACAD_REACTORS
330
C
102
}
330
C
100
AcDbDictionary
281
     1
  3
Standard
350
369A
  0
DICTIONARY
  5
36A7
102
{ACAD_REACTORS
330
C
102
}
330
C
100
AcDbDictionary
281
     1
  3
CTABLESTYLE
350
36A8
  0
IMAGEDEF
  5
1526
102
{ACAD_REACTORS
330
1525
102
}
330
1525
100
AcDbRasterImageDef
 90
        0
  1
D:\ﾃｽﾄ\rogo01.TIF
 10
3388.0
 20
4668.0
 11
0.0635
 21
0.0635
280
     1
281
     5
  0
LAYOUT
  5
369D
102
{ACAD_REACTORS
330
369B
102
}
330
369B
100
AcDbPlotSettings
  1

  2
WIDR Printer
  4

  6

 40
0.0
 41
0.0
 42
0.0
 43
0.0
 44
0.0
 45
0.0
 46
0.0
 47
0.0
 48
0.0
 49
0.0
140
0.0
141
0.0
142
1.0
143
1.0
 70
  1712
 72
     0
 73
     0
 74
     0
  7
AutoCad LT 98.ctb
 75
     0
147
1.0
 76
     0
 77
     2
 78
   300
148
0.0
149
0.0
100
AcDbLayout
  1
Model
 70
     1
 71
     0
 10
0.0
 20
0.0
 11
12.0
 21
9.0
 12
0.0
 22
0.0
 32
0.0
 14
0.0
 24
0.0
 34
0.0
 15
0.0
 25
0.0
 35
0.0
146
0.0
 13
0.0
 23
0.0
 33
0.0
 16
1.0
 26
0.0
 36
0.0
 17
0.0
 27
1.0
 37
0.0
 76
     0
330
18
  0
LAYOUT
  5
369E
102
{ACAD_REACTORS
330
369B
102
}
330
369B
100
AcDbPlotSettings
  1

  2
WIDR Printer
  4

  6

 40
0.0
 41
0.0
 42
0.0
 43
0.0
 44
0.0
 45
0.0
 46
0.0
 47
0.0
 48
0.0
 49
0.0
140
0.0
141
0.0
142
1.0
143
1.0
 70
   688
 72
     0
 73
     0
 74
     5
  7
AutoCad LT 98.ctb
 75
    16
147
1.0
 76
     0
 77
     2
 78
   300
148
0.0
149
0.0
100
AcDbLayout
  1
レイアウト1
 70
     1
 71
     1
 10
0.0
 20
0.0
 11
420.0
 21
297.0
 12
0.0
 22
0.0
 32
0.0
 14
1.000000000000000E+20
 24
1.000000000000000E+20
 34
1.000000000000000E+20
 15
-1.000000000000000E+20
 25
-1.000000000000000E+20
 35
-1.000000000000000E+20
146
0.0
 13
0.0
 23
0.0
 33
0.0
 16
1.0
 26
0.0
 36
0.0
 17
0.0
 27
1.0
 37
0.0
 76
     0
330
15
  0
MLINESTYLE
  5
1C
102
{ACAD_REACTORS
330
1B
102
}
330
1B
100
AcDbMlineStyle
  2
STANDARD
 70
     0
  3

 62
   256
 51
90.0
 52
90.0
 71
     2
 49
0.5
 62
   256
  6
BYLAYER
 49
-0.5
 62
   256
  6
BYLAYER
  0
ACDBPLACEHOLDER
  5
3696
102
{ACAD_REACTORS
330
3695
102
}
330
3695
  0
ACAD_PROXY_OBJECT
  5
369A
102
{ACAD_REACTORS
330
3699
102
}
330
3699
100
AcDbProxyObject
 90
      499
 91
      504
 95
  2555929
 70
     0
 93
     1849
310
4214DD185B99185C992420000000000000F83F0000000000003E0FC00000000000004901028000000C1008070000C3001FDFF8000000C1003FBFF000000182007F7FE00000030400FEFFC00000060801FDFF8000000C1003FBFF000000182000000000000000C2020B0000001820100E000186003FBFF000000182007F7FE0
310
0000030400FEFFC00000060801FDFF8000000C1003FBFF000000182007F7FE0000003040000000000000012404160000003040201C00030C007F7FE00000030400FEFFC00000060801FDFF8000000C1003FBFF000000182007F7FE00000030400FEFFC000000608000
340
F
340
F
340
F
 94
        0
  0
DICTIONARYVAR
  5
36A8
102
{ACAD_REACTORS
330
36A7
102
}
330
36A7
100
DictionaryVariables
280
     0
  1
STANDARD
  0
ENDSEC
  0
EOF
