  0
SECTION
  2
HEADER
  9
$ACADVER
  1
AC1018
  9
$ACADMAINTVER
 70
     0
  9
$DWGCODEPAGE
  3
ANSI_932
  9
$INSBASE
 10
0.0
 20
0.0
 30
0.0
  9
$EXTMIN
 10
-73.30359408180084
 20
21.90372768013879
 30
-0.0015258207003583
  9
$EXTMAX
 10
305.0403469216123
 20
305.2363299588968
 30
0.0000000349246037
  9
$LIMMIN
 10
0.0
 20
0.0
  9
$LIMMAX
 10
420.0
 20
297.0
  9
$ORTHOMODE
 70
     0
  9
$REGENMODE
 70
     1
  9
$FILLMODE
 70
     1
  9
$QTEXTMODE
 70
     0
  9
$MIRRTEXT
 70
     1
  9
$LTSCALE
 40
1.0
  9
$ATTMODE
 70
     1
  9
$TEXTSIZE
 40
3.0
  9
$TRACEWID
 40
1.0
  9
$TEXTSTYLE
  7
STYLE3
  9
$CLAYER
  8
寸法線
  9
$CELTYPE
  6
BYLAYER
  9
$CECOLOR
 62
   256
  9
$CELTSCALE
 40
1.0
  9
$DISPSILH
 70
     0
  9
$DIMSCALE
 40
1.0
  9
$DIMASZ
 40
2.5
  9
$DIMEXO
 40
0.0
  9
$DIMDLI
 40
3.75
  9
$DIMRND
 40
0.0
  9
$DIMDLE
 40
0.0
  9
$DIMEXE
 40
1.25
  9
$DIMTP
 40
0.0
  9
$DIMTM
 40
0.0
  9
$DIMTXT
 40
2.5
  9
$DIMCEN
 40
2.5
  9
$DIMTSZ
 40
0.0
  9
$DIMTOL
 70
     0
  9
$DIMLIM
 70
     0
  9
$DIMTIH
 70
     0
  9
$DIMTOH
 70
     0
  9
$DIMSE1
 70
     0
  9
$DIMSE2
 70
     0
  9
$DIMTAD
 70
     1
  9
$DIMZIN
 70
     8
  9
$DIMBLK
  1

  9
$DIMASO
 70
     1
  9
$DIMSHO
 70
     1
  9
$DIMPOST
  1

  9
$DIMAPOST
  1

  9
$DIMALT
 70
     0
  9
$DIMALTD
 70
     4
  9
$DIMALTF
 40
0.0394
  9
$DIMLFAC
 40
1.0
  9
$DIMTOFL
 70
     1
  9
$DIMTVP
 40
0.0
  9
$DIMTIX
 70
     0
  9
$DIMSOXD
 70
     0
  9
$DIMSAH
 70
     1
  9
$DIMBLK1
  1
OPEN
  9
$DIMBLK2
  1
OPEN
  9
$DIMSTYLE
  2
STYLE3
  9
$DIMCLRD
 70
     2
  9
$DIMCLRE
 70
     2
  9
$DIMCLRT
 70
     6
  9
$DIMTFAC
 40
1.0
  9
$DIMGAP
 40
0.625
  9
$DIMJUST
 70
     0
  9
$DIMSD1
 70
     0
  9
$DIMSD2
 70
     0
  9
$DIMTOLJ
 70
     1
  9
$DIMTZIN
 70
     0
  9
$DIMALTZ
 70
     0
  9
$DIMALTTZ
 70
     0
  9
$DIMUPT
 70
     0
  9
$DIMDEC
 70
     2
  9
$DIMTDEC
 70
     4
  9
$DIMALTU
 70
     8
  9
$DIMALTTD
 70
     4
  9
$DIMTXSTY
  7
STYLE3
  9
$DIMAUNIT
 70
     0
  9
$DIMADEC
 70
     0
  9
$DIMALTRND
 40
0.0
  9
$DIMAZIN
 70
     0
  9
$DIMDSEP
 70
    46
  9
$DIMATFIT
 70
     3
  9
$DIMFRAC
 70
     0
  9
$DIMLDRBLK
  1

  9
$DIMLUNIT
 70
     2
  9
$DIMLWD
 70
    -2
  9
$DIMLWE
 70
    -2
  9
$DIMTMOVE
 70
     0
  9
$LUNITS
 70
     2
  9
$LUPREC
 70
     4
  9
$SKETCHINC
 40
1.0
  9
$FILLETRAD
 40
0.3
  9
$AUNITS
 70
     0
  9
$AUPREC
 70
     0
  9
$MENU
  1
.
  9
$ELEVATION
 40
0.0
  9
$PELEVATION
 40
0.0
  9
$THICKNESS
 40
0.0
  9
$LIMCHECK
 70
     0
  9
$CHAMFERA
 40
10.0
  9
$CHAMFERB
 40
10.0
  9
$CHAMFERC
 40
20.0
  9
$CHAMFERD
 40
0.0
  9
$SKPOLY
 70
     0
  9
$TDCREATE
 40
2451249.428036690
  9
$TDUCREATE
 40
2451249.053036690
  9
$TDUPDATE
 40
2455377.481817303
  9
$TDUUPDATE
 40
2455377.106817303
  9
$TDINDWG
 40
0.8352287384
  9
$TDUSRTIMER
 40
0.8352287384
  9
$USRTIMER
 70
     1
  9
$ANGBASE
 50
0.0
  9
$ANGDIR
 70
     0
  9
$PDMODE
 70
     0
  9
$PDSIZE
 40
0.0
  9
$PLINEWID
 40
0.0
  9
$SPLFRAME
 70
     0
  9
$SPLINETYPE
 70
     6
  9
$SPLINESEGS
 70
     8
  9
$HANDSEED
  5
486D
  9
$SURFTAB1
 70
     6
  9
$SURFTAB2
 70
     6
  9
$SURFTYPE
 70
     6
  9
$SURFU
 70
     6
  9
$SURFV
 70
     6
  9
$UCSBASE
  2

  9
$UCSNAME
  2

  9
$UCSORG
 10
0.0
 20
0.0
 30
0.0
  9
$UCSXDIR
 10
1.0
 20
0.0
 30
0.0
  9
$UCSYDIR
 10
0.0
 20
1.0
 30
0.0
  9
$UCSORTHOREF
  2

  9
$UCSORTHOVIEW
 70
     0
  9
$UCSORGTOP
 10
0.0
 20
0.0
 30
0.0
  9
$UCSORGBOTTOM
 10
0.0
 20
0.0
 30
0.0
  9
$UCSORGLEFT
 10
0.0
 20
0.0
 30
0.0
  9
$UCSORGRIGHT
 10
0.0
 20
0.0
 30
0.0
  9
$UCSORGFRONT
 10
0.0
 20
0.0
 30
0.0
  9
$UCSORGBACK
 10
0.0
 20
0.0
 30
0.0
  9
$PUCSBASE
  2

  9
$PUCSNAME
  2

  9
$PUCSORG
 10
0.0
 20
0.0
 30
0.0
  9
$PUCSXDIR
 10
1.0
 20
0.0
 30
0.0
  9
$PUCSYDIR
 10
0.0
 20
1.0
 30
0.0
  9
$PUCSORTHOREF
  2

  9
$PUCSORTHOVIEW
 70
     0
  9
$PUCSORGTOP
 10
0.0
 20
0.0
 30
0.0
  9
$PUCSORGBOTTOM
 10
0.0
 20
0.0
 30
0.0
  9
$PUCSORGLEFT
 10
0.0
 20
0.0
 30
0.0
  9
$PUCSORGRIGHT
 10
0.0
 20
0.0
 30
0.0
  9
$PUCSORGFRONT
 10
0.0
 20
0.0
 30
0.0
  9
$PUCSORGBACK
 10
0.0
 20
0.0
 30
0.0
  9
$USERI1
 70
     0
  9
$USERI2
 70
     0
  9
$USERI3
 70
     0
  9
$USERI4
 70
     0
  9
$USERI5
 70
     0
  9
$USERR1
 40
0.0
  9
$USERR2
 40
0.0
  9
$USERR3
 40
0.0
  9
$USERR4
 40
0.0
  9
$USERR5
 40
0.0
  9
$WORLDVIEW
 70
     1
  9
$SHADEDGE
 70
     3
  9
$SHADEDIF
 70
    70
  9
$TILEMODE
 70
     1
  9
$MAXACTVP
 70
    48
  9
$PINSBASE
 10
0.0
 20
0.0
 30
0.0
  9
$PLIMCHECK
 70
     0
  9
$PEXTMIN
 10
1.000000000000000E+20
 20
1.000000000000000E+20
 30
1.000000000000000E+20
  9
$PEXTMAX
 10
-1.000000000000000E+20
 20
-1.000000000000000E+20
 30
-1.000000000000000E+20
  9
$PLIMMIN
 10
0.0
 20
0.0
  9
$PLIMMAX
 10
420.0
 20
297.0
  9
$UNITMODE
 70
     0
  9
$VISRETAIN
 70
     1
  9
$PLINEGEN
 70
     0
  9
$PSLTSCALE
 70
     1
  9
$TREEDEPTH
 70
  3020
  9
$CMLSTYLE
  2
STANDARD
  9
$CMLJUST
 70
     0
  9
$CMLSCALE
 40
20.0
  9
$PROXYGRAPHICS
 70
     1
  9
$MEASUREMENT
 70
     1
  9
$CELWEIGHT
370
    -1
  9
$ENDCAPS
280
     0
  9
$JOINSTYLE
280
     0
  9
$LWDISPLAY
290
     0
  9
$INSUNITS
 70
     0
  9
$HYPERLINKBASE
  1

  9
$STYLESHEET
  1

  9
$XEDIT
290
     1
  9
$CEPSNTYPE
380
     0
  9
$PSTYLEMODE
290
     1
  9
$FINGERPRINTGUID
  2
{5EBC0477-C288-4D9F-9834-34197E3F5BBE}
  9
$VERSIONGUID
  2
{410C8937-EAA1-4F49-8B14-86E0850CACBE}
  9
$EXTNAMES
290
     1
  9
$PSVPSCALE
 40
0.0
  9
$OLESTARTUP
290
     0
  9
$SORTENTS
280
   127
  9
$INDEXCTL
280
     0
  9
$HIDETEXT
280
     0
  9
$XCLIPFRAME
290
     0
  9
$HALOGAP
280
     0
  9
$OBSCOLOR
 70
   257
  9
$OBSLTYPE
280
     0
  9
$INTERSECTIONDISPLAY
280
     0
  9
$INTERSECTIONCOLOR
 70
   257
  9
$DIMASSOC
280
     1
  9
$PROJECTNAME
  1

  0
ENDSEC
  0
SECTION
  2
CLASSES
  0
CLASS
  1
HATCH
  2
AcDbHatch
  3
ObjectDBX Classes
 90
        0
 91
       30
280
     0
281
     1
  0
CLASS
  1
LWPOLYLINE
  2
AcDbPolyline
  3
ObjectDBX Classes
 90
        0
 91
        4
280
     0
281
     1
  0
CLASS
  1
IMAGEDEF
  2
AcDbRasterImageDef
  3
ISM
 90
        0
 91
        1
280
     0
281
     0
  0
CLASS
  1
ACDBDICTIONARYWDFLT
  2
AcDbDictionaryWithDefault
  3
ObjectDBX Classes
 90
        0
 91
        1
280
     0
281
     0
  0
CLASS
  1
TABLESTYLE
  2
AcDbTableStyle
  3
ObjectDBX Classes
 90
     2047
 91
        1
280
     0
281
     0
  0
CLASS
  1
DICTIONARYVAR
  2
AcDbDictionaryVar
  3
ObjectDBX Classes
 90
        0
 91
        1
280
     0
281
     0
  0
ENDSEC
  0
SECTION
  2
TABLES
  0
TABLE
  2
VPORT
  5
8
330
0
100
AcDbSymbolTable
 70
     2
  0
VPORT
  5
486C
330
8
100
AcDbSymbolTableRecord
100
AcDbViewportTableRecord
  2
*Active
 70
     0
 10
0.0
 20
0.0
 11
1.0
 21
1.0
 12
115.8683764199057
 22
163.5700288195178
 13
0.0
 23
0.0
 14
10.0
 24
10.0
 15
10.0
 25
10.0
 16
0.0
 26
0.0
 36
1.0
 17
0.0
 27
0.0
 37
0.0
 40
285.4872228284064
 41
1.530456852791878
 42
50.0
 43
0.0
 44
0.0
 50
0.0
 51
0.0
 71
     0
 72
   100
 73
     1
 74
     1
 75
     0
 76
     0
 77
     0
 78
     0
281
     0
 65
     1
110
0.0
120
0.0
130
0.0
111
1.0
121
0.0
131
0.0
112
0.0
122
1.0
132
0.0
 79
     0
146
0.0
  0
ENDTAB
  0
TABLE
  2
LTYPE
  5
5
330
0
100
AcDbSymbolTable
 70
     4
  0
LTYPE
  5
12
330
5
100
AcDbSymbolTableRecord
100
AcDbLinetypeTableRecord
  2
BYBLOCK
 70
     0
  3

 72
    65
 73
     0
 40
0.0
  0
LTYPE
  5
13
330
5
100
AcDbSymbolTableRecord
100
AcDbLinetypeTableRecord
  2
BYLAYER
 70
     0
  3

 72
    65
 73
     0
 40
0.0
  0
LTYPE
  5
14
330
5
100
AcDbSymbolTableRecord
100
AcDbLinetypeTableRecord
  2
CONTINUOUS
 70
     0
  3
Solid line
 72
    65
 73
     0
 40
0.0
  0
LTYPE
  5
22
330
5
100
AcDbSymbolTableRecord
100
AcDbLinetypeTableRecord
  2
CENTER2
 70
     0
  3
Center (.5x) ___ _ ___ _ ___ _ ___ _ ___ _ ___
 72
    65
 73
     4
 40
28.575
 49
19.05
 74
     0
 49
-3.174999999999999
 74
     0
 49
3.174999999999999
 74
     0
 49
-3.174999999999999
 74
     0
  0
LTYPE
  5
23
330
5
100
AcDbSymbolTableRecord
100
AcDbLinetypeTableRecord
  2
HIDDEN2
 70
     0
  3
Hidden (.5x) _ _ _ _ _ _ _ _ _ _ _ _ _ _ _ _ _
 72
    65
 73
     2
 40
4.762499999999999
 49
3.174999999999999
 74
     0
 49
-1.587499999999999
 74
     0
  0
LTYPE
  5
24
330
5
100
AcDbSymbolTableRecord
100
AcDbLinetypeTableRecord
  2
PHANTOM2
 70
     0
  3
Phantom (.5x) ___ _ _ ___ _ _ ___ _ _ ___ _ _
 72
    65
 73
     6
 40
31.75
 49
15.875
 74
     0
 49
-3.174999999999999
 74
     0
 49
3.174999999999999
 74
     0
 49
-3.174999999999999
 74
     0
 49
3.174999999999999
 74
     0
 49
-3.174999999999999
 74
     0
  0
ENDTAB
  0
TABLE
  2
LAYER
  5
2
330
0
100
AcDbSymbolTable
 70
    15
  0
LAYER
  5
E
330
2
100
AcDbSymbolTableRecord
100
AcDbLayerTableRecord
  2
0
 70
     0
 62
     7
  6
CONTINUOUS
370
    -3
390
45E0
  0
LAYER
  5
25
330
2
100
AcDbSymbolTableRecord
100
AcDbLayerTableRecord
  2
外形線
 70
     0
 62
     7
  6
CONTINUOUS
370
    -3
390
45E0
  0
LAYER
  5
26
330
2
100
AcDbSymbolTableRecord
100
AcDbLayerTableRecord
  2
寸法線
 70
     0
 62
     2
  6
CONTINUOUS
370
    -3
390
45E0
  0
LAYER
  5
27
330
2
100
AcDbSymbolTableRecord
100
AcDbLayerTableRecord
  2
中心線
 70
     0
 62
     4
  6
CENTER2
370
    -3
390
45E0
  0
LAYER
  5
29
330
2
100
AcDbSymbolTableRecord
100
AcDbLayerTableRecord
  2
想像線
 70
     0
 62
     1
  6
PHANTOM2
370
    -3
390
45E0
  0
LAYER
  5
2A
330
2
100
AcDbSymbolTableRecord
100
AcDbLayerTableRecord
  2
ﾊｯﾁﾝｸ
 70
     0
 62
     6
  6
CONTINUOUS
370
    -3
390
45E0
  0
LAYER
  5
2B
330
2
100
AcDbSymbolTableRecord
100
AcDbLayerTableRecord
  2
文字
 70
     0
 62
     6
  6
CONTINUOUS
370
    -3
390
45E0
  0
LAYER
  5
2C
330
2
100
AcDbSymbolTableRecord
100
AcDbLayerTableRecord
  2
目盛
 70
     0
 62
    72
  6
CONTINUOUS
370
    -3
390
45E0
  0
LAYER
  5
2D
330
2
100
AcDbSymbolTableRecord
100
AcDbLayerTableRecord
  2
針
 70
     0
 62
     5
  6
CONTINUOUS
370
    -3
390
45E0
  0
LAYER
  5
53
330
2
100
AcDbSymbolTableRecord
100
AcDbLayerTableRecord
  2
DEFPOINTS
 70
     0
 62
     7
  6
CONTINUOUS
290
     0
370
    -3
390
45E0
  0
LAYER
  5
A5
330
2
100
AcDbSymbolTableRecord
100
AcDbLayerTableRecord
  2
C
 70
     0
 62
     7
  6
CONTINUOUS
370
    -3
390
45E0
  0
LAYER
  5
1FE
330
2
100
AcDbSymbolTableRecord
100
AcDbLayerTableRecord
  2
隠れ線2
 70
     0
 62
     1
  6
HIDDEN2
370
    -3
390
45E0
  0
LAYER
  5
3F1
330
2
100
AcDbSymbolTableRecord
100
AcDbLayerTableRecord
  2
握り
 70
     0
 62
     3
  6
CONTINUOUS
370
    -3
390
45E0
  0
LAYER
  5
3F2
330
2
100
AcDbSymbolTableRecord
100
AcDbLayerTableRecord
  2
ROGO
 70
     0
 62
     6
  6
CONTINUOUS
370
    -3
390
45E0
  0
ENDTAB
  0
TABLE
  2
STYLE
  5
3
330
0
100
AcDbSymbolTable
 70
     3
  0
STYLE
  5
F
330
3
100
AcDbSymbolTableRecord
100
AcDbTextStyleTableRecord
  2
STANDARD
 70
     0
 40
0.0
 41
1.0
 50
0.0
 71
     0
 42
2.5
  3
txt
  4

  0
STYLE
  5
3F
330
3
100
AcDbSymbolTableRecord
100
AcDbTextStyleTableRecord
  2
STYLE3
 70
     0
 40
0.0
 41
1.0
 50
0.0
 71
     0
 42
3.0
  3
romans.shx
  4
bigfont.shx
  0
ENDTAB
  0
TABLE
  2
VIEW
  5
6
330
0
100
AcDbSymbolTable
 70
     0
  0
ENDTAB
  0
TABLE
  2
UCS
  5
7
330
0
100
AcDbSymbolTable
 70
     0
  0
ENDTAB
  0
TABLE
  2
APPID
  5
9
330
0
100
AcDbSymbolTable
 70
     1
  0
APPID
  5
10
330
9
100
AcDbSymbolTableRecord
100
AcDbRegAppTableRecord
  2
ACAD
 70
     0
  0
ENDTAB
  0
TABLE
  2
DIMSTYLE
  5
A
330
0
100
AcDbSymbolTable
 70
     3
100
AcDbDimStyleTable
 71
     0
  0
DIMSTYLE
105
1D
330
A
100
AcDbSymbolTableRecord
100
AcDbDimStyleTableRecord
  2
STANDARD
 70
     0
 41
2.5
 42
0.625
 43
3.75
 44
1.25
 73
     0
 74
     0
 77
     1
 78
     8
140
2.5
141
2.5
143
0.0394
147
0.625
171
     4
172
     1
273
     8
274
     4
277
     6
340
F
  0
DIMSTYLE
105
8F
102
{ACAD_REACTORS
330
42D6
330
42EC
330
432E
330
433D
330
4357
330
4363
330
436F
330
43B9
330
43C6
330
43D3
330
43E0
330
4433
330
443F
330
444D
330
4459
330
4465
330
4472
330
4480
330
448F
330
449B
330
44B3
330
44E2
330
45AF
330
45D0
330
3C19
330
3C20
330
3C24
330
3C25
330
3C2C
330
3C2D
330
3C2E
330
3C31
330
3C32
330
3C3B
330
3C3C
330
3C51
330
3C6C
330
3C6D
330
3C6E
330
3C70
330
3C71
330
3C76
330
3C77
330
3C7C
330
3C7D
330
3C81
330
3C83
330
3C91
330
3CA5
330
3CAE
330
3CB0
330
4172
330
4175
330
4177
330
417A
330
417B
330
417D
330
418C
102
}
330
A
100
AcDbSymbolTableRecord
100
AcDbDimStyleTableRecord
  2
STYLE3
 70
     0
 41
2.5
 42
0.0
 43
3.75
 44
1.25
 73
     0
 74
     0
 77
     1
 78
     8
140
2.5
141
2.5
143
0.0394
147
0.625
171
     4
172
     1
173
     1
176
     2
177
     2
178
     6
271
     1
273
     8
274
     4
340
3F
341
45
343
45
344
45
  0
ENDTAB
  0
TABLE
  2
BLOCK_RECORD
  5
1
330
0
100
AcDbSymbolTable
 70
    66
  0
BLOCK_RECORD
  5
18
330
1
100
AcDbSymbolTableRecord
100
AcDbBlockTableRecord
  2
*MODEL_SPACE
340
45E7
  0
BLOCK_RECORD
  5
15
330
1
100
AcDbSymbolTableRecord
100
AcDbBlockTableRecord
  2
*PAPER_SPACE
340
45E8
  0
BLOCK_RECORD
  5
45
330
1
100
AcDbSymbolTableRecord
100
AcDbBlockTableRecord
  2
_OPEN
340
0
102
{BLKREFS
331
197A
331
197B
331
4501
331
4502
331
4595
331
4596
331
45BE
331
3AE3
331
3AE4
331
3AEF
331
3AF0
331
3AFB
331
3AFC
331
3B07
331
3B08
331
3B13
331
3B14
331
3B1F
331
3B28
331
3B31
331
3B32
331
3B3F
331
3B40
331
3B4D
331
3B4E
331
3B59
331
3B63
331
3B64
331
3B6D
331
3B6E
331
3B79
331
3B7A
331
3B85
331
3B8E
331
3B8F
331
3B9A
331
3B9B
331
3BA6
331
3BA7
331
3BB2
331
3BB3
331
3BBE
331
3BBF
331
3BCA
331
3BCB
331
3BD6
331
3BD7
331
3BE2
331
3BEB
331
3BEC
331
3BF7
331
3BF8
331
3C05
331
3C06
331
3C12
331
3C13
331
3C1C
331
3C1D
331
3C3D
331
3C43
331
3C4E
331
3C50
331
3C5D
331
3C68
331
3C86
331
3C8C
331
3C95
331
3C9E
331
3CA2
331
3CA8
331
3CAB
331
3CB7
331
3CB8
331
3CBA
331
4126
331
4127
331
4132
331
4133
331
4140
331
4141
331
414C
331
414D
331
4158
331
4159
331
4163
331
416C
331
4197
331
419B
331
419E
331
41A0
331
41A7
331
41A9
331
41B8
331
41BA
331
41C0
331
41C3
331
474A
331
474B
331
4755
331
4756
331
475F
331
4760
331
4767
331
476C
331
476D
331
4777
331
4778
331
4781
331
4782
331
478A
331
478B
331
4792
331
4793
331
479A
331
479B
331
47A4
331
47A5
331
47AC
331
47AD
331
47B5
331
47B6
331
47BE
331
47BF
331
47C7
331
47C8
331
47D0
331
47D1
331
47D9
331
47DA
331
47E1
331
47E2
331
47E9
331
47EA
331
47F2
331
47F3
331
47FD
331
47FE
331
4808
331
4809
331
4811
331
4812
331
481A
331
481B
102
}
  0
BLOCK_RECORD
  5
39B8
330
1
100
AcDbSymbolTableRecord
100
AcDbBlockTableRecord
  2
A$C3A4E6295
340
0
102
{BLKREFS
331
39BC
102
}
  0
BLOCK_RECORD
  5
42CA
330
1
100
AcDbSymbolTableRecord
100
AcDbBlockTableRecord
  2
*D40
340
0
  0
BLOCK_RECORD
  5
42E0
330
1
100
AcDbSymbolTableRecord
100
AcDbBlockTableRecord
  2
*D41
340
0
  0
BLOCK_RECORD
  5
4320
330
1
100
AcDbSymbolTableRecord
100
AcDbBlockTableRecord
  2
*D42
340
0
  0
BLOCK_RECORD
  5
432F
330
1
100
AcDbSymbolTableRecord
100
AcDbBlockTableRecord
  2
*D43
340
0
  0
BLOCK_RECORD
  5
434B
330
1
100
AcDbSymbolTableRecord
100
AcDbBlockTableRecord
  2
*D44
340
0
  0
BLOCK_RECORD
  5
4358
330
1
100
AcDbSymbolTableRecord
100
AcDbBlockTableRecord
  2
*D45
340
0
  0
BLOCK_RECORD
  5
4364
330
1
100
AcDbSymbolTableRecord
100
AcDbBlockTableRecord
  2
*D46
340
0
  0
BLOCK_RECORD
  5
43AD
330
1
100
AcDbSymbolTableRecord
100
AcDbBlockTableRecord
  2
*D47
340
0
  0
BLOCK_RECORD
  5
43BA
330
1
100
AcDbSymbolTableRecord
100
AcDbBlockTableRecord
  2
*D48
340
0
  0
BLOCK_RECORD
  5
43C7
330
1
100
AcDbSymbolTableRecord
100
AcDbBlockTableRecord
  2
*D49
340
0
  0
BLOCK_RECORD
  5
43D4
330
1
100
AcDbSymbolTableRecord
100
AcDbBlockTableRecord
  2
*D50
340
0
  0
BLOCK_RECORD
  5
4427
330
1
100
AcDbSymbolTableRecord
100
AcDbBlockTableRecord
  2
*D51
340
0
  0
BLOCK_RECORD
  5
4434
330
1
100
AcDbSymbolTableRecord
100
AcDbBlockTableRecord
  2
*D52
340
0
  0
BLOCK_RECORD
  5
4440
330
1
100
AcDbSymbolTableRecord
100
AcDbBlockTableRecord
  2
*D53
340
0
  0
BLOCK_RECORD
  5
444E
330
1
100
AcDbSymbolTableRecord
100
AcDbBlockTableRecord
  2
*D54
340
0
  0
BLOCK_RECORD
  5
445A
330
1
100
AcDbSymbolTableRecord
100
AcDbBlockTableRecord
  2
*D55
340
0
  0
BLOCK_RECORD
  5
4466
330
1
100
AcDbSymbolTableRecord
100
AcDbBlockTableRecord
  2
*D56
340
0
  0
BLOCK_RECORD
  5
4473
330
1
100
AcDbSymbolTableRecord
100
AcDbBlockTableRecord
  2
*D57
340
0
  0
BLOCK_RECORD
  5
4481
330
1
100
AcDbSymbolTableRecord
100
AcDbBlockTableRecord
  2
*D58
340
0
  0
BLOCK_RECORD
  5
4490
330
1
100
AcDbSymbolTableRecord
100
AcDbBlockTableRecord
  2
*D59
340
0
  0
BLOCK_RECORD
  5
44AB
330
1
100
AcDbSymbolTableRecord
100
AcDbBlockTableRecord
  2
*D60
340
0
  0
BLOCK_RECORD
  5
44D6
330
1
100
AcDbSymbolTableRecord
100
AcDbBlockTableRecord
  2
*D61
340
0
  0
BLOCK_RECORD
  5
45A1
330
1
100
AcDbSymbolTableRecord
100
AcDbBlockTableRecord
  2
*D62
340
0
  0
BLOCK_RECORD
  5
45C2
330
1
100
AcDbSymbolTableRecord
100
AcDbBlockTableRecord
  2
*D63
340
0
  0
ENDTAB
  0
ENDSEC
  0
SECTION
  2
BLOCKS
  0
BLOCK
  5
19
330
18
100
AcDbEntity
  8
0
100
AcDbBlockBegin
  2
*MODEL_SPACE
 70
     0
 10
0.0
 20
0.0
 30
0.0
  3
*MODEL_SPACE
  1

  0
ENDBLK
  5
1A
330
18
100
AcDbEntity
  8
0
100
AcDbBlockEnd
  0
BLOCK
  5
16
330
15
100
AcDbEntity
 67
     1
  8
0
100
AcDbBlockBegin
  2
*PAPER_SPACE
 70
     0
 10
0.0
 20
0.0
 30
0.0
  3
*PAPER_SPACE
  1

  0
ENDBLK
  5
17
330
15
100
AcDbEntity
 67
     1
  8
0
100
AcDbBlockEnd
  0
BLOCK
  5
46
330
45
100
AcDbEntity
  8
0
100
AcDbBlockBegin
  2
_OPEN
 70
     0
 10
0.0
 20
0.0
 30
0.0
  3
_OPEN
  1

  0
LINE
  5
47
330
45
100
AcDbEntity
  8
0
  6
ByBlock
 62
     0
100
AcDbLine
 10
-1.0
 20
0.1666666666666666
 30
0.0
 11
0.0
 21
0.0
 31
0.0
  0
LINE
  5
48
330
45
100
AcDbEntity
  8
0
  6
ByBlock
 62
     0
100
AcDbLine
 10
0.0
 20
0.0
 30
0.0
 11
-1.0
 21
-0.1666666666666666
 31
0.0
  0
LINE
  5
49
330
45
100
AcDbEntity
  8
0
  6
ByBlock
 62
     0
100
AcDbLine
 10
0.0
 20
0.0
 30
0.0
 11
-1.0
 21
0.0
 31
0.0
  0
ENDBLK
  5
4A
330
45
100
AcDbEntity
  8
0
100
AcDbBlockEnd
  0
BLOCK
  5
39BA
330
39B8
100
AcDbEntity
  8
0
100
AcDbBlockBegin
  2
A$C3A4E6295
 70
     0
 10
0.0
 20
0.0
 30
0.0
  3
A$C3A4E6295
  1

  0
TEXT
  5
39B9
330
39B8
100
AcDbEntity
  8
文字
100
AcDbText
 10
-0.1904762350188207
 20
0.0000001367400273
 30
0.0
 40
1.0
  1
MADE  IN  JAPAN
  7
STYLE3
100
AcDbText
  0
ENDBLK
  5
39BB
330
39B8
100
AcDbEntity
  8
0
100
AcDbBlockEnd
  0
BLOCK
  5
42CB
330
42CA
100
AcDbEntity
  8
0
100
AcDbBlockBegin
  2
*D40
 70
     1
 10
0.0
 20
0.0
 30
0.0
  3
*D40
  1

  0
LINE
  5
4817
330
42CA
100
AcDbEntity
  8
寸法線
 62
     2
370
    -2
100
AcDbLine
 10
29.30132184951572
 20
147.1047095260427
 30
0.0
 11
19.42819554125379
 21
147.1047095260427
 31
0.0
  0
LINE
  5
4818
330
42CA
100
AcDbEntity
  8
寸法線
 62
     2
370
    -2
100
AcDbLine
 10
29.30132184951572
 20
132.1047095260427
 30
0.0
 11
19.42819554125378
 21
132.1047095260427
 31
0.0
  0
LINE
  5
4819
330
42CA
100
AcDbEntity
  8
寸法線
 62
     2
370
    -2
100
AcDbLine
 10
20.67819554125379
 20
144.6047095260427
 30
0.0
 11
20.67819554125378
 21
134.6047095260427
 31
0.0
  0
INSERT
  5
481A
330
42CA
100
AcDbEntity
  8
寸法線
 62
     2
370
    -2
100
AcDbBlockReference
  2
_OPEN
 10
20.67819554125379
 20
147.1047095260427
 30
0.0
 41
2.5
 42
2.5
 43
2.5
 50
90.0
  0
INSERT
  5
481B
330
42CA
100
AcDbEntity
  8
寸法線
 62
     2
370
    -2
100
AcDbBlockReference
  2
_OPEN
 10
20.67819554125378
 20
132.1047095260427
 30
0.0
 41
2.5
 42
2.5
 43
2.5
 50
270.0
  0
MTEXT
  5
481C
330
42CA
100
AcDbEntity
  8
寸法線
 62
     6
100
AcDbMText
 10
18.80319554125376
 20
139.6047095260427
 30
0.0
 40
2.5
 41
0.0
 71
     5
 72
     1
  1
\A1;15
  7
STYLE3
 11
0.0000000000000001
 21
1.0
 31
0.0
 73
     1
 44
1.0
  0
POINT
  5
481D
330
42CA
100
AcDbEntity
  8
DEFPOINTS
 62
     0
100
AcDbPoint
 10
29.30132184951572
 20
147.1047095260427
 30
0.0
  0
POINT
  5
481E
330
42CA
100
AcDbEntity
  8
DEFPOINTS
 62
     0
100
AcDbPoint
 10
29.30132184951572
 20
132.1047095260427
 30
0.0
  0
POINT
  5
481F
330
42CA
100
AcDbEntity
  8
DEFPOINTS
 62
     0
100
AcDbPoint
 10
20.67819554125378
 20
132.1047095260427
 30
0.0
  0
ENDBLK
  5
42D5
330
42CA
100
AcDbEntity
  8
0
100
AcDbBlockEnd
  0
BLOCK
  5
42E1
330
42E0
100
AcDbEntity
  8
0
100
AcDbBlockBegin
  2
*D41
 70
     1
 10
0.0
 20
0.0
 30
0.0
  3
*D41
  1

  0
LINE
  5
480E
330
42E0
100
AcDbEntity
  8
寸法線
 62
     2
370
    -2
100
AcDbLine
 10
29.30132184951572
 20
152.1047095260427
 30
0.0
 11
13.15246802296281
 21
152.1047095260427
 31
0.0
  0
LINE
  5
480F
330
42E0
100
AcDbEntity
  8
寸法線
 62
     2
370
    -2
100
AcDbLine
 10
19.42819554125378
 20
132.1047095260427
 30
0.0
 11
13.15246802296281
 21
132.1047095260427
 31
0.0
  0
LINE
  5
4810
330
42E0
100
AcDbEntity
  8
寸法線
 62
     2
370
    -2
100
AcDbLine
 10
14.40246802296281
 20
149.6047095260427
 30
0.0
 11
14.40246802296281
 21
134.6047095260427
 31
0.0
  0
INSERT
  5
4811
330
42E0
100
AcDbEntity
  8
寸法線
 62
     2
370
    -2
100
AcDbBlockReference
  2
_OPEN
 10
14.40246802296281
 20
152.1047095260427
 30
0.0
 41
2.5
 42
2.5
 43
2.5
 50
90.0
  0
INSERT
  5
4812
330
42E0
100
AcDbEntity
  8
寸法線
 62
     2
370
    -2
100
AcDbBlockReference
  2
_OPEN
 10
14.40246802296281
 20
132.1047095260427
 30
0.0
 41
2.5
 42
2.5
 43
2.5
 50
270.0
  0
MTEXT
  5
4813
330
42E0
100
AcDbEntity
  8
寸法線
 62
     6
100
AcDbMText
 10
12.52746802296278
 20
142.1047095260427
 30
0.0
 40
2.5
 41
0.0
 71
     5
 72
     1
  1
\A1;20
  7
STYLE3
 11
0.0000000000000001
 21
1.0
 31
0.0
 73
     1
 44
1.0
  0
POINT
  5
4814
330
42E0
100
AcDbEntity
  8
DEFPOINTS
 62
     0
100
AcDbPoint
 10
29.30132184951572
 20
152.1047095260427
 30
0.0
  0
POINT
  5
4815
330
42E0
100
AcDbEntity
  8
DEFPOINTS
 62
     0
100
AcDbPoint
 10
19.42819554125378
 20
132.1047095260427
 30
0.0
  0
POINT
  5
4816
330
42E0
100
AcDbEntity
  8
DEFPOINTS
 62
     0
100
AcDbPoint
 10
14.40246802296281
 20
132.1047095260427
 30
0.0
  0
ENDBLK
  5
42EB
330
42E0
100
AcDbEntity
  8
0
100
AcDbBlockEnd
  0
BLOCK
  5
4321
330
4320
100
AcDbEntity
  8
0
100
AcDbBlockBegin
  2
*D42
 70
     1
 10
0.0
 20
0.0
 30
0.0
  3
*D42
  1

  0
LINE
  5
4803
330
4320
100
AcDbEntity
  8
寸法線
 62
     2
370
    -2
100
AcDbLine
 10
-19.51898492758403
 20
143.6047095260427
 30
0.0
 11
-19.51898492758403
 21
155.5546464953421
 31
0.0
  0
LINE
  5
4804
330
4320
100
AcDbEntity
  8
寸法線
 62
     2
370
    -2
100
AcDbLine
 10
-16.51898492758403
 20
143.6047095260427
 30
0.0
 11
-16.51898492758403
 21
155.5546464953421
 31
0.0
  0
LINE
  5
4805
330
4320
100
AcDbEntity
  8
寸法線
 62
     2
370
    -2
100
AcDbLine
 10
-22.01898492758403
 20
154.3046464953421
 30
0.0
 11
-24.51898492758403
 21
154.3046464953421
 31
0.0
  0
LINE
  5
4806
330
4320
100
AcDbEntity
  8
寸法線
 62
     2
370
    -2
100
AcDbLine
 10
-14.01898492758403
 20
154.3046464953421
 30
0.0
 11
-11.51898492758403
 21
154.3046464953421
 31
0.0
  0
LINE
  5
4807
330
4320
100
AcDbEntity
  8
寸法線
 62
     2
370
    -2
100
AcDbLine
 10
-19.51898492758403
 20
154.3046464953421
 30
0.0
 11
-16.51898492758403
 21
154.3046464953421
 31
0.0
  0
INSERT
  5
4808
330
4320
100
AcDbEntity
  8
寸法線
 62
     2
370
    -2
100
AcDbBlockReference
  2
_OPEN
 10
-19.51898492758403
 20
154.3046464953421
 30
0.0
 41
2.5
 42
2.5
 43
2.5
  0
INSERT
  5
4809
330
4320
100
AcDbEntity
  8
寸法線
 62
     2
370
    -2
100
AcDbBlockReference
  2
_OPEN
 10
-16.51898492758403
 20
154.3046464953421
 30
0.0
 41
2.5
 42
2.5
 43
2.5
 50
180.0
  0
MTEXT
  5
480A
330
4320
100
AcDbEntity
  8
寸法線
 62
     6
100
AcDbMText
 10
-18.01898492758403
 20
156.1796464953421
 30
0.0
 40
2.5
 41
0.0
 71
     5
 72
     1
  1
\A1;3
  7
STYLE3
 73
     1
 44
1.0
  0
POINT
  5
480B
330
4320
100
AcDbEntity
  8
DEFPOINTS
 62
     0
100
AcDbPoint
 10
-19.51898492758403
 20
143.6047095260427
 30
0.0
  0
POINT
  5
480C
330
4320
100
AcDbEntity
  8
DEFPOINTS
 62
     0
100
AcDbPoint
 10
-16.51898492758403
 20
143.6047095260427
 30
0.0
  0
POINT
  5
480D
330
4320
100
AcDbEntity
  8
DEFPOINTS
 62
     0
100
AcDbPoint
 10
-16.51898492758403
 20
154.3046464953421
 30
0.0
  0
ENDBLK
  5
432D
330
4320
100
AcDbEntity
  8
0
100
AcDbBlockEnd
  0
BLOCK
  5
4330
330
432F
100
AcDbEntity
  8
0
100
AcDbBlockBegin
  2
*D43
 70
     1
 10
0.0
 20
0.0
 30
0.0
  3
*D43
  1

  0
LINE
  5
47F8
330
432F
100
AcDbEntity
  8
寸法線
 62
     2
370
    -2
100
AcDbLine
 10
-19.51898492758403
 20
135.6047095260427
 30
0.0
 11
-19.51898492758403
 21
121.440543329104
 31
0.0
  0
LINE
  5
47F9
330
432F
100
AcDbEntity
  8
寸法線
 62
     2
370
    -2
100
AcDbLine
 10
-16.51898492758403
 20
135.6047095260427
 30
0.0
 11
-16.51898492758403
 21
121.440543329104
 31
0.0
  0
LINE
  5
47FA
330
432F
100
AcDbEntity
  8
寸法線
 62
     2
370
    -2
100
AcDbLine
 10
-22.01898492758403
 20
122.690543329104
 30
0.0
 11
-24.51898492758403
 21
122.690543329104
 31
0.0
  0
LINE
  5
47FB
330
432F
100
AcDbEntity
  8
寸法線
 62
     2
370
    -2
100
AcDbLine
 10
-14.01898492758403
 20
122.690543329104
 30
0.0
 11
-11.51898492758403
 21
122.690543329104
 31
0.0
  0
LINE
  5
47FC
330
432F
100
AcDbEntity
  8
寸法線
 62
     2
370
    -2
100
AcDbLine
 10
-19.51898492758403
 20
122.690543329104
 30
0.0
 11
-16.51898492758403
 21
122.690543329104
 31
0.0
  0
INSERT
  5
47FD
330
432F
100
AcDbEntity
  8
寸法線
 62
     2
370
    -2
100
AcDbBlockReference
  2
_OPEN
 10
-19.51898492758403
 20
122.690543329104
 30
0.0
 41
2.5
 42
2.5
 43
2.5
  0
INSERT
  5
47FE
330
432F
100
AcDbEntity
  8
寸法線
 62
     2
370
    -2
100
AcDbBlockReference
  2
_OPEN
 10
-16.51898492758403
 20
122.690543329104
 30
0.0
 41
2.5
 42
2.5
 43
2.5
 50
180.0
  0
MTEXT
  5
47FF
330
432F
100
AcDbEntity
  8
寸法線
 62
     6
100
AcDbMText
 10
-18.01898492758403
 20
124.565543329104
 30
0.0
 40
2.5
 41
0.0
 71
     5
 72
     1
  1
\A1;3
  7
STYLE3
 73
     1
 44
1.0
  0
POINT
  5
4800
330
432F
100
AcDbEntity
  8
DEFPOINTS
 62
     0
100
AcDbPoint
 10
-19.51898492758403
 20
135.6047095260427
 30
0.0
  0
POINT
  5
4801
330
432F
100
AcDbEntity
  8
DEFPOINTS
 62
     0
100
AcDbPoint
 10
-16.51898492758403
 20
135.6047095260427
 30
0.0
  0
POINT
  5
4802
330
432F
100
AcDbEntity
  8
DEFPOINTS
 62
     0
100
AcDbPoint
 10
-16.51898492758403
 20
122.690543329104
 30
0.0
  0
ENDBLK
  5
433C
330
432F
100
AcDbEntity
  8
0
100
AcDbBlockEnd
  0
BLOCK
  5
434C
330
434B
100
AcDbEntity
  8
0
100
AcDbBlockBegin
  2
*D44
 70
     1
 10
0.0
 20
0.0
 30
0.0
  3
*D44
  1

  0
LINE
  5
47EF
330
434B
100
AcDbEntity
  8
寸法線
 62
     2
370
    -2
100
AcDbLine
 10
109.3013218495157
 20
91.40069718455652
 30
0.0
 11
109.3013218495157
 21
89.89943344816641
 31
0.0
  0
LINE
  5
47F0
330
434B
100
AcDbEntity
  8
寸法線
 62
     2
370
    -2
100
AcDbLine
 10
149.3013218495157
 20
118.1577702113662
 30
0.0
 11
149.3013218495157
 21
89.89943344816641
 31
0.0
  0
LINE
  5
47F1
330
434B
100
AcDbEntity
  8
寸法線
 62
     2
370
    -2
100
AcDbLine
 10
111.8013218495157
 20
91.14943344816641
 30
0.0
 11
146.8013218495157
 21
91.14943344816641
 31
0.0
  0
INSERT
  5
47F2
330
434B
100
AcDbEntity
  8
寸法線
 62
     2
370
    -2
100
AcDbBlockReference
  2
_OPEN
 10
109.3013218495157
 20
91.14943344816641
 30
0.0
 41
2.5
 42
2.5
 43
2.5
 50
180.0
  0
INSERT
  5
47F3
330
434B
100
AcDbEntity
  8
寸法線
 62
     2
370
    -2
100
AcDbBlockReference
  2
_OPEN
 10
149.3013218495157
 20
91.14943344816641
 30
0.0
 41
2.5
 42
2.5
 43
2.5
  0
MTEXT
  5
47F4
330
434B
100
AcDbEntity
  8
寸法線
 62
     6
100
AcDbMText
 10
129.3013218495157
 20
93.02443344816641
 30
0.0
 40
2.5
 41
0.0
 71
     5
 72
     1
  1
\A1;40
  7
STYLE3
 73
     1
 44
1.0
  0
POINT
  5
47F5
330
434B
100
AcDbEntity
  8
DEFPOINTS
 62
     0
100
AcDbPoint
 10
109.3013218495157
 20
91.40069718455652
 30
0.0
  0
POINT
  5
47F6
330
434B
100
AcDbEntity
  8
DEFPOINTS
 62
     0
100
AcDbPoint
 10
149.3013218495157
 20
118.1577702113662
 30
0.0
  0
POINT
  5
47F7
330
434B
100
AcDbEntity
  8
DEFPOINTS
 62
     0
100
AcDbPoint
 10
149.3013218495157
 20
91.14943344816641
 30
0.0
  0
ENDBLK
  5
4356
330
434B
100
AcDbEntity
  8
0
100
AcDbBlockEnd
  0
BLOCK
  5
4359
330
4358
100
AcDbEntity
  8
0
100
AcDbBlockBegin
  2
*D45
 70
     1
 10
0.0
 20
0.0
 30
0.0
  3
*D45
  1

  0
LINE
  5
47E7
330
4358
100
AcDbEntity
  8
寸法線
 62
     2
370
    -2
100
AcDbLine
 10
169.3013218495157
 20
135.9047095260427
 30
0.0
 11
169.3013218495157
 21
89.89943344816641
 31
0.0
  0
LINE
  5
47E8
330
4358
100
AcDbEntity
  8
寸法線
 62
     2
370
    -2
100
AcDbLine
 10
151.8013218495157
 20
91.14943344816641
 30
0.0
 11
166.8013218495157
 21
91.14943344816641
 31
0.0
  0
INSERT
  5
47E9
330
4358
100
AcDbEntity
  8
寸法線
 62
     2
370
    -2
100
AcDbBlockReference
  2
_OPEN
 10
149.3013218495157
 20
91.14943344816641
 30
0.0
 41
2.5
 42
2.5
 43
2.5
 50
180.0
  0
INSERT
  5
47EA
330
4358
100
AcDbEntity
  8
寸法線
 62
     2
370
    -2
100
AcDbBlockReference
  2
_OPEN
 10
169.3013218495157
 20
91.14943344816641
 30
0.0
 41
2.5
 42
2.5
 43
2.5
  0
MTEXT
  5
47EB
330
4358
100
AcDbEntity
  8
寸法線
 62
     6
100
AcDbMText
 10
159.3013218495157
 20
93.02443344816641
 30
0.0
 40
2.5
 41
0.0
 71
     5
 72
     1
  1
\A1;20
  7
STYLE3
 73
     1
 44
1.0
  0
POINT
  5
47EC
330
4358
100
AcDbEntity
  8
DEFPOINTS
 62
     0
100
AcDbPoint
 10
149.3013218495157
 20
118.1577702113662
 30
0.0
  0
POINT
  5
47ED
330
4358
100
AcDbEntity
  8
DEFPOINTS
 62
     0
100
AcDbPoint
 10
169.3013218495157
 20
135.9047095260427
 30
0.0
  0
POINT
  5
47EE
330
4358
100
AcDbEntity
  8
DEFPOINTS
 62
     0
100
AcDbPoint
 10
169.3013218495157
 20
91.14943344816641
 30
0.0
  0
ENDBLK
  5
4362
330
4358
100
AcDbEntity
  8
0
100
AcDbBlockEnd
  0
BLOCK
  5
4365
330
4364
100
AcDbEntity
  8
0
100
AcDbBlockBegin
  2
*D46
 70
     1
 10
0.0
 20
0.0
 30
0.0
  3
*D46
  1

  0
LINE
  5
47DF
330
4364
100
AcDbEntity
  8
寸法線
 62
     2
370
    -2
100
AcDbLine
 10
269.3013218495157
 20
135.9047095260427
 30
0.0
 11
269.3013218495157
 21
89.89943344816641
 31
0.0
  0
LINE
  5
47E0
330
4364
100
AcDbEntity
  8
寸法線
 62
     2
370
    -2
100
AcDbLine
 10
171.8013218495157
 20
91.14943344816641
 30
0.0
 11
266.8013218495157
 21
91.14943344816641
 31
0.0
  0
INSERT
  5
47E1
330
4364
100
AcDbEntity
  8
寸法線
 62
     2
370
    -2
100
AcDbBlockReference
  2
_OPEN
 10
169.3013218495157
 20
91.14943344816641
 30
0.0
 41
2.5
 42
2.5
 43
2.5
 50
180.0
  0
INSERT
  5
47E2
330
4364
100
AcDbEntity
  8
寸法線
 62
     2
370
    -2
100
AcDbBlockReference
  2
_OPEN
 10
269.3013218495157
 20
91.14943344816641
 30
0.0
 41
2.5
 42
2.5
 43
2.5
  0
MTEXT
  5
47E3
330
4364
100
AcDbEntity
  8
寸法線
 62
     6
100
AcDbMText
 10
219.3013218495157
 20
93.02443344816641
 30
0.0
 40
2.5
 41
0.0
 71
     5
 72
     1
  1
\A1;100
  7
STYLE3
 73
     1
 44
1.0
  0
POINT
  5
47E4
330
4364
100
AcDbEntity
  8
DEFPOINTS
 62
     0
100
AcDbPoint
 10
169.3013218495157
 20
135.9047095260427
 30
0.0
  0
POINT
  5
47E5
330
4364
100
AcDbEntity
  8
DEFPOINTS
 62
     0
100
AcDbPoint
 10
269.3013218495157
 20
135.9047095260427
 30
0.0
  0
POINT
  5
47E6
330
4364
100
AcDbEntity
  8
DEFPOINTS
 62
     0
100
AcDbPoint
 10
269.3013218495157
 20
91.14943344816641
 30
0.0
  0
ENDBLK
  5
436E
330
4364
100
AcDbEntity
  8
0
100
AcDbBlockEnd
  0
BLOCK
  5
43AE
330
43AD
100
AcDbEntity
  8
0
100
AcDbBlockBegin
  2
*D47
 70
     1
 10
0.0
 20
0.0
 30
0.0
  3
*D47
  1

  0
LINE
  5
47D6
330
43AD
100
AcDbEntity
  8
寸法線
 62
     2
370
    -2
100
AcDbLine
 10
79.30132184951571
 20
122.9946208476989
 30
0.0
 11
79.30132184951571
 21
117.5036665568806
 31
0.0
  0
LINE
  5
47D7
330
43AD
100
AcDbEntity
  8
寸法線
 62
     2
370
    -2
100
AcDbLine
 10
29.30132184951572
 20
115.0671432825057
 30
0.0
 11
29.30132184951572
 21
120.0036665568806
 31
0.0
  0
LINE
  5
47D8
330
43AD
100
AcDbEntity
  8
寸法線
 62
     2
370
    -2
100
AcDbLine
 10
76.80132184951571
 20
118.7536665568806
 30
0.0
 11
31.80132184951572
 21
118.7536665568806
 31
0.0
  0
INSERT
  5
47D9
330
43AD
100
AcDbEntity
  8
寸法線
 62
     2
370
    -2
100
AcDbBlockReference
  2
_OPEN
 10
79.30132184951571
 20
118.7536665568806
 30
0.0
 41
2.5
 42
2.5
 43
2.5
  0
INSERT
  5
47DA
330
43AD
100
AcDbEntity
  8
寸法線
 62
     2
370
    -2
100
AcDbBlockReference
  2
_OPEN
 10
29.30132184951572
 20
118.7536665568806
 30
0.0
 41
2.5
 42
2.5
 43
2.5
 50
180.0
  0
MTEXT
  5
47DB
330
43AD
100
AcDbEntity
  8
寸法線
 62
     6
100
AcDbMText
 10
54.30132184951571
 20
120.6286665568806
 30
0.0
 40
2.5
 41
0.0
 71
     5
 72
     1
  1
\A1;50
  7
STYLE3
 73
     1
 44
1.0
  0
POINT
  5
47DC
330
43AD
100
AcDbEntity
  8
DEFPOINTS
 62
     0
100
AcDbPoint
 10
79.30132184951571
 20
122.9946208476989
 30
0.0
  0
POINT
  5
47DD
330
43AD
100
AcDbEntity
  8
DEFPOINTS
 62
     0
100
AcDbPoint
 10
29.30132184951572
 20
115.0671432825057
 30
0.0
  0
POINT
  5
47DE
330
43AD
100
AcDbEntity
  8
DEFPOINTS
 62
     0
100
AcDbPoint
 10
29.30132184951572
 20
118.7536665568806
 30
0.0
  0
ENDBLK
  5
43B8
330
43AD
100
AcDbEntity
  8
0
100
AcDbBlockEnd
  0
BLOCK
  5
43BB
330
43BA
100
AcDbEntity
  8
0
100
AcDbBlockBegin
  2
*D48
 70
     1
 10
0.0
 20
0.0
 30
0.0
  3
*D48
  1

  0
LINE
  5
47CD
330
43BA
100
AcDbEntity
  8
寸法線
 62
     2
370
    -2
100
AcDbLine
 10
103.8013218495157
 20
82.60470952604269
 30
0.0
 11
103.8013218495157
 21
71.64902701851338
 31
0.0
  0
LINE
  5
47CE
330
43BA
100
AcDbEntity
  8
寸法線
 62
     2
370
    -2
100
AcDbLine
 10
114.8013218495157
 20
82.6047095260427
 30
0.0
 11
114.8013218495157
 21
71.64902701851338
 31
0.0
  0
LINE
  5
47CF
330
43BA
100
AcDbEntity
  8
寸法線
 62
     2
370
    -2
100
AcDbLine
 10
106.3013218495157
 20
72.89902701851338
 30
0.0
 11
112.3013218495157
 21
72.89902701851338
 31
0.0
  0
INSERT
  5
47D0
330
43BA
100
AcDbEntity
  8
寸法線
 62
     2
370
    -2
100
AcDbBlockReference
  2
_OPEN
 10
103.8013218495157
 20
72.89902701851338
 30
0.0
 41
2.5
 42
2.5
 43
2.5
 50
180.0
  0
INSERT
  5
47D1
330
43BA
100
AcDbEntity
  8
寸法線
 62
     2
370
    -2
100
AcDbBlockReference
  2
_OPEN
 10
114.8013218495157
 20
72.89902701851338
 30
0.0
 41
2.5
 42
2.5
 43
2.5
  0
MTEXT
  5
47D2
330
43BA
100
AcDbEntity
  8
寸法線
 62
     6
100
AcDbMText
 10
109.3013218495157
 20
74.77402701851338
 30
0.0
 40
2.5
 41
0.0
 71
     5
 72
     1
  1
\A1;11
  7
STYLE3
 73
     1
 44
1.0
  0
POINT
  5
47D3
330
43BA
100
AcDbEntity
  8
DEFPOINTS
 62
     0
100
AcDbPoint
 10
103.8013218495157
 20
82.60470952604269
 30
0.0
  0
POINT
  5
47D4
330
43BA
100
AcDbEntity
  8
DEFPOINTS
 62
     0
100
AcDbPoint
 10
114.8013218495157
 20
82.6047095260427
 30
0.0
  0
POINT
  5
47D5
330
43BA
100
AcDbEntity
  8
DEFPOINTS
 62
     0
100
AcDbPoint
 10
114.8013218495157
 20
72.89902701851338
 30
0.0
  0
ENDBLK
  5
43C5
330
43BA
100
AcDbEntity
  8
0
100
AcDbBlockEnd
  0
BLOCK
  5
43C8
330
43C7
100
AcDbEntity
  8
0
100
AcDbBlockBegin
  2
*D49
 70
     1
 10
0.0
 20
0.0
 30
0.0
  3
*D49
  1

  0
LINE
  5
47C4
330
43C7
100
AcDbEntity
  8
寸法線
 62
     2
370
    -2
100
AcDbLine
 10
29.30132184951572
 20
89.5369377641183
 30
0.0
 11
29.30132184951572
 21
65.25267972278607
 31
0.0
  0
LINE
  5
47C5
330
43C7
100
AcDbEntity
  8
寸法線
 62
     2
370
    -2
100
AcDbLine
 10
269.3013218495157
 20
89.89943344816641
 30
0.0
 11
269.3013218495157
 21
65.25267972278607
 31
0.0
  0
LINE
  5
47C6
330
43C7
100
AcDbEntity
  8
寸法線
 62
     2
370
    -2
100
AcDbLine
 10
31.80132184951572
 20
66.50267972278607
 30
0.0
 11
266.8013218495157
 21
66.50267972278607
 31
0.0
  0
INSERT
  5
47C7
330
43C7
100
AcDbEntity
  8
寸法線
 62
     2
370
    -2
100
AcDbBlockReference
  2
_OPEN
 10
29.30132184951572
 20
66.50267972278607
 30
0.0
 41
2.5
 42
2.5
 43
2.5
 50
180.0
  0
INSERT
  5
47C8
330
43C7
100
AcDbEntity
  8
寸法線
 62
     2
370
    -2
100
AcDbBlockReference
  2
_OPEN
 10
269.3013218495157
 20
66.50267972278607
 30
0.0
 41
2.5
 42
2.5
 43
2.5
  0
MTEXT
  5
47C9
330
43C7
100
AcDbEntity
  8
寸法線
 62
     6
100
AcDbMText
 10
149.3013218495157
 20
68.37767972278607
 30
0.0
 40
2.5
 41
0.0
 71
     5
 72
     1
  1
\A1;240
  7
STYLE3
 73
     1
 44
1.0
  0
POINT
  5
47CA
330
43C7
100
AcDbEntity
  8
DEFPOINTS
 62
     0
100
AcDbPoint
 10
29.30132184951572
 20
89.5369377641183
 30
0.0
  0
POINT
  5
47CB
330
43C7
100
AcDbEntity
  8
DEFPOINTS
 62
     0
100
AcDbPoint
 10
269.3013218495157
 20
89.89943344816641
 30
0.0
  0
POINT
  5
47CC
330
43C7
100
AcDbEntity
  8
DEFPOINTS
 62
     0
100
AcDbPoint
 10
269.3013218495157
 20
66.50267972278607
 30
0.0
  0
ENDBLK
  5
43D2
330
43C7
100
AcDbEntity
  8
0
100
AcDbBlockEnd
  0
BLOCK
  5
43D5
330
43D4
100
AcDbEntity
  8
0
100
AcDbBlockBegin
  2
*D50
 70
     1
 10
0.0
 20
0.0
 30
0.0
  3
*D50
  1

  0
LINE
  5
47BB
330
43D4
100
AcDbEntity
  8
寸法線
 62
     2
370
    -2
100
AcDbLine
 10
103.8013218495157
 20
82.60470952604269
 30
0.0
 11
84.98372138895852
 21
82.6047095260427
 31
0.0
  0
LINE
  5
47BC
330
43D4
100
AcDbEntity
  8
寸法線
 62
     2
370
    -2
100
AcDbLine
 10
86.94792043112455
 20
149.6047095260427
 30
0.0
 11
84.98372138895854
 21
149.6047095260427
 31
0.0
  0
LINE
  5
47BD
330
43D4
100
AcDbEntity
  8
寸法線
 62
     2
370
    -2
100
AcDbLine
 10
86.23372138895852
 20
85.1047095260427
 30
0.0
 11
86.23372138895854
 21
147.1047095260427
 31
0.0
  0
INSERT
  5
47BE
330
43D4
100
AcDbEntity
  8
寸法線
 62
     2
370
    -2
100
AcDbBlockReference
  2
_OPEN
 10
86.23372138895852
 20
82.6047095260427
 30
0.0
 41
2.5
 42
2.5
 43
2.5
 50
270.0
  0
INSERT
  5
47BF
330
43D4
100
AcDbEntity
  8
寸法線
 62
     2
370
    -2
100
AcDbBlockReference
  2
_OPEN
 10
86.23372138895854
 20
149.6047095260427
 30
0.0
 41
2.5
 42
2.5
 43
2.5
 50
90.0
  0
MTEXT
  5
47C0
330
43D4
100
AcDbEntity
  8
寸法線
 62
     6
100
AcDbMText
 10
84.35872138895852
 20
116.1047095260427
 30
0.0
 40
2.5
 41
0.0
 71
     5
 72
     1
  1
\A1;67
  7
STYLE3
 11
0.0000000000000001
 21
1.0
 31
0.0
 73
     1
 44
1.0
  0
POINT
  5
47C1
330
43D4
100
AcDbEntity
  8
DEFPOINTS
 62
     0
100
AcDbPoint
 10
103.8013218495157
 20
82.60470952604269
 30
0.0
  0
POINT
  5
47C2
330
43D4
100
AcDbEntity
  8
DEFPOINTS
 62
     0
100
AcDbPoint
 10
86.94792043112455
 20
149.6047095260427
 30
0.0
  0
POINT
  5
47C3
330
43D4
100
AcDbEntity
  8
DEFPOINTS
 62
     0
100
AcDbPoint
 10
86.23372138895854
 20
149.6047095260427
 30
0.0
  0
ENDBLK
  5
43DF
330
43D4
100
AcDbEntity
  8
0
100
AcDbBlockEnd
  0
BLOCK
  5
453F
330
4427
100
AcDbEntity
  8
0
100
AcDbBlockBegin
  2
*D51
 70
     1
 10
0.0
 20
0.0
 30
0.0
  3
*D51
  1

  0
LINE
  5
47B2
330
4427
100
AcDbEntity
  8
寸法線
 62
     2
370
    -2
100
AcDbLine
 10
-19.99821859649478
 20
277.8891130604308
 30
0.0
 11
-50.07511410210394
 21
277.8891130604308
 31
0.0
  0
LINE
  5
47B3
330
4427
100
AcDbEntity
  8
寸法線
 62
     2
370
    -2
100
AcDbLine
 10
-27.19821859649483
 20
263.8891130604307
 30
0.0
 11
-50.07511410210395
 21
263.8891130604307
 31
0.0
  0
LINE
  5
47B4
330
4427
100
AcDbEntity
  8
寸法線
 62
     2
370
    -2
100
AcDbLine
 10
-48.82511410210394
 20
275.3891130604308
 30
0.0
 11
-48.82511410210395
 21
266.3891130604308
 31
0.0
  0
INSERT
  5
47B5
330
4427
100
AcDbEntity
  8
寸法線
 62
     2
370
    -2
100
AcDbBlockReference
  2
_OPEN
 10
-48.82511410210394
 20
277.8891130604308
 30
0.0
 41
2.5
 42
2.5
 43
2.5
 50
90.0
  0
INSERT
  5
47B6
330
4427
100
AcDbEntity
  8
寸法線
 62
     2
370
    -2
100
AcDbBlockReference
  2
_OPEN
 10
-48.82511410210395
 20
263.8891130604307
 30
0.0
 41
2.5
 42
2.5
 43
2.5
 50
270.0
  0
MTEXT
  5
47B7
330
4427
100
AcDbEntity
  8
寸法線
 62
     6
100
AcDbMText
 10
-50.70011410210399
 20
270.8891130604308
 30
0.0
 40
2.5
 41
0.0
 71
     5
 72
     1
  1
\A1;3.5
  7
STYLE3
 11
0.0000000000000001
 21
1.0
 31
0.0
 73
     1
 44
1.0
  0
POINT
  5
47B8
330
4427
100
AcDbEntity
  8
DEFPOINTS
 62
     0
100
AcDbPoint
 10
-19.99821859649478
 20
277.8891130604308
 30
0.0
  0
POINT
  5
47B9
330
4427
100
AcDbEntity
  8
DEFPOINTS
 62
     0
100
AcDbPoint
 10
-27.19821859649483
 20
263.8891130604307
 30
0.0
  0
POINT
  5
47BA
330
4427
100
AcDbEntity
  8
DEFPOINTS
 62
     0
100
AcDbPoint
 10
-48.82511410210395
 20
263.8891130604307
 30
0.0
  0
ENDBLK
  5
4549
330
4427
100
AcDbEntity
  8
0
100
AcDbBlockEnd
  0
BLOCK
  5
454A
330
4434
100
AcDbEntity
  8
0
100
AcDbBlockBegin
  2
*D52
 70
     1
 10
0.0
 20
0.0
 30
0.0
  3
*D52
  1

  0
LINE
  5
47AA
330
4434
100
AcDbEntity
  8
寸法線
 62
     2
370
    -2
100
AcDbLine
 10
-27.19821859649483
 20
249.8891130604308
 30
0.0
 11
-50.07511410210395
 21
249.8891130604308
 31
0.0
  0
LINE
  5
47AB
330
4434
100
AcDbEntity
  8
寸法線
 62
     2
370
    -2
100
AcDbLine
 10
-48.82511410210395
 20
261.3891130604307
 30
0.0
 11
-48.82511410210395
 21
252.3891130604308
 31
0.0
  0
INSERT
  5
47AC
330
4434
100
AcDbEntity
  8
寸法線
 62
     2
370
    -2
100
AcDbBlockReference
  2
_OPEN
 10
-48.82511410210395
 20
263.8891130604307
 30
0.0
 41
2.5
 42
2.5
 43
2.5
 50
90.0
  0
INSERT
  5
47AD
330
4434
100
AcDbEntity
  8
寸法線
 62
     2
370
    -2
100
AcDbBlockReference
  2
_OPEN
 10
-48.82511410210395
 20
249.8891130604308
 30
0.0
 41
2.5
 42
2.5
 43
2.5
 50
270.0
  0
MTEXT
  5
47AE
330
4434
100
AcDbEntity
  8
寸法線
 62
     6
100
AcDbMText
 10
-50.70011410210399
 20
256.8891130604308
 30
0.0
 40
2.5
 41
0.0
 71
     5
 72
     1
  1
\A1;3.5
  7
STYLE3
 11
0.0000000000000001
 21
1.0
 31
0.0
 73
     1
 44
1.0
  0
POINT
  5
47AF
330
4434
100
AcDbEntity
  8
DEFPOINTS
 62
     0
100
AcDbPoint
 10
-27.19821859649483
 20
263.8891130604307
 30
0.0
  0
POINT
  5
47B0
330
4434
100
AcDbEntity
  8
DEFPOINTS
 62
     0
100
AcDbPoint
 10
-27.19821859649483
 20
249.8891130604308
 30
0.0
  0
POINT
  5
47B1
330
4434
100
AcDbEntity
  8
DEFPOINTS
 62
     0
100
AcDbPoint
 10
-48.82511410210395
 20
249.8891130604308
 30
0.0
  0
ENDBLK
  5
4553
330
4434
100
AcDbEntity
  8
0
100
AcDbBlockEnd
  0
BLOCK
  5
4533
330
4440
100
AcDbEntity
  8
0
100
AcDbBlockBegin
  2
*D53
 70
     1
 10
0.0
 20
0.0
 30
0.0
  3
*D53
  1

  0
LINE
  5
47A0
330
4440
100
AcDbEntity
  8
寸法線
 62
     2
370
    -2
100
AcDbLine
 10
-27.19821859649477
 20
245.8891130604308
 30
0.0
 11
-50.07511410210395
 21
245.8891130604308
 31
0.0
  0
LINE
  5
47A1
330
4440
100
AcDbEntity
  8
寸法線
 62
     2
370
    -2
100
AcDbLine
 10
-48.82511410210395
 20
252.3891130604308
 30
0.0
 11
-48.82511410210395
 21
254.8891130604308
 31
0.0
  0
LINE
  5
47A2
330
4440
100
AcDbEntity
  8
寸法線
 62
     2
370
    -2
100
AcDbLine
 10
-48.82511410210395
 20
243.3891130604308
 30
0.0
 11
-48.82511410210395
 21
240.8891130604307
 31
0.0
  0
LINE
  5
47A3
330
4440
100
AcDbEntity
  8
寸法線
 62
     2
370
    -2
100
AcDbLine
 10
-48.82511410210395
 20
249.8891130604308
 30
0.0
 11
-48.82511410210395
 21
245.8891130604308
 31
0.0
  0
INSERT
  5
47A4
330
4440
100
AcDbEntity
  8
寸法線
 62
     2
370
    -2
100
AcDbBlockReference
  2
_OPEN
 10
-48.82511410210395
 20
249.8891130604308
 30
0.0
 41
2.5
 42
2.5
 43
2.5
 50
270.0
  0
INSERT
  5
47A5
330
4440
100
AcDbEntity
  8
寸法線
 62
     2
370
    -2
100
AcDbBlockReference
  2
_OPEN
 10
-48.82511410210395
 20
245.8891130604308
 30
0.0
 41
2.5
 42
2.5
 43
2.5
 50
90.0
  0
MTEXT
  5
47A6
330
4440
100
AcDbEntity
  8
寸法線
 62
     6
100
AcDbMText
 10
-50.70011410210399
 20
247.8891130604308
 30
0.0
 40
2.5
 41
0.0
 71
     5
 72
     1
  1
\A1;1
  7
STYLE3
 11
0.0000000000000001
 21
1.0
 31
0.0
 73
     1
 44
1.0
  0
POINT
  5
47A7
330
4440
100
AcDbEntity
  8
DEFPOINTS
 62
     0
100
AcDbPoint
 10
-27.19821859649483
 20
249.8891130604308
 30
0.0
  0
POINT
  5
47A8
330
4440
100
AcDbEntity
  8
DEFPOINTS
 62
     0
100
AcDbPoint
 10
-27.19821859649477
 20
245.8891130604308
 30
0.0
  0
POINT
  5
47A9
330
4440
100
AcDbEntity
  8
DEFPOINTS
 62
     0
100
AcDbPoint
 10
-48.82511410210395
 20
245.8891130604308
 30
0.0
  0
ENDBLK
  5
453E
330
4440
100
AcDbEntity
  8
0
100
AcDbBlockEnd
  0
BLOCK
  5
4529
330
444E
100
AcDbEntity
  8
0
100
AcDbBlockBegin
  2
*D54
 70
     1
 10
0.0
 20
0.0
 30
0.0
  3
*D54
  1

  0
LINE
  5
4798
330
444E
100
AcDbEntity
  8
寸法線
 62
     2
370
    -2
100
AcDbLine
 10
-27.19821859649477
 20
231.8891130604306
 30
0.0
 11
-50.07511410210395
 21
231.8891130604306
 31
0.0
  0
LINE
  5
4799
330
444E
100
AcDbEntity
  8
寸法線
 62
     2
370
    -2
100
AcDbLine
 10
-48.82511410210394
 20
243.3891130604308
 30
0.0
 11
-48.82511410210395
 21
234.3891130604307
 31
0.0
  0
INSERT
  5
479A
330
444E
100
AcDbEntity
  8
寸法線
 62
     2
370
    -2
100
AcDbBlockReference
  2
_OPEN
 10
-48.82511410210394
 20
245.8891130604308
 30
0.0
 41
2.5
 42
2.5
 43
2.5
 50
90.0
  0
INSERT
  5
479B
330
444E
100
AcDbEntity
  8
寸法線
 62
     2
370
    -2
100
AcDbBlockReference
  2
_OPEN
 10
-48.82511410210395
 20
231.8891130604306
 30
0.0
 41
2.5
 42
2.5
 43
2.5
 50
270.0
  0
MTEXT
  5
479C
330
444E
100
AcDbEntity
  8
寸法線
 62
     6
100
AcDbMText
 10
-50.70011410210399
 20
238.8891130604307
 30
0.0
 40
2.5
 41
0.0
 71
     5
 72
     1
  1
\A1;3.5
  7
STYLE3
 11
0.0000000000000001
 21
1.0
 31
0.0
 73
     1
 44
1.0
  0
POINT
  5
479D
330
444E
100
AcDbEntity
  8
DEFPOINTS
 62
     0
100
AcDbPoint
 10
-27.19821859649477
 20
245.8891130604308
 30
0.0
  0
POINT
  5
479E
330
444E
100
AcDbEntity
  8
DEFPOINTS
 62
     0
100
AcDbPoint
 10
-27.19821859649477
 20
231.8891130604306
 30
0.0
  0
POINT
  5
479F
330
444E
100
AcDbEntity
  8
DEFPOINTS
 62
     0
100
AcDbPoint
 10
-48.82511410210395
 20
231.8891130604306
 30
0.0
  0
ENDBLK
  5
4532
330
444E
100
AcDbEntity
  8
0
100
AcDbBlockEnd
  0
BLOCK
  5
451F
330
445A
100
AcDbEntity
  8
0
100
AcDbBlockBegin
  2
*D55
 70
     1
 10
0.0
 20
0.0
 30
0.0
  3
*D55
  1

  0
LINE
  5
4790
330
445A
100
AcDbEntity
  8
寸法線
 62
     2
370
    -2
100
AcDbLine
 10
-19.99821859649478
 20
217.8891130604307
 30
0.0
 11
-50.07511410210395
 21
217.8891130604307
 31
0.0
  0
LINE
  5
4791
330
445A
100
AcDbEntity
  8
寸法線
 62
     2
370
    -2
100
AcDbLine
 10
-48.82511410210395
 20
229.3891130604306
 30
0.0
 11
-48.82511410210395
 21
220.3891130604306
 31
0.0
  0
INSERT
  5
4792
330
445A
100
AcDbEntity
  8
寸法線
 62
     2
370
    -2
100
AcDbBlockReference
  2
_OPEN
 10
-48.82511410210395
 20
231.8891130604306
 30
0.0
 41
2.5
 42
2.5
 43
2.5
 50
90.0
  0
INSERT
  5
4793
330
445A
100
AcDbEntity
  8
寸法線
 62
     2
370
    -2
100
AcDbBlockReference
  2
_OPEN
 10
-48.82511410210395
 20
217.8891130604307
 30
0.0
 41
2.5
 42
2.5
 43
2.5
 50
270.0
  0
MTEXT
  5
4794
330
445A
100
AcDbEntity
  8
寸法線
 62
     6
100
AcDbMText
 10
-50.70011410210399
 20
224.8891130604306
 30
0.0
 40
2.5
 41
0.0
 71
     5
 72
     1
  1
\A1;3.5
  7
STYLE3
 11
0.0000000000000001
 21
1.0
 31
0.0
 73
     1
 44
1.0
  0
POINT
  5
4795
330
445A
100
AcDbEntity
  8
DEFPOINTS
 62
     0
100
AcDbPoint
 10
-27.19821859649477
 20
231.8891130604306
 30
0.0
  0
POINT
  5
4796
330
445A
100
AcDbEntity
  8
DEFPOINTS
 62
     0
100
AcDbPoint
 10
-19.99821859649478
 20
217.8891130604307
 30
0.0
  0
POINT
  5
4797
330
445A
100
AcDbEntity
  8
DEFPOINTS
 62
     0
100
AcDbPoint
 10
-48.82511410210395
 20
217.8891130604307
 30
0.0
  0
ENDBLK
  5
4528
330
445A
100
AcDbEntity
  8
0
100
AcDbBlockEnd
  0
BLOCK
  5
4560
330
4466
100
AcDbEntity
  8
0
100
AcDbBlockBegin
  2
*D56
 70
     1
 10
0.0
 20
0.0
 30
0.0
  3
*D56
  1

  0
LINE
  5
4787
330
4466
100
AcDbEntity
  8
寸法線
 62
     2
370
    -2
100
AcDbLine
 10
-42.79806524597268
 20
277.8891130604308
 30
0.0
 11
-40.57943304169486
 21
277.8891130604308
 31
0.0
  0
LINE
  5
4788
330
4466
100
AcDbEntity
  8
寸法線
 62
     2
370
    -2
100
AcDbLine
 10
-24.99821859649478
 20
267.8891130604307
 30
0.0
 11
-43.07943304169486
 21
267.8891130604307
 31
0.0
  0
LINE
  5
4789
330
4466
100
AcDbEntity
  8
寸法線
 62
     2
370
    -2
100
AcDbLine
 10
-41.82943304169486
 20
275.3891130604308
 30
0.0
 11
-41.82943304169486
 21
270.3891130604308
 31
0.0
  0
INSERT
  5
478A
330
4466
100
AcDbEntity
  8
寸法線
 62
     2
370
    -2
100
AcDbBlockReference
  2
_OPEN
 10
-41.82943304169486
 20
277.8891130604308
 30
0.0
 41
2.5
 42
2.5
 43
2.5
 50
90.0
  0
INSERT
  5
478B
330
4466
100
AcDbEntity
  8
寸法線
 62
     2
370
    -2
100
AcDbBlockReference
  2
_OPEN
 10
-41.82943304169486
 20
267.8891130604307
 30
0.0
 41
2.5
 42
2.5
 43
2.5
 50
270.0
  0
MTEXT
  5
478C
330
4466
100
AcDbEntity
  8
寸法線
 62
     6
100
AcDbMText
 10
-43.70443304169491
 20
272.8891130604308
 30
0.0
 40
2.5
 41
0.0
 71
     5
 72
     1
  1
\A1;2.5
  7
STYLE3
 11
0.0000000000000001
 21
1.0
 31
0.0
 73
     1
 44
1.0
  0
POINT
  5
478D
330
4466
100
AcDbEntity
  8
DEFPOINTS
 62
     0
100
AcDbPoint
 10
-42.79806524597268
 20
277.8891130604308
 30
0.0
  0
POINT
  5
478E
330
4466
100
AcDbEntity
  8
DEFPOINTS
 62
     0
100
AcDbPoint
 10
-24.99821859649478
 20
267.8891130604307
 30
0.0
  0
POINT
  5
478F
330
4466
100
AcDbEntity
  8
DEFPOINTS
 62
     0
100
AcDbPoint
 10
-41.82943304169486
 20
267.8891130604307
 30
0.0
  0
ENDBLK
  5
456A
330
4466
100
AcDbEntity
  8
0
100
AcDbBlockEnd
  0
BLOCK
  5
4554
330
4473
100
AcDbEntity
  8
0
100
AcDbBlockBegin
  2
*D57
 70
     1
 10
0.0
 20
0.0
 30
0.0
  3
*D57
  1

  0
LINE
  5
477D
330
4473
100
AcDbEntity
  8
寸法線
 62
     2
370
    -2
100
AcDbLine
 10
-40.64554840686071
 20
263.8891130604307
 30
0.0
 11
-43.07943304169486
 21
263.8891130604307
 31
0.0
  0
LINE
  5
477E
330
4473
100
AcDbEntity
  8
寸法線
 62
     2
370
    -2
100
AcDbLine
 10
-41.82943304169486
 20
270.3891130604308
 30
0.0
 11
-41.82943304169486
 21
272.8891130604308
 31
0.0
  0
LINE
  5
477F
330
4473
100
AcDbEntity
  8
寸法線
 62
     2
370
    -2
100
AcDbLine
 10
-41.82943304169486
 20
261.3891130604307
 30
0.0
 11
-41.82943304169486
 21
258.8891130604308
 31
0.0
  0
LINE
  5
4780
330
4473
100
AcDbEntity
  8
寸法線
 62
     2
370
    -2
100
AcDbLine
 10
-41.82943304169486
 20
267.8891130604307
 30
0.0
 11
-41.82943304169486
 21
263.8891130604307
 31
0.0
  0
INSERT
  5
4781
330
4473
100
AcDbEntity
  8
寸法線
 62
     2
370
    -2
100
AcDbBlockReference
  2
_OPEN
 10
-41.82943304169486
 20
267.8891130604307
 30
0.0
 41
2.5
 42
2.5
 43
2.5
 50
270.0
  0
INSERT
  5
4782
330
4473
100
AcDbEntity
  8
寸法線
 62
     2
370
    -2
100
AcDbBlockReference
  2
_OPEN
 10
-41.82943304169486
 20
263.8891130604307
 30
0.0
 41
2.5
 42
2.5
 43
2.5
 50
90.0
  0
MTEXT
  5
4783
330
4473
100
AcDbEntity
  8
寸法線
 62
     6
100
AcDbMText
 10
-43.70443304169491
 20
265.8891130604307
 30
0.0
 40
2.5
 41
0.0
 71
     5
 72
     1
  1
\A1;1
  7
STYLE3
 11
0.0000000000000001
 21
1.0
 31
0.0
 73
     1
 44
1.0
  0
POINT
  5
4784
330
4473
100
AcDbEntity
  8
DEFPOINTS
 62
     0
100
AcDbPoint
 10
-24.99821859649478
 20
267.8891130604307
 30
0.0
  0
POINT
  5
4785
330
4473
100
AcDbEntity
  8
DEFPOINTS
 62
     0
100
AcDbPoint
 10
-40.64554840686071
 20
263.8891130604307
 30
0.0
  0
POINT
  5
4786
330
4473
100
AcDbEntity
  8
DEFPOINTS
 62
     0
100
AcDbPoint
 10
-41.82943304169486
 20
263.8891130604307
 30
0.0
  0
ENDBLK
  5
455F
330
4473
100
AcDbEntity
  8
0
100
AcDbBlockEnd
  0
BLOCK
  5
4512
330
4481
100
AcDbEntity
  8
0
100
AcDbBlockBegin
  2
*D58
 70
     1
 10
0.0
 20
0.0
 30
0.0
  3
*D58
  1

  0
LINE
  5
4772
330
4481
100
AcDbEntity
  8
寸法線
 62
     2
370
    -2
100
AcDbLine
 10
-41.07605220133734
 20
231.8891130604306
 30
0.0
 11
-42.75655492917837
 21
231.8891130604306
 31
0.0
  0
LINE
  5
4773
330
4481
100
AcDbEntity
  8
寸法線
 62
     2
370
    -2
100
AcDbLine
 10
-24.99821859649478
 20
227.8891130604307
 30
0.0
 11
-42.75655492917837
 21
227.8891130604307
 31
0.0
  0
LINE
  5
4774
330
4481
100
AcDbEntity
  8
寸法線
 62
     2
370
    -2
100
AcDbLine
 10
-41.50655492917837
 20
234.3891130604307
 30
0.0
 11
-41.50655492917837
 21
236.8891130604307
 31
0.0
  0
LINE
  5
4775
330
4481
100
AcDbEntity
  8
寸法線
 62
     2
370
    -2
100
AcDbLine
 10
-41.50655492917837
 20
225.3891130604306
 30
0.0
 11
-41.50655492917837
 21
222.8891130604306
 31
0.0
  0
LINE
  5
4776
330
4481
100
AcDbEntity
  8
寸法線
 62
     2
370
    -2
100
AcDbLine
 10
-41.50655492917837
 20
231.8891130604306
 30
0.0
 11
-41.50655492917837
 21
227.8891130604307
 31
0.0
  0
INSERT
  5
4777
330
4481
100
AcDbEntity
  8
寸法線
 62
     2
370
    -2
100
AcDbBlockReference
  2
_OPEN
 10
-41.50655492917837
 20
231.8891130604306
 30
0.0
 41
2.5
 42
2.5
 43
2.5
 50
270.0
  0
INSERT
  5
4778
330
4481
100
AcDbEntity
  8
寸法線
 62
     2
370
    -2
100
AcDbBlockReference
  2
_OPEN
 10
-41.50655492917837
 20
227.8891130604307
 30
0.0
 41
2.5
 42
2.5
 43
2.5
 50
90.0
  0
MTEXT
  5
4779
330
4481
100
AcDbEntity
  8
寸法線
 62
     6
100
AcDbMText
 10
-43.38155492917841
 20
229.8891130604307
 30
0.0
 40
2.5
 41
0.0
 71
     5
 72
     1
  1
\A1;1
  7
STYLE3
 11
0.0000000000000001
 21
1.0
 31
0.0
 73
     1
 44
1.0
  0
POINT
  5
477A
330
4481
100
AcDbEntity
  8
DEFPOINTS
 62
     0
100
AcDbPoint
 10
-41.07605220133734
 20
231.8891130604306
 30
0.0
  0
POINT
  5
477B
330
4481
100
AcDbEntity
  8
DEFPOINTS
 62
     0
100
AcDbPoint
 10
-24.99821859649478
 20
227.8891130604307
 30
0.0
  0
POINT
  5
477C
330
4481
100
AcDbEntity
  8
DEFPOINTS
 62
     0
100
AcDbPoint
 10
-41.50655492917837
 20
227.8891130604307
 30
0.0
  0
ENDBLK
  5
451E
330
4481
100
AcDbEntity
  8
0
100
AcDbBlockEnd
  0
BLOCK
  5
4508
330
4490
100
AcDbEntity
  8
0
100
AcDbBlockBegin
  2
*D59
 70
     1
 10
0.0
 20
0.0
 30
0.0
  3
*D59
  1

  0
LINE
  5
476A
330
4490
100
AcDbEntity
  8
寸法線
 62
     2
370
    -2
100
AcDbLine
 10
-41.07605220133734
 20
217.8891130604307
 30
0.0
 11
-42.75655492917837
 21
217.8891130604307
 31
0.0
  0
LINE
  5
476B
330
4490
100
AcDbEntity
  8
寸法線
 62
     2
370
    -2
100
AcDbLine
 10
-41.50655492917837
 20
225.3891130604306
 30
0.0
 11
-41.50655492917837
 21
220.3891130604306
 31
0.0
  0
INSERT
  5
476C
330
4490
100
AcDbEntity
  8
寸法線
 62
     2
370
    -2
100
AcDbBlockReference
  2
_OPEN
 10
-41.50655492917837
 20
227.8891130604307
 30
0.0
 41
2.5
 42
2.5
 43
2.5
 50
90.0
  0
INSERT
  5
476D
330
4490
100
AcDbEntity
  8
寸法線
 62
     2
370
    -2
100
AcDbBlockReference
  2
_OPEN
 10
-41.50655492917837
 20
217.8891130604307
 30
0.0
 41
2.5
 42
2.5
 43
2.5
 50
270.0
  0
MTEXT
  5
476E
330
4490
100
AcDbEntity
  8
寸法線
 62
     6
100
AcDbMText
 10
-43.38155492917841
 20
222.8891130604306
 30
0.0
 40
2.5
 41
0.0
 71
     5
 72
     1
  1
\A1;2.5
  7
STYLE3
 11
0.0000000000000001
 21
1.0
 31
0.0
 73
     1
 44
1.0
  0
POINT
  5
476F
330
4490
100
AcDbEntity
  8
DEFPOINTS
 62
     0
100
AcDbPoint
 10
-24.99821859649478
 20
227.8891130604307
 30
0.0
  0
POINT
  5
4770
330
4490
100
AcDbEntity
  8
DEFPOINTS
 62
     0
100
AcDbPoint
 10
-41.07605220133734
 20
217.8891130604307
 30
0.0
  0
POINT
  5
4771
330
4490
100
AcDbEntity
  8
DEFPOINTS
 62
     0
100
AcDbPoint
 10
-41.50655492917837
 20
217.8891130604307
 30
0.0
  0
ENDBLK
  5
4511
330
4490
100
AcDbEntity
  8
0
100
AcDbBlockEnd
  0
BLOCK
  5
4578
330
44AB
100
AcDbEntity
  8
0
100
AcDbBlockBegin
  2
*D60
 70
     1
 10
0.0
 20
0.0
 30
0.0
  3
*D60
  1

  0
LINE
  5
4765
330
44AB
100
AcDbEntity
  8
寸法線
 62
     2
370
    -2
100
AcDbLine
 10
-0.9083541450797127
 20
278.0944637126108
 30
0.0
 11
-15.66722316037527
 21
269.7300883512782
 31
0.0
  0
MTEXT
  5
4766
330
44AB
100
AcDbEntity
  8
寸法線
 62
     6
100
AcDbMText
 10
-8.124776633642468
 20
276.1598418444701
 30
0.0
 40
2.5
 41
0.0
 71
     5
 72
     1
  1
\A1;2-R0.3
  7
STYLE3
 11
0.8699964893226852
 21
0.4930579160364459
 31
0.0
 73
     1
 44
1.0
  0
INSERT
  5
4767
330
44AB
100
AcDbEntity
  8
寸法線
 62
     2
370
    -2
100
AcDbBlockReference
  2
_OPEN
 10
-17.84221438368199
 20
268.4974435611871
 30
0.0
 41
2.5
 42
2.5
 43
2.5
 50
209.5417684608517
  0
POINT
  5
4768
330
44AB
100
AcDbEntity
  8
DEFPOINTS
 62
     0
100
AcDbPoint
 10
-17.84221438368199
 20
268.4974435611871
 30
0.0
  0
POINT
  5
4769
330
44AB
100
AcDbEntity
  8
DEFPOINTS
 62
     0
100
AcDbPoint
 10
-16.79821859649478
 20
269.0891130604308
 30
0.0
  0
ENDBLK
  5
457E
330
44AB
100
AcDbEntity
  8
0
100
AcDbBlockEnd
  0
BLOCK
  5
44F1
330
44D6
100
AcDbEntity
  8
0
100
AcDbBlockBegin
  2
*D61
 70
     1
 10
0.0
 20
0.0
 30
0.0
  3
*D61
  1

  0
LINE
  5
475B
330
44D6
100
AcDbEntity
  8
寸法線
 62
     2
370
    -2
100
AcDbLine
 10
-27.19821859649477
 20
231.8891130604306
 30
0.0
 11
-27.19821859649477
 21
197.4102016170163
 31
0.0
  0
LINE
  5
475C
330
44D6
100
AcDbEntity
  8
寸法線
 62
     2
370
    -2
100
AcDbLine
 10
-19.99821859649478
 20
212.3079472242989
 30
0.0
 11
-19.99821859649478
 21
197.4102016170163
 31
0.0
  0
LINE
  5
475D
330
44D6
100
AcDbEntity
  8
寸法線
 62
     2
370
    -2
100
AcDbLine
 10
-24.69821859649477
 20
198.6602016170163
 30
0.0
 11
-22.49821859649478
 21
198.6602016170163
 31
0.0
  0
LINE
  5
475E
330
44D6
100
AcDbEntity
  8
寸法線
 62
     2
370
    -2
100
AcDbLine
 10
-19.99821859649478
 20
198.6602016170163
 30
0.0
 11
-5.533932882209068
 21
198.6602016170163
 31
0.0
  0
INSERT
  5
475F
330
44D6
100
AcDbEntity
  8
寸法線
 62
     2
370
    -2
100
AcDbBlockReference
  2
_OPEN
 10
-27.19821859649477
 20
198.6602016170163
 30
0.0
 41
2.5
 42
2.5
 43
2.5
 50
180.0
  0
INSERT
  5
4760
330
44D6
100
AcDbEntity
  8
寸法線
 62
     2
370
    -2
100
AcDbBlockReference
  2
_OPEN
 10
-19.99821859649478
 20
198.6602016170163
 30
0.0
 41
2.5
 42
2.5
 43
2.5
  0
MTEXT
  5
4761
330
44D6
100
AcDbEntity
  8
寸法線
 62
     6
100
AcDbMText
 10
-11.51607573935192
 20
200.5352016170164
 30
0.0
 40
2.5
 41
0.0
 71
     5
 72
     1
  1
\A1;2-1.8
  7
STYLE3
 73
     1
 44
1.0
  0
POINT
  5
4762
330
44D6
100
AcDbEntity
  8
DEFPOINTS
 62
     0
100
AcDbPoint
 10
-27.19821859649477
 20
231.8891130604306
 30
0.0
  0
POINT
  5
4763
330
44D6
100
AcDbEntity
  8
DEFPOINTS
 62
     0
100
AcDbPoint
 10
-19.99821859649478
 20
212.3079472242989
 30
0.0
  0
POINT
  5
4764
330
44D6
100
AcDbEntity
  8
DEFPOINTS
 62
     0
100
AcDbPoint
 10
-19.99821859649478
 20
198.6602016170163
 30
0.0
  0
ENDBLK
  5
44FC
330
44D6
100
AcDbEntity
  8
0
100
AcDbBlockEnd
  0
BLOCK
  5
45A2
330
45A1
100
AcDbEntity
  8
0
100
AcDbBlockBegin
  2
*D62
 70
     1
 10
0.0
 20
0.0
 30
0.0
  3
*D62
  1

  0
LINE
  5
4750
330
45A1
100
AcDbEntity
  8
寸法線
 62
     2
370
    -2
100
AcDbLine
 10
103.8013218495157
 20
97.13480239075989
 30
0.0
 11
90.96513956706292
 21
97.13480239075991
 31
0.0
  0
LINE
  5
4751
330
45A1
100
AcDbEntity
  8
寸法線
 62
     2
370
    -2
100
AcDbLine
 10
103.8013218495157
 20
100.1348023907599
 30
0.0
 11
90.96513956706292
 21
100.1348023907599
 31
0.0
  0
LINE
  5
4752
330
45A1
100
AcDbEntity
  8
寸法線
 62
     2
370
    -2
100
AcDbLine
 10
92.2151395670629
 20
94.63480239075989
 30
0.0
 11
92.2151395670629
 21
92.13480239075989
 31
0.0
  0
LINE
  5
4753
330
45A1
100
AcDbEntity
  8
寸法線
 62
     2
370
    -2
100
AcDbLine
 10
92.21513956706292
 20
102.6348023907599
 30
0.0
 11
92.21513956706292
 21
105.1348023907599
 31
0.0
  0
LINE
  5
4754
330
45A1
100
AcDbEntity
  8
寸法線
 62
     2
370
    -2
100
AcDbLine
 10
92.21513956706292
 20
97.13480239075991
 30
0.0
 11
92.21513956706292
 21
100.1348023907599
 31
0.0
  0
INSERT
  5
4755
330
45A1
100
AcDbEntity
  8
寸法線
 62
     2
370
    -2
100
AcDbBlockReference
  2
_OPEN
 10
92.21513956706292
 20
97.13480239075991
 30
0.0
 41
2.5
 42
2.5
 43
2.5
 50
90.0
  0
INSERT
  5
4756
330
45A1
100
AcDbEntity
  8
寸法線
 62
     2
370
    -2
100
AcDbBlockReference
  2
_OPEN
 10
92.21513956706292
 20
100.1348023907599
 30
0.0
 41
2.5
 42
2.5
 43
2.5
 50
270.0
  0
MTEXT
  5
4757
330
45A1
100
AcDbEntity
  8
寸法線
 62
     6
100
AcDbMText
 10
90.34013956706289
 20
98.63480239075991
 30
0.0
 40
2.5
 41
0.0
 71
     5
 72
     1
  1
\A1;3
  7
STYLE3
 11
0.0000000000000001
 21
1.0
 31
0.0
 73
     1
 44
1.0
  0
POINT
  5
4758
330
45A1
100
AcDbEntity
  8
DEFPOINTS
 62
     0
100
AcDbPoint
 10
103.8013218495157
 20
97.13480239075989
 30
0.0
  0
POINT
  5
4759
330
45A1
100
AcDbEntity
  8
DEFPOINTS
 62
     0
100
AcDbPoint
 10
103.8013218495157
 20
100.1348023907599
 30
0.0
  0
POINT
  5
475A
330
45A1
100
AcDbEntity
  8
DEFPOINTS
 62
     0
100
AcDbPoint
 10
92.21513956706292
 20
100.1348023907599
 30
0.0
  0
ENDBLK
  5
45AE
330
45A1
100
AcDbEntity
  8
0
100
AcDbBlockEnd
  0
BLOCK
  5
45C3
330
45C2
100
AcDbEntity
  8
0
100
AcDbBlockBegin
  2
*D63
 70
     1
 10
0.0
 20
0.0
 30
0.0
  3
*D63
  1

  0
LINE
  5
4745
330
45C2
100
AcDbEntity
  8
寸法線
 62
     2
370
    -2
100
AcDbLine
 10
22.53632304249697
 20
152.1047095260427
 30
0.0
 11
19.42819554125379
 21
152.1047095260427
 31
0.0
  0
LINE
  5
4746
330
45C2
100
AcDbEntity
  8
寸法線
 62
     2
370
    -2
100
AcDbLine
 10
22.61915050955656
 20
147.1047095260427
 30
0.0
 11
19.42819554125379
 21
147.1047095260427
 31
0.0
  0
LINE
  5
4747
330
45C2
100
AcDbEntity
  8
寸法線
 62
     2
370
    -2
100
AcDbLine
 10
20.67819554125379
 20
154.6047095260427
 30
0.0
 11
20.67819554125379
 21
157.1047095260427
 31
0.0
  0
LINE
  5
4748
330
45C2
100
AcDbEntity
  8
寸法線
 62
     2
370
    -2
100
AcDbLine
 10
20.67819554125379
 20
144.6047095260427
 30
0.0
 11
20.67819554125379
 21
142.1047095260427
 31
0.0
  0
LINE
  5
4749
330
45C2
100
AcDbEntity
  8
寸法線
 62
     2
370
    -2
100
AcDbLine
 10
20.67819554125379
 20
152.1047095260427
 30
0.0
 11
20.67819554125379
 21
147.1047095260427
 31
0.0
  0
INSERT
  5
474A
330
45C2
100
AcDbEntity
  8
寸法線
 62
     2
370
    -2
100
AcDbBlockReference
  2
_OPEN
 10
20.67819554125379
 20
152.1047095260427
 30
0.0
 41
2.5
 42
2.5
 43
2.5
 50
270.0
  0
INSERT
  5
474B
330
45C2
100
AcDbEntity
  8
寸法線
 62
     2
370
    -2
100
AcDbBlockReference
  2
_OPEN
 10
20.67819554125379
 20
147.1047095260427
 30
0.0
 41
2.5
 42
2.5
 43
2.5
 50
90.0
  0
MTEXT
  5
474C
330
45C2
100
AcDbEntity
  8
寸法線
 62
     6
100
AcDbMText
 10
18.80319554125376
 20
149.6047095260427
 30
0.0
 40
2.5
 41
0.0
 71
     5
 72
     1
  1
\A1;5
  7
STYLE3
 11
0.0000000000000001
 21
1.0
 31
0.0
 73
     1
 44
1.0
  0
POINT
  5
474D
330
45C2
100
AcDbEntity
  8
DEFPOINTS
 62
     0
100
AcDbPoint
 10
22.53632304249697
 20
152.1047095260427
 30
0.0
  0
POINT
  5
474E
330
45C2
100
AcDbEntity
  8
DEFPOINTS
 62
     0
100
AcDbPoint
 10
22.61915050955656
 20
147.1047095260427
 30
0.0
  0
POINT
  5
474F
330
45C2
100
AcDbEntity
  8
DEFPOINTS
 62
     0
100
AcDbPoint
 10
20.67819554125379
 20
147.1047095260427
 30
0.0
  0
ENDBLK
  5
45CF
330
45C2
100
AcDbEntity
  8
0
100
AcDbBlockEnd
  0
ENDSEC
  0
SECTION
  2
ENTITIES
  0
LWPOLYLINE
  5
1A0
330
18
100
AcDbEntity
  8
C
100
AcDbPolyline
 90
        5
 70
     0
 43
0.8
 10
-72.88854125871399
 20
304.8270144589643
 10
304.6114587412859
 20
304.8270144589643
 10
304.6114587412859
 20
22.3270144589643
 10
-72.88854125871399
 20
22.3270144589643
 10
-72.88854125871399
 20
304.8270144589643
  0
LINE
  5
213
330
18
100
AcDbEntity
  8
隠れ線2
100
AcDbLine
 10
103.8013218495157
 20
129.6047095260427
 30
0.0
 11
103.8013218495157
 21
104.6047095260427
 31
0.0
  0
LINE
  5
225
330
18
100
AcDbEntity
  8
外形線
100
AcDbLine
 10
98.80132184951575
 20
104.6047095260427
 30
0.0
 11
119.8013218495157
 21
104.6047095260427
 31
0.0
  0
LINE
  5
238
330
18
100
AcDbEntity
  8
外形線
100
AcDbLine
 10
98.8013218495157
 20
129.6047095260427
 30
0.0
 11
119.8013218495157
 21
129.6047095260427
 31
0.0
  0
LINE
  5
23A
330
18
100
AcDbEntity
  8
中心線
 48
0.15
100
AcDbLine
 10
97.58642944356807
 20
107.1047095260427
 30
0.0
 11
105.0992615871129
 21
107.1047095260427
 31
0.0
  0
LINE
  5
23B
330
18
100
AcDbEntity
  8
中心線
 48
0.15
100
AcDbLine
 10
101.3013218495157
 20
110.8473751316617
 30
0.0
 11
101.3013218495157
 21
103.3620439204236
 31
0.0
  0
LINE
  5
247
330
18
100
AcDbEntity
  8
中心線
100
AcDbLine
 10
109.3013218495157
 20
178.6787702387891
 30
0.0
 11
109.3013218495157
 21
78.46591427138617
 31
0.0
  0
LINE
  5
250
330
18
100
AcDbEntity
  8
隠れ線2
100
AcDbLine
 10
114.8013218495157
 20
129.6047095260427
 30
0.0
 11
114.8013218495157
 21
104.6047095260427
 31
0.0
  0
LINE
  5
294
330
18
100
AcDbEntity
  8
中心線
100
AcDbLine
 10
272.6237628942699
 20
149.6047095260427
 30
0.0
 11
26.4275189480278
 21
149.6047095260427
 31
0.0
  0
LINE
  5
2C0
330
18
100
AcDbEntity
  8
中心線
100
AcDbLine
 10
178.4905419565375
 20
192.6047095260427
 30
0.0
 11
117.988794934071
 21
192.6047095260427
 31
0.0
  0
LINE
  5
2C3
330
18
100
AcDbEntity
  8
中心線
100
AcDbLine
 10
149.3013218495157
 20
158.6047095260427
 30
0.0
 11
149.3013218495156
 21
239.8437947968538
 31
0.0
  0
ARC
  5
2C7
330
18
100
AcDbEntity
  8
隠れ線2
100
AcDbCircle
 10
149.3013218495157
 20
192.6047095260427
 30
0.0
 40
25.0
100
AcDbArc
 50
315.2071662976334
 51
148.8603805845131
  0
LINE
  5
2F4
330
18
100
AcDbEntity
  8
中心線
 48
0.2
100
AcDbLine
 10
105.3845244450151
 20
85.1047095260427
 30
0.0
 11
113.2181192540163
 21
85.1047095260427
 31
0.0
  0
CIRCLE
  5
2F5
330
18
100
AcDbEntity
  8
外形線
100
AcDbCircle
 10
109.3013218495157
 20
85.1047095260427
 30
0.0
 40
1.225
  0
LINE
  5
2FD
330
18
100
AcDbEntity
  8
中心線
 48
0.3
100
AcDbLine
 10
160.3013218495158
 20
157.7463161335726
 30
0.0
 11
160.3013218495157
 21
167.9338136987317
 31
0.0
  0
LINE
  5
2FE
330
18
100
AcDbEntity
  8
中心線
 48
0.15
100
AcDbLine
 10
162.8950706320952
 20
165.3400649161521
 30
0.0
 11
157.7075730669361
 21
165.3400649161521
 31
0.0
  0
LINE
  5
2FF
330
18
100
AcDbEntity
  8
中心線
 48
0.15
100
AcDbLine
 10
162.8950706320951
 20
160.3400649161521
 30
0.0
 11
157.707573066936
 21
160.3400649161521
 31
0.0
  0
LINE
  5
49F
330
18
100
AcDbEntity
  8
握り
100
AcDbLine
 10
265.6279717656579
 20
163.8047095260426
 30
0.0
 11
268.8013218495157
 21
163.8047095260427
 31
0.0
  0
LINE
  5
4A0
330
18
100
AcDbEntity
  8
握り
100
AcDbLine
 10
245.6279717656578
 20
163.8047095260427
 30
0.0
 11
252.9746719333736
 21
163.8047095260426
 31
0.0
  0
LINE
  5
4A1
330
18
100
AcDbEntity
  8
握り
100
AcDbLine
 10
242.9746719333735
 20
163.8047095260427
 30
0.0
 11
242.9746719333735
 21
156.2580095260427
 31
0.0
  0
LINE
  5
4A2
330
18
100
AcDbEntity
  8
握り
100
AcDbLine
 10
255.627971765658
 20
163.8047095260426
 30
0.0
 11
262.9746719333736
 21
163.8047095260426
 31
0.0
  0
LINE
  5
4A3
330
18
100
AcDbEntity
  8
握り
100
AcDbLine
 10
242.9746719333737
 20
153.6047095260427
 30
0.0
 11
242.9746719333734
 21
145.6047095260427
 31
0.0
  0
LINE
  5
4A4
330
18
100
AcDbEntity
  8
握り
100
AcDbLine
 10
225.6279717656579
 20
163.8047095260427
 30
0.0
 11
232.9746719333735
 21
163.8047095260427
 31
0.0
  0
LINE
  5
4A5
330
18
100
AcDbEntity
  8
握り
100
AcDbLine
 10
225.627971765658
 20
156.2580095260427
 30
0.0
 11
232.9746719333735
 21
156.2580095260427
 31
0.0
  0
LINE
  5
4A6
330
18
100
AcDbEntity
  8
握り
100
AcDbLine
 10
225.6279717656579
 20
163.8047095260427
 30
0.0
 11
225.627971765658
 21
156.2580095260427
 31
0.0
  0
LINE
  5
4A7
330
18
100
AcDbEntity
  8
握り
100
AcDbLine
 10
232.9746719333735
 20
163.8047095260427
 30
0.0
 11
232.9746719333737
 21
156.2580095260427
 31
0.0
  0
LINE
  5
4A8
330
18
100
AcDbEntity
  8
握り
100
AcDbLine
 10
235.6279717656579
 20
163.8047095260427
 30
0.0
 11
235.627971765658
 21
156.2580095260427
 31
0.0
  0
LINE
  5
4A9
330
18
100
AcDbEntity
  8
握り
100
AcDbLine
 10
215.627971765658
 20
163.8047095260427
 30
0.0
 11
222.9746719333736
 21
163.8047095260427
 31
0.0
  0
LINE
  5
4AA
330
18
100
AcDbEntity
  8
握り
100
AcDbLine
 10
215.6279717656579
 20
156.2580095260427
 30
0.0
 11
222.9746719333737
 21
156.2580095260427
 31
0.0
  0
LINE
  5
4AB
330
18
100
AcDbEntity
  8
握り
100
AcDbLine
 10
212.9746719333736
 20
163.8047095260427
 30
0.0
 11
212.9746719333736
 21
156.2580095260427
 31
0.0
  0
LINE
  5
4AC
330
18
100
AcDbEntity
  8
握り
100
AcDbLine
 10
215.6279717656579
 20
163.8047095260427
 30
0.0
 11
215.627971765658
 21
156.2580095260427
 31
0.0
  0
LINE
  5
4AD
330
18
100
AcDbEntity
  8
握り
100
AcDbLine
 10
222.9746719333736
 20
163.8047095260427
 30
0.0
 11
222.9746719333737
 21
156.2580095260427
 31
0.0
  0
LINE
  5
4AE
330
18
100
AcDbEntity
  8
握り
100
AcDbLine
 10
225.6279717656579
 20
142.9514095260427
 30
0.0
 11
232.9746719333735
 21
142.9514095260427
 31
0.0
  0
LINE
  5
4AF
330
18
100
AcDbEntity
  8
握り
100
AcDbLine
 10
215.6279717656577
 20
142.9514095260427
 30
0.0
 11
222.9746719333736
 21
142.9514095260427
 31
0.0
  0
LINE
  5
4B0
330
18
100
AcDbEntity
  8
握り
100
AcDbLine
 10
235.627971765658
 20
163.8047095260427
 30
0.0
 11
242.9746719333734
 21
163.8047095260427
 31
0.0
  0
LINE
  5
4B1
330
18
100
AcDbEntity
  8
握り
100
AcDbLine
 10
235.627971765658
 20
156.2580095260427
 30
0.0
 11
242.9746719333734
 21
156.2580095260427
 31
0.0
  0
LINE
  5
4B2
330
18
100
AcDbEntity
  8
握り
100
AcDbLine
 10
235.6279717656579
 20
142.9514095260427
 30
0.0
 11
242.9746719333734
 21
142.9514095260427
 31
0.0
  0
ARC
  5
4B3
330
18
100
AcDbEntity
  8
握り
100
AcDbCircle
 10
268.8013218495157
 20
135.9047095260427
 30
0.0
 40
0.5
100
AcDbArc
 50
270.0
 51
0.0
  0
ARC
  5
4B4
330
18
100
AcDbEntity
  8
握り
100
AcDbCircle
 10
264.3013218495157
 20
136.1047095260427
 30
0.0
 40
1.5
100
AcDbArc
 50
207.8181392846543
 51
332.1818607153458
  0
LINE
  5
4B5
330
18
100
AcDbEntity
  8
握り
100
AcDbLine
 10
265.6279717656579
 20
135.4047095260426
 30
0.0
 11
268.8013218495157
 21
135.4047095260427
 31
0.0
  0
ARC
  5
4B6
330
18
100
AcDbEntity
  8
握り
100
AcDbCircle
 10
254.3013218495157
 20
136.1047095260427
 30
0.0
 40
1.5
100
AcDbArc
 50
207.8181392846543
 51
332.1818607153458
  0
ARC
  5
4B7
330
18
100
AcDbEntity
  8
握り
100
AcDbCircle
 10
244.3013218495157
 20
136.1047095260427
 30
0.0
 40
1.5
100
AcDbArc
 50
207.8181392846543
 51
332.1818607153458
  0
LINE
  5
4B8
330
18
100
AcDbEntity
  8
握り
100
AcDbLine
 10
245.6279717656578
 20
135.4047095260427
 30
0.0
 11
252.9746719333736
 21
135.4047095260427
 31
0.0
  0
LINE
  5
4B9
330
18
100
AcDbEntity
  8
握り
100
AcDbLine
 10
255.627971765658
 20
135.4047095260427
 30
0.0
 11
262.9746719333736
 21
135.4047095260426
 31
0.0
  0
ARC
  5
4BA
330
18
100
AcDbEntity
  8
握り
100
AcDbCircle
 10
234.3013218495157
 20
136.1047095260427
 30
0.0
 40
1.5
100
AcDbArc
 50
207.8181392846543
 51
332.1818607153458
  0
LINE
  5
4BB
330
18
100
AcDbEntity
  8
握り
100
AcDbLine
 10
225.6279717656579
 20
135.4047095260427
 30
0.0
 11
232.9746719333735
 21
135.4047095260427
 31
0.0
  0
LINE
  5
4BC
330
18
100
AcDbEntity
  8
握り
100
AcDbLine
 10
215.627971765658
 20
135.4047095260427
 30
0.0
 11
222.9746719333736
 21
135.4047095260427
 31
0.0
  0
ARC
  5
4BD
330
18
100
AcDbEntity
  8
握り
100
AcDbCircle
 10
214.3013218495157
 20
136.1047095260427
 30
0.0
 40
1.5
100
AcDbArc
 50
207.8181392846543
 51
332.1818607153458
  0
ARC
  5
4BE
330
18
100
AcDbEntity
  8
握り
100
AcDbCircle
 10
224.3013218495157
 20
136.1047095260427
 30
0.0
 40
1.5
100
AcDbArc
 50
207.8181392846543
 51
332.1818607153458
  0
LINE
  5
4BF
330
18
100
AcDbEntity
  8
握り
100
AcDbLine
 10
235.627971765658
 20
135.4047095260427
 30
0.0
 11
242.9746719333734
 21
135.4047095260427
 31
0.0
  0
LINE
  5
4C0
330
18
100
AcDbEntity
  8
握り
100
AcDbLine
 10
269.3013218495157
 20
163.3047095260427
 30
0.0
 11
269.3013218495157
 21
135.9047095260427
 31
0.0
  0
LINE
  5
4C1
330
18
100
AcDbEntity
  8
握り
100
AcDbLine
 10
245.6279717656579
 20
163.8047095260427
 30
0.0
 11
245.6279717656579
 21
135.4047095260427
 31
0.0
  0
LINE
  5
4C2
330
18
100
AcDbEntity
  8
握り
100
AcDbLine
 10
252.9746719333735
 20
163.8047095260427
 30
0.0
 11
252.9746719333735
 21
135.4047095260427
 31
0.0
  0
LINE
  5
4C3
330
18
100
AcDbEntity
  8
握り
100
AcDbLine
 10
255.6279717656579
 20
163.8047095260427
 30
0.0
 11
255.6279717656579
 21
135.4047095260427
 31
0.0
  0
LINE
  5
4C4
330
18
100
AcDbEntity
  8
握り
100
AcDbLine
 10
262.9746719333736
 20
163.8047095260427
 30
0.0
 11
262.9746719333736
 21
135.4047095260427
 31
0.0
  0
LINE
  5
4C5
330
18
100
AcDbEntity
  8
握り
100
AcDbLine
 10
265.6279717656579
 20
163.8047095260427
 30
0.0
 11
265.6279717656579
 21
135.4047095260427
 31
0.0
  0
LINE
  5
4C6
330
18
100
AcDbEntity
  8
握り
100
AcDbLine
 10
242.9746719333734
 20
142.9514095260427
 30
0.0
 11
242.9746719333735
 21
135.4047095260427
 31
0.0
  0
LINE
  5
4C7
330
18
100
AcDbEntity
  8
握り
100
AcDbLine
 10
212.9746719333734
 20
142.9514095260427
 30
0.0
 11
212.9746719333736
 21
135.4047095260427
 31
0.0
  0
LINE
  5
4C8
330
18
100
AcDbEntity
  8
握り
100
AcDbLine
 10
215.6279717656578
 20
142.9514095260427
 30
0.0
 11
215.6279717656579
 21
135.4047095260427
 31
0.0
  0
LINE
  5
4C9
330
18
100
AcDbEntity
  8
握り
100
AcDbLine
 10
222.9746719333736
 20
142.9514095260427
 30
0.0
 11
222.9746719333736
 21
135.4047095260427
 31
0.0
  0
LINE
  5
4CA
330
18
100
AcDbEntity
  8
握り
100
AcDbLine
 10
225.6279717656579
 20
142.9514095260427
 30
0.0
 11
225.6279717656579
 21
135.4047095260427
 31
0.0
  0
LINE
  5
4CB
330
18
100
AcDbEntity
  8
握り
100
AcDbLine
 10
232.9746719333737
 20
142.9514095260427
 30
0.0
 11
232.9746719333735
 21
135.4047095260427
 31
0.0
  0
LINE
  5
4CC
330
18
100
AcDbEntity
  8
握り
100
AcDbLine
 10
235.6279717656579
 20
142.9514095260427
 30
0.0
 11
235.6279717656579
 21
135.4047095260427
 31
0.0
  0
LINE
  5
4CD
330
18
100
AcDbEntity
  8
握り
100
AcDbLine
 10
195.6279717656579
 20
163.8047095260427
 30
0.0
 11
202.9746719333735
 21
163.8047095260427
 31
0.0
  0
LINE
  5
4CE
330
18
100
AcDbEntity
  8
握り
100
AcDbLine
 10
195.627971765658
 20
156.2580095260427
 30
0.0
 11
202.9746719333738
 21
156.2580095260427
 31
0.0
  0
LINE
  5
4CF
330
18
100
AcDbEntity
  8
握り
100
AcDbLine
 10
195.6279717656579
 20
163.8047095260427
 30
0.0
 11
195.6279717656579
 21
156.2580095260427
 31
0.0
  0
LINE
  5
4D0
330
18
100
AcDbEntity
  8
握り
100
AcDbLine
 10
202.9746719333735
 20
163.8047095260427
 30
0.0
 11
202.9746719333736
 21
156.2580095260427
 31
0.0
  0
LINE
  5
4D1
330
18
100
AcDbEntity
  8
握り
100
AcDbLine
 10
205.6279717656579
 20
163.8047095260427
 30
0.0
 11
205.627971765658
 21
156.2580095260427
 31
0.0
  0
LINE
  5
4D2
330
18
100
AcDbEntity
  8
握り
100
AcDbLine
 10
175.6279717656579
 20
163.8047095260427
 30
0.0
 11
182.9746719333736
 21
163.8047095260427
 31
0.0
  0
LINE
  5
4D3
330
18
100
AcDbEntity
  8
握り
100
AcDbLine
 10
185.6279717656579
 20
163.8047095260427
 30
0.0
 11
192.9746719333735
 21
163.8047095260427
 31
0.0
  0
LINE
  5
4D4
330
18
100
AcDbEntity
  8
握り
100
AcDbLine
 10
195.6279717656579
 20
142.9514095260427
 30
0.0
 11
202.9746719333736
 21
142.9514095260427
 31
0.0
  0
LINE
  5
4D5
330
18
100
AcDbEntity
  8
握り
100
AcDbLine
 10
195.6279717656579
 20
153.6047095260427
 30
0.0
 11
195.6279717656579
 21
145.6047095260427
 31
0.0
  0
LINE
  5
4D6
330
18
100
AcDbEntity
  8
握り
100
AcDbLine
 10
169.8013218495157
 20
163.8047095260427
 30
0.0
 11
172.9746719333735
 21
163.8047095260427
 31
0.0
  0
ARC
  5
4D7
330
18
100
AcDbEntity
  8
握り
100
AcDbCircle
 10
204.3013218495157
 20
136.1047095260427
 30
0.0
 40
1.5
100
AcDbArc
 50
207.8181392846543
 51
332.1818607153458
  0
ARC
  5
4D8
330
18
100
AcDbEntity
  8
握り
100
AcDbCircle
 10
194.3013218495157
 20
136.1047095260427
 30
0.0
 40
1.5
100
AcDbArc
 50
207.8181392846543
 51
332.1818607153458
  0
LINE
  5
4D9
330
18
100
AcDbEntity
  8
握り
100
AcDbLine
 10
195.6279717656579
 20
135.4047095260427
 30
0.0
 11
202.9746719333735
 21
135.4047095260427
 31
0.0
  0
ARC
  5
4DA
330
18
100
AcDbEntity
  8
握り
100
AcDbCircle
 10
184.3013218495157
 20
136.1047095260427
 30
0.0
 40
1.5
100
AcDbArc
 50
207.8181392846543
 51
332.1818607153458
  0
ARC
  5
4DB
330
18
100
AcDbEntity
  8
握り
100
AcDbCircle
 10
174.3013218495157
 20
136.1047095260427
 30
0.0
 40
1.5
100
AcDbArc
 50
207.8181392846543
 51
332.1818607153458
  0
LINE
  5
4DC
330
18
100
AcDbEntity
  8
握り
100
AcDbLine
 10
175.6279717656579
 20
135.4047095260427
 30
0.0
 11
182.9746719333736
 21
135.4047095260427
 31
0.0
  0
LINE
  5
4DD
330
18
100
AcDbEntity
  8
握り
100
AcDbLine
 10
185.6279717656579
 20
135.4047095260427
 30
0.0
 11
192.9746719333735
 21
135.4047095260427
 31
0.0
  0
ARC
  5
4DE
330
18
100
AcDbEntity
  8
握り
100
AcDbCircle
 10
169.8013218495157
 20
135.9047095260427
 30
0.0
 40
0.5
100
AcDbArc
 50
180.0
 51
270.0
  0
LINE
  5
4DF
330
18
100
AcDbEntity
  8
握り
100
AcDbLine
 10
169.8013218495157
 20
135.4047095260427
 30
0.0
 11
172.9746719333736
 21
135.4047095260427
 31
0.0
  0
LINE
  5
4E0
330
18
100
AcDbEntity
  8
握り
100
AcDbLine
 10
169.3013218495157
 20
163.3047095260427
 30
0.0
 11
169.3013218495157
 21
135.9047095260427
 31
0.0
  0
LINE
  5
4E1
330
18
100
AcDbEntity
  8
握り
100
AcDbLine
 10
175.6279717656579
 20
163.8047095260427
 30
0.0
 11
175.6279717656579
 21
135.4047095260427
 31
0.0
  0
LINE
  5
4E2
330
18
100
AcDbEntity
  8
握り
100
AcDbLine
 10
172.9746719333735
 20
163.8047095260427
 30
0.0
 11
172.9746719333735
 21
135.4047095260427
 31
0.0
  0
LINE
  5
4E3
330
18
100
AcDbEntity
  8
握り
100
AcDbLine
 10
182.9746719333735
 20
163.8047095260427
 30
0.0
 11
182.9746719333735
 21
135.4047095260427
 31
0.0
  0
LINE
  5
4E4
330
18
100
AcDbEntity
  8
握り
100
AcDbLine
 10
185.6279717656579
 20
163.8047095260427
 30
0.0
 11
185.6279717656579
 21
135.4047095260427
 31
0.0
  0
LINE
  5
4E5
330
18
100
AcDbEntity
  8
握り
100
AcDbLine
 10
192.9746719333735
 20
163.8047095260427
 30
0.0
 11
192.9746719333735
 21
135.4047095260427
 31
0.0
  0
LINE
  5
4E6
330
18
100
AcDbEntity
  8
握り
100
AcDbLine
 10
195.6279717656579
 20
142.9514095260427
 30
0.0
 11
195.6279717656579
 21
135.4047095260427
 31
0.0
  0
LINE
  5
4E7
330
18
100
AcDbEntity
  8
握り
100
AcDbLine
 10
202.9746719333735
 20
142.9514095260427
 30
0.0
 11
202.9746719333735
 21
135.4047095260427
 31
0.0
  0
LINE
  5
4E8
330
18
100
AcDbEntity
  8
握り
100
AcDbLine
 10
205.6279717656578
 20
142.9514095260427
 30
0.0
 11
205.6279717656579
 21
135.4047095260427
 31
0.0
  0
LINE
  5
4E9
330
18
100
AcDbEntity
  8
握り
100
AcDbLine
 10
205.6279717656579
 20
163.8047095260427
 30
0.0
 11
212.9746719333736
 21
163.8047095260427
 31
0.0
  0
LINE
  5
4EA
330
18
100
AcDbEntity
  8
握り
100
AcDbLine
 10
205.6279717656579
 20
135.4047095260427
 30
0.0
 11
212.9746719333736
 21
135.4047095260427
 31
0.0
  0
LINE
  5
4EB
330
18
100
AcDbEntity
  8
握り
100
AcDbLine
 10
195.6279717656579
 20
153.6047095260427
 30
0.0
 11
242.9746719333737
 21
153.6047095260427
 31
0.0
  0
LINE
  5
4EC
330
18
100
AcDbEntity
  8
握り
100
AcDbLine
 10
195.6279717656579
 20
145.6047095260427
 30
0.0
 11
242.9746719333734
 21
145.6047095260427
 31
0.0
  0
LINE
  5
4ED
330
18
100
AcDbEntity
  8
握り
100
AcDbLine
 10
205.627971765658
 20
156.2580095260427
 30
0.0
 11
212.9746719333738
 21
156.2580095260427
 31
0.0
  0
LINE
  5
4EE
330
18
100
AcDbEntity
  8
握り
100
AcDbLine
 10
205.6279717656579
 20
142.9514095260427
 30
0.0
 11
212.9746719333733
 21
142.9514095260427
 31
0.0
  0
ARC
  5
4EF
330
18
100
AcDbEntity
  8
握り
100
AcDbCircle
 10
268.8013218495157
 20
163.3047095260427
 30
0.0
 40
0.5
100
AcDbArc
 50
0.0
 51
90.0
  0
ARC
  5
4F0
330
18
100
AcDbEntity
  8
握り
100
AcDbCircle
 10
169.8013218495157
 20
163.3047095260427
 30
0.0
 40
0.5
100
AcDbArc
 50
90.0
 51
180.0
  0
ARC
  5
4F1
330
18
100
AcDbEntity
  8
握り
100
AcDbCircle
 10
174.3013218495157
 20
163.1047095260427
 30
0.0
 40
1.5
100
AcDbArc
 50
27.81813928465427
 51
152.1818607153457
  0
ARC
  5
4F2
330
18
100
AcDbEntity
  8
握り
100
AcDbCircle
 10
184.3013218495157
 20
163.1047095260427
 30
0.0
 40
1.5
100
AcDbArc
 50
27.81813928465427
 51
152.1818607153457
  0
ARC
  5
4F3
330
18
100
AcDbEntity
  8
握り
100
AcDbCircle
 10
194.3013218495157
 20
163.1047095260427
 30
0.0
 40
1.5
100
AcDbArc
 50
27.81813928465427
 51
152.1818607153457
  0
ARC
  5
4F4
330
18
100
AcDbEntity
  8
握り
100
AcDbCircle
 10
204.3013218495157
 20
163.1047095260427
 30
0.0
 40
1.5
100
AcDbArc
 50
27.81813928465427
 51
152.1818607153457
  0
ARC
  5
4F5
330
18
100
AcDbEntity
  8
握り
100
AcDbCircle
 10
214.3013218495157
 20
163.1047095260427
 30
0.0
 40
1.5
100
AcDbArc
 50
27.81813928465427
 51
152.1818607153457
  0
ARC
  5
4F6
330
18
100
AcDbEntity
  8
握り
100
AcDbCircle
 10
224.3013218495157
 20
163.1047095260427
 30
0.0
 40
1.5
100
AcDbArc
 50
27.81813928465427
 51
152.1818607153457
  0
ARC
  5
4F7
330
18
100
AcDbEntity
  8
握り
100
AcDbCircle
 10
234.3013218495157
 20
163.1047095260427
 30
0.0
 40
1.5
100
AcDbArc
 50
27.81813928465427
 51
152.1818607153457
  0
ARC
  5
4F8
330
18
100
AcDbEntity
  8
握り
100
AcDbCircle
 10
244.3013218495157
 20
163.1047095260427
 30
0.0
 40
1.5
100
AcDbArc
 50
27.81813928465427
 51
152.1818607153457
  0
ARC
  5
4F9
330
18
100
AcDbEntity
  8
握り
100
AcDbCircle
 10
254.3013218495157
 20
163.1047095260427
 30
0.0
 40
1.5
100
AcDbArc
 50
27.81813928465427
 51
152.1818607153457
  0
ARC
  5
4FA
330
18
100
AcDbEntity
  8
握り
100
AcDbCircle
 10
264.3013218495157
 20
163.1047095260427
 30
0.0
 40
1.5
100
AcDbArc
 50
27.81813928465427
 51
152.1818607153457
  0
HATCH
  5
4FB
330
18
100
AcDbEntity
  8
ROGO
 62
     4
100
AcDbHatch
 10
0.0
 20
0.0
 30
0.0
210
0.0
220
0.0
230
1.0
  2
SOLID
 70
     1
 71
     1
 91
        2
 92
        5
 93
        6
 72
     4
 94
        3
 73
     0
 74
     0
 95
       38
 96
       34
 40
0.0
 40
0.0
 40
0.0
 40
0.0
 40
0.2582400211805774
 40
0.3393418442955424
 40
0.443552172800835
 40
0.530394283206717
 40
0.6036667919818254
 40
0.7009894053152177
 40
0.7507174249931042
 40
0.8067242281503032
 40
0.8892677166883521
 40
0.9827715778106668
 40
1.043426616793024
 40
1.109318337455068
 40
1.182564491755753
 40
1.293719242428883
 40
1.399327847180614
 40
1.448424760475743
 40
1.50441322219426
 40
1.570741059842362
 40
1.617957956886697
 40
1.657539314700464
 40
1.714052551848318
 40
1.776150918813051
 40
1.838248940024221
 40
1.892584795022379
 40
2.017023561310864
 40
2.066120474605993
 40
2.164314359515976
 40
2.251113385583432
 40
2.417283613623161
 40
2.622320469312984
 40
2.918423525691272
 40
2.918423525691272
 40
2.918423525691272
 40
2.918423525691272
 10
213.6064105405155
 20
150.3246237532462
 10
213.5203314010503
 20
150.3185428688164
 10
213.4072185930201
 20
150.3105522462633
 10
213.2635917751493
 20
150.2712027802563
 10
213.1852992688052
 20
150.2243248953164
 10
213.1038202669233
 20
150.1898674028871
 10
213.0343518292305
 20
150.1388426896739
 10
212.9640859710934
 20
150.1125501465405
 10
212.9148836662709
 20
150.0651399917224
 10
212.8579360117953
 20
150.0361798229011
 10
212.8125875834591
 20
149.9713585457376
 10
212.7619009026995
 20
149.9107530005113
 10
212.7030979764036
 20
149.8665136554006
 10
212.6548376256045
 20
149.82004939974
 10
212.6105654642839
 20
149.7483410923346
 10
212.5843632177538
 20
149.6530619856407
 10
212.5105034828834
 20
149.5929061938048
 10
212.499382519336
 20
149.5205809828389
 10
212.4585284476278
 20
149.4779103254237
 10
212.4407636684052
 20
149.4228286368737
 10
212.4339979853711
 20
149.3723640807012
 10
212.4258775524534
 20
149.3252336786608
 10
212.4046360378355
 20
149.2756545776067
 10
212.4115693414946
 20
149.2144113219854
 10
212.4095942514344
 20
149.1551074448046
 10
212.4107565942534
 20
149.0750453639311
 10
212.4065615380446
 20
148.9970950826176
 10
212.440015467352
 20
148.9122666880912
 10
212.4598123924988
 20
148.8366539099962
 10
212.5140294924183
 20
148.731958849637
 10
212.6075528535868
 20
148.6111633871956
 10
212.7853953478975
 20
148.4645405824917
 10
212.9563961058393
 20
148.449666381467
 10
213.0574334525968
 20
148.4408778250608
 72
     1
 10
213.0574334525968
 20
148.4408778250608
 11
214.129510342862
 21
148.4408778250608
 72
     4
 94
        3
 73
     0
 74
     0
 95
       11
 96
        7
 40
0.1647869275458135
 40
0.1647869275458135
 40
0.1647869275458135
 40
0.1647869275458135
 40
0.2545010798212315
 40
0.5111620267764023
 40
0.7602998271033902
 40
0.8850764140209603
 40
0.8850764140209603
 40
0.8850764140209603
 40
0.8850764140209603
 10
214.1295103428616
 20
148.4408778250608
 10
214.1444702004615
 20
148.4405895169994
 10
214.2022283359308
 20
148.439476395704
 10
214.3009376817828
 20
148.453657153682
 10
214.4047930634088
 20
148.4672462885011
 10
214.4667087940289
 20
148.4771428453353
 10
214.4866781408873
 20
148.4827013206445
 72
     4
 94
        3
 73
     0
 74
     0
 95
        9
 96
        5
 40
0.0
 40
0.0
 40
0.0
 40
0.0
 40
0.1622561919360204
 40
0.3804197703110171
 40
0.3804197703110171
 40
0.3804197703110171
 40
0.3804197703110171
 10
214.4866781408873
 20
148.4827013206445
 10
214.5387995241987
 20
148.4986475202491
 10
214.6610013608807
 20
148.5360343806119
 10
214.761968071219
 20
148.6150519774325
 10
214.8198705792988
 20
148.6603670820153
 72
     4
 94
        3
 73
     0
 74
     0
 95
       25
 96
       21
 40
0.0
 40
0.0
 40
0.0
 40
0.0
 40
0.165525918914855
 40
0.3412380755365305
 40
0.5940540902285263
 40
0.7697671103696209
 40
0.9377330196075423
 40
1.11479469302833
 40
1.274661249598185
 40
1.574522170874768
 40
1.815540668866877
 40
2.15849091873445
 40
2.536227739636605
 40
2.738070817316548
 40
2.925680654369045
 40
3.162706124480894
 40
3.395643218188267
 40
3.648478129958861
 40
3.928509979727306
 40
4.337226830236035
 40
4.337226830236035
 40
4.337226830236035
 40
4.337226830236035
 10
214.8198705792988
 20
148.6603670820153
 10
214.8411458041471
 20
148.6779481447948
 10
214.8814990888669
 20
148.7197626065401
 10
214.9530722840665
 20
148.7875345327381
 10
215.016143940933
 20
148.8664942048153
 10
215.0939473705291
 20
148.9304882517773
 10
215.1344515927277
 20
149.0087257179881
 10
215.1928352317336
 20
149.070257818701
 10
215.2418095444728
 20
149.1652880786876
 10
215.2833618283298
 20
149.2744477431792
 10
215.3229761933262
 20
149.416735291327
 10
215.3381568266643
 20
149.5772567956778
 10
215.315687601454
 20
149.7325612705792
 10
215.2614076333472
 20
149.8486462642034
 10
215.2215016893912
 20
149.9453911422977
 10
215.160939419902
 20
150.0370255761223
 10
215.0918460558154
 20
150.1366881565996
 10
214.9945057404449
 20
150.2191252456211
 10
214.8672919424148
 20
150.3185576590146
 10
214.7488017885311
 20
150.3223646254518
 10
214.6784874307804
 20
150.3246237532462
 72
     1
 10
214.6784874307805
 20
150.3246237532462
 11
213.6064105405155
 21
150.3246237532462
 97
        6
330
501
330
500
330
502
330
4FF
330
4FE
330
4FD
 92
       20
 93
        1
 72
     3
 10
213.8527796757023
 20
149.3564866215048
 11
0.2546924415247531
 21
0.2239701316915159
 40
0.6788083417438792
 50
0.0
 51
360.0
 73
     1
 97
        1
330
4FC
 75
     0
 76
     1
 47
0.088756267210375
 98
        2
 10
213.9276814982289
 20
149.8043255791106
 10
213.9276814982289
 20
149.8043255791106
450
        0
451
        0
460
0.0
461
0.0
452
        0
462
0.0
453
        0
470

  0
ELLIPSE
  5
4FC
102
{ACAD_REACTORS
330
4FB
102
}
330
18
100
AcDbEntity
  8
ROGO
 62
     4
100
AcDbEllipse
 10
213.8527796757023
 20
149.3564866215048
 30
0.0
 11
0.2546924415247531
 21
0.2239701316915159
 31
0.0
210
0.0
220
0.0
230
1.0
 40
0.6788083417438792
 41
0.0
 42
6.283185307179586
  0
SPLINE
  5
4FD
102
{ACAD_REACTORS
330
4FB
102
}
330
18
100
AcDbEntity
  8
ROGO
 62
     4
100
AcDbSpline
210
0.0
220
0.0
230
1.0
 70
     8
 71
     3
 72
     9
 73
     5
 74
     3
 42
0.0000000001
 43
0.0000000001
 44
0.0000000001
 40
0.0
 40
0.0
 40
0.0
 40
0.0
 40
0.1622561919360204
 40
0.3804197703110171
 40
0.3804197703110171
 40
0.3804197703110171
 40
0.3804197703110171
 10
214.4866781408873
 20
148.4827013206445
 30
0.0
 10
214.5387995241987
 20
148.4986475202491
 30
0.0
 10
214.6610013608807
 20
148.5360343806119
 30
0.0
 10
214.761968071219
 20
148.6150519774325
 30
0.0
 10
214.8198705792988
 20
148.6603670820153
 30
0.0
 11
214.4866781408873
 21
148.4827013206445
 31
0.0
 11
214.6391792326368
 21
148.5381133124584
 31
0.0
 11
214.8198705792988
 21
148.6603670820153
 31
0.0
  0
SPLINE
  5
4FE
102
{ACAD_REACTORS
330
4FB
102
}
330
18
100
AcDbEntity
  8
ROGO
 62
     4
100
AcDbSpline
210
0.0
220
0.0
230
1.0
 70
     8
 71
     3
 72
    11
 73
     7
 74
     0
 42
0.0000000001
 43
0.0000000001
 40
0.1647869275458134
 40
0.1647869275458134
 40
0.1647869275458134
 40
0.1647869275458134
 40
0.2895635144633836
 40
0.5387013147903714
 40
0.7953622617455423
 40
0.8850764140209602
 40
0.8850764140209602
 40
0.8850764140209602
 40
0.8850764140209602
 10
214.4866781408873
 20
148.4827013206445
 30
0.0
 10
214.4667087940289
 20
148.4771428453353
 30
0.0
 10
214.4047930634088
 20
148.4672462885011
 30
0.0
 10
214.3009376817828
 20
148.453657153682
 30
0.0
 10
214.2022283359308
 20
148.439476395704
 30
0.0
 10
214.1444702004615
 20
148.4405895169994
 30
0.0
 10
214.1295103428616
 20
148.4408778250608
 30
0.0
  0
LINE
  5
4FF
102
{ACAD_REACTORS
330
4FB
102
}
330
18
100
AcDbEntity
  8
ROGO
 62
     4
100
AcDbLine
 10
213.0574334525968
 20
148.4408778250608
 30
0.0
 11
214.1295103428615
 21
148.4408778250608
 31
0.0
  0
LINE
  5
500
102
{ACAD_REACTORS
330
4FB
102
}
330
18
100
AcDbEntity
  8
ROGO
 62
     4
100
AcDbLine
 10
213.6064105405155
 20
150.3246237532462
 30
0.0
 11
214.6784874307804
 21
150.3246237532462
 31
0.0
  0
SPLINE
  5
501
102
{ACAD_REACTORS
330
4FB
102
}
330
18
100
AcDbEntity
  8
ROGO
 62
     4
100
AcDbSpline
210
0.0
220
0.0
230
1.0
 70
     8
 71
     3
 72
    25
 73
    21
 74
     0
 42
0.0000000001
 43
0.0000000001
 40
0.0
 40
0.0
 40
0.0
 40
0.0
 40
0.4087168505087288
 40
0.6887487002771746
 40
0.9415836120477687
 40
1.17452070575514
 40
1.41154617586699
 40
1.599156012919487
 40
1.80099909059943
 40
2.178735911501585
 40
2.521686161369157
 40
2.762704659361267
 40
3.06256558063785
 40
3.222432137207705
 40
3.399493810628493
 40
3.567459719866414
 40
3.743172740007509
 40
3.995988754699505
 40
4.17170091132118
 40
4.337226830236035
 40
4.337226830236035
 40
4.337226830236035
 40
4.337226830236035
 10
214.6784874307804
 20
150.3246237532462
 30
0.0
 10
214.7488017885311
 20
150.3223646254518
 30
0.0
 10
214.8672919424148
 20
150.3185576590146
 30
0.0
 10
214.9945057404449
 20
150.2191252456211
 30
0.0
 10
215.0918460558154
 20
150.1366881565996
 30
0.0
 10
215.160939419902
 20
150.0370255761223
 30
0.0
 10
215.2215016893912
 20
149.9453911422977
 30
0.0
 10
215.2614076333472
 20
149.8486462642034
 30
0.0
 10
215.315687601454
 20
149.7325612705792
 30
0.0
 10
215.3381568266643
 20
149.5772567956778
 30
0.0
 10
215.3229761933262
 20
149.416735291327
 30
0.0
 10
215.2833618283298
 20
149.2744477431792
 30
0.0
 10
215.2418095444728
 20
149.1652880786876
 30
0.0
 10
215.1928352317336
 20
149.070257818701
 30
0.0
 10
215.1344515927277
 20
149.0087257179881
 30
0.0
 10
215.0939473705291
 20
148.9304882517773
 30
0.0
 10
215.016143940933
 20
148.8664942048153
 30
0.0
 10
214.9530722840665
 20
148.7875345327381
 30
0.0
 10
214.8814990888669
 20
148.7197626065401
 30
0.0
 10
214.8411458041471
 20
148.6779481447948
 30
0.0
 10
214.8198705792988
 20
148.6603670820153
 30
0.0
  0
SPLINE
  5
502
102
{ACAD_REACTORS
330
4FB
102
}
330
18
100
AcDbEntity
  8
ROGO
 62
     4
100
AcDbSpline
210
0.0
220
0.0
230
1.0
 70
     8
 71
     3
 72
    38
 73
    34
 74
    32
 42
0.0000000001
 43
0.0000000001
 44
0.0000000001
 40
0.0
 40
0.0
 40
0.0
 40
0.0
 40
0.2582400211805774
 40
0.3393418442955424
 40
0.443552172800835
 40
0.530394283206717
 40
0.6036667919818254
 40
0.7009894053152177
 40
0.7507174249931042
 40
0.8067242281503032
 40
0.8892677166883521
 40
0.9827715778106668
 40
1.043426616793024
 40
1.109318337455068
 40
1.182564491755753
 40
1.293719242428883
 40
1.399327847180614
 40
1.448424760475743
 40
1.50441322219426
 40
1.570741059842362
 40
1.617957956886697
 40
1.657539314700464
 40
1.714052551848318
 40
1.776150918813051
 40
1.838248940024221
 40
1.892584795022379
 40
2.017023561310864
 40
2.066120474605993
 40
2.164314359515976
 40
2.251113385583432
 40
2.417283613623161
 40
2.622320469312984
 40
2.918423525691272
 40
2.918423525691272
 40
2.918423525691272
 40
2.918423525691272
 10
213.6064105405155
 20
150.3246237532462
 30
0.0
 10
213.5203314010503
 20
150.3185428688164
 30
0.0
 10
213.4072185930201
 20
150.3105522462633
 30
0.0
 10
213.2635917751493
 20
150.2712027802563
 30
0.0
 10
213.1852992688052
 20
150.2243248953164
 30
0.0
 10
213.1038202669233
 20
150.1898674028871
 30
0.0
 10
213.0343518292305
 20
150.1388426896739
 30
0.0
 10
212.9640859710934
 20
150.1125501465405
 30
0.0
 10
212.9148836662709
 20
150.0651399917224
 30
0.0
 10
212.8579360117953
 20
150.0361798229011
 30
0.0
 10
212.8125875834591
 20
149.9713585457376
 30
0.0
 10
212.7619009026995
 20
149.9107530005113
 30
0.0
 10
212.7030979764036
 20
149.8665136554006
 30
0.0
 10
212.6548376256045
 20
149.82004939974
 30
0.0
 10
212.6105654642839
 20
149.7483410923346
 30
0.0
 10
212.5843632177538
 20
149.6530619856407
 30
0.0
 10
212.5105034828834
 20
149.5929061938048
 30
0.0
 10
212.499382519336
 20
149.5205809828389
 30
0.0
 10
212.4585284476278
 20
149.4779103254237
 30
0.0
 10
212.4407636684052
 20
149.4228286368737
 30
0.0
 10
212.4339979853711
 20
149.3723640807012
 30
0.0
 10
212.4258775524534
 20
149.3252336786608
 30
0.0
 10
212.4046360378355
 20
149.2756545776067
 30
0.0
 10
212.4115693414946
 20
149.2144113219854
 30
0.0
 10
212.4095942514344
 20
149.1551074448046
 30
0.0
 10
212.4107565942534
 20
149.0750453639311
 30
0.0
 10
212.4065615380446
 20
148.9970950826176
 30
0.0
 10
212.440015467352
 20
148.9122666880912
 30
0.0
 10
212.4598123924988
 20
148.8366539099962
 30
0.0
 10
212.5140294924183
 20
148.731958849637
 30
0.0
 10
212.6075528535868
 20
148.6111633871956
 30
0.0
 10
212.7853953478975
 20
148.4645405824917
 30
0.0
 10
212.9563961058393
 20
148.449666381467
 30
0.0
 10
213.0574334525968
 20
148.4408778250608
 30
0.0
 11
213.6064105405155
 21
150.3246237532462
 31
0.0
 11
213.3500439163051
 21
150.2935743968871
 31
0.0
 11
213.2723570789792
 21
150.2702878982481
 31
0.0
 11
213.1791332403964
 21
150.2237142094629
 31
0.0
 11
213.1014464030704
 21
150.1849030326443
 31
0.0
 11
213.0392971773485
 21
150.1460915100722
 31
0.0
 11
212.9538418393941
 21
150.0995181670405
 31
0.0
 11
212.9149981155575
 21
150.0684691564349
 31
0.0
 11
212.8683858910926
 21
150.0374198000758
 31
0.0
 11
212.8140051659991
 21
149.9753217788646
 31
0.0
 11
212.7518559402772
 21
149.9054615914404
 31
0.0
 11
212.7052437158121
 21
149.8666500688683
 31
0.0
 11
212.6586321016944
 21
149.8200767258366
 31
0.0
 11
212.6197883778577
 21
149.7579787046255
 31
0.0
 11
212.5731767637401
 21
149.6570691608422
 31
0.0
 11
212.5110269276709
 21
149.5716842952384
 31
0.0
 11
212.4954899264141
 21
149.5251106064532
 31
0.0
 11
212.4644153135531
 21
149.4785372634216
 31
0.0
 11
212.4411092013206
 21
149.4164388964569
 31
0.0
 11
212.4333400903449
 21
149.3698655534252
 31
0.0
 11
212.4255715897165
 21
149.3310540308531
 31
0.0
 11
212.4100345884597
 21
149.2767185216084
 31
0.0
 11
212.4100345884597
 21
149.2146201546437
 31
0.0
 11
212.4100345884597
 21
149.1525221334326
 31
0.0
 11
212.4100345884597
 21
149.0981862784344
 31
0.0
 11
212.4178030890881
 21
148.973990236012
 31
0.0
 11
212.4333400903449
 21
148.9274165472268
 31
0.0
 11
212.4644153135531
 21
148.83426951541
 31
0.0
 11
212.5032584270425
 21
148.7566468160193
 31
0.0
 11
212.6042513766009
 21
148.6246886073839
 31
0.0
 11
212.7673935518814
 21
148.500492219208
 31
0.0
 11
213.0574334525968
 21
148.4408778250608
 31
0.0
  0
HATCH
  5
503
330
18
100
AcDbEntity
  8
ROGO
 62
     4
100
AcDbHatch
 10
0.0
 20
0.0
 30
0.0
210
0.0
220
0.0
230
1.0
  2
SOLID
 70
     1
 71
     1
 91
        2
 92
        7
 72
     0
 73
     1
 93
        8
 10
208.6664087784502
 20
150.3167991544287
 10
207.165832374491
 20
150.3167991544287
 10
205.813069045778
 20
148.4408778250608
 10
206.8519936910516
 20
148.4408778250608
 10
207.1095514590244
 20
148.7980416394762
 10
208.2950900144306
 20
148.7980416394762
 10
208.4537563331005
 20
148.4408778250609
 10
209.4997673647122
 20
148.4408778250609
 97
        8
330
52A
330
530
330
52B
330
52C
330
52E
330
504
330
529
330
506
 92
       22
 72
     0
 73
     1
 93
        3
 10
208.1277398635727
 20
149.1747530847563
 10
207.3812054035173
 20
149.1747530847563
 10
207.8431578839649
 20
149.8153577587833
 97
        3
330
52D
330
52F
330
505
 75
     0
 76
     1
 47
0.0128389261915577
 98
        2
 10
208.5489017891706
 20
149.8667392732729
 10
208.5489017891706
 20
149.8667392732729
450
        0
451
        0
460
0.0
461
0.0
452
        0
462
0.0
453
        0
470

  0
LINE
  5
504
102
{ACAD_REACTORS
330
503
102
}
330
18
100
AcDbEntity
  8
ROGO
 62
     4
100
AcDbLine
 10
208.2950900144306
 20
148.7980416394762
 30
0.0
 11
208.4537563331005
 21
148.4408778250608
 31
0.0
  0
LINE
  5
505
102
{ACAD_REACTORS
330
503
102
}
330
18
100
AcDbEntity
  8
ROGO
 62
     4
100
AcDbLine
 10
207.843157883965
 20
149.8153577587833
 30
0.0
 11
208.1277398635726
 21
149.1747530847563
 31
0.0
  0
LINE
  5
506
102
{ACAD_REACTORS
330
503
102
}
330
18
100
AcDbEntity
  8
ROGO
 62
     4
100
AcDbLine
 10
208.6664087784502
 20
150.3167991544287
 30
0.0
 11
209.4997673647122
 21
148.4408778250608
 31
0.0
  0
HATCH
  5
507
330
18
100
AcDbEntity
  8
ROGO
 62
     4
100
AcDbHatch
 10
0.0
 20
0.0
 30
0.0
210
0.0
220
0.0
230
1.0
  2
SOLID
 70
     1
 71
     1
 91
        2
 92
        5
 93
        6
 72
     1
 10
198.778760574541
 20
147.3855437474201
 11
200.141333368736
 21
147.3855437474201
 72
     1
 10
200.141333368736
 20
147.3855437474201
 11
200.618796441348
 21
148.4408778250609
 72
     1
 10
200.618796441348
 20
148.4408778250609
 11
201.8925225387371
 21
148.4408778250609
 72
     4
 94
        3
 73
     0
 74
     0
 95
       18
 96
       14
 40
0.108740278791501
 40
0.108740278791501
 40
0.108740278791501
 40
0.108740278791501
 40
0.6623149649549278
 40
1.384304701649787
 40
2.097394834876493
 40
2.774073369849618
 40
3.428974823686337
 40
4.005208313035923
 40
4.455173659284313
 40
4.720999734343524
 40
5.086034088486724
 40
5.569973738255373
 40
6.060470601257719
 40
6.060470601257719
 40
6.060470601257719
 40
6.060470601257719
 10
201.8925225387369
 20
148.4408778250608
 10
201.9821652771578
 20
148.441545367391
 10
202.1887229300916
 20
148.443083539689
 10
202.4776954702448
 20
148.5974590203967
 10
202.7517240032348
 20
148.7941221351705
 10
202.9724353447796
 20
149.0398321791731
 10
203.1099451603169
 20
149.3207595184885
 10
203.1312449960985
 20
149.5900025693052
 10
203.1182419696544
 20
149.802970475243
 10
203.0253288145928
 20
149.9514143928185
 10
202.9287342518432
 20
150.1020697887796
 10
202.7516124867759
 20
150.2325730884816
 10
202.6064868469894
 20
150.2897529332177
 10
202.5326875075093
 20
150.3167991544287
 72
     1
 10
202.5326875075094
 20
150.3167991544287
 11
200.2291184889591
 21
150.3167991544287
 72
     1
 10
200.2291184889591
 20
150.3167991544287
 11
198.778760574541
 21
147.3855437474201
 97
        6
330
542
330
545
330
543
330
544
330
53C
330
541
 92
       20
 93
        4
 72
     1
 10
200.913602858934
 20
149.0924868742876
 11
201.1393139965875
 21
149.5913749955525
 72
     1
 10
201.1393139965875
 20
149.5913749955525
 11
201.7192954238694
 21
149.5913749955525
 72
     4
 94
        3
 73
     0
 74
     0
 95
       15
 96
       11
 40
0.0
 40
0.0
 40
0.0
 40
0.0
 40
0.2199578613106558
 40
0.3202465475123651
 40
0.4340808827708152
 40
0.5116301246390283
 40
0.634275054953107
 40
0.7077360179240892
 40
0.8337709579493377
 40
0.875782631437913
 40
0.875782631437913
 40
0.875782631437913
 40
0.875782631437913
 10
201.7192954238695
 20
149.5913749955523
 10
201.8019073310969
 20
149.5917534021844
 10
201.9221857240371
 20
149.5923043414269
 10
201.9879582331292
 20
149.4435196215276
 10
201.9584758585101
 20
149.3477254720456
 10
201.9214141107614
 20
149.2493747374059
 10
201.8559176085581
 20
149.1825439298783
 10
201.7680117091363
 20
149.1181745961111
 10
201.6849364333424
 20
149.1103824000262
 10
201.6309052919531
 20
149.0960659808059
 10
201.6173975001398
 20
149.0924868742875
 72
     1
 10
201.6173975001398
 20
149.0924868742875
 11
200.913602858934
 21
149.0924868742876
 97
        4
330
540
330
53E
330
53F
330
53D
 75
     0
 76
     1
 47
0.0514683685270805
 98
        2
 10
200.241430707969
 20
149.4051009303015
 10
200.241430707969
 20
149.4051009303015
450
        0
451
        0
460
0.0
461
0.0
452
        0
462
0.0
453
        0
470

  0
HATCH
  5
508
330
18
100
AcDbEntity
  8
ROGO
 62
     4
100
AcDbHatch
 10
0.0
 20
0.0
 30
0.0
210
0.0
220
0.0
230
1.0
  2
SOLID
 70
     1
 71
     1
 91
        1
 92
        7
 72
     0
 73
     1
 93
       11
 10
217.5403227524261
 20
147.3855437474201
 10
218.620442384575
 20
147.3855437474201
 10
219.0019413690974
 20
148.150634550448
 10
219.3834403536198
 20
147.3855437474201
 10
220.4635363536197
 20
147.3855437474201
 10
219.7327270452841
 20
148.8511714509243
 10
221.5083109671859
 20
150.3167991544287
 10
220.428214967186
 20
150.3167991544287
 10
219.9224819913591
 20
149.9967657132549
 10
220.0820610012462
 20
150.3167991544287
 10
219.0019413690973
 20
150.3167991544287
 97
       11
330
510
330
515
330
516
330
518
330
517
330
544
330
512
330
514
330
50F
330
513
330
511
 75
     0
 76
     1
 47
0.0514683685270805
 98
        1
 10
218.9089824456632
 20
149.0592334637979
450
        0
451
        0
460
0.0
461
0.0
452
        0
462
0.0
453
        0
470

  0
HATCH
  5
509
330
18
100
AcDbEntity
  8
ROGO
 62
     4
100
AcDbHatch
 10
0.0
 20
0.0
 30
0.0
210
0.0
220
0.0
230
1.0
  2
SOLID
 70
     1
 71
     0
 91
        1
 92
        7
 72
     0
 73
     1
 93
        4
 10
200.2742634193388
 20
147.6793583278362
 10
200.141333368736
 20
147.3855437474201
 10
217.5403227524262
 20
147.3855437474201
 10
217.6868281915492
 20
147.6793583278362
 97
        0
 75
     0
 76
     1
 47
0.0514683685270805
 98
        1
 10
211.2688852206078
 20
147.6016490932579
450
        0
451
        0
460
0.0
461
0.0
452
        0
462
0.0
453
        0
470

  0
HATCH
  5
50A
330
18
100
AcDbEntity
  8
ROGO
 62
     4
100
AcDbHatch
 10
0.0
 20
0.0
 30
0.0
210
0.0
220
0.0
230
1.0
  2
SOLID
 70
     1
 71
     1
 91
        1
 92
        5
 93
        8
 72
     4
 94
        3
 73
     0
 74
     0
 95
       26
 96
       22
 40
0.0
 40
0.0
 40
0.0
 40
0.0
 40
0.3403136209416859
 40
0.5681272389515052
 40
0.7323994099695983
 40
0.8550561247335963
 40
1.014148321321381
 40
1.13027011535639
 40
1.339959009792003
 40
1.510642755247356
 40
1.626735051276114
 40
1.740569491433573
 40
1.94419717410045
 40
2.088186249714629
 40
2.165735491582895
 40
2.275891898886364
 40
2.355438312276665
 40
2.470674802864995
 40
2.535888688806186
 40
2.677801419664424
 40
2.74260000535881
 40
2.74260000535881
 40
2.74260000535881
 40
2.74260000535881
 10
216.7304221244852
 20
150.3167991544287
 10
216.6149144234014
 20
150.309907766907
 10
216.4220832604501
 20
150.2984031290545
 10
216.2103558165762
 20
150.1697809806857
 10
216.0552318959902
 20
150.0950057159106
 10
215.9445977039557
 20
149.9933551138827
 10
215.8635023927162
 20
149.8883574674235
 10
215.7612665288626
 20
149.7632535415302
 10
215.6778961032828
 20
149.617575082295
 10
215.6354406139497
 20
149.4570120236332
 10
215.5978339444442
 20
149.3290423342633
 10
215.5699442087687
 20
149.1864368158456
 10
215.577040147073
 20
149.0323726899566
 10
215.5872018554792
 20
148.8892858170939
 10
215.6325714125135
 20
148.787143212913
 10
215.6842393016422
 20
148.7144247172997
 10
215.747505924292
 20
148.6343333563015
 10
215.8167334447455
 20
148.5812891072583
 10
215.8739902549036
 20
148.4851958856289
 10
215.9742163695641
 20
148.47293369752
 10
216.0379240753867
 20
148.4485282834101
 10
216.0578947731888
 20
148.4408778250608
 72
     1
 10
216.0578947731888
 20
148.4408778250608
 11
217.6736505089096
 21
148.4408778250607
 72
     1
 10
217.6736505089096
 20
148.4408778250607
 11
218.0216743955937
 21
149.1388347941189
 72
     1
 10
218.0216743955937
 20
149.1388347941189
 11
216.822130080062
 21
149.1388347941188
 72
     4
 94
        3
 73
     0
 74
     0
 95
       16
 96
       12
 40
0.0
 40
0.0
 40
0.0
 40
0.0
 40
0.1027738093187964
 40
0.2066076558227444
 40
0.268539878558716
 40
0.3279201337292112
 40
0.3931337605654557
 40
0.4386740937218511
 40
0.4818879174817272
 40
0.569519347887583
 40
0.7489346372632488
 40
0.7489346372632488
 40
0.7489346372632488
 40
0.7489346372632488
 10
216.822130080062
 20
149.1388347941188
 10
216.7859475962452
 20
149.1494802113881
 10
216.7132094325753
 20
149.170880845673
 10
216.7071218356499
 20
149.2746232587262
 10
216.7154153057384
 20
149.3485482172393
 10
216.7501483769915
 20
149.4023699039766
 10
216.7922856167925
 20
149.441532262599
 10
216.8079751800088
 20
149.4925351114307
 10
216.854093221615
 20
149.5310486433113
 10
216.9358728664591
 20
149.5957845104195
 10
217.0263069967611
 20
149.6095718036846
 10
217.0870651505061
 20
149.6188347941189
 72
     1
 10
217.0870651505061
 20
149.6188347941189
 11
218.2610178981505
 21
149.6188347941189
 72
     1
 10
218.2610178981505
 20
149.6188347941189
 11
218.6090454703515
 21
150.3167991544287
 72
     1
 10
218.6090454703515
 20
150.3167991544287
 11
216.7304221244852
 21
150.3167991544286
 97
        8
330
51F
330
51D
330
520
330
51C
330
51B
330
51E
330
51A
330
519
 75
     0
 76
     1
 47
0.0514683685270805
 98
        1
 10
217.0545898811779
 20
149.9733115784585
450
        0
451
        0
460
0.0
461
0.0
452
        0
462
0.0
453
        0
470

  0
HATCH
  5
50B
330
18
100
AcDbEntity
  8
ROGO
 62
     4
100
AcDbHatch
 10
0.0
 20
0.0
 30
0.0
210
0.0
220
0.0
230
1.0
  2
SOLID
 70
     1
 71
     1
 91
        1
 92
        5
 93
        8
 72
     1
 10
212.2166325111107
 20
149.6188347941189
 11
212.5646600833116
 21
150.3167991544287
 72
     1
 10
212.5646600833116
 20
150.3167991544287
 11
210.6860367374457
 21
150.3167991544287
 72
     4
 94
        3
 73
     0
 74
     0
 95
       26
 96
       22
 40
0.0
 40
0.0
 40
0.0
 40
0.0
 40
0.3403136209417982
 40
0.5681272389515159
 40
0.7323994099697078
 40
0.8550561247337057
 40
1.014148321321447
 40
1.13027011535643
 40
1.339959009791999
 40
1.510642755247373
 40
1.626735051276186
 40
1.740569491433665
 40
1.944197174100541
 40
2.088186249714737
 40
2.16573549158295
 40
2.275891898886404
 40
2.355438312276705
 40
2.470674802865115
 40
2.535888688806235
 40
2.677801419664453
 40
2.742600005358966
 40
2.742600005358966
 40
2.742600005358966
 40
2.742600005358966
 10
210.6860367374455
 20
150.3167991544287
 10
210.5705290363617
 20
150.3099077669071
 10
210.3776978734103
 20
150.2984031290547
 10
210.1659704295364
 20
150.1697809806855
 10
210.0108465089503
 20
150.0950057159107
 10
209.9002123169158
 20
149.9933551138827
 10
209.8191170056764
 20
149.8883574674237
 10
209.7168811418229
 20
149.7632535415301
 10
209.6335107162429
 20
149.6175750822952
 10
209.5910552269099
 20
149.4570120236331
 10
209.5534485574046
 20
149.3290423342633
 10
209.5255588217289
 20
149.1864368158456
 10
209.532654760033
 20
149.0323726899565
 10
209.5428164684395
 20
148.889285817094
 10
209.5881860254739
 20
148.7871432129131
 10
209.6398539146023
 20
148.7144247172997
 10
209.7031205372522
 20
148.6343333563015
 10
209.7723480577057
 20
148.5812891072583
 10
209.8296048678637
 20
148.4851958856289
 10
209.9298309825243
 20
148.4729336975201
 10
209.993538688347
 20
148.4485282834101
 10
210.013509386149
 20
148.4408778250608
 72
     1
 10
210.0135093861489
 20
148.4408778250608
 11
211.6292651218699
 21
148.4408778250608
 72
     1
 10
211.6292651218699
 20
148.4408778250608
 11
211.9772890085538
 21
149.1388347941189
 72
     1
 10
211.9772890085538
 20
149.1388347941189
 11
210.7777446930223
 21
149.1388347941188
 72
     4
 94
        3
 73
     0
 74
     0
 95
       16
 96
       12
 40
0.0
 40
0.0
 40
0.0
 40
0.0
 40
0.1027738093189234
 40
0.2066076558227377
 40
0.2685398785587465
 40
0.3279201337292418
 40
0.3931337605655129
 40
0.4386740937218573
 40
0.4818879174818138
 40
0.5695193478876036
 40
0.7489346372632694
 40
0.7489346372632694
 40
0.7489346372632694
 40
0.7489346372632694
 10
210.7777446930223
 20
149.1388347941188
 10
210.7415622092055
 20
149.1494802113882
 10
210.6688240455354
 20
149.170880845673
 10
210.6627364486103
 20
149.2746232587262
 10
210.6710299186985
 20
149.3485482172393
 10
210.7057629899517
 20
149.4023699039767
 10
210.7479002297528
 20
149.441532262599
 10
210.763589792969
 20
149.4925351114307
 10
210.8097078345751
 20
149.5310486433114
 10
210.8914874794194
 20
149.5957845104195
 10
210.9819216097213
 20
149.6095718036845
 10
211.0426797634663
 20
149.6188347941189
 72
     1
 10
211.0426797634662
 20
149.6188347941189
 11
212.2166325111107
 21
149.6188347941189
 97
        8
330
521
330
524
330
528
330
522
330
525
330
523
330
526
330
527
 75
     0
 76
     1
 47
0.0514683685270805
 98
        1
 10
211.3430608763125
 20
149.899197073933
450
        0
451
        0
460
0.0
461
0.0
452
        0
462
0.0
453
        0
470

  0
HATCH
  5
50C
330
18
100
AcDbEntity
  8
ROGO
 62
     4
100
AcDbHatch
 10
0.0
 20
0.0
 30
0.0
210
0.0
220
0.0
230
1.0
  2
SOLID
 70
     1
 71
     1
 91
        1
 92
        1
 93
       12
 72
     1
 10
203.8935789263744
 20
150.3167991544287
 11
206.4308405670658
 21
150.3167991544287
 72
     1
 10
206.4308405670658
 20
150.3167991544287
 11
206.218220287445
 21
149.8870815391542
 72
     1
 10
206.218220287445
 20
149.8870815391542
 11
204.8846996842765
 21
149.8870815391542
 72
     1
 10
204.8846996842765
 20
149.8870815391542
 11
204.7184570470242
 21
149.5510957631769
 72
     1
 10
204.7184570470242
 20
149.5510957631769
 11
206.0519776501928
 21
149.5510957631769
 72
     1
 10
206.0519776501928
 20
149.5510957631769
 11
205.8815113993016
 21
149.2065738250608
 72
     1
 10
205.8815113993016
 20
149.2065738250609
 11
204.5479907961332
 21
149.2065738250608
 72
     1
 10
204.5479907961332
 20
149.2065738250608
 11
204.3817411209668
 21
148.8705738250608
 72
     1
 10
204.3817411209668
 20
148.8705738250608
 11
205.7152617241354
 21
148.8705738250608
 72
     1
 10
205.7152617241354
 20
148.8705738250608
 11
205.5026521395514
 21
148.4408778250608
 72
     1
 10
205.5026521395514
 20
148.4408778250608
 11
202.96539049886
 21
148.4408778250608
 72
     1
 10
202.9653904988601
 20
148.4408778250608
 11
203.8935789263744
 21
150.3167991544287
 97
       12
330
50E
330
53A
330
537
330
538
330
536
330
533
330
534
330
531
330
535
330
532
330
539
330
53B
 75
     0
 76
     1
 98
        1
 10
100.1076803853616
 20
20.60523337141251
450
        0
451
        0
460
0.0
461
0.0
452
        0
462
0.0
453
        0
470

  0
LINE
  5
50D
330
18
100
AcDbEntity
  8
ROGO
 62
     4
100
AcDbLine
 10
200.2538870666008
 20
147.6793583278362
 30
0.0
 11
217.6868281915491
 21
147.6793583278362
 31
0.0
  0
LINE
  5
50E
102
{ACAD_REACTORS
330
50C
102
}
330
18
100
AcDbEntity
  8
ROGO
 62
     4
100
AcDbLine
 10
203.8935789263744
 20
150.3167991544287
 30
0.0
 11
206.4308405670658
 21
150.3167991544287
 31
0.0
  0
LINE
  5
50F
102
{ACAD_REACTORS
330
508
102
}
330
18
100
AcDbEntity
  8
ROGO
 62
     4
100
AcDbLine
 10
219.3834403536198
 20
147.3855437474201
 30
0.0
 11
220.4635363536197
 21
147.3855437474201
 31
0.0
  0
LINE
  5
510
102
{ACAD_REACTORS
330
508
102
}
330
18
100
AcDbEntity
  8
ROGO
 62
     4
100
AcDbLine
 10
220.428214967186
 20
150.3167991544287
 30
0.0
 11
221.5083109671859
 21
150.3167991544287
 31
0.0
  0
LINE
  5
511
102
{ACAD_REACTORS
330
508
102
}
330
18
100
AcDbEntity
  8
ROGO
 62
     4
100
AcDbLine
 10
219.7327270452841
 20
148.8511714509243
 30
0.0
 11
221.5083109671859
 21
150.3167991544287
 31
0.0
  0
LINE
  5
512
102
{ACAD_REACTORS
330
508
102
}
330
18
100
AcDbEntity
  8
ROGO
 62
     4
100
AcDbLine
 10
219.0019413690974
 20
148.150634550448
 30
0.0
 11
218.620442384575
 21
147.3855437474201
 31
0.0
  0
LINE
  5
513
102
{ACAD_REACTORS
330
508
102
}
330
18
100
AcDbEntity
  8
ROGO
 62
     4
100
AcDbLine
 10
219.7327270452841
 20
148.8511714509243
 30
0.0
 11
220.4635363536197
 21
147.3855437474201
 31
0.0
  0
LINE
  5
514
102
{ACAD_REACTORS
330
508
102
}
330
18
100
AcDbEntity
  8
ROGO
 62
     4
100
AcDbLine
 10
219.0019413690974
 20
148.150634550448
 30
0.0
 11
219.3834403536198
 21
147.3855437474201
 31
0.0
  0
LINE
  5
515
102
{ACAD_REACTORS
330
508
102
}
330
18
100
AcDbEntity
  8
ROGO
 62
     4
100
AcDbLine
 10
219.9224819913591
 20
149.9967657132549
 30
0.0
 11
220.428214967186
 21
150.3167991544287
 31
0.0
  0
LINE
  5
516
102
{ACAD_REACTORS
330
508
102
}
330
18
100
AcDbEntity
  8
ROGO
 62
     4
100
AcDbLine
 10
220.0820610012462
 20
150.3167991544287
 30
0.0
 11
219.9224819913591
 21
149.9967657132549
 31
0.0
  0
LINE
  5
517
102
{ACAD_REACTORS
330
508
102
}
330
18
100
AcDbEntity
  8
ROGO
 62
     4
100
AcDbLine
 10
219.0019413690974
 20
150.3167991544287
 30
0.0
 11
217.5403227524262
 21
147.3855437474201
 31
0.0
  0
LINE
  5
518
102
{ACAD_REACTORS
330
508
102
}
330
18
100
AcDbEntity
  8
ROGO
 62
     4
100
AcDbLine
 10
219.0019413690974
 20
150.3167991544287
 30
0.0
 11
220.0820610012462
 21
150.3167991544287
 31
0.0
  0
LINE
  5
519
102
{ACAD_REACTORS
330
50A
102
}
330
18
100
AcDbEntity
  8
ROGO
 62
     4
100
AcDbLine
 10
218.6090454703515
 20
150.3167991544287
 30
0.0
 11
218.2610178981505
 21
149.6188347941189
 31
0.0
  0
LINE
  5
51A
102
{ACAD_REACTORS
330
50A
102
}
330
18
100
AcDbEntity
  8
ROGO
 62
     4
100
AcDbLine
 10
217.0870651505059
 20
149.6188347941189
 30
0.0
 11
218.2610178981505
 21
149.6188347941189
 31
0.0
  0
LINE
  5
51B
102
{ACAD_REACTORS
330
50A
102
}
330
18
100
AcDbEntity
  8
ROGO
 62
     4
100
AcDbLine
 10
216.8221300800619
 20
149.1388347941188
 30
0.0
 11
218.0216743955937
 21
149.1388347941188
 31
0.0
  0
LINE
  5
51C
102
{ACAD_REACTORS
330
50A
102
}
330
18
100
AcDbEntity
  8
ROGO
 62
     4
100
AcDbLine
 10
218.0216743955937
 20
149.1388347941188
 30
0.0
 11
217.6736505089096
 21
148.4408778250608
 31
0.0
  0
SPLINE
  5
51D
102
{ACAD_REACTORS
330
50A
102
}
330
18
100
AcDbEntity
  8
ROGO
 62
     4
100
AcDbSpline
210
0.0
220
0.0
230
1.0
 70
     8
 71
     3
 72
    26
 73
    22
 74
    20
 42
0.0000000001
 43
0.0000000001
 44
0.0000000001
 40
0.0
 40
0.0
 40
0.0
 40
0.0
 40
0.3403136209416859
 40
0.5681272389515052
 40
0.7323994099695983
 40
0.8550561247335963
 40
1.014148321321381
 40
1.13027011535639
 40
1.339959009792003
 40
1.510642755247356
 40
1.626735051276114
 40
1.740569491433573
 40
1.94419717410045
 40
2.088186249714629
 40
2.165735491582895
 40
2.275891898886364
 40
2.355438312276665
 40
2.470674802864995
 40
2.535888688806186
 40
2.677801419664424
 40
2.74260000535881
 40
2.74260000535881
 40
2.74260000535881
 40
2.74260000535881
 10
216.7304221244852
 20
150.3167991544287
 30
0.0
 10
216.6149144234014
 20
150.309907766907
 30
0.0
 10
216.4220832604501
 20
150.2984031290545
 30
0.0
 10
216.2103558165762
 20
150.1697809806857
 30
0.0
 10
216.0552318959902
 20
150.0950057159106
 30
0.0
 10
215.9445977039557
 20
149.9933551138827
 30
0.0
 10
215.8635023927162
 20
149.8883574674235
 30
0.0
 10
215.7612665288626
 20
149.7632535415302
 30
0.0
 10
215.6778961032828
 20
149.617575082295
 30
0.0
 10
215.6354406139497
 20
149.4570120236332
 30
0.0
 10
215.5978339444442
 20
149.3290423342633
 30
0.0
 10
215.5699442087687
 20
149.1864368158456
 30
0.0
 10
215.577040147073
 20
149.0323726899566
 30
0.0
 10
215.5872018554792
 20
148.8892858170939
 30
0.0
 10
215.6325714125135
 20
148.787143212913
 30
0.0
 10
215.6842393016422
 20
148.7144247172997
 30
0.0
 10
215.747505924292
 20
148.6343333563015
 30
0.0
 10
215.8167334447455
 20
148.5812891072583
 30
0.0
 10
215.8739902549036
 20
148.4851958856289
 30
0.0
 10
215.9742163695641
 20
148.47293369752
 30
0.0
 10
216.0379240753867
 20
148.4485282834101
 30
0.0
 10
216.0578947731888
 20
148.4408778250608
 30
0.0
 11
216.7304221244852
 21
150.3167991544287
 31
0.0
 11
216.394158448837
 21
150.264453180009
 31
0.0
 11
216.1903620154441
 21
150.1626393386756
 31
0.0
 11
216.0477048050358
 21
150.0811883319936
 31
0.0
 11
215.955996849459
 21
149.9997369933881
 31
0.0
 11
215.8540989257293
 21
149.8775603174032
 31
0.0
 11
215.7827703205251
 21
149.7859278933955
 31
0.0
 11
215.6808718108619
 21
149.6026627134566
 31
0.0
 11
215.6299231419637
 21
149.4397603681691
 31
0.0
 11
215.5993538234382
 21
149.32776510951
 31
0.0
 11
215.5789738871322
 21
149.2157698508509
 31
0.0
 11
215.5789738871322
 21
149.012142168184
 31
0.0
 11
215.5993538234382
 21
148.8696026575479
 31
0.0
 11
215.6299231419637
 21
148.7983327362681
 31
0.0
 11
215.6910617790148
 21
148.7067003122603
 31
0.0
 11
215.7420110338466
 21
148.6456118083062
 31
0.0
 11
215.8235290212701
 21
148.5641608016241
 31
0.0
 11
215.8642883079489
 21
148.5132537149957
 31
0.0
 11
215.9967561361376
 21
148.4623469602906
 31
0.0
 11
216.0578947731888
 21
148.4408778250608
 31
0.0
  0
SPLINE
  5
51E
102
{ACAD_REACTORS
330
50A
102
}
330
18
100
AcDbEntity
  8
ROGO
 62
     4
100
AcDbSpline
210
0.0
220
0.0
230
1.0
 70
     8
 71
     3
 72
    16
 73
    12
 74
    10
 42
0.0000000001
 43
0.0000000001
 44
0.0000000001
 40
0.0
 40
0.0
 40
0.0
 40
0.0
 40
0.1794152893756658
 40
0.2670467197815217
 40
0.3102605435413978
 40
0.3558008766977931
 40
0.4210145035340376
 40
0.4803947587045328
 40
0.5423269814405045
 40
0.6461608279444525
 40
0.7489346372632488
 40
0.7489346372632488
 40
0.7489346372632488
 40
0.7489346372632488
 10
217.0870651505061
 20
149.6188347941189
 30
0.0
 10
217.0263069967611
 20
149.6095718036846
 30
0.0
 10
216.9358728664591
 20
149.5957845104195
 30
0.0
 10
216.854093221615
 20
149.5310486433113
 30
0.0
 10
216.8079751800088
 20
149.4925351114307
 30
0.0
 10
216.7922856167925
 20
149.441532262599
 30
0.0
 10
216.7501483769915
 20
149.4023699039766
 30
0.0
 10
216.7154153057384
 20
149.3485482172393
 30
0.0
 10
216.7071218356499
 20
149.2746232587262
 30
0.0
 10
216.7132094325753
 20
149.170880845673
 30
0.0
 10
216.7859475962452
 20
149.1494802113881
 30
0.0
 10
216.822130080062
 20
149.1388347941188
 30
0.0
 11
217.0870651505061
 21
149.6188347941189
 31
0.0
 11
216.9138386215721
 21
149.5721184614796
 31
0.0
 11
216.842510016368
 21
149.5212117067745
 31
0.0
 11
216.8119406978425
 21
149.4906674547975
 31
0.0
 11
216.7915607615364
 21
149.4499417854948
 31
0.0
 11
216.7508014748579
 21
149.3990350307897
 31
0.0
 11
216.7202321563323
 21
149.3481279441614
 31
0.0
 11
216.7100421881792
 21
149.2870397721306
 31
0.0
 11
216.7304221244852
 21
149.1852255988738
 31
0.0
 11
216.822130080062
 21
149.1388347941188
 31
0.0
  0
LINE
  5
51F
102
{ACAD_REACTORS
330
50A
102
}
330
18
100
AcDbEntity
  8
ROGO
 62
     4
100
AcDbLine
 10
216.7304221244858
 20
150.3167991544287
 30
0.0
 11
218.6090454703515
 21
150.3167991544287
 31
0.0
  0
LINE
  5
520
102
{ACAD_REACTORS
330
50A
102
}
330
18
100
AcDbEntity
  8
ROGO
 62
     4
100
AcDbLine
 10
216.0578947731888
 20
148.4408778250608
 30
0.0
 11
217.6736505089096
 21
148.4408778250608
 31
0.0
  0
LINE
  5
521
102
{ACAD_REACTORS
330
50B
102
}
330
18
100
AcDbEntity
  8
ROGO
 62
     4
100
AcDbLine
 10
210.6860367374461
 20
150.3167991544287
 30
0.0
 11
212.5646600833117
 21
150.3167991544287
 31
0.0
  0
LINE
  5
522
102
{ACAD_REACTORS
330
50B
102
}
330
18
100
AcDbEntity
  8
ROGO
 62
     4
100
AcDbLine
 10
211.9772890085538
 20
149.1388347941188
 30
0.0
 11
211.6292651218698
 21
148.4408778250608
 31
0.0
  0
SPLINE
  5
523
102
{ACAD_REACTORS
330
50B
102
}
330
18
100
AcDbEntity
  8
ROGO
 62
     4
100
AcDbSpline
210
0.0
220
0.0
230
1.0
 70
     8
 71
     3
 72
    16
 73
    12
 74
    10
 42
0.0000000001
 43
0.0000000001
 44
0.0000000001
 40
0.0
 40
0.0
 40
0.0
 40
0.0
 40
0.1794152893756658
 40
0.2670467197814556
 40
0.3102605435414121
 40
0.3558008766977565
 40
0.4210145035340276
 40
0.4803947587045229
 40
0.5423269814405317
 40
0.646160827944346
 40
0.7489346372632694
 40
0.7489346372632694
 40
0.7489346372632694
 40
0.7489346372632694
 10
211.0426797634663
 20
149.6188347941189
 30
0.0
 10
210.9819216097213
 20
149.6095718036845
 30
0.0
 10
210.8914874794194
 20
149.5957845104195
 30
0.0
 10
210.8097078345751
 20
149.5310486433114
 30
0.0
 10
210.763589792969
 20
149.4925351114307
 30
0.0
 10
210.7479002297528
 20
149.441532262599
 30
0.0
 10
210.7057629899517
 20
149.4023699039767
 30
0.0
 10
210.6710299186985
 20
149.3485482172393
 30
0.0
 10
210.6627364486103
 20
149.2746232587262
 30
0.0
 10
210.6688240455354
 20
149.170880845673
 30
0.0
 10
210.7415622092055
 20
149.1494802113882
 30
0.0
 10
210.7777446930223
 20
149.1388347941188
 30
0.0
 11
211.0426797634663
 21
149.6188347941189
 31
0.0
 11
210.8694532345323
 21
149.5721184614796
 31
0.0
 11
210.7981246293282
 21
149.5212117067746
 31
0.0
 11
210.7675553108026
 21
149.4906674547975
 31
0.0
 11
210.7471753744967
 21
149.4499417854948
 31
0.0
 11
210.7064160878181
 21
149.3990350307898
 31
0.0
 11
210.6758467692924
 21
149.3481279441614
 31
0.0
 11
210.6656568011394
 21
149.2870397721306
 31
0.0
 11
210.6860367374454
 21
149.1852255988739
 31
0.0
 11
210.7777446930223
 21
149.1388347941188
 31
0.0
  0
SPLINE
  5
524
102
{ACAD_REACTORS
330
50B
102
}
330
18
100
AcDbEntity
  8
ROGO
 62
     4
100
AcDbSpline
210
0.0
220
0.0
230
1.0
 70
     8
 71
     3
 72
    26
 73
    22
 74
    20
 42
0.0000000001
 43
0.0000000001
 44
0.0000000001
 40
0.0
 40
0.0
 40
0.0
 40
0.0
 40
0.3403136209417982
 40
0.5681272389515159
 40
0.7323994099697078
 40
0.8550561247337057
 40
1.014148321321447
 40
1.13027011535643
 40
1.339959009791999
 40
1.510642755247373
 40
1.626735051276186
 40
1.740569491433665
 40
1.944197174100541
 40
2.088186249714737
 40
2.16573549158295
 40
2.275891898886404
 40
2.355438312276705
 40
2.470674802865115
 40
2.535888688806235
 40
2.677801419664453
 40
2.742600005358966
 40
2.742600005358966
 40
2.742600005358966
 40
2.742600005358966
 10
210.6860367374455
 20
150.3167991544287
 30
0.0
 10
210.5705290363617
 20
150.3099077669071
 30
0.0
 10
210.3776978734103
 20
150.2984031290547
 30
0.0
 10
210.1659704295364
 20
150.1697809806855
 30
0.0
 10
210.0108465089503
 20
150.0950057159107
 30
0.0
 10
209.9002123169158
 20
149.9933551138827
 30
0.0
 10
209.8191170056764
 20
149.8883574674237
 30
0.0
 10
209.7168811418229
 20
149.7632535415301
 30
0.0
 10
209.6335107162429
 20
149.6175750822952
 30
0.0
 10
209.5910552269099
 20
149.4570120236331
 30
0.0
 10
209.5534485574046
 20
149.3290423342633
 30
0.0
 10
209.5255588217289
 20
149.1864368158456
 30
0.0
 10
209.532654760033
 20
149.0323726899565
 30
0.0
 10
209.5428164684395
 20
148.889285817094
 30
0.0
 10
209.5881860254739
 20
148.7871432129131
 30
0.0
 10
209.6398539146023
 20
148.7144247172997
 30
0.0
 10
209.7031205372522
 20
148.6343333563015
 30
0.0
 10
209.7723480577057
 20
148.5812891072583
 30
0.0
 10
209.8296048678637
 20
148.4851958856289
 30
0.0
 10
209.9298309825243
 20
148.4729336975201
 30
0.0
 10
209.993538688347
 20
148.4485282834101
 30
0.0
 10
210.013509386149
 20
148.4408778250608
 30
0.0
 11
210.6860367374455
 21
150.3167991544287
 31
0.0
 11
210.3497730617971
 21
150.264453180009
 31
0.0
 11
210.1459766284043
 21
150.1626393386756
 31
0.0
 11
210.0033194179959
 21
150.0811883319936
 31
0.0
 11
209.9116114624191
 21
149.9997369933881
 31
0.0
 11
209.8097135386895
 21
149.8775603174033
 31
0.0
 11
209.7383849334853
 21
149.7859278933955
 31
0.0
 11
209.6364864238221
 21
149.6026627134567
 31
0.0
 11
209.585537754924
 21
149.4397603681691
 31
0.0
 11
209.5549684363984
 21
149.32776510951
 31
0.0
 11
209.5345885000924
 21
149.2157698508509
 31
0.0
 11
209.5345885000924
 21
149.012142168184
 31
0.0
 11
209.5549684363984
 21
148.8696026575479
 31
0.0
 11
209.585537754924
 21
148.7983327362681
 31
0.0
 11
209.646676391975
 21
148.7067003122603
 31
0.0
 11
209.6976256468067
 21
148.6456118083062
 31
0.0
 11
209.7791436342304
 21
148.5641608016241
 31
0.0
 11
209.819902920909
 21
148.5132537149957
 31
0.0
 11
209.9523707490978
 21
148.4623469602907
 31
0.0
 11
210.013509386149
 21
148.4408778250608
 31
0.0
  0
LINE
  5
525
102
{ACAD_REACTORS
330
50B
102
}
330
18
100
AcDbEntity
  8
ROGO
 62
     4
100
AcDbLine
 10
210.7777446930222
 20
149.1388347941188
 30
0.0
 11
211.977289008554
 21
149.1388347941188
 31
0.0
  0
LINE
  5
526
102
{ACAD_REACTORS
330
50B
102
}
330
18
100
AcDbEntity
  8
ROGO
 62
     4
100
AcDbLine
 10
211.0426797634661
 20
149.6188347941189
 30
0.0
 11
212.2166325111107
 21
149.6188347941189
 31
0.0
  0
LINE
  5
527
102
{ACAD_REACTORS
330
50B
102
}
330
18
100
AcDbEntity
  8
ROGO
 62
     4
100
AcDbLine
 10
212.5646600833115
 20
150.3167991544287
 30
0.0
 11
212.2166325111107
 21
149.6188347941189
 31
0.0
  0
LINE
  5
528
102
{ACAD_REACTORS
330
50B
102
}
330
18
100
AcDbEntity
  8
ROGO
 62
     4
100
AcDbLine
 10
210.0135093861489
 20
148.4408778250608
 30
0.0
 11
211.6292651218698
 21
148.4408778250608
 31
0.0
  0
LINE
  5
529
102
{ACAD_REACTORS
330
503
102
}
330
18
100
AcDbEntity
  8
ROGO
 62
     4
100
AcDbLine
 10
209.4997673647122
 20
148.4408778250609
 30
0.0
 11
208.4537563331005
 21
148.4408778250608
 31
0.0
  0
LINE
  5
52A
102
{ACAD_REACTORS
330
503
102
}
330
18
100
AcDbEntity
  8
ROGO
 62
     4
100
AcDbLine
 10
207.1658323744911
 20
150.3167991544287
 30
0.0
 11
208.6664087784502
 21
150.3167991544287
 31
0.0
  0
LINE
  5
52B
102
{ACAD_REACTORS
330
503
102
}
330
18
100
AcDbEntity
  8
ROGO
 62
     4
100
AcDbLine
 10
205.813069045778
 20
148.4408778250608
 30
0.0
 11
206.8519936910517
 21
148.4408778250608
 31
0.0
  0
LINE
  5
52C
102
{ACAD_REACTORS
330
503
102
}
330
18
100
AcDbEntity
  8
ROGO
 62
     4
100
AcDbLine
 10
207.1095514590244
 20
148.7980416394762
 30
0.0
 11
206.8519936910517
 21
148.4408778250609
 31
0.0
  0
LINE
  5
52D
102
{ACAD_REACTORS
330
503
102
}
330
18
100
AcDbEntity
  8
ROGO
 62
     4
100
AcDbLine
 10
207.3812054035175
 20
149.1747530847563
 30
0.0
 11
208.1277398635726
 21
149.1747530847563
 31
0.0
  0
LINE
  5
52E
102
{ACAD_REACTORS
330
503
102
}
330
18
100
AcDbEntity
  8
ROGO
 62
     4
100
AcDbLine
 10
207.1095514590244
 20
148.7980416394762
 30
0.0
 11
208.2950900144306
 21
148.7980416394762
 31
0.0
  0
LINE
  5
52F
102
{ACAD_REACTORS
330
503
102
}
330
18
100
AcDbEntity
  8
ROGO
 62
     4
100
AcDbLine
 10
207.8431578839649
 20
149.8153577587832
 30
0.0
 11
207.3812054035173
 21
149.1747530847563
 31
0.0
  0
LINE
  5
530
102
{ACAD_REACTORS
330
503
102
}
330
18
100
AcDbEntity
  8
ROGO
 62
     4
100
AcDbLine
 10
207.1658323744911
 20
150.3167991544287
 30
0.0
 11
205.813069045778
 21
148.4408778250608
 31
0.0
  0
LINE
  5
531
102
{ACAD_REACTORS
330
50C
102
}
330
18
100
AcDbEntity
  8
ROGO
 62
     4
100
AcDbLine
 10
204.5479907961332
 20
149.2065738250608
 30
0.0
 11
204.3817411209668
 21
148.8705738250608
 31
0.0
  0
LINE
  5
532
102
{ACAD_REACTORS
330
50C
102
}
330
18
100
AcDbEntity
  8
ROGO
 62
     4
100
AcDbLine
 10
205.7152617241354
 20
148.8705738250608
 30
0.0
 11
205.5026521395514
 21
148.4408778250608
 31
0.0
  0
LINE
  5
533
102
{ACAD_REACTORS
330
50C
102
}
330
18
100
AcDbEntity
  8
ROGO
 62
     4
100
AcDbLine
 10
206.0519776501928
 20
149.5510957631769
 30
0.0
 11
205.8815113993016
 21
149.2065738250608
 31
0.0
  0
LINE
  5
534
102
{ACAD_REACTORS
330
50C
102
}
330
18
100
AcDbEntity
  8
ROGO
 62
     4
100
AcDbLine
 10
204.5479907961332
 20
149.2065738250608
 30
0.0
 11
205.8815113993016
 21
149.2065738250609
 31
0.0
  0
LINE
  5
535
102
{ACAD_REACTORS
330
50C
102
}
330
18
100
AcDbEntity
  8
ROGO
 62
     4
100
AcDbLine
 10
204.3817411209668
 20
148.8705738250608
 30
0.0
 11
205.7152617241354
 21
148.8705738250608
 31
0.0
  0
LINE
  5
536
102
{ACAD_REACTORS
330
50C
102
}
330
18
100
AcDbEntity
  8
ROGO
 62
     4
100
AcDbLine
 10
204.7184570470242
 20
149.5510957631769
 30
0.0
 11
206.0519776501928
 21
149.5510957631769
 31
0.0
  0
LINE
  5
537
102
{ACAD_REACTORS
330
50C
102
}
330
18
100
AcDbEntity
  8
ROGO
 62
     4
100
AcDbLine
 10
204.8846996842765
 20
149.8870815391542
 30
0.0
 11
206.218220287445
 21
149.8870815391542
 31
0.0
  0
LINE
  5
538
102
{ACAD_REACTORS
330
50C
102
}
330
18
100
AcDbEntity
  8
ROGO
 62
     4
100
AcDbLine
 10
204.8846996842765
 20
149.8870815391542
 30
0.0
 11
204.7184570470242
 21
149.5510957631769
 31
0.0
  0
LINE
  5
539
102
{ACAD_REACTORS
330
50C
102
}
330
18
100
AcDbEntity
  8
ROGO
 62
     4
100
AcDbLine
 10
202.96539049886
 20
148.4408778250608
 30
0.0
 11
205.5026521395514
 21
148.4408778250608
 31
0.0
  0
LINE
  5
53A
102
{ACAD_REACTORS
330
50C
102
}
330
18
100
AcDbEntity
  8
ROGO
 62
     4
100
AcDbLine
 10
206.4308405670658
 20
150.3167991544287
 30
0.0
 11
206.218220287445
 21
149.8870815391542
 31
0.0
  0
LINE
  5
53B
102
{ACAD_REACTORS
330
50C
102
}
330
18
100
AcDbEntity
  8
ROGO
 62
     4
100
AcDbLine
 10
203.8935789263744
 20
150.3167991544287
 30
0.0
 11
202.9653904988601
 21
148.4408778250608
 31
0.0
  0
LINE
  5
53C
102
{ACAD_REACTORS
330
507
102
}
330
18
100
AcDbEntity
  8
ROGO
 62
     4
100
AcDbLine
 10
200.6187964413481
 20
148.4408778250608
 30
0.0
 11
200.141333368736
 21
147.3855437474201
 31
0.0
  0
LINE
  5
53D
102
{ACAD_REACTORS
330
507
102
}
330
18
100
AcDbEntity
  8
ROGO
 62
     4
100
AcDbLine
 10
201.6173975001399
 20
149.0924868742875
 30
0.0
 11
200.913602858934
 21
149.0924868742876
 31
0.0
  0
LINE
  5
53E
102
{ACAD_REACTORS
330
507
102
}
330
18
100
AcDbEntity
  8
ROGO
 62
     4
100
AcDbLine
 10
201.7192954238695
 20
149.5913749955525
 30
0.0
 11
201.1393139965875
 21
149.5913749955525
 31
0.0
  0
SPLINE
  5
53F
102
{ACAD_REACTORS
330
507
102
}
330
18
100
AcDbEntity
  8
ROGO
 62
     4
100
AcDbSpline
210
0.0
220
0.0
230
1.0
 70
     8
 71
     3
 72
    15
 73
    11
 74
     9
 42
0.0000000001
 43
0.0000000001
 44
0.0000000001
 40
0.0
 40
0.0
 40
0.0
 40
0.0
 40
0.2199578613106558
 40
0.3202465475123651
 40
0.4340808827708152
 40
0.5116301246390283
 40
0.634275054953107
 40
0.7077360179240892
 40
0.8337709579493377
 40
0.875782631437913
 40
0.875782631437913
 40
0.875782631437913
 40
0.875782631437913
 10
201.7192954238695
 20
149.5913749955523
 30
0.0
 10
201.8019073310969
 20
149.5917534021844
 30
0.0
 10
201.9221857240371
 20
149.5923043414269
 30
0.0
 10
201.9879582331292
 20
149.4435196215276
 30
0.0
 10
201.9584758585101
 20
149.3477254720456
 30
0.0
 10
201.9214141107614
 20
149.2493747374059
 30
0.0
 10
201.8559176085581
 20
149.1825439298783
 30
0.0
 10
201.7680117091363
 20
149.1181745961111
 30
0.0
 10
201.6849364333424
 20
149.1103824000262
 30
0.0
 10
201.6309052919531
 20
149.0960659808059
 30
0.0
 10
201.6173975001398
 20
149.0924868742875
 30
0.0
 11
201.7192954238695
 21
149.5913749955523
 31
0.0
 11
201.9332812394821
 21
149.5404679089239
 31
0.0
 11
201.9740405261606
 21
149.4488354849163
 31
0.0
 11
201.9536611757881
 21
149.3368402262571
 31
0.0
 11
201.9230918572625
 21
149.2655703049774
 31
0.0
 11
201.8415732839053
 21
149.1739378809696
 31
0.0
 11
201.7804346468541
 21
149.1332122116669
 31
0.0
 11
201.6581567868184
 21
149.1026682916132
 31
0.0
 11
201.6173975001398
 21
149.0924868742875
 31
0.0
  0
LINE
  5
540
102
{ACAD_REACTORS
330
507
102
}
330
18
100
AcDbEntity
  8
ROGO
 62
     4
100
AcDbLine
 10
201.1393139965875
 20
149.5913749955525
 30
0.0
 11
200.9136028589339
 21
149.0924868742876
 31
0.0
  0
LINE
  5
541
102
{ACAD_REACTORS
330
507
102
}
330
18
100
AcDbEntity
  8
ROGO
 62
     4
100
AcDbLine
 10
201.8925225391785
 20
148.4408778250608
 30
0.0
 11
200.6187964413481
 21
148.4408778250608
 31
0.0
  0
SPLINE
  5
542
102
{ACAD_REACTORS
330
507
102
}
330
18
100
AcDbEntity
  8
ROGO
 62
     4
100
AcDbSpline
210
0.0
220
0.0
230
1.0
 70
     8
 71
     3
 72
    18
 73
    14
 74
     0
 42
0.0000000001
 43
0.0000000001
 40
0.1087402787915014
 40
0.1087402787915014
 40
0.1087402787915014
 40
0.1087402787915014
 40
0.5992371417938475
 40
1.083176791562496
 40
1.448211145705696
 40
1.714037220764907
 40
2.164002567013297
 40
2.740236056362883
 40
3.395137510199602
 40
4.071816045172726
 40
4.784906178399433
 40
5.506895915094292
 40
6.060470601257719
 40
6.060470601257719
 40
6.060470601257719
 40
6.060470601257719
 10
202.5326875075093
 20
150.3167991544287
 30
0.0
 10
202.6064868469894
 20
150.2897529332177
 30
0.0
 10
202.7516124867759
 20
150.2325730884816
 30
0.0
 10
202.9287342518432
 20
150.1020697887796
 30
0.0
 10
203.0253288145928
 20
149.9514143928185
 30
0.0
 10
203.1182419696544
 20
149.802970475243
 30
0.0
 10
203.1312449960985
 20
149.5900025693052
 30
0.0
 10
203.1099451603169
 20
149.3207595184885
 30
0.0
 10
202.9724353447796
 20
149.0398321791731
 30
0.0
 10
202.7517240032348
 20
148.7941221351705
 30
0.0
 10
202.4776954702448
 20
148.5974590203967
 30
0.0
 10
202.1887229300916
 20
148.443083539689
 30
0.0
 10
201.9821652771578
 20
148.441545367391
 30
0.0
 10
201.8925225387369
 20
148.4408778250608
 30
0.0
  0
LINE
  5
543
102
{ACAD_REACTORS
330
507
102
}
330
18
100
AcDbEntity
  8
ROGO
 62
     4
100
AcDbLine
 10
200.2291184889591
 20
150.3167991544287
 30
0.0
 11
198.778760574541
 21
147.38554374742
 31
0.0
  0
LINE
  5
544
102
{ACAD_REACTORS
330
508
330
507
102
}
330
18
100
AcDbEntity
  8
ROGO
 62
     4
100
AcDbLine
 10
198.778760574541
 20
147.3855437474201
 30
0.0
 11
218.620442384575
 21
147.3855437474201
 31
0.0
  0
LINE
  5
545
102
{ACAD_REACTORS
330
507
102
}
330
18
100
AcDbEntity
  8
ROGO
 62
     4
100
AcDbLine
 10
200.2291184889591
 20
150.3167991544287
 30
0.0
 11
202.5326875075093
 21
150.3167991544287
 31
0.0
  0
TEXT
  5
546
330
18
100
AcDbEntity
  8
文字
100
AcDbText
 10
226.0766581813068
 20
147.3141003745036
 30
0.0
 40
3.0
  1
LB-7S
  7
STYLE3
100
AcDbText
  0
LINE
  5
877
330
18
100
AcDbEntity
  8
外形線
  6
Continuous
100
AcDbLine
 10
145.6013218495158
 20
220.6047095260426
 30
0.0
 11
145.6013218495158
 21
218.7441433378145
 31
0.0
  0
LINE
  5
878
330
18
100
AcDbEntity
  8
外形線
  6
Continuous
100
AcDbLine
 10
153.0013218495158
 20
220.6047095260426
 30
0.0
 11
153.0013218495158
 21
218.7441433378145
 31
0.0
  0
LINE
  5
879
330
18
100
AcDbEntity
  8
外形線
  6
Continuous
100
AcDbLine
 10
145.6013218495158
 20
233.1047095260426
 30
0.0
 11
145.6013218495158
 21
226.6047095260426
 31
0.0
  0
LINE
  5
87A
330
18
100
AcDbEntity
  8
外形線
  6
Continuous
100
AcDbLine
 10
153.0013218495158
 20
233.1047095260426
 30
0.0
 11
153.0013218495158
 21
226.6047095260426
 31
0.0
  0
LINE
  5
87B
330
18
100
AcDbEntity
  8
外形線
  6
Continuous
100
AcDbLine
 10
145.3013218495158
 20
220.6047095260426
 30
0.0
 11
153.3013218495157
 21
220.6047095260426
 31
0.0
  0
LINE
  5
87C
330
18
100
AcDbEntity
  8
外形線
  6
Continuous
100
AcDbLine
 10
145.3013218495159
 20
226.6047095260426
 30
0.0
 11
153.3013218495157
 21
226.6047095260426
 31
0.0
  0
HATCH
  5
87D
330
18
100
AcDbEntity
  8
ﾊｯﾁﾝｸ
  6
Continuous
100
AcDbHatch
 10
0.0
 20
0.0
 30
0.0
210
0.0
220
0.0
230
1.0
  2
ANSI37
 70
     0
 71
     0
 91
        1
 92
        7
 72
     0
 73
     1
 93
        4
 10
149.3013218495158
 20
226.6047095260426
 10
145.3013218495159
 20
226.6047095260426
 10
145.3013218495159
 20
220.6047095260426
 10
149.3013218495158
 20
220.6047095260426
 97
        0
 75
     0
 76
     1
 52
-0.0000000000000358
 41
9.999999999999998
 77
     0
 78
     2
 53
44.99999999999996
 43
-43.17168228694241
 44
71.48577129224339
 45
-0.8838834764831837
 46
0.8838834764831847
 79
     0
 53
134.9999999999999
 43
-43.17168228694241
 44
71.48577129224339
 45
-0.8838834764831847
 46
-0.8838834764831837
 79
     0
 47
0.1856754751158765
 98
        1
 10
147.5544740665597
 20
224.3807555702291
  0
LINE
  5
87E
330
18
100
AcDbEntity
  8
外形線
  6
Continuous
100
AcDbLine
 10
145.3013218495159
 20
226.6047095260426
 30
0.0
 11
145.3013218495159
 21
220.6047095260426
 31
0.0
  0
LINE
  5
87F
330
18
100
AcDbEntity
  8
外形線
  6
Continuous
100
AcDbLine
 10
153.3013218495157
 20
226.6047095260426
 30
0.0
 11
153.3013218495157
 21
220.6047095260426
 31
0.0
  0
ARC
  5
880
330
18
100
AcDbEntity
  8
外形線
  6
Continuous
100
AcDbCircle
 10
149.3013218495157
 20
226.7597095260428
 30
0.0
 40
7.344999999999885
100
AcDbArc
 50
59.75198538337814
 51
120.2480146166212
  0
LINE
  5
881
330
18
100
AcDbEntity
  8
外形線
  6
Continuous
100
AcDbLine
 10
145.6013218495158
 20
233.1047095260426
 30
0.0
 11
153.0013218495158
 21
233.1047095260426
 31
0.0
  0
POINT
  5
882
330
18
100
AcDbEntity
  8
DEFPOINTS
  6
ByBlock
 62
     0
100
AcDbPoint
 10
149.3013218495157
 20
234.1047095260427
 30
0.0
  0
CIRCLE
  5
883
330
18
100
AcDbEntity
  8
外形線
100
AcDbCircle
 10
149.3013218495157
 20
192.6047095260427
 30
0.0
 40
26.4
  0
LINE
  5
885
330
18
100
AcDbEntity
  8
想像線
 48
0.5
100
AcDbLine
 10
157.3013218495154
 20
167.9400649161522
 30
0.0
 11
157.3013218495155
 21
132.9400649161521
 31
0.0
  0
LINE
  5
886
330
18
100
AcDbEntity
  8
想像線
 48
0.6
100
AcDbLine
 10
141.3013218495154
 20
167.940064916152
 30
0.0
 11
141.3013218495153
 21
132.9400649161521
 31
0.0
  0
LINE
  5
887
330
18
100
AcDbEntity
  8
想像線
 48
0.5
100
AcDbLine
 10
141.3013218495153
 20
132.9400649161521
 30
0.0
 11
157.3013218495155
 21
132.9400649161521
 31
0.0
  0
LINE
  5
8A0
330
18
100
AcDbEntity
  8
外形線
100
AcDbLine
 10
145.3013218495158
 20
163.1047095260426
 30
0.0
 11
153.3013218495157
 21
163.1047095260426
 31
0.0
  0
LINE
  5
8A1
330
18
100
AcDbEntity
  8
外形線
100
AcDbLine
 10
152.5013218495156
 20
158.1045925352246
 30
0.0
 11
152.5013218495159
 21
155.6045925352246
 31
0.0
  0
LINE
  5
8A2
330
18
100
AcDbEntity
  8
外形線
100
AcDbLine
 10
146.1013218495159
 20
158.1045925352247
 30
0.0
 11
146.1013218495159
 21
155.6045925352247
 31
0.0
  0
LINE
  5
8A3
330
18
100
AcDbEntity
  8
外形線
100
AcDbLine
 10
146.1013218495159
 20
155.6045925352247
 30
0.0
 11
152.5013218495159
 21
155.6045925352247
 31
0.0
  0
LINE
  5
8AC
330
18
100
AcDbEntity
  8
外形線
100
AcDbLine
 10
146.1013218495157
 20
158.1045925352246
 30
0.0
 11
152.5013218495156
 21
158.1045925352246
 31
0.0
  0
LINE
  5
8AD
330
18
100
AcDbEntity
  8
外形線
100
AcDbLine
 10
145.3013218495159
 20
166.5094992375625
 30
0.0
 11
145.3013218495158
 21
163.1047095260426
 31
0.0
  0
LINE
  5
8AE
330
18
100
AcDbEntity
  8
外形線
100
AcDbLine
 10
151.3013218495158
 20
163.1047095260427
 30
0.0
 11
151.3013218495154
 21
158.1045925352246
 31
0.0
  0
LINE
  5
8AF
330
18
100
AcDbEntity
  8
外形線
100
AcDbLine
 10
147.301321849516
 20
163.1047095260426
 30
0.0
 11
147.3013218495159
 21
158.1045925352246
 31
0.0
  0
LINE
  5
8B0
330
18
100
AcDbEntity
  8
想像線
 48
0.5
100
AcDbLine
 10
157.3013218495157
 20
157.9400649161521
 30
0.0
 11
163.3013218495159
 21
157.9400649161521
 31
0.0
  0
LINE
  5
8B1
330
18
100
AcDbEntity
  8
外形線
100
AcDbLine
 10
153.3013218495158
 20
166.5094992375626
 30
0.0
 11
153.3013218495157
 21
163.1047095260426
 31
0.0
  0
LINE
  5
8B2
330
18
100
AcDbEntity
  8
想像線
100
AcDbLine
 10
159.5521351587976
 20
161.0892516068703
 30
0.0
 11
161.0776344853322
 21
159.5637522803356
 31
0.0
  0
LINE
  5
8B3
330
18
100
AcDbEntity
  8
想像線
100
AcDbLine
 10
159.5625475051466
 20
159.601290571783
 30
0.0
 11
161.0401520269481
 21
161.0788950935843
 31
0.0
  0
CIRCLE
  5
8B4
330
18
100
AcDbEntity
  8
想像線
100
AcDbCircle
 10
160.3013218495155
 20
160.3400649161522
 30
0.0
 40
1.5
  0
LINE
  5
8B6
330
18
100
AcDbEntity
  8
想像線
 48
0.5
100
AcDbLine
 10
141.3013218495154
 20
167.940064916152
 30
0.0
 11
157.3013218495154
 21
167.9400649161522
 31
0.0
  0
LINE
  5
8B7
330
18
100
AcDbEntity
  8
想像線
 48
0.5
100
AcDbLine
 10
157.3013218495154
 20
167.9400649161522
 30
0.0
 11
163.3013218495156
 21
167.9400649161522
 31
0.0
  0
LINE
  5
8B8
330
18
100
AcDbEntity
  8
想像線
100
AcDbLine
 10
159.5521351587979
 20
166.0892516068703
 30
0.0
 11
161.0776344853322
 21
164.5637522803358
 31
0.0
  0
LINE
  5
8B9
330
18
100
AcDbEntity
  8
想像線
100
AcDbLine
 10
159.5625475051467
 20
164.6012905717832
 30
0.0
 11
161.0401520269482
 21
166.0788950935845
 31
0.0
  0
CIRCLE
  5
8BA
330
18
100
AcDbEntity
  8
想像線
100
AcDbCircle
 10
160.3013218495156
 20
165.3400649161522
 30
0.0
 40
1.5
  0
LINE
  5
8BC
330
18
100
AcDbEntity
  8
想像線
100
AcDbLine
 10
163.3013218495156
 20
167.9400649161522
 30
0.0
 11
163.3013218495159
 21
157.9400649161521
 31
0.0
  0
HATCH
  5
8BD
330
18
100
AcDbEntity
  8
ROGO
 62
     4
100
AcDbHatch
 10
0.0
 20
0.0
 30
0.0
210
0.0
220
0.0
230
1.0
  2
SOLID
 70
     1
 71
     1
 91
        1
 92
        7
 72
     0
 73
     1
 93
       11
 10
154.7476994347636
 20
184.2366573431766
 10
155.5037830736254
 20
184.2370532276804
 10
155.7705519057719
 20
184.7727565430606
 10
156.0378815787437
 20
184.2373328810293
 10
156.7939486751034
 20
184.2377287568714
 10
156.2818450488081
 20
185.2634001531019
 10
157.5242164431787
 20
186.2899901903888
 10
156.7681493468187
 20
186.2895943145466
 10
156.4142536106446
 20
186.0653855756252
 10
156.525841603876
 20
186.2894674424977
 10
155.7697579650141
 20
186.2890715579938
 97
       11
330
9FA
330
9D2
330
9D3
330
8C0
330
94B
330
94F
330
978
330
979
330
8C2
330
8C1
330
8BF
 75
     0
 76
     1
 47
0.0514683685270805
 98
        1
 10
155.705147649408
 20
185.408741623998
450
        0
451
        0
460
0.0
461
0.0
452
        0
462
0.0
453
        0
470

  0
LINE
  5
8BE
330
18
100
AcDbEntity
  8
目盛
100
AcDbLine
 10
156.4201651019824
 20
170.7341340707237
 30
0.0
 11
155.4916203299215
 21
173.5868178257651
 31
0.0
  0
LINE
  5
8BF
102
{ACAD_REACTORS
330
8BD
102
}
330
18
100
AcDbEntity
  8
ROGO
 62
     4
100
AcDbLine
 10
156.281845048808
 20
185.2634001531019
 30
0.0
 11
157.5242164431788
 21
186.2899901903888
 31
0.0
  0
LINE
  5
8C0
102
{ACAD_REACTORS
330
8BD
102
}
330
18
100
AcDbEntity
  8
ROGO
 62
     4
100
AcDbLine
 10
155.7697579650141
 20
186.2890715579938
 30
0.0
 11
156.525841603876
 21
186.2894674424977
 31
0.0
  0
LINE
  5
8C1
102
{ACAD_REACTORS
330
8BD
102
}
330
18
100
AcDbEntity
  8
ROGO
 62
     4
100
AcDbLine
 10
156.281845048808
 20
185.2634001531019
 30
0.0
 11
156.7939486751034
 21
184.2377287568714
 31
0.0
  0
LINE
  5
8C2
102
{ACAD_REACTORS
330
8BD
102
}
330
18
100
AcDbEntity
  8
ROGO
 62
     4
100
AcDbLine
 10
156.0378815787438
 20
184.2373328810294
 30
0.0
 11
156.7939486751034
 21
184.2377287568714
 31
0.0
  0
LINE
  5
8C3
330
18
100
AcDbEntity
  8
目盛
100
AcDbLine
 10
156.397258389766
 20
214.4827278233373
 30
0.0
 11
155.4717014497332
 21
211.6290732628204
 31
0.0
  0
CIRCLE
  5
8C4
330
18
100
AcDbEntity
  8
外形線
100
AcDbCircle
 10
149.3013218495157
 20
192.6047095260427
 30
0.0
 40
15.5
  0
CIRCLE
  5
8C5
330
18
100
AcDbEntity
  8
外形線
100
AcDbCircle
 10
149.3013218495157
 20
192.6047095260427
 30
0.0
 40
23.0
  0
LINE
  5
8C7
330
18
100
AcDbEntity
  8
目盛
100
AcDbLine
 10
127.9208988452699
 20
184.1266488893456
 30
0.0
 11
129.7800660630306
 21
184.8638715534063
 31
0.0
  0
LINE
  5
8C8
330
18
100
AcDbEntity
  8
中心線
 48
0.2
100
AcDbLine
 10
152.6988369336341
 20
207.4245726126317
 30
0.0
 11
152.7007288595175
 21
203.8112606673605
 31
0.0
  0
LINE
  5
8C9
330
18
100
AcDbEntity
  8
中心線
 48
0.2
100
AcDbLine
 10
152.2988369884653
 20
207.424363173131
 30
0.0
 11
152.3007289143485
 21
203.8110512278598
 31
0.0
  0
HATCH
  5
8CA
330
18
100
AcDbEntity
  8
ﾊｯﾁﾝｸ
100
AcDbHatch
 10
0.0
 20
0.0
 30
0.0
210
0.0
220
0.0
230
1.0
  2
SOLID
 70
     1
 71
     0
 91
        3
 92
        7
 72
     1
 73
     1
 93
        5
 10
152.6988369336341
 20
207.4245726126317
 42
0.0105298176880202
 10
152.4988347554453
 20
207.4286802864372
 42
0.0
 10
152.4990965548211
 20
206.9286803549761
 42
0.0
 10
152.5007197109514
 20
203.8286807799173
 42
-0.0437283108272093
 10
152.7007288595175
 20
203.8112606673605
 42
0.0
 97
        0
 92
        7
 72
     1
 73
     1
 93
        4
 10
152.4988347554455
 20
207.428680286437
 42
0.0105298176880232
 10
152.2988369884653
 20
207.424363173131
 42
0.0
 10
152.3007289143485
 20
203.8110512278598
 42
-0.0437283108272093
 10
152.5007197109514
 20
203.8286807799173
 42
0.0
 97
        0
 92
      137
 93
        4
 72
     1
 10
151.9063481956395
 20
205.4561437192979
 11
153.073014702382
 21
205.4567545845082
 72
     1
 10
153.0730147023822
 20
205.4567545845081
 11
153.0722293042545
 21
206.9567543788914
 72
     1
 10
153.0722293042547
 20
206.9567543788913
 11
151.9055627975121
 21
206.9561435136811
 72
     1
 10
151.9055627975121
 20
206.9561435136811
 11
151.9063481956397
 21
205.4561437192979
 97
        0
 75
     0
 76
     1
 47
0.0128177587452554
 98
        3
 10
152.6491427593505
 20
204.3625378163676
 10
152.5715418196182
 20
205.5673670375158
 10
152.3919715640087
 20
205.5160018410127
450
        0
451
        0
460
0.0
461
0.0
452
        0
462
0.0
453
        0
470

  0
CIRCLE
  5
8CC
330
18
100
AcDbEntity
  8
外形線
100
AcDbCircle
 10
152.5013218495156
 20
202.6786809375567
 30
0.0
 40
4.75
  0
LINE
  5
8CD
330
18
100
AcDbEntity
  8
中心線
 48
0.2
100
AcDbLine
 10
152.4972046839272
 20
210.5418872784072
 30
0.0
 11
152.5054197357714
 21
194.852295407067
 31
0.0
  0
LINE
  5
8CE
330
18
100
AcDbEntity
  8
目盛
100
AcDbLine
 10
130.7010120929133
 20
179.0759077698475
 30
0.0
 11
133.12713945247
 21
180.840534085873
 31
0.0
  0
LINE
  5
8CF
330
18
100
AcDbEntity
  8
目盛
100
AcDbLine
 10
130.2852402903768
 20
179.6668332653816
 30
0.0
 11
131.9388125998673
 21
180.7918659837
 31
0.0
  0
LINE
  5
8D0
330
18
100
AcDbEntity
  8
目盛
100
AcDbLine
 10
129.8882350645006
 20
180.270526882776
 30
0.0
 11
131.5763295675453
 21
181.3430645039296
 31
0.0
  0
LINE
  5
8D1
330
18
100
AcDbEntity
  8
目盛
100
AcDbLine
 10
131.135140155536
 20
178.4983335682952
 30
0.0
 11
132.7148081289256
 21
179.7249749559255
 31
0.0
  0
LINE
  5
8D2
330
18
100
AcDbEntity
  8
目盛
100
AcDbLine
 10
129.5103882115103
 20
180.8863928493154
 30
0.0
 11
131.2313389626413
 21
181.9053769081613
 31
0.0
  0
LINE
  5
8D3
330
18
100
AcDbEntity
  8
目盛
100
AcDbLine
 10
128.8136419060954
 20
182.1521992755826
 30
0.0
 11
131.485947985672
 21
183.5155701778169
 31
0.0
  0
LINE
  5
8D4
330
18
100
AcDbEntity
  8
目盛
100
AcDbLine
 10
128.1977511134866
 20
183.4592569845109
 30
0.0
 11
130.0328442209675
 21
184.2545137272527
 31
0.0
  0
LINE
  5
8D5
330
18
100
AcDbEntity
  8
目盛
100
AcDbLine
 10
129.1520726206329
 20
181.5138233796452
 30
0.0
 11
130.9041812492313
 21
182.4782482619404
 31
0.0
  0
LINE
  5
8D6
330
18
100
AcDbEntity
  8
目盛
100
AcDbLine
 10
128.4954300581551
 20
182.8008905371903
 30
0.0
 11
130.3046380400126
 21
183.653396536221
 31
0.0
  0
LINE
  5
8D7
330
18
100
AcDbEntity
  8
目盛
100
AcDbLine
 10
143.593119654275
 20
170.3243049583909
 30
0.0
 11
144.0894850625566
 21
172.2617314425346
 31
0.0
  0
LINE
  5
8D8
330
18
100
AcDbEntity
  8
中心線
 48
0.2
100
AcDbLine
 10
145.5420476165486
 20
202.6750370697564
 30
0.0
 11
160.0700330730636
 21
202.6826439058485
 31
0.0
  0
LINE
  5
8D9
330
18
100
AcDbEntity
  8
目盛
100
AcDbLine
 10
134.1001844481018
 20
175.3441932619406
 30
0.0
 11
135.4220224830074
 21
176.8451077196887
 31
0.0
  0
LINE
  5
8DA
330
18
100
AcDbEntity
  8
目盛
100
AcDbLine
 10
134.6498512097177
 20
174.8752310201439
 30
0.0
 11
135.9238921349175
 21
176.4169248032654
 31
0.0
  0
LINE
  5
8DB
330
18
100
AcDbEntity
  8
目盛
100
AcDbLine
 10
135.2139772039611
 20
174.4237656331266
 30
0.0
 11
136.4389636948789
 21
176.0047172759889
 31
0.0
  0
LINE
  5
8DC
330
18
100
AcDbEntity
  8
目盛
100
AcDbLine
 10
135.7920057065844
 20
173.9902426427197
 30
0.0
 11
137.55409042088
 21
176.4182165840227
 31
0.0
  0
LINE
  5
8DE
330
18
100
AcDbEntity
  8
目盛
100
AcDbLine
 10
137.6037366115275
 20
172.8015153493448
 30
0.0
 11
138.6209179365701
 21
174.5235322342751
 31
0.0
  0
LINE
  5
8DF
330
18
100
AcDbEntity
  8
目盛
100
AcDbLine
 10
136.9874753024476
 20
173.178717061943
 30
0.0
 11
138.0582445674102
 21
174.8679337979516
 31
0.0
  0
LINE
  5
8E0
330
18
100
AcDbEntity
  8
目盛
100
AcDbLine
 10
136.3833662732408
 20
173.5750898837748
 30
0.0
 11
137.5066667581343
 21
175.2298394178851
 31
0.0
  0
LINE
  5
8E1
330
18
100
AcDbEntity
  8
目盛
100
AcDbLine
 10
142.8960918874402
 20
170.514597956996
 30
0.0
 11
143.4530684058815
 21
172.4354772238697
 31
0.0
  0
LINE
  5
8E2
330
18
100
AcDbEntity
  8
目盛
100
AcDbLine
 10
140.8456553839569
 20
171.2154200422094
 30
0.0
 11
141.5809307287882
 21
173.075358258195
 31
0.0
  0
LINE
  5
8E3
330
18
100
AcDbEntity
  8
目盛
100
AcDbLine
 10
140.1779739260958
 20
171.4915732675844
 30
0.0
 11
140.9713085281324
 21
173.3274981596243
 31
0.0
  0
LINE
  5
8E4
330
18
100
AcDbEntity
  8
目盛
100
AcDbLine
 10
138.8702719746303
 20
172.1060949751115
 30
0.0
 11
140.2308436974415
 21
174.7798273078416
 31
0.0
  0
LINE
  5
8E5
330
18
100
AcDbEntity
  8
目盛
100
AcDbLine
 10
139.5192961111607
 20
171.7885626094265
 30
0.0
 11
140.3699070449307
 21
173.5986623413064
 31
0.0
  0
LINE
  5
8E6
330
18
100
AcDbEntity
  8
目盛
100
AcDbLine
 10
138.2315420249712
 20
172.4438569985305
 30
0.0
 11
139.1941315749316
 21
174.1969746096185
 31
0.0
  0
LINE
  5
8E7
330
18
100
AcDbEntity
  8
目盛
100
AcDbLine
 10
141.5216815637539
 20
170.9603754631949
 30
0.0
 11
142.1981720233853
 21
172.84249146866
 31
0.0
  0
LINE
  5
8E8
330
18
100
AcDbEntity
  8
目盛
100
AcDbLine
 10
142.2053853092661
 20
170.7266912287484
 30
0.0
 11
143.1309422492988
 21
173.580345789265
 31
0.0
  0
LINE
  5
8EA
330
18
100
AcDbEntity
  8
目盛
100
AcDbLine
 10
133.0463836368267
 20
176.3327402628691
 30
0.0
 11
135.1665929689167
 21
178.4551710363267
 31
0.0
  0
LINE
  5
8EB
330
18
100
AcDbEntity
  8
目盛
100
AcDbLine
 10
132.0567336405025
 20
177.3855052925238
 30
0.0
 11
133.5562630499819
 21
178.708914356308
 31
0.0
  0
LINE
  5
8EC
330
18
100
AcDbEntity
  8
目盛
100
AcDbLine
 10
133.565519373846
 20
175.8301895494025
 30
0.0
 11
134.9338500239043
 21
177.2888434604147
 31
0.0
  0
LINE
  5
8ED
330
18
100
AcDbEntity
  8
目盛
100
AcDbLine
 10
132.5432895613417
 20
176.8513494454598
 30
0.0
 11
134.0005097603134
 21
178.2212068437712
 31
0.0
  0
LINE
  5
8EE
330
18
100
AcDbEntity
  8
目盛
100
AcDbLine
 10
131.5871960462617
 20
177.9346806567294
 30
0.0
 11
133.1275548117619
 21
179.2103353410175
 31
0.0
  0
LINE
  5
8F0
330
18
100
AcDbEntity
  8
目盛
100
AcDbLine
 10
149.7113543852146
 20
198.834388863827
 30
0.0
 11
150.0050351709305
 21
199.2390511873777
 31
0.0
  0
LINE
  5
8F1
330
18
100
AcDbEntity
  8
目盛
100
AcDbLine
 10
147.9845725706998
 20
201.2084850484606
 30
0.0
 11
148.4600198632067
 21
201.3632425104706
 31
0.0
  0
TEXT
  5
8F2
330
18
100
AcDbEntity
  8
文字
100
AcDbText
 10
148.5775744302244
 20
203.4229080237617
 30
0.0
 40
0.7
  1
4
 50
0.0300000000001166
  7
STYLE3
100
AcDbText
  0
LINE
  5
8F3
330
18
100
AcDbEntity
  8
目盛
100
AcDbLine
 10
147.9830354620311
 20
204.1441460926085
 30
0.0
 11
148.4586445554508
 21
203.989886602603
 31
0.0
  0
TEXT
  5
8F4
330
18
100
AcDbEntity
  8
文字
100
AcDbText
 10
148.5798343701398
 20
201.2542704440575
 30
0.0
 40
0.7
  1
6
 50
0.0300000000001166
  7
STYLE3
100
AcDbText
  0
TEXT
  5
8F6
330
18
100
AcDbEntity
  8
文字
100
AcDbText
 10
148.3772644944375
 20
173.163575658921
 30
0.0
 40
2.0
  1
0
 50
0.0300000000001166
  7
STYLE3
100
AcDbText
  0
LINE
  5
8F7
330
18
100
AcDbEntity
  8
目盛
100
AcDbLine
 10
147.1488202649369
 20
169.7056541540762
 30
0.0
 11
147.3359943157698
 21
171.6968763603343
 31
0.0
  0
LINE
  5
8F8
330
18
100
AcDbEntity
  8
目盛
100
AcDbLine
 10
147.8691591059375
 20
169.6493417468957
 30
0.0
 11
147.9936949966834
 21
171.6454606842127
 31
0.0
  0
LINE
  5
8F9
330
18
100
AcDbEntity
  8
目盛
100
AcDbLine
 10
145.7152241515855
 20
169.8859969018446
 30
0.0
 11
146.1829760252285
 21
172.8493072441313
 31
0.0
  0
LINE
  5
8FA
330
18
100
AcDbEntity
  8
目盛
100
AcDbLine
 10
144.2957807275156
 20
170.1560000291481
 30
0.0
 11
144.731045172907
 21
172.1080617245303
 31
0.0
  0
LINE
  5
8FB
330
18
100
AcDbEntity
  8
目盛
100
AcDbLine
 10
145.0033816655184
 20
170.0098492659133
 30
0.0
 11
145.3771155945617
 21
171.9746197233157
 31
0.0
  0
LINE
  5
8FC
330
18
100
AcDbEntity
  8
目盛
100
AcDbLine
 10
146.4306056831263
 20
169.7845651642726
 30
0.0
 11
146.6802331758559
 21
171.768925543557
 31
0.0
  0
LINE
  5
8FD
330
18
100
AcDbEntity
  8
目盛
100
AcDbLine
 10
150.035806038189
 20
169.6164400614529
 30
0.0
 11
149.9719378478696
 21
171.6154200148956
 31
0.0
  0
LINE
  5
8FE
330
18
100
AcDbEntity
  8
目盛
100
AcDbLine
 10
148.5909113186581
 20
169.6156835162779
 30
0.0
 11
148.6526861474283
 21
171.6147292562574
 31
0.0
  0
LINE
  5
8FF
330
18
100
AcDbEntity
  8
目盛
100
AcDbLine
 10
149.3117938245495
 20
172.6047122675995
 30
0.0
 11
149.3133646208046
 21
169.604712678833
 31
0.0
  0
LINE
  5
900
330
18
100
AcDbEntity
  8
目盛
100
AcDbLine
 10
152.9112085570261
 20
169.8897647108127
 30
0.0
 11
152.44035376909
 21
172.8525835997558
 31
0.0
  0
LINE
  5
901
330
18
100
AcDbEntity
  8
目盛
100
AcDbLine
 10
152.1959336367856
 20
169.787583883206
 30
0.0
 11
151.9442282639795
 21
171.7716817651918
 31
0.0
  0
LINE
  5
902
330
18
100
AcDbEntity
  8
目盛
100
AcDbLine
 10
153.622920954914
 20
170.0143624465438
 30
0.0
 11
153.2471297283575
 21
171.9787404534569
 31
0.0
  0
LINE
  5
903
330
18
100
AcDbEntity
  8
目盛
100
AcDbLine
 10
151.4778020841809
 20
169.7079208038635
 30
0.0
 11
151.2885429333405
 21
171.69894591014
 31
0.0
  0
LINE
  5
904
330
18
100
AcDbEntity
  8
目盛
100
AcDbLine
 10
155.7296810060439
 20
170.521317609159
 30
0.0
 11
155.1706932533023
 21
172.4416125584532
 31
0.0
  0
LINE
  5
905
330
18
100
AcDbEntity
  8
目盛
100
AcDbLine
 10
154.3303684562369
 20
170.1612541274766
 30
0.0
 11
153.8930600556526
 21
172.1128589447433
 31
0.0
  0
LINE
  5
906
330
18
100
AcDbEntity
  8
目盛
100
AcDbLine
 10
155.0328528957241
 20
170.3302947892568
 30
0.0
 11
154.5344588917059
 21
172.2672004185425
 31
0.0
  0
LINE
  5
907
330
18
100
AcDbEntity
  8
目盛
100
AcDbLine
 10
150.757522608355
 20
169.6508540906271
 30
0.0
 11
150.6308964554125
 21
171.6468415197937
 31
0.0
  0
LINE
  5
908
330
18
100
AcDbEntity
  8
目盛
100
AcDbLine
 10
155.2953135165563
 20
198.8373126182586
 30
0.0
 11
155.001209130552
 21
199.2416671781846
 31
0.0
  0
TEXT
  5
909
330
18
100
AcDbEntity
  8
文字
100
AcDbText
 10
155.8779794741724
 20
200.9985220048304
 30
0.0
 40
0.7
  1
4
 50
0.0300000000001166
  7
STYLE3
100
AcDbText
  0
TEXT
  5
90A
330
18
100
AcDbEntity
  8
文字
100
AcDbText
 10
152.1704194501181
 20
199.025011060259
 30
0.0
 40
0.7
  1
0
 50
0.0300000000001166
  7
STYLE3
100
AcDbText
  0
TEXT
  5
90B
330
18
100
AcDbEntity
  8
文字
100
AcDbText
 10
149.9275484924284
 20
205.3252472917065
 30
0.0
 40
0.7
  1
2
 50
0.0300000000001166
  7
STYLE3
100
AcDbText
  0
CIRCLE
  5
90C
330
18
100
AcDbEntity
  8
外形線
100
AcDbCircle
 10
152.5013218495156
 20
202.6786809375567
 30
0.0
 40
1.149999999999999
  0
LINE
  5
90D
330
18
100
AcDbEntity
  8
目盛
100
AcDbLine
 10
152.5038089435862
 20
197.9286815886765
 30
0.0
 11
152.5035471442105
 21
198.4286815201375
 31
0.0
  0
TEXT
  5
90E
330
18
100
AcDbEntity
  8
文字
100
AcDbText
 10
154.3557335207903
 20
205.1936690260554
 30
0.0
 40
0.7
  1
8
 50
0.0300000000001166
  7
STYLE3
100
AcDbText
  0
TEXT
  5
90F
330
18
100
AcDbEntity
  8
文字
100
AcDbText
 10
155.8583446644459
 20
203.3452514109559
 30
0.0
 40
0.7
  1
6
 50
0.0300000000001166
  7
STYLE3
100
AcDbText
  0
LINE
  5
910
330
18
100
AcDbEntity
  8
目盛
100
AcDbLine
 10
157.0196082370005
 20
201.2132157825055
 30
0.0
 11
156.5439991435811
 21
201.3674752725107
 31
0.0
  0
LINE
  5
911
330
18
100
AcDbEntity
  8
目盛
100
AcDbLine
 10
157.0180711283316
 20
204.1488768266532
 30
0.0
 11
156.5426238358249
 21
203.994119364643
 31
0.0
  0
LINE
  5
913
330
18
100
AcDbEntity
  8
目盛
100
AcDbLine
 10
130.271702207248
 20
205.5226651023177
 30
0.0
 11
131.9264517413583
 21
204.3993646174242
 31
0.0
  0
LINE
  5
914
330
18
100
AcDbEntity
  8
目盛
100
AcDbLine
 10
131.1203779565998
 20
206.6920541715975
 30
0.0
 11
132.7013295994622
 21
205.4670676806796
 31
0.0
  0
LINE
  5
915
330
18
100
AcDbEntity
  8
目盛
100
AcDbLine
 10
129.8753293854162
 20
204.9185560731107
 30
0.0
 11
131.5645461214249
 21
203.8477868081486
 31
0.0
  0
LINE
  5
916
330
18
100
AcDbEntity
  8
目盛
100
AcDbLine
 10
130.6868549661928
 20
206.1140256689742
 30
0.0
 11
133.1148289074959
 21
204.3519409546789
 31
0.0
  0
TEXT
  5
918
330
18
100
AcDbEntity
  8
文字
100
AcDbText
 10
129.4736523746933
 20
191.6907502267569
 30
0.0
 40
2.0
  1
.5
 50
0.0300000000001166
  7
STYLE3
100
AcDbText
  0
LINE
  5
919
330
18
100
AcDbEntity
  8
目盛
100
AcDbLine
 10
128.8027072985846
 20
203.0357594009282
 30
0.0
 11
131.4764396313148
 21
201.6751876781172
 31
0.0
  0
LINE
  5
91A
330
18
100
AcDbEntity
  8
目盛
100
AcDbLine
 10
128.4851749328997
 20
202.3867352643982
 30
0.0
 11
130.2952746647793
 21
201.5361243306281
 31
0.0
  0
LINE
  5
91B
330
18
100
AcDbEntity
  8
目盛
100
AcDbLine
 10
126.5863770342859
 20
188.9948228185324
 30
0.0
 11
129.5491959232289
 21
189.4656776064685
 31
0.0
  0
LINE
  5
91C
330
18
100
AcDbEntity
  8
目盛
100
AcDbLine
 10
126.4045331273365
 20
190.4282292913776
 30
0.0
 11
128.3955582336131
 21
190.617488442218
 31
0.0
  0
LINE
  5
91D
330
18
100
AcDbEntity
  8
目盛
100
AcDbLine
 10
126.3474664141002
 20
191.1485087672037
 30
0.0
 11
128.3434538432668
 21
191.275134920146
 31
0.0
  0
LINE
  5
91E
330
18
100
AcDbEntity
  8
目盛
100
AcDbLine
 10
126.4841962066793
 20
189.7100977387732
 30
0.0
 11
128.4682940886651
 21
189.9618031115792
 31
0.0
  0
LINE
  5
91F
330
18
100
AcDbEntity
  8
目盛
100
AcDbLine
 10
126.313052384926
 20
191.8702253373696
 30
0.0
 11
128.3120323383687
 21
191.934093527689
 31
0.0
  0
LINE
  5
920
330
18
100
AcDbEntity
  8
目盛
100
AcDbLine
 10
127.6651464732684
 20
184.8024076164605
 30
0.0
 11
129.5465530277247
 21
185.4808686520764
 31
0.0
  0
LINE
  5
921
330
18
100
AcDbEntity
  8
目盛
100
AcDbLine
 10
127.2179299326322
 20
186.1763503695146
 30
0.0
 11
129.1382248819265
 21
186.7353381222562
 31
0.0
  0
LINE
  5
922
330
18
100
AcDbEntity
  8
目盛
100
AcDbLine
 10
127.4307463941966
 20
185.4858662735765
 30
0.0
 11
130.2834301492383
 21
186.4144110456373
 31
0.0
  0
LINE
  5
923
330
18
100
AcDbEntity
  8
目盛
100
AcDbLine
 10
126.8578664509496
 20
187.5756629193216
 30
0.0
 11
128.8094712682163
 21
188.0129713199061
 31
0.0
  0
LINE
  5
924
330
18
100
AcDbEntity
  8
目盛
100
AcDbLine
 10
127.0269071127298
 20
186.8731784798347
 30
0.0
 11
128.9638127420157
 21
187.3715724838529
 31
0.0
  0
LINE
  5
925
330
18
100
AcDbEntity
  8
目盛
100
AcDbLine
 10
126.710974770017
 20
188.2831104206448
 30
0.0
 11
128.6753527769299
 21
188.6589016472014
 31
0.0
  0
LINE
  5
926
330
18
100
AcDbEntity
  8
目盛
100
AcDbLine
 10
126.3122958397509
 20
193.3151200569005
 30
0.0
 11
128.3113415797306
 21
193.2533452281302
 31
0.0
  0
LINE
  5
927
330
18
100
AcDbEntity
  8
目盛
100
AcDbLine
 10
126.3013250023062
 20
192.5926667547543
 30
0.0
 11
129.3013245910727
 21
192.5942375510093
 31
0.0
  0
LINE
  5
928
330
18
100
AcDbEntity
  8
目盛
100
AcDbLine
 10
127.9120323656827
 20
201.0603759916017
 30
0.0
 11
129.7719705816681
 21
200.3251006467705
 31
0.0
  0
LINE
  5
929
330
18
100
AcDbEntity
  8
目盛
100
AcDbLine
 10
127.6569877866681
 20
200.3843498118047
 30
0.0
 11
129.5391037921332
 21
199.7078593521732
 31
0.0
  0
LINE
  5
92A
330
18
100
AcDbEntity
  8
目盛
100
AcDbLine
 10
127.4233035522214
 20
199.7006460662925
 30
0.0
 11
130.2769581127381
 21
198.77508912626
 31
0.0
  0
LINE
  5
92B
330
18
100
AcDbEntity
  8
目盛
100
AcDbLine
 10
128.1881855910574
 20
201.7280574494626
 30
0.0
 11
130.0241104830974
 21
200.9347228474263
 31
0.0
  0
LINE
  5
92C
330
18
100
AcDbEntity
  8
目盛
100
AcDbLine
 10
126.7064615893865
 20
196.9026497100402
 30
0.0
 11
128.671232046789
 21
196.528915780997
 31
0.0
  0
LINE
  5
92D
330
18
100
AcDbEntity
  8
目盛
100
AcDbLine
 10
126.4811774877458
 20
195.4754256924324
 30
0.0
 11
128.4655378670302
 21
195.2257981997029
 31
0.0
  0
LINE
  5
92E
330
18
100
AcDbEntity
  8
目盛
100
AcDbLine
 10
126.8526123526213
 20
197.6102506480427
 30
0.0
 11
128.8046740480035
 21
197.1749862026514
 31
0.0
  0
LINE
  5
92F
330
18
100
AcDbEntity
  8
目盛
100
AcDbLine
 10
127.0209172818641
 20
198.3129117212842
 30
0.0
 11
128.9583437660077
 21
197.8165463130021
 31
0.0
  0
LINE
  5
930
330
18
100
AcDbEntity
  8
目盛
100
AcDbLine
 10
126.4022664775493
 20
194.7572111106217
 30
0.0
 11
128.3934886838073
 21
194.5700370597887
 31
0.0
  0
LINE
  5
931
330
18
100
AcDbEntity
  8
目盛
100
AcDbLine
 10
126.5826092253176
 20
196.190807223973
 30
0.0
 11
129.5459195676045
 21
195.7230553503299
 31
0.0
  0
LINE
  5
932
330
18
100
AcDbEntity
  8
目盛
100
AcDbLine
 10
126.3459540703687
 20
194.0368722696213
 30
0.0
 11
128.3420730076858
 21
193.9123363788755
 31
0.0
  0
LINE
  5
933
330
18
100
AcDbEntity
  8
目盛
100
AcDbLine
 10
127.2112102804692
 20
199.0099394881183
 30
0.0
 11
129.1320895473429
 21
198.4529629696769
 31
0.0
  0
LINE
  5
934
330
18
100
AcDbEntity
  8
目盛
100
AcDbLine
 10
129.1404693220035
 20
203.6744893505875
 30
0.0
 11
130.8935869330916
 21
202.7118998006272
 31
0.0
  0
LINE
  5
935
330
18
100
AcDbEntity
  8
目盛
100
AcDbLine
 10
129.4981276728179
 20
204.3022947640309
 30
0.0
 11
131.2201445577482
 21
203.2851134389884
 31
0.0
  0
HATCH
  5
936
330
18
100
AcDbEntity
  8
ROGO
 62
     4
100
AcDbHatch
 10
0.0
 20
0.0
 30
0.0
210
0.0
220
0.0
230
1.0
  2
SOLID
 70
     1
 71
     1
 91
        1
 92
        5
 93
        8
 72
     1
 10
151.0202982327918
 20
185.7980096272762
 11
151.2636616826502
 21
186.286712171282
 72
     1
 10
151.2636616826502
 20
186.286712171282
 11
149.9486255208062
 21
186.2860236198947
 72
     4
 94
        3
 73
     0
 74
     0
 95
       26
 96
       22
 40
0.0
 40
0.0
 40
0.0
 40
0.0
 40
0.2382195346592685
 40
0.3976890672662734
 40
0.5126795869788677
 40
0.5985392873135549
 40
0.709903824924956
 40
0.791189080749644
 40
0.9379713068542308
 40
1.057449928672904
 40
1.138714535892942
 40
1.218398644003347
 40
1.360938021870231
 40
1.461730374800173
 40
1.51601484410781
 40
1.593124329220217
 40
1.648806818593578
 40
1.729472362005584
 40
1.775122082164084
 40
1.87446099376515
 40
1.919820003751057
 40
1.919820003751057
 40
1.919820003751057
 40
1.919820003751057
 10
149.9486255208062
 20
186.2860236198947
 10
149.8677726669564
 20
186.2811573135092
 10
149.7327950880633
 20
186.2730333918069
 10
149.5846330401448
 20
186.1829202981331
 10
149.4760737171845
 20
186.1305207640815
 10
149.3986670502658
 20
186.0593248028687
 10
149.3419388238252
 20
185.9857967374397
 10
149.2704195819197
 20
185.8981865299188
 10
149.2121136859549
 20
185.7961810655775
 10
149.1824536969278
 20
185.6837713791722
 10
149.1561759352212
 20
185.5941788253288
 10
149.1367053905746
 20
185.4943447539985
 10
149.1417290141551
 20
185.3865024814564
 10
149.1488946531401
 20
185.2863454086427
 10
149.1806907759293
 20
185.214862224328
 10
149.2168849460802
 20
185.1639782216454
 10
149.2612009308805
 20
185.1079374650591
 10
149.3096796302869
 20
185.070831869029
 10
149.3497946119073
 20
185.0035876088251
 10
149.419957376879
 20
184.9950408131135
 10
149.4645617098929
 20
184.9779803756712
 10
149.4785440004774
 20
184.9726323752036
 72
     1
 10
149.4785440004774
 20
184.9726323752034
 11
150.6095728604427
 21
184.9732245805837
 72
     1
 10
150.6095728604427
 20
184.9732245805837
 11
150.8529337331485
 21
185.461921949363
 72
     1
 10
150.8529337331485
 20
185.461921949363
 11
150.0132528273784
 21
185.4614822934285
 72
     4
 94
        3
 73
     0
 74
     0
 95
       16
 96
       12
 40
0.0
 40
0.0
 40
0.0
 40
0.0
 40
0.0719416665236027
 40
0.1446253590762037
 40
0.1879779149915129
 40
0.2295440936106782
 40
0.2751936323960435
 40
0.3070718656054137
 40
0.3373215422374074
 40
0.3986635435216592
 40
0.5242542460843668
 40
0.5242542460843668
 40
0.5242542460843668
 40
0.5242542460843668
 10
150.0132528273784
 20
185.4614822934284
 10
149.9879211904293
 20
185.4689208229233
 10
149.9369966390978
 20
185.4838746049409
 10
149.9326972982563
 20
185.5564920529032
 10
149.9384756316107
 20
185.6082425564843
 10
149.9627690514778
 20
185.6459304623708
 10
149.9922507615417
 20
185.6733595537529
 10
150.003214760768
 20
185.7090672935661
 10
150.0354832695209
 20
185.7360436653316
 10
150.0927052861315
 20
185.7813887398992
 10
150.1560041153586
 20
185.7910729897001
 10
150.1985314220867
 20
185.7975793511407
 72
     1
 10
150.1985314220872
 20
185.797579351141
 11
151.0202982327918
 21
185.7980096272762
 97
        8
330
99A
330
945
330
962
330
97E
330
961
330
960
330
97F
330
93D
 75
     0
 76
     1
 47
0.0514683685270805
 98
        1
 10
150.4086954141183
 20
185.9939430155319
450
        0
451
        0
460
0.0
461
0.0
452
        0
462
0.0
453
        0
470

  0
HATCH
  5
937
330
18
100
AcDbEntity
  8
ROGO
 62
     4
100
AcDbHatch
 10
0.0
 20
0.0
 30
0.0
210
0.0
220
0.0
230
1.0
  2
SOLID
 70
     1
 71
     1
 91
        1
 92
        1
 93
       12
 72
     1
 10
145.1939057048232
 20
186.2835340541933
 11
146.9699886098456
 21
186.2844640091127
 72
     1
 10
146.9699886098454
 20
186.2844640091126
 11
146.8213119342376
 21
185.9835837902548
 72
     1
 10
146.8213119342376
 20
185.9835837902548
 11
145.8878476399771
 21
185.9830950294488
 72
     1
 10
145.8878476399771
 20
185.9830950294488
 11
145.7716009550655
 21
185.7478440873978
 72
     1
 10
145.7716009550655
 20
185.7478440873978
 11
146.7050652493259
 21
185.7483328482038
 72
     1
 10
146.7050652493259
 20
185.7483328482038
 11
146.5858651639388
 21
185.5071050454399
 72
     1
 10
146.5858651639388
 20
185.5071050454399
 11
145.6524008696781
 21
185.5066162846336
 72
     1
 10
145.6524008696781
 20
185.5066162846336
 11
145.5361492634406
 21
185.2713553831885
 72
     1
 10
145.5361492634406
 20
185.2713553831886
 11
146.4696135577013
 21
185.2718441439949
 72
     1
 10
146.4696135577013
 20
185.2718441439949
 11
146.3209443606958
 21
184.970979059747
 72
     1
 10
146.3209443606958
 20
184.970979059747
 11
144.5448614556735
 21
184.9700491048275
 72
     1
 10
144.5448614556735
 20
184.9700491048275
 11
145.1939057048232
 21
186.2835340541933
 97
       12
330
99C
330
941
330
969
330
968
330
96A
330
967
330
96D
330
96F
330
96C
330
96E
330
96B
330
940
 75
     0
 76
     1
 98
        1
 10
72.59132845458205
 20
95.44741093564637
450
        0
451
        0
460
0.0
461
0.0
452
        0
462
0.0
453
        0
470

  0
HATCH
  5
938
330
18
100
AcDbEntity
  8
ROGO
 62
     4
100
AcDbHatch
 10
0.0
 20
0.0
 30
0.0
210
0.0
220
0.0
230
1.0
  2
SOLID
 70
     1
 71
     1
 91
        2
 92
        7
 72
     0
 73
     1
 93
        8
 10
148.5348861433019
 20
186.2852833876202
 10
147.4844828045175
 20
186.2847333976678
 10
146.5382361652685
 20
184.97109283348
 10
147.2654833172705
 20
184.9714736192332
 10
147.4456428227683
 20
185.2215826549007
 10
148.2755196977952
 20
185.2220171774559
 10
148.3867170130085
 20
184.9720606958771
 10
149.1189246347671
 20
184.9724440789266
 97
        8
330
99B
330
942
330
971
330
970
330
963
330
972
330
973
330
944
 92
       22
 72
     0
 73
     1
 93
        3
 10
147.9587943840189
 20
185.9339727215854
 10
148.1582365363026
 20
185.485653815974
 10
147.6356624858975
 20
185.485380196816
 97
        3
330
965
330
964
330
966
 75
     0
 76
     1
 47
0.0128389261915577
 98
        2
 10
148.4527962176358
 20
185.9701984454372
 10
148.4527962176358
 20
185.9701984454372
450
        0
451
        0
460
0.0
461
0.0
452
        0
462
0.0
453
        0
470

  0
HATCH
  5
939
330
18
100
AcDbEntity
  8
ROGO
 62
     4
100
AcDbHatch
 10
0.0
 20
0.0
 30
0.0
210
0.0
220
0.0
230
1.0
  2
SOLID
 70
     1
 71
     1
 91
        2
 92
        5
 93
        6
 72
     1
 10
141.6146077104999
 20
184.2297808718016
 11
142.5684085356914
 21
184.2302802807915
 72
     1
 10
142.5684085356914
 20
184.2302802807915
 11
142.9022458405812
 21
184.9691890332241
 72
     1
 10
142.9022458405812
 20
184.9691890332241
 11
143.7938539865339
 21
184.9696558782003
 72
     4
 94
        3
 73
     0
 74
     0
 95
       18
 96
       14
 40
0.108740278791501
 40
0.108740278791501
 40
0.108740278791501
 40
0.108740278791501
 40
0.6623149649549278
 40
1.384304701649787
 40
2.097394834876493
 40
2.774073369849618
 40
3.428974823686337
 40
4.005208313035923
 40
4.455173659284313
 40
4.720999734343524
 40
5.086034088486724
 40
5.569973738255373
 40
6.060470601257719
 40
6.060470601257719
 40
6.060470601257719
 40
6.060470601257719
 10
143.7938539865338
 20
184.9696558782003
 10
143.8566036501599
 20
184.9701560135454
 10
144.0011934236238
 20
184.9713084413367
 10
144.2034175924363
 20
185.0794771769823
 10
144.3951654584423
 20
185.2172417751516
 10
144.5495733189148
 20
185.3893196773045
 10
144.6457272113535
 20
185.5860191878466
 10
144.6605384116287
 20
185.7744971043804
 10
144.6513582375549
 20
185.9235698522436
 10
144.5862646303923
 20
186.0274465258542
 10
144.518593227652
 20
186.1328698848163
 10
144.3945601771453
 20
186.2241572635709
 10
144.2929512857133
 20
186.2641299580767
 10
144.2412818422014
 20
186.2830352614596
 72
     1
 10
144.2412818422015
 20
186.2830352614596
 11
142.628783750254
 21
186.2821909593558
 72
     1
 10
142.628783750254
 20
186.2821909593558
 11
141.6146077104999
 21
184.2297808718016
 97
        6
330
943
330
981
330
93F
330
94F
330
952
330
957
 92
       20
 93
        4
 72
     1
 10
143.1083714774241
 20
185.4254233573487
 11
143.2661864000852
 21
185.7747277218122
 72
     1
 10
143.2661864000852
 20
185.7747277218122
 11
143.6721733435309
 21
185.7749402960982
 72
     4
 94
        3
 73
     0
 74
     0
 95
       15
 96
       11
 40
0.0
 40
0.0
 40
0.0
 40
0.0
 40
0.1539705029172947
 40
0.2241725832585742
 40
0.3038566179395649
 40
0.3581410872475063
 40
0.443992538467008
 40
0.4954152125468024
 40
0.5836396705644934
 40
0.6130478420063855
 40
0.6130478420063855
 40
0.6130478420063855
 40
0.6130478420063855
 10
143.6721733435309
 20
185.7749402960982
 10
143.7300015319697
 20
185.7752354595484
 10
143.8141961935567
 20
185.7756652012968
 10
143.8602914760558
 20
185.6715400185265
 10
143.8396889270395
 20
185.6044733172266
 10
143.8137817545967
 20
185.5356142285767
 10
143.767958704108
 20
185.4888086639996
 10
143.7064481755402
 20
185.4437179173452
 10
143.6482983464447
 20
185.4382329321562
 10
143.6104817998981
 20
185.428191636629
 10
143.6010276587359
 20
185.4256813115456
 72
     1
 10
143.6010276587357
 20
185.4256813115454
 11
143.1083714774241
 21
185.4254233573487
 97
        4
330
953
330
954
330
956
330
955
 75
     0
 76
     1
 47
0.0514683685270805
 98
        2
 10
142.637736457216
 20
185.6440068026122
 10
142.637736457216
 20
185.6440068026122
450
        0
451
        0
460
0.0
461
0.0
452
        0
462
0.0
453
        0
470

  0
HATCH
  5
93A
330
18
100
AcDbEntity
  8
ROGO
 62
     4
100
AcDbHatch
 10
0.0
 20
0.0
 30
0.0
210
0.0
220
0.0
230
1.0
  2
SOLID
 70
     1
 71
     1
 91
        1
 92
        5
 93
        8
 72
     4
 94
        3
 73
     0
 74
     0
 95
       26
 96
       22
 40
0.0
 40
0.0
 40
0.0
 40
0.0
 40
0.2382195346593203
 40
0.3976890672662236
 40
0.5126795869788637
 40
0.5985392873137209
 40
0.7099038249254859
 40
0.7911890807497029
 40
0.9379713068547285
 40
1.05744992867349
 40
1.138714535893222
 40
1.218398644003527
 40
1.360938021870497
 40
1.461730374800523
 40
1.516014844108037
 40
1.593124329220554
 40
1.648806818593799
 40
1.729472362005423
 40
1.775122082164345
 40
1.874460993765257
 40
1.919820003751215
 40
1.919820003751215
 40
1.919820003751215
 40
1.919820003751215
 10
154.1796947117483
 20
186.2882390027453
 10
154.0988418578983
 20
186.2833726963597
 10
153.9638642790052
 20
186.2752487746578
 10
153.8157022310872
 20
186.1851356809832
 10
153.7071429081263
 20
186.1327361469321
 10
153.6297362412078
 20
186.0615401857189
 10
153.5730080147675
 20
185.9880121202896
 10
153.5014887728613
 20
185.9004019127692
 10
153.4431828768969
 20
185.7983964484275
 10
153.4135228878696
 20
185.6859867620222
 10
153.3872451261629
 20
185.5963942081791
 10
153.3677745815164
 20
185.4965601368487
 10
153.3727982050972
 20
185.3887178643067
 10
153.3799638440821
 20
185.2885607914931
 10
153.4117599668711
 20
185.2170776071781
 10
153.4479541370222
 20
185.1661936044956
 10
153.4922701218223
 20
185.1101528479095
 10
153.5407488212285
 20
185.0730472518792
 10
153.5808638028492
 20
185.0058029916755
 10
153.6510265678209
 20
184.997256195964
 10
153.6956309008347
 20
184.9801957585213
 10
153.7096131914191
 20
184.9748477580536
 72
     1
 10
153.7096131914191
 20
184.9748477580537
 11
154.8406420513846
 21
184.975439963434
 72
     1
 10
154.8406420513846
 20
184.975439963434
 11
155.0840029240906
 21
185.4641373322133
 72
     1
 10
155.0840029240906
 20
185.4641373322133
 11
154.2443220183202
 21
185.4636976762791
 72
     4
 94
        3
 73
     0
 74
     0
 95
       16
 96
       12
 40
0.0
 40
0.0
 40
0.0
 40
0.0
 40
0.0719416665232598
 40
0.1446253590759501
 40
0.1879779149910585
 40
0.2295440936104431
 40
0.2751936323958306
 40
0.3070718656050483
 40
0.3373215422371826
 40
0.3986635435213253
 40
0.5242542460840827
 40
0.5242542460840827
 40
0.5242542460840827
 40
0.5242542460840827
 10
154.2443220183202
 20
185.4636976762788
 10
154.2189903813713
 20
185.4711362057736
 10
154.16806583004
 20
185.4860899877914
 10
154.1637664891984
 20
185.5587074357534
 10
154.1695448225526
 20
185.6104579393346
 10
154.1938382424196
 20
185.6481458452212
 10
154.2233199524838
 20
185.6755749366032
 10
154.2342839517099
 20
185.7112826764164
 10
154.2665524604628
 20
185.7382590481818
 10
154.3237744770732
 20
185.7836041227499
 10
154.3870733063003
 20
185.7932883725508
 10
154.4296006130285
 20
185.7997947339913
 72
     1
 10
154.4296006130284
 20
185.7997947339913
 11
155.2513674237336
 21
185.8002250101265
 72
     1
 10
155.2513674237336
 20
185.8002250101265
 11
155.4947308735921
 21
186.2889275541324
 72
     1
 10
155.4947308735921
 20
186.2889275541324
 11
154.1796947117477
 21
186.2882390027451
 97
        8
330
99D
330
949
330
980
330
975
330
976
330
974
330
977
330
93C
 75
     0
 76
     1
 47
0.0514683685270805
 98
        1
 10
154.4067380050939
 20
186.0479165462081
450
        0
451
        0
460
0.0
461
0.0
452
        0
462
0.0
453
        0
470

  0
HATCH
  5
93B
330
18
100
AcDbEntity
  8
ROGO
 62
     4
100
AcDbHatch
 10
0.0
 20
0.0
 30
0.0
210
0.0
220
0.0
230
1.0
  2
SOLID
 70
     1
 71
     1
 91
        2
 92
        5
 93
        6
 72
     4
 94
        3
 73
     0
 74
     0
 95
       38
 96
       34
 40
0.0
 40
0.0
 40
0.0
 40
0.0
 40
0.1807680148264789
 40
0.2375392910068487
 40
0.3104865209604835
 40
0.3712759982445872
 40
0.4225667543871462
 40
0.4906925837206316
 40
0.5255021974951846
 40
0.5647069597053341
 40
0.6224874016816456
 40
0.6879401044674907
 40
0.7303986317548087
 40
0.776522836218545
 40
0.8277951442289911
 40
0.9056034696997524
 40
0.9795294930262899
 40
1.013897332332831
 40
1.053089255535777
 40
1.099518741889414
 40
1.132570569820415
 40
1.160277520290216
 40
1.199836786293526
 40
1.243305643168924
 40
1.286774258016665
 40
1.324809356515579
 40
1.411916492917374
 40
1.446284332224159
 40
1.515020051660972
 40
1.575779369908279
 40
1.692098529535942
 40
1.835624328518836
 40
2.04289646798382
 40
2.04289646798382
 40
2.04289646798382
 40
2.04289646798382
 10
151.9928840348671
 20
186.2925712111709
 10
151.9326308742616
 20
186.2882830430026
 10
151.8534548482101
 20
186.2826481499748
 10
151.7529305118142
 20
186.2550508855692
 10
151.6981429465271
 20
186.2222076749088
 10
151.6411202823583
 20
186.1980575699018
 10
151.5925110841724
 20
186.1623148140376
 10
151.5433346269388
 20
186.143884282586
 10
151.5089103950121
 20
186.1106791451774
 10
151.4690576568
 20
186.090386157376
 10
151.4373375195539
 20
186.0449946485153
 10
151.4018790609772
 20
186.0025521950345
 10
151.3607332327785
 20
185.9715631053048
 10
151.3269680218882
 20
185.9390204424594
 10
151.2960037956782
 20
185.8888084075623
 10
151.277697147236
 20
185.8221034383949
 10
151.2260173881624
 20
185.7799673188763
 10
151.2182592233194
 20
185.7293356020943
 10
151.189677016656
 20
185.6994511721993
 10
151.1772618613971
 20
185.6608874843683
 10
151.1725443801475
 20
185.6255598201376
 10
151.1668773520779
 20
185.5925655669377
 10
151.1520264655728
 20
185.5578524155358
 10
151.1569022242925
 20
185.5149846836658
 10
151.1555413974461
 20
185.4734712514215
 10
151.1563843815909
 20
185.4174282285132
 10
151.1534764129171
 20
185.362861501505
 10
151.1769252514508
 20
185.3034938949812
 10
151.1908108106833
 20
185.2505722135216
 10
151.2288011481666
 20
185.1773055529203
 10
151.2943117658581
 20
185.0927830189031
 10
151.4188552348729
 20
184.9902122523549
 10
151.5385612007032
 20
184.9798629881131
 10
151.6092905549125
 20
184.9737480315921
 72
     1
 10
151.6092905549122
 20
184.9737480315924
 11
152.3597442752272
 21
184.9741409682772
 72
     4
 94
        3
 73
     0
 74
     0
 95
       11
 96
        7
 40
0.1647869275458135
 40
0.1647869275458135
 40
0.1647869275458135
 40
0.1647869275458135
 40
0.2545010798212315
 40
0.5111620267764023
 40
0.7602998271033902
 40
0.8850764140209603
 40
0.8850764140209603
 40
0.8850764140209603
 40
0.8850764140209603
 10
152.3597442752274
 20
184.9741409682772
 10
152.370216279782
 20
184.9739446357359
 10
152.4106473770486
 20
184.9731866203972
 10
152.4797387121545
 20
184.9831493284842
 10
152.5524324886494
 20
184.9926997865376
 10
152.5957698668652
 20
184.9996500686712
 10
152.6097463704624
 20
185.0035483200018
 72
     4
 94
        3
 73
     0
 74
     0
 95
        9
 96
        5
 40
0.0
 40
0.0
 40
0.0
 40
0.0
 40
0.1135793343549381
 40
0.2662938392176223
 40
0.2662938392176223
 40
0.2662938392176223
 40
0.2662938392176223
 10
152.6097463704624
 20
185.0035483200018
 10
152.6462254891919
 20
185.0147297616788
 10
152.7317530601441
 20
185.0409453496559
 10
152.802400786232
 20
185.0962946660786
 10
152.8429159274794
 20
185.1280364573151
 72
     4
 94
        3
 73
     0
 74
     0
 95
       25
 96
       21
 40
0.0
 40
0.0
 40
0.0
 40
0.0
 40
0.165525918914855
 40
0.3412380755365305
 40
0.5940540902285263
 40
0.7697671103696209
 40
0.9377330196075423
 40
1.11479469302833
 40
1.274661249598185
 40
1.574522170874768
 40
1.815540668866877
 40
2.15849091873445
 40
2.536227739636605
 40
2.738070817316548
 40
2.925680654369045
 40
3.162706124480894
 40
3.395643218188267
 40
3.648478129958861
 40
3.928509979727306
 40
4.337226830236035
 40
4.337226830236035
 40
4.337226830236035
 40
4.337226830236035
 10
152.8429159274794
 20
185.1280364573151
 10
152.8578021390359
 20
185.1403509973504
 10
152.8860341086677
 20
185.1696359068105
 10
152.9361104987327
 20
185.2171024815912
 10
152.9802317122572
 20
185.2723973614371
 10
153.0346706504667
 20
185.317221704615
 10
153.0629949265913
 20
185.3720027690275
 10
153.1038409156013
 20
185.4150966323428
 10
153.1380880994116
 20
185.4816357552371
 10
153.1671346850198
 20
185.5580627396135
 10
153.1948125856082
 20
185.6576785290861
 10
153.2053801932864
 20
185.7700491307218
 10
153.1895948157351
 20
185.8787540128495
 10
153.1515562958982
 20
185.9599936026013
 10
153.12358668011
 20
186.0277003816925
 10
153.0811595115063
 20
186.0918222793466
 10
153.0327576350337
 20
186.1615607520784
 10
152.9645892088447
 20
186.2192310293958
 10
152.8755031185488
 20
186.2887870829401
 10
152.7925586268739
 20
186.2914085301732
 10
152.743337755182
 20
186.2929641478558
 72
     1
 10
152.7433377551821
 20
186.2929641478558
 11
151.9928840348668
 21
186.2925712111707
 97
        6
330
94A
330
99F
330
93E
330
97A
330
97B
330
97C
 92
       20
 93
        1
 72
     3
 10
152.1656972466332
 20
185.6149656108489
 11
0.1782025952914888
 21
0.156872420344233
 40
0.6788083417438788
 50
0.0
 51
360.0
 73
     1
 97
        1
330
97D
 75
     0
 76
     1
 47
0.088756267210375
 98
        2
 10
152.2179643736713
 20
185.9284802911514
 10
152.2179643736713
 20
185.9284802911514
450
        0
451
        0
460
0.0
461
0.0
452
        0
462
0.0
453
        0
470

  0
LINE
  5
93C
102
{ACAD_REACTORS
330
93A
102
}
330
18
100
AcDbEntity
  8
ROGO
 62
     4
100
AcDbLine
 10
155.4947308735921
 20
186.2889275541324
 30
0.0
 11
155.2513674237336
 21
185.8002250101265
 31
0.0
  0
LINE
  5
93D
102
{ACAD_REACTORS
330
936
102
}
330
18
100
AcDbEntity
  8
ROGO
 62
     4
100
AcDbLine
 10
151.2636616826501
 20
186.2867121712818
 30
0.0
 11
151.0202982327917
 21
185.7980096272762
 31
0.0
  0
SPLINE
  5
93E
102
{ACAD_REACTORS
330
93B
102
}
330
18
100
AcDbEntity
  8
ROGO
 62
     4
100
AcDbSpline
210
0.0
220
0.0
230
1.0
 70
     8
 71
     3
 72
    38
 73
    34
 74
    32
 42
0.0000000001
 43
0.0000000001
 44
0.0000000001
 40
0.0
 40
0.0
 40
0.0
 40
0.0
 40
0.1807680148264789
 40
0.2375392910068487
 40
0.3104865209604835
 40
0.3712759982445872
 40
0.4225667543871462
 40
0.4906925837206316
 40
0.5255021974951846
 40
0.5647069597053341
 40
0.6224874016816456
 40
0.6879401044674907
 40
0.7303986317548087
 40
0.776522836218545
 40
0.8277951442289911
 40
0.9056034696997524
 40
0.9795294930262899
 40
1.013897332332831
 40
1.053089255535777
 40
1.099518741889414
 40
1.132570569820415
 40
1.160277520290216
 40
1.199836786293526
 40
1.243305643168924
 40
1.286774258016665
 40
1.324809356515579
 40
1.411916492917374
 40
1.446284332224159
 40
1.515020051660972
 40
1.575779369908279
 40
1.692098529535942
 40
1.835624328518836
 40
2.04289646798382
 40
2.04289646798382
 40
2.04289646798382
 40
2.04289646798382
 10
151.9928840348671
 20
186.2925712111709
 30
0.0
 10
151.9326308742616
 20
186.2882830430026
 30
0.0
 10
151.8534548482101
 20
186.2826481499748
 30
0.0
 10
151.7529305118142
 20
186.2550508855692
 30
0.0
 10
151.6981429465271
 20
186.2222076749088
 30
0.0
 10
151.6411202823583
 20
186.1980575699018
 30
0.0
 10
151.5925110841724
 20
186.1623148140376
 30
0.0
 10
151.5433346269388
 20
186.143884282586
 30
0.0
 10
151.5089103950121
 20
186.1106791451774
 30
0.0
 10
151.4690576568
 20
186.090386157376
 30
0.0
 10
151.4373375195539
 20
186.0449946485153
 30
0.0
 10
151.4018790609772
 20
186.0025521950345
 30
0.0
 10
151.3607332327785
 20
185.9715631053048
 30
0.0
 10
151.3269680218882
 20
185.9390204424594
 30
0.0
 10
151.2960037956782
 20
185.8888084075623
 30
0.0
 10
151.277697147236
 20
185.8221034383949
 30
0.0
 10
151.2260173881624
 20
185.7799673188763
 30
0.0
 10
151.2182592233194
 20
185.7293356020943
 30
0.0
 10
151.189677016656
 20
185.6994511721993
 30
0.0
 10
151.1772618613971
 20
185.6608874843683
 30
0.0
 10
151.1725443801475
 20
185.6255598201376
 30
0.0
 10
151.1668773520779
 20
185.5925655669377
 30
0.0
 10
151.1520264655728
 20
185.5578524155358
 30
0.0
 10
151.1569022242925
 20
185.5149846836658
 30
0.0
 10
151.1555413974461
 20
185.4734712514215
 30
0.0
 10
151.1563843815909
 20
185.4174282285132
 30
0.0
 10
151.1534764129171
 20
185.362861501505
 30
0.0
 10
151.1769252514508
 20
185.3034938949812
 30
0.0
 10
151.1908108106833
 20
185.2505722135216
 30
0.0
 10
151.2288011481666
 20
185.1773055529203
 30
0.0
 10
151.2943117658581
 20
185.0927830189031
 30
0.0
 10
151.4188552348729
 20
184.9902122523549
 30
0.0
 10
151.5385612007032
 20
184.9798629881131
 30
0.0
 10
151.6092905549125
 20
184.9737480315921
 30
0.0
 11
151.9928840348671
 21
186.2925712111709
 31
0.0
 11
151.8134388027023
 21
186.2707427014277
 31
0.0
 11
151.7590665589758
 21
186.2544136809029
 31
0.0
 11
151.6938269510608
 21
186.2217779349025
 31
0.0
 11
151.6394603974257
 21
186.1945816411418
 31
0.0
 11
151.5959701705492
 21
186.1673908001855
 31
0.0
 11
151.5361685122018
 21
186.1347581435165
 31
0.0
 11
151.5089892892994
 21
186.1130096021044
 31
0.0
 11
151.4763721168297
 21
186.0912579713601
 31
0.0
 11
151.4383283745952
 21
186.0477694308952
 31
0.0
 11
151.394849527648
 21
185.9988445275216
 31
0.0
 11
151.3622352001606
 21
185.9716593811738
 31
0.0
 11
151.3296241447715
 21
185.9390409614723
 31
0.0
 11
151.3024563019255
 21
185.8955581156154
 31
0.0
 11
151.2698651617936
 21
185.8249043606021
 31
0.0
 11
151.2263915776951
 21
185.7651121837686
 31
0.0
 11
151.2155327484539
 21
185.7325049114798
 31
0.0
 11
151.193797592454
 21
185.6998921863866
 31
0.0
 11
151.1775060763669
 21
185.656414793334
 31
0.0
 11
151.1720847694503
 21
185.6238106101531
 31
0.0
 11
151.1666610449211
 21
185.5966397007725
 31
0.0
 11
151.1558050605357
 21
185.5585991549071
 31
0.0
 11
151.1558278207745
 21
185.5151303039903
 31
0.0
 11
151.1558505808874
 21
185.4716616951011
 31
0.0
 11
151.1558704960172
 21
185.433626601816
 31
0.0
 11
151.1613539659368
 21
185.3466922313417
 31
0.0
 11
151.1722469354734
 21
185.314096348269
 31
0.0
 11
151.1940337289058
 21
185.2489048245988
 31
0.0
 11
151.2212523548252
 21
185.1945831792175
 31
0.0
 11
151.2919957750328
 21
185.1022494616826
 31
0.0
 11
151.4062408024265
 21
185.0153717966041
 31
0.0
 11
151.6092905549125
 21
184.9737480315921
 31
0.0
  0
LINE
  5
93F
102
{ACAD_REACTORS
330
939
102
}
330
18
100
AcDbEntity
  8
ROGO
 62
     4
100
AcDbLine
 10
142.628783750254
 20
186.2821909593558
 30
0.0
 11
141.6146077104999
 21
184.2297808718016
 31
0.0
  0
LINE
  5
940
102
{ACAD_REACTORS
330
937
102
}
330
18
100
AcDbEntity
  8
ROGO
 62
     4
100
AcDbLine
 10
145.1939057048232
 20
186.2835340541933
 30
0.0
 11
144.5448614556735
 21
184.9700491048275
 31
0.0
  0
LINE
  5
941
102
{ACAD_REACTORS
330
937
102
}
330
18
100
AcDbEntity
  8
ROGO
 62
     4
100
AcDbLine
 10
146.9699886098454
 20
186.2844640091126
 30
0.0
 11
146.8213119342376
 21
185.9835837902548
 31
0.0
  0
LINE
  5
942
102
{ACAD_REACTORS
330
938
102
}
330
18
100
AcDbEntity
  8
ROGO
 62
     4
100
AcDbLine
 10
147.4844828045175
 20
186.2847333976678
 30
0.0
 11
146.5382361652685
 21
184.97109283348
 31
0.0
  0
SPLINE
  5
943
102
{ACAD_REACTORS
330
939
102
}
330
18
100
AcDbEntity
  8
ROGO
 62
     4
100
AcDbSpline
210
0.0
220
0.0
230
1.0
 70
     8
 71
     3
 72
    18
 73
    14
 74
     0
 42
0.0000000001
 43
0.0000000001
 40
0.1087402787915014
 40
0.1087402787915014
 40
0.1087402787915014
 40
0.1087402787915014
 40
0.5992371417938475
 40
1.083176791562496
 40
1.448211145705696
 40
1.714037220764907
 40
2.164002567013297
 40
2.740236056362883
 40
3.395137510199602
 40
4.071816045172726
 40
4.784906178399433
 40
5.506895915094292
 40
6.060470601257719
 40
6.060470601257719
 40
6.060470601257719
 40
6.060470601257719
 10
144.2412818422014
 20
186.2830352614596
 30
0.0
 10
144.2929512857133
 20
186.2641299580767
 30
0.0
 10
144.3945601771453
 20
186.2241572635709
 30
0.0
 10
144.518593227652
 20
186.1328698848163
 30
0.0
 10
144.5862646303923
 20
186.0274465258542
 30
0.0
 10
144.6513582375549
 20
185.9235698522436
 30
0.0
 10
144.6605384116287
 20
185.7744971043804
 30
0.0
 10
144.6457272113535
 20
185.5860191878466
 30
0.0
 10
144.5495733189148
 20
185.3893196773045
 30
0.0
 10
144.3951654584423
 20
185.2172417751516
 30
0.0
 10
144.2034175924363
 20
185.0794771769823
 30
0.0
 10
144.0011934236238
 20
184.9713084413367
 30
0.0
 10
143.8566036501599
 20
184.9701560135454
 30
0.0
 10
143.7938539865338
 20
184.9696558782003
 30
0.0
  0
LINE
  5
944
102
{ACAD_REACTORS
330
938
102
}
330
18
100
AcDbEntity
  8
ROGO
 62
     4
100
AcDbLine
 10
148.5348861433019
 20
186.2852833876201
 30
0.0
 11
149.1189246347671
 21
184.9724440789266
 31
0.0
  0
SPLINE
  5
945
102
{ACAD_REACTORS
330
936
102
}
330
18
100
AcDbEntity
  8
ROGO
 62
     4
100
AcDbSpline
210
0.0
220
0.0
230
1.0
 70
     8
 71
     3
 72
    26
 73
    22
 74
    20
 42
0.0000000001
 43
0.0000000001
 44
0.0000000001
 40
0.0
 40
0.0
 40
0.0
 40
0.0
 40
0.2382195346592685
 40
0.3976890672662734
 40
0.5126795869788677
 40
0.5985392873135549
 40
0.709903824924956
 40
0.791189080749644
 40
0.9379713068542308
 40
1.057449928672904
 40
1.138714535892942
 40
1.218398644003347
 40
1.360938021870231
 40
1.461730374800173
 40
1.51601484410781
 40
1.593124329220217
 40
1.648806818593578
 40
1.729472362005584
 40
1.775122082164084
 40
1.87446099376515
 40
1.919820003751057
 40
1.919820003751057
 40
1.919820003751057
 40
1.919820003751057
 10
149.9486255208062
 20
186.2860236198947
 30
0.0
 10
149.8677726669564
 20
186.2811573135092
 30
0.0
 10
149.7327950880633
 20
186.2730333918069
 30
0.0
 10
149.5846330401448
 20
186.1829202981331
 30
0.0
 10
149.4760737171845
 20
186.1305207640815
 30
0.0
 10
149.3986670502658
 20
186.0593248028687
 30
0.0
 10
149.3419388238252
 20
185.9857967374397
 30
0.0
 10
149.2704195819197
 20
185.8981865299188
 30
0.0
 10
149.2121136859549
 20
185.7961810655775
 30
0.0
 10
149.1824536969278
 20
185.6837713791722
 30
0.0
 10
149.1561759352212
 20
185.5941788253288
 30
0.0
 10
149.1367053905746
 20
185.4943447539985
 30
0.0
 10
149.1417290141551
 20
185.3865024814564
 30
0.0
 10
149.1488946531401
 20
185.2863454086427
 30
0.0
 10
149.1806907759293
 20
185.214862224328
 30
0.0
 10
149.2168849460802
 20
185.1639782216454
 30
0.0
 10
149.2612009308805
 20
185.1079374650591
 30
0.0
 10
149.3096796302869
 20
185.070831869029
 30
0.0
 10
149.3497946119073
 20
185.0035876088251
 30
0.0
 10
149.419957376879
 20
184.9950408131135
 30
0.0
 10
149.4645617098929
 20
184.9779803756712
 30
0.0
 10
149.4785440004774
 20
184.9726323752036
 30
0.0
 11
149.9486255208062
 21
186.2860236198947
 31
0.0
 11
149.7132601659192
 21
186.2492581957552
 31
0.0
 11
149.5706399988193
 21
186.1779138213007
 31
0.0
 11
149.4708098185741
 21
186.1208458378427
 31
0.0
 11
149.4066441119435
 21
186.0637962959149
 31
0.0
 11
149.3353603551988
 21
185.978235286911
 31
0.0
 11
149.2854639234362
 21
185.9140664555998
 31
0.0
 11
149.2142021466433
 21
185.7857434994753
 31
0.0
 11
149.1785977901287
 21
185.6716931997437
 31
0.0
 11
149.1572403184985
 21
185.5932853251889
 31
0.0
 11
149.1430154134441
 21
185.5148811852373
 31
0.0
 11
149.1430900468843
 21
185.3723418269095
 31
0.0
 11
149.1574082437999
 21
185.2725716527779
 31
0.0
 11
149.178832885624
 21
185.2226939189609
 31
0.0
 11
149.2216635107288
 21
185.1585736394276
 31
0.0
 11
149.2573503743274
 21
185.1158303663977
 31
0.0
 11
149.3144428110539
 21
185.0588445474373
 31
0.0
 11
149.3429929662387
 21
185.0232245307406
 31
0.0
 11
149.4357390915595
 21
184.9876383593244
 31
0.0
 11
149.4785440004774
 21
184.9726323752036
 31
0.0
  0
LINE
  5
946
330
18
100
AcDbEntity
  8
針
  6
Continuous
100
AcDbLine
 10
149.3133646208039
 20
169.6047126788329
 30
0.0
 11
148.8020623985102
 21
191.1902343581511
 31
0.0
  0
LINE
  5
947
330
18
100
AcDbEntity
  8
針
  6
Continuous
100
AcDbLine
 10
149.313364620804
 20
169.6047126788338
 30
0.0
 11
149.8020622614324
 21
191.1907579569027
 31
0.0
  0
HATCH
  5
948
330
18
100
AcDbEntity
  8
ﾊｯﾁﾝｸ
  6
Continuous
100
AcDbHatch
 10
0.0
 20
0.0
 30
0.0
210
0.0
220
0.0
230
1.0
  2
SOLID
 70
     1
 71
     0
 91
        1
 92
        1
 93
        3
 72
     1
 10
149.3133646208039
 20
169.6047126788329
 11
148.8020623985101
 21
191.1902343581511
 72
     2
 10
149.3013218495154
 20
192.6047095260427
 40
1.499999999999999
 50
-469.4412206344873
 51
-430.4987793655085
 73
     1
 72
     1
 10
149.8020622614324
 20
191.1907579569027
 11
149.3133646208041
 21
169.6047126788338
 97
        0
 75
     0
 76
     1
 98
        1
 10
376.8611756184551
 20
178.4682624133812
450
        0
451
        0
460
0.0
461
0.0
452
        0
462
0.0
453
        0
470

  0
SPLINE
  5
949
102
{ACAD_REACTORS
330
93A
102
}
330
18
100
AcDbEntity
  8
ROGO
 62
     4
100
AcDbSpline
210
0.0
220
0.0
230
1.0
 70
     8
 71
     3
 72
    26
 73
    22
 74
    20
 42
0.0000000001
 43
0.0000000001
 44
0.0000000001
 40
0.0
 40
0.0
 40
0.0
 40
0.0
 40
0.2382195346593203
 40
0.3976890672662236
 40
0.5126795869788637
 40
0.5985392873137209
 40
0.7099038249254859
 40
0.7911890807497029
 40
0.9379713068547285
 40
1.05744992867349
 40
1.138714535893222
 40
1.218398644003527
 40
1.360938021870497
 40
1.461730374800523
 40
1.516014844108037
 40
1.593124329220554
 40
1.648806818593799
 40
1.729472362005423
 40
1.775122082164345
 40
1.874460993765257
 40
1.919820003751215
 40
1.919820003751215
 40
1.919820003751215
 40
1.919820003751215
 10
154.1796947117483
 20
186.2882390027453
 30
0.0
 10
154.0988418578983
 20
186.2833726963597
 30
0.0
 10
153.9638642790052
 20
186.2752487746578
 30
0.0
 10
153.8157022310872
 20
186.1851356809832
 30
0.0
 10
153.7071429081263
 20
186.1327361469321
 30
0.0
 10
153.6297362412078
 20
186.0615401857189
 30
0.0
 10
153.5730080147675
 20
185.9880121202896
 30
0.0
 10
153.5014887728613
 20
185.9004019127692
 30
0.0
 10
153.4431828768969
 20
185.7983964484275
 30
0.0
 10
153.4135228878696
 20
185.6859867620222
 30
0.0
 10
153.3872451261629
 20
185.5963942081791
 30
0.0
 10
153.3677745815164
 20
185.4965601368487
 30
0.0
 10
153.3727982050972
 20
185.3887178643067
 30
0.0
 10
153.3799638440821
 20
185.2885607914931
 30
0.0
 10
153.4117599668711
 20
185.2170776071781
 30
0.0
 10
153.4479541370222
 20
185.1661936044956
 30
0.0
 10
153.4922701218223
 20
185.1101528479095
 30
0.0
 10
153.5407488212285
 20
185.0730472518792
 30
0.0
 10
153.5808638028492
 20
185.0058029916755
 30
0.0
 10
153.6510265678209
 20
184.997256195964
 30
0.0
 10
153.6956309008347
 20
184.9801957585213
 30
0.0
 10
153.7096131914191
 20
184.9748477580536
 30
0.0
 11
154.1796947117483
 21
186.2882390027453
 31
0.0
 11
153.9443293568611
 21
186.2514735786058
 31
0.0
 11
153.8017091897615
 21
186.180129204151
 31
0.0
 11
153.7018790095161
 21
186.1230612206932
 31
0.0
 11
153.6377133028855
 21
186.0660116787652
 31
0.0
 11
153.5664295461408
 21
185.9804506697608
 31
0.0
 11
153.5165331143782
 21
185.9162818384502
 31
0.0
 11
153.4452713375852
 21
185.7879588823253
 31
0.0
 11
153.4096669810704
 21
185.6739085825936
 31
0.0
 11
153.3883095094402
 21
185.5955007080392
 31
0.0
 11
153.3740846043859
 21
185.5170965680877
 31
0.0
 11
153.3741592378263
 21
185.3745572097597
 31
0.0
 11
153.3884774347419
 21
185.2747870356281
 31
0.0
 11
153.4099020765658
 21
185.2249093018112
 31
0.0
 11
153.4527327016707
 21
185.1607890222778
 31
0.0
 11
153.4884195652693
 21
185.118045749248
 31
0.0
 11
153.5455120019954
 21
185.0610599302877
 31
0.0
 11
153.5740621571806
 21
185.0254399135909
 31
0.0
 11
153.6668082825013
 21
184.9898537421747
 31
0.0
 11
153.7096131914191
 21
184.9748477580536
 31
0.0
  0
SPLINE
  5
94A
102
{ACAD_REACTORS
330
93B
102
}
330
18
100
AcDbEntity
  8
ROGO
 62
     4
100
AcDbSpline
210
0.0
220
0.0
230
1.0
 70
     8
 71
     3
 72
    25
 73
    21
 74
     0
 42
0.0000000001
 43
0.0000000001
 40
0.0
 40
0.0
 40
0.0
 40
0.0
 40
0.4087168505087288
 40
0.6887487002771746
 40
0.9415836120477687
 40
1.17452070575514
 40
1.41154617586699
 40
1.599156012919487
 40
1.80099909059943
 40
2.178735911501585
 40
2.521686161369157
 40
2.762704659361267
 40
3.06256558063785
 40
3.222432137207705
 40
3.399493810628493
 40
3.567459719866414
 40
3.743172740007509
 40
3.995988754699505
 40
4.17170091132118
 40
4.337226830236035
 40
4.337226830236035
 40
4.337226830236035
 40
4.337226830236035
 10
152.743337755182
 20
186.2929641478558
 30
0.0
 10
152.7925586268739
 20
186.2914085301732
 30
0.0
 10
152.8755031185488
 20
186.2887870829401
 30
0.0
 10
152.9645892088447
 20
186.2192310293958
 30
0.0
 10
153.0327576350337
 20
186.1615607520784
 30
0.0
 10
153.0811595115063
 20
186.0918222793466
 30
0.0
 10
153.12358668011
 20
186.0277003816925
 30
0.0
 10
153.1515562958982
 20
185.9599936026013
 30
0.0
 10
153.1895948157351
 20
185.8787540128495
 30
0.0
 10
153.2053801932864
 20
185.7700491307218
 30
0.0
 10
153.1948125856082
 20
185.6576785290861
 30
0.0
 10
153.1671346850198
 20
185.5580627396135
 30
0.0
 10
153.1380880994116
 20
185.4816357552371
 30
0.0
 10
153.1038409156013
 20
185.4150966323428
 30
0.0
 10
153.0629949265913
 20
185.3720027690275
 30
0.0
 10
153.0346706504667
 20
185.317221704615
 30
0.0
 10
152.9802317122572
 20
185.2723973614371
 30
0.0
 10
152.9361104987327
 20
185.2171024815912
 30
0.0
 10
152.8860341086677
 20
185.1696359068105
 30
0.0
 10
152.8578021390359
 20
185.1403509973504
 30
0.0
 10
152.8429159274794
 20
185.1280364573151
 30
0.0
  0
LINE
  5
94B
102
{ACAD_REACTORS
330
8BD
102
}
330
18
100
AcDbEntity
  8
ROGO
 62
     4
100
AcDbLine
 10
155.7697579650141
 20
186.2890715579938
 30
0.0
 11
154.7476994347636
 21
184.2366573431768
 31
0.0
  0
HATCH
  5
94D
330
18
100
AcDbEntity
  8
ROGO
 62
     4
100
AcDbHatch
 10
0.0
 20
0.0
 30
0.0
210
0.0
220
0.0
230
1.0
  2
SOLID
 70
     1
 71
     0
 91
        1
 92
        7
 72
     0
 73
     1
 93
        4
 10
142.661351869695
 20
184.4359991802961
 10
142.5684085356914
 20
184.2302802807914
 10
154.7476994347636
 20
184.2366573431766
 10
154.8501455394286
 20
184.4423812183207
 97
        0
 75
     0
 76
     1
 47
0.0514683685270805
 98
        1
 10
150.357614557521
 20
184.3856324627229
450
        0
451
        0
460
0.0
461
0.0
452
        0
462
0.0
453
        0
470

  0
LINE
  5
94E
330
18
100
AcDbEntity
  8
ROGO
 62
     4
100
AcDbLine
 10
142.6470884247334
 20
184.4359917119731
 30
0.0
 11
154.8501455394285
 21
184.4423812183207
 31
0.0
  0
LINE
  5
94F
102
{ACAD_REACTORS
330
8BD
330
939
102
}
330
18
100
AcDbEntity
  8
ROGO
 62
     4
100
AcDbLine
 10
141.6146077104999
 20
184.2297808718016
 30
0.0
 11
155.5037830736253
 21
184.2370532276803
 31
0.0
  0
TEXT
  5
950
330
18
100
AcDbEntity
  8
文字
100
AcDbText
 10
154.5335913103723
 20
192.2180056382459
 30
0.0
 40
1.0
  1
0.01mm
 50
0.0300000000001166
  7
STYLE3
100
AcDbText
  0
LINE
  5
951
330
18
100
AcDbEntity
  8
目盛
100
AcDbLine
 10
149.7073301824755
 20
206.5200492568552
 30
0.0
 11
150.0014345684796
 21
206.1156946969291
 31
0.0
  0
LINE
  5
952
102
{ACAD_REACTORS
330
939
102
}
330
18
100
AcDbEntity
  8
ROGO
 62
     4
100
AcDbLine
 10
142.9022458405812
 20
184.9691890332241
 30
0.0
 11
142.5684085356914
 21
184.2302802807914
 31
0.0
  0
LINE
  5
953
102
{ACAD_REACTORS
330
939
102
}
330
18
100
AcDbEntity
  8
ROGO
 62
     4
100
AcDbLine
 10
143.2661864000852
 20
185.7747277218122
 30
0.0
 11
143.1083714774241
 21
185.4254233573487
 31
0.0
  0
LINE
  5
954
102
{ACAD_REACTORS
330
939
102
}
330
18
100
AcDbEntity
  8
ROGO
 62
     4
100
AcDbLine
 10
143.6721733435309
 20
185.7749402960982
 30
0.0
 11
143.2661864000852
 21
185.7747277218122
 31
0.0
  0
LINE
  5
955
102
{ACAD_REACTORS
330
939
102
}
330
18
100
AcDbEntity
  8
ROGO
 62
     4
100
AcDbLine
 10
143.6010276587361
 20
185.4256813115454
 30
0.0
 11
143.1083714774241
 21
185.4254233573487
 31
0.0
  0
SPLINE
  5
956
102
{ACAD_REACTORS
330
939
102
}
330
18
100
AcDbEntity
  8
ROGO
 62
     4
100
AcDbSpline
210
0.0
220
0.0
230
1.0
 70
     8
 71
     3
 72
    15
 73
    11
 74
     9
 42
0.0000000001
 43
0.0000000001
 44
0.0000000001
 40
0.0
 40
0.0
 40
0.0
 40
0.0
 40
0.1539705029172947
 40
0.2241725832585742
 40
0.3038566179395649
 40
0.3581410872475063
 40
0.443992538467008
 40
0.4954152125468024
 40
0.5836396705644934
 40
0.6130478420063855
 40
0.6130478420063855
 40
0.6130478420063855
 40
0.6130478420063855
 10
143.6721733435309
 20
185.7749402960982
 30
0.0
 10
143.7300015319697
 20
185.7752354595484
 30
0.0
 10
143.8141961935567
 20
185.7756652012968
 30
0.0
 10
143.8602914760558
 20
185.6715400185265
 30
0.0
 10
143.8396889270395
 20
185.6044733172266
 30
0.0
 10
143.8137817545967
 20
185.5356142285767
 30
0.0
 10
143.767958704108
 20
185.4888086639996
 30
0.0
 10
143.7064481755402
 20
185.4437179173452
 30
0.0
 10
143.6482983464447
 20
185.4382329321562
 30
0.0
 10
143.6104817998981
 20
185.428191636629
 30
0.0
 10
143.6010276587359
 20
185.4256813115456
 30
0.0
 11
143.6721733435309
 21
185.7749402960982
 31
0.0
 11
143.8219820523475
 21
185.7393837702374
 31
0.0
 11
143.8505471341476
 21
185.6752560212827
 31
0.0
 11
143.8363226392467
 21
185.5968518815459
 31
0.0
 11
143.8149502410012
 21
185.5469517392487
 31
0.0
 11
143.7579208325092
 21
185.48277917312
 31
0.0
 11
143.7151387191767
 21
185.4542488000358
 31
0.0
 11
143.6295554238157
 21
185.4328232417547
 31
0.0
 11
143.6010276587359
 21
185.4256813115456
 31
0.0
  0
LINE
  5
957
102
{ACAD_REACTORS
330
939
102
}
330
18
100
AcDbEntity
  8
ROGO
 62
     4
100
AcDbLine
 10
143.793853986843
 20
184.9696558782005
 30
0.0
 11
142.9022458405812
 21
184.9691890332241
 31
0.0
  0
CIRCLE
  5
958
330
18
100
AcDbEntity
  8
外形線
100
AcDbCircle
 10
149.3013218495157
 20
192.6047095260427
 30
0.0
 40
1.5
  0
LINE
  5
959
330
18
100
AcDbEntity
  8
目盛
100
AcDbLine
 10
152.4988347554453
 20
207.4286802864372
 30
0.0
 11
152.4990965548211
 21
206.9286803549761
 31
0.0
  0
TEXT
  5
95A
330
18
100
AcDbEntity
  8
文字
100
AcDbText
 10
154.2552011082149
 20
199.1460829759381
 30
0.0
 40
0.7
  1
2
 50
0.0300000000001166
  7
STYLE3
100
AcDbText
  0
TEXT
  5
95B
330
18
100
AcDbEntity
  8
文字
100
AcDbText
 10
152.1850821976225
 20
205.7498968504342
 30
0.0
 40
0.7
  1
0
 50
0.0300000000001166
  7
STYLE3
100
AcDbText
  0
LINE
  5
95C
330
18
100
AcDbEntity
  8
目盛
100
AcDbLine
 10
155.2912893138169
 20
206.5229730112867
 30
0.0
 11
154.9976085281011
 21
206.1183106877362
 31
0.0
  0
POINT
  5
95D
330
18
100
AcDbEntity
  8
DEFPOINTS
  6
ByBlock
 62
     0
100
AcDbPoint
 10
149.301321849516
 20
192.6047095260427
 30
0.0
  0
POINT
  5
95E
330
18
100
AcDbEntity
  8
DEFPOINTS
  6
ByBlock
 62
     0
100
AcDbPoint
 10
149.301321849516
 20
192.6047095260427
 30
0.0
  0
TEXT
  5
95F
330
18
100
AcDbEntity
  8
文字
100
AcDbText
 10
150.0558468077298
 20
199.3415558258014
 30
0.0
 40
0.7
  1
8
 50
0.0300000000001166
  7
STYLE3
100
AcDbText
  0
SPLINE
  5
960
102
{ACAD_REACTORS
330
936
102
}
330
18
100
AcDbEntity
  8
ROGO
 62
     4
100
AcDbSpline
210
0.0
220
0.0
230
1.0
 70
     8
 71
     3
 72
    16
 73
    12
 74
    10
 42
0.0000000001
 43
0.0000000001
 44
0.0000000001
 40
0.0
 40
0.0
 40
0.0
 40
0.0
 40
0.1255907025627076
 40
0.1869327038469593
 40
0.2171823804789529
 40
0.2490606136883232
 40
0.2947101524736886
 40
0.3362763310928538
 40
0.379628887008163
 40
0.4523125795607641
 40
0.5242542460843668
 40
0.5242542460843668
 40
0.5242542460843668
 40
0.5242542460843668
 10
150.1985314220867
 20
185.7975793511407
 30
0.0
 10
150.1560041153586
 20
185.7910729897001
 30
0.0
 10
150.0927052861315
 20
185.7813887398992
 30
0.0
 10
150.0354832695209
 20
185.7360436653316
 30
0.0
 10
150.003214760768
 20
185.7090672935661
 30
0.0
 10
149.9922507615417
 20
185.6733595537529
 30
0.0
 10
149.9627690514778
 20
185.6459304623708
 30
0.0
 10
149.9384756316107
 20
185.6082425564843
 30
0.0
 10
149.9326972982563
 20
185.5564920529032
 30
0.0
 10
149.9369966390978
 20
185.4838746049409
 30
0.0
 10
149.9879211904293
 20
185.4689208229233
 30
0.0
 10
150.0132528273784
 20
185.4614822934284
 30
0.0
 11
150.1985314220867
 21
185.7975793511407
 31
0.0
 11
150.0772899908845
 21
185.7648144319402
 31
0.0
 11
150.0273786323849
 21
185.7291535652333
 31
0.0
 11
150.0059913074029
 21
185.7077613875402
 31
0.0
 11
149.9917402806811
 21
185.6792459532997
 31
0.0
 11
149.9632274422163
 21
185.6435962908328
 31
0.0
 11
149.9418475806025
 21
185.6079501308381
 31
0.0
 11
149.9347369938567
 21
185.5651846814599
 31
0.0
 11
149.9490402641568
 21
185.4939222395861
 31
0.0
 11
150.0132528273784
 21
185.4614822934284
 31
0.0
  0
LINE
  5
961
102
{ACAD_REACTORS
330
936
102
}
330
18
100
AcDbEntity
  8
ROGO
 62
     4
100
AcDbLine
 10
150.013252827378
 20
185.4614822934285
 30
0.0
 11
150.8529337331485
 21
185.461921949363
 31
0.0
  0
LINE
  5
962
102
{ACAD_REACTORS
330
936
102
}
330
18
100
AcDbEntity
  8
ROGO
 62
     4
100
AcDbLine
 10
149.4785440004771
 20
184.9726323752034
 30
0.0
 11
150.6095728604427
 21
184.9732245805837
 31
0.0
  0
LINE
  5
963
102
{ACAD_REACTORS
330
938
102
}
330
18
100
AcDbEntity
  8
ROGO
 62
     4
100
AcDbLine
 10
147.4456428227683
 20
185.2215826549007
 30
0.0
 11
148.2755196977951
 21
185.222017177456
 31
0.0
  0
LINE
  5
964
102
{ACAD_REACTORS
330
938
102
}
330
18
100
AcDbEntity
  8
ROGO
 62
     4
100
AcDbLine
 10
147.9587943840189
 20
185.9339727215854
 30
0.0
 11
147.6356624858974
 21
185.4853801968158
 31
0.0
  0
LINE
  5
965
102
{ACAD_REACTORS
330
938
102
}
330
18
100
AcDbEntity
  8
ROGO
 62
     4
100
AcDbLine
 10
147.6356624858974
 20
185.4853801968159
 30
0.0
 11
148.1582365363027
 21
185.485653815974
 31
0.0
  0
LINE
  5
966
102
{ACAD_REACTORS
330
938
102
}
330
18
100
AcDbEntity
  8
ROGO
 62
     4
100
AcDbLine
 10
147.9587943840189
 20
185.9339727215854
 30
0.0
 11
148.1582365363028
 21
185.4856538159738
 31
0.0
  0
LINE
  5
967
102
{ACAD_REACTORS
330
937
102
}
330
18
100
AcDbEntity
  8
ROGO
 62
     4
100
AcDbLine
 10
146.7050652493259
 20
185.7483328482038
 30
0.0
 11
146.5858651639388
 21
185.5071050454399
 31
0.0
  0
LINE
  5
968
102
{ACAD_REACTORS
330
937
102
}
330
18
100
AcDbEntity
  8
ROGO
 62
     4
100
AcDbLine
 10
145.8878476399771
 20
185.9830950294488
 30
0.0
 11
145.7716009550655
 21
185.7478440873978
 31
0.0
  0
LINE
  5
969
102
{ACAD_REACTORS
330
937
102
}
330
18
100
AcDbEntity
  8
ROGO
 62
     4
100
AcDbLine
 10
145.8878476399771
 20
185.9830950294488
 30
0.0
 11
146.8213119342376
 21
185.9835837902548
 31
0.0
  0
LINE
  5
96A
102
{ACAD_REACTORS
330
937
102
}
330
18
100
AcDbEntity
  8
ROGO
 62
     4
100
AcDbLine
 10
145.7716009550655
 20
185.7478440873978
 30
0.0
 11
146.7050652493259
 21
185.7483328482038
 31
0.0
  0
LINE
  5
96B
102
{ACAD_REACTORS
330
937
102
}
330
18
100
AcDbEntity
  8
ROGO
 62
     4
100
AcDbLine
 10
144.5448614556735
 20
184.9700491048275
 30
0.0
 11
146.3209443606958
 21
184.970979059747
 31
0.0
  0
LINE
  5
96C
102
{ACAD_REACTORS
330
937
102
}
330
18
100
AcDbEntity
  8
ROGO
 62
     4
100
AcDbLine
 10
145.5361492634406
 20
185.2713553831886
 30
0.0
 11
146.4696135577013
 21
185.2718441439949
 31
0.0
  0
LINE
  5
96D
102
{ACAD_REACTORS
330
937
102
}
330
18
100
AcDbEntity
  8
ROGO
 62
     4
100
AcDbLine
 10
145.6524008696781
 20
185.5066162846336
 30
0.0
 11
146.5858651639388
 21
185.5071050454399
 31
0.0
  0
LINE
  5
96E
102
{ACAD_REACTORS
330
937
102
}
330
18
100
AcDbEntity
  8
ROGO
 62
     4
100
AcDbLine
 10
146.4696135577013
 20
185.2718441439949
 30
0.0
 11
146.3209443606958
 21
184.970979059747
 31
0.0
  0
LINE
  5
96F
102
{ACAD_REACTORS
330
937
102
}
330
18
100
AcDbEntity
  8
ROGO
 62
     4
100
AcDbLine
 10
145.6524008696781
 20
185.5066162846336
 30
0.0
 11
145.5361492634406
 21
185.2713553831885
 31
0.0
  0
LINE
  5
970
102
{ACAD_REACTORS
330
938
102
}
330
18
100
AcDbEntity
  8
ROGO
 62
     4
100
AcDbLine
 10
147.4456428227683
 20
185.2215826549007
 30
0.0
 11
147.2654833172706
 21
184.9714736192334
 31
0.0
  0
LINE
  5
971
102
{ACAD_REACTORS
330
938
102
}
330
18
100
AcDbEntity
  8
ROGO
 62
     4
100
AcDbLine
 10
146.5382361652685
 20
184.97109283348
 30
0.0
 11
147.2654833172706
 21
184.9714736192332
 31
0.0
  0
LINE
  5
972
102
{ACAD_REACTORS
330
938
102
}
330
18
100
AcDbEntity
  8
ROGO
 62
     4
100
AcDbLine
 10
148.2755196977951
 20
185.222017177456
 30
0.0
 11
148.3867170130084
 21
184.972060695877
 31
0.0
  0
LINE
  5
973
102
{ACAD_REACTORS
330
938
102
}
330
18
100
AcDbEntity
  8
ROGO
 62
     4
100
AcDbLine
 10
149.1189246347671
 20
184.9724440789266
 30
0.0
 11
148.3867170130084
 21
184.972060695877
 31
0.0
  0
SPLINE
  5
974
102
{ACAD_REACTORS
330
93A
102
}
330
18
100
AcDbEntity
  8
ROGO
 62
     4
100
AcDbSpline
210
0.0
220
0.0
230
1.0
 70
     8
 71
     3
 72
    16
 73
    12
 74
    10
 42
0.0000000001
 43
0.0000000001
 44
0.0000000001
 40
0.0
 40
0.0
 40
0.0
 40
0.0
 40
0.1255907025627573
 40
0.1869327038469
 40
0.2171823804790343
 40
0.2490606136882521
 40
0.2947101524736396
 40
0.3362763310930242
 40
0.3796288870081326
 40
0.4523125795608229
 40
0.5242542460840827
 40
0.5242542460840827
 40
0.5242542460840827
 40
0.5242542460840827
 10
154.4296006130285
 20
185.7997947339913
 30
0.0
 10
154.3870733063003
 20
185.7932883725508
 30
0.0
 10
154.3237744770732
 20
185.7836041227499
 30
0.0
 10
154.2665524604628
 20
185.7382590481818
 30
0.0
 10
154.2342839517099
 20
185.7112826764164
 30
0.0
 10
154.2233199524838
 20
185.6755749366032
 30
0.0
 10
154.1938382424196
 20
185.6481458452212
 30
0.0
 10
154.1695448225526
 20
185.6104579393346
 30
0.0
 10
154.1637664891984
 20
185.5587074357534
 30
0.0
 10
154.16806583004
 20
185.4860899877914
 30
0.0
 10
154.2189903813713
 20
185.4711362057736
 30
0.0
 10
154.2443220183202
 20
185.4636976762788
 30
0.0
 11
154.4296006130285
 21
185.7997947339913
 31
0.0
 11
154.3083591818262
 21
185.7670298147906
 31
0.0
 11
154.2584478233269
 21
185.7313689480837
 31
0.0
 11
154.2370604983448
 21
185.7099767703904
 31
0.0
 11
154.2228094716231
 21
185.68146133615
 31
0.0
 11
154.1942966331582
 21
185.6458116736833
 31
0.0
 11
154.1729167715444
 21
185.6101655136882
 31
0.0
 11
154.1658061847988
 21
185.5674000643102
 31
0.0
 11
154.1801094550991
 21
185.4961376224364
 31
0.0
 11
154.2443220183202
 21
185.4636976762788
 31
0.0
  0
LINE
  5
975
102
{ACAD_REACTORS
330
93A
102
}
330
18
100
AcDbEntity
  8
ROGO
 62
     4
100
AcDbLine
 10
155.0840029240906
 20
185.4641373322133
 30
0.0
 11
154.8406420513846
 21
184.975439963434
 31
0.0
  0
LINE
  5
976
102
{ACAD_REACTORS
330
93A
102
}
330
18
100
AcDbEntity
  8
ROGO
 62
     4
100
AcDbLine
 10
154.2443220183202
 20
185.463697676279
 30
0.0
 11
155.0840029240906
 21
185.4641373322133
 31
0.0
  0
LINE
  5
977
102
{ACAD_REACTORS
330
93A
102
}
330
18
100
AcDbEntity
  8
ROGO
 62
     4
100
AcDbLine
 10
154.4296006130285
 20
185.7997947339913
 30
0.0
 11
155.2513674237336
 21
185.8002250101265
 31
0.0
  0
LINE
  5
978
102
{ACAD_REACTORS
330
8BD
102
}
330
18
100
AcDbEntity
  8
ROGO
 62
     4
100
AcDbLine
 10
155.7705519057719
 20
184.7727565430606
 30
0.0
 11
155.5037830736253
 21
184.2370532276803
 31
0.0
  0
LINE
  5
979
102
{ACAD_REACTORS
330
8BD
102
}
330
18
100
AcDbEntity
  8
ROGO
 62
     4
100
AcDbLine
 10
155.7705519057719
 20
184.7727565430606
 30
0.0
 11
156.0378815787438
 21
184.2373328810294
 31
0.0
  0
LINE
  5
97A
102
{ACAD_REACTORS
330
93B
102
}
330
18
100
AcDbEntity
  8
ROGO
 62
     4
100
AcDbLine
 10
151.6092905549124
 20
184.9737480315924
 30
0.0
 11
152.3597442752272
 21
184.9741409682772
 31
0.0
  0
SPLINE
  5
97B
102
{ACAD_REACTORS
330
93B
102
}
330
18
100
AcDbEntity
  8
ROGO
 62
     4
100
AcDbSpline
210
0.0
220
0.0
230
1.0
 70
     8
 71
     3
 72
    11
 73
     7
 74
     0
 42
0.0000000001
 43
0.0000000001
 40
0.1647869275458134
 40
0.1647869275458134
 40
0.1647869275458134
 40
0.1647869275458134
 40
0.2895635144633836
 40
0.5387013147903714
 40
0.7953622617455423
 40
0.8850764140209602
 40
0.8850764140209602
 40
0.8850764140209602
 40
0.8850764140209602
 10
152.6097463704624
 20
185.0035483200018
 30
0.0
 10
152.5957698668652
 20
184.9996500686712
 30
0.0
 10
152.5524324886494
 20
184.9926997865376
 30
0.0
 10
152.4797387121545
 20
184.9831493284842
 30
0.0
 10
152.4106473770486
 20
184.9731866203972
 30
0.0
 10
152.370216279782
 20
184.9739446357359
 30
0.0
 10
152.3597442752274
 20
184.9741409682772
 30
0.0
  0
SPLINE
  5
97C
102
{ACAD_REACTORS
330
93B
102
}
330
18
100
AcDbEntity
  8
ROGO
 62
     4
100
AcDbSpline
210
0.0
220
0.0
230
1.0
 70
     8
 71
     3
 72
     9
 73
     5
 74
     3
 42
0.0000000001
 43
0.0000000001
 44
0.0000000001
 40
0.0
 40
0.0
 40
0.0
 40
0.0
 40
0.1135793343549381
 40
0.2662938392176223
 40
0.2662938392176223
 40
0.2662938392176223
 40
0.2662938392176223
 10
152.6097463704624
 20
185.0035483200018
 30
0.0
 10
152.6462254891919
 20
185.0147297616788
 30
0.0
 10
152.7317530601441
 20
185.0409453496559
 30
0.0
 10
152.802400786232
 20
185.0962946660786
 30
0.0
 10
152.8429159274794
 20
185.1280364573151
 30
0.0
 11
152.6097463704624
 21
185.0035483200018
 31
0.0
 11
152.7164768104988
 21
185.0423926035214
 31
0.0
 11
152.8429159274794
 21
185.1280364573151
 31
0.0
  0
ELLIPSE
  5
97D
102
{ACAD_REACTORS
330
93B
102
}
330
18
100
AcDbEntity
  8
ROGO
 62
     4
100
AcDbEllipse
 10
152.1656972466332
 20
185.6149656108489
 30
0.0
 11
0.1782025952914888
 21
0.156872420344233
 31
0.0
210
0.0
220
0.0
230
1.0
 40
0.6788083417438788
 41
0.0
 42
6.283185307179586
  0
LINE
  5
97E
102
{ACAD_REACTORS
330
936
102
}
330
18
100
AcDbEntity
  8
ROGO
 62
     4
100
AcDbLine
 10
150.8529337331485
 20
185.461921949363
 30
0.0
 11
150.6095728604427
 21
184.9732245805837
 31
0.0
  0
LINE
  5
97F
102
{ACAD_REACTORS
330
936
102
}
330
18
100
AcDbEntity
  8
ROGO
 62
     4
100
AcDbLine
 10
150.1985314220866
 20
185.797579351141
 30
0.0
 11
151.0202982327917
 21
185.7980096272762
 31
0.0
  0
LINE
  5
980
102
{ACAD_REACTORS
330
93A
102
}
330
18
100
AcDbEntity
  8
ROGO
 62
     4
100
AcDbLine
 10
153.7096131914191
 20
184.9748477580536
 30
0.0
 11
154.8406420513847
 21
184.975439963434
 31
0.0
  0
LINE
  5
981
102
{ACAD_REACTORS
330
939
102
}
330
18
100
AcDbEntity
  8
ROGO
 62
     4
100
AcDbLine
 10
142.628783750254
 20
186.2821909593558
 30
0.0
 11
144.2412818422014
 21
186.2830352614596
 31
0.0
  0
LINE
  5
983
330
18
100
AcDbEntity
  8
目盛
100
AcDbLine
 10
143.5697908033081
 20
214.8791242628288
 30
0.0
 11
144.0681848073259
 21
212.9422186335433
 31
0.0
  0
LINE
  5
984
330
18
100
AcDbEntity
  8
目盛
100
AcDbLine
 10
136.3634455888548
 20
211.6207910851816
 30
0.0
 11
137.4884783071732
 21
209.9672187756912
 31
0.0
  0
LINE
  5
985
330
18
100
AcDbEntity
  8
目盛
100
AcDbLine
 10
137.5830051727886
 20
212.3956431640482
 30
0.0
 11
138.6019892316345
 21
210.6746924129173
 31
0.0
  0
LINE
  5
986
330
18
100
AcDbEntity
  8
目盛
100
AcDbLine
 10
136.967139206249
 20
212.017796311058
 30
0.0
 11
138.0396768274027
 21
210.3297018080132
 31
0.0
  0
LINE
  5
987
330
18
100
AcDbEntity
  8
目盛
100
AcDbLine
 10
138.2104357031182
 20
212.7539587549258
 30
0.0
 11
139.1748605854138
 21
211.0018501263273
 31
0.0
  0
LINE
  5
988
330
18
100
AcDbEntity
  8
目盛
100
AcDbLine
 10
138.8488115990558
 20
213.0923894694631
 30
0.0
 11
140.2121825012897
 21
210.4200833898865
 31
0.0
  0
LINE
  5
98A
330
18
100
AcDbEntity
  8
目盛
100
AcDbLine
 10
134.0821176159971
 20
209.8492977350561
 30
0.0
 11
135.4055266797814
 21
208.3497683255767
 31
0.0
  0
LINE
  5
98B
330
18
100
AcDbEntity
  8
目盛
100
AcDbLine
 10
135.1949458917685
 20
210.7708912200225
 30
0.0
 11
136.4215872793987
 21
209.1912232466329
 31
0.0
  0
LINE
  5
98C
330
18
100
AcDbEntity
  8
目盛
100
AcDbLine
 10
135.772520093321
 20
211.2050192826457
 30
0.0
 11
137.5371464093465
 21
208.7788919230888
 31
0.0
  0
LINE
  5
98D
330
18
100
AcDbEntity
  8
目盛
100
AcDbLine
 10
133.5479617689332
 20
209.3627418142171
 30
0.0
 11
134.9178191672445
 21
207.9055216152455
 31
0.0
  0
LINE
  5
98E
330
18
100
AcDbEntity
  8
目盛
100
AcDbLine
 10
134.6312929802027
 20
210.318835329297
 30
0.0
 11
135.9069476644907
 21
208.7784765637966
 31
0.0
  0
LINE
  5
98F
330
18
100
AcDbEntity
  8
目盛
100
AcDbLine
 10
133.0293525863423
 20
208.8596477387318
 30
0.0
 11
135.1517833597998
 21
206.7394384066418
 31
0.0
  0
LINE
  5
990
330
18
100
AcDbEntity
  8
目盛
100
AcDbLine
 10
132.0408055854136
 20
207.8058469274566
 30
0.0
 11
133.5417200431618
 21
206.4840088925512
 31
0.0
  0
LINE
  5
991
330
18
100
AcDbEntity
  8
目盛
100
AcDbLine
 10
132.5268018728756
 20
208.3405120017126
 30
0.0
 11
133.9854557838878
 21
206.9721813516542
 31
0.0
  0
LINE
  5
992
330
18
100
AcDbEntity
  8
目盛
100
AcDbLine
 10
131.5718433436171
 20
207.256180165841
 30
0.0
 11
133.1135371267387
 21
205.9821392406411
 31
0.0
  0
LINE
  5
993
330
18
100
AcDbEntity
  8
目盛
100
AcDbLine
 10
140.1558693079839
 20
213.7082802620718
 30
0.0
 11
140.9511260507259
 21
211.873187154591
 31
0.0
  0
LINE
  5
994
330
18
100
AcDbEntity
  8
目盛
100
AcDbLine
 10
140.8232612128187
 20
213.9851325302887
 30
0.0
 11
141.5604838768793
 21
212.1259653125283
 31
0.0
  0
LINE
  5
995
330
18
100
AcDbEntity
  8
目盛
100
AcDbLine
 10
139.4975028606632
 20
213.4106013174037
 30
0.0
 11
140.3500088596941
 21
211.6013933355462
 31
0.0
  0
LINE
  5
996
330
18
100
AcDbEntity
  8
目盛
100
AcDbLine
 10
141.4990199399336
 20
214.2408849022901
 30
0.0
 11
142.1774809755496
 21
212.3594783478337
 31
0.0
  0
LINE
  5
997
330
18
100
AcDbEntity
  8
目盛
100
AcDbLine
 10
142.1824785970496
 20
214.4752849813622
 30
0.0
 11
143.1110233691102
 21
211.6226012263205
 31
0.0
  0
LINE
  5
998
330
18
100
AcDbEntity
  8
目盛
100
AcDbLine
 10
142.8729626929877
 20
214.6881014429264
 30
0.0
 11
143.4319504457294
 21
212.7678064936321
 31
0.0
  0
TEXT
  5
999
330
18
100
AcDbEntity
  8
文字
100
AcDbText
 10
148.31069805398
 20
209.525598501034
 30
0.0
 40
2.0
  1
0
 50
0.0300000000001166
  7
STYLE3
100
AcDbText
  0
LINE
  5
99A
102
{ACAD_REACTORS
330
936
102
}
330
18
100
AcDbEntity
  8
ROGO
 62
     4
100
AcDbLine
 10
149.9486255208065
 20
186.2860236198947
 30
0.0
 11
151.2636616826501
 21
186.286712171282
 31
0.0
  0
LINE
  5
99B
102
{ACAD_REACTORS
330
938
102
}
330
18
100
AcDbEntity
  8
ROGO
 62
     4
100
AcDbLine
 10
147.4844828045175
 20
186.2847333976678
 30
0.0
 11
148.5348861433019
 21
186.2852833876201
 31
0.0
  0
LINE
  5
99C
102
{ACAD_REACTORS
330
937
102
}
330
18
100
AcDbEntity
  8
ROGO
 62
     4
100
AcDbLine
 10
145.1939057048232
 20
186.2835340541933
 30
0.0
 11
146.9699886098456
 21
186.2844640091127
 31
0.0
  0
LINE
  5
99D
102
{ACAD_REACTORS
330
93A
102
}
330
18
100
AcDbEntity
  8
ROGO
 62
     4
100
AcDbLine
 10
154.1796947117484
 20
186.2882390027451
 30
0.0
 11
155.4947308735921
 21
186.2889275541324
 31
0.0
  0
LINE
  5
99F
102
{ACAD_REACTORS
330
93B
102
}
330
18
100
AcDbEntity
  8
ROGO
 62
     4
100
AcDbLine
 10
151.9928840348671
 20
186.2925712111707
 30
0.0
 11
152.743337755182
 21
186.2929641478558
 31
0.0
  0
LINE
  5
9A0
330
18
100
AcDbEntity
  8
目盛
100
AcDbLine
 10
150.0117323803737
 20
215.5937355358076
 30
0.0
 11
149.9499575516034
 21
213.594689795828
 31
0.0
  0
LINE
  5
9A1
330
18
100
AcDbEntity
  8
目盛
100
AcDbLine
 10
149.2892790782275
 20
215.6047063732525
 30
0.0
 11
149.2908498744825
 21
212.604706784486
 31
0.0
  0
LINE
  5
9A2
330
18
100
AcDbEntity
  8
目盛
100
AcDbLine
 10
144.2722752427948
 20
215.0481649246088
 30
0.0
 11
144.7095836433793
 21
213.0965601073422
 31
0.0
  0
LINE
  5
9A3
330
18
100
AcDbEntity
  8
目盛
100
AcDbLine
 10
145.6914351420057
 20
215.3196543412727
 30
0.0
 11
146.1622899299419
 21
212.3568354523296
 31
0.0
  0
LINE
  5
9A4
330
18
100
AcDbEntity
  8
目盛
100
AcDbLine
 10
147.1248416148507
 20
215.5014982482219
 30
0.0
 11
147.3141007656912
 21
213.5104731419454
 31
0.0
  0
LINE
  5
9A5
330
18
100
AcDbEntity
  8
目盛
100
AcDbLine
 10
148.5668376608427
 20
215.5929789906325
 30
0.0
 11
148.6307058511621
 21
213.5939990371898
 31
0.0
  0
LINE
  5
9A6
330
18
100
AcDbEntity
  8
目盛
100
AcDbLine
 10
146.4067100622465
 20
215.4218351688796
 30
0.0
 11
146.6584154350524
 21
213.4377372868936
 31
0.0
  0
LINE
  5
9A7
330
18
100
AcDbEntity
  8
目盛
100
AcDbLine
 10
144.979722744118
 20
215.1950566055417
 30
0.0
 11
145.3555139706744
 21
213.2306785986289
 31
0.0
  0
LINE
  5
9A8
330
18
100
AcDbEntity
  8
目盛
100
AcDbLine
 10
147.8451210906769
 20
215.5585649614583
 30
0.0
 11
147.9717472436194
 21
213.5625775322917
 31
0.0
  0
LINE
  5
9A9
330
18
100
AcDbEntity
  8
目盛
100
AcDbLine
 10
154.3068629715162
 20
215.0534190229372
 30
0.0
 11
153.8715985261248
 21
213.101357327555
 31
0.0
  0
LINE
  5
9AA
330
18
100
AcDbEntity
  8
目盛
100
AcDbLine
 10
155.7065518115916
 20
214.6948210950893
 30
0.0
 11
155.1495752931502
 21
212.7739418282156
 31
0.0
  0
LINE
  5
9AB
330
18
100
AcDbEntity
  8
目盛
100
AcDbLine
 10
155.0095240447573
 20
214.8851140936946
 30
0.0
 11
154.5131586364753
 21
212.9476876095509
 31
0.0
  0
LINE
  5
9AC
330
18
100
AcDbEntity
  8
目盛
100
AcDbLine
 10
150.7334845930946
 20
215.5600773051899
 30
0.0
 11
150.6089487023486
 21
213.5639583678727
 31
0.0
  0
LINE
  5
9AD
330
18
100
AcDbEntity
  8
目盛
100
AcDbLine
 10
151.453823434095
 20
215.5037648980093
 30
0.0
 11
151.2666493832621
 21
213.5125426917511
 31
0.0
  0
LINE
  5
9AE
330
18
100
AcDbEntity
  8
目盛
100
AcDbLine
 10
152.8874195474463
 20
215.3234221502408
 30
0.0
 11
152.4196676738032
 21
212.360111807954
 31
0.0
  0
LINE
  5
9AF
330
18
100
AcDbEntity
  8
目盛
100
AcDbLine
 10
153.5992620335134
 20
215.1995697861723
 30
0.0
 11
153.2255281044704
 21
213.2347993287699
 31
0.0
  0
LINE
  5
9B0
330
18
100
AcDbEntity
  8
目盛
100
AcDbLine
 10
152.1720380159057
 20
215.4248538878128
 30
0.0
 11
151.9224105231763
 21
213.4404935085285
 31
0.0
  0
LINE
  5
9B1
330
18
100
AcDbEntity
  8
目盛
100
AcDbLine
 10
170.6906113333489
 20
184.1490430604837
 30
0.0
 11
168.8306731173637
 21
184.8843184053149
 31
0.0
  0
LINE
  5
9B2
330
18
100
AcDbEntity
  8
目盛
100
AcDbLine
 10
169.1045160262136
 20
180.9071242880544
 30
0.0
 11
167.3824991412834
 21
181.9243056130969
 31
0.0
  0
LINE
  5
9B3
330
18
100
AcDbEntity
  8
目盛
100
AcDbLine
 10
168.7273143136157
 20
180.2908629789747
 30
0.0
 11
167.038097577607
 21
181.3616322439371
 31
0.0
  0
LINE
  5
9B4
330
18
100
AcDbEntity
  8
目盛
100
AcDbLine
 10
170.4144581079741
 20
183.4813616026226
 30
0.0
 11
168.5785332159342
 21
184.2746962046592
 31
0.0
  0
LINE
  5
9B5
330
18
100
AcDbEntity
  8
目盛
100
AcDbLine
 10
169.7999364004471
 20
182.1736596511573
 30
0.0
 11
167.1262040677168
 21
183.5342313739683
 31
0.0
  0
LINE
  5
9B6
330
18
100
AcDbEntity
  8
目盛
100
AcDbLine
 10
170.1174687661322
 20
182.8226837876874
 30
0.0
 11
168.3073690342526
 21
183.6732947214574
 31
0.0
  0
LINE
  5
9B7
330
18
100
AcDbEntity
  8
目盛
100
AcDbLine
 10
169.4621743770285
 20
181.534929701498
 30
0.0
 11
167.7090567659402
 21
182.4975192514583
 31
0.0
  0
LINE
  5
9B8
330
18
100
AcDbEntity
  8
目盛
100
AcDbLine
 10
164.5205260830345
 20
175.3601213170293
 30
0.0
 11
163.1971170192503
 21
176.8596507265088
 31
0.0
  0
LINE
  5
9B9
330
18
100
AcDbEntity
  8
目盛
100
AcDbLine
 10
163.4076978072634
 20
174.438527832063
 30
0.0
 11
162.181056419633
 21
176.0181958054526
 31
0.0
  0
LINE
  5
9BA
330
18
100
AcDbEntity
  8
目盛
100
AcDbLine
 10
163.9713507188292
 20
174.8905837227887
 30
0.0
 11
162.6956960345413
 21
176.430942488289
 31
0.0
  0
LINE
  5
9BB
330
18
100
AcDbEntity
  8
目盛
100
AcDbLine
 10
162.8301236057111
 20
174.0043997694401
 30
0.0
 11
161.0654972896854
 21
176.4305271289968
 31
0.0
  0
LINE
  5
9BC
330
18
100
AcDbEntity
  8
目盛
100
AcDbLine
 10
162.2391981101769
 20
173.5886279669037
 30
0.0
 11
161.1141653918585
 21
175.2422002763941
 31
0.0
  0
LINE
  5
9BD
330
18
100
AcDbEntity
  8
目盛
100
AcDbLine
 10
161.6355044927829
 20
173.1916227410276
 30
0.0
 11
160.5629668716294
 21
174.8797172440724
 31
0.0
  0
LINE
  5
9BE
330
18
100
AcDbEntity
  8
目盛
100
AcDbLine
 10
159.753832099976
 20
172.1170295826224
 30
0.0
 11
158.3904611977419
 21
174.7893356621989
 31
0.0
  0
LINE
  5
9BF
330
18
100
AcDbEntity
  8
目盛
100
AcDbLine
 10
157.103623759098
 20
170.9685341497953
 30
0.0
 11
156.4251627234821
 21
172.8499407042517
 31
0.0
  0
LINE
  5
9C0
330
18
100
AcDbEntity
  8
目盛
100
AcDbLine
 10
157.7793824862131
 20
171.2242865217968
 30
0.0
 11
157.0421598221524
 21
173.0834537395574
 31
0.0
  0
LINE
  5
9C1
330
18
100
AcDbEntity
  8
目盛
100
AcDbLine
 10
158.4467743910477
 20
171.5011387900133
 30
0.0
 11
157.6515176483058
 21
173.3362318974942
 31
0.0
  0
LINE
  5
9C2
330
18
100
AcDbEntity
  8
目盛
100
AcDbLine
 10
159.1051408383683
 20
171.798817734682
 30
0.0
 11
158.2526348393377
 21
173.6080257165394
 31
0.0
  0
LINE
  5
9C3
330
18
100
AcDbEntity
  8
目盛
100
AcDbLine
 10
160.3922079959134
 20
172.4554602971596
 30
0.0
 11
159.427783113618
 21
174.2075689257583
 31
0.0
  0
LINE
  5
9C4
330
18
100
AcDbEntity
  8
目盛
100
AcDbLine
 10
161.0196385262431
 20
172.8137758880372
 30
0.0
 11
160.0006544673973
 21
174.5347266391681
 31
0.0
  0
LINE
  5
9C7
330
18
100
AcDbEntity
  8
目盛
100
AcDbLine
 10
168.3309414917836
 20
179.6867539497677
 30
0.0
 11
166.6761919576734
 21
180.8100544346612
 31
0.0
  0
LINE
  5
9C8
330
18
100
AcDbEntity
  8
目盛
100
AcDbLine
 10
167.4822657424319
 20
178.5173648804879
 30
0.0
 11
165.9013140995696
 21
179.7423513714059
 31
0.0
  0
LINE
  5
9C9
330
18
100
AcDbEntity
  8
目盛
100
AcDbLine
 10
166.5618381136179
 20
177.4035721246286
 30
0.0
 11
165.0609236558699
 21
178.7254101595343
 31
0.0
  0
LINE
  5
9CA
330
18
100
AcDbEntity
  8
目盛
100
AcDbLine
 10
165.5732911126893
 20
176.3497713133538
 30
0.0
 11
163.4508603392319
 21
178.4699806454436
 31
0.0
  0
LINE
  5
9CB
330
18
100
AcDbEntity
  8
目盛
100
AcDbLine
 10
165.054681930099
 20
175.8466772378684
 30
0.0
 11
163.6848245317874
 21
177.3038974368402
 31
0.0
  0
LINE
  5
9CC
330
18
100
AcDbEntity
  8
目盛
100
AcDbLine
 10
166.0758418261562
 20
176.868907050373
 30
0.0
 11
164.617187915144
 21
178.2372377004311
 31
0.0
  0
LINE
  5
9CD
330
18
100
AcDbEntity
  8
目盛
100
AcDbLine
 10
167.0308003554149
 20
177.9532388862446
 30
0.0
 11
165.4891065722934
 21
179.2272798114444
 31
0.0
  0
LINE
  5
9CE
330
18
100
AcDbEntity
  8
目盛
100
AcDbLine
 10
167.9157887328389
 20
179.0953933831113
 30
0.0
 11
165.4878147915361
 21
180.8574780974068
 31
0.0
  0
LINE
  5
9CF
330
18
100
AcDbEntity
  8
目盛
100
AcDbLine
 10
169.7890017929363
 20
203.0572197765025
 30
0.0
 11
167.1166957133596
 21
201.6938488742686
 31
0.0
  0
LINE
  5
9D0
330
18
100
AcDbEntity
  8
目盛
100
AcDbLine
 10
170.1072136408769
 20
202.4085285148951
 30
0.0
 11
168.2980056590193
 21
201.5560225158648
 31
0.0
  0
LINE
  5
9D2
102
{ACAD_REACTORS
330
8BD
102
}
330
18
100
AcDbEntity
  8
ROGO
 62
     4
100
AcDbLine
 10
156.4142536106446
 20
186.0653855756252
 30
0.0
 11
156.7681493468187
 21
186.2895943145465
 31
0.0
  0
LINE
  5
9D3
102
{ACAD_REACTORS
330
8BD
102
}
330
18
100
AcDbEntity
  8
ROGO
 62
     4
100
AcDbLine
 10
156.525841603876
 20
186.2894674424977
 30
0.0
 11
156.4142536106446
 21
186.0653855756252
 31
0.0
  0
LINE
  5
9D4
330
18
100
AcDbEntity
  8
目盛
100
AcDbLine
 10
171.1718973048351
 20
199.7235527785091
 30
0.0
 11
168.3192135497937
 21
198.7950080064483
 31
0.0
  0
LINE
  5
9D5
330
18
100
AcDbEntity
  8
目盛
100
AcDbLine
 10
170.4048925855451
 20
201.7501620675745
 30
0.0
 11
168.5697994780641
 21
200.9549053248326
 31
0.0
  0
LINE
  5
9D6
330
18
100
AcDbEntity
  8
目盛
100
AcDbLine
 10
171.1793401468104
 20
185.508772985793
 30
0.0
 11
168.3256855862935
 21
186.4343299258255
 31
0.0
  0
TEXT
  5
9D7
330
18
100
AcDbEntity
  8
文字
100
AcDbText
 10
165.4704623369313
 20
191.5152316201007
 30
0.0
 40
2.0
  1
.5
 50
0.0300000000001166
  7
STYLE3
100
AcDbText
  0
LINE
  5
9DA
330
18
100
AcDbEntity
  8
目盛
100
AcDbLine
 10
172.2903478592807
 20
191.8942989951849
 30
0.0
 11
170.2913021193012
 21
191.9560738239551
 31
0.0
  0
LINE
  5
9DB
330
18
100
AcDbEntity
  8
目盛
100
AcDbLine
 10
172.2566896286628
 20
191.1725467824641
 30
0.0
 11
170.2605706913459
 21
191.2970826732103
 31
0.0
  0
LINE
  5
9DC
330
18
100
AcDbEntity
  8
目盛
100
AcDbLine
 10
172.2895913141056
 20
193.3391937147158
 30
0.0
 11
170.290611360663
 21
193.2753255243963
 31
0.0
  0
LINE
  5
9DD
330
18
100
AcDbEntity
  8
目盛
100
AcDbLine
 10
169.3013191079594
 20
192.6151815010763
 30
0.0
 11
172.3013186967258
 21
192.6167522973313
 31
0.0
  0
LINE
  5
9DE
330
18
100
AcDbEntity
  8
目盛
100
AcDbLine
 10
172.2003772214824
 20
190.4522079414637
 30
0.0
 11
170.2091550152243
 21
190.6393819922967
 31
0.0
  0
LINE
  5
9DF
330
18
100
AcDbEntity
  8
目盛
100
AcDbLine
 10
172.1214662112859
 20
189.7339933596534
 30
0.0
 11
170.1371058320017
 21
189.9836208523828
 31
0.0
  0
LINE
  5
9E0
330
18
100
AcDbEntity
  8
目盛
100
AcDbLine
 10
171.3914334185625
 20
186.1994795639671
 30
0.0
 11
169.4705541516887
 21
186.7564560824083
 31
0.0
  0
LINE
  5
9E1
330
18
100
AcDbEntity
  8
目盛
100
AcDbLine
 10
170.9456559123636
 20
184.8250692402807
 30
0.0
 11
169.0635399068985
 21
185.5015596999122
 31
0.0
  0
LINE
  5
9E2
330
18
100
AcDbEntity
  8
目盛
100
AcDbLine
 10
171.5817264171679
 20
186.8965073308015
 30
0.0
 11
169.6442999330242
 21
187.3928727390833
 31
0.0
  0
LINE
  5
9E3
330
18
100
AcDbEntity
  8
目盛
100
AcDbLine
 10
172.0200344737139
 20
189.0186118281123
 30
0.0
 11
169.0567241314272
 21
189.4863637017553
 31
0.0
  0
LINE
  5
9E4
330
18
100
AcDbEntity
  8
目盛
100
AcDbLine
 10
171.7500313464105
 20
187.5991684040425
 30
0.0
 11
169.7979696510282
 21
188.0344328494338
 31
0.0
  0
LINE
  5
9E5
330
18
100
AcDbEntity
  8
目盛
100
AcDbLine
 10
171.8961821096455
 20
188.3067693420452
 30
0.0
 11
169.9314116522429
 21
188.6805032710885
 31
0.0
  0
LINE
  5
9E6
330
18
100
AcDbEntity
  8
目盛
100
AcDbLine
 10
171.7447772480821
 20
197.6337561327636
 30
0.0
 11
169.7931724308153
 21
197.1964477321791
 31
0.0
  0
LINE
  5
9E7
330
18
100
AcDbEntity
  8
目盛
100
AcDbLine
 10
172.0162666647458
 20
196.2145962335528
 30
0.0
 11
169.0534477758027
 21
195.7437414456165
 31
0.0
  0
LINE
  5
9E8
330
18
100
AcDbEntity
  8
目盛
100
AcDbLine
 10
172.198110571695
 20
194.7811897607078
 30
0.0
 11
170.2070854654186
 21
194.5919306098673
 31
0.0
  0
LINE
  5
9E9
330
18
100
AcDbEntity
  8
目盛
100
AcDbLine
 10
172.2551772849313
 20
194.060910284882
 30
0.0
 11
170.2591898557648
 21
193.9342841319394
 31
0.0
  0
LINE
  5
9EA
330
18
100
AcDbEntity
  8
目盛
100
AcDbLine
 10
171.8916689290147
 20
196.9263086314406
 30
0.0
 11
169.9272909221018
 21
196.5505174048843
 31
0.0
  0
LINE
  5
9EB
330
18
100
AcDbEntity
  8
目盛
100
AcDbLine
 10
172.1184474923527
 20
195.4993213133123
 30
0.0
 11
170.1343496103666
 21
195.2476159405065
 31
0.0
  0
LINE
  5
9EC
330
18
100
AcDbEntity
  8
目盛
100
AcDbLine
 10
171.3847137663994
 20
199.0330686825707
 30
0.0
 11
169.4644188171052
 21
198.4740809298292
 31
0.0
  0
LINE
  5
9ED
330
18
100
AcDbEntity
  8
目盛
100
AcDbLine
 10
171.5757365863022
 20
198.3362405722508
 30
0.0
 11
169.6388309570164
 21
197.8378465682328
 31
0.0
  0
LINE
  5
9EE
330
18
100
AcDbEntity
  8
目盛
100
AcDbLine
 10
170.9374972257631
 20
200.4070114356249
 30
0.0
 11
169.0560906713069
 21
199.7285504000089
 31
0.0
  0
LINE
  5
9EF
330
18
100
AcDbEntity
  8
目盛
100
AcDbLine
 10
170.6817448537617
 20
201.0827701627398
 30
0.0
 11
168.8225776360012
 21
200.3455474986794
 31
0.0
  0
LINE
  5
9F0
330
18
100
AcDbEntity
  8
目盛
100
AcDbLine
 10
169.0922554875215
 20
204.3230262027698
 30
0.0
 11
167.3713047363905
 21
203.304042143924
 31
0.0
  0
LINE
  5
9F1
330
18
100
AcDbEntity
  8
目盛
100
AcDbLine
 10
169.450571078399
 20
203.6955956724405
 30
0.0
 11
167.6984624498005
 21
202.7311707901449
 31
0.0
  0
LINE
  5
9F2
330
18
100
AcDbEntity
  8
目盛
100
AcDbLine
 10
168.7144086345314
 20
204.9388921693094
 30
0.0
 11
167.0263141314862
 21
203.8663545481559
 31
0.0
  0
LINE
  5
9F3
330
18
100
AcDbEntity
  8
目盛
100
AcDbLine
 10
159.7323717244015
 20
213.103324076974
 30
0.0
 11
158.3718000015904
 21
210.4295917442436
 31
0.0
  0
LINE
  5
9F4
330
18
100
AcDbEntity
  8
目盛
100
AcDbLine
 10
160.9989070875043
 20
212.4079037027404
 30
0.0
 11
159.9817257624619
 21
210.6858868178102
 31
0.0
  0
LINE
  5
9F5
330
18
100
AcDbEntity
  8
目盛
100
AcDbLine
 10
162.2192774257909
 20
211.6343291683106
 30
0.0
 11
161.0959769408974
 21
209.9795796342002
 31
0.0
  0
LINE
  5
9F6
330
18
100
AcDbEntity
  8
目盛
100
AcDbLine
 10
160.371101674061
 20
212.765562053555
 30
0.0
 11
159.4085121241004
 21
211.0124444424671
 31
0.0
  0
LINE
  5
9F7
330
18
100
AcDbEntity
  8
目盛
100
AcDbLine
 10
161.6151683965842
 20
212.0307019901426
 30
0.0
 11
160.5443991316217
 21
210.3414852541336
 31
0.0
  0
LINE
  5
9F8
330
18
100
AcDbEntity
  8
目盛
100
AcDbLine
 10
162.8106379924475
 20
211.2191764093658
 30
0.0
 11
161.0485532781519
 21
208.7912024680627
 31
0.0
  0
LINE
  5
9F9
330
18
100
AcDbEntity
  8
目盛
100
AcDbLine
 10
163.3886664950707
 20
210.7856534189586
 30
0.0
 11
162.1636800041527
 21
209.2047017760964
 31
0.0
  0
LINE
  5
9FA
102
{ACAD_REACTORS
330
8BD
102
}
330
18
100
AcDbEntity
  8
ROGO
 62
     4
100
AcDbLine
 10
156.7681493468187
 20
186.2895943145465
 30
0.0
 11
157.5242164431788
 21
186.2899901903888
 31
0.0
  0
LINE
  5
9FC
330
18
100
AcDbEntity
  8
目盛
100
AcDbLine
 10
165.5562600622049
 20
208.8766787892161
 30
0.0
 11
163.436050730115
 21
206.7542480157587
 31
0.0
  0
LINE
  5
9FD
330
18
100
AcDbEntity
  8
目盛
100
AcDbLine
 10
166.5459100585293
 20
207.8239137595615
 30
0.0
 11
165.0463806490498
 21
206.5005046957771
 31
0.0
  0
LINE
  5
9FE
330
18
100
AcDbEntity
  8
目盛
100
AcDbLine
 10
167.4675035434955
 20
206.7110854837902
 30
0.0
 11
165.8878355701061
 21
205.4844440961598
 31
0.0
  0
LINE
  5
9FF
330
18
100
AcDbEntity
  8
目盛
100
AcDbLine
 10
167.0154476527701
 20
207.2747383953561
 30
0.0
 11
165.4750888872696
 21
205.9990837110678
 31
0.0
  0
LINE
  5
A00
330
18
100
AcDbEntity
  8
目盛
100
AcDbLine
 10
167.9016316061187
 20
206.1335112822378
 30
0.0
 11
165.4755042465618
 21
204.3688849662123
 31
0.0
  0
LINE
  5
A01
330
18
100
AcDbEntity
  8
目盛
100
AcDbLine
 10
164.5024592509299
 20
209.8652257901448
 30
0.0
 11
163.1806212160242
 21
208.3643113323967
 31
0.0
  0
LINE
  5
A02
330
18
100
AcDbEntity
  8
目盛
100
AcDbLine
 10
165.0371243251858
 20
209.3792295026829
 30
0.0
 11
163.6687936751276
 21
207.9205755916708
 31
0.0
  0
LINE
  5
A03
330
18
100
AcDbEntity
  8
目盛
100
AcDbLine
 10
166.0593541376901
 20
208.3580696066257
 30
0.0
 11
164.6021339387186
 21
206.9882122083142
 31
0.0
  0
LINE
  5
A04
330
18
100
AcDbEntity
  8
目盛
100
AcDbLine
 10
163.9527924893142
 20
210.3341880319415
 30
0.0
 11
162.6787515641143
 21
208.79249424882
 31
0.0
  0
LINE
  5
A05
330
18
100
AcDbEntity
  8
目盛
100
AcDbLine
 10
168.3174034086549
 20
205.5425857867037
 30
0.0
 11
166.6638310991644
 21
204.4175530683853
 31
0.0
  0
LINE
  5
A06
330
18
100
AcDbEntity
  8
目盛
100
AcDbLine
 10
159.0833475878715
 20
213.420856442659
 30
0.0
 11
158.2327366541014
 21
211.6107567107792
 31
0.0
  0
LINE
  5
A07
330
18
100
AcDbEntity
  8
目盛
100
AcDbLine
 10
157.080962135278
 20
214.2490435888904
 30
0.0
 11
156.4044716756464
 21
212.3669275834253
 31
0.0
  0
LINE
  5
A08
330
18
100
AcDbEntity
  8
目盛
100
AcDbLine
 10
157.7569883150751
 20
213.993999009876
 30
0.0
 11
157.0217129702439
 21
212.1340607938904
 31
0.0
  0
LINE
  5
A09
330
18
100
AcDbEntity
  8
目盛
100
AcDbLine
 10
158.424669772936
 20
213.7178457845009
 30
0.0
 11
157.6313351708996
 21
211.881920892461
 31
0.0
  0
MTEXT
  5
16DD
330
18
100
AcDbEntity
  8
DEFPOINTS
  6
Continuous
100
AcDbMText
 10
1185.7564125503
 20
418.731891290344
 30
0.0
 40
0.5
 41
0.0
 71
     4
 72
     1
  1
\A1;
 73
     1
 44
1.0
  0
CIRCLE
  5
1741
330
18
100
AcDbEntity
  8
外形線
100
AcDbCircle
 10
119.3013218495157
 20
182.1047095260427
 30
0.0
 40
1.25
  0
CIRCLE
  5
1742
330
18
100
AcDbEntity
  8
外形線
100
AcDbCircle
 10
89.30420004775504
 20
174.6003246776903
 30
0.0
 40
1.25
  0
CIRCLE
  5
17D5
330
18
100
AcDbEntity
  8
外形線
100
AcDbCircle
 10
119.3013218495157
 20
182.1047095260427
 30
0.0
 40
2.0
  0
CIRCLE
  5
181D
330
18
100
AcDbEntity
  8
外形線
100
AcDbCircle
 10
89.30420004775504
 20
174.6003246776903
 30
0.0
 40
2.0
  0
LINE
  5
181E
330
18
100
AcDbEntity
  8
外形線
100
AcDbLine
 10
103.8013218495157
 20
129.6047095260427
 30
0.0
 11
119.3013218495157
 21
129.6047095260427
 31
0.0
  0
LINE
  5
181F
330
18
100
AcDbEntity
  8
外形線
100
AcDbLine
 10
98.8013218495157
 20
129.6047095260427
 30
0.0
 11
98.80132184951575
 21
104.6047095260427
 31
0.0
  0
LINE
  5
1820
330
18
100
AcDbEntity
  8
外形線
100
AcDbLine
 10
119.8013218495157
 20
129.6047095260427
 30
0.0
 11
119.8013218495157
 21
104.6047095260427
 31
0.0
  0
LINE
  5
1821
330
18
100
AcDbEntity
  8
外形線
100
AcDbLine
 10
103.8013218495157
 20
111.9047095260427
 30
0.0
 11
103.8013218495157
 21
82.6047095260427
 31
0.0
  0
LINE
  5
1822
330
18
100
AcDbEntity
  8
外形線
100
AcDbLine
 10
114.8013218495157
 20
111.9047095260427
 30
0.0
 11
114.8013218495157
 21
82.6047095260427
 31
0.0
  0
LINE
  5
182A
330
18
100
AcDbEntity
  8
外形線
100
AcDbLine
 10
98.80132184951571
 20
117.1047095260427
 30
0.0
 11
119.8013218495157
 21
117.1047095260427
 31
0.0
  0
TEXT
  5
1830
330
18
100
AcDbEntity
  8
外形線
100
AcDbText
 10
107.2578736263915
 20
117.4710205749274
 30
0.0
 40
2.2
  1
15
  7
STYLE3
100
AcDbText
  0
TEXT
  5
1831
330
18
100
AcDbEntity
  8
隠れ線2
100
AcDbText
 10
107.2864651010965
 20
107.5802241075513
 30
0.0
 40
2.2
  1
25
  7
STYLE3
100
AcDbText
  0
TEXT
  5
1832
330
18
100
AcDbEntity
  8
外形線
100
AcDbText
 10
107.3740433986371
 20
102.5230454450689
 30
0.0
 40
2.2
  1
30
  7
STYLE3
100
AcDbText
  0
LINE
  5
1837
330
18
100
AcDbEntity
  8
外形線
100
AcDbLine
 10
105.3013218495157
 20
121.1047095260427
 30
0.0
 11
105.3013218495157
 21
113.1047095260427
 31
0.0
  0
LINE
  5
1838
330
18
100
AcDbEntity
  8
外形線
100
AcDbLine
 10
113.3013218495157
 20
121.1047095260427
 30
0.0
 11
113.3013218495157
 21
113.1047095260427
 31
0.0
  0
LINE
  5
1839
330
18
100
AcDbEntity
  8
外形線
100
AcDbLine
 10
109.3013218495157
 20
125.1047095260427
 30
0.0
 11
109.3013218495157
 21
125.1047095260427
 31
0.0
  0
LINE
  5
183A
330
18
100
AcDbEntity
  8
外形線
100
AcDbLine
 10
109.3013218495157
 20
109.1047095260427
 30
0.0
 11
109.3013218495157
 21
109.1047095260427
 31
0.0
  0
ARC
  5
183D
330
18
100
AcDbEntity
  8
外形線
100
AcDbCircle
 10
109.3013218495157
 20
121.1047095260427
 30
0.0
 40
4.0
100
AcDbArc
 50
90.0
 51
180.0
  0
ARC
  5
183E
330
18
100
AcDbEntity
  8
外形線
100
AcDbCircle
 10
109.3013218495157
 20
121.1047095260427
 30
0.0
 40
4.0
100
AcDbArc
 50
0.0
 51
90.0
  0
ARC
  5
183F
330
18
100
AcDbEntity
  8
外形線
100
AcDbCircle
 10
109.3013218495157
 20
113.1047095260427
 30
0.0
 40
4.0
100
AcDbArc
 50
270.0000000000003
 51
0.0
  0
ARC
  5
1840
330
18
100
AcDbEntity
  8
外形線
100
AcDbCircle
 10
109.3013218495157
 20
113.1047095260427
 30
0.0
 40
4.0
100
AcDbArc
 50
180.0
 51
270.0000000000004
  0
POINT
  5
187A
330
18
100
AcDbEntity
  8
DEFPOINTS
  6
ByBlock
 62
     0
100
AcDbPoint
 10
109.3013218495157
 20
149.6047095260427
 30
0.0
  0
POINT
  5
188A
330
18
100
AcDbEntity
  8
DEFPOINTS
  6
ByBlock
 62
     0
100
AcDbPoint
 10
109.3013218495157
 20
149.6047095260427
 30
0.0
  0
LINE
  5
1977
330
18
100
AcDbEntity
  8
0
  6
ByBlock
 62
     2
100
AcDbLine
 10
264.3013218495157
 20
164.6047095260427
 30
0.0
 11
281.1996614252266
 21
164.6047095260427
 31
0.0
  0
LINE
  5
1978
330
18
100
AcDbEntity
  8
0
  6
ByBlock
 62
     2
100
AcDbLine
 10
264.3013218495157
 20
134.6047095260427
 30
0.0
 11
281.1996614252266
 21
134.6047095260427
 31
0.0
  0
LINE
  5
1979
330
18
100
AcDbEntity
  8
0
  6
ByBlock
 62
     2
100
AcDbLine
 10
279.9496614252266
 20
162.1047095260427
 30
0.0
 11
279.9496614252266
 21
137.1047095260427
 31
0.0
  0
INSERT
  5
197A
330
18
100
AcDbEntity
  8
0
  6
ByBlock
 62
     2
100
AcDbBlockReference
  2
_OPEN
 10
279.9496614252266
 20
164.6047095260427
 30
0.0
 41
2.5
 42
2.5
 43
2.5
 50
90.0
  0
INSERT
  5
197B
330
18
100
AcDbEntity
  8
0
  6
ByBlock
 62
     2
100
AcDbBlockReference
  2
_OPEN
 10
279.9496614252266
 20
134.6047095260427
 30
0.0
 41
2.5
 42
2.5
 43
2.5
 50
270.0
  0
MTEXT
  5
197C
330
18
100
AcDbEntity
  8
0
  6
ByBlock
 62
     6
100
AcDbMText
 10
278.0746614252266
 20
149.6047095260427
 30
0.0
 40
2.5
 41
0.0
 71
     5
 72
     1
  1
\A1;30
  7
STYLE3
 11
0.0000000000000001
 21
1.0
 31
0.0
 73
     1
 44
1.0
  0
POINT
  5
197D
330
18
100
AcDbEntity
  8
DEFPOINTS
  6
ByBlock
 62
     0
100
AcDbPoint
 10
264.3013218495157
 20
164.6047095260427
 30
0.0
  0
POINT
  5
197E
330
18
100
AcDbEntity
  8
DEFPOINTS
  6
ByBlock
 62
     0
100
AcDbPoint
 10
264.3013218495157
 20
134.6047095260427
 30
0.0
  0
POINT
  5
197F
330
18
100
AcDbEntity
  8
DEFPOINTS
  6
ByBlock
 62
     0
100
AcDbPoint
 10
279.9496614252266
 20
134.6047095260427
 30
0.0
  0
CIRCLE
  5
1A5C
330
18
100
AcDbEntity
  8
外形線
100
AcDbCircle
 10
101.3013218495157
 20
127.1047095260427
 30
0.0
 40
1.75
  0
CIRCLE
  5
1A5D
330
18
100
AcDbEntity
  8
外形線
100
AcDbCircle
 10
117.3013218495157
 20
127.1047095260427
 30
0.0
 40
1.75
  0
CIRCLE
  5
1A5E
330
18
100
AcDbEntity
  8
外形線
100
AcDbCircle
 10
117.3013218495157
 20
107.1047095260427
 30
0.0
 40
1.75
  0
CIRCLE
  5
1A5F
330
18
100
AcDbEntity
  8
外形線
100
AcDbCircle
 10
101.3013218495157
 20
107.1047095260427
 30
0.0
 40
1.75
  0
LINE
  5
1A60
330
18
100
AcDbEntity
  8
外形線
100
AcDbLine
 10
101.3013218495157
 20
107.1047095260427
 30
0.0
 11
102.1678339604552
 21
106.2342367428738
 31
0.0
  0
LINE
  5
1A61
330
18
100
AcDbEntity
  8
外形線
100
AcDbLine
 10
101.3013218495157
 20
107.1047095260427
 30
0.0
 11
100.5258830715199
 21
107.8600711035662
 31
0.0
  0
LINE
  5
1A62
330
18
100
AcDbEntity
  8
外形線
100
AcDbLine
 10
101.3013218495157
 20
107.1047095260427
 30
0.0
 11
102.0767606275114
 21
107.8600711035662
 31
0.0
  0
LINE
  5
1A63
330
18
100
AcDbEntity
  8
外形線
100
AcDbLine
 10
101.3013218495157
 20
107.1047095260427
 30
0.0
 11
100.4716107011063
 21
106.263652498809
 31
0.0
  0
LINE
  5
1A64
330
18
100
AcDbEntity
  8
外形線
100
AcDbLine
 10
117.3013218495157
 20
107.1047095260427
 30
0.0
 11
118.0767606275114
 21
107.8600711035662
 31
0.0
  0
LINE
  5
1A65
330
18
100
AcDbEntity
  8
外形線
100
AcDbLine
 10
117.3013218495157
 20
107.1047095260427
 30
0.0
 11
116.5258830715199
 21
107.8600711035662
 31
0.0
  0
LINE
  5
1A66
330
18
100
AcDbEntity
  8
外形線
100
AcDbLine
 10
117.3013218495157
 20
107.1047095260427
 30
0.0
 11
116.4716107011063
 21
106.263652498809
 31
0.0
  0
LINE
  5
1A67
330
18
100
AcDbEntity
  8
外形線
100
AcDbLine
 10
117.3013218495157
 20
107.1047095260427
 30
0.0
 11
118.1678339604552
 21
106.2342367428738
 31
0.0
  0
LINE
  5
1A68
330
18
100
AcDbEntity
  8
外形線
100
AcDbLine
 10
117.3013218495157
 20
127.1047095260427
 30
0.0
 11
118.0767606275114
 21
127.8600711035662
 31
0.0
  0
LINE
  5
1A69
330
18
100
AcDbEntity
  8
外形線
100
AcDbLine
 10
117.3013218495157
 20
127.1047095260427
 30
0.0
 11
116.5258830715199
 21
127.8600711035662
 31
0.0
  0
LINE
  5
1A6A
330
18
100
AcDbEntity
  8
外形線
100
AcDbLine
 10
117.3013218495157
 20
127.1047095260427
 30
0.0
 11
116.4716107011063
 21
126.263652498809
 31
0.0
  0
LINE
  5
1A6B
330
18
100
AcDbEntity
  8
外形線
100
AcDbLine
 10
117.3013218495157
 20
127.1047095260427
 30
0.0
 11
118.1678339604552
 21
126.2342367428738
 31
0.0
  0
LINE
  5
1A6C
330
18
100
AcDbEntity
  8
外形線
100
AcDbLine
 10
101.3013218495157
 20
127.1047095260427
 30
0.0
 11
102.0767606275114
 21
127.8600711035662
 31
0.0
  0
LINE
  5
1A6D
330
18
100
AcDbEntity
  8
外形線
100
AcDbLine
 10
101.3013218495157
 20
127.1047095260427
 30
0.0
 11
100.5258830715199
 21
127.8600711035662
 31
0.0
  0
LINE
  5
1A6E
330
18
100
AcDbEntity
  8
外形線
100
AcDbLine
 10
101.3013218495157
 20
127.1047095260427
 30
0.0
 11
100.4716107011063
 21
126.263652498809
 31
0.0
  0
LINE
  5
1A6F
330
18
100
AcDbEntity
  8
外形線
100
AcDbLine
 10
101.3013218495157
 20
127.1047095260427
 30
0.0
 11
102.1678339604552
 21
126.2342367428738
 31
0.0
  0
LINE
  5
1AA4
330
18
100
AcDbEntity
  8
外形線
100
AcDbLine
 10
121.801779426766
 20
122.024156701203
 30
0.0
 11
121.801779426766
 21
112.024156701203
 31
0.0
  0
LINE
  5
1AA5
330
18
100
AcDbEntity
  8
外形線
100
AcDbLine
 10
124.801779426766
 20
122.024156701203
 30
0.0
 11
124.801779426766
 21
112.024156701203
 31
0.0
  0
LINE
  5
1AA6
330
18
100
AcDbEntity
  8
外形線
100
AcDbLine
 10
121.801779426766
 20
122.024156701203
 30
0.0
 11
124.801779426766
 21
122.024156701203
 31
0.0
  0
LINE
  5
1AA7
330
18
100
AcDbEntity
  8
外形線
100
AcDbLine
 10
121.801779426766
 20
112.024156701203
 30
0.0
 11
124.801779426766
 21
112.024156701203
 31
0.0
  0
LINE
  5
1AA8
330
18
100
AcDbEntity
  8
隠れ線2
 48
0.5
100
AcDbLine
 10
114.8013218495157
 20
118.6047095260427
 30
0.0
 11
119.8013218495157
 21
118.6047095260427
 31
0.0
  0
LINE
  5
1AA9
330
18
100
AcDbEntity
  8
隠れ線2
 48
0.5
100
AcDbLine
 10
114.8013218495157
 20
115.6047095260427
 30
0.0
 11
119.8013218495157
 21
115.6047095260427
 31
0.0
  0
LINE
  5
1AAA
330
18
100
AcDbEntity
  8
隠れ線2
 48
0.5
100
AcDbLine
 10
114.8013218495157
 20
118.3547095260427
 30
0.0
 11
119.8013218495157
 21
118.3547095260427
 31
0.0
  0
LINE
  5
1AAB
330
18
100
AcDbEntity
  8
隠れ線2
 48
0.5
100
AcDbLine
 10
114.8013218495157
 20
115.8547095260427
 30
0.0
 11
119.8013218495157
 21
115.8547095260427
 31
0.0
  0
LINE
  5
1AAD
330
18
100
AcDbEntity
  8
外形線
100
AcDbLine
 10
121.801779426766
 20
121.024156701203
 30
0.0
 11
124.801779426766
 21
121.024156701203
 31
0.0
  0
LINE
  5
1AAE
330
18
100
AcDbEntity
  8
外形線
100
AcDbLine
 10
121.801779426766
 20
120.024156701203
 30
0.0
 11
124.801779426766
 21
120.024156701203
 31
0.0
  0
LINE
  5
1AAF
330
18
100
AcDbEntity
  8
外形線
100
AcDbLine
 10
121.801779426766
 20
119.024156701203
 30
0.0
 11
124.801779426766
 21
119.024156701203
 31
0.0
  0
LINE
  5
1AB0
330
18
100
AcDbEntity
  8
外形線
100
AcDbLine
 10
121.801779426766
 20
118.024156701203
 30
0.0
 11
124.801779426766
 21
118.024156701203
 31
0.0
  0
LINE
  5
1AB1
330
18
100
AcDbEntity
  8
外形線
100
AcDbLine
 10
121.801779426766
 20
121.524156701203
 30
0.0
 11
124.801779426766
 21
121.524156701203
 31
0.0
  0
LINE
  5
1AB2
330
18
100
AcDbEntity
  8
外形線
100
AcDbLine
 10
121.801779426766
 20
120.524156701203
 30
0.0
 11
124.801779426766
 21
120.524156701203
 31
0.0
  0
LINE
  5
1AB3
330
18
100
AcDbEntity
  8
外形線
100
AcDbLine
 10
121.801779426766
 20
119.524156701203
 30
0.0
 11
124.801779426766
 21
119.524156701203
 31
0.0
  0
LINE
  5
1AB4
330
18
100
AcDbEntity
  8
外形線
100
AcDbLine
 10
121.801779426766
 20
118.524156701203
 30
0.0
 11
124.801779426766
 21
118.524156701203
 31
0.0
  0
LINE
  5
1AE5
330
18
100
AcDbEntity
  8
隠れ線2
100
AcDbLine
 10
169.3013218495157
 20
161.3547095260427
 30
0.0
 11
256.8013218495157
 21
161.3547095260427
 31
0.0
  0
LINE
  5
1AE6
330
18
100
AcDbEntity
  8
隠れ線2
100
AcDbLine
 10
169.3013218495157
 20
137.8547095260427
 30
0.0
 11
256.8013218495157
 21
137.8547095260427
 31
0.0
  0
LINE
  5
1AF0
330
18
100
AcDbEntity
  8
隠れ線2
100
AcDbLine
 10
258.8013218495157
 20
159.3547095260427
 30
0.0
 11
258.8013218495157
 21
139.8547095260427
 31
0.0
  0
ARC
  5
1AF1
330
18
100
AcDbEntity
  8
隠れ線2
100
AcDbCircle
 10
256.8013218495157
 20
159.3547095260427
 30
0.0
 40
2.0
100
AcDbArc
 50
0.0
 51
89.99999999999994
  0
ARC
  5
1AF2
330
18
100
AcDbEntity
  8
隠れ線2
100
AcDbCircle
 10
256.8013218495157
 20
139.8547095260427
 30
0.0
 40
2.0
100
AcDbArc
 50
270.0
 51
0.0
  0
MTEXT
  5
31D4
330
18
100
AcDbEntity
  8
DEFPOINTS
  6
Continuous
100
AcDbMText
 10
1941.979128215745
 20
732.3565829646542
 30
0.0
 40
0.5
 41
0.0
 71
     4
 72
     1
  1
\A1;
 73
     1
 44
1.0
  0
MTEXT
  5
327B
330
18
100
AcDbEntity
  8
文字
 62
     6
100
AcDbMText
 10
637.2122791256511
 20
339.9419202573997
 30
0.0
 40
2.5
 41
0.0
 71
     4
 72
     1
  1
\A1;
  7
STYLE3
 73
     1
 44
1.0
  0
CIRCLE
  5
36E0
330
18
100
AcDbEntity
  8
外形線
100
AcDbCircle
 10
149.3013218495157
 20
192.6047095260427
 30
0.0
 40
0.5
  0
TEXT
  5
3872
330
18
100
AcDbEntity
  8
文字
100
AcDbText
 10
136.808264989099
 20
177.1309354169999
 30
0.0
 40
2.0
  1
.2
 50
0.030000000000189
  7
STYLE3
100
AcDbText
  0
TEXT
  5
3886
330
18
100
AcDbEntity
  8
文字
100
AcDbText
 10
141.8811880274298
 20
174.4913194864218
 30
0.0
 40
2.0
  1
.1
 50
0.030000000000189
  7
STYLE3
100
AcDbText
  0
TEXT
  5
3895
330
18
100
AcDbEntity
  8
文字
100
AcDbText
 10
130.8544942099228
 20
186.135770390984
 30
0.0
 40
2.0
  1
.4
 50
0.030000000000189
  7
STYLE3
100
AcDbText
  0
TEXT
  5
38A3
330
18
100
AcDbEntity
  8
文字
100
AcDbText
 10
133.6821996029902
 20
181.1564771968006
 30
0.0
 40
2.0
  1
.3
 50
0.030000000000189
  7
STYLE3
100
AcDbText
  0
TEXT
  5
38CE
330
18
100
AcDbEntity
  8
文字
100
AcDbText
 10
136.932491717747
 20
206.0137990595925
 30
0.0
 40
2.0
  1
.8
 50
0.030000000000189
  7
STYLE3
100
AcDbText
  0
TEXT
  5
38D3
330
18
100
AcDbEntity
  8
文字
100
AcDbText
 10
130.7792661400052
 20
197.2177324632016
 30
0.0
 40
2.0
  1
.6
 50
0.030000000000189
  7
STYLE3
100
AcDbText
  0
TEXT
  5
38E1
330
18
100
AcDbEntity
  8
文字
100
AcDbText
 10
133.2991941150105
 20
201.9388535927135
 30
0.0
 40
2.0
  1
.7
 50
0.030000000000189
  7
STYLE3
100
AcDbText
  0
TEXT
  5
3916
330
18
100
AcDbEntity
  8
文字
100
AcDbText
 10
142.2668080958381
 20
208.635935565352
 30
0.0
 40
2.0
  1
.9
 50
0.030000000000189
  7
STYLE3
100
AcDbText
  0
TEXT
  5
391C
330
18
100
AcDbEntity
  8
文字
100
AcDbText
 10
158.3986408485649
 20
177.3496467204414
 30
0.0
 40
2.0
  1
.8
 50
0.030000000000189
  7
STYLE3
100
AcDbText
  0
TEXT
  5
392D
330
18
100
AcDbEntity
  8
文字
100
AcDbText
 10
153.5513140356608
 20
175.0820595180102
 30
0.0
 40
2.0
  1
.9
 50
0.030000000000189
  7
STYLE3
100
AcDbText
  0
TEXT
  5
3938
330
18
100
AcDbEntity
  8
文字
100
AcDbText
 10
162.3784208189435
 20
181.1548410091637
 30
0.0
 40
2.0
  1
.7
 50
0.030000000000189
  7
STYLE3
100
AcDbText
  0
TEXT
  5
393A
330
18
100
AcDbEntity
  8
文字
100
AcDbText
 10
164.502076148566
 20
186.4145586650864
 30
0.0
 40
2.0
  1
.6
 50
0.030000000000189
  7
STYLE3
100
AcDbText
  0
TEXT
  5
3959
330
18
100
AcDbEntity
  8
文字
100
AcDbText
 10
162.215143395526
 20
202.2039171590488
 30
0.0
 40
2.0
  1
.3
 50
0.030000000000189
  7
STYLE3
100
AcDbText
  0
TEXT
  5
3979
330
18
100
AcDbEntity
  8
文字
100
AcDbText
 10
153.4050936086804
 20
208.7901335636167
 30
0.0
 40
2.0
  1
.1
 50
0.030000000000189
  7
STYLE3
100
AcDbText
  0
TEXT
  5
397C
330
18
100
AcDbEntity
  8
文字
100
AcDbText
 10
158.2441579849427
 20
206.0589441768913
 30
0.0
 40
2.0
  1
.2
 50
0.030000000000189
  7
STYLE3
100
AcDbText
  0
TEXT
  5
398F
330
18
100
AcDbEntity
  8
文字
100
AcDbText
 10
164.7460644433705
 20
197.1215735604352
 30
0.0
 40
2.0
  1
.4
 50
0.030000000000189
  7
STYLE3
100
AcDbText
  0
INSERT
  5
39BC
330
18
100
AcDbEntity
  8
外形線
100
AcDbBlockReference
  2
A$C3A4E6295
 10
143.3352118227501
 20
181.567980095707
 30
0.0
  0
LINE
  5
39BD
330
18
100
AcDbEntity
  8
中心線
100
AcDbLine
 10
149.3013218495157
 20
203.0279323816053
 30
0.0
 11
149.3013218495157
 21
118.1577702113662
 31
0.0
  0
LINE
  5
3A54
330
18
100
AcDbEntity
  8
外形線
100
AcDbLine
 10
152.0572878321652
 20
149.8975574282114
 30
0.0
 11
152.0572878321652
 21
138.596873184061
 31
0.0
  0
LINE
  5
3A55
330
18
100
AcDbEntity
  8
外形線
100
AcDbLine
 10
145.7953583978558
 20
149.8956089729031
 30
0.0
 11
145.7953583978559
 21
139.0955725265292
 31
0.0
  0
LINE
  5
3A56
330
18
100
AcDbEntity
  8
外形線
100
AcDbLine
 10
146.5453558668662
 20
149.8975574282114
 30
0.0
 11
146.5453558668662
 21
138.596873184061
 31
0.0
  0
LINE
  5
3A57
330
18
100
AcDbEntity
  8
外形線
100
AcDbLine
 10
152.8072853011756
 20
149.8956089729031
 30
0.0
 11
152.8072853011755
 21
139.0955725265293
 31
0.0
  0
LINE
  5
3A58
330
18
100
AcDbEntity
  8
中心線
 48
0.15
100
AcDbLine
 10
151.7988958018981
 20
141.6036327722126
 30
0.0
 11
146.8349231820624
 21
141.6036327722124
 31
0.0
  0
CIRCLE
  5
3A59
330
18
100
AcDbEntity
  8
外形線
100
AcDbCircle
 10
149.3169094919802
 20
141.6047297739597
 30
0.0
 40
1.25
  0
LINE
  5
3A5A
330
18
100
AcDbEntity
  8
外形線
100
AcDbLine
 10
146.2966556807348
 20
138.596873184061
 30
0.0
 11
149.3013218495157
 21
138.596873184061
 31
0.0
  0
LINE
  5
3A5B
330
18
100
AcDbEntity
  8
外形線
100
AcDbLine
 10
146.2966556807348
 20
138.596873184061
 30
0.0
 11
145.7953583978559
 21
139.0955725265292
 31
0.0
  0
LINE
  5
3A5C
330
18
100
AcDbEntity
  8
外形線
100
AcDbLine
 10
145.7953583978559
 20
139.0955725265291
 30
0.0
 11
146.5453558668662
 21
139.0975209818372
 31
0.0
  0
LINE
  5
3A5D
330
18
100
AcDbEntity
  8
外形線
100
AcDbLine
 10
152.8072853011755
 20
139.0955725265292
 30
0.0
 11
152.0572878321653
 21
139.0975209818372
 31
0.0
  0
LINE
  5
3A5E
330
18
100
AcDbEntity
  8
外形線
100
AcDbLine
 10
152.3059880182966
 20
138.596873184061
 30
0.0
 11
152.8072853011755
 21
139.0955725265292
 31
0.0
  0
LINE
  5
3A5F
330
18
100
AcDbEntity
  8
外形線
100
AcDbLine
 10
152.3059880182966
 20
138.596873184061
 30
0.0
 11
149.3013218495157
 21
138.596873184061
 31
0.0
  0
LINE
  5
3A60
330
18
100
AcDbEntity
  8
外形線
100
AcDbLine
 10
148.7494521311917
 20
141.0343162825263
 30
0.0
 11
149.8084659817817
 21
142.0988469939654
 31
0.0
  0
LINE
  5
3A61
330
18
100
AcDbEntity
  8
外形線
100
AcDbLine
 10
148.8114573303495
 20
142.1075624627922
 30
0.0
 11
149.8216061836028
 21
141.1026486399615
 31
0.0
  0
ARC
  5
3A62
330
18
100
AcDbEntity
  8
隠れ線2
100
AcDbCircle
 10
156.8581400313339
 20
229.5256019411145
 30
0.0
 40
80.0
100
AcDbArc
 50
262.1526636837458
 51
267.4517766332114
  0
LINE
  5
3A63
330
18
100
AcDbEntity
  8
外形線
100
AcDbLine
 10
149.0060318075769
 20
153.6789628786062
 30
0.0
 11
146.5453558668662
 21
149.8975574282114
 31
0.0
  0
LINE
  5
3A64
330
18
100
AcDbEntity
  8
外形線
100
AcDbLine
 10
147.5331421722827
 20
154.6001395077535
 30
0.0
 11
149.3013218495157
 21
154.6047331486924
 31
0.0
  0
ARC
  5
3A65
330
18
100
AcDbEntity
  8
外形線
100
AcDbCircle
 10
149.2844352368456
 20
154.104687590799
 30
0.0
 40
1.5
100
AcDbArc
 50
89.35496528373169
 51
160.6776305539149
  0
LINE
  5
3A66
330
18
100
AcDbEntity
  8
中心線
 48
0.15
100
AcDbLine
 10
151.7833081594335
 20
147.6036125242956
 30
0.0
 11
146.8193355395978
 21
147.6036125242954
 31
0.0
  0
CIRCLE
  5
3A67
330
18
100
AcDbEntity
  8
外形線
100
AcDbCircle
 10
149.3013218495157
 20
147.6047095260427
 30
0.0
 40
1.25
  0
LINE
  5
3A68
330
18
100
AcDbEntity
  8
外形線
100
AcDbLine
 10
147.5331421722827
 20
154.6001395077535
 30
0.0
 11
145.7953583978559
 21
149.8956089729031
 31
0.0
  0
LINE
  5
3A69
330
18
100
AcDbEntity
  8
外形線
100
AcDbLine
 10
145.7953583978559
 20
149.8956089729031
 30
0.0
 11
146.5453558668662
 21
149.8975574282114
 31
0.0
  0
LINE
  5
3A6A
330
18
100
AcDbEntity
  8
外形線
100
AcDbLine
 10
149.5966118914546
 20
153.6789628786062
 30
0.0
 11
152.0572878321652
 21
149.8975574282114
 31
0.0
  0
LINE
  5
3A6B
330
18
100
AcDbEntity
  8
外形線
100
AcDbLine
 10
151.0695015267487
 20
154.6001395077535
 30
0.0
 11
152.8072853011756
 21
149.8956089729031
 31
0.0
  0
LINE
  5
3A6C
330
18
100
AcDbEntity
  8
外形線
100
AcDbLine
 10
152.8072853011756
 20
149.8956089729031
 30
0.0
 11
152.0572878321652
 21
149.8975574282114
 31
0.0
  0
LINE
  5
3A6D
330
18
100
AcDbEntity
  8
外形線
100
AcDbLine
 10
148.7338644887272
 20
147.034296034609
 30
0.0
 11
149.7928783393168
 21
148.0988267460481
 31
0.0
  0
LINE
  5
3A6E
330
18
100
AcDbEntity
  8
外形線
100
AcDbLine
 10
148.795869687885
 20
148.1075422148748
 30
0.0
 11
149.8060185411382
 21
147.1026283920442
 31
0.0
  0
ARC
  5
3A6F
330
18
100
AcDbEntity
  8
外形線
100
AcDbCircle
 10
149.2861888466228
 20
153.4296898686896
 30
0.0
 40
0.375
100
AcDbArc
 50
87.68721945737693
 51
138.3385362926158
  0
ARC
  5
3A70
330
18
100
AcDbEntity
  8
外形線
100
AcDbCircle
 10
149.3164548524086
 20
153.4296898686896
 30
0.0
 40
0.375
100
AcDbArc
 50
41.6614637073841
 51
92.31278054262299
  0
ARC
  5
3A71
330
18
100
AcDbEntity
  8
外形線
100
AcDbCircle
 10
149.3182084621858
 20
154.104687590799
 30
0.0
 40
1.5
100
AcDbArc
 50
19.32236944608503
 51
90.64503471626823
  0
LINE
  5
3A72
330
18
100
AcDbEntity
  8
外形線
100
AcDbLine
 10
151.0695015267487
 20
154.6001395077535
 30
0.0
 11
149.3013218495157
 21
154.6047331486924
 31
0.0
  0
ARC
  5
3CDA
330
18
100
AcDbEntity
  8
外形線
100
AcDbCircle
 10
170.8013218495157
 20
149.5842477919987
 30
0.0
 40
32.0
100
AcDbArc
 50
229.771815271939
 51
249.8491875103837
  0
ARC
  5
3CDB
330
18
100
AcDbEntity
  8
外形線
100
AcDbCircle
 10
178.3013218495157
 20
149.6047095260427
 30
0.0
 40
25.0
100
AcDbArc
 50
180.0
 51
242.7686028854997
  0
LINE
  5
3CDF
330
18
100
AcDbEntity
  8
中心線
100
AcDbLine
 10
149.3013218495157
 20
159.2469624789356
 30
0.0
 11
149.3013218495157
 21
135.7611742949121
 31
0.0
  0
ARC
  5
3CE4
330
18
100
AcDbEntity
  8
外形線
100
AcDbCircle
 10
124.3013218495157
 20
94.61380118657263
 30
0.0
 40
40.0
100
AcDbArc
 50
49.77181527193889
 51
105.2575232904564
  0
ARC
  5
3CE5
330
18
100
AcDbEntity
  8
外形線
100
AcDbCircle
 10
124.3013218495157
 20
94.61380118657263
 30
0.0
 40
40.0
100
AcDbArc
 50
49.77181527193889
 51
105.2575232904564
  0
LINE
  5
3CE6
330
18
100
AcDbEntity
  8
外形線
100
AcDbLine
 10
39.30132184951572
 20
140.1047095260427
 30
0.0
 11
107.4664146618046
 21
132.7040256460192
 31
0.0
  0
ARC
  5
3CF9
330
18
100
AcDbEntity
  8
外形線
100
AcDbCircle
 10
109.3013218495157
 20
149.6047095260427
 30
0.0
 40
17.0
100
AcDbArc
 50
263.8036676732905
 51
285.2575232904563
  0
POINT
  5
3CFD
330
18
100
AcDbEntity
  8
DEFPOINTS
  6
ByBlock
 62
     0
100
AcDbPoint
 10
135.5903564440108
 20
132.9877206882901
 30
0.0
  0
LINE
  5
3D02
330
18
100
AcDbEntity
  8
外形線
100
AcDbLine
 10
39.30132184951572
 20
140.1047095260427
 30
0.0
 11
27.50132184951571
 21
140.1047095260427
 31
0.0
  0
LINE
  5
3D03
330
18
100
AcDbEntity
  8
外形線
100
AcDbLine
 10
44.30132184951571
 20
143.6047095260427
 30
0.0
 11
27.50132184951571
 21
143.6047095260427
 31
0.0
  0
LINE
  5
3D12
330
18
100
AcDbEntity
  8
外形線
100
AcDbLine
 10
27.50132184951573
 20
143.6047095260427
 30
0.0
 11
27.50132184951571
 21
140.1047095260427
 31
0.0
  0
POINT
  5
3D13
330
18
100
AcDbEntity
  8
DEFPOINTS
  6
ByBlock
 62
     0
100
AcDbPoint
 10
27.50132184951571
 20
135.6047095260427
 30
0.0
  0
ARC
  5
3D22
330
18
100
AcDbEntity
  8
外形線
100
AcDbCircle
 10
87.09771853834121
 20
155.6047095260427
 30
0.0
 40
10.0
100
AcDbArc
 50
272.6612286849181
 51
344.878334685091
  0
LINE
  5
3D23
330
18
100
AcDbEntity
  8
外形線
100
AcDbLine
 10
97.30132184951571
 20
154.6047095260427
 30
0.0
 11
86.30890588269588
 21
172.7897411074669
 31
0.0
  0
ARC
  5
3D24
330
18
100
AcDbEntity
  8
外形線
100
AcDbCircle
 10
89.30420004775504
 20
174.6003246776903
 30
0.0
 40
3.5
100
AcDbArc
 50
38.87802448840475
 51
211.1519566235569
  0
LINE
  5
3D25
330
18
100
AcDbEntity
  8
中心線
 48
0.3
100
AcDbLine
 10
81.98890903362675
 20
174.6003246776903
 30
0.0
 11
96.52939308002295
 21
174.6003246776903
 31
0.0
  0
LINE
  5
3D28
330
18
100
AcDbEntity
  8
外形線
100
AcDbLine
 10
44.30132184951571
 20
143.6047095260427
 30
0.0
 11
87.5620235791399
 21
145.6154943001559
 31
0.0
  0
LINE
  5
3D2A
330
18
100
AcDbEntity
  8
中心線
 48
0.3
100
AcDbLine
 10
89.30420004775504
 20
181.9156156918186
 30
0.0
 11
89.30420004775504
 21
167.285033663562
 31
0.0
  0
ARC
  5
3D32
330
18
100
AcDbEntity
  8
外形線
100
AcDbCircle
 10
156.8581400313339
 20
229.5256019411146
 30
0.0
 40
80.0
100
AcDbArc
 50
239.2452963669687
 51
262.1526636837458
  0
POINT
  5
3D38
330
18
100
AcDbEntity
  8
DEFPOINTS
  6
ByBlock
 62
     0
100
AcDbPoint
 10
101.7923242624256
 20
147.1501311025502
 30
0.0
  0
ARC
  5
3D39
330
18
100
AcDbEntity
  8
外形線
100
AcDbCircle
 10
109.3013218495157
 20
149.6047095260427
 30
0.0
 40
13.0
100
AcDbArc
 50
157.3801350519596
 51
164.878334685091
  0
POINT
  5
3D3B
330
18
100
AcDbEntity
  8
DEFPOINTS
  6
ByBlock
 62
     0
100
AcDbPoint
 10
116.8103194366058
 20
152.0592879495351
 30
0.0
  0
ARC
  5
3D3D
330
18
100
AcDbEntity
  8
外形線
100
AcDbCircle
 10
109.3013218495157
 20
149.6047095260427
 30
0.0
 40
13.0
100
AcDbArc
 50
59.24529636696863
 51
112.7030905075487
  0
LINE
  5
3D3E
330
18
100
AcDbEntity
  8
外形線
100
AcDbLine
 10
104.2838964100482
 20
161.5974340688388
 30
0.0
 11
92.02889384961594
 21
176.7971504983007
 31
0.0
  0
POINT
  5
3D3F
330
18
100
AcDbEntity
  8
DEFPOINTS
  6
ByBlock
 62
     0
100
AcDbPoint
 10
104.2838964100482
 20
161.5974340688388
 30
0.0
  0
POINT
  5
3D40
330
18
100
AcDbEntity
  8
DEFPOINTS
  6
ByBlock
 62
     0
100
AcDbPoint
 10
109.3013218495157
 20
178.8259258220469
 30
0.0
  0
LINE
  5
3D42
330
18
100
AcDbEntity
  8
中心線
 48
0.2
100
AcDbLine
 10
129.3013218495157
 20
151.5825425975413
 30
0.0
 11
129.3013218495157
 21
143.626876454544
 31
0.0
  0
CIRCLE
  5
3D43
330
18
100
AcDbEntity
  8
外形線
100
AcDbCircle
 10
129.3013218495157
 20
147.6047095260427
 30
0.0
 40
1.199999999999999
  0
LINE
  5
3D44
330
18
100
AcDbEntity
  8
中心線
 48
0.2
100
AcDbLine
 10
133.2791549210143
 20
147.6047095260427
 30
0.0
 11
125.323488778017
 21
147.6047095260427
 31
0.0
  0
POINT
  5
3D46
330
18
100
AcDbEntity
  8
DEFPOINTS
  6
ByBlock
 62
     0
100
AcDbPoint
 10
129.3438757102899
 20
154.4059290260138
 30
0.0
  0
LINE
  5
3D4A
330
18
100
AcDbEntity
  8
中心線
 48
0.15
100
AcDbLine
 10
151.7833081594335
 20
147.6036125242956
 30
0.0
 11
146.8193355395978
 21
147.6036125242954
 31
0.0
  0
LINE
  5
3D4C
330
18
100
AcDbEntity
  8
中心線
 48
0.15
100
AcDbLine
 10
151.7988958018981
 20
141.6036327722126
 30
0.0
 11
146.8349231820624
 21
141.6036327722124
 31
0.0
  0
POINT
  5
3D50
330
18
100
AcDbEntity
  8
DEFPOINTS
  6
ByBlock
 62
     0
100
AcDbPoint
 10
151.7833081594335
 20
147.6036125242956
 30
0.0
  0
ARC
  5
3D61
330
18
100
AcDbEntity
  8
外形線
100
AcDbCircle
 10
189.3013218495157
 20
102.6047095260427
 30
0.0
 40
2.5
100
AcDbArc
 50
222.2824191148309
 51
29.80354444942412
  0
ARC
  5
3D63
330
18
100
AcDbEntity
  8
外形線
100
AcDbCircle
 10
139.4065761538931
 20
74.02562010791829
 30
0.0
 40
60.0
100
AcDbArc
 50
29.80354444942442
 51
62.76860288549971
  0
ARC
  5
3D64
330
18
100
AcDbEntity
  8
外形線
100
AcDbCircle
 10
135.6630980077803
 20
53.82775858501026
 30
0.0
 40
70.0
100
AcDbArc
 50
42.28241911483141
 51
69.84918751038363
  0
POINT
  5
3D69
330
18
100
AcDbEntity
  8
DEFPOINTS
  6
ByBlock
 62
     0
100
AcDbPoint
 10
167.0323703691058
 20
116.4054602967301
 30
0.0
  0
LINE
  5
4000
330
18
100
AcDbEntity
  8
外形線
100
AcDbLine
 10
114.8013218495157
 20
82.6047095260427
 30
0.0
 11
103.8013218495157
 21
82.60470952604269
 31
0.0
  0
LINE
  5
4004
330
18
100
AcDbEntity
  8
中心線
 48
0.2
100
AcDbLine
 10
119.8013218495157
 20
117.1047095260427
 30
0.0
 11
126.4735519343203
 21
117.1047095260427
 31
0.0
  0
LINE
  5
4006
330
18
100
AcDbEntity
  8
寸法線
100
AcDbLine
 10
119.8013218495157
 20
118.3547095260427
 30
0.0
 11
121.801779426766
 21
118.3547095260426
 31
0.0
  0
LINE
  5
4007
330
18
100
AcDbEntity
  8
外形線
100
AcDbLine
 10
119.8013218495157
 20
118.6047095260427
 30
0.0
 11
121.801779426766
 21
118.6047095260427
 31
0.0
  0
LINE
  5
4008
330
18
100
AcDbEntity
  8
寸法線
100
AcDbLine
 10
119.8013218495157
 20
115.8547095260427
 30
0.0
 11
121.801779426766
 21
115.8547095260427
 31
0.0
  0
LINE
  5
4009
330
18
100
AcDbEntity
  8
外形線
100
AcDbLine
 10
119.8013218495157
 20
115.6047095260427
 30
0.0
 11
121.801779426766
 21
115.6047095260427
 31
0.0
  0
LINE
  5
407D
330
18
100
AcDbEntity
  8
中心線
 48
0.15
100
AcDbLine
 10
101.3013218495157
 20
130.8473751316617
 30
0.0
 11
101.3013218495157
 21
123.3620439204236
 31
0.0
  0
LINE
  5
407E
330
18
100
AcDbEntity
  8
中心線
 48
0.15
100
AcDbLine
 10
97.53115531158989
 20
127.1047095260427
 30
0.0
 11
105.0439874551347
 21
127.1047095260427
 31
0.0
  0
LINE
  5
407F
330
18
100
AcDbEntity
  8
中心線
 48
0.15
100
AcDbLine
 10
117.3013218495157
 20
130.8473751316617
 30
0.0
 11
117.3013218495157
 21
123.3620439204236
 31
0.0
  0
LINE
  5
4080
330
18
100
AcDbEntity
  8
中心線
 48
0.15
100
AcDbLine
 10
113.5311553115899
 20
127.1047095260427
 30
0.0
 11
121.0439874551347
 21
127.1047095260427
 31
0.0
  0
LINE
  5
4081
330
18
100
AcDbEntity
  8
中心線
 48
0.15
100
AcDbLine
 10
117.3013218495157
 20
110.8473751316617
 30
0.0
 11
117.3013218495157
 21
103.3620439204236
 31
0.0
  0
LINE
  5
4082
330
18
100
AcDbEntity
  8
中心線
 48
0.15
100
AcDbLine
 10
113.5311553115899
 20
107.1047095260427
 30
0.0
 11
121.0439874551347
 21
107.1047095260427
 31
0.0
  0
LINE
  5
4083
330
18
100
AcDbEntity
  8
隠れ線2
100
AcDbLine
 10
103.8013218495157
 20
112.1047095260427
 30
0.0
 11
105.4283385033083
 21
112.1047095260427
 31
0.0
  0
LINE
  5
4084
330
18
100
AcDbEntity
  8
隠れ線2
100
AcDbLine
 10
103.8013218495157
 20
107.1047095260427
 30
0.0
 11
114.8013218495157
 21
107.1047095260427
 31
0.0
  0
LINE
  5
4085
330
18
100
AcDbEntity
  8
外形線
100
AcDbLine
 10
103.8013218495157
 20
102.1047095260427
 30
0.0
 11
114.8013218495157
 21
102.1047095260427
 31
0.0
  0
LINE
  5
4088
330
18
100
AcDbEntity
  8
隠れ線2
100
AcDbLine
 10
113.1743051957231
 20
112.1047095260427
 30
0.0
 11
114.8013218495157
 21
112.1047095260427
 31
0.0
  0
LINE
  5
4089
330
18
100
AcDbEntity
  8
外形線
100
AcDbLine
 10
105.4283385033083
 20
112.1047095260427
 30
0.0
 11
113.1743051957231
 21
112.1047095260427
 31
0.0
  0
TEXT
  5
408A
330
18
100
AcDbEntity
  8
外形線
100
AcDbText
 10
107.1763924772917
 20
112.4216996467652
 30
0.0
 40
2.2
  1
20
  7
STYLE3
100
AcDbText
  0
CIRCLE
  5
408B
330
18
100
AcDbEntity
  8
外形線
100
AcDbCircle
 10
109.3013218495157
 20
149.6047095260427
 30
0.0
 40
8.0
  0
LINE
  5
408C
330
18
100
AcDbEntity
  8
中心線
 48
0.2
100
AcDbLine
 10
128.8013218495157
 20
151.452538873593
 30
0.0
 11
128.8013218495157
 21
142.5568801784924
 31
0.0
  0
LINE
  5
408D
330
18
100
AcDbEntity
  8
中心線
 48
0.2
100
AcDbLine
 10
133.249151197066
 20
147.0047095260427
 30
0.0
 11
124.3534925019654
 21
147.0047095260427
 31
0.0
  0
CIRCLE
  5
408E
330
18
100
AcDbEntity
  8
隠れ線2
100
AcDbCircle
 10
128.8013218495157
 20
147.0047095260427
 30
0.0
 40
2.1
  0
LINE
  5
409E
330
18
100
AcDbEntity
  8
外形線
100
AcDbLine
 10
169.3013218495157
 20
137.9047095260427
 30
0.0
 11
156.2081102224118
 21
137.9047095260427
 31
0.0
  0
ARC
  5
40A1
330
18
100
AcDbEntity
  8
隠れ線2
100
AcDbCircle
 10
130.7218285463584
 20
122.9047095260427
 30
0.0
 40
15.0
100
AcDbArc
 50
90.0
 51
129.4149731084535
  0
ARC
  5
40A2
330
18
100
AcDbEntity
  8
隠れ線2
100
AcDbCircle
 10
109.3013218495157
 20
149.6047095260427
 30
0.0
 40
13.0
100
AcDbArc
 50
148.8603805845132
 51
195.3202783335476
  0
LINE
  5
40A3
330
18
100
AcDbEntity
  8
外形線
100
AcDbLine
 10
101.3013218495157
 20
129.6047095260427
 30
0.0
 11
100.2372509621127
 21
133.4888959227411
 31
0.0
  0
LINE
  5
40BA
330
18
100
AcDbEntity
  8
隠れ線2
100
AcDbLine
 10
98.17449571479968
 20
156.3273384885692
 30
0.0
 11
102.6116819550996
 21
163.6714593821039
 31
0.0
  0
LINE
  5
40BC
330
18
100
AcDbEntity
  8
隠れ線2
100
AcDbLine
 10
123.5168446110725
 20
198.2722251669745
 30
0.0
 11
127.9035792827541
 21
205.532842146286
 31
0.0
  0
ARC
  5
40BF
330
18
100
AcDbEntity
  8
隠れ線2
 48
0.4
100
AcDbCircle
 10
172.7200643435097
 20
169.3547095260427
 30
0.0
 40
8.0
100
AcDbArc
 50
135.2071662976332
 51
165.471196197088
  0
ARC
  5
40C1
330
18
100
AcDbEntity
  8
外形線
100
AcDbCircle
 10
172.7200643435097
 20
169.3547095260427
 30
0.0
 40
8.0
100
AcDbArc
 50
165.471196197088
 51
244.7009538862748
  0
LINE
  5
40C2
330
18
100
AcDbEntity
  8
中心線
 48
0.2
100
AcDbLine
 10
119.3013218495157
 20
186.3181945949121
 30
0.0
 11
119.3013218495157
 21
177.8912244571733
 31
0.0
  0
LINE
  5
40C3
330
18
100
AcDbEntity
  8
中心線
 48
0.2
100
AcDbLine
 10
123.5148069183851
 20
182.1047095260427
 30
0.0
 11
115.0878367806463
 21
182.1047095260427
 31
0.0
  0
LINE
  5
40C5
330
18
100
AcDbEntity
  8
外形線
100
AcDbLine
 10
28.05132184951572
 20
134.6047095260427
 30
0.0
 11
30.55132184951572
 21
134.6047095260427
 31
0.0
  0
LINE
  5
40C6
330
18
100
AcDbEntity
  8
外形線
100
AcDbLine
 10
30.55132184951572
 20
134.6047095260427
 30
0.0
 11
30.55132184951572
 21
135.6047095260427
 31
0.0
  0
LINE
  5
40C7
330
18
100
AcDbEntity
  8
外形線
100
AcDbLine
 10
28.05132184951572
 20
134.6047095260427
 30
0.0
 11
28.05132184951572
 21
135.6047095260427
 31
0.0
  0
LINE
  5
40C8
330
18
100
AcDbEntity
  8
中心線
 48
0.1
100
AcDbLine
 10
27.8177746504058
 20
132.6047095260427
 30
0.0
 11
30.78486904862564
 21
132.6047095260427
 31
0.0
  0
ARC
  5
40C9
330
18
100
AcDbEntity
  8
外形線
100
AcDbCircle
 10
29.30132184951572
 20
132.6047095260427
 30
0.0
 40
0.5
100
AcDbArc
 50
180.0
 51
0.0
  0
LINE
  5
40CA
330
18
100
AcDbEntity
  8
外形線
100
AcDbLine
 10
29.80132184951571
 20
132.6047095260427
 30
0.0
 11
29.80132184951571
 21
134.3047095260426
 31
0.0
  0
LINE
  5
40CB
330
18
100
AcDbEntity
  8
外形線
100
AcDbLine
 10
28.80132184951572
 20
132.6047095260427
 30
0.0
 11
28.80132184951572
 21
134.3047095260426
 31
0.0
  0
ARC
  5
40CD
330
18
100
AcDbEntity
  8
外形線
100
AcDbCircle
 10
30.10132184951573
 20
134.3047095260426
 30
0.0
 40
0.3
100
AcDbArc
 50
90.0
 51
180.0
  0
ARC
  5
40CE
330
18
100
AcDbEntity
  8
外形線
100
AcDbCircle
 10
28.50132184951571
 20
134.3047095260426
 30
0.0
 40
0.3
100
AcDbArc
 50
0.0000000000000799
 51
90.0
  0
LINE
  5
40CF
330
18
100
AcDbEntity
  8
隠れ線2
 48
0.3
100
AcDbLine
 10
28.30132184951572
 20
143.6047095260427
 30
0.0
 11
28.30132184951572
 21
140.1047095260427
 31
0.0
  0
LINE
  5
40D0
330
18
100
AcDbEntity
  8
隠れ線2
 48
0.3
100
AcDbLine
 10
30.30132184951572
 20
143.6047095260427
 30
0.0
 11
30.30132184951572
 21
140.1047095260427
 31
0.0
  0
LINE
  5
40D2
330
18
100
AcDbEntity
  8
隠れ線2
 48
0.3
100
AcDbLine
 10
28.70132184951572
 20
143.6047095260427
 30
0.0
 11
28.70132184951572
 21
140.1047095260427
 31
0.0
  0
LINE
  5
40D3
330
18
100
AcDbEntity
  8
隠れ線2
 48
0.3
100
AcDbLine
 10
29.90132184951571
 20
143.6047095260427
 30
0.0
 11
29.90132184951571
 21
140.1047095260427
 31
0.0
  0
LINE
  5
40D4
330
18
100
AcDbEntity
  8
中心線
 48
0.5
100
AcDbLine
 10
29.30132184951572
 20
156.7659781459933
 30
0.0
 11
29.30132184951572
 21
129.579907449003
 31
0.0
  0
ARC
  5
40D7
330
18
100
AcDbEntity
  8
外形線
100
AcDbCircle
 10
130.7218285463584
 20
122.9047095260427
 30
0.0
 40
15.0
100
AcDbArc
 50
129.4149731084535
 51
153.4699789819889
  0
LINE
  5
40D8
330
18
100
AcDbEntity
  8
隠れ線2
100
AcDbLine
 10
156.2081102224118
 20
137.9047095260427
 30
0.0
 11
130.7218285463584
 21
137.9047095260427
 31
0.0
  0
LINE
  5
40DA
330
18
100
AcDbEntity
  8
隠れ線2
100
AcDbLine
 10
100.2372509621127
 20
133.4888959227412
 30
0.0
 11
96.76329027688082
 21
146.1699221550966
 31
0.0
  0
LINE
  5
40DC
330
18
100
AcDbEntity
  8
外形線
100
AcDbLine
 10
102.6116819550997
 20
163.6714593821039
 30
0.0
 11
123.5168446110725
 21
198.2722251669744
 31
0.0
  0
LINE
  5
40DD
330
18
100
AcDbEntity
  8
中心線
100
AcDbLine
 10
82.78117821861881
 20
172.9684592439482
 30
0.0
 11
125.6565319943597
 21
183.694593483385
 31
0.0
  0
LINE
  5
40E0
330
18
100
AcDbEntity
  8
寸法線
100
AcDbLine
 10
92.72210659958815
 20
177.3108547589652
 30
0.0
 11
115.9541953191962
 21
183.1228301789795
 31
0.0
  0
LINE
  5
40E1
330
18
100
AcDbEntity
  8
寸法線
100
AcDbLine
 10
93.59579415373906
 20
173.8184816320325
 30
0.0
 11
116.8278828733471
 21
179.6304570520468
 31
0.0
  0
LINE
  5
40E2
330
18
100
AcDbEntity
  8
寸法線
100
AcDbLine
 10
92.72210659958819
 20
177.3108547589652
 30
0.0
 11
93.59579415373906
 21
173.8184816320325
 31
0.0
  0
LINE
  5
40E4
330
18
100
AcDbEntity
  8
中心線
100
AcDbLine
 10
91.58681136250413
 20
176.7175924574805
 30
0.0
 11
117.0330445754706
 21
183.0834807661323
 31
0.0
  0
LINE
  5
40E5
330
18
100
AcDbEntity
  8
中心線
100
AcDbLine
 10
92.31488432429655
 20
173.80728151837
 30
0.0
 11
117.761117537263
 21
180.1731698270217
 31
0.0
  0
LINE
  5
40E7
330
18
100
AcDbEntity
  8
寸法線
100
AcDbLine
 10
115.9541953191963
 20
183.1228301789794
 30
0.0
 11
116.8278828733471
 21
179.6304570520467
 31
0.0
  0
LINE
  5
41C8
330
18
100
AcDbEntity
  8
外形線
100
AcDbLine
 10
39.30132184951572
 20
139.1047095260427
 30
0.0
 11
27.50132184951571
 21
139.1047095260427
 31
0.0
  0
LINE
  5
41C9
330
18
100
AcDbEntity
  8
外形線
100
AcDbLine
 10
78.30132184951572
 20
135.6047095260427
 30
0.0
 11
27.50132184951571
 21
135.6047095260427
 31
0.0
  0
LINE
  5
41CB
330
18
100
AcDbEntity
  8
外形線
100
AcDbLine
 10
27.50132184951571
 20
139.1047095260427
 30
0.0
 11
27.50132184951571
 21
135.6047095260427
 31
0.0
  0
LINE
  5
41CD
330
18
100
AcDbEntity
  8
外形線
100
AcDbLine
 10
97.80132184951572
 20
129.6047095260427
 30
0.0
 11
95.03761735641342
 21
134.0534201245008
 31
0.0
  0
LINE
  5
41CE
330
18
100
AcDbEntity
  8
外形線
100
AcDbLine
 10
97.30132184951571
 20
104.6047095260427
 30
0.0
 11
83.68398970167266
 21
132.255537093682
 31
0.0
  0
LINE
  5
41D1
330
18
100
AcDbEntity
  8
外形線
100
AcDbLine
 10
39.30132184951572
 20
139.1047095260427
 30
0.0
 11
43.1112695879807
 21
139.6910635138611
 31
0.0
  0
ARC
  5
41D5
330
18
100
AcDbEntity
  8
外形線
100
AcDbCircle
 10
78.30132184951572
 20
129.6047095260427
 30
0.0
 40
6.0
100
AcDbArc
 50
26.21907817012319
 51
90.0
  0
ARC
  5
41DA
330
18
100
AcDbEntity
  8
隠れ線2
100
AcDbCircle
 10
82.30132184951571
 20
135.6047095260427
 30
0.0
 40
10.0
100
AcDbArc
 50
31.8500878986124
 51
79.97128973923745
  0
LINE
  5
41E0
330
18
100
AcDbEntity
  8
外形線
100
AcDbLine
 10
103.8013218495157
 20
129.6047095260427
 30
0.0
 11
103.8013218495157
 21
104.6047095260427
 31
0.0
  0
LINE
  5
41E5
330
18
100
AcDbEntity
  8
外形線
100
AcDbLine
 10
99.30132184951572
 20
104.6047095260427
 30
0.0
 11
103.8013218495157
 21
104.6047095260427
 31
0.0
  0
LINE
  5
41E6
330
18
100
AcDbEntity
  8
外形線
100
AcDbLine
 10
97.30132184951571
 20
104.6047095260427
 30
0.0
 11
99.30132184951572
 21
104.6047095260427
 31
0.0
  0
POINT
  5
41E7
330
18
100
AcDbEntity
  8
DEFPOINTS
  6
ByBlock
 62
     0
100
AcDbPoint
 10
103.8013218495157
 20
104.6047095260427
 30
0.0
  0
POINT
  5
41E9
330
18
100
AcDbEntity
  8
DEFPOINTS
  6
ByBlock
 62
     0
100
AcDbPoint
 10
103.4199901516724
 20
107.1047095260427
 30
0.0
  0
POINT
  5
41EA
330
18
100
AcDbEntity
  8
DEFPOINTS
  6
ByBlock
 62
     0
100
AcDbPoint
 10
103.4199901516724
 20
107.1047095260427
 30
0.0
  0
POINT
  5
4202
330
18
100
AcDbEntity
  8
DEFPOINTS
  6
ByBlock
 62
     0
100
AcDbPoint
 10
101.8809758564203
 20
127.9195722336686
 30
0.0
  0
POINT
  5
4204
330
18
100
AcDbEntity
  8
DEFPOINTS
  6
ByBlock
 62
     0
100
AcDbPoint
 10
103.4199901516724
 20
127.1047095260427
 30
0.0
  0
POINT
  5
4205
330
18
100
AcDbEntity
  8
DEFPOINTS
  6
ByBlock
 62
     0
100
AcDbPoint
 10
103.8013218495157
 20
127.1047095260427
 30
0.0
  0
LINE
  5
4207
330
18
100
AcDbEntity
  8
外形線
100
AcDbLine
 10
103.8013218495157
 20
129.6047095260427
 30
0.0
 11
97.80132184951572
 21
129.6047095260427
 31
0.0
  0
POINT
  5
4208
330
18
100
AcDbEntity
  8
DEFPOINTS
  6
ByBlock
 62
     0
100
AcDbPoint
 10
97.80132184951572
 20
129.6047095260427
 30
0.0
  0
LINE
  5
4209
330
18
100
AcDbEntity
  8
外形線
100
AcDbLine
 10
97.80132184951572
 20
129.6047095260427
 30
0.0
 11
99.30132184951572
 21
129.6047095260427
 31
0.0
  0
POINT
  5
420A
330
18
100
AcDbEntity
  8
DEFPOINTS
  6
ByBlock
 62
     0
100
AcDbPoint
 10
103.8013218495157
 20
129.6047095260427
 30
0.0
  0
POINT
  5
420B
330
18
100
AcDbEntity
  8
DEFPOINTS
  6
ByBlock
 62
     0
100
AcDbPoint
 10
103.8013218495157
 20
129.6047095260427
 30
0.0
  0
POINT
  5
420C
330
18
100
AcDbEntity
  8
DEFPOINTS
  6
ByBlock
 62
     0
100
AcDbPoint
 10
103.8013218495157
 20
129.6047095260427
 30
0.0
  0
POINT
  5
42BA
330
18
100
AcDbEntity
  8
DEFPOINTS
  6
ByBlock
 62
     0
100
AcDbPoint
 10
97.30132184951571
 20
104.6047095260427
 30
0.0
  0
ARC
  5
42BD
330
18
100
AcDbEntity
  8
外形線
100
AcDbCircle
 10
28.50132184951571
 20
144.9047095260427
 30
0.0
 40
0.3
100
AcDbArc
 50
270.0
 51
0.0
  0
LINE
  5
42BE
330
18
100
AcDbEntity
  8
中心線
 48
0.1
100
AcDbLine
 10
30.78486904862564
 20
146.6047095260427
 30
0.0
 11
27.8177746504058
 21
146.6047095260427
 31
0.0
  0
LINE
  5
42BF
330
18
100
AcDbEntity
  8
外形線
100
AcDbLine
 10
30.55132184951572
 20
144.6047095260427
 30
0.0
 11
28.05132184951572
 21
144.6047095260427
 31
0.0
  0
LINE
  5
42C0
330
18
100
AcDbEntity
  8
外形線
100
AcDbLine
 10
28.05132184951572
 20
144.6047095260427
 30
0.0
 11
28.05132184951572
 21
143.6047095260427
 31
0.0
  0
POINT
  5
42C1
330
18
100
AcDbEntity
  8
DEFPOINTS
  6
ByBlock
 62
     0
100
AcDbPoint
 10
27.50132184951571
 20
143.6047095260427
 30
0.0
  0
POINT
  5
42C2
330
18
100
AcDbEntity
  8
DEFPOINTS
  6
ByBlock
 62
     0
100
AcDbPoint
 10
27.50132184951571
 20
143.6047095260427
 30
0.0
  0
ARC
  5
42C3
330
18
100
AcDbEntity
  8
外形線
100
AcDbCircle
 10
30.10132184951573
 20
144.9047095260427
 30
0.0
 40
0.3
100
AcDbArc
 50
180.0
 51
270.0
  0
LINE
  5
42C4
330
18
100
AcDbEntity
  8
外形線
100
AcDbLine
 10
29.80132184951571
 20
146.6047095260427
 30
0.0
 11
29.80132184951571
 21
144.9047095260427
 31
0.0
  0
LINE
  5
42C5
330
18
100
AcDbEntity
  8
外形線
100
AcDbLine
 10
28.80132184951572
 20
146.6047095260427
 30
0.0
 11
28.80132184951572
 21
144.9047095260427
 31
0.0
  0
ARC
  5
42C6
330
18
100
AcDbEntity
  8
外形線
100
AcDbCircle
 10
29.30132184951572
 20
146.6047095260427
 30
0.0
 40
0.5
100
AcDbArc
 50
0.0
 51
180.0
  0
LINE
  5
42C7
330
18
100
AcDbEntity
  8
外形線
100
AcDbLine
 10
30.55132184951572
 20
144.6047095260427
 30
0.0
 11
30.55132184951572
 21
143.6047095260427
 31
0.0
  0
DIMENSION
  5
42D6
330
18
100
AcDbEntity
  8
寸法線
100
AcDbDimension
  2
*D40
 10
20.67819554125378
 20
132.1047095260427
 30
0.0
 11
18.80319554125376
 21
139.6047095260427
 31
0.0
 70
    32
 71
     5
 42
15.00000000000003
  3
STYLE3
100
AcDbAlignedDimension
 13
29.30132184951572
 23
147.1047095260427
 33
0.0
 14
29.30132184951572
 24
132.1047095260427
 34
0.0
 50
90.0
100
AcDbRotatedDimension
1001
ACAD
1000
DSTYLE
1002
{
1070
   271
1070
     2
1002
}
  0
LINE
  5
42D7
330
18
100
AcDbEntity
  8
中心線
 48
0.1
100
AcDbLine
 10
30.78486904862564
 20
151.6047095260427
 30
0.0
 11
27.8177746504058
 21
151.6047095260427
 31
0.0
  0
ARC
  5
42D8
330
18
100
AcDbEntity
  8
想像線
100
AcDbCircle
 10
29.30132184951572
 20
151.6047095260427
 30
0.0
 40
0.5
100
AcDbArc
 50
0.0
 51
180.0
  0
LINE
  5
42D9
330
18
100
AcDbEntity
  8
想像線
100
AcDbLine
 10
29.80132184951571
 20
151.6047095260427
 30
0.0
 11
29.80132184951571
 21
149.9047095260427
 31
0.0
  0
LINE
  5
42DA
330
18
100
AcDbEntity
  8
想像線
100
AcDbLine
 10
28.80132184951572
 20
151.6047095260427
 30
0.0
 11
28.80132184951572
 21
149.9047095260427
 31
0.0
  0
LINE
  5
42DC
330
18
100
AcDbEntity
  8
隠れ線2
 48
0.3
100
AcDbLine
 10
28.70132184951572
 20
139.1047095260427
 30
0.0
 11
28.70132184951572
 21
135.6047095260427
 31
0.0
  0
LINE
  5
42DD
330
18
100
AcDbEntity
  8
隠れ線2
 48
0.3
100
AcDbLine
 10
28.30132184951572
 20
139.1047095260427
 30
0.0
 11
28.30132184951572
 21
135.6047095260427
 31
0.0
  0
LINE
  5
42DE
330
18
100
AcDbEntity
  8
隠れ線2
 48
0.3
100
AcDbLine
 10
29.90132184951571
 20
139.1047095260427
 30
0.0
 11
29.90132184951571
 21
135.6047095260427
 31
0.0
  0
LINE
  5
42DF
330
18
100
AcDbEntity
  8
隠れ線2
 48
0.3
100
AcDbLine
 10
30.30132184951572
 20
139.1047095260427
 30
0.0
 11
30.30132184951572
 21
135.6047095260427
 31
0.0
  0
DIMENSION
  5
42EC
330
18
100
AcDbEntity
  8
寸法線
100
AcDbDimension
  2
*D41
 10
14.40246802296281
 20
132.1047095260427
 30
0.0
 11
12.52746802296278
 21
142.1047095260427
 31
0.0
 70
    32
 71
     5
 42
20.00000000000003
  3
STYLE3
100
AcDbAlignedDimension
 13
29.30132184951572
 23
152.1047095260427
 33
0.0
 14
19.42819554125378
 24
132.1047095260427
 34
0.0
 50
90.0
100
AcDbRotatedDimension
1001
ACAD
1000
DSTYLE
1002
{
1070
   271
1070
     2
1002
}
  0
LINE
  5
42EE
330
18
100
AcDbEntity
  8
想像線
100
AcDbLine
 10
79.30132184951571
 20
158.6143566893781
 30
0.0
 11
79.30132184951571
 21
122.9946208476989
 31
0.0
  0
ARC
  5
42F1
330
18
100
AcDbEntity
  8
外形線
100
AcDbCircle
 10
82.30132184951571
 20
135.6047095260427
 30
0.0
 40
10.0
100
AcDbArc
 50
79.97128973923745
 51
98.74922058743685
  0
LINE
  5
42F2
330
18
100
AcDbEntity
  8
隠れ線2
100
AcDbLine
 10
95.03761735641345
 20
134.0534201245008
 30
0.0
 11
90.79563889147449
 21
140.8816952177694
 31
0.0
  0
LINE
  5
42F3
330
18
100
AcDbEntity
  8
外形線
100
AcDbLine
 10
79.02940188577528
 20
145.2188926478868
 30
0.0
 11
80.78022243769144
 21
145.4883453236299
 31
0.0
  0
LINE
  5
42F5
330
18
100
AcDbEntity
  8
隠れ線2
100
AcDbLine
 10
43.11126958798076
 20
139.6910635138611
 30
0.0
 11
79.02940188577509
 21
145.2188926478868
 31
0.0
  0
LINE
  5
42F6
330
18
100
AcDbEntity
  8
隠れ線2
 48
0.3
100
AcDbLine
 10
-17.01898492758403
 20
139.1047095260427
 30
0.0
 11
-17.01898492758403
 21
135.6047095260427
 31
0.0
  0
LINE
  5
42F7
330
18
100
AcDbEntity
  8
隠れ線2
 48
0.3
100
AcDbLine
 10
-17.41898492758403
 20
139.1047095260427
 30
0.0
 11
-17.41898492758403
 21
135.6047095260427
 31
0.0
  0
LINE
  5
42F8
330
18
100
AcDbEntity
  8
隠れ線2
 48
0.3
100
AcDbLine
 10
-19.01898492758403
 20
139.1047095260427
 30
0.0
 11
-19.01898492758403
 21
135.6047095260427
 31
0.0
  0
LINE
  5
42F9
330
18
100
AcDbEntity
  8
隠れ線2
 48
0.3
100
AcDbLine
 10
-18.61898492758402
 20
139.1047095260427
 30
0.0
 11
-18.61898492758402
 21
135.6047095260427
 31
0.0
  0
ARC
  5
42FB
330
18
100
AcDbEntity
  8
外形線
100
AcDbCircle
 10
-18.81898492758404
 20
134.3047095260426
 30
0.0
 40
0.3
100
AcDbArc
 50
0.0000000000000799
 51
90.0
  0
LINE
  5
42FC
330
18
100
AcDbEntity
  8
外形線
100
AcDbLine
 10
-19.26898492758403
 20
134.6047095260427
 30
0.0
 11
-16.76898492758403
 21
134.6047095260427
 31
0.0
  0
LINE
  5
42FD
330
18
100
AcDbEntity
  8
中心線
 48
0.1
100
AcDbLine
 10
-19.50253212669395
 20
132.6047095260427
 30
0.0
 11
-16.53543772847411
 21
132.6047095260427
 31
0.0
  0
LINE
  5
42FF
330
18
100
AcDbEntity
  8
外形線
100
AcDbLine
 10
-19.26898492758403
 20
134.6047095260427
 30
0.0
 11
-19.26898492758403
 21
135.6047095260427
 31
0.0
  0
LINE
  5
4300
330
18
100
AcDbEntity
  8
外形線
100
AcDbLine
 10
-17.51898492758403
 20
132.6047095260427
 30
0.0
 11
-17.51898492758403
 21
134.3047095260426
 31
0.0
  0
LINE
  5
4301
330
18
100
AcDbEntity
  8
外形線
100
AcDbLine
 10
-18.51898492758403
 20
132.6047095260427
 30
0.0
 11
-18.51898492758403
 21
134.3047095260426
 31
0.0
  0
LINE
  5
4302
330
18
100
AcDbEntity
  8
外形線
100
AcDbLine
 10
-16.76898492758403
 20
134.6047095260427
 30
0.0
 11
-16.76898492758403
 21
135.6047095260427
 31
0.0
  0
ARC
  5
4303
330
18
100
AcDbEntity
  8
外形線
100
AcDbCircle
 10
-17.21898492758402
 20
134.3047095260426
 30
0.0
 40
0.3
100
AcDbArc
 50
90.0
 51
180.0
  0
ARC
  5
4304
330
18
100
AcDbEntity
  8
外形線
100
AcDbCircle
 10
-18.01898492758403
 20
132.6047095260427
 30
0.0
 40
0.5
100
AcDbArc
 50
180.0
 51
0.0
  0
LINE
  5
4305
330
18
100
AcDbEntity
  8
外形線
100
AcDbLine
 10
-16.76898492758403
 20
144.6047095260427
 30
0.0
 11
-19.26898492758403
 21
144.6047095260427
 31
0.0
  0
LINE
  5
4306
330
18
100
AcDbEntity
  8
中心線
 48
0.1
100
AcDbLine
 10
-16.53543772847411
 20
146.6047095260427
 30
0.0
 11
-19.50253212669395
 21
146.6047095260427
 31
0.0
  0
ARC
  5
4307
330
18
100
AcDbEntity
  8
外形線
100
AcDbCircle
 10
-18.81898492758404
 20
144.9047095260427
 30
0.0
 40
0.3
100
AcDbArc
 50
270.0
 51
0.0
  0
LINE
  5
4308
330
18
100
AcDbEntity
  8
隠れ線2
 48
0.3
100
AcDbLine
 10
-18.61898492758402
 20
143.6047095260427
 30
0.0
 11
-18.61898492758402
 21
140.1047095260427
 31
0.0
  0
LINE
  5
4309
330
18
100
AcDbEntity
  8
隠れ線2
 48
0.3
100
AcDbLine
 10
-19.01898492758403
 20
143.6047095260427
 30
0.0
 11
-19.01898492758403
 21
140.1047095260427
 31
0.0
  0
LINE
  5
430D
330
18
100
AcDbEntity
  8
外形線
100
AcDbLine
 10
-19.26898492758403
 20
144.6047095260427
 30
0.0
 11
-19.26898492758403
 21
143.6047095260427
 31
0.0
  0
LINE
  5
430E
330
18
100
AcDbEntity
  8
隠れ線2
 48
0.3
100
AcDbLine
 10
-17.41898492758403
 20
143.6047095260427
 30
0.0
 11
-17.41898492758403
 21
140.1047095260427
 31
0.0
  0
LINE
  5
430F
330
18
100
AcDbEntity
  8
隠れ線2
 48
0.3
100
AcDbLine
 10
-17.01898492758403
 20
143.6047095260427
 30
0.0
 11
-17.01898492758403
 21
140.1047095260427
 31
0.0
  0
LINE
  5
4310
330
18
100
AcDbEntity
  8
外形線
100
AcDbLine
 10
-16.76898492758403
 20
144.6047095260427
 30
0.0
 11
-16.76898492758403
 21
143.6047095260427
 31
0.0
  0
LINE
  5
4311
330
18
100
AcDbEntity
  8
外形線
100
AcDbLine
 10
-18.51898492758403
 20
146.6047095260427
 30
0.0
 11
-18.51898492758403
 21
144.9047095260427
 31
0.0
  0
LINE
  5
4312
330
18
100
AcDbEntity
  8
外形線
100
AcDbLine
 10
-17.51898492758403
 20
146.6047095260427
 30
0.0
 11
-17.51898492758403
 21
144.9047095260427
 31
0.0
  0
ARC
  5
4313
330
18
100
AcDbEntity
  8
外形線
100
AcDbCircle
 10
-17.21898492758402
 20
144.9047095260427
 30
0.0
 40
0.3
100
AcDbArc
 50
180.0
 51
270.0
  0
ARC
  5
4314
330
18
100
AcDbEntity
  8
外形線
100
AcDbCircle
 10
-18.01898492758403
 20
146.6047095260427
 30
0.0
 40
0.5
100
AcDbArc
 50
0.0
 51
180.0
  0
LINE
  5
4315
330
18
100
AcDbEntity
  8
外形線
100
AcDbLine
 10
-16.51898492758403
 20
140.1047095260427
 30
0.0
 11
-19.51898492758403
 21
140.1047095260427
 31
0.0
  0
LINE
  5
4316
330
18
100
AcDbEntity
  8
外形線
100
AcDbLine
 10
-16.51898492758403
 20
139.1047095260427
 30
0.0
 11
-19.51898492758403
 21
139.1047095260427
 31
0.0
  0
LINE
  5
4318
330
18
100
AcDbEntity
  8
中心線
 48
0.5
100
AcDbLine
 10
-18.01898492758403
 20
148.8624520219873
 30
0.0
 11
-18.01898492758403
 21
129.579907449003
 31
0.0
  0
LINE
  5
431A
330
18
100
AcDbEntity
  8
外形線
100
AcDbLine
 10
-16.51898492758403
 20
143.6047095260427
 30
0.0
 11
-19.51898492758403
 21
143.6047095260427
 31
0.0
  0
LINE
  5
431B
330
18
100
AcDbEntity
  8
外形線
100
AcDbLine
 10
-16.51898492758403
 20
135.6047095260427
 30
0.0
 11
-19.51898492758403
 21
135.6047095260427
 31
0.0
  0
LINE
  5
431C
330
18
100
AcDbEntity
  8
外形線
100
AcDbLine
 10
-16.51898492758403
 20
143.6047095260427
 30
0.0
 11
-16.51898492758403
 21
140.1047095260427
 31
0.0
  0
LINE
  5
431D
330
18
100
AcDbEntity
  8
外形線
100
AcDbLine
 10
-19.51898492758403
 20
143.6047095260427
 30
0.0
 11
-19.51898492758403
 21
140.1047095260427
 31
0.0
  0
LINE
  5
431E
330
18
100
AcDbEntity
  8
外形線
100
AcDbLine
 10
-16.51898492758403
 20
139.1047095260427
 30
0.0
 11
-16.51898492758403
 21
135.6047095260427
 31
0.0
  0
LINE
  5
431F
330
18
100
AcDbEntity
  8
外形線
100
AcDbLine
 10
-19.51898492758403
 20
139.1047095260427
 30
0.0
 11
-19.51898492758403
 21
135.6047095260427
 31
0.0
  0
DIMENSION
  5
432E
330
18
100
AcDbEntity
  8
寸法線
100
AcDbDimension
  2
*D42
 10
-16.51898492758403
 20
154.3046464953421
 30
0.0
 11
-18.01898492758403
 21
156.1796464953421
 31
0.0
 70
    32
 71
     5
 42
2.999999999999996
  3
STYLE3
100
AcDbAlignedDimension
 13
-19.51898492758403
 23
143.6047095260427
 33
0.0
 14
-16.51898492758403
 24
143.6047095260427
 34
0.0
100
AcDbRotatedDimension
1001
ACAD
1000
DSTYLE
1002
{
1070
   271
1070
     2
1002
}
  0
DIMENSION
  5
433D
330
18
100
AcDbEntity
  8
寸法線
100
AcDbDimension
  2
*D43
 10
-16.51898492758403
 20
122.690543329104
 30
0.0
 11
-18.01898492758403
 21
124.565543329104
 31
0.0
 70
    32
 71
     5
 42
2.999999999999996
  3
STYLE3
100
AcDbAlignedDimension
 13
-19.51898492758403
 23
135.6047095260427
 33
0.0
 14
-16.51898492758403
 24
135.6047095260427
 34
0.0
100
AcDbRotatedDimension
1001
ACAD
1000
DSTYLE
1002
{
1070
   271
1070
     2
1002
}
  0
DIMENSION
  5
4357
330
18
100
AcDbEntity
  8
寸法線
100
AcDbDimension
  2
*D44
 10
149.3013218495157
 20
91.14943344816641
 30
0.0
 11
129.3013218495157
 21
93.02443344816641
 31
0.0
 70
    32
 71
     5
 42
40.0
  3
STYLE3
100
AcDbAlignedDimension
 13
109.3013218495157
 23
91.40069718455652
 33
0.0
 14
149.3013218495157
 24
118.1577702113662
 34
0.0
100
AcDbRotatedDimension
1001
ACAD
1000
DSTYLE
1002
{
1070
   271
1070
     2
1002
}
  0
DIMENSION
  5
4363
330
18
100
AcDbEntity
  8
寸法線
100
AcDbDimension
  2
*D45
 10
169.3013218495157
 20
91.14943344816641
 30
0.0
 11
159.3013218495157
 21
93.02443344816641
 31
0.0
 70
    32
 71
     5
 42
20.0
  3
STYLE3
100
AcDbAlignedDimension
 13
149.3013218495157
 23
118.1577702113662
 33
0.0
 14
169.3013218495157
 24
135.9047095260427
 34
0.0
100
AcDbRotatedDimension
1001
ACAD
1000
DSTYLE
1002
{
1070
    75
1070
     1
1070
   271
1070
     2
1070
   279
1070
     1
1002
}
  0
DIMENSION
  5
436F
330
18
100
AcDbEntity
  8
寸法線
100
AcDbDimension
  2
*D46
 10
269.3013218495157
 20
91.14943344816641
 30
0.0
 11
219.3013218495157
 21
93.02443344816641
 31
0.0
 70
    32
 71
     5
 42
100.0
  3
STYLE3
100
AcDbAlignedDimension
 13
169.3013218495157
 23
135.9047095260427
 33
0.0
 14
269.3013218495157
 24
135.9047095260427
 34
0.0
100
AcDbRotatedDimension
1001
ACAD
1000
DSTYLE
1002
{
1070
    75
1070
     1
1070
   271
1070
     2
1070
   279
1070
     1
1002
}
  0
LINE
  5
43A4
330
18
100
AcDbEntity
  8
0
  6
ByBlock
 62
     2
100
AcDbLine
 10
29.30132184951572
 20
129.579907449003
 30
0.0
 11
29.30132184951572
 21
89.5369377641183
 31
0.0
  0
LINE
  5
43A5
330
18
100
AcDbEntity
  8
0
  6
ByBlock
 62
     2
100
AcDbLine
 10
109.3013218495157
 20
88.88011567887645
 30
0.0
 11
109.3013218495157
 21
90.13011567887645
 31
0.0
  0
POINT
  5
43AA
330
18
100
AcDbEntity
  8
DEFPOINTS
  6
ByBlock
 62
     0
100
AcDbPoint
 10
29.30132184951572
 20
129.579907449003
 30
0.0
  0
POINT
  5
43AB
330
18
100
AcDbEntity
  8
DEFPOINTS
  6
ByBlock
 62
     0
100
AcDbPoint
 10
109.3013218495157
 20
88.88011567887645
 30
0.0
  0
POINT
  5
43AC
330
18
100
AcDbEntity
  8
DEFPOINTS
  6
ByBlock
 62
     0
100
AcDbPoint
 10
109.3013218495157
 20
88.88011567887645
 30
0.0
  0
DIMENSION
  5
43B9
330
18
100
AcDbEntity
  8
寸法線
100
AcDbDimension
  2
*D47
 10
29.30132184951572
 20
118.7536665568806
 30
0.0
 11
54.30132184951571
 21
120.6286665568806
 31
0.0
 70
    32
 71
     5
 42
50.0
  3
STYLE3
100
AcDbAlignedDimension
 13
79.30132184951571
 23
122.9946208476989
 33
0.0
 14
29.30132184951572
 24
115.0671432825057
 34
0.0
100
AcDbRotatedDimension
1001
ACAD
1000
DSTYLE
1002
{
1070
   271
1070
     2
1002
}
  0
DIMENSION
  5
43C6
330
18
100
AcDbEntity
  8
寸法線
100
AcDbDimension
  2
*D48
 10
114.8013218495157
 20
72.89902701851338
 30
0.0
 11
109.3013218495157
 21
74.77402701851338
 31
0.0
 70
    32
 71
     5
 42
11.00000000000005
  3
STYLE3
100
AcDbAlignedDimension
 13
103.8013218495157
 23
82.60470952604269
 33
0.0
 14
114.8013218495157
 24
82.6047095260427
 34
0.0
100
AcDbRotatedDimension
1001
ACAD
1000
DSTYLE
1002
{
1070
   271
1070
     2
1002
}
  0
DIMENSION
  5
43D3
330
18
100
AcDbEntity
  8
寸法線
100
AcDbDimension
  2
*D49
 10
269.3013218495157
 20
66.50267972278607
 30
0.0
 11
149.3013218495157
 21
68.37767972278607
 31
0.0
 70
    32
 71
     5
 42
240.0
  3
STYLE3
100
AcDbAlignedDimension
 13
29.30132184951572
 23
89.5369377641183
 33
0.0
 14
269.3013218495157
 24
89.89943344816641
 34
0.0
100
AcDbRotatedDimension
1001
ACAD
1000
DSTYLE
1002
{
1070
   271
1070
     2
1002
}
  0
DIMENSION
  5
43E0
330
18
100
AcDbEntity
  8
寸法線
100
AcDbDimension
  2
*D50
 10
86.23372138895854
 20
149.6047095260427
 30
0.0
 11
84.35872138895852
 21
116.1047095260427
 31
0.0
 70
    32
 71
     5
 42
67.00000000000002
  3
STYLE3
100
AcDbAlignedDimension
 13
103.8013218495157
 23
82.60470952604269
 33
0.0
 14
86.94792043112455
 24
149.6047095260427
 34
0.0
 50
90.0
100
AcDbRotatedDimension
1001
ACAD
1000
DSTYLE
1002
{
1070
   271
1070
     2
1002
}
  0
LINE
  5
43E1
330
18
100
AcDbEntity
  8
中心線
 48
0.5
100
AcDbLine
 10
-19.99821859649478
 20
284.0958869782571
 30
0.0
 11
-19.99821859649478
 21
212.3079472242989
 31
0.0
  0
LINE
  5
43E4
330
18
100
AcDbEntity
  8
外形線
100
AcDbLine
 10
5.159873148422349
 20
245.8891130604308
 30
0.0
 11
-27.19821859649477
 21
245.8891130604308
 31
0.0
  0
LINE
  5
43E5
330
18
100
AcDbEntity
  8
外形線
100
AcDbLine
 10
2.010770198757398
 20
263.8891130604307
 30
0.0
 11
-27.19821859649483
 21
263.8891130604307
 31
0.0
  0
LINE
  5
43E6
330
18
100
AcDbEntity
  8
外形線
100
AcDbLine
 10
4.460072492941236
 20
249.8891130604308
 30
0.0
 11
-27.19821859649483
 21
249.8891130604308
 31
0.0
  0
LINE
  5
43E7
330
18
100
AcDbEntity
  8
隠れ線2
100
AcDbLine
 10
-15.99821859649478
 20
245.8891130604308
 30
0.0
 11
-15.99821859649478
 21
231.8891130604308
 31
0.0
  0
LINE
  5
43E8
330
18
100
AcDbEntity
  8
隠れ線2
100
AcDbLine
 10
-17.5982185964948
 20
245.8891130604308
 30
0.0
 11
-17.5982185964948
 21
231.8891130604308
 31
0.0
  0
LINE
  5
43E9
330
18
100
AcDbEntity
  8
隠れ線2
100
AcDbLine
 10
-23.99821859649478
 20
245.8891130604308
 30
0.0
 11
-23.99821859649478
 21
231.8891130604308
 31
0.0
  0
LINE
  5
43EA
330
18
100
AcDbEntity
  8
隠れ線2
100
AcDbLine
 10
-22.39821859649476
 20
245.8891130604308
 30
0.0
 11
-22.39821859649476
 21
231.8891130604308
 31
0.0
  0
LINE
  5
43EB
330
18
100
AcDbEntity
  8
外形線
100
AcDbLine
 10
-27.19821859649477
 20
245.8891130604308
 30
0.0
 11
-27.19821859649477
 21
231.8891130604306
 31
0.0
  0
ARC
  5
43EC
330
18
100
AcDbEntity
  8
外形線
100
AcDbCircle
 10
-23.19821859649483
 20
226.6891130604306
 30
0.0
 40
1.199999999999999
100
AcDbArc
 50
0.0000000000000799
 51
90.0
  0
LINE
  5
43ED
330
18
100
AcDbEntity
  8
外形線
100
AcDbLine
 10
-24.99821859649478
 20
227.8891130604307
 30
0.0
 11
-14.99821859649478
 21
227.8891130604307
 31
0.0
  0
LINE
  5
43EE
330
18
100
AcDbEntity
  8
中心線
 48
0.3
100
AcDbLine
 10
-25.93240739293449
 20
219.8891130604307
 30
0.0
 11
-14.06402980005512
 21
219.8891130604307
 31
0.0
  0
POINT
  5
43EF
330
18
100
AcDbEntity
  8
DEFPOINTS
  6
ByBlock
 62
     0
100
AcDbPoint
 10
-27.19821859649483
 20
231.8891130604306
 30
0.0
  0
LINE
  5
43F0
330
18
100
AcDbEntity
  8
外形線
100
AcDbLine
 10
-24.99821859649478
 20
227.8891130604307
 30
0.0
 11
-24.99821859649478
 21
231.8891130604306
 31
0.0
  0
LINE
  5
43F2
330
18
100
AcDbEntity
  8
外形線
100
AcDbLine
 10
-17.99821859649481
 20
219.8891130604307
 30
0.0
 11
-17.99821859649478
 21
226.6891130604306
 31
0.0
  0
LINE
  5
43F3
330
18
100
AcDbEntity
  8
外形線
100
AcDbLine
 10
-21.99821859649481
 20
219.8891130604307
 30
0.0
 11
-21.99821859649478
 21
226.6891130604306
 31
0.0
  0
LINE
  5
43F4
330
18
100
AcDbEntity
  8
外形線
100
AcDbLine
 10
-14.99821859649478
 20
227.8891130604307
 30
0.0
 11
-14.99821859649478
 21
231.8891130604306
 31
0.0
  0
ARC
  5
43F5
330
18
100
AcDbEntity
  8
外形線
100
AcDbCircle
 10
-16.79821859649473
 20
226.6891130604306
 30
0.0
 40
1.199999999999999
100
AcDbArc
 50
90.0
 51
180.0
  0
ARC
  5
43F6
330
18
100
AcDbEntity
  8
外形線
100
AcDbCircle
 10
-19.99821859649478
 20
219.8891130604307
 30
0.0
 40
2.0
100
AcDbArc
 50
180.0
 51
0.0
  0
LINE
  5
43F7
330
18
100
AcDbEntity
  8
外形線
100
AcDbLine
 10
-14.99821859649478
 20
267.8891130604307
 30
0.0
 11
-24.99821859649478
 21
267.8891130604307
 31
0.0
  0
LINE
  5
43F8
330
18
100
AcDbEntity
  8
中心線
 48
0.3
100
AcDbLine
 10
-14.06402980005509
 20
275.8891130604308
 30
0.0
 11
-25.93240739293447
 21
275.8891130604308
 31
0.0
  0
ARC
  5
43F9
330
18
100
AcDbEntity
  8
外形線
100
AcDbCircle
 10
-23.19821859649483
 20
269.0891130604308
 30
0.0
 40
1.199999999999999
100
AcDbArc
 50
270.0
 51
0.0
  0
LINE
  5
43FA
330
18
100
AcDbEntity
  8
隠れ線2
100
AcDbLine
 10
-22.39821859649476
 20
263.8891130604307
 30
0.0
 11
-22.39821859649476
 21
249.8891130604308
 31
0.0
  0
LINE
  5
43FB
330
18
100
AcDbEntity
  8
隠れ線2
100
AcDbLine
 10
-23.99821859649478
 20
263.8891130604307
 30
0.0
 11
-23.99821859649478
 21
249.8891130604308
 31
0.0
  0
LINE
  5
43FC
330
18
100
AcDbEntity
  8
外形線
100
AcDbLine
 10
-27.19821859649471
 20
263.8891130604307
 30
0.0
 11
-27.19821859649483
 21
249.8891130604308
 31
0.0
  0
POINT
  5
43FD
330
18
100
AcDbEntity
  8
DEFPOINTS
  6
ByBlock
 62
     0
100
AcDbPoint
 10
-27.19821859649483
 20
263.8891130604307
 30
0.0
  0
POINT
  5
43FE
330
18
100
AcDbEntity
  8
DEFPOINTS
  6
ByBlock
 62
     0
100
AcDbPoint
 10
-27.19821859649483
 20
263.8891130604307
 30
0.0
  0
LINE
  5
43FF
330
18
100
AcDbEntity
  8
外形線
100
AcDbLine
 10
-24.99821859649478
 20
267.8891130604307
 30
0.0
 11
-24.99821859649478
 21
263.8891130604307
 31
0.0
  0
LINE
  5
4400
330
18
100
AcDbEntity
  8
隠れ線2
100
AcDbLine
 10
-17.5982185964948
 20
263.8891130604307
 30
0.0
 11
-17.5982185964948
 21
249.8891130604308
 31
0.0
  0
LINE
  5
4401
330
18
100
AcDbEntity
  8
隠れ線2
100
AcDbLine
 10
-15.99821859649478
 20
263.8891130604307
 30
0.0
 11
-15.99821859649478
 21
249.8891130604308
 31
0.0
  0
LINE
  5
4402
330
18
100
AcDbEntity
  8
外形線
100
AcDbLine
 10
-14.99821859649478
 20
267.8891130604307
 30
0.0
 11
-14.99821859649478
 21
263.8891130604307
 31
0.0
  0
LINE
  5
4403
330
18
100
AcDbEntity
  8
外形線
100
AcDbLine
 10
-21.99821859649478
 20
275.8891130604308
 30
0.0
 11
-21.99821859649478
 21
269.0891130604308
 31
0.0
  0
LINE
  5
4404
330
18
100
AcDbEntity
  8
外形線
100
AcDbLine
 10
-17.99821859649478
 20
275.8891130604308
 30
0.0
 11
-17.99821859649478
 21
269.0891130604308
 31
0.0
  0
ARC
  5
4405
330
18
100
AcDbEntity
  8
外形線
100
AcDbCircle
 10
-16.79821859649473
 20
269.0891130604308
 30
0.0
 40
1.199999999999999
100
AcDbArc
 50
180.0
 51
270.0
  0
ARC
  5
4406
330
18
100
AcDbEntity
  8
外形線
100
AcDbCircle
 10
-19.99821859649478
 20
275.8891130604308
 30
0.0
 40
2.0
100
AcDbArc
 50
0.0
 51
180.0
  0
LINE
  5
440D
330
18
100
AcDbEntity
  8
外形線
100
AcDbLine
 10
7.609175442606243
 20
231.8891130604308
 30
0.0
 11
-27.19821859649477
 21
231.8891130604306
 31
0.0
  0
LINE
  5
4426
330
18
100
AcDbEntity
  8
想像線
100
AcDbLine
 10
0.6016918131629155
 20
271.9432831990726
 30
0.0
 11
9.04511226423051
 21
223.6814224252336
 31
0.0
  0
DIMENSION
  5
4433
330
18
100
AcDbEntity
  8
寸法線
100
AcDbDimension
  2
*D51
 10
-48.82511410210395
 20
263.8891130604307
 30
0.0
 11
-50.70011410210399
 21
270.8891130604308
 31
0.0
 70
    32
  1
3.5
 71
     5
 42
14.0
  3
STYLE3
100
AcDbAlignedDimension
 13
-19.99821859649478
 23
277.8891130604308
 33
0.0
 14
-27.19821859649483
 24
263.8891130604307
 34
0.0
 50
90.0
100
AcDbRotatedDimension
1001
ACAD
1000
DSTYLE
1002
{
1070
   271
1070
     2
1002
}
  0
DIMENSION
  5
443F
330
18
100
AcDbEntity
  8
寸法線
100
AcDbDimension
  2
*D52
 10
-48.82511410210395
 20
249.8891130604308
 30
0.0
 11
-50.70011410210399
 21
256.8891130604308
 31
0.0
 70
    32
  1
3.5
 71
     5
 42
14.0
  3
STYLE3
100
AcDbAlignedDimension
 13
-27.19821859649483
 23
263.8891130604307
 33
0.0
 14
-27.19821859649483
 24
249.8891130604308
 34
0.0
 50
90.0
100
AcDbRotatedDimension
1001
ACAD
1000
DSTYLE
1002
{
1070
    75
1070
     1
1070
   271
1070
     2
1070
   279
1070
     1
1002
}
  0
DIMENSION
  5
444D
330
18
100
AcDbEntity
  8
寸法線
100
AcDbDimension
  2
*D53
 10
-48.82511410210395
 20
245.8891130604308
 30
0.0
 11
-50.70011410210399
 21
247.8891130604308
 31
0.0
 70
    32
  1
1
 71
     5
 42
4.0
  3
STYLE3
100
AcDbAlignedDimension
 13
-27.19821859649483
 23
249.8891130604308
 33
0.0
 14
-27.19821859649477
 24
245.8891130604308
 34
0.0
 50
90.0
100
AcDbRotatedDimension
1001
ACAD
1000
DSTYLE
1002
{
1070
    75
1070
     1
1070
   271
1070
     2
1070
   279
1070
     1
1002
}
  0
DIMENSION
  5
4459
330
18
100
AcDbEntity
  8
寸法線
100
AcDbDimension
  2
*D54
 10
-48.82511410210395
 20
231.8891130604306
 30
0.0
 11
-50.70011410210399
 21
238.8891130604307
 31
0.0
 70
    32
  1
3.5
 71
     5
 42
14.00000000000011
  3
STYLE3
100
AcDbAlignedDimension
 13
-27.19821859649477
 23
245.8891130604308
 33
0.0
 14
-27.19821859649477
 24
231.8891130604306
 34
0.0
 50
90.0
100
AcDbRotatedDimension
1001
ACAD
1000
DSTYLE
1002
{
1070
    75
1070
     1
1070
   271
1070
     2
1070
   279
1070
     1
1002
}
  0
DIMENSION
  5
4465
330
18
100
AcDbEntity
  8
寸法線
100
AcDbDimension
  2
*D55
 10
-48.82511410210395
 20
217.8891130604307
 30
0.0
 11
-50.70011410210399
 21
224.8891130604306
 31
0.0
 70
    32
  1
3.5
 71
     5
 42
14.0
  3
STYLE3
100
AcDbAlignedDimension
 13
-27.19821859649477
 23
231.8891130604306
 33
0.0
 14
-19.99821859649478
 24
217.8891130604307
 34
0.0
 50
90.0
100
AcDbRotatedDimension
1001
ACAD
1000
DSTYLE
1002
{
1070
    75
1070
     1
1070
   271
1070
     2
1070
   279
1070
     1
1002
}
  0
DIMENSION
  5
4472
330
18
100
AcDbEntity
  8
寸法線
100
AcDbDimension
  2
*D56
 10
-41.82943304169486
 20
267.8891130604307
 30
0.0
 11
-43.70443304169491
 21
272.8891130604308
 31
0.0
 70
    32
  1
2.5
 71
     5
 42
10.0
  3
STYLE3
100
AcDbAlignedDimension
 13
-42.79806524597268
 23
277.8891130604308
 33
0.0
 14
-24.99821859649478
 24
267.8891130604307
 34
0.0
 50
90.0
100
AcDbRotatedDimension
1001
ACAD
1000
DSTYLE
1002
{
1070
   271
1070
     2
1002
}
  0
DIMENSION
  5
4480
330
18
100
AcDbEntity
  8
寸法線
100
AcDbDimension
  2
*D57
 10
-41.82943304169486
 20
263.8891130604307
 30
0.0
 11
-43.70443304169491
 21
265.8891130604307
 31
0.0
 70
    32
  1
1
 71
     5
 42
4.0
  3
STYLE3
100
AcDbAlignedDimension
 13
-24.99821859649478
 23
267.8891130604307
 33
0.0
 14
-40.64554840686071
 24
263.8891130604307
 34
0.0
 50
90.0
100
AcDbRotatedDimension
1001
ACAD
1000
DSTYLE
1002
{
1070
    75
1070
     1
1070
   271
1070
     2
1070
   279
1070
     1
1002
}
  0
DIMENSION
  5
448F
330
18
100
AcDbEntity
  8
寸法線
100
AcDbDimension
  2
*D58
 10
-41.50655492917837
 20
227.8891130604307
 30
0.0
 11
-43.38155492917841
 21
229.8891130604307
 31
0.0
 70
    32
  1
1
 71
     5
 42
4.0
  3
STYLE3
100
AcDbAlignedDimension
 13
-41.07605220133734
 23
231.8891130604306
 33
0.0
 14
-24.99821859649478
 24
227.8891130604307
 34
0.0
 50
90.0
100
AcDbRotatedDimension
1001
ACAD
1000
DSTYLE
1002
{
1070
   271
1070
     2
1002
}
  0
DIMENSION
  5
449B
330
18
100
AcDbEntity
  8
寸法線
100
AcDbDimension
  2
*D59
 10
-41.50655492917837
 20
217.8891130604307
 30
0.0
 11
-43.38155492917841
 21
222.8891130604306
 31
0.0
 70
    32
  1
2.5
 71
     5
 42
10.0
  3
STYLE3
100
AcDbAlignedDimension
 13
-24.99821859649478
 23
227.8891130604307
 33
0.0
 14
-41.07605220133734
 24
217.8891130604307
 34
0.0
 50
90.0
100
AcDbRotatedDimension
1001
ACAD
1000
DSTYLE
1002
{
1070
    75
1070
     1
1070
   271
1070
     2
1070
   279
1070
     1
1002
}
  0
DIMENSION
  5
44B3
330
18
100
AcDbEntity
  8
寸法線
100
AcDbDimension
  2
*D60
 10
-16.79821859649478
 20
269.0891130604308
 30
0.0
 11
-7.200293041074132
 21
274.52859842699
 31
0.0
 70
   164
  1
2-R0.3
 71
     5
 42
1.199999999999988
  3
STYLE3
100
AcDbRadialDimension
 15
-17.84221438368199
 25
268.4974435611871
 35
0.0
 40
0.0
1001
ACAD
1000
DSTYLE
1002
{
1070
   271
1070
     2
1070
   279
1070
     1
1070
   288
1070
     1
1002
}
  0
DIMENSION
  5
44E2
330
18
100
AcDbEntity
  8
寸法線
100
AcDbDimension
  2
*D61
 10
-19.99821859649478
 20
198.6602016170163
 30
0.0
 11
-11.51607573935192
 21
200.5352016170164
 31
0.0
 70
    32
  1
2-1.8
 71
     5
 42
7.199999999999988
  3
STYLE3
100
AcDbAlignedDimension
 13
-27.19821859649477
 23
231.8891130604306
 33
0.0
 14
-19.99821859649478
 24
212.3079472242989
 34
0.0
100
AcDbRotatedDimension
1001
ACAD
1000
DSTYLE
1002
{
1070
   271
1070
     2
1002
}
  0
LINE
  5
44E3
330
18
100
AcDbEntity
  8
寸法線
100
AcDbLine
 10
-19.99821859649478
 20
231.8891130604307
 30
0.0
 11
-33.64349633102722
 21
206.1902732902519
 31
0.0
  0
LINE
  5
44E4
330
18
100
AcDbEntity
  8
寸法線
100
AcDbLine
 10
-33.64349633102722
 20
206.1902732902519
 30
0.0
 11
-54.30766139973809
 21
206.1902732902519
 31
0.0
  0
LINE
  5
44FD
330
18
100
AcDbEntity
  8
0
  6
ByBlock
 62
     2
100
AcDbLine
 10
-24.99821859649478
 20
227.8891130604307
 30
0.0
 11
-24.99821859649478
 21
205.1554187081189
 31
0.0
  0
LINE
  5
44FE
330
18
100
AcDbEntity
  8
0
  6
ByBlock
 62
     2
100
AcDbLine
 10
-14.99821859649478
 20
227.8891130604307
 30
0.0
 11
-14.99821859649478
 21
205.1554187081189
 31
0.0
  0
LINE
  5
44FF
330
18
100
AcDbEntity
  8
0
  6
ByBlock
 62
     2
100
AcDbLine
 10
-22.49821859649478
 20
206.4054187081189
 30
0.0
 11
-17.49821859649478
 21
206.4054187081189
 31
0.0
  0
LINE
  5
4500
330
18
100
AcDbEntity
  8
0
  6
ByBlock
 62
     2
100
AcDbLine
 10
-14.99821859649478
 20
206.4054187081189
 30
0.0
 11
2.466067117790942
 21
206.4054187081189
 31
0.0
  0
INSERT
  5
4501
330
18
100
AcDbEntity
  8
0
  6
ByBlock
 62
     2
100
AcDbBlockReference
  2
_OPEN
 10
-24.99821859649478
 20
206.4054187081189
 30
0.0
 41
2.5
 42
2.5
 43
2.5
 50
180.0
  0
INSERT
  5
4502
330
18
100
AcDbEntity
  8
0
  6
ByBlock
 62
     2
100
AcDbBlockReference
  2
_OPEN
 10
-14.99821859649478
 20
206.4054187081189
 30
0.0
 41
2.5
 42
2.5
 43
2.5
  0
MTEXT
  5
4503
330
18
100
AcDbEntity
  8
0
  6
ByBlock
 62
     6
100
AcDbMText
 10
-5.016075739351919
 20
208.2804187081189
 30
0.0
 40
2.5
 41
0.0
 71
     5
 72
     1
  1
\A1;2-φ2.5
  7
STYLE3
 73
     1
 44
1.0
  0
POINT
  5
4504
330
18
100
AcDbEntity
  8
DEFPOINTS
  6
ByBlock
 62
     0
100
AcDbPoint
 10
-24.99821859649478
 20
227.8891130604307
 30
0.0
  0
POINT
  5
4505
330
18
100
AcDbEntity
  8
DEFPOINTS
  6
ByBlock
 62
     0
100
AcDbPoint
 10
-14.99821859649478
 20
227.8891130604307
 30
0.0
  0
POINT
  5
4506
330
18
100
AcDbEntity
  8
DEFPOINTS
  6
ByBlock
 62
     0
100
AcDbPoint
 10
-14.99821859649478
 20
206.4054187081189
 30
0.0
  0
MTEXT
  5
4507
330
18
100
AcDbEntity
  8
0
  6
ByBlock
 62
     6
100
AcDbMText
 10
-43.97663767374107
 20
208.2804187081189
 30
0.0
 40
2.5
 41
0.0
 71
     5
 72
     1
  1
2-M2×0.4
  7
STYLE3
 73
     1
 44
1.0
  0
POINT
  5
458D
330
18
100
AcDbEntity
  8
DEFPOINTS
  6
ByBlock
 62
     0
100
AcDbPoint
 10
-21.52801440577048
 20
277.1774161233482
 30
0.0
  0
POINT
  5
458E
330
18
100
AcDbEntity
  8
DEFPOINTS
  6
ByBlock
 62
     0
100
AcDbPoint
 10
-19.99821859649478
 20
275.8891130604308
 30
0.0
  0
LINE
  5
4590
330
18
100
AcDbEntity
  8
0
  6
ByBlock
 62
     2
100
AcDbLine
 10
-21.99821859649478
 20
275.8891130604308
 30
0.0
 11
-21.99821859649478
 21
288.2960142731314
 31
0.0
  0
LINE
  5
4591
330
18
100
AcDbEntity
  8
0
  6
ByBlock
 62
     2
100
AcDbLine
 10
-17.99821859649478
 20
275.8891130604308
 30
0.0
 11
-17.99821859649478
 21
288.2960142731314
 31
0.0
  0
LINE
  5
4592
330
18
100
AcDbEntity
  8
0
  6
ByBlock
 62
     2
100
AcDbLine
 10
-24.49821859649478
 20
287.0460142731314
 30
0.0
 11
-26.99821859649478
 21
287.0460142731314
 31
0.0
  0
LINE
  5
4593
330
18
100
AcDbEntity
  8
0
  6
ByBlock
 62
     2
100
AcDbLine
 10
-15.49821859649478
 20
287.0460142731314
 30
0.0
 11
-2.319647167923335
 21
287.0460142731314
 31
0.0
  0
LINE
  5
4594
330
18
100
AcDbEntity
  8
0
  6
ByBlock
 62
     2
100
AcDbLine
 10
-21.99821859649478
 20
287.0460142731314
 30
0.0
 11
-17.99821859649478
 21
287.0460142731314
 31
0.0
  0
INSERT
  5
4595
330
18
100
AcDbEntity
  8
0
  6
ByBlock
 62
     2
100
AcDbBlockReference
  2
_OPEN
 10
-21.99821859649478
 20
287.0460142731314
 30
0.0
 41
2.5
 42
2.5
 43
2.5
  0
INSERT
  5
4596
330
18
100
AcDbEntity
  8
0
  6
ByBlock
 62
     2
100
AcDbBlockReference
  2
_OPEN
 10
-17.99821859649478
 20
287.0460142731314
 30
0.0
 41
2.5
 42
2.5
 43
2.5
 50
180.0
  0
MTEXT
  5
4597
330
18
100
AcDbEntity
  8
0
  6
ByBlock
 62
     6
100
AcDbMText
 10
-7.658932882209064
 20
288.9210142731314
 30
0.0
 40
2.5
 41
0.0
 71
     5
 72
     1
  1
\A1;2-φ1
  7
STYLE3
 73
     1
 44
1.0
  0
POINT
  5
4598
330
18
100
AcDbEntity
  8
DEFPOINTS
  6
ByBlock
 62
     0
100
AcDbPoint
 10
-21.99821859649478
 20
275.8891130604308
 30
0.0
  0
POINT
  5
4599
330
18
100
AcDbEntity
  8
DEFPOINTS
  6
ByBlock
 62
     0
100
AcDbPoint
 10
-17.99821859649478
 20
275.8891130604308
 30
0.0
  0
POINT
  5
459A
330
18
100
AcDbEntity
  8
DEFPOINTS
  6
ByBlock
 62
     0
100
AcDbPoint
 10
-17.99821859649478
 20
287.0460142731314
 30
0.0
  0
MTEXT
  5
459E
330
18
100
AcDbEntity
  8
0
  6
ByBlock
 62
     6
100
AcDbMText
 10
-22.30818359693394
 20
189.7675360467511
 30
0.0
 40
3.0
 41
0.0
 71
     5
 72
     1
  1
先端部詳細図 S=4/1
  7
STYLE3
 73
     1
 44
1.0
  0
LINE
  5
459F
330
18
100
AcDbEntity
  8
想像線
 48
0.3
100
AcDbLine
 10
103.8013218495157
 20
97.13480239075989
 30
0.0
 11
114.8013218495157
 21
97.13480239075989
 31
0.0
  0
LINE
  5
45A0
330
18
100
AcDbEntity
  8
想像線
 48
0.3
100
AcDbLine
 10
103.8013218495157
 20
100.1348023907599
 30
0.0
 11
114.8013218495157
 21
100.1348023907599
 31
0.0
  0
DIMENSION
  5
45AF
330
18
100
AcDbEntity
  8
寸法線
100
AcDbDimension
  2
*D62
 10
92.21513956706292
 20
100.1348023907599
 30
0.0
 11
90.34013956706289
 21
98.63480239075991
 31
0.0
 70
    32
 71
     5
 42
3.0
  3
STYLE3
100
AcDbAlignedDimension
 13
103.8013218495157
 23
97.13480239075989
 33
0.0
 14
103.8013218495157
 24
100.1348023907599
 34
0.0
 50
90.0
100
AcDbRotatedDimension
1001
ACAD
1000
DSTYLE
1002
{
1070
   271
1070
     2
1002
}
  0
ARC
  5
45B0
330
18
100
AcDbEntity
  8
中心線
100
AcDbCircle
 10
109.3013218495157
 20
149.6047095260427
 30
0.0
 40
80.0
100
AcDbArc
 50
150.0868592753036
 51
198.3195148669229
  0
LINE
  5
45BC
330
18
100
AcDbEntity
  8
0
  6
ByBlock
 62
     2
100
AcDbLine
 10
109.3013218495157
 20
149.6047095260427
 30
0.0
 11
36.18719417245995
 21
182.0750703805696
 31
0.0
  0
MTEXT
  5
45BD
330
18
100
AcDbEntity
  8
0
  6
ByBlock
 62
     6
100
AcDbMText
 10
60.37445429193095
 20
173.3849706098666
 30
0.0
 40
2.5
 41
0.0
 71
     5
 72
     1
  1
\A1;R80
  7
STYLE3
 11
0.9139265959631968
 21
-0.4058795106815857
 31
0.0
 73
     1
 44
1.0
  0
INSERT
  5
45BE
330
18
100
AcDbEntity
  8
0
  6
ByBlock
 62
     2
100
AcDbBlockReference
  2
_OPEN
 10
36.18719417245995
 20
182.0750703805696
 30
0.0
 41
2.5
 42
2.5
 43
2.5
 50
156.0537464471474
  0
POINT
  5
45BF
330
18
100
AcDbEntity
  8
DEFPOINTS
  6
ByBlock
 62
     0
100
AcDbPoint
 10
36.18719417245995
 20
182.0750703805696
 30
0.0
  0
POINT
  5
45C0
330
18
100
AcDbEntity
  8
DEFPOINTS
  6
ByBlock
 62
     0
100
AcDbPoint
 10
109.3013218495157
 20
149.6047095260427
 30
0.0
  0
DIMENSION
  5
45D0
330
18
100
AcDbEntity
  8
寸法線
100
AcDbDimension
  2
*D63
 10
20.67819554125379
 20
147.1047095260427
 30
0.0
 11
18.80319554125376
 21
149.6047095260427
 31
0.0
 70
    32
 71
     5
 42
5.0
  3
STYLE3
100
AcDbAlignedDimension
 13
22.53632304249697
 23
152.1047095260427
 33
0.0
 14
22.61915050955656
 24
147.1047095260427
 34
0.0
 50
90.0
100
AcDbRotatedDimension
1001
ACAD
1000
DSTYLE
1002
{
1070
   271
1070
     2
1002
}
  0
LINE
  5
4853
330
18
100
AcDbEntity
  8
外形線
100
AcDbLine
 10
66.27529837133128
 20
281.9767494953429
 30
0.0
 11
193.2752983713313
 21
281.9767494953429
 31
0.0
  0
LINE
  5
4854
330
18
100
AcDbEntity
  8
外形線
100
AcDbLine
 10
66.27529837133128
 20
280.9767494953429
 30
0.0
 11
193.2752983713313
 21
280.9767494953429
 31
0.0
  0
TEXT
  5
4855
330
18
100
AcDbEntity
  8
文字
100
AcDbText
 10
67.57824737133126
 20
284.900179495343
 30
0.0
 40
4.0
  1
Model No.LB-7S Inside Dial Caliper Gauge
  7
STYLE3
100
AcDbText
  0
LINE
  5
4856
330
18
100
AcDbEntity
  8
外形線
100
AcDbLine
 10
265.3534029582361
 20
32.62650825624215
 30
0.0
 11
265.3534029582361
 21
23.01173025624215
 31
0.0
  0
TEXT
  5
4857
330
18
100
AcDbEntity
  8
0
  6
Continuous
100
AcDbText
 10
237.5530049582361
 20
24.75987225624215
 30
0.0
 40
2.1
  1
Date
  7
STYLE3
100
AcDbText
  0
TEXT
  5
4858
330
18
100
AcDbEntity
  8
0
  6
Continuous
100
AcDbText
 10
237.169643958236
 20
28.09295525624215
 30
0.0
 40
3.0
  1
日 付
  7
STYLE3
100
AcDbText
  0
TEXT
  5
4859
330
18
100
AcDbEntity
  8
0
  6
Continuous
100
AcDbText
 10
246.2978119582361
 20
26.50801325624215
 30
0.0
 40
2.1
  1
2010.06.29
  7
STYLE3
100
AcDbText
  0
TEXT
  5
485A
330
18
100
AcDbEntity
  8
0
  6
Continuous
100
AcDbText
 10
227.4592329582361
 20
26.79937125624215
 30
0.0
 40
2.399999999999999
  1
1/1
  7
STYLE3
100
AcDbText
  0
LINE
  5
485B
330
18
100
AcDbEntity
  8
外形線
100
AcDbLine
 10
235.621053958236
 20
32.62650825624215
 30
0.0
 11
235.621053958236
 21
23.01173025624215
 31
0.0
  0
LINE
  5
485C
330
18
100
AcDbEntity
  8
外形線
100
AcDbLine
 10
216.0909819582361
 20
32.62650825624215
 30
0.0
 11
216.0909819582361
 21
23.01173025624215
 31
0.0
  0
TEXT
  5
485D
330
18
100
AcDbEntity
  8
0
  6
Continuous
100
AcDbText
 10
217.3767289582361
 20
27.97075025624215
 30
0.0
 40
3.0
  1
尺 度
  7
STYLE3
100
AcDbText
  0
TEXT
  5
485E
330
18
100
AcDbEntity
  8
0
  6
Continuous
100
AcDbText
 10
217.8399449582361
 20
25.05122825624215
 30
0.0
 40
2.1
  1
Scale
  7
STYLE3
100
AcDbText
  0
TEXT
  5
485F
330
18
100
AcDbEntity
  8
0
  6
Continuous
100
AcDbText
 10
200.2305539582361
 20
24.75987125624215
 30
0.0
 40
2.1
  1
Unit
  7
STYLE3
100
AcDbText
  0
TEXT
  5
4860
330
18
100
AcDbEntity
  8
0
  6
Continuous
100
AcDbText
 10
200.058832958236
 20
28.26210825624214
 30
0.0
 40
3.0
  1
単位
  7
STYLE3
100
AcDbText
  0
LINE
  5
4861
330
18
100
AcDbEntity
  8
外形線
100
AcDbLine
 10
198.6013639582361
 20
32.62650825624215
 30
0.0
 11
198.6013639582361
 21
23.01173025624215
 31
0.0
  0
TEXT
  5
4862
330
18
100
AcDbEntity
  8
0
  6
Continuous
100
AcDbText
 10
208.1008809582361
 20
26.50801425624214
 30
0.0
 40
2.399999999999999
  1
mm
  7
STYLE3
100
AcDbText
  0
TEXT
  5
4863
330
18
100
AcDbEntity
  8
0
  6
Continuous
100
AcDbText
 10
266.7023669582361
 20
28.54751025624215
 30
0.0
 40
3.0
  1
株式会社　尾崎製作所
  7
STYLE3
100
AcDbText
  0
TEXT
  5
4864
330
18
100
AcDbEntity
  8
0
  6
Continuous
100
AcDbText
 10
267.5768459582361
 20
24.75987125624215
 30
0.0
 40
2.1
  1
OZAKI MFG. CO., LTD.
  7
STYLE3
100
AcDbText
  0
LINE
  5
4865
330
18
100
AcDbEntity
  8
外形線
100
AcDbLine
 10
163.330636958236
 20
23.01173025624215
 30
0.0
 11
163.330636958236
 21
43.40671425624214
 31
0.0
  0
LINE
  5
4866
330
18
100
AcDbEntity
  8
外形線
100
AcDbLine
 10
163.330636958236
 20
43.40671425624214
 30
0.0
 11
304.1220539582361
 21
43.40671425624214
 31
0.0
  0
LINE
  5
4867
330
18
100
AcDbEntity
  8
外形線
100
AcDbLine
 10
163.330636958236
 20
32.62650825624215
 30
0.0
 11
304.1220539582361
 21
32.62650825624215
 31
0.0
  0
TEXT
  5
4868
330
18
100
AcDbEntity
  8
0
  6
Continuous
100
AcDbText
 10
164.7881039582361
 20
34.52449825624215
 30
0.0
 40
2.1
  1
Design and specifications are subject to change without notice for future improvement.
  7
STYLE3
100
AcDbText
  0
TEXT
  5
4869
330
18
100
AcDbEntity
  8
0
  6
Continuous
100
AcDbText
 10
165.079597958236
 20
38.45364625624215
 30
0.0
 40
3.5
  1
仕様及び外観は予告なく変更される場合がございますのでご了承下さい。
  7
STYLE3
100
AcDbText
  0
TEXT
  5
486A
330
18
100
AcDbEntity
  8
0
  6
Continuous
100
AcDbText
 10
164.496611958236
 20
24.75987025624215
 30
0.0
 40
2.1
  1
3RD Angle Projection
  7
STYLE3
100
AcDbText
  0
TEXT
  5
486B
330
18
100
AcDbEntity
  8
0
  6
Continuous
100
AcDbText
 10
167.1200549582361
 20
28.25615325624215
 30
0.0
 40
3.0
  1
三　　角　　法
  7
STYLE3
100
AcDbText
  0
ENDSEC
  0
SECTION
  2
OBJECTS
  0
DICTIONARY
  5
C
330
0
100
AcDbDictionary
281
     1
  3
ACAD_COLOR
350
45E2
  3
ACAD_GROUP
350
D
  3
ACAD_IMAGE_DICT
350
1525
  3
ACAD_LAYOUT
350
45E5
  3
ACAD_MATERIAL
350
45E1
  3
ACAD_MLINESTYLE
350
1B
  3
ACAD_PLOTSETTINGS
350
45E6
  3
ACAD_PLOTSTYLENAME
350
45DF
  3
ACAD_TABLESTYLE
350
45E3
  3
AcDbVariableDictionary
350
45F4
  0
DICTIONARY
  5
45E2
102
{ACAD_REACTORS
330
C
102
}
330
C
100
AcDbDictionary
281
     1
  0
DICTIONARY
  5
D
102
{ACAD_REACTORS
330
C
102
}
330
C
100
AcDbDictionary
281
     1
  0
DICTIONARY
  5
1525
102
{ACAD_REACTORS
330
C
102
}
330
C
100
AcDbDictionary
281
     1
  3
ROGO01
350
1526
  0
DICTIONARY
  5
45E5
102
{ACAD_REACTORS
330
C
102
}
330
C
100
AcDbDictionary
281
     1
  3
Model
350
45E7
  3
レイアウト1
350
45E8
  0
DICTIONARY
  5
45E1
102
{ACAD_REACTORS
330
C
102
}
330
C
100
AcDbDictionary
281
     1
  0
DICTIONARY
  5
1B
102
{ACAD_REACTORS
330
C
102
}
330
C
100
AcDbDictionary
281
     1
  3
STANDARD
350
1C
  0
DICTIONARY
  5
45E6
102
{ACAD_REACTORS
330
C
102
}
330
C
100
AcDbDictionary
281
     1
  0
ACDBDICTIONARYWDFLT
  5
45DF
102
{ACAD_REACTORS
330
C
102
}
330
C
100
AcDbDictionary
281
     1
  3
Normal
350
45E0
100
AcDbDictionaryWithDefault
340
45E0
  0
DICTIONARY
  5
45E3
102
{ACAD_REACTORS
330
C
102
}
330
C
100
AcDbDictionary
281
     1
  3
Standard
350
45E4
  0
DICTIONARY
  5
45F4
102
{ACAD_REACTORS
330
C
102
}
330
C
100
AcDbDictionary
281
     1
  3
CTABLESTYLE
350
45F5
  0
IMAGEDEF
  5
1526
102
{ACAD_REACTORS
330
1525
102
}
330
1525
100
AcDbRasterImageDef
 90
        0
  1
D:\ﾃｽﾄ\rogo01.TIF
 10
3388.0
 20
4668.0
 11
0.0635
 21
0.0635
280
     1
281
     5
  0
LAYOUT
  5
45E7
102
{ACAD_REACTORS
330
45E5
102
}
330
45E5
100
AcDbPlotSettings
  1

  2
\\SATO-MATE2\EPSON LP-6100
  4

  6

 40
0.0
 41
0.0
 42
0.0
 43
0.0
 44
0.0
 45
0.0
 46
0.0
 47
0.0
 48
0.0
 49
0.0
140
0.0
141
0.0
142
1.0
143
1.0
 70
  1712
 72
     0
 73
     0
 74
     0
  7
AutoCAD LT 98.ctb
 75
     0
147
1.0
 76
     0
 77
     2
 78
   300
148
0.0
149
0.0
100
AcDbLayout
  1
Model
 70
     1
 71
     0
 10
0.0
 20
0.0
 11
12.0
 21
9.0
 12
0.0
 22
0.0
 32
0.0
 14
0.0
 24
0.0
 34
0.0
 15
0.0
 25
0.0
 35
0.0
146
0.0
 13
0.0
 23
0.0
 33
0.0
 16
1.0
 26
0.0
 36
0.0
 17
0.0
 27
1.0
 37
0.0
 76
     0
330
18
  0
LAYOUT
  5
45E8
102
{ACAD_REACTORS
330
45E5
102
}
330
45E5
100
AcDbPlotSettings
  1

  2
\\SATO-MATE2\EPSON LP-6100
  4

  6

 40
0.0
 41
0.0
 42
0.0
 43
0.0
 44
0.0
 45
0.0
 46
0.0
 47
0.0
 48
0.0
 49
0.0
140
0.0
141
0.0
142
1.0
143
1.0
 70
   688
 72
     0
 73
     0
 74
     5
  7
AutoCAD LT 98.ctb
 75
    16
147
1.0
 76
     0
 77
     2
 78
   300
148
0.0
149
0.0
100
AcDbLayout
  1
レイアウト1
 70
     1
 71
     1
 10
0.0
 20
0.0
 11
420.0
 21
297.0
 12
0.0
 22
0.0
 32
0.0
 14
1.000000000000000E+20
 24
1.000000000000000E+20
 34
1.000000000000000E+20
 15
-1.000000000000000E+20
 25
-1.000000000000000E+20
 35
-1.000000000000000E+20
146
0.0
 13
0.0
 23
0.0
 33
0.0
 16
1.0
 26
0.0
 36
0.0
 17
0.0
 27
1.0
 37
0.0
 76
     0
330
15
  0
MLINESTYLE
  5
1C
102
{ACAD_REACTORS
330
1B
102
}
330
1B
100
AcDbMlineStyle
  2
STANDARD
 70
     0
  3

 62
   256
 51
90.0
 52
90.0
 71
     2
 49
0.5
 62
   256
  6
BYLAYER
 49
-0.5
 62
   256
  6
BYLAYER
  0
ACDBPLACEHOLDER
  5
45E0
102
{ACAD_REACTORS
330
45DF
102
}
330
45DF
  0
ACAD_PROXY_OBJECT
  5
45E4
102
{ACAD_REACTORS
330
45E3
102
}
330
45E3
100
AcDbProxyObject
 90
      499
 91
      504
 95
  2555929
 70
     0
 93
     1849
310
4214DD185B99185C992420000000000000F83F0000000000003E0FC00000000000004901028000000C1008070000C3001FDFF8000000C1003FBFF000000182007F7FE00000030400FEFFC00000060801FDFF8000000C1003FBFF000000182000000000000000C2020B0000001820100E000186003FBFF000000182007F7FE0
310
0000030400FEFFC00000060801FDFF8000000C1003FBFF000000182007F7FE0000003040000000000000012404160000003040201C00030C007F7FE00000030400FEFFC00000060801FDFF8000000C1003FBFF000000182007F7FE00000030400FEFFC000000608000
340
F
340
F
340
F
 94
        0
  0
DICTIONARYVAR
  5
45F5
102
{ACAD_REACTORS
330
45F4
102
}
330
45F4
100
DictionaryVariables
280
     0
  1
STANDARD
  0
ENDSEC
  0
EOF
