  0
SECTION
  2
HEADER
  9
$ACADVER
  1
AC1018
  9
$ACADMAINTVER
 70
     0
  9
$DWGCODEPAGE
  3
ANSI_932
  9
$INSBASE
 10
0.0
 20
0.0
 30
0.0
  9
$EXTMIN
 10
412.3570261319389
 20
-27.81081666804073
 30
-0.0000305052364027
  9
$EXTMAX
 10
810.6978940168005
 20
255.4972401100589
 30
0.0000457898719262
  9
$LIMMIN
 10
0.0
 20
0.0
  9
$LIMMAX
 10
400.0
 20
277.0
  9
$ORTHOMODE
 70
     0
  9
$REGENMODE
 70
     1
  9
$FILLMODE
 70
     1
  9
$QTEXTMODE
 70
     0
  9
$MIRRTEXT
 70
     1
  9
$LTSCALE
 40
1.0
  9
$ATTMODE
 70
     1
  9
$TEXTSIZE
 40
0.2
  9
$TRACEWID
 40
1.0
  9
$TEXTSTYLE
  7
BIGFONT
  9
$CLAYER
  8
寸法線
  9
$CELTYPE
  6
BYLAYER
  9
$CECOLOR
 62
   256
  9
$CELTSCALE
 40
1.0
  9
$DISPSILH
 70
     0
  9
$DIMSCALE
 40
1.0
  9
$DIMASZ
 40
2.5
  9
$DIMEXO
 40
0.0
  9
$DIMDLI
 40
3.75
  9
$DIMRND
 40
0.0
  9
$DIMDLE
 40
0.0
  9
$DIMEXE
 40
1.25
  9
$DIMTP
 40
0.0
  9
$DIMTM
 40
0.0
  9
$DIMTXT
 40
2.5
  9
$DIMCEN
 40
2.5
  9
$DIMTSZ
 40
0.0
  9
$DIMTOL
 70
     0
  9
$DIMLIM
 70
     0
  9
$DIMTIH
 70
     0
  9
$DIMTOH
 70
     0
  9
$DIMSE1
 70
     0
  9
$DIMSE2
 70
     0
  9
$DIMTAD
 70
     1
  9
$DIMZIN
 70
     8
  9
$DIMBLK
  1

  9
$DIMASO
 70
     1
  9
$DIMSHO
 70
     1
  9
$DIMPOST
  1

  9
$DIMAPOST
  1

  9
$DIMALT
 70
     0
  9
$DIMALTD
 70
     4
  9
$DIMALTF
 40
0.0394
  9
$DIMLFAC
 40
1.0
  9
$DIMTOFL
 70
     1
  9
$DIMTVP
 40
0.0
  9
$DIMTIX
 70
     0
  9
$DIMSOXD
 70
     0
  9
$DIMSAH
 70
     1
  9
$DIMBLK1
  1
OPEN
  9
$DIMBLK2
  1
OPEN
  9
$DIMSTYLE
  2
STYLE3
  9
$DIMCLRD
 70
     2
  9
$DIMCLRE
 70
     2
  9
$DIMCLRT
 70
     6
  9
$DIMTFAC
 40
1.0
  9
$DIMGAP
 40
0.625
  9
$DIMJUST
 70
     0
  9
$DIMSD1
 70
     0
  9
$DIMSD2
 70
     0
  9
$DIMTOLJ
 70
     1
  9
$DIMTZIN
 70
     0
  9
$DIMALTZ
 70
     0
  9
$DIMALTTZ
 70
     0
  9
$DIMUPT
 70
     0
  9
$DIMDEC
 70
     8
  9
$DIMTDEC
 70
     8
  9
$DIMALTU
 70
     8
  9
$DIMALTTD
 70
     4
  9
$DIMTXSTY
  7
STYLE3
  9
$DIMAUNIT
 70
     0
  9
$DIMADEC
 70
     8
  9
$DIMALTRND
 40
0.0
  9
$DIMAZIN
 70
     0
  9
$DIMDSEP
 70
    46
  9
$DIMATFIT
 70
     3
  9
$DIMFRAC
 70
     0
  9
$DIMLDRBLK
  1
OPEN
  9
$DIMLUNIT
 70
     2
  9
$DIMLWD
 70
    -2
  9
$DIMLWE
 70
    -2
  9
$DIMTMOVE
 70
     0
  9
$LUNITS
 70
     2
  9
$LUPREC
 70
     4
  9
$SKETCHINC
 40
1.0
  9
$FILLETRAD
 40
15.0
  9
$AUNITS
 70
     0
  9
$AUPREC
 70
     0
  9
$MENU
  1
acad
  9
$ELEVATION
 40
0.0
  9
$PELEVATION
 40
0.0
  9
$THICKNESS
 40
0.0
  9
$LIMCHECK
 70
     0
  9
$CHAMFERA
 40
10.0
  9
$CHAMFERB
 40
10.0
  9
$CHAMFERC
 40
20.0
  9
$CHAMFERD
 40
0.0
  9
$SKPOLY
 70
     0
  9
$TDCREATE
 40
2447851.677997998
  9
$TDUCREATE
 40
2447851.302997998
  9
$TDUPDATE
 40
2455377.487920463
  9
$TDUUPDATE
 40
2455377.112920463
  9
$TDINDWG
 40
0.2643381134
  9
$TDUSRTIMER
 40
0.2643361227
  9
$USRTIMER
 70
     1
  9
$ANGBASE
 50
0.0
  9
$ANGDIR
 70
     0
  9
$PDMODE
 70
     0
  9
$PDSIZE
 40
0.0
  9
$PLINEWID
 40
0.0
  9
$SPLFRAME
 70
     0
  9
$SPLINETYPE
 70
     6
  9
$SPLINESEGS
 70
     8
  9
$HANDSEED
  5
10001D7A
  9
$SURFTAB1
 70
     6
  9
$SURFTAB2
 70
     6
  9
$SURFTYPE
 70
     6
  9
$SURFU
 70
     6
  9
$SURFV
 70
     6
  9
$UCSBASE
  2

  9
$UCSNAME
  2

  9
$UCSORG
 10
0.0
 20
0.0
 30
0.0
  9
$UCSXDIR
 10
1.0
 20
0.0
 30
0.0
  9
$UCSYDIR
 10
0.0
 20
1.0
 30
0.0
  9
$UCSORTHOREF
  2

  9
$UCSORTHOVIEW
 70
     0
  9
$UCSORGTOP
 10
0.0
 20
0.0
 30
0.0
  9
$UCSORGBOTTOM
 10
0.0
 20
0.0
 30
0.0
  9
$UCSORGLEFT
 10
0.0
 20
0.0
 30
0.0
  9
$UCSORGRIGHT
 10
0.0
 20
0.0
 30
0.0
  9
$UCSORGFRONT
 10
0.0
 20
0.0
 30
0.0
  9
$UCSORGBACK
 10
0.0
 20
0.0
 30
0.0
  9
$PUCSBASE
  2

  9
$PUCSNAME
  2

  9
$PUCSORG
 10
0.0
 20
0.0
 30
0.0
  9
$PUCSXDIR
 10
1.0
 20
0.0
 30
0.0
  9
$PUCSYDIR
 10
0.0
 20
1.0
 30
0.0
  9
$PUCSORTHOREF
  2

  9
$PUCSORTHOVIEW
 70
     0
  9
$PUCSORGTOP
 10
0.0
 20
0.0
 30
0.0
  9
$PUCSORGBOTTOM
 10
0.0
 20
0.0
 30
0.0
  9
$PUCSORGLEFT
 10
0.0
 20
0.0
 30
0.0
  9
$PUCSORGRIGHT
 10
0.0
 20
0.0
 30
0.0
  9
$PUCSORGFRONT
 10
0.0
 20
0.0
 30
0.0
  9
$PUCSORGBACK
 10
0.0
 20
0.0
 30
0.0
  9
$USERI1
 70
     0
  9
$USERI2
 70
     0
  9
$USERI3
 70
     0
  9
$USERI4
 70
     0
  9
$USERI5
 70
     0
  9
$USERR1
 40
0.0
  9
$USERR2
 40
0.0
  9
$USERR3
 40
0.0
  9
$USERR4
 40
0.0
  9
$USERR5
 40
0.0
  9
$WORLDVIEW
 70
     1
  9
$SHADEDGE
 70
     3
  9
$SHADEDIF
 70
    70
  9
$TILEMODE
 70
     1
  9
$MAXACTVP
 70
    48
  9
$PINSBASE
 10
0.0
 20
0.0
 30
0.0
  9
$PLIMCHECK
 70
     0
  9
$PEXTMIN
 10
1.000000000000000E+20
 20
1.000000000000000E+20
 30
1.000000000000000E+20
  9
$PEXTMAX
 10
-1.000000000000000E+20
 20
-1.000000000000000E+20
 30
-1.000000000000000E+20
  9
$PLIMMIN
 10
0.0
 20
0.0
  9
$PLIMMAX
 10
400.0
 20
277.0
  9
$UNITMODE
 70
     0
  9
$VISRETAIN
 70
     1
  9
$PLINEGEN
 70
     0
  9
$PSLTSCALE
 70
     1
  9
$TREEDEPTH
 70
  3020
  9
$CMLSTYLE
  2
STANDARD
  9
$CMLJUST
 70
     0
  9
$CMLSCALE
 40
20.0
  9
$PROXYGRAPHICS
 70
     1
  9
$MEASUREMENT
 70
     1
  9
$CELWEIGHT
370
    -1
  9
$ENDCAPS
280
     0
  9
$JOINSTYLE
280
     0
  9
$LWDISPLAY
290
     0
  9
$INSUNITS
 70
     0
  9
$HYPERLINKBASE
  1

  9
$STYLESHEET
  1
AutoCAD LT 98.ctb
  9
$XEDIT
290
     1
  9
$CEPSNTYPE
380
     0
  9
$PSTYLEMODE
290
     1
  9
$FINGERPRINTGUID
  2
{BAD01860-4F6E-486F-8994-882C5CF062A3}
  9
$VERSIONGUID
  2
{6A4EB0CC-AFD7-415E-8138-D6B91C43E271}
  9
$EXTNAMES
290
     1
  9
$PSVPSCALE
 40
0.0
  9
$OLESTARTUP
290
     0
  9
$SORTENTS
280
   127
  9
$INDEXCTL
280
     0
  9
$HIDETEXT
280
     0
  9
$XCLIPFRAME
290
     0
  9
$HALOGAP
280
     0
  9
$OBSCOLOR
 70
   257
  9
$OBSLTYPE
280
     0
  9
$INTERSECTIONDISPLAY
280
     0
  9
$INTERSECTIONCOLOR
 70
   257
  9
$DIMASSOC
280
     1
  9
$PROJECTNAME
  1

  0
ENDSEC
  0
SECTION
  2
CLASSES
  0
CLASS
  1
ACDBDICTIONARYWDFLT
  2
AcDbDictionaryWithDefault
  3
ObjectDBX Classes
 90
        0
 91
        1
280
     0
281
     0
  0
CLASS
  1
TABLESTYLE
  2
AcDbTableStyle
  3
ObjectDBX Classes
 90
     2047
 91
        1
280
     0
281
     0
  0
CLASS
  1
DICTIONARYVAR
  2
AcDbDictionaryVar
  3
ObjectDBX Classes
 90
        0
 91
        1
280
     0
281
     0
  0
CLASS
  1
SORTENTSTABLE
  2
AcDbSortentsTable
  3
ObjectDBX Classes
 90
        0
 91
        2
280
     0
281
     0
  0
ENDSEC
  0
SECTION
  2
TABLES
  0
TABLE
  2
VPORT
  5
A2
330
0
100
AcDbSymbolTable
 70
     2
  0
VPORT
  5
10001D79
330
A2
100
AcDbSymbolTableRecord
100
AcDbViewportTableRecord
  2
*Active
 70
     0
 10
0.0
 20
0.0
 11
1.0
 21
1.0
 12
611.5274600743697
 22
113.843211721009
 13
0.0
 23
0.0
 14
10.0
 24
10.0
 15
10.0
 25
10.0
 16
0.0
 26
0.0
 36
1.0
 17
0.0
 27
0.0
 37
0.0
 40
285.4624906699482
 41
1.530456852791878
 42
50.0
 43
0.0
 44
0.0
 50
0.0
 51
0.0
 71
     0
 72
   100
 73
     1
 74
     1
 75
     0
 76
     0
 77
     0
 78
     0
281
     0
 65
     1
110
0.0
120
0.0
130
0.0
111
1.0
121
0.0
131
0.0
112
0.0
122
1.0
132
0.0
 79
     0
146
0.0
  0
ENDTAB
  0
TABLE
  2
LTYPE
  5
A8
330
0
100
AcDbSymbolTable
 70
    12
  0
LTYPE
  5
AB
330
A8
100
AcDbSymbolTableRecord
100
AcDbLinetypeTableRecord
  2
BYBLOCK
 70
     0
  3
BYBLOCK
 72
    65
 73
     0
 40
0.0
  0
LTYPE
  5
AE
330
A8
100
AcDbSymbolTableRecord
100
AcDbLinetypeTableRecord
  2
BYLAYER
 70
     0
  3
BYLAYER
 72
    65
 73
     0
 40
0.0
  0
LTYPE
  5
B1
330
A8
100
AcDbSymbolTableRecord
100
AcDbLinetypeTableRecord
  2
CONTINUOUS
 70
     0
  3
実線
 72
    65
 73
     0
 40
0.0
  0
LTYPE
  5
100000FA
330
A8
100
AcDbSymbolTableRecord
100
AcDbLinetypeTableRecord
  2
CENTER2
 70
     0
  3
Center (.5x) ___ _ ___ _ ___ _ ___ _ ___ _ ___
 72
    65
 73
     4
 40
28.575
 49
19.05
 74
     0
 49
-3.174999999999999
 74
     0
 49
3.174999999999999
 74
     0
 49
-3.174999999999999
 74
     0
  0
LTYPE
  5
100000FB
330
A8
100
AcDbSymbolTableRecord
100
AcDbLinetypeTableRecord
  2
HIDDEN2
 70
     0
  3
Hidden (.5x) _ _ _ _ _ _ _ _ _ _ _ _ _ _ _ _ _
 72
    65
 73
     2
 40
4.762499999999999
 49
3.174999999999999
 74
     0
 49
-1.587499999999999
 74
     0
  0
LTYPE
  5
100000FC
330
A8
100
AcDbSymbolTableRecord
100
AcDbLinetypeTableRecord
  2
PHANTOM2
 70
     0
  3
Phantom (.5x) ___ _ _ ___ _ _ ___ _ _ ___ _ _
 72
    65
 73
     6
 40
31.75
 49
15.875
 74
     0
 49
-3.174999999999999
 74
     0
 49
3.174999999999999
 74
     0
 49
-3.174999999999999
 74
     0
 49
3.174999999999999
 74
     0
 49
-3.174999999999999
 74
     0
  0
ENDTAB
  0
TABLE
  2
LAYER
  5
CC
330
0
100
AcDbSymbolTable
 70
    15
  0
LAYER
  5
CF
330
CC
100
AcDbSymbolTableRecord
100
AcDbLayerTableRecord
  2
0
 70
     0
 62
     1
  6
CONTINUOUS
370
    -3
390
10000002
  0
LAYER
  5
100000FD
330
CC
100
AcDbSymbolTableRecord
100
AcDbLayerTableRecord
  2
外形線
 70
     0
 62
     7
  6
CONTINUOUS
370
    -3
390
10000002
  0
LAYER
  5
100000FE
330
CC
100
AcDbSymbolTableRecord
100
AcDbLayerTableRecord
  2
寸法線
 70
     0
 62
     2
  6
CONTINUOUS
370
    -3
390
10000002
  0
LAYER
  5
100000FF
330
CC
100
AcDbSymbolTableRecord
100
AcDbLayerTableRecord
  2
中心線
 70
     0
 62
     4
  6
CENTER2
370
    -3
390
10000002
  0
LAYER
  5
10000100
330
CC
100
AcDbSymbolTableRecord
100
AcDbLayerTableRecord
  2
想像線
 70
     0
 62
     1
  6
PHANTOM2
370
    -3
390
10000002
  0
LAYER
  5
10000101
330
CC
100
AcDbSymbolTableRecord
100
AcDbLayerTableRecord
  2
文字
 70
     0
 62
     6
  6
CONTINUOUS
370
    -3
390
10000002
  0
LAYER
  5
10000102
330
CC
100
AcDbSymbolTableRecord
100
AcDbLayerTableRecord
  2
目盛
 70
     0
 62
    70
  6
CONTINUOUS
370
    -3
390
10000002
  0
LAYER
  5
10000103
330
CC
100
AcDbSymbolTableRecord
100
AcDbLayerTableRecord
  2
針
 70
     0
 62
     5
  6
CONTINUOUS
370
    -3
390
10000002
  0
LAYER
  5
10000104
330
CC
100
AcDbSymbolTableRecord
100
AcDbLayerTableRecord
  2
DEFPOINTS
 70
     0
 62
     7
  6
CONTINUOUS
290
     0
370
    -3
390
10000002
  0
LAYER
  5
10000105
330
CC
100
AcDbSymbolTableRecord
100
AcDbLayerTableRecord
  2
隠れ線2
 70
     0
 62
     1
  6
HIDDEN2
370
    -3
390
10000002
  0
LAYER
  5
10000106
330
CC
100
AcDbSymbolTableRecord
100
AcDbLayerTableRecord
  2
ROGO
 70
     0
 62
     6
  6
CONTINUOUS
370
    -3
390
10000002
  0
LAYER
  5
10000107
330
CC
100
AcDbSymbolTableRecord
100
AcDbLayerTableRecord
  2
握り
 70
     0
 62
     3
  6
CONTINUOUS
370
    -3
390
10000002
  0
LAYER
  5
10000108
330
CC
100
AcDbSymbolTableRecord
100
AcDbLayerTableRecord
  2
隠れ線
 70
     0
 62
     6
  6
HIDDEN2
370
    -3
390
10000002
  0
LAYER
  5
10000109
330
CC
100
AcDbSymbolTableRecord
100
AcDbLayerTableRecord
  2
ﾊｯﾁﾝｸ
 70
     0
 62
     6
  6
CONTINUOUS
370
    -3
390
10000002
  0
LAYER
  5
1000010A
330
CC
100
AcDbSymbolTableRecord
100
AcDbLayerTableRecord
  2
C
 70
     0
 62
     7
  6
CONTINUOUS
370
    -3
390
10000002
  0
ENDTAB
  0
TABLE
  2
STYLE
  5
D2
330
0
100
AcDbSymbolTable
 70
     3
  0
STYLE
  5
D5
330
D2
100
AcDbSymbolTableRecord
100
AcDbTextStyleTableRecord
  2
STANDARD
 70
     0
 40
0.0
 41
0.5
 50
0.0
 71
     0
 42
0.3
  3
txt
  4

  0
STYLE
  5
D8
330
D2
100
AcDbSymbolTableRecord
100
AcDbTextStyleTableRecord
  2
BIGFONT
 70
     0
 40
0.0
 41
1.0
 50
0.0
 71
     0
 42
0.2
  3
txt.shx
  4
bigfont
  0
STYLE
  5
1000010B
330
D2
100
AcDbSymbolTableRecord
100
AcDbTextStyleTableRecord
  2
STYLE3
 70
     0
 40
0.0
 41
1.0
 50
0.0
 71
     0
 42
3.0
  3
romans.shx
  4
bigfont.shx
  0
ENDTAB
  0
TABLE
  2
VIEW
  5
DB
330
0
100
AcDbSymbolTable
 70
     1
  0
VIEW
  5
10001C8F
330
DB
100
AcDbSymbolTableRecord
100
AcDbViewTableRecord
  2
OLE1
 70
     0
 40
285.7629654492173
 10
611.502313047459
 20
113.8377681815238
 41
480.7685942321596
 11
0.0
 21
0.0
 31
1.0
 12
0.0
 22
0.0
 32
0.0
 42
50.0
 43
0.0
 44
0.0
 50
0.0
 71
     0
281
     0
 72
     0
  0
ENDTAB
  0
TABLE
  2
UCS
  5
DE
330
0
100
AcDbSymbolTable
 70
     0
  0
ENDTAB
  0
TABLE
  2
APPID
  5
E1
330
0
100
AcDbSymbolTable
 70
     5
  0
APPID
  5
E4
330
E1
100
AcDbSymbolTableRecord
100
AcDbRegAppTableRecord
  2
ACAD
 70
     0
  0
APPID
  5
E7
330
E1
100
AcDbSymbolTableRecord
100
AcDbRegAppTableRecord
  2
CONTENTTABDATA
 70
     0
  0
APPID
  5
EA
330
E1
100
AcDbSymbolTableRecord
100
AcDbRegAppTableRecord
  2
CONTENTCURRENTTAB
 70
     0
  0
APPID
  5
1000115C
330
E1
100
AcDbSymbolTableRecord
100
AcDbRegAppTableRecord
  2
ACAD_DSTYLE_DIMTEXT_FILL
 70
     0
  0
APPID
  5
100017E3
330
E1
100
AcDbSymbolTableRecord
100
AcDbRegAppTableRecord
  2
ACAD_PSEXT
 70
     0
  0
ENDTAB
  0
TABLE
  2
DIMSTYLE
  5
ED
330
0
100
AcDbSymbolTable
 70
     2
100
AcDbDimStyleTable
 71
     2
340
1000010C
340
F0
  0
DIMSTYLE
105
F0
330
ED
100
AcDbSymbolTableRecord
100
AcDbDimStyleTableRecord
  2
STANDARD
 70
     0
340
D5
  0
DIMSTYLE
105
1000010C
102
{ACAD_REACTORS
330
10001370
330
100016E2
330
100016F0
330
10001704
330
10001717
330
10001934
102
}
330
ED
100
AcDbSymbolTableRecord
100
AcDbDimStyleTableRecord
  2
STYLE3
 70
     0
 41
2.5
 42
0.0
 43
3.75
 44
1.25
 73
     0
 74
     0
 77
     1
 78
     8
140
2.5
141
2.5
143
0.0394
147
0.625
171
     4
172
     1
173
     1
176
     2
177
     2
178
     6
179
     8
271
     8
272
     8
273
     8
274
     4
340
1000010B
341
1000001E
343
1000001E
344
1000001E
  0
ENDTAB
  0
TABLE
  2
BLOCK_RECORD
  5
F3
330
0
100
AcDbSymbolTable
 70
     8
  0
BLOCK_RECORD
  5
F6
102
{ACAD_XDICTIONARY
360
100011BC
102
}
330
F3
100
AcDbSymbolTableRecord
100
AcDbBlockTableRecord
  2
*MODEL_SPACE
340
10000009
  0
BLOCK_RECORD
  5
F9
330
F3
100
AcDbSymbolTableRecord
100
AcDbBlockTableRecord
  2
*PAPER_SPACE
340
1000000A
  0
BLOCK_RECORD
  5
1000001E
330
F3
100
AcDbSymbolTableRecord
100
AcDbBlockTableRecord
  2
_OPEN
340
0
102
{BLKREFS
331
100015B5
331
10001682
331
1000176F
331
10001770
331
1000177A
331
1000177B
331
100018A1
331
100018A2
331
10001930
331
10001931
331
10001939
331
1000193A
331
10001947
331
10001948
331
10001C4E
331
10001C4F
331
10001C57
331
10001C58
331
10001D01
331
10001D02
102
}
  0
BLOCK_RECORD
  5
10001371
330
F3
100
AcDbSymbolTableRecord
100
AcDbBlockTableRecord
  2
*D1
340
0
  0
BLOCK_RECORD
  5
100016E3
330
F3
100
AcDbSymbolTableRecord
100
AcDbBlockTableRecord
  2
*D2
340
0
  0
BLOCK_RECORD
  5
100016F1
330
F3
100
AcDbSymbolTableRecord
100
AcDbBlockTableRecord
  2
*D3
340
0
  0
BLOCK_RECORD
  5
10001705
330
F3
100
AcDbSymbolTableRecord
100
AcDbBlockTableRecord
  2
*D4
340
0
  0
BLOCK_RECORD
  5
10001718
330
F3
100
AcDbSymbolTableRecord
100
AcDbBlockTableRecord
  2
*D5
340
0
  0
BLOCK_RECORD
  5
10001935
330
F3
100
AcDbSymbolTableRecord
100
AcDbBlockTableRecord
  2
*D6
340
0
  0
ENDTAB
  0
ENDSEC
  0
SECTION
  2
BLOCKS
  0
BLOCK
  5
FC
330
F6
100
AcDbEntity
  8
0
100
AcDbBlockBegin
  2
*MODEL_SPACE
 70
     0
 10
0.0
 20
0.0
 30
0.0
  3
*MODEL_SPACE
  1
 
  0
ENDBLK
  5
FF
330
F6
100
AcDbEntity
  8
0
100
AcDbBlockEnd
  0
BLOCK
  5
102
330
F9
100
AcDbEntity
 67
     1
  8
0
100
AcDbBlockBegin
  2
*PAPER_SPACE
 70
     0
 10
0.0
 20
0.0
 30
0.0
  3
*PAPER_SPACE
  1
 
  0
ENDBLK
  5
105
330
F9
100
AcDbEntity
 67
     1
  8
0
100
AcDbBlockEnd
  0
BLOCK
  5
1000001F
330
1000001E
100
AcDbEntity
  8
0
100
AcDbBlockBegin
  2
_OPEN
 70
     0
 10
0.0
 20
0.0
 30
0.0
  3
_OPEN
  1

  0
LINE
  5
10000020
330
1000001E
100
AcDbEntity
  8
0
  6
ByBlock
 62
     0
100
AcDbLine
 10
-1.0
 20
0.1666666666666666
 30
0.0
 11
0.0
 21
0.0
 31
0.0
  0
LINE
  5
10000021
330
1000001E
100
AcDbEntity
  8
0
  6
ByBlock
 62
     0
100
AcDbLine
 10
0.0
 20
0.0
 30
0.0
 11
-1.0
 21
-0.1666666666666666
 31
0.0
  0
LINE
  5
10000022
330
1000001E
100
AcDbEntity
  8
0
  6
ByBlock
 62
     0
100
AcDbLine
 10
0.0
 20
0.0
 30
0.0
 11
-1.0
 21
0.0
 31
0.0
  0
ENDBLK
  5
10000023
330
1000001E
100
AcDbEntity
  8
0
100
AcDbBlockEnd
  0
BLOCK
  5
1000137B
330
10001371
100
AcDbEntity
  8
0
100
AcDbBlockBegin
  2
*D1
 70
     1
 10
0.0
 20
0.0
 30
0.0
  3
*D1
  1

  0
LINE
  5
10001944
330
10001371
100
AcDbEntity
  8
外形線
 62
     2
370
    -2
100
AcDbLine
 10
788.4709000969137
 20
116.6823871670443
 30
0.0
 11
804.3566537053852
 21
116.6823871670443
 31
0.0
  0
LINE
  5
10001945
330
10001371
100
AcDbEntity
  8
外形線
 62
     2
370
    -2
100
AcDbLine
 10
788.4709000969137
 20
86.68238716704435
 30
0.0
 11
804.3566537053852
 21
86.68238716704433
 31
0.0
  0
LINE
  5
10001946
330
10001371
100
AcDbEntity
  8
外形線
 62
     2
370
    -2
100
AcDbLine
 10
803.1066537053852
 20
114.1823871670443
 30
0.0
 11
803.1066537053852
 21
89.18238716704433
 31
0.0
  0
INSERT
  5
10001947
330
10001371
100
AcDbEntity
  8
外形線
 62
     2
370
    -2
100
AcDbBlockReference
  2
_OPEN
 10
803.1066537053852
 20
116.6823871670443
 30
0.0
 41
2.5
 42
2.5
 43
2.5
 50
90.0
  0
INSERT
  5
10001948
330
10001371
100
AcDbEntity
  8
外形線
 62
     2
370
    -2
100
AcDbBlockReference
  2
_OPEN
 10
803.1066537053852
 20
86.68238716704433
 30
0.0
 41
2.5
 42
2.5
 43
2.5
 50
270.0
  0
MTEXT
  5
10001949
330
10001371
100
AcDbEntity
  8
外形線
 62
     6
100
AcDbMText
 10
801.2316537053852
 20
101.6823871670444
 30
0.0
 40
2.5
 41
0.0
 71
     5
 72
     1
  1
\A1;30
  7
STYLE3
 11
0.0000000000000001
 21
1.0
 31
0.0
 73
     1
 44
1.0
  0
POINT
  5
1000194A
330
10001371
100
AcDbEntity
  8
DEFPOINTS
 62
     0
100
AcDbPoint
 10
788.4709000969137
 20
116.6823871670443
 30
0.0
  0
POINT
  5
1000194B
330
10001371
100
AcDbEntity
  8
DEFPOINTS
 62
     0
100
AcDbPoint
 10
788.4709000969137
 20
86.68238716704435
 30
0.0
  0
POINT
  5
1000194C
330
10001371
100
AcDbEntity
  8
DEFPOINTS
 62
     0
100
AcDbPoint
 10
803.1066537053852
 20
86.68238716704433
 30
0.0
  0
ENDBLK
  5
1000137C
330
10001371
100
AcDbEntity
  8
0
100
AcDbBlockEnd
  0
BLOCK
  5
100016ED
330
100016E3
100
AcDbEntity
  8
0
100
AcDbBlockBegin
  2
*D2
 70
     1
 10
0.0
 20
0.0
 30
0.0
  3
*D2
  1

  0
LINE
  5
10001C54
330
100016E3
100
AcDbEntity
  8
寸法線
 62
     2
370
    -2
100
AcDbLine
 10
658.4709000969137
 20
123.5823871670443
 30
0.0
 11
658.4709000969137
 21
133.6867421130522
 31
0.0
  0
LINE
  5
10001C55
330
100016E3
100
AcDbEntity
  8
寸法線
 62
     2
370
    -2
100
AcDbLine
 10
693.4709000969137
 20
113.3823871670444
 30
0.0
 11
693.4709000969137
 21
133.6867421130522
 31
0.0
  0
LINE
  5
10001C56
330
100016E3
100
AcDbEntity
  8
寸法線
 62
     2
370
    -2
100
AcDbLine
 10
660.9709000969137
 20
132.4367421130522
 30
0.0
 11
690.9709000969137
 21
132.4367421130522
 31
0.0
  0
INSERT
  5
10001C57
330
100016E3
100
AcDbEntity
  8
寸法線
 62
     2
370
    -2
100
AcDbBlockReference
  2
_OPEN
 10
658.4709000969137
 20
132.4367421130522
 30
0.0
 41
2.5
 42
2.5
 43
2.5
 50
180.0
  0
INSERT
  5
10001C58
330
100016E3
100
AcDbEntity
  8
寸法線
 62
     2
370
    -2
100
AcDbBlockReference
  2
_OPEN
 10
693.4709000969137
 20
132.4367421130522
 30
0.0
 41
2.5
 42
2.5
 43
2.5
  0
MTEXT
  5
10001C59
330
100016E3
100
AcDbEntity
  8
寸法線
 62
     6
100
AcDbMText
 10
675.9709000969137
 20
134.3117421130522
 30
0.0
 40
2.5
 41
0.0
 71
     5
 72
     1
  1
\A1;35
  7
STYLE3
 73
     1
 44
1.0
  0
POINT
  5
10001C5A
330
100016E3
100
AcDbEntity
  8
DEFPOINTS
 62
     0
100
AcDbPoint
 10
658.4709000969137
 20
123.5823871670443
 30
0.0
  0
POINT
  5
10001C5B
330
100016E3
100
AcDbEntity
  8
DEFPOINTS
 62
     0
100
AcDbPoint
 10
693.4709000969137
 20
113.3823871670444
 30
0.0
  0
POINT
  5
10001C5C
330
100016E3
100
AcDbEntity
  8
DEFPOINTS
 62
     0
100
AcDbPoint
 10
693.4709000969137
 20
132.4367421130522
 30
0.0
  0
ENDBLK
  5
100016EE
330
100016E3
100
AcDbEntity
  8
0
100
AcDbBlockEnd
  0
BLOCK
  5
100016FB
330
100016F1
100
AcDbEntity
  8
0
100
AcDbBlockBegin
  2
*D3
 70
     1
 10
0.0
 20
0.0
 30
0.0
  3
*D3
  1

  0
LINE
  5
10001C4B
330
100016F1
100
AcDbEntity
  8
寸法線
 62
     2
370
    -2
100
AcDbLine
 10
693.4709000969137
 20
113.3823871670444
 30
0.0
 11
693.4709000969137
 21
133.6867421130522
 31
0.0
  0
LINE
  5
10001C4C
330
100016F1
100
AcDbEntity
  8
寸法線
 62
     2
370
    -2
100
AcDbLine
 10
793.4709000969137
 20
115.3823871670444
 30
0.0
 11
793.4709000969137
 21
133.6867421130522
 31
0.0
  0
LINE
  5
10001C4D
330
100016F1
100
AcDbEntity
  8
寸法線
 62
     2
370
    -2
100
AcDbLine
 10
695.9709000969137
 20
132.4367421130522
 30
0.0
 11
790.9709000969137
 21
132.4367421130522
 31
0.0
  0
INSERT
  5
10001C4E
330
100016F1
100
AcDbEntity
  8
寸法線
 62
     2
370
    -2
100
AcDbBlockReference
  2
_OPEN
 10
693.4709000969137
 20
132.4367421130522
 30
0.0
 41
2.5
 42
2.5
 43
2.5
 50
180.0
  0
INSERT
  5
10001C4F
330
100016F1
100
AcDbEntity
  8
寸法線
 62
     2
370
    -2
100
AcDbBlockReference
  2
_OPEN
 10
793.4709000969137
 20
132.4367421130522
 30
0.0
 41
2.5
 42
2.5
 43
2.5
  0
MTEXT
  5
10001C50
330
100016F1
100
AcDbEntity
  8
寸法線
 62
     6
100
AcDbMText
 10
743.4709000969137
 20
134.3117421130522
 30
0.0
 40
2.5
 41
0.0
 71
     5
 72
     1
  1
\A1;100
  7
STYLE3
 73
     1
 44
1.0
  0
POINT
  5
10001C51
330
100016F1
100
AcDbEntity
  8
DEFPOINTS
 62
     0
100
AcDbPoint
 10
693.4709000969137
 20
113.3823871670444
 30
0.0
  0
POINT
  5
10001C52
330
100016F1
100
AcDbEntity
  8
DEFPOINTS
 62
     0
100
AcDbPoint
 10
793.4709000969137
 20
115.3823871670444
 30
0.0
  0
POINT
  5
10001C53
330
100016F1
100
AcDbEntity
  8
DEFPOINTS
 62
     0
100
AcDbPoint
 10
793.4709000969137
 20
132.4367421130522
 30
0.0
  0
ENDBLK
  5
100016FC
330
100016F1
100
AcDbEntity
  8
0
100
AcDbBlockEnd
  0
BLOCK
  5
10001711
330
10001705
100
AcDbEntity
  8
0
100
AcDbBlockBegin
  2
*D4
 70
     1
 10
0.0
 20
0.0
 30
0.0
  3
*D4
  1

  0
LINE
  5
1000176A
330
10001705
100
AcDbEntity
  8
寸法線
 62
     2
370
    -2
100
AcDbLine
 10
502.3463969974702
 20
128.8595948643045
 30
0.0
 11
502.3463969974702
 21
136.6749091740651
 31
0.0
  0
LINE
  5
1000176B
330
10001705
100
AcDbEntity
  8
寸法線
 62
     2
370
    -2
100
AcDbLine
 10
505.3463969974703
 20
129.3610112948994
 30
0.0
 11
505.3463969974703
 21
136.6749091740651
 31
0.0
  0
LINE
  5
1000176C
330
10001705
100
AcDbEntity
  8
寸法線
 62
     2
370
    -2
100
AcDbLine
 10
499.8463969974702
 20
135.4249091740651
 30
0.0
 11
497.3463969974702
 21
135.4249091740651
 31
0.0
  0
LINE
  5
1000176D
330
10001705
100
AcDbEntity
  8
寸法線
 62
     2
370
    -2
100
AcDbLine
 10
507.8463969974702
 20
135.4249091740651
 30
0.0
 11
510.3463969974702
 21
135.4249091740651
 31
0.0
  0
LINE
  5
1000176E
330
10001705
100
AcDbEntity
  8
寸法線
 62
     2
370
    -2
100
AcDbLine
 10
502.3463969974702
 20
135.4249091740651
 30
0.0
 11
505.3463969974703
 21
135.4249091740651
 31
0.0
  0
INSERT
  5
1000176F
330
10001705
100
AcDbEntity
  8
寸法線
 62
     2
370
    -2
100
AcDbBlockReference
  2
_OPEN
 10
502.3463969974702
 20
135.4249091740651
 30
0.0
 41
2.5
 42
2.5
 43
2.5
  0
INSERT
  5
10001770
330
10001705
100
AcDbEntity
  8
寸法線
 62
     2
370
    -2
100
AcDbBlockReference
  2
_OPEN
 10
505.3463969974703
 20
135.4249091740651
 30
0.0
 41
2.5
 42
2.5
 43
2.5
 50
180.0
  0
MTEXT
  5
10001771
330
10001705
100
AcDbEntity
  8
寸法線
 62
     6
100
AcDbMText
 10
503.8463969974702
 20
137.299909174065
 30
0.0
 40
2.5
 41
0.0
 71
     5
 72
     1
  1
\A1;3
  7
STYLE3
 73
     1
 44
1.0
  0
POINT
  5
10001772
330
10001705
100
AcDbEntity
  8
DEFPOINTS
 62
     0
100
AcDbPoint
 10
502.3463969974702
 20
128.8595948643045
 30
0.0
  0
POINT
  5
10001773
330
10001705
100
AcDbEntity
  8
DEFPOINTS
 62
     0
100
AcDbPoint
 10
505.3463969974703
 20
129.3610112948994
 30
0.0
  0
POINT
  5
10001774
330
10001705
100
AcDbEntity
  8
DEFPOINTS
 62
     0
100
AcDbPoint
 10
505.3463969974703
 20
135.4249091740651
 30
0.0
  0
ENDBLK
  5
10001712
330
10001705
100
AcDbEntity
  8
0
100
AcDbBlockEnd
  0
BLOCK
  5
10001724
330
10001718
100
AcDbEntity
  8
0
100
AcDbBlockBegin
  2
*D5
 70
     1
 10
0.0
 20
0.0
 30
0.0
  3
*D5
  1

  0
LINE
  5
10001775
330
10001718
100
AcDbEntity
  8
寸法線
 62
     2
370
    -2
100
AcDbLine
 10
487.8408778094017
 20
87.73238716704431
 30
0.0
 11
487.8408778094017
 21
95.06082300107005
 31
0.0
  0
LINE
  5
10001776
330
10001718
100
AcDbEntity
  8
寸法線
 62
     2
370
    -2
100
AcDbLine
 10
490.8408778094017
 20
87.73238716704431
 30
0.0
 11
490.8408778094017
 21
95.06082300107005
 31
0.0
  0
LINE
  5
10001777
330
10001718
100
AcDbEntity
  8
寸法線
 62
     2
370
    -2
100
AcDbLine
 10
485.3408778094017
 20
93.81082300107005
 30
0.0
 11
482.8408778094017
 21
93.81082300107005
 31
0.0
  0
LINE
  5
10001778
330
10001718
100
AcDbEntity
  8
寸法線
 62
     2
370
    -2
100
AcDbLine
 10
493.3408778094017
 20
93.81082300107005
 30
0.0
 11
495.8408778094017
 21
93.81082300107005
 31
0.0
  0
LINE
  5
10001779
330
10001718
100
AcDbEntity
  8
寸法線
 62
     2
370
    -2
100
AcDbLine
 10
487.8408778094017
 20
93.81082300107005
 30
0.0
 11
490.8408778094017
 21
93.81082300107005
 31
0.0
  0
INSERT
  5
1000177A
330
10001718
100
AcDbEntity
  8
寸法線
 62
     2
370
    -2
100
AcDbBlockReference
  2
_OPEN
 10
487.8408778094017
 20
93.81082300107005
 30
0.0
 41
2.5
 42
2.5
 43
2.5
  0
INSERT
  5
1000177B
330
10001718
100
AcDbEntity
  8
寸法線
 62
     2
370
    -2
100
AcDbBlockReference
  2
_OPEN
 10
490.8408778094017
 20
93.81082300107005
 30
0.0
 41
2.5
 42
2.5
 43
2.5
 50
180.0
  0
MTEXT
  5
1000177C
330
10001718
100
AcDbEntity
  8
寸法線
 62
     6
100
AcDbMText
 10
489.3408778094017
 20
95.68582300107005
 30
0.0
 40
2.5
 41
0.0
 71
     5
 72
     1
  1
\A1;3
  7
STYLE3
 73
     1
 44
1.0
  0
POINT
  5
1000177D
330
10001718
100
AcDbEntity
  8
DEFPOINTS
 62
     0
100
AcDbPoint
 10
487.8408778094017
 20
87.73238716704431
 30
0.0
  0
POINT
  5
1000177E
330
10001718
100
AcDbEntity
  8
DEFPOINTS
 62
     0
100
AcDbPoint
 10
490.8408778094017
 20
87.73238716704431
 30
0.0
  0
POINT
  5
1000177F
330
10001718
100
AcDbEntity
  8
DEFPOINTS
 62
     0
100
AcDbPoint
 10
490.8408778094017
 20
93.81082300107005
 30
0.0
  0
ENDBLK
  5
10001725
330
10001718
100
AcDbEntity
  8
0
100
AcDbBlockEnd
  0
BLOCK
  5
1000193F
330
10001935
100
AcDbEntity
  8
0
100
AcDbBlockBegin
  2
*D6
 70
     1
 10
0.0
 20
0.0
 30
0.0
  3
*D6
  1

  0
LINE
  5
10001936
330
10001935
100
AcDbEntity
  8
寸法線
 62
     2
370
    -2
100
AcDbLine
 10
467.6830598135246
 20
161.6823871670443
 30
0.0
 11
422.3101365361787
 21
161.6823871670444
 31
0.0
  0
LINE
  5
10001937
330
10001935
100
AcDbEntity
  8
寸法線
 62
     2
370
    -2
100
AcDbLine
 10
467.6830598135246
 20
41.68238716704437
 30
0.0
 11
422.3101365361786
 21
41.68238716704439
 31
0.0
  0
LINE
  5
10001938
330
10001935
100
AcDbEntity
  8
寸法線
 62
     2
370
    -2
100
AcDbLine
 10
423.5601365361786
 20
159.1823871670444
 30
0.0
 11
423.5601365361786
 21
44.18238716704439
 31
0.0
  0
INSERT
  5
10001939
330
10001935
100
AcDbEntity
  8
寸法線
 62
     2
370
    -2
100
AcDbBlockReference
  2
_OPEN
 10
423.5601365361786
 20
161.6823871670444
 30
0.0
 41
2.5
 42
2.5
 43
2.5
 50
90.0
  0
INSERT
  5
1000193A
330
10001935
100
AcDbEntity
  8
寸法線
 62
     2
370
    -2
100
AcDbBlockReference
  2
_OPEN
 10
423.5601365361786
 20
41.68238716704439
 30
0.0
 41
2.5
 42
2.5
 43
2.5
 50
270.0
  0
MTEXT
  5
1000193B
330
10001935
100
AcDbEntity
  8
寸法線
 62
     6
100
AcDbMText
 10
421.6851365361787
 20
101.6823871670444
 30
0.0
 40
2.5
 41
0.0
 71
     5
 72
     1
  1
\A1;120
  7
STYLE3
 11
0.0000000000000001
 21
1.0
 31
0.0
 73
     1
 44
1.0
  0
POINT
  5
1000193C
330
10001935
100
AcDbEntity
  8
DEFPOINTS
 62
     0
100
AcDbPoint
 10
467.6830598135246
 20
161.6823871670443
 30
0.0
  0
POINT
  5
1000193D
330
10001935
100
AcDbEntity
  8
DEFPOINTS
 62
     0
100
AcDbPoint
 10
467.6830598135246
 20
41.68238716704437
 30
0.0
  0
POINT
  5
1000193E
330
10001935
100
AcDbEntity
  8
DEFPOINTS
 62
     0
100
AcDbPoint
 10
423.5601365361786
 20
41.68238716704439
 30
0.0
  0
ENDBLK
  5
10001940
330
10001935
100
AcDbEntity
  8
0
100
AcDbBlockEnd
  0
ENDSEC
  0
SECTION
  2
ENTITIES
  0
LINE
  5
108
330
F6
100
AcDbEntity
  8
中心線
100
AcDbLine
 10
798.1721705027845
 20
101.6823871670443
 30
0.0
 11
452.84668660606
 21
101.6823871670443
 31
0.0
  0
LINE
  5
10B
330
F6
100
AcDbEntity
  8
中心線
100
AcDbLine
 10
658.4709000969137
 20
123.5823871670443
 30
0.0
 11
658.4709000969137
 21
79.78238716704438
 31
0.0
  0
LINE
  5
174
330
F6
100
AcDbEntity
  8
外形線
100
AcDbLine
 10
661.9209000969138
 20
72.23238716704436
 30
0.0
 11
632.9709000969137
 21
91.15738716704436
 31
0.0
  0
ARC
  5
186
330
F6
100
AcDbEntity
  8
外形線
100
AcDbCircle
 10
467.6830598135246
 20
159.6823871670443
 30
0.0
 40
2.0
100
AcDbArc
 50
0.0
 51
180.703125
  0
LINE
  5
189
330
F6
100
AcDbEntity
  8
外形線
100
AcDbLine
 10
465.6830598135246
 20
159.6823871670443
 30
0.0
 11
463.5430020123221
 21
137.5579660752024
 31
0.0
  0
LINE
  5
18C
330
F6
100
AcDbEntity
  8
外形線
100
AcDbLine
 10
483.4500898422499
 20
115.6323871670443
 30
0.0
 11
551.5709000969137
 21
115.6323871670443
 31
0.0
  0
LINE
  5
198
330
F6
100
AcDbEntity
  8
外形線
100
AcDbLine
 10
469.7080598135245
 20
159.6573871670443
 30
0.0
 11
470.5521645577691
 21
140.5946883595188
 31
0.0
  0
ARC
  5
19B
330
F6
100
AcDbEntity
  8
外形線
100
AcDbCircle
 10
557.5459000969138
 20
-166.0676128329556
 30
0.0
 40
300.0
100
AcDbArc
 50
69.7324742691565
 51
88.18898762526625
  0
LINE
  5
19E
330
F6
100
AcDbEntity
  8
外形線
100
AcDbLine
 10
488.0102614818833
 20
126.4634702313877
 30
0.0
 11
506.6709000969137
 21
129.5823871670443
 31
0.0
  0
ARC
  5
1A1
330
F6
100
AcDbEntity
  8
外形線
100
AcDbCircle
 10
550.9959000969137
 20
-34.36761283295564
 30
0.0
 40
150.0
100
AcDbArc
 50
56.84375
 51
90.0
  0
ARC
  5
1A7
330
F6
100
AcDbEntity
  8
外形線
100
AcDbCircle
 10
497.8959000969137
 20
-178.8676128329556
 30
0.0
 40
300.0
100
AcDbArc
 50
44.74541574704016
 51
56.859375
  0
ARC
  5
1AA
330
F6
100
AcDbEntity
  8
外形線
100
AcDbCircle
 10
472.2459000969137
 20
-141.0926128329556
 30
0.0
 40
300.0
100
AcDbArc
 50
36.09797306442767
 51
46.83587522350494
  0
LINE
  5
1B0
330
F6
100
AcDbEntity
  8
中心線
100
AcDbLine
 10
467.6830598135246
 20
35.95227795890983
 30
0.0
 11
467.6830598135246
 21
167.4124963751789
 31
0.0
  0
ARC
  5
1B3
330
F6
100
AcDbEntity
  8
寸法線
100
AcDbCircle
 10
658.4709000969137
 20
101.6823871670443
 30
0.0
 40
100.0
100
AcDbArc
 50
140.1052539243536
 51
193.8463298295557
  0
ARC
  5
1B6
330
F6
100
AcDbEntity
  8
寸法線
100
AcDbCircle
 10
658.4709000969137
 20
101.6823871670443
 30
0.0
 40
200.0
100
AcDbArc
 50
159.9653736831465
 51
204.328125
  0
CIRCLE
  5
10000842
330
F6
100
AcDbEntity
  8
外形線
100
AcDbCircle
 10
601.4709000969137
 20
138.6823871670443
 30
0.0
 40
2.0
  0
CIRCLE
  5
10000843
330
F6
100
AcDbEntity
  8
外形線
100
AcDbCircle
 10
601.4709000969137
 20
138.6823871670443
 30
0.0
 40
1.25
  0
CIRCLE
  5
100009CB
330
F6
100
AcDbEntity
  8
外形線
100
AcDbCircle
 10
616.4709000969137
 20
104.6823871728493
 30
0.0
 40
2.0
  0
CIRCLE
  5
100009CC
330
F6
100
AcDbEntity
  8
外形線
100
AcDbCircle
 10
616.4709000969137
 20
104.6823871728493
 30
0.0
 40
1.25
  0
LINE
  5
100009D1
330
F6
100
AcDbEntity
  8
中心線
100
AcDbLine
 10
618.1086807524608
 20
100.9700843549145
 30
0.0
 11
599.9106749506374
 21
142.2188974973602
 31
0.0
  0
LINE
  5
100009D2
330
F6
100
AcDbEntity
  8
中心線
 48
0.2
100
AcDbLine
 10
620.1832029148484
 20
106.3201678283965
 30
0.0
 11
612.7585972789789
 21
103.044606517302
 31
0.0
  0
LINE
  5
100009D3
330
F6
100
AcDbEntity
  8
中心線
 48
0.2
100
AcDbLine
 10
605.0074104272295
 20
140.2426123133206
 30
0.0
 11
597.9343897665978
 21
137.122162020768
 31
0.0
  0
LINE
  5
100009D4
330
F6
100
AcDbEntity
  8
外形線
100
AcDbLine
 10
616.7345333600736
 20
108.7919808331135
 30
0.0
 11
613.2578457142957
 21
107.2581480476721
 31
0.0
  0
LINE
  5
100009D5
330
F6
100
AcDbEntity
  8
外形線
100
AcDbLine
 10
604.4165862071471
 20
136.7126610427466
 30
0.0
 11
600.9398985613692
 21
135.1788282573051
 31
0.0
  0
LINE
  5
100009D6
330
F6
100
AcDbEntity
  8
外形線
100
AcDbLine
 10
613.2578457142957
 20
107.2581480476721
 30
0.0
 11
600.9398985613692
 21
135.1788282573052
 31
0.0
  0
LINE
  5
100009D7
330
F6
100
AcDbEntity
  8
外形線
100
AcDbLine
 10
616.7345333600736
 20
108.7919808331135
 30
0.0
 11
604.4165862071472
 21
136.7126610427466
 31
0.0
  0
LINE
  5
100009D8
330
F6
100
AcDbEntity
  8
中心線
100
AcDbLine
 10
614.2885524357118
 20
106.1606064246568
 30
0.0
 11
600.8640071024878
 21
136.589575842082
 31
0.0
  0
LINE
  5
100009D9
330
F6
100
AcDbEntity
  8
中心線
100
AcDbLine
 10
616.8503222799691
 20
107.2907990034031
 30
0.0
 11
603.4257769467452
 21
137.7197684208284
 31
0.0
  0
LWPOLYLINE
  5
100009DD
330
F6
100
AcDbEntity
  8
C
100
AcDbPolyline
 90
        5
 70
     0
 43
0.8
 10
412.7582720835469
 20
255.0963351670069
 10
810.2804298261778
 20
255.0963351670069
 10
810.2804298261778
 20
-27.40366483299309
 10
412.7582720835469
 20
-27.40366483299309
 10
412.7582720835469
 20
255.0963351670069
  0
LINE
  5
10000FBE
330
F6
100
AcDbEntity
  8
中心線
 48
0.5
100
AcDbLine
 10
580.9709000969137
 20
161.4381400281707
 30
0.0
 11
606.0286710600604
 21
146.9679907551281
 31
0.0
  0
LINE
  5
10000FC5
330
F6
100
AcDbEntity
  8
中心線
 48
0.5
100
AcDbLine
 10
554.057679061872
 20
176.9764954375123
 30
0.0
 11
607.8841211319556
 21
145.899784618829
 31
0.0
  0
CIRCLE
  5
10000FC6
330
F6
100
AcDbEntity
  8
外形線
100
AcDbCircle
 10
580.9709000969137
 20
161.4381400281707
 30
0.0
 40
26.4
  0
LINE
  5
10000FC7
330
F6
100
AcDbEntity
  8
中心線
 48
0.5
100
AcDbLine
 10
603.2926067286413
 20
200.1004700259699
 30
0.0
 11
562.2549627848909
 21
129.0211856924724
 31
0.0
  0
HATCH
  5
10000FC8
330
F6
100
AcDbEntity
  8
ﾊｯﾁﾝｸ
  6
Continuous
100
AcDbHatch
 10
0.0
 20
0.0
 30
0.0
210
0.0
220
0.0
230
1.0
  2
ANSI37
 70
     0
 71
     0
 91
        1
 92
        7
 72
     0
 73
     1
 93
        4
 10
597.986315060482
 20
190.8740985418249
 10
594.5232611176992
 20
192.8759120669505
 10
591.5205408300107
 20
187.6813311527762
 10
594.9835947727936
 20
185.6795176276505
 97
        0
 75
     0
 76
     1
 52
-30.03
 41
10.0
 77
     0
 78
     2
 53
14.96999999999998
 43
353.7204189570877
 44
152.9015516045961
 45
-0.3228915650841397
 46
1.207576514013714
 79
     0
 53
104.9699999999999
 43
353.7204189570877
 44
152.9015516045961
 45
-1.207576514013714
 46
-0.3228915650841397
 79
     0
 47
0.1856754751158765
 98
        1
 10
595.360972757929
 20
189.8228962925773
  0
LINE
  5
10000FC9
330
F6
100
AcDbEntity
  8
外形線
  6
Continuous
100
AcDbLine
 10
594.5232611176992
 20
192.8759120669505
 30
0.0
 11
591.5205408300107
 21
187.6813311527762
 31
0.0
  0
LINE
  5
10000FCA
330
F6
100
AcDbEntity
  8
外形線
  6
Continuous
100
AcDbLine
 10
601.4493690032647
 20
188.8722850166992
 30
0.0
 11
598.4466487155764
 21
183.6777041025249
 31
0.0
  0
CIRCLE
  5
10000FD2
330
F6
100
AcDbEntity
  8
外形線
100
AcDbCircle
 10
580.9709000969137
 20
161.4381400281707
 30
0.0
 40
23.0
  0
LINE
  5
10000FE7
330
F6
100
AcDbEntity
  8
外形線
 48
0.5
100
AcDbLine
 10
563.25689405344
 20
138.7587795734262
 30
0.0
 11
563.6222041578544
 21
137.392562706449
 31
0.0
  0
LINE
  5
10000FE8
330
F6
100
AcDbEntity
  8
外形線
 48
0.5
100
AcDbLine
 10
563.2568940534399
 20
138.7587795734261
 30
0.0
 11
570.1830019390058
 21
134.7551525231747
 31
0.0
  0
LINE
  5
10000FE9
330
F6
100
AcDbEntity
  8
外形線
 48
0.5
100
AcDbLine
 10
563.25689405344
 20
138.7587795734262
 30
0.0
 11
564.4603791958409
 21
140.8407586964367
 31
0.0
  0
CIRCLE
  5
10000FEC
330
F6
100
AcDbEntity
  8
想像線
100
AcDbCircle
 10
570.6180144139437
 20
134.5064160203141
 30
0.0
 40
1.5
  0
LINE
  5
10000FED
330
F6
100
AcDbEntity
  8
想像線
100
AcDbLine
 10
570.8878961468238
 20
133.4970900501472
 30
0.0
 11
570.3481122846816
 21
135.5158182705538
 31
0.0
  0
LINE
  5
10000FEE
330
F6
100
AcDbEntity
  8
中心線
100
AcDbLine
 10
566.8857852915428
 20
128.0498152353392
 30
0.0
 11
571.5534739834632
 21
136.124722076237
 31
0.0
  0
LINE
  5
10000FF0
330
F6
100
AcDbEntity
  8
中心線
100
AcDbLine
 10
570.105793502586
 20
129.0272552664551
 30
0.0
 11
565.966638960071
 21
131.4198878048712
 31
0.0
  0
CIRCLE
  5
10000FF2
330
F6
100
AcDbEntity
  8
想像線
100
AcDbCircle
 10
568.1157475075365
 20
130.1775985918354
 30
0.0
 40
1.5
  0
LINE
  5
10000FF3
330
F6
100
AcDbEntity
  8
想像線
100
AcDbLine
 10
569.1392990009105
 20
130.4512840600475
 30
0.0
 11
567.0551360904368
 21
129.8940037417873
 31
0.0
  0
LINE
  5
10000FF4
330
F6
100
AcDbEntity
  8
想像線
100
AcDbLine
 10
568.3856292404167
 20
129.1682726216686
 30
0.0
 11
567.8458453782744
 21
131.1870008420751
 31
0.0
  0
LINE
  5
10000FF5
330
F6
100
AcDbEntity
  8
中心線
100
AcDbLine
 10
572.4336700569601
 20
133.4568787958835
 30
0.0
 11
568.6887209131738
 21
135.6216414506967
 31
0.0
  0
LINE
  5
10000FF6
330
F6
100
AcDbEntity
  8
想像線
100
AcDbLine
 10
571.6415659073175
 20
134.7801014885262
 30
0.0
 11
569.5574029968439
 21
134.2228211702658
 31
0.0
  0
LINE
  5
10001003
330
F6
100
AcDbEntity
  8
外形線
100
AcDbLine
 10
563.1778323474044
 20
131.7378092217901
 30
0.0
 11
563.4249262865904
 21
134.5451750759756
 31
0.0
  0
LINE
  5
10001004
330
F6
100
AcDbEntity
  8
外形線
100
AcDbLine
 10
564.1457025515875
 20
131.1783331936047
 30
0.0
 11
566.4550984865253
 21
132.7935882414901
 31
0.0
  0
ARC
  5
10001005
330
F6
100
AcDbEntity
  8
外形線
100
AcDbCircle
 10
563.7709000969137
 20
131.646866137986
 30
0.0
 40
0.6
100
AcDbArc
 50
171.2819739705786
 51
308.6580260293571
  0
LINE
  5
10001006
330
F6
100
AcDbEntity
  8
外形線
100
AcDbLine
 10
563.4249262865904
 20
134.5451750759756
 30
0.0
 11
566.4550984865253
 21
132.7935882414901
 31
0.0
  0
LINE
  5
10001007
330
F6
100
AcDbEntity
  8
外形線
 48
0.5
100
AcDbLine
 10
563.9573554933032
 20
135.4662554065938
 30
0.0
 11
566.9875276932382
 21
133.7146685721089
 31
0.0
  0
LINE
  5
10001008
330
F6
100
AcDbEntity
  8
外形線
 48
0.5
100
AcDbLine
 10
563.6222041578544
 20
137.392562706449
 30
0.0
 11
568.8167850720287
 21
134.3898424187604
 31
0.0
  0
LINE
  5
10001009
330
F6
100
AcDbEntity
  8
外形線
 48
0.5
100
AcDbLine
 10
563.4249262865904
 20
134.5451750759754
 30
0.0
 11
564.7080350164166
 21
136.7648996857216
 31
0.0
  0
LINE
  5
1000100A
330
F6
100
AcDbEntity
  8
外形線
 48
0.5
100
AcDbLine
 10
566.4550984865253
 20
132.7935882414901
 30
0.0
 11
567.7382072163518
 21
135.0133128512366
 31
0.0
  0
LINE
  5
1000100B
330
F6
100
AcDbEntity
  8
外形線
 48
0.5
100
AcDbLine
 10
568.8167850720287
 20
134.3898424187604
 30
0.0
 11
570.1830019390059
 21
134.7551525231747
 31
0.0
  0
LINE
  5
1000100C
330
F6
100
AcDbEntity
  8
外形線
 48
0.5
100
AcDbLine
 10
570.1830019390059
 20
134.7551525231747
 30
0.0
 11
571.3864870814067
 21
136.8371316461853
 31
0.0
  0
LINE
  5
1000100E
330
F6
100
AcDbEntity
  8
目盛
100
AcDbLine
 10
570.970900096914
 20
144.1176319524819
 30
0.0
 11
569.4709000969141
 21
141.5195557411284
 31
0.0
  0
LINE
  5
10001041
330
F6
100
AcDbEntity
  8
外形線
  6
Continuous
100
AcDbLine
 10
591.5205408300106
 20
187.6813311527762
 30
0.0
 11
598.4466487155764
 21
183.6777041025249
 31
0.0
  0
LINE
  5
100010EF
330
F6
100
AcDbEntity
  8
外形線
  6
Continuous
100
AcDbLine
 10
591.7802698757194
 20
187.5311951383918
 30
0.0
 11
590.8491432357227
 21
185.9203848699039
 31
0.0
  0
LINE
  5
10001141
330
F6
100
AcDbEntity
  8
外形線
  6
Continuous
100
AcDbLine
 10
598.1869196698677
 20
183.8278401169092
 30
0.0
 11
597.255793029871
 21
182.2170298484214
 31
0.0
  0
LINE
  5
10001142
330
F6
100
AcDbEntity
  8
外形線
  6
Continuous
100
AcDbLine
 10
594.5232611176992
 20
192.8759120669505
 30
0.0
 11
601.4493690032647
 21
188.8722850166992
 31
0.0
  0
ARC
  5
10001143
330
F6
100
AcDbEntity
  8
外形線
  6
Continuous
100
AcDbCircle
 10
598.0638853345807
 20
191.0082918821079
 30
0.0
 40
7.344999999999885
100
AcDbArc
 50
29.72198538337744
 51
90.2180146166213
  0
LINE
  5
10001144
330
F6
100
AcDbEntity
  8
外形線
  6
Continuous
100
AcDbLine
 10
598.0359371417371
 20
198.3532387095881
 30
0.0
 11
604.4425869358855
 21
194.6498836881057
 31
0.0
  0
LINE
  5
10001145
330
F6
100
AcDbEntity
  8
外形線
  6
Continuous
100
AcDbLine
 10
598.0359371417371
 20
198.3532387095881
 30
0.0
 11
594.7829901634078
 21
192.7257760525661
 31
0.0
  0
LINE
  5
10001146
330
F6
100
AcDbEntity
  8
外形線
  6
Continuous
100
AcDbLine
 10
604.4425869358855
 20
194.6498836881057
 30
0.0
 11
601.1896399575562
 21
189.0224210310836
 31
0.0
  0
POINT
  5
10001147
330
F6
100
AcDbEntity
  8
DEFPOINTS
  6
ByBlock
 62
     0
100
AcDbPoint
 10
601.7397154200928
 20
197.3673246845428
 30
0.0
  0
CIRCLE
  5
100011B9
330
F6
100
AcDbEntity
  8
外形線
100
AcDbCircle
 10
658.4709000969137
 20
101.6823871670443
 30
0.0
 40
9.5
  0
CIRCLE
  5
100011BA
330
F6
100
AcDbEntity
  8
外形線
100
AcDbCircle
 10
658.4709000969137
 20
101.6823871670443
 30
0.0
 40
8.5
  0
LINE
  5
10001204
330
F6
100
AcDbEntity
  8
外形線
 48
0.5
100
AcDbLine
 10
549.1414018426779
 20
121.507124516848
 30
0.0
 11
556.8984292525398
 21
134.9264585451317
 31
0.0
  0
CIRCLE
  5
10001206
330
F6
100
AcDbEntity
  8
外形線
100
AcDbCircle
 10
557.9742997026892
 20
126.7967289817023
 30
0.0
 40
1.8
  0
LINE
  5
1000120A
330
F6
100
AcDbEntity
  8
中心線
 48
0.5
100
AcDbLine
 10
553.5091749364693
 20
119.072302585391
 30
0.0
 11
559.4421922375516
 21
129.3361751685388
 31
0.0
  0
LINE
  5
1000120B
330
F6
100
AcDbEntity
  8
想像線
100
AcDbLine
 10
555.9951309083746
 20
121.8758335357402
 30
0.0
 11
553.9109679979007
 21
121.3185532174799
 31
0.0
  0
LINE
  5
1000120C
330
F6
100
AcDbEntity
  8
想像線
100
AcDbLine
 10
555.2414611478805
 20
120.5928220973612
 30
0.0
 11
554.7016772857383
 21
122.6115503177678
 31
0.0
  0
CIRCLE
  5
1000120D
330
F6
100
AcDbEntity
  8
外形線
100
AcDbCircle
 10
554.9715794150006
 20
121.602148067528
 30
0.0
 40
1.8
  0
LINE
  5
1000120E
330
F6
100
AcDbEntity
  8
想像線
100
AcDbLine
 10
558.9978511960631
 20
127.0704144499145
 30
0.0
 11
556.9136882855896
 21
126.5131341316541
 31
0.0
  0
LINE
  5
1000120F
330
F6
100
AcDbEntity
  8
想像線
100
AcDbLine
 10
558.2441814355695
 20
125.7874030115355
 30
0.0
 11
557.7043975734271
 21
127.8061312319421
 31
0.0
  0
LINE
  5
10001210
330
F6
100
AcDbEntity
  8
外形線
100
AcDbLine
 10
556.8984292525398
 20
134.9264585451317
 30
0.0
 11
565.556064109497
 21
129.9219247323173
 31
0.0
  0
LINE
  5
1000124F
330
F6
100
AcDbEntity
  8
外形線
100
AcDbLine
 10
549.1414018426777
 20
121.5071245168481
 30
0.0
 11
557.7990366996349
 21
116.5025907040338
 31
0.0
  0
LINE
  5
10001267
330
F6
100
AcDbEntity
  8
外形線
 48
0.5
100
AcDbLine
 10
557.7990366996349
 20
116.5025907040339
 30
0.0
 11
565.5560641094969
 21
129.9219247323175
 31
0.0
  0
LINE
  5
100012AA
330
F6
100
AcDbEntity
  8
隠れ線2
100
AcDbLine
 10
783.4709000969137
 20
111.8823871670443
 30
0.0
 11
783.4709000969137
 21
91.4823871670444
 31
0.0
  0
LINE
  5
100012AB
330
F6
100
AcDbEntity
  8
握り
100
AcDbLine
 10
793.4709000969137
 20
115.3823871670444
 30
0.0
 11
793.4709000969137
 21
87.98238716704435
 31
0.0
  0
LINE
  5
100012AC
330
F6
100
AcDbEntity
  8
握り
100
AcDbLine
 10
769.7975500130559
 20
115.8823871670444
 30
0.0
 11
769.7975500130559
 21
87.48238716704435
 31
0.0
  0
LINE
  5
100012AD
330
F6
100
AcDbEntity
  8
握り
100
AcDbLine
 10
777.1442501807715
 20
115.8823871670444
 30
0.0
 11
777.1442501807715
 21
87.48238716704435
 31
0.0
  0
LINE
  5
100012AE
330
F6
100
AcDbEntity
  8
握り
100
AcDbLine
 10
779.7975500130559
 20
115.8823871670444
 30
0.0
 11
779.7975500130559
 21
87.48238716704435
 31
0.0
  0
LINE
  5
100012AF
330
F6
100
AcDbEntity
  8
握り
100
AcDbLine
 10
787.1442501807715
 20
115.8823871670444
 30
0.0
 11
787.1442501807715
 21
87.48238716704435
 31
0.0
  0
LINE
  5
100012B0
330
F6
100
AcDbEntity
  8
握り
100
AcDbLine
 10
789.7975500130558
 20
115.8823871670444
 30
0.0
 11
789.7975500130558
 21
87.48238716704435
 31
0.0
  0
LINE
  5
100012B1
330
F6
100
AcDbEntity
  8
握り
100
AcDbLine
 10
767.1442501807714
 20
95.02908716704439
 30
0.0
 11
767.1442501807716
 21
87.48238716704435
 31
0.0
  0
LINE
  5
100012B2
330
F6
100
AcDbEntity
  8
握り
100
AcDbLine
 10
737.1442501807714
 20
95.02908716704439
 30
0.0
 11
737.1442501807715
 21
87.48238716704435
 31
0.0
  0
LINE
  5
100012B3
330
F6
100
AcDbEntity
  8
握り
100
AcDbLine
 10
739.7975500130558
 20
95.02908716704439
 30
0.0
 11
739.7975500130558
 21
87.48238716704435
 31
0.0
  0
LINE
  5
100012B4
330
F6
100
AcDbEntity
  8
握り
100
AcDbLine
 10
747.1442501807715
 20
95.02908716704434
 30
0.0
 11
747.1442501807715
 21
87.48238716704435
 31
0.0
  0
LINE
  5
100012B5
330
F6
100
AcDbEntity
  8
握り
100
AcDbLine
 10
749.7975500130559
 20
95.02908716704439
 30
0.0
 11
749.7975500130559
 21
87.48238716704435
 31
0.0
  0
LINE
  5
100012B6
330
F6
100
AcDbEntity
  8
握り
100
AcDbLine
 10
757.1442501807716
 20
95.02908716704439
 30
0.0
 11
757.1442501807715
 21
87.48238716704435
 31
0.0
  0
LINE
  5
100012B7
330
F6
100
AcDbEntity
  8
握り
100
AcDbLine
 10
759.7975500130559
 20
95.02908716704439
 30
0.0
 11
759.7975500130559
 21
87.48238716704435
 31
0.0
  0
LINE
  5
100012B8
330
F6
100
AcDbEntity
  8
握り
100
AcDbLine
 10
693.4709000969137
 20
115.3823871670444
 30
0.0
 11
693.4709000969137
 21
87.98238716704441
 31
0.0
  0
LINE
  5
100012B9
330
F6
100
AcDbEntity
  8
握り
100
AcDbLine
 10
699.7975500130559
 20
115.8823871670444
 30
0.0
 11
699.7975500130559
 21
87.48238716704435
 31
0.0
  0
LINE
  5
100012BA
330
F6
100
AcDbEntity
  8
握り
100
AcDbLine
 10
697.1442501807715
 20
115.8823871670444
 30
0.0
 11
697.1442501807715
 21
87.48238716704435
 31
0.0
  0
LINE
  5
100012BB
330
F6
100
AcDbEntity
  8
握り
100
AcDbLine
 10
707.1442501807715
 20
115.8823871670444
 30
0.0
 11
707.1442501807715
 21
87.48238716704435
 31
0.0
  0
LINE
  5
100012BC
330
F6
100
AcDbEntity
  8
握り
100
AcDbLine
 10
709.7975500130559
 20
115.8823871670444
 30
0.0
 11
709.7975500130559
 21
87.48238716704435
 31
0.0
  0
LINE
  5
100012BD
330
F6
100
AcDbEntity
  8
握り
100
AcDbLine
 10
717.1442501807716
 20
115.8823871670444
 30
0.0
 11
717.1442501807716
 21
87.48238716704435
 31
0.0
  0
LINE
  5
100012BE
330
F6
100
AcDbEntity
  8
握り
100
AcDbLine
 10
719.7975500130559
 20
95.02908716704439
 30
0.0
 11
719.7975500130559
 21
87.48238716704435
 31
0.0
  0
LINE
  5
100012BF
330
F6
100
AcDbEntity
  8
握り
100
AcDbLine
 10
727.1442501807715
 20
95.02908716704439
 30
0.0
 11
727.1442501807715
 21
87.48238716704435
 31
0.0
  0
LINE
  5
100012C0
330
F6
100
AcDbEntity
  8
握り
100
AcDbLine
 10
729.7975500130558
 20
95.02908716704439
 30
0.0
 11
729.7975500130559
 21
87.48238716704435
 31
0.0
  0
LINE
  5
100012C1
330
F6
100
AcDbEntity
  8
隠れ線2
100
AcDbLine
 10
781.9709000969137
 20
89.9823871670444
 30
0.0
 11
693.4709000969136
 21
89.98238716704435
 31
0.0
  0
LINE
  5
100012C2
330
F6
100
AcDbEntity
  8
握り
100
AcDbLine
 10
779.797550013056
 20
87.48238716704435
 30
0.0
 11
787.1442501807715
 21
87.48238716704429
 31
0.0
  0
LINE
  5
100012C3
330
F6
100
AcDbEntity
  8
握り
100
AcDbLine
 10
709.7975500130559
 20
87.4823871670444
 30
0.0
 11
717.1442501807716
 21
87.4823871670444
 31
0.0
  0
ARC
  5
100012C4
330
F6
100
AcDbEntity
  8
握り
100
AcDbCircle
 10
698.4709000969137
 20
88.18238716704433
 30
0.0
 40
1.5
100
AcDbArc
 50
207.8181392846547
 51
332.1818607153453
  0
LINE
  5
100012C5
330
F6
100
AcDbEntity
  8
握り
100
AcDbLine
 10
693.9709000969137
 20
87.4823871670444
 30
0.0
 11
697.1442501807716
 21
87.4823871670444
 31
0.0
  0
ARC
  5
100012C6
330
F6
100
AcDbEntity
  8
握り
100
AcDbCircle
 10
693.9709000969137
 20
87.98238716704441
 30
0.0
 40
0.5
100
AcDbArc
 50
180.0
 51
270.0
  0
ARC
  5
100012C7
330
F6
100
AcDbEntity
  8
握り
100
AcDbCircle
 10
708.4709000969137
 20
88.18238716704433
 30
0.0
 40
1.5
100
AcDbArc
 50
207.8181392846547
 51
332.1818607153453
  0
LINE
  5
100012C8
330
F6
100
AcDbEntity
  8
握り
100
AcDbLine
 10
699.7975500130559
 20
87.4823871670444
 30
0.0
 11
707.1442501807716
 21
87.4823871670444
 31
0.0
  0
ARC
  5
100012C9
330
F6
100
AcDbEntity
  8
握り
100
AcDbCircle
 10
748.4709000969137
 20
88.18238716704433
 30
0.0
 40
1.5
100
AcDbArc
 50
207.8181392846547
 51
332.1818607153453
  0
LINE
  5
100012CA
330
F6
100
AcDbEntity
  8
握り
100
AcDbLine
 10
729.7975500130559
 20
87.48238716704435
 30
0.0
 11
737.1442501807715
 21
87.48238716704435
 31
0.0
  0
LINE
  5
100012CB
330
F6
100
AcDbEntity
  8
握り
100
AcDbLine
 10
719.7975500130559
 20
87.4823871670444
 30
0.0
 11
727.1442501807715
 21
87.48238716704435
 31
0.0
  0
ARC
  5
100012CC
330
F6
100
AcDbEntity
  8
握り
100
AcDbCircle
 10
718.4709000969137
 20
88.18238716704433
 30
0.0
 40
1.5
100
AcDbArc
 50
207.8181392846547
 51
332.1818607153453
  0
ARC
  5
100012CD
330
F6
100
AcDbEntity
  8
握り
100
AcDbCircle
 10
728.4709000969137
 20
88.18238716704433
 30
0.0
 40
1.5
100
AcDbArc
 50
207.8181392846547
 51
332.1818607153453
  0
LINE
  5
100012CE
330
F6
100
AcDbEntity
  8
握り
100
AcDbLine
 10
739.797550013056
 20
87.48238716704435
 30
0.0
 11
747.1442501807715
 21
87.4823871670444
 31
0.0
  0
ARC
  5
100012CF
330
F6
100
AcDbEntity
  8
握り
100
AcDbCircle
 10
738.4709000969137
 20
88.18238716704433
 30
0.0
 40
1.5
100
AcDbArc
 50
207.8181392846547
 51
332.1818607153453
  0
LINE
  5
100012D0
330
F6
100
AcDbEntity
  8
握り
100
AcDbLine
 10
759.797550013056
 20
87.4823871670444
 30
0.0
 11
767.1442501807714
 21
87.4823871670444
 31
0.0
  0
LINE
  5
100012D1
330
F6
100
AcDbEntity
  8
握り
100
AcDbLine
 10
749.7975500130559
 20
87.4823871670444
 30
0.0
 11
757.1442501807715
 21
87.4823871670444
 31
0.0
  0
ARC
  5
100012D2
330
F6
100
AcDbEntity
  8
握り
100
AcDbCircle
 10
758.4709000969137
 20
88.18238716704433
 30
0.0
 40
1.5
100
AcDbArc
 50
207.8181392846547
 51
332.1818607153453
  0
LINE
  5
100012D3
330
F6
100
AcDbEntity
  8
握り
100
AcDbLine
 10
769.7975500130557
 20
87.4823871670444
 30
0.0
 11
777.1442501807716
 21
87.48238716704435
 31
0.0
  0
ARC
  5
100012D4
330
F6
100
AcDbEntity
  8
握り
100
AcDbCircle
 10
768.4709000969137
 20
88.18238716704433
 30
0.0
 40
1.5
100
AcDbArc
 50
207.8181392846547
 51
332.1818607153453
  0
ARC
  5
100012D5
330
F6
100
AcDbEntity
  8
握り
100
AcDbCircle
 10
778.4709000969137
 20
88.18238716704433
 30
0.0
 40
1.5
100
AcDbArc
 50
207.8181392846547
 51
332.1818607153453
  0
ARC
  5
100012D6
330
F6
100
AcDbEntity
  8
握り
100
AcDbCircle
 10
788.4709000969137
 20
88.18238716704433
 30
0.0
 40
1.5
100
AcDbArc
 50
207.8181392846547
 51
332.1818607153453
  0
ARC
  5
100012D7
330
F6
100
AcDbEntity
  8
隠れ線2
100
AcDbCircle
 10
781.9709000969137
 20
91.4823871670444
 30
0.0
 40
1.5
100
AcDbArc
 50
270.0
 51
0.0
  0
ARC
  5
100012D8
330
F6
100
AcDbEntity
  8
握り
100
AcDbCircle
 10
792.9709000969137
 20
87.98238716704435
 30
0.0
 40
0.5
100
AcDbArc
 50
270.0
 51
0.0
  0
LINE
  5
100012D9
330
F6
100
AcDbEntity
  8
握り
100
AcDbLine
 10
789.7975500130558
 20
87.48238716704429
 30
0.0
 11
792.9709000969137
 21
87.48238716704435
 31
0.0
  0
LINE
  5
100012DA
330
F6
100
AcDbEntity
  8
握り
100
AcDbLine
 10
779.797550013056
 20
115.8823871670443
 30
0.0
 11
787.1442501807715
 21
115.8823871670443
 31
0.0
  0
LINE
  5
100012DB
330
F6
100
AcDbEntity
  8
隠れ線2
100
AcDbLine
 10
781.9709000969137
 20
113.3823871670443
 30
0.0
 11
693.4709000969137
 21
113.3823871670444
 31
0.0
  0
LINE
  5
100012DC
330
F6
100
AcDbEntity
  8
握り
100
AcDbLine
 10
709.7975500130559
 20
115.8823871670444
 30
0.0
 11
717.1442501807716
 21
115.8823871670444
 31
0.0
  0
ARC
  5
100012DD
330
F6
100
AcDbEntity
  8
握り
100
AcDbCircle
 10
708.4709000969137
 20
115.1823871670443
 30
0.0
 40
1.5
100
AcDbArc
 50
27.81813928465469
 51
152.1818607153453
  0
ARC
  5
100012DE
330
F6
100
AcDbEntity
  8
握り
100
AcDbCircle
 10
698.4709000969137
 20
115.1823871670443
 30
0.0
 40
1.5
100
AcDbArc
 50
27.81813928465469
 51
152.1818607153453
  0
LINE
  5
100012DF
330
F6
100
AcDbEntity
  8
握り
100
AcDbLine
 10
693.9709000969137
 20
115.8823871670444
 30
0.0
 11
697.1442501807715
 21
115.8823871670444
 31
0.0
  0
ARC
  5
100012E0
330
F6
100
AcDbEntity
  8
握り
100
AcDbCircle
 10
693.9709000969137
 20
115.3823871670444
 30
0.0
 40
0.5
100
AcDbArc
 50
90.0
 51
180.0
  0
LINE
  5
100012E1
330
F6
100
AcDbEntity
  8
握り
100
AcDbLine
 10
699.7975500130559
 20
115.8823871670444
 30
0.0
 11
707.1442501807716
 21
115.8823871670444
 31
0.0
  0
ARC
  5
100012E2
330
F6
100
AcDbEntity
  8
握り
100
AcDbCircle
 10
748.4709000969137
 20
115.1823871670443
 30
0.0
 40
1.5
100
AcDbArc
 50
27.81813928465469
 51
152.1818607153453
  0
LINE
  5
100012E3
330
F6
100
AcDbEntity
  8
握り
100
AcDbLine
 10
719.7975500130559
 20
105.6823871670443
 30
0.0
 11
767.1442501807717
 21
105.6823871670444
 31
0.0
  0
LINE
  5
100012E4
330
F6
100
AcDbEntity
  8
握り
100
AcDbLine
 10
719.7975500130559
 20
97.68238716704434
 30
0.0
 11
767.1442501807714
 21
97.68238716704434
 31
0.0
  0
ARC
  5
100012E5
330
F6
100
AcDbEntity
  8
握り
100
AcDbCircle
 10
738.4709000969137
 20
115.1823871670443
 30
0.0
 40
1.5
100
AcDbArc
 50
27.81813928465469
 51
152.1818607153453
  0
ARC
  5
100012E6
330
F6
100
AcDbEntity
  8
握り
100
AcDbCircle
 10
728.4709000969137
 20
115.1823871670443
 30
0.0
 40
1.5
100
AcDbArc
 50
27.81813928465469
 51
152.1818607153453
  0
ARC
  5
100012E7
330
F6
100
AcDbEntity
  8
握り
100
AcDbCircle
 10
718.4709000969137
 20
115.1823871670443
 30
0.0
 40
1.5
100
AcDbArc
 50
27.81813928465469
 51
152.1818607153453
  0
LINE
  5
100012E8
330
F6
100
AcDbEntity
  8
ROGO
 62
     4
100
AcDbLine
 10
732.1007456728771
 20
102.968145128887
 30
0.0
 11
733.6013220768363
 21
102.968145128887
 31
0.0
  0
LINE
  5
100012E9
330
F6
100
AcDbEntity
  8
ROGO
 62
     4
100
AcDbLine
 10
732.3161187019036
 20
101.8260990592147
 30
0.0
 11
733.0626531619587
 21
101.8260990592147
 31
0.0
  0
LINE
  5
100012EA
330
F6
100
AcDbEntity
  8
ROGO
 62
     4
100
AcDbLine
 10
732.0444647574105
 20
101.4493876139346
 30
0.0
 11
733.2300033128167
 21
101.4493876139346
 31
0.0
  0
HATCH
  5
100012EB
330
F6
100
AcDbEntity
  8
ROGO
 62
     4
100
AcDbHatch
 10
0.0
 20
0.0
 30
0.0
210
0.0
220
0.0
230
1.0
  2
SOLID
 70
     1
 71
     0
 91
        2
 92
        7
 72
     0
 73
     1
 93
        8
 10
733.6013220768363
 20
102.968145128887
 10
732.1007456728771
 20
102.968145128887
 10
730.7479823441641
 20
101.0922237995192
 10
731.7869069894378
 20
101.0922237995191
 10
732.0444647574105
 20
101.4493876139346
 10
733.2300033128167
 20
101.4493876139346
 10
733.3886696314866
 20
101.0922237995191
 10
734.4346806630983
 20
101.0922237995192
 97
        0
 92
       22
 72
     0
 73
     1
 93
        3
 10
733.0626531619587
 20
101.8260990592147
 10
732.3161187019035
 20
101.8260990592147
 10
732.7780711823511
 20
102.4667037332417
 97
        0
 75
     0
 76
     1
 47
0.0128389261915577
 98
        2
 10
733.4838150875567
 20
102.5180852477312
 10
733.4838150875567
 20
102.5180852477312
450
        0
451
        0
460
0.0
461
0.0
452
        0
462
0.0
453
        0
470

  0
LINE
  5
100012EC
330
F6
100
AcDbEntity
  8
ROGO
 62
     4
100
AcDbLine
 10
732.778071182351
 20
102.4667037332416
 30
0.0
 11
732.3161187019035
 21
101.8260990592147
 31
0.0
  0
LINE
  5
100012ED
330
F6
100
AcDbEntity
  8
握り
100
AcDbLine
 10
729.7975500130559
 20
115.8823871670444
 30
0.0
 11
737.1442501807715
 21
115.8823871670444
 31
0.0
  0
LINE
  5
100012EE
330
F6
100
AcDbEntity
  8
握り
100
AcDbLine
 10
729.797550013056
 20
108.3356871670444
 30
0.0
 11
737.1442501807718
 21
108.3356871670444
 31
0.0
  0
LINE
  5
100012EF
330
F6
100
AcDbEntity
  8
握り
100
AcDbLine
 10
729.7975500130559
 20
95.02908716704434
 30
0.0
 11
737.1442501807713
 21
95.02908716704434
 31
0.0
  0
HATCH
  5
100012F0
330
F6
100
AcDbEntity
  8
ROGO
 62
     4
100
AcDbHatch
 10
0.0
 20
0.0
 30
0.0
210
0.0
220
0.0
230
1.0
  2
SOLID
 70
     1
 71
     0
 91
        1
 92
        7
 72
     0
 73
     1
 93
        4
 10
725.2091767177249
 20
100.3307043022945
 10
725.0762466671221
 20
100.0368897218784
 10
742.4752360508123
 20
100.0368897218784
 10
742.6217414899353
 20
100.3307043022945
 97
        0
 75
     0
 76
     1
 47
0.0514683685270805
 98
        1
 10
736.2037985189939
 20
100.2529950677162
450
        0
451
        0
460
0.0
461
0.0
452
        0
462
0.0
453
        0
470

  0
LINE
  5
100012F1
330
F6
100
AcDbEntity
  8
ROGO
 62
     4
100
AcDbLine
 10
725.1888003649869
 20
100.3307043022945
 30
0.0
 11
742.6217414899353
 21
100.3307043022945
 31
0.0
  0
LINE
  5
100012F2
102
{ACAD_REACTORS
330
100012F5
102
}
330
F6
100
AcDbEntity
  8
ROGO
 62
     4
100
AcDbLine
 10
723.7136738729271
 20
100.0368897218784
 30
0.0
 11
743.5553556829611
 21
100.0368897218784
 31
0.0
  0
LINE
  5
100012F3
330
F6
100
AcDbEntity
  8
握り
100
AcDbLine
 10
719.7975500130559
 20
105.6823871670443
 30
0.0
 11
719.7975500130559
 21
97.68238716704434
 31
0.0
  0
LINE
  5
100012F4
330
F6
100
AcDbEntity
  8
握り
100
AcDbLine
 10
719.7975500130559
 20
95.02908716704439
 30
0.0
 11
727.1442501807716
 21
95.02908716704434
 31
0.0
  0
HATCH
  5
100012F5
330
F6
100
AcDbEntity
  8
ROGO
 62
     4
100
AcDbHatch
 10
0.0
 20
0.0
 30
0.0
210
0.0
220
0.0
230
1.0
  2
SOLID
 70
     1
 71
     1
 91
        2
 92
        5
 93
        6
 72
     4
 94
        3
 73
     0
 74
     0
 95
       18
 96
       14
 40
0.108740278791501
 40
0.108740278791501
 40
0.108740278791501
 40
0.108740278791501
 40
0.6623149649549278
 40
1.384304701649787
 40
2.097394834876493
 40
2.774073369849618
 40
3.428974823686337
 40
4.005208313035923
 40
4.455173659284313
 40
4.720999734343524
 40
5.086034088486724
 40
5.569973738255373
 40
6.060470601257719
 40
6.060470601257719
 40
6.060470601257719
 40
6.060470601257719
 10
726.827435837123
 20
101.0922237995191
 10
726.917078575544
 20
101.0928913418494
 10
727.1236362284777
 20
101.0944295141473
 10
727.412608768631
 20
101.248804994855
 10
727.6866373016209
 20
101.4454681096289
 10
727.9073486431657
 20
101.6911781536315
 10
728.0448584587031
 20
101.9721054929468
 10
728.0661582944847
 20
102.2413485437636
 10
728.0531552680405
 20
102.4543164497014
 10
727.960242112979
 20
102.6027603672769
 10
727.8636475502294
 20
102.7534157632379
 10
727.686525785162
 20
102.88391906294
 10
727.5414001453754
 20
102.941098907676
 10
727.4676008058954
 20
102.968145128887
 72
     1
 10
727.4676008058954
 20
102.968145128887
 11
725.164031787345
 21
102.968145128887
 72
     1
 10
725.164031787345
 20
102.968145128887
 11
723.7136738729272
 21
100.0368897218784
 72
     1
 10
723.7136738729272
 20
100.0368897218784
 11
725.076246667122
 21
100.0368897218784
 72
     1
 10
725.076246667122
 20
100.0368897218784
 11
725.5537097397341
 21
101.0922237995191
 72
     1
 10
725.5537097397341
 20
101.0922237995191
 11
726.827435837123
 21
101.0922237995192
 97
        6
330
10001301
330
100012FB
330
100012F6
330
100012F2
330
100012FC
330
100012FE
 92
       20
 93
        4
 72
     1
 10
725.8485161573201
 20
101.743832848746
 11
726.0742272949735
 21
102.2427209700108
 72
     1
 10
726.0742272949735
 20
102.2427209700108
 11
726.6542087222555
 21
102.2427209700108
 72
     4
 94
        3
 73
     0
 74
     0
 95
       15
 96
       11
 40
0.0
 40
0.0
 40
0.0
 40
0.0
 40
0.2199578613106558
 40
0.3202465475123651
 40
0.4340808827708152
 40
0.5116301246390283
 40
0.634275054953107
 40
0.7077360179240892
 40
0.8337709579493377
 40
0.875782631437913
 40
0.875782631437913
 40
0.875782631437913
 40
0.875782631437913
 10
726.6542087222557
 20
102.2427209700107
 10
726.7368206294832
 20
102.2430993766428
 10
726.8570990224233
 20
102.2436503158852
 10
726.9228715315153
 20
102.094865595986
 10
726.8933891568962
 20
101.9990714465039
 10
726.8563274091475
 20
101.9007207118642
 10
726.7908309069443
 20
101.8338899043366
 10
726.7029250075225
 20
101.7695205705695
 10
726.6198497317287
 20
101.7617283744846
 10
726.5658185903391
 20
101.7474119552642
 10
726.5523107985259
 20
101.7438328487459
 72
     1
 10
726.5523107985258
 20
101.7438328487459
 11
725.8485161573201
 21
101.743832848746
 97
        4
330
10001300
330
100012FA
330
100012FF
330
100012FD
 75
     0
 76
     1
 47
0.0514683685270805
 98
        2
 10
725.1763440063552
 20
102.0564469047599
 10
725.1763440063552
 20
102.0564469047599
450
        0
451
        0
460
0.0
461
0.0
452
        0
462
0.0
453
        0
470

  0
LINE
  5
100012F6
102
{ACAD_REACTORS
330
100012F5
102
}
330
F6
100
AcDbEntity
  8
ROGO
 62
     4
100
AcDbLine
 10
725.1640317873452
 20
102.968145128887
 30
0.0
 11
723.7136738729271
 21
100.0368897218784
 31
0.0
  0
LINE
  5
100012F7
102
{ACAD_REACTORS
330
100012F8
102
}
330
F6
100
AcDbEntity
  8
ROGO
 62
     4
100
AcDbLine
 10
727.9003037972461
 20
101.0922237995191
 30
0.0
 11
730.4375654379375
 21
101.0922237995191
 31
0.0
  0
HATCH
  5
100012F8
330
F6
100
AcDbEntity
  8
ROGO
 62
     4
100
AcDbHatch
 10
0.0
 20
0.0
 30
0.0
210
0.0
220
0.0
230
1.0
  2
SOLID
 70
     1
 71
     1
 91
        1
 92
        1
 93
       12
 72
     1
 10
728.8284922247605
 20
102.968145128887
 11
731.365753865452
 21
102.968145128887
 72
     1
 10
731.365753865452
 20
102.968145128887
 11
731.1531335858311
 21
102.5384275136125
 72
     1
 10
731.1531335858311
 20
102.5384275136125
 11
729.8196129826626
 21
102.5384275136125
 72
     1
 10
729.8196129826626
 20
102.5384275136125
 11
729.6533703454104
 21
102.2024417376352
 72
     1
 10
729.6533703454104
 20
102.2024417376352
 11
730.986890948579
 21
102.2024417376352
 72
     1
 10
730.986890948579
 20
102.2024417376352
 11
730.8164246976878
 21
101.8579197995192
 72
     1
 10
730.8164246976878
 20
101.8579197995192
 11
729.4829040945193
 21
101.8579197995192
 72
     1
 10
729.4829040945193
 20
101.8579197995192
 11
729.3166544193529
 21
101.5219197995192
 72
     1
 10
729.3166544193529
 20
101.5219197995192
 11
730.6501750225216
 21
101.5219197995192
 72
     1
 10
730.6501750225216
 20
101.5219197995192
 11
730.4375654379375
 21
101.0922237995191
 72
     1
 10
730.4375654379375
 20
101.0922237995191
 11
727.9003037972461
 21
101.0922237995191
 72
     1
 10
727.9003037972462
 20
101.0922237995191
 11
728.8284922247605
 21
102.968145128887
 97
       12
330
10001302
330
10001306
330
10001304
330
10001305
330
10001303
330
1000130E
330
1000130A
330
10001308
330
1000130B
330
10001309
330
100012F7
330
100012F9
 75
     0
 76
     1
 98
        1
 10
625.0425936837477
 20
-26.74342065412918
450
        0
451
        0
460
0.0
461
0.0
452
        0
462
0.0
453
        0
470

  0
LINE
  5
100012F9
102
{ACAD_REACTORS
330
100012F8
102
}
330
F6
100
AcDbEntity
  8
ROGO
 62
     4
100
AcDbLine
 10
728.8284922247605
 20
102.968145128887
 30
0.0
 11
727.9003037972462
 21
101.0922237995191
 31
0.0
  0
LINE
  5
100012FA
102
{ACAD_REACTORS
330
100012F5
102
}
330
F6
100
AcDbEntity
  8
ROGO
 62
     4
100
AcDbLine
 10
726.6542087222557
 20
102.2427209700108
 30
0.0
 11
726.0742272949736
 21
102.2427209700108
 31
0.0
  0
LINE
  5
100012FB
102
{ACAD_REACTORS
330
100012F5
102
}
330
F6
100
AcDbEntity
  8
ROGO
 62
     4
100
AcDbLine
 10
725.1640317873452
 20
102.968145128887
 30
0.0
 11
727.4676008058954
 21
102.968145128887
 31
0.0
  0
LINE
  5
100012FC
102
{ACAD_REACTORS
330
100012F5
102
}
330
F6
100
AcDbEntity
  8
ROGO
 62
     4
100
AcDbLine
 10
725.5537097397342
 20
101.0922237995191
 30
0.0
 11
725.0762466671221
 21
100.0368897218784
 31
0.0
  0
LINE
  5
100012FD
102
{ACAD_REACTORS
330
100012F5
102
}
330
F6
100
AcDbEntity
  8
ROGO
 62
     4
100
AcDbLine
 10
726.552310798526
 20
101.7438328487459
 30
0.0
 11
725.8485161573202
 21
101.743832848746
 31
0.0
  0
LINE
  5
100012FE
102
{ACAD_REACTORS
330
100012F5
102
}
330
F6
100
AcDbEntity
  8
ROGO
 62
     4
100
AcDbLine
 10
726.8274358375646
 20
101.0922237995191
 30
0.0
 11
725.5537097397342
 21
101.0922237995191
 31
0.0
  0
SPLINE
  5
100012FF
102
{ACAD_REACTORS
330
100012F5
102
}
330
F6
100
AcDbEntity
  8
ROGO
 62
     4
100
AcDbSpline
210
0.0
220
0.0
230
1.0
 70
     8
 71
     3
 72
    15
 73
    11
 74
     9
 42
0.0000000001
 43
0.0000000001
 44
0.0000000001
 40
0.0
 40
0.0
 40
0.0
 40
0.0
 40
0.2199578613106558
 40
0.3202465475123651
 40
0.4340808827708152
 40
0.5116301246390283
 40
0.634275054953107
 40
0.7077360179240892
 40
0.8337709579493377
 40
0.875782631437913
 40
0.875782631437913
 40
0.875782631437913
 40
0.875782631437913
 10
726.6542087222557
 20
102.2427209700107
 30
0.0
 10
726.7368206294831
 20
102.2430993766428
 30
0.0
 10
726.8570990224231
 20
102.2436503158852
 30
0.0
 10
726.9228715315153
 20
102.094865595986
 30
0.0
 10
726.8933891568963
 20
101.999071446504
 30
0.0
 10
726.8563274091475
 20
101.9007207118643
 30
0.0
 10
726.7908309069441
 20
101.8338899043366
 30
0.0
 10
726.7029250075225
 20
101.7695205705694
 30
0.0
 10
726.6198497317287
 20
101.7617283744846
 30
0.0
 10
726.5658185903393
 20
101.7474119552642
 30
0.0
 10
726.5523107985259
 20
101.7438328487459
 30
0.0
 11
726.6542087222557
 21
102.2427209700107
 31
0.0
 11
726.8681945378682
 21
102.1918138833823
 31
0.0
 11
726.9089538245467
 21
102.1001814593746
 31
0.0
 11
726.8885744741742
 21
101.9881862007155
 31
0.0
 11
726.8580051556487
 21
101.9169162794357
 31
0.0
 11
726.7764865822914
 21
101.825283855428
 31
0.0
 11
726.7153479452403
 21
101.7845581861253
 31
0.0
 11
726.5930700852045
 21
101.7540142660716
 31
0.0
 11
726.5523107985259
 21
101.7438328487459
 31
0.0
  0
LINE
  5
10001300
102
{ACAD_REACTORS
330
100012F5
102
}
330
F6
100
AcDbEntity
  8
ROGO
 62
     4
100
AcDbLine
 10
726.0742272949736
 20
102.2427209700108
 30
0.0
 11
725.8485161573201
 21
101.743832848746
 31
0.0
  0
SPLINE
  5
10001301
102
{ACAD_REACTORS
330
100012F5
102
}
330
F6
100
AcDbEntity
  8
ROGO
 62
     4
100
AcDbSpline
210
0.0
220
0.0
230
1.0
 70
     8
 71
     3
 72
    18
 73
    14
 74
     0
 42
0.0000000001
 43
0.0000000001
 40
0.1087402787915014
 40
0.1087402787915014
 40
0.1087402787915014
 40
0.1087402787915014
 40
0.5992371417938475
 40
1.083176791562496
 40
1.448211145705696
 40
1.714037220764907
 40
2.164002567013297
 40
2.740236056362883
 40
3.395137510199602
 40
4.071816045172726
 40
4.784906178399433
 40
5.506895915094292
 40
6.060470601257719
 40
6.060470601257719
 40
6.060470601257719
 40
6.060470601257719
 10
727.4676008058954
 20
102.968145128887
 30
0.0
 10
727.5414001453754
 20
102.941098907676
 30
0.0
 10
727.686525785162
 20
102.88391906294
 30
0.0
 10
727.8636475502294
 20
102.7534157632379
 30
0.0
 10
727.960242112979
 20
102.6027603672769
 30
0.0
 10
728.0531552680405
 20
102.4543164497014
 30
0.0
 10
728.0661582944847
 20
102.2413485437636
 30
0.0
 10
728.0448584587031
 20
101.9721054929468
 30
0.0
 10
727.9073486431657
 20
101.6911781536315
 30
0.0
 10
727.6866373016209
 20
101.4454681096289
 30
0.0
 10
727.412608768631
 20
101.248804994855
 30
0.0
 10
727.1236362284777
 20
101.0944295141473
 30
0.0
 10
726.917078575544
 20
101.0928913418494
 30
0.0
 10
726.827435837123
 20
101.0922237995191
 30
0.0
  0
LINE
  5
10001302
102
{ACAD_REACTORS
330
100012F8
102
}
330
F6
100
AcDbEntity
  8
ROGO
 62
     4
100
AcDbLine
 10
728.8284922247605
 20
102.968145128887
 30
0.0
 11
731.365753865452
 21
102.968145128887
 31
0.0
  0
LINE
  5
10001303
102
{ACAD_REACTORS
330
100012F8
102
}
330
F6
100
AcDbEntity
  8
ROGO
 62
     4
100
AcDbLine
 10
729.6533703454104
 20
102.2024417376352
 30
0.0
 11
730.986890948579
 21
102.2024417376352
 31
0.0
  0
LINE
  5
10001304
102
{ACAD_REACTORS
330
100012F8
102
}
330
F6
100
AcDbEntity
  8
ROGO
 62
     4
100
AcDbLine
 10
729.8196129826626
 20
102.5384275136125
 30
0.0
 11
731.1531335858311
 21
102.5384275136125
 31
0.0
  0
LINE
  5
10001305
102
{ACAD_REACTORS
330
100012F8
102
}
330
F6
100
AcDbEntity
  8
ROGO
 62
     4
100
AcDbLine
 10
729.8196129826626
 20
102.5384275136125
 30
0.0
 11
729.6533703454104
 21
102.2024417376352
 31
0.0
  0
LINE
  5
10001306
102
{ACAD_REACTORS
330
100012F8
102
}
330
F6
100
AcDbEntity
  8
ROGO
 62
     4
100
AcDbLine
 10
731.365753865452
 20
102.968145128887
 30
0.0
 11
731.1531335858311
 21
102.5384275136125
 31
0.0
  0
LINE
  5
10001307
330
F6
100
AcDbEntity
  8
ROGO
 62
     4
100
AcDbLine
 10
732.0444647574105
 20
101.4493876139346
 30
0.0
 11
731.7869069894378
 21
101.0922237995192
 31
0.0
  0
LINE
  5
10001308
102
{ACAD_REACTORS
330
100012F8
102
}
330
F6
100
AcDbEntity
  8
ROGO
 62
     4
100
AcDbLine
 10
729.4829040945193
 20
101.8579197995192
 30
0.0
 11
729.3166544193529
 21
101.5219197995192
 31
0.0
  0
LINE
  5
10001309
102
{ACAD_REACTORS
330
100012F8
102
}
330
F6
100
AcDbEntity
  8
ROGO
 62
     4
100
AcDbLine
 10
730.6501750225216
 20
101.5219197995192
 30
0.0
 11
730.4375654379375
 21
101.0922237995191
 31
0.0
  0
LINE
  5
1000130A
102
{ACAD_REACTORS
330
100012F8
102
}
330
F6
100
AcDbEntity
  8
ROGO
 62
     4
100
AcDbLine
 10
729.4829040945193
 20
101.8579197995192
 30
0.0
 11
730.8164246976878
 21
101.8579197995192
 31
0.0
  0
LINE
  5
1000130B
102
{ACAD_REACTORS
330
100012F8
102
}
330
F6
100
AcDbEntity
  8
ROGO
 62
     4
100
AcDbLine
 10
729.3166544193529
 20
101.5219197995192
 30
0.0
 11
730.6501750225216
 21
101.5219197995192
 31
0.0
  0
LINE
  5
1000130C
330
F6
100
AcDbEntity
  8
ROGO
 62
     4
100
AcDbLine
 10
730.7479823441641
 20
101.0922237995191
 30
0.0
 11
731.7869069894378
 21
101.0922237995191
 31
0.0
  0
LINE
  5
1000130D
330
F6
100
AcDbEntity
  8
ROGO
 62
     4
100
AcDbLine
 10
732.1007456728771
 20
102.968145128887
 30
0.0
 11
730.7479823441641
 21
101.0922237995191
 31
0.0
  0
LINE
  5
1000130E
102
{ACAD_REACTORS
330
100012F8
102
}
330
F6
100
AcDbEntity
  8
ROGO
 62
     4
100
AcDbLine
 10
730.986890948579
 20
102.2024417376352
 30
0.0
 11
730.8164246976878
 21
101.8579197995192
 31
0.0
  0
LINE
  5
1000130F
330
F6
100
AcDbEntity
  8
握り
100
AcDbLine
 10
719.7975500130559
 20
115.8823871670444
 30
0.0
 11
727.1442501807715
 21
115.8823871670444
 31
0.0
  0
LINE
  5
10001310
330
F6
100
AcDbEntity
  8
握り
100
AcDbLine
 10
719.797550013056
 20
108.3356871670444
 30
0.0
 11
727.1442501807718
 21
108.3356871670444
 31
0.0
  0
LINE
  5
10001311
330
F6
100
AcDbEntity
  8
握り
100
AcDbLine
 10
719.7975500130559
 20
115.8823871670444
 30
0.0
 11
719.7975500130559
 21
108.3356871670444
 31
0.0
  0
LINE
  5
10001312
330
F6
100
AcDbEntity
  8
握り
100
AcDbLine
 10
727.1442501807715
 20
115.8823871670444
 30
0.0
 11
727.1442501807716
 21
108.3356871670444
 31
0.0
  0
LINE
  5
10001313
330
F6
100
AcDbEntity
  8
握り
100
AcDbLine
 10
729.7975500130559
 20
115.8823871670444
 30
0.0
 11
729.797550013056
 21
108.3356871670444
 31
0.0
  0
LINE
  5
10001314
330
F6
100
AcDbEntity
  8
握り
100
AcDbLine
 10
739.7975500130557
 20
95.02908716704434
 30
0.0
 11
747.1442501807715
 21
95.02908716704434
 31
0.0
  0
HATCH
  5
10001315
330
F6
100
AcDbEntity
  8
ROGO
 62
     4
100
AcDbHatch
 10
0.0
 20
0.0
 30
0.0
210
0.0
220
0.0
230
1.0
  2
SOLID
 70
     1
 71
     0
 91
        1
 92
        5
 93
        8
 72
     4
 94
        3
 73
     0
 74
     0
 95
       26
 96
       22
 40
0.0
 40
0.0
 40
0.0
 40
0.0
 40
0.3403136209416859
 40
0.5681272389515052
 40
0.7323994099695983
 40
0.8550561247335963
 40
1.014148321321381
 40
1.13027011535639
 40
1.339959009792003
 40
1.510642755247356
 40
1.626735051276114
 40
1.740569491433573
 40
1.94419717410045
 40
2.088186249714629
 40
2.165735491582895
 40
2.275891898886364
 40
2.355438312276665
 40
2.470674802864995
 40
2.535888688806186
 40
2.677801419664424
 40
2.74260000535881
 40
2.74260000535881
 40
2.74260000535881
 40
2.74260000535881
 10
741.6653354228714
 20
102.968145128887
 10
741.5498277217875
 20
102.9612537413654
 10
741.3569965588362
 20
102.949749103513
 10
741.1452691149624
 20
102.821126955144
 10
740.9901451943762
 20
102.746351690369
 10
740.8795110023418
 20
102.644701088341
 10
740.7984156911023
 20
102.5397034418819
 10
740.6961798272488
 20
102.4145995159886
 10
740.6128094016688
 20
102.2689210567533
 10
740.5703539123359
 20
102.1083579980915
 10
740.5327472428304
 20
101.9803883087216
 10
740.5048575071549
 20
101.8377827903039
 10
740.5119534454591
 20
101.683718664415
 10
740.5221151538653
 20
101.5406317915523
 10
740.5674847108997
 20
101.4384891873713
 10
740.6191526000283
 20
101.3657706917581
 10
740.6824192226781
 20
101.2856793307599
 10
740.7516467431316
 20
101.2326350817166
 10
740.8089035532896
 20
101.1365418600872
 10
740.9091296679503
 20
101.1242796719784
 10
740.9728373737729
 20
101.0998742578684
 10
740.9928080715749
 20
101.0922237995191
 72
     1
 10
740.9928080715749
 20
101.0922237995191
 11
742.6085638072958
 21
101.0922237995191
 72
     1
 10
742.6085638072958
 20
101.0922237995191
 11
742.9565876939798
 21
101.7901807685772
 72
     1
 10
742.9565876939798
 20
101.7901807685772
 11
741.7570433784482
 21
101.7901807685772
 72
     4
 94
        3
 73
     0
 74
     0
 95
       16
 96
       12
 40
0.0
 40
0.0
 40
0.0
 40
0.0
 40
0.1027738093187964
 40
0.2066076558227444
 40
0.268539878558716
 40
0.3279201337292112
 40
0.3931337605654557
 40
0.4386740937218511
 40
0.4818879174817272
 40
0.569519347887583
 40
0.7489346372632488
 40
0.7489346372632488
 40
0.7489346372632488
 40
0.7489346372632488
 10
741.7570433784482
 20
101.7901807685771
 10
741.7208608946314
 20
101.8008261858465
 10
741.6481227309615
 20
101.8222268201313
 10
741.642035134036
 20
101.9259692331845
 10
741.6503286041246
 20
101.9998941916976
 10
741.6850616753776
 20
102.0537158784349
 10
741.7271989151787
 20
102.0928782370573
 10
741.742888478395
 20
102.143881085889
 10
741.7890065200012
 20
102.1823946177696
 10
741.8707861648451
 20
102.2471304848779
 10
741.9612202951472
 20
102.2609177781429
 10
742.0219784488922
 20
102.2701807685772
 72
     1
 10
742.0219784488922
 20
102.2701807685771
 11
743.1959311965366
 21
102.2701807685772
 72
     1
 10
743.1959311965366
 20
102.2701807685772
 11
743.5439587687376
 21
102.968145128887
 72
     1
 10
743.5439587687376
 20
102.968145128887
 11
741.6653354228714
 21
102.968145128887
 97
        0
 75
     0
 76
     1
 47
0.0514683685270805
 98
        1
 10
741.989503179564
 20
102.6246575529169
450
        0
451
        0
460
0.0
461
0.0
452
        0
462
0.0
453
        0
470

  0
SPLINE
  5
10001316
330
F6
100
AcDbEntity
  8
ROGO
 62
     4
100
AcDbSpline
210
0.0
220
0.0
230
1.0
 70
     8
 71
     3
 72
    26
 73
    22
 74
    20
 42
0.0000000001
 43
0.0000000001
 44
0.0000000001
 40
0.0
 40
0.0
 40
0.0
 40
0.0
 40
0.3403136209416859
 40
0.5681272389515052
 40
0.7323994099695983
 40
0.8550561247335963
 40
1.014148321321381
 40
1.13027011535639
 40
1.339959009792003
 40
1.51064275524741
 40
1.626735051276113
 40
1.740569491433572
 40
1.944197174100506
 40
2.088186249714629
 40
2.165735491582946
 40
2.275891898886368
 40
2.35543831227667
 40
2.470674802865
 40
2.535888688806191
 40
2.677801419664449
 40
2.742600005358816
 40
2.742600005358816
 40
2.742600005358816
 40
2.742600005358816
 10
741.6653354228714
 20
102.968145128887
 30
0.0
 10
741.5498277217876
 20
102.9612537413654
 30
0.0
 10
741.3569965588362
 20
102.9497491035129
 30
0.0
 10
741.1452691149624
 20
102.821126955144
 30
0.0
 10
740.9901451943762
 20
102.746351690369
 30
0.0
 10
740.8795110023419
 20
102.644701088341
 30
0.0
 10
740.7984156911025
 20
102.5397034418819
 30
0.0
 10
740.6961798272488
 20
102.4145995159886
 30
0.0
 10
740.612809401669
 20
102.2689210567533
 30
0.0
 10
740.5703539123358
 20
102.1083579980915
 30
0.0
 10
740.5327472428303
 20
101.9803883087216
 30
0.0
 10
740.5048575071551
 20
101.8377827903039
 30
0.0
 10
740.5119534454589
 20
101.6837186644149
 30
0.0
 10
740.5221151538655
 20
101.5406317915523
 30
0.0
 10
740.5674847108996
 20
101.4384891873714
 30
0.0
 10
740.6191526000282
 20
101.3657706917581
 30
0.0
 10
740.6824192226784
 20
101.2856793307599
 30
0.0
 10
740.7516467431314
 20
101.2326350817166
 30
0.0
 10
740.8089035532898
 20
101.1365418600873
 30
0.0
 10
740.9091296679502
 20
101.1242796719783
 30
0.0
 10
740.9728373737728
 20
101.0998742578684
 30
0.0
 10
740.9928080715749
 20
101.0922237995191
 30
0.0
 11
741.6653354228714
 21
102.968145128887
 31
0.0
 11
741.329071747223
 21
102.9157991544674
 31
0.0
 11
741.1252753138302
 21
102.813985313134
 31
0.0
 11
740.9826181034219
 21
102.7325343064519
 31
0.0
 11
740.8909101478451
 21
102.6510829678465
 31
0.0
 11
740.7890122241155
 21
102.5289062918616
 31
0.0
 11
740.7176836189112
 21
102.4372738678539
 31
0.0
 11
740.6157851092481
 21
102.2540086879149
 31
0.0
 11
740.5648364403498
 21
102.0911063426274
 31
0.0
 11
740.5342671218242
 21
101.9791110839684
 31
0.0
 11
740.5138871855183
 21
101.8671158253092
 31
0.0
 11
740.5138871855183
 21
101.6634881426423
 31
0.0
 11
740.5342671218242
 21
101.5209486320062
 31
0.0
 11
740.5648364403498
 21
101.4496787107264
 31
0.0
 11
740.625975077401
 21
101.3580462867187
 31
0.0
 11
740.6769243322327
 21
101.2969577827646
 31
0.0
 11
740.7584423196563
 21
101.2155067760825
 31
0.0
 11
740.799201606335
 21
101.1645996894541
 31
0.0
 11
740.9316694345237
 21
101.113692934749
 31
0.0
 11
740.9928080715749
 21
101.0922237995191
 31
0.0
  0
LINE
  5
10001317
330
F6
100
AcDbEntity
  8
ROGO
 62
     4
100
AcDbLine
 10
735.9775930618523
 20
102.2701807685772
 30
0.0
 11
737.1515458094968
 21
102.2701807685772
 31
0.0
  0
LINE
  5
10001318
330
F6
100
AcDbEntity
  8
ROGO
 62
     4
100
AcDbLine
 10
736.91220230694
 20
101.7901807685772
 30
0.0
 11
736.5641784202559
 21
101.0922237995191
 31
0.0
  0
HATCH
  5
10001319
330
F6
100
AcDbEntity
  8
ROGO
 62
     4
100
AcDbHatch
 10
0.0
 20
0.0
 30
0.0
210
0.0
220
0.0
230
1.0
  2
SOLID
 70
     1
 71
     0
 91
        1
 92
        5
 93
        8
 72
     1
 10
737.1515458094969
 20
102.2701807685772
 11
737.4995733816978
 21
102.968145128887
 72
     1
 10
737.4995733816977
 20
102.968145128887
 11
735.6209500358318
 21
102.968145128887
 72
     4
 94
        3
 73
     0
 74
     0
 95
       26
 96
       22
 40
0.0
 40
0.0
 40
0.0
 40
0.0
 40
0.3403136209417982
 40
0.5681272389515159
 40
0.7323994099697078
 40
0.8550561247337057
 40
1.014148321321447
 40
1.13027011535643
 40
1.339959009791999
 40
1.510642755247373
 40
1.626735051276186
 40
1.740569491433665
 40
1.944197174100541
 40
2.088186249714737
 40
2.16573549158295
 40
2.275891898886404
 40
2.355438312276705
 40
2.470674802865115
 40
2.535888688806235
 40
2.677801419664453
 40
2.742600005358966
 40
2.742600005358966
 40
2.742600005358966
 40
2.742600005358966
 10
735.6209500358317
 20
102.968145128887
 10
735.5054423347479
 20
102.9612537413654
 10
735.3126111717966
 20
102.949749103513
 10
735.1008837279225
 20
102.8211269551439
 10
734.9457598073364
 20
102.746351690369
 10
734.8351256153019
 20
102.644701088341
 10
734.7540303040625
 20
102.539703441882
 10
734.6517944402091
 20
102.4145995159885
 10
734.5684240146289
 20
102.2689210567534
 10
734.5259685252962
 20
102.1083579980915
 10
734.4883618557907
 20
101.9803883087216
 10
734.4604721201151
 20
101.8377827903039
 10
734.4675680584193
 20
101.6837186644149
 10
734.4777297668255
 20
101.5406317915523
 10
734.52309932386
 20
101.4384891873715
 10
734.5747672129885
 20
101.365770691758
 10
734.6380338356383
 20
101.2856793307598
 10
734.7072613560918
 20
101.2326350817167
 10
734.7645181662499
 20
101.1365418600872
 10
734.8647442809104
 20
101.1242796719784
 10
734.9284519867332
 20
101.0998742578684
 10
734.9484226845352
 20
101.0922237995191
 72
     1
 10
734.948422684535
 20
101.0922237995192
 11
736.5641784202558
 21
101.0922237995192
 72
     1
 10
736.5641784202559
 20
101.0922237995192
 11
736.91220230694
 21
101.7901807685772
 72
     1
 10
736.91220230694
 20
101.7901807685772
 11
735.7126579914084
 21
101.7901807685772
 72
     4
 94
        3
 73
     0
 74
     0
 95
       16
 96
       12
 40
0.0
 40
0.0
 40
0.0
 40
0.0
 40
0.1027738093189234
 40
0.2066076558227377
 40
0.2685398785587465
 40
0.3279201337292418
 40
0.3931337605655129
 40
0.4386740937218573
 40
0.4818879174818138
 40
0.5695193478876036
 40
0.7489346372632694
 40
0.7489346372632694
 40
0.7489346372632694
 40
0.7489346372632694
 10
735.7126579914084
 20
101.7901807685772
 10
735.6764755075915
 20
101.8008261858466
 10
735.6037373439216
 20
101.8222268201313
 10
735.5976497469964
 20
101.9259692331846
 10
735.6059432170846
 20
101.9998941916976
 10
735.6406762883379
 20
102.053715878435
 10
735.6828135281389
 20
102.0928782370573
 10
735.6985030913553
 20
102.143881085889
 10
735.7446211329611
 20
102.1823946177697
 10
735.8264007778055
 20
102.2471304848778
 10
735.9168349081074
 20
102.2609177781429
 10
735.9775930618524
 20
102.2701807685772
 72
     1
 10
735.9775930618524
 20
102.2701807685771
 11
737.1515458094969
 21
102.2701807685772
 97
        0
 75
     0
 76
     1
 47
0.0514683685270805
 98
        1
 10
736.2779741746987
 20
102.5505430483913
450
        0
451
        0
460
0.0
461
0.0
452
        0
462
0.0
453
        0
470

  0
LINE
  5
1000131A
330
F6
100
AcDbEntity
  8
ROGO
 62
     4
100
AcDbLine
 10
735.6209500358322
 20
102.968145128887
 30
0.0
 11
737.4995733816978
 21
102.968145128887
 31
0.0
  0
LINE
  5
1000131B
330
F6
100
AcDbEntity
  8
ROGO
 62
     4
100
AcDbLine
 10
735.7126579914083
 20
101.7901807685772
 30
0.0
 11
736.9122023069401
 21
101.7901807685772
 31
0.0
  0
LINE
  5
1000131C
330
F6
100
AcDbEntity
  8
ROGO
 62
     4
100
AcDbLine
 10
733.2300033128167
 20
101.4493876139346
 30
0.0
 11
733.3886696314866
 21
101.0922237995191
 31
0.0
  0
LINE
  5
1000131D
330
F6
100
AcDbEntity
  8
ROGO
 62
     4
100
AcDbLine
 10
734.4346806630983
 20
101.0922237995192
 30
0.0
 11
733.3886696314866
 21
101.0922237995191
 31
0.0
  0
LINE
  5
1000131E
330
F6
100
AcDbEntity
  8
ROGO
 62
     4
100
AcDbLine
 10
732.7780711823511
 20
102.4667037332416
 30
0.0
 11
733.0626531619587
 21
101.8260990592147
 31
0.0
  0
LINE
  5
1000131F
330
F6
100
AcDbEntity
  8
ROGO
 62
     4
100
AcDbLine
 10
733.6013220768363
 20
102.968145128887
 30
0.0
 11
734.4346806630983
 21
101.0922237995191
 31
0.0
  0
SPLINE
  5
10001320
330
F6
100
AcDbEntity
  8
ROGO
 62
     4
100
AcDbSpline
210
0.0
220
0.0
230
1.0
 70
     8
 71
     3
 72
    26
 73
    22
 74
    20
 42
0.0000000001
 43
0.0000000001
 44
0.0000000001
 40
0.0
 40
0.0
 40
0.0
 40
0.0
 40
0.3403136209417982
 40
0.5681272389515159
 40
0.7323994099697078
 40
0.8550561247337057
 40
1.01414832132149
 40
1.130270115356429
 40
1.339959009791998
 40
1.510642755247372
 40
1.626735051276184
 40
1.740569491433663
 40
1.944197174100597
 40
2.088186249714736
 40
2.16573549158295
 40
2.275891898886403
 40
2.355438312276704
 40
2.470674802865115
 40
2.535888688806235
 40
2.677801419664453
 40
2.742600005358965
 40
2.742600005358965
 40
2.742600005358965
 40
2.742600005358965
 10
735.6209500358317
 20
102.968145128887
 30
0.0
 10
735.5054423347478
 20
102.9612537413655
 30
0.0
 10
735.3126111717966
 20
102.9497491035131
 30
0.0
 10
735.1008837279225
 20
102.8211269551439
 30
0.0
 10
734.9457598073364
 20
102.746351690369
 30
0.0
 10
734.8351256153018
 20
102.644701088341
 30
0.0
 10
734.7540303040625
 20
102.539703441882
 30
0.0
 10
734.6517944402091
 20
102.4145995159885
 30
0.0
 10
734.568424014629
 20
102.2689210567535
 30
0.0
 10
734.5259685252961
 20
102.1083579980916
 30
0.0
 10
734.4883618557909
 20
101.9803883087217
 30
0.0
 10
734.4604721201148
 20
101.8377827903039
 30
0.0
 10
734.4675680584193
 20
101.6837186644149
 30
0.0
 10
734.4777297668256
 20
101.5406317915523
 30
0.0
 10
734.5230993238599
 20
101.4384891873714
 30
0.0
 10
734.5747672129885
 20
101.365770691758
 30
0.0
 10
734.6380338356383
 20
101.2856793307599
 30
0.0
 10
734.7072613560921
 20
101.2326350817167
 30
0.0
 10
734.7645181662498
 20
101.1365418600872
 30
0.0
 10
734.8647442809102
 20
101.1242796719785
 30
0.0
 10
734.9284519867332
 20
101.0998742578685
 30
0.0
 10
734.9484226845352
 20
101.0922237995191
 30
0.0
 11
735.6209500358317
 21
102.968145128887
 31
0.0
 11
735.2846863601833
 21
102.9157991544674
 31
0.0
 11
735.0808899267905
 21
102.813985313134
 31
0.0
 11
734.9382327163821
 21
102.7325343064519
 31
0.0
 11
734.8465247608053
 21
102.6510829678465
 31
0.0
 11
734.7446268370756
 21
102.5289062918616
 31
0.0
 11
734.6732982318715
 21
102.4372738678539
 31
0.0
 11
734.5713997222083
 21
102.254008687915
 31
0.0
 11
734.52045105331
 21
102.0911063426275
 31
0.0
 11
734.4898817347845
 21
101.9791110839684
 31
0.0
 11
734.4695017984784
 21
101.8671158253092
 31
0.0
 11
734.4695017984784
 21
101.6634881426423
 31
0.0
 11
734.4898817347845
 21
101.5209486320062
 31
0.0
 11
734.52045105331
 21
101.4496787107265
 31
0.0
 11
734.5815896903611
 21
101.3580462867187
 31
0.0
 11
734.6325389451928
 21
101.2969577827646
 31
0.0
 11
734.7140569326166
 21
101.2155067760825
 31
0.0
 11
734.7548162192952
 21
101.1645996894541
 31
0.0
 11
734.887284047484
 21
101.1136929347491
 31
0.0
 11
734.9484226845352
 21
101.0922237995191
 31
0.0
  0
SPLINE
  5
10001321
330
F6
100
AcDbEntity
  8
ROGO
 62
     4
100
AcDbSpline
210
0.0
220
0.0
230
1.0
 70
     8
 71
     3
 72
    16
 73
    12
 74
    10
 42
0.0000000001
 43
0.0000000001
 44
0.0000000001
 40
0.0
 40
0.0
 40
0.0
 40
0.0
 40
0.1794152893756658
 40
0.2670467197814556
 40
0.3102605435414523
 40
0.3558008766977458
 40
0.4210145035340614
 40
0.4803947587045566
 40
0.5423269814405095
 40
0.6461608279443238
 40
0.7489346372632472
 40
0.7489346372632472
 40
0.7489346372632472
 40
0.7489346372632472
 10
735.9775930618524
 20
102.2701807685772
 30
0.0
 10
735.9168349081076
 20
102.2609177781429
 30
0.0
 10
735.8264007778058
 20
102.2471304848779
 30
0.0
 10
735.7446211329611
 20
102.1823946177697
 30
0.0
 10
735.6985030913553
 20
102.143881085889
 30
0.0
 10
735.6828135281389
 20
102.0928782370573
 30
0.0
 10
735.640676288338
 20
102.053715878435
 30
0.0
 10
735.6059432170845
 20
101.9998941916976
 30
0.0
 10
735.5976497469967
 20
101.9259692331846
 30
0.0
 10
735.6037373439214
 20
101.8222268201313
 30
0.0
 10
735.6764755075917
 20
101.8008261858466
 30
0.0
 10
735.7126579914084
 20
101.7901807685772
 30
0.0
 11
735.9775930618524
 21
102.2701807685772
 31
0.0
 11
735.8043665329184
 21
102.223464435938
 31
0.0
 11
735.7330379277144
 21
102.172557681233
 31
0.0
 11
735.7024686091888
 21
102.1420134292558
 31
0.0
 11
735.6820886728828
 21
102.1012877599531
 31
0.0
 11
735.6413293862042
 21
102.0503810052481
 31
0.0
 11
735.6107600676786
 21
101.9994739186197
 31
0.0
 11
735.6005700995256
 21
101.938385746589
 31
0.0
 11
735.6209500358316
 21
101.8365715733323
 31
0.0
 11
735.7126579914084
 21
101.7901807685772
 31
0.0
  0
LINE
  5
10001322
330
F6
100
AcDbEntity
  8
ROGO
 62
     4
100
AcDbLine
 10
734.948422684535
 20
101.0922237995191
 30
0.0
 11
736.5641784202559
 21
101.0922237995191
 31
0.0
  0
LINE
  5
10001323
102
{ACAD_REACTORS
330
10001328
102
}
330
F6
100
AcDbEntity
  8
ROGO
 62
     4
100
AcDbLine
 10
738.5413238389016
 20
102.9759697277046
 30
0.0
 11
739.6134007291665
 21
102.9759697277046
 31
0.0
  0
LINE
  5
10001324
330
F6
100
AcDbEntity
  8
ROGO
 62
     4
100
AcDbLine
 10
737.4995733816977
 20
102.968145128887
 30
0.0
 11
737.1515458094968
 21
102.2701807685772
 31
0.0
  0
SPLINE
  5
10001325
102
{ACAD_REACTORS
330
10001328
102
}
330
F6
100
AcDbEntity
  8
ROGO
 62
     4
100
AcDbSpline
210
0.0
220
0.0
230
1.0
 70
     8
 71
     3
 72
     9
 73
     5
 74
     3
 42
0.0000000001
 43
0.0000000001
 44
0.0000000001
 40
0.0
 40
0.0
 40
0.0
 40
0.0
 40
0.1622561919360204
 40
0.380419770311049
 40
0.380419770311049
 40
0.380419770311049
 40
0.380419770311049
 10
739.4215914392734
 20
101.1340472951028
 30
0.0
 10
739.4737128225847
 20
101.1499934947074
 30
0.0
 10
739.5959146592668
 20
101.1873803550702
 30
0.0
 10
739.6968813696051
 20
101.2663979518909
 30
0.0
 10
739.754783877685
 20
101.3117130564736
 30
0.0
 11
739.4215914392734
 21
101.1340472951028
 31
0.0
 11
739.574092531023
 21
101.1894592869167
 31
0.0
 11
739.754783877685
 21
101.3117130564736
 31
0.0
  0
SPLINE
  5
10001326
102
{ACAD_REACTORS
330
10001328
102
}
330
F6
100
AcDbEntity
  8
ROGO
 62
     4
100
AcDbSpline
210
0.0
220
0.0
230
1.0
 70
     8
 71
     3
 72
    11
 73
     7
 74
     0
 42
0.0000000001
 43
0.0000000001
 40
0.1647869275458134
 40
0.1647869275458134
 40
0.1647869275458134
 40
0.1647869275458134
 40
0.2895635144633836
 40
0.5387013147903714
 40
0.7953622617455423
 40
0.8850764140209602
 40
0.8850764140209602
 40
0.8850764140209602
 40
0.8850764140209602
 10
739.4215914392734
 20
101.1340472951028
 30
0.0
 10
739.401622092415
 20
101.1284888197937
 30
0.0
 10
739.3397063617949
 20
101.1185922629595
 30
0.0
 10
739.2358509801689
 20
101.1050031281404
 30
0.0
 10
739.137141634317
 20
101.0908223701624
 30
0.0
 10
739.0793834988476
 20
101.0919354914578
 30
0.0
 10
739.0644236412478
 20
101.0922237995191
 30
0.0
  0
LINE
  5
10001327
102
{ACAD_REACTORS
330
10001328
102
}
330
F6
100
AcDbEntity
  8
ROGO
 62
     4
100
AcDbLine
 10
737.9923467509829
 20
101.0922237995191
 30
0.0
 11
739.0644236412477
 21
101.0922237995191
 31
0.0
  0
HATCH
  5
10001328
330
F6
100
AcDbEntity
  8
ROGO
 62
     4
100
AcDbHatch
 10
0.0
 20
0.0
 30
0.0
210
0.0
220
0.0
230
1.0
  2
SOLID
 70
     1
 71
     1
 91
        1
 92
        5
 93
        6
 72
     4
 94
        3
 73
     0
 74
     0
 95
       38
 96
       34
 40
0.0
 40
0.0
 40
0.0
 40
0.0
 40
0.2582400211805842
 40
0.3393418442955329
 40
0.4435521728008255
 40
0.530394283206733
 40
0.6036667919818413
 40
0.7009894053152066
 40
0.7507174249931287
 40
0.8067242281502961
 40
0.8892677166883878
 40
0.98277157781066
 40
1.043426616793017
 40
1.109318337455102
 40
1.182564491755738
 40
1.29371924242892
 40
1.399327847180605
 40
1.448424760475788
 40
1.504413222194305
 40
1.570741059842354
 40
1.617957956886744
 40
1.657539314700511
 40
1.714052551848365
 40
1.776150918813098
 40
1.838248940024211
 40
1.892584795022369
 40
2.017023561310911
 40
2.066120474605987
 40
2.164314359515969
 40
2.251113385583426
 40
2.417283613623155
 40
2.622320469313012
 40
2.918423525691288
 40
2.918423525691288
 40
2.918423525691288
 40
2.918423525691288
 10
738.5413238389016
 20
102.9759697277046
 10
738.4552446994364
 20
102.9698888432748
 10
738.3421318914064
 20
102.9618982207217
 10
738.1985050735353
 20
102.9225487547146
 10
738.1202125671913
 20
102.8756708697748
 10
738.0387335653095
 20
102.8412133773454
 10
737.9692651276167
 20
102.7901886641322
 10
737.8989992694796
 20
102.7638961209989
 10
737.849796964657
 20
102.7164859661807
 10
737.7928493101815
 20
102.6875257973595
 10
737.7475008818453
 20
102.6227045201959
 10
737.6968142010857
 20
102.5620989749697
 10
737.6380112747897
 20
102.517859629859
 10
737.5897509239906
 20
102.4713953741984
 10
737.54547876267
 20
102.3996870667929
 10
737.5192765161401
 20
102.3044079600991
 10
737.4454167812693
 20
102.2442521682632
 10
737.4342958177223
 20
102.1719269572973
 10
737.393441746014
 20
102.129256299882
 10
737.3756769667912
 20
102.074174611332
 10
737.3689112837573
 20
102.0237100551596
 10
737.3607908508394
 20
101.9765796531191
 10
737.3395493362217
 20
101.927000552065
 10
737.3464826398807
 20
101.8657572964437
 10
737.3445075498207
 20
101.806453419263
 10
737.3456698926393
 20
101.7263913383894
 10
737.3414748364308
 20
101.6484410570759
 10
737.3749287657381
 20
101.5636126625496
 10
737.394725690885
 20
101.4879998844546
 10
737.4489427908045
 20
101.3833048240953
 10
737.542466151973
 20
101.262509361654
 10
737.7203086462835
 20
101.1158865569499
 10
737.8913094042254
 20
101.1010123559253
 10
737.9923467509829
 20
101.0922237995191
 72
     1
 10
737.9923467509829
 20
101.0922237995191
 11
739.0644236412476
 21
101.0922237995191
 72
     4
 94
        3
 73
     0
 74
     0
 95
       11
 96
        7
 40
0.1647869275458135
 40
0.1647869275458135
 40
0.1647869275458135
 40
0.1647869275458135
 40
0.2545010798212315
 40
0.5111620267764023
 40
0.7602998271033902
 40
0.8850764140209603
 40
0.8850764140209603
 40
0.8850764140209603
 40
0.8850764140209603
 10
739.0644236412478
 20
101.0922237995191
 10
739.0793834988476
 20
101.0919354914578
 10
739.137141634317
 20
101.0908223701624
 10
739.2358509801689
 20
101.1050031281404
 10
739.3397063617949
 20
101.1185922629595
 10
739.401622092415
 20
101.1284888197937
 10
739.4215914392734
 20
101.1340472951028
 72
     4
 94
        3
 73
     0
 74
     0
 95
        9
 96
        5
 40
0.0
 40
0.0
 40
0.0
 40
0.0
 40
0.1622561919360204
 40
0.380419770311049
 40
0.380419770311049
 40
0.380419770311049
 40
0.380419770311049
 10
739.4215914392734
 20
101.1340472951028
 10
739.4737128225848
 20
101.1499934947074
 10
739.5959146592669
 20
101.1873803550702
 10
739.6968813696051
 20
101.2663979518909
 10
739.754783877685
 20
101.3117130564736
 72
     4
 94
        3
 73
     0
 74
     0
 95
       25
 96
       21
 40
0.0
 40
0.0
 40
0.0
 40
0.0
 40
0.165525918914855
 40
0.3412380755365305
 40
0.5940540902285263
 40
0.7697671103696209
 40
0.9377330196075423
 40
1.11479469302833
 40
1.274661249598185
 40
1.574522170874768
 40
1.815540668866877
 40
2.15849091873445
 40
2.536227739636605
 40
2.738070817316548
 40
2.925680654369045
 40
3.162706124480894
 40
3.395643218188267
 40
3.648478129958861
 40
3.928509979727306
 40
4.337226830236035
 40
4.337226830236035
 40
4.337226830236035
 40
4.337226830236035
 10
739.754783877685
 20
101.3117130564736
 10
739.7760591025332
 20
101.3292941192531
 10
739.8164123872531
 20
101.3711085809984
 10
739.8879855824526
 20
101.4388805071964
 10
739.9510572393191
 20
101.5178401792736
 10
740.0288606689152
 20
101.5818342262356
 10
740.0693648911138
 20
101.6600716924464
 10
740.1277485301197
 20
101.7216037931593
 10
740.1767228428589
 20
101.8166340531459
 10
740.218275126716
 20
101.9257937176376
 10
740.2578894917123
 20
102.0680812657854
 10
740.2730701250504
 20
102.2286027701361
 10
740.2506008998401
 20
102.3839072450375
 10
740.1963209317333
 20
102.4999922386617
 10
740.1564149877773
 20
102.5967371167561
 10
740.0958527182881
 20
102.6883715505806
 10
740.0267593542015
 20
102.788034131058
 10
739.929419038831
 20
102.8704712200795
 10
739.8022052408009
 20
102.969903633473
 10
739.6837150869172
 20
102.9737105999102
 10
739.6134007291665
 20
102.9759697277046
 72
     1
 10
739.6134007291664
 20
102.9759697277046
 11
738.5413238389016
 21
102.9759697277046
 97
        6
330
1000132A
330
10001323
330
1000132B
330
10001327
330
10001326
330
10001325
 75
     0
 76
     1
 47
0.088756267210375
 98
        1
 10
738.8625947966151
 20
102.4556715535689
450
        0
451
        0
460
0.0
461
0.0
452
        0
462
0.0
453
        0
470

  0
ELLIPSE
  5
10001329
330
F6
100
AcDbEntity
  8
ROGO
 62
     4
100
AcDbEllipse
 10
738.7876929740884
 20
102.0078325959632
 30
0.0
 11
0.2546924415247531
 21
0.2239701316915159
 31
0.0
210
0.0
220
0.0
230
1.0
 40
0.6788083417438792
 41
0.0
 42
6.283185307179586
  0
SPLINE
  5
1000132A
102
{ACAD_REACTORS
330
10001328
102
}
330
F6
100
AcDbEntity
  8
ROGO
 62
     4
100
AcDbSpline
210
0.0
220
0.0
230
1.0
 70
     8
 71
     3
 72
    25
 73
    21
 74
     0
 42
0.0000000001
 43
0.0000000001
 40
0.0
 40
0.0
 40
0.0
 40
0.0
 40
0.4087168505087288
 40
0.6887487002771746
 40
0.9415836120477687
 40
1.17452070575514
 40
1.41154617586699
 40
1.599156012919487
 40
1.80099909059943
 40
2.178735911501585
 40
2.521686161369157
 40
2.762704659361267
 40
3.06256558063785
 40
3.222432137207705
 40
3.399493810628493
 40
3.567459719866414
 40
3.743172740007509
 40
3.995988754699505
 40
4.17170091132118
 40
4.337226830236035
 40
4.337226830236035
 40
4.337226830236035
 40
4.337226830236035
 10
739.6134007291665
 20
102.9759697277046
 30
0.0
 10
739.6837150869172
 20
102.9737105999102
 30
0.0
 10
739.8022052408009
 20
102.969903633473
 30
0.0
 10
739.929419038831
 20
102.8704712200795
 30
0.0
 10
740.0267593542015
 20
102.788034131058
 30
0.0
 10
740.0958527182881
 20
102.6883715505806
 30
0.0
 10
740.1564149877773
 20
102.5967371167561
 30
0.0
 10
740.1963209317333
 20
102.4999922386617
 30
0.0
 10
740.2506008998401
 20
102.3839072450375
 30
0.0
 10
740.2730701250504
 20
102.2286027701361
 30
0.0
 10
740.2578894917123
 20
102.0680812657854
 30
0.0
 10
740.218275126716
 20
101.9257937176376
 30
0.0
 10
740.1767228428589
 20
101.8166340531459
 30
0.0
 10
740.1277485301197
 20
101.7216037931593
 30
0.0
 10
740.0693648911138
 20
101.6600716924464
 30
0.0
 10
740.0288606689152
 20
101.5818342262356
 30
0.0
 10
739.9510572393191
 20
101.5178401792736
 30
0.0
 10
739.8879855824526
 20
101.4388805071964
 30
0.0
 10
739.8164123872531
 20
101.3711085809984
 30
0.0
 10
739.7760591025332
 20
101.3292941192531
 30
0.0
 10
739.754783877685
 20
101.3117130564736
 30
0.0
  0
SPLINE
  5
1000132B
102
{ACAD_REACTORS
330
10001328
102
}
330
F6
100
AcDbEntity
  8
ROGO
 62
     4
100
AcDbSpline
210
0.0
220
0.0
230
1.0
 70
     8
 71
     3
 72
    38
 73
    34
 74
    32
 42
0.0000000001
 43
0.0000000001
 44
0.0000000001
 40
0.0
 40
0.0
 40
0.0
 40
0.0
 40
0.2582400211805842
 40
0.3393418442955329
 40
0.4435521728008255
 40
0.530394283206733
 40
0.6036667919818413
 40
0.7009894053152066
 40
0.7507174249931287
 40
0.8067242281502961
 40
0.8892677166883878
 40
0.98277157781066
 40
1.043426616793017
 40
1.109318337455102
 40
1.182564491755738
 40
1.29371924242892
 40
1.399327847180605
 40
1.448424760475788
 40
1.504413222194305
 40
1.570741059842354
 40
1.617957956886744
 40
1.657539314700511
 40
1.714052551848365
 40
1.776150918813098
 40
1.838248940024211
 40
1.892584795022369
 40
2.017023561310911
 40
2.066120474605987
 40
2.164314359515969
 40
2.251113385583426
 40
2.417283613623155
 40
2.622320469313012
 40
2.918423525691288
 40
2.918423525691288
 40
2.918423525691288
 40
2.918423525691288
 10
738.5413238389016
 20
102.9759697277046
 30
0.0
 10
738.4552446994365
 20
102.9698888432748
 30
0.0
 10
738.3421318914066
 20
102.9618982207217
 30
0.0
 10
738.1985050735352
 20
102.9225487547146
 30
0.0
 10
738.1202125671913
 20
102.8756708697748
 30
0.0
 10
738.0387335653095
 20
102.8412133773455
 30
0.0
 10
737.9692651276167
 20
102.7901886641322
 30
0.0
 10
737.8989992694799
 20
102.7638961209989
 30
0.0
 10
737.8497969646568
 20
102.7164859661807
 30
0.0
 10
737.7928493101815
 20
102.6875257973595
 30
0.0
 10
737.7475008818453
 20
102.6227045201959
 30
0.0
 10
737.6968142010855
 20
102.5620989749696
 30
0.0
 10
737.6380112747898
 20
102.517859629859
 30
0.0
 10
737.5897509239905
 20
102.4713953741984
 30
0.0
 10
737.5454787626701
 20
102.3996870667929
 30
0.0
 10
737.5192765161402
 20
102.3044079600991
 30
0.0
 10
737.4454167812693
 20
102.2442521682631
 30
0.0
 10
737.4342958177223
 20
102.1719269572973
 30
0.0
 10
737.393441746014
 20
102.129256299882
 30
0.0
 10
737.3756769667911
 20
102.074174611332
 30
0.0
 10
737.3689112837573
 20
102.0237100551595
 30
0.0
 10
737.3607908508392
 20
101.9765796531191
 30
0.0
 10
737.3395493362216
 20
101.927000552065
 30
0.0
 10
737.3464826398807
 20
101.8657572964437
 30
0.0
 10
737.3445075498207
 20
101.806453419263
 30
0.0
 10
737.345669892639
 20
101.7263913383894
 30
0.0
 10
737.3414748364307
 20
101.6484410570759
 30
0.0
 10
737.3749287657382
 20
101.5636126625496
 30
0.0
 10
737.394725690885
 20
101.4879998844546
 30
0.0
 10
737.4489427908045
 20
101.3833048240953
 30
0.0
 10
737.5424661519731
 20
101.2625093616541
 30
0.0
 10
737.7203086462835
 20
101.11588655695
 30
0.0
 10
737.8913094042255
 20
101.1010123559253
 30
0.0
 10
737.9923467509829
 20
101.0922237995191
 30
0.0
 11
738.5413238389016
 21
102.9759697277046
 31
0.0
 11
738.2849572146913
 21
102.9449203713454
 31
0.0
 11
738.2072703773653
 21
102.9216338727064
 31
0.0
 11
738.1140465387825
 21
102.8750601839212
 31
0.0
 11
738.0363597014565
 21
102.8362490071026
 31
0.0
 11
737.9742104757347
 21
102.7974374845305
 31
0.0
 11
737.8887551377803
 21
102.7508641414989
 31
0.0
 11
737.8499114139437
 21
102.7198151308932
 31
0.0
 11
737.8032991894786
 21
102.6887657745342
 31
0.0
 11
737.7489184643852
 21
102.626667753323
 31
0.0
 11
737.6867692386634
 21
102.5568075658988
 31
0.0
 11
737.6401570141982
 21
102.5179960433266
 31
0.0
 11
737.5935454000805
 21
102.4714227002949
 31
0.0
 11
737.5547016762439
 21
102.4093246790838
 31
0.0
 11
737.5080900621262
 21
102.3084151353005
 31
0.0
 11
737.445940226057
 21
102.2230302696968
 31
0.0
 11
737.4304032248002
 21
102.1764565809115
 31
0.0
 11
737.3993286119392
 21
102.1298832378799
 31
0.0
 11
737.3760224997067
 21
102.0677848709152
 31
0.0
 11
737.368253388731
 21
102.0212115278835
 31
0.0
 11
737.3604848881026
 21
101.9824000053114
 31
0.0
 11
737.3449478868458
 21
101.9280644960667
 31
0.0
 11
737.3449478868458
 21
101.865966129102
 31
0.0
 11
737.3449478868458
 21
101.8038681078909
 31
0.0
 11
737.3449478868458
 21
101.7495322528928
 31
0.0
 11
737.3527163874743
 21
101.6253362104703
 31
0.0
 11
737.368253388731
 21
101.5787625216852
 31
0.0
 11
737.3993286119392
 21
101.4856154898684
 31
0.0
 11
737.4381717254286
 21
101.4079927904777
 31
0.0
 11
737.5391646749871
 21
101.2760345818423
 31
0.0
 11
737.7023068502674
 21
101.1518381936663
 31
0.0
 11
737.9923467509829
 21
101.0922237995191
 31
0.0
  0
LINE
  5
1000132C
330
F6
100
AcDbEntity
  8
ROGO
 62
     4
100
AcDbLine
 10
744.8573952897452
 20
102.6481116877132
 30
0.0
 11
745.3631282655721
 21
102.968145128887
 31
0.0
  0
LINE
  5
1000132D
330
F6
100
AcDbEntity
  8
ROGO
 62
     4
100
AcDbLine
 10
745.0169742996323
 20
102.968145128887
 30
0.0
 11
744.8573952897452
 21
102.6481116877132
 31
0.0
  0
LINE
  5
1000132E
330
F6
100
AcDbEntity
  8
ROGO
 62
     4
100
AcDbLine
 10
743.9368546674835
 20
102.968145128887
 30
0.0
 11
745.0169742996323
 21
102.968145128887
 31
0.0
  0
LINE
  5
1000132F
330
F6
100
AcDbEntity
  8
ROGO
 62
     4
100
AcDbLine
 10
744.3183536520059
 20
100.0368897218784
 30
0.0
 11
745.3984496520059
 21
100.0368897218784
 31
0.0
  0
LINE
  5
10001330
330
F6
100
AcDbEntity
  8
ROGO
 62
     4
100
AcDbLine
 10
744.6676403436703
 20
101.5025174253827
 30
0.0
 11
745.3984496520059
 21
100.0368897218784
 31
0.0
  0
HATCH
  5
10001331
330
F6
100
AcDbEntity
  8
ROGO
 62
     4
100
AcDbHatch
 10
0.0
 20
0.0
 30
0.0
210
0.0
220
0.0
230
1.0
  2
SOLID
 70
     1
 71
     0
 91
        1
 92
        7
 72
     0
 73
     1
 93
       11
 10
742.4752360508123
 20
100.0368897218784
 10
743.5553556829611
 20
100.0368897218784
 10
743.9368546674835
 20
100.8019805249064
 10
744.3183536520059
 20
100.0368897218784
 10
745.3984496520059
 20
100.0368897218784
 10
744.6676403436703
 20
101.5025174253827
 10
746.443224265572
 20
102.968145128887
 10
745.3631282655721
 20
102.968145128887
 10
744.8573952897452
 20
102.6481116877133
 10
745.0169742996323
 20
102.968145128887
 10
743.9368546674835
 20
102.968145128887
 97
        0
 75
     0
 76
     1
 47
0.0514683685270805
 98
        1
 10
743.8438957440494
 20
101.7105794382563
450
        0
451
        0
460
0.0
461
0.0
452
        0
462
0.0
453
        0
470

  0
LINE
  5
10001332
330
F6
100
AcDbEntity
  8
ROGO
 62
     4
100
AcDbLine
 10
744.6676403436703
 20
101.5025174253827
 30
0.0
 11
746.443224265572
 21
102.968145128887
 31
0.0
  0
LINE
  5
10001333
330
F6
100
AcDbEntity
  8
ROGO
 62
     4
100
AcDbLine
 10
743.5439587687376
 20
102.968145128887
 30
0.0
 11
743.1959311965366
 21
102.2701807685772
 31
0.0
  0
LINE
  5
10001334
330
F6
100
AcDbEntity
  8
ROGO
 62
     4
100
AcDbLine
 10
742.0219784488921
 20
102.2701807685772
 30
0.0
 11
743.1959311965366
 21
102.2701807685772
 31
0.0
  0
LINE
  5
10001335
330
F6
100
AcDbEntity
  8
ROGO
 62
     4
100
AcDbLine
 10
741.665335422872
 20
102.968145128887
 30
0.0
 11
743.5439587687376
 21
102.968145128887
 31
0.0
  0
LINE
  5
10001336
330
F6
100
AcDbEntity
  8
ROGO
 62
     4
100
AcDbLine
 10
743.9368546674835
 20
100.8019805249064
 30
0.0
 11
743.5553556829611
 21
100.0368897218784
 31
0.0
  0
LINE
  5
10001337
330
F6
100
AcDbEntity
  8
ROGO
 62
     4
100
AcDbLine
 10
741.757043378448
 20
101.7901807685772
 30
0.0
 11
742.9565876939798
 21
101.7901807685772
 31
0.0
  0
LINE
  5
10001338
330
F6
100
AcDbEntity
  8
ROGO
 62
     4
100
AcDbLine
 10
742.9565876939798
 20
101.7901807685772
 30
0.0
 11
742.6085638072958
 21
101.0922237995191
 31
0.0
  0
LINE
  5
10001339
330
F6
100
AcDbEntity
  8
ROGO
 62
     4
100
AcDbLine
 10
740.9928080715749
 20
101.0922237995191
 30
0.0
 11
742.6085638072958
 21
101.0922237995191
 31
0.0
  0
LINE
  5
1000133A
330
F6
100
AcDbEntity
  8
ROGO
 62
     4
100
AcDbLine
 10
743.9368546674835
 20
100.8019805249064
 30
0.0
 11
744.3183536520059
 21
100.0368897218784
 31
0.0
  0
LINE
  5
1000133B
330
F6
100
AcDbEntity
  8
ROGO
 62
     4
100
AcDbLine
 10
743.9368546674835
 20
102.968145128887
 30
0.0
 11
742.4752360508123
 21
100.0368897218784
 31
0.0
  0
SPLINE
  5
1000133C
330
F6
100
AcDbEntity
  8
ROGO
 62
     4
100
AcDbSpline
210
0.0
220
0.0
230
1.0
 70
     8
 71
     3
 72
    16
 73
    12
 74
    10
 42
0.0000000001
 43
0.0000000001
 44
0.0000000001
 40
0.0
 40
0.0
 40
0.0
 40
0.0
 40
0.1794152893756658
 40
0.2670467197815217
 40
0.310260543541438
 40
0.3558008766977823
 40
0.4210145035340269
 40
0.4803947587045221
 40
0.5423269814404936
 40
0.6461608279444416
 40
0.7489346372632637
 40
0.7489346372632637
 40
0.7489346372632637
 40
0.7489346372632637
 10
742.0219784488922
 20
102.2701807685772
 30
0.0
 10
741.9612202951473
 20
102.2609177781429
 30
0.0
 10
741.8707861648451
 20
102.2471304848779
 30
0.0
 10
741.789006520001
 20
102.1823946177696
 30
0.0
 10
741.742888478395
 20
102.143881085889
 30
0.0
 10
741.7271989151787
 20
102.0928782370574
 30
0.0
 10
741.6850616753777
 20
102.0537158784349
 30
0.0
 10
741.6503286041245
 20
101.9998941916977
 30
0.0
 10
741.6420351340361
 20
101.9259692331845
 30
0.0
 10
741.6481227309613
 20
101.8222268201313
 30
0.0
 10
741.7208608946315
 20
101.8008261858465
 30
0.0
 10
741.7570433784482
 20
101.7901807685771
 30
0.0
 11
742.0219784488922
 21
102.2701807685772
 31
0.0
 11
741.8487519199583
 21
102.223464435938
 31
0.0
 11
741.7774233147541
 21
102.1725576812329
 31
0.0
 11
741.7468539962286
 21
102.1420134292558
 31
0.0
 11
741.7264740599225
 21
102.1012877599531
 31
0.0
 11
741.685714773244
 21
102.0503810052481
 31
0.0
 11
741.6551454547184
 21
101.9994739186197
 31
0.0
 11
741.6449554865653
 21
101.938385746589
 31
0.0
 11
741.6653354228714
 21
101.8365715733322
 31
0.0
 11
741.7570433784482
 21
101.7901807685771
 31
0.0
  0
LINE
  5
1000133D
330
F6
100
AcDbEntity
  8
ROGO
 62
     4
100
AcDbLine
 10
745.3631282655721
 20
102.968145128887
 30
0.0
 11
746.443224265572
 21
102.968145128887
 31
0.0
  0
LINE
  5
1000133E
330
F6
100
AcDbEntity
  8
握り
100
AcDbLine
 10
739.797550013056
 20
115.8823871670444
 30
0.0
 11
747.1442501807715
 21
115.8823871670444
 31
0.0
  0
LINE
  5
1000133F
330
F6
100
AcDbEntity
  8
握り
100
AcDbLine
 10
739.7975500130558
 20
108.3356871670444
 30
0.0
 11
747.1442501807716
 21
108.3356871670444
 31
0.0
  0
LINE
  5
10001340
330
F6
100
AcDbEntity
  8
握り
100
AcDbLine
 10
737.1442501807715
 20
115.8823871670444
 30
0.0
 11
737.1442501807717
 21
108.3356871670444
 31
0.0
  0
LINE
  5
10001341
330
F6
100
AcDbEntity
  8
握り
100
AcDbLine
 10
739.7975500130558
 20
115.8823871670444
 30
0.0
 11
739.797550013056
 21
108.3356871670444
 31
0.0
  0
LINE
  5
10001342
330
F6
100
AcDbEntity
  8
握り
100
AcDbLine
 10
747.1442501807715
 20
115.8823871670444
 30
0.0
 11
747.1442501807716
 21
108.3356871670444
 31
0.0
  0
ARC
  5
10001343
330
F6
100
AcDbEntity
  8
握り
100
AcDbCircle
 10
778.4709000969137
 20
115.1823871670443
 30
0.0
 40
1.5
100
AcDbArc
 50
27.81813928465469
 51
152.1818607153453
  0
ARC
  5
10001344
330
F6
100
AcDbEntity
  8
握り
100
AcDbCircle
 10
758.4709000969137
 20
115.1823871670443
 30
0.0
 40
1.5
100
AcDbArc
 50
27.81813928465469
 51
152.1818607153453
  0
ARC
  5
10001345
330
F6
100
AcDbEntity
  8
握り
100
AcDbCircle
 10
768.4709000969137
 20
115.1823871670443
 30
0.0
 40
1.5
100
AcDbArc
 50
27.81813928465469
 51
152.1818607153453
  0
LINE
  5
10001346
330
F6
100
AcDbEntity
  8
握り
100
AcDbLine
 10
759.797550013056
 20
115.8823871670444
 30
0.0
 11
767.1442501807714
 21
115.8823871670444
 31
0.0
  0
LINE
  5
10001347
330
F6
100
AcDbEntity
  8
握り
100
AcDbLine
 10
759.797550013056
 20
108.3356871670444
 30
0.0
 11
767.1442501807714
 21
108.3356871670444
 31
0.0
  0
LINE
  5
10001348
330
F6
100
AcDbEntity
  8
握り
100
AcDbLine
 10
759.7975500130559
 20
95.02908716704439
 30
0.0
 11
767.1442501807714
 21
95.02908716704439
 31
0.0
  0
LINE
  5
10001349
330
F6
100
AcDbEntity
  8
握り
100
AcDbLine
 10
749.7975500130559
 20
95.02908716704439
 30
0.0
 11
757.1442501807715
 21
95.02908716704439
 31
0.0
  0
TEXT
  5
1000134A
330
F6
100
AcDbEntity
  8
文字
100
AcDbText
 10
751.0477257465209
 20
100.3955694482383
 30
0.0
 40
3.0
  1
LB-8
  7
STYLE3
100
AcDbText
  0
LINE
  5
1000134B
330
F6
100
AcDbEntity
  8
握り
100
AcDbLine
 10
749.7975500130559
 20
115.8823871670444
 30
0.0
 11
757.1442501807715
 21
115.8823871670444
 31
0.0
  0
LINE
  5
1000134C
330
F6
100
AcDbEntity
  8
握り
100
AcDbLine
 10
749.797550013056
 20
108.3356871670444
 30
0.0
 11
757.1442501807715
 21
108.3356871670444
 31
0.0
  0
LINE
  5
1000134D
330
F6
100
AcDbEntity
  8
握り
100
AcDbLine
 10
749.7975500130559
 20
115.8823871670444
 30
0.0
 11
749.797550013056
 21
108.3356871670444
 31
0.0
  0
LINE
  5
1000134E
330
F6
100
AcDbEntity
  8
握り
100
AcDbLine
 10
757.1442501807715
 20
115.8823871670444
 30
0.0
 11
757.1442501807716
 21
108.3356871670444
 31
0.0
  0
LINE
  5
1000134F
330
F6
100
AcDbEntity
  8
握り
100
AcDbLine
 10
759.7975500130559
 20
115.8823871670444
 30
0.0
 11
759.797550013056
 21
108.3356871670444
 31
0.0
  0
LINE
  5
10001350
330
F6
100
AcDbEntity
  8
握り
100
AcDbLine
 10
767.1442501807717
 20
105.6823871670444
 30
0.0
 11
767.1442501807714
 21
97.68238716704434
 31
0.0
  0
LINE
  5
10001351
330
F6
100
AcDbEntity
  8
握り
100
AcDbLine
 10
769.7975500130557
 20
115.8823871670444
 30
0.0
 11
777.1442501807716
 21
115.8823871670443
 31
0.0
  0
LINE
  5
10001352
330
F6
100
AcDbEntity
  8
握り
100
AcDbLine
 10
767.1442501807716
 20
115.8823871670444
 30
0.0
 11
767.1442501807716
 21
108.3356871670444
 31
0.0
  0
ARC
  5
10001353
330
F6
100
AcDbEntity
  8
握り
100
AcDbCircle
 10
788.4709000969137
 20
115.1823871670443
 30
0.0
 40
1.5
100
AcDbArc
 50
27.81813928465469
 51
152.1818607153453
  0
ARC
  5
10001354
330
F6
100
AcDbEntity
  8
隠れ線2
100
AcDbCircle
 10
781.9709000969137
 20
111.8823871670443
 30
0.0
 40
1.5
100
AcDbArc
 50
0.0
 51
90.0
  0
ARC
  5
10001355
330
F6
100
AcDbEntity
  8
握り
100
AcDbCircle
 10
792.9709000969137
 20
115.3823871670444
 30
0.0
 40
0.5
100
AcDbArc
 50
0.0
 51
90.0
  0
LINE
  5
10001356
330
F6
100
AcDbEntity
  8
握り
100
AcDbLine
 10
789.7975500130558
 20
115.8823871670443
 30
0.0
 11
792.9709000969137
 21
115.8823871670444
 31
0.0
  0
DIMENSION
  5
10001370
330
F6
100
AcDbEntity
  8
外形線
100
AcDbDimension
  2
*D1
 10
803.1066537053852
 20
86.68238716704433
 30
0.0
 11
801.2316537053852
 21
101.6823871670444
 31
0.0
 70
    32
 71
     5
 42
30.0
  3
STYLE3
100
AcDbAlignedDimension
 13
788.4709000969137
 23
116.6823871670443
 33
0.0
 14
788.4709000969137
 24
86.68238716704435
 34
0.0
 50
90.0
100
AcDbRotatedDimension
  0
LINE
  5
100013DE
330
F6
100
AcDbEntity
  8
想像線
 48
0.5
100
AcDbLine
 10
559.5600970205366
 20
144.3535412690326
 30
0.0
 11
576.0145796924411
 21
134.8535412690326
 31
0.0
  0
LINE
  5
10001415
330
F6
100
AcDbEntity
  8
想像線
 48
0.5
100
AcDbLine
 10
569.2113651364593
 20
126.0796731021117
 30
0.0
 11
574.7163530851664
 21
135.6030727502117
 31
0.0
  0
LINE
  5
10001417
330
F6
100
AcDbEntity
  8
想像線
 48
0.5
100
AcDbLine
 10
559.5600970205367
 20
144.3535412690327
 30
0.0
 11
539.5600970205363
 21
109.7125251176553
 31
0.0
  0
LINE
  5
10001418
330
F6
100
AcDbEntity
  8
想像線
 48
0.5
100
AcDbLine
 10
576.0145796924411
 20
134.8535412690327
 30
0.0
 11
556.0145796924407
 21
100.2125251176553
 31
0.0
  0
LINE
  5
10001419
330
F6
100
AcDbEntity
  8
想像線
 48
0.5
100
AcDbLine
 10
539.5600970205367
 20
109.7125251176551
 30
0.0
 11
556.0145796924411
 21
100.2125251176551
 31
0.0
  0
LINE
  5
10001420
330
F6
100
AcDbEntity
  8
想像線
 48
0.5
100
AcDbLine
 10
554.0600970205367
 20
134.8272618274038
 30
0.0
 11
569.2113651364593
 21
126.0796731021117
 31
0.0
  0
ARC
  5
1000147C
330
F6
100
AcDbEntity
  8
外形線
100
AcDbCircle
 10
658.4709000969137
 20
101.6823871670443
 30
0.0
 40
14.0
100
AcDbArc
 50
344.006564216583
 51
77.6422752779016
  0
ARC
  5
1000147E
330
F6
100
AcDbEntity
  8
外形線
100
AcDbCircle
 10
691.1548712302515
 20
92.31446151858049
 30
0.0
 40
20.0
100
AcDbArc
 50
164.006564216583
 51
226.8358752235049
  0
ARC
  5
10001488
330
F6
100
AcDbEntity
  8
外形線
100
AcDbCircle
 10
467.6830598135246
 20
43.68238716704437
 30
0.0
 40
2.0
100
AcDbArc
 50
179.296875
 51
0.0
  0
LINE
  5
10001489
330
F6
100
AcDbEntity
  8
外形線
100
AcDbLine
 10
465.6830598135246
 20
43.68238716704437
 30
0.0
 11
463.5430020123221
 21
65.80680825888629
 31
0.0
  0
LINE
  5
1000148A
330
F6
100
AcDbEntity
  8
外形線
100
AcDbLine
 10
483.4500898422499
 20
87.73238716704431
 30
0.0
 11
517.1274998688875
 21
87.73238716704431
 31
0.0
  0
LINE
  5
1000148C
330
F6
100
AcDbEntity
  8
外形線
100
AcDbLine
 10
469.7080598135245
 20
43.70738716704438
 30
0.0
 11
470.5521645577692
 21
62.77008597456983
 31
0.0
  0
ARC
  5
1000148D
330
F6
100
AcDbEntity
  8
外形線
100
AcDbCircle
 10
557.5459000969138
 20
369.4323871670444
 30
0.0
 40
300.0
100
AcDbArc
 50
260.234375
 51
287.121573483306
  0
LINE
  5
1000148E
330
F6
100
AcDbEntity
  8
外形線
100
AcDbLine
 10
488.0102614818834
 20
76.90130410270095
 30
0.0
 11
506.6709000969137
 21
73.78238716704427
 31
0.0
  0
LINE
  5
100014A5
330
F6
100
AcDbEntity
  8
外形線
100
AcDbLine
 10
693.4709000969136
 20
89.98238716704435
 30
0.0
 11
673.957658523629
 21
89.98238716704435
 31
0.0
  0
LINE
  5
100014A8
330
F6
100
AcDbEntity
  8
外形線
100
AcDbLine
 10
693.4709000969137
 20
113.3823871670444
 30
0.0
 11
670.7635808460423
 21
113.3823871670444
 31
0.0
  0
ARC
  5
100014B1
330
F6
100
AcDbEntity
  8
外形線
100
AcDbCircle
 10
670.7635808460423
 20
133.3823871670444
 30
0.0
 40
20.0
100
AcDbArc
 50
248.8046174137021
 51
270.0
  0
ARC
  5
100014C0
330
F6
100
AcDbEntity
  8
隠れ線2
100
AcDbCircle
 10
580.9709000969137
 20
161.4381400281707
 30
0.0
 40
25.0
100
AcDbArc
 50
345.7860722861533
 51
204.2099975588453
  0
ARC
  5
100014C1
330
F6
100
AcDbEntity
  8
隠れ線2
100
AcDbCircle
 10
639.1340415472567
 20
146.705557884249
 30
0.0
 40
35.0
100
AcDbArc
 50
165.7860722861534
 51
176.4074436906491
  0
ARC
  5
100014C3
330
F6
100
AcDbEntity
  8
外形線
100
AcDbCircle
 10
517.1274998688875
 20
132.7323871670443
 30
0.0
 40
45.0
100
AcDbArc
 50
270.0
 51
337.39561735268
  0
ARC
  5
100014C7
330
F6
100
AcDbEntity
  8
隠れ線2
100
AcDbCircle
 10
639.1340415472567
 20
146.705557884249
 30
0.0
 40
35.0
100
AcDbArc
 50
209.347640466251
 51
293.2428855383265
  0
ARC
  5
100014C8
330
F6
100
AcDbEntity
  8
隠れ線2
100
AcDbCircle
 10
658.4709000969137
 20
101.6823871670443
 30
0.0
 40
14.0
100
AcDbArc
 50
77.6422752779016
 51
113.2428855383265
  0
ARC
  5
100014CF
330
F6
100
AcDbEntity
  8
隠れ線2
100
AcDbCircle
 10
517.1274998688875
 20
132.7323871670443
 30
0.0
 40
45.0
100
AcDbArc
 50
15.54183224640272
 51
24.20999755884532
  0
ARC
  5
100014D0
330
F6
100
AcDbEntity
  8
外形線
100
AcDbCircle
 10
639.1340415472567
 20
146.705557884249
 30
0.0
 40
35.0
100
AcDbArc
 50
176.4074436906491
 51
209.347640466251
  0
ARC
  5
100014DB
330
F6
100
AcDbEntity
  8
外形線
100
AcDbCircle
 10
517.1274998688875
 20
132.7323871670443
 30
0.0
 40
45.0
100
AcDbArc
 50
1.483799257436379
 51
15.54183224640273
  0
ARC
  5
100014DC
330
F6
100
AcDbEntity
  8
隠れ線2
100
AcDbCircle
 10
517.1274998688875
 20
132.7323871670443
 30
0.0
 40
45.0
100
AcDbArc
 50
337.39561735268
 51
1.483799257436379
  0
ARC
  5
100014E2
330
F6
100
AcDbEntity
  8
外形線
100
AcDbCircle
 10
673.957658523629
 20
49.98238716704435
 30
0.0
 40
40.0
100
AcDbArc
 50
90.0
 51
93.8069485086042
  0
ARC
  5
100014E5
330
F6
100
AcDbEntity
  8
隠れ線2
100
AcDbCircle
 10
673.957658523629
 20
49.98238716704435
 30
0.0
 40
40.0
100
AcDbArc
 50
93.8069485086042
 51
110.0224019056688
  0
ARC
  5
100014E6
330
F6
100
AcDbEntity
  8
隠れ線2
100
AcDbCircle
 10
557.5459000969138
 20
369.4323871670444
 30
0.0
 40
300.0
100
AcDbArc
 50
287.121573483306
 51
290.0224019056688
  0
LINE
  5
100014F2
330
F6
100
AcDbEntity
  8
中心線
100
AcDbLine
 10
557.614930283966
 20
120.0741627665265
 30
0.0
 11
552.3282285460352
 21
123.1301333685297
 31
0.0
  0
LINE
  5
100014F3
330
F6
100
AcDbEntity
  8
中心線
100
AcDbLine
 10
560.504332825462
 20
125.3342468466093
 30
0.0
 11
555.4442665799163
 21
128.2592111167952
 31
0.0
  0
ARC
  5
1000155A
330
F6
100
AcDbEntity
  8
中心線
 48
0.3
100
AcDbCircle
 10
658.4709000969137
 20
101.6823871670444
 30
0.0
 40
20.0
100
AcDbArc
 50
160.1870362581055
 51
204.3237665762678
  0
LINE
  5
100015B3
330
F6
100
AcDbEntity
  8
寸法線
 62
     2
100
AcDbLine
 10
658.4709000969129
 20
101.6823871670443
 30
0.0
 11
563.4661679967693
 21
79.7654786583201
 31
0.0
  0
MTEXT
  5
100015B4
330
F6
100
AcDbEntity
  8
寸法線
 62
     6
100
AcDbMText
 10
589.419729769425
 20
87.62782396883897
 30
0.0
 40
2.5
 41
0.0
 71
     5
 72
     1
  1
\A1;R100
  7
STYLE3
 11
0.9744075087194294
 21
0.2247888052176865
 31
0.0
 73
     1
 44
1.0
  0
INSERT
  5
100015B5
330
F6
100
AcDbEntity
  8
寸法線
 62
     2
100
AcDbBlockReference
  2
_OPEN
 10
561.0301492249707
 20
79.20350664527589
 30
0.0
 41
2.5
 42
2.5
 43
2.5
 50
192.9904594651902
  0
ARC
  5
100015D7
330
F6
100
AcDbEntity
  8
外形線
100
AcDbCircle
 10
712.9959000969137
 20
33.78238716704436
 30
0.0
 40
2.5
100
AcDbArc
 50
215.8066632167379
 51
48.60187896084186
  0
LINE
  5
10001680
330
F6
100
AcDbEntity
  8
寸法線
 62
     2
100
AcDbLine
 10
658.4709000969137
 20
101.6823871670444
 30
0.0
 11
476.0330143779226
 21
26.03407023676272
 31
0.0
  0
MTEXT
  5
10001681
330
F6
100
AcDbEntity
  8
寸法線
 62
     6
100
AcDbMText
 10
514.4168314404988
 20
44.83574465269234
 30
0.0
 40
2.5
 41
0.0
 71
     5
 72
     1
  1
\A1;R200
  7
STYLE3
 11
0.9237361302227398
 21
0.3830294528115525
 31
0.0
 73
     1
 44
1.0
  0
INSERT
  5
10001682
330
F6
100
AcDbEntity
  8
寸法線
 62
     2
100
AcDbBlockReference
  2
_OPEN
 10
473.7236740523657
 20
25.07649660473383
 30
0.0
 41
2.5
 42
2.5
 43
2.5
 50
202.5214606439809
  0
LINE
  5
100016AD
330
F6
100
AcDbEntity
  8
想像線
 48
0.5
100
AcDbLine
 10
552.6830598135245
 20
51.0960484866373
 30
0.0
 11
552.6830598135245
 21
152.2687258474514
 31
0.0
  0
DIMENSION
  5
100016E2
330
F6
100
AcDbEntity
  8
寸法線
100
AcDbDimension
  2
*D2
 10
693.4709000969137
 20
132.4367421130522
 30
0.0
 11
675.9709000969137
 21
134.3117421130522
 31
0.0
 70
    32
 71
     5
 42
35.0
  3
STYLE3
100
AcDbAlignedDimension
 13
658.4709000969137
 23
123.5823871670443
 33
0.0
 14
693.4709000969137
 24
113.3823871670444
 34
0.0
100
AcDbRotatedDimension
  0
DIMENSION
  5
100016F0
330
F6
100
AcDbEntity
  8
寸法線
100
AcDbDimension
  2
*D3
 10
793.4709000969137
 20
132.4367421130522
 30
0.0
 11
743.4709000969137
 21
134.3117421130522
 31
0.0
 70
    32
 71
     5
 42
100.0
  3
STYLE3
100
AcDbAlignedDimension
 13
693.4709000969137
 23
113.3823871670444
 33
0.0
 14
793.4709000969137
 24
115.3823871670444
 34
0.0
100
AcDbRotatedDimension
1001
ACAD
1000
DSTYLE
1002
{
1070
   279
1070
     1
1002
}
  0
LINE
  5
10001702
330
F6
100
AcDbEntity
  8
想像線
 48
0.3
100
AcDbLine
 10
502.3463969974702
 20
128.8595948643045
 30
0.0
 11
502.3463969974702
 21
115.6323871670443
 31
0.0
  0
LINE
  5
10001703
330
F6
100
AcDbEntity
  8
想像線
 48
0.3
100
AcDbLine
 10
505.3463969974703
 20
129.3610112948994
 30
0.0
 11
505.3463969974703
 21
115.6323871670443
 31
0.0
  0
DIMENSION
  5
10001704
330
F6
100
AcDbEntity
  8
寸法線
100
AcDbDimension
  2
*D4
 10
505.3463969974703
 20
135.4249091740651
 30
0.0
 11
503.8463969974702
 21
137.299909174065
 31
0.0
 70
    32
 71
     5
 42
3.0
  3
STYLE3
100
AcDbAlignedDimension
 13
502.3463969974702
 23
128.8595948643045
 33
0.0
 14
505.3463969974703
 24
129.3610112948994
 34
0.0
100
AcDbRotatedDimension
  0
LINE
  5
10001714
330
F6
100
AcDbEntity
  8
想像線
 48
0.3
100
AcDbLine
 10
487.8408778094017
 20
87.73238716704431
 30
0.0
 11
487.8408778094017
 21
76.89846913682777
 31
0.0
  0
LINE
  5
10001715
330
F6
100
AcDbEntity
  8
想像線
 48
0.3
100
AcDbLine
 10
490.8408778094017
 20
87.73238716704431
 30
0.0
 11
490.8408778094017
 21
76.42819825759166
 31
0.0
  0
DIMENSION
  5
10001717
330
F6
100
AcDbEntity
  8
寸法線
100
AcDbDimension
  2
*D5
 10
490.8408778094017
 20
93.81082300107005
 30
0.0
 11
489.3408778094017
 21
95.68582300107005
 31
0.0
 70
    32
 71
     5
 42
3.0
  3
STYLE3
100
AcDbAlignedDimension
 13
487.8408778094017
 23
87.73238716704431
 33
0.0
 14
490.8408778094017
 24
87.73238716704431
 34
0.0
100
AcDbRotatedDimension
  0
ARC
  5
10001808
330
F6
100
AcDbEntity
  8
外形線
100
AcDbCircle
 10
485.5374804660905
 20
141.2582447835036
 30
0.0
 40
15.0
100
AcDbArc
 50
182.5354262344655
 51
279.4886408922164
  0
ARC
  5
10001813
330
F6
100
AcDbEntity
  8
外形線
100
AcDbCircle
 10
483.4500898422499
 20
135.6323871670443
 30
0.0
 40
20.0
100
AcDbArc
 50
174.4750645571438
 51
270.0
  0
ARC
  5
10001819
330
F6
100
AcDbEntity
  8
外形線
100
AcDbCircle
 10
483.4500898422499
 20
67.73238716704432
 30
0.0
 40
20.0
100
AcDbArc
 50
89.99999999999998
 51
185.5249354428562
  0
ARC
  5
1000181A
330
F6
100
AcDbEntity
  8
外形線
100
AcDbCircle
 10
485.5374804660906
 20
62.1065295505851
 30
0.0
 40
15.0
100
AcDbArc
 50
80.51135910778354
 51
177.4645737655344
  0
CIRCLE
  5
1000183C
330
F6
100
AcDbEntity
  8
隠れ線2
 48
0.5
100
AcDbCircle
 10
638.6440408875079
 20
104.3083448762239
 30
0.0
 40
1.5
  0
CIRCLE
  5
1000185B
330
F6
100
AcDbEntity
  8
隠れ線2
 48
0.5
100
AcDbCircle
 10
638.7780041279284
 20
100.9069267036075
 30
0.0
 40
4.905
  0
CIRCLE
  5
1000185D
330
F6
100
AcDbEntity
  8
外形線
100
AcDbCircle
 10
638.6440408875079
 20
104.3083448762239
 30
0.0
 40
1.274999999999999
  0
ARC
  5
10001862
330
F6
100
AcDbEntity
  8
想像線
 48
0.5
100
AcDbCircle
 10
459.2816022112398
 20
92.3216389163837
 30
0.0
 40
2.0
100
AcDbArc
 50
19.6
 51
200.303125
  0
LINE
  5
10001863
330
F6
100
AcDbEntity
  8
想像線
 48
0.5
100
AcDbLine
 10
457.3974873056651
 20
91.6507357768833
 30
0.0
 11
461.603393935601
 21
74.87542384241415
 31
0.0
  0
LINE
  5
10001865
330
F6
100
AcDbEntity
  8
想像線
 48
0.5
100
AcDbLine
 10
461.1976548423777
 20
92.97737690880834
 30
0.0
 11
467.6391118258381
 21
77.14207651094632
 31
0.0
  0
LINE
  5
1000189E
330
F6
100
AcDbEntity
  8
寸法線
 62
     2
100
AcDbLine
 10
458.6106990717391
 20
94.2057538219583
 30
0.0
 11
440.2669273027955
 21
87.67383051215785
 31
0.0
  0
LINE
  5
1000189F
330
F6
100
AcDbEntity
  8
寸法線
 62
     2
100
AcDbLine
 10
468.353962953025
 20
41.79827226146971
 30
0.0
 11
457.9248469325902
 21
38.08463109254592
 31
0.0
  0
LINE
  5
100018A0
330
F6
100
AcDbEntity
  8
寸法線
 62
     2
100
AcDbLine
 10
442.2831280431552
 20
85.73800134237743
 30
0.0
 11
458.2637898241987
 21
40.85908918670199
 31
0.0
  0
INSERT
  5
100018A1
330
F6
100
AcDbEntity
  8
寸法線
 62
     2
100
AcDbBlockReference
  2
_OPEN
 10
441.4444991187796
 20
88.09314497434568
 30
0.0
 41
2.5
 42
2.5
 43
2.5
 50
109.6
  0
INSERT
  5
100018A2
330
F6
100
AcDbEntity
  8
寸法線
 62
     2
100
AcDbBlockReference
  2
_OPEN
 10
459.1024187485743
 20
38.50394555473375
 30
0.0
 41
2.5
 42
2.5
 43
2.5
 50
289.6
  0
MTEXT
  5
100018A3
330
F6
100
AcDbEntity
  8
寸法線
 62
     6
100
AcDbMText
 10
448.5071012097007
 20
62.66957357125803
 30
0.0
 40
2.5
 41
0.0
 71
     5
 72
     1
  1
\A1;52
  7
STYLE3
 11
-0.335451569750255
 21
0.9420574527872968
 31
0.0
 73
     1
 44
1.0
  0
ARC
  5
100018F8
330
F6
100
AcDbEntity
  8
想像線
 48
0.5
100
AcDbCircle
 10
462.8388365942954
 20
140.3100421529155
 30
0.0
 40
2.0
100
AcDbArc
 50
5.74
 51
186.443125
  0
LINE
  5
100018F9
330
F6
100
AcDbEntity
  8
想像線
 48
0.5
100
AcDbLine
 10
460.8488646158713
 20
140.1100133422734
 30
0.0
 11
460.9232623146826
 21
120.2896664452181
 31
0.0
  0
LINE
  5
100018FB
330
F6
100
AcDbEntity
  8
想像線
 48
0.5
100
AcDbLine
 10
464.8561835825828
 20
140.4876966739603
 30
0.0
 11
467.6026004615822
 21
121.6050010779274
 31
0.0
  0
ARC
  5
100018FC
330
F6
100
AcDbEntity
  8
想像線
 48
0.5
100
AcDbCircle
 10
482.4464146331366
 20
123.7639778819624
 30
0.0
 40
15.0
100
AcDbArc
 50
188.2754262344655
 51
188.3357937969553
  0
LINE
  5
1000192D
330
F6
100
AcDbEntity
  8
寸法線
 62
     2
100
AcDbLine
 10
462.6388077836534
 20
142.3000141313396
 30
0.0
 11
428.821449771149
 21
138.9007472192219
 31
0.0
  0
LINE
  5
1000192E
330
F6
100
AcDbEntity
  8
寸法線
 62
     2
100
AcDbLine
 10
467.8830886241668
 20
41.69241518862024
 30
0.0
 11
438.8856648434112
 21
38.77764038101616
 31
0.0
  0
LINE
  5
1000192F
330
F6
100
AcDbEntity
  8
寸法線
 62
     2
100
AcDbLine
 10
430.3152182709666
 20
136.5383002528431
 30
0.0
 11
439.8793613166236
 21
41.39012336069758
 31
0.0
  0
INSERT
  5
10001930
330
F6
100
AcDbEntity
  8
寸法線
 62
     2
100
AcDbBlockReference
  2
_OPEN
 10
430.065182257664
 20
139.0257652258732
 30
0.0
 41
2.5
 42
2.5
 43
2.5
 50
95.73999999999999
  0
INSERT
  5
10001931
330
F6
100
AcDbEntity
  8
寸法線
 62
     2
100
AcDbBlockReference
  2
_OPEN
 10
440.1293973299263
 20
38.90265838766746
 30
0.0
 41
2.5
 42
2.5
 43
2.5
 50
275.74
  0
MTEXT
  5
10001932
330
F6
100
AcDbEntity
  8
寸法線
 62
     6
100
AcDbMText
 10
433.2316910640225
 20
88.77668479679334
 30
0.0
 40
2.5
 41
0.0
 71
     5
 72
     1
  1
\A1;100
  7
STYLE3
 11
-0.1000144053210418
 21
0.9949859892120484
 31
0.0
 73
     1
 44
1.0
  0
DIMENSION
  5
10001934
330
F6
100
AcDbEntity
  8
寸法線
100
AcDbDimension
  2
*D6
 10
423.5601365361786
 20
41.68238716704439
 30
0.0
 11
421.6851365361787
 21
101.6823871670444
 31
0.0
 70
    32
 71
     5
 42
120.0
  3
STYLE3
100
AcDbAlignedDimension
 13
467.6830598135246
 23
161.6823871670443
 33
0.0
 14
467.6830598135246
 24
41.68238716704437
 34
0.0
 50
90.0
100
AcDbRotatedDimension
  0
HATCH
  5
10001AA3
330
F6
100
AcDbEntity
  8
ROGO
 62
     4
100
AcDbHatch
 10
0.0
 20
0.0
 30
0.0
210
0.0
220
0.0
230
1.0
  2
SOLID
 70
     1
 71
     1
 91
        1
 92
        7
 72
     0
 73
     1
 93
       11
 10
589.5954084785621
 20
165.4752929963188
 10
590.2501962069591
 20
165.0972511250668
 10
590.749249456499
 20
165.427538130621
 10
590.7127391439193
 20
164.8302018359013
 10
591.3675125460874
 20
164.4521682359013
 10
591.4374526438757
 20
165.5964410704262
 10
593.0268128881445
 20
165.8634762743682
 10
592.3720394859762
 20
166.2415098743682
 10
591.9534434583474
 20
166.2245064528255
 10
592.1621947962892
 20
166.3626637624471
 10
591.5074070678922
 20
166.7407056336993
 97
       11
330
10001BDF
330
10001BB7
330
10001BB8
330
10001AA6
330
10001B30
330
10001B34
330
10001B5D
330
10001B5E
330
10001AA8
330
10001AA7
330
10001AA5
 75
     0
 76
     1
 47
0.0514683685270805
 98
        1
 10
591.0109057237298
 20
166.0108825723912
450
        0
451
        0
460
0.0
461
0.0
452
        0
462
0.0
453
        0
470

  0
LINE
  5
10001AA4
330
F6
100
AcDbEntity
  8
目盛
100
AcDbLine
 10
576.1889312081056
 20
138.940745211293
 30
0.0
 11
576.8126662805587
 21
141.8751880134943
 31
0.0
  0
LINE
  5
10001AA5
102
{ACAD_REACTORS
330
10001AA3
102
}
330
F6
100
AcDbEntity
  8
ROGO
 62
     4
100
AcDbLine
 10
591.4374526438756
 20
165.5964410704262
 30
0.0
 11
593.0268128881447
 21
165.8634762743682
 31
0.0
  0
LINE
  5
10001AA6
102
{ACAD_REACTORS
330
10001AA3
102
}
330
F6
100
AcDbEntity
  8
ROGO
 62
     4
100
AcDbLine
 10
591.5074070678921
 20
166.7407056336992
 30
0.0
 11
592.1621947962893
 21
166.3626637624471
 31
0.0
  0
LINE
  5
10001AA7
102
{ACAD_REACTORS
330
10001AA3
102
}
330
F6
100
AcDbEntity
  8
ROGO
 62
     4
100
AcDbLine
 10
591.4374526438756
 20
165.5964410704262
 30
0.0
 11
591.3675125460874
 21
164.4521682359012
 31
0.0
  0
LINE
  5
10001AA8
102
{ACAD_REACTORS
330
10001AA3
102
}
330
F6
100
AcDbEntity
  8
ROGO
 62
     4
100
AcDbLine
 10
590.7127391439193
 20
164.8302018359012
 30
0.0
 11
591.3675125460874
 21
164.4521682359012
 31
0.0
  0
LINE
  5
10001AA9
330
F6
100
AcDbEntity
  8
目盛
100
AcDbLine
 10
598.063231082894
 20
176.8281439744242
 30
0.0
 11
595.8337966064615
 21
174.8207521553476
 31
0.0
  0
CIRCLE
  5
10001AAA
330
F6
100
AcDbEntity
  8
外形線
100
AcDbCircle
 10
580.9709000969137
 20
161.4381400281707
 30
0.0
 40
15.5
  0
CIRCLE
  5
10001AAB
330
F6
100
AcDbEntity
  8
外形線
100
AcDbCircle
 10
580.9709000969137
 20
161.4381400281707
 30
0.0
 40
23.0
  0
LINE
  5
10001AAC
330
F6
100
AcDbEntity
  8
目盛
100
AcDbLine
 10
558.2176364387648
 20
164.7980496851059
 30
0.0
 11
560.1961811046909
 21
164.5058836279811
 31
0.0
  0
LINE
  5
10001AAD
330
F6
100
AcDbEntity
  8
中心線
 48
0.2
100
AcDbLine
 10
575.9541461250127
 20
158.1866933663549
 30
0.0
 11
574.1474899047244
 21
155.0574730010055
 31
0.0
  0
LINE
  5
10001AAE
330
F6
100
AcDbEntity
  8
中心線
 48
0.2
100
AcDbLine
 10
575.6077359634988
 20
158.3866933663548
 30
0.0
 11
573.8010797432107
 21
155.2574730010054
 31
0.0
  0
HATCH
  5
10001AAF
330
F6
100
AcDbEntity
  8
ﾊｯﾁﾝｸ
100
AcDbHatch
 10
0.0
 20
0.0
 30
0.0
210
0.0
220
0.0
230
1.0
  2
SOLID
 70
     1
 71
     0
 91
        3
 92
        7
 72
     1
 73
     1
 93
        5
 10
575.9541461250127
 20
158.1866933663549
 42
0.0105298176880202
 10
575.7830472413221
 20
158.2903414066852
 42
0.0
 10
575.5330472413221
 20
157.8573287047929
 42
0.0
 10
573.9830472413221
 20
155.172649953061
 42
-0.0437283108272093
 10
574.1474899047244
 20
155.0574730010055
 42
0.0
 97
        0
 92
        7
 72
     1
 73
     1
 93
        4
 10
575.7830472413224
 20
158.290341406685
 42
0.0105298176880232
 10
575.6077359634988
 20
158.3866933663548
 42
0.0
 10
573.8010797432107
 20
155.2574730010054
 42
-0.0437283108272093
 10
573.9830472413221
 20
155.172649953061
 42
0.0
 97
        0
 92
      137
 93
        4
 72
     1
 10
574.2829314173508
 20
156.8791031748749
 11
575.2932943884326
 21
156.2957698415415
 72
     1
 10
575.2932943884326
 20
156.2957698415415
 11
576.0432943884326
 21
157.5948079472182
 72
     1
 10
576.0432943884327
 20
157.5948079472181
 11
575.0329314173509
 21
158.1781412805514
 72
     1
 10
575.0329314173508
 20
158.1781412805517
 11
574.2829314173508
 21
156.879103174875
 97
        0
 75
     0
 76
     1
 47
0.0128177587452554
 98
        3
 10
574.3787170560743
 20
155.5605650653701
 10
574.9144938535886
 20
156.6424978642191
 10
574.7333225968949
 20
156.6878942942483
450
        0
451
        0
460
0.0
461
0.0
452
        0
462
0.0
453
        0
470

  0
CIRCLE
  5
10001AB1
330
F6
100
AcDbEntity
  8
外形線
100
AcDbCircle
 10
573.4080472413221
 20
154.176720738709
 30
0.0
 40
4.75
  0
LINE
  5
10001AB2
330
F6
100
AcDbEntity
  8
中心線
 48
0.2
100
AcDbLine
 10
577.3396509506832
 20
160.9864581185483
 30
0.0
 11
569.4948539396654
 21
147.3988711204009
 31
0.0
  0
LINE
  5
10001AB3
330
F6
100
AcDbEntity
  8
目盛
100
AcDbLine
 10
558.0968965034436
 20
159.0339853730141
 30
0.0
 11
561.0804621895481
 21
159.3475707628173
 31
0.0
  0
LINE
  5
10001AB4
330
F6
100
AcDbEntity
  8
目盛
100
AcDbLine
 10
558.032667120751
 20
159.7536614942351
 30
0.0
 11
560.0272960752
 21
159.9001378884904
 31
0.0
  0
LINE
  5
10001AB5
330
F6
100
AcDbEntity
  8
目盛
100
AcDbLine
 10
557.99107500464
 20
160.4749999923988
 30
0.0
 11
559.9893206648375
 21
160.5587512998573
 31
0.0
  0
LINE
  5
10001AB6
330
F6
100
AcDbEntity
  8
目盛
100
AcDbLine
 10
558.1836997660704
 20
158.3166818621817
 30
0.0
 11
560.1651954470132
 21
158.5881130070502
 31
0.0
  0
LINE
  5
10001AB7
330
F6
100
AcDbEntity
  8
目盛
100
AcDbLine
 10
557.9721612015068
 20
161.197288993497
 30
0.0
 11
559.9720515402379
 21
161.2182325617295
 31
0.0
  0
LINE
  5
10001AB8
330
F6
100
AcDbEntity
  8
目盛
100
AcDbLine
 10
558.0024207975584
 20
162.6418670217582
 30
0.0
 11
560.9983094018222
 21
162.4848591530297
 31
0.0
  0
LINE
  5
10001AB9
330
F6
100
AcDbEntity
  8
目盛
100
AcDbLine
 10
558.1233264881046
 20
164.0816944895066
 30
0.0
 11
560.1100720193053
 21
163.8518201885207
 31
0.0
  0
LINE
  5
10001ABA
330
F6
100
AcDbEntity
  8
目盛
100
AcDbLine
 10
557.9759443769924
 20
161.9198156854875
 30
0.0
 11
559.9755057439418
 21
161.8779308457207
 31
0.0
  0
LINE
  5
10001ABB
330
F6
100
AcDbEntity
  8
目盛
100
AcDbLine
 10
558.0515643341751
 20
163.3627304248137
 30
0.0
 11
560.0445500526742
 21
163.195374738149
 31
0.0
  0
LINE
  5
10001ABC
330
F6
100
AcDbEntity
  8
目盛
100
AcDbLine
 10
564.8786432651067
 20
145.0052683966158
 30
0.0
 11
566.2779699461331
 21
146.4342137558816
 31
0.0
  0
LINE
  5
10001ABD
330
F6
100
AcDbEntity
  8
中心線
 48
0.2
100
AcDbLine
 10
567.3811381375146
 20
157.6563583321737
 30
0.0
 11
579.9627443333267
 21
150.3923646081837
 31
0.0
  0
LINE
  5
10001ABE
330
F6
100
AcDbEntity
  8
目盛
100
AcDbLine
 10
559.1722266666931
 20
154.102075914315
 30
0.0
 11
561.0677634867123
 21
154.7399945329113
 31
0.0
  0
LINE
  5
10001ABF
330
F6
100
AcDbEntity
  8
目盛
100
AcDbLine
 10
559.4134143386003
 20
153.4209829397687
 30
0.0
 11
561.2879783175839
 21
154.1181270344123
 31
0.0
  0
LINE
  5
10001AC0
330
F6
100
AcDbEntity
  8
目盛
100
AcDbLine
 10
559.6758766462836
 20
152.7478019313458
 30
0.0
 11
561.5276178159036
 21
153.5034835049827
 31
0.0
  0
LINE
  5
10001AC1
330
F6
100
AcDbEntity
  8
目盛
100
AcDbLine
 10
559.9593545711339
 20
152.083197237427
 30
0.0
 11
562.6999909440619
 21
153.3034071666543
 31
0.0
  0
TEXT
  5
10001AC2
330
F6
100
AcDbEntity
  8
文字
100
AcDbText
 10
565.6558751921815
 20
149.7706086629098
 30
0.0
 40
2.0
  1
.1
 50
330.0000000000022
  7
STYLE3
100
AcDbText
  0
LINE
  5
10001AC3
330
F6
100
AcDbEntity
  8
目盛
100
AcDbLine
 10
560.932982441149
 20
150.1473536950224
 30
0.0
 11
562.6754100633896
 21
151.1291612022525
 31
0.0
  0
LINE
  5
10001AC4
330
F6
100
AcDbEntity
  8
目盛
100
AcDbLine
 10
560.5882177745955
 20
150.7823312204137
 30
0.0
 11
562.3606249330581
 21
151.7089232906533
 31
0.0
  0
LINE
  5
10001AC5
330
F6
100
AcDbEntity
  8
目盛
100
AcDbLine
 10
560.2635683546631
 20
151.4278247426071
 30
0.0
 11
562.0642058974675
 21
152.2982869413517
 31
0.0
  0
LINE
  5
10001AC6
330
F6
100
AcDbEntity
  8
目盛
100
AcDbLine
 10
564.3704148506513
 20
145.5188470291512
 30
0.0
 11
565.8139353068478
 21
146.9031333768922
 31
0.0
  0
LINE
  5
10001AC7
330
F6
100
AcDbEntity
  8
目盛
100
AcDbLine
 10
562.9459505784194
 20
147.1517410817692
 30
0.0
 11
564.5133374930712
 21
148.3940366423259
 31
0.0
  0
LINE
  5
10001AC8
330
F6
100
AcDbEntity
  8
目盛
100
AcDbLine
 10
562.5060981675179
 20
147.7249679039615
 30
0.0
 11
564.1117331179002
 21
148.9174176538927
 31
0.0
  0
LINE
  5
10001AC9
330
F6
100
AcDbEntity
  8
目盛
100
AcDbLine
 10
561.6814770341688
 20
148.9114422228249
 30
0.0
 11
564.1974887380051
 21
150.54535932787
 31
0.0
  0
LINE
  5
10001ACA
330
F6
100
AcDbEntity
  8
目盛
100
AcDbLine
 10
562.0844682868387
 20
148.3117279714284
 30
0.0
 11
563.7267667051061
 21
149.4531551067975
 31
0.0
  0
LINE
  5
10001ACB
330
F6
100
AcDbEntity
  8
目盛
100
AcDbLine
 10
561.2975221132223
 20
149.5235188125886
 30
0.0
 11
563.0082506335432
 21
150.5595728313347
 31
0.0
  0
LINE
  5
10001ACC
330
F6
100
AcDbEntity
  8
目盛
100
AcDbLine
 10
563.4035914383168
 20
146.5926132105196
 30
0.0
 11
564.9311834955859
 21
147.8835285859676
 31
0.0
  0
LINE
  5
10001ACD
330
F6
100
AcDbEntity
  8
目盛
100
AcDbLine
 10
563.8785691109336
 20
146.0481360819168
 30
0.0
 11
566.1080035873659
 21
148.0555279009931
 31
0.0
  0
TEXT
  5
10001ACE
330
F6
100
AcDbEntity
  8
文字
100
AcDbText
 10
562.4406604557657
 20
154.6360285827768
 30
0.0
 40
2.0
  1
.2
 50
330.0000000000022
  7
STYLE3
100
AcDbText
  0
LINE
  5
10001ACF
330
F6
100
AcDbEntity
  8
目盛
100
AcDbLine
 10
558.7546060922648
 20
155.4853019908127
 30
0.0
 11
561.6523835711323
 21
156.2617591261203
 31
0.0
  0
LINE
  5
10001AD0
330
F6
100
AcDbEntity
  8
目盛
100
AcDbLine
 10
558.424663080614
 20
156.8920211994506
 30
0.0
 11
560.3852054298575
 21
157.2873358802089
 31
0.0
  0
LINE
  5
10001AD1
330
F6
100
AcDbEntity
  8
目盛
100
AcDbLine
 10
558.952551653676
 20
154.7904086984476
 30
0.0
 11
560.8671906487403
 21
155.3684722923365
 31
0.0
  0
LINE
  5
10001AD2
330
F6
100
AcDbEntity
  8
目盛
100
AcDbLine
 10
558.5785853308313
 20
156.1860700156253
 30
0.0
 11
560.5257431365774
 21
156.6427717558464
 31
0.0
  0
LINE
  5
10001AD3
330
F6
100
AcDbEntity
  8
目盛
100
AcDbLine
 10
558.292991244292
 20
157.6024588537001
 30
0.0
 11
560.2649833184329
 21
157.9359963471324
 31
0.0
  0
TEXT
  5
10001AD4
330
F6
100
AcDbEntity
  8
文字
100
AcDbText
 10
561.1865536989904
 20
159.5671377044944
 30
0.0
 40
2.0
  1
.3
 50
330.0000000000022
  7
STYLE3
100
AcDbText
  0
LINE
  5
10001AD5
330
F6
100
AcDbEntity
  8
目盛
100
AcDbLine
 10
569.0687063175197
 20
152.2447216840989
 30
0.0
 11
569.5254790463411
 21
152.448090005637
 31
0.0
  0
LINE
  5
10001AD6
330
F6
100
AcDbEntity
  8
目盛
100
AcDbLine
 10
568.7618461378368
 20
155.1643012700932
 30
0.0
 11
569.2509199382034
 21
155.0603454246843
 31
0.0
  0
TEXT
  5
10001AD7
330
F6
100
AcDbEntity
  8
文字
100
AcDbText
 10
569.7744497899665
 20
154.7420388945054
 30
0.0
 40
0.7
  1
6
 50
330.0000000000022
  7
STYLE3
100
AcDbText
  0
LINE
  5
10001AD8
330
F6
100
AcDbEntity
  8
目盛
100
AcDbLine
 10
570.2296768611177
 20
157.7066586597265
 30
0.0
 11
570.5642421642973
 21
157.3350862469877
 31
0.0
  0
TEXT
  5
10001AD9
330
F6
100
AcDbEntity
  8
文字
100
AcDbText
 10
570.898189861046
 20
156.5402466121087
 30
0.0
 40
0.7
  1
4
 50
330.0000000000022
  7
STYLE3
100
AcDbText
  0
TEXT
  5
10001ADA
330
F6
100
AcDbEntity
  8
文字
100
AcDbText
 10
575.1830738579484
 20
143.8330514807343
 30
0.0
 40
2.0
  1
.9
 50
330.0000000000022
  7
STYLE3
100
AcDbText
  0
TEXT
  5
10001ADB
330
F6
100
AcDbEntity
  8
文字
100
AcDbText
 10
570.4415038004525
 20
145.0691638333412
 30
0.0
 40
2.0
  1
0
 50
330.0000000000022
  7
STYLE3
100
AcDbText
  0
LINE
  5
10001ADC
330
F6
100
AcDbEntity
  8
目盛
100
AcDbLine
 10
567.6474331330317
 20
142.6902007264138
 30
0.0
 11
568.8059954777173
 21
144.3204563178709
 31
0.0
  0
LINE
  5
10001ADD
330
F6
100
AcDbEntity
  8
目盛
100
AcDbLine
 10
568.242894464317
 20
142.2809514918383
 30
0.0
 11
569.3496775628037
 21
143.9467939732583
 31
0.0
  0
LINE
  5
10001ADE
330
F6
100
AcDbEntity
  8
目盛
100
AcDbLine
 10
566.4965311027673
 20
143.5637829146603
 30
0.0
 11
568.3844922759168
 21
145.8952207990312
 31
0.0
  0
LINE
  5
10001ADF
330
F6
100
AcDbEntity
  8
目盛
100
AcDbLine
 10
565.4027527942122
 20
144.5079070244168
 30
0.0
 11
566.7565047335776
 21
145.9801011986562
 31
0.0
  0
LINE
  5
10001AE0
330
F6
100
AcDbEntity
  8
目盛
100
AcDbLine
 10
565.9422262051414
 20
144.0272537481801
 30
0.0
 11
567.2490674131214
 21
145.5412438594834
 31
0.0
  0
LINE
  5
10001AE1
330
F6
100
AcDbEntity
  8
目盛
100
AcDbLine
 10
567.0651204550792
 20
143.1179519136138
 30
0.0
 11
568.2743186848039
 21
144.7110117496623
 31
0.0
  0
LINE
  5
10001AE2
330
F6
100
AcDbEntity
  8
目盛
100
AcDbLine
 10
570.1022325049254
 20
141.1681606306757
 30
0.0
 11
571.0473340346635
 21
142.9307675348058
 31
0.0
  0
LINE
  5
10001AE3
330
F6
100
AcDbEntity
  8
目盛
100
AcDbLine
 10
568.8509168004899
 20
141.8906080894727
 30
0.0
 11
569.9048283914833
 21
143.5903934754464
 31
0.0
  0
LINE
  5
10001AE4
330
F6
100
AcDbEntity
  8
目盛
100
AcDbLine
 10
570.9709000969138
 20
144.1176319524817
 30
0.0
 11
569.4709000969139
 21
141.5195557411283
 31
0.0
  0
LINE
  5
10001AE5
330
F6
100
AcDbEntity
  8
目盛
100
AcDbLine
 10
572.7284372573716
 20
139.9657902187347
 30
0.0
 11
573.8035411060074
 21
142.7665314982264
 31
0.0
  0
LINE
  5
10001AE6
330
F6
100
AcDbEntity
  8
目盛
100
AcDbLine
 10
572.0580416085156
 20
140.2352875416349
 30
0.0
 11
572.8330727814197
 21
142.0790138448118
 31
0.0
  0
LINE
  5
10001AE7
330
F6
100
AcDbEntity
  8
目盛
100
AcDbLine
 10
573.4069672219265
 20
139.7174835127083
 30
0.0
 11
574.0647005154036
 21
141.6062362531834
 31
0.0
  0
LINE
  5
10001AE8
330
F6
100
AcDbEntity
  8
目盛
100
AcDbLine
 10
571.3964418749243
 20
140.5257095200879
 30
0.0
 11
572.2290034594451
 21
142.3441817381822
 31
0.0
  0
LINE
  5
10001AE9
330
F6
100
AcDbEntity
  8
目盛
100
AcDbLine
 10
575.4846305726061
 20
139.1020515902488
 30
0.0
 11
575.9616974877633
 21
141.044320150068
 31
0.0
  0
LINE
  5
10001AEA
330
F6
100
AcDbEntity
  8
目盛
100
AcDbLine
 10
574.0929618750236
 20
139.4906124722961
 30
0.0
 11
574.6910434595358
 21
141.3990931293286
 31
0.0
  0
LINE
  5
10001AEB
330
F6
100
AcDbEntity
  8
目盛
100
AcDbLine
 10
574.785744222763
 20
139.2854009918244
 30
0.0
 11
575.3235838639932
 21
141.2117261254197
 31
0.0
  0
LINE
  5
10001AEC
330
F6
100
AcDbEntity
  8
目盛
100
AcDbLine
 10
570.7442909756602
 20
140.8367695426639
 30
0.0
 11
571.6335613340303
 21
142.6281930631428
 31
0.0
  0
LINE
  5
10001AED
330
F6
100
AcDbEntity
  8
目盛
100
AcDbLine
 10
573.9045574418438
 20
149.4527417357097
 30
0.0
 11
573.8522932102098
 21
149.9500026833939
 31
0.0
  0
TEXT
  5
10001AEE
330
F6
100
AcDbEntity
  8
文字
100
AcDbText
 10
576.2565909974306
 20
153.3215861082369
 30
0.0
 40
0.7
  1
6
 50
330.0000000000022
  7
STYLE3
100
AcDbText
  0
TEXT
  5
10001AEF
330
F6
100
AcDbEntity
  8
文字
100
AcDbText
 10
571.2930725824151
 20
151.179107994811
 30
0.0
 40
0.7
  1
0
 50
330.0000000000022
  7
STYLE3
100
AcDbText
  0
TEXT
  5
10001AF0
330
F6
100
AcDbEntity
  8
文字
100
AcDbText
 10
569.9213667182512
 20
152.6431649677942
 30
0.0
 40
0.7
  1
8
 50
330.0000000000022
  7
STYLE3
100
AcDbText
  0
CIRCLE
  5
10001AF1
330
F6
100
AcDbEntity
  8
外形線
100
AcDbCircle
 10
573.4080472413221
 20
154.176720738709
 30
0.0
 40
1.149999999999999
  0
LINE
  5
10001AF2
330
F6
100
AcDbEntity
  8
目盛
100
AcDbLine
 10
571.0330472413223
 20
150.0631000707329
 30
0.0
 11
571.2830472413223
 21
150.4961127726249
 31
0.0
  0
TEXT
  5
10001AF3
330
F6
100
AcDbEntity
  8
文字
100
AcDbText
 10
573.276893736824
 20
150.8124095090402
 30
0.0
 40
0.7
  1
2
 50
330.0000000000022
  7
STYLE3
100
AcDbText
  0
TEXT
  5
10001AF4
330
F6
100
AcDbEntity
  8
文字
100
AcDbText
 10
575.1555073396876
 20
151.4078413377614
 30
0.0
 40
0.7
  1
4
 50
330.0000000000022
  7
STYLE3
100
AcDbText
  0
LINE
  5
10001AF5
330
F6
100
AcDbEntity
  8
目盛
100
AcDbLine
 10
576.5864176215269
 20
150.6467828176916
 30
0.0
 11
576.2518523183474
 21
151.0183552304301
 31
0.0
  0
LINE
  5
10001AF6
330
F6
100
AcDbEntity
  8
目盛
100
AcDbLine
 10
578.0542483448077
 20
153.1891402073247
 30
0.0
 11
577.565174544441
 21
153.2930960527333
 31
0.0
  0
TEXT
  5
10001AF7
330
F6
100
AcDbEntity
  8
文字
100
AcDbText
 10
567.1989585472159
 20
174.7692810284142
 30
0.0
 40
2.0
  1
.6
 50
330.0000000000022
  7
STYLE3
100
AcDbText
  0
LINE
  5
10001AF8
330
F6
100
AcDbEntity
  8
目盛
100
AcDbLine
 10
570.9605848113502
 20
182.145471770421
 30
0.0
 11
571.8310470100949
 21
180.3448342276166
 31
0.0
  0
LINE
  5
10001AF9
330
F6
100
AcDbEntity
  8
目盛
100
AcDbLine
 10
572.280562000089
 20
182.7331634788005
 30
0.0
 11
573.036243573726
 21
180.8814223091803
 31
0.0
  0
LINE
  5
10001AFA
330
F6
100
AcDbEntity
  8
目盛
100
AcDbLine
 10
570.3150912891568
 20
181.8208223504882
 30
0.0
 11
571.2416833593967
 21
180.048415192026
 31
0.0
  0
LINE
  5
10001AFB
330
F6
100
AcDbEntity
  8
目盛
100
AcDbLine
 10
571.6159573061701
 20
182.4496855539503
 30
0.0
 11
572.8361672353977
 21
179.7090491810226
 31
0.0
  0
TEXT
  5
10001AFC
330
F6
100
AcDbEntity
  8
文字
100
AcDbText
 10
561.7177091288131
 20
165.6728352585584
 30
0.0
 40
2.0
  1
.4
 50
330.0000000000022
  7
STYLE3
100
AcDbText
  0
TEXT
  5
10001AFD
330
F6
100
AcDbEntity
  8
文字
100
AcDbText
 10
563.3474338374875
 20
170.5696916710422
 30
0.0
 40
2.0
  1
.5
 50
330.0000000000022
  7
STYLE3
100
AcDbText
  0
LINE
  5
10001AFE
330
F6
100
AcDbEntity
  8
目盛
100
AcDbLine
 10
568.4442022915681
 20
180.7275630909153
 30
0.0
 11
570.0781193966133
 21
178.2115513870791
 31
0.0
  0
LINE
  5
10001AFF
330
F6
100
AcDbEntity
  8
目盛
100
AcDbLine
 10
567.8444880401717
 20
180.3245718382456
 30
0.0
 11
568.9859151755405
 21
178.6822734199783
 31
0.0
  0
LINE
  5
10001B00
330
F6
100
AcDbEntity
  8
目盛
100
AcDbLine
 10
559.498550287478
 20
169.6806028677124
 30
0.0
 11
562.2992915669696
 21
168.6054990190766
 31
0.0
  0
LINE
  5
10001B01
330
F6
100
AcDbEntity
  8
目盛
100
AcDbLine
 10
560.058469588831
 20
171.0125982501599
 30
0.0
 11
561.8769418069253
 21
170.180036665639
 31
0.0
  0
LINE
  5
10001B02
330
F6
100
AcDbEntity
  8
目盛
100
AcDbLine
 10
560.3695296114071
 20
171.6647491494239
 30
0.0
 11
562.1609531318859
 21
170.7754787910539
 31
0.0
  0
LINE
  5
10001B03
330
F6
100
AcDbEntity
  8
目盛
100
AcDbLine
 10
559.7680476103784
 20
170.3509985165687
 30
0.0
 11
561.6117739135553
 21
169.5759673436645
 31
0.0
  0
LINE
  5
10001B04
330
F6
100
AcDbEntity
  8
目盛
100
AcDbLine
 10
560.7009206994188
 20
172.306807620159
 30
0.0
 11
562.4635276035489
 21
171.3617060904206
 31
0.0
  0
LINE
  5
10001B05
330
F6
100
AcDbEntity
  8
目盛
100
AcDbLine
 10
558.3344011136211
 20
165.5110890555212
 30
0.0
 11
560.3027923295595
 21
165.1569195748819
 31
0.0
  0
LINE
  5
10001B06
330
F6
100
AcDbEntity
  8
目盛
100
AcDbLine
 10
558.634811658992
 20
166.9244095524779
 30
0.0
 11
560.5770802188113
 21
166.4473426373207
 31
0.0
  0
LINE
  5
10001B07
330
F6
100
AcDbEntity
  8
目盛
100
AcDbLine
 10
558.4735052800361
 20
166.2201089169789
 30
0.0
 11
561.4079480822375
 21
165.5963738445256
 31
0.0
  0
LINE
  5
10001B08
330
F6
100
AcDbEntity
  8
目盛
100
AcDbLine
 10
559.0233725410392
 20
168.3160782500606
 30
0.0
 11
560.9318531980719
 21
167.7179966655485
 31
0.0
  0
LINE
  5
10001B09
330
F6
100
AcDbEntity
  8
目盛
100
AcDbLine
 10
558.8181610605674
 20
167.6232959023215
 30
0.0
 11
560.7444861941631
 21
167.0854562610911
 31
0.0
  0
LINE
  5
10001B0A
330
F6
100
AcDbEntity
  8
目盛
100
AcDbLine
 10
559.2502435814516
 20
169.0020729031578
 30
0.0
 11
561.1389963219266
 21
168.3443396096808
 31
0.0
  0
LINE
  5
10001B0B
330
F6
100
AcDbEntity
  8
目盛
100
AcDbLine
 10
561.4233681582158
 20
173.5581233245943
 30
0.0
 11
563.1231535441895
 21
172.5042117336007
 31
0.0
  0
LINE
  5
10001B0C
330
F6
100
AcDbEntity
  8
目盛
100
AcDbLine
 10
561.0523158098717
 20
172.9381400281704
 30
0.0
 11
563.6503920212251
 21
171.4381400281704
 31
0.0
  0
LINE
  5
10001B0D
330
F6
100
AcDbEntity
  8
目盛
100
AcDbLine
 10
566.6845011505126
 20
179.4630895466646
 30
0.0
 11
567.926796711069
 21
177.895702632013
 31
0.0
  0
LINE
  5
10001B0E
330
F6
100
AcDbEntity
  8
目盛
100
AcDbLine
 10
566.1253732792629
 20
179.0054486867673
 30
0.0
 11
567.4162886547107
 21
177.477856629498
 31
0.0
  0
LINE
  5
10001B0F
330
F6
100
AcDbEntity
  8
目盛
100
AcDbLine
 10
565.5808961506598
 20
178.5304710141506
 30
0.0
 11
567.5882879697363
 21
176.3010365377184
 31
0.0
  0
LINE
  5
10001B10
330
F6
100
AcDbEntity
  8
目盛
100
AcDbLine
 10
567.2577279727043
 20
179.9029419575662
 30
0.0
 11
568.4501777226358
 21
178.2973070071839
 31
0.0
  0
LINE
  5
10001B11
330
F6
100
AcDbEntity
  8
目盛
100
AcDbLine
 10
563.5600138169232
 20
176.4668139199428
 30
0.0
 11
565.0740039282269
 21
175.1599727119626
 31
0.0
  0
LINE
  5
10001B12
330
F6
100
AcDbEntity
  8
目盛
100
AcDbLine
 10
562.6507119823571
 20
175.343919670005
 30
0.0
 11
564.2437718184056
 21
174.1347214402803
 31
0.0
  0
LINE
  5
10001B13
330
F6
100
AcDbEntity
  8
目盛
100
AcDbLine
 10
564.0406670931598
 20
177.0062873308717
 30
0.0
 11
565.5128612673994
 21
175.6525353915063
 31
0.0
  0
LINE
  5
10001B14
330
F6
100
AcDbEntity
  8
目盛
100
AcDbLine
 10
564.5380284653594
 20
177.530396859978
 30
0.0
 11
565.9669738246249
 21
176.131070178951
 31
0.0
  0
LINE
  5
10001B15
330
F6
100
AcDbEntity
  8
目盛
100
AcDbLine
 10
562.2229607951569
 20
174.7616069920523
 30
0.0
 11
563.8532163866139
 21
173.6030446473669
 31
0.0
  0
LINE
  5
10001B16
330
F6
100
AcDbEntity
  8
目盛
100
AcDbLine
 10
563.0965429834033
 20
175.9125090223169
 30
0.0
 11
565.4279808677743
 21
174.0245478491674
 31
0.0
  0
LINE
  5
10001B17
330
F6
100
AcDbEntity
  8
目盛
100
AcDbLine
 10
561.8137115605812
 20
174.1661456607674
 30
0.0
 11
563.4795540420015
 21
173.0593625622808
 31
0.0
  0
LINE
  5
10001B18
330
F6
100
AcDbEntity
  8
目盛
100
AcDbLine
 10
565.0516070978944
 20
178.0386252744328
 30
0.0
 11
566.4358934456353
 21
176.5951048182361
 31
0.0
  0
LINE
  5
10001B19
330
F6
100
AcDbEntity
  8
目盛
100
AcDbLine
 10
569.0562788813315
 20
181.1115180118621
 30
0.0
 11
570.092332900078
 21
179.4007894915412
 31
0.0
  0
LINE
  5
10001B1A
330
F6
100
AcDbEntity
  8
目盛
100
AcDbLine
 10
569.6801137637654
 20
181.4760576839348
 30
0.0
 11
570.6619212709957
 21
179.7336300616944
 31
0.0
  0
HATCH
  5
10001B1B
330
F6
100
AcDbEntity
  8
ROGO
 62
     4
100
AcDbHatch
 10
0.0
 20
0.0
 30
0.0
210
0.0
220
0.0
230
1.0
  2
SOLID
 70
     1
 71
     0
 91
        1
 92
        5
 93
        8
 72
     1
 10
587.1497446513057
 20
168.6924453271191
 11
587.6050126805347
 21
168.9937540837239
 72
     1
 10
587.6050126805345
 20
168.9937540837239
 11
586.4661578013706
 21
169.651272254777
 72
     4
 94
        3
 73
     0
 74
     0
 95
       26
 96
       22
 40
0.0
 40
0.0
 40
0.0
 40
0.0
 40
0.238219534659281
 40
0.3976890672662749
 40
0.5126795869788686
 40
0.5985392873135566
 40
0.7099038249249679
 40
0.7911890807496903
 40
0.9379713068542402
 40
1.057449928672913
 40
1.138714535892936
 40
1.218398644003361
 40
1.360938021870216
 40
1.461730374800175
 40
1.516014844107798
 40
1.593124329220232
 40
1.64880681859359
 40
1.729472362005599
 40
1.775122082164092
 40
1.874460993765106
 40
1.919820003751069
 40
1.919820003751069
 40
1.919820003751069
 40
1.919820003751069
 10
586.4661578013708
 20
169.6512722547771
 10
586.3937229933083
 20
169.6875222684936
 10
586.2727986900299
 20
169.7480388594772
 10
586.0994279965494
 20
169.7441704312498
 10
585.9792177747049
 20
169.7531337082456
 10
585.8765716494145
 20
169.7302332728917
 10
585.7906610533911
 20
169.6949651914058
 10
585.6848974806363
 20
169.6549075191982
 10
585.5833693853703
 20
169.5957742956144
 10
585.5014350422338
 20
169.5132975354836
 10
585.4338478191542
 20
169.4488823684744
 10
585.3670286339881
 20
169.3721937747919
 10
585.3174078739113
 20
169.2763137836033
 10
585.2734876767471
 20
169.1860153788681
 10
585.26524159755
 20
169.1082153708856
 10
585.2711121172657
 20
169.0460483645222
 10
585.2814334926153
 20
168.9753522393212
 10
585.3048349593978
 20
168.918966240125
 10
585.305912428323
 20
168.8406729368261
 10
585.3623795154781
 20
168.7981602402091
 10
585.3924583647013
 20
168.7610675471449
 10
585.4018872964186
 20
168.7494399590175
 72
     1
 10
585.4018872964185
 20
168.7494399590173
 11
586.3813871558295
 21
168.1839254515151
 72
     1
 10
586.3813871558295
 20
168.1839254515151
 11
586.8366503638942
 21
168.4852310173426
 72
     1
 10
586.8366503638942
 20
168.4852310173426
 11
586.1094652687435
 21
168.9050715277783
 72
     4
 94
        3
 73
     0
 74
     0
 95
       16
 96
       12
 40
0.0
 40
0.0
 40
0.0
 40
0.0
 40
0.0719416665235911
 40
0.1446253590761808
 40
0.1879779149914913
 40
0.2295440936106429
 40
0.275193632395999
 40
0.3070718656053438
 40
0.3373215422373688
 40
0.3986635435215936
 40
0.5242542460843276
 40
0.5242542460843276
 40
0.5242542460843276
 40
0.5242542460843276
 10
586.1094652687435
 20
168.9050715277784
 10
586.0912566996774
 20
168.9241888383668
 10
586.0546517533832
 20
168.9626206407149
 10
586.0872711884424
 20
169.0276417952463
 10
586.1181725729692
 20
169.0695537051479
 10
586.1580659687671
 20
169.0900247938013
 10
586.1973171383639
 20
169.0990176780782
 10
586.2246794276788
 20
169.1244451648801
 10
586.2661167407593
 20
169.1316514382169
 10
586.3383505692109
 20
169.1422725963373
 10
586.3979988998009
 20
169.1189787530834
 10
586.4380736196939
 20
169.1033287887946
 72
     1
 10
586.4380736196945
 20
169.1033287887942
 11
587.1497446513057
 21
168.692445327119
 97
        0
 75
     0
 76
     1
 47
0.0514683685270805
 98
        1
 10
586.7182967898081
 20
169.1681559989061
450
        0
451
        0
460
0.0
461
0.0
452
        0
462
0.0
453
        0
470

  0
HATCH
  5
10001B1C
330
F6
100
AcDbEntity
  8
ROGO
 62
     4
100
AcDbHatch
 10
0.0
 20
0.0
 30
0.0
210
0.0
220
0.0
230
1.0
  2
SOLID
 70
     1
 71
     1
 91
        1
 92
        1
 93
       12
 72
     1
 10
582.3484490884055
 20
172.028632488652
 11
583.8865822142262
 21
171.1405909144099
 72
     1
 10
583.886582214226
 20
171.14059091441
 11
583.6072868544221
 21
170.9545055523803
 72
     1
 10
583.6072868544221
 20
170.9545055523803
 11
582.7988829512526
 21
171.4212377634894
 72
     1
 10
582.7988829512526
 20
171.4212377634894
 11
582.5805086867238
 21
171.275742134413
 72
     1
 10
582.5805086867238
 20
171.275742134413
 11
583.3889125898934
 21
170.8090099233039
 72
     1
 10
583.3889125898934
 20
170.8090099233039
 11
583.1649902389211
 21
170.6598177857173
 72
     1
 10
583.1649902389211
 20
170.6598177857173
 11
582.3565863357513
 21
171.1265499968262
 72
     1
 10
582.3565863357513
 20
171.1265499968262
 11
582.1382028263058
 21
170.9810482081642
 72
     1
 10
582.1382028263059
 20
170.9810482081642
 11
582.9466067294758
 21
170.5143159970553
 72
     1
 10
582.9466067294758
 20
170.5143159970553
 11
582.6673254185392
 21
170.3282399953266
 72
     1
 10
582.6673254185392
 20
170.3282399953266
 11
581.1291922927186
 21
171.2162815695684
 72
     1
 10
581.1291922927186
 20
171.2162815695684
 11
582.3484490884055
 21
172.028632488652
 97
       12
330
10001B81
330
10001B26
330
10001B4E
330
10001B4D
330
10001B4F
330
10001B4C
330
10001B52
330
10001B54
330
10001B51
330
10001B53
330
10001B50
330
10001B25
 75
     0
 76
     1
 98
        1
 10
474.0325437805722
 20
129.7202391850825
450
        0
451
        0
460
0.0
461
0.0
452
        0
462
0.0
453
        0
470

  0
HATCH
  5
10001B1D
330
F6
100
AcDbEntity
  8
ROGO
 62
     4
100
AcDbHatch
 10
0.0
 20
0.0
 30
0.0
210
0.0
220
0.0
230
1.0
  2
SOLID
 70
     1
 71
     1
 91
        2
 92
        7
 72
     0
 73
     1
 93
        8
 10
585.2418234182927
 20
170.3581420404254
 10
584.3321473179891
 20
170.8833437818112
 10
582.8555056671286
 20
170.219594078147
 10
583.4853202619259
 20
169.8559704523014
 10
583.7664636959757
 20
169.9823442891285
 10
584.4851582502791
 20
169.567405794736
 10
584.4563372591188
 20
169.2953535275842
 10
585.090447747329
 20
168.9292496665204
 97
        8
330
10001B80
330
10001B27
330
10001B56
330
10001B55
330
10001B48
330
10001B57
330
10001B58
330
10001B29
 92
       22
 72
     0
 73
     1
 93
        3
 10
584.5155566187481
 20
169.8543475245927
 10
584.0629941537024
 20
170.1156345856121
 10
584.5672495979978
 20
170.3422971624988
 97
        3
330
10001B4A
330
10001B49
330
10001B4B
 75
     0
 76
     1
 47
0.0128389261915577
 98
        2
 10
585.0130676334011
 20
170.1264351834598
 10
585.0130676334011
 20
170.1264351834598
450
        0
451
        0
460
0.0
461
0.0
452
        0
462
0.0
453
        0
470

  0
HATCH
  5
10001B1E
330
F6
100
AcDbEntity
  8
ROGO
 62
     4
100
AcDbHatch
 10
0.0
 20
0.0
 30
0.0
210
0.0
220
0.0
230
1.0
  2
SOLID
 70
     1
 71
     1
 91
        2
 92
        5
 93
        6
 72
     1
 10
578.2218158560511
 20
172.0418397585788
 11
579.0478317140461
 21
171.5649392806105
 72
     1
 10
579.0478317140461
 20
171.5649392806105
 11
579.706645246396
 21
172.0375894896978
 72
     1
 10
579.706645246396
 20
172.0375894896978
 11
580.4788006568577
 21
171.5917853556117
 72
     4
 94
        3
 73
     0
 74
     0
 95
       18
 96
       14
 40
0.108740278791501
 40
0.108740278791501
 40
0.108740278791501
 40
0.108740278791501
 40
0.6623149649549278
 40
1.384304701649787
 40
2.097394834876493
 40
2.774073369849618
 40
3.428974823686337
 40
4.005208313035923
 40
4.455173659284313
 40
4.720999734343524
 40
5.086034088486724
 40
5.569973738255373
 40
6.060470601257719
 40
6.060470601257719
 40
6.060470601257719
 40
6.060470601257719
 10
580.4788006568577
 20
171.5917853556116
 10
580.5333773187893
 20
171.5608150731955
 10
580.6591346014442
 20
171.4894523620682
 10
580.88834631223
 20
171.481897134625
 10
581.1232993720527
 20
171.5052078254454
 10
581.3430970275305
 20
171.5769126539546
 10
581.5247824917586
 20
171.6990873672419
 10
581.6319298987625
 20
171.8548523499783
 10
581.6985859999821
 20
171.9885083409464
 10
581.6942157642931
 20
172.1110172877784
 10
581.6883878112334
 20
172.2361553648245
 10
581.6266896024514
 20
172.377261403572
 10
581.5587248045518
 20
172.4627188161854
 10
581.5234525100351
 20
172.5049444852548
 72
     1
 10
581.5234525100351
 20
172.5049444852545
 11
580.1269880074305
 21
173.3111936417473
 72
     1
 10
580.1269880074305
 20
173.3111936417473
 11
578.2218158560511
 21
172.0418397585788
 97
        6
330
10001B28
330
10001B66
330
10001B24
330
10001B34
330
10001B37
330
10001B3C
 92
       20
 93
        4
 72
     1
 10
580.1134253064051
 20
172.3294242365191
 11
580.4248662542351
 21
172.5528601890032
 72
     1
 10
580.4248662542351
 20
172.5528601890032
 11
580.7764613090598
 21
172.3498666894545
 72
     4
 94
        3
 73
     0
 74
     0
 95
       15
 96
       11
 40
0.0
 40
0.0
 40
0.0
 40
0.0
 40
0.153970502917273
 40
0.2241725832586109
 40
0.3038566179395596
 40
0.3581410872475286
 40
0.443992538467009
 40
0.495415212546822
 40
0.5836396705644898
 40
0.6130478420063835
 40
0.6130478420063835
 40
0.6130478420063835
 40
0.6130478420063835
 10
580.77646130906
 20
172.3498666894546
 10
580.8266745586009
 20
172.3211819187547
 10
580.8997822880045
 20
172.2794184703915
 10
580.8875801006611
 20
172.1662021492198
 10
580.8361794085734
 20
172.1184488634466
 10
580.7792891609083
 20
172.0717985108837
 10
580.7161932339367
 20
172.0542082627031
 10
580.6403738476888
 20
172.0459534927131
 10
580.5872848695745
 20
172.0703060714085
 10
580.5495194841203
 20
172.0805381029798
 10
580.5400781332374
 20
172.0830961120971
 72
     1
 10
580.540078133237
 20
172.0830961120971
 11
580.1134253064051
 21
172.3294242365191
 97
        4
330
10001B38
330
10001B39
330
10001B3B
330
10001B3A
 75
     0
 76
     1
 47
0.0514683685270805
 98
        2
 10
579.8153575150936
 20
172.7541966892184
 10
579.8153575150936
 20
172.7541966892184
450
        0
451
        0
460
0.0
461
0.0
452
        0
462
0.0
453
        0
470

  0
HATCH
  5
10001B1F
330
F6
100
AcDbEntity
  8
ROGO
 62
     4
100
AcDbHatch
 10
0.0
 20
0.0
 30
0.0
210
0.0
220
0.0
230
1.0
  2
SOLID
 70
     1
 71
     0
 91
        1
 92
        5
 93
        8
 72
     4
 94
        3
 73
     0
 74
     0
 95
       26
 96
       22
 40
0.0
 40
0.0
 40
0.0
 40
0.0
 40
0.2382195346592964
 40
0.3976890672662121
 40
0.5126795869788441
 40
0.5985392873137183
 40
0.7099038249254707
 40
0.7911890807496897
 40
0.9379713068546891
 40
1.057449928673475
 40
1.13871453589317
 40
1.218398644003498
 40
1.360938021870501
 40
1.461730374800461
 40
1.516014844108037
 40
1.593124329220539
 40
1.648806818593769
 40
1.729472362005405
 40
1.775122082164331
 40
1.874460993765232
 40
1.919820003751161
 40
1.919820003751161
 40
1.919820003751161
 40
1.919820003751161
 10
590.1303717081789
 20
167.5357373693132
 10
590.0579369001165
 20
167.57198738303
 10
589.9370125968379
 20
167.6325039740141
 10
589.7636419033575
 20
167.6286355457855
 10
589.6434316815128
 20
167.6375988227821
 10
589.5407855562224
 20
167.6146983874278
 10
589.4548749601994
 20
167.5794303059414
 10
589.3491113874437
 20
167.5393726337346
 10
589.2475832921781
 20
167.4802394101503
 10
589.1656489490417
 20
167.3977626500196
 10
589.0980617259617
 20
167.3333474830105
 10
589.0312425407956
 20
167.256658889328
 10
588.9816217807191
 20
167.1607788981395
 10
588.9377015835549
 20
167.0704804934042
 10
588.9294555043576
 20
166.9926804854217
 10
588.9353260240737
 20
166.9305134790583
 10
588.9456473994234
 20
166.8598173538573
 10
588.9690488662052
 20
166.8034313546612
 10
588.9701263351314
 20
166.7251380513621
 10
589.0265934222862
 20
166.6826253547453
 10
589.0566722715091
 20
166.6455326616809
 10
589.0661012032262
 20
166.6339050735534
 72
     1
 10
589.0661012032261
 20
166.6339050735535
 11
590.0456010626375
 21
166.0683905660513
 72
     1
 10
590.0456010626375
 20
166.0683905660512
 11
590.5008642707023
 21
166.3696961318786
 72
     1
 10
590.5008642707023
 20
166.3696961318785
 11
589.7736791755512
 21
166.7895366423147
 72
     4
 94
        3
 73
     0
 74
     0
 95
       16
 96
       12
 40
0.0
 40
0.0
 40
0.0
 40
0.0
 40
0.0719416665232502
 40
0.1446253590759868
 40
0.187977914991054
 40
0.22954409361042
 40
0.2751936323958162
 40
0.307071865605046
 40
0.3373215422371777
 40
0.3986635435213123
 40
0.5242542460840829
 40
0.5242542460840829
 40
0.5242542460840829
 40
0.5242542460840829
 10
589.7736791755513
 20
166.7895366423145
 10
589.7554706064855
 20
166.8086539529029
 10
589.7188656601912
 20
166.847085755251
 10
589.7514850952506
 20
166.9121069097822
 10
589.7823864797771
 20
166.9540188196838
 10
589.822279875575
 20
166.9744899083376
 10
589.8615310451719
 20
166.9834827926143
 10
589.8888933344866
 20
167.0089102794164
 10
589.9303306475673
 20
167.0161165527529
 10
590.0025644760187
 20
167.0267377108738
 10
590.0622128066088
 20
167.0034438676199
 10
590.1022875265018
 20
166.9877939033308
 72
     1
 10
590.1022875265018
 20
166.9877939033308
 11
590.8139585581135
 21
166.5769104416552
 72
     1
 10
590.8139585581135
 20
166.5769104416554
 11
591.2692265873424
 21
166.8782191982604
 72
     1
 10
591.2692265873426
 20
166.8782191982602
 11
590.1303717081782
 21
167.5357373693136
 97
        0
 75
     0
 76
     1
 47
0.0514683685270805
 98
        1
 10
590.2066673152578
 20
167.2140503777986
450
        0
451
        0
460
0.0
461
0.0
452
        0
462
0.0
453
        0
470

  0
HATCH
  5
10001B20
330
F6
100
AcDbEntity
  8
ROGO
 62
     4
100
AcDbHatch
 10
0.0
 20
0.0
 30
0.0
210
0.0
220
0.0
230
1.0
  2
SOLID
 70
     1
 71
     1
 91
        1
 92
        5
 93
        6
 72
     4
 94
        3
 73
     0
 74
     0
 95
       38
 96
       34
 40
0.0
 40
0.0
 40
0.0
 40
0.0
 40
0.1807680148265611
 40
0.2375392910068832
 40
0.3104865209605143
 40
0.3712759982446423
 40
0.4225667543871423
 40
0.4906925837206997
 40
0.5255021974952227
 40
0.564706959705423
 40
0.6224874016817051
 40
0.6879401044675216
 40
0.7303986317548591
 40
0.7765228362186156
 40
0.8277951442290474
 40
0.9056034696997762
 40
0.9795294930263015
 40
1.013897332332847
 40
1.053089255535846
 40
1.099518741889471
 40
1.132570569820454
 40
1.160277520290285
 40
1.199836786293583
 40
1.243305643169021
 40
1.286774258016722
 40
1.324809356515632
 40
1.411916492917427
 40
1.446284332224177
 40
1.515020051661026
 40
1.57577936990834
 40
1.692098529536001
 40
1.835624328518888
 40
2.042896467983883
 40
2.042896467983883
 40
2.042896467983883
 40
2.042896467983883
 10
588.2392789423606
 20
168.6338848346483
 10
588.1849679277514
 20
168.6603261931855
 10
588.1136002141845
 20
168.69507161851
 10
588.0127587700233
 20
168.721486658733
 10
587.9488892007004
 20
168.7204708284903
 10
587.8874350584971
 20
168.7280997344927
 10
587.8274634066102
 20
168.7214815991808
 10
587.7756646037974
 20
168.7301356423299
 10
587.7292437374806
 20
168.7186155700898
 10
587.6845849975697
 20
168.7209910798272
 10
587.63440652689
 20
168.6975672188347
 10
587.582467418841
 20
168.6785673978571
 10
587.5313362684596
 20
168.6723297443622
 10
587.4858174961271
 20
168.6610534091029
 10
587.4338810170664
 20
168.6330778144522
 10
587.3846490619317
 20
168.5844887119452
 10
587.318819450089
 20
168.5738721084093
 10
587.2867639003883
 20
168.5339196166295
 10
587.2470627055299
 20
168.5223508304048
 10
587.2170147894679
 20
168.4951770040353
 10
587.1952507174404
 20
168.4669524817521
 10
587.1738323258888
 20
168.441223345453
 10
587.143602656628
 20
168.4186021428624
 10
587.1263706091308
 20
168.3790487359572
 10
587.1044169174012
 20
168.3437889525508
 10
587.0770998219815
 20
168.294847075423
 10
587.047274105849
 20
168.249060498401
 10
587.0378645346105
 20
168.1859271419081
 10
587.0234013103426
 20
168.1331604074301
 10
587.0196254093119
 20
168.050716415113
 10
587.0340425220913
 20
167.9447548813088
 10
587.0905358230063
 20
167.7936246567466
 10
587.1889935529586
 20
167.7247573863031
 10
587.2471681945325
 20
167.6840665357606
 72
     1
 10
587.2471681945324
 20
167.6840665357609
 11
587.8970802697761
 21
167.3088396241689
 72
     4
 94
        3
 73
     0
 74
     0
 95
       11
 96
        7
 40
0.1647869275458135
 40
0.1647869275458135
 40
0.1647869275458135
 40
0.1647869275458135
 40
0.2545010798212315
 40
0.5111620267764023
 40
0.7602998271033902
 40
0.8850764140209603
 40
0.8850764140209603
 40
0.8850764140209603
 40
0.8850764140209603
 10
587.8970802697782
 20
167.3088396241678
 10
587.9060482936597
 20
167.3034288965344
 10
587.9406727100205
 20
167.2825387551966
 10
588.0054753360818
 20
167.2565871118061
 10
588.0731905124341
 20
167.2284757034152
 10
588.1141887242537
 20
167.2128046664378
 10
588.1282399637854
 20
167.2091850416141
 72
     4
 94
        3
 73
     0
 74
     0
 95
        9
 96
        5
 40
0.0
 40
0.0
 40
0.0
 40
0.0
 40
0.1135793343549105
 40
0.2662938392176031
 40
0.2662938392176031
 40
0.2662938392176031
 40
0.2662938392176031
 10
588.1282399637854
 20
167.2091850416141
 10
588.1654180430667
 20
167.2006094272212
 10
588.2525843706627
 20
167.1805033639722
 10
588.3414483448123
 20
167.1930668876886
 10
588.3924101614744
 20
167.2002718320812
 72
     4
 94
        3
 73
     0
 74
     0
 95
       25
 96
       21
 40
0.0
 40
0.0
 40
0.0
 40
0.0
 40
0.165525918914855
 40
0.3412380755365305
 40
0.5940540902285263
 40
0.7697671103696209
 40
0.9377330196075423
 40
1.11479469302833
 40
1.274661249598185
 40
1.574522170874768
 40
1.815540668866877
 40
2.15849091873445
 40
2.536227739636605
 40
2.738070817316548
 40
2.925680654369045
 40
3.162706124480894
 40
3.395643218188267
 40
3.648478129958861
 40
3.928509979727306
 40
4.337226830236035
 40
4.337226830236035
 40
4.337226830236035
 40
4.337226830236035
 10
588.3924101614744
 20
167.2002718320812
 10
588.4114609530801
 20
167.2034834562791
 10
588.4505588934762
 20
167.214708476909
 10
588.5176680113369
 20
167.2307424054148
 10
588.5835390565374
 20
167.2565340828368
 10
588.6531027955462
 20
167.2680972117301
 10
588.7050402884892
 20
167.3013496772471
 10
588.7619697239198
 20
167.3182172572513
 10
588.8249194141906
 20
167.3586852812862
 10
588.8883150301466
 20
167.4103165116989
 10
588.9621306045074
 20
167.4827087258868
 10
589.0275159009114
 20
167.5747064946539
 10
589.0682512232423
 20
167.6767190578872
 10
589.0759754891028
 20
167.7660898341584
 10
589.0856445035764
 20
167.8387053800243
 10
589.081002630693
 20
167.9154525976325
 10
589.073998907888
 20
168.0000525036129
 10
589.0438424588991
 20
168.0840964433072
 10
589.0015245370221
 20
168.1888989697887
 10
588.9310261369221
 20
168.2326783744001
 10
588.8891910176065
 20
168.2586579230554
 72
     1
 10
588.8891910176065
 20
168.2586579230551
 11
588.2392789423598
 21
168.6338848346485
 97
        6
330
10001B2F
330
10001B84
330
10001B23
330
10001B5F
330
10001B60
330
10001B61
 75
     0
 76
     1
 47
0.088756267210375
 98
        1
 10
588.2519347490276
 20
168.2060259940074
450
        0
451
        0
460
0.0
461
0.0
452
        0
462
0.0
453
        0
470

  0
LINE
  5
10001B21
330
F6
100
AcDbEntity
  8
ROGO
 62
     4
100
AcDbLine
 10
591.2692265873426
 20
166.8782191982601
 30
0.0
 11
590.8139585581135
 21
166.5769104416554
 31
0.0
  0
LINE
  5
10001B22
330
F6
100
AcDbEntity
  8
ROGO
 62
     4
100
AcDbLine
 10
587.6050126805345
 20
168.993754083724
 30
0.0
 11
587.1497446513057
 21
168.6924453271191
 31
0.0
  0
SPLINE
  5
10001B23
102
{ACAD_REACTORS
330
10001B20
102
}
330
F6
100
AcDbEntity
  8
ROGO
 62
     4
100
AcDbSpline
210
0.0
220
0.0
230
1.0
 70
     8
 71
     3
 72
    38
 73
    34
 74
    32
 42
0.0000000001
 43
0.0000000001
 44
0.0000000001
 40
0.0
 40
0.0
 40
0.0
 40
0.0
 40
0.1807680148263534
 40
0.2375392910067293
 40
0.3104865209603886
 40
0.3712759982444961
 40
0.4225667543868647
 40
0.490692583720373
 40
0.5255021974951097
 40
0.5647069597052186
 40
0.6224874016815322
 40
0.6879401044673657
 40
0.7303986317546003
 40
0.7765228362185348
 40
0.8277951442287683
 40
0.905603469699608
 40
0.9795294930261292
 40
1.013897332332603
 40
1.053089255535626
 40
1.099518741889444
 40
1.132570569820309
 40
1.160277520290139
 40
1.19983678629334
 40
1.243305643168803
 40
1.286774258016514
 40
1.324809356515569
 40
1.411916492917197
 40
1.446284332223943
 40
1.515020051660798
 40
1.575779369908098
 40
1.69209852953596
 40
1.835624328518637
 40
2.042896467983571
 40
2.042896467983571
 40
2.042896467983571
 40
2.042896467983571
 10
588.2392789423606
 20
168.6338848346483
 30
0.0
 10
588.1849679277514
 20
168.6603261931856
 30
0.0
 10
588.1136002141844
 20
168.69507161851
 30
0.0
 10
588.0127587700234
 20
168.721486658733
 30
0.0
 10
587.9488892007006
 20
168.7204708284906
 30
0.0
 10
587.8874350584971
 20
168.7280997344926
 30
0.0
 10
587.8274634066102
 20
168.7214815991805
 30
0.0
 10
587.7756646037978
 20
168.7301356423299
 30
0.0
 10
587.7292437374803
 20
168.7186155700896
 30
0.0
 10
587.6845849975698
 20
168.7209910798273
 30
0.0
 10
587.63440652689
 20
168.6975672188346
 30
0.0
 10
587.5824674188408
 20
168.6785673978572
 30
0.0
 10
587.5313362684599
 20
168.672329744362
 30
0.0
 10
587.485817496127
 20
168.6610534091031
 30
0.0
 10
587.4338810170669
 20
168.633077814452
 30
0.0
 10
587.3846490619314
 20
168.5844887119455
 30
0.0
 10
587.3188194500894
 20
168.5738721084092
 30
0.0
 10
587.2867639003882
 20
168.5339196166297
 30
0.0
 10
587.2470627055299
 20
168.5223508304048
 30
0.0
 10
587.2170147894678
 20
168.4951770040354
 30
0.0
 10
587.1952507174405
 20
168.466952481752
 30
0.0
 10
587.1738323258885
 20
168.4412233454532
 30
0.0
 10
587.1436026566282
 20
168.4186021428625
 30
0.0
 10
587.1263706091307
 20
168.3790487359573
 30
0.0
 10
587.1044169174013
 20
168.3437889525506
 30
0.0
 10
587.0770998219816
 20
168.2948470754231
 30
0.0
 10
587.047274105849
 20
168.249060498401
 30
0.0
 10
587.0378645346105
 20
168.1859271419082
 30
0.0
 10
587.0234013103426
 20
168.1331604074301
 30
0.0
 10
587.0196254093119
 20
168.050716415113
 30
0.0
 10
587.0340425220912
 20
167.9447548813089
 30
0.0
 10
587.0905358230068
 20
167.7936246567467
 30
0.0
 10
587.1889935529587
 20
167.7247573863031
 30
0.0
 10
587.2471681945325
 20
167.6840665357606
 30
0.0
 11
588.2392789423606
 21
168.6338848346483
 31
0.0
 11
588.0729976611609
 21
168.7047904811571
 31
0.0
 11
588.0177522443725
 21
168.7178641846503
 31
0.0
 11
587.9449375045821
 21
168.7222587298094
 31
0.0
 11
587.8842584504308
 21
168.7259210973203
 31
0.0
 11
587.8329984517202
 21
168.7241450911679
 31
0.0
 11
587.7648932361688
 21
168.7258208707089
 31
0.0
 11
587.7304783263225
 21
168.7205937116892
 31
0.0
 11
587.6913538922373
 21
168.7180853182869
 31
0.0
 11
587.6366530222287
 21
168.699473647344
 31
0.0
 11
587.5745259908195
 21
168.6788753884309
 31
0.0
 11
587.5326847985601
 21
168.671661431839
 31
0.0
 11
587.4881273391423
 21
168.6597419080371
 31
0.0
 11
587.4428452755847
 21
168.6356922866543
 31
0.0
 11
587.3792701459045
 21
168.5908331917154
 31
0.0
 11
587.3117091071292
 21
168.5608238104411
 31
0.0
 11
587.2859895096034
 21
168.538027962536
 31
0.0
 11
587.2508508566371
 21
168.520670488294
 31
0.0
 11
587.2149878485197
 21
168.4911824932477
 31
0.0
 11
587.1939774052299
 21
168.4656680933461
 31
0.0
 11
587.1756839691039
 21
168.4448588334111
 31
0.0
 11
587.1472477344176
 21
168.4173576319178
 31
0.0
 11
587.1255133059796
 21
168.3797124975903
 31
0.0
 11
587.1037789985562
 21
168.3420675728647
 31
0.0
 11
587.0847614493064
 21
168.3091282113292
 31
0.0
 11
587.0460022376843
 21
168.2311193866584
 31
0.0
 11
587.0391202530603
 21
168.1974476378732
 31
0.0
 11
587.0253571448328
 21
168.1301039226622
 31
0.0
 11
587.0217365861768
 21
168.0694525722329
 31
0.0
 11
587.0367749350992
 21
167.9541096272462
 31
0.0
 11
587.0922058869926
 21
167.8217198068452
 31
0.0
 11
587.2471681945325
 21
167.6840665357606
 31
0.0
  0
LINE
  5
10001B24
102
{ACAD_REACTORS
330
10001B1E
102
}
330
F6
100
AcDbEntity
  8
ROGO
 62
     4
100
AcDbLine
 10
580.1269880074304
 20
173.3111936417473
 30
0.0
 11
578.2218158560511
 21
172.0418397585788
 31
0.0
  0
LINE
  5
10001B25
102
{ACAD_REACTORS
330
10001B1C
102
}
330
F6
100
AcDbEntity
  8
ROGO
 62
     4
100
AcDbLine
 10
582.3484490884055
 20
172.028632488652
 30
0.0
 11
581.1291922927186
 21
171.2162815695684
 31
0.0
  0
LINE
  5
10001B26
102
{ACAD_REACTORS
330
10001B1C
102
}
330
F6
100
AcDbEntity
  8
ROGO
 62
     4
100
AcDbLine
 10
583.886582214226
 20
171.14059091441
 30
0.0
 11
583.6072868544221
 21
170.9545055523803
 31
0.0
  0
LINE
  5
10001B27
102
{ACAD_REACTORS
330
10001B1D
102
}
330
F6
100
AcDbEntity
  8
ROGO
 62
     4
100
AcDbLine
 10
584.332147317989
 20
170.8833437818112
 30
0.0
 11
582.8555056671286
 21
170.219594078147
 31
0.0
  0
SPLINE
  5
10001B28
102
{ACAD_REACTORS
330
10001B1E
102
}
330
F6
100
AcDbEntity
  8
ROGO
 62
     4
100
AcDbSpline
210
0.0
220
0.0
230
1.0
 70
     8
 71
     3
 72
    18
 73
    14
 74
     0
 42
0.0000000001
 43
0.0000000001
 40
0.1087402787915014
 40
0.1087402787915014
 40
0.1087402787915014
 40
0.1087402787915014
 40
0.5992371417938475
 40
1.083176791562496
 40
1.448211145705696
 40
1.714037220764907
 40
2.164002567013297
 40
2.740236056362883
 40
3.395137510199602
 40
4.071816045172726
 40
4.784906178399433
 40
5.506895915094292
 40
6.060470601257719
 40
6.060470601257719
 40
6.060470601257719
 40
6.060470601257719
 10
581.5234525100351
 20
172.5049444852548
 30
0.0
 10
581.5587248045518
 20
172.4627188161854
 30
0.0
 10
581.6266896024514
 20
172.377261403572
 30
0.0
 10
581.6883878112334
 20
172.2361553648245
 30
0.0
 10
581.6942157642931
 20
172.1110172877784
 30
0.0
 10
581.6985859999821
 20
171.9885083409464
 30
0.0
 10
581.6319298987625
 20
171.8548523499783
 30
0.0
 10
581.5247824917586
 20
171.6990873672419
 30
0.0
 10
581.3430970275305
 20
171.5769126539546
 30
0.0
 10
581.1232993720527
 20
171.5052078254454
 30
0.0
 10
580.88834631223
 20
171.481897134625
 30
0.0
 10
580.6591346014442
 20
171.4894523620682
 30
0.0
 10
580.5333773187893
 20
171.5608150731955
 30
0.0
 10
580.4788006568577
 20
171.5917853556116
 30
0.0
  0
LINE
  5
10001B29
102
{ACAD_REACTORS
330
10001B1D
102
}
330
F6
100
AcDbEntity
  8
ROGO
 62
     4
100
AcDbLine
 10
585.2418234182926
 20
170.3581420404254
 30
0.0
 11
585.090447747329
 21
168.9292496665204
 31
0.0
  0
SPLINE
  5
10001B2A
330
F6
100
AcDbEntity
  8
ROGO
 62
     4
100
AcDbSpline
210
0.0
220
0.0
230
1.0
 70
     8
 71
     3
 72
    26
 73
    22
 74
    20
 42
0.0000000001
 43
0.0000000001
 44
0.0000000001
 40
0.0
 40
0.0
 40
0.0
 40
0.0
 40
0.2382195346593295
 40
0.3976890672663087
 40
0.512679586978774
 40
0.5985392873133958
 40
0.7099038249248848
 40
0.791189080749694
 40
0.9379713068541525
 40
1.057449928672851
 40
1.138714535892853
 40
1.218398644003186
 40
1.360938021870292
 40
1.461730374800124
 40
1.516014844107697
 40
1.593124329220242
 40
1.648806818593589
 40
1.729472362005575
 40
1.775122082163962
 40
1.874460993764922
 40
1.919820003750825
 40
1.919820003750825
 40
1.919820003750825
 40
1.919820003750825
 10
586.4661578013708
 20
169.6512722547771
 30
0.0
 10
586.3937229933083
 20
169.6875222684936
 30
0.0
 10
586.2727986900297
 20
169.7480388594773
 30
0.0
 10
586.0994279965495
 20
169.7441704312501
 30
0.0
 10
585.9792177747047
 20
169.7531337082458
 30
0.0
 10
585.8765716494148
 20
169.7302332728919
 30
0.0
 10
585.7906610533909
 20
169.694965191406
 30
0.0
 10
585.6848974806362
 20
169.6549075191983
 30
0.0
 10
585.5833693853703
 20
169.5957742956144
 30
0.0
 10
585.5014350422341
 20
169.5132975354838
 30
0.0
 10
585.4338478191541
 20
169.4488823684744
 30
0.0
 10
585.367028633988
 20
169.372193774792
 30
0.0
 10
585.3174078739114
 20
169.2763137836033
 30
0.0
 10
585.2734876767474
 20
169.1860153788682
 30
0.0
 10
585.2652415975499
 20
169.1082153708856
 30
0.0
 10
585.2711121172658
 20
169.0460483645223
 30
0.0
 10
585.2814334926156
 20
168.9753522393211
 30
0.0
 10
585.3048349593975
 20
168.9189662401251
 30
0.0
 10
585.3059124283237
 20
168.8406729368262
 30
0.0
 10
585.362379515478
 20
168.7981602402091
 30
0.0
 10
585.3924583647013
 20
168.761067547145
 30
0.0
 10
585.4018872964186
 20
168.7494399590176
 30
0.0
 11
586.4661578013708
 21
169.6512722547771
 31
0.0
 11
586.2439876904868
 21
169.7372314807106
 31
0.0
 11
586.0848078240568
 21
169.7468388712624
 31
0.0
 11
585.9698186339456
 21
169.7473918462397
 31
0.0
 11
585.8857156719529
 21
169.7301123808086
 31
0.0
 11
585.7811815019781
 21
169.6917109805071
 31
0.0
 11
585.7058694846889
 21
169.6611267874274
 31
0.0
 11
585.5799539831274
 21
169.5856926547904
 31
0.0
 11
585.4920521731884
 21
169.5047703903563
 31
0.0
 11
585.4343221681642
 21
169.4475761344688
 31
0.0
 11
585.3827691478356
 21
169.3868155948042
 31
0.0
 11
585.3114994589019
 21
169.2633728725317
 31
0.0
 11
585.2739653099773
 21
169.169829908747
 31
0.0
 11
585.2675525020234
 21
169.1159255536154
 31
0.0
 11
585.2725444826074
 21
169.0389778257466
 31
0.0
 11
585.2820498505152
 21
168.984112649143
 31
0.0
 11
585.3029596517585
 21
168.9062043048792
 31
0.0
 11
585.3098511758314
 21
168.8610777733651
 31
0.0
 11
585.3723381647617
 21
168.7838534535397
 31
0.0
 11
585.4018872964186
 21
168.7494399590176
 31
0.0
  0
LINE
  5
10001B2B
330
F6
100
AcDbEntity
  8
針
  6
Continuous
100
AcDbLine
 10
592.4709000969137
 20
181.3567243152126
 30
0.0
 11
582.1110195799924
 21
162.412884899562
 31
0.0
  0
LINE
  5
10001B2C
330
F6
100
AcDbEntity
  8
針
  6
Continuous
100
AcDbLine
 10
592.4709000969131
 20
181.3567243152117
 30
0.0
 11
581.244994176208
 21
162.912884899562
 31
0.0
  0
HATCH
  5
10001B2D
330
F6
100
AcDbEntity
  8
ﾊｯﾁﾝｸ
  6
Continuous
100
AcDbHatch
 10
0.0
 20
0.0
 30
0.0
210
0.0
220
0.0
230
1.0
  2
SOLID
 70
     1
 71
     0
 91
        1
 92
        1
 93
        3
 72
     1
 10
592.4709000969137
 20
181.3567243152126
 11
582.1110195799925
 21
162.4128848995621
 72
     2
 10
580.9709000969138
 20
161.4381400281704
 40
1.499999999999999
 50
-679.4712206344874
 51
-640.5287793655085
 73
     1
 72
     1
 10
581.244994176208
 20
162.912884899562
 11
592.470900096913
 21
181.3567243152118
 97
        0
 75
     0
 76
     1
 98
        1
 10
391.0325206503469
 20
287.560058018353
450
        0
451
        0
460
0.0
461
0.0
452
        0
462
0.0
453
        0
470

  0
SPLINE
  5
10001B2E
330
F6
100
AcDbEntity
  8
ROGO
 62
     4
100
AcDbSpline
210
0.0
220
0.0
230
1.0
 70
     8
 71
     3
 72
    26
 73
    22
 74
    20
 42
0.0000000001
 43
0.0000000001
 44
0.0000000001
 40
0.0
 40
0.0
 40
0.0
 40
0.0
 40
0.2382195346593705
 40
0.3976890672663292
 40
0.5126795869790239
 40
0.5985392873138484
 40
0.7099038249256881
 40
0.7911890807496712
 40
0.9379713068547927
 40
1.057449928673606
 40
1.138714535893248
 40
1.218398644003538
 40
1.360938021870579
 40
1.461730374800569
 40
1.516014844108226
 40
1.593124329220729
 40
1.648806818593907
 40
1.729472362005555
 40
1.775122082164388
 40
1.874460993765127
 40
1.919820003751258
 40
1.919820003751258
 40
1.919820003751258
 40
1.919820003751258
 10
590.130371708179
 20
167.5357373693133
 30
0.0
 10
590.0579369001166
 20
167.57198738303
 30
0.0
 10
589.937012596838
 20
167.6325039740139
 30
0.0
 10
589.7636419033575
 20
167.6286355457856
 30
0.0
 10
589.6434316815128
 20
167.6375988227825
 30
0.0
 10
589.5407855562224
 20
167.6146983874276
 30
0.0
 10
589.4548749601994
 20
167.5794303059415
 30
0.0
 10
589.3491113874437
 20
167.5393726337347
 30
0.0
 10
589.2475832921781
 20
167.4802394101504
 30
0.0
 10
589.1656489490417
 20
167.3977626500195
 30
0.0
 10
589.098061725962
 20
167.3333474830106
 30
0.0
 10
589.0312425407958
 20
167.2566588893282
 30
0.0
 10
588.9816217807195
 20
167.1607788981395
 30
0.0
 10
588.9377015835552
 20
167.0704804934042
 30
0.0
 10
588.9294555043575
 20
166.9926804854217
 30
0.0
 10
588.9353260240738
 20
166.9305134790583
 30
0.0
 10
588.9456473994236
 20
166.8598173538574
 30
0.0
 10
588.9690488662049
 20
166.8034313546612
 30
0.0
 10
588.9701263351315
 20
166.7251380513623
 30
0.0
 10
589.0265934222862
 20
166.6826253547454
 30
0.0
 10
589.056672271509
 20
166.645532661681
 30
0.0
 10
589.0661012032263
 20
166.6339050735535
 30
0.0
 11
590.130371708179
 21
167.5357373693133
 31
0.0
 11
589.908201597295
 21
167.6216965952469
 31
0.0
 11
589.749021730865
 21
167.6313039857983
 31
0.0
 11
589.6340325407536
 21
167.6318569607761
 31
0.0
 11
589.5499295787607
 21
167.6145774953445
 31
0.0
 11
589.4453954087857
 21
167.5761760950426
 31
0.0
 11
589.3700833914971
 21
167.5455919019637
 31
0.0
 11
589.244167889935
 21
167.4701577693264
 31
0.0
 11
589.156266079996
 21
167.3892355048921
 31
0.0
 11
589.098536074972
 21
167.3320412490049
 31
0.0
 11
589.0469830546432
 21
167.2712807093404
 31
0.0
 11
588.9757133657099
 21
167.1478379870679
 31
0.0
 11
588.9381792167852
 21
167.054295023283
 31
0.0
 11
588.931766408831
 21
167.0003906681514
 31
0.0
 11
588.9367583894153
 21
166.9234429402826
 31
0.0
 11
588.9462637573232
 21
166.8685777636791
 31
0.0
 11
588.967173558566
 21
166.7906694194156
 31
0.0
 11
588.9740650826393
 21
166.7455428879011
 31
0.0
 11
589.0365520715695
 21
166.668318568076
 31
0.0
 11
589.0661012032263
 21
166.6339050735535
 31
0.0
  0
SPLINE
  5
10001B2F
102
{ACAD_REACTORS
330
10001B20
102
}
330
F6
100
AcDbEntity
  8
ROGO
 62
     4
100
AcDbSpline
210
0.0
220
0.0
230
1.0
 70
     8
 71
     3
 72
    25
 73
    21
 74
     0
 42
0.0000000001
 43
0.0000000001
 40
0.0
 40
0.0
 40
0.0
 40
0.0
 40
0.4087168505087288
 40
0.6887487002771746
 40
0.9415836120477687
 40
1.17452070575514
 40
1.41154617586699
 40
1.599156012919487
 40
1.80099909059943
 40
2.178735911501585
 40
2.521686161369157
 40
2.762704659361267
 40
3.06256558063785
 40
3.222432137207705
 40
3.399493810628493
 40
3.567459719866414
 40
3.743172740007509
 40
3.995988754699505
 40
4.17170091132118
 40
4.337226830236035
 40
4.337226830236035
 40
4.337226830236035
 40
4.337226830236035
 10
588.8891910176065
 20
168.2586579230554
 30
0.0
 10
588.9310261369221
 20
168.2326783744001
 30
0.0
 10
589.0015245370221
 20
168.1888989697887
 30
0.0
 10
589.0438424588991
 20
168.0840964433072
 30
0.0
 10
589.073998907888
 20
168.0000525036129
 30
0.0
 10
589.081002630693
 20
167.9154525976325
 30
0.0
 10
589.0856445035764
 20
167.8387053800243
 30
0.0
 10
589.0759754891028
 20
167.7660898341584
 30
0.0
 10
589.0682512232423
 20
167.6767190578872
 30
0.0
 10
589.0275159009114
 20
167.5747064946539
 30
0.0
 10
588.9621306045074
 20
167.4827087258868
 30
0.0
 10
588.8883150301466
 20
167.4103165116989
 30
0.0
 10
588.8249194141906
 20
167.3586852812862
 30
0.0
 10
588.7619697239198
 20
167.3182172572513
 30
0.0
 10
588.7050402884892
 20
167.3013496772471
 30
0.0
 10
588.6531027955462
 20
167.2680972117301
 30
0.0
 10
588.5835390565374
 20
167.2565340828368
 30
0.0
 10
588.5176680113369
 20
167.2307424054148
 30
0.0
 10
588.4505588934762
 20
167.214708476909
 30
0.0
 10
588.4114609530801
 20
167.2034834562791
 30
0.0
 10
588.3924101614744
 20
167.2002718320812
 30
0.0
  0
LINE
  5
10001B30
102
{ACAD_REACTORS
330
10001AA3
102
}
330
F6
100
AcDbEntity
  8
ROGO
 62
     4
100
AcDbLine
 10
591.5074070678921
 20
166.7407056336992
 30
0.0
 11
589.5954084785622
 21
165.4752929963189
 31
0.0
  0
TEXT
  5
10001B31
330
F6
100
AcDbEntity
  8
文字
100
AcDbText
 10
571.7515873791845
 20
177.682589504172
 30
0.0
 40
2.0
  1
.7
 50
330.0000000000022
  7
STYLE3
100
AcDbText
  0
HATCH
  5
10001B32
330
F6
100
AcDbEntity
  8
ROGO
 62
     4
100
AcDbHatch
 10
0.0
 20
0.0
 30
0.0
210
0.0
220
0.0
230
1.0
  2
SOLID
 70
     1
 71
     0
 91
        1
 92
        7
 72
     0
 73
     1
 93
        4
 10
579.2312513777158
 20
171.6965293863495
 10
579.047831714046
 20
171.5649392806106
 10
589.5954084785622
 20
165.4752929963188
 10
589.7870577841591
 20
165.6021317160758
 97
        0
 75
     0
 76
     1
 47
0.0514683685270805
 98
        1
 10
585.8691883950442
 20
167.8013030360277
450
        0
451
        0
460
0.0
461
0.0
452
        0
462
0.0
453
        0
470

  0
LINE
  5
10001B33
330
F6
100
AcDbEntity
  8
ROGO
 62
     4
100
AcDbLine
 10
579.2188988703403
 20
171.7036611098079
 30
0.0
 11
589.787057784159
 21
165.6021317160758
 31
0.0
  0
LINE
  5
10001B34
102
{ACAD_REACTORS
330
10001AA3
330
10001B1E
102
}
330
F6
100
AcDbEntity
  8
ROGO
 62
     4
100
AcDbLine
 10
578.2218158560511
 20
172.0418397585788
 30
0.0
 11
590.2501962069591
 21
165.0972511250668
 31
0.0
  0
TEXT
  5
10001B35
330
F6
100
AcDbEntity
  8
文字
100
AcDbText
 10
585.6749603230777
 20
158.2823631857909
 30
0.0
 40
1.0
  1
0.01mm
 50
330.0000000000022
  7
STYLE3
100
AcDbText
  0
LINE
  5
10001B36
330
F6
100
AcDbEntity
  8
目盛
100
AcDbLine
 10
572.9115370408009
 20
158.9006997417083
 30
0.0
 11
572.9638012724345
 21
158.4034387940242
 31
0.0
  0
LINE
  5
10001B37
102
{ACAD_REACTORS
330
10001B1E
102
}
330
F6
100
AcDbEntity
  8
ROGO
 62
     4
100
AcDbLine
 10
579.706645246396
 20
172.0375894896978
 30
0.0
 11
579.047831714046
 21
171.5649392806104
 31
0.0
  0
LINE
  5
10001B38
102
{ACAD_REACTORS
330
10001B1E
102
}
330
F6
100
AcDbEntity
  8
ROGO
 62
     4
100
AcDbLine
 10
580.4248662542353
 20
172.5528601890032
 30
0.0
 11
580.1134253064052
 21
172.3294242365191
 31
0.0
  0
LINE
  5
10001B39
102
{ACAD_REACTORS
330
10001B1E
102
}
330
F6
100
AcDbEntity
  8
ROGO
 62
     4
100
AcDbLine
 10
580.77646130906
 20
172.3498666894546
 30
0.0
 11
580.4248662542353
 21
172.5528601890032
 31
0.0
  0
LINE
  5
10001B3A
102
{ACAD_REACTORS
330
10001B1E
102
}
330
F6
100
AcDbEntity
  8
ROGO
 62
     4
100
AcDbLine
 10
580.5400781332374
 20
172.0830961120967
 30
0.0
 11
580.1134253064052
 21
172.3294242365191
 31
0.0
  0
SPLINE
  5
10001B3B
102
{ACAD_REACTORS
330
10001B1E
102
}
330
F6
100
AcDbEntity
  8
ROGO
 62
     4
100
AcDbSpline
210
0.0
220
0.0
230
1.0
 70
     8
 71
     3
 72
    15
 73
    11
 74
     9
 42
0.0000000001
 43
0.0000000001
 44
0.0000000001
 40
0.0
 40
0.0
 40
0.0
 40
0.0
 40
0.1539705029172087
 40
0.2241725832586827
 40
0.3038566179395135
 40
0.3581410872475426
 40
0.4439925384671707
 40
0.4954152125470298
 40
0.5836396705646555
 40
0.6130478420064952
 40
0.6130478420064952
 40
0.6130478420064952
 40
0.6130478420064952
 10
580.77646130906
 20
172.3498666894546
 30
0.0
 10
580.8266745586008
 20
172.3211819187546
 30
0.0
 10
580.8997822880042
 20
172.2794184703916
 30
0.0
 10
580.8875801006616
 20
172.1662021492198
 30
0.0
 10
580.8361794085734
 20
172.1184488634468
 30
0.0
 10
580.7792891609083
 20
172.0717985108835
 30
0.0
 10
580.7161932339368
 20
172.0542082627032
 30
0.0
 10
580.6403738476887
 20
172.045953492713
 30
0.0
 10
580.5872848695746
 20
172.0703060714089
 30
0.0
 10
580.5495194841202
 20
172.0805381029798
 30
0.0
 10
580.5400781332374
 20
172.0830961120971
 30
0.0
 11
580.77646130906
 21
172.3498666894546
 31
0.0
 11
580.8883658353989
 21
172.2441108728136
 31
0.0
 11
580.8810034913891
 21
172.1742959175751
 31
0.0
 11
580.8294508262637
 21
172.1135351728341
 31
0.0
 11
580.7859746893219
 21
172.0810293406701
 31
0.0
 11
580.704485332134
 21
172.0540116364446
 31
0.0
 11
580.6531680188905
 21
172.0507215344707
 31
0.0
 11
580.5683506336939
 21
172.075002517995
 31
0.0
 11
580.5400781332374
 21
172.0830961120971
 31
0.0
  0
LINE
  5
10001B3C
102
{ACAD_REACTORS
330
10001B1E
102
}
330
F6
100
AcDbEntity
  8
ROGO
 62
     4
100
AcDbLine
 10
580.4788006571254
 20
171.5917853554571
 30
0.0
 11
579.706645246396
 21
172.0375894896978
 31
0.0
  0
CIRCLE
  5
10001B3D
330
F6
100
AcDbEntity
  8
外形線
100
AcDbCircle
 10
580.9709000969137
 20
161.4381400281707
 30
0.0
 40
1.5
  0
LINE
  5
10001B3E
330
F6
100
AcDbEntity
  8
目盛
100
AcDbLine
 10
575.7830472413221
 20
158.2903414066852
 30
0.0
 11
575.5330472413221
 21
157.8573287047929
 31
0.0
  0
TEXT
  5
10001B3F
330
F6
100
AcDbEntity
  8
文字
100
AcDbText
 10
575.9455545770837
 20
155.4548338565459
 30
0.0
 40
0.7
  1
8
 50
330.0000000000022
  7
STYLE3
100
AcDbText
  0
TEXT
  5
10001B40
330
F6
100
AcDbEntity
  8
文字
100
AcDbText
 10
574.6712588862289
 20
156.9939305358511
 30
0.0
 40
0.7
  1
0
 50
330.0000000000022
  7
STYLE3
100
AcDbText
  0
LINE
  5
10001B41
330
F6
100
AcDbEntity
  8
目盛
100
AcDbLine
 10
577.7473881651246
 20
156.1087197933191
 30
0.0
 11
577.2906154363035
 21
155.9053514717812
 31
0.0
  0
POINT
  5
10001B42
330
F6
100
AcDbEntity
  8
DEFPOINTS
  6
ByBlock
 62
     0
100
AcDbPoint
 10
580.9709000969138
 20
161.4381400281704
 30
0.0
 50
360.0
  0
POINT
  5
10001B43
330
F6
100
AcDbEntity
  8
DEFPOINTS
  6
ByBlock
 62
     0
100
AcDbPoint
 10
580.9709000969138
 20
161.4381400281704
 30
0.0
 50
360.0
  0
TEXT
  5
10001B44
330
F6
100
AcDbEntity
  8
文字
100
AcDbText
 10
572.7429835362029
 20
157.2341488896534
 30
0.0
 40
0.7
  1
2
 50
330.0000000000022
  7
STYLE3
100
AcDbText
  0
SPLINE
  5
10001B45
330
F6
100
AcDbEntity
  8
ROGO
 62
     4
100
AcDbSpline
210
0.0
220
0.0
230
1.0
 70
     8
 71
     3
 72
    16
 73
    12
 74
    10
 42
0.0000000001
 43
0.0000000001
 44
0.0000000001
 40
0.0
 40
0.0
 40
0.0
 40
0.0
 40
0.1255907025626637
 40
0.1869327038469534
 40
0.2171823804788894
 40
0.2490606136882405
 40
0.2947101524736319
 40
0.3362763310928212
 40
0.3796288870079794
 40
0.4523125795605976
 40
0.5242542460840895
 40
0.5242542460840895
 40
0.5242542460840895
 40
0.5242542460840895
 10
586.4380736196939
 20
169.1033287887946
 30
0.0
 10
586.3979988998009
 20
169.1189787530836
 30
0.0
 10
586.3383505692106
 20
169.1422725963375
 30
0.0
 10
586.2661167407595
 20
169.1316514382167
 30
0.0
 10
586.2246794276786
 20
169.1244451648804
 30
0.0
 10
586.1973171383641
 20
169.0990176780783
 30
0.0
 10
586.1580659687671
 20
169.0900247938012
 30
0.0
 10
586.1181725729694
 20
169.0695537051478
 30
0.0
 10
586.0872711884426
 20
169.0276417952465
 30
0.0
 10
586.0546517533832
 20
168.962620640715
 30
0.0
 10
586.0912566996777
 20
168.9241888383669
 30
0.0
 10
586.1094652687435
 20
168.9050715277784
 30
0.0
 11
586.4380736196939
 21
169.1033287887946
 31
0.0
 11
586.3167099010041
 21
169.1356378023355
 31
0.0
 11
586.2556518679708
 21
169.1297422341978
 31
0.0
 11
586.2264297152852
 21
169.1219250269756
 31
0.0
 11
586.1998210512315
 21
169.104369379741
 31
0.0
 11
586.1572946826921
 21
169.0877745501193
 31
0.0
 11
586.1209455378785
 21
169.0676130304265
 31
0.0
 11
586.0933873377688
 21
169.0341467830855
 31
0.0
 11
586.0701070569267
 21
168.9652922430246
 31
0.0
 11
586.1094652687435
 21
168.9050715277784
 31
0.0
  0
LINE
  5
10001B46
330
F6
100
AcDbEntity
  8
ROGO
 62
     4
100
AcDbLine
 10
586.1094652687433
 20
168.9050715277784
 30
0.0
 11
586.8366503638942
 21
168.4852310173426
 31
0.0
  0
LINE
  5
10001B47
330
F6
100
AcDbEntity
  8
ROGO
 62
     4
100
AcDbLine
 10
585.4018872964184
 20
168.7494399590175
 30
0.0
 11
586.3813871558295
 21
168.1839254515151
 31
0.0
  0
LINE
  5
10001B48
102
{ACAD_REACTORS
330
10001B1D
102
}
330
F6
100
AcDbEntity
  8
ROGO
 62
     4
100
AcDbLine
 10
583.7664636959757
 20
169.9823442891285
 30
0.0
 11
584.4851582502791
 21
169.567405794736
 31
0.0
  0
LINE
  5
10001B49
102
{ACAD_REACTORS
330
10001B1D
102
}
330
F6
100
AcDbEntity
  8
ROGO
 62
     4
100
AcDbLine
 10
584.5672495979978
 20
170.3422971624988
 30
0.0
 11
584.0629941537022
 21
170.115634585612
 31
0.0
  0
LINE
  5
10001B4A
102
{ACAD_REACTORS
330
10001B1D
102
}
330
F6
100
AcDbEntity
  8
ROGO
 62
     4
100
AcDbLine
 10
584.0629941537023
 20
170.115634585612
 30
0.0
 11
584.5155566187481
 21
169.8543475245928
 31
0.0
  0
LINE
  5
10001B4B
102
{ACAD_REACTORS
330
10001B1D
102
}
330
F6
100
AcDbEntity
  8
ROGO
 62
     4
100
AcDbLine
 10
584.5672495979978
 20
170.3422971624988
 30
0.0
 11
584.5155566187481
 21
169.8543475245926
 31
0.0
  0
LINE
  5
10001B4C
102
{ACAD_REACTORS
330
10001B1C
102
}
330
F6
100
AcDbEntity
  8
ROGO
 62
     4
100
AcDbLine
 10
583.3889125898934
 20
170.8090099233039
 30
0.0
 11
583.1649902389211
 21
170.6598177857173
 31
0.0
  0
LINE
  5
10001B4D
102
{ACAD_REACTORS
330
10001B1C
102
}
330
F6
100
AcDbEntity
  8
ROGO
 62
     4
100
AcDbLine
 10
582.7988829512526
 20
171.4212377634894
 30
0.0
 11
582.5805086867238
 21
171.275742134413
 31
0.0
  0
LINE
  5
10001B4E
102
{ACAD_REACTORS
330
10001B1C
102
}
330
F6
100
AcDbEntity
  8
ROGO
 62
     4
100
AcDbLine
 10
582.7988829512526
 20
171.4212377634894
 30
0.0
 11
583.6072868544221
 21
170.9545055523803
 31
0.0
  0
LINE
  5
10001B4F
102
{ACAD_REACTORS
330
10001B1C
102
}
330
F6
100
AcDbEntity
  8
ROGO
 62
     4
100
AcDbLine
 10
582.5805086867238
 20
171.275742134413
 30
0.0
 11
583.3889125898934
 21
170.8090099233039
 31
0.0
  0
LINE
  5
10001B50
102
{ACAD_REACTORS
330
10001B1C
102
}
330
F6
100
AcDbEntity
  8
ROGO
 62
     4
100
AcDbLine
 10
581.1291922927186
 20
171.2162815695684
 30
0.0
 11
582.6673254185392
 21
170.3282399953266
 31
0.0
  0
LINE
  5
10001B51
102
{ACAD_REACTORS
330
10001B1C
102
}
330
F6
100
AcDbEntity
  8
ROGO
 62
     4
100
AcDbLine
 10
582.1382028263059
 20
170.9810482081642
 30
0.0
 11
582.9466067294758
 21
170.5143159970553
 31
0.0
  0
LINE
  5
10001B52
102
{ACAD_REACTORS
330
10001B1C
102
}
330
F6
100
AcDbEntity
  8
ROGO
 62
     4
100
AcDbLine
 10
582.3565863357513
 20
171.1265499968262
 30
0.0
 11
583.1649902389211
 21
170.6598177857173
 31
0.0
  0
LINE
  5
10001B53
102
{ACAD_REACTORS
330
10001B1C
102
}
330
F6
100
AcDbEntity
  8
ROGO
 62
     4
100
AcDbLine
 10
582.9466067294758
 20
170.5143159970553
 30
0.0
 11
582.6673254185392
 21
170.3282399953266
 31
0.0
  0
LINE
  5
10001B54
102
{ACAD_REACTORS
330
10001B1C
102
}
330
F6
100
AcDbEntity
  8
ROGO
 62
     4
100
AcDbLine
 10
582.3565863357513
 20
171.1265499968262
 30
0.0
 11
582.1382028263058
 21
170.9810482081642
 31
0.0
  0
LINE
  5
10001B55
102
{ACAD_REACTORS
330
10001B1D
102
}
330
F6
100
AcDbEntity
  8
ROGO
 62
     4
100
AcDbLine
 10
583.7664636959757
 20
169.9823442891285
 30
0.0
 11
583.4853202619259
 21
169.8559704523014
 31
0.0
  0
LINE
  5
10001B56
102
{ACAD_REACTORS
330
10001B1D
102
}
330
F6
100
AcDbEntity
  8
ROGO
 62
     4
100
AcDbLine
 10
582.8555056671286
 20
170.219594078147
 30
0.0
 11
583.4853202619259
 21
169.8559704523014
 31
0.0
  0
LINE
  5
10001B57
102
{ACAD_REACTORS
330
10001B1D
102
}
330
F6
100
AcDbEntity
  8
ROGO
 62
     4
100
AcDbLine
 10
584.4851582502791
 20
169.567405794736
 30
0.0
 11
584.4563372591188
 21
169.2953535275842
 31
0.0
  0
LINE
  5
10001B58
102
{ACAD_REACTORS
330
10001B1D
102
}
330
F6
100
AcDbEntity
  8
ROGO
 62
     4
100
AcDbLine
 10
585.090447747329
 20
168.9292496665204
 30
0.0
 11
584.4563372591188
 21
169.2953535275842
 31
0.0
  0
SPLINE
  5
10001B59
330
F6
100
AcDbEntity
  8
ROGO
 62
     4
100
AcDbSpline
210
0.0
220
0.0
230
1.0
 70
     8
 71
     3
 72
    16
 73
    12
 74
    10
 42
0.0000000001
 43
0.0000000001
 44
0.0000000001
 40
0.0
 40
0.0
 40
0.0
 40
0.0
 40
0.1255907025627882
 40
0.1869327038468679
 40
0.217182380479097
 40
0.249060613688228
 40
0.294710152473684
 40
0.3362763310930004
 40
0.379628887008205
 40
0.4523125795607692
 40
0.5242542460840416
 40
0.5242542460840416
 40
0.5242542460840416
 40
0.5242542460840416
 10
590.1022875265018
 20
166.987793903331
 30
0.0
 10
590.0622128066089
 20
167.00344386762
 30
0.0
 10
590.0025644760189
 20
167.0267377108739
 30
0.0
 10
589.9303306475672
 20
167.0161165527529
 30
0.0
 10
589.8888933344868
 20
167.0089102794164
 30
0.0
 10
589.8615310451719
 20
166.9834827926144
 30
0.0
 10
589.822279875575
 20
166.9744899083376
 30
0.0
 10
589.782386479777
 20
166.9540188196841
 30
0.0
 10
589.7514850952509
 20
166.9121069097822
 30
0.0
 10
589.7188656601913
 20
166.847085755251
 30
0.0
 10
589.7554706064856
 20
166.8086539529029
 30
0.0
 10
589.7736791755513
 20
166.7895366423145
 30
0.0
 11
590.1022875265018
 21
166.987793903331
 31
0.0
 11
589.980923807812
 21
167.0201029168719
 31
0.0
 11
589.9198657747789
 21
167.014207348734
 31
0.0
 11
589.890643622093
 21
167.0063901415116
 31
0.0
 11
589.8640349580395
 21
166.9888344942772
 31
0.0
 11
589.8215085894999
 21
166.9722396646556
 31
0.0
 11
589.7851594446863
 21
166.9520781449628
 31
0.0
 11
589.7576012445768
 21
166.9186118976214
 31
0.0
 11
589.7343209637348
 21
166.8497573575606
 31
0.0
 11
589.7736791755513
 21
166.7895366423145
 31
0.0
  0
LINE
  5
10001B5A
330
F6
100
AcDbEntity
  8
ROGO
 62
     4
100
AcDbLine
 10
590.5008642707023
 20
166.3696961318785
 30
0.0
 11
590.0456010626373
 21
166.0683905660512
 31
0.0
  0
LINE
  5
10001B5B
330
F6
100
AcDbEntity
  8
ROGO
 62
     4
100
AcDbLine
 10
589.7736791755514
 20
166.7895366423147
 30
0.0
 11
590.5008642707023
 21
166.3696961318785
 31
0.0
  0
LINE
  5
10001B5C
330
F6
100
AcDbEntity
  8
ROGO
 62
     4
100
AcDbLine
 10
590.1022875265018
 20
166.9877939033308
 30
0.0
 11
590.8139585581135
 21
166.5769104416554
 31
0.0
  0
LINE
  5
10001B5D
102
{ACAD_REACTORS
330
10001AA3
102
}
330
F6
100
AcDbEntity
  8
ROGO
 62
     4
100
AcDbLine
 10
590.749249456499
 20
165.427538130621
 30
0.0
 11
590.2501962069591
 21
165.0972511250668
 31
0.0
  0
LINE
  5
10001B5E
102
{ACAD_REACTORS
330
10001AA3
102
}
330
F6
100
AcDbEntity
  8
ROGO
 62
     4
100
AcDbLine
 10
590.749249456499
 20
165.427538130621
 30
0.0
 11
590.7127391439193
 21
164.8302018359012
 31
0.0
  0
LINE
  5
10001B5F
102
{ACAD_REACTORS
330
10001B20
102
}
330
F6
100
AcDbEntity
  8
ROGO
 62
     4
100
AcDbLine
 10
587.2471681945325
 20
167.6840665357607
 30
0.0
 11
587.8970802697782
 21
167.3088396241678
 31
0.0
  0
SPLINE
  5
10001B60
102
{ACAD_REACTORS
330
10001B20
102
}
330
F6
100
AcDbEntity
  8
ROGO
 62
     4
100
AcDbSpline
210
0.0
220
0.0
230
1.0
 70
     8
 71
     3
 72
    11
 73
     7
 74
     0
 42
0.0000000001
 43
0.0000000001
 40
0.1647869275458134
 40
0.1647869275458134
 40
0.1647869275458134
 40
0.1647869275458134
 40
0.2895635144633836
 40
0.5387013147903714
 40
0.7953622617455423
 40
0.8850764140209602
 40
0.8850764140209602
 40
0.8850764140209602
 40
0.8850764140209602
 10
588.1282399637854
 20
167.2091850416141
 30
0.0
 10
588.1141887242537
 20
167.2128046664378
 30
0.0
 10
588.0731905124341
 20
167.2284757034152
 30
0.0
 10
588.0054753360818
 20
167.2565871118061
 30
0.0
 10
587.9406727100205
 20
167.2825387551966
 30
0.0
 10
587.9060482936597
 20
167.3034288965344
 30
0.0
 10
587.8970802697782
 20
167.3088396241678
 30
0.0
  0
SPLINE
  5
10001B61
102
{ACAD_REACTORS
330
10001B20
102
}
330
F6
100
AcDbEntity
  8
ROGO
 62
     4
100
AcDbSpline
210
0.0
220
0.0
230
1.0
 70
     8
 71
     3
 72
     9
 73
     5
 74
     3
 42
0.0000000001
 43
0.0000000001
 44
0.0000000001
 40
0.0
 40
0.0
 40
0.0
 40
0.0
 40
0.1135793343547826
 40
0.2662938392175296
 40
0.2662938392175296
 40
0.2662938392175296
 40
0.2662938392175296
 10
588.1282399637854
 20
167.2091850416141
 30
0.0
 10
588.1654180430667
 20
167.2006094272213
 30
0.0
 10
588.2525843706625
 20
167.1805033639724
 30
0.0
 10
588.3414483448124
 20
167.1930668876886
 30
0.0
 10
588.3924101614744
 20
167.2002718320812
 30
0.0
 11
588.1282399637854
 21
167.2091850416141
 31
0.0
 11
588.240083034612
 21
167.1894013943118
 31
0.0
 11
588.3924101614744
 21
167.2002718320812
 31
0.0
  0
ELLIPSE
  5
10001B62
330
F6
100
AcDbEntity
  8
ROGO
 62
     4
100
AcDbEllipse
 10
588.0497842970973
 20
167.960753692028
 30
0.0
 11
0.2327886332506535
 21
0.0466323220799962
 31
0.0
210
0.0
220
0.0
230
1.0
 40
0.678808341743879
 41
0.0
 42
6.283185307179586
  0
LINE
  5
10001B63
330
F6
100
AcDbEntity
  8
ROGO
 62
     4
100
AcDbLine
 10
586.8366503638942
 20
168.4852310173426
 30
0.0
 11
586.3813871558295
 21
168.1839254515151
 31
0.0
  0
LINE
  5
10001B64
330
F6
100
AcDbEntity
  8
ROGO
 62
     4
100
AcDbLine
 10
586.4380736196939
 20
169.1033287887946
 30
0.0
 11
587.1497446513057
 21
168.6924453271191
 31
0.0
  0
LINE
  5
10001B65
330
F6
100
AcDbEntity
  8
ROGO
 62
     4
100
AcDbLine
 10
589.0661012032262
 20
166.6339050735534
 30
0.0
 11
590.0456010626375
 21
166.0683905660511
 31
0.0
  0
LINE
  5
10001B66
102
{ACAD_REACTORS
330
10001B1E
102
}
330
F6
100
AcDbEntity
  8
ROGO
 62
     4
100
AcDbLine
 10
580.1269880074304
 20
173.3111936417473
 30
0.0
 11
581.5234525100351
 21
172.5049444852546
 31
0.0
  0
TEXT
  5
10001B67
330
F6
100
AcDbEntity
  8
文字
100
AcDbText
 10
582.658884248929
 20
178.9372501262864
 30
0.0
 40
2.0
  1
.9
 50
330.0000000000022
  7
STYLE3
100
AcDbText
  0
LINE
  5
10001B68
330
F6
100
AcDbEntity
  8
目盛
100
AcDbLine
 10
587.156055971065
 20
183.5908790645165
 30
0.0
 11
586.6182163298342
 21
181.6645539309215
 31
0.0
  0
LINE
  5
10001B69
330
F6
100
AcDbEntity
  8
目盛
100
AcDbLine
 10
579.2864215629783
 20
184.376373004333
 30
0.0
 11
579.4328979572335
 21
182.381744049884
 31
0.0
  0
LINE
  5
10001B6A
330
F6
100
AcDbEntity
  8
目盛
100
AcDbLine
 10
580.73004906224
 20
184.4368789235772
 30
0.0
 11
580.7509926304726
 21
182.4369885848462
 31
0.0
  0
LINE
  5
10001B6B
330
F6
100
AcDbEntity
  8
目盛
100
AcDbLine
 10
580.007760061142
 20
184.4179651204442
 30
0.0
 11
580.0915113686004
 21
182.4197194602465
 31
0.0
  0
LINE
  5
10001B6C
330
F6
100
AcDbEntity
  8
目盛
100
AcDbLine
 10
581.4525757542306
 20
184.4330957480919
 30
0.0
 11
581.4106909144641
 21
182.4335343811422
 31
0.0
  0
LINE
  5
10001B6D
330
F6
100
AcDbEntity
  8
目盛
100
AcDbLine
 10
582.1746270905014
 20
184.4066193275257
 30
0.0
 11
582.0176192217726
 21
181.4107307232618
 31
0.0
  0
TEXT
  5
10001B6E
330
F6
100
AcDbEntity
  8
文字
100
AcDbText
 10
577.121348829226
 20
179.5530434150509
 30
0.0
 40
2.0
  1
.8
 50
330.0000000000022
  7
STYLE3
100
AcDbText
  0
LINE
  5
10001B6F
330
F6
100
AcDbEntity
  8
目盛
100
AcDbLine
 10
576.4247812681938
 20
183.9843770444701
 30
0.0
 11
576.8200959489522
 21
182.0238346952267
 31
0.0
  0
LINE
  5
10001B70
330
F6
100
AcDbEntity
  8
目盛
100
AcDbLine
 10
577.8494419309248
 20
184.2253403590136
 30
0.0
 11
578.1208730757933
 21
182.2438446780708
 31
0.0
  0
LINE
  5
10001B71
330
F6
100
AcDbEntity
  8
目盛
100
AcDbLine
 10
578.5667454417579
 20
184.3121436216408
 30
0.0
 11
578.8803308315608
 21
181.328577935536
 31
0.0
  0
LINE
  5
10001B72
330
F6
100
AcDbEntity
  8
目盛
100
AcDbLine
 10
575.7188300843687
 20
183.8304547942529
 30
0.0
 11
576.1755318245899
 21
181.8832969885068
 31
0.0
  0
LINE
  5
10001B73
330
F6
100
AcDbEntity
  8
目盛
100
AcDbLine
 10
577.1352189224435
 20
184.116048880792
 30
0.0
 11
577.4687564158755
 21
182.1440568066511
 31
0.0
  0
LINE
  5
10001B74
330
F6
100
AcDbEntity
  8
目盛
100
AcDbLine
 10
575.0180620595557
 20
183.6544340328192
 30
0.0
 11
575.7945191948634
 21
180.7566565539518
 31
0.0
  0
LINE
  5
10001B75
330
F6
100
AcDbEntity
  8
目盛
100
AcDbLine
 10
573.634835983058
 20
183.236813458391
 30
0.0
 11
574.2727546016542
 21
181.3412766383718
 31
0.0
  0
LINE
  5
10001B76
330
F6
100
AcDbEntity
  8
目盛
100
AcDbLine
 10
574.3231687671908
 20
183.4564884714081
 30
0.0
 11
574.9012323610797
 21
181.5418494763438
 31
0.0
  0
LINE
  5
10001B77
330
F6
100
AcDbEntity
  8
目盛
100
AcDbLine
 10
572.953743008512
 20
182.9956257864839
 30
0.0
 11
573.6508871031555
 21
181.1210618075002
 31
0.0
  0
LINE
  5
10001B78
330
F6
100
AcDbEntity
  8
目盛
100
AcDbLine
 10
583.6144545582495
 20
184.2857136369795
 30
0.0
 11
583.384580257264
 21
182.2989681057786
 31
0.0
  0
LINE
  5
10001B79
330
F6
100
AcDbEntity
  8
目盛
100
AcDbLine
 10
584.3308097538491
 20
184.1914036863192
 30
0.0
 11
584.0386436967243
 21
182.2128590203934
 31
0.0
  0
LINE
  5
10001B7A
330
F6
100
AcDbEntity
  8
目盛
100
AcDbLine
 10
582.8954904935567
 20
184.3574757909092
 30
0.0
 11
582.7281348068924
 21
182.36449007241
 31
0.0
  0
LINE
  5
10001B7B
330
F6
100
AcDbEntity
  8
目盛
100
AcDbLine
 10
585.0438491242641
 20
184.0746390114631
 30
0.0
 11
584.689679643625
 21
182.1062477955244
 31
0.0
  0
LINE
  5
10001B7C
330
F6
100
AcDbEntity
  8
目盛
100
AcDbLine
 10
585.7528689857221
 20
183.9355348450481
 30
0.0
 11
585.1291339132687
 21
181.0010920428469
 31
0.0
  0
LINE
  5
10001B7D
330
F6
100
AcDbEntity
  8
目盛
100
AcDbLine
 10
586.4571696212212
 20
183.7742284660922
 30
0.0
 11
585.9801027060639
 21
181.8319599062728
 31
0.0
  0
TEXT
  5
10001B7E
330
F6
100
AcDbEntity
  8
文字
100
AcDbText
 10
588.5813702884992
 20
176.5833888762829
 30
0.0
 40
2.0
  1
0
 50
330.0000000000022
  7
STYLE3
100
AcDbText
  0
LINE
  5
10001B7F
330
F6
100
AcDbEntity
  8
ROGO
 62
     4
100
AcDbLine
 10
586.4661578013709
 20
169.6512722547769
 30
0.0
 11
587.6050126805345
 21
168.993754083724
 31
0.0
  0
LINE
  5
10001B80
102
{ACAD_REACTORS
330
10001B1D
102
}
330
F6
100
AcDbEntity
  8
ROGO
 62
     4
100
AcDbLine
 10
584.332147317989
 20
170.8833437818112
 30
0.0
 11
585.2418234182926
 21
170.3581420404254
 31
0.0
  0
LINE
  5
10001B81
102
{ACAD_REACTORS
330
10001B1C
102
}
330
F6
100
AcDbEntity
  8
ROGO
 62
     4
100
AcDbLine
 10
582.3484490884055
 20
172.028632488652
 30
0.0
 11
583.8865822142262
 21
171.1405909144099
 31
0.0
  0
LINE
  5
10001B82
330
F6
100
AcDbEntity
  8
ROGO
 62
     4
100
AcDbLine
 10
590.130371708179
 20
167.5357373693131
 30
0.0
 11
591.2692265873426
 21
166.8782191982601
 31
0.0
  0
TEXT
  5
10001B83
330
F6
100
AcDbEntity
  8
文字
100
AcDbText
 10
592.247255059271
 20
173.5728135887481
 30
0.0
 40
2.0
  1
.1
 50
330.0000000000022
  7
STYLE3
100
AcDbText
  0
LINE
  5
10001B84
102
{ACAD_REACTORS
330
10001B20
102
}
330
F6
100
AcDbEntity
  8
ROGO
 62
     4
100
AcDbLine
 10
588.2392789423606
 20
168.633884834648
 30
0.0
 11
588.8891910176064
 21
168.2586579230552
 31
0.0
  0
LINE
  5
10001B85
330
F6
100
AcDbEntity
  8
目盛
100
AcDbLine
 10
593.0908833933373
 20
180.9856719668683
 30
0.0
 11
592.036971802344
 21
179.2858865808945
 31
0.0
  0
LINE
  5
10001B86
330
F6
100
AcDbEntity
  8
目盛
100
AcDbLine
 10
592.4709000969137
 20
181.3567243152126
 30
0.0
 11
590.9709000969137
 21
178.7586481038592
 31
0.0
  0
LINE
  5
10001B87
330
F6
100
AcDbEntity
  8
目盛
100
AcDbLine
 10
587.8488383188038
 20
183.3856675840449
 30
0.0
 11
587.2507567342916
 21
181.4771869270122
 31
0.0
  0
LINE
  5
10001B88
330
F6
100
AcDbEntity
  8
目盛
100
AcDbLine
 10
589.2133629364557
 20
182.910489837606
 30
0.0
 11
588.1382590878198
 21
180.1097485581143
 31
0.0
  0
LINE
  5
10001B89
330
F6
100
AcDbEntity
  8
目盛
100
AcDbLine
 10
590.545358318903
 20
182.3505705362529
 30
0.0
 11
589.7127967343822
 21
180.5320983181587
 31
0.0
  0
LINE
  5
10001B8A
330
F6
100
AcDbEntity
  8
目盛
100
AcDbLine
 10
591.8395676889019
 20
181.7081194256653
 30
0.0
 11
590.8944661591638
 21
179.9455125215351
 31
0.0
  0
LINE
  5
10001B8B
330
F6
100
AcDbEntity
  8
目盛
100
AcDbLine
 10
589.8837585853121
 20
182.640992514706
 30
0.0
 11
589.1087274124077
 21
180.797266211529
 31
0.0
  0
LINE
  5
10001B8C
330
F6
100
AcDbEntity
  8
目盛
100
AcDbLine
 10
588.5348329719009
 20
183.1587965436326
 30
0.0
 11
587.8770996784239
 21
181.2700438031577
 31
0.0
  0
LINE
  5
10001B8D
330
F6
100
AcDbEntity
  8
目盛
100
AcDbLine
 10
591.197509218167
 20
182.0395105136769
 30
0.0
 11
590.3082388597973
 21
180.2480869931981
 31
0.0
  0
LINE
  5
10001B8E
330
F6
100
AcDbEntity
  8
目盛
100
AcDbLine
 10
596.539047399615
 20
178.368373031924
 30
0.0
 11
595.1852954602497
 21
176.8961788576846
 31
0.0
  0
LINE
  5
10001B8F
330
F6
100
AcDbEntity
  8
目盛
100
AcDbLine
 10
597.5713853431763
 20
177.3574330271895
 30
0.0
 11
596.1278648869794
 21
175.9731466794486
 31
0.0
  0
LINE
  5
10001B90
330
F6
100
AcDbEntity
  8
目盛
100
AcDbLine
 10
597.0631569287211
 20
177.8710116597248
 30
0.0
 11
595.6638302476943
 21
176.4420663004594
 31
0.0
  0
LINE
  5
10001B91
330
F6
100
AcDbEntity
  8
目盛
100
AcDbLine
 10
593.6989057295107
 20
180.5953285645027
 30
0.0
 11
592.592122631024
 21
178.9294860830825
 31
0.0
  0
LINE
  5
10001B92
330
F6
100
AcDbEntity
  8
目盛
100
AcDbLine
 10
594.2943670607954
 20
180.1860793299271
 30
0.0
 11
593.1358047161101
 21
178.5558237384698
 31
0.0
  0
LINE
  5
10001B93
330
F6
100
AcDbEntity
  8
目盛
100
AcDbLine
 10
595.4452690910601
 20
179.3124971416806
 30
0.0
 11
593.5573079179105
 21
176.9810592573097
 31
0.0
  0
LINE
  5
10001B94
330
F6
100
AcDbEntity
  8
目盛
100
AcDbLine
 10
595.9995739886862
 20
178.849026308161
 30
0.0
 11
594.6927327807062
 21
177.3350361968574
 31
0.0
  0
LINE
  5
10001B95
330
F6
100
AcDbEntity
  8
目盛
100
AcDbLine
 10
594.8766797387484
 20
179.7583281427269
 30
0.0
 11
593.6674815090237
 21
178.1652683066785
 31
0.0
  0
LINE
  5
10001B96
330
F6
100
AcDbEntity
  8
目盛
100
AcDbLine
 10
595.2572990433147
 20
143.4131905096763
 30
0.0
 11
594.0150034827582
 21
144.9805774243279
 31
0.0
  0
LINE
  5
10001B97
330
F6
100
AcDbEntity
  8
目盛
100
AcDbLine
 10
592.2616864300618
 20
141.4002223724059
 30
0.0
 11
591.2798789228315
 21
143.1426499946464
 31
0.0
  0
LINE
  5
10001B98
330
F6
100
AcDbEntity
  8
目盛
100
AcDbLine
 10
591.6267089046706
 20
141.0554577058526
 30
0.0
 11
590.700116834431
 21
142.827864864315
 31
0.0
  0
LINE
  5
10001B99
330
F6
100
AcDbEntity
  8
目盛
100
AcDbLine
 10
594.6840722211226
 20
142.9733380987747
 30
0.0
 11
593.4916224711915
 21
144.578973049157
 31
0.0
  0
LINE
  5
10001B9A
330
F6
100
AcDbEntity
  8
目盛
100
AcDbLine
 10
593.4975979022594
 20
142.1487169654256
 30
0.0
 11
591.863680797214
 21
144.6647286692618
 31
0.0
  0
LINE
  5
10001B9B
330
F6
100
AcDbEntity
  8
目盛
100
AcDbLine
 10
594.0973121536557
 20
142.5517082180954
 30
0.0
 11
592.9558850182869
 21
144.1940066363627
 31
0.0
  0
LINE
  5
10001B9C
330
F6
100
AcDbEntity
  8
目盛
100
AcDbLine
 10
592.885521312496
 20
141.7647620444786
 30
0.0
 11
591.8494672937494
 21
143.4754905647998
 31
0.0
  0
LINE
  5
10001B9D
330
F6
100
AcDbEntity
  8
目盛
100
AcDbLine
 10
585.5170189256332
 20
138.8919030118708
 30
0.0
 11
585.1217042448751
 21
140.8524453611144
 31
0.0
  0
LINE
  5
10001B9E
330
F6
100
AcDbEntity
  8
目盛
100
AcDbLine
 10
584.0923582629026
 20
138.6509396973273
 30
0.0
 11
583.8209271180338
 21
140.6324353782701
 31
0.0
  0
LINE
  5
10001B9F
330
F6
100
AcDbEntity
  8
目盛
100
AcDbLine
 10
584.8065812713842
 20
138.7602311755489
 30
0.0
 11
584.4730437779522
 21
140.7322232496897
 31
0.0
  0
LINE
  5
10001BA0
330
F6
100
AcDbEntity
  8
目盛
100
AcDbLine
 10
583.37505475207
 20
138.5641364347003
 30
0.0
 11
583.0614693622667
 21
141.547702120805
 31
0.0
  0
LINE
  5
10001BA1
330
F6
100
AcDbEntity
  8
目盛
100
AcDbLine
 10
582.6553786308489
 20
138.4999070520078
 30
0.0
 11
582.5089022365938
 21
140.4945360064568
 31
0.0
  0
LINE
  5
10001BA2
330
F6
100
AcDbEntity
  8
目盛
100
AcDbLine
 10
581.9340401326854
 20
138.4583149358968
 30
0.0
 11
581.8502888252274
 21
140.4565605960943
 31
0.0
  0
LINE
  5
10001BA3
330
F6
100
AcDbEntity
  8
目盛
100
AcDbLine
 10
579.7671731033259
 20
138.4696607288151
 30
0.0
 11
579.9241809720546
 21
141.465549333079
 31
0.0
  0
LINE
  5
10001BA4
330
F6
100
AcDbEntity
  8
目盛
100
AcDbLine
 10
576.8979510695629
 20
138.8016410448778
 30
0.0
 11
577.2521205502023
 21
140.7700322608164
 31
0.0
  0
LINE
  5
10001BA5
330
F6
100
AcDbEntity
  8
目盛
100
AcDbLine
 10
577.6109904399783
 20
138.6848763700217
 30
0.0
 11
577.9031564971031
 21
140.6634210359477
 31
0.0
  0
LINE
  5
10001BA6
330
F6
100
AcDbEntity
  8
目盛
100
AcDbLine
 10
578.3273456355774
 20
138.5905664193612
 30
0.0
 11
578.5572199365633
 21
140.5773119505619
 31
0.0
  0
LINE
  5
10001BA7
330
F6
100
AcDbEntity
  8
目盛
100
AcDbLine
 10
579.0463097002705
 20
138.5188042654319
 30
0.0
 11
579.2136653869353
 21
140.5117899839307
 31
0.0
  0
LINE
  5
10001BA8
330
F6
100
AcDbEntity
  8
目盛
100
AcDbLine
 10
580.4892244395965
 20
138.443184308249
 30
0.0
 11
580.5311092793633
 21
140.4427456751988
 31
0.0
  0
LINE
  5
10001BA9
330
F6
100
AcDbEntity
  8
目盛
100
AcDbLine
 10
581.2117511315872
 20
138.4394011327636
 30
0.0
 11
581.1908075633547
 21
140.4392914714947
 31
0.0
  0
TEXT
  5
10001BAA
330
F6
100
AcDbEntity
  8
文字
100
AcDbText
 10
586.1592387817382
 20
145.255877460342
 30
0.0
 40
2.0
  1
.7
 50
330.0000000000022
  7
STYLE3
100
AcDbText
  0
TEXT
  5
10001BAB
330
F6
100
AcDbEntity
  8
文字
100
AcDbText
 10
581.3154685935185
 20
143.6108225467452
 30
0.0
 40
2.0
  1
.8
 50
330.0000000000022
  7
STYLE3
100
AcDbText
  0
LINE
  5
10001BAC
330
F6
100
AcDbEntity
  8
目盛
100
AcDbLine
 10
590.9812153824771
 20
140.7308082859199
 30
0.0
 11
590.1107531837324
 21
142.5314458287243
 31
0.0
  0
LINE
  5
10001BAD
330
F6
100
AcDbEntity
  8
目盛
100
AcDbLine
 10
589.6612381937383
 20
140.1431165775404
 30
0.0
 11
588.9055566201014
 21
141.9948577471606
 31
0.0
  0
LINE
  5
10001BAE
330
F6
100
AcDbEntity
  8
目盛
100
AcDbLine
 10
588.306964210769
 20
139.6394665979499
 30
0.0
 11
587.6690455921728
 21
141.5350034179692
 31
0.0
  0
LINE
  5
10001BAF
330
F6
100
AcDbEntity
  8
目盛
100
AcDbLine
 10
586.9237381342714
 20
139.2218460235218
 30
0.0
 11
586.1472809989639
 21
142.119623502389
 31
0.0
  0
LINE
  5
10001BB0
330
F6
100
AcDbEntity
  8
目盛
100
AcDbLine
 10
586.2229701094589
 20
139.0458252620877
 30
0.0
 11
585.7662683692377
 21
140.9929830678342
 31
0.0
  0
LINE
  5
10001BB1
330
F6
100
AcDbEntity
  8
目盛
100
AcDbLine
 10
587.6186314266367
 20
139.419791584933
 30
0.0
 11
587.0405678327478
 21
141.3344305799969
 31
0.0
  0
LINE
  5
10001BB2
330
F6
100
AcDbEntity
  8
目盛
100
AcDbLine
 10
588.9880571853155
 20
139.8806542698569
 30
0.0
 11
588.2909130906721
 21
141.7552182488407
 31
0.0
  0
LINE
  5
10001BB3
330
F6
100
AcDbEntity
  8
目盛
100
AcDbLine
 10
590.3258428876572
 20
140.4265945023906
 30
0.0
 11
589.1056329584301
 21
143.1672308753184
 31
0.0
  0
LINE
  5
10001BB4
330
F6
100
AcDbEntity
  8
目盛
100
AcDbLine
 10
603.9393793962688
 20
160.2344130345823
 30
0.0
 11
600.943490792005
 21
160.3914209033113
 31
0.0
  0
LINE
  5
10001BB5
330
F6
100
AcDbEntity
  8
目盛
100
AcDbLine
 10
603.8902358596523
 20
159.5135496315273
 30
0.0
 11
601.8972501411536
 21
159.680905318192
 31
0.0
  0
TEXT
  5
10001BB6
330
F6
100
AcDbEntity
  8
文字
100
AcDbText
 10
596.9173136400478
 20
163.0480098172877
 30
0.0
 40
2.0
  1
.3
 50
330.0000000000022
  7
STYLE3
100
AcDbText
  0
LINE
  5
10001BB7
102
{ACAD_REACTORS
330
10001AA3
102
}
330
F6
100
AcDbEntity
  8
ROGO
 62
     4
100
AcDbLine
 10
591.9534434583474
 20
166.2245064528255
 30
0.0
 11
592.3720394859762
 21
166.2415098743682
 31
0.0
  0
LINE
  5
10001BB8
102
{ACAD_REACTORS
330
10001AA3
102
}
330
F6
100
AcDbEntity
  8
ROGO
 62
     4
100
AcDbLine
 10
592.1621947962893
 20
166.3626637624471
 30
0.0
 11
591.9534434583474
 21
166.2245064528255
 31
0.0
  0
LINE
  5
10001BB9
330
F6
100
AcDbEntity
  8
目盛
100
AcDbLine
 10
603.4682949137913
 20
156.6561711393622
 30
0.0
 11
600.53385211159
 21
157.2799062118152
 31
0.0
  0
LINE
  5
10001BBA
330
F6
100
AcDbEntity
  8
目盛
100
AcDbLine
 10
603.8184737057227
 20
158.7945855668343
 30
0.0
 11
601.8317281745217
 21
159.0244598678201
 31
0.0
  0
LINE
  5
10001BBB
330
F6
100
AcDbEntity
  8
目盛
100
AcDbLine
 10
596.3609040431675
 20
144.3458090421905
 30
0.0
 11
594.3535122240907
 21
146.5752435186227
 31
0.0
  0
TEXT
  5
10001BBC
330
F6
100
AcDbEntity
  8
文字
100
AcDbText
 10
594.4243186241423
 20
152.4030088093921
 30
0.0
 40
2.0
  1
.5
 50
330.0000000000022
  7
STYLE3
100
AcDbText
  0
TEXT
  5
10001BBD
330
F6
100
AcDbEntity
  8
文字
100
AcDbText
 10
590.9181156566557
 20
148.4043970242267
 30
0.0
 40
2.0
  1
.6
 50
330.0000000000022
  7
STYLE3
100
AcDbText
  0
TEXT
  5
10001BBE
330
F6
100
AcDbEntity
  8
文字
100
AcDbText
 10
596.7465093928592
 20
157.5362741775643
 30
0.0
 40
2.0
  1
.4
 50
330.0000000000022
  7
STYLE3
100
AcDbText
  0
LINE
  5
10001BBF
330
F6
100
AcDbEntity
  8
目盛
100
AcDbLine
 10
600.5184320356114
 20
149.3181567317467
 30
0.0
 11
598.8186466496378
 21
150.3720683227401
 31
0.0
  0
LINE
  5
10001BC0
330
F6
100
AcDbEntity
  8
目盛
100
AcDbLine
 10
600.1280886332458
 20
148.7101343955737
 30
0.0
 11
598.4622461518259
 21
149.8169174940604
 31
0.0
  0
LINE
  5
10001BC1
330
F6
100
AcDbEntity
  8
目盛
100
AcDbLine
 10
601.2408794944084
 20
150.5694724361821
 30
0.0
 11
599.4782725902783
 21
151.5145739659201
 31
0.0
  0
LINE
  5
10001BC2
330
F6
100
AcDbEntity
  8
目盛
100
AcDbLine
 10
598.2914081726026
 20
151.4381400281705
 30
0.0
 11
600.8894843839559
 21
149.9381400281705
 31
0.0
  0
LINE
  5
10001BC3
330
F6
100
AcDbEntity
  8
目盛
100
AcDbLine
 10
599.7188393986705
 20
148.1146730642886
 30
0.0
 11
598.0885838072132
 21
149.2732354089741
 31
0.0
  0
LINE
  5
10001BC4
330
F6
100
AcDbEntity
  8
目盛
100
AcDbLine
 10
599.2910882114703
 20
147.5323603863363
 30
0.0
 11
597.698028375422
 21
148.7415586160607
 31
0.0
  0
LINE
  5
10001BC5
330
F6
100
AcDbEntity
  8
目盛
100
AcDbLine
 10
596.8901930959328
 20
144.8376547819079
 30
0.0
 11
595.5059067481918
 21
146.2811752381048
 31
0.0
  0
LINE
  5
10001BC6
330
F6
100
AcDbEntity
  8
目盛
100
AcDbLine
 10
595.8164269145645
 20
143.8708313695735
 30
0.0
 11
594.5255115391165
 21
145.3984234268429
 31
0.0
  0
LINE
  5
10001BC7
330
F6
100
AcDbEntity
  8
目盛
100
AcDbLine
 10
597.4037717284683
 20
145.345883196363
 30
0.0
 11
595.9748263692026
 21
146.7452098773897
 31
0.0
  0
LINE
  5
10001BC8
330
F6
100
AcDbEntity
  8
目盛
100
AcDbLine
 10
598.8452572104237
 20
146.9637710340242
 30
0.0
 11
596.5138193260528
 21
148.8517322071734
 31
0.0
  0
LINE
  5
10001BC9
330
F6
100
AcDbEntity
  8
目盛
100
AcDbLine
 10
597.9011331006675
 20
145.8699927254692
 30
0.0
 11
596.428938926428
 21
147.2237446648343
 31
0.0
  0
LINE
  5
10001BCA
330
F6
100
AcDbEntity
  8
目盛
100
AcDbLine
 10
598.3817863769043
 20
146.4094661363981
 30
0.0
 11
596.8677962656007
 21
147.7163073443783
 31
0.0
  0
LINE
  5
10001BCB
330
F6
100
AcDbEntity
  8
目盛
100
AcDbLine
 10
602.9184276527879
 20
154.56020180628
 30
0.0
 11
601.0099469957553
 21
155.1582833907923
 31
0.0
  0
LINE
  5
10001BCC
330
F6
100
AcDbEntity
  8
目盛
100
AcDbLine
 10
602.4432499063492
 20
153.1956771886282
 30
0.0
 11
599.6425086268573
 21
154.2707810372642
 31
0.0
  0
LINE
  5
10001BCD
330
F6
100
AcDbEntity
  8
目盛
100
AcDbLine
 10
601.8833306049962
 20
151.8636818061811
 30
0.0
 11
600.0648583869019
 21
152.6962433907019
 31
0.0
  0
LINE
  5
10001BCE
330
F6
100
AcDbEntity
  8
目盛
100
AcDbLine
 10
601.5722705824201
 20
151.2115309069172
 30
0.0
 11
599.7808470619414
 21
152.100801265287
 31
0.0
  0
LINE
  5
10001BCF
330
F6
100
AcDbEntity
  8
目盛
100
AcDbLine
 10
602.6915566123757
 20
153.8742071531831
 30
0.0
 11
600.8028038719008
 21
154.5319404466603
 31
0.0
  0
LINE
  5
10001BD0
330
F6
100
AcDbEntity
  8
目盛
100
AcDbLine
 10
602.1737525834493
 20
152.5252815397721
 30
0.0
 11
600.3300262802722
 21
153.3003127126765
 31
0.0
  0
LINE
  5
10001BD1
330
F6
100
AcDbEntity
  8
目盛
100
AcDbLine
 10
603.3069885348351
 20
155.951870503863
 30
0.0
 11
601.3647199750159
 21
156.4289374190201
 31
0.0
  0
LINE
  5
10001BD2
330
F6
100
AcDbEntity
  8
目盛
100
AcDbLine
 10
603.12363913326
 20
155.2529841540193
 30
0.0
 11
601.1973139996648
 21
155.7908237952499
 31
0.0
  0
LINE
  5
10001BD3
330
F6
100
AcDbEntity
  8
目盛
100
AcDbLine
 10
603.6073990802061
 20
157.3651910008199
 30
0.0
 11
601.6390078642676
 21
157.7193604814589
 31
0.0
  0
LINE
  5
10001BD4
330
F6
100
AcDbEntity
  8
目盛
100
AcDbLine
 10
603.7241637550623
 20
158.0782303712351
 30
0.0
 11
601.7456190891364
 21
158.37039642836
 31
0.0
  0
LINE
  5
10001BD5
330
F6
100
AcDbEntity
  8
目盛
100
AcDbLine
 10
603.9696389923205
 20
161.6789910628438
 30
0.0
 11
601.9697486535894
 21
161.6580474946114
 31
0.0
  0
LINE
  5
10001BD6
330
F6
100
AcDbEntity
  8
目盛
100
AcDbLine
 10
603.9658558168353
 20
160.9564643708533
 30
0.0
 11
601.9662944498856
 21
160.9983492106199
 31
0.0
  0
LINE
  5
10001BD7
330
F6
100
AcDbEntity
  8
目盛
100
AcDbLine
 10
603.9507251891875
 20
162.4012800639419
 30
0.0
 11
601.9524795289895
 21
162.3175287564839
 31
0.0
  0
LINE
  5
10001BD8
330
F6
100
AcDbEntity
  8
目盛
100
AcDbLine
 10
600.2603231596586
 20
173.9648378335159
 30
0.0
 11
597.7443114558223
 21
172.3309207284706
 31
0.0
  0
LINE
  5
10001BD9
330
F6
100
AcDbEntity
  8
目盛
100
AcDbLine
 10
601.008817752678
 20
172.7289263613184
 30
0.0
 11
599.2663901304378
 21
171.7471188540882
 31
0.0
  0
LINE
  5
10001BDA
330
F6
100
AcDbEntity
  8
目盛
100
AcDbLine
 10
601.6782318391643
 20
171.4484553137339
 30
0.0
 11
599.8775942963597
 21
170.5779931149892
 31
0.0
  0
LINE
  5
10001BDB
330
F6
100
AcDbEntity
  8
目盛
100
AcDbLine
 10
600.6442780806055
 20
173.3527612437522
 30
0.0
 11
598.9335495602844
 21
172.3167072250061
 31
0.0
  0
LINE
  5
10001BDC
330
F6
100
AcDbEntity
  8
目盛
100
AcDbLine
 10
601.3535824192318
 20
172.0939488359273
 30
0.0
 11
599.5811752607692
 21
171.1673567656874
 31
0.0
  0
LINE
  5
10001BDD
330
F6
100
AcDbEntity
  8
目盛
100
AcDbLine
 10
601.9824456226936
 20
170.7930828189139
 30
0.0
 11
599.2418092497656
 21
169.5728728896864
 31
0.0
  0
LINE
  5
10001BDE
330
F6
100
AcDbEntity
  8
目盛
100
AcDbLine
 10
602.2659235475436
 20
170.1284781249949
 30
0.0
 11
600.4141823779234
 21
169.3727965513581
 31
0.0
  0
LINE
  5
10001BDF
102
{ACAD_REACTORS
330
10001AA3
102
}
330
F6
100
AcDbEntity
  8
ROGO
 62
     4
100
AcDbLine
 10
592.3720394859762
 20
166.2415098743682
 30
0.0
 11
593.0268128881447
 21
165.8634762743682
 31
0.0
  0
TEXT
  5
10001BE0
330
F6
100
AcDbEntity
  8
文字
100
AcDbText
 10
595.6846803196071
 20
168.4731717517315
 30
0.0
 40
2.0
  1
.2
 50
330.0000000000022
  7
STYLE3
100
AcDbText
  0
LINE
  5
10001BE1
330
F6
100
AcDbEntity
  8
目盛
100
AcDbLine
 10
603.1871941015622
 20
167.3909780655282
 30
0.0
 11
600.289416622695
 21
166.6145209302206
 31
0.0
  0
LINE
  5
10001BE2
330
F6
100
AcDbEntity
  8
目盛
100
AcDbLine
 10
603.5171371132133
 20
165.9842588568902
 30
0.0
 11
601.5565947639697
 21
165.5889441761319
 31
0.0
  0
LINE
  5
10001BE3
330
F6
100
AcDbEntity
  8
目盛
100
AcDbLine
 10
603.7581004277567
 20
164.5595981941594
 30
0.0
 11
601.7766047468138
 21
164.2881670492906
 31
0.0
  0
LINE
  5
10001BE4
330
F6
100
AcDbEntity
  8
目盛
100
AcDbLine
 10
603.6488089495353
 20
165.2738212026409
 30
0.0
 11
601.6768168753941
 21
164.9402837092087
 31
0.0
  0
LINE
  5
10001BE5
330
F6
100
AcDbEntity
  8
目盛
100
AcDbLine
 10
603.8449036903839
 20
163.8422946833266
 30
0.0
 11
600.8613380042791
 21
163.5287092935236
 31
0.0
  0
LINE
  5
10001BE6
330
F6
100
AcDbEntity
  8
目盛
100
AcDbLine
 10
602.7695735271342
 20
168.7742041420258
 30
0.0
 11
600.8740367071149
 21
168.1362855234298
 31
0.0
  0
LINE
  5
10001BE7
330
F6
100
AcDbEntity
  8
目盛
100
AcDbLine
 10
602.9892485401511
 20
168.0858713578933
 30
0.0
 11
601.0746095450871
 21
167.5078077640043
 31
0.0
  0
LINE
  5
10001BE8
330
F6
100
AcDbEntity
  8
目盛
100
AcDbLine
 10
603.3632148629962
 20
166.6902100407157
 30
0.0
 11
601.41605705725
 21
166.2335083004942
 31
0.0
  0
LINE
  5
10001BE9
330
F6
100
AcDbEntity
  8
目盛
100
AcDbLine
 10
602.5283858552272
 20
169.4552971165721
 30
0.0
 11
600.6538218762434
 21
168.7581530219286
 31
0.0
  0
LINE
  5
10001BEA
330
F6
100
AcDbEntity
  8
目盛
100
AcDbLine
 10
603.9091330730762
 20
163.1226185621057
 30
0.0
 11
601.9145041186272
 21
162.9761421678505
 31
0.0
  0
LINE
  5
10001BEB
330
F6
100
AcDbEntity
  8
目盛
100
AcDbLine
 10
599.857331906989
 20
174.5645520849123
 30
0.0
 11
598.2150334887215
 21
173.4231249495433
 31
0.0
  0
LINE
  5
10001BEC
330
F6
100
AcDbEntity
  8
目盛
100
AcDbLine
 10
598.5382087555105
 20
176.2836668458211
 30
0.0
 11
597.0106166982413
 21
174.9927514703732
 31
0.0
  0
LINE
  5
10001BED
330
F6
100
AcDbEntity
  8
目盛
100
AcDbLine
 10
598.995849615408
 20
175.7245389745717
 30
0.0
 11
597.4284627007563
 21
174.4822434140149
 31
0.0
  0
LINE
  5
10001BEE
330
F6
100
AcDbEntity
  8
目盛
100
AcDbLine
 10
599.4357020263095
 20
175.1513121523794
 30
0.0
 11
597.8300670759273
 21
173.9588624024481
 31
0.0
  0
ARC
  5
10001C7A
330
F6
100
AcDbEntity
  8
外形線
100
AcDbCircle
 10
557.5459000969138
 20
-166.0676128329556
 30
0.0
 40
300.0
100
AcDbArc
 50
88.88836896738498
 51
89.79458145290953
  0
ARC
  5
10001C7E
330
F6
100
AcDbEntity
  8
隠れ線2
 48
0.5
100
AcDbCircle
 10
557.5459000969138
 20
-166.0676128329556
 30
0.0
 40
300.0
100
AcDbArc
 50
88.18898762526625
 51
88.88836896738498
  0
ARC
  5
10001C81
330
F6
100
AcDbEntity
  8
外形線
100
AcDbCircle
 10
557.5459000969138
 20
-166.0676128329556
 30
0.0
 40
300.0
100
AcDbArc
 50
90.23367856207702
 51
99.765625
  0
ARC
  5
10001C82
330
F6
100
AcDbEntity
  8
隠れ線2
 48
0.5
100
AcDbCircle
 10
557.5459000969138
 20
-166.0676128329556
 30
0.0
 40
300.0
100
AcDbArc
 50
89.79458145290953
 51
90.23367856207702
  0
LINE
  5
10001CA4
330
F6
100
AcDbEntity
  8
隠れ線
  6
HIDDEN2
 62
     4
 48
0.3
100
AcDbLine
 10
468.4330598135246
 20
46.68238716706051
 30
0.0
 11
468.433059813629
 21
41.82833754531271
 31
0.0
  0
LINE
  5
10001CA5
330
F6
100
AcDbEntity
  8
隠れ線
  6
HIDDEN2
 62
     4
 48
0.3
100
AcDbLine
 10
466.9330598135245
 20
46.68238716702822
 30
0.0
 11
466.9330598136291
 21
41.82833754522817
 31
0.0
  0
LINE
  5
10001CA6
330
F6
100
AcDbEntity
  8
隠れ線
  6
HIDDEN2
 62
     4
 48
0.3
100
AcDbLine
 10
466.9330598135245
 20
46.68238716702822
 30
0.0
 11
468.4330598135246
 21
46.68238716706051
 31
0.0
  0
LINE
  5
10001CA7
330
F6
100
AcDbEntity
  8
隠れ線
  6
HIDDEN2
 62
     4
 48
0.3
100
AcDbLine
 10
466.9330598135246
 20
156.6823871670282
 30
0.0
 11
468.4330598135245
 21
156.6823871670606
 31
0.0
  0
LINE
  5
10001CA8
330
F6
100
AcDbEntity
  8
隠れ線
  6
HIDDEN2
 62
     4
 48
0.3
100
AcDbLine
 10
468.43305981342
 20
161.5395738064041
 30
0.0
 11
468.4330598135245
 21
156.6823871670606
 31
0.0
  0
LINE
  5
10001CA9
330
F6
100
AcDbEntity
  8
隠れ線
  6
HIDDEN2
 62
     4
 48
0.3
100
AcDbLine
 10
466.9330598134201
 20
161.536436788776
 30
0.0
 11
466.9330598135246
 21
156.6823871670282
 31
0.0
  0
LINE
  5
10001CFE
330
F6
100
AcDbEntity
  8
寸法線
 62
     2
100
AcDbLine
 10
467.6830598135246
 20
167.4124963751789
 30
0.0
 11
467.6830598135246
 21
174.2329634049833
 31
0.0
  0
LINE
  5
10001CFF
330
F6
100
AcDbEntity
  8
寸法線
 62
     2
100
AcDbLine
 10
552.6830598135245
 20
152.2687258474514
 30
0.0
 11
552.6830598135245
 21
174.2329634049833
 31
0.0
  0
LINE
  5
10001D00
330
F6
100
AcDbEntity
  8
寸法線
 62
     2
100
AcDbLine
 10
470.1830598135246
 20
172.9829634049833
 30
0.0
 11
550.1830598135245
 21
172.9829634049833
 31
0.0
  0
INSERT
  5
10001D01
330
F6
100
AcDbEntity
  8
寸法線
 62
     2
100
AcDbBlockReference
  2
_OPEN
 10
467.6830598135246
 20
172.9829634049833
 30
0.0
 41
2.5
 42
2.5
 43
2.5
 50
180.0
  0
INSERT
  5
10001D02
330
F6
100
AcDbEntity
  8
寸法線
 62
     2
100
AcDbBlockReference
  2
_OPEN
 10
552.6830598135245
 20
172.9829634049833
 30
0.0
 41
2.5
 42
2.5
 43
2.5
  0
MTEXT
  5
10001D03
330
F6
100
AcDbEntity
  8
寸法線
 62
     6
100
AcDbMText
 10
510.1830598135245
 20
174.8579634049833
 30
0.0
 40
2.5
 41
0.0
 71
     5
 72
     1
  1
\A1;85
  7
STYLE3
 73
     1
 44
1.0
  0
LINE
  5
10001D60
330
F6
100
AcDbEntity
  8
外形線
100
AcDbLine
 10
557.2331732147577
 20
233.7955761057543
 30
0.0
 11
679.2331732147577
 21
233.7955761057543
 31
0.0
  0
LINE
  5
10001D61
330
F6
100
AcDbEntity
  8
外形線
100
AcDbLine
 10
557.2331732147577
 20
234.7955761057543
 30
0.0
 11
679.2331732147577
 21
234.7955761057543
 31
0.0
  0
TEXT
  5
10001D62
330
F6
100
AcDbEntity
  8
文字
100
AcDbText
 10
557.8538812147577
 20
237.2686891057544
 30
0.0
 40
4.0
  1
Model No.LB-8 Inside Dial Caliper Gauge
  7
STYLE3
100
AcDbText
  0
TEXT
  5
10001D63
330
F6
100
AcDbEntity
  8
C
  6
Continuous
100
AcDbText
 10
670.2234203008189
 20
-24.93188008599656
 30
0.0
 40
2.1
  1
3RD Angle Projection
  7
STYLE3
100
AcDbText
  0
TEXT
  5
10001D64
330
F6
100
AcDbEntity
  8
C
  6
Continuous
100
AcDbText
 10
672.846863300819
 20
-21.43559708599656
 30
0.0
 40
3.0
  1
三　　角　　法
  7
STYLE3
100
AcDbText
  0
LINE
  5
10001D65
330
F6
100
AcDbEntity
  8
C
100
AcDbLine
 10
669.057444300819
 20
-6.285036085996555
 30
0.0
 11
809.848862300819
 21
-6.285036085996555
 31
0.0
  0
LINE
  5
10001D66
330
F6
100
AcDbEntity
  8
C
100
AcDbLine
 10
669.057444300819
 20
-17.06524208599655
 30
0.0
 11
809.848862300819
 21
-17.06524208599655
 31
0.0
  0
TEXT
  5
10001D67
330
F6
100
AcDbEntity
  8
C
  6
Continuous
100
AcDbText
 10
670.514912300819
 20
-15.16725208599656
 30
0.0
 40
2.1
  1
Design and specifications are subject to change without notice for future improvement.
  7
STYLE3
100
AcDbText
  0
TEXT
  5
10001D68
330
F6
100
AcDbEntity
  8
C
  6
Continuous
100
AcDbText
 10
670.806406300819
 20
-11.23810408599656
 30
0.0
 40
3.5
  1
仕様及び外観は予告なく変更される場合がございますのでご了承下さい。
  7
STYLE3
100
AcDbText
  0
LINE
  5
10001D69
330
F6
100
AcDbEntity
  8
C
100
AcDbLine
 10
669.057444300819
 20
-26.68002008599656
 30
0.0
 11
669.057444300819
 21
-6.285036085996555
 31
0.0
  0
TEXT
  5
10001D6A
330
F6
100
AcDbEntity
  8
C
  6
Continuous
100
AcDbText
 10
742.896452300819
 20
-21.59879508599656
 30
0.0
 40
3.0
  1
日 付
  7
STYLE3
100
AcDbText
  0
TEXT
  5
10001D6B
330
F6
100
AcDbEntity
  8
C
  6
Continuous
100
AcDbText
 10
733.1860413008191
 20
-22.89237908599655
 30
0.0
 40
2.399999999999999
  1
1/1
  7
STYLE3
100
AcDbText
  0
TEXT
  5
10001D6C
330
F6
100
AcDbEntity
  8
C
  6
Continuous
100
AcDbText
 10
723.103537300819
 20
-21.72100008599656
 30
0.0
 40
3.0
  1
尺 度
  7
STYLE3
100
AcDbText
  0
LINE
  5
10001D6D
330
F6
100
AcDbEntity
  8
C
100
AcDbLine
 10
771.0802113008189
 20
-17.06524208599655
 30
0.0
 11
771.0802113008189
 21
-26.68002008599656
 31
0.0
  0
LINE
  5
10001D6E
330
F6
100
AcDbEntity
  8
C
100
AcDbLine
 10
741.3478623008191
 20
-17.06524208599655
 30
0.0
 11
741.3478623008191
 21
-26.68002008599656
 31
0.0
  0
LINE
  5
10001D6F
330
F6
100
AcDbEntity
  8
C
100
AcDbLine
 10
721.8177903008189
 20
-17.06524208599655
 30
0.0
 11
721.8177903008189
 21
-26.68002008599656
 31
0.0
  0
LINE
  5
10001D70
330
F6
100
AcDbEntity
  8
C
100
AcDbLine
 10
704.328172300819
 20
-17.06524208599655
 30
0.0
 11
704.328172300819
 21
-26.68002008599656
 31
0.0
  0
TEXT
  5
10001D71
330
F6
100
AcDbEntity
  8
C
  6
Continuous
100
AcDbText
 10
705.785641300819
 20
-21.42964208599655
 30
0.0
 40
3.0
  1
単位
  7
STYLE3
100
AcDbText
  0
TEXT
  5
10001D72
330
F6
100
AcDbEntity
  8
C
  6
Continuous
100
AcDbText
 10
772.429174300819
 20
-21.14424008599656
 30
0.0
 40
3.0
  1
株式会社　尾崎製作所
  7
STYLE3
100
AcDbText
  0
TEXT
  5
10001D73
330
F6
100
AcDbEntity
  8
C
  6
Continuous
100
AcDbText
 10
752.0246203008189
 20
-23.18373708599656
 30
0.0
 40
2.1
  1
2010.06.29
  7
STYLE3
100
AcDbText
  0
TEXT
  5
10001D74
330
F6
100
AcDbEntity
  8
C
  6
Continuous
100
AcDbText
 10
723.5667523008189
 20
-24.64052208599656
 30
0.0
 40
2.1
  1
Scale
  7
STYLE3
100
AcDbText
  0
TEXT
  5
10001D75
330
F6
100
AcDbEntity
  8
C
  6
Continuous
100
AcDbText
 10
705.957362300819
 20
-24.93187908599656
 30
0.0
 40
2.1
  1
Unit
  7
STYLE3
100
AcDbText
  0
TEXT
  5
10001D76
330
F6
100
AcDbEntity
  8
C
  6
Continuous
100
AcDbText
 10
713.8276893008189
 20
-23.18373608599656
 30
0.0
 40
2.399999999999999
  1
mm
  7
STYLE3
100
AcDbText
  0
TEXT
  5
10001D77
330
F6
100
AcDbEntity
  8
C
  6
Continuous
100
AcDbText
 10
743.279813300819
 20
-24.93187808599656
 30
0.0
 40
2.1
  1
Date
  7
STYLE3
100
AcDbText
  0
TEXT
  5
10001D78
330
F6
100
AcDbEntity
  8
C
  6
Continuous
100
AcDbText
 10
773.3036533008189
 20
-24.93187908599656
 30
0.0
 40
2.1
  1
OZAKI MFG. CO., LTD.
  7
STYLE3
100
AcDbText
  0
ENDSEC
  0
SECTION
  2
OBJECTS
  0
DICTIONARY
  5
1C1
330
0
100
AcDbDictionary
281
     1
  3
ACAD_COLOR
350
10000004
  3
ACAD_GROUP
350
1C2
  3
ACAD_LAYOUT
350
10000007
  3
ACAD_MATERIAL
350
10000003
  3
ACAD_MLINESTYLE
350
1C3
  3
ACAD_PLOTSETTINGS
350
10000008
  3
ACAD_PLOTSTYLENAME
350
10000001
  3
ACAD_TABLESTYLE
350
10000005
  3
AcDbVariableDictionary
350
1000000F
  3
CONTENTDICTIONARY
350
1C4
  0
DICTIONARY
  5
100011BC
330
F6
100
AcDbDictionary
280
     1
281
     1
  3
ACAD_SORTENTS
360
100011BD
  0
DICTIONARY
  5
10000004
102
{ACAD_REACTORS
330
1C1
102
}
330
1C1
100
AcDbDictionary
281
     1
  0
DICTIONARY
  5
1C2
102
{ACAD_REACTORS
330
1C1
102
}
330
1C1
100
AcDbDictionary
281
     1
  0
DICTIONARY
  5
10000007
102
{ACAD_REACTORS
330
1C1
102
}
330
1C1
100
AcDbDictionary
281
     1
  3
Model
350
10000009
  3
レイアウト1
350
1000000A
  0
DICTIONARY
  5
10000003
102
{ACAD_REACTORS
330
1C1
102
}
330
1C1
100
AcDbDictionary
281
     1
  0
DICTIONARY
  5
1C3
102
{ACAD_REACTORS
330
1C1
102
}
330
1C1
100
AcDbDictionary
281
     1
  3
STANDARD
350
1C5
  0
DICTIONARY
  5
10000008
102
{ACAD_REACTORS
330
1C1
102
}
330
1C1
100
AcDbDictionary
281
     1
  0
ACDBDICTIONARYWDFLT
  5
10000001
102
{ACAD_REACTORS
330
1C1
102
}
330
1C1
100
AcDbDictionary
281
     1
  3
Normal
350
10000002
100
AcDbDictionaryWithDefault
340
10000002
  0
DICTIONARY
  5
10000005
102
{ACAD_REACTORS
330
1C1
102
}
330
1C1
100
AcDbDictionary
281
     1
  3
Standard
350
10000006
  0
DICTIONARY
  5
1000000F
102
{ACAD_REACTORS
330
1C1
102
}
330
1C1
100
AcDbDictionary
281
     1
  3
CTABLESTYLE
350
10000010
  0
DICTIONARY
  5
1C4
102
{ACAD_REACTORS
330
1C1
102
}
330
1C1
100
AcDbDictionary
281
     1
  0
SORTENTSTABLE
  5
100011BD
102
{ACAD_REACTORS
330
100011BC
102
}
330
100011BC
100
AcDbSortentsTable
330
F6
331
10001B21
  5
10001B2B
331
10001B60
  5
10001B6A
331
10000A22
  5
10000FE6
331
100009E3
  5
100009FB
331
10001BDE
  5
10001BE8
331
10001B9F
  5
10001BA9
331
10001B29
  5
10001B33
331
10001B68
  5
10001B72
331
100012AF
  5
100012C9
331
10000FE9
  5
10001007
331
100012EE
  5
10001308
331
10001325
  5
1000133F
331
10001BE6
  5
10001C6E
331
10001BA7
  5
10001BB1
331
10001B31
  5
10001B3B
331
10001B70
  5
10001B7A
331
100012B7
  5
100012D1
331
100009F3
  5
10000A0B
331
100012F6
  5
10001310
331
1000132D
  5
10001347
331
10001BEE
  5
10001CA7
331
10001BAF
  5
10001BB9
331
10001B39
  5
10001B43
331
10001B78
  5
10001B82
331
100012BF
  5
100012D9
331
100009FB
  5
10000A13
331
100012FE
  5
10001318
331
10001335
  5
1000134F
331
10000784
  5
1000079A
331
10001CA5
  5
10001CFA
331
10001BB7
  5
10001BC1
331
100012C7
  5
100012E1
331
10001306
  5
10001320
331
1000133D
  5
10001358
331
19B
  5
10000756
331
1000078C
  5
100009D9
331
10001AA9
  5
10001AB4
331
10001AE8
  5
10001AF2
331
10001AB1
  5
10001ABB
331
10001813
  5
10000753
331
10001AF0
  5
10001AFA
331
10001AF8
  5
10001B02
331
10001932
  5
10001AAB
331
1000178C
  5
100009D8
331
10001AB9
  5
10001AC3
331
10001B00
  5
10001B0A
331
10001AC1
  5
10001ACB
331
100014C7
  5
100016D1
331
10001B80
  5
10001B8A
331
10001B41
  5
10001B4B
331
10001210
  5
100012C2
331
10001009
  5
10001025
331
10000A03
  5
10000A1B
331
10001BBF
  5
10001BC9
331
1000130E
  5
10001328
331
10001B88
  5
10001B92
331
10001B49
  5
10001B53
331
10001041
  5
100012A5
331
10000FCA
  5
10001001
331
10000A0B
  5
10000A23
331
100012CF
  5
100012E9
331
10001345
  5
100013FE
331
10001CED
  5
10001D00
331
10001BC7
  5
10001BD1
331
10001316
  5
10001330
331
10001B51
  5
10001B5B
331
10001B90
  5
10001B9A
331
10000FD2
  5
10001004
331
10000A13
  5
10000A2B
331
100012D7
  5
100012F1
331
1000134D
  5
1000147E
331
1000147C
  5
100014C0
331
10001CFD
  5
10001D03
331
10001C6E
  5
10001CA9
331
10001355
  5
1000148E
331
10001BCF
  5
10001BD9
331
10001B59
  5
10001B63
331
10001141
  5
100012B0
331
10000A1B
  5
10000FD3
331
100012DF
  5
100012F9
331
1000131E
  5
10001338
331
1000148C
  5
100014E2
331
1B3
  5
10000798
331
100009CC
  5
100009EA
331
10001BD7
  5
10001BE1
331
100012E7
  5
10001301
331
174
  5
1A4
331
100009D4
  5
100009EE
331
100009DC
  5
100009F4
331
10001B08
  5
10001B12
331
1000185B
  5
100018A3
331
100014CF
  5
100015E9
331
10001715
  5
10001802
331
10001AC9
  5
10001AD3
331
10001863
  5
100018FB
331
10001AD1
  5
10001ADB
331
10001B10
  5
10001B1A
331
10001B18
  5
10001B22
331
10001AD9
  5
10001AE3
331
100018A3
  5
10001932
331
10001AE1
  5
10001AEB
331
10001B98
  5
10001BA2
331
10001B22
  5
10001B2C
331
10001B61
  5
10001B6B
331
100009E4
  5
100009FC
331
10001C7E
  5
10000759
331
10001BDF
  5
10001BE9
331
10001BA0
  5
10001BAA
331
10001B69
  5
10001B73
331
10001B2A
  5
10001B34
331
100011B9
  5
100012B7
331
100009EC
  5
10000A04
331
100012B0
  5
100012CA
331
100012EF
  5
10001309
331
10001326
  5
10001340
331
10001BE7
  5
10001C7A
331
10001BA8
  5
10001BB2
331
10001B32
  5
10001B3C
331
10001B71
  5
10001B7B
331
100012B8
  5
100012D2
331
10000FF2
  5
1000100D
331
100009F4
  5
10000A0C
331
100012F7
  5
10001311
331
1000132E
  5
10001348
331
10000785
  5
1000079B
331
10001415
  5
1000100B
331
10001BB0
  5
10001BBA
331
10001B3A
  5
10001B44
331
10001B79
  5
10001B83
331
100012C0
  5
100012DA
331
100009FC
  5
10000A14
331
100012FF
  5
10001319
331
10001336
  5
10001350
331
18C
  5
1B6
331
10001CA6
  5
10001CFC
331
10001307
  5
10001321
331
1000133E
  5
10001370
331
1000078D
  5
100009DE
331
100018FB
  5
10001AA4
331
100014A8
  5
100015B4
331
10001AAA
  5
10001AB5
331
10001AE9
  5
10001AF3
331
10001AB2
  5
10001ABC
331
10001AF1
  5
10001AFB
331
10001AF9
  5
10001B03
331
1000178D
  5
10001813
331
100014C0
  5
100015B5
331
10001ABA
  5
10001AC4
331
10001B01
  5
10001B0B
331
1000183C
  5
100018A2
331
100015D7
  5
1000178D
331
10001AC2
  5
10001ACC
331
10001BB8
  5
10001BC2
331
10001B81
  5
10001B8B
331
10001B42
  5
10001B4C
331
1000100A
  5
10001058
331
10000A04
  5
10000A1C
331
100012C8
  5
100012E2
331
10001BC0
  5
10001BCA
331
10001B89
  5
10001B93
331
10001B4A
  5
10001B54
331
100012D0
  5
100012EA
331
10000A0C
  5
10000A24
331
1000130F
  5
10001329
331
10001346
  5
10001415
331
10001BC8
  5
10001BD2
331
10001317
  5
10001331
331
10001B52
  5
10001B5C
331
10001B91
  5
10001B9B
331
100012D8
  5
100012F2
331
10000A14
  5
10000A2C
331
1000134E
  5
10001480
331
10001CFE
  5
10001863
331
10001356
  5
1000148F
331
10001BD0
  5
10001BDA
331
10001B5A
  5
10001B64
331
10001142
  5
100012B1
331
10000A1C
  5
10000FD4
331
100012E0
  5
100012FA
331
1000131F
  5
10001339
331
1000148D
  5
100014E5
331
100009D5
  5
100009EF
331
100009DD
  5
100009F5
331
100014C8
  5
100014C3
331
10001B09
  5
10001B13
331
1000179D
  5
10001820
331
100014D0
  5
100016A9
331
10001ACA
  5
10001AD4
331
10001AD2
  5
10001ADC
331
10001B11
  5
10001B1B
331
10001B19
  5
10001B23
331
10001AA3
  5
10001AAD
331
10001ADA
  5
10001AE4
331
10001AE2
  5
10001AEC
331
100012E8
  5
10001302
331
10001B99
  5
10001BA3
331
100009E5
  5
100009FD
331
10001B23
  5
10001B2D
331
10001B62
  5
10001B6C
331
10001BD8
  5
10001BE2
331
10001327
  5
10001341
331
100012F0
  5
1000130A
331
10001BE0
  5
10001BEA
331
100012B1
  5
100012CB
331
100011BA
  5
100012B8
331
100009ED
  5
10000A05
331
10001B2B
  5
10001B35
331
10001B6A
  5
10001B74
331
10001BA1
  5
10001BAB
331
100013DE
  5
1000149B
331
1000132F
  5
10001349
331
100012F8
  5
10001312
331
100012B9
  5
100012D3
331
10000FF3
  5
1000101A
331
100009F5
  5
10000A0D
331
10001B33
  5
10001B3D
331
10001B72
  5
10001B7C
331
10001BA9
  5
10001BB3
331
10001BE8
  5
10001C7E
331
10001300
  5
1000131A
331
10001337
  5
10001351
331
10000786
  5
1000079C
331
100012C1
  5
100012DB
331
1000120A
  5
100012BC
331
10001003
  5
1000101E
331
100009FD
  5
10000A15
331
10001B3B
  5
10001B45
331
10001B7A
  5
10001B84
331
10001BB1
  5
10001BBB
331
1000078E
  5
100009DF
331
1000133F
  5
1000137E
331
10001CA7
  5
10001CFD
331
100018FC
  5
10001AA5
331
10001AAB
  5
10001AB6
331
10001AEA
  5
10001AF4
331
10001AB3
  5
10001ABD
331
100014B1
  5
100014C7
331
10001AF2
  5
10001AFC
331
10001AFA
  5
10001B04
331
10001934
  5
10001AAC
331
100014C1
  5
10001684
331
10001ABB
  5
10001AC5
331
10001B02
  5
10001B0C
331
10001AC3
  5
10001ACD
331
10001308
  5
10001322
331
100012C9
  5
100012E3
331
1000100B
  5
10001106
331
10000A05
  5
10000A1D
331
10001B43
  5
10001B4D
331
10001B82
  5
10001B8C
331
10001BB9
  5
10001BC3
331
10001310
  5
1000132A
331
10001347
  5
10001417
331
100012D1
  5
100012EB
331
10001B8A
  5
10001B94
331
10000A0D
  5
10000A25
331
10001B4B
  5
10001B55
331
10001BC1
  5
10001BCB
331
10001318
  5
10001332
331
1000134F
  5
10001483
331
1000147E
  5
10000795
331
100012D9
  5
100012F3
331
10000A15
  5
10000A2D
331
10001B53
  5
10001B5D
331
10001B92
  5
10001B9C
331
10001BC9
  5
10001BD3
331
1000148E
  5
1000155A
331
10001CFF
  5
10001865
331
100012E1
  5
100012FB
331
10001BD1
  5
10001BDB
331
10001143
  5
100012B2
331
10000A1D
  5
10000FD5
331
10001B5B
  5
10001B65
331
100009D6
  5
100009F0
331
100009DE
  5
100009F6
331
10001680
  5
1000178F
331
10001B0A
  5
10001B14
331
10001717
  5
10001808
331
1000185D
  5
100018F8
331
10001ACB
  5
10001AD5
331
10001865
  5
100018FC
331
10001AD3
  5
10001ADD
331
10001B12
  5
10001B1C
331
10001B1A
  5
10001B24
331
10001AA4
  5
10001AAE
331
10001ADB
  5
10001AE5
331
10001AE3
  5
10001AED
331
10001320
  5
1000133A
331
100012E9
  5
10001303
331
100012AA
  5
100012C4
331
10001B9A
  5
10001BA4
331
100009E6
  5
100009FE
331
10001B24
  5
10001B2E
331
10001B63
  5
10001B6D
331
10001BD9
  5
10001BE3
331
10001328
  5
10001342
331
100012F1
  5
1000130B
331
10001BE1
  5
10001BEB
331
100012B2
  5
100012CC
331
10000FEC
  5
10001008
331
100009EE
  5
10000A06
331
10001B2C
  5
10001B36
331
10001B6B
  5
10001B75
331
10001BA2
  5
10001BAC
331
10001330
  5
1000134A
331
186
  5
1A7
331
100012F9
  5
10001313
331
100012BA
  5
100012D4
331
10000FF4
  5
1000101B
331
10001B34
  5
10001B3E
331
10001B73
  5
10001B7D
331
10001BAA
  5
10001BB4
331
10001BE9
  5
10001C81
331
10001417
  5
100014BB
331
10001301
  5
1000131B
331
10001338
  5
10001352
331
10000787
  5
1000079D
331
100012C2
  5
100012DC
331
1000120B
  5
100012BD
331
10001004
  5
1000101F
331
100009FE
  5
10000A16
331
10001B3C
  5
10001B46
331
10001B7B
  5
10001B85
331
10001BB2
  5
10001BBC
331
1000078F
  5
100009E0
331
19E
  5
1000075E
331
100016F0
  5
1000179F
331
10001AAC
  5
10001AB7
331
10001AEB
  5
10001AF5
331
10001AF3
  5
10001AFD
331
1000192D
  5
10001AA6
331
10001AB4
  5
10001ABE
331
10001AFB
  5
10001B05
331
1000178F
  5
100007A0
331
10001ABC
  5
10001AC6
331
10001B03
  5
10001B0D
331
10001AC4
  5
10001ACE
331
10001309
  5
10001323
331
10001340
  5
100013B7
331
10001CA8
  5
10001CFE
331
100012CA
  5
100012E4
331
10000FC5
  5
10000FF0
331
10000A06
  5
10000A1E
331
1000100C
  5
10001283
331
10001B44
  5
10001B4E
331
10001B83
  5
10001B8D
331
10001BBA
  5
10001BC4
331
10001311
  5
1000132B
331
10001348
  5
10001419
331
100012D2
  5
100012EC
331
10000A0E
  5
10000A26
331
10001B4C
  5
10001B56
331
10001B8B
  5
10001B95
331
10001BC2
  5
10001BCC
331
10001319
  5
10001333
331
10001350
  5
10001484
331
100012DA
  5
100012F4
331
10000A16
  5
10000A2E
331
10001B54
  5
10001B5E
331
10001B93
  5
10001B9D
331
10001BCA
  5
10001BD4
331
1B6
  5
10000799
331
10001370
  5
10001490
331
10001D00
  5
1000189E
331
100012E2
  5
100012FC
331
10001BD2
  5
10001BDC
331
10001144
  5
100012B3
331
10000A1E
  5
10000FD6
331
10001B5C
  5
10001B66
331
100009D7
  5
100009F1
331
100009DF
  5
100009F7
331
10001681
  5
10001790
331
10001B0B
  5
10001B15
331
1000179F
  5
1000183C
331
10001ACC
  5
10001AD6
331
10001AD4
  5
10001ADE
331
10001B13
  5
10001B1D
331
10001B1B
  5
10001B25
331
1000189E
  5
1000192D
331
100014E2
  5
100014F2
331
10001AA5
  5
10001AAF
331
10001ADC
  5
10001AE6
331
10001AE4
  5
10001AEE
331
10001321
  5
1000133B
331
100012EA
  5
10001304
331
100012AB
  5
100012C5
331
10001B9B
  5
10001BA5
331
100009E7
  5
100009FF
331
10001B25
  5
10001B2F
331
10001B64
  5
10001B6E
331
10001BDA
  5
10001BE4
331
10001329
  5
10001343
331
100012F2
  5
1000130C
331
10001BE2
  5
10001BEC
331
100012B3
  5
100012CD
331
10000FED
  5
10001009
331
100009EF
  5
10000A07
331
10001B2D
  5
10001B37
331
10001B6C
  5
10001B76
331
10001BA3
  5
10001BAD
331
10001C81
  5
1000075D
331
10001331
  5
1000134B
331
100012FA
  5
10001314
331
100012BB
  5
100012D5
331
10001BAB
  5
10001BB5
331
10001204
  5
100012B9
331
10000FF5
  5
1000101C
331
10001B35
  5
10001B3F
331
10001B74
  5
10001B7E
331
10001BEA
  5
10001C82
331
10001339
  5
10001353
331
10001302
  5
1000131C
331
10001418
  5
100014BC
331
10000788
  5
1000079E
331
100012C3
  5
100012DD
331
1000120C
  5
100012BE
331
10000FBE
  5
10000FEF
331
100009FF
  5
10000A17
331
10001005
  5
10001020
331
10001B3D
  5
10001B47
331
10001B7C
  5
10001B86
331
10001BB3
  5
10001BBD
331
10000790
  5
100009E1
331
1A7
  5
10000793
331
100014F2
  5
100016E2
331
1000155A
  5
10001702
331
10001AAD
  5
10001AB8
331
10001AEC
  5
10001AF6
331
10001AF4
  5
10001AFE
331
1000192E
  5
10001AA7
331
10001AB5
  5
10001ABF
331
10001AFC
  5
10001B06
331
100014C3
  5
100015D7
331
10001790
  5
10001819
331
10001ABD
  5
10001AC7
331
10001B04
  5
10001B0E
331
10001AC5
  5
10001ACF
331
10001420
  5
100014A5
331
1000130A
  5
10001324
331
10001341
  5
100013B8
331
100012CB
  5
100012E5
331
10000FC6
  5
10000FF1
331
10000A07
  5
10000A1F
331
10001B45
  5
10001B4F
331
10001B84
  5
10001B8E
331
10001BBB
  5
10001BC5
331
10001CA9
  5
10001CFF
331
10001312
  5
1000132C
331
10001349
  5
10001420
331
100012D3
  5
100012ED
331
10000A0F
  5
10000A27
331
10001B4D
  5
10001B57
331
10001B8C
  5
10001B96
331
10001BC3
  5
10001BCD
331
10001488
  5
100014C8
331
1000131A
  5
10001334
331
10001351
  5
10001489
331
108
  5
108
331
100012DB
  5
100012F5
331
10000A17
  5
10000A2F
331
10001B55
  5
10001B5F
331
10001B94
  5
10001B9E
331
10001BCB
  5
10001BD5
331
100012E3
  5
100012FD
331
10001145
  5
100012B4
331
10000A1F
  5
10000FD7
331
10001B5D
  5
10001B67
331
10001BD3
  5
10001BDD
331
10001D01
  5
1000189F
331
100009D8
  5
100009F2
331
10001682
  5
10001791
331
10001B0C
  5
10001B16
331
100017A0
  5
1000185B
331
10001ACD
  5
10001AD7
331
100014DB
  5
100015E8
331
100016E2
  5
1000179D
331
10001AD5
  5
10001ADF
331
10001B14
  5
10001B1E
331
10001B1C
  5
10001B26
331
1000189F
  5
1000192E
331
10001AA6
  5
10001AB1
331
10001ADD
  5
10001AE7
331
10001AE5
  5
10001AEF
331
100009E0
  5
100009F8
331
10001322
  5
1000133C
331
100012EB
  5
10001305
331
100012AC
  5
100012C6
331
10001B9C
  5
10001BA6
331
100009E8
  5
10000A00
331
10001B26
  5
10001B30
331
10001B65
  5
10001B6F
331
10001BDB
  5
10001BE5
331
10001C7A
  5
1000075B
331
1000132A
  5
10001344
331
100012F3
  5
1000130D
331
100012B4
  5
100012CE
331
10001BA4
  5
10001BAE
331
10000FEE
  5
1000100A
331
100009F0
  5
10000A08
331
10000A87
  5
10000FE8
331
10001B2E
  5
10001B38
331
10001B6D
  5
10001B77
331
10001BE3
  5
10001BED
331
10001C82
  5
1000075C
331
10001332
  5
1000134C
331
100012FB
  5
10001315
331
100012BC
  5
100012D6
331
10001BAC
  5
10001BB6
331
10000FF6
  5
1000101D
331
100009F8
  5
10000A10
331
10001B36
  5
10001B40
331
10001B75
  5
10001B7F
331
10001BEB
  5
10001CA4
331
1000133A
  5
10001354
331
10001303
  5
1000131D
331
10001419
  5
100014A8
331
198
  5
10000755
331
10000789
  5
1000079F
331
100012C4
  5
100012DE
331
1000120D
  5
100012BF
331
10001006
  5
10001021
331
10001B3E
  5
10001B48
331
10001B7D
  5
10001B87
331
10001BB4
  5
10001BBE
331
10000791
  5
100009E2
331
100014F3
  5
100016F0
331
10001808
  5
1000075F
331
10001AAE
  5
10001AB9
331
10001AED
  5
10001AF7
331
10001AB6
  5
10001AC0
331
100015B3
  5
10001703
331
1000192F
  5
10001AA8
331
10001AF5
  5
10001AFF
331
10001AFD
  5
10001B07
331
10001702
  5
100017A0
331
10001791
  5
1000181A
331
10001ABE
  5
10001AC8
331
10001AC6
  5
10001AD0
331
10001B05
  5
10001B0F
331
10000A00
  5
10000A18
331
10001342
  5
100013BC
331
1000130B
  5
10001325
331
100012CC
  5
100012E6
331
10000FC7
  5
10000FFB
331
10000A08
  5
10000A20
331
1000100E
  5
1000129E
331
10001B46
  5
10001B50
331
10001B85
  5
10001B8F
331
10001BBC
  5
10001BC6
331
10001313
  5
1000132D
331
1000134A
  5
10001468
331
100012D4
  5
100012EE
331
10000A10
  5
10000A28
331
10001B4E
  5
10001B58
331
10001B8D
  5
10001B97
331
10001BC4
  5
10001BCE
331
10001489
  5
100014CF
331
1B0
  5
10000796
331
1000131B
  5
10001335
331
10001352
  5
1000148B
331
100012DC
  5
100012F6
331
10000A18
  5
10000A94
331
10001B56
  5
10001B60
331
10001B95
  5
10001B9F
331
10001BCC
  5
10001BD6
331
10001CFA
  5
10001D01
331
100009D1
  5
100009EB
331
100012E4
  5
100012FE
331
10001146
  5
100012B5
331
10001B5E
  5
10001B68
331
10001BD4
  5
10001BDE
331
10001D02
  5
100018A0
331
100009D9
  5
100009F3
331
10001B0D
  5
10001B17
331
100017A1
  5
1000185D
331
10001ACE
  5
10001AD8
331
100014DC
  5
100015E7
331
10001AD6
  5
10001AE0
331
10001B15
  5
10001B1F
331
10001B1D
  5
10001B27
331
100018A0
  5
1000192F
331
10001AA7
  5
10001AB2
331
10001ADE
  5
10001AE8
331
10001AE6
  5
10001AF0
331
100009E1
  5
100009F9
331
10000A20
  5
10000FD8
331
10001323
  5
1000133D
331
100012EC
  5
10001306
331
100012AD
  5
100012C7
331
10001B9D
  5
10001BA7
331
100009E9
  5
10000A01
331
10000FE7
  5
10001005
331
10001B27
  5
10001B31
331
10001B66
  5
10001B70
331
10001BDC
  5
10001BE6
331
1000132B
  5
10001345
331
100012F4
  5
1000130E
331
100012B5
  5
100012CF
331
10001B6E
  5
10001B78
331
100009F1
  5
10000A09
331
10000A88
  5
10000FED
331
10001B2F
  5
10001B39
331
10001BA5
  5
10001BAF
331
10001BE4
  5
10001BEE
331
10001333
  5
1000134D
331
189
  5
1B3
331
100012FC
  5
10001316
331
100012BD
  5
100012D7
331
10001BAD
  5
10001BB7
331
10001206
  5
100012BB
331
100009F9
  5
10000A11
331
10001B37
  5
10001B41
331
10001B76
  5
10001B80
331
10001BEC
  5
10001CA5
331
1000133B
  5
10001355
331
10001304
  5
1000131E
331
1000078A
  5
1000084F
331
100012C5
  5
100012DF
331
10001BB5
  5
10001BBF
331
1000120E
  5
100012C0
331
10001007
  5
10001022
331
10001B3F
  5
10001B49
331
10001B7E
  5
10001B88
331
10000792
  5
100009E3
331
1A1
  5
10000791
331
10000842
  5
100009E5
331
100014A5
  5
100015B3
331
100018F8
  5
10001934
331
10001AAF
  5
10001ABA
331
10001AEE
  5
10001AF8
331
10001AB7
  5
10001AC1
331
10001930
  5
10001AA9
331
100015B4
  5
10001704
331
10001819
  5
100014DB
331
10001AF6
  5
10001B00
331
10001AFE
  5
10001B08
331
10001ABF
  5
10001AC9
331
10001703
  5
100017A1
331
10001B06
  5
10001B10
331
10001AC7
  5
10001AD1
331
10000A01
  5
10000A19
331
10001343
  5
100013CE
331
1000130C
  5
10001326
331
100012CD
  5
100012E7
331
10000A09
  5
10000A21
331
10000FC8
  5
10000FFF
331
10001B47
  5
10001B51
331
10001B86
  5
10001B90
331
10001BBD
  5
10001BC7
331
1000134B
  5
10001469
331
10001314
  5
1000132E
331
100012D5
  5
100012EF
331
10000A11
  5
10000A29
331
10001B4F
  5
10001B59
331
10001B8E
  5
10001B98
331
10001BC5
  5
10001BCF
331
1000148A
  5
100014D0
331
1000131C
  5
10001336
331
10001353
  5
1000148C
331
100012DD
  5
100012F7
331
10000A19
  5
10000A95
331
100010EF
  5
100012AF
331
10001B57
  5
10001B61
331
10001B96
  5
10001BA0
331
10001BCD
  5
10001BD7
331
100009D2
  5
100009EC
331
100012E5
  5
100012FF
331
10001147
  5
100012B6
331
10001B5F
  5
10001B69
331
10001BD5
  5
10001BDF
331
10001D03
  5
100018A1
331
10001B0E
  5
10001B18
331
10001ACF
  5
10001AD9
331
10001B16
  5
10001B20
331
10001AD7
  5
10001AE1
331
10001B1E
  5
10001B28
331
10001ADF
  5
10001AE9
331
100014E5
  5
100014F3
331
100018A1
  5
10001930
331
10001AE7
  5
10001AF1
331
10000A21
  5
10000FDB
331
100009E2
  5
100009FA
331
10001B20
  5
10001B2A
331
10001324
  5
1000133E
331
100012ED
  5
10001307
331
100012AE
  5
100012C8
331
10001B9E
  5
10001BA8
331
10001B67
  5
10001B71
331
100009EA
  5
10000A02
331
10000FE8
  5
10001006
331
10001B28
  5
10001B32
331
10001BDD
  5
10001BE7
331
1000132C
  5
10001346
331
100012F5
  5
1000130F
331
100012B6
  5
100012D0
331
100009F2
  5
10000A0A
331
10000A89
  5
10000FEE
331
10000FF0
  5
1000100C
331
10001B30
  5
10001B3A
331
10001B6F
  5
10001B79
331
10001BA6
  5
10001BB0
331
10001BE5
  5
10001C6D
331
10001334
  5
1000134E
331
100012FD
  5
10001317
331
100012BE
  5
100012D8
331
10001BAE
  5
10001BB8
331
100009FA
  5
10000A12
331
10001B38
  5
10001B42
331
10001B77
  5
10001B81
331
10001BED
  5
10001CA6
331
1000078B
  5
10000850
331
1000133C
  5
10001356
331
10001305
  5
1000131F
331
100012C6
  5
100012E0
331
10001BB6
  5
10001BC0
331
1000120F
  5
100012C1
331
10001B7F
  5
10001B89
331
10001CA4
  5
10001CED
331
10000793
  5
100009E4
331
10000843
  5
100009E6
331
100018F9
  5
10001AA3
331
10001AA8
  5
10001AB3
331
10001AEF
  5
10001AF9
331
10001AF7
  5
10001B01
331
10001931
  5
10001AAA
331
100015B5
  5
10001715
331
1000181A
  5
10001567
331
10001AB8
  5
10001AC2
331
10001AFF
  5
10001B09
331
10001AC0
  5
10001ACA
331
10001704
  5
100017F1
331
10001B07
  5
10001B11
331
10000A02
  5
10000A1A
331
10001008
  5
10001023
331
10001B40
  5
10001B4A
331
1000130D
  5
10001327
331
10001344
  5
100013DD
331
100012CE
  5
100012E8
331
10001BBE
  5
10001BC8
331
10001B87
  5
10001B91
331
10000A0A
  5
10000A22
331
10000FC9
  5
10001000
331
10001B48
  5
10001B52
331
1000134C
  5
1000147C
331
10001315
  5
1000132F
331
1AA
  5
10000794
331
100012D6
  5
100012F0
331
1000124F
  5
100012C3
331
10000A12
  5
10000A2A
331
10001B50
  5
10001B5A
331
10001B8F
  5
10001B99
331
10001BC6
  5
10001BD0
331
10B
  5
1A1
331
100009CB
  5
100009E9
331
10001354
  5
1000148D
331
1000131D
  5
10001337
331
100012DE
  5
100012F8
331
10001267
  5
100012BA
331
10000A1A
  5
10000A96
331
10001B58
  5
10001B62
331
10001B97
  5
10001BA1
331
10001BCE
  5
10001BD8
331
10001C6D
  5
10001CA8
331
10001CFC
  5
10001D02
331
100009D3
  5
100009ED
331
100012E6
  5
10001300
331
10001BD6
  5
10001BE0
331
10001AC8
  5
10001AD2
331
10001714
  5
10001801
331
10001B0F
  5
10001B19
331
10001AD0
  5
10001ADA
331
100016AD
  5
10000797
331
10001862
  5
100018F9
331
10001B17
  5
10001B21
331
10001AD8
  5
10001AE2
331
100018A2
  5
10001931
331
100014E6
  5
100014E6
331
10001AE0
  5
10001AEA
331
10001B1F
  5
10001B29
  0
LAYOUT
  5
10000009
102
{ACAD_REACTORS
330
10000007
102
}
330
10000007
100
AcDbPlotSettings
  1

  2
A3 EPSON LP-6100.pc3
  4
A3
  6

 40
5.873749732971191
 41
5.873747825622558
 42
5.873748779296875
 43
5.873748779296875
 44
297.0106506347656
 45
419.9466552734374
 46
0.946488
 47
1.107841
 48
0.0
 49
0.0
140
0.0
141
0.0
142
1.0
143
1.0
 70
 28336
 72
     1
 73
     1
 74
     1
  7
AutoCAD LT 98.ctb
 75
    16
147
1.0
 76
     1
 77
     2
 78
   300
148
-415.8677348784752
149
27.20148678804207
100
AcDbLayout
  1
Model
 70
     1
 71
     0
 10
0.0
 20
0.0
 11
12.0
 21
9.0
 12
0.0
 22
0.0
 32
0.0
 14
0.0
 24
0.0
 34
0.0
 15
0.0
 25
0.0
 35
0.0
146
0.0
 13
0.0
 23
0.0
 33
0.0
 16
1.0
 26
0.0
 36
0.0
 17
0.0
 27
1.0
 37
0.0
 76
     0
330
F6
1001
ACAD_PSEXT
1000
A3 EPSON LP-6100.pc3
1000
EPSON LP-6100
1000
\\SATO-MATE2
1000

1070
     0
  0
LAYOUT
  5
1000000A
102
{ACAD_REACTORS
330
10000007
102
}
330
10000007
100
AcDbPlotSettings
  1

  2
Mytalk FAX
  4

  6

 40
0.0
 41
0.0
 42
0.0
 43
0.0
 44
0.0
 45
0.0
 46
0.0
 47
0.0
 48
0.0
 49
0.0
140
0.0
141
0.0
142
1.0
143
1.0
 70
   688
 72
     0
 73
     0
 74
     5
  7
AutoCAD LT 98.ctb
 75
    16
147
1.0
 76
     0
 77
     2
 78
   300
148
0.0
149
0.0
100
AcDbLayout
  1
レイアウト1
 70
     1
 71
     1
 10
0.0
 20
0.0
 11
400.0
 21
277.0
 12
0.0
 22
0.0
 32
0.0
 14
1.000000000000000E+20
 24
1.000000000000000E+20
 34
1.000000000000000E+20
 15
-1.000000000000000E+20
 25
-1.000000000000000E+20
 35
-1.000000000000000E+20
146
0.0
 13
0.0
 23
0.0
 33
0.0
 16
1.0
 26
0.0
 36
0.0
 17
0.0
 27
1.0
 37
0.0
 76
     0
330
F9
  0
MLINESTYLE
  5
1C5
102
{ACAD_REACTORS
330
1C3
102
}
330
1C3
100
AcDbMlineStyle
  2
STANDARD
 70
     0
  3
 
 62
   256
 51
90.0
 52
90.0
 71
     2
 49
0.5
 62
   256
  6
BYLAYER
 49
-0.5
 62
   256
  6
BYLAYER
  0
ACDBPLACEHOLDER
  5
10000002
102
{ACAD_REACTORS
330
10000001
102
}
330
10000001
  0
ACAD_PROXY_OBJECT
  5
10000006
102
{ACAD_REACTORS
330
10000005
102
}
330
10000005
100
AcDbProxyObject
 90
      499
 91
      501
 95
  2555929
 70
     0
 93
     1841
310
4214DD185B99185C9928000000000000F83F0000000000003E0FC00000000000004901028000000C1008070000C3001FDFF8000000C1003FBFF000000182007F7FE00000030400FEFFC00000060801FDFF8000000C1003FBFF000000182000000000000000C2020B0000001820100E000186003FBFF000000182007F7FE000
310
00030400FEFFC00000060801FDFF8000000C1003FBFF000000182007F7FE0000003040000000000000012404160000003040201C00030C007F7FE00000030400FEFFC00000060801FDFF8000000C1003FBFF000000182007F7FE00000030400FEFFC000000608000
340
D5
340
D5
340
D5
 94
        0
  0
DICTIONARYVAR
  5
10000010
102
{ACAD_REACTORS
330
1000000F
102
}
330
1000000F
100
DictionaryVariables
280
     0
  1
STANDARD
  0
ENDSEC
  0
EOF
