  0
SECTION
  2
HEADER
  9
$ACADVER
  1
AC1018
  9
$ACADMAINTVER
 70
     0
  9
$DWGCODEPAGE
  3
ANSI_932
  9
$INSBASE
 10
0.0
 20
0.0
 30
0.0
  9
$EXTMIN
 10
-0.2128225079886761
 20
-0.2090691322566727
 30
-0.0015258207003583
  9
$EXTMAX
 10
255.2310249564599
 20
195.2002935422122
 30
0.0000000349246037
  9
$LIMMIN
 10
0.0
 20
0.0
  9
$LIMMAX
 10
420.0
 20
297.0
  9
$ORTHOMODE
 70
     0
  9
$REGENMODE
 70
     1
  9
$FILLMODE
 70
     1
  9
$QTEXTMODE
 70
     0
  9
$MIRRTEXT
 70
     1
  9
$LTSCALE
 40
1.0
  9
$ATTMODE
 70
     1
  9
$TEXTSIZE
 40
3.0
  9
$TRACEWID
 40
1.0
  9
$TEXTSTYLE
  7
STYLE3
  9
$CLAYER
  8
寸法線
  9
$CELTYPE
  6
BYLAYER
  9
$CECOLOR
 62
   256
  9
$CELTSCALE
 40
1.0
  9
$DISPSILH
 70
     0
  9
$DIMSCALE
 40
1.0
  9
$DIMASZ
 40
2.5
  9
$DIMEXO
 40
0.0
  9
$DIMDLI
 40
3.75
  9
$DIMRND
 40
0.0
  9
$DIMDLE
 40
0.0
  9
$DIMEXE
 40
1.25
  9
$DIMTP
 40
0.0
  9
$DIMTM
 40
0.0
  9
$DIMTXT
 40
2.5
  9
$DIMCEN
 40
2.5
  9
$DIMTSZ
 40
0.0
  9
$DIMTOL
 70
     0
  9
$DIMLIM
 70
     0
  9
$DIMTIH
 70
     0
  9
$DIMTOH
 70
     0
  9
$DIMSE1
 70
     0
  9
$DIMSE2
 70
     0
  9
$DIMTAD
 70
     1
  9
$DIMZIN
 70
     8
  9
$DIMBLK
  1

  9
$DIMASO
 70
     1
  9
$DIMSHO
 70
     1
  9
$DIMPOST
  1

  9
$DIMAPOST
  1

  9
$DIMALT
 70
     0
  9
$DIMALTD
 70
     4
  9
$DIMALTF
 40
0.0394
  9
$DIMLFAC
 40
1.0
  9
$DIMTOFL
 70
     1
  9
$DIMTVP
 40
0.0
  9
$DIMTIX
 70
     0
  9
$DIMSOXD
 70
     0
  9
$DIMSAH
 70
     1
  9
$DIMBLK1
  1
OPEN
  9
$DIMBLK2
  1
OPEN
  9
$DIMSTYLE
  2
STYLE3
  9
$DIMCLRD
 70
     2
  9
$DIMCLRE
 70
     2
  9
$DIMCLRT
 70
     6
  9
$DIMTFAC
 40
1.0
  9
$DIMGAP
 40
0.625
  9
$DIMJUST
 70
     0
  9
$DIMSD1
 70
     0
  9
$DIMSD2
 70
     0
  9
$DIMTOLJ
 70
     1
  9
$DIMTZIN
 70
     0
  9
$DIMALTZ
 70
     0
  9
$DIMALTTZ
 70
     0
  9
$DIMUPT
 70
     0
  9
$DIMDEC
 70
     2
  9
$DIMTDEC
 70
     4
  9
$DIMALTU
 70
     8
  9
$DIMALTTD
 70
     4
  9
$DIMTXSTY
  7
STYLE3
  9
$DIMAUNIT
 70
     0
  9
$DIMADEC
 70
     0
  9
$DIMALTRND
 40
0.0
  9
$DIMAZIN
 70
     0
  9
$DIMDSEP
 70
    46
  9
$DIMATFIT
 70
     3
  9
$DIMFRAC
 70
     0
  9
$DIMLDRBLK
  1

  9
$DIMLUNIT
 70
     2
  9
$DIMLWD
 70
    -2
  9
$DIMLWE
 70
    -2
  9
$DIMTMOVE
 70
     0
  9
$LUNITS
 70
     2
  9
$LUPREC
 70
     4
  9
$SKETCHINC
 40
1.0
  9
$FILLETRAD
 40
0.0
  9
$AUNITS
 70
     0
  9
$AUPREC
 70
     0
  9
$MENU
  1
.
  9
$ELEVATION
 40
0.0
  9
$PELEVATION
 40
0.0
  9
$THICKNESS
 40
0.0
  9
$LIMCHECK
 70
     0
  9
$CHAMFERA
 40
0.3
  9
$CHAMFERB
 40
0.3
  9
$CHAMFERC
 40
20.0
  9
$CHAMFERD
 40
0.0
  9
$SKPOLY
 70
     0
  9
$TDCREATE
 40
2451451.663712269
  9
$TDUCREATE
 40
2451451.288712269
  9
$TDUPDATE
 40
2455364.403180336
  9
$TDUUPDATE
 40
2455364.028180336
  9
$TDINDWG
 40
1.1796245023
  9
$TDUSRTIMER
 40
1.1796245023
  9
$USRTIMER
 70
     1
  9
$ANGBASE
 50
0.0
  9
$ANGDIR
 70
     0
  9
$PDMODE
 70
     0
  9
$PDSIZE
 40
0.0
  9
$PLINEWID
 40
0.0
  9
$SPLFRAME
 70
     0
  9
$SPLINETYPE
 70
     6
  9
$SPLINESEGS
 70
     8
  9
$HANDSEED
  5
1F5A
  9
$SURFTAB1
 70
     6
  9
$SURFTAB2
 70
     6
  9
$SURFTYPE
 70
     6
  9
$SURFU
 70
     6
  9
$SURFV
 70
     6
  9
$UCSBASE
  2

  9
$UCSNAME
  2

  9
$UCSORG
 10
0.0
 20
0.0
 30
0.0
  9
$UCSXDIR
 10
1.0
 20
0.0
 30
0.0
  9
$UCSYDIR
 10
0.0
 20
1.0
 30
0.0
  9
$UCSORTHOREF
  2

  9
$UCSORTHOVIEW
 70
     0
  9
$UCSORGTOP
 10
0.0
 20
0.0
 30
0.0
  9
$UCSORGBOTTOM
 10
0.0
 20
0.0
 30
0.0
  9
$UCSORGLEFT
 10
0.0
 20
0.0
 30
0.0
  9
$UCSORGRIGHT
 10
0.0
 20
0.0
 30
0.0
  9
$UCSORGFRONT
 10
0.0
 20
0.0
 30
0.0
  9
$UCSORGBACK
 10
0.0
 20
0.0
 30
0.0
  9
$PUCSBASE
  2

  9
$PUCSNAME
  2

  9
$PUCSORG
 10
0.0
 20
0.0
 30
0.0
  9
$PUCSXDIR
 10
1.0
 20
0.0
 30
0.0
  9
$PUCSYDIR
 10
0.0
 20
1.0
 30
0.0
  9
$PUCSORTHOREF
  2

  9
$PUCSORTHOVIEW
 70
     0
  9
$PUCSORGTOP
 10
0.0
 20
0.0
 30
0.0
  9
$PUCSORGBOTTOM
 10
0.0
 20
0.0
 30
0.0
  9
$PUCSORGLEFT
 10
0.0
 20
0.0
 30
0.0
  9
$PUCSORGRIGHT
 10
0.0
 20
0.0
 30
0.0
  9
$PUCSORGFRONT
 10
0.0
 20
0.0
 30
0.0
  9
$PUCSORGBACK
 10
0.0
 20
0.0
 30
0.0
  9
$USERI1
 70
     0
  9
$USERI2
 70
     0
  9
$USERI3
 70
     0
  9
$USERI4
 70
     0
  9
$USERI5
 70
     0
  9
$USERR1
 40
0.0
  9
$USERR2
 40
0.0
  9
$USERR3
 40
0.0
  9
$USERR4
 40
0.0
  9
$USERR5
 40
0.0
  9
$WORLDVIEW
 70
     1
  9
$SHADEDGE
 70
     3
  9
$SHADEDIF
 70
    70
  9
$TILEMODE
 70
     1
  9
$MAXACTVP
 70
    48
  9
$PINSBASE
 10
0.0
 20
0.0
 30
0.0
  9
$PLIMCHECK
 70
     0
  9
$PEXTMIN
 10
-0.2
 20
-0.2
 30
0.0
  9
$PEXTMAX
 10
255.2
 20
195.2
 30
0.0
  9
$PLIMMIN
 10
0.0
 20
0.0
  9
$PLIMMAX
 10
420.0
 20
297.0
  9
$UNITMODE
 70
     0
  9
$VISRETAIN
 70
     1
  9
$PLINEGEN
 70
     0
  9
$PSLTSCALE
 70
     1
  9
$TREEDEPTH
 70
  3020
  9
$CMLSTYLE
  2
STANDARD
  9
$CMLJUST
 70
     0
  9
$CMLSCALE
 40
20.0
  9
$PROXYGRAPHICS
 70
     1
  9
$MEASUREMENT
 70
     1
  9
$CELWEIGHT
370
    -1
  9
$ENDCAPS
280
     0
  9
$JOINSTYLE
280
     0
  9
$LWDISPLAY
290
     0
  9
$INSUNITS
 70
     0
  9
$HYPERLINKBASE
  1

  9
$STYLESHEET
  1
AutoCad LT 98.ctb
  9
$XEDIT
290
     1
  9
$CEPSNTYPE
380
     0
  9
$PSTYLEMODE
290
     1
  9
$FINGERPRINTGUID
  2
{8FB47EA7-A18A-4881-9863-1C5D0BCD2A3D}
  9
$VERSIONGUID
  2
{D2704463-2AC8-466A-9A73-E01E081BF6B8}
  9
$EXTNAMES
290
     1
  9
$PSVPSCALE
 40
0.0
  9
$OLESTARTUP
290
     0
  9
$SORTENTS
280
   127
  9
$INDEXCTL
280
     0
  9
$HIDETEXT
280
     0
  9
$XCLIPFRAME
290
     0
  9
$HALOGAP
280
     0
  9
$OBSCOLOR
 70
   257
  9
$OBSLTYPE
280
     0
  9
$INTERSECTIONDISPLAY
280
     0
  9
$INTERSECTIONCOLOR
 70
   257
  9
$DIMASSOC
280
     1
  9
$PROJECTNAME
  1

  0
ENDSEC
  0
SECTION
  2
CLASSES
  0
CLASS
  1
HATCH
  2
AcDbHatch
  3
ObjectDBX Classes
 90
        0
 91
       40
280
     0
281
     1
  0
CLASS
  1
IMAGEDEF
  2
AcDbRasterImageDef
  3
ISM
 90
        0
 91
        1
280
     0
281
     0
  0
CLASS
  1
LWPOLYLINE
  2
AcDbPolyline
  3
ObjectDBX Classes
 90
        0
 91
       12
280
     0
281
     1
  0
CLASS
  1
ACDBDICTIONARYWDFLT
  2
AcDbDictionaryWithDefault
  3
ObjectDBX Classes
 90
        0
 91
        1
280
     0
281
     0
  0
CLASS
  1
TABLESTYLE
  2
AcDbTableStyle
  3
ObjectDBX Classes
 90
     2047
 91
        1
280
     0
281
     0
  0
CLASS
  1
SORTENTSTABLE
  2
AcDbSortentsTable
  3
ObjectDBX Classes
 90
        0
 91
        1
280
     0
281
     0
  0
CLASS
  1
DICTIONARYVAR
  2
AcDbDictionaryVar
  3
ObjectDBX Classes
 90
        0
 91
        1
280
     0
281
     0
  0
ENDSEC
  0
SECTION
  2
TABLES
  0
TABLE
  2
VPORT
  5
8
330
0
100
AcDbSymbolTable
 70
     3
  0
VPORT
  5
1F59
330
8
100
AcDbSymbolTableRecord
100
AcDbViewportTableRecord
  2
*Active
 70
     0
 10
0.0
 20
0.0
 11
1.0
 21
1.0
 12
127.5091012242356
 22
97.49561220497778
 13
0.0
 23
0.0
 14
10.0
 24
10.0
 15
10.0
 25
10.0
 16
0.0
 26
0.0
 36
1.0
 17
0.0
 27
0.0
 37
0.0
 40
196.8953654324496
 41
1.530456852791878
 42
50.0
 43
0.0
 44
0.0
 50
0.0
 51
0.0
 71
     0
 72
   100
 73
     1
 74
     1
 75
     0
 76
     0
 77
     0
 78
     0
281
     0
 65
     1
110
0.0
120
0.0
130
0.0
111
1.0
121
0.0
131
0.0
112
0.0
122
1.0
132
0.0
 79
     0
146
0.0
  0
ENDTAB
  0
TABLE
  2
LTYPE
  5
5
330
0
100
AcDbSymbolTable
 70
    12
  0
LTYPE
  5
12
330
5
100
AcDbSymbolTableRecord
100
AcDbLinetypeTableRecord
  2
BYBLOCK
 70
     0
  3

 72
    65
 73
     0
 40
0.0
  0
LTYPE
  5
13
330
5
100
AcDbSymbolTableRecord
100
AcDbLinetypeTableRecord
  2
BYLAYER
 70
     0
  3

 72
    65
 73
     0
 40
0.0
  0
LTYPE
  5
14
330
5
100
AcDbSymbolTableRecord
100
AcDbLinetypeTableRecord
  2
CONTINUOUS
 70
     0
  3
Solid line
 72
    65
 73
     0
 40
0.0
  0
LTYPE
  5
22
330
5
100
AcDbSymbolTableRecord
100
AcDbLinetypeTableRecord
  2
CENTER2
 70
     0
  3
Center (.5x) ___ _ ___ _ ___ _ ___ _ ___ _ ___
 72
    65
 73
     4
 40
28.575
 49
19.05
 74
     0
 49
-3.174999999999999
 74
     0
 49
3.174999999999999
 74
     0
 49
-3.174999999999999
 74
     0
  0
LTYPE
  5
23
330
5
100
AcDbSymbolTableRecord
100
AcDbLinetypeTableRecord
  2
HIDDEN2
 70
     0
  3
Hidden (.5x) _ _ _ _ _ _ _ _ _ _ _ _ _ _ _ _ _
 72
    65
 73
     2
 40
4.762499999999999
 49
3.174999999999999
 74
     0
 49
-1.587499999999999
 74
     0
  0
ENDTAB
  0
TABLE
  2
LAYER
  5
2
102
{ACAD_XDICTIONARY
360
19CC
102
}
330
0
100
AcDbSymbolTable
 70
    15
  0
LAYER
  5
E
330
2
100
AcDbSymbolTableRecord
100
AcDbLayerTableRecord
  2
0
 70
     0
 62
     7
  6
CONTINUOUS
370
    -3
390
179F
  0
LAYER
  5
25
330
2
100
AcDbSymbolTableRecord
100
AcDbLayerTableRecord
  2
外形線
 70
     0
 62
     7
  6
CONTINUOUS
370
    -3
390
179F
  0
LAYER
  5
26
330
2
100
AcDbSymbolTableRecord
100
AcDbLayerTableRecord
  2
寸法線
 70
     0
 62
     2
  6
CONTINUOUS
370
    -3
390
179F
  0
LAYER
  5
27
330
2
100
AcDbSymbolTableRecord
100
AcDbLayerTableRecord
  2
中心線
 70
     0
 62
     4
  6
CENTER2
370
    -3
390
179F
  0
LAYER
  5
2B
330
2
100
AcDbSymbolTableRecord
100
AcDbLayerTableRecord
  2
文字
 70
     0
 62
     6
  6
CONTINUOUS
370
    -3
390
179F
  0
LAYER
  5
2C
330
2
100
AcDbSymbolTableRecord
100
AcDbLayerTableRecord
  2
目盛
 70
     0
 62
    70
  6
CONTINUOUS
370
    -3
390
179F
  0
LAYER
  5
2D
330
2
100
AcDbSymbolTableRecord
100
AcDbLayerTableRecord
  2
針
 70
     0
 62
     5
  6
CONTINUOUS
370
    -3
390
179F
  0
LAYER
  5
53
330
2
100
AcDbSymbolTableRecord
100
AcDbLayerTableRecord
  2
DEFPOINTS
 70
     0
 62
     7
  6
CONTINUOUS
290
     0
370
    -3
390
179F
  0
LAYER
  5
A5
330
2
100
AcDbSymbolTableRecord
100
AcDbLayerTableRecord
  2
C
 70
     0
 62
     7
  6
CONTINUOUS
370
    -3
390
179F
  0
LAYER
  5
16A
330
2
100
AcDbSymbolTableRecord
100
AcDbLayerTableRecord
  2
隠れ線2
 70
     0
 62
     1
  6
HIDDEN2
370
    -3
390
179F
  0
LAYER
  5
2DB
330
2
100
AcDbSymbolTableRecord
100
AcDbLayerTableRecord
  2
ROGO
 70
     0
 62
     6
  6
CONTINUOUS
370
    -3
390
179F
  0
ENDTAB
  0
TABLE
  2
STYLE
  5
3
330
0
100
AcDbSymbolTable
 70
     7
  0
STYLE
  5
F
330
3
100
AcDbSymbolTableRecord
100
AcDbTextStyleTableRecord
  2
STANDARD
 70
     0
 40
0.0
 41
1.0
 50
0.0
 71
     0
 42
2.5
  3
txt
  4

  0
STYLE
  5
3F
330
3
100
AcDbSymbolTableRecord
100
AcDbTextStyleTableRecord
  2
STYLE3
 70
     0
 40
0.0
 41
1.0
 50
0.0
 71
     0
 42
3.0
  3
romans.shx
  4
bigfont.shx
  0
ENDTAB
  0
TABLE
  2
VIEW
  5
6
330
0
100
AcDbSymbolTable
 70
     0
  0
ENDTAB
  0
TABLE
  2
UCS
  5
7
330
0
100
AcDbSymbolTable
 70
     0
  0
ENDTAB
  0
TABLE
  2
APPID
  5
9
330
0
100
AcDbSymbolTable
 70
     2
  0
APPID
  5
10
330
9
100
AcDbSymbolTableRecord
100
AcDbRegAppTableRecord
  2
ACAD
 70
     0
  0
APPID
  5
17F0
330
9
100
AcDbSymbolTableRecord
100
AcDbRegAppTableRecord
  2
ACAD_PSEXT
 70
     0
  0
ENDTAB
  0
TABLE
  2
DIMSTYLE
  5
A
330
0
100
AcDbSymbolTable
 70
     8
100
AcDbDimStyleTable
 71
     1
340
8F
  0
DIMSTYLE
105
1D
330
A
100
AcDbSymbolTableRecord
100
AcDbDimStyleTableRecord
  2
STANDARD
 70
     0
 41
2.5
 42
0.625
 43
3.75
 44
1.25
 73
     0
 74
     0
 77
     1
 78
     8
140
2.5
141
2.5
143
0.0394
147
0.625
171
     4
172
     1
273
     8
274
     4
277
     6
340
F
  0
DIMSTYLE
105
8F
102
{ACAD_REACTORS
330
FD7
330
FE4
330
108D
330
10D7
330
10F1
330
10FD
330
1114
330
180B
330
183C
330
18D2
330
1906
330
1913
102
}
330
A
100
AcDbSymbolTableRecord
100
AcDbDimStyleTableRecord
  2
STYLE3
 70
     0
 41
2.5
 42
0.0
 43
3.75
 44
1.25
 73
     0
 74
     0
 77
     1
 78
     8
140
2.5
141
2.5
143
0.0394
147
0.625
171
     4
172
     1
173
     1
176
     2
177
     2
178
     6
271
     1
273
     8
274
     4
340
3F
341
45
343
45
344
45
  0
ENDTAB
  0
TABLE
  2
BLOCK_RECORD
  5
1
330
0
100
AcDbSymbolTable
 70
    22
  0
BLOCK_RECORD
  5
18
102
{ACAD_XDICTIONARY
360
17AF
102
}
330
1
100
AcDbSymbolTableRecord
100
AcDbBlockTableRecord
  2
*MODEL_SPACE
340
17A6
  0
BLOCK_RECORD
  5
15
330
1
100
AcDbSymbolTableRecord
100
AcDbBlockTableRecord
  2
*PAPER_SPACE
340
17A7
  0
BLOCK_RECORD
  5
45
330
1
100
AcDbSymbolTableRecord
100
AcDbBlockTableRecord
  2
_OPEN
340
0
102
{BLKREFS
331
FBA
331
FBB
331
FC5
331
FC6
331
1042
331
1043
331
1050
331
1051
331
A19
331
A1A
331
A20
331
A21
331
A27
331
A28
331
A2E
331
A2F
331
A37
331
A38
331
A42
331
A43
331
A48
331
A49
331
A4F
331
A50
331
AEE
331
AEF
331
B00
331
B01
331
B06
331
B07
331
B20
331
B21
331
B28
331
B29
331
BC4
331
BC5
331
BCD
331
BCE
331
C14
331
C15
331
C45
331
C46
331
1722
331
1723
331
1314
331
1315
331
131C
331
131D
331
1327
331
1328
331
1335
331
1336
331
1341
331
1342
331
134A
331
134B
331
1353
331
1354
331
1364
331
1365
331
1384
331
1385
331
138E
331
138F
331
1397
331
1398
331
139F
331
13A0
331
13A7
331
13A8
331
13E4
331
13E5
331
1EE2
331
1EE3
331
1EEB
331
1EEC
331
1EF4
331
1EF5
331
1EFF
331
1F00
331
1F08
331
1F09
331
1F11
331
1F12
331
1F19
331
1F1A
331
1F22
331
1F23
331
1F2D
331
1F2E
331
1F36
331
1F37
331
1F3F
331
1F40
331
1F48
331
1F49
102
}
  0
BLOCK_RECORD
  5
FCB
330
1
100
AcDbSymbolTableRecord
100
AcDbBlockTableRecord
  2
*D5
340
0
  0
BLOCK_RECORD
  5
FD8
330
1
100
AcDbSymbolTableRecord
100
AcDbBlockTableRecord
  2
*D6
340
0
  0
BLOCK_RECORD
  5
1081
330
1
100
AcDbSymbolTableRecord
100
AcDbBlockTableRecord
  2
*D9
340
0
  0
BLOCK_RECORD
  5
10C9
330
1
100
AcDbSymbolTableRecord
100
AcDbBlockTableRecord
  2
*D10
340
0
  0
BLOCK_RECORD
  5
10E5
330
1
100
AcDbSymbolTableRecord
100
AcDbBlockTableRecord
  2
*D11
340
0
  0
BLOCK_RECORD
  5
10F2
330
1
100
AcDbSymbolTableRecord
100
AcDbBlockTableRecord
  2
*D12
340
0
  0
BLOCK_RECORD
  5
1108
330
1
100
AcDbSymbolTableRecord
100
AcDbBlockTableRecord
  2
*D13
340
0
  0
BLOCK_RECORD
  5
180C
330
1
100
AcDbSymbolTableRecord
100
AcDbBlockTableRecord
  2
*D16
340
0
  0
BLOCK_RECORD
  5
183D
330
1
100
AcDbSymbolTableRecord
100
AcDbBlockTableRecord
  2
*D17
340
0
  0
BLOCK_RECORD
  5
18D3
330
1
100
AcDbSymbolTableRecord
100
AcDbBlockTableRecord
  2
*D18
340
0
  0
BLOCK_RECORD
  5
1907
330
1
100
AcDbSymbolTableRecord
100
AcDbBlockTableRecord
  2
*D19
340
0
  0
BLOCK_RECORD
  5
1914
330
1
100
AcDbSymbolTableRecord
100
AcDbBlockTableRecord
  2
*D20
340
0
  0
ENDTAB
  0
ENDSEC
  0
SECTION
  2
BLOCKS
  0
BLOCK
  5
19
330
18
100
AcDbEntity
  8
0
100
AcDbBlockBegin
  2
*MODEL_SPACE
 70
     0
 10
0.0
 20
0.0
 30
0.0
  3
*MODEL_SPACE
  1

  0
ENDBLK
  5
1A
330
18
100
AcDbEntity
  8
0
100
AcDbBlockEnd
  0
BLOCK
  5
16
330
15
100
AcDbEntity
 67
     1
  8
0
100
AcDbBlockBegin
  2
*PAPER_SPACE
 70
     0
 10
0.0
 20
0.0
 30
0.0
  3
*PAPER_SPACE
  1

  0
ENDBLK
  5
17
330
15
100
AcDbEntity
 67
     1
  8
0
100
AcDbBlockEnd
  0
BLOCK
  5
46
330
45
100
AcDbEntity
  8
0
100
AcDbBlockBegin
  2
_OPEN
 70
     0
 10
0.0
 20
0.0
 30
0.0
  3
_OPEN
  1

  0
LINE
  5
47
330
45
100
AcDbEntity
  8
0
  6
ByBlock
 62
     0
100
AcDbLine
 10
-1.0
 20
0.1666666666666666
 30
0.0
 11
0.0
 21
0.0
 31
0.0
  0
LINE
  5
48
330
45
100
AcDbEntity
  8
0
  6
ByBlock
 62
     0
100
AcDbLine
 10
0.0
 20
0.0
 30
0.0
 11
-1.0
 21
-0.1666666666666666
 31
0.0
  0
LINE
  5
49
330
45
100
AcDbEntity
  8
0
  6
ByBlock
 62
     0
100
AcDbLine
 10
0.0
 20
0.0
 30
0.0
 11
-1.0
 21
0.0
 31
0.0
  0
ENDBLK
  5
4A
330
45
100
AcDbEntity
  8
0
100
AcDbBlockEnd
  0
BLOCK
  5
FCC
330
FCB
100
AcDbEntity
  8
0
100
AcDbBlockBegin
  2
*D5
 70
     1
 10
0.0
 20
0.0
 30
0.0
  3
*D5
  1

  0
LINE
  5
1F45
330
FCB
100
AcDbEntity
  8
外形線
 62
     2
370
    -2
100
AcDbLine
 10
54.66918433226104
 20
159.8237823138437
 30
0.0
 11
54.66918433226104
 21
166.303420718254
 31
0.0
  0
LINE
  5
1F46
330
FCB
100
AcDbEntity
  8
外形線
 62
     2
370
    -2
100
AcDbLine
 10
75.36918433226105
 20
159.8237823138437
 30
0.0
 11
75.36918433226105
 21
166.303420718254
 31
0.0
  0
LINE
  5
1F47
330
FCB
100
AcDbEntity
  8
外形線
 62
     2
370
    -2
100
AcDbLine
 10
57.16918433226104
 20
165.053420718254
 30
0.0
 11
72.86918433226105
 21
165.053420718254
 31
0.0
  0
INSERT
  5
1F48
330
FCB
100
AcDbEntity
  8
外形線
 62
     2
370
    -2
100
AcDbBlockReference
  2
_OPEN
 10
54.66918433226104
 20
165.053420718254
 30
0.0
 41
2.5
 42
2.5
 43
2.5
 50
180.0
  0
INSERT
  5
1F49
330
FCB
100
AcDbEntity
  8
外形線
 62
     2
370
    -2
100
AcDbBlockReference
  2
_OPEN
 10
75.36918433226105
 20
165.053420718254
 30
0.0
 41
2.5
 42
2.5
 43
2.5
  0
MTEXT
  5
1F4A
330
FCB
100
AcDbEntity
  8
外形線
 62
     6
100
AcDbMText
 10
65.01918433226105
 20
166.928420718254
 30
0.0
 40
2.5
 41
0.0
 71
     5
 72
     1
  1
\A1;20.7
  7
STYLE3
 73
     1
 44
1.0
  0
POINT
  5
1F4B
330
FCB
100
AcDbEntity
  8
DEFPOINTS
 62
     0
100
AcDbPoint
 10
54.66918433226104
 20
159.8237823138437
 30
0.0
  0
POINT
  5
1F4C
330
FCB
100
AcDbEntity
  8
DEFPOINTS
 62
     0
100
AcDbPoint
 10
75.36918433226105
 20
159.8237823138437
 30
0.0
  0
POINT
  5
1F4D
330
FCB
100
AcDbEntity
  8
DEFPOINTS
 62
     0
100
AcDbPoint
 10
75.36918433226105
 20
165.053420718254
 30
0.0
  0
ENDBLK
  5
FD6
330
FCB
100
AcDbEntity
  8
0
100
AcDbBlockEnd
  0
BLOCK
  5
16FE
330
FD8
100
AcDbEntity
  8
0
100
AcDbBlockBegin
  2
*D6
 70
     1
 10
0.0
 20
0.0
 30
0.0
  3
*D6
  1

  0
LINE
  5
1F3C
330
FD8
100
AcDbEntity
  8
外形線
 62
     2
370
    -2
100
AcDbLine
 10
71.16918433226089
 20
146.2917316542353
 30
0.0
 11
91.71546187442677
 21
146.2917316542353
 31
0.0
  0
LINE
  5
1F3D
330
FD8
100
AcDbEntity
  8
外形線
 62
     2
370
    -2
100
AcDbLine
 10
71.16918433226089
 20
93.49173165423534
 30
0.0
 11
91.71546187442675
 21
93.49173165423534
 31
0.0
  0
LINE
  5
1F3E
330
FD8
100
AcDbEntity
  8
外形線
 62
     2
370
    -2
100
AcDbLine
 10
90.46546187442677
 20
143.7917316542353
 30
0.0
 11
90.46546187442675
 21
95.99173165423534
 31
0.0
  0
INSERT
  5
1F3F
330
FD8
100
AcDbEntity
  8
外形線
 62
     2
370
    -2
100
AcDbBlockReference
  2
_OPEN
 10
90.46546187442677
 20
146.2917316542353
 30
0.0
 41
2.5
 42
2.5
 43
2.5
 50
90.0
  0
INSERT
  5
1F40
330
FD8
100
AcDbEntity
  8
外形線
 62
     2
370
    -2
100
AcDbBlockReference
  2
_OPEN
 10
90.46546187442675
 20
93.49173165423534
 30
0.0
 41
2.5
 42
2.5
 43
2.5
 50
270.0
  0
MTEXT
  5
1F41
330
FD8
100
AcDbEntity
  8
外形線
 62
     6
100
AcDbMText
 10
88.59046187442675
 20
119.8917316542353
 30
0.0
 40
2.5
 41
0.0
 71
     5
 72
     1
  1
\A1;φ53
  7
STYLE3
 11
0.0000000000000001
 21
1.0
 31
0.0
 73
     1
 44
1.0
  0
POINT
  5
1F42
330
FD8
100
AcDbEntity
  8
DEFPOINTS
 62
     0
100
AcDbPoint
 10
71.16918433226089
 20
146.2917316542353
 30
0.0
  0
POINT
  5
1F43
330
FD8
100
AcDbEntity
  8
DEFPOINTS
 62
     0
100
AcDbPoint
 10
71.16918433226089
 20
93.49173165423534
 30
0.0
  0
POINT
  5
1F44
330
FD8
100
AcDbEntity
  8
DEFPOINTS
 62
     0
100
AcDbPoint
 10
90.46546187442675
 20
93.49173165423534
 30
0.0
  0
ENDBLK
  5
1708
330
FD8
100
AcDbEntity
  8
0
100
AcDbBlockEnd
  0
BLOCK
  5
1082
330
1081
100
AcDbEntity
  8
0
100
AcDbBlockBegin
  2
*D9
 70
     1
 10
0.0
 20
0.0
 30
0.0
  3
*D9
  1

  0
LINE
  5
1F33
330
1081
100
AcDbEntity
  8
外形線
 62
     2
370
    -2
100
AcDbLine
 10
41.71689726218335
 20
150.2624801968786
 30
0.0
 11
34.3691209692154
 21
150.2624801968786
 31
0.0
  0
LINE
  5
1F34
330
1081
100
AcDbEntity
  8
外形線
 62
     2
370
    -2
100
AcDbLine
 10
41.71689726218335
 20
55.26248019687863
 30
0.0
 11
34.36912096921537
 21
55.26248019687863
 31
0.0
  0
LINE
  5
1F35
330
1081
100
AcDbEntity
  8
外形線
 62
     2
370
    -2
100
AcDbLine
 10
35.6191209692154
 20
147.7624801968786
 30
0.0
 11
35.61912096921537
 21
57.76248019687863
 31
0.0
  0
INSERT
  5
1F36
330
1081
100
AcDbEntity
  8
外形線
 62
     2
370
    -2
100
AcDbBlockReference
  2
_OPEN
 10
35.6191209692154
 20
150.2624801968786
 30
0.0
 41
2.5
 42
2.5
 43
2.5
 50
90.0
  0
INSERT
  5
1F37
330
1081
100
AcDbEntity
  8
外形線
 62
     2
370
    -2
100
AcDbBlockReference
  2
_OPEN
 10
35.61912096921537
 20
55.26248019687863
 30
0.0
 41
2.5
 42
2.5
 43
2.5
 50
270.0
  0
MTEXT
  5
1F38
330
1081
100
AcDbEntity
  8
外形線
 62
     6
100
AcDbMText
 10
33.74412096921537
 20
102.7624801968786
 30
0.0
 40
2.5
 41
0.0
 71
     5
 72
     1
  1
\A1;95
  7
STYLE3
 11
0.0000000000000001
 21
1.0
 31
0.0
 73
     1
 44
1.0
  0
POINT
  5
1F39
330
1081
100
AcDbEntity
  8
DEFPOINTS
 62
     0
100
AcDbPoint
 10
41.71689726218335
 20
150.2624801968786
 30
0.0
  0
POINT
  5
1F3A
330
1081
100
AcDbEntity
  8
DEFPOINTS
 62
     0
100
AcDbPoint
 10
41.71689726218335
 20
55.26248019687863
 30
0.0
  0
POINT
  5
1F3B
330
1081
100
AcDbEntity
  8
DEFPOINTS
 62
     0
100
AcDbPoint
 10
35.61912096921537
 20
55.26248019687863
 30
0.0
  0
ENDBLK
  5
108C
330
1081
100
AcDbEntity
  8
0
100
AcDbBlockEnd
  0
BLOCK
  5
10D8
330
10C9
100
AcDbEntity
  8
0
100
AcDbBlockBegin
  2
*D10
 70
     1
 10
0.0
 20
0.0
 30
0.0
  3
*D10
  1

  0
LINE
  5
1F28
330
10C9
100
AcDbEntity
  8
外形線
 62
     2
370
    -2
100
AcDbLine
 10
155.2176719812159
 20
82.26248019687863
 30
0.0
 11
155.2176719812159
 21
73.43806418846856
 31
0.0
  0
LINE
  5
1F29
330
10C9
100
AcDbEntity
  8
外形線
 62
     2
370
    -2
100
AcDbLine
 10
159.2176719812159
 20
82.26248019687863
 30
0.0
 11
159.2176719812159
 21
73.43806418846856
 31
0.0
  0
LINE
  5
1F2A
330
10C9
100
AcDbEntity
  8
外形線
 62
     2
370
    -2
100
AcDbLine
 10
152.7176719812159
 20
74.68806418846856
 30
0.0
 11
150.217671981216
 21
74.68806418846856
 31
0.0
  0
LINE
  5
1F2B
330
10C9
100
AcDbEntity
  8
外形線
 62
     2
370
    -2
100
AcDbLine
 10
161.717671981216
 20
74.68806418846856
 30
0.0
 11
170.1105291240731
 21
74.68806418846856
 31
0.0
  0
LINE
  5
1F2C
330
10C9
100
AcDbEntity
  8
外形線
 62
     2
370
    -2
100
AcDbLine
 10
155.2176719812159
 20
74.68806418846856
 30
0.0
 11
159.2176719812159
 21
74.68806418846856
 31
0.0
  0
INSERT
  5
1F2D
330
10C9
100
AcDbEntity
  8
外形線
 62
     2
370
    -2
100
AcDbBlockReference
  2
_OPEN
 10
155.2176719812159
 20
74.68806418846856
 30
0.0
 41
2.5
 42
2.5
 43
2.5
  0
INSERT
  5
1F2E
330
10C9
100
AcDbEntity
  8
外形線
 62
     2
370
    -2
100
AcDbBlockReference
  2
_OPEN
 10
159.2176719812159
 20
74.68806418846856
 30
0.0
 41
2.5
 42
2.5
 43
2.5
 50
180.0
  0
MTEXT
  5
1F2F
330
10C9
100
AcDbEntity
  8
外形線
 62
     6
100
AcDbMText
 10
167.1641005526445
 20
76.56306418846856
 30
0.0
 40
2.5
 41
0.0
 71
     5
 72
     1
  1
\A1;φ4
  7
STYLE3
 73
     1
 44
1.0
  0
POINT
  5
1F30
330
10C9
100
AcDbEntity
  8
DEFPOINTS
 62
     0
100
AcDbPoint
 10
155.2176719812159
 20
82.26248019687863
 30
0.0
  0
POINT
  5
1F31
330
10C9
100
AcDbEntity
  8
DEFPOINTS
 62
     0
100
AcDbPoint
 10
159.2176719812159
 20
82.26248019687863
 30
0.0
  0
POINT
  5
1F32
330
10C9
100
AcDbEntity
  8
DEFPOINTS
 62
     0
100
AcDbPoint
 10
159.2176719812159
 20
74.68806418846856
 30
0.0
  0
ENDBLK
  5
10E4
330
10C9
100
AcDbEntity
  8
0
100
AcDbBlockEnd
  0
BLOCK
  5
10E6
330
10E5
100
AcDbEntity
  8
0
100
AcDbBlockBegin
  2
*D11
 70
     1
 10
0.0
 20
0.0
 30
0.0
  3
*D11
  1

  0
LINE
  5
1F1F
330
10E5
100
AcDbEntity
  8
外形線
 62
     2
370
    -2
100
AcDbLine
 10
157.2176719812159
 20
58.77009505680547
 30
0.0
 11
157.2176719812159
 21
43.49987195811416
 31
0.0
  0
LINE
  5
1F20
330
10E5
100
AcDbEntity
  8
外形線
 62
     2
370
    -2
100
AcDbLine
 10
187.2176719812159
 20
55.63322873952198
 30
0.0
 11
187.2176719812159
 21
43.49987195811416
 31
0.0
  0
LINE
  5
1F21
330
10E5
100
AcDbEntity
  8
外形線
 62
     2
370
    -2
100
AcDbLine
 10
159.7176719812159
 20
44.74987195811416
 30
0.0
 11
184.717671981216
 21
44.74987195811416
 31
0.0
  0
INSERT
  5
1F22
330
10E5
100
AcDbEntity
  8
外形線
 62
     2
370
    -2
100
AcDbBlockReference
  2
_OPEN
 10
157.2176719812159
 20
44.74987195811416
 30
0.0
 41
2.5
 42
2.5
 43
2.5
 50
180.0
  0
INSERT
  5
1F23
330
10E5
100
AcDbEntity
  8
外形線
 62
     2
370
    -2
100
AcDbBlockReference
  2
_OPEN
 10
187.2176719812159
 20
44.74987195811416
 30
0.0
 41
2.5
 42
2.5
 43
2.5
  0
MTEXT
  5
1F24
330
10E5
100
AcDbEntity
  8
外形線
 62
     6
100
AcDbMText
 10
172.2176719812159
 20
46.62487195811416
 30
0.0
 40
2.5
 41
0.0
 71
     5
 72
     1
  1
\A1;30
  7
STYLE3
 73
     1
 44
1.0
  0
POINT
  5
1F25
330
10E5
100
AcDbEntity
  8
DEFPOINTS
 62
     0
100
AcDbPoint
 10
157.2176719812159
 20
58.77009505680547
 30
0.0
  0
POINT
  5
1F26
330
10E5
100
AcDbEntity
  8
DEFPOINTS
 62
     0
100
AcDbPoint
 10
187.2176719812159
 20
55.63322873952198
 30
0.0
  0
POINT
  5
1F27
330
10E5
100
AcDbEntity
  8
DEFPOINTS
 62
     0
100
AcDbPoint
 10
187.2176719812159
 20
44.74987195811416
 30
0.0
  0
ENDBLK
  5
10F0
330
10E5
100
AcDbEntity
  8
0
100
AcDbBlockEnd
  0
BLOCK
  5
10F3
330
10F2
100
AcDbEntity
  8
0
100
AcDbBlockBegin
  2
*D12
 70
     1
 10
0.0
 20
0.0
 30
0.0
  3
*D12
  1

  0
LINE
  5
1F17
330
10F2
100
AcDbEntity
  8
外形線
 62
     2
370
    -2
100
AcDbLine
 10
205.217671981216
 20
55.63322873952198
 30
0.0
 11
205.217671981216
 21
43.49987195811416
 31
0.0
  0
LINE
  5
1F18
330
10F2
100
AcDbEntity
  8
外形線
 62
     2
370
    -2
100
AcDbLine
 10
189.717671981216
 20
44.74987195811416
 30
0.0
 11
202.717671981216
 21
44.74987195811416
 31
0.0
  0
INSERT
  5
1F19
330
10F2
100
AcDbEntity
  8
外形線
 62
     2
370
    -2
100
AcDbBlockReference
  2
_OPEN
 10
187.2176719812159
 20
44.74987195811416
 30
0.0
 41
2.5
 42
2.5
 43
2.5
 50
180.0
  0
INSERT
  5
1F1A
330
10F2
100
AcDbEntity
  8
外形線
 62
     2
370
    -2
100
AcDbBlockReference
  2
_OPEN
 10
205.217671981216
 20
44.74987195811416
 30
0.0
 41
2.5
 42
2.5
 43
2.5
  0
MTEXT
  5
1F1B
330
10F2
100
AcDbEntity
  8
外形線
 62
     6
100
AcDbMText
 10
196.2176719812159
 20
46.62487195811416
 30
0.0
 40
2.5
 41
0.0
 71
     5
 72
     1
  1
\A1;18
  7
STYLE3
 73
     1
 44
1.0
  0
POINT
  5
1F1C
330
10F2
100
AcDbEntity
  8
DEFPOINTS
 62
     0
100
AcDbPoint
 10
187.2176719812159
 20
55.63322873952198
 30
0.0
  0
POINT
  5
1F1D
330
10F2
100
AcDbEntity
  8
DEFPOINTS
 62
     0
100
AcDbPoint
 10
205.217671981216
 20
55.63322873952198
 30
0.0
  0
POINT
  5
1F1E
330
10F2
100
AcDbEntity
  8
DEFPOINTS
 62
     0
100
AcDbPoint
 10
205.217671981216
 20
44.74987195811416
 30
0.0
  0
ENDBLK
  5
10FC
330
10F2
100
AcDbEntity
  8
0
100
AcDbBlockEnd
  0
BLOCK
  5
1109
330
1108
100
AcDbEntity
  8
0
100
AcDbBlockBegin
  2
*D13
 70
     1
 10
0.0
 20
0.0
 30
0.0
  3
*D13
  1

  0
LINE
  5
1F0E
330
1108
100
AcDbEntity
  8
外形線
 62
     2
370
    -2
100
AcDbLine
 10
155.2176719812159
 20
70.26248019687864
 30
0.0
 11
145.1817717127178
 21
70.26248019687864
 31
0.0
  0
LINE
  5
1F0F
330
1108
100
AcDbEntity
  8
外形線
 62
     2
370
    -2
100
AcDbLine
 10
156.217671981216
 20
61.26248019687864
 30
0.0
 11
145.1817717127178
 21
61.26248019687864
 31
0.0
  0
LINE
  5
1F10
330
1108
100
AcDbEntity
  8
外形線
 62
     2
370
    -2
100
AcDbLine
 10
146.4317717127178
 20
67.76248019687864
 30
0.0
 11
146.4317717127178
 21
63.76248019687864
 31
0.0
  0
INSERT
  5
1F11
330
1108
100
AcDbEntity
  8
外形線
 62
     2
370
    -2
100
AcDbBlockReference
  2
_OPEN
 10
146.4317717127178
 20
70.26248019687864
 30
0.0
 41
2.5
 42
2.5
 43
2.5
 50
90.0
  0
INSERT
  5
1F12
330
1108
100
AcDbEntity
  8
外形線
 62
     2
370
    -2
100
AcDbBlockReference
  2
_OPEN
 10
146.4317717127178
 20
61.26248019687864
 30
0.0
 41
2.5
 42
2.5
 43
2.5
 50
270.0
  0
MTEXT
  5
1F13
330
1108
100
AcDbEntity
  8
外形線
 62
     6
100
AcDbMText
 10
144.5567717127178
 20
65.76248019687866
 30
0.0
 40
2.5
 41
0.0
 71
     5
 72
     1
  1
\A1;9
  7
STYLE3
 11
0.0000000000000001
 21
1.0
 31
0.0
 73
     1
 44
1.0
  0
POINT
  5
1F14
330
1108
100
AcDbEntity
  8
DEFPOINTS
 62
     0
100
AcDbPoint
 10
155.2176719812159
 20
70.26248019687864
 30
0.0
  0
POINT
  5
1F15
330
1108
100
AcDbEntity
  8
DEFPOINTS
 62
     0
100
AcDbPoint
 10
156.217671981216
 20
61.26248019687864
 30
0.0
  0
POINT
  5
1F16
330
1108
100
AcDbEntity
  8
DEFPOINTS
 62
     0
100
AcDbPoint
 10
146.4317717127178
 20
61.26248019687864
 30
0.0
  0
ENDBLK
  5
1113
330
1108
100
AcDbEntity
  8
0
100
AcDbBlockEnd
  0
BLOCK
  5
1816
330
180C
100
AcDbEntity
  8
0
100
AcDbBlockBegin
  2
*D16
 70
     1
 10
0.0
 20
0.0
 30
0.0
  3
*D16
  1

  0
LINE
  5
1F05
330
180C
100
AcDbEntity
  8
寸法線
 62
     2
370
    -2
100
AcDbLine
 10
157.2176719812159
 20
58.77009505680547
 30
0.0
 11
157.2176719812159
 21
50.52425716964819
 31
0.0
  0
LINE
  5
1F06
330
180C
100
AcDbEntity
  8
寸法線
 62
     2
370
    -2
100
AcDbLine
 10
168.2176719812159
 20
59.28248019687863
 30
0.0
 11
168.2176719812159
 21
50.52425716964819
 31
0.0
  0
LINE
  5
1F07
330
180C
100
AcDbEntity
  8
寸法線
 62
     2
370
    -2
100
AcDbLine
 10
159.7176719812159
 20
51.77425716964819
 30
0.0
 11
165.7176719812159
 21
51.77425716964819
 31
0.0
  0
INSERT
  5
1F08
330
180C
100
AcDbEntity
  8
寸法線
 62
     2
370
    -2
100
AcDbBlockReference
  2
_OPEN
 10
157.2176719812159
 20
51.77425716964819
 30
0.0
 41
2.5
 42
2.5
 43
2.5
 50
180.0
  0
INSERT
  5
1F09
330
180C
100
AcDbEntity
  8
寸法線
 62
     2
370
    -2
100
AcDbBlockReference
  2
_OPEN
 10
168.2176719812159
 20
51.77425716964819
 30
0.0
 41
2.5
 42
2.5
 43
2.5
  0
MTEXT
  5
1F0A
330
180C
100
AcDbEntity
  8
寸法線
 62
     6
100
AcDbMText
 10
162.7176719812159
 20
53.64925716964819
 30
0.0
 40
2.5
 41
0.0
 71
     5
 72
     1
  1
\A1;11
  7
STYLE3
 73
     1
 44
1.0
  0
POINT
  5
1F0B
330
180C
100
AcDbEntity
  8
DEFPOINTS
 62
     0
100
AcDbPoint
 10
157.2176719812159
 20
58.77009505680547
 30
0.0
  0
POINT
  5
1F0C
330
180C
100
AcDbEntity
  8
DEFPOINTS
 62
     0
100
AcDbPoint
 10
168.2176719812159
 20
59.28248019687863
 30
0.0
  0
POINT
  5
1F0D
330
180C
100
AcDbEntity
  8
DEFPOINTS
 62
     0
100
AcDbPoint
 10
168.2176719812159
 20
51.77425716964819
 30
0.0
  0
ENDBLK
  5
1817
330
180C
100
AcDbEntity
  8
0
100
AcDbBlockEnd
  0
BLOCK
  5
1849
330
183D
100
AcDbEntity
  8
0
100
AcDbBlockBegin
  2
*D17
 70
     1
 10
0.0
 20
0.0
 30
0.0
  3
*D17
  1

  0
LINE
  5
1EFA
330
183D
100
AcDbEntity
  8
寸法線
 62
     2
370
    -2
100
AcDbLine
 10
59.86918433226112
 20
60.8917316542353
 30
0.0
 11
63.31038340705238
 21
68.27140688497627
 31
0.0
  0
LINE
  5
1EFB
330
183D
100
AcDbEntity
  8
寸法線
 62
     2
370
    -2
100
AcDbLine
 10
61.869184332261
 20
60.8917316542353
 30
0.0
 11
65.31038340705227
 21
68.27140688497627
 31
0.0
  0
LINE
  5
1EFC
330
183D
100
AcDbEntity
  8
寸法線
 62
     2
370
    -2
100
AcDbLine
 10
60.22749883435864
 20
67.02140688497627
 30
0.0
 11
57.72749883435864
 21
67.02140688497627
 31
0.0
  0
LINE
  5
1EFD
330
183D
100
AcDbEntity
  8
寸法線
 62
     2
370
    -2
100
AcDbLine
 10
67.22749883435852
 20
67.02140688497627
 30
0.0
 11
76.19920511961258
 21
67.02140688497627
 31
0.0
  0
LINE
  5
1EFE
330
183D
100
AcDbEntity
  8
寸法線
 62
     2
370
    -2
100
AcDbLine
 10
62.72749883435864
 20
67.02140688497627
 30
0.0
 11
64.72749883435852
 21
67.02140688497627
 31
0.0
  0
INSERT
  5
1EFF
330
183D
100
AcDbEntity
  8
寸法線
 62
     2
370
    -2
100
AcDbBlockReference
  2
_OPEN
 10
62.72749883435864
 20
67.02140688497627
 30
0.0
 41
2.5
 42
2.5
 43
2.5
  0
INSERT
  5
1F00
330
183D
100
AcDbEntity
  8
寸法線
 62
     2
370
    -2
100
AcDbBlockReference
  2
_OPEN
 10
64.72749883435852
 20
67.02140688497627
 30
0.0
 41
2.5
 42
2.5
 43
2.5
 50
180.0
  0
MTEXT
  5
1F01
330
183D
100
AcDbEntity
  8
寸法線
 62
     6
100
AcDbMText
 10
73.60991940532686
 20
68.89640688497627
 30
0.0
 40
2.5
 41
0.0
 71
     5
 72
     1
  1
\A1;%%C2
  7
STYLE3
 73
     1
 44
1.0
  0
POINT
  5
1F02
330
183D
100
AcDbEntity
  8
DEFPOINTS
 62
     0
100
AcDbPoint
 10
59.86918433226112
 20
60.8917316542353
 30
0.0
  0
POINT
  5
1F03
330
183D
100
AcDbEntity
  8
DEFPOINTS
 62
     0
100
AcDbPoint
 10
61.869184332261
 20
60.8917316542353
 30
0.0
  0
POINT
  5
1F04
330
183D
100
AcDbEntity
  8
DEFPOINTS
 62
     0
100
AcDbPoint
 10
64.72749883435852
 20
67.02140688497627
 30
0.0
  0
ENDBLK
  5
184A
330
183D
100
AcDbEntity
  8
0
100
AcDbBlockEnd
  0
BLOCK
  5
18DD
330
18D3
100
AcDbEntity
  8
0
100
AcDbBlockBegin
  2
*D18
 70
     1
 10
0.0
 20
0.0
 30
0.0
  3
*D18
  1

  0
LINE
  5
1EF1
330
18D3
100
AcDbEntity
  8
寸法線
 62
     2
370
    -2
100
AcDbLine
 10
129.1315889811789
 20
82.26248019687865
 30
0.0
 11
127.8815889811788
 21
82.26248019687865
 31
0.0
  0
LINE
  5
1EF2
330
18D3
100
AcDbEntity
  8
寸法線
 62
     2
370
    -2
100
AcDbLine
 10
129.1315889811789
 20
120.2624801968786
 30
0.0
 11
127.8815889811788
 21
120.2624801968786
 31
0.0
  0
LINE
  5
1EF3
330
18D3
100
AcDbEntity
  8
寸法線
 62
     2
370
    -2
100
AcDbLine
 10
129.1315889811789
 20
84.76248019687865
 30
0.0
 11
129.1315889811789
 21
117.7624801968786
 31
0.0
  0
INSERT
  5
1EF4
330
18D3
100
AcDbEntity
  8
寸法線
 62
     2
370
    -2
100
AcDbBlockReference
  2
_OPEN
 10
129.1315889811789
 20
82.26248019687865
 30
0.0
 41
2.5
 42
2.5
 43
2.5
 50
270.0
  0
INSERT
  5
1EF5
330
18D3
100
AcDbEntity
  8
寸法線
 62
     2
370
    -2
100
AcDbBlockReference
  2
_OPEN
 10
129.1315889811789
 20
120.2624801968786
 30
0.0
 41
2.5
 42
2.5
 43
2.5
 50
90.0
  0
MTEXT
  5
1EF6
330
18D3
100
AcDbEntity
  8
寸法線
 62
     6
100
AcDbMText
 10
127.2565889811788
 20
101.2624801968786
 30
0.0
 40
2.5
 41
0.0
 71
     5
 72
     1
  1
\A1;38
  7
STYLE3
 11
0.0000000000000001
 21
1.0
 31
0.0
 73
     1
 44
1.0
  0
POINT
  5
1EF7
330
18D3
100
AcDbEntity
  8
DEFPOINTS
 62
     0
100
AcDbPoint
 10
129.1315889811789
 20
82.26248019687865
 30
0.0
  0
POINT
  5
1EF8
330
18D3
100
AcDbEntity
  8
DEFPOINTS
 62
     0
100
AcDbPoint
 10
129.1315889811789
 20
120.2624801968786
 30
0.0
  0
POINT
  5
1EF9
330
18D3
100
AcDbEntity
  8
DEFPOINTS
 62
     0
100
AcDbPoint
 10
129.1315889811789
 20
120.2624801968786
 30
0.0
  0
ENDBLK
  5
18DE
330
18D3
100
AcDbEntity
  8
0
100
AcDbBlockEnd
  0
BLOCK
  5
1911
330
1907
100
AcDbEntity
  8
0
100
AcDbBlockBegin
  2
*D19
 70
     1
 10
0.0
 20
0.0
 30
0.0
  3
*D19
  1

  0
LINE
  5
1EE8
330
1907
100
AcDbEntity
  8
寸法線
 62
     2
370
    -2
100
AcDbLine
 10
126.2430638898437
 20
120.2624801968786
 30
0.0
 11
120.6899071730127
 21
120.2624801968786
 31
0.0
  0
LINE
  5
1EE9
330
1907
100
AcDbEntity
  8
寸法線
 62
     2
370
    -2
100
AcDbLine
 10
152.2623862131804
 20
60.26248019687863
 30
0.0
 11
120.6899071730126
 21
60.26248019687864
 31
0.0
  0
LINE
  5
1EEA
330
1907
100
AcDbEntity
  8
寸法線
 62
     2
370
    -2
100
AcDbLine
 10
121.9399071730127
 20
117.7624801968786
 30
0.0
 11
121.9399071730126
 21
62.76248019687864
 31
0.0
  0
INSERT
  5
1EEB
330
1907
100
AcDbEntity
  8
寸法線
 62
     2
370
    -2
100
AcDbBlockReference
  2
_OPEN
 10
121.9399071730127
 20
120.2624801968786
 30
0.0
 41
2.5
 42
2.5
 43
2.5
 50
90.0
  0
INSERT
  5
1EEC
330
1907
100
AcDbEntity
  8
寸法線
 62
     2
370
    -2
100
AcDbBlockReference
  2
_OPEN
 10
121.9399071730126
 20
60.26248019687864
 30
0.0
 41
2.5
 42
2.5
 43
2.5
 50
270.0
  0
MTEXT
  5
1EED
330
1907
100
AcDbEntity
  8
寸法線
 62
     6
100
AcDbMText
 10
120.0649071730126
 20
90.26248019687866
 30
0.0
 40
2.5
 41
0.0
 71
     5
 72
     1
  1
\A1;60
  7
STYLE3
 11
0.0000000000000001
 21
1.0
 31
0.0
 73
     1
 44
1.0
  0
POINT
  5
1EEE
330
1907
100
AcDbEntity
  8
DEFPOINTS
 62
     0
100
AcDbPoint
 10
126.2430638898437
 20
120.2624801968786
 30
0.0
  0
POINT
  5
1EEF
330
1907
100
AcDbEntity
  8
DEFPOINTS
 62
     0
100
AcDbPoint
 10
152.2623862131804
 20
60.26248019687863
 30
0.0
  0
POINT
  5
1EF0
330
1907
100
AcDbEntity
  8
DEFPOINTS
 62
     0
100
AcDbPoint
 10
121.9399071730126
 20
60.26248019687864
 30
0.0
  0
ENDBLK
  5
1912
330
1907
100
AcDbEntity
  8
0
100
AcDbBlockEnd
  0
BLOCK
  5
191E
330
1914
100
AcDbEntity
  8
0
100
AcDbBlockBegin
  2
*D20
 70
     1
 10
0.0
 20
0.0
 30
0.0
  3
*D20
  1

  0
LINE
  5
1EDF
330
1914
100
AcDbEntity
  8
寸法線
 62
     2
370
    -2
100
AcDbLine
 10
137.5896606000026
 20
82.26248019687865
 30
0.0
 11
127.8815889811789
 21
82.26248019687865
 31
0.0
  0
LINE
  5
1EE0
330
1914
100
AcDbEntity
  8
寸法線
 62
     2
370
    -2
100
AcDbLine
 10
135.9844064592778
 20
60.26248019687864
 30
0.0
 11
127.8815889811789
 21
60.26248019687864
 31
0.0
  0
LINE
  5
1EE1
330
1914
100
AcDbEntity
  8
寸法線
 62
     2
370
    -2
100
AcDbLine
 10
129.1315889811789
 20
79.76248019687865
 30
0.0
 11
129.1315889811789
 21
62.76248019687864
 31
0.0
  0
INSERT
  5
1EE2
330
1914
100
AcDbEntity
  8
寸法線
 62
     2
370
    -2
100
AcDbBlockReference
  2
_OPEN
 10
129.1315889811789
 20
82.26248019687865
 30
0.0
 41
2.5
 42
2.5
 43
2.5
 50
90.0
  0
INSERT
  5
1EE3
330
1914
100
AcDbEntity
  8
寸法線
 62
     2
370
    -2
100
AcDbBlockReference
  2
_OPEN
 10
129.1315889811789
 20
60.26248019687864
 30
0.0
 41
2.5
 42
2.5
 43
2.5
 50
270.0
  0
MTEXT
  5
1EE4
330
1914
100
AcDbEntity
  8
寸法線
 62
     6
100
AcDbMText
 10
127.2565889811789
 20
71.26248019687865
 30
0.0
 40
2.5
 41
0.0
 71
     5
 72
     1
  1
\A1;22
  7
STYLE3
 11
0.0000000000000001
 21
1.0
 31
0.0
 73
     1
 44
1.0
  0
POINT
  5
1EE5
330
1914
100
AcDbEntity
  8
DEFPOINTS
 62
     0
100
AcDbPoint
 10
137.5896606000026
 20
82.26248019687865
 30
0.0
  0
POINT
  5
1EE6
330
1914
100
AcDbEntity
  8
DEFPOINTS
 62
     0
100
AcDbPoint
 10
135.9844064592778
 20
60.26248019687864
 30
0.0
  0
POINT
  5
1EE7
330
1914
100
AcDbEntity
  8
DEFPOINTS
 62
     0
100
AcDbPoint
 10
129.1315889811789
 20
60.26248019687864
 30
0.0
  0
ENDBLK
  5
191F
330
1914
100
AcDbEntity
  8
0
100
AcDbBlockEnd
  0
ENDSEC
  0
SECTION
  2
ENTITIES
  0
LWPOLYLINE
  5
26C
330
18
100
AcDbEntity
  8
C
100
AcDbPolyline
 90
        5
 70
     0
 43
0.4
 10
0.0
 20
195.0
 10
255.0
 20
195.0
 10
255.0
 20
0.0
 10
0.0
 20
0.0
 10
0.0
 20
195.0
  0
LINE
  5
2BC
330
18
100
AcDbEntity
  8
中心線
100
AcDbLine
 10
157.2176719812159
 20
153.7256686745317
 30
0.0
 11
157.2176719812159
 21
59.8917316542353
 31
0.0
  0
ARC
  5
2C0
330
18
100
AcDbEntity
  8
外形線
100
AcDbCircle
 10
195.2176719812159
 20
123.2624801968786
 30
0.0
 40
17.0
100
AcDbArc
 50
43.26861285514529
 51
138.4388729920045
  0
ARC
  5
2C1
330
18
100
AcDbEntity
  8
外形線
100
AcDbCircle
 10
195.2176719812159
 20
123.2624801968786
 30
0.0
 40
22.0
100
AcDbArc
 50
41.62657552834385
 51
127.0702994448849
  0
ARC
  5
2C2
330
18
100
AcDbEntity
  8
外形線
100
AcDbCircle
 10
177.1338381463128
 20
147.1993754389857
 30
0.0
 40
8.0
100
AcDbArc
 50
257.6192697195054
 51
307.070299444885
  0
ARC
  5
2C3
330
18
100
AcDbEntity
  8
外形線
100
AcDbCircle
 10
186.9869399457372
 20
130.5600859796093
 30
0.0
 40
6.0
100
AcDbArc
 50
138.4388729920045
 51
170.2957181014356
  0
ARC
  5
2C6
330
18
100
AcDbEntity
  8
外形線
100
AcDbCircle
 10
181.4176719812159
 20
120.2624801968786
 30
0.0
 40
35.0
100
AcDbArc
 50
322.0622556603278
 51
30.21573688299503
  0
ARC
  5
2C7
330
18
100
AcDbEntity
  8
外形線
100
AcDbCircle
 10
193.8338399886456
 20
108.335071951626
 30
0.0
 40
13.0
100
AcDbArc
 50
179.4321910555126
 51
330.5520423319884
  0
ARC
  5
2C8
330
18
100
AcDbEntity
  8
外形線
100
AcDbCircle
 10
183.353584535353
 20
120.1342857914502
 30
0.0
 40
28.39299518865506
100
AcDbArc
 50
320.1584647664958
 51
31.36998697755754
  0
LINE
  5
2CA
330
18
100
AcDbEntity
  8
外形線
100
AcDbLine
 10
151.717671981216
 20
93.80496708623274
 30
0.0
 11
151.717671981216
 21
82.26248019687865
 31
0.0
  0
LINE
  5
2CC
330
18
100
AcDbEntity
  8
外形線
100
AcDbLine
 10
151.717671981216
 20
82.26248019687865
 30
0.0
 11
184.217671981216
 21
82.26248019687863
 31
0.0
  0
ARC
  5
2CD
330
18
100
AcDbEntity
  8
外形線
100
AcDbCircle
 10
149.7176719812159
 20
93.80496708623274
 30
0.0
 40
2.0
100
AcDbArc
 50
0.0
 51
19.29848171806096
  0
LINE
  5
2CE
330
18
100
AcDbEntity
  8
外形線
100
AcDbLine
 10
187.2176719812159
 20
79.26248019687863
 30
0.0
 11
187.2176719812159
 21
55.26248019687866
 31
0.0
  0
LINE
  5
2CF
330
18
100
AcDbEntity
  8
外形線
100
AcDbLine
 10
205.217671981216
 20
87.67782122981254
 30
0.0
 11
205.217671981216
 21
55.26248019687862
 31
0.0
  0
ARC
  5
2D0
330
18
100
AcDbEntity
  8
外形線
100
AcDbCircle
 10
223.217671981216
 20
87.67782122981254
 30
0.0
 40
18.0
100
AcDbArc
 50
142.0622556603278
 51
180.0
  0
ARC
  5
2D1
330
18
100
AcDbEntity
  8
外形線
100
AcDbCircle
 10
184.217671981216
 20
79.26248019687863
 30
0.0
 40
3.0
100
AcDbArc
 50
0.0
 51
90.0
  0
LINE
  5
2D2
330
18
100
AcDbEntity
  8
中心線
100
AcDbLine
 10
50.00293563810283
 20
119.8917316542353
 30
0.0
 11
84.23602324915156
 21
119.8917316542353
 31
0.0
  0
LINE
  5
2D3
330
18
100
AcDbEntity
  8
外形線
100
AcDbLine
 10
162.717671981216
 20
93.80496708623274
 30
0.0
 11
162.717671981216
 21
84.26248019687864
 31
0.0
  0
ARC
  5
2D4
330
18
100
AcDbEntity
  8
外形線
100
AcDbCircle
 10
164.717671981216
 20
93.80496708623274
 30
0.0
 40
2.0
100
AcDbArc
 50
160.701518281939
 51
180.0
  0
ARC
  5
2D5
330
18
100
AcDbEntity
  8
外形線
100
AcDbCircle
 10
184.217671981216
 20
79.26248019687863
 30
0.0
 40
5.0
100
AcDbArc
 50
0.0
 51
90.0
  0
LINE
  5
2D6
330
18
100
AcDbEntity
  8
外形線
100
AcDbLine
 10
161.0541049170075
 20
84.26248019687864
 30
0.0
 11
184.217671981216
 21
84.26248019687863
 31
0.0
  0
LINE
  5
2D7
330
18
100
AcDbEntity
  8
外形線
100
AcDbLine
 10
189.217671981216
 20
79.26248019687863
 30
0.0
 11
189.217671981216
 21
65.26248019687867
 31
0.0
  0
CIRCLE
  5
5C2
330
18
100
AcDbEntity
  8
外形線
100
AcDbCircle
 10
157.2176719812159
 20
120.2624801968786
 30
0.0
 40
15.5
  0
CIRCLE
  5
5C3
330
18
100
AcDbEntity
  8
外形線
100
AcDbCircle
 10
157.2176719812159
 20
120.2624801968786
 30
0.0
 40
23.0
  0
CIRCLE
  5
5C4
330
18
100
AcDbEntity
  8
外形線
100
AcDbCircle
 10
157.2176719812159
 20
120.2624801968786
 30
0.0
 40
26.4
  0
LINE
  5
5C5
330
18
100
AcDbEntity
  8
目盛
100
AcDbLine
 10
162.9375393860077
 20
142.5398929028371
 30
0.0
 11
162.5147665778275
 21
140.8933015289185
 31
0.0
  0
LINE
  5
5C6
330
18
100
AcDbEntity
  8
目盛
100
AcDbLine
 10
161.5274422166877
 20
142.8550869636384
 30
0.0
 11
161.208893981892
 21
141.1851986373997
 31
0.0
  0
LINE
  5
5C7
330
18
100
AcDbEntity
  8
目盛
100
AcDbLine
 10
160.1003363531952
 20
143.0811183271116
 30
0.0
 11
159.8872698561358
 21
141.394523334877
 31
0.0
  0
LINE
  5
5C8
330
18
100
AcDbEntity
  8
目盛
100
AcDbLine
 10
158.6618539303904
 20
143.2170949507289
 30
0.0
 11
158.5551100471905
 21
141.5204495124008
 31
0.0
  0
LINE
  5
5C9
330
18
100
AcDbEntity
  8
目盛
100
AcDbLine
 10
157.2176719812159
 20
143.2624801968786
 30
0.0
 11
157.2176719812159
 21
140.5624801968786
 31
0.0
  0
TEXT
  5
5CA
330
18
100
AcDbEntity
  8
文字
100
AcDbText
 10
156.003361458767
 20
137.3829995913913
 30
0.0
 40
2.5
  1
0
  7
STYLE3
100
AcDbText
  0
TEXT
  5
5CB
330
18
100
AcDbEntity
  8
文字
100
AcDbText
 10
165.9493035385406
 20
133.6512603613905
 30
0.0
 40
2.5
  1
10
  7
STYLE3
100
AcDbText
  0
TEXT
  5
5CC
330
18
100
AcDbEntity
  8
文字
100
AcDbText
 10
172.3342956921959
 20
123.4536961762534
 30
0.0
 40
2.5
  1
20
  7
STYLE3
100
AcDbText
  0
TEXT
  5
5CD
330
18
100
AcDbEntity
  8
文字
100
AcDbText
 10
171.6045443744361
 20
113.0136511258429
 30
0.0
 40
2.5
  1
30
  7
STYLE3
100
AcDbText
  0
TEXT
  5
5CE
330
18
100
AcDbEntity
  8
文字
100
AcDbText
 10
165.8069792360606
 20
104.3900510904024
 30
0.0
 40
2.5
  1
40
  7
STYLE3
100
AcDbText
  0
TEXT
  5
5CF
330
18
100
AcDbEntity
  8
文字
100
AcDbText
 10
154.9044245140671
 20
100.5795929235202
 30
0.0
 40
2.5
  1
50
  7
STYLE3
100
AcDbText
  0
TEXT
  5
5D0
330
18
100
AcDbEntity
  8
文字
100
AcDbText
 10
143.6593549719549
 20
104.452085708268
 30
0.0
 40
2.5
  1
60
  7
STYLE3
100
AcDbText
  0
TEXT
  5
5D1
330
18
100
AcDbEntity
  8
文字
100
AcDbText
 10
137.925017870496
 20
113.0373363110419
 30
0.0
 40
2.5
  1
70
  7
STYLE3
100
AcDbText
  0
TEXT
  5
5D2
330
18
100
AcDbEntity
  8
文字
100
AcDbText
 10
138.0306986394348
 20
124.7718674358462
 30
0.0
 40
2.5
  1
80
  7
STYLE3
100
AcDbText
  0
TEXT
  5
5D3
330
18
100
AcDbEntity
  8
文字
100
AcDbText
 10
144.2251473174215
 20
133.6724552104355
 30
0.0
 40
2.5
  1
90
  7
STYLE3
100
AcDbText
  0
LINE
  5
5D4
330
18
100
AcDbEntity
  8
中心線
 48
0.2
100
AcDbLine
 10
154.0176719812159
 20
118.0517162040864
 30
0.0
 11
154.0176719812159
 21
102.3621221820509
 31
0.0
  0
CIRCLE
  5
5D5
330
18
100
AcDbEntity
  8
外形線
100
AcDbCircle
 10
154.0176719812159
 20
110.1885087853647
 30
0.0
 40
4.75
  0
LINE
  5
5D6
330
18
100
AcDbEntity
  8
中心線
 48
0.2
100
AcDbLine
 10
147.0583967942862
 20
110.1885087853647
 30
0.0
 11
161.5863842422664
 21
110.1885087853647
 31
0.0
  0
LINE
  5
5D7
330
18
100
AcDbEntity
  8
目盛
100
AcDbLine
 10
154.0176719812159
 20
114.9385087853647
 30
0.0
 11
154.0176719812159
 21
114.4385087853647
 31
0.0
  0
LINE
  5
5D8
330
18
100
AcDbEntity
  8
目盛
100
AcDbLine
 10
151.2256920328266
 20
114.0313395086457
 30
0.0
 11
151.5195846589729
 21
113.6268310114582
 31
0.0
  0
LINE
  5
5D9
330
18
100
AcDbEntity
  8
目盛
100
AcDbLine
 10
149.5001535288138
 20
111.6563395086457
 30
0.0
 11
149.9756817869615
 21
111.5018310114582
 31
0.0
  0
LINE
  5
5DA
330
18
100
AcDbEntity
  8
目盛
100
AcDbLine
 10
149.5001535288138
 20
108.7206780620837
 30
0.0
 11
149.9756817869614
 21
108.8751865592712
 31
0.0
  0
LINE
  5
5DB
330
18
100
AcDbEntity
  8
目盛
100
AcDbLine
 10
151.2256920328266
 20
106.3456780620837
 30
0.0
 11
151.5195846589728
 21
106.7501865592712
 31
0.0
  0
LINE
  5
5DC
330
18
100
AcDbEntity
  8
目盛
100
AcDbLine
 10
154.0176719812159
 20
105.4385087853647
 30
0.0
 11
154.0176719812159
 21
105.9385087853647
 31
0.0
  0
LINE
  5
5DD
330
18
100
AcDbEntity
  8
目盛
100
AcDbLine
 10
156.8096519296052
 20
106.3456780620837
 30
0.0
 11
156.5157593034589
 21
106.7501865592712
 31
0.0
  0
LINE
  5
5DE
330
18
100
AcDbEntity
  8
目盛
100
AcDbLine
 10
158.5351904336178
 20
108.7206780620837
 30
0.0
 11
158.0596621754703
 21
108.8751865592712
 31
0.0
  0
LINE
  5
5DF
330
18
100
AcDbEntity
  8
目盛
100
AcDbLine
 10
158.5351904336178
 20
111.6563395086457
 30
0.0
 11
158.0596621754703
 21
111.5018310114582
 31
0.0
  0
LINE
  5
5E0
330
18
100
AcDbEntity
  8
目盛
100
AcDbLine
 10
156.8096519296051
 20
114.0313395086457
 30
0.0
 11
156.5157593034589
 21
113.6268310114582
 31
0.0
  0
TEXT
  5
5E1
330
18
100
AcDbEntity
  8
文字
100
AcDbText
 10
153.5312955420855
 20
113.2162827138396
 30
0.0
 40
1.0
  1
0
  7
STYLE3
100
AcDbText
  0
TEXT
  5
5E2
330
18
100
AcDbEntity
  8
文字
100
AcDbText
 10
155.6147952798474
 20
112.4899527333812
 30
0.0
 40
1.0
  1
9
  7
STYLE3
100
AcDbText
  0
TEXT
  5
5E3
330
18
100
AcDbEntity
  8
文字
100
AcDbText
 10
157.1121927976945
 20
110.7706449559824
 30
0.0
 40
1.0
  1
8
  7
STYLE3
100
AcDbText
  0
TEXT
  5
5E4
330
18
100
AcDbEntity
  8
文字
100
AcDbText
 10
157.0520058657486
 20
108.4670175709078
 30
0.0
 40
1.0
  1
7
  7
STYLE3
100
AcDbText
  0
TEXT
  5
5E5
330
18
100
AcDbEntity
  8
文字
100
AcDbText
 10
155.6121093440489
 20
106.8628978316187
 30
0.0
 40
1.0
  1
6
  7
STYLE3
100
AcDbText
  0
TEXT
  5
5E6
330
18
100
AcDbEntity
  8
文字
100
AcDbText
 10
153.4997203583639
 20
106.2656160749957
 30
0.0
 40
1.0
  1
5
  7
STYLE3
100
AcDbText
  0
TEXT
  5
5E7
330
18
100
AcDbEntity
  8
文字
100
AcDbText
 10
151.3962287889916
 20
106.7403540605271
 30
0.0
 40
1.0
  1
4
  7
STYLE3
100
AcDbText
  0
TEXT
  5
5E8
330
18
100
AcDbEntity
  8
文字
100
AcDbText
 10
150.2016564164096
 20
108.4755488893544
 30
0.0
 40
1.0
  1
3
  7
STYLE3
100
AcDbText
  0
TEXT
  5
5E9
330
18
100
AcDbEntity
  8
文字
100
AcDbText
 10
150.2308994204431
 20
110.7383906389937
 30
0.0
 40
1.0
  1
2
  7
STYLE3
100
AcDbText
  0
TEXT
  5
5EA
330
18
100
AcDbEntity
  8
文字
100
AcDbText
 10
151.5911817673885
 20
112.5405586451551
 30
0.0
 40
1.0
  1
1
  7
STYLE3
100
AcDbText
  0
LINE
  5
600
330
18
100
AcDbEntity
  8
外形線
  6
Continuous
100
AcDbLine
 10
155.2176719812159
 20
149.7760649025618
 30
0.0
 11
159.2176719812159
 21
149.7760649025618
 31
0.0
  0
TEXT
  5
608
330
18
100
AcDbEntity
  8
文字
  6
Continuous
 62
     4
100
AcDbText
 10
156.7110964932374
 20
136.0398552530657
 30
0.0
 40
1.0
  1
0
  7
STYLE3
100
AcDbText
  0
MTEXT
  5
638
330
18
100
AcDbEntity
  8
DEFPOINTS
  6
Continuous
100
AcDbMText
 10
925.5233116574627
 20
355.2589711284398
 30
0.0
 40
1.0
 41
0.0
 71
     4
 72
     1
  1
\A1;
 73
     1
 44
1.0
  0
POINT
  5
66E
330
18
100
AcDbEntity
  8
DEFPOINTS
  6
ByBlock
 62
     0
100
AcDbPoint
 10
157.2176719812159
 20
150.2624801968786
 30
0.0
  0
POINT
  5
66F
330
18
100
AcDbEntity
  8
DEFPOINTS
  6
ByBlock
 62
     0
100
AcDbPoint
 10
157.2176719812159
 20
120.2624801968786
 30
0.0
  0
POINT
  5
675
330
18
100
AcDbEntity
  8
DEFPOINTS
  6
ByBlock
 62
     0
100
AcDbPoint
 10
157.2176719812159
 20
120.2624801968786
 30
0.0
  0
MTEXT
  5
691
330
18
100
AcDbEntity
  8
文字
100
AcDbMText
 10
492.6625212154621
 20
381.3369533666739
 30
0.0
 40
1.0
 41
6.927999999999999
 71
     1
 72
     5
  1

  7
STYLE3
 73
     1
 44
1.0
  0
MTEXT
  5
6F0
330
18
100
AcDbEntity
  8
DEFPOINTS
  6
Continuous
100
AcDbMText
 10
814.3983308706037
 20
304.5845046541248
 30
0.0
 40
0.35
 41
0.0
 71
     4
 72
     1
  1
\A1;
 73
     1
 44
1.0
  0
LINE
  5
6F1
102
{ACAD_REACTORS
330
72F
102
}
330
18
100
AcDbEntity
  8
ROGO
 62
     4
100
AcDbLine
 10
150.5502958663741
 20
129.6274468379851
 30
0.0
 11
152.1627941793593
 21
129.6274468379851
 31
0.0
  0
LINE
  5
6F2
102
{ACAD_REACTORS
330
72E
330
72F
102
}
330
18
100
AcDbEntity
  8
ROGO
 62
     4
100
AcDbLine
 10
149.5350453262815
 20
127.5755680530791
 30
0.0
 11
163.4242225933052
 21
127.5755680530791
 31
0.0
  0
LINE
  5
6F3
102
{ACAD_REACTORS
330
72F
102
}
330
18
100
AcDbEntity
  8
ROGO
 62
     4
100
AcDbLine
 10
150.5502958663741
 20
129.6274468379851
 30
0.0
 11
149.5350453262815
 21
127.5755680530791
 31
0.0
  0
SPLINE
  5
6F4
102
{ACAD_REACTORS
330
72F
102
}
330
18
100
AcDbEntity
  8
ROGO
 62
     4
100
AcDbSpline
210
0.0
220
0.0
230
1.0
 70
     8
 71
     3
 72
    18
 73
    14
 74
     0
 42
0.0000000001
 43
0.0000000001
 40
0.1087402787915014
 40
0.1087402787915014
 40
0.1087402787915014
 40
0.1087402787915014
 40
0.5992371417938475
 40
1.083176791562496
 40
1.448211145705696
 40
1.714037220764907
 40
2.164002567013297
 40
2.740236056362883
 40
3.395137510199602
 40
4.071816045172726
 40
4.784906178399433
 40
5.506895915094292
 40
6.060470601257719
 40
6.060470601257719
 40
6.060470601257719
 40
6.060470601257719
 10
152.1627941793593
 20
129.6274468379852
 30
0.0
 10
152.2144537169953
 20
129.6085144831375
 30
0.0
 10
152.3160416648458
 20
129.5684885918222
 30
0.0
 10
152.440026900393
 20
129.4771362820308
 30
0.0
 10
152.5076430943177
 20
129.371677504858
 30
0.0
 10
152.5726823028608
 20
129.2677667625552
 30
0.0
 10
152.5817844213717
 20
129.1186892283987
 30
0.0
 10
152.5668745363246
 20
128.930219092827
 30
0.0
 10
152.4706176654485
 20
128.7335699553063
 30
0.0
 10
152.3161197263671
 20
128.5615729245045
 30
0.0
 10
152.1242997532741
 20
128.4239087441627
 30
0.0
 10
151.9220189751668
 20
128.3158459076674
 30
0.0
 10
151.7774286181133
 20
128.3147691870588
 30
0.0
 10
151.7146787012186
 20
128.3143019074276
 30
0.0
  0
LINE
  5
6F5
102
{ACAD_REACTORS
330
72F
102
}
330
18
100
AcDbEntity
  8
ROGO
 62
     4
100
AcDbLine
 10
151.7146787015277
 20
128.3143019074276
 30
0.0
 11
150.8230704330464
 21
128.3143019074276
 31
0.0
  0
LINE
  5
6F6
102
{ACAD_REACTORS
330
72F
102
}
330
18
100
AcDbEntity
  8
ROGO
 62
     4
100
AcDbLine
 10
151.187432721714
 20
129.1196499267718
 30
0.0
 11
151.0294349253566
 21
128.7704282418864
 31
0.0
  0
SPLINE
  5
6F7
102
{ACAD_REACTORS
330
72F
102
}
330
18
100
AcDbEntity
  8
ROGO
 62
     4
100
AcDbSpline
210
0.0
220
0.0
230
1.0
 70
     8
 71
     3
 72
    15
 73
    11
 74
     9
 42
0.0000000001
 43
0.0000000001
 44
0.0000000001
 40
0.0
 40
0.0
 40
0.0
 40
0.0
 40
0.1539705029175028
 40
0.2241725832587281
 40
0.3038566179396687
 40
0.3581410872474193
 40
0.443992538467216
 40
0.4954152125469665
 40
0.5836396705646186
 40
0.6130478420065743
 40
0.6130478420065743
 40
0.6130478420065743
 40
0.6130478420065743
 10
151.5934197208114
 20
129.1196499267718
 30
0.0
 10
151.6512480558706
 20
129.1199148114142
 30
0.0
 10
151.7354429309287
 20
129.1203004688839
 30
0.0
 10
151.7814836872933
 20
129.0161511649544
 30
0.0
 10
151.7608460250598
 20
128.949095260317
 30
0.0
 10
151.7349028016357
 20
128.8802497460692
 30
0.0
 10
151.6890552500934
 20
128.8334681807999
 30
0.0
 10
151.6275211204982
 20
128.7884096471629
 30
0.0
 10
151.5693684274425
 20
128.7829551099033
 30
0.0
 10
151.5315466284699
 20
128.7729336164492
 30
0.0
 10
151.5220911742006
 20
128.7704282418864
 30
0.0
 11
151.5934197208114
 21
129.1196499267718
 31
0.0
 11
151.7432097917402
 21
129.0840149661318
 31
0.0
 11
151.7717412924152
 21
129.0198722693264
 31
0.0
 11
151.7574757471544
 21
128.941475588265
 31
0.0
 11
151.7360772241865
 21
128.8915866433692
 31
0.0
 11
151.6790142228365
 21
128.8274439465638
 31
0.0
 11
151.6362171769006
 21
128.7989359780519
 31
0.0
 11
151.5506226748756
 21
128.7775552340143
 31
0.0
 11
151.5220911742006
 21
128.7704282418864
 31
0.0
  0
LINE
  5
6F8
102
{ACAD_REACTORS
330
72F
102
}
330
18
100
AcDbEntity
  8
ROGO
 62
     4
100
AcDbLine
 10
151.5934197208115
 20
129.1196499267718
 30
0.0
 11
151.187432721714
 21
129.1196499267718
 31
0.0
  0
LINE
  5
6F9
102
{ACAD_REACTORS
330
72F
102
}
330
18
100
AcDbEntity
  8
ROGO
 62
     4
100
AcDbLine
 10
151.5220911742007
 20
128.7704282418864
 30
0.0
 11
151.0294349253566
 21
128.7704282418864
 31
0.0
  0
LINE
  5
6FA
102
{ACAD_REACTORS
330
72F
102
}
330
18
100
AcDbEntity
  8
ROGO
 62
     4
100
AcDbLine
 10
150.8230704330464
 20
128.3143019074276
 30
0.0
 11
150.488846282218
 21
127.5755680530791
 31
0.0
  0
LINE
  5
6FB
102
{ACAD_REACTORS
330
72A
102
}
330
18
100
AcDbEntity
  8
ROGO
 62
     4
100
AcDbLine
 10
153.1154181725649
 20
129.6274468379851
 30
0.0
 11
152.4656862733048
 21
128.3143019074276
 31
0.0
  0
LINE
  5
6FC
102
{ACAD_REACTORS
330
72A
102
}
330
18
100
AcDbEntity
  8
ROGO
 62
     4
100
AcDbLine
 10
154.8915013210488
 20
129.6274468379851
 30
0.0
 11
154.7426671253142
 21
129.326644507293
 31
0.0
  0
LINE
  5
6FD
102
{ACAD_REACTORS
330
72A
102
}
330
18
100
AcDbEntity
  8
ROGO
 62
     4
100
AcDbLine
 10
152.4656862733048
 20
128.3143019074276
 30
0.0
 11
154.2417694217887
 21
128.3143019074276
 31
0.0
  0
LINE
  5
6FE
102
{ACAD_REACTORS
330
72A
102
}
330
18
100
AcDbEntity
  8
ROGO
 62
     4
100
AcDbLine
 10
153.8092027030963
 20
129.326644507293
 30
0.0
 11
153.6928328570198
 21
129.0914544641089
 31
0.0
  0
LINE
  5
6FF
102
{ACAD_REACTORS
330
72A
102
}
330
18
100
AcDbEntity
  8
ROGO
 62
     4
100
AcDbLine
 10
153.8092027030963
 20
129.326644507293
 30
0.0
 11
154.7426671253142
 21
129.326644507293
 31
0.0
  0
LINE
  5
700
102
{ACAD_REACTORS
330
72A
102
}
330
18
100
AcDbEntity
  8
ROGO
 62
     4
100
AcDbLine
 10
153.6928328570198
 20
129.0914544641089
 30
0.0
 11
154.6262972792377
 21
129.0914544641089
 31
0.0
  0
LINE
  5
701
102
{ACAD_REACTORS
330
72A
102
}
330
18
100
AcDbEntity
  8
ROGO
 62
     4
100
AcDbLine
 10
153.4571317087796
 20
128.6150891074277
 30
0.0
 11
154.3905961309975
 21
128.6150891074277
 31
0.0
  0
LINE
  5
702
102
{ACAD_REACTORS
330
72A
102
}
330
18
100
AcDbEntity
  8
ROGO
 62
     4
100
AcDbLine
 10
153.5735064813959
 20
128.8502891074276
 30
0.0
 11
154.5069709036138
 21
128.8502891074276
 31
0.0
  0
LINE
  5
703
102
{ACAD_REACTORS
330
72A
102
}
330
18
100
AcDbEntity
  8
ROGO
 62
     4
100
AcDbLine
 10
154.6262972792377
 20
129.0914544641089
 30
0.0
 11
154.5069709036138
 21
128.8502891074276
 31
0.0
  0
LINE
  5
704
102
{ACAD_REACTORS
330
72A
102
}
330
18
100
AcDbEntity
  8
ROGO
 62
     4
100
AcDbLine
 10
154.3905961309975
 20
128.6150891074277
 30
0.0
 11
154.2417694217887
 21
128.3143019074276
 31
0.0
  0
LINE
  5
705
102
{ACAD_REACTORS
330
72A
102
}
330
18
100
AcDbEntity
  8
ROGO
 62
     4
100
AcDbLine
 10
153.5735064813959
 20
128.8502891074276
 30
0.0
 11
153.4571317087795
 21
128.6150891074277
 31
0.0
  0
LINE
  5
706
102
{ACAD_REACTORS
330
733
102
}
330
18
100
AcDbEntity
  8
ROGO
 62
     4
100
AcDbLine
 10
155.4059955862465
 20
129.6274468379851
 30
0.0
 11
154.4590612561474
 21
128.3143019074276
 31
0.0
  0
LINE
  5
707
102
{ACAD_REACTORS
330
733
102
}
330
18
100
AcDbEntity
  8
ROGO
 62
     4
100
AcDbLine
 10
155.8801234428782
 20
129.2764378610334
 30
0.0
 11
155.5567567065649
 21
128.8280145892145
 31
0.0
  0
LINE
  5
708
102
{ACAD_REACTORS
330
733
102
}
330
18
100
AcDbEntity
  8
ROGO
 62
     4
100
AcDbLine
 10
155.3665989454198
 20
128.5643165775185
 30
0.0
 11
156.1964759342042
 21
128.5643165775185
 31
0.0
  0
LINE
  5
709
102
{ACAD_REACTORS
330
733
102
}
330
18
100
AcDbEntity
  8
ROGO
 62
     4
100
AcDbLine
 10
155.5567567065649
 20
128.8280145892145
 30
0.0
 11
156.0793308286036
 21
128.8280145892145
 31
0.0
  0
LINE
  5
70A
102
{ACAD_REACTORS
330
733
102
}
330
18
100
AcDbEntity
  8
ROGO
 62
     4
100
AcDbLine
 10
155.3665989454198
 20
128.5643165775185
 30
0.0
 11
155.186308507839
 21
128.3143019074277
 31
0.0
  0
LINE
  5
70B
102
{ACAD_REACTORS
330
733
102
}
330
18
100
AcDbEntity
  8
ROGO
 62
     4
100
AcDbLine
 10
154.4590612561474
 20
128.3143019074276
 30
0.0
 11
155.1863085078389
 21
128.3143019074276
 31
0.0
  0
LINE
  5
70C
102
{ACAD_REACTORS
330
733
102
}
330
18
100
AcDbEntity
  8
ROGO
 62
     4
100
AcDbLine
 10
155.4059955862465
 20
129.6274468379851
 30
0.0
 11
156.4563990690179
 21
129.6274468379852
 31
0.0
  0
LINE
  5
70D
102
{ACAD_REACTORS
330
733
102
}
330
18
100
AcDbEntity
  8
ROGO
 62
     4
100
AcDbLine
 10
157.0397500794012
 20
128.3143019074277
 30
0.0
 11
156.3075423572731
 21
128.3143019074276
 31
0.0
  0
LINE
  5
70E
102
{ACAD_REACTORS
330
72B
102
}
330
18
100
AcDbEntity
  8
ROGO
 62
     4
100
AcDbLine
 10
157.399369494407
 20
128.3143019074276
 30
0.0
 11
158.5303985094116
 21
128.3143019074276
 31
0.0
  0
LINE
  5
70F
102
{ACAD_REACTORS
330
72B
102
}
330
18
100
AcDbEntity
  8
ROGO
 62
     4
100
AcDbLine
 10
159.1851749824209
 20
129.6274468379851
 30
0.0
 11
158.9415556818803
 21
129.1388717857683
 31
0.0
  0
LINE
  5
710
102
{ACAD_REACTORS
330
72B
102
}
330
18
100
AcDbEntity
  8
ROGO
 62
     4
100
AcDbLine
 10
158.1197887585291
 20
129.1388717857683
 30
0.0
 11
158.9415556818803
 21
129.1388717857683
 31
0.0
  0
LINE
  5
711
102
{ACAD_REACTORS
330
72B
102
}
330
18
100
AcDbEntity
  8
ROGO
 62
     4
100
AcDbLine
 10
157.9343342092183
 20
128.8028717857683
 30
0.0
 11
158.7740152300904
 21
128.8028717857683
 31
0.0
  0
SPLINE
  5
712
102
{ACAD_REACTORS
330
72B
102
}
330
18
100
AcDbEntity
  8
ROGO
 62
     4
100
AcDbSpline
210
0.0
220
0.0
230
1.0
 70
     8
 71
     3
 72
    26
 73
    22
 74
    20
 42
0.0000000001
 43
0.0000000001
 44
0.0000000001
 40
0.0
 40
0.0
 40
0.0
 40
0.0
 40
0.2382195346591896
 40
0.397689067266058
 40
0.5126795869787669
 40
0.5985392873135731
 40
0.7099038249249733
 40
0.7911890807494741
 40
0.9379713068543702
 40
1.057449928673087
 40
1.138714535893316
 40
1.218398644003506
 40
1.36093802187036
 40
1.461730374800257
 40
1.516014844108008
 40
1.593124329220501
 40
1.648806818593631
 40
1.729472362005518
 40
1.775122082164342
 40
1.874460993765092
 40
1.919820003751207
 40
1.919820003751207
 40
1.919820003751207
 40
1.919820003751207
 10
157.8701386403146
 20
129.6274468379851
 30
0.0
 10
157.789283249556
 20
129.62262286672
 30
0.0
 10
157.65430143549
 20
129.6145696202233
 30
0.0
 10
157.5060922247783
 20
129.5245341163649
 30
0.0
 10
157.397505480368
 20
129.4721914310225
 30
0.0
 10
157.3200615459438
 20
129.4010360096029
 30
0.0
 10
157.2632948280762
 20
129.3275376570816
 30
0.0
 10
157.1917297233788
 20
129.2399649089562
 30
0.0
 10
157.1333704254729
 20
129.1379899874917
 30
0.0
 10
157.1036515829397
 20
129.0255958464283
 30
0.0
 10
157.0773269142859
 20
128.9360170638694
 30
0.0
 10
157.057804099313
 20
128.8361932009769
 30
0.0
 10
157.0627712561259
 20
128.7283483128547
 30
0.0
 10
157.0698844520104
 20
128.6281875018509
 30
0.0
 10
157.1016431419344
 20
128.5566876789242
 30
0.0
 10
157.1378106643243
 20
128.5057847319948
 30
0.0
 10
157.1820973001793
 20
128.4497207792962
 30
0.0
 10
157.2305565644967
 20
128.4125898049659
 30
0.0
 10
157.2706363316074
 20
128.3453245498253
 30
0.0
 10
157.3407946118698
 20
128.3367410181491
 30
0.0
 10
157.3853900059456
 20
128.3196572282721
 30
0.0
 10
157.3993694944071
 20
128.3143019074276
 30
0.0
 11
157.8701386403146
 21
129.6274468379851
 31
0.0
 11
157.6347540673608
 21
129.5908046558914
 31
0.0
 11
157.4920965639858
 21
129.519534966958
 31
0.0
 11
157.3922365166999
 21
129.4625192622806
 31
0.0
 11
157.3280409477962
 21
129.4055033252567
 31
0.0
 11
157.2567124011854
 21
129.3199796520674
 31
0.0
 11
157.2067823775425
 21
129.255836955262
 31
0.0
 11
157.1354534207783
 21
129.1275513293047
 31
0.0
 11
157.0997893525495
 21
129.0135196876035
 31
0.0
 11
157.0783908295816
 21
128.9351230065421
 31
0.0
 11
157.0641248741674
 21
128.8567263254807
 31
0.0
 11
157.0641248741674
 21
128.7141869476139
 31
0.0
 11
157.0783908295816
 21
128.6144092901686
 31
0.0
 11
157.0997893525495
 21
128.5645203452728
 31
0.0
 11
157.1425863984853
 21
128.5003776484673
 31
0.0
 11
157.1782508768674
 21
128.4576156956994
 31
0.0
 11
157.235313468064
 21
128.400599991022
 31
0.0
 11
157.2638449687391
 21
128.3649650303821
 31
0.0
 11
157.3565724484712
 21
128.3293303020885
 31
0.0
 11
157.3993694944071
 21
128.3143019074276
 31
0.0
  0
SPLINE
  5
713
102
{ACAD_REACTORS
330
72B
102
}
330
18
100
AcDbEntity
  8
ROGO
 62
     4
100
AcDbSpline
210
0.0
220
0.0
230
1.0
 70
     8
 71
     3
 72
    16
 73
    12
 74
    10
 42
0.0000000001
 43
0.0000000001
 44
0.0000000001
 40
0.0
 40
0.0
 40
0.0
 40
0.0
 40
0.1255907025629711
 40
0.1869327038470372
 40
0.2171823804790188
 40
0.2490606136884497
 40
0.2947101524738226
 40
0.3362763310931653
 40
0.3796288870083566
 40
0.452312579561098
 40
0.5242542460842631
 40
0.5242542460842631
 40
0.5242542460842631
 40
0.5242542460842631
 10
158.1197887585292
 20
129.1388717857683
 30
0.0
 10
158.0772580509077
 20
129.1323876924643
 30
0.0
 10
158.0139541596964
 20
129.1227365871788
 30
0.0
 10
157.9567084083052
 20
129.077421480203
 30
0.0
 10
157.9244257791812
 20
129.0504620078865
 30
0.0
 10
157.9134430849295
 20
129.0147600137044
 30
0.0
 10
157.883947017069
 20
128.9873463626687
 30
0.0
 10
157.8596338671917
 20
128.9496711819526
 30
0.0
 10
157.85382843813
 20
128.8979237109934
 30
0.0
 10
157.8580897559776
 20
128.8253040218562
 30
0.0
 10
157.9090064705466
 20
128.8103235778568
 30
0.0
 10
157.9343342092184
 20
128.8028717857683
 30
0.0
 11
158.1197887585292
 21
129.1388717857683
 31
0.0
 11
157.9985301882754
 21
129.1061703529208
 31
0.0
 11
157.9486001646325
 21
129.0705356246273
 31
0.0
 11
157.9272016416647
 21
129.0491546482433
 31
0.0
 11
157.9129356862504
 21
129.0206466797314
 31
0.0
 11
157.8844041855754
 21
128.9850119514379
 31
0.0
 11
157.8630056626074
 21
128.9493769907981
 31
0.0
 11
157.8558726849003
 21
128.9066152703765
 31
0.0
 11
157.8701386403146
 21
128.8353453490968
 31
0.0
 11
157.9343342092184
 21
128.8028717857683
 31
0.0
  0
LINE
  5
714
102
{ACAD_REACTORS
330
72B
102
}
330
18
100
AcDbEntity
  8
ROGO
 62
     4
100
AcDbLine
 10
158.7740152300904
 20
128.8028717857683
 30
0.0
 11
158.5303985094116
 21
128.3143019074276
 31
0.0
  0
LINE
  5
715
102
{ACAD_REACTORS
330
72B
102
}
330
18
100
AcDbEntity
  8
ROGO
 62
     4
100
AcDbLine
 10
157.870138640315
 20
129.6274468379852
 30
0.0
 11
159.1851749824209
 21
129.6274468379852
 31
0.0
  0
LINE
  5
716
102
{ACAD_REACTORS
330
72C
102
}
330
18
100
AcDbEntity
  8
ROGO
 62
     4
100
AcDbLine
 10
161.6304392653348
 20
128.3143019074276
 30
0.0
 11
162.7614682803395
 21
128.3143019074276
 31
0.0
  0
LINE
  5
717
102
{ACAD_REACTORS
330
72C
102
}
330
18
100
AcDbEntity
  8
ROGO
 62
     4
100
AcDbLine
 10
162.1012084112428
 20
129.6274468379851
 30
0.0
 11
163.4162447533487
 21
129.6274468379851
 31
0.0
  0
SPLINE
  5
718
102
{ACAD_REACTORS
330
72C
102
}
330
18
100
AcDbEntity
  8
ROGO
 62
     4
100
AcDbSpline
210
0.0
220
0.0
230
1.0
 70
     8
 71
     3
 72
    16
 73
    12
 74
    10
 42
0.0000000001
 43
0.0000000001
 44
0.0000000001
 40
0.0
 40
0.0
 40
0.0
 40
0.0
 40
0.1255907025629163
 40
0.1869327038470616
 40
0.217182380479003
 40
0.2490606136884339
 40
0.2947101524738157
 40
0.3362763310931585
 40
0.3796288870082937
 40
0.4523125795610796
 40
0.5242542460842448
 40
0.5242542460842448
 40
0.5242542460842448
 40
0.5242542460842448
 10
162.350858529457
 20
129.1388717857683
 30
0.0
 10
162.3083278218356
 20
129.1323876924643
 30
0.0
 10
162.2450239306242
 20
129.1227365871787
 30
0.0
 10
162.1877781792332
 20
129.077421480203
 30
0.0
 10
162.155495550109
 20
129.0504620078865
 30
0.0
 10
162.1445128558574
 20
129.0147600137044
 30
0.0
 10
162.1150167879968
 20
128.9873463626686
 30
0.0
 10
162.0907036381196
 20
128.9496711819526
 30
0.0
 10
162.0848982090578
 20
128.8979237109934
 30
0.0
 10
162.0891595269054
 20
128.8253040218561
 30
0.0
 10
162.1400762414745
 20
128.8103235778568
 30
0.0
 10
162.1654039801462
 20
128.8028717857682
 30
0.0
 11
162.350858529457
 21
129.1388717857683
 31
0.0
 11
162.2295999592033
 21
129.1061703529208
 31
0.0
 11
162.1796699355603
 21
129.0705356246272
 31
0.0
 11
162.1582714125925
 21
129.0491546482433
 31
0.0
 11
162.1440054571782
 21
129.0206466797314
 31
0.0
 11
162.1154739565033
 21
128.9850119514379
 31
0.0
 11
162.0940754335353
 21
128.949376990798
 31
0.0
 11
162.0869424558282
 21
128.9066152703765
 31
0.0
 11
162.1012084112424
 21
128.8353453490967
 31
0.0
 11
162.1654039801462
 21
128.8028717857682
 31
0.0
  0
SPLINE
  5
719
102
{ACAD_REACTORS
330
72C
102
}
330
18
100
AcDbEntity
  8
ROGO
 62
     4
100
AcDbSpline
210
0.0
220
0.0
230
1.0
 70
     8
 71
     3
 72
    26
 73
    22
 74
    20
 42
0.0000000001
 43
0.0000000001
 44
0.0000000001
 40
0.0
 40
0.0
 40
0.0
 40
0.0
 40
0.2382195346591896
 40
0.397689067266058
 40
0.5126795869787176
 40
0.5985392873135238
 40
0.7099038249250041
 40
0.7911890807494602
 40
0.9379713068544059
 40
1.057449928673177
 40
1.138714535893296
 40
1.218398644003487
 40
1.36093802187034
 40
1.461730374800238
 40
1.51601484410804
 40
1.593124329220486
 40
1.648806818593696
 40
1.729472362005543
 40
1.775122082164332
 40
1.874460993765135
 40
1.919820003751196
 40
1.919820003751196
 40
1.919820003751196
 40
1.919820003751196
 10
162.1012084112424
 20
129.6274468379851
 30
0.0
 10
162.0203530204838
 20
129.62262286672
 30
0.0
 10
161.8853712064178
 20
129.6145696202233
 30
0.0
 10
161.7371619957061
 20
129.524534116365
 30
0.0
 10
161.6285752512959
 20
129.4721914310225
 30
0.0
 10
161.5511313168717
 20
129.4010360096029
 30
0.0
 10
161.4943645990041
 20
129.3275376570816
 30
0.0
 10
161.4227994943065
 20
129.2399649089562
 30
0.0
 10
161.3644401964007
 20
129.1379899874916
 30
0.0
 10
161.3347213538675
 20
129.0255958464282
 30
0.0
 10
161.3083966852138
 20
128.9360170638694
 30
0.0
 10
161.2888738702407
 20
128.8361932009769
 30
0.0
 10
161.2938410270537
 20
128.7283483128547
 30
0.0
 10
161.3009542229383
 20
128.6281875018509
 30
0.0
 10
161.3327129128622
 20
128.5566876789242
 30
0.0
 10
161.3688804352523
 20
128.5057847319949
 30
0.0
 10
161.4131670711071
 20
128.4497207792961
 30
0.0
 10
161.4616263354246
 20
128.4125898049659
 30
0.0
 10
161.5017061025353
 20
128.3453245498253
 30
0.0
 10
161.5718643827977
 20
128.3367410181491
 30
0.0
 10
161.6164597768735
 20
128.3196572282721
 30
0.0
 10
161.6304392653349
 20
128.3143019074276
 30
0.0
 11
162.1012084112424
 21
129.6274468379851
 31
0.0
 11
161.8658238382886
 21
129.5908046558914
 31
0.0
 11
161.7231663349136
 21
129.519534966958
 31
0.0
 11
161.6233062876278
 21
129.4625192622806
 31
0.0
 11
161.559110718724
 21
129.4055033252567
 31
0.0
 11
161.4877821721132
 21
129.3199796520673
 31
0.0
 11
161.4378521484703
 21
129.255836955262
 31
0.0
 11
161.3665231917061
 21
129.1275513293047
 31
0.0
 11
161.3308591234773
 21
129.0135196876034
 31
0.0
 11
161.3094606005095
 21
128.9351230065421
 31
0.0
 11
161.2951946450952
 21
128.8567263254807
 31
0.0
 11
161.2951946450952
 21
128.7141869476139
 31
0.0
 11
161.3094606005095
 21
128.6144092901686
 31
0.0
 11
161.3308591234773
 21
128.5645203452727
 31
0.0
 11
161.3736561694131
 21
128.5003776484673
 31
0.0
 11
161.4093206477953
 21
128.4576156956994
 31
0.0
 11
161.4663832389919
 21
128.400599991022
 31
0.0
 11
161.4949147396669
 21
128.3649650303821
 31
0.0
 11
161.5876422193991
 21
128.3293303020885
 31
0.0
 11
161.6304392653349
 21
128.3143019074276
 31
0.0
  0
LINE
  5
71A
102
{ACAD_REACTORS
330
72C
102
}
330
18
100
AcDbEntity
  8
ROGO
 62
     4
100
AcDbLine
 10
163.0050850010183
 20
128.8028717857683
 30
0.0
 11
162.7614682803395
 21
128.3143019074276
 31
0.0
  0
LINE
  5
71B
102
{ACAD_REACTORS
330
72C
102
}
330
18
100
AcDbEntity
  8
ROGO
 62
     4
100
AcDbLine
 10
162.1654039801462
 20
128.8028717857683
 30
0.0
 11
163.0050850010183
 21
128.8028717857683
 31
0.0
  0
LINE
  5
71C
102
{ACAD_REACTORS
330
72C
102
}
330
18
100
AcDbEntity
  8
ROGO
 62
     4
100
AcDbLine
 10
162.3508585294569
 20
129.1388717857683
 30
0.0
 11
163.1726254528081
 21
129.1388717857683
 31
0.0
  0
LINE
  5
71D
102
{ACAD_REACTORS
330
72C
102
}
330
18
100
AcDbEntity
  8
ROGO
 62
     4
100
AcDbLine
 10
163.4162447533487
 20
129.6274468379851
 30
0.0
 11
163.1726254528081
 21
129.1388717857683
 31
0.0
  0
LINE
  5
71E
102
{ACAD_REACTORS
330
72E
102
}
330
18
100
AcDbEntity
  8
ROGO
 62
     4
100
AcDbLine
 10
163.6912718824709
 20
129.6274468379851
 30
0.0
 11
164.4473556249751
 21
129.6274468379851
 31
0.0
  0
LINE
  5
71F
102
{ACAD_REACTORS
330
72E
102
}
330
18
100
AcDbEntity
  8
ROGO
 62
     4
100
AcDbLine
 10
163.6912718824709
 20
129.6274468379851
 30
0.0
 11
162.668138850801
 21
127.5755680530791
 31
0.0
  0
LINE
  5
720
102
{ACAD_REACTORS
330
72E
102
}
330
18
100
AcDbEntity
  8
ROGO
 62
     4
100
AcDbLine
 10
164.4473556249751
 20
129.6274468379851
 30
0.0
 11
164.3356503180541
 21
129.4034234291635
 31
0.0
  0
LINE
  5
721
102
{ACAD_REACTORS
330
72E
102
}
330
18
100
AcDbEntity
  8
ROGO
 62
     4
100
AcDbLine
 10
164.3356503180541
 20
129.4034234291635
 30
0.0
 11
164.6896634011329
 21
129.6274468379851
 31
0.0
  0
LINE
  5
722
102
{ACAD_REACTORS
330
72E
102
}
330
18
100
AcDbEntity
  8
ROGO
 62
     4
100
AcDbLine
 10
163.6912718824709
 20
128.1111316151987
 30
0.0
 11
163.9583211716366
 21
127.5755680530791
 31
0.0
  0
LINE
  5
723
102
{ACAD_REACTORS
330
72E
102
}
330
18
100
AcDbEntity
  8
ROGO
 62
     4
100
AcDbLine
 10
164.2028218558017
 20
128.6015074455321
 30
0.0
 11
164.7143883716365
 21
127.5755680530791
 31
0.0
  0
LINE
  5
724
102
{ACAD_REACTORS
330
72E
102
}
330
18
100
AcDbEntity
  8
ROGO
 62
     4
100
AcDbLine
 10
163.6912718824709
 20
128.1111316151987
 30
0.0
 11
163.4242225933052
 21
127.5755680530791
 31
0.0
  0
LINE
  5
725
102
{ACAD_REACTORS
330
72E
102
}
330
18
100
AcDbEntity
  8
ROGO
 62
     4
100
AcDbLine
 10
164.2028218558017
 20
128.6015074455321
 30
0.0
 11
165.4457306011329
 21
129.6274468379851
 31
0.0
  0
LINE
  5
726
102
{ACAD_REACTORS
330
72E
102
}
330
18
100
AcDbEntity
  8
ROGO
 62
     4
100
AcDbLine
 10
164.6896634011329
 20
129.6274468379851
 30
0.0
 11
165.4457306011329
 21
129.6274468379851
 31
0.0
  0
LINE
  5
727
102
{ACAD_REACTORS
330
72E
102
}
330
18
100
AcDbEntity
  8
ROGO
 62
     4
100
AcDbLine
 10
163.9583211716366
 20
127.5755680530791
 30
0.0
 11
164.7143883716365
 21
127.5755680530791
 31
0.0
  0
LINE
  5
728
102
{ACAD_REACTORS
330
72A
102
}
330
18
100
AcDbEntity
  8
ROGO
 62
     4
100
AcDbLine
 10
153.1154181725649
 20
129.6274468379851
 30
0.0
 11
154.8915013210488
 21
129.6274468379852
 31
0.0
  0
LINE
  5
729
330
18
100
AcDbEntity
  8
ROGO
 62
     4
100
AcDbLine
 10
150.5676338707233
 20
127.7812382593704
 30
0.0
 11
162.7706926581872
 21
127.7812382593704
 31
0.0
  0
HATCH
  5
72A
330
18
100
AcDbEntity
  8
ROGO
 62
     4
100
AcDbHatch
 10
0.0
 20
0.0
 30
0.0
210
0.0
220
0.0
230
1.0
  2
SOLID
 70
     1
 71
     1
 91
        1
 92
        1
 93
       12
 72
     1
 10
153.1154181725649
 20
129.6274468379851
 11
154.8915013210488
 21
129.6274468379852
 72
     1
 10
154.8915013210488
 20
129.6274468379851
 11
154.7426671253142
 21
129.326644507293
 72
     1
 10
154.7426671253142
 20
129.326644507293
 11
153.8092027030963
 21
129.326644507293
 72
     1
 10
153.8092027030963
 20
129.326644507293
 11
153.6928328570198
 21
129.0914544641089
 72
     1
 10
153.6928328570198
 20
129.0914544641089
 11
154.6262972792377
 21
129.0914544641089
 72
     1
 10
154.6262972792377
 20
129.0914544641089
 11
154.5069709036138
 21
128.8502891074276
 72
     1
 10
154.5069709036138
 20
128.8502891074276
 11
153.5735064813959
 21
128.8502891074276
 72
     1
 10
153.5735064813959
 20
128.8502891074276
 11
153.4571317087795
 21
128.6150891074277
 72
     1
 10
153.4571317087796
 20
128.6150891074277
 11
154.3905961309975
 21
128.6150891074277
 72
     1
 10
154.3905961309975
 20
128.6150891074277
 11
154.2417694217887
 21
128.3143019074276
 72
     1
 10
154.2417694217887
 20
128.3143019074276
 11
152.4656862733048
 21
128.3143019074276
 72
     1
 10
152.4656862733048
 20
128.3143019074276
 11
153.1154181725649
 21
129.6274468379851
 97
       12
330
728
330
6FC
330
6FF
330
6FE
330
700
330
703
330
702
330
705
330
701
330
704
330
6FD
330
6FB
 75
     0
 76
     1
 98
        1
 10
80.46528919385593
 20
38.82935078987384
450
        0
451
        0
460
0.0
461
0.0
452
        0
462
0.0
453
        0
470

  0
HATCH
  5
72B
330
18
100
AcDbEntity
  8
ROGO
 62
     4
100
AcDbHatch
 10
0.0
 20
0.0
 30
0.0
210
0.0
220
0.0
230
1.0
  2
SOLID
 70
     1
 71
     1
 91
        1
 92
        5
 93
        8
 72
     1
 10
158.9415556818803
 20
129.1388717857683
 11
159.1851749824209
 21
129.6274468379852
 72
     1
 10
159.1851749824209
 20
129.6274468379852
 11
157.8701386403148
 21
129.6274468379852
 72
     4
 94
        3
 73
     0
 74
     0
 95
       26
 96
       22
 40
0.0
 40
0.0
 40
0.0
 40
0.0
 40
0.2382195346591896
 40
0.397689067266058
 40
0.5126795869787669
 40
0.5985392873135731
 40
0.7099038249249733
 40
0.7911890807494741
 40
0.9379713068543702
 40
1.057449928673087
 40
1.138714535893316
 40
1.218398644003506
 40
1.36093802187036
 40
1.461730374800257
 40
1.516014844108008
 40
1.593124329220501
 40
1.648806818593631
 40
1.729472362005518
 40
1.775122082164342
 40
1.874460993765092
 40
1.919820003751207
 40
1.919820003751207
 40
1.919820003751207
 40
1.919820003751207
 10
157.8701386403146
 20
129.6274468379851
 10
157.789283249556
 20
129.62262286672
 10
157.65430143549
 20
129.6145696202233
 10
157.5060922247783
 20
129.5245341163649
 10
157.397505480368
 20
129.4721914310225
 10
157.3200615459438
 20
129.4010360096029
 10
157.2632948280762
 20
129.3275376570816
 10
157.1917297233788
 20
129.2399649089562
 10
157.1333704254729
 20
129.1379899874917
 10
157.1036515829397
 20
129.0255958464283
 10
157.0773269142859
 20
128.9360170638694
 10
157.057804099313
 20
128.8361932009769
 10
157.0627712561259
 20
128.7283483128547
 10
157.0698844520104
 20
128.6281875018509
 10
157.1016431419344
 20
128.5566876789242
 10
157.1378106643243
 20
128.5057847319948
 10
157.1820973001793
 20
128.4497207792962
 10
157.2305565644967
 20
128.4125898049659
 10
157.2706363316074
 20
128.3453245498253
 10
157.3407946118698
 20
128.3367410181491
 10
157.3853900059456
 20
128.3196572282721
 10
157.3993694944071
 20
128.3143019074276
 72
     1
 10
157.399369494407
 20
128.3143019074276
 11
158.5303985094116
 21
128.3143019074276
 72
     1
 10
158.5303985094116
 20
128.3143019074276
 11
158.7740152300904
 21
128.8028717857683
 72
     1
 10
158.7740152300904
 20
128.8028717857683
 11
157.9343342092184
 21
128.8028717857683
 72
     4
 94
        3
 73
     0
 74
     0
 95
       16
 96
       12
 40
0.0
 40
0.0
 40
0.0
 40
0.0
 40
0.0719416665231651
 40
0.1446253590759065
 40
0.1879779149910977
 40
0.2295440936104405
 40
0.2751936323958134
 40
0.3070718656052443
 40
0.3373215422372259
 40
0.3986635435212919
 40
0.5242542460842631
 40
0.5242542460842631
 40
0.5242542460842631
 40
0.5242542460842631
 10
157.9343342092184
 20
128.8028717857683
 10
157.9090064705466
 20
128.8103235778568
 10
157.8580897559776
 20
128.8253040218562
 10
157.85382843813
 20
128.8979237109934
 10
157.8596338671917
 20
128.9496711819526
 10
157.883947017069
 20
128.9873463626687
 10
157.9134430849295
 20
129.0147600137044
 10
157.9244257791812
 20
129.0504620078865
 10
157.9567084083052
 20
129.077421480203
 10
158.0139541596964
 20
129.1227365871788
 10
158.0772580509077
 20
129.1323876924643
 10
158.1197887585292
 20
129.1388717857683
 72
     1
 10
158.1197887585292
 20
129.1388717857683
 11
158.9415556818803
 21
129.1388717857683
 97
        8
330
715
330
712
330
70E
330
714
330
711
330
713
330
710
330
70F
 75
     0
 76
     1
 47
0.0514683685270805
 98
        1
 10
158.3300555375215
 20
129.3351253816382
450
        0
451
        0
460
0.0
461
0.0
452
        0
462
0.0
453
        0
470

  0
HATCH
  5
72C
330
18
100
AcDbEntity
  8
ROGO
 62
     4
100
AcDbHatch
 10
0.0
 20
0.0
 30
0.0
210
0.0
220
0.0
230
1.0
  2
SOLID
 70
     1
 71
     1
 91
        1
 92
        5
 93
        8
 72
     4
 94
        3
 73
     0
 74
     0
 95
       26
 96
       22
 40
0.0
 40
0.0
 40
0.0
 40
0.0
 40
0.2382195346591896
 40
0.397689067266058
 40
0.5126795869787176
 40
0.5985392873135238
 40
0.7099038249250041
 40
0.7911890807494602
 40
0.9379713068544059
 40
1.057449928673177
 40
1.138714535893296
 40
1.218398644003487
 40
1.36093802187034
 40
1.461730374800238
 40
1.51601484410804
 40
1.593124329220486
 40
1.648806818593696
 40
1.729472362005543
 40
1.775122082164332
 40
1.874460993765135
 40
1.919820003751196
 40
1.919820003751196
 40
1.919820003751196
 40
1.919820003751196
 10
162.1012084112424
 20
129.6274468379851
 10
162.0203530204838
 20
129.62262286672
 10
161.8853712064178
 20
129.6145696202233
 10
161.7371619957061
 20
129.524534116365
 10
161.6285752512959
 20
129.4721914310225
 10
161.5511313168717
 20
129.4010360096029
 10
161.4943645990041
 20
129.3275376570816
 10
161.4227994943065
 20
129.2399649089562
 10
161.3644401964007
 20
129.1379899874916
 10
161.3347213538675
 20
129.0255958464282
 10
161.3083966852138
 20
128.9360170638694
 10
161.2888738702407
 20
128.8361932009769
 10
161.2938410270537
 20
128.7283483128547
 10
161.3009542229383
 20
128.6281875018509
 10
161.3327129128622
 20
128.5566876789242
 10
161.3688804352523
 20
128.5057847319949
 10
161.4131670711071
 20
128.4497207792961
 10
161.4616263354246
 20
128.4125898049659
 10
161.5017061025353
 20
128.3453245498253
 10
161.5718643827977
 20
128.3367410181491
 10
161.6164597768735
 20
128.3196572282721
 10
161.6304392653349
 20
128.3143019074276
 72
     1
 10
161.6304392653349
 20
128.3143019074276
 11
162.7614682803395
 21
128.3143019074276
 72
     1
 10
162.7614682803395
 20
128.3143019074276
 11
163.0050850010183
 21
128.8028717857683
 72
     1
 10
163.0050850010183
 20
128.8028717857683
 11
162.1654039801462
 21
128.8028717857683
 72
     4
 94
        3
 73
     0
 74
     0
 95
       16
 96
       12
 40
0.0
 40
0.0
 40
0.0
 40
0.0
 40
0.0719416665231652
 40
0.1446253590759511
 40
0.1879779149910863
 40
0.229544093610429
 40
0.2751936323958108
 40
0.3070718656052417
 40
0.3373215422371831
 40
0.3986635435213285
 40
0.5242542460842448
 40
0.5242542460842448
 40
0.5242542460842448
 40
0.5242542460842448
 10
162.1654039801462
 20
128.8028717857682
 10
162.1400762414745
 20
128.8103235778568
 10
162.0891595269054
 20
128.8253040218561
 10
162.0848982090578
 20
128.8979237109934
 10
162.0907036381196
 20
128.9496711819526
 10
162.1150167879968
 20
128.9873463626686
 10
162.1445128558574
 20
129.0147600137044
 10
162.155495550109
 20
129.0504620078865
 10
162.1877781792332
 20
129.077421480203
 10
162.2450239306242
 20
129.1227365871787
 10
162.3083278218356
 20
129.1323876924643
 10
162.350858529457
 20
129.1388717857683
 72
     1
 10
162.3508585294571
 20
129.1388717857683
 11
163.1726254528082
 21
129.1388717857683
 72
     1
 10
163.1726254528082
 20
129.1388717857683
 11
163.4162447533487
 21
129.6274468379851
 72
     1
 10
163.4162447533487
 20
129.6274468379851
 11
162.1012084112424
 21
129.6274468379851
 97
        8
330
717
330
719
330
716
330
71A
330
71B
330
718
330
71C
330
71D
 75
     0
 76
     1
 47
0.0514683685270805
 98
        1
 10
162.3281258409273
 20
129.387005534806
450
        0
451
        0
460
0.0
461
0.0
452
        0
462
0.0
453
        0
470

  0
HATCH
  5
72D
330
18
100
AcDbEntity
  8
ROGO
 62
     4
100
AcDbHatch
 10
0.0
 20
0.0
 30
0.0
210
0.0
220
0.0
230
1.0
  2
SOLID
 70
     1
 71
     0
 91
        1
 92
        7
 72
     0
 73
     1
 93
        4
 10
150.58189731764
 20
127.7812382593704
 10
150.488846282218
 20
127.5755680530791
 10
162.668138850801
 20
127.5755680530791
 10
162.7706926581871
 20
127.7812382593704
 97
        0
 75
     0
 76
     1
 47
0.0514683685270805
 98
        1
 10
158.2781325785282
 20
127.7268417951656
450
        0
451
        0
460
0.0
461
0.0
452
        0
462
0.0
453
        0
470

  0
HATCH
  5
72E
330
18
100
AcDbEntity
  8
ROGO
 62
     4
100
AcDbHatch
 10
0.0
 20
0.0
 30
0.0
210
0.0
220
0.0
230
1.0
  2
SOLID
 70
     1
 71
     1
 91
        1
 92
        7
 72
     0
 73
     1
 93
       11
 10
162.668138850801
 20
127.5755680530792
 10
163.4242225933052
 20
127.5755680530791
 10
163.6912718824709
 20
128.1111316151987
 10
163.9583211716366
 20
127.5755680530791
 10
164.7143883716365
 20
127.5755680530791
 10
164.2028218558016
 20
128.6015074455321
 10
165.4457306011329
 20
129.6274468379851
 10
164.6896634011329
 20
129.6274468379851
 10
164.3356503180541
 20
129.4034234291635
 10
164.447355624975
 20
129.6274468379851
 10
163.6912718824709
 20
129.6274468379851
 97
       11
330
726
330
721
330
720
330
71E
330
71F
330
6F2
330
724
330
722
330
727
330
723
330
725
 75
     0
 76
     1
 47
0.0514683685270805
 98
        1
 10
163.626200636067
 20
128.7471508545436
450
        0
451
        0
460
0.0
461
0.0
452
        0
462
0.0
453
        0
470

  0
HATCH
  5
72F
330
18
100
AcDbEntity
  8
ROGO
 62
     4
100
AcDbHatch
 10
0.0
 20
0.0
 30
0.0
210
0.0
220
0.0
230
1.0
  2
SOLID
 70
     1
 71
     1
 91
        2
 92
        5
 93
        6
 72
     1
 10
149.5350453262815
 20
127.5755680530791
 11
150.488846282218
 21
127.5755680530791
 72
     1
 10
150.488846282218
 20
127.5755680530791
 11
150.8230704330464
 21
128.3143019074276
 72
     1
 10
150.8230704330464
 20
128.3143019074276
 11
151.7146787012186
 21
128.3143019074276
 72
     4
 94
        3
 73
     0
 74
     0
 95
       18
 96
       14
 40
0.108740278791501
 40
0.108740278791501
 40
0.108740278791501
 40
0.108740278791501
 40
0.6623149649549278
 40
1.384304701649787
 40
2.097394834876493
 40
2.774073369849618
 40
3.428974823686337
 40
4.005208313035923
 40
4.455173659284313
 40
4.720999734343524
 40
5.086034088486724
 40
5.569973738255373
 40
6.060470601257719
 40
6.060470601257719
 40
6.060470601257719
 40
6.060470601257719
 10
151.7146787012186
 20
128.3143019074276
 10
151.7774286181133
 20
128.3147691870588
 10
151.9220189751668
 20
128.3158459076674
 10
152.1242997532741
 20
128.4239087441627
 10
152.3161197263671
 20
128.5615729245045
 10
152.4706176654485
 20
128.7335699553063
 10
152.5668745363246
 20
128.930219092827
 10
152.5817844213717
 20
129.1186892283987
 10
152.5726823028608
 20
129.2677667625552
 10
152.5076430943177
 20
129.371677504858
 10
152.440026900393
 20
129.4771362820308
 10
152.3160416648458
 20
129.5684885918222
 10
152.2144537169953
 20
129.6085144831375
 10
152.1627941793593
 20
129.6274468379852
 72
     1
 10
152.1627941793594
 20
129.6274468379851
 11
150.5502958663741
 21
129.6274468379851
 72
     1
 10
150.5502958663741
 20
129.6274468379851
 11
149.5350453262815
 21
127.5755680530791
 97
        6
330
6F4
330
6F1
330
6F3
330
6F2
330
6FA
330
6F5
 92
       20
 93
        4
 72
     1
 10
151.0294349253566
 20
128.7704282418864
 11
151.187432721714
 21
129.1196499267718
 72
     1
 10
151.187432721714
 20
129.1196499267718
 11
151.5934197208114
 21
129.1196499267718
 72
     4
 94
        3
 73
     0
 74
     0
 95
       15
 96
       11
 40
0.0
 40
0.0
 40
0.0
 40
0.0
 40
0.1539705029175028
 40
0.2241725832587281
 40
0.3038566179396687
 40
0.3581410872474193
 40
0.443992538467216
 40
0.4954152125469665
 40
0.5836396705646186
 40
0.6130478420065743
 40
0.6130478420065743
 40
0.6130478420065743
 40
0.6130478420065743
 10
151.5934197208114
 20
129.1196499267718
 10
151.6512480558706
 20
129.1199148114142
 10
151.7354429309287
 20
129.1203004688839
 10
151.7814836872933
 20
129.0161511649544
 10
151.7608460250598
 20
128.949095260317
 10
151.7349028016357
 20
128.8802497460692
 10
151.6890552500934
 20
128.8334681807999
 10
151.6275211204982
 20
128.7884096471629
 10
151.5693684274425
 20
128.7829551099033
 10
151.5315466284699
 20
128.7729336164492
 10
151.5220911742006
 20
128.7704282418864
 72
     1
 10
151.5220911742006
 20
128.7704282418864
 11
151.0294349253566
 21
128.7704282418864
 97
        4
330
6F6
330
6F8
330
6F7
330
6F9
 75
     0
 76
     1
 47
0.0514683685270805
 98
        2
 10
150.558914419681
 20
128.9892580810962
 10
150.558914419681
 20
128.9892580810962
450
        0
451
        0
460
0.0
461
0.0
452
        0
462
0.0
453
        0
470

  0
LINE
  5
730
102
{ACAD_REACTORS
330
733
102
}
330
18
100
AcDbEntity
  8
ROGO
 62
     4
100
AcDbLine
 10
156.4563990690179
 20
129.6274468379851
 30
0.0
 11
157.0397500794012
 21
128.3143019074276
 31
0.0
  0
LINE
  5
731
102
{ACAD_REACTORS
330
733
102
}
330
18
100
AcDbEntity
  8
ROGO
 62
     4
100
AcDbLine
 10
155.8801234428782
 20
129.2764378610334
 30
0.0
 11
156.0793308286036
 21
128.8280145892145
 31
0.0
  0
LINE
  5
732
102
{ACAD_REACTORS
330
733
102
}
330
18
100
AcDbEntity
  8
ROGO
 62
     4
100
AcDbLine
 10
156.1964759342042
 20
128.5643165775185
 30
0.0
 11
156.3075423572731
 21
128.3143019074276
 31
0.0
  0
HATCH
  5
733
330
18
100
AcDbEntity
  8
ROGO
 62
     4
100
AcDbHatch
 10
0.0
 20
0.0
 30
0.0
210
0.0
220
0.0
230
1.0
  2
SOLID
 70
     1
 71
     1
 91
        2
 92
        7
 72
     0
 73
     1
 93
        8
 10
156.4563990690178
 20
129.6274468379851
 10
155.4059955862465
 20
129.6274468379851
 10
154.4590612561474
 20
128.3143019074276
 10
155.1863085078389
 20
128.3143019074276
 10
155.3665989454199
 20
128.5643165775185
 10
156.1964759342042
 20
128.5643165775185
 10
156.3075423572731
 20
128.3143019074276
 10
157.0397500794012
 20
128.3143019074277
 97
        8
330
70C
330
706
330
70B
330
70A
330
708
330
732
330
70D
330
730
 92
       22
 72
     0
 73
     1
 93
        3
 10
156.0793308286036
 20
128.8280145892146
 10
155.556756706565
 20
128.8280145892145
 10
155.8801234428782
 20
129.2764378610334
 97
        3
330
709
330
707
330
731
 75
     0
 76
     1
 47
0.0128389261915577
 98
        2
 10
156.3741441765222
 20
129.3124049211761
 10
156.3741441765222
 20
129.3124049211761
450
        0
451
        0
460
0.0
461
0.0
452
        0
462
0.0
453
        0
470

  0
SPLINE
  5
734
102
{ACAD_REACTORS
330
73B
102
}
330
18
100
AcDbEntity
  8
ROGO
 62
     4
100
AcDbSpline
210
0.0
220
0.0
230
1.0
 70
     8
 71
     3
 72
    38
 73
    34
 74
    32
 42
0.0000000001
 43
0.0000000001
 44
0.0000000001
 40
0.0
 40
0.0
 40
0.0
 40
0.0
 40
0.1807680148264315
 40
0.2375392910068956
 40
0.3104865209606157
 40
0.3712759982447458
 40
0.422566754387306
 40
0.490692583720658
 40
0.5255021974951946
 40
0.5647069597052371
 40
0.622487401681883
 40
0.6879401044674746
 40
0.7303986317551266
 40
0.7765228362185534
 40
0.8277951442290254
 40
0.9056034697002209
 40
0.9795294930264187
 40
1.013897332332996
 40
1.053089255536027
 40
1.099518741889647
 40
1.132570569820733
 40
1.160277520290299
 40
1.19983678629386
 40
1.243305643169139
 40
1.286774258016964
 40
1.324809356515675
 40
1.411916492917645
 40
1.446284332224223
 40
1.5150200516612
 40
1.575779369908399
 40
1.69209852953623
 40
1.835624328519098
 40
2.042896467983898
 40
2.042896467983898
 40
2.042896467983898
 40
2.042896467983898
 10
159.9144003024636
 20
129.6329240571575
 30
0.0
 10
159.854144904838
 20
129.6286674380565
 30
0.0
 10
159.7749659392169
 20
129.6230740022693
 30
0.0
 10
159.6744271667073
 20
129.5955293760645
 30
0.0
 10
159.6196224122663
 20
129.5627148566066
 30
0.0
 10
159.5625871109491
 20
129.538594611906
 30
0.0
 10
159.513959204564
 20
129.5028773126568
 30
0.0
 10
159.4647731038682
 20
129.4844725324634
 30
0.0
 10
159.4303314904924
 20
129.4512854240908
 30
0.0
 10
159.3904681323595
 20
129.4310133059158
 30
0.0
 10
159.3587242325241
 20
129.3856384119014
 30
0.0
 10
159.3232435559924
 20
129.343214530243
 30
0.0
 10
159.2820815075852
 20
129.3122469886655
 30
0.0
 10
159.2482992620259
 20
129.2797220097031
 30
0.0
 10
159.2173087491015
 20
129.2295261945192
 30
0.0
 10
159.1989671765304
 20
129.1628308198336
 30
0.0
 10
159.147265362121
 20
129.1207217655485
 30
0.0
 10
159.139480687638
 20
129.0700941178724
 30
0.0
 10
159.1108828374423
 20
129.0402246576817
 30
0.0
 10
159.0984474919864
 20
129.0016674756966
 30
0.0
 10
159.0937115138625
 20
128.9663422863759
 30
0.0
 10
159.0880272108201
 20
128.9333510049476
 30
0.0
 10
159.0731581505876
 20
128.8986456342098
 30
0.0
 10
159.078011463149
 20
128.8557753552748
 30
0.0
 10
159.0766289001068
 20
128.8142626412483
 30
0.0
 10
159.0774425400801
 20
128.7582191846368
 30
0.0
 10
159.0745060007341
 20
128.7036539877174
 30
0.0
 10
159.0979237512491
 20
128.6442741115489
 30
0.0
 10
159.1117815988519
 20
128.5913451668824
 30
0.0
 10
159.1497335687956
 20
128.5180586246309
 30
0.0
 10
159.2151999216135
 20
128.433501800922
 30
0.0
 10
159.339689667631
 20
128.3308658376292
 30
0.0
 10
159.4593901981903
 20
128.3204538969119
 30
0.0
 10
159.5301163409205
 20
128.3143019074276
 30
0.0
 11
159.9144003024636
 21
129.6329240571575
 31
0.0
 11
159.7349436655163
 21
129.611189507706
 31
0.0
 11
159.6805628793882
 21
129.5948889586588
 31
0.0
 11
159.6153061923802
 21
129.5622873765091
 31
0.0
 11
159.560925406252
 21
129.5351195527361
 31
0.0
 11
159.5174209482467
 21
129.5079514869356
 31
0.0
 11
159.4576022116787
 21
129.4753501468134
 31
0.0
 11
159.430411604993
 21
129.4536158393895
 31
0.0
 11
159.3977830478675
 21
129.4318812899381
 31
0.0
 11
159.3597165403021
 21
129.3884126750903
 31
0.0
 11
159.3162120822968
 21
129.3395105438933
 31
0.0
 11
159.2835835251712
 21
129.3123424780929
 31
0.0
 11
159.2509553952888
 21
129.2797411379707
 31
0.0
 11
159.2237647886032
 21
129.2362725231229
 31
0.0
 11
159.1911366587208
 21
129.1656358424746
 31
0.0
 11
159.1476317734723
 21
129.105866436552
 31
0.0
 11
159.1367558725926
 21
129.0732648544024
 31
0.0
 11
159.1150036435899
 21
129.0406635142801
 31
0.0
 11
159.0986893650272
 21
128.9971946574049
 31
0.0
 11
159.0932509873442
 21
128.9645933172827
 31
0.0
 11
159.0878130369043
 21
128.9374252514823
 31
0.0
 11
159.0769371360245
 21
128.899390395011
 31
0.0
 11
159.0769371360245
 21
128.8559215381357
 31
0.0
 11
159.0769371360245
 21
128.8124529232879
 31
0.0
 11
159.0769371360245
 21
128.7744178247892
 31
0.0
 11
159.0823750864645
 21
128.6874805950934
 31
0.0
 11
159.0932509873442
 21
128.6548790129439
 31
0.0
 11
159.1150036435899
 21
128.5896760906721
 31
0.0
 11
159.1421938230325
 21
128.5353402010986
 31
0.0
 11
159.2128888877234
 21
128.4429694550538
 31
0.0
 11
159.3270884104197
 21
128.3560319833307
 31
0.0
 11
159.5301163409205
 21
128.3143019074276
 31
0.0
  0
SPLINE
  5
735
102
{ACAD_REACTORS
330
73B
102
}
330
18
100
AcDbEntity
  8
ROGO
 62
     4
100
AcDbSpline
210
0.0
220
0.0
230
1.0
 70
     8
 71
     3
 72
    25
 73
    21
 74
     0
 42
0.0000000001
 43
0.0000000001
 40
0.0
 40
0.0
 40
0.0
 40
0.0
 40
0.4087168505087288
 40
0.6887487002771746
 40
0.9415836120477687
 40
1.17452070575514
 40
1.41154617586699
 40
1.599156012919487
 40
1.80099909059943
 40
2.178735911501585
 40
2.521686161369157
 40
2.762704659361267
 40
3.06256558063785
 40
3.222432137207705
 40
3.399493810628493
 40
3.567459719866414
 40
3.743172740007509
 40
3.995988754699505
 40
4.17170091132118
 40
4.337226830236035
 40
4.337226830236035
 40
4.337226830236035
 40
4.337226830236035
 10
160.664854125649
 20
129.6329240571575
 30
0.0
 10
160.7140741760745
 20
129.6313426677013
 30
0.0
 10
160.797017283793
 20
129.6286777911953
 30
0.0
 10
160.8860669424142
 20
129.5590751018198
 30
0.0
 10
160.9542051631736
 20
129.5013691395048
 30
0.0
 10
161.0025705180342
 20
129.4316053331707
 30
0.0
 10
161.0449641066766
 20
129.3674612294935
 30
0.0
 10
161.0728982674458
 20
129.2997398148274
 30
0.0
 10
161.1108942451205
 20
129.2184803192905
 30
0.0
 10
161.1266227027678
 20
129.1097671868595
 30
0.0
 10
161.1159962594311
 20
128.997402133814
 30
0.0
 10
161.0882662039336
 20
128.8978008501105
 30
0.0
 10
161.0591796052336
 20
128.8213890849663
 30
0.0
 10
161.0248975863163
 20
128.7548679029757
 30
0.0
 10
160.9840290390121
 20
128.7117954324767
 30
0.0
 10
160.9556760834732
 20
128.6570292061292
 30
0.0
 10
160.9012136827559
 20
128.6122333732558
 30
0.0
 10
160.8570635229493
 20
128.5569616028018
 30
0.0
 10
160.8069622863096
 20
128.5095212544631
 30
0.0
 10
160.7787149870057
 20
128.4802511312414
 30
0.0
 10
160.7638223296119
 20
128.4679443872958
 30
0.0
  0
LINE
  5
736
102
{ACAD_REACTORS
330
73B
102
}
330
18
100
AcDbEntity
  8
ROGO
 62
     4
100
AcDbLine
 10
159.9144003024636
 20
129.6329240571575
 30
0.0
 11
160.664854125649
 21
129.6329240571575
 31
0.0
  0
LINE
  5
737
102
{ACAD_REACTORS
330
73B
102
}
330
18
100
AcDbEntity
  8
ROGO
 62
     4
100
AcDbLine
 10
159.5301163409205
 20
128.3143019074276
 30
0.0
 11
160.2805701641059
 21
128.3143019074276
 31
0.0
  0
SPLINE
  5
738
102
{ACAD_REACTORS
330
73B
102
}
330
18
100
AcDbEntity
  8
ROGO
 62
     4
100
AcDbSpline
210
0.0
220
0.0
230
1.0
 70
     8
 71
     3
 72
    11
 73
     7
 74
     0
 42
0.0000000001
 43
0.0000000001
 40
0.1647869275458134
 40
0.1647869275458134
 40
0.1647869275458134
 40
0.1647869275458134
 40
0.2895635144633836
 40
0.5387013147903714
 40
0.7953622617455423
 40
0.8850764140209602
 40
0.8850764140209602
 40
0.8850764140209602
 40
0.8850764140209602
 10
160.5305876227239
 20
128.3435783543362
 30
0.0
 10
160.516609079923
 20
128.3396874216197
 30
0.0
 10
160.4732680684888
 20
128.3327598318358
 30
0.0
 10
160.4005693013507
 20
128.3232474374625
 30
0.0
 10
160.3314727592544
 20
128.3133209068779
 30
0.0
 10
160.2910420644258
 20
128.3141000917846
 30
0.0
 10
160.2805701641059
 20
128.3143019074276
 30
0.0
  0
SPLINE
  5
739
102
{ACAD_REACTORS
330
73B
102
}
330
18
100
AcDbEntity
  8
ROGO
 62
     4
100
AcDbSpline
210
0.0
220
0.0
230
1.0
 70
     8
 71
     3
 72
     9
 73
     5
 74
     3
 42
0.0000000001
 43
0.0000000001
 44
0.0000000001
 40
0.0
 40
0.0
 40
0.0
 40
0.0
 40
0.1135793343552172
 40
0.2662938392177403
 40
0.2662938392177403
 40
0.2662938392177403
 40
0.2662938392177403
 10
160.5305876227239
 20
128.3435783543362
 30
0.0
 10
160.5670725910419
 20
128.3547406940595
 30
0.0
 10
160.6526138767193
 20
128.3809114963134
 30
0.0
 10
160.7232905739561
 20
128.4362238140879
 30
0.0
 10
160.7638223296119
 20
128.4679443872958
 30
0.0
 11
160.5305876227239
 21
128.3435783543362
 31
0.0
 11
160.6373383869485
 21
128.382366748606
 31
0.0
 11
160.7638223296119
 21
128.4679443872958
 31
0.0
  0
ELLIPSE
  5
73A
102
{ACAD_REACTORS
330
73B
102
}
330
18
100
AcDbEntity
  8
ROGO
 62
     4
100
AcDbEllipse
 10
160.0868586970944
 20
128.9552280649384
 30
0.0
 11
0.1782847090673272
 21
0.1567790921840611
 31
0.0
210
0.0
220
0.0
230
1.0
 40
0.6788083417438792
 41
0.0
 42
6.283185307179586
  0
HATCH
  5
73B
330
18
100
AcDbEntity
  8
ROGO
 62
     4
100
AcDbHatch
 10
0.0
 20
0.0
 30
0.0
210
0.0
220
0.0
230
1.0
  2
SOLID
 70
     1
 71
     1
 91
        2
 92
        5
 93
        6
 72
     4
 94
        3
 73
     0
 74
     0
 95
       38
 96
       34
 40
0.0
 40
0.0
 40
0.0
 40
0.0
 40
0.1807680148264315
 40
0.2375392910068956
 40
0.3104865209606157
 40
0.3712759982447458
 40
0.422566754387306
 40
0.490692583720658
 40
0.5255021974951946
 40
0.5647069597052371
 40
0.622487401681883
 40
0.6879401044674746
 40
0.7303986317551266
 40
0.7765228362185534
 40
0.8277951442290254
 40
0.9056034697002209
 40
0.9795294930264187
 40
1.013897332332996
 40
1.053089255536027
 40
1.099518741889647
 40
1.132570569820733
 40
1.160277520290299
 40
1.19983678629386
 40
1.243305643169139
 40
1.286774258016964
 40
1.324809356515675
 40
1.411916492917645
 40
1.446284332224223
 40
1.5150200516612
 40
1.575779369908399
 40
1.69209852953623
 40
1.835624328519098
 40
2.042896467983898
 40
2.042896467983898
 40
2.042896467983898
 40
2.042896467983898
 10
159.9144003024636
 20
129.6329240571575
 10
159.854144904838
 20
129.6286674380565
 10
159.7749659392169
 20
129.6230740022693
 10
159.6744271667073
 20
129.5955293760645
 10
159.6196224122663
 20
129.5627148566066
 10
159.5625871109491
 20
129.538594611906
 10
159.513959204564
 20
129.5028773126568
 10
159.4647731038682
 20
129.4844725324634
 10
159.4303314904924
 20
129.4512854240908
 10
159.3904681323595
 20
129.4310133059158
 10
159.3587242325241
 20
129.3856384119014
 10
159.3232435559924
 20
129.343214530243
 10
159.2820815075852
 20
129.3122469886655
 10
159.2482992620259
 20
129.2797220097031
 10
159.2173087491015
 20
129.2295261945192
 10
159.1989671765304
 20
129.1628308198336
 10
159.147265362121
 20
129.1207217655485
 10
159.139480687638
 20
129.0700941178724
 10
159.1108828374423
 20
129.0402246576817
 10
159.0984474919864
 20
129.0016674756966
 10
159.0937115138625
 20
128.9663422863759
 10
159.0880272108201
 20
128.9333510049476
 10
159.0731581505876
 20
128.8986456342098
 10
159.078011463149
 20
128.8557753552748
 10
159.0766289001068
 20
128.8142626412483
 10
159.0774425400801
 20
128.7582191846368
 10
159.0745060007341
 20
128.7036539877174
 10
159.0979237512491
 20
128.6442741115489
 10
159.1117815988519
 20
128.5913451668824
 10
159.1497335687956
 20
128.5180586246309
 10
159.2151999216135
 20
128.433501800922
 10
159.339689667631
 20
128.3308658376292
 10
159.4593901981903
 20
128.3204538969119
 10
159.5301163409205
 20
128.3143019074276
 72
     1
 10
159.5301163409205
 20
128.3143019074276
 11
160.2805701641058
 21
128.3143019074276
 72
     4
 94
        3
 73
     0
 74
     0
 95
       11
 96
        7
 40
0.1647869275458135
 40
0.1647869275458135
 40
0.1647869275458135
 40
0.1647869275458135
 40
0.2545010798212315
 40
0.5111620267764023
 40
0.7602998271033902
 40
0.8850764140209603
 40
0.8850764140209603
 40
0.8850764140209603
 40
0.8850764140209603
 10
160.2805701641059
 20
128.3143019074276
 10
160.2910420644258
 20
128.3141000917846
 10
160.3314727592544
 20
128.3133209068779
 10
160.4005693013507
 20
128.3232474374625
 10
160.4732680684888
 20
128.3327598318358
 10
160.516609079923
 20
128.3396874216197
 10
160.5305876227239
 20
128.3435783543362
 72
     4
 94
        3
 73
     0
 74
     0
 95
        9
 96
        5
 40
0.0
 40
0.0
 40
0.0
 40
0.0
 40
0.1135793343552172
 40
0.2662938392177403
 40
0.2662938392177403
 40
0.2662938392177403
 40
0.2662938392177403
 10
160.5305876227239
 20
128.3435783543362
 10
160.5670725910419
 20
128.3547406940595
 10
160.6526138767193
 20
128.3809114963134
 10
160.7232905739561
 20
128.4362238140879
 10
160.7638223296119
 20
128.4679443872958
 72
     4
 94
        3
 73
     0
 74
     0
 95
       25
 96
       21
 40
0.0
 40
0.0
 40
0.0
 40
0.0
 40
0.165525918914855
 40
0.3412380755365305
 40
0.5940540902285263
 40
0.7697671103696209
 40
0.9377330196075423
 40
1.11479469302833
 40
1.274661249598185
 40
1.574522170874768
 40
1.815540668866877
 40
2.15849091873445
 40
2.536227739636605
 40
2.738070817316548
 40
2.925680654369045
 40
3.162706124480894
 40
3.395643218188267
 40
3.648478129958861
 40
3.928509979727306
 40
4.337226830236035
 40
4.337226830236035
 40
4.337226830236035
 40
4.337226830236035
 10
160.7638223296119
 20
128.4679443872958
 10
160.7787149870057
 20
128.4802511312414
 10
160.8069622863096
 20
128.5095212544631
 10
160.8570635229493
 20
128.5569616028018
 10
160.9012136827559
 20
128.6122333732558
 10
160.9556760834732
 20
128.6570292061292
 10
160.9840290390121
 20
128.7117954324767
 10
161.0248975863163
 20
128.7548679029757
 10
161.0591796052336
 20
128.8213890849663
 10
161.0882662039336
 20
128.8978008501105
 10
161.1159962594311
 20
128.997402133814
 10
161.1266227027678
 20
129.1097671868595
 10
161.1108942451205
 20
129.2184803192905
 10
161.0728982674458
 20
129.2997398148274
 10
161.0449641066766
 20
129.3674612294935
 10
161.0025705180342
 20
129.4316053331707
 10
160.9542051631736
 20
129.5013691395048
 10
160.8860669424142
 20
129.5590751018198
 10
160.797017283793
 20
129.6286777911953
 10
160.7140741760745
 20
129.6313426677013
 10
160.664854125649
 20
129.6329240571575
 72
     1
 10
160.664854125649
 20
129.6329240571575
 11
159.9144003024636
 21
129.6329240571575
 97
        6
330
735
330
736
330
734
330
737
330
738
330
739
 92
       20
 93
        1
 72
     3
 10
160.0868586970944
 20
128.9552280649384
 11
0.1782847090673273
 21
0.1567790921840611
 40
0.6788083417438792
 50
0.0
 51
360.0
 73
     1
 97
        1
330
73A
 75
     0
 76
     1
 47
0.088756267210375
 98
        2
 10
160.139289972863
 20
129.2687153352624
 10
160.139289972863
 20
129.2687153352624
450
        0
451
        0
460
0.0
461
0.0
452
        0
462
0.0
453
        0
470

  0
CIRCLE
  5
780
330
18
100
AcDbEntity
  8
針
100
AcDbCircle
 10
157.2176719812159
 20
120.2624801968786
 30
0.0
 40
1.9
  0
LINE
  5
781
330
18
100
AcDbEntity
  8
針
100
AcDbLine
 10
157.2347702790384
 20
141.89190910007
 30
0.0
 11
157.8074002533693
 21
122.9924929422132
 31
0.0
  0
LINE
  5
783
330
18
100
AcDbEntity
  8
針
100
AcDbLine
 10
144.2863964307815
 20
138.0608540731276
 30
0.0
 11
144.3592079602751
 21
138.1137547458338
 31
0.0
  0
LINE
  5
785
330
18
100
AcDbEntity
  8
針
100
AcDbLine
 10
157.0547712672908
 20
141.8913126356405
 30
0.0
 11
156.6074068417171
 21
122.9885165126832
 31
0.0
  0
LINE
  5
786
330
18
100
AcDbEntity
  8
針
100
AcDbLine
 10
144.2863964307814
 20
138.0608540731275
 30
0.0
 11
144.2135849012878
 21
138.0079534004212
 31
0.0
  0
CIRCLE
  5
787
330
18
100
AcDbEntity
  8
針
100
AcDbCircle
 10
157.2176719812159
 20
120.2624801968786
 30
0.0
 40
0.475
  0
CIRCLE
  5
788
330
18
100
AcDbEntity
  8
針
100
AcDbCircle
 10
157.2176719812159
 20
120.2624801968786
 30
0.0
 40
1.5
  0
HATCH
  5
789
330
18
100
AcDbEntity
  8
針
100
AcDbHatch
 10
0.0
 20
0.0
 30
0.0
210
0.0
220
0.0
230
1.0
  2
SOLID
 70
     1
 71
     0
 91
        2
 92
        7
 72
     1
 73
     1
 93
        5
 10
157.2347702790384
 20
142.2626576427134
 42
0.0
 10
157.1447707731647
 20
142.2623594104986
 42
0.0
 10
157.0547712672908
 20
142.2620611782838
 42
0.0
 10
156.9008718238118
 20
135.7592423638692
 42
-0.0085634322047721
 10
157.4317627740405
 20
135.7610015822375
 42
0.0
 97
        0
 92
        7
 72
     1
 73
     1
 93
        6
 10
157.4317627740405
 20
135.7610015822375
 42
0.0085634322047721
 10
156.9008718238118
 20
135.7592423638692
 42
0.0
 10
156.6074068417171
 20
123.359265055326
 42
-0.1293106770632391
 10
156.22408152015
 20
121.8819795008855
 42
-0.2805221108582334
 10
158.2005076394429
 20
121.8885288028304
 42
-0.1293106770632486
 10
157.8074002533693
 20
123.3632414848562
 42
0.0
 97
        0
 75
     0
 76
     1
 47
0.0423559757596284
 98
        2
 10
157.1236729193245
 20
136.3882381234439
 10
157.2654352198597
 20
131.9836621940638
450
        0
451
        0
460
0.0
461
0.0
452
        0
462
0.0
453
        0
470

  0
CIRCLE
  5
7AF
330
18
100
AcDbEntity
  8
針
100
AcDbCircle
 10
157.217671981216
 20
120.2624801968786
 30
0.0
 40
0.0000000000000568
  0
LINE
  5
7B0
330
18
100
AcDbEntity
  8
目盛
100
AcDbLine
 10
151.4978045764245
 20
142.5398929028372
 30
0.0
 11
151.9205773846047
 21
140.8933015289185
 31
0.0
  0
LINE
  5
7B1
330
18
100
AcDbEntity
  8
目盛
100
AcDbLine
 10
150.1102811105922
 20
142.1367800716671
 30
0.0
 11
150.9446269954046
 21
139.5689274776702
 31
0.0
  0
LINE
  5
7B2
330
18
100
AcDbEntity
  8
目盛
100
AcDbLine
 10
155.7734900320419
 20
143.2170949507288
 30
0.0
 11
155.8802339152417
 21
141.5204495124008
 31
0.0
  0
LINE
  5
7B3
330
18
100
AcDbEntity
  8
目盛
100
AcDbLine
 10
154.3350076092371
 20
143.0811183271116
 30
0.0
 11
154.5480741062964
 21
141.394523334877
 31
0.0
  0
LINE
  5
7B4
330
18
100
AcDbEntity
  8
目盛
100
AcDbLine
 10
152.9079017457445
 20
142.8550869636385
 30
0.0
 11
153.2264499805402
 21
141.1851986373998
 31
0.0
  0
LINE
  5
7B5
330
18
100
AcDbEntity
  8
目盛
100
AcDbLine
 10
144.8936556966992
 20
139.6820224834251
 30
0.0
 11
145.8045612481634
 21
138.2466650100716
 31
0.0
  0
LINE
  5
7B6
330
18
100
AcDbEntity
  8
目盛
100
AcDbLine
 10
143.6986111784891
 20
138.8698710675024
 30
0.0
 11
145.2856313596787
 21
136.6855251826901
 31
0.0
  0
LINE
  5
7B7
330
18
100
AcDbEntity
  8
目盛
100
AcDbLine
 10
148.7508072694685
 20
141.6473393723084
 30
0.0
 11
149.3766190090324
 21
140.0667193462985
 31
0.0
  0
LINE
  5
7B8
330
18
100
AcDbEntity
  8
目盛
100
AcDbLine
 10
147.4247482752194
 20
141.0735024035971
 30
0.0
 11
148.14857307088
 21
139.5352964144049
 31
0.0
  0
LINE
  5
7B9
330
18
100
AcDbEntity
  8
目盛
100
AcDbLine
 10
146.1373374768766
 20
140.4175338378877
 30
0.0
 11
146.9563187228495
 21
138.927812481813
 31
0.0
  0
LINE
  5
7BA
330
18
100
AcDbEntity
  8
目盛
100
AcDbLine
 10
139.4958673973729
 20
134.9232319610986
 30
0.0
 11
140.8057399100917
 21
133.8396111785258
 31
0.0
  0
LINE
  5
7BB
330
18
100
AcDbEntity
  8
目盛
100
AcDbLine
 10
138.6102811105922
 20
133.7815409996055
 30
0.0
 11
140.7946269954044
 21
132.1945208184158
 31
0.0
  0
LINE
  5
7BC
330
18
100
AcDbEntity
  8
目盛
100
AcDbLine
 10
142.5569202169962
 20
137.9842847807218
 30
0.0
 11
143.6405409995689
 21
136.674412268003
 31
0.0
  0
LINE
  5
7BD
330
18
100
AcDbEntity
  8
目盛
100
AcDbLine
 10
141.4730885448562
 20
137.0287586275711
 30
0.0
 11
142.6368186249349
 21
135.7895119609547
 31
0.0
  0
LINE
  5
7BE
330
18
100
AcDbEntity
  8
目盛
100
AcDbLine
 10
140.4513935505236
 20
136.0070636332386
 30
0.0
 11
141.69064021714
 21
134.8433335531598
 31
0.0
  0
LINE
  5
7BF
330
18
100
AcDbEntity
  8
目盛
100
AcDbLine
 10
135.8328128057862
 20
128.7293449086264
 30
0.0
 11
137.4134328317962
 21
128.1035331690624
 31
0.0
  0
LINE
  5
7C0
330
18
100
AcDbEntity
  8
目盛
100
AcDbLine
 10
135.3433721064274
 20
127.3698710675024
 30
0.0
 11
137.9112247004244
 21
126.5355251826901
 31
0.0
  0
LINE
  5
7C1
330
18
100
AcDbEntity
  8
目盛
100
AcDbLine
 10
137.7981296946697
 20
132.5864964813956
 30
0.0
 11
139.2334871680231
 21
131.6755909299314
 31
0.0
  0
LINE
  5
7C2
330
18
100
AcDbEntity
  8
目盛
100
AcDbLine
 10
137.0626183402071
 20
131.3428147012182
 30
0.0
 11
138.5523396962817
 21
130.5238334552453
 31
0.0
  0
LINE
  5
7C3
330
18
100
AcDbEntity
  8
目盛
100
AcDbLine
 10
136.4066497744975
 20
130.0554039028755
 30
0.0
 11
137.9448557636898
 21
129.3315791072148
 31
0.0
  0
LINE
  5
7C4
330
18
100
AcDbEntity
  8
目盛
100
AcDbLine
 10
134.2630572273658
 20
121.7066621460531
 30
0.0
 11
135.9597026656938
 21
121.5999182628532
 31
0.0
  0
LINE
  5
7C5
330
18
100
AcDbEntity
  8
目盛
100
AcDbLine
 10
134.217671981216
 20
120.2624801968786
 30
0.0
 11
136.917671981216
 21
120.2624801968786
 31
0.0
  0
LINE
  5
7C6
330
18
100
AcDbEntity
  8
目盛
100
AcDbLine
 10
134.9402592752575
 20
125.9823476016704
 30
0.0
 11
136.5868506491762
 21
125.5595747934902
 31
0.0
  0
LINE
  5
7C7
330
18
100
AcDbEntity
  8
目盛
100
AcDbLine
 10
134.6250652144562
 20
124.5722504323504
 30
0.0
 11
136.2949535406949
 21
124.2537021975547
 31
0.0
  0
LINE
  5
7C8
330
18
100
AcDbEntity
  8
目盛
100
AcDbLine
 10
134.399033850983
 20
123.1451445688578
 30
0.0
 11
136.0856288432176
 21
122.9320780717985
 31
0.0
  0
LINE
  5
7C9
330
18
100
AcDbEntity
  8
目盛
100
AcDbLine
 10
134.9402592752573
 20
114.5426127920872
 30
0.0
 11
136.586850649176
 21
114.9653856002674
 31
0.0
  0
LINE
  5
7CA
330
18
100
AcDbEntity
  8
目盛
100
AcDbLine
 10
135.3433721064274
 20
113.1550893262548
 30
0.0
 11
137.9112247004243
 21
113.9894352110672
 31
0.0
  0
LINE
  5
7CB
330
18
100
AcDbEntity
  8
目盛
100
AcDbLine
 10
134.2630572273657
 20
118.8182982477045
 30
0.0
 11
135.9597026656937
 21
118.9250421309044
 31
0.0
  0
LINE
  5
7CC
330
18
100
AcDbEntity
  8
目盛
100
AcDbLine
 10
134.399033850983
 20
117.3798158248997
 30
0.0
 11
136.0856288432175
 21
117.5928823219591
 31
0.0
  0
LINE
  5
7CD
330
18
100
AcDbEntity
  8
目盛
100
AcDbLine
 10
134.625065214456
 20
115.9527099614072
 30
0.0
 11
136.2949535406948
 21
116.2712581962029
 31
0.0
  0
LINE
  5
7CE
330
18
100
AcDbEntity
  8
目盛
100
AcDbLine
 10
137.7981296946695
 20
107.9384639123619
 30
0.0
 11
139.233487168023
 21
108.8493694638261
 31
0.0
  0
LINE
  5
7CF
330
18
100
AcDbEntity
  8
目盛
100
AcDbLine
 10
138.6102811105922
 20
106.7434193941517
 30
0.0
 11
140.7946269954046
 21
108.3304395753414
 31
0.0
  0
LINE
  5
7D0
330
18
100
AcDbEntity
  8
目盛
100
AcDbLine
 10
135.8328128057862
 20
111.7956154851311
 30
0.0
 11
137.4134328317962
 21
112.4214272246951
 31
0.0
  0
LINE
  5
7D1
330
18
100
AcDbEntity
  8
目盛
100
AcDbLine
 10
136.4066497744975
 20
110.4695564908821
 30
0.0
 11
137.9448557636897
 21
111.1933812865427
 31
0.0
  0
LINE
  5
7D2
330
18
100
AcDbEntity
  8
目盛
100
AcDbLine
 10
137.062618340207
 20
109.1821456925394
 30
0.0
 11
138.5523396962816
 21
110.0011269385122
 31
0.0
  0
LINE
  5
7D3
330
18
100
AcDbEntity
  8
目盛
100
AcDbLine
 10
142.5569202169959
 20
102.5406756130356
 30
0.0
 11
143.6405409995687
 21
103.8505481257544
 31
0.0
  0
LINE
  5
7D4
330
18
100
AcDbEntity
  8
目盛
100
AcDbLine
 10
143.698611178489
 20
101.6550893262548
 30
0.0
 11
145.2856313596787
 21
103.8394352110672
 31
0.0
  0
LINE
  5
7D5
330
18
100
AcDbEntity
  8
目盛
100
AcDbLine
 10
139.4958673973727
 20
105.6017284326589
 30
0.0
 11
140.8057399100915
 21
106.6853492152316
 31
0.0
  0
LINE
  5
7D6
330
18
100
AcDbEntity
  8
目盛
100
AcDbLine
 10
140.4513935505234
 20
104.5178967605189
 30
0.0
 11
141.6906402171398
 21
105.6816268405977
 31
0.0
  0
LINE
  5
7D7
330
18
100
AcDbEntity
  8
目盛
100
AcDbLine
 10
141.4730885448559
 20
103.4962017661863
 30
0.0
 11
142.6368186249347
 21
104.7354484328027
 31
0.0
  0
LINE
  5
7D8
330
18
100
AcDbEntity
  8
目盛
100
AcDbLine
 10
148.7508072694681
 20
98.87762102144893
 30
0.0
 11
149.3766190090321
 21
100.4582410474589
 31
0.0
  0
LINE
  5
7D9
330
18
100
AcDbEntity
  8
目盛
100
AcDbLine
 10
150.1102811105921
 20
98.38818032209013
 30
0.0
 11
150.9446269954045
 21
100.956032916087
 31
0.0
  0
LINE
  5
7DA
330
18
100
AcDbEntity
  8
目盛
100
AcDbLine
 10
144.8936556966989
 20
100.8429379103324
 30
0.0
 11
145.8045612481632
 21
102.2782953836858
 31
0.0
  0
LINE
  5
7DB
330
18
100
AcDbEntity
  8
目盛
100
AcDbLine
 10
146.1373374768764
 20
100.1074265558698
 30
0.0
 11
146.9563187228493
 21
101.5971479119444
 31
0.0
  0
LINE
  5
7DC
330
18
100
AcDbEntity
  8
目盛
100
AcDbLine
 10
147.4247482752191
 20
99.4514579901603
 30
0.0
 11
148.1485730708797
 21
100.9896639793525
 31
0.0
  0
LINE
  5
7DD
330
18
100
AcDbEntity
  8
目盛
100
AcDbLine
 10
155.7734900320416
 20
97.30786544302844
 30
0.0
 11
155.8802339152415
 21
99.00451088135652
 31
0.0
  0
LINE
  5
7DE
330
18
100
AcDbEntity
  8
目盛
100
AcDbLine
 10
157.217671981216
 20
97.2624801968787
 30
0.0
 11
157.217671981216
 21
99.96248019687868
 31
0.0
  0
LINE
  5
7DF
330
18
100
AcDbEntity
  8
目盛
100
AcDbLine
 10
151.4978045764242
 20
97.98506749092025
 30
0.0
 11
151.9205773846045
 21
99.63165886483887
 31
0.0
  0
LINE
  5
7E0
330
18
100
AcDbEntity
  8
目盛
100
AcDbLine
 10
152.9079017457442
 20
97.66987343011891
 30
0.0
 11
153.2264499805399
 21
99.33976175635763
 31
0.0
  0
LINE
  5
7E1
330
18
100
AcDbEntity
  8
目盛
100
AcDbLine
 10
154.3350076092368
 20
97.4438420666457
 30
0.0
 11
154.5480741062961
 21
99.13043705888032
 31
0.0
  0
LINE
  5
7E2
330
18
100
AcDbEntity
  8
目盛
100
AcDbLine
 10
162.9375393860074
 20
97.98506749092007
 30
0.0
 11
162.5147665778273
 21
99.63165886483876
 31
0.0
  0
LINE
  5
7E3
330
18
100
AcDbEntity
  8
目盛
100
AcDbLine
 10
164.3250628518398
 20
98.38818032209013
 30
0.0
 11
163.4907169670275
 21
100.956032916087
 31
0.0
  0
LINE
  5
7E4
330
18
100
AcDbEntity
  8
目盛
100
AcDbLine
 10
158.6618539303901
 20
97.30786544302844
 30
0.0
 11
158.5551100471903
 21
99.00451088135652
 31
0.0
  0
LINE
  5
7E5
330
18
100
AcDbEntity
  8
目盛
100
AcDbLine
 10
160.1003363531949
 20
97.44384206664575
 30
0.0
 11
159.8872698561355
 21
99.13043705888027
 31
0.0
  0
LINE
  5
7E6
330
18
100
AcDbEntity
  8
目盛
100
AcDbLine
 10
161.5274422166875
 20
97.66987343011875
 30
0.0
 11
161.2088939818917
 21
99.33976175635757
 31
0.0
  0
LINE
  5
7E7
330
18
100
AcDbEntity
  8
目盛
100
AcDbLine
 10
169.5416882657327
 20
100.8429379103321
 30
0.0
 11
168.6307827142685
 21
102.2782953836855
 31
0.0
  0
LINE
  5
7E8
330
18
100
AcDbEntity
  8
目盛
100
AcDbLine
 10
170.7367327839428
 20
101.6550893262548
 30
0.0
 11
169.1497126027531
 21
103.8394352110671
 31
0.0
  0
LINE
  5
7E9
330
18
100
AcDbEntity
  8
目盛
100
AcDbLine
 10
165.6845366929634
 20
98.87762102144883
 30
0.0
 11
165.0587249533995
 21
100.4582410474588
 31
0.0
  0
LINE
  5
7EA
330
18
100
AcDbEntity
  8
目盛
100
AcDbLine
 10
167.0105956872125
 20
99.45145799016012
 30
0.0
 11
166.2867708915519
 21
100.9896639793522
 31
0.0
  0
LINE
  5
7EB
330
18
100
AcDbEntity
  8
目盛
100
AcDbLine
 10
168.2980064855553
 20
100.1074265558695
 30
0.0
 11
167.4790252395823
 21
101.5971479119441
 31
0.0
  0
LINE
  5
7EC
330
18
100
AcDbEntity
  8
目盛
100
AcDbLine
 10
174.939476565059
 20
105.6017284326586
 30
0.0
 11
173.6296040523402
 21
106.6853492152314
 31
0.0
  0
LINE
  5
7ED
330
18
100
AcDbEntity
  8
目盛
100
AcDbLine
 10
175.8250628518397
 20
106.7434193941517
 30
0.0
 11
173.6407169670274
 21
108.3304395753414
 31
0.0
  0
LINE
  5
7EE
330
18
100
AcDbEntity
  8
目盛
100
AcDbLine
 10
171.8784237454356
 20
102.5406756130354
 30
0.0
 11
170.794802962863
 21
103.8505481257542
 31
0.0
  0
LINE
  5
7EF
330
18
100
AcDbEntity
  8
目盛
100
AcDbLine
 10
172.9622554175757
 20
103.4962017661861
 30
0.0
 11
171.7985253374969
 21
104.7354484328025
 31
0.0
  0
LINE
  5
7F0
330
18
100
AcDbEntity
  8
目盛
100
AcDbLine
 10
173.9839504119083
 20
104.5178967605186
 30
0.0
 11
172.7447037452919
 21
105.6816268405974
 31
0.0
  0
LINE
  5
7F1
330
18
100
AcDbEntity
  8
目盛
100
AcDbLine
 10
178.6025311566456
 20
111.7956154851308
 30
0.0
 11
177.0219111306356
 21
112.4214272246948
 31
0.0
  0
LINE
  5
7F2
330
18
100
AcDbEntity
  8
目盛
100
AcDbLine
 10
179.0919718560044
 20
113.1550893262549
 30
0.0
 11
176.5241192620075
 21
113.9894352110672
 31
0.0
  0
LINE
  5
7F3
330
18
100
AcDbEntity
  8
目盛
100
AcDbLine
 10
176.6372142677622
 20
107.9384639123616
 30
0.0
 11
175.2018567944088
 21
108.8493694638259
 31
0.0
  0
LINE
  5
7F4
330
18
100
AcDbEntity
  8
目盛
100
AcDbLine
 10
177.3727256222246
 20
109.1821456925391
 30
0.0
 11
175.8830042661502
 21
110.001126938512
 31
0.0
  0
LINE
  5
7F5
330
18
100
AcDbEntity
  8
目盛
100
AcDbLine
 10
178.0286941879342
 20
110.4695564908818
 30
0.0
 11
176.490488198742
 21
111.1933812865425
 31
0.0
  0
LINE
  5
7F6
330
18
100
AcDbEntity
  8
目盛
100
AcDbLine
 10
180.1722867350662
 20
118.8182982477042
 30
0.0
 11
178.4756412967381
 21
118.9250421309041
 31
0.0
  0
LINE
  5
7F7
330
18
100
AcDbEntity
  8
目盛
100
AcDbLine
 10
180.217671981216
 20
120.2624801968786
 30
0.0
 11
177.517671981216
 21
120.2624801968786
 31
0.0
  0
LINE
  5
7F8
330
18
100
AcDbEntity
  8
目盛
100
AcDbLine
 10
179.4950846871743
 20
114.5426127920868
 30
0.0
 11
177.8484933132558
 21
114.9653856002671
 31
0.0
  0
LINE
  5
7F9
330
18
100
AcDbEntity
  8
目盛
100
AcDbLine
 10
179.8102787479757
 20
115.9527099614068
 30
0.0
 11
178.1403904217371
 21
116.2712581962025
 31
0.0
  0
LINE
  5
7FA
330
18
100
AcDbEntity
  8
目盛
100
AcDbLine
 10
180.036310111449
 20
117.3798158248994
 30
0.0
 11
178.3497151192144
 21
117.5928823219587
 31
0.0
  0
LINE
  5
7FB
330
18
100
AcDbEntity
  8
目盛
100
AcDbLine
 10
179.4950846871746
 20
125.9823476016701
 30
0.0
 11
177.8484933132559
 21
125.5595747934899
 31
0.0
  0
LINE
  5
7FC
330
18
100
AcDbEntity
  8
目盛
100
AcDbLine
 10
179.0919718560044
 20
127.3698710675024
 30
0.0
 11
176.5241192620077
 21
126.5355251826901
 31
0.0
  0
LINE
  5
7FD
330
18
100
AcDbEntity
  8
目盛
100
AcDbLine
 10
180.1722867350662
 20
121.7066621460527
 30
0.0
 11
178.4756412967381
 21
121.5999182628529
 31
0.0
  0
LINE
  5
7FE
330
18
100
AcDbEntity
  8
目盛
100
AcDbLine
 10
180.036310111449
 20
123.1451445688575
 30
0.0
 11
178.3497151192144
 21
122.9320780717981
 31
0.0
  0
LINE
  5
7FF
330
18
100
AcDbEntity
  8
目盛
100
AcDbLine
 10
179.8102787479759
 20
124.57225043235
 30
0.0
 11
178.1403904217371
 21
124.2537021975544
 31
0.0
  0
LINE
  5
800
330
18
100
AcDbEntity
  8
目盛
100
AcDbLine
 10
176.6372142677624
 20
132.5864964813953
 30
0.0
 11
175.201856794409
 21
131.6755909299311
 31
0.0
  0
LINE
  5
801
330
18
100
AcDbEntity
  8
目盛
100
AcDbLine
 10
175.8250628518397
 20
133.7815409996054
 30
0.0
 11
173.6407169670274
 21
132.1945208184158
 31
0.0
  0
LINE
  5
802
330
18
100
AcDbEntity
  8
目盛
100
AcDbLine
 10
178.6025311566457
 20
128.7293449086261
 30
0.0
 11
177.0219111306358
 21
128.1035331690621
 31
0.0
  0
LINE
  5
803
330
18
100
AcDbEntity
  8
目盛
100
AcDbLine
 10
178.0286941879345
 20
130.0554039028751
 30
0.0
 11
176.4904881987423
 21
129.3315791072146
 31
0.0
  0
LINE
  5
804
330
18
100
AcDbEntity
  8
目盛
100
AcDbLine
 10
177.372725622225
 20
131.3428147012179
 30
0.0
 11
175.8830042661504
 21
130.523833455245
 31
0.0
  0
LINE
  5
805
330
18
100
AcDbEntity
  8
目盛
100
AcDbLine
 10
171.8784237454361
 20
137.9842847807216
 30
0.0
 11
170.7948029628632
 21
136.6744122680028
 31
0.0
  0
LINE
  5
806
330
18
100
AcDbEntity
  8
目盛
100
AcDbLine
 10
170.7367327839429
 20
138.8698710675024
 30
0.0
 11
169.1497126027532
 21
136.6855251826901
 31
0.0
  0
LINE
  5
807
330
18
100
AcDbEntity
  8
目盛
100
AcDbLine
 10
174.9394765650592
 20
134.9232319610984
 30
0.0
 11
173.6296040523403
 21
133.8396111785256
 31
0.0
  0
LINE
  5
808
330
18
100
AcDbEntity
  8
目盛
100
AcDbLine
 10
173.9839504119084
 20
136.0070636332384
 30
0.0
 11
172.7447037452921
 21
134.8433335531596
 31
0.0
  0
LINE
  5
809
330
18
100
AcDbEntity
  8
目盛
100
AcDbLine
 10
172.962255417576
 20
137.0287586275709
 30
0.0
 11
171.7985253374972
 21
135.7895119609545
 31
0.0
  0
LINE
  5
80A
330
18
100
AcDbEntity
  8
目盛
100
AcDbLine
 10
165.6845366929637
 20
141.6473393723083
 30
0.0
 11
165.0587249533997
 21
140.0667193462983
 31
0.0
  0
LINE
  5
80B
330
18
100
AcDbEntity
  8
目盛
100
AcDbLine
 10
164.3250628518398
 20
142.1367800716671
 30
0.0
 11
163.4907169670274
 21
139.5689274776702
 31
0.0
  0
LINE
  5
80C
330
18
100
AcDbEntity
  8
目盛
100
AcDbLine
 10
169.541688265733
 20
139.6820224834248
 30
0.0
 11
168.6307827142687
 21
138.2466650100715
 31
0.0
  0
LINE
  5
80D
330
18
100
AcDbEntity
  8
目盛
100
AcDbLine
 10
168.2980064855554
 20
140.4175338378874
 30
0.0
 11
167.4790252395826
 21
138.9278124818129
 31
0.0
  0
LINE
  5
80E
330
18
100
AcDbEntity
  8
目盛
100
AcDbLine
 10
167.0105956872128
 20
141.073502403597
 30
0.0
 11
166.2867708915522
 21
139.5352964144048
 31
0.0
  0
POINT
  5
819
330
18
100
AcDbEntity
  8
DEFPOINTS
  6
ByBlock
 62
     0
100
AcDbPoint
 10
134.2176719812159
 20
120.2624801968786
 30
0.0
  0
POINT
  5
81A
330
18
100
AcDbEntity
  8
DEFPOINTS
  6
ByBlock
 62
     0
100
AcDbPoint
 10
180.217671981216
 20
120.2624801968786
 30
0.0
  0
TEXT
  5
827
330
18
100
AcDbEntity
  8
文字
100
AcDbText
 10
163.2862073014697
 20
119.226189962466
 30
0.0
 40
1.0
  1
0.01mm
  7
STYLE3
100
AcDbText
  0
HATCH
  5
859
330
18
100
AcDbEntity
  8
針
100
AcDbHatch
 10
0.0
 20
0.0
 30
0.0
210
0.0
220
0.0
230
1.0
  2
SOLID
 70
     1
 71
     0
 91
        2
 92
        7
 72
     1
 73
     1
 93
        5
 10
154.3703462708601
 20
109.146577479844
 42
0.31735696877887
 10
155.1175448209922
 20
110.1717834655635
 42
0.0
 10
154.7562141437095
 20
110.4384915156557
 42
0.0
 10
154.7280796895254
 20
110.4289685283039
 42
-0.4142135623731173
 10
154.2581317241551
 20
109.4781010770551
 42
0.0
 97
        0
 92
        7
 72
     1
 73
     1
 93
        4
 10
154.3703462708601
 20
109.146577479844
 42
0.0
 10
154.2581317241551
 20
109.4781010770551
 42
-0.4142135623730728
 10
153.3072642729064
 20
109.9480490424254
 42
0.0
 10
152.9757406756953
 20
109.8358344957204
 42
0.4142135623730844
 97
        0
 75
     0
 76
     1
 47
0.0161501285364394
 98
        2
 10
154.679218993042
 20
109.4921789829611
 10
154.0004239221248
 20
109.2794694410104
450
        0
451
        0
460
0.0
461
0.0
452
        0
462
0.0
453
        0
470

  0
HATCH
  5
85A
330
18
100
AcDbEntity
  8
針
100
AcDbHatch
 10
0.0
 20
0.0
 30
0.0
210
0.0
220
0.0
230
1.0
  2
SOLID
 70
     1
 71
     0
 91
        4
 92
        7
 72
     1
 73
     1
 93
        4
 10
152.9297545315177
 20
110.3510991376073
 42
0.0
 10
153.2759100836944
 20
110.299365843712
 42
-0.4142135623730951
 10
154.128529039563
 20
110.9302706828861
 42
0.0
 10
154.1802623334584
 20
111.2764262350628
 42
0.4142135623730996
 97
        0
 92
        7
 72
     1
 73
     1
 93
        5
 10
153.2759100836944
 20
110.299365843712
 42
0.0
 10
152.9297545315177
 20
110.3510991376073
 42
0.3173569687788799
 10
153.5000466128463
 20
109.2179089821397
 42
0.0
 10
153.9024246230555
 20
109.4173707058604
 42
0.0
 10
153.9068149228686
 20
109.4467468878432
 42
-0.4142135623730839
 97
        0
 92
        7
 72
     1
 73
     1
 93
        4
 10
154.1802623334584
 20
111.2764262350628
 42
0.0
 10
154.128529039563
 20
110.9302706828861
 42
-0.4142135623730951
 10
154.7594338787373
 20
110.0776517270175
 42
0.0
 10
155.105589430914
 20
110.0259184331221
 42
0.4142135623730996
 97
        0
 92
        7
 72
     1
 73
     1
 93
        4
 10
154.7594338787373
 20
110.0776517270175
 42
-0.1036385141593389
 10
154.6525420486285
 20
109.7892094020652
 42
0.0
 10
155.1035436865066
 20
110.0127742137835
 42
0.003023315109616
 10
155.105589430914
 20
110.0259184331221
 42
0.0
 97
        0
 75
     0
 76
     1
 47
0.0223982890607777
 98
        4
 10
153.5136164802168
 20
111.0402639734333
 10
153.1862614929542
 20
109.9106247723303
 10
154.445051830408
 20
111.05971244424
 10
154.8309232871374
 20
110.0047979975268
450
        0
451
        0
460
0.0
461
0.0
452
        0
462
0.0
453
        0
470

  0
CIRCLE
  5
85B
330
18
100
AcDbEntity
  8
針
100
AcDbCircle
 10
154.0176719812159
 20
110.1885087853647
 30
0.0
 40
1.1
  0
CIRCLE
  5
85C
330
18
100
AcDbEntity
  8
針
100
AcDbCircle
 10
154.0176719812159
 20
110.1885087853647
 30
0.0
 40
0.75
  0
HATCH
  5
85D
330
18
100
AcDbEntity
  8
針
100
AcDbHatch
 10
0.0
 20
0.0
 30
0.0
210
0.0
220
0.0
230
1.0
  2
SOLID
 70
     1
 71
     0
 91
        1
 92
        7
 72
     1
 73
     1
 93
        7
 10
154.117671981216
 20
114.8885087853648
 42
0.0
 10
154.0176719812158
 20
114.8885087853647
 42
0.0
 10
153.9176719812158
 20
114.8885087853647
 42
0.0
 10
153.8727636235775
 20
111.6458781306943
 42
-0.2935495917910092
 10
153.5743304470407
 20
111.1952104711061
 42
-0.2104432563350663
 10
154.4610128357738
 20
111.1952107704029
 42
-0.2935491884945053
 10
154.1625803388543
 20
111.6458781306942
 42
0.0
 97
        0
 75
     0
 76
     1
 47
0.0140573597042523
 98
        1
 10
154.0762736971133
 20
113.0830688306649
450
        0
451
        0
460
0.0
461
0.0
452
        0
462
0.0
453
        0
470

  0
LINE
  5
85E
330
18
100
AcDbEntity
  8
針
100
AcDbLine
 10
154.1625803388543
 20
111.6458781306943
 30
0.0
 11
154.1176719812159
 21
114.8885087853647
 31
0.0
  0
LINE
  5
85F
330
18
100
AcDbEntity
  8
針
100
AcDbLine
 10
153.8727636235775
 20
111.6458781306943
 30
0.0
 11
153.9176719812158
 21
114.8885087853647
 31
0.0
  0
CIRCLE
  5
860
330
18
100
AcDbEntity
  8
針
 62
     4
100
AcDbCircle
 10
154.0176719812159
 20
110.1885087853647
 30
0.0
 40
0.4
  0
ARC
  5
861
330
18
100
AcDbEntity
  8
針
100
AcDbCircle
 10
154.6625323945614
 20
111.6528021464428
 30
0.0
 40
0.5
100
AcDbArc
 50
180.7934591207347
 51
246.2317787024804
  0
ARC
  5
862
330
18
100
AcDbEntity
  8
針
100
AcDbCircle
 10
153.3728115678703
 20
111.6528021464428
 30
0.0
 40
0.5
100
AcDbArc
 50
293.7682212975196
 51
359.2065408792653
  0
LINE
  5
863
330
18
100
AcDbEntity
  8
文字
100
AcDbLine
 10
154.1176719812159
 20
114.8885087853647
 30
0.0
 11
153.9176719812158
 21
114.8885087853647
 31
0.0
  0
LINE
  5
8B5
330
18
100
AcDbEntity
  8
外形線
100
AcDbLine
 10
187.2176719812159
 20
55.63322873952198
 30
0.0
 11
205.217671981216
 21
55.63322873952198
 31
0.0
  0
LINE
  5
8B8
330
18
100
AcDbEntity
  8
外形線
100
AcDbLine
 10
155.2176719812159
 20
149.7760649025618
 30
0.0
 11
155.2176719812159
 21
146.5866136109152
 31
0.0
  0
LINE
  5
8B9
330
18
100
AcDbEntity
  8
外形線
100
AcDbLine
 10
159.217671981216
 20
149.7760649025618
 30
0.0
 11
159.2176719812159
 21
146.5866136109152
 31
0.0
  0
ARC
  5
8BF
330
18
100
AcDbEntity
  8
外形線
100
AcDbCircle
 10
157.2176719812159
 20
145.9075597327766
 30
0.0
 40
4.354920464102045
100
AcDbArc
 50
62.66123691595801
 51
117.3387630840411
  0
LINE
  5
8C0
330
18
100
AcDbEntity
  8
外形線
100
AcDbLine
 10
155.2176719812159
 20
82.26248019687863
 30
0.0
 11
155.2176719812159
 21
66.26248019687861
 31
0.0
  0
LINE
  5
8C1
330
18
100
AcDbEntity
  8
外形線
100
AcDbLine
 10
159.2176719812159
 20
82.26248019687863
 30
0.0
 11
159.217671981216
 21
69.8917316542353
 31
0.0
  0
LINE
  5
8C2
330
18
100
AcDbEntity
  8
外形線
100
AcDbLine
 10
189.217671981216
 20
65.63322873952201
 30
0.0
 11
205.217671981216
 21
65.63322873952199
 31
0.0
  0
LINE
  5
921
330
18
100
AcDbEntity
  8
中心線
100
AcDbLine
 10
60.86918433226106
 20
152.3592304268515
 30
0.0
 11
60.86918433226106
 21
49.8287088939988
 31
0.0
  0
LINE
  5
92F
330
18
100
AcDbEntity
  8
中心線
100
AcDbLine
 10
154.6902104039569
 20
60.26248019687863
 30
0.0
 11
207.9775281574525
 21
60.26248019687863
 31
0.0
  0
LINE
  5
932
330
18
100
AcDbEntity
  8
外形線
100
AcDbLine
 10
172.217671981216
 20
62.26248019687862
 30
0.0
 11
172.217671981216
 21
58.26248019687863
 31
0.0
  0
LINE
  5
933
330
18
100
AcDbEntity
  8
外形線
100
AcDbLine
 10
172.217671981216
 20
62.26248019687863
 30
0.0
 11
187.2176719812159
 21
62.26248019687864
 31
0.0
  0
LINE
  5
934
330
18
100
AcDbEntity
  8
外形線
100
AcDbLine
 10
172.217671981216
 20
58.26248019687863
 30
0.0
 11
187.2176719812159
 21
58.26248019687863
 31
0.0
  0
LINE
  5
938
330
18
100
AcDbEntity
  8
外形線
100
AcDbLine
 10
168.217671981216
 20
61.24248019687862
 30
0.0
 11
168.217671981216
 21
59.28248019687863
 31
0.0
  0
LINE
  5
93A
330
18
100
AcDbEntity
  8
外形線
100
AcDbLine
 10
168.217671981216
 20
61.24248019687862
 30
0.0
 11
172.217671981216
 21
62.26248019687863
 31
0.0
  0
LINE
  5
93C
330
18
100
AcDbEntity
  8
外形線
100
AcDbLine
 10
168.217671981216
 20
59.28248019687863
 30
0.0
 11
172.217671981216
 21
58.26248019687863
 31
0.0
  0
LINE
  5
93D
330
18
100
AcDbEntity
  8
中心線
100
AcDbLine
 10
157.217671981216
 20
61.79024614569113
 30
0.0
 11
157.2176719812159
 21
58.77009505680547
 31
0.0
  0
LINE
  5
940
330
18
100
AcDbEntity
  8
外形線
100
AcDbLine
 10
157.8176719812159
 20
61.07229837869681
 30
0.0
 11
168.217671981216
 21
61.24248019687864
 31
0.0
  0
LINE
  5
941
330
18
100
AcDbEntity
  8
外形線
100
AcDbLine
 10
157.8176719812159
 20
59.45266201506047
 30
0.0
 11
168.2176719812159
 21
59.28248019687863
 31
0.0
  0
LINE
  5
943
330
18
100
AcDbEntity
  8
外形線
100
AcDbLine
 10
157.8176719812159
 20
61.07229837869681
 30
0.0
 11
157.8176719812159
 21
59.45266201506047
 31
0.0
  0
ARC
  5
947
330
18
100
AcDbEntity
  8
外形線
100
AcDbCircle
 10
157.2176719812159
 20
60.26248019687863
 30
0.0
 40
1.0
100
AcDbArc
 50
53.13010235416021
 51
306.8698976458418
  0
LINE
  5
94A
330
18
100
AcDbEntity
  8
中心線
100
AcDbLine
 10
152.2623862131804
 20
60.26248019687863
 30
0.0
 11
211.1701948481861
 21
60.26248019687863
 31
0.0
  0
LINE
  5
94B
330
18
100
AcDbEntity
  8
隠れ線2
 48
0.7
100
AcDbLine
 10
187.2176719812159
 20
62.26248019687864
 30
0.0
 11
205.217671981216
 21
62.26248019687864
 31
0.0
  0
LINE
  5
94C
330
18
100
AcDbEntity
  8
隠れ線2
 48
0.7
100
AcDbLine
 10
187.2176719812159
 20
58.26248019687863
 30
0.0
 11
205.217671981216
 21
58.26248019687864
 31
0.0
  0
LINE
  5
94D
330
18
100
AcDbEntity
  8
外形線
100
AcDbLine
 10
157.2176719812159
 20
61.26248019687864
 30
0.0
 11
156.217671981216
 21
61.26248019687864
 31
0.0
  0
LINE
  5
94F
330
18
100
AcDbEntity
  8
外形線
100
AcDbLine
 10
159.2176719812159
 20
70.26248019687864
 30
0.0
 11
155.2176719812159
 21
70.26248019687864
 31
0.0
  0
LINE
  5
952
330
18
100
AcDbEntity
  8
外形線
100
AcDbLine
 10
157.2176719812159
 20
66.26248019687864
 30
0.0
 11
155.2176719812159
 21
66.26248019687864
 31
0.0
  0
LINE
  5
953
330
18
100
AcDbEntity
  8
外形線
100
AcDbLine
 10
155.2176719812159
 20
66.26248019687864
 30
0.0
 11
156.217671981216
 21
61.26248019687864
 31
0.0
  0
LINE
  5
954
330
18
100
AcDbEntity
  8
外形線
100
AcDbLine
 10
159.2176719812159
 20
82.26248019687863
 30
0.0
 11
159.2176719812159
 21
66.26248019687861
 31
0.0
  0
LINE
  5
955
330
18
100
AcDbEntity
  8
外形線
100
AcDbLine
 10
159.2176719812159
 20
66.26248019687864
 30
0.0
 11
158.2176719812159
 21
61.26248019687864
 31
0.0
  0
LINE
  5
956
330
18
100
AcDbEntity
  8
外形線
100
AcDbLine
 10
157.217671981216
 20
66.26248019687864
 30
0.0
 11
159.2176719812159
 21
66.26248019687864
 31
0.0
  0
LINE
  5
957
330
18
100
AcDbEntity
  8
外形線
100
AcDbLine
 10
157.2176719812159
 20
61.26248019687864
 30
0.0
 11
158.2176719812159
 21
61.26248019687864
 31
0.0
  0
LINE
  5
958
330
18
100
AcDbEntity
  8
寸法線
100
AcDbLine
 10
155.2176719812159
 20
68.26248019687864
 30
0.0
 11
157.2176719812159
 21
70.26248019687864
 31
0.0
  0
LINE
  5
959
330
18
100
AcDbEntity
  8
寸法線
100
AcDbLine
 10
155.217671981216
 20
66.84826663450555
 30
0.0
 11
157.2176719812159
 21
68.84826663450553
 31
0.0
  0
LINE
  5
95A
330
18
100
AcDbEntity
  8
寸法線
100
AcDbLine
 10
155.217671981216
 20
69.67669375925177
 30
0.0
 11
155.8034584188428
 21
70.26248019687864
 31
0.0
  0
LINE
  5
95B
330
18
100
AcDbEntity
  8
寸法線
100
AcDbLine
 10
156.0460991059621
 20
66.26248019687864
 30
0.0
 11
157.2176719812159
 21
67.43405307213246
 31
0.0
  0
LINE
  5
95F
330
18
100
AcDbEntity
  8
寸法線
100
AcDbLine
 10
155.2176719812159
 20
70.26248019687864
 30
0.0
 11
157.2176719812159
 21
68.26248019687866
 31
0.0
  0
LINE
  5
961
330
18
100
AcDbEntity
  8
寸法線
100
AcDbLine
 10
156.6318855435891
 20
70.26248019687864
 30
0.0
 11
157.2176719812159
 21
69.67669375925177
 31
0.0
  0
LINE
  5
963
330
18
100
AcDbEntity
  8
寸法線
100
AcDbLine
 10
155.2176719812159
 20
68.84826663450553
 30
0.0
 11
157.2176719812159
 21
66.84826663450555
 31
0.0
  0
LINE
  5
965
330
18
100
AcDbEntity
  8
寸法線
100
AcDbLine
 10
155.2176719812159
 20
67.43405307213243
 30
0.0
 11
156.3892448564697
 21
66.26248019687864
 31
0.0
  0
ARC
  5
969
330
18
100
AcDbEntity
  8
外形線
100
AcDbCircle
 10
209.8931459210859
 20
60.63322873952199
 30
0.0
 40
6.845440567443607
100
AcDbArc
 50
133.0789565832706
 51
226.9210434167293
  0
ARC
  5
96A
330
18
100
AcDbEntity
  8
外形線
100
AcDbCircle
 10
193.0692058236889
 20
65.51026354569017
 30
0.0
 40
3.853496253872444
100
AcDbArc
 50
178.1713793452427
 51
237.438551175493
  0
ARC
  5
96B
330
18
100
AcDbEntity
  8
外形線
100
AcDbCircle
 10
161.4289999078829
 20
87.74435863646948
 30
0.0
 40
3.502002815857101
100
AcDbArc
 50
208.0310339867214
 51
263.8546192939937
  0
ARC
  5
C9F
330
18
100
AcDbEntity
  8
外形線
  6
Continuous
100
AcDbCircle
 10
-30.29748233440538
 20
119.8917316542353
 30
0.0
 40
105.6666666666664
100
AcDbArc
 50
346.3144531747381
 51
13.68554682526199
  0
LINE
  5
CA0
330
18
100
AcDbEntity
  8
外形線
  6
Continuous
100
AcDbLine
 10
72.36918433226094
 20
94.89173165423531
 30
0.0
 11
72.36918433226094
 21
144.8917316542353
 31
0.0
  0
LINE
  5
CA1
330
18
100
AcDbEntity
  8
外形線
  6
Continuous
100
AcDbLine
 10
71.16918433226089
 20
93.49173165423534
 30
0.0
 11
71.16918433226089
 21
146.2917316542353
 31
0.0
  0
LINE
  5
CA2
330
18
100
AcDbEntity
  8
外形線
  6
Continuous
100
AcDbLine
 10
67.36918433226094
 20
93.49173165423534
 30
0.0
 11
67.36918433226094
 21
146.2917316542353
 31
0.0
  0
LINE
  5
CA3
330
18
100
AcDbEntity
  8
外形線
  6
Continuous
100
AcDbLine
 10
65.86918433226094
 20
94.89173165423531
 30
0.0
 11
65.86918433226097
 21
144.8917316542353
 31
0.0
  0
LINE
  5
CA5
330
18
100
AcDbEntity
  8
外形線
  6
Continuous
100
AcDbLine
 10
71.16918433226089
 20
145.3917316542353
 30
0.0
 11
72.36918433226094
 21
144.8917316542353
 31
0.0
  0
LINE
  5
CA6
330
18
100
AcDbEntity
  8
外形線
  6
CENTER2
100
AcDbLine
 10
65.86918433226097
 20
144.8917316542353
 30
0.0
 11
67.36918433226094
 21
144.8917316542353
 31
0.0
  0
LINE
  5
CA7
330
18
100
AcDbEntity
  8
外形線
  6
Continuous
100
AcDbLine
 10
71.16918433226089
 20
146.2917316542353
 30
0.0
 11
67.36918433226094
 21
146.2917316542353
 31
0.0
  0
LINE
  5
CA8
330
18
100
AcDbEntity
  8
外形線
  6
Continuous
 62
     4
100
AcDbLine
 10
71.16918433226089
 20
142.2917316542353
 30
0.0
 11
67.36918433226094
 21
142.2917316542353
 31
0.0
  0
LINE
  5
CA9
330
18
100
AcDbEntity
  8
外形線
  6
Continuous
 62
     4
100
AcDbLine
 10
71.16918433226089
 20
143.2917316542353
 30
0.0
 11
67.36918433226094
 21
143.2917316542353
 31
0.0
  0
LINE
  5
CAA
330
18
100
AcDbEntity
  8
外形線
  6
Continuous
 62
     4
100
AcDbLine
 10
71.16918433226089
 20
144.2917316542353
 30
0.0
 11
67.36918433226094
 21
144.2917316542353
 31
0.0
  0
LINE
  5
CAB
330
18
100
AcDbEntity
  8
外形線
  6
Continuous
 62
     4
100
AcDbLine
 10
71.16918433226089
 20
145.2917316542353
 30
0.0
 11
67.36918433226094
 21
145.2917316542353
 31
0.0
  0
LINE
  5
CAD
330
18
100
AcDbEntity
  8
外形線
  6
Continuous
100
AcDbLine
 10
71.16918433226089
 20
94.39173165423531
 30
0.0
 11
72.36918433226094
 21
94.89173165423531
 31
0.0
  0
LINE
  5
CAE
330
18
100
AcDbEntity
  8
外形線
  6
Continuous
 62
     4
100
AcDbLine
 10
71.16918433226089
 20
141.2917316542353
 30
0.0
 11
67.36918433226094
 21
141.2917316542353
 31
0.0
  0
LINE
  5
CAF
330
18
100
AcDbEntity
  8
外形線
  6
Continuous
 62
     4
100
AcDbLine
 10
67.36918433226094
 20
121.8917316542353
 30
0.0
 11
71.16918433226089
 21
121.8917316542353
 31
0.0
  0
LINE
  5
CB0
330
18
100
AcDbEntity
  8
外形線
  6
Continuous
 62
     4
100
AcDbLine
 10
67.36918433226094
 20
120.8917316542353
 30
0.0
 11
71.16918433226089
 21
120.8917316542353
 31
0.0
  0
LINE
  5
CB1
330
18
100
AcDbEntity
  8
外形線
  6
Continuous
 62
     4
100
AcDbLine
 10
67.36918433226094
 20
119.8917316542353
 30
0.0
 11
71.16918433226089
 21
119.8917316542353
 31
0.0
  0
LINE
  5
CB2
330
18
100
AcDbEntity
  8
外形線
  6
Continuous
 62
     4
100
AcDbLine
 10
67.36918433226094
 20
118.8917316542353
 30
0.0
 11
71.16918433226089
 21
118.8917316542353
 31
0.0
  0
LINE
  5
CB3
330
18
100
AcDbEntity
  8
外形線
  6
Continuous
 62
     4
100
AcDbLine
 10
67.36918433226094
 20
116.8917316542353
 30
0.0
 11
71.16918433226089
 21
116.8917316542353
 31
0.0
  0
LINE
  5
CB4
330
18
100
AcDbEntity
  8
外形線
  6
Continuous
 62
     4
100
AcDbLine
 10
67.36918433226094
 20
117.8917316542353
 30
0.0
 11
71.16918433226089
 21
117.8917316542353
 31
0.0
  0
LINE
  5
CB5
330
18
100
AcDbEntity
  8
外形線
  6
Continuous
 62
     4
100
AcDbLine
 10
71.16918433226089
 20
98.49173165423533
 30
0.0
 11
67.36918433226094
 21
98.49173165423533
 31
0.0
  0
LINE
  5
CB6
330
18
100
AcDbEntity
  8
外形線
  6
Continuous
 62
     4
100
AcDbLine
 10
71.16918433226089
 20
97.49173165423533
 30
0.0
 11
67.36918433226094
 21
97.49173165423533
 31
0.0
  0
LINE
  5
CB7
330
18
100
AcDbEntity
  8
外形線
  6
Continuous
 62
     4
100
AcDbLine
 10
71.16918433226089
 20
96.49173165423533
 30
0.0
 11
67.36918433226094
 21
96.49173165423533
 31
0.0
  0
LINE
  5
CB8
330
18
100
AcDbEntity
  8
外形線
  6
Continuous
 62
     4
100
AcDbLine
 10
71.16918433226089
 20
95.49173165423534
 30
0.0
 11
67.36918433226094
 21
95.49173165423534
 31
0.0
  0
LINE
  5
CC0
330
18
100
AcDbEntity
  8
外形線
  6
CENTER2
100
AcDbLine
 10
65.86918433226094
 20
94.89173165423531
 30
0.0
 11
67.36918433226094
 21
94.89173165423531
 31
0.0
  0
LINE
  5
CC2
330
18
100
AcDbEntity
  8
外形線
  6
Continuous
 62
     4
100
AcDbLine
 10
71.16918433226089
 20
94.49173165423534
 30
0.0
 11
67.36918433226094
 21
94.49173165423534
 31
0.0
  0
LINE
  5
CC3
330
18
100
AcDbEntity
  8
外形線
  6
Continuous
100
AcDbLine
 10
71.16918433226089
 20
93.49173165423534
 30
0.0
 11
67.36918433226094
 21
93.49173165423534
 31
0.0
  0
MTEXT
  5
CC5
330
18
100
AcDbEntity
  8
DEFPOINTS
  6
Continuous
100
AcDbMText
 10
710.4729546088115
 20
331.694457677123
 30
0.0
 40
1.0
 41
0.0
 71
     4
 72
     1
  1
\A1;
 73
     1
 44
1.0
  0
MTEXT
  5
D1E
330
18
100
AcDbEntity
  8
文字
100
AcDbMText
 10
277.612164166811
 20
357.7724399153571
 30
0.0
 40
1.0
 41
6.927999999999999
 71
     1
 72
     5
  1

  7
STYLE3
 73
     1
 44
1.0
  0
MTEXT
  5
D7D
330
18
100
AcDbEntity
  8
DEFPOINTS
  6
Continuous
100
AcDbMText
 10
599.3479738219526
 20
281.019991202808
 30
0.0
 40
0.35
 41
0.0
 71
     4
 72
     1
  1
\A1;
 73
     1
 44
1.0
  0
POINT
  5
E0A
330
18
100
AcDbEntity
  8
DEFPOINTS
  6
ByBlock
 62
     0
100
AcDbPoint
 10
75.369184332261
 20
119.8917316542353
 30
0.0
  0
POINT
  5
EAF
330
18
100
AcDbEntity
  8
DEFPOINTS
  6
ByBlock
 62
     0
100
AcDbPoint
 10
71.16918433226089
 20
93.49173165423534
 30
0.0
  0
POINT
  5
EB0
330
18
100
AcDbEntity
  8
DEFPOINTS
  6
ByBlock
 62
     0
100
AcDbPoint
 10
71.16918433226089
 20
146.2917316542353
 30
0.0
  0
POINT
  5
EF6
330
18
100
AcDbEntity
  8
DEFPOINTS
  6
ByBlock
 62
     0
100
AcDbPoint
 10
71.16918433226089
 20
146.2917316542353
 30
0.0
  0
LINE
  5
F2C
330
18
100
AcDbEntity
  8
外形線
100
AcDbLine
 10
62.86918433226111
 20
149.7760649025618
 30
0.0
 11
62.86918433226109
 21
144.2891633300573
 31
0.0
  0
LINE
  5
F2D
330
18
100
AcDbEntity
  8
外形線
100
AcDbLine
 10
58.86918433226108
 20
149.7760649025618
 30
0.0
 11
58.86918433226106
 21
144.3661211598765
 31
0.0
  0
POINT
  5
F2E
330
18
100
AcDbEntity
  8
DEFPOINTS
  6
ByBlock
 62
     0
100
AcDbPoint
 10
60.86918433226106
 20
150.2624801968786
 30
0.0
  0
ARC
  5
F2F
330
18
100
AcDbEntity
  8
外形線
100
AcDbCircle
 10
60.86918433226106
 20
145.9075597327766
 30
0.0
 40
4.354920464102045
100
AcDbArc
 50
62.66123691595801
 51
117.3387630840411
  0
LINE
  5
F30
330
18
100
AcDbEntity
  8
外形線
  6
Continuous
100
AcDbLine
 10
58.86918433226106
 20
149.7760649025618
 30
0.0
 11
62.86918433226109
 21
149.7760649025618
 31
0.0
  0
LINE
  5
F31
330
18
100
AcDbEntity
  8
外形線
100
AcDbLine
 10
55.36918433226105
 20
95.77245080741279
 30
0.0
 11
55.36918433226105
 21
77.26248019687864
 31
0.0
  0
LINE
  5
F32
330
18
100
AcDbEntity
  8
外形線
100
AcDbLine
 10
66.36918433226106
 20
94.89173165423531
 30
0.0
 11
66.36918433226106
 21
77.26248019687864
 31
0.0
  0
ARC
  5
F37
330
18
100
AcDbEntity
  8
外形線
100
AcDbCircle
 10
60.86918433226106
 20
60.78748019687863
 30
0.0
 40
5.525
100
AcDbArc
 50
185.4526219878125
 51
354.5473780121874
  0
LINE
  5
F39
330
18
100
AcDbEntity
  8
外形線
100
AcDbLine
 10
55.36918433226105
 20
60.26248019687863
 30
0.0
 11
55.36918433226105
 21
77.26248019687864
 31
0.0
  0
LINE
  5
F3A
330
18
100
AcDbEntity
  8
外形線
100
AcDbLine
 10
66.36918433226106
 20
60.26248019687862
 30
0.0
 11
66.36918433226106
 21
77.26248019687864
 31
0.0
  0
LINE
  5
F55
330
18
100
AcDbEntity
  8
外形線
100
AcDbLine
 10
66.36918433226106
 20
82.26248019687863
 30
0.0
 11
55.36918433226105
 21
82.26248019687867
 31
0.0
  0
LINE
  5
F57
330
18
100
AcDbEntity
  8
寸法線
100
AcDbLine
 10
58.86918433226106
 20
69.18462487304875
 30
0.0
 11
60.86918433226102
 21
67.18462487304876
 31
0.0
  0
LINE
  5
F5A
330
18
100
AcDbEntity
  8
寸法線
100
AcDbLine
 10
58.86918433226108
 20
66.47751809186221
 30
0.0
 11
60.86918433226106
 21
68.47751809186219
 31
0.0
  0
LINE
  5
F5B
330
18
100
AcDbEntity
  8
寸法線
100
AcDbLine
 10
58.86918433226106
 20
67.77041131067564
 30
0.0
 11
60.7478639887014
 21
65.8917316542353
 31
0.0
  0
LINE
  5
F5C
330
18
100
AcDbEntity
  8
外形線
100
AcDbLine
 10
62.86918433226105
 20
82.26248019687865
 30
0.0
 11
62.86918433226105
 21
65.89173165423528
 31
0.0
  0
LINE
  5
F5D
330
18
100
AcDbEntity
  8
外形線
100
AcDbLine
 10
58.86918433226106
 20
82.26248019687865
 30
0.0
 11
58.86918433226106
 21
65.89173165423528
 31
0.0
  0
LINE
  5
F5E
330
18
100
AcDbEntity
  8
寸法線
100
AcDbLine
 10
59.69761145700724
 20
65.8917316542353
 30
0.0
 11
60.86918433226106
 21
67.06330452948913
 31
0.0
  0
LINE
  5
F5F
330
18
100
AcDbEntity
  8
寸法線
100
AcDbLine
 10
58.86918433226106
 20
66.35619774830252
 30
0.0
 11
59.33365042632829
 21
65.89173165423528
 31
0.0
  0
LINE
  5
F61
330
18
100
AcDbEntity
  8
外形線
100
AcDbLine
 10
60.86918433226102
 20
65.8917316542353
 30
0.0
 11
58.86918433226106
 21
65.8917316542353
 31
0.0
  0
LINE
  5
F62
330
18
100
AcDbEntity
  8
外形線
100
AcDbLine
 10
60.86918433226109
 20
65.8917316542353
 30
0.0
 11
62.86918433226105
 21
65.8917316542353
 31
0.0
  0
LINE
  5
F63
330
18
100
AcDbEntity
  8
外形線
100
AcDbLine
 10
60.86918433226106
 20
60.8917316542353
 30
0.0
 11
59.86918433226112
 21
60.8917316542353
 31
0.0
  0
LINE
  5
F64
330
18
100
AcDbEntity
  8
外形線
100
AcDbLine
 10
60.86918433226106
 20
60.8917316542353
 30
0.0
 11
61.869184332261
 21
60.8917316542353
 31
0.0
  0
LINE
  5
F65
330
18
100
AcDbEntity
  8
外形線
100
AcDbLine
 10
62.86918433226105
 20
65.8917316542353
 30
0.0
 11
61.869184332261
 21
60.8917316542353
 31
0.0
  0
LINE
  5
F66
330
18
100
AcDbEntity
  8
外形線
100
AcDbLine
 10
58.86918433226106
 20
65.8917316542353
 30
0.0
 11
59.86918433226112
 21
60.8917316542353
 31
0.0
  0
LINE
  5
F67
330
18
100
AcDbEntity
  8
外形線
100
AcDbLine
 10
62.86918433226105
 20
82.26248019687865
 30
0.0
 11
62.86918433226109
 21
69.89173165423531
 31
0.0
  0
LINE
  5
F68
330
18
100
AcDbEntity
  8
寸法線
100
AcDbLine
 10
59.57629111344761
 20
69.89173165423531
 30
0.0
 11
60.86918433226106
 21
68.59883843542188
 31
0.0
  0
LINE
  5
F69
330
18
100
AcDbEntity
  8
寸法線
100
AcDbLine
 10
58.86918433226108
 20
69.30594521660843
 30
0.0
 11
59.45497076988792
 21
69.8917316542353
 31
0.0
  0
LINE
  5
F6D
330
18
100
AcDbEntity
  8
寸法線
100
AcDbLine
 10
58.86918433226106
 20
67.89173165423531
 30
0.0
 11
60.86918433226106
 21
69.89173165423531
 31
0.0
  0
LINE
  5
F6E
330
18
100
AcDbEntity
  8
外形線
100
AcDbLine
 10
62.86918433226105
 20
69.8917316542353
 30
0.0
 11
58.86918433226106
 21
69.8917316542353
 31
0.0
  0
LINE
  5
F6F
330
18
100
AcDbEntity
  8
中心線
100
AcDbLine
 10
65.28636028087908
 20
59.8917316542353
 30
0.0
 11
51.58131623194265
 21
59.89173165423529
 31
0.0
  0
CIRCLE
  5
F71
330
18
100
AcDbEntity
  8
外形線
100
AcDbCircle
 10
60.86918433226106
 20
59.89173165423529
 30
0.0
 40
1.0
  0
ARC
  5
F72
330
18
100
AcDbEntity
  8
外形線
100
AcDbCircle
 10
60.86918433226106
 20
59.89173165423529
 30
0.0
 40
2.0
100
AcDbArc
 50
124.4034017438171
 51
55.59659825618286
  0
LINE
  5
F75
330
18
100
AcDbEntity
  8
中心線
100
AcDbLine
 10
126.2430638898437
 20
120.2624801968786
 30
0.0
 11
188.1922800725881
 21
120.2624801968786
 31
0.0
  0
LINE
  5
F9C
330
18
100
AcDbEntity
  8
寸法線
100
AcDbLine
 10
54.66918433226104
 20
144.3917316542353
 30
0.0
 11
54.66918433226104
 21
143.8917316542353
 31
0.0
  0
LINE
  5
FB8
330
18
100
AcDbEntity
  8
0
  6
ByBlock
 62
     2
100
AcDbLine
 10
75.36918433226105
 20
119.8917316542353
 30
0.0
 11
75.36918433226105
 21
159.8237823138437
 31
0.0
  0
LINE
  5
FB9
330
18
100
AcDbEntity
  8
0
  6
ByBlock
 62
     2
100
AcDbLine
 10
63.36918433226085
 20
158.5737823138437
 30
0.0
 11
72.86918433226105
 21
158.5737823138437
 31
0.0
  0
INSERT
  5
FBA
330
18
100
AcDbEntity
  8
0
  6
ByBlock
 62
     2
100
AcDbBlockReference
  2
_OPEN
 10
60.86918433226085
 20
158.5737823138437
 30
0.0
 41
2.5
 42
2.5
 43
2.5
 50
180.0
  0
INSERT
  5
FBB
330
18
100
AcDbEntity
  8
0
  6
ByBlock
 62
     2
100
AcDbBlockReference
  2
_OPEN
 10
75.36918433226105
 20
158.5737823138437
 30
0.0
 41
2.5
 42
2.5
 43
2.5
  0
MTEXT
  5
FBC
330
18
100
AcDbEntity
  8
0
  6
ByBlock
 62
     6
100
AcDbMText
 10
68.11918433226096
 20
160.4487823138437
 30
0.0
 40
2.5
 41
0.0
 71
     5
 72
     1
  1
\A1;14.5
  7
STYLE3
 73
     1
 44
1.0
  0
POINT
  5
FBD
330
18
100
AcDbEntity
  8
DEFPOINTS
  6
ByBlock
 62
     0
100
AcDbPoint
 10
60.86918433226085
 20
152.3018409293077
 30
0.0
  0
POINT
  5
FBE
330
18
100
AcDbEntity
  8
DEFPOINTS
  6
ByBlock
 62
     0
100
AcDbPoint
 10
75.36918433226105
 20
119.8917316542353
 30
0.0
  0
POINT
  5
FBF
330
18
100
AcDbEntity
  8
DEFPOINTS
  6
ByBlock
 62
     0
100
AcDbPoint
 10
75.36918433226105
 20
158.5737823138437
 30
0.0
  0
LINE
  5
FC0
330
18
100
AcDbEntity
  8
0
  6
ByBlock
 62
     2
100
AcDbLine
 10
54.66918433226104
 20
144.3917316542353
 30
0.0
 11
54.66918433226104
 21
159.8237823138437
 31
0.0
  0
LINE
  5
FC1
330
18
100
AcDbEntity
  8
0
  6
ByBlock
 62
     2
100
AcDbLine
 10
60.86918433226085
 20
152.3018409293077
 30
0.0
 11
60.86918433226085
 21
159.8237823138437
 31
0.0
  0
LINE
  5
FC2
330
18
100
AcDbEntity
  8
0
  6
ByBlock
 62
     2
100
AcDbLine
 10
52.16918433226104
 20
158.5737823138437
 30
0.0
 11
49.66918433226104
 21
158.5737823138437
 31
0.0
  0
LINE
  5
FC3
330
18
100
AcDbEntity
  8
0
  6
ByBlock
 62
     2
100
AcDbLine
 10
63.36918433226085
 20
158.5737823138437
 30
0.0
 11
72.23823195130847
 21
158.5737823138437
 31
0.0
  0
LINE
  5
FC4
330
18
100
AcDbEntity
  8
0
  6
ByBlock
 62
     2
100
AcDbLine
 10
54.66918433226104
 20
158.5737823138437
 30
0.0
 11
60.86918433226085
 21
158.5737823138437
 31
0.0
  0
INSERT
  5
FC5
330
18
100
AcDbEntity
  8
0
  6
ByBlock
 62
     2
100
AcDbBlockReference
  2
_OPEN
 10
54.66918433226104
 20
158.5737823138437
 30
0.0
 41
2.5
 42
2.5
 43
2.5
  0
INSERT
  5
FC6
330
18
100
AcDbEntity
  8
0
  6
ByBlock
 62
     2
100
AcDbBlockReference
  2
_OPEN
 10
60.86918433226085
 20
158.5737823138437
 30
0.0
 41
2.5
 42
2.5
 43
2.5
 50
180.0
  0
MTEXT
  5
FC7
330
18
100
AcDbEntity
  8
0
  6
ByBlock
 62
     6
100
AcDbMText
 10
58.07610518855174
 20
160.5733427349913
 30
0.0
 40
2.5
 41
0.0
 71
     5
 72
     1
  1
\A1;6.2
  7
STYLE3
 73
     1
 44
1.0
  0
POINT
  5
FC8
330
18
100
AcDbEntity
  8
DEFPOINTS
  6
ByBlock
 62
     0
100
AcDbPoint
 10
54.66918433226104
 20
144.3917316542353
 30
0.0
  0
POINT
  5
FC9
330
18
100
AcDbEntity
  8
DEFPOINTS
  6
ByBlock
 62
     0
100
AcDbPoint
 10
60.86918433226085
 20
152.3018409293077
 30
0.0
  0
POINT
  5
FCA
330
18
100
AcDbEntity
  8
DEFPOINTS
  6
ByBlock
 62
     0
100
AcDbPoint
 10
60.86918433226085
 20
158.5737823138437
 30
0.0
  0
DIMENSION
  5
FD7
330
18
100
AcDbEntity
  8
外形線
100
AcDbDimension
  2
*D5
 10
75.36918433226105
 20
165.053420718254
 30
0.0
 11
65.01918433226105
 21
166.928420718254
 31
0.0
 70
    32
 71
     5
 42
20.70000000000002
  3
STYLE3
100
AcDbAlignedDimension
 13
54.66918433226104
 23
159.8237823138437
 33
0.0
 14
75.36918433226105
 24
159.8237823138437
 34
0.0
100
AcDbRotatedDimension
1001
ACAD
1000
DSTYLE
1002
{
1070
   271
1070
     2
1002
}
  0
DIMENSION
  5
FE4
330
18
100
AcDbEntity
  8
外形線
100
AcDbDimension
  2
*D6
 10
90.46546187442675
 20
93.49173165423534
 30
0.0
 11
88.59046187442675
 21
119.8917316542353
 31
0.0
 70
    32
  1
φ53
 71
     5
 42
52.79999999999997
  3
STYLE3
100
AcDbAlignedDimension
 13
71.16918433226089
 23
146.2917316542353
 33
0.0
 14
71.16918433226089
 24
93.49173165423534
 34
0.0
 50
90.0
100
AcDbRotatedDimension
1001
ACAD
1000
DSTYLE
1002
{
1070
   271
1070
     2
1002
}
  0
LINE
  5
103F
330
18
100
AcDbEntity
  8
0
  6
ByBlock
 62
     2
100
AcDbLine
 10
60.86918433226106
 20
150.2624801968786
 30
0.0
 11
41.71689726218335
 21
150.2624801968786
 31
0.0
  0
LINE
  5
1040
330
18
100
AcDbEntity
  8
0
  6
ByBlock
 62
     2
100
AcDbLine
 10
51.58131623194265
 20
59.89173165423529
 30
0.0
 11
41.71689726218335
 21
59.89173165423529
 31
0.0
  0
LINE
  5
1041
330
18
100
AcDbEntity
  8
0
  6
ByBlock
 62
     2
100
AcDbLine
 10
42.96689726218335
 20
147.7624801968786
 30
0.0
 11
42.96689726218335
 21
62.39173165423529
 31
0.0
  0
INSERT
  5
1042
330
18
100
AcDbEntity
  8
0
  6
ByBlock
 62
     2
100
AcDbBlockReference
  2
_OPEN
 10
42.96689726218335
 20
150.2624801968786
 30
0.0
 41
2.5
 42
2.5
 43
2.5
 50
90.0
  0
INSERT
  5
1043
330
18
100
AcDbEntity
  8
0
  6
ByBlock
 62
     2
100
AcDbBlockReference
  2
_OPEN
 10
42.96689726218335
 20
59.89173165423529
 30
0.0
 41
2.5
 42
2.5
 43
2.5
 50
270.0
  0
MTEXT
  5
1044
330
18
100
AcDbEntity
  8
0
  6
ByBlock
 62
     6
100
AcDbMText
 10
41.09189726218335
 20
105.0771059255569
 30
0.0
 40
2.5
 41
0.0
 71
     5
 72
     1
  1
90
  7
STYLE3
 11
0.0000000000000001
 21
1.0
 31
0.0
 73
     1
 44
1.0
  0
POINT
  5
1045
330
18
100
AcDbEntity
  8
DEFPOINTS
  6
ByBlock
 62
     0
100
AcDbPoint
 10
60.86918433226106
 20
150.2624801968786
 30
0.0
  0
POINT
  5
1046
330
18
100
AcDbEntity
  8
DEFPOINTS
  6
ByBlock
 62
     0
100
AcDbPoint
 10
51.58131623194265
 20
59.89173165423529
 30
0.0
  0
POINT
  5
1047
330
18
100
AcDbEntity
  8
DEFPOINTS
  6
ByBlock
 62
     0
100
AcDbPoint
 10
42.96689726218335
 20
59.89173165423529
 30
0.0
  0
LINE
  5
1048
330
18
100
AcDbEntity
  8
0
  6
ByBlock
 62
     2
100
AcDbLine
 10
60.86918433226106
 20
55.26248019687863
 30
0.0
 11
41.71689726218335
 21
55.26248019687863
 31
0.0
  0
LINE
  5
1049
330
18
100
AcDbEntity
  8
0
  6
ByBlock
 62
     2
100
AcDbLine
 10
42.96689726218335
 20
62.39173165423529
 30
0.0
 11
42.96689726218335
 21
64.89173165423529
 31
0.0
  0
LINE
  5
104A
330
18
100
AcDbEntity
  8
0
  6
ByBlock
 62
     2
100
AcDbLine
 10
42.96689726218335
 20
52.76248019687863
 30
0.0
 11
42.96689726218335
 21
50.26248019687863
 31
0.0
  0
MTEXT
  5
104D
330
18
100
AcDbEntity
  8
0
  6
ByBlock
 62
     6
100
AcDbMText
 10
40.7401049586275
 20
56.62444149965046
 30
0.0
 40
2.5
 41
0.0
 71
     4
 72
     1
  1
5
  7
STYLE3
 11
0.0000000000000001
 21
1.0
 31
0.0
 73
     1
 44
1.0
  0
LINE
  5
104E
330
18
100
AcDbEntity
  8
0
  6
ByBlock
 62
     2
100
AcDbLine
 10
42.96689726218335
 20
59.89173165423529
 30
0.0
 11
42.96689726218335
 21
55.26248019687863
 31
0.0
  0
LINE
  5
104F
330
18
100
AcDbEntity
  8
0
  6
ByBlock
 62
     2
100
AcDbLine
 10
42.96689726218335
 20
59.89173165423529
 30
0.0
 11
42.96689726218335
 21
55.26248019687863
 31
0.0
  0
INSERT
  5
1050
330
18
100
AcDbEntity
  8
0
  6
ByBlock
 62
     2
100
AcDbBlockReference
  2
_OPEN
 10
42.96689726218335
 20
59.89173165423529
 30
0.0
 41
2.5
 42
2.5
 43
2.5
 50
270.0
  0
INSERT
  5
1051
330
18
100
AcDbEntity
  8
0
  6
ByBlock
 62
     2
100
AcDbBlockReference
  2
_OPEN
 10
42.96689726218335
 20
55.26248019687863
 30
0.0
 41
2.5
 42
2.5
 43
2.5
 50
90.0
  0
POINT
  5
1052
330
18
100
AcDbEntity
  8
DEFPOINTS
  6
ByBlock
 62
     0
100
AcDbPoint
 10
51.58131623194265
 20
59.89173165423529
 30
0.0
  0
POINT
  5
1053
330
18
100
AcDbEntity
  8
DEFPOINTS
  6
ByBlock
 62
     0
100
AcDbPoint
 10
60.86918433226106
 20
55.26248019687863
 30
0.0
  0
POINT
  5
1054
330
18
100
AcDbEntity
  8
DEFPOINTS
  6
ByBlock
 62
     0
100
AcDbPoint
 10
42.96689726218335
 20
55.26248019687863
 30
0.0
  0
DIMENSION
  5
108D
330
18
100
AcDbEntity
  8
外形線
100
AcDbDimension
  2
*D9
 10
35.61912096921537
 20
55.26248019687863
 30
0.0
 11
33.74412096921537
 21
102.7624801968786
 31
0.0
 70
    32
 71
     5
 42
94.99999999999998
  3
STYLE3
100
AcDbAlignedDimension
 13
41.71689726218335
 23
150.2624801968786
 33
0.0
 14
41.71689726218335
 24
55.26248019687863
 34
0.0
 50
90.0
100
AcDbRotatedDimension
1001
ACAD
1000
DSTYLE
1002
{
1070
   271
1070
     2
1002
}
  0
DIMENSION
  5
10D7
330
18
100
AcDbEntity
  8
外形線
100
AcDbDimension
  2
*D10
 10
159.2176719812159
 20
74.68806418846856
 30
0.0
 11
167.1641005526445
 21
76.56306418846856
 31
0.0
 70
    32
  1
φ4
 71
     5
 42
4.0
  3
STYLE3
100
AcDbAlignedDimension
 13
155.2176719812159
 23
82.26248019687863
 33
0.0
 14
159.2176719812159
 24
82.26248019687863
 34
0.0
100
AcDbRotatedDimension
1001
ACAD
1000
DSTYLE
1002
{
1070
   271
1070
     2
1002
}
  0
DIMENSION
  5
10F1
330
18
100
AcDbEntity
  8
外形線
100
AcDbDimension
  2
*D11
 10
187.2176719812159
 20
44.74987195811416
 30
0.0
 11
172.2176719812159
 21
46.62487195811416
 31
0.0
 70
    32
 71
     5
 42
30.00000000000006
  3
STYLE3
100
AcDbAlignedDimension
 13
157.2176719812159
 23
58.77009505680547
 33
0.0
 14
187.2176719812159
 24
55.63322873952198
 34
0.0
100
AcDbRotatedDimension
1001
ACAD
1000
DSTYLE
1002
{
1070
   271
1070
     2
1002
}
  0
DIMENSION
  5
10FD
330
18
100
AcDbEntity
  8
外形線
100
AcDbDimension
  2
*D12
 10
205.217671981216
 20
44.74987195811416
 30
0.0
 11
196.2176719812159
 21
46.62487195811416
 31
0.0
 70
    32
 71
     5
 42
18.0
  3
STYLE3
100
AcDbAlignedDimension
 13
187.2176719812159
 23
55.63322873952198
 33
0.0
 14
205.217671981216
 24
55.63322873952198
 34
0.0
100
AcDbRotatedDimension
1001
ACAD
1000
DSTYLE
1002
{
1070
    75
1070
     1
1070
   271
1070
     2
1070
   279
1070
     1
1002
}
  0
DIMENSION
  5
1114
330
18
100
AcDbEntity
  8
外形線
100
AcDbDimension
  2
*D13
 10
146.4317717127178
 20
61.26248019687864
 30
0.0
 11
144.5567717127178
 21
65.76248019687866
 31
0.0
 70
    32
 71
     5
 42
9.0
  3
STYLE3
100
AcDbAlignedDimension
 13
155.2176719812159
 23
70.26248019687864
 33
0.0
 14
156.217671981216
 24
61.26248019687864
 34
0.0
 50
90.0
100
AcDbRotatedDimension
1001
ACAD
1000
DSTYLE
1002
{
1070
   271
1070
     2
1002
}
  0
MTEXT
  5
14A5
330
18
100
AcDbEntity
  8
DEFPOINTS
  6
Continuous
100
AcDbMText
 10
1025.567307082712
 20
154.6779584459976
 30
0.0
 40
1.0
 41
0.0
 71
     4
 72
     1
  1
\A1;
 73
     1
 44
1.0
  0
MTEXT
  5
14A9
330
18
100
AcDbEntity
  8
文字
100
AcDbMText
 10
592.7065166407121
 20
180.7559406842317
 30
0.0
 40
1.0
 41
6.927999999999999
 71
     1
 72
     5
  1

  7
STYLE3
 73
     1
 44
1.0
  0
MTEXT
  5
14AA
330
18
100
AcDbEntity
  8
DEFPOINTS
  6
Continuous
100
AcDbMText
 10
914.4423262958536
 20
104.0034919716825
 30
0.0
 40
0.35
 41
0.0
 71
     4
 72
     1
  1
\A1;
 73
     1
 44
1.0
  0
MTEXT
  5
1591
330
18
100
AcDbEntity
  8
DEFPOINTS
  6
Continuous
100
AcDbMText
 10
1120.36654932847
 20
257.9884247945498
 30
0.0
 40
1.0
 41
0.0
 71
     4
 72
     1
  1
\A1;
 73
     1
 44
1.0
  0
MTEXT
  5
1595
330
18
100
AcDbEntity
  8
文字
100
AcDbMText
 10
687.5057588864692
 20
284.0664070327839
 30
0.0
 40
1.0
 41
6.927999999999999
 71
     1
 72
     5
  1

  7
STYLE3
 73
     1
 44
1.0
  0
MTEXT
  5
1596
330
18
100
AcDbEntity
  8
DEFPOINTS
  6
Continuous
100
AcDbMText
 10
1009.24156854161
 20
207.3139583202348
 30
0.0
 40
0.35
 41
0.0
 71
     4
 72
     1
  1
\A1;
 73
     1
 44
1.0
  0
MTEXT
  5
1597
330
18
100
AcDbEntity
  8
DEFPOINTS
  6
Continuous
100
AcDbMText
 10
1620.80519670057
 20
433.2016133035515
 30
0.0
 40
1.0
 41
0.0
 71
     4
 72
     1
  1
\A1;
 73
     1
 44
1.0
  0
MTEXT
  5
1598
330
18
100
AcDbEntity
  8
文字
100
AcDbMText
 10
1187.94440625857
 20
459.2795955417855
 30
0.0
 40
1.0
 41
6.927999999999999
 71
     1
 72
     5
  1

  7
STYLE3
 73
     1
 44
1.0
  0
MTEXT
  5
1599
330
18
100
AcDbEntity
  8
DEFPOINTS
  6
Continuous
100
AcDbMText
 10
1509.680215913711
 20
382.5271468292364
 30
0.0
 40
0.35
 41
0.0
 71
     4
 72
     1
  1
\A1;
 73
     1
 44
1.0
  0
LINE
  5
1649
330
18
100
AcDbEntity
  8
外形線
100
AcDbLine
 10
174.037650054126
 20
140.6106579439602
 30
0.0
 11
175.6908085762925
 21
148.4315421464681
 31
0.0
  0
LINE
  5
164A
330
18
100
AcDbEntity
  8
外形線
100
AcDbLine
 10
170.2971995137149
 20
143.1946837439999
 30
0.0
 11
174.1939923351438
 21
149.0657233621806
 31
0.0
  0
LINE
  5
164B
330
18
100
AcDbEntity
  8
外形線
100
AcDbLine
 10
173.5003521136134
 20
147.4565599335008
 30
0.0
 11
187.8175855470905
 21
153.8292261673992
 31
0.0
  0
LINE
  5
164C
330
18
100
AcDbEntity
  8
外形線
100
AcDbLine
 10
175.047062981435
 20
149.7868867430031
 30
0.0
 11
187.207622516837
 21
155.1996075383044
 31
0.0
  0
ARC
  5
164D
330
18
100
AcDbEntity
  8
外形線
100
AcDbCircle
 10
174.3395088802305
 20
145.6119287103518
 30
0.0
 40
2.0
100
AcDbArc
 50
113.9356071948141
 51
146.3680666248561
  0
ARC
  5
164E
330
18
100
AcDbEntity
  8
外形線
100
AcDbCircle
 10
177.436503046133
 20
147.0193871417623
 30
0.0
 40
2.0
100
AcDbArc
 50
113.9940655736767
 51
168.0646535066254
  0
ARC
  5
164F
330
18
100
AcDbEntity
  8
外形線
100
AcDbCircle
 10
175.860347021773
 20
147.9597115817961
 30
0.0
 40
2.0
100
AcDbArc
 50
113.9940655736764
 51
146.4265250037177
  0
LINE
  5
1650
330
18
100
AcDbEntity
  8
外形線
100
AcDbLine
 10
187.207622516837
 20
155.1996075383044
 30
0.0
 11
187.8175855470905
 21
153.8292261673992
 31
0.0
  0
ARC
  5
170C
330
18
100
AcDbEntity
  8
外形線
100
AcDbCircle
 10
60.269184332261
 20
113.1417316542358
 30
0.0
 40
31.25575946925574
100
AcDbArc
 50
79.67875754383967
 51
100.3212424561604
  0
LINE
  5
170D
330
18
100
AcDbEntity
  8
外形線
100
AcDbLine
 10
54.66918433226104
 20
143.8917316542353
 30
0.0
 11
54.66918433226107
 21
95.89173165423526
 31
0.0
  0
ARC
  5
170E
330
18
100
AcDbEntity
  8
外形線
100
AcDbCircle
 10
60.269184332261
 20
126.6417316542348
 30
0.0
 40
31.25575946925574
100
AcDbArc
 50
259.6787575438396
 51
280.3212424561603
  0
DIMENSION
  5
180B
330
18
100
AcDbEntity
  8
寸法線
100
AcDbDimension
  2
*D16
 10
168.2176719812159
 20
51.77425716964819
 30
0.0
 11
162.7176719812159
 21
53.64925716964819
 31
0.0
 70
    32
 71
     5
 42
11.00000000000003
  3
STYLE3
100
AcDbAlignedDimension
 13
157.2176719812159
 23
58.77009505680547
 33
0.0
 14
168.2176719812159
 24
59.28248019687863
 34
0.0
100
AcDbRotatedDimension
1001
ACAD
1000
DSTYLE
1002
{
1070
   271
1070
     2
1070
   341
1005
0
1002
}
  0
DIMENSION
  5
183C
330
18
100
AcDbEntity
  8
寸法線
100
AcDbDimension
  2
*D17
 10
64.72749883435852
 20
67.02140688497627
 30
0.0
 11
73.60991940532686
 21
67.02140688497627
 31
0.0
 70
   160
  1
%%C<>
 71
     5
 42
1.999999999999886
  3
STYLE3
100
AcDbAlignedDimension
 13
59.86918433226112
 23
60.8917316542353
 33
0.0
 14
61.869184332261
 24
60.8917316542353
 34
0.0
100
AcDbRotatedDimension
1001
ACAD
1000
DSTYLE
1002
{
1070
   271
1070
     2
1070
   341
1005
0
1002
}
  0
DIMENSION
  5
18D2
330
18
100
AcDbEntity
  8
寸法線
100
AcDbDimension
  2
*D18
 10
129.1315889811789
 20
120.2624801968786
 30
0.0
 11
127.2565889811788
 21
101.2624801968786
 31
0.0
 70
    32
 71
     5
 42
37.99999999999999
  3
STYLE3
100
AcDbAlignedDimension
 13
129.1315889811789
 23
82.26248019687865
 33
0.0
 14
129.1315889811789
 24
120.2624801968786
 34
0.0
 50
90.0
100
AcDbRotatedDimension
1001
ACAD
1000
DSTYLE
1002
{
1070
   271
1070
     2
1070
   341
1005
0
1002
}
  0
LINE
  5
18DF
330
18
100
AcDbEntity
  8
寸法線
100
AcDbLine
 10
129.1315889811789
 20
82.26248019687865
 30
0.0
 11
151.717671981216
 21
82.26248019687865
 31
0.0
  0
DIMENSION
  5
1906
330
18
100
AcDbEntity
  8
寸法線
100
AcDbDimension
  2
*D19
 10
121.9399071730126
 20
60.26248019687864
 30
0.0
 11
120.0649071730126
 21
90.26248019687866
 31
0.0
 70
    32
 71
     5
 42
60.0
  3
STYLE3
100
AcDbAlignedDimension
 13
126.2430638898437
 23
120.2624801968786
 33
0.0
 14
152.2623862131804
 24
60.26248019687863
 34
0.0
 50
90.0
100
AcDbRotatedDimension
1001
ACAD
1000
DSTYLE
1002
{
1070
   271
1070
     2
1070
   341
1005
0
1002
}
  0
DIMENSION
  5
1913
330
18
100
AcDbEntity
  8
寸法線
100
AcDbDimension
  2
*D20
 10
129.1315889811789
 20
60.26248019687864
 30
0.0
 11
127.2565889811789
 21
71.26248019687865
 31
0.0
 70
    32
 71
     5
 42
22.00000000000001
  3
STYLE3
100
AcDbAlignedDimension
 13
137.5896606000026
 23
82.26248019687865
 33
0.0
 14
135.9844064592778
 24
60.26248019687864
 34
0.0
 50
90.0
100
AcDbRotatedDimension
1001
ACAD
1000
DSTYLE
1002
{
1070
   271
1070
     2
1070
   341
1005
0
1002
}
  0
TEXT
  5
1E02
330
18
100
AcDbEntity
  8
文字
100
AcDbText
 10
150.7776560975208
 20
123.968508791332
 30
0.0
 40
1.3
  1
MODEL   P-1
  7
STYLE3
100
AcDbText
  0
TEXT
  5
1E03
330
18
100
AcDbEntity
  8
文字
100
AcDbText
 10
150.8551457335908
 20
126.2629177623078
 30
0.0
 40
1.0
  1
MADE  IN  JAPAN
  7
STYLE3
100
AcDbText
  0
TEXT
  5
1E4C
330
18
100
AcDbEntity
  8
文字
100
AcDbText
 10
82.07472744978112
 20
187.1530583268621
 30
0.0
 40
4.0
  1
Model No.P-1 Dial Pipe Gauge
  7
STYLE3
100
AcDbText
  0
LINE
  5
1E4D
330
18
100
AcDbEntity
  8
外形線
100
AcDbLine
 10
81.07230344978111
 20
184.1672443268621
 30
0.0
 11
173.0723034497811
 21
184.1672443268621
 31
0.0
  0
LINE
  5
1E4E
330
18
100
AcDbEntity
  8
外形線
100
AcDbLine
 10
81.07230344978111
 20
185.1672443268621
 30
0.0
 11
173.0723034497811
 21
185.1672443268621
 31
0.0
  0
LINE
  5
1E4F
330
18
100
AcDbEntity
  8
外形線
100
AcDbLine
 10
113.5651264497811
 20
20.81544032686216
 30
0.0
 11
254.3565444497811
 21
20.81544032686216
 31
0.0
  0
LINE
  5
1E50
330
18
100
AcDbEntity
  8
外形線
100
AcDbLine
 10
113.5651264497811
 20
10.03523532686216
 30
0.0
 11
254.3565444497811
 21
10.03523532686216
 31
0.0
  0
TEXT
  5
1E51
330
18
100
AcDbEntity
  8
0
  6
Continuous
100
AcDbText
 10
115.0225944497811
 20
11.93322532686216
 30
0.0
 40
2.1
  1
Design and specifications are subject to change without notice for future improvement.
  7
STYLE3
100
AcDbText
  0
TEXT
  5
1E52
330
18
100
AcDbEntity
  8
0
  6
Continuous
100
AcDbText
 10
115.3140884497811
 20
15.86237332686216
 30
0.0
 40
3.5
  1
仕様及び外観は予告なく変更される場合がございますのでご了承下さい。
  7
STYLE3
100
AcDbText
  0
TEXT
  5
1E53
330
18
100
AcDbEntity
  8
0
  6
Continuous
100
AcDbText
 10
187.7874954497811
 20
2.168599326862159
 30
0.0
 40
2.1
  1
Date
  7
STYLE3
100
AcDbText
  0
TEXT
  5
1E54
330
18
100
AcDbEntity
  8
0
  6
Continuous
100
AcDbText
 10
177.6937234497811
 20
4.208098326862159
 30
0.0
 40
2.399999999999999
  1
1/1
  7
STYLE3
100
AcDbText
  0
TEXT
  5
1E55
330
18
100
AcDbEntity
  8
0
  6
Continuous
100
AcDbText
 10
196.5323024497811
 20
3.916739326862159
 30
0.0
 40
2.1
  1
2010.06.16
  7
STYLE3
100
AcDbText
  0
TEXT
  5
1E56
330
18
100
AcDbEntity
  8
0
  6
Continuous
100
AcDbText
 10
158.3353714497811
 20
3.916741326862159
 30
0.0
 40
2.399999999999999
  1
mm
  7
STYLE3
100
AcDbText
  0
TEXT
  5
1E57
330
18
100
AcDbEntity
  8
0
  6
Continuous
100
AcDbText
 10
150.4650444497811
 20
2.168598326862158
 30
0.0
 40
2.1
  1
Unit
  7
STYLE3
100
AcDbText
  0
TEXT
  5
1E58
330
18
100
AcDbEntity
  8
0
  6
Continuous
100
AcDbText
 10
114.7311024497811
 20
2.168597326862159
 30
0.0
 40
2.1
  1
3RD Angle Projection
  7
STYLE3
100
AcDbText
  0
TEXT
  5
1E59
330
18
100
AcDbEntity
  8
0
  6
Continuous
100
AcDbText
 10
167.6112194497811
 20
5.379477326862159
 30
0.0
 40
3.0
  1
尺 度
  7
STYLE3
100
AcDbText
  0
TEXT
  5
1E5A
330
18
100
AcDbEntity
  8
0
  6
Continuous
100
AcDbText
 10
168.0744344497811
 20
2.459955326862159
 30
0.0
 40
2.1
  1
Scale
  7
STYLE3
100
AcDbText
  0
TEXT
  5
1E5B
330
18
100
AcDbEntity
  8
0
  6
Continuous
100
AcDbText
 10
217.8113354497811
 20
2.168598326862158
 30
0.0
 40
2.1
  1
OZAKI MFG. CO., LTD.
  7
STYLE3
100
AcDbText
  0
TEXT
  5
1E5C
330
18
100
AcDbEntity
  8
0
  6
Continuous
100
AcDbText
 10
117.3545454497811
 20
5.664880326862158
 30
0.0
 40
3.0
  1
三　　角　　法
  7
STYLE3
100
AcDbText
  0
LINE
  5
1E5D
330
18
100
AcDbEntity
  8
外形線
100
AcDbLine
 10
113.5651264497811
 20
0.4204573268621593
 30
0.0
 11
113.5651264497811
 21
20.81544032686216
 31
0.0
  0
LINE
  5
1E5E
330
18
100
AcDbEntity
  8
外形線
100
AcDbLine
 10
215.5878934497811
 20
10.03523532686216
 30
0.0
 11
215.5878934497811
 21
0.4204573268621593
 31
0.0
  0
LINE
  5
1E5F
330
18
100
AcDbEntity
  8
外形線
100
AcDbLine
 10
185.8555444497811
 20
10.03523532686216
 30
0.0
 11
185.8555444497811
 21
0.4204573268621593
 31
0.0
  0
LINE
  5
1E60
330
18
100
AcDbEntity
  8
外形線
100
AcDbLine
 10
166.3254714497811
 20
10.03523532686216
 30
0.0
 11
166.3254714497811
 21
0.4204573268621593
 31
0.0
  0
LINE
  5
1E61
330
18
100
AcDbEntity
  8
外形線
100
AcDbLine
 10
148.8358544497811
 20
10.03523532686216
 30
0.0
 11
148.8358544497811
 21
0.4204573268621593
 31
0.0
  0
TEXT
  5
1E62
330
18
100
AcDbEntity
  8
0
  6
Continuous
100
AcDbText
 10
150.2933234497811
 20
5.670835326862158
 30
0.0
 40
3.0
  1
単位
  7
STYLE3
100
AcDbText
  0
TEXT
  5
1E63
330
18
100
AcDbEntity
  8
0
  6
Continuous
100
AcDbText
 10
187.4041344497811
 20
5.501682326862158
 30
0.0
 40
3.0
  1
日 付
  7
STYLE3
100
AcDbText
  0
TEXT
  5
1E64
330
18
100
AcDbEntity
  8
0
  6
Continuous
100
AcDbText
 10
216.9368564497812
 20
5.956237326862159
 30
0.0
 40
3.0
  1
株式会社　尾崎製作所
  7
STYLE3
100
AcDbText
  0
VIEWPORT
  5
177
330
15
100
AcDbEntity
 67
     1
  8
0
100
AcDbViewport
 10
127.5041203589828
 20
97.49391214526822
 30
0.0
 40
418.3086347473814
 41
243.0346063651093
 68
     1
 69
     1
 12
127.5041203589828
 22
97.49391214526822
 13
0.0
 23
0.0
 14
10.0
 24
10.0
 15
10.0
 25
10.0
 16
0.0
 26
0.0
 36
1.0
 17
0.0
 27
0.0
 37
0.0
 42
50.0
 43
0.0
 44
0.0
 45
243.0346063651093
 50
0.0
 51
0.0
 72
   100
 90
    32800
  1

281
     0
 71
     1
 74
     0
110
0.0
120
0.0
130
0.0
111
1.0
121
0.0
131
0.0
112
0.0
122
1.0
132
0.0
 79
     0
146
0.0
170
     0
  0
ENDSEC
  0
SECTION
  2
OBJECTS
  0
DICTIONARY
  5
C
330
0
100
AcDbDictionary
281
     1
  3
ACAD_COLOR
350
17A1
  3
ACAD_GROUP
350
D
  3
ACAD_IMAGE_DICT
350
5BD
  3
ACAD_LAYOUT
350
17A4
  3
ACAD_MATERIAL
350
17A0
  3
ACAD_MLINESTYLE
350
1B
  3
ACAD_PLOTSETTINGS
350
17A5
  3
ACAD_PLOTSTYLENAME
350
179E
  3
ACAD_TABLESTYLE
350
17A2
  3
AcDbVariableDictionary
350
17D3
  0
DICTIONARY
  5
19CC
330
2
100
AcDbDictionary
280
     1
281
     1
  3
ACAD_LAYERSTATES
360
19CD
  0
DICTIONARY
  5
17AF
330
18
100
AcDbDictionary
280
     1
281
     1
  3
ACAD_SORTENTS
360
17B0
  0
DICTIONARY
  5
17A1
102
{ACAD_REACTORS
330
C
102
}
330
C
100
AcDbDictionary
281
     1
  0
DICTIONARY
  5
D
102
{ACAD_REACTORS
330
C
102
}
330
C
100
AcDbDictionary
281
     1
  0
DICTIONARY
  5
5BD
102
{ACAD_REACTORS
330
C
102
}
330
C
100
AcDbDictionary
281
     1
  3
ROGO01
350
5BE
  0
DICTIONARY
  5
17A4
102
{ACAD_REACTORS
330
C
102
}
330
C
100
AcDbDictionary
281
     1
  3
Model
350
17A6
  3
レイアウト1
350
17A7
  0
DICTIONARY
  5
17A0
102
{ACAD_REACTORS
330
C
102
}
330
C
100
AcDbDictionary
281
     1
  0
DICTIONARY
  5
1B
102
{ACAD_REACTORS
330
C
102
}
330
C
100
AcDbDictionary
281
     1
  3
STANDARD
350
1C
  0
DICTIONARY
  5
17A5
102
{ACAD_REACTORS
330
C
102
}
330
C
100
AcDbDictionary
281
     1
  0
ACDBDICTIONARYWDFLT
  5
179E
102
{ACAD_REACTORS
330
C
102
}
330
C
100
AcDbDictionary
281
     1
  3
Normal
350
179F
100
AcDbDictionaryWithDefault
340
179F
  0
DICTIONARY
  5
17A2
102
{ACAD_REACTORS
330
C
102
}
330
C
100
AcDbDictionary
281
     1
  3
Standard
350
17A3
  0
DICTIONARY
  5
17D3
102
{ACAD_REACTORS
330
C
102
}
330
C
100
AcDbDictionary
281
     1
  3
CTABLESTYLE
350
17D4
  0
DICTIONARY
  5
19CD
102
{ACAD_REACTORS
330
19CC
102
}
330
19CC
100
AcDbDictionary
281
     1
  0
SORTENTSTABLE
  5
17B0
102
{ACAD_REACTORS
330
17AF
102
}
330
17AF
100
AcDbSortentsTable
330
18
331
7DE
  5
7E1
331
787
  5
7AF
331
96A
  5
CA3
331
933
  5
93D
331
7E6
  5
7E9
331
8E4
  5
8E7
331
85D
  5
860
331
7EE
  5
7F1
331
7AF
  5
7B2
331
14A9
  5
1599
331
F71
  5
F9C
331
943
  5
94D
331
7F6
  5
7F9
331
7B7
  5
7BA
331
1591
  5
164A
331
F32
  5
F5A
331
CC3
  5
EB0
331
1599
  5
164F
331
1040
  5
1047
331
F3A
  5
F5D
331
1048
  5
1051
331
FB9
  5
FC0
331
10D7
  5
1104
331
70C
  5
70F
331
5C6
  5
5C9
331
2AF
  5
2BC
331
278
  5
27A
331
714
  5
717
331
5CE
  5
5D1
331
280
  5
282
331
71C
  5
71F
331
5D6
  5
5D9
331
288
  5
28B
331
724
  5
727
331
675
  5
6F1
331
5DE
  5
5E1
331
2C7
  5
2CA
331
8F4
  5
91A
331
8B5
  5
8BF
331
7FE
  5
801
331
7BF
  5
7C2
331
94B
  5
954
331
1649
  5
1650
331
953
  5
959
331
91C
  5
934
331
806
  5
809
331
7C7
  5
7CA
331
95B
  5
96A
331
80E
  5
827
331
7CF
  5
7D2
331
1050
  5
107F
331
FC1
  5
FC8
331
F5A
  5
F61
331
963
  5
CA0
331
7D7
  5
7DA
331
1740
  5
17F1
331
FC9
  5
1042
331
F62
  5
F68
331
CB4
  5
CC2
331
10FF
  5
14A9
331
290
  5
292
331
72C
  5
72F
331
5E6
  5
5E9
331
2CF
  5
2D2
331
298
  5
29A
331
734
  5
737
331
6F5
  5
6F8
331
2D7
  5
5C4
331
2A0
  5
2A2
331
6FD
  5
700
331
705
  5
708
331
780
  5
785
331
7DF
  5
7E2
331
788
  5
7B0
331
96B
  5
CA5
331
934
  5
940
331
7E7
  5
7EA
331
93C
  5
947
331
8E5
  5
8E8
331
85E
  5
861
331
7EF
  5
7F2
331
7B0
  5
7B3
331
14AA
  5
1649
331
F72
  5
FB9
331
8ED
  5
8F5
331
7F7
  5
7FA
331
1041
  5
1048
331
1049
  5
1052
331
FBA
  5
FC1
331
2A8
  5
2AA
331
70D
  5
710
331
5C7
  5
5CA
331
2B0
  5
2C0
331
279
  5
27B
331
715
  5
718
331
5CF
  5
5D2
331
281
  5
283
331
66E
  5
691
331
5D7
  5
5DA
331
2C0
  5
2C2
331
289
  5
28C
331
71D
  5
720
331
725
  5
728
331
5DF
  5
5E2
331
7B8
  5
7BB
331
94C
  5
955
331
7FF
  5
802
331
7C0
  5
7C3
331
8F5
  5
91B
331
164A
  5
170C
331
954
  5
95A
331
807
  5
80A
331
7C8
  5
7CB
331
7D0
  5
7D3
331
1051
  5
108D
331
FC2
  5
FC9
331
F5B
  5
F62
331
CA5
  5
CAB
331
FCA
  5
1043
331
F63
  5
F69
331
CAD
  5
CB3
331
CB5
  5
CC3
331
1906
  5
1BB5
331
2C8
  5
2CC
331
291
  5
293
331
72D
  5
730
331
5E7
  5
5EA
331
2D0
  5
2D3
331
299
  5
29B
331
735
  5
738
331
6F6
  5
6F9
331
2A1
  5
2A3
331
26A
  5
26C
331
6FE
  5
701
331
706
  5
709
331
7D8
  5
7DB
331
781
  5
786
331
7E0
  5
7E3
331
789
  5
7B1
331
827
  5
85B
331
7E8
  5
7EB
331
93D
  5
94A
331
8E6
  5
8EA
331
85F
  5
862
331
7F0
  5
7F3
331
7B1
  5
7B4
331
F2C
  5
F32
331
CC5
  5
EF6
331
1042
  5
1049
331
18DF
  5
1913
331
104A
  5
1053
331
FBB
  5
FC2
331
D7D
  5
F2D
331
2A9
  5
2AB
331
70E
  5
711
331
5C8
  5
5CB
331
27A
  5
27C
331
716
  5
719
331
5D0
  5
5D3
331
282
  5
284
331
71E
  5
721
331
5D8
  5
5DB
331
2C1
  5
2C3
331
66F
  5
6F0
331
726
  5
729
331
7F8
  5
7FB
331
7B9
  5
7BC
331
94D
  5
956
331
800
  5
803
331
7C1
  5
7C4
331
8F6
  5
91C
331
955
  5
95B
331
8BF
  5
8C2
331
808
  5
80B
331
7C9
  5
7CC
331
164B
  5
170D
331
7D1
  5
7D4
331
17B1
  5
8EF
331
1052
  5
109A
331
FC3
  5
FCA
331
F5C
  5
F63
331
CA6
  5
CAD
331
965
  5
CA1
331
1742
  5
17F2
331
F64
  5
F6D
331
CAE
  5
CB4
331
10F1
  5
1114
331
CB6
  5
CC5
331
5E0
  5
5E3
331
292
  5
294
331
72E
  5
731
331
5E8
  5
600
331
2D1
  5
2D4
331
29A
  5
29C
331
736
  5
739
331
6F7
  5
6FA
331
600
  5
66E
331
2A2
  5
2A4
331
26B
  5
273
331
6FF
  5
702
331
707
  5
70A
331
7D9
  5
7DC
331
7E1
  5
7E4
331
8DF
  5
8E2
331
7E9
  5
7EC
331
17F1
  5
180B
331
8E7
  5
8EB
331
860
  5
863
331
7F1
  5
7F4
331
7B2
  5
7B5
331
1101
  5
14AA
331
F2D
  5
F37
331
8EF
  5
8F6
331
F8C
  5
FBB
331
1043
  5
104A
331
F9C
  5
FBE
331
D1E
  5
F2C
331
FBC
  5
FC3
331
F55
  5
F5E
331
C9F
  5
CA6
331
608
  5
66F
331
2AA
  5
2AC
331
273
  5
275
331
70F
  5
712
331
638
  5
675
331
5C9
  5
5CC
331
27B
  5
27D
331
717
  5
71A
331
5D1
  5
5D4
331
283
  5
285
331
71F
  5
722
331
2C2
  5
2C6
331
28B
  5
28D
331
5D9
  5
5DC
331
727
  5
72A
331
7F9
  5
7FC
331
7BA
  5
7BD
331
8B8
  5
8C0
331
7C2
  5
7C5
331
801
  5
804
331
956
  5
95F
331
8C0
  5
8DF
331
809
  5
80C
331
7CA
  5
7CD
331
164C
  5
170E
331
7D2
  5
7D5
331
173B
  5
1744
331
1053
  5
10A7
331
FC4
  5
FD7
331
F5D
  5
F64
331
CA7
  5
CAE
331
1743
  5
17F3
331
1063
  5
10FD
331
F65
  5
F6E
331
CAF
  5
CB5
331
F6D
  5
F8C
331
CB7
  5
D1E
331
EF6
  5
F31
331
5E1
  5
5E4
331
2CA
  5
2CE
331
293
  5
295
331
72F
  5
732
331
6F0
  5
6F3
331
5E9
  5
608
331
2D2
  5
2D5
331
29B
  5
29F
331
737
  5
73A
331
6F8
  5
6FB
331
2A3
  5
2A5
331
26C
  5
274
331
700
  5
703
331
819
  5
859
331
7DA
  5
7DD
331
783
  5
787
331
92F
  5
93A
331
7E2
  5
7E5
331
17F2
  5
183C
331
170C
  5
173D
331
8E0
  5
8E3
331
859
  5
85C
331
7EA
  5
7ED
331
14A5
  5
1598
331
8E8
  5
8ED
331
861
  5
8B5
331
7F2
  5
7F5
331
7B3
  5
7B6
331
180A
  5
18DF
331
1102
  5
1591
331
FE4
  5
1045
331
F75
  5
FBA
331
F2E
  5
F39
331
947
  5
952
331
1595
  5
164B
331
F8D
  5
FBC
331
1044
  5
104D
331
FBD
  5
FC4
331
708
  5
70B
331
5C2
  5
5C5
331
2AB
  5
2AD
331
274
  5
276
331
710
  5
713
331
5CA
  5
5CD
331
27C
  5
27E
331
718
  5
71B
331
5D2
  5
5D5
331
284
  5
286
331
720
  5
723
331
5DA
  5
5DD
331
28C
  5
28E
331
2C3
  5
2C7
331
8F0
  5
918
331
7FA
  5
7FD
331
7BB
  5
7BE
331
94F
  5
957
331
918
  5
921
331
8B9
  5
8C1
331
802
  5
805
331
7C3
  5
7C6
331
957
  5
961
331
8C1
  5
8E0
331
80A
  5
80D
331
7CB
  5
7CE
331
164D
  5
1736
331
CA0
  5
CA7
331
95F
  5
96B
331
7D3
  5
7D6
331
173C
  5
1746
331
1054
  5
10B3
331
FC5
  5
FE4
331
F5E
  5
F65
331
CA8
  5
CAF
331
1744
  5
17F4
331
F66
  5
F6F
331
EAF
  5
F2F
331
CB0
  5
CB6
331
F6E
  5
F8D
331
728
  5
72B
331
691
  5
6F2
331
5E2
  5
5E5
331
294
  5
297
331
730
  5
733
331
6F1
  5
6F4
331
5EA
  5
638
331
2D3
  5
2D6
331
29C
  5
2A0
331
738
  5
73B
331
6F9
  5
6FC
331
2A4
  5
2A6
331
701
  5
704
331
81A
  5
85A
331
7DB
  5
7DE
331
7E3
  5
7E6
331
17F3
  5
18C2
331
938
  5
941
331
8E1
  5
8E4
331
85A
  5
85D
331
7EB
  5
7EE
331
170D
  5
173E
331
CB8
  5
D7D
331
940
  5
94B
331
8E9
  5
8F0
331
862
  5
8B8
331
7F3
  5
7F6
331
7B4
  5
7B7
331
180B
  5
18E0
331
1103
  5
1595
331
F2F
  5
F3A
331
CC0
  5
E0A
331
1596
  5
164C
331
18D2
  5
1906
331
F8E
  5
FBD
331
F37
  5
F5B
331
1045
  5
104E
331
104D
  5
1054
331
FBE
  5
FC5
331
F57
  5
F5F
331
709
  5
70C
331
5C3
  5
5C6
331
2AC
  5
2AE
331
275
  5
277
331
711
  5
714
331
5CB
  5
5CE
331
27D
  5
27F
331
719
  5
71C
331
5D3
  5
5D6
331
2BC
  5
2C1
331
285
  5
287
331
721
  5
724
331
5DB
  5
5DE
331
28D
  5
28F
331
7FB
  5
7FE
331
7BC
  5
7BF
331
919
  5
92F
331
803
  5
806
331
7C4
  5
7C7
331
958
  5
963
331
921
  5
938
331
8C2
  5
8E1
331
80B
  5
80E
331
7CC
  5
7CF
331
164E
  5
1737
331
CA1
  5
CA8
331
7D4
  5
7D7
331
173D
  5
1774
331
FC6
  5
103F
331
F5F
  5
F66
331
CA9
  5
CB0
331
F67
  5
F71
331
EB0
  5
F30
331
CB1
  5
CB7
331
F6F
  5
F8E
331
729
  5
72C
331
5E3
  5
5E6
331
2CC
  5
2CF
331
295
  5
298
331
731
  5
734
331
6F2
  5
6F5
331
2D4
  5
2D7
331
739
  5
780
331
6FA
  5
6FD
331
2A5
  5
2A7
331
702
  5
705
331
7DC
  5
7DF
331
785
  5
788
331
7E4
  5
7E7
331
17F4
  5
18D2
331
8E2
  5
8E5
331
85B
  5
85E
331
7EC
  5
7EF
331
170E
  5
1740
331
941
  5
94C
331
8EA
  5
8F3
331
863
  5
8B9
331
7F4
  5
7F7
331
7B5
  5
7B8
331
1104
  5
1596
331
F30
  5
F55
331
1597
  5
164D
331
108D
  5
1103
331
183C
  5
18E2
331
1114
  5
1597
331
1046
  5
104F
331
104E
  5
1063
331
FBF
  5
FC6
331
70A
  5
70D
331
5C4
  5
5C7
331
2AD
  5
2AF
331
276
  5
278
331
712
  5
715
331
5CC
  5
5CF
331
27E
  5
280
331
71A
  5
71D
331
5D4
  5
5D7
331
286
  5
288
331
722
  5
725
331
5DC
  5
5DF
331
28E
  5
290
331
7FC
  5
7FF
331
7BD
  5
7C0
331
91A
  5
932
331
804
  5
807
331
7C5
  5
7C8
331
1736
  5
1742
331
959
  5
965
331
80C
  5
819
331
7CD
  5
7D0
331
164F
  5
173B
331
CA2
  5
CA9
331
961
  5
C9F
331
7D5
  5
7D8
331
173E
  5
17AE
331
1E02
  5
26A
331
FC7
  5
1040
331
CAA
  5
CB1
331
1746
  5
180A
331
F68
  5
F72
331
CB2
  5
CB8
331
107E
  5
10FF
331
FD7
  5
1044
331
10FD
  5
14A5
331
1913
  5
1BB6
331
72A
  5
72D
331
5E4
  5
5E7
331
2CD
  5
2D0
331
732
  5
735
331
6F3
  5
6F6
331
2D5
  5
5C2
331
73A
  5
781
331
6FB
  5
6FE
331
2A6
  5
2A8
331
703
  5
706
331
969
  5
CA2
331
7DD
  5
7E0
331
786
  5
789
331
932
  5
93C
331
7E5
  5
7E8
331
93A
  5
943
331
8E3
  5
8E6
331
85C
  5
85F
331
7ED
  5
7F0
331
8EB
  5
8F4
331
7F5
  5
7F8
331
7B6
  5
7B9
331
F31
  5
F57
331
CC2
  5
EAF
331
1598
  5
164E
331
103F
  5
1046
331
F39
  5
F5C
331
1047
  5
1050
331
FB8
  5
FBF
331
104F
  5
107E
331
70B
  5
70E
331
5C5
  5
5C8
331
2AE
  5
2B0
331
277
  5
279
331
713
  5
716
331
5CD
  5
5D0
331
27F
  5
281
331
71B
  5
71E
331
5D5
  5
5D8
331
287
  5
289
331
723
  5
726
331
5DD
  5
5E0
331
2C6
  5
2C8
331
28F
  5
291
331
94A
  5
953
331
8F3
  5
919
331
7FD
  5
800
331
7BE
  5
7C1
331
952
  5
958
331
91B
  5
933
331
805
  5
808
331
7C6
  5
7C9
331
1737
  5
1743
331
95A
  5
969
331
80D
  5
81A
331
7CE
  5
7D1
331
1650
  5
173C
331
FC0
  5
FC7
331
E0A
  5
F2E
331
CA3
  5
CAA
331
7D6
  5
7D9
331
1E03
  5
26B
331
FC8
  5
1041
331
F61
  5
F67
331
CAB
  5
CB2
331
F69
  5
F75
331
CB3
  5
CC0
331
107F
  5
1102
331
72B
  5
72E
331
5E5
  5
5E8
331
2CE
  5
2D1
331
297
  5
299
331
733
  5
736
331
6F4
  5
6F7
331
2D6
  5
5C3
331
29F
  5
2A1
331
73B
  5
783
331
6FC
  5
6FF
331
2A7
  5
2A9
331
704
  5
707
  0
IMAGEDEF
  5
5BE
102
{ACAD_REACTORS
330
5BD
102
}
330
5BD
100
AcDbRasterImageDef
 90
        0
  1
D:\ﾃｽﾄ\rogo01.TIF
 10
3388.0
 20
4668.0
 11
0.0635
 21
0.0635
280
     1
281
     5
  0
LAYOUT
  5
17A6
102
{ACAD_REACTORS
330
17A4
102
}
330
17A4
100
AcDbPlotSettings
  1

  2
A4 EPSON LP-6100.pc3
  4
A4
  6

 40
5.873749732971191
 41
5.873747825622558
 42
5.873748779296875
 43
5.873748779296875
 44
209.9733276367187
 45
297.0106506347656
 46
0.0
 47
5.0
 48
0.0
 49
0.0
140
0.0
141
0.0
142
1.0
143
1.0
 70
 28336
 72
     1
 73
     1
 74
     0
  7
AutoCAD LT 98.ctb
 75
    16
147
1.0
 76
     1
 77
     2
 78
   300
148
18.4519020411261
149
1.016759159565111
100
AcDbLayout
  1
Model
 70
     1
 71
     0
 10
0.0
 20
0.0
 11
12.0
 21
9.0
 12
0.0
 22
0.0
 32
0.0
 14
0.0
 24
0.0
 34
0.0
 15
0.0
 25
0.0
 35
0.0
146
0.0
 13
0.0
 23
0.0
 33
0.0
 16
1.0
 26
0.0
 36
0.0
 17
0.0
 27
1.0
 37
0.0
 76
     0
330
18
1001
ACAD_PSEXT
1000
A4 EPSON LP-6100.pc3
1000
EPSON LP-6100
1000
\\SATO-MATE2
1000

1070
     0
  0
LAYOUT
  5
17A7
102
{ACAD_REACTORS
330
17A4
102
}
330
17A4
100
AcDbPlotSettings
  1

  2
Mytalk FAX
  4

  6

 40
0.0
 41
0.0
 42
0.0
 43
0.0
 44
0.0
 45
0.0
 46
0.0
 47
0.0
 48
0.0
 49
0.0
140
0.0
141
0.0
142
1.0
143
1.0
 70
   688
 72
     0
 73
     0
 74
     5
  7
AutoCAD LT 98.ctb
 75
    16
147
1.0
 76
     0
 77
     2
 78
   300
148
0.0
149
0.0
100
AcDbLayout
  1
レイアウト1
 70
     1
 71
     1
 10
0.0
 20
0.0
 11
420.0
 21
297.0
 12
0.0
 22
0.0
 32
0.0
 14
-0.2
 24
-0.2
 34
0.0
 15
255.2
 25
195.2
 35
0.0
146
0.0
 13
0.0
 23
0.0
 33
0.0
 16
1.0
 26
0.0
 36
0.0
 17
0.0
 27
1.0
 37
0.0
 76
     0
330
15
331
177
  0
MLINESTYLE
  5
1C
102
{ACAD_REACTORS
330
1B
102
}
330
1B
100
AcDbMlineStyle
  2
STANDARD
 70
     0
  3

 62
   256
 51
90.0
 52
90.0
 71
     2
 49
0.5
 62
   256
  6
BYLAYER
 49
-0.5
 62
   256
  6
BYLAYER
  0
ACDBPLACEHOLDER
  5
179F
102
{ACAD_REACTORS
330
179E
102
}
330
179E
  0
ACAD_PROXY_OBJECT
  5
17A3
102
{ACAD_REACTORS
330
17A2
102
}
330
17A2
100
AcDbProxyObject
 90
      499
 91
      504
 95
  2555929
 70
     0
 93
     1849
310
4214DD185B99185C992420000000000000F83F0000000000003E0FC00000000000004901028000000C1008070000C3001FDFF8000000C1003FBFF000000182007F7FE00000030400FEFFC00000060801FDFF8000000C1003FBFF000000182000000000000000C2020B0000001820100E000186003FBFF000000182007F7FE0
310
0000030400FEFFC00000060801FDFF8000000C1003FBFF000000182007F7FE0000003040000000000000012404160000003040201C00030C007F7FE00000030400FEFFC00000060801FDFF8000000C1003FBFF000000182007F7FE00000030400FEFFC000000608000
340
F
340
F
340
F
 94
        0
  0
DICTIONARYVAR
  5
17D4
102
{ACAD_REACTORS
330
17D3
102
}
330
17D3
100
DictionaryVariables
280
     0
  1
STANDARD
  0
ENDSEC
  0
EOF
