  0
SECTION
  2
HEADER
  9
$ACADVER
  1
AC1018
  9
$ACADMAINTVER
 70
   104
  9
$DWGCODEPAGE
  3
ANSI_932
  9
$LASTSAVEDBY
  1
S-chikara
  9
$INSBASE
 10
0.0
 20
0.0
 30
0.0
  9
$EXTMIN
 10
365.1784131994769
 20
212.0747747557011
 30
-0.000000000000013
  9
$EXTMAX
 10
556.2206653169023
 20
467.5375582877618
 30
0.0000000000000023
  9
$LIMMIN
 10
0.0
 20
0.0
  9
$LIMMAX
 10
420.0
 20
297.0
  9
$ORTHOMODE
 70
     0
  9
$REGENMODE
 70
     1
  9
$FILLMODE
 70
     1
  9
$QTEXTMODE
 70
     0
  9
$MIRRTEXT
 70
     1
  9
$LTSCALE
 40
1.0
  9
$ATTMODE
 70
     1
  9
$TEXTSIZE
 40
3.0
  9
$TRACEWID
 40
1.0
  9
$TEXTSTYLE
  7
STYLE3
  9
$CLAYER
  8
外形線
  9
$CELTYPE
  6
BYLAYER
  9
$CECOLOR
 62
   256
  9
$CELTSCALE
 40
1.0
  9
$DISPSILH
 70
     0
  9
$DIMSCALE
 40
1.0
  9
$DIMASZ
 40
2.5
  9
$DIMEXO
 40
0.0
  9
$DIMDLI
 40
3.75
  9
$DIMRND
 40
0.0
  9
$DIMDLE
 40
0.0
  9
$DIMEXE
 40
1.25
  9
$DIMTP
 40
0.0
  9
$DIMTM
 40
0.0
  9
$DIMTXT
 40
2.5
  9
$DIMCEN
 40
2.5
  9
$DIMTSZ
 40
0.0
  9
$DIMTOL
 70
     0
  9
$DIMLIM
 70
     0
  9
$DIMTIH
 70
     0
  9
$DIMTOH
 70
     0
  9
$DIMSE1
 70
     0
  9
$DIMSE2
 70
     0
  9
$DIMTAD
 70
     1
  9
$DIMZIN
 70
     8
  9
$DIMBLK
  1

  9
$DIMASO
 70
     1
  9
$DIMSHO
 70
     1
  9
$DIMPOST
  1

  9
$DIMAPOST
  1

  9
$DIMALT
 70
     0
  9
$DIMALTD
 70
     4
  9
$DIMALTF
 40
0.0394
  9
$DIMLFAC
 40
1.0
  9
$DIMTOFL
 70
     1
  9
$DIMTVP
 40
0.0
  9
$DIMTIX
 70
     0
  9
$DIMSOXD
 70
     0
  9
$DIMSAH
 70
     1
  9
$DIMBLK1
  1
OPEN
  9
$DIMBLK2
  1
OPEN
  9
$DIMSTYLE
  2
STYLE3
  9
$DIMCLRD
 70
     2
  9
$DIMCLRE
 70
     2
  9
$DIMCLRT
 70
     6
  9
$DIMTFAC
 40
1.0
  9
$DIMGAP
 40
0.625
  9
$DIMJUST
 70
     0
  9
$DIMSD1
 70
     0
  9
$DIMSD2
 70
     0
  9
$DIMTOLJ
 70
     1
  9
$DIMTZIN
 70
     0
  9
$DIMALTZ
 70
     0
  9
$DIMALTTZ
 70
     0
  9
$DIMUPT
 70
     0
  9
$DIMDEC
 70
     2
  9
$DIMTDEC
 70
     4
  9
$DIMALTU
 70
     8
  9
$DIMALTTD
 70
     4
  9
$DIMTXSTY
  7
STYLE3
  9
$DIMAUNIT
 70
     0
  9
$DIMADEC
 70
     0
  9
$DIMALTRND
 40
0.0
  9
$DIMAZIN
 70
     0
  9
$DIMDSEP
 70
    46
  9
$DIMATFIT
 70
     3
  9
$DIMFRAC
 70
     0
  9
$DIMLDRBLK
  1

  9
$DIMLUNIT
 70
     2
  9
$DIMLWD
 70
    -2
  9
$DIMLWE
 70
    -2
  9
$DIMTMOVE
 70
     0
  9
$LUNITS
 70
     2
  9
$LUPREC
 70
     4
  9
$SKETCHINC
 40
1.0
  9
$FILLETRAD
 40
1.0
  9
$AUNITS
 70
     0
  9
$AUPREC
 70
     0
  9
$MENU
  1
.
  9
$ELEVATION
 40
0.0
  9
$PELEVATION
 40
0.0
  9
$THICKNESS
 40
0.0
  9
$LIMCHECK
 70
     0
  9
$CHAMFERA
 40
0.3
  9
$CHAMFERB
 40
0.3
  9
$CHAMFERC
 40
20.0
  9
$CHAMFERD
 40
0.0
  9
$SKPOLY
 70
     0
  9
$TDCREATE
 40
2451451.663712269
  9
$TDUCREATE
 40
2451451.288712269
  9
$TDUPDATE
 40
2457107.483265000
  9
$TDUUPDATE
 40
2457107.108265000
  9
$TDINDWG
 40
1.0745690856
  9
$TDUSRTIMER
 40
1.0745689120
  9
$USRTIMER
 70
     1
  9
$ANGBASE
 50
0.0
  9
$ANGDIR
 70
     0
  9
$PDMODE
 70
     0
  9
$PDSIZE
 40
0.0
  9
$PLINEWID
 40
0.0
  9
$SPLFRAME
 70
     0
  9
$SPLINETYPE
 70
     6
  9
$SPLINESEGS
 70
     8
  9
$HANDSEED
  5
3F1F
  9
$SURFTAB1
 70
     6
  9
$SURFTAB2
 70
     6
  9
$SURFTYPE
 70
     6
  9
$SURFU
 70
     6
  9
$SURFV
 70
     6
  9
$UCSBASE
  2

  9
$UCSNAME
  2

  9
$UCSORG
 10
0.0
 20
0.0
 30
0.0
  9
$UCSXDIR
 10
1.0
 20
0.0
 30
0.0
  9
$UCSYDIR
 10
0.0
 20
1.0
 30
0.0
  9
$UCSORTHOREF
  2

  9
$UCSORTHOVIEW
 70
     0
  9
$UCSORGTOP
 10
0.0
 20
0.0
 30
0.0
  9
$UCSORGBOTTOM
 10
0.0
 20
0.0
 30
0.0
  9
$UCSORGLEFT
 10
0.0
 20
0.0
 30
0.0
  9
$UCSORGRIGHT
 10
0.0
 20
0.0
 30
0.0
  9
$UCSORGFRONT
 10
0.0
 20
0.0
 30
0.0
  9
$UCSORGBACK
 10
0.0
 20
0.0
 30
0.0
  9
$PUCSBASE
  2

  9
$PUCSNAME
  2

  9
$PUCSORG
 10
0.0
 20
0.0
 30
0.0
  9
$PUCSXDIR
 10
1.0
 20
0.0
 30
0.0
  9
$PUCSYDIR
 10
0.0
 20
1.0
 30
0.0
  9
$PUCSORTHOREF
  2

  9
$PUCSORTHOVIEW
 70
     0
  9
$PUCSORGTOP
 10
0.0
 20
0.0
 30
0.0
  9
$PUCSORGBOTTOM
 10
0.0
 20
0.0
 30
0.0
  9
$PUCSORGLEFT
 10
0.0
 20
0.0
 30
0.0
  9
$PUCSORGRIGHT
 10
0.0
 20
0.0
 30
0.0
  9
$PUCSORGFRONT
 10
0.0
 20
0.0
 30
0.0
  9
$PUCSORGBACK
 10
0.0
 20
0.0
 30
0.0
  9
$USERI1
 70
     0
  9
$USERI2
 70
     0
  9
$USERI3
 70
     0
  9
$USERI4
 70
     0
  9
$USERI5
 70
     0
  9
$USERR1
 40
0.0
  9
$USERR2
 40
0.0
  9
$USERR3
 40
0.0
  9
$USERR4
 40
0.0
  9
$USERR5
 40
0.0
  9
$WORLDVIEW
 70
     1
  9
$SHADEDGE
 70
     3
  9
$SHADEDIF
 70
    70
  9
$TILEMODE
 70
     1
  9
$MAXACTVP
 70
    48
  9
$PINSBASE
 10
0.0
 20
0.0
 30
0.0
  9
$PLIMCHECK
 70
     0
  9
$PEXTMIN
 10
-0.2
 20
-0.2
 30
0.0
  9
$PEXTMAX
 10
255.2
 20
195.2
 30
0.0
  9
$PLIMMIN
 10
0.0
 20
0.0
  9
$PLIMMAX
 10
420.0
 20
297.0
  9
$UNITMODE
 70
     0
  9
$VISRETAIN
 70
     1
  9
$PLINEGEN
 70
     0
  9
$PSLTSCALE
 70
     1
  9
$TREEDEPTH
 70
  3020
  9
$CMLSTYLE
  2
STANDARD
  9
$CMLJUST
 70
     0
  9
$CMLSCALE
 40
20.0
  9
$PROXYGRAPHICS
 70
     1
  9
$MEASUREMENT
 70
     1
  9
$CELWEIGHT
370
    -1
  9
$ENDCAPS
280
     0
  9
$JOINSTYLE
280
     0
  9
$LWDISPLAY
290
     0
  9
$INSUNITS
 70
     0
  9
$HYPERLINKBASE
  1

  9
$STYLESHEET
  1
AUTOCAD LT 98.CTB
  9
$XEDIT
290
     1
  9
$CEPSNTYPE
380
     0
  9
$PSTYLEMODE
290
     1
  9
$FINGERPRINTGUID
  2
{33A57D91-3D4B-4373-BA4C-5F441EA21FD2}
  9
$VERSIONGUID
  2
{41008706-CA66-43B7-A596-333BF2C8F41A}
  9
$EXTNAMES
290
     1
  9
$PSVPSCALE
 40
0.0
  9
$OLESTARTUP
290
     0
  9
$SORTENTS
280
    96
  9
$INDEXCTL
280
     0
  9
$HIDETEXT
280
     0
  9
$XCLIPFRAME
290
     0
  9
$HALOGAP
280
     0
  9
$OBSCOLOR
 70
   257
  9
$OBSLTYPE
280
     0
  9
$INTERSECTIONDISPLAY
280
     0
  9
$INTERSECTIONCOLOR
 70
   257
  9
$DIMASSOC
280
     1
  9
$PROJECTNAME
  1

  0
ENDSEC
  0
SECTION
  2
CLASSES
  0
CLASS
  1
HATCH
  2
AcDbHatch
  3
ObjectDBX Classes
 90
        0
 91
        8
280
     0
281
     1
  0
CLASS
  1
IMAGEDEF
  2
AcDbRasterImageDef
  3
ISM
 90
        0
 91
        1
280
     0
281
     0
  0
CLASS
  1
LWPOLYLINE
  2
AcDbPolyline
  3
ObjectDBX Classes
 90
        0
 91
        3
280
     0
281
     1
  0
CLASS
  1
DICTIONARYVAR
  2
AcDbDictionaryVar
  3
ObjectDBX Classes
 90
        0
 91
        6
280
     0
281
     0
  0
CLASS
  1
ACDBDICTIONARYWDFLT
  2
AcDbDictionaryWithDefault
  3
ObjectDBX Classes
 90
        0
 91
        1
280
     0
281
     0
  0
CLASS
  1
TABLESTYLE
  2
AcDbTableStyle
  3
ObjectDBX Classes
 90
     4095
 91
        2
280
     0
281
     0
  0
CLASS
  1
SORTENTSTABLE
  2
AcDbSortentsTable
  3
ObjectDBX Classes
 90
        0
 91
        1
280
     0
281
     0
  0
CLASS
  1
MATERIAL
  2
AcDbMaterial
  3
ObjectDBX Classes
 90
     1153
 91
        3
280
     0
281
     0
  0
CLASS
  1
VISUALSTYLE
  2
AcDbVisualStyle
  3
ObjectDBX Classes
 90
     4095
 91
       24
280
     0
281
     0
  0
CLASS
  1
SCALE
  2
AcDbScale
  3
ObjectDBX Classes
 90
     1153
 91
       17
280
     0
281
     0
  0
CLASS
  1
MLEADERSTYLE
  2
AcDbMLeaderStyle
  3
ACDB_MLEADERSTYLE_CLASS
 90
     4095
 91
        1
280
     0
281
     0
  0
CLASS
  1
ACDBSECTIONVIEWSTYLE
  2
AcDbSectionViewStyle
  3
ObjectDBX Classes
 90
     1025
 91
        1
280
     0
281
     0
  0
CLASS
  1
ACDBDETAILVIEWSTYLE
  2
AcDbDetailViewStyle
  3
ObjectDBX Classes
 90
     1025
 91
        1
280
     0
281
     0
  0
CLASS
  1
CELLSTYLEMAP
  2
AcDbCellStyleMap
  3
ObjectDBX Classes
 90
     1152
 91
        1
280
     0
281
     0
  0
ENDSEC
  0
SECTION
  2
TABLES
  0
TABLE
  2
VPORT
  5
8
330
0
100
AcDbSymbolTable
 70
     1
  0
VPORT
  5
3E73
330
8
100
AcDbSymbolTableRecord
100
AcDbViewportTableRecord
  2
*Active
 70
     0
 10
0.0
 20
0.0
 11
1.0
 21
1.0
 12
460.6995392581896
 22
339.8061665217315
 13
0.0
 23
0.0
 14
10.0
 24
10.0
 15
10.0
 25
10.0
 16
0.0
 26
0.0
 36
1.0
 17
0.0
 27
0.0
 37
0.0
 40
257.3117300956221
 41
2.317632850241545
 42
50.0
 43
0.0
 44
0.0
 50
0.0
 51
0.0
 71
     0
 72
   100
 73
     1
 74
     1
 75
     0
 76
     0
 77
     0
 78
     0
281
     0
 65
     1
110
0.0
120
0.0
130
0.0
111
1.0
121
0.0
131
0.0
112
0.0
122
1.0
132
0.0
 79
     0
146
0.0
1001
ACAD_NAV_VCDISPLAY
1070
     3
  0
ENDTAB
  0
TABLE
  2
LTYPE
  5
5
330
0
100
AcDbSymbolTable
 70
     3
  0
LTYPE
  5
12
330
5
100
AcDbSymbolTableRecord
100
AcDbLinetypeTableRecord
  2
BYBLOCK
 70
     0
  3

 72
    65
 73
     0
 40
0.0
  0
LTYPE
  5
13
330
5
100
AcDbSymbolTableRecord
100
AcDbLinetypeTableRecord
  2
BYLAYER
 70
     0
  3

 72
    65
 73
     0
 40
0.0
  0
LTYPE
  5
14
330
5
100
AcDbSymbolTableRecord
100
AcDbLinetypeTableRecord
  2
CONTINUOUS
 70
     0
  3
Solid line
 72
    65
 73
     0
 40
0.0
  0
LTYPE
  5
22
330
5
100
AcDbSymbolTableRecord
100
AcDbLinetypeTableRecord
  2
CENTER2
 70
     0
  3
Center (.5x) ___ _ ___ _ ___ _ ___ _ ___ _ ___
 72
    65
 73
     4
 40
28.575
 49
19.05
 74
     0
 49
-3.174999999999998
 74
     0
 49
3.174999999999998
 74
     0
 49
-3.174999999999998
 74
     0
  0
LTYPE
  5
23
330
5
100
AcDbSymbolTableRecord
100
AcDbLinetypeTableRecord
  2
HIDDEN2
 70
     0
  3
Hidden (.5x) _ _ _ _ _ _ _ _ _ _ _ _ _ _ _ _ _
 72
    65
 73
     2
 40
4.762499999999998
 49
3.174999999999998
 74
     0
 49
-1.587499999999999
 74
     0
  0
ENDTAB
  0
TABLE
  2
LAYER
  5
2
102
{ACAD_XDICTIONARY
360
36A7
102
}
330
0
100
AcDbSymbolTable
 70
    10
  0
LAYER
  5
E
102
{ACAD_XDICTIONARY
360
3ECC
102
}
330
2
100
AcDbSymbolTableRecord
100
AcDbLayerTableRecord
  2
0
 70
     0
 62
     7
  6
CONTINUOUS
370
    -3
390
2420
  0
LAYER
  5
25
102
{ACAD_XDICTIONARY
360
3ECE
102
}
330
2
100
AcDbSymbolTableRecord
100
AcDbLayerTableRecord
  2
外形線
 70
     0
 62
     7
  6
CONTINUOUS
370
    -3
390
2420
  0
LAYER
  5
26
102
{ACAD_XDICTIONARY
360
3ED0
102
}
330
2
100
AcDbSymbolTableRecord
100
AcDbLayerTableRecord
  2
寸法線
 70
     0
 62
     2
  6
CONTINUOUS
370
    -3
390
2420
  0
LAYER
  5
27
102
{ACAD_XDICTIONARY
360
3ED2
102
}
330
2
100
AcDbSymbolTableRecord
100
AcDbLayerTableRecord
  2
中心線
 70
     0
 62
     4
  6
CENTER2
370
    -3
390
2420
  0
LAYER
  5
2A
102
{ACAD_XDICTIONARY
360
3ED4
102
}
330
2
100
AcDbSymbolTableRecord
100
AcDbLayerTableRecord
  2
ﾊｯﾁﾝｸ
 70
     0
 62
     6
  6
CONTINUOUS
370
    -3
390
2420
  0
LAYER
  5
2B
102
{ACAD_XDICTIONARY
360
3ED6
102
}
330
2
100
AcDbSymbolTableRecord
100
AcDbLayerTableRecord
  2
文字
 70
     0
 62
     6
  6
CONTINUOUS
370
    -3
390
2420
  0
LAYER
  5
53
330
2
100
AcDbSymbolTableRecord
100
AcDbLayerTableRecord
  2
DEFPOINTS
 70
     0
 62
     7
  6
CONTINUOUS
290
     0
370
    -3
390
2420
  0
LAYER
  5
A5
102
{ACAD_XDICTIONARY
360
3ED8
102
}
330
2
100
AcDbSymbolTableRecord
100
AcDbLayerTableRecord
  2
C
 70
     0
 62
     7
  6
CONTINUOUS
370
    -3
390
2420
  0
LAYER
  5
16A
102
{ACAD_XDICTIONARY
360
3EDA
102
}
330
2
100
AcDbSymbolTableRecord
100
AcDbLayerTableRecord
  2
隠れ線2
 70
     0
 62
     1
  6
HIDDEN2
370
    -3
390
2420
  0
LAYER
  5
2DB
102
{ACAD_XDICTIONARY
360
3EDC
102
}
330
2
100
AcDbSymbolTableRecord
100
AcDbLayerTableRecord
  2
ROGO
 70
     0
 62
     6
  6
CONTINUOUS
370
    -3
390
2420
  0
ENDTAB
  0
TABLE
  2
STYLE
  5
3
330
0
100
AcDbSymbolTable
 70
     3
  0
STYLE
  5
F
330
3
100
AcDbSymbolTableRecord
100
AcDbTextStyleTableRecord
  2
STANDARD
 70
     0
 40
0.0
 41
1.0
 50
0.0
 71
     0
 42
2.5
  3
txt
  4

  0
STYLE
  5
3F
330
3
100
AcDbSymbolTableRecord
100
AcDbTextStyleTableRecord
  2
STYLE3
 70
     0
 40
0.0
 41
1.0
 50
0.0
 71
     0
 42
3.0
  3
romans.shx
  4
bigfont.shx
  0
STYLE
  5
1E8F
330
3
100
AcDbSymbolTableRecord
100
AcDbTextStyleTableRecord
  2
STYLE4
 70
     0
 40
0.0
 41
1.0
 50
0.0
 71
     0
 42
5.0
  3
romans.shx
  4
bigfont.shx
  0
ENDTAB
  0
TABLE
  2
VIEW
  5
6
330
0
100
AcDbSymbolTable
 70
     0
  0
ENDTAB
  0
TABLE
  2
UCS
  5
7
330
0
100
AcDbSymbolTable
 70
     0
  0
ENDTAB
  0
TABLE
  2
APPID
  5
9
330
0
100
AcDbSymbolTable
 70
     4
  0
APPID
  5
10
330
9
100
AcDbSymbolTableRecord
100
AcDbRegAppTableRecord
  2
ACAD
 70
     0
  0
APPID
  5
24CC
330
9
100
AcDbSymbolTableRecord
100
AcDbRegAppTableRecord
  2
ACAD_PSEXT
 70
     0
  0
APPID
  5
3EE2
330
9
100
AcDbSymbolTableRecord
100
AcDbRegAppTableRecord
  2
ACAD_NAV_VCDISPLAY
 70
     0
  0
APPID
  5
3F1A
330
9
100
AcDbSymbolTableRecord
100
AcDbRegAppTableRecord
  2
ACAD_MLEADERVER
 70
     0
  0
ENDTAB
  0
TABLE
  2
DIMSTYLE
  5
A
330
0
100
AcDbSymbolTable
 70
     2
100
AcDbDimStyleTable
 71
     1
340
8F
  0
DIMSTYLE
105
1D
330
A
100
AcDbSymbolTableRecord
100
AcDbDimStyleTableRecord
  2
STANDARD
 70
     0
 41
2.5
 42
0.625
 43
3.75
 44
1.25
 73
     0
 74
     0
 77
     1
 78
     8
140
2.5
141
2.5
143
0.0394
147
0.625
171
     4
172
     1
273
     8
274
     4
277
     6
340
F
  0
DIMSTYLE
105
8F
102
{ACAD_REACTORS
330
2E14
330
2DBC
330
2DBD
330
2DBE
330
2DBF
330
2DC0
330
2DCC
330
2DCD
330
2DD0
102
}
330
A
100
AcDbSymbolTableRecord
100
AcDbDimStyleTableRecord
  2
STYLE3
 70
     0
 41
2.5
 42
0.0
 43
3.75
 44
1.25
 73
     0
 74
     0
 77
     1
 78
     8
140
2.5
141
2.5
143
0.0394
147
0.625
171
     4
172
     1
173
     1
176
     2
177
     2
178
     6
271
     1
273
     8
274
     4
340
3F
341
45
343
45
344
45
  0
ENDTAB
  0
TABLE
  2
BLOCK_RECORD
  5
1
330
0
100
AcDbSymbolTable
 70
    10
  0
BLOCK_RECORD
  5
18
102
{ACAD_XDICTIONARY
360
2D01
102
}
330
1
100
AcDbSymbolTableRecord
100
AcDbBlockTableRecord
  2
*MODEL_SPACE
340
2427
  0
BLOCK_RECORD
  5
15
330
1
100
AcDbSymbolTableRecord
100
AcDbBlockTableRecord
  2
*PAPER_SPACE
340
2428
  0
BLOCK_RECORD
  5
45
330
1
100
AcDbSymbolTableRecord
100
AcDbBlockTableRecord
  2
_OPEN
340
0
102
{BLKREFS
331
2DD6
331
2DD7
331
3CE9
331
3CEA
331
3CF1
331
3CF2
331
3CF9
331
3CFA
331
3D01
331
3D02
331
3D0A
331
3D0B
331
3D13
331
3D14
331
3D1B
331
3D1C
331
3D3A
331
3D3B
331
3D4E
331
3D4F
331
3E34
331
3E35
102
}
  0
BLOCK_RECORD
  5
2F15
330
1
100
AcDbSymbolTableRecord
100
AcDbBlockTableRecord
  2
*D1
340
0
  0
BLOCK_RECORD
  5
2F23
330
1
100
AcDbSymbolTableRecord
100
AcDbBlockTableRecord
  2
*D2
340
0
  0
BLOCK_RECORD
  5
2F2F
330
1
100
AcDbSymbolTableRecord
100
AcDbBlockTableRecord
  2
*D3
340
0
  0
BLOCK_RECORD
  5
2F3A
330
1
100
AcDbSymbolTableRecord
100
AcDbBlockTableRecord
  2
*D4
340
0
  0
BLOCK_RECORD
  5
2F45
330
1
100
AcDbSymbolTableRecord
100
AcDbBlockTableRecord
  2
*D5
340
0
  0
BLOCK_RECORD
  5
2F50
330
1
100
AcDbSymbolTableRecord
100
AcDbBlockTableRecord
  2
*D6
340
0
  0
BLOCK_RECORD
  5
2F5C
330
1
100
AcDbSymbolTableRecord
100
AcDbBlockTableRecord
  2
*D7
340
0
  0
BLOCK_RECORD
  5
2F68
330
1
100
AcDbSymbolTableRecord
100
AcDbBlockTableRecord
  2
*D8
340
0
  0
BLOCK_RECORD
  5
2F73
330
1
100
AcDbSymbolTableRecord
100
AcDbBlockTableRecord
  2
*D9
340
0
  0
ENDTAB
  0
ENDSEC
  0
SECTION
  2
BLOCKS
  0
BLOCK
  5
19
330
18
100
AcDbEntity
  8
0
100
AcDbBlockBegin
  2
*MODEL_SPACE
 70
     0
 10
0.0
 20
0.0
 30
0.0
  3
*MODEL_SPACE
  1

  0
ENDBLK
  5
1A
330
18
100
AcDbEntity
  8
0
100
AcDbBlockEnd
  0
BLOCK
  5
16
330
15
100
AcDbEntity
 67
     1
  8
0
100
AcDbBlockBegin
  2
*PAPER_SPACE
 70
     0
 10
0.0
 20
0.0
 30
0.0
  3
*PAPER_SPACE
  1

  0
ENDBLK
  5
17
330
15
100
AcDbEntity
 67
     1
  8
0
100
AcDbBlockEnd
  0
BLOCK
  5
46
330
45
100
AcDbEntity
  8
0
100
AcDbBlockBegin
  2
_OPEN
 70
     0
 10
0.0
 20
0.0
 30
0.0
  3
_OPEN
  1

  0
LINE
  5
47
330
45
100
AcDbEntity
  8
0
  6
ByBlock
 62
     0
100
AcDbLine
 10
-1.0
 20
0.1666666666666666
 30
0.0
 11
0.0
 21
0.0
 31
0.0
  0
LINE
  5
48
330
45
100
AcDbEntity
  8
0
  6
ByBlock
 62
     0
100
AcDbLine
 10
0.0
 20
0.0
 30
0.0
 11
-1.0
 21
-0.1666666666666666
 31
0.0
  0
LINE
  5
49
330
45
100
AcDbEntity
  8
0
  6
ByBlock
 62
     0
100
AcDbLine
 10
0.0
 20
0.0
 30
0.0
 11
-1.0
 21
0.0
 31
0.0
  0
ENDBLK
  5
4A
330
45
100
AcDbEntity
  8
0
100
AcDbBlockEnd
  0
BLOCK
  5
2F21
330
2F15
100
AcDbEntity
  8
0
100
AcDbBlockBegin
  2
*D1
 70
     1
 10
0.0
 20
0.0
 30
0.0
  3
*D1
  1

  0
LINE
  5
3D35
330
2F15
100
AcDbEntity
  8
文字
 62
     2
440
 16777216
370
    -2
100
AcDbLine
 10
465.2049296756186
 20
297.1411032047224
 30
0.0
 11
465.2049296756186
 21
298.4982928571932
 31
0.0
  0
LINE
  5
3D36
330
2F15
100
AcDbEntity
  8
文字
 62
     2
440
 16777216
370
    -2
100
AcDbLine
 10
469.2049296756185
 20
297.2482928571931
 30
0.0
 11
469.2049296756185
 21
298.4982928571932
 31
0.0
  0
LINE
  5
3D37
330
2F15
100
AcDbEntity
  8
文字
 62
     2
440
 16777216
370
    -2
100
AcDbLine
 10
462.7049296756186
 20
297.2482928571931
 30
0.0
 11
460.2049296756185
 21
297.2482928571931
 31
0.0
  0
LINE
  5
3D38
330
2F15
100
AcDbEntity
  8
文字
 62
     2
440
 16777216
370
    -2
100
AcDbLine
 10
471.7049296756186
 20
297.2482928571931
 30
0.0
 11
480.0977868184757
 21
297.2482928571931
 31
0.0
  0
LINE
  5
3D39
330
2F15
100
AcDbEntity
  8
文字
 62
     2
440
 16777216
370
    -2
100
AcDbLine
 10
465.2049296756186
 20
297.2482928571931
 30
0.0
 11
469.2049296756185
 21
297.2482928571931
 31
0.0
  0
INSERT
  5
3D3A
330
2F15
100
AcDbEntity
  8
文字
 62
     2
440
 16777216
370
    -2
100
AcDbBlockReference
  2
_OPEN
 10
465.2049296756186
 20
297.2482928571931
 30
0.0
 41
2.5
 42
2.5
 43
2.5
  0
INSERT
  5
3D3B
330
2F15
100
AcDbEntity
  8
文字
 62
     2
440
 16777216
370
    -2
100
AcDbBlockReference
  2
_OPEN
 10
469.2049296756185
 20
297.2482928571931
 30
0.0
 41
2.5
 42
2.5
 43
2.5
 50
180.0
  0
MTEXT
  5
3D3C
330
2F15
100
AcDbEntity
  8
文字
 62
     6
440
 16777216
100
AcDbMText
 10
477.1513582470471
 20
299.1232928571932
 30
0.0
 40
2.5
 41
0.0
 71
     5
 72
     1
  1
\A1;\U+03C64
  7
STYLE3
 73
     1
 44
1.0
  0
POINT
  5
3D3D
330
2F15
100
AcDbEntity
  8
DEFPOINTS
 62
     0
440
 16777216
100
AcDbPoint
 10
465.2049296756186
 20
297.1411032047224
 30
0.0
  0
POINT
  5
3D3E
330
2F15
100
AcDbEntity
  8
DEFPOINTS
 62
     0
440
 16777216
100
AcDbPoint
 10
469.2049296756185
 20
297.2482928571931
 30
0.0
  0
POINT
  5
3D3F
330
2F15
100
AcDbEntity
  8
DEFPOINTS
 62
     0
440
 16777216
100
AcDbPoint
 10
469.2049296756185
 20
297.2482928571931
 30
0.0
  0
ENDBLK
  5
2F22
330
2F15
100
AcDbEntity
  8
0
100
AcDbBlockEnd
  0
BLOCK
  5
2F2D
330
2F23
100
AcDbEntity
  8
0
100
AcDbBlockBegin
  2
*D2
 70
     1
 10
0.0
 20
0.0
 30
0.0
  3
*D2
  1

  0
LINE
  5
3CE6
330
2F23
100
AcDbEntity
  8
外形線
 62
     2
440
 16777216
370
    -2
100
AcDbLine
 10
434.1623351410176
 20
359.0826748799238
 30
0.0
 11
431.0234390886221
 21
359.0826748799238
 31
0.0
  0
LINE
  5
3CE7
330
2F23
100
AcDbEntity
  8
外形線
 62
     2
440
 16777216
370
    -2
100
AcDbLine
 10
458.2049296756186
 20
320.9826748799238
 30
0.0
 11
431.0234390886221
 21
320.9826748799238
 31
0.0
  0
LINE
  5
3CE8
330
2F23
100
AcDbEntity
  8
外形線
 62
     2
440
 16777216
370
    -2
100
AcDbLine
 10
432.2734390886221
 20
356.5826748799237
 30
0.0
 11
432.2734390886221
 21
323.4826748799238
 31
0.0
  0
INSERT
  5
3CE9
330
2F23
100
AcDbEntity
  8
外形線
 62
     2
440
 16777216
370
    -2
100
AcDbBlockReference
  2
_OPEN
 10
432.2734390886221
 20
359.0826748799238
 30
0.0
 41
2.5
 42
2.5
 43
2.5
 50
90.0
  0
INSERT
  5
3CEA
330
2F23
100
AcDbEntity
  8
外形線
 62
     2
440
 16777216
370
    -2
100
AcDbBlockReference
  2
_OPEN
 10
432.2734390886221
 20
320.9826748799238
 30
0.0
 41
2.5
 42
2.5
 43
2.5
 50
270.0
  0
MTEXT
  5
3CEB
330
2F23
100
AcDbEntity
  8
外形線
 62
     6
440
 16777216
100
AcDbMText
 10
430.398439088622
 20
340.0326748799238
 30
0.0
 40
2.5
 41
0.0
 71
     5
 72
     1
  1
\A1;38
  7
STYLE3
 11
0.0000000000000001
 21
1.0
 31
0.0
 73
     1
 44
1.0
  0
POINT
  5
3CEC
330
2F23
100
AcDbEntity
  8
DEFPOINTS
 62
     0
440
 16777216
100
AcDbPoint
 10
434.1623351410176
 20
359.0826748799238
 30
0.0
  0
POINT
  5
3CED
330
2F23
100
AcDbEntity
  8
DEFPOINTS
 62
     0
440
 16777216
100
AcDbPoint
 10
458.2049296756186
 20
320.9826748799238
 30
0.0
  0
POINT
  5
3CEE
330
2F23
100
AcDbEntity
  8
DEFPOINTS
 62
     0
440
 16777216
100
AcDbPoint
 10
432.2734390886221
 20
320.9826748799238
 30
0.0
  0
ENDBLK
  5
2F2E
330
2F23
100
AcDbEntity
  8
0
100
AcDbBlockEnd
  0
BLOCK
  5
2F38
330
2F2F
100
AcDbEntity
  8
0
100
AcDbBlockBegin
  2
*D3
 70
     1
 10
0.0
 20
0.0
 30
0.0
  3
*D3
  1

  0
LINE
  5
3CEF
330
2F2F
100
AcDbEntity
  8
外形線
 62
     2
440
 16777216
370
    -2
100
AcDbLine
 10
458.2049296756186
 20
302.9826748799238
 30
0.0
 11
431.0234390886221
 21
302.9826748799238
 31
0.0
  0
LINE
  5
3CF0
330
2F2F
100
AcDbEntity
  8
外形線
 62
     2
440
 16777216
370
    -2
100
AcDbLine
 10
432.2734390886221
 20
318.4826748799238
 30
0.0
 11
432.2734390886221
 21
305.4826748799238
 31
0.0
  0
INSERT
  5
3CF1
330
2F2F
100
AcDbEntity
  8
外形線
 62
     2
440
 16777216
370
    -2
100
AcDbBlockReference
  2
_OPEN
 10
432.2734390886221
 20
320.9826748799238
 30
0.0
 41
2.5
 42
2.5
 43
2.5
 50
90.0
  0
INSERT
  5
3CF2
330
2F2F
100
AcDbEntity
  8
外形線
 62
     2
440
 16777216
370
    -2
100
AcDbBlockReference
  2
_OPEN
 10
432.2734390886221
 20
302.9826748799238
 30
0.0
 41
2.5
 42
2.5
 43
2.5
 50
270.0
  0
MTEXT
  5
3CF3
330
2F2F
100
AcDbEntity
  8
外形線
 62
     6
440
 16777216
100
AcDbMText
 10
430.398439088622
 20
311.9826748799239
 30
0.0
 40
2.5
 41
0.0
 71
     5
 72
     1
  1
\A1;18
  7
STYLE3
 11
0.0000000000000001
 21
1.0
 31
0.0
 73
     1
 44
1.0
  0
POINT
  5
3CF4
330
2F2F
100
AcDbEntity
  8
DEFPOINTS
 62
     0
440
 16777216
100
AcDbPoint
 10
458.2049296756186
 20
320.9826748799238
 30
0.0
  0
POINT
  5
3CF5
330
2F2F
100
AcDbEntity
  8
DEFPOINTS
 62
     0
440
 16777216
100
AcDbPoint
 10
458.2049296756186
 20
302.9826748799238
 30
0.0
  0
POINT
  5
3CF6
330
2F2F
100
AcDbEntity
  8
DEFPOINTS
 62
     0
440
 16777216
100
AcDbPoint
 10
432.2734390886221
 20
302.9826748799238
 30
0.0
  0
ENDBLK
  5
2F39
330
2F2F
100
AcDbEntity
  8
0
100
AcDbBlockEnd
  0
BLOCK
  5
2F43
330
2F3A
100
AcDbEntity
  8
0
100
AcDbBlockBegin
  2
*D4
 70
     1
 10
0.0
 20
0.0
 30
0.0
  3
*D4
  1

  0
LINE
  5
3CF7
330
2F3A
100
AcDbEntity
  8
外形線
 62
     2
440
 16777216
370
    -2
100
AcDbLine
 10
459.3391911423441
 20
272.9826748799238
 30
0.0
 11
431.0234390886221
 21
272.9826748799238
 31
0.0
  0
LINE
  5
3CF8
330
2F3A
100
AcDbEntity
  8
外形線
 62
     2
440
 16777216
370
    -2
100
AcDbLine
 10
432.2734390886221
 20
300.4826748799238
 30
0.0
 11
432.2734390886221
 21
275.4826748799238
 31
0.0
  0
INSERT
  5
3CF9
330
2F3A
100
AcDbEntity
  8
外形線
 62
     2
440
 16777216
370
    -2
100
AcDbBlockReference
  2
_OPEN
 10
432.2734390886221
 20
302.9826748799238
 30
0.0
 41
2.5
 42
2.5
 43
2.5
 50
90.0
  0
INSERT
  5
3CFA
330
2F3A
100
AcDbEntity
  8
外形線
 62
     2
440
 16777216
370
    -2
100
AcDbBlockReference
  2
_OPEN
 10
432.2734390886221
 20
272.9826748799238
 30
0.0
 41
2.5
 42
2.5
 43
2.5
 50
270.0
  0
MTEXT
  5
3CFB
330
2F3A
100
AcDbEntity
  8
外形線
 62
     6
440
 16777216
100
AcDbMText
 10
430.398439088622
 20
287.9826748799239
 30
0.0
 40
2.5
 41
0.0
 71
     5
 72
     1
  1
\A1;30
  7
STYLE3
 11
0.0000000000000001
 21
1.0
 31
0.0
 73
     1
 44
1.0
  0
POINT
  5
3CFC
330
2F3A
100
AcDbEntity
  8
DEFPOINTS
 62
     0
440
 16777216
100
AcDbPoint
 10
458.2049296756186
 20
302.9826748799238
 30
0.0
  0
POINT
  5
3CFD
330
2F3A
100
AcDbEntity
  8
DEFPOINTS
 62
     0
440
 16777216
100
AcDbPoint
 10
459.3391911423441
 20
272.9826748799238
 30
0.0
  0
POINT
  5
3CFE
330
2F3A
100
AcDbEntity
  8
DEFPOINTS
 62
     0
440
 16777216
100
AcDbPoint
 10
432.2734390886221
 20
272.9826748799238
 30
0.0
  0
ENDBLK
  5
2F44
330
2F3A
100
AcDbEntity
  8
0
100
AcDbBlockEnd
  0
BLOCK
  5
2F4E
330
2F45
100
AcDbEntity
  8
0
100
AcDbBlockBegin
  2
*D5
 70
     1
 10
0.0
 20
0.0
 30
0.0
  3
*D5
  1

  0
LINE
  5
3CFF
330
2F45
100
AcDbEntity
  8
外形線
 62
     2
440
 16777216
370
    -2
100
AcDbLine
 10
517.2049296756187
 20
263.9826748799238
 30
0.0
 11
431.0234390886221
 21
263.9826748799238
 31
0.0
  0
LINE
  5
3D00
330
2F45
100
AcDbEntity
  8
外形線
 62
     2
440
 16777216
370
    -2
100
AcDbLine
 10
432.2734390886221
 20
270.4826748799238
 30
0.0
 11
432.2734390886221
 21
266.4826748799238
 31
0.0
  0
INSERT
  5
3D01
330
2F45
100
AcDbEntity
  8
外形線
 62
     2
440
 16777216
370
    -2
100
AcDbBlockReference
  2
_OPEN
 10
432.2734390886221
 20
272.9826748799238
 30
0.0
 41
2.5
 42
2.5
 43
2.5
 50
90.0
  0
INSERT
  5
3D02
330
2F45
100
AcDbEntity
  8
外形線
 62
     2
440
 16777216
370
    -2
100
AcDbBlockReference
  2
_OPEN
 10
432.2734390886221
 20
263.9826748799238
 30
0.0
 41
2.5
 42
2.5
 43
2.5
 50
270.0
  0
MTEXT
  5
3D03
330
2F45
100
AcDbEntity
  8
外形線
 62
     6
440
 16777216
100
AcDbMText
 10
430.398439088622
 20
268.4826748799239
 30
0.0
 40
2.5
 41
0.0
 71
     5
 72
     1
  1
\A1;9
  7
STYLE3
 11
0.0000000000000001
 21
1.0
 31
0.0
 73
     1
 44
1.0
  0
POINT
  5
3D04
330
2F45
100
AcDbEntity
  8
DEFPOINTS
 62
     0
440
 16777216
100
AcDbPoint
 10
459.3391911423441
 20
272.9826748799238
 30
0.0
  0
POINT
  5
3D05
330
2F45
100
AcDbEntity
  8
DEFPOINTS
 62
     0
440
 16777216
100
AcDbPoint
 10
517.2049296756187
 20
263.9826748799238
 30
0.0
  0
POINT
  5
3D06
330
2F45
100
AcDbEntity
  8
DEFPOINTS
 62
     0
440
 16777216
100
AcDbPoint
 10
432.2734390886221
 20
263.9826748799238
 30
0.0
  0
ENDBLK
  5
2F4F
330
2F45
100
AcDbEntity
  8
0
100
AcDbBlockEnd
  0
BLOCK
  5
2F5A
330
2F50
100
AcDbEntity
  8
0
100
AcDbBlockBegin
  2
*D6
 70
     1
 10
0.0
 20
0.0
 30
0.0
  3
*D6
  1

  0
LINE
  5
3D07
330
2F50
100
AcDbEntity
  8
外形線
 62
     2
440
 16777216
370
    -2
100
AcDbLine
 10
431.0234390886221
 20
359.0826748799238
 30
0.0
 11
423.2421081555417
 21
359.0826748799238
 31
0.0
  0
LINE
  5
3D08
330
2F50
100
AcDbEntity
  8
外形線
 62
     2
440
 16777216
370
    -2
100
AcDbLine
 10
431.0234390886221
 20
263.9826748799238
 30
0.0
 11
423.2421081555417
 21
263.9826748799238
 31
0.0
  0
LINE
  5
3D09
330
2F50
100
AcDbEntity
  8
外形線
 62
     2
440
 16777216
370
    -2
100
AcDbLine
 10
424.4921081555417
 20
356.5826748799237
 30
0.0
 11
424.4921081555417
 21
266.4826748799238
 31
0.0
  0
INSERT
  5
3D0A
330
2F50
100
AcDbEntity
  8
外形線
 62
     2
440
 16777216
370
    -2
100
AcDbBlockReference
  2
_OPEN
 10
424.4921081555417
 20
359.0826748799238
 30
0.0
 41
2.5
 42
2.5
 43
2.5
 50
90.0
  0
INSERT
  5
3D0B
330
2F50
100
AcDbEntity
  8
外形線
 62
     2
440
 16777216
370
    -2
100
AcDbBlockReference
  2
_OPEN
 10
424.4921081555417
 20
263.9826748799238
 30
0.0
 41
2.5
 42
2.5
 43
2.5
 50
270.0
  0
MTEXT
  5
3D0C
330
2F50
100
AcDbEntity
  8
外形線
 62
     6
440
 16777216
100
AcDbMText
 10
422.6171081555415
 20
311.5326748799238
 30
0.0
 40
2.5
 41
0.0
 71
     5
 72
     1
  1
\A1;95
  7
STYLE3
 11
0.0000000000000001
 21
1.0
 31
0.0
 73
     1
 44
1.0
  0
POINT
  5
3D0D
330
2F50
100
AcDbEntity
  8
DEFPOINTS
 62
     0
440
 16777216
100
AcDbPoint
 10
431.0234390886221
 20
359.0826748799238
 30
0.0
  0
POINT
  5
3D0E
330
2F50
100
AcDbEntity
  8
DEFPOINTS
 62
     0
440
 16777216
100
AcDbPoint
 10
431.0234390886221
 20
263.9826748799238
 30
0.0
  0
POINT
  5
3D0F
330
2F50
100
AcDbEntity
  8
DEFPOINTS
 62
     0
440
 16777216
100
AcDbPoint
 10
424.4921081555417
 20
263.9826748799238
 30
0.0
  0
ENDBLK
  5
2F5B
330
2F50
100
AcDbEntity
  8
0
100
AcDbBlockEnd
  0
BLOCK
  5
2F66
330
2F5C
100
AcDbEntity
  8
0
100
AcDbBlockBegin
  2
*D7
 70
     1
 10
0.0
 20
0.0
 30
0.0
  3
*D7
  1

  0
LINE
  5
3D10
330
2F5C
100
AcDbEntity
  8
外形線
 62
     2
440
 16777216
370
    -2
100
AcDbLine
 10
467.2049296756186
 20
267.444869529056
 30
0.0
 11
467.2049296756186
 21
254.7703074944219
 31
0.0
  0
LINE
  5
3D11
330
2F5C
100
AcDbEntity
  8
外形線
 62
     2
440
 16777216
370
    -2
100
AcDbLine
 10
517.2049296756187
 20
263.9826748799238
 30
0.0
 11
517.2049296756187
 21
254.7703074944219
 31
0.0
  0
LINE
  5
3D12
330
2F5C
100
AcDbEntity
  8
外形線
 62
     2
440
 16777216
370
    -2
100
AcDbLine
 10
469.7049296756186
 20
256.0203074944218
 30
0.0
 11
514.7049296756185
 21
256.0203074944218
 31
0.0
  0
INSERT
  5
3D13
330
2F5C
100
AcDbEntity
  8
外形線
 62
     2
440
 16777216
370
    -2
100
AcDbBlockReference
  2
_OPEN
 10
467.2049296756186
 20
256.0203074944218
 30
0.0
 41
2.5
 42
2.5
 43
2.5
 50
180.0
  0
INSERT
  5
3D14
330
2F5C
100
AcDbEntity
  8
外形線
 62
     2
440
 16777216
370
    -2
100
AcDbBlockReference
  2
_OPEN
 10
517.2049296756187
 20
256.0203074944218
 30
0.0
 41
2.5
 42
2.5
 43
2.5
  0
MTEXT
  5
3D15
330
2F5C
100
AcDbEntity
  8
外形線
 62
     6
440
 16777216
100
AcDbMText
 10
492.2049296756186
 20
257.8953074944219
 30
0.0
 40
2.5
 41
0.0
 71
     5
 72
     1
  1
\A1;50
  7
STYLE3
 73
     1
 44
1.0
  0
POINT
  5
3D16
330
2F5C
100
AcDbEntity
  8
DEFPOINTS
 62
     0
440
 16777216
100
AcDbPoint
 10
467.2049296756186
 20
267.444869529056
 30
0.0
  0
POINT
  5
3D17
330
2F5C
100
AcDbEntity
  8
DEFPOINTS
 62
     0
440
 16777216
100
AcDbPoint
 10
517.2049296756187
 20
263.9826748799238
 30
0.0
  0
POINT
  5
3D18
330
2F5C
100
AcDbEntity
  8
DEFPOINTS
 62
     0
440
 16777216
100
AcDbPoint
 10
517.2049296756187
 20
256.0203074944218
 30
0.0
  0
ENDBLK
  5
2F67
330
2F5C
100
AcDbEntity
  8
0
100
AcDbBlockEnd
  0
BLOCK
  5
2F71
330
2F68
100
AcDbEntity
  8
0
100
AcDbBlockBegin
  2
*D8
 70
     1
 10
0.0
 20
0.0
 30
0.0
  3
*D8
  1

  0
LINE
  5
3D19
330
2F68
100
AcDbEntity
  8
外形線
 62
     2
440
 16777216
370
    -2
100
AcDbLine
 10
535.2049296756188
 20
263.9826748799238
 30
0.0
 11
535.2049296756188
 21
254.7703074944219
 31
0.0
  0
LINE
  5
3D1A
330
2F68
100
AcDbEntity
  8
外形線
 62
     2
440
 16777216
370
    -2
100
AcDbLine
 10
519.7049296756187
 20
256.0203074944218
 30
0.0
 11
532.7049296756188
 21
256.0203074944218
 31
0.0
  0
INSERT
  5
3D1B
330
2F68
100
AcDbEntity
  8
外形線
 62
     2
440
 16777216
370
    -2
100
AcDbBlockReference
  2
_OPEN
 10
517.2049296756187
 20
256.0203074944218
 30
0.0
 41
2.5
 42
2.5
 43
2.5
 50
180.0
  0
INSERT
  5
3D1C
330
2F68
100
AcDbEntity
  8
外形線
 62
     2
440
 16777216
370
    -2
100
AcDbBlockReference
  2
_OPEN
 10
535.2049296756188
 20
256.0203074944218
 30
0.0
 41
2.5
 42
2.5
 43
2.5
  0
MTEXT
  5
3D1D
330
2F68
100
AcDbEntity
  8
外形線
 62
     6
440
 16777216
100
AcDbMText
 10
526.2049296756186
 20
257.8953074944219
 30
0.0
 40
2.5
 41
0.0
 71
     5
 72
     1
  1
\A1;18
  7
STYLE3
 73
     1
 44
1.0
  0
POINT
  5
3D1E
330
2F68
100
AcDbEntity
  8
DEFPOINTS
 62
     0
440
 16777216
100
AcDbPoint
 10
517.2049296756187
 20
263.9826748799238
 30
0.0
  0
POINT
  5
3D1F
330
2F68
100
AcDbEntity
  8
DEFPOINTS
 62
     0
440
 16777216
100
AcDbPoint
 10
535.2049296756188
 20
263.9826748799238
 30
0.0
  0
POINT
  5
3D20
330
2F68
100
AcDbEntity
  8
DEFPOINTS
 62
     0
440
 16777216
100
AcDbPoint
 10
535.2049296756188
 20
256.0203074944218
 30
0.0
  0
ENDBLK
  5
2F72
330
2F68
100
AcDbEntity
  8
0
100
AcDbBlockEnd
  0
BLOCK
  5
2F7F
330
2F73
100
AcDbEntity
  8
0
100
AcDbBlockBegin
  2
*D9
 70
     1
 10
0.0
 20
0.0
 30
0.0
  3
*D9
  1

  0
LINE
  5
3D49
330
2F73
100
AcDbEntity
  8
寸法線
 62
     2
440
 16777216
370
    -2
100
AcDbLine
 10
466.0549296756186
 20
275.4826748799238
 30
0.0
 11
478.0573536573351
 21
287.4850988616403
 31
0.0
  0
LINE
  5
3D4A
330
2F73
100
AcDbEntity
  8
寸法線
 62
     2
440
 16777216
370
    -2
100
AcDbLine
 10
468.3549296756186
 20
275.4826748799238
 30
0.0
 11
480.3573536573352
 21
287.4850988616403
 31
0.0
  0
LINE
  5
3D4B
330
2F73
100
AcDbEntity
  8
寸法線
 62
     2
440
 16777216
370
    -2
100
AcDbLine
 10
474.307353657335
 20
286.2350988616403
 30
0.0
 11
471.8073536573351
 21
286.2350988616403
 31
0.0
  0
LINE
  5
3D4C
330
2F73
100
AcDbEntity
  8
寸法線
 62
     2
440
 16777216
370
    -2
100
AcDbLine
 10
481.6073536573352
 20
286.2350988616403
 30
0.0
 11
493.4525917525731
 21
286.2350988616403
 31
0.0
  0
LINE
  5
3D4D
330
2F73
100
AcDbEntity
  8
寸法線
 62
     2
440
 16777216
370
    -2
100
AcDbLine
 10
476.8073536573352
 20
286.2350988616403
 30
0.0
 11
479.107353657335
 21
286.2350988616403
 31
0.0
  0
INSERT
  5
3D4E
330
2F73
100
AcDbEntity
  8
寸法線
 62
     2
440
 16777216
370
    -2
100
AcDbBlockReference
  2
_OPEN
 10
476.8073536573352
 20
286.2350988616403
 30
0.0
 41
2.5
 42
2.5
 43
2.5
  0
INSERT
  5
3D4F
330
2F73
100
AcDbEntity
  8
寸法線
 62
     2
440
 16777216
370
    -2
100
AcDbBlockReference
  2
_OPEN
 10
479.107353657335
 20
286.2350988616403
 30
0.0
 41
2.5
 42
2.5
 43
2.5
 50
180.0
  0
MTEXT
  5
3D50
330
2F73
100
AcDbEntity
  8
寸法線
 62
     6
440
 16777216
100
AcDbMText
 10
488.7799727049542
 20
288.1100988616402
 30
0.0
 40
2.5
 41
0.0
 71
     5
 72
     1
  1
\A1;\U+03C62.3
  7
STYLE3
 73
     1
 44
1.0
  0
POINT
  5
3D51
330
2F73
100
AcDbEntity
  8
DEFPOINTS
 62
     0
440
 16777216
100
AcDbPoint
 10
466.0549296756186
 20
275.4826748799238
 30
0.0
  0
POINT
  5
3D52
330
2F73
100
AcDbEntity
  8
DEFPOINTS
 62
     0
440
 16777216
100
AcDbPoint
 10
468.3549296756186
 20
275.4826748799238
 30
0.0
  0
POINT
  5
3D53
330
2F73
100
AcDbEntity
  8
DEFPOINTS
 62
     0
440
 16777216
100
AcDbPoint
 10
479.107353657335
 20
286.2350988616403
 30
0.0
  0
ENDBLK
  5
2F80
330
2F73
100
AcDbEntity
  8
0
100
AcDbBlockEnd
  0
ENDSEC
  0
SECTION
  2
ENTITIES
  0
MTEXT
  5
638
330
18
100
AcDbEntity
  8
DEFPOINTS
  6
Continuous
100
AcDbMText
 10
925.5233116574627
 20
355.2589711284398
 30
0.0
 40
1.0
 41
0.0
 71
     4
 72
     1
  1
\A1;
 73
     1
 44
1.0
  0
MTEXT
  5
691
330
18
100
AcDbEntity
  8
文字
100
AcDbMText
 10
492.6625212154621
 20
381.3369533666739
 30
0.0
 40
1.0
 41
6.927999999999999
 71
     1
 72
     5
  1

  7
STYLE3
 73
     1
 44
1.0
  0
MTEXT
  5
6F0
330
18
100
AcDbEntity
  8
DEFPOINTS
  6
Continuous
100
AcDbMText
 10
814.3983308706037
 20
304.5845046541248
 30
0.0
 40
0.35
 41
0.0
 71
     4
 72
     1
  1
\A1;
 73
     1
 44
1.0
  0
MTEXT
  5
CC5
330
18
100
AcDbEntity
  8
DEFPOINTS
  6
Continuous
100
AcDbMText
 10
710.4729546088115
 20
331.694457677123
 30
0.0
 40
1.0
 41
0.0
 71
     4
 72
     1
  1
\A1;
 73
     1
 44
1.0
  0
MTEXT
  5
D1E
330
18
100
AcDbEntity
  8
文字
100
AcDbMText
 10
277.612164166811
 20
357.7724399153571
 30
0.0
 40
1.0
 41
6.927999999999999
 71
     1
 72
     5
  1

  7
STYLE3
 73
     1
 44
1.0
  0
MTEXT
  5
D7D
330
18
100
AcDbEntity
  8
DEFPOINTS
  6
Continuous
100
AcDbMText
 10
599.3479738219526
 20
281.019991202808
 30
0.0
 40
0.35
 41
0.0
 71
     4
 72
     1
  1
\A1;
 73
     1
 44
1.0
  0
MTEXT
  5
14A5
330
18
100
AcDbEntity
  8
DEFPOINTS
  6
Continuous
100
AcDbMText
 10
1025.567307082712
 20
154.6779584459976
 30
0.0
 40
1.0
 41
0.0
 71
     4
 72
     1
  1
\A1;
 73
     1
 44
1.0
  0
MTEXT
  5
14A9
330
18
100
AcDbEntity
  8
文字
100
AcDbMText
 10
592.7065166407121
 20
180.7559406842317
 30
0.0
 40
1.0
 41
6.927999999999999
 71
     1
 72
     5
  1

  7
STYLE3
 73
     1
 44
1.0
  0
MTEXT
  5
14AA
330
18
100
AcDbEntity
  8
DEFPOINTS
  6
Continuous
100
AcDbMText
 10
914.4423262958536
 20
104.0034919716825
 30
0.0
 40
0.35
 41
0.0
 71
     4
 72
     1
  1
\A1;
 73
     1
 44
1.0
  0
MTEXT
  5
1591
330
18
100
AcDbEntity
  8
DEFPOINTS
  6
Continuous
100
AcDbMText
 10
1120.36654932847
 20
257.9884247945498
 30
0.0
 40
1.0
 41
0.0
 71
     4
 72
     1
  1
\A1;
 73
     1
 44
1.0
  0
MTEXT
  5
1595
330
18
100
AcDbEntity
  8
文字
100
AcDbMText
 10
687.5057588864692
 20
284.0664070327839
 30
0.0
 40
1.0
 41
6.927999999999999
 71
     1
 72
     5
  1

  7
STYLE3
 73
     1
 44
1.0
  0
MTEXT
  5
1596
330
18
100
AcDbEntity
  8
DEFPOINTS
  6
Continuous
100
AcDbMText
 10
1009.24156854161
 20
207.3139583202348
 30
0.0
 40
0.35
 41
0.0
 71
     4
 72
     1
  1
\A1;
 73
     1
 44
1.0
  0
MTEXT
  5
1597
330
18
100
AcDbEntity
  8
DEFPOINTS
  6
Continuous
100
AcDbMText
 10
1620.80519670057
 20
433.2016133035515
 30
0.0
 40
1.0
 41
0.0
 71
     4
 72
     1
  1
\A1;
 73
     1
 44
1.0
  0
MTEXT
  5
1598
330
18
100
AcDbEntity
  8
文字
100
AcDbMText
 10
1187.94440625857
 20
459.2795955417854
 30
0.0
 40
1.0
 41
6.927999999999999
 71
     1
 72
     5
  1

  7
STYLE3
 73
     1
 44
1.0
  0
MTEXT
  5
1599
330
18
100
AcDbEntity
  8
DEFPOINTS
  6
Continuous
100
AcDbMText
 10
1509.680215913711
 20
382.5271468292364
 30
0.0
 40
0.35
 41
0.0
 71
     4
 72
     1
  1
\A1;
 73
     1
 44
1.0
  0
LWPOLYLINE
  5
2D05
330
18
100
AcDbEntity
  8
C
100
AcDbPolyline
 90
        5
 70
     0
 43
0.4
 10
365.4046363428358
 20
212.3090173793467
 10
365.4046363428358
 20
467.3090173793466
 10
555.9867107333923
 20
467.3090173793466
 10
555.9867107333923
 20
212.3090173793467
 10
365.4046363428358
 20
212.3090173793467
  0
LINE
  5
2D13
330
18
100
AcDbEntity
  8
C
100
AcDbLine
 10
365.4046363428358
 20
238.2340173793465
 30
0.0
 11
365.4046363428358
 21
212.3090173793467
 31
0.0
  0
LINE
  5
2D48
330
18
100
AcDbEntity
  8
外形線
100
AcDbLine
 10
467.2049296756186
 20
275.4826748799238
 30
0.0
 11
466.0549296756186
 21
275.4826748799238
 31
0.0
  0
LINE
  5
2D49
330
18
100
AcDbEntity
  8
外形線
100
AcDbLine
 10
467.2049296756186
 20
280.4826748799238
 30
0.0
 11
464.7049296756186
 21
280.4826748799238
 31
0.0
  0
LINE
  5
2D4A
330
18
100
AcDbEntity
  8
外形線
100
AcDbLine
 10
464.7049296756186
 20
280.4826748799238
 30
0.0
 11
466.0549296756186
 21
275.4826748799238
 31
0.0
  0
LINE
  5
2D4B
330
18
100
AcDbEntity
  8
外形線
100
AcDbLine
 10
469.7049296756186
 20
280.4826748799238
 30
0.0
 11
468.3549296756186
 21
275.4826748799238
 31
0.0
  0
LINE
  5
2D4C
330
18
100
AcDbEntity
  8
外形線
100
AcDbLine
 10
467.2049296756186
 20
280.4826748799238
 30
0.0
 11
469.7049296756186
 21
280.4826748799238
 31
0.0
  0
LINE
  5
2D4D
330
18
100
AcDbEntity
  8
外形線
100
AcDbLine
 10
467.2049296756186
 20
275.4826748799238
 30
0.0
 11
468.3549296756186
 21
275.4826748799238
 31
0.0
  0
LINE
  5
2D56
330
18
100
AcDbEntity
  8
外形線
100
AcDbLine
 10
464.7049296756185
 20
285.4826748799238
 30
0.0
 11
469.7049296756186
 21
285.4826748799238
 31
0.0
  0
LINE
  5
2D58
330
18
100
AcDbEntity
  8
外形線
100
AcDbLine
 10
469.7049296756186
 20
285.4826748799238
 30
0.0
 11
469.7049296756186
 21
280.4826748799238
 31
0.0
  0
LINE
  5
2D59
330
18
100
AcDbEntity
  8
外形線
100
AcDbLine
 10
464.7049296756185
 20
285.4826748799238
 30
0.0
 11
464.7049296756186
 21
280.4826748799238
 31
0.0
  0
LINE
  5
2D5A
330
18
100
AcDbEntity
  8
ﾊｯﾁﾝｸ
 62
     4
100
AcDbLine
 10
464.7049296756185
 20
284.3554967117727
 30
0.0
 11
465.3557062944255
 21
285.4826748799238
 31
0.0
  0
LINE
  5
2D5B
330
18
100
AcDbEntity
  8
ﾊｯﾁﾝｸ
 62
     4
100
AcDbLine
 10
464.7049296756186
 20
282.4504967117727
 30
0.0
 11
466.4555585572315
 21
285.4826748799238
 31
0.0
  0
LINE
  5
2D5C
330
18
100
AcDbEntity
  8
ﾊｯﾁﾝｸ
 62
     4
100
AcDbLine
 10
464.7049296756186
 20
280.5454967117727
 30
0.0
 11
467.2049296756186
 21
284.8756237306949
 31
0.0
  0
LINE
  5
2D5D
330
18
100
AcDbEntity
  8
ﾊｯﾁﾝｸ
 62
     4
100
AcDbLine
 10
465.7685117368959
 20
280.4826748799238
 30
0.0
 11
467.2049296756186
 21
282.9706237306949
 31
0.0
  0
LINE
  5
2D5E
330
18
100
AcDbEntity
  8
ﾊｯﾁﾝｸ
 62
     4
100
AcDbLine
 10
466.8683639997023
 20
280.4826748799238
 30
0.0
 11
467.2049296756186
 21
281.0656237306949
 31
0.0
  0
LINE
  5
2D5F
330
18
100
AcDbEntity
  8
ﾊｯﾁﾝｸ
 62
     4
100
AcDbLine
 10
465.7083099977999
 20
280.4826748799238
 30
0.0
 11
464.7049296756186
 21
282.6344309247445
 31
0.0
  0
LINE
  5
2D60
330
18
100
AcDbEntity
  8
ﾊｯﾁﾝｸ
 62
     4
100
AcDbLine
 10
466.7592774656116
 20
280.4826748799238
 30
0.0
 11
464.7049296756186
 21
284.8882379326972
 31
0.0
  0
LINE
  5
2D61
330
18
100
AcDbEntity
  8
ﾊｯﾁﾝｸ
 62
     4
100
AcDbLine
 10
467.2049296756186
 20
281.7807776393761
 30
0.0
 11
465.4787066426485
 21
285.4826748799238
 31
0.0
  0
LINE
  5
2D62
330
18
100
AcDbEntity
  8
ﾊｯﾁﾝｸ
 62
     4
100
AcDbLine
 10
467.2049296756186
 20
284.0345846473288
 30
0.0
 11
466.5296741104602
 21
285.4826748799238
 31
0.0
  0
LINE
  5
2D63
330
18
100
AcDbEntity
  8
外形線
100
AcDbLine
 10
458.2049296756186
 20
302.9826748799238
 30
0.0
 11
501.2049296756186
 21
302.9826748799238
 31
0.0
  0
LINE
  5
2D64
330
18
100
AcDbEntity
  8
外形線
100
AcDbLine
 10
458.2049296756186
 20
320.9826748799238
 30
0.0
 11
504.9938271246907
 21
320.9826748799238
 31
0.0
  0
LINE
  5
2D65
330
18
100
AcDbEntity
  8
外形線
100
AcDbLine
 10
517.2049296756187
 20
263.9826748799238
 30
0.0
 11
535.2049296756188
 21
263.9826748799238
 31
0.0
  0
LINE
  5
2D66
330
18
100
AcDbEntity
  8
外形線
100
AcDbLine
 10
517.2049296756187
 20
286.9826748799238
 30
0.0
 11
517.2049296756187
 21
263.9826748799238
 31
0.0
  0
LINE
  5
2D67
330
18
100
AcDbEntity
  8
外形線
100
AcDbLine
 10
535.2049296756188
 20
296.0090089189135
 30
0.0
 11
535.2049296756188
 21
263.9826748799238
 31
0.0
  0
ARC
  5
2D68
330
18
100
AcDbEntity
  8
外形線
100
AcDbCircle
 10
501.2049296756186
 20
286.9826748799238
 30
0.0
 40
16.0
100
AcDbArc
 50
0.0
 51
90.0
  0
ARC
  5
2D69
330
18
100
AcDbEntity
  8
外形線
100
AcDbCircle
 10
458.2049296756186
 20
311.9826748799238
 30
0.0
 40
9.0
100
AcDbArc
 50
90.0
 51
270.0
  0
ARC
  5
2D6A
330
18
100
AcDbEntity
  8
外形線
100
AcDbCircle
 10
512.2049296756187
 20
332.9826748799238
 30
0.0
 40
14.0
100
AcDbArc
 50
71.56367643519127
 51
250.8125959134064
  0
ARC
  5
2D6B
330
18
100
AcDbEntity
  8
外形線
100
AcDbCircle
 10
531.2049296756185
 20
314.9826748799238
 30
0.0
 40
14.0
100
AcDbArc
 50
202.4095549452795
 51
19.95400247547718
  0
ARC
  5
2D6C
330
18
100
AcDbEntity
  8
外形線
100
AcDbCircle
 10
512.2049296756187
 20
332.9826748799238
 30
0.0
 40
20.0
100
AcDbArc
 50
70.9649960125727
 51
161.3885360334642
  0
ARC
  5
2D6D
330
18
100
AcDbEntity
  8
外形線
100
AcDbCircle
 10
531.2049296756185
 20
314.9826748799238
 30
0.0
 40
20.0
100
AcDbArc
 50
311.8103148957786
 51
23.49897501304052
  0
ARC
  5
2D6E
330
18
100
AcDbEntity
  8
外形線
100
AcDbCircle
 10
467.6628147729784
 20
347.9826748799238
 30
0.0
 40
27.0
100
AcDbArc
 50
270.0
 51
341.3885360334643
  0
ARC
  5
2D6F
330
18
100
AcDbEntity
  8
外形線
100
AcDbCircle
 10
501.621490588962
 20
302.7834891773419
 30
0.0
 40
18.0
100
AcDbArc
 50
22.40955494527958
 51
70.68676045267626
  0
ARC
  5
2D70
330
18
100
AcDbEntity
  8
外形線
100
AcDbCircle
 10
502.1410918879846
 20
303.3407124181982
 30
0.0
 40
45.30363425044876
100
AcDbArc
 50
21.24989293474472
 51
71.34484107462398
  0
ARC
  5
2D71
330
18
100
AcDbEntity
  8
外形線
100
AcDbCircle
 10
502.1410918879846
 20
303.3407124181982
 30
0.0
 40
51.30363425044876
100
AcDbArc
 50
21.24989293474472
 51
71.34484107462398
  0
ARC
  5
2D72
330
18
100
AcDbEntity
  8
外形線
100
AcDbCircle
 10
563.2049296756187
 20
279.2055872399272
 30
0.0
 40
28.0
100
AcDbArc
 50
131.8103148957786
 51
180.0
  0
ARC
  5
2D73
330
18
100
AcDbEntity
  8
外形線
100
AcDbCircle
 10
530.2049296756186
 20
296.0090089189135
 30
0.0
 40
5.0
100
AcDbArc
 50
0.0
 51
86.98303869018422
  0
LINE
  5
2D7E
330
18
100
AcDbEntity
  8
中心線
100
AcDbLine
 10
459.3391911423441
 20
272.9826748799238
 30
0.0
 11
542.4771147269376
 21
272.9826748799238
 31
0.0
  0
LINE
  5
2D7F
330
18
100
AcDbEntity
  8
隠れ線2
100
AcDbLine
 10
517.2049296756187
 20
275.4826748799238
 30
0.0
 11
535.2049296756188
 21
275.4826748799238
 31
0.0
  0
LINE
  5
2D80
330
18
100
AcDbEntity
  8
隠れ線2
100
AcDbLine
 10
517.2049296756187
 20
270.4826748799238
 30
0.0
 11
535.2049296756188
 21
270.4826748799238
 31
0.0
  0
LINE
  5
2D81
330
18
100
AcDbEntity
  8
中心線
100
AcDbLine
 10
467.2049296756186
 20
419.5537838405656
 30
0.0
 11
467.2049296756186
 21
267.444869529056
 31
0.0
  0
CIRCLE
  5
2D82
330
18
100
AcDbEntity
  8
外形線
100
AcDbCircle
 10
458.2049296756186
 20
311.9826748799238
 30
0.0
 40
4.5
  0
LINE
  5
2D83
330
18
100
AcDbEntity
  8
中心線
 48
0.3
100
AcDbLine
 10
451.3752971385109
 20
311.9826748799238
 30
0.0
 11
465.0345622127264
 21
311.9826748799238
 31
0.0
  0
LINE
  5
2D84
330
18
100
AcDbEntity
  8
中心線
 48
0.3
100
AcDbLine
 10
458.2049296756186
 20
305.1530423428161
 30
0.0
 11
458.2049296756186
 21
318.8123074170315
 31
0.0
  0
LINE
  5
2D8C
330
18
100
AcDbEntity
  8
外形線
100
AcDbLine
 10
512.2049296756188
 20
275.4826748799238
 30
0.0
 11
512.2049296756188
 21
270.4826748799238
 31
0.0
  0
LINE
  5
2D8D
330
18
100
AcDbEntity
  8
外形線
100
AcDbLine
 10
492.2049296756186
 20
274.7326748799238
 30
0.0
 11
492.2049296756186
 21
271.2326748799238
 31
0.0
  0
ARC
  5
2D8E
330
18
100
AcDbEntity
  8
外形線
100
AcDbCircle
 10
467.2049296756186
 20
272.9826748799238
 30
0.0
 40
2.5
100
AcDbArc
 50
44.4270040008062
 51
315.5729959991938
  0
LINE
  5
2D8F
330
18
100
AcDbEntity
  8
外形線
100
AcDbLine
 10
517.2049296756187
 20
275.4826748799238
 30
0.0
 11
512.2049296756188
 21
275.4826748799238
 31
0.0
  0
LINE
  5
2D90
330
18
100
AcDbEntity
  8
外形線
100
AcDbLine
 10
517.2049296756187
 20
270.4826748799238
 30
0.0
 11
512.2049296756188
 21
270.4826748799238
 31
0.0
  0
LINE
  5
2D91
330
18
100
AcDbEntity
  8
外形線
100
AcDbLine
 10
468.9902867827544
 20
274.7326748799238
 30
0.0
 11
492.2049296756186
 21
274.7326748799238
 31
0.0
  0
LINE
  5
2D92
330
18
100
AcDbEntity
  8
外形線
100
AcDbLine
 10
468.9902867827544
 20
271.2326748799238
 30
0.0
 11
492.2049296756186
 21
271.2326748799238
 31
0.0
  0
LINE
  5
2D93
330
18
100
AcDbEntity
  8
外形線
100
AcDbLine
 10
468.9902867827544
 20
274.7326748799238
 30
0.0
 11
468.9902867827544
 21
271.2326748799238
 31
0.0
  0
LINE
  5
2D94
330
18
100
AcDbEntity
  8
外形線
100
AcDbLine
 10
492.2049296756186
 20
274.7326748799238
 30
0.0
 11
512.2049296756188
 21
275.4826748799238
 31
0.0
  0
LINE
  5
2D95
330
18
100
AcDbEntity
  8
外形線
100
AcDbLine
 10
492.2049296756186
 20
271.2326748799238
 30
0.0
 11
512.2049296756188
 21
270.4826748799238
 31
0.0
  0
LINE
  5
2DBA
330
18
100
AcDbEntity
  8
外形線
100
AcDbLine
 10
460.103207615892
 20
310.0843969396505
 30
0.0
 11
456.3066517353454
 21
313.8809528201971
 31
0.0
  0
LINE
  5
2DBB
330
18
100
AcDbEntity
  8
外形線
100
AcDbLine
 10
456.3066517353454
 20
310.0843969396505
 30
0.0
 11
460.103207615892
 21
313.8809528201971
 31
0.0
  0
DIMENSION
  5
2DBC
330
18
100
AcDbEntity
  8
外形線
100
AcDbDimension
  2
*D2
 10
432.2734390886221
 20
320.9826748799238
 30
0.0
 11
430.398439088622
 21
340.0326748799238
 31
0.0
 70
    32
 71
     5
 42
38.0999999999999
  3
STYLE3
100
AcDbAlignedDimension
 13
434.1623351410176
 23
359.0826748799238
 33
0.0
 14
458.2049296756186
 24
320.9826748799238
 34
0.0
 50
90.0
100
AcDbRotatedDimension
1001
ACAD
1000
DSTYLE
1002
{
1070
   271
1070
     0
1002
}
  0
DIMENSION
  5
2DBD
330
18
100
AcDbEntity
  8
外形線
100
AcDbDimension
  2
*D3
 10
432.2734390886221
 20
302.9826748799238
 30
0.0
 11
430.398439088622
 21
311.9826748799239
 31
0.0
 70
    32
 71
     5
 42
18.0
  3
STYLE3
100
AcDbAlignedDimension
 13
458.2049296756186
 23
320.9826748799238
 33
0.0
 14
458.2049296756186
 24
302.9826748799238
 34
0.0
 50
90.0
100
AcDbRotatedDimension
1001
ACAD
1000
DSTYLE
1002
{
1070
    75
1070
     1
1070
   271
1070
     2
1070
   279
1070
     1
1002
}
  0
DIMENSION
  5
2DBE
330
18
100
AcDbEntity
  8
外形線
100
AcDbDimension
  2
*D4
 10
432.2734390886221
 20
272.9826748799238
 30
0.0
 11
430.398439088622
 21
287.9826748799239
 31
0.0
 70
    32
 71
     5
 42
30.0
  3
STYLE3
100
AcDbAlignedDimension
 13
458.2049296756186
 23
302.9826748799238
 33
0.0
 14
459.3391911423441
 24
272.9826748799238
 34
0.0
 50
90.0
100
AcDbRotatedDimension
1001
ACAD
1000
DSTYLE
1002
{
1070
    75
1070
     1
1070
   271
1070
     2
1070
   279
1070
     1
1002
}
  0
DIMENSION
  5
2DBF
330
18
100
AcDbEntity
  8
外形線
100
AcDbDimension
  2
*D5
 10
432.2734390886221
 20
263.9826748799238
 30
0.0
 11
430.398439088622
 21
268.4826748799239
 31
0.0
 70
    32
 71
     5
 42
9.0
  3
STYLE3
100
AcDbAlignedDimension
 13
459.3391911423441
 23
272.9826748799238
 33
0.0
 14
517.2049296756187
 24
263.9826748799238
 34
0.0
 50
90.0
100
AcDbRotatedDimension
1001
ACAD
1000
DSTYLE
1002
{
1070
    75
1070
     1
1070
   271
1070
     2
1070
   279
1070
     1
1002
}
  0
DIMENSION
  5
2DC0
330
18
100
AcDbEntity
  8
外形線
100
AcDbDimension
  2
*D6
 10
424.4921081555417
 20
263.9826748799238
 30
0.0
 11
422.6171081555415
 21
311.5326748799238
 31
0.0
 70
    32
 71
     5
 42
95.0999999999999
  3
STYLE3
100
AcDbAlignedDimension
 13
431.0234390886221
 23
359.0826748799238
 33
0.0
 14
431.0234390886221
 24
263.9826748799238
 34
0.0
 50
90.0
100
AcDbRotatedDimension
1001
ACAD
1000
DSTYLE
1002
{
1070
   271
1070
     0
1002
}
  0
POINT
  5
2DC9
330
18
100
AcDbEntity
  8
DEFPOINTS
  6
ByBlock
 62
     0
100
AcDbPoint
 10
466.0549296756186
 20
275.4826748799238
 30
0.0
  0
POINT
  5
2DCA
330
18
100
AcDbEntity
  8
DEFPOINTS
  6
ByBlock
 62
     0
100
AcDbPoint
 10
467.2049296756186
 20
270.4826748799238
 30
0.0
  0
DIMENSION
  5
2DCC
330
18
100
AcDbEntity
  8
外形線
100
AcDbDimension
  2
*D7
 10
517.2049296756187
 20
256.0203074944218
 30
0.0
 11
492.2049296756186
 21
257.8953074944219
 31
0.0
 70
    32
 71
     5
 42
50.0
  3
STYLE3
100
AcDbAlignedDimension
 13
467.2049296756186
 23
267.444869529056
 33
0.0
 14
517.2049296756187
 24
263.9826748799238
 34
0.0
100
AcDbRotatedDimension
1001
ACAD
1000
DSTYLE
1002
{
1070
   271
1070
     2
1002
}
  0
DIMENSION
  5
2DCD
330
18
100
AcDbEntity
  8
外形線
100
AcDbDimension
  2
*D8
 10
535.2049296756188
 20
256.0203074944218
 30
0.0
 11
526.2049296756186
 21
257.8953074944219
 31
0.0
 70
    32
 71
     5
 42
18.00000000000011
  3
STYLE3
100
AcDbAlignedDimension
 13
517.2049296756187
 23
263.9826748799238
 33
0.0
 14
535.2049296756188
 24
263.9826748799238
 34
0.0
100
AcDbRotatedDimension
1001
ACAD
1000
DSTYLE
1002
{
1070
    75
1070
     1
1070
   271
1070
     2
1070
   279
1070
     1
1002
}
  0
LINE
  5
2DCE
330
18
100
AcDbEntity
  8
外形線
100
AcDbLine
 10
517.2049296756187
 20
281.9826748799238
 30
0.0
 11
535.3429881739972
 21
281.9826748799238
 31
0.0
  0
DIMENSION
  5
2DD0
330
18
100
AcDbEntity
  8
寸法線
100
AcDbDimension
  2
*D9
 10
479.107353657335
 20
286.2350988616403
 30
0.0
 11
488.7799727049542
 21
288.1100988616402
 31
0.0
 70
    32
  1
\U+03C62.3
 71
     5
 42
2.30000000000001
  3
STYLE3
100
AcDbAlignedDimension
 13
466.0549296756186
 23
275.4826748799238
 33
0.0
 14
468.3549296756186
 24
275.4826748799238
 34
0.0
100
AcDbRotatedDimension
1001
ACAD
1000
DSTYLE
1002
{
1070
   271
1070
     2
1002
}
  0
LINE
  5
2DD1
330
18
100
AcDbEntity
  8
0
  6
ByBlock
 62
     2
100
AcDbLine
 10
486.5398204385098
 20
271.2326748799238
 30
0.0
 11
487.8759153790427
 21
271.2326748799238
 31
0.0
  0
LINE
  5
2DD2
330
18
100
AcDbEntity
  8
0
  6
ByBlock
 62
     2
100
AcDbLine
 10
486.5398204385098
 20
274.7326748799238
 30
0.0
 11
487.8759153790427
 21
274.7326748799238
 31
0.0
  0
LINE
  5
2DD3
330
18
100
AcDbEntity
  8
0
  6
ByBlock
 62
     2
100
AcDbLine
 10
486.6259153790426
 20
268.7326748799238
 30
0.0
 11
486.6259153790426
 21
266.2326748799238
 31
0.0
  0
LINE
  5
2DD4
330
18
100
AcDbEntity
  8
0
  6
ByBlock
 62
     2
100
AcDbLine
 10
486.6259153790426
 20
277.2326748799238
 30
0.0
 11
486.6259153790426
 21
284.2349234933017
 31
0.0
  0
LINE
  5
2DD5
330
18
100
AcDbEntity
  8
0
  6
ByBlock
 62
     2
100
AcDbLine
 10
486.6259153790426
 20
271.2326748799238
 30
0.0
 11
486.6259153790426
 21
274.7326748799238
 31
0.0
  0
INSERT
  5
2DD6
330
18
100
AcDbEntity
  8
0
  6
ByBlock
 62
     2
100
AcDbBlockReference
  2
_OPEN
 10
486.6259153790426
 20
271.2326748799238
 30
0.0
 41
2.5
 42
2.5
 43
2.5
 50
90.0
  0
INSERT
  5
2DD7
330
18
100
AcDbEntity
  8
0
  6
ByBlock
 62
     2
100
AcDbBlockReference
  2
_OPEN
 10
486.6259153790426
 20
274.7326748799238
 30
0.0
 41
2.5
 42
2.5
 43
2.5
 50
270.0
  0
MTEXT
  5
2DD8
330
18
100
AcDbEntity
  8
0
  6
ByBlock
 62
     6
100
AcDbMText
 10
484.3204414689526
 20
280.144675500199
 30
0.0
 40
2.5
 41
0.0
 71
     5
 72
     1
  1
%%C3.5
  7
STYLE3
 11
0.0000000000000001
 21
1.0
 31
0.0
 73
     1
 44
1.0
  0
POINT
  5
2DD9
330
18
100
AcDbEntity
  8
DEFPOINTS
  6
ByBlock
 62
     0
100
AcDbPoint
 10
486.5398204385098
 20
271.2326748799238
 30
0.0
  0
POINT
  5
2DDA
330
18
100
AcDbEntity
  8
DEFPOINTS
  6
ByBlock
 62
     0
100
AcDbPoint
 10
486.5398204385098
 20
274.7326748799238
 30
0.0
  0
POINT
  5
2DDB
330
18
100
AcDbEntity
  8
DEFPOINTS
  6
ByBlock
 62
     0
100
AcDbPoint
 10
486.6259153790426
 20
274.7326748799238
 30
0.0
  0
DIMENSION
  5
2E14
330
18
100
AcDbEntity
  8
文字
100
AcDbDimension
  2
*D1
 10
469.2049296756185
 20
297.2482928571931
 30
0.0
 11
477.1513582470471
 21
299.1232928571932
 31
0.0
 70
    32
  1
\U+03C64
 71
     5
 42
3.999999999999886
  3
STYLE3
100
AcDbAlignedDimension
 13
465.2049296756186
 23
297.1411032047224
 33
0.0
 14
469.2049296756185
 24
297.2482928571931
 34
0.0
100
AcDbRotatedDimension
1001
ACAD
1000
DSTYLE
1002
{
1070
   271
1070
     2
1002
}
  0
LINE
  5
2E19
330
18
100
AcDbEntity
  8
外形線
100
AcDbLine
 10
465.2049296756186
 20
302.9826748799238
 30
0.0
 11
465.2049296756186
 21
285.4826748799238
 31
0.0
  0
LINE
  5
2E1A
330
18
100
AcDbEntity
  8
外形線
100
AcDbLine
 10
469.2049296756185
 20
302.9826748799238
 30
0.0
 11
469.2049296756185
 21
285.4826748799238
 31
0.0
  0
LINE
  5
2E1F
330
18
100
AcDbEntity
  8
隠れ線2
100
AcDbLine
 10
471.2049296756186
 20
321.2160273121672
 30
0.0
 11
471.2049296756186
 21
302.9826748799238
 31
0.0
  0
LINE
  5
2E20
330
18
100
AcDbEntity
  8
隠れ線2
100
AcDbLine
 10
463.2049296756186
 20
320.9826748799238
 30
0.0
 11
463.2049296756185
 21
302.9826748799238
 31
0.0
  0
TEXT
  5
3095
330
18
100
AcDbEntity
  8
文字
100
AcDbText
 10
460.8445131859154
 20
378.4258944507354
 30
0.0
 40
2.0
  1
P2-257
 51
10.0
  7
STYLE3
100
AcDbText
  0
LINE
  5
3096
330
18
100
AcDbEntity
  8
中心線
100
AcDbLine
 10
431.2859677235644
 20
359.0826748799238
 30
0.0
 11
501.5658472129802
 21
359.0826748799238
 31
0.0
  0
CIRCLE
  5
3097
330
18
100
AcDbEntity
  8
外形線
100
AcDbCircle
 10
467.2049296756186
 20
359.0826748799238
 30
0.0
 40
30.0
  0
LINE
  5
3098
330
18
100
AcDbEntity
  8
外形線
100
AcDbLine
 10
471.2049296756186
 20
323.9826748799238
 30
0.0
 11
471.2049296756186
 21
321.2160273121672
 31
0.0
  0
LINE
  5
3099
330
18
100
AcDbEntity
  8
外形線
100
AcDbLine
 10
463.2049296756186
 20
323.9826748799238
 30
0.0
 11
463.2049296756186
 21
320.9826748799238
 31
0.0
  0
LINE
  5
309A
330
18
100
AcDbEntity
  8
外形線
100
AcDbLine
 10
489.2049296756185
 20
369.0826748799237
 30
0.0
 11
489.2049296756185
 21
349.0826748799237
 31
0.0
  0
LINE
  5
309B
330
18
100
AcDbEntity
  8
外形線
100
AcDbLine
 10
445.2049296756186
 20
369.0826748799237
 30
0.0
 11
445.2049296756185
 21
349.0826748799237
 31
0.0
  0
ARC
  5
309C
330
18
100
AcDbEntity
  8
外形線
100
AcDbCircle
 10
487.7049296756186
 20
349.0826748799237
 30
0.0
 40
1.5
100
AcDbArc
 50
270.0
 51
0.0
  0
LINE
  5
309D
330
18
100
AcDbEntity
  8
隠れ線2
100
AcDbLine
 10
470.9549296756185
 20
304.9826748799238
 30
0.0
 11
470.9549296756185
 21
307.7826748799239
 31
0.0
  0
LINE
  5
309E
330
18
100
AcDbEntity
  8
隠れ線2
100
AcDbLine
 10
463.4549296756186
 20
304.9826748799237
 30
0.0
 11
463.4549296756186
 21
307.7826748799239
 31
0.0
  0
LINE
  5
309F
330
18
100
AcDbEntity
  8
隠れ線2
100
AcDbLine
 10
463.4549296756186
 20
303.4826748799238
 30
0.0
 11
470.9549296756185
 21
303.4826748799238
 31
0.0
  0
LINE
  5
30A0
330
18
100
AcDbEntity
  8
隠れ線2
100
AcDbLine
 10
463.4549296756186
 20
304.9826748799237
 30
0.0
 11
470.9549296756185
 21
304.9826748799238
 31
0.0
  0
LINE
  5
30A1
330
18
100
AcDbEntity
  8
外形線
100
AcDbLine
 10
463.4549296756186
 20
302.9826748799238
 30
0.0
 11
470.9549296756185
 21
302.9826748799238
 31
0.0
  0
LINE
  5
30A2
330
18
100
AcDbEntity
  8
隠れ線2
100
AcDbLine
 10
463.4549296756186
 20
303.4826748799238
 30
0.0
 11
463.4549296756186
 21
302.9826748799238
 31
0.0
  0
LINE
  5
30A3
330
18
100
AcDbEntity
  8
隠れ線2
100
AcDbLine
 10
464.2049296756185
 20
304.9826748799238
 30
0.0
 11
464.2049296756185
 21
303.4826748799238
 31
0.0
  0
LINE
  5
30A4
330
18
100
AcDbEntity
  8
隠れ線2
100
AcDbLine
 10
470.9549296756185
 20
303.4826748799238
 30
0.0
 11
470.9549296756185
 21
302.9826748799238
 31
0.0
  0
LINE
  5
30A5
330
18
100
AcDbEntity
  8
隠れ線2
100
AcDbLine
 10
470.2049296756186
 20
304.9826748799238
 30
0.0
 11
470.2049296756186
 21
303.4826748799238
 31
0.0
  0
TEXT
  5
30A6
330
18
100
AcDbEntity
  8
寸法線
100
AcDbText
 10
457.2635975352863
 20
344.1931674770767
 30
0.0
 40
1.199999999999999
  1
MODE
  7
STYLE4
100
AcDbText
  0
LINE
  5
30A7
330
18
100
AcDbEntity
  8
外形線
100
AcDbLine
 10
446.7049296756186
 20
347.5826748799237
 30
0.0
 11
487.7049296756186
 21
347.5826748799237
 31
0.0
  0
LINE
  5
30A8
330
18
100
AcDbEntity
  8
隠れ線2
100
AcDbLine
 10
463.2049296756186
 20
307.7826748799239
 30
0.0
 11
471.2049296756186
 21
307.7826748799239
 31
0.0
  0
LINE
  5
30A9
330
18
100
AcDbEntity
  8
外形線
100
AcDbLine
 10
462.2049296756186
 20
323.9826748799237
 30
0.0
 11
472.2049296756186
 21
323.9826748799238
 31
0.0
  0
POINT
  5
30AA
330
18
100
AcDbEntity
  8
DEFPOINTS
  6
ByBlock
 62
     0
100
AcDbPoint
 10
461.2049296756186
 20
328.0826748799237
 30
0.0
  0
LINE
  5
30AB
330
18
100
AcDbEntity
  8
外形線
100
AcDbLine
 10
461.2049296756186
 20
329.6887979665256
 30
0.0
 11
461.2049296756186
 21
325.9826748799237
 31
0.0
  0
ARC
  5
30AC
330
18
100
AcDbEntity
  8
外形線
100
AcDbCircle
 10
446.7049296756186
 20
349.0826748799237
 30
0.0
 40
1.5
100
AcDbArc
 50
180.0
 51
270.0
  0
LINE
  5
30AD
330
18
100
AcDbEntity
  8
外形線
100
AcDbLine
 10
473.2049296756185
 20
329.6887979665256
 30
0.0
 11
473.2049296756185
 21
325.9826748799238
 31
0.0
  0
TEXT
  5
30AE
330
18
100
AcDbEntity
  8
寸法線
100
AcDbText
 10
471.4692850954734
 20
344.1931674770767
 30
0.0
 40
1.199999999999999
  1
ON/OFF
  7
STYLE4
100
AcDbText
  0
LINE
  5
30AF
330
18
100
AcDbEntity
  8
外形線
100
AcDbLine
 10
438.2049296756186
 20
359.0826748799238
 30
0.0
 11
445.2049296756186
 21
359.0826748799238
 31
0.0
  0
ARC
  5
30B0
330
18
100
AcDbEntity
  8
外形線
100
AcDbCircle
 10
467.2049296756186
 20
359.0826748799238
 30
0.0
 40
29.0
100
AcDbArc
 50
0.0
 51
180.0
  0
ARC
  5
30B1
330
18
100
AcDbEntity
  8
外形線
100
AcDbCircle
 10
487.7049296756186
 20
369.0826748799237
 30
0.0
 40
1.5
100
AcDbArc
 50
0.0
 51
90.0
  0
LINE
  5
30B2
330
18
100
AcDbEntity
  8
外形線
100
AcDbLine
 10
473.2049296756186
 20
398.9826748799237
 30
0.0
 11
473.2049296756185
 21
389.4964875314148
 31
0.0
  0
LINE
  5
30B4
102
{ACAD_REACTORS
330
30B8
102
}
330
18
100
AcDbEntity
  8
ROGO
 62
     4
100
AcDbLine
 10
462.4165280666145
 20
375.8388344258657
 30
0.0
 11
463.6166966094664
 21
375.8388344258657
 31
0.0
  0
LINE
  5
30B5
102
{ACAD_REACTORS
330
30B8
102
}
330
18
100
AcDbEntity
  8
ROGO
 62
     4
100
AcDbLine
 10
462.2669096930876
 20
375.5364472274861
 30
0.0
 11
463.4670782359394
 21
375.5364472274861
 31
0.0
  0
LINE
  5
30B6
102
{ACAD_REACTORS
330
30B8
102
}
330
18
100
AcDbEntity
  8
ROGO
 62
     4
100
AcDbLine
 10
462.1134900672856
 20
375.2263774831817
 30
0.0
 11
463.3136586101374
 21
375.2263774831817
 31
0.0
  0
LINE
  5
30B7
102
{ACAD_REACTORS
330
30B8
102
}
330
18
100
AcDbEntity
  8
ROGO
 62
     4
100
AcDbLine
 10
461.5245193845028
 20
376.2255802796127
 30
0.0
 11
463.8080548611251
 21
376.2255802796128
 31
0.0
  0
HATCH
  5
30B8
330
18
100
AcDbEntity
  8
ROGO
 62
     4
100
AcDbHatch
 10
0.0
 20
0.0
 30
0.0
210
0.0
220
0.0
230
1.0
  2
SOLID
 70
     1
 71
     1
 91
        1
 92
        1
 93
       12
 72
     1
 10
461.5245193845028
 20
376.2255802796127
 11
463.8080548611251
 21
376.2255802796128
 72
     1
 10
463.8080548611251
 20
376.2255802796127
 11
463.6166966094664
 21
375.8388344258657
 72
     1
 10
463.6166966094664
 20
375.8388344258657
 11
462.4165280666145
 21
375.8388344258657
 72
     1
 10
462.4165280666145
 20
375.8388344258657
 11
462.2669096930876
 21
375.5364472274861
 72
     1
 10
462.2669096930876
 20
375.5364472274861
 11
463.4670782359394
 21
375.5364472274861
 72
     1
 10
463.4670782359394
 20
375.5364472274861
 11
463.3136586101374
 21
375.2263774831817
 72
     1
 10
463.3136586101374
 20
375.2263774831817
 11
462.1134900672856
 21
375.2263774831817
 72
     1
 10
462.1134900672856
 20
375.2263774831817
 11
461.9638653596361
 21
374.9239774831816
 72
     1
 10
461.9638653596361
 20
374.9239774831816
 11
463.1640339024877
 21
374.9239774831816
 72
     1
 10
463.1640339024877
 20
374.9239774831816
 11
462.9726852763621
 21
374.5372510831817
 72
     1
 10
462.9726852763621
 20
374.5372510831817
 11
460.6891497997398
 21
374.5372510831817
 72
     1
 10
460.6891497997398
 20
374.5372510831817
 11
461.5245193845028
 21
376.2255802796127
 97
       12
330
30B7
330
30DF
330
30B4
330
30C3
330
30B5
330
30E8
330
30B6
330
30C6
330
30C4
330
30C5
330
30CD
330
30C1
 75
     0
 76
     1
 98
        1
 10
368.1172106975914
 20
259.4851710748982
450
        0
451
        0
460
0.0
461
0.0
452
        0
462
0.0
453
        0
470

  0
LINE
  5
30B9
102
{ACAD_REACTORS
330
30C0
330
30DE
102
}
330
18
100
AcDbEntity
  8
ROGO
 62
     4
100
AcDbLine
 10
456.9211828678527
 20
373.587450413305
 30
0.0
 11
474.7786964968834
 21
373.587450413305
 31
0.0
  0
LINE
  5
30BA
330
18
100
AcDbEntity
  8
ROGO
 62
     4
100
AcDbLine
 10
458.2487967107065
 20
373.8518835356795
 30
0.0
 11
473.9384437231601
 21
373.8518835356795
 31
0.0
  0
HATCH
  5
30BB
330
18
100
AcDbEntity
  8
ROGO
 62
     4
100
AcDbHatch
 10
0.0
 20
0.0
 30
0.0
210
0.0
220
0.0
230
1.0
  2
SOLID
 70
     1
 71
     0
 91
        1
 92
        7
 72
     0
 73
     1
 93
        4
 10
458.2671354281707
 20
373.8518835356795
 10
458.1474983826283
 20
373.587450413305
 10
473.8065888279494
 20
373.587450413305
 10
473.9384437231601
 20
373.8518835356795
 97
        0
 75
     0
 76
     1
 47
0.0514683685270805
 98
        1
 10
468.1622950493129
 20
373.7819452245591
450
        0
451
        0
460
0.0
461
0.0
452
        0
462
0.0
453
        0
470

  0
ARC
  5
30BC
330
18
100
AcDbEntity
  8
外形線
100
AcDbCircle
 10
467.2049296756186
 20
359.0826748799238
 30
0.0
 40
31.0
100
AcDbArc
 50
69.2164404041532
 51
110.7835595958468
  0
LINE
  5
30BD
330
18
100
AcDbEntity
  8
外形線
100
AcDbLine
 10
446.7049296756186
 20
370.5826748799237
 30
0.0
 11
487.7049296756186
 21
370.5826748799237
 31
0.0
  0
LINE
  5
30BE
102
{ACAD_REACTORS
330
30C0
102
}
330
18
100
AcDbEntity
  8
ROGO
 62
     4
100
AcDbLine
 10
458.2265049908291
 20
376.2255802796127
 30
0.0
 11
456.9211828678527
 21
373.587450413305
 31
0.0
  0
SPLINE
  5
30BF
102
{ACAD_REACTORS
330
30C0
102
}
330
18
100
AcDbEntity
  8
ROGO
 62
     4
100
AcDbSpline
210
0.0
220
0.0
230
1.0
 70
     8
 71
     3
 72
    18
 73
    14
 74
     0
 42
0.000000001
 43
0.0000000001
 40
0.1087402787915014
 40
0.1087402787915014
 40
0.1087402787915014
 40
0.1087402787915014
 40
0.5992371417938475
 40
1.083176791562495
 40
1.448211145705696
 40
1.714037220764907
 40
2.164002567013296
 40
2.740236056362883
 40
3.395137510199602
 40
4.071816045172726
 40
4.784906178399433
 40
5.506895915094291
 40
6.060470601257718
 40
6.060470601257718
 40
6.060470601257718
 40
6.060470601257718
 10
460.2997171075243
 20
376.2255802796128
 30
0.0
 10
460.3661365130563
 20
376.2012386805229
 30
0.0
 10
460.4967495888642
 20
376.1497768202604
 30
0.0
 10
460.6561591774248
 20
376.0323238505285
 30
0.0
 10
460.7430942838995
 20
375.8967339941636
 30
0.0
 10
460.8267161234548
 20
375.7631344683457
 30
0.0
 10
460.8384188472546
 20
375.5714633530016
 30
0.0
 10
460.8192489950512
 20
375.3291446072666
 30
0.0
 10
460.6954901610675
 20
375.0763100018828
 30
0.0
 10
460.4968499536773
 20
374.8551709622804
 30
0.0
 10
460.2502242739862
 20
374.678174158984
 30
0.0
 10
459.9901489878482
 20
374.5392362263471
 30
0.0
 10
459.804247100208
 20
374.5378518712789
 30
0.0
 10
459.7235686356291
 20
374.5372510831817
 30
0.0
  0
HATCH
  5
30C0
330
18
100
AcDbEntity
  8
ROGO
 62
     4
100
AcDbHatch
 10
0.0
 20
0.0
 30
0.0
210
0.0
220
0.0
230
1.0
  2
SOLID
 70
     1
 71
     1
 91
        2
 92
        5
 93
        6
 72
     1
 10
456.9211828678527
 20
373.587450413305
 11
458.1474983826283
 21
373.587450413305
 72
     1
 10
458.1474983826283
 20
373.587450413305
 11
458.5772151479791
 21
374.5372510831817
 72
     1
 10
458.5772151479791
 20
374.5372510831817
 11
459.7235686356291
 21
374.5372510831817
 72
     4
 94
        3
 73
     0
 74
     0
 95
       18
 96
       14
 40
0.108740278791501
 40
0.108740278791501
 40
0.108740278791501
 40
0.108740278791501
 40
0.6623149649549278
 40
1.384304701649786
 40
2.097394834876493
 40
2.774073369849617
 40
3.428974823686336
 40
4.005208313035923
 40
4.455173659284312
 40
4.720999734343523
 40
5.086034088486723
 40
5.569973738255372
 40
6.060470601257718
 40
6.060470601257718
 40
6.060470601257718
 40
6.060470601257718
 10
459.7235686356291
 20
374.5372510831817
 10
459.804247100208
 20
374.5378518712789
 10
459.9901489878482
 20
374.5392362263471
 10
460.2502242739862
 20
374.678174158984
 10
460.4968499536773
 20
374.8551709622804
 10
460.6954901610675
 20
375.0763100018828
 10
460.8192489950512
 20
375.3291446072666
 10
460.8384188472546
 20
375.5714633530016
 10
460.8267161234548
 20
375.7631344683457
 10
460.7430942838995
 20
375.8967339941636
 10
460.6561591774248
 20
376.0323238505285
 10
460.4967495888642
 20
376.1497768202604
 10
460.3661365130563
 20
376.2012386805229
 10
460.2997171075243
 20
376.2255802796128
 72
     1
 10
460.2997171075245
 20
376.2255802796127
 11
458.2265049908291
 21
376.2255802796127
 72
     1
 10
458.2265049908291
 20
376.2255802796127
 11
456.9211828678527
 21
373.587450413305
 97
        6
330
30BF
330
30CF
330
30BE
330
30B9
330
30CC
330
30C7
 92
       20
 93
        4
 72
     1
 10
458.8425409238063
 20
375.1236992274858
 11
459.0456809476946
 21
375.5726985366242
 72
     1
 10
459.0456809476946
 20
375.5726985366242
 11
459.5676642322485
 21
375.5726985366242
 72
     4
 94
        3
 73
     0
 74
     0
 95
       15
 96
       11
 40
0.0
 40
0.0
 40
0.0
 40
0.0
 40
0.1979620751794564
 40
0.2882218927609775
 40
0.3906727944936486
 40
0.4604671121751406
 40
0.5708475494576565
 40
0.6369624161315719
 40
0.7503938621544033
 40
0.7882043682939722
 40
0.7882043682939722
 40
0.7882043682939722
 40
0.7882043682939722
 10
459.5676642322485
 20
375.5726985366242
 10
459.6420149487531
 20
375.573039102593
 10
459.7502655023992
 20
375.5735349479112
 10
459.8094607605821
 20
375.4396287000018
 10
459.782926623425
 20
375.3534139654679
 10
459.7495710504509
 20
375.2648983042922
 10
459.6906241984682
 20
375.2047505775175
 10
459.6115088889885
 20
375.1468181771267
 10
459.5367411407742
 20
375.1398052006506
 10
459.4881131135236
 20
375.1269204233523
 10
459.4759561008917
 20
375.1236992274858
 72
     1
 10
459.4759561008912
 20
375.1236992274856
 11
458.8425409238063
 21
375.1236992274858
 97
        4
330
30C8
330
30CA
330
30C9
330
30CB
 75
     0
 76
     1
 47
0.0514683685270805
 98
        2
 10
458.237585987938
 20
375.4050518778984
 10
458.237585987938
 20
375.4050518778984
450
        0
451
        0
460
0.0
461
0.0
452
        0
462
0.0
453
        0
470

  0
LINE
  5
30C1
102
{ACAD_REACTORS
330
30B8
102
}
330
18
100
AcDbEntity
  8
ROGO
 62
     4
100
AcDbLine
 10
461.5245193845028
 20
376.2255802796127
 30
0.0
 11
460.6891497997398
 21
374.5372510831817
 31
0.0
  0
ARC
  5
30C2
330
18
100
AcDbEntity
  8
外形線
100
AcDbCircle
 10
446.7049296756186
 20
369.0826748799237
 30
0.0
 40
1.5
100
AcDbArc
 50
90.0
 51
180.0
  0
LINE
  5
30C3
102
{ACAD_REACTORS
330
30B8
102
}
330
18
100
AcDbEntity
  8
ROGO
 62
     4
100
AcDbLine
 10
462.4165280666145
 20
375.8388344258657
 30
0.0
 11
462.2669096930876
 21
375.5364472274861
 31
0.0
  0
LINE
  5
30C4
102
{ACAD_REACTORS
330
30B8
102
}
330
18
100
AcDbEntity
  8
ROGO
 62
     4
100
AcDbLine
 10
461.9638653596361
 20
374.9239774831816
 30
0.0
 11
463.1640339024877
 21
374.9239774831816
 31
0.0
  0
LINE
  5
30C5
102
{ACAD_REACTORS
330
30B8
102
}
330
18
100
AcDbEntity
  8
ROGO
 62
     4
100
AcDbLine
 10
463.1640339024877
 20
374.9239774831816
 30
0.0
 11
462.9726852763621
 21
374.5372510831817
 31
0.0
  0
LINE
  5
30C6
102
{ACAD_REACTORS
330
30B8
102
}
330
18
100
AcDbEntity
  8
ROGO
 62
     4
100
AcDbLine
 10
462.1134900672856
 20
375.2263774831817
 30
0.0
 11
461.9638653596361
 21
374.9239774831816
 31
0.0
  0
LINE
  5
30C7
102
{ACAD_REACTORS
330
30C0
102
}
330
18
100
AcDbEntity
  8
ROGO
 62
     4
100
AcDbLine
 10
459.7235686360265
 20
374.5372510831817
 30
0.0
 11
458.5772151479791
 21
374.5372510831817
 31
0.0
  0
LINE
  5
30C8
102
{ACAD_REACTORS
330
30C0
102
}
330
18
100
AcDbEntity
  8
ROGO
 62
     4
100
AcDbLine
 10
459.0456809476946
 20
375.5726985366242
 30
0.0
 11
458.8425409238063
 21
375.1236992274858
 31
0.0
  0
SPLINE
  5
30C9
102
{ACAD_REACTORS
330
30C0
102
}
330
18
100
AcDbEntity
  8
ROGO
 62
     4
100
AcDbSpline
210
0.0
220
0.0
230
1.0
 70
  1064
 71
     3
 72
    15
 73
    11
 74
     9
 42
0.000000001
 43
0.0000000001
 44
0.0000000001
 40
0.0
 40
0.0
 40
0.0
 40
0.0
 40
0.1979620751794564
 40
0.2882218927609775
 40
0.3906727944936486
 40
0.4604671121751406
 40
0.5708475494576565
 40
0.6369624161315719
 40
0.7503938621544033
 40
0.7882043682939722
 40
0.7882043682939722
 40
0.7882043682939722
 40
0.7882043682939722
 10
459.5676642322485
 20
375.5726985366242
 30
0.0
 10
459.6420149487531
 20
375.573039102593
 30
0.0
 10
459.7502655023992
 20
375.5735349479112
 30
0.0
 10
459.8094607605821
 20
375.4396287000018
 30
0.0
 10
459.782926623425
 20
375.3534139654679
 30
0.0
 10
459.7495710504509
 20
375.2648983042922
 30
0.0
 10
459.6906241984682
 20
375.2047505775175
 30
0.0
 10
459.6115088889885
 20
375.1468181771267
 30
0.0
 10
459.5367411407742
 20
375.1398052006506
 30
0.0
 10
459.4881131135236
 20
375.1269204233523
 30
0.0
 10
459.4759561008917
 20
375.1236992274858
 30
0.0
 11
459.5676642322485
 21
375.5726985366242
 31
0.0
 11
459.7602514662996
 21
375.5268821586585
 31
0.0
 11
459.7969348243103
 21
375.4444129770516
 31
0.0
 11
459.7785934089751
 21
375.3436172442583
 31
0.0
 11
459.751081022302
 21
375.2794743151065
 31
0.0
 11
459.6777143062807
 21
375.1970051334996
 31
0.0
 11
459.6226895329346
 21
375.1603520311271
 31
0.0
 11
459.5126394589023
 21
375.1328625030788
 31
0.0
 11
459.4759561008917
 21
375.1236992274858
 31
0.0
  0
LINE
  5
30CA
102
{ACAD_REACTORS
330
30C0
102
}
330
18
100
AcDbEntity
  8
ROGO
 62
     4
100
AcDbLine
 10
459.5676642322485
 20
375.5726985366242
 30
0.0
 11
459.0456809476946
 21
375.5726985366242
 31
0.0
  0
LINE
  5
30CB
102
{ACAD_REACTORS
330
30C0
102
}
330
18
100
AcDbEntity
  8
ROGO
 62
     4
100
AcDbLine
 10
459.4759561008918
 20
375.1236992274856
 30
0.0
 11
458.8425409238063
 21
375.1236992274858
 31
0.0
  0
LINE
  5
30CC
102
{ACAD_REACTORS
330
30C0
102
}
330
18
100
AcDbEntity
  8
ROGO
 62
     4
100
AcDbLine
 10
458.5772151479791
 20
374.5372510831817
 30
0.0
 11
458.1474983826283
 21
373.587450413305
 31
0.0
  0
LINE
  5
30CD
102
{ACAD_REACTORS
330
30B8
102
}
330
18
100
AcDbEntity
  8
ROGO
 62
     4
100
AcDbLine
 10
460.6891497997398
 20
374.5372510831817
 30
0.0
 11
462.9726852763621
 21
374.5372510831817
 31
0.0
  0
LINE
  5
30CE
330
18
100
AcDbEntity
  8
外形線
100
AcDbLine
 10
456.2049296756185
 20
388.0654283723026
 30
0.0
 11
456.2049296756185
 21
386.9932463538295
 31
0.0
  0
LINE
  5
30CF
102
{ACAD_REACTORS
330
30C0
102
}
330
18
100
AcDbEntity
  8
ROGO
 62
     4
100
AcDbLine
 10
458.2265049908291
 20
376.2255802796127
 30
0.0
 11
460.2997171075243
 21
376.2255802796127
 31
0.0
  0
LINE
  5
30D0
102
{ACAD_REACTORS
330
30DE
102
}
330
18
100
AcDbEntity
  8
ROGO
 62
     4
100
AcDbLine
 10
476.0941532518875
 20
376.2255802796127
 30
0.0
 11
475.8569853041996
 21
375.7499433240486
 31
0.0
  0
LINE
  5
30D1
102
{ACAD_REACTORS
330
30DE
102
}
330
18
100
AcDbEntity
  8
ROGO
 62
     4
100
AcDbLine
 10
475.7797526915216
 20
374.9065153464588
 30
0.0
 11
477.3777782212333
 21
376.2255802796127
 31
0.0
  0
LINE
  5
30D2
102
{ACAD_REACTORS
330
30DE
102
}
330
18
100
AcDbEntity
  8
ROGO
 62
     4
100
AcDbLine
 10
475.8569853041996
 20
375.7499433240486
 30
0.0
 11
476.4056918212332
 21
376.2255802796127
 31
0.0
  0
SPLINE
  5
30D3
330
18
100
AcDbEntity
  8
ROGO
 62
     4
100
AcDbSpline
210
0.0
220
0.0
230
1.0
 70
  1064
 71
     3
 72
    26
 73
    22
 74
    20
 42
0.000000001
 43
0.0000000001
 44
0.0000000001
 40
0.0
 40
0.0
 40
0.0
 40
0.0
 40
0.306282258847545
 40
0.5113145150562452
 40
0.6591594689726941
 40
0.7695505122603122
 40
0.9127334891893507
 40
1.017243103820793
 40
1.205963108812873
 40
1.359578479722621
 40
1.464061546148602
 40
1.5665125422903
 40
1.749777456690483
 40
1.879367624743208
 40
1.949161942424528
 40
2.048302708997709
 40
2.119894481048985
 40
2.223607322578473
 40
2.28229981992566
 40
2.410021277698011
 40
2.468340004823038
 40
2.468340004823038
 40
2.468340004823038
 40
2.468340004823038
 10
473.0776782628026
 20
376.2255802796127
 30
0.0
 10
472.9737213318272
 20
376.2193780308431
 30
0.0
 10
472.8001732851711
 20
376.2090238567759
 30
0.0
 10
472.6096185856844
 20
376.093263923244
 30
0.0
 10
472.470007057157
 20
376.0259661849465
 30
0.0
 10
472.3704362843257
 20
375.9344806431214
 30
0.0
 10
472.2974505042104
 20
375.8399827613081
 30
0.0
 10
472.205438226742
 20
375.7273892280042
 30
0.0
 10
472.1304048437203
 20
375.5962786146924
 30
0.0
 10
472.0921949033203
 20
375.4517718618968
 30
0.0
 10
472.0583489007658
 20
375.3365991414639
 30
0.0
 10
472.0332481386576
 20
375.2082541748879
 30
0.0
 10
472.0396344831313
 20
375.0695964615877
 30
0.0
 10
472.0487800206973
 20
374.9408182760117
 30
0.0
 10
472.089612622028
 20
374.8488899322486
 30
0.0
 10
472.1361137222438
 20
374.7834432861968
 30
0.0
 10
472.1930536826285
 20
374.7113610612982
 30
0.0
 10
472.2553584510369
 20
374.6636212371595
 30
0.0
 10
472.3068895801789
 20
374.5771373376928
 30
0.0
 10
472.3970930833736
 20
374.5661013683951
 30
0.0
 10
472.4544300186139
 20
374.544136495696
 30
0.0
 10
472.4724036466358
 20
374.5372510831817
 30
0.0
 11
473.0776782628026
 21
376.2255802796127
 31
0.0
 11
472.7750409547191
 21
376.178468902635
 31
0.0
 11
472.5916241646656
 21
376.0868364454351
 31
0.0
 11
472.4632326752979
 21
376.0135305394211
 31
0.0
 11
472.3806955152788
 21
375.9402243346763
 31
0.0
 11
472.2889873839221
 21
375.8302653262898
 31
0.0
 11
472.2247916392383
 21
375.747796144683
 31
0.0
 11
472.1330829805416
 21
375.5828574827378
 31
0.0
 11
472.0872291785331
 21
375.4362453719792
 31
0.0
 11
472.0597167918603
 21
375.3354496391859
 31
0.0
 11
472.0413748491848
 21
375.2346539063927
 31
0.0
 11
472.0413748491848
 21
375.0513889919925
 31
0.0
 11
472.0597167918603
 21
374.92310343242
 31
0.0
 11
472.0872291785331
 21
374.8589605032683
 31
0.0
 11
472.1422539518791
 21
374.7764913216613
 31
0.0
 11
472.1881082812276
 21
374.7215116681025
 31
0.0
 11
472.261474469909
 21
374.6482057620887
 31
0.0
 11
472.2981578279198
 21
374.602389384123
 31
0.0
 11
472.4173788732897
 21
374.5565733048886
 31
0.0
 11
472.4724036466358
 21
374.5372510831817
 31
0.0
  0
LINE
  5
30D4
330
18
100
AcDbEntity
  8
ROGO
 62
     4
100
AcDbLine
 10
474.768439274082
 20
376.2255802796127
 30
0.0
 11
474.4552144591014
 21
375.5974123553339
 31
0.0
  0
LINE
  5
30D5
102
{ACAD_REACTORS
330
30DE
102
}
330
18
100
AcDbEntity
  8
ROGO
 62
     4
100
AcDbLine
 10
475.1220455829535
 20
376.2255802796127
 30
0.0
 11
473.8065888279494
 21
373.587450413305
 31
0.0
  0
HATCH
  5
30D6
330
18
100
AcDbEntity
  8
ROGO
 62
     4
100
AcDbHatch
 10
0.0
 20
0.0
 30
0.0
210
0.0
220
0.0
230
1.0
  2
SOLID
 70
     1
 71
     0
 91
        1
 92
        5
 93
        8
 72
     4
 94
        3
 73
     0
 74
     0
 95
       26
 96
       22
 40
0.0
 40
0.0
 40
0.0
 40
0.0
 40
0.3062822588475449
 40
0.5113145150563467
 40
0.6591594689727182
 40
0.7695505122602936
 40
0.9127334891893319
 40
1.017243103820774
 40
1.205963108812881
 40
1.359578479722683
 40
1.464061546148625
 40
1.566512542290256
 40
1.749777456690439
 40
1.879367624743214
 40
1.949161942424609
 40
2.04830270899782
 40
2.119894481049016
 40
2.223607322578585
 40
2.282299819925648
 40
2.41002127769804
 40
2.468340004822994
 40
2.468340004822994
 40
2.468340004822994
 40
2.468340004822994
 10
473.0776782628026
 20
376.2255802796127
 10
472.9737213318271
 20
376.2193780308432
 10
472.8001732851711
 20
376.2090238567761
 10
472.6096185856843
 20
376.093263923244
 10
472.4700070571571
 20
376.0259661849466
 10
472.3704362843257
 20
375.9344806431215
 10
472.2974505042105
 20
375.8399827613081
 10
472.2054382267421
 20
375.7273892280041
 10
472.1304048437203
 20
375.5962786146924
 10
472.0921949033204
 20
375.4517718618968
 10
472.0583489007657
 20
375.3365991414639
 10
472.0332481386576
 20
375.208254174888
 10
472.0396344831314
 20
375.0695964615878
 10
472.0487800206972
 20
374.9408182760117
 10
472.0896126220281
 20
374.8488899322487
 10
472.1361137222437
 20
374.7834432861968
 10
472.1930536826286
 20
374.7113610612982
 10
472.2553584510368
 20
374.6636212371595
 10
472.3068895801789
 20
374.5771373376931
 10
472.3970930833736
 20
374.5661013683949
 10
472.4544300186138
 20
374.5441364956961
 10
472.4724036466358
 20
374.5372510831817
 72
     1
 10
472.4724036466358
 20
374.5372510831817
 11
473.9265838087844
 21
374.5372510831817
 72
     1
 10
473.9265838087844
 20
374.5372510831817
 11
474.2398053068002
 21
375.1654123553338
 72
     1
 10
474.2398053068002
 20
375.1654123553338
 11
473.1602154228216
 21
375.1654123553338
 72
     4
 94
        3
 73
     0
 74
     0
 95
       16
 96
       12
 40
0.0
 40
0.0
 40
0.0
 40
0.0
 40
0.0924964283868937
 40
0.185946890240525
 40
0.2416858907028844
 40
0.2951281203562444
 40
0.3538203845089212
 40
0.3948066843497379
 40
0.4336991257335824
 40
0.5125674130988857
 40
0.6740411735369252
 40
0.6740411735369252
 40
0.6740411735369252
 40
0.6740411735369252
 10
473.1602154228218
 20
375.1654123553338
 10
473.1276511873867
 20
375.1749932308763
 10
473.0621868400835
 20
375.1942538017327
 10
473.0567080028508
 20
375.2876219734806
 10
473.0641721259304
 20
375.3541544361423
 10
473.0954318900582
 20
375.4025939542058
 10
473.1333554058791
 20
375.4378400769661
 10
473.1474760127738
 20
375.4837426409145
 10
473.1889822502193
 20
375.5184048196071
 10
473.2625839305788
 20
375.5766671000047
 10
473.3439746478508
 20
375.5890756639431
 10
473.3986569862213
 20
375.5974123553339
 72
     1
 10
473.3986569862213
 20
375.5974123553339
 11
474.4552144591014
 21
375.5974123553339
 72
     1
 10
474.4552144591014
 20
375.5974123553339
 11
474.768439274082
 21
376.2255802796127
 72
     1
 10
474.768439274082
 20
376.2255802796127
 11
473.0776782628026
 21
376.2255802796127
 97
        0
 75
     0
 76
     1
 47
0.0514683685270805
 98
        1
 10
473.3694292438261
 20
375.9164414612396
450
        0
451
        0
460
0.0
461
0.0
452
        0
462
0.0
453
        0
470

  0
SPLINE
  5
30D7
102
{ACAD_REACTORS
330
30DD
102
}
330
18
100
AcDbEntity
  8
ROGO
 62
     4
100
AcDbSpline
210
0.0
220
0.0
230
1.0
 70
     8
 71
     3
 72
    25
 73
    21
 74
     0
 42
0.000000001
 43
0.0000000001
 40
0.0
 40
0.0
 40
0.0
 40
0.0
 40
0.4087168505087288
 40
0.6887487002771746
 40
0.9415836120477687
 40
1.174520705755139
 40
1.41154617586699
 40
1.599156012919486
 40
1.80099909059943
 40
2.178735911501584
 40
2.521686161369157
 40
2.762704659361267
 40
3.06256558063785
 40
3.222432137207704
 40
3.399493810628493
 40
3.567459719866413
 40
3.743172740007508
 40
3.995988754699504
 40
4.17170091132118
 40
4.337226830236034
 40
4.337226830236034
 40
4.337226830236034
 40
4.337226830236034
 10
471.2309370384682
 20
376.2326224185486
 30
0.0
 10
471.2942199604438
 20
376.2305892035336
 30
0.0
 10
471.4008610989392
 20
376.2271629337401
 30
0.0
 10
471.5153535171663
 20
376.1376737616858
 30
0.0
 10
471.6029598009996
 20
376.0634803815666
 30
0.0
 10
471.6651438286777
 20
375.973784059137
 30
0.0
 10
471.7196498712178
 20
375.8913130686948
 30
0.0
 10
471.7555652207783
 20
375.8042426784101
 30
0.0
 10
471.8044171920745
 20
375.6997661841482
 30
0.0
 10
471.8246394947637
 20
375.559992156737
 30
0.0
 10
471.8109769247595
 20
375.4155228028212
 30
0.0
 10
471.7753239962626
 20
375.2874640094883
 30
0.0
 10
471.7379269407913
 20
375.1892203114457
 30
0.0
 10
471.693850059326
 20
375.1036930774578
 30
0.0
 10
471.6413047842206
 20
375.0483141868163
 30
0.0
 10
471.6048509842421
 20
374.9779004672265
 30
0.0
 10
471.5348278976057
 20
374.9203058249607
 30
0.0
 10
471.4780634064257
 20
374.8492421200913
 30
0.0
 10
471.4136475307461
 20
374.788247386513
 30
0.0
 10
471.3773295744982
 20
374.7506143709423
 30
0.0
 10
471.3581818721348
 20
374.7347914144407
 30
0.0
  0
LINE
  5
30D8
330
18
100
AcDbEntity
  8
ROGO
 62
     4
100
AcDbLine
 10
469.3284924257463
 20
376.2255802796127
 30
0.0
 11
469.0152676107656
 21
375.5974123553339
 31
0.0
  0
SPLINE
  5
30D9
330
18
100
AcDbEntity
  8
ROGO
 62
     4
100
AcDbSpline
210
0.0
220
0.0
230
1.0
 70
  1064
 71
     3
 72
    26
 73
    22
 74
    20
 42
0.000000001
 43
0.0000000001
 44
0.0000000001
 40
0.0
 40
0.0
 40
0.0
 40
0.0
 40
0.3062822588474888
 40
0.511314515056189
 40
0.6591594689726379
 40
0.7695505122601709
 40
0.9127334891891949
 40
1.017243103820657
 40
1.205963108812566
 40
1.35957847972251
 40
1.464061546148531
 40
1.566512542290229
 40
1.749777456690412
 40
1.879367624743138
 40
1.949161942424435
 40
2.048302708997648
 40
2.119894481048887
 40
2.223607322578416
 40
2.282299819925639
 40
2.410021277697862
 40
2.468340004822962
 40
2.468340004822962
 40
2.468340004822962
 40
2.468340004822962
 10
467.6377314144668
 20
376.2255802796127
 30
0.0
 10
467.5337744834913
 20
376.2193780308432
 30
0.0
 10
467.3602264368353
 20
376.2090238567759
 30
0.0
 10
467.1696717373486
 20
376.093263923244
 30
0.0
 10
467.0300602088211
 20
376.0259661849465
 30
0.0
 10
466.9304894359902
 20
375.9344806431213
 30
0.0
 10
466.8575036558744
 20
375.8399827613082
 30
0.0
 10
466.7654913784066
 20
375.7273892280041
 30
0.0
 10
466.6904579953845
 20
375.5962786146926
 30
0.0
 10
466.6522480549846
 20
375.451771861897
 30
0.0
 10
466.61840205243
 20
375.3365991414638
 30
0.0
 10
466.5933012903218
 20
375.2082541748878
 30
0.0
 10
466.5996876347954
 20
375.0695964615877
 30
0.0
 10
466.6088331723615
 20
374.9408182760116
 30
0.0
 10
466.6496657736921
 20
374.8488899322487
 30
0.0
 10
466.6961668739079
 20
374.7834432861968
 30
0.0
 10
466.7531068342925
 20
374.7113610612981
 30
0.0
 10
466.815411602701
 20
374.6636212371594
 30
0.0
 10
466.8669427318432
 20
374.5771373376929
 30
0.0
 10
466.9571462350377
 20
374.566101368395
 30
0.0
 10
467.0144831702781
 20
374.544136495696
 30
0.0
 10
467.0324567983
 20
374.5372510831817
 30
0.0
 11
467.6377314144668
 21
376.2255802796127
 31
0.0
 11
467.3350941063833
 21
376.178468902635
 31
0.0
 11
467.1516773163298
 21
376.0868364454351
 31
0.0
 11
467.0232858269621
 21
376.0135305394211
 31
0.0
 11
466.9407486669431
 21
375.9402243346763
 31
0.0
 11
466.8490405355863
 21
375.8302653262899
 31
0.0
 11
466.7848447909026
 21
375.747796144683
 31
0.0
 11
466.6931361322058
 21
375.582857482738
 31
0.0
 11
466.6472823301972
 21
375.4362453719792
 31
0.0
 11
466.6197699435245
 21
375.3354496391859
 31
0.0
 11
466.6014280008489
 21
375.2346539063927
 31
0.0
 11
466.6014280008489
 21
375.0513889919925
 31
0.0
 11
466.6197699435245
 21
374.92310343242
 31
0.0
 11
466.6472823301972
 21
374.8589605032683
 31
0.0
 11
466.7023071035433
 21
374.7764913216613
 31
0.0
 11
466.7481614328918
 21
374.7215116681025
 31
0.0
 11
466.8215276215732
 21
374.6482057620887
 31
0.0
 11
466.8582109795841
 21
374.602389384123
 31
0.0
 11
466.9774320249538
 21
374.5565733048886
 31
0.0
 11
467.0324567983
 21
374.5372510831817
 31
0.0
  0
HATCH
  5
30DA
330
18
100
AcDbEntity
  8
ROGO
 62
     4
100
AcDbHatch
 10
0.0
 20
0.0
 30
0.0
210
0.0
220
0.0
230
1.0
  2
SOLID
 70
     1
 71
     0
 91
        1
 92
        5
 93
        8
 72
     1
 10
469.0152676107656
 20
375.5974123553339
 11
469.3284924257463
 21
376.2255802796129
 72
     1
 10
469.3284924257463
 20
376.2255802796129
 11
467.6377314144671
 21
376.2255802796128
 72
     4
 94
        3
 73
     0
 74
     0
 95
       26
 96
       22
 40
0.0
 40
0.0
 40
0.0
 40
0.0
 40
0.3062822588475449
 40
0.5113145150563467
 40
0.6591594689727182
 40
0.7695505122602936
 40
0.9127334891892447
 40
1.017243103820776
 40
1.205963108812784
 40
1.359578479722586
 40
1.464061546148638
 40
1.566512542290269
 40
1.749777456690452
 40
1.879367624743225
 40
1.94916194242462
 40
2.048302708997832
 40
2.119894481049029
 40
2.223607322578598
 40
2.282299819925661
 40
2.410021277698011
 40
2.468340004823004
 40
2.468340004823004
 40
2.468340004823004
 40
2.468340004823004
 10
467.6377314144668
 20
376.2255802796127
 10
467.5337744834913
 20
376.2193780308432
 10
467.3602264368353
 20
376.2090238567761
 10
467.1696717373487
 20
376.093263923244
 10
467.0300602088214
 20
376.0259661849466
 10
466.9304894359898
 20
375.9344806431213
 10
466.8575036558747
 20
375.8399827613082
 10
466.7654913784063
 20
375.7273892280041
 10
466.6904579953843
 20
375.5962786146926
 10
466.6522480549845
 20
375.4517718618969
 10
466.61840205243
 20
375.3365991414639
 10
466.5933012903218
 20
375.208254174888
 10
466.5996876347954
 20
375.0695964615878
 10
466.6088331723615
 20
374.9408182760117
 10
466.6496657736923
 20
374.8488899322487
 10
466.6961668739078
 20
374.7834432861968
 10
466.7531068342929
 20
374.7113610612982
 10
466.8154116027012
 20
374.6636212371595
 10
466.866942731843
 20
374.5771373376929
 10
466.9571462350378
 20
374.5661013683951
 10
467.014483170278
 20
374.5441364956961
 10
467.0324567983
 20
374.5372510831817
 72
     1
 10
467.0324567983
 20
374.5372510831817
 11
468.4866369604488
 21
374.5372510831817
 72
     1
 10
468.4866369604488
 20
374.5372510831817
 11
468.7998584584645
 21
375.1654123553338
 72
     1
 10
468.7998584584645
 20
375.1654123553338
 11
467.720268574486
 21
375.1654123553338
 72
     4
 94
        3
 73
     0
 74
     0
 95
       16
 96
       12
 40
0.0
 40
0.0
 40
0.0
 40
0.0
 40
0.092496428386945
 40
0.1859468902404647
 40
0.2416858907028242
 40
0.2951281203562815
 40
0.3538203845089407
 40
0.3948066843496557
 40
0.4336991257336609
 40
0.512567413098898
 40
0.6740411735369377
 40
0.6740411735369377
 40
0.6740411735369377
 40
0.6740411735369377
 10
467.720268574486
 20
375.1654123553338
 10
467.687704339051
 20
375.1749932308763
 10
467.6222399917478
 20
375.1942538017327
 10
467.6167611545148
 20
375.2876219734806
 10
467.6242252775948
 20
375.3541544361423
 10
467.6554850417224
 20
375.402593954206
 10
467.6934085575434
 20
375.4378400769661
 10
467.7075291644378
 20
375.4837426409146
 10
467.7490354018833
 20
375.5184048196071
 10
467.8226370822433
 20
375.5766671000047
 10
467.904027799515
 20
375.5890756639431
 10
467.9587101378855
 20
375.5974123553339
 72
     1
 10
467.6606220375251
 20
375.5974123553339
 11
469.0152676107656
 21
375.5974123553339
 97
        0
 75
     0
 76
     1
 47
0.0514683685270805
 98
        1
 10
468.2290531394471
 20
375.8497384071666
450
        0
451
        0
460
0.0
461
0.0
452
        0
462
0.0
453
        0
470

  0
LINE
  5
30DB
102
{ACAD_REACTORS
330
30E1
102
}
330
18
100
AcDbEntity
  8
ROGO
 62
     4
100
AcDbLine
 10
465.8200662513711
 20
376.2255802796127
 30
0.0
 11
466.5700889790068
 21
374.5372510831817
 31
0.0
  0
SPLINE
  5
30DC
102
{ACAD_REACTORS
330
30DD
102
}
330
18
100
AcDbEntity
  8
ROGO
 62
     4
100
AcDbSpline
210
0.0
220
0.0
230
1.0
 70
  1064
 71
     3
 72
    38
 73
    34
 74
    32
 42
0.000000001
 43
0.0000000001
 44
0.0000000001
 40
0.0
 40
0.0
 40
0.0
 40
0.0
 40
0.2324160190625213
 40
0.3054076598660132
 40
0.3991969555207054
 40
0.477354854886139
 40
0.5433001127837835
 40
0.6308904647838232
 40
0.6756456824939442
 40
0.7260518053354295
 40
0.8003409450195954
 40
0.8844944200297319
 40
0.9390839551138206
 40
0.9983865037097929
 40
1.06430804258034
 40
1.164347318186192
 40
1.259395062462666
 40
1.303582284428391
 40
1.35397189997488
 40
1.413666953858241
 40
1.456162161198032
 40
1.491785383230458
 40
1.542647296663654
 40
1.598535826931846
 40
1.654424046021939
 40
1.703326315520224
 40
1.815321205179893
 40
1.859508427145476
 40
1.947882923564493
 40
2.026002047025137
 40
2.175555252260864
 40
2.360088422381786
 40
2.626581173122125
 40
2.626581173122125
 40
2.626581173122125
 40
2.626581173122125
 10
470.2660678372298
 20
376.2326224185486
 30
0.0
 10
470.1885966117112
 20
376.2271496225618
 30
0.0
 10
470.086795084484
 20
376.2199580622639
 30
0.0
 10
469.9575309484002
 20
376.1845435428577
 30
0.0
 10
469.8870676926905
 20
376.1423534464118
 30
0.0
 10
469.8137365909968
 20
376.1113417032254
 30
0.0
 10
469.7512149970732
 20
376.0654194613334
 30
0.0
 10
469.6879757247496
 20
376.0417561725136
 30
0.0
 10
469.6436936504095
 20
375.9990870331769
 30
0.0
 10
469.5924407613816
 20
375.973022881238
 30
0.0
 10
469.551627175879
 20
375.9146837317908
 30
0.0
 10
469.5060091631955
 20
375.860138741087
 30
0.0
 10
469.453086529529
 20
375.8203233304874
 30
0.0
 10
469.4096522138097
 20
375.778505500393
 30
0.0
 10
469.3698072686213
 20
375.7139680237279
 30
0.0
 10
469.3462252467441
 20
375.6282168277035
 30
0.0
 10
469.2797514853608
 20
375.5740766150513
 30
0.0
 10
469.269742618168
 20
375.5089839251821
 30
0.0
 10
469.2329739536309
 20
375.4705803335081
 30
0.0
 10
469.2169856523304
 20
375.4210068138133
 30
0.0
 10
469.2108965375998
 20
375.3755887132582
 30
0.0
 10
469.2035881479739
 20
375.3331713514217
 30
0.0
 10
469.1844707848177
 20
375.2885501604729
 30
0.0
 10
469.1907107581109
 20
375.2334312304137
 30
0.0
 10
469.1889331770568
 20
375.1800577409511
 30
0.0
 10
469.1899792855938
 20
375.1080018681649
 30
0.0
 10
469.1862037350059
 20
375.0378466149828
 30
0.0
 10
469.2163122713826
 20
374.961501059909
 30
0.0
 10
469.2341295040147
 20
374.8934495596235
 30
0.0
 10
469.2829248939424
 20
374.7992240053003
 30
0.0
 10
469.3670959189939
 20
374.690508089103
 30
0.0
 10
469.5271541638736
 20
374.5585475648695
 30
0.0
 10
469.6810548460212
 20
374.5451607839473
 30
0.0
 10
469.7719884581029
 20
374.5372510831817
 30
0.0
 11
470.2660678372298
 21
376.2326224185486
 31
0.0
 11
470.0353378754405
 21
376.2046779978253
 31
0.0
 11
469.9654197218471
 21
376.1837201490503
 31
0.0
 11
469.8815182671226
 21
376.1418038291436
 31
0.0
 11
469.8116001135292
 21
376.1068737700068
 31
0.0
 11
469.7556658103795
 21
376.0719433996919
 31
0.0
 11
469.6787560062204
 21
376.0300273909635
 31
0.0
 11
469.6437966547676
 21
376.0020832814183
 31
0.0
 11
469.601845652749
 21
375.9741388606951
 31
0.0
 11
469.552903000165
 21
375.9182506416051
 31
0.0
 11
469.4969686970154
 21
375.8553764729232
 31
0.0
 11
469.4550176949968
 21
375.8204461026084
 31
0.0
 11
469.4130672422907
 21
375.7785300938798
 31
0.0
 11
469.3781078908378
 21
375.7226418747898
 31
0.0
 11
469.3361574381318
 21
375.6318232853848
 31
0.0
 11
469.2802225856696
 21
375.5549769063415
 31
0.0
 11
469.2662392845384
 21
375.5130605864348
 31
0.0
 11
469.2382721329637
 21
375.4711445777064
 31
0.0
 11
469.2172966319543
 21
375.4152560474381
 31
0.0
 11
469.2103044320763
 21
375.3733400387097
 31
0.0
 11
469.2033127815107
 21
375.3384096683948
 31
0.0
 11
469.1893294803795
 21
375.2895077100745
 31
0.0
 11
469.1893294803795
 21
375.2336191798063
 31
0.0
 11
469.1893294803795
 21
375.1777309607162
 31
0.0
 11
469.1893294803795
 21
375.1288286912179
 31
0.0
 11
469.1963211309452
 21
375.0170522530377
 31
0.0
 11
469.2103044320763
 21
374.9751359331311
 31
0.0
 11
469.2382721329637
 21
374.891303604496
 31
0.0
 11
469.2732309351042
 21
374.8214431750444
 31
0.0
 11
469.3641245897066
 21
374.7026807872725
 31
0.0
 11
469.5109525474591
 21
374.5909040379141
 31
0.0
 11
469.7719884581029
 21
374.5372510831817
 31
0.0
  0
HATCH
  5
30DD
330
18
100
AcDbEntity
  8
ROGO
 62
     4
100
AcDbHatch
 10
0.0
 20
0.0
 30
0.0
210
0.0
220
0.0
230
1.0
  2
SOLID
 70
     1
 71
     1
 91
        1
 92
        5
 93
        6
 72
     4
 94
        3
 73
     0
 74
     0
 95
       38
 96
       34
 40
0.0
 40
0.0
 40
0.0
 40
0.0
 40
0.2324160190625213
 40
0.3054076598660132
 40
0.3991969555207054
 40
0.477354854886139
 40
0.5433001127837835
 40
0.6308904647838232
 40
0.6756456824939442
 40
0.7260518053354295
 40
0.8003409450195954
 40
0.8844944200297319
 40
0.9390839551138206
 40
0.9983865037097929
 40
1.06430804258034
 40
1.164347318186192
 40
1.259395062462666
 40
1.303582284428391
 40
1.35397189997488
 40
1.413666953858241
 40
1.456162161198032
 40
1.491785383230458
 40
1.542647296663654
 40
1.598535826931846
 40
1.654424046021939
 40
1.703326315520224
 40
1.815321205179893
 40
1.859508427145476
 40
1.947882923564493
 40
2.026002047025137
 40
2.175555252260864
 40
2.360088422381786
 40
2.626581173122125
 40
2.626581173122125
 40
2.626581173122125
 40
2.626581173122125
 10
470.2660678372298
 20
376.2326224185486
 10
470.1885966117112
 20
376.2271496225618
 10
470.086795084484
 20
376.2199580622639
 10
469.9575309484002
 20
376.1845435428577
 10
469.8870676926905
 20
376.1423534464118
 10
469.8137365909968
 20
376.1113417032254
 10
469.7512149970732
 20
376.0654194613334
 10
469.6879757247496
 20
376.0417561725136
 10
469.6436936504095
 20
375.9990870331769
 10
469.5924407613816
 20
375.973022881238
 10
469.551627175879
 20
375.9146837317908
 10
469.5060091631955
 20
375.860138741087
 10
469.453086529529
 20
375.8203233304874
 10
469.4096522138097
 20
375.778505500393
 10
469.3698072686213
 20
375.7139680237279
 10
469.3462252467441
 20
375.6282168277035
 10
469.2797514853608
 20
375.5740766150513
 10
469.269742618168
 20
375.5089839251821
 10
469.2329739536309
 20
375.4705803335081
 10
469.2169856523304
 20
375.4210068138133
 10
469.2108965375998
 20
375.3755887132582
 10
469.2035881479739
 20
375.3331713514217
 10
469.1844707848177
 20
375.2885501604729
 10
469.1907107581109
 20
375.2334312304137
 10
469.1889331770568
 20
375.1800577409511
 10
469.1899792855938
 20
375.1080018681649
 10
469.1862037350059
 20
375.0378466149828
 10
469.2163122713826
 20
374.961501059909
 10
469.2341295040147
 20
374.8934495596235
 10
469.2829248939424
 20
374.7992240053003
 10
469.3670959189939
 20
374.690508089103
 10
469.5271541638736
 20
374.5585475648695
 10
469.6810548460212
 20
374.5451607839473
 10
469.7719884581029
 20
374.5372510831817
 72
     1
 10
469.7719884581029
 20
374.5372510831817
 11
470.736857659342
 21
374.5372510831817
 72
     4
 94
        3
 73
     0
 74
     0
 95
       11
 96
        7
 40
0.1647869275458134
 40
0.1647869275458134
 40
0.1647869275458134
 40
0.1647869275458134
 40
0.2545010798212313
 40
0.5111620267764021
 40
0.76029982710339
 40
0.8850764140209602
 40
0.8850764140209602
 40
0.8850764140209602
 40
0.8850764140209602
 10
470.7368576593412
 20
374.5372510831817
 10
470.7503215311811
 20
374.5369916059264
 10
470.8023038531036
 20
374.5359897967605
 10
470.8911422643705
 20
374.5487524789407
 10
470.9846121078337
 20
374.5609827002779
 10
471.0403362653918
 20
374.5698896014287
 10
471.0583086775645
 20
374.574892229207
 72
     4
 94
        3
 73
     0
 74
     0
 95
        9
 96
        5
 40
0.0
 40
0.0
 40
0.0
 40
0.0
 40
0.146030572742531
 40
0.3423777932798746
 40
0.3423777932798746
 40
0.3423777932798746
 40
0.3423777932798746
 10
471.0583086775645
 20
374.574892229207
 10
471.1052179225448
 20
374.5892438088512
 10
471.2151995755587
 20
374.6228919831777
 10
471.3060696148631
 20
374.6940078203162
 10
471.3581818721348
 20
374.7347914144407
 72
     4
 94
        3
 73
     0
 74
     0
 95
       25
 96
       21
 40
0.0
 40
0.0
 40
0.0
 40
0.0
 40
0.1655259189148541
 40
0.3412380755365301
 40
0.5940540902285259
 40
0.7697671103696213
 40
0.9377330196075416
 40
1.11479469302833
 40
1.274661249598184
 40
1.574522170874767
 40
1.815540668866877
 40
2.158490918734449
 40
2.536227739636604
 40
2.738070817316548
 40
2.925680654369045
 40
3.162706124480894
 40
3.395643218188266
 40
3.64847812995886
 40
3.928509979727305
 40
4.337226830236034
 40
4.337226830236034
 40
4.337226830236034
 40
4.337226830236034
 10
471.3581818721348
 20
374.7347914144407
 10
471.3773295744982
 20
374.7506143709423
 10
471.4136475307461
 20
374.788247386513
 10
471.4780634064257
 20
374.8492421200913
 10
471.5348278976057
 20
374.9203058249607
 10
471.6048509842421
 20
374.9779004672265
 10
471.6413047842206
 20
375.0483141868163
 10
471.693850059326
 20
375.1036930774578
 10
471.7379269407913
 20
375.1892203114457
 10
471.7753239962626
 20
375.2874640094883
 10
471.8109769247595
 20
375.4155228028212
 10
471.8246394947637
 20
375.559992156737
 10
471.8044171920745
 20
375.6997661841482
 10
471.7555652207783
 20
375.8042426784101
 10
471.7196498712178
 20
375.8913130686948
 10
471.6651438286777
 20
375.973784059137
 10
471.6029598009996
 20
376.0634803815666
 10
471.5153535171663
 20
376.1376737616858
 10
471.4008610989392
 20
376.2271629337401
 10
471.2942199604438
 20
376.2305892035336
 10
471.2309370384682
 20
376.2326224185486
 72
     1
 10
471.2309370384682
 20
376.2326224185486
 11
470.2660678372298
 21
376.2326224185486
 97
        6
330
30D7
330
3101
330
30DC
330
30F9
330
30F7
330
30F8
 75
     0
 76
     1
 47
0.088756267210375
 98
        1
 10
470.555211699172
 20
375.7643540618265
450
        0
451
        0
460
0.0
461
0.0
452
        0
462
0.0
453
        0
470

  0
HATCH
  5
30DE
330
18
100
AcDbEntity
  8
ROGO
 62
     4
100
AcDbHatch
 10
0.0
 20
0.0
 30
0.0
210
0.0
220
0.0
230
1.0
  2
SOLID
 70
     1
 71
     1
 91
        1
 92
        7
 72
     0
 73
     1
 93
       11
 10
475.8569853041996
 20
375.7499433240486
 10
476.0941532518875
 20
376.2255802796127
 10
475.1220455829535
 20
376.2255802796127
 10
473.8065888279494
 20
373.587450413305
 10
474.7786964968834
 20
373.587450413305
 10
475.1220455829535
 20
374.2760321360302
 10
475.4653946690235
 20
373.587450413305
 10
476.4374810690235
 20
373.587450413305
 10
475.7797526915216
 20
374.9065153464588
 10
477.3777782212333
 20
376.2255802796127
 10
476.4056918212332
 20
376.2255802796127
 97
       11
330
3103
330
30D2
330
30D0
330
30FD
330
30D5
330
30B9
330
30F6
330
30FB
330
30E2
330
30FC
330
30D1
 75
     0
 76
     1
 47
0.015942268611278
 98
        1
 10
475.6467964647431
 20
375.369720203819
450
        0
451
        0
460
0.0
461
0.0
452
        0
462
0.0
453
        0
470

  0
LINE
  5
30DF
102
{ACAD_REACTORS
330
30B8
102
}
330
18
100
AcDbEntity
  8
ROGO
 62
     4
100
AcDbLine
 10
463.8080548611251
 20
376.2255802796127
 30
0.0
 11
463.6166966094664
 21
375.8388344258657
 31
0.0
  0
LINE
  5
30E0
102
{ACAD_REACTORS
330
30E1
102
}
330
18
100
AcDbEntity
  8
ROGO
 62
     4
100
AcDbLine
 10
464.4695474878078
 20
376.2255802796127
 30
0.0
 11
463.252060491966
 21
374.5372510831817
 31
0.0
  0
HATCH
  5
30E1
330
18
100
AcDbEntity
  8
ROGO
 62
     4
100
AcDbHatch
 10
0.0
 20
0.0
 30
0.0
210
0.0
220
0.0
230
1.0
  2
SOLID
 70
     1
 71
     1
 91
        2
 92
        7
 72
     0
 73
     1
 93
        8
 10
465.8200662513711
 20
376.2255802796127
 10
464.4695474878078
 20
376.2255802796127
 10
463.252060491966
 20
374.5372510831817
 10
464.1870926727123
 20
374.5372510831817
 10
464.4188946638878
 20
374.8586985161555
 10
465.4858793637534
 20
374.8586985161555
 10
465.6286790505563
 20
374.5372510831817
 10
466.5700889790067
 20
374.5372510831818
 97
        8
330
30FF
330
30E0
330
30ED
330
30EC
330
30EA
330
30EF
330
30F0
330
30DB
 92
       22
 72
     0
 73
     1
 93
        3
 10
465.3352642279812
 20
375.1977388169076
 10
464.6633832139315
 20
375.1977388169076
 10
465.0791404463342
 20
375.774283023532
 97
        3
330
30EB
330
30E9
330
30EE
 75
     0
 76
     1
 47
0.0128389261915577
 98
        2
 10
465.7143099610193
 20
375.8205263865725
 10
465.7143099610193
 20
375.8205263865725
450
        0
451
        0
460
0.0
461
0.0
452
        0
462
0.0
453
        0
470

  0
LINE
  5
30E2
102
{ACAD_REACTORS
330
30DE
102
}
330
18
100
AcDbEntity
  8
ROGO
 62
     4
100
AcDbLine
 10
475.4653946690235
 20
373.587450413305
 30
0.0
 11
476.4374810690235
 21
373.587450413305
 31
0.0
  0
LINE
  5
30E3
330
18
100
AcDbEntity
  8
ROGO
 62
     4
100
AcDbLine
 10
467.0324567982998
 20
374.5372510831817
 30
0.0
 11
468.4866369604486
 21
374.5372510831817
 31
0.0
  0
LINE
  5
30E4
330
18
100
AcDbEntity
  8
ROGO
 62
     4
100
AcDbLine
 10
467.9587101378855
 20
375.5974123553339
 30
0.0
 11
469.0152676107656
 21
375.597412355334
 31
0.0
  0
LINE
  5
30E5
330
18
100
AcDbEntity
  8
ROGO
 62
     4
100
AcDbLine
 10
467.7202685744857
 20
375.1654123553338
 30
0.0
 11
468.7998584584644
 21
375.1654123553338
 31
0.0
  0
SPLINE
  5
30E6
330
18
100
AcDbEntity
  8
ROGO
 62
     4
100
AcDbSpline
210
0.0
220
0.0
230
1.0
 70
  1064
 71
     3
 72
    16
 73
    12
 74
    10
 42
0.000000001
 43
0.0000000001
 44
0.0000000001
 40
0.0
 40
0.0
 40
0.0
 40
0.0
 40
0.1614737604380545
 40
0.2403420478032587
 40
0.279234489187304
 40
0.3202207890280698
 40
0.3789130531806846
 40
0.4323552828341127
 40
0.4880942832964815
 40
0.5815447451499344
 40
0.6740411735370321
 40
0.6740411735370321
 40
0.6740411735370321
 40
0.6740411735370321
 10
467.9587101378855
 20
375.5974123553339
 30
0.0
 10
467.904027799515
 20
375.5890756639431
 30
0.0
 10
467.8226370822433
 20
375.5766671000046
 30
0.0
 10
467.7490354018835
 20
375.518404819607
 30
0.0
 10
467.707529164438
 20
375.4837426409148
 30
0.0
 10
467.6934085575433
 20
375.4378400769658
 30
0.0
 10
467.6554850417223
 20
375.402593954206
 30
0.0
 10
467.6242252775947
 20
375.3541544361422
 30
0.0
 10
467.616761154515
 20
375.2876219734806
 30
0.0
 10
467.6222399917477
 20
375.1942538017325
 30
0.0
 10
467.6877043390509
 20
375.1749932308762
 30
0.0
 10
467.720268574486
 20
375.1654123553338
 30
0.0
 11
467.9587101378855
 21
375.5974123553339
 31
0.0
 11
467.802806261845
 21
375.5553676559586
 31
0.0
 11
467.7386105171613
 21
375.5095515767241
 31
0.0
 11
467.7110981304882
 21
375.4820617499447
 31
0.0
 11
467.6927561878128
 21
375.4454086475722
 31
0.0
 11
467.6560728298021
 21
375.3995925683378
 31
0.0
 11
467.6285604431291
 21
375.3537761903722
 31
0.0
 11
467.6193894717912
 21
375.2987968355445
 31
0.0
 11
467.6377314144668
 21
375.2071640796135
 31
0.0
 11
467.720268574486
 21
375.1654123553338
 31
0.0
  0
LINE
  5
30E7
330
18
100
AcDbEntity
  8
ROGO
 62
     4
100
AcDbLine
 10
468.7998584584644
 20
375.1654123553338
 30
0.0
 11
468.4866369604486
 21
374.5372510831817
 31
0.0
  0
LINE
  5
30E8
102
{ACAD_REACTORS
330
30B8
102
}
330
18
100
AcDbEntity
  8
ROGO
 62
     4
100
AcDbLine
 10
463.4670782359394
 20
375.5364472274861
 30
0.0
 11
463.3136586101374
 21
375.2263774831817
 31
0.0
  0
LINE
  5
30E9
102
{ACAD_REACTORS
330
30E1
102
}
330
18
100
AcDbEntity
  8
ROGO
 62
     4
100
AcDbLine
 10
465.0791404463341
 20
375.7742830235319
 30
0.0
 11
464.6633832139315
 21
375.1977388169076
 31
0.0
  0
LINE
  5
30EA
102
{ACAD_REACTORS
330
30E1
102
}
330
18
100
AcDbEntity
  8
ROGO
 62
     4
100
AcDbLine
 10
464.4188946638878
 20
374.8586985161555
 30
0.0
 11
465.4858793637534
 21
374.8586985161555
 31
0.0
  0
LINE
  5
30EB
102
{ACAD_REACTORS
330
30E1
102
}
330
18
100
AcDbEntity
  8
ROGO
 62
     4
100
AcDbLine
 10
464.6633832139316
 20
375.1977388169076
 30
0.0
 11
465.3352642279812
 21
375.1977388169076
 31
0.0
  0
LINE
  5
30EC
102
{ACAD_REACTORS
330
30E1
102
}
330
18
100
AcDbEntity
  8
ROGO
 62
     4
100
AcDbLine
 10
464.4188946638878
 20
374.8586985161555
 30
0.0
 11
464.1870926727124
 21
374.5372510831818
 31
0.0
  0
LINE
  5
30ED
102
{ACAD_REACTORS
330
30E1
102
}
330
18
100
AcDbEntity
  8
ROGO
 62
     4
100
AcDbLine
 10
463.252060491966
 20
374.5372510831817
 30
0.0
 11
464.1870926727124
 21
374.5372510831817
 31
0.0
  0
LINE
  5
30EE
102
{ACAD_REACTORS
330
30E1
102
}
330
18
100
AcDbEntity
  8
ROGO
 62
     4
100
AcDbLine
 10
465.0791404463342
 20
375.7742830235319
 30
0.0
 11
465.3352642279812
 21
375.1977388169076
 31
0.0
  0
LINE
  5
30EF
102
{ACAD_REACTORS
330
30E1
102
}
330
18
100
AcDbEntity
  8
ROGO
 62
     4
100
AcDbLine
 10
465.4858793637534
 20
374.8586985161555
 30
0.0
 11
465.6286790505563
 21
374.5372510831817
 31
0.0
  0
LINE
  5
30F0
102
{ACAD_REACTORS
330
30E1
102
}
330
18
100
AcDbEntity
  8
ROGO
 62
     4
100
AcDbLine
 10
466.5700889790068
 20
374.5372510831818
 30
0.0
 11
465.6286790505563
 21
374.5372510831817
 31
0.0
  0
LINE
  5
30F1
330
18
100
AcDbEntity
  8
ROGO
 62
     4
100
AcDbLine
 10
472.4724036466356
 20
374.5372510831817
 30
0.0
 11
473.9265838087844
 21
374.5372510831817
 31
0.0
  0
SPLINE
  5
30F2
330
18
100
AcDbEntity
  8
ROGO
 62
     4
100
AcDbSpline
210
0.0
220
0.0
230
1.0
 70
  1064
 71
     3
 72
    16
 73
    12
 74
    10
 42
0.000000001
 43
0.0000000001
 44
0.0000000001
 40
0.0
 40
0.0
 40
0.0
 40
0.0
 40
0.1614737604380545
 40
0.2403420478034173
 40
0.2792344891872214
 40
0.320220789028089
 40
0.3789130531806415
 40
0.4323552828340795
 40
0.488094283296439
 40
0.5815447451500702
 40
0.6740411735370402
 40
0.6740411735370402
 40
0.6740411735370402
 40
0.6740411735370402
 10
473.3986569862213
 20
375.5974123553339
 30
0.0
 10
473.3439746478508
 20
375.5890756639429
 30
0.0
 10
473.2625839305789
 20
375.5766671000043
 30
0.0
 10
473.1889822502193
 20
375.5184048196071
 30
0.0
 10
473.1474760127738
 20
375.4837426409145
 30
0.0
 10
473.1333554058789
 20
375.4378400769659
 30
0.0
 10
473.0954318900582
 20
375.4025939542058
 30
0.0
 10
473.0641721259304
 20
375.3541544361423
 30
0.0
 10
473.0567080028508
 20
375.2876219734806
 30
0.0
 10
473.0621868400836
 20
375.1942538017325
 30
0.0
 10
473.1276511873867
 20
375.1749932308763
 30
0.0
 10
473.1602154228218
 20
375.1654123553338
 30
0.0
 11
473.3986569862213
 21
375.5974123553339
 31
0.0
 11
473.2427531101808
 21
375.5553676559586
 31
0.0
 11
473.178557365497
 21
375.509551576724
 31
0.0
 11
473.1510449788241
 21
375.4820617499447
 31
0.0
 11
473.1327030361486
 21
375.4454086475722
 31
0.0
 11
473.096019678138
 21
375.3995925683377
 31
0.0
 11
473.0685072914648
 21
375.3537761903722
 31
0.0
 11
473.0593363201271
 21
375.2987968355445
 31
0.0
 11
473.0776782628026
 21
375.2071640796133
 31
0.0
 11
473.1602154228218
 21
375.1654123553338
 31
0.0
  0
LINE
  5
30F3
330
18
100
AcDbEntity
  8
ROGO
 62
     4
100
AcDbLine
 10
474.2398053068002
 20
375.1654123553338
 30
0.0
 11
473.9265838087844
 21
374.5372510831817
 31
0.0
  0
LINE
  5
30F4
330
18
100
AcDbEntity
  8
ROGO
 62
     4
100
AcDbLine
 10
473.1602154228216
 20
375.1654123553338
 30
0.0
 11
474.2398053068002
 21
375.1654123553338
 31
0.0
  0
LINE
  5
30F5
330
18
100
AcDbEntity
  8
ROGO
 62
     4
100
AcDbLine
 10
473.3986569862211
 20
375.5974123553339
 30
0.0
 11
474.4552144591014
 21
375.5974123553339
 31
0.0
  0
LINE
  5
30F6
102
{ACAD_REACTORS
330
30DE
102
}
330
18
100
AcDbEntity
  8
ROGO
 62
     4
100
AcDbLine
 10
475.1220455829535
 20
374.2760321360302
 30
0.0
 11
474.7786964968834
 21
373.587450413305
 31
0.0
  0
SPLINE
  5
30F7
102
{ACAD_REACTORS
330
30DD
102
}
330
18
100
AcDbEntity
  8
ROGO
 62
     4
100
AcDbSpline
210
0.0
220
0.0
230
1.0
 70
     8
 71
     3
 72
    11
 73
     7
 74
     0
 42
0.000000001
 43
0.0000000001
 40
0.1647869275458134
 40
0.1647869275458134
 40
0.1647869275458134
 40
0.1647869275458134
 40
0.2895635144633836
 40
0.5387013147903714
 40
0.7953622617455423
 40
0.8850764140209602
 40
0.8850764140209602
 40
0.8850764140209602
 40
0.8850764140209602
 10
471.0583086775645
 20
374.574892229207
 30
0.0
 10
471.0403362653918
 20
374.5698896014287
 30
0.0
 10
470.9846121078337
 20
374.5609827002779
 30
0.0
 10
470.8911422643705
 20
374.5487524789407
 30
0.0
 10
470.8023038531036
 20
374.5359897967605
 30
0.0
 10
470.7503215311811
 20
374.5369916059264
 30
0.0
 10
470.7368576593412
 20
374.5372510831817
 30
0.0
  0
SPLINE
  5
30F8
102
{ACAD_REACTORS
330
30DD
102
}
330
18
100
AcDbEntity
  8
ROGO
 62
     4
100
AcDbSpline
210
0.0
220
0.0
230
1.0
 70
  1064
 71
     3
 72
     9
 73
     5
 74
     3
 42
0.000000001
 43
0.0000000001
 44
0.0000000001
 40
0.0
 40
0.0
 40
0.0
 40
0.0
 40
0.146030572742531
 40
0.3423777932798746
 40
0.3423777932798746
 40
0.3423777932798746
 40
0.3423777932798746
 10
471.0583086775645
 20
374.574892229207
 30
0.0
 10
471.1052179225448
 20
374.5892438088512
 30
0.0
 10
471.2151995755587
 20
374.6228919831777
 30
0.0
 10
471.3060696148631
 20
374.6940078203162
 30
0.0
 10
471.3581818721348
 20
374.7347914144407
 30
0.0
 11
471.0583086775645
 21
374.574892229207
 31
0.0
 11
471.1955596601391
 21
374.6247630218395
 31
0.0
 11
471.3581818721348
 21
374.7347914144407
 31
0.0
  0
LINE
  5
30F9
102
{ACAD_REACTORS
330
30DD
102
}
330
18
100
AcDbEntity
  8
ROGO
 62
     4
100
AcDbLine
 10
469.7719884581029
 20
374.5372510831817
 30
0.0
 11
470.7368576593412
 21
374.5372510831817
 31
0.0
  0
ELLIPSE
  5
30FA
330
18
100
AcDbEntity
  8
ROGO
 62
     4
100
AcDbEllipse
 10
470.4878000588978
 20
375.3612989999813
 30
0.0
 11
0.2292231973722778
 21
0.2015731185223643
 31
0.0
210
0.0
220
0.0
230
0.9999999999999998
 40
0.6788083417438792
 41
0.0
 42
6.283185307179585
  0
LINE
  5
30FB
102
{ACAD_REACTORS
330
30DE
102
}
330
18
100
AcDbEntity
  8
ROGO
 62
     4
100
AcDbLine
 10
475.1220455829535
 20
374.2760321360302
 30
0.0
 11
475.4653946690235
 21
373.587450413305
 31
0.0
  0
LINE
  5
30FC
102
{ACAD_REACTORS
330
30DE
102
}
330
18
100
AcDbEntity
  8
ROGO
 62
     4
100
AcDbLine
 10
475.7797526915216
 20
374.9065153464588
 30
0.0
 11
476.4374810690235
 21
373.587450413305
 31
0.0
  0
LINE
  5
30FD
102
{ACAD_REACTORS
330
30DE
102
}
330
18
100
AcDbEntity
  8
ROGO
 62
     4
100
AcDbLine
 10
475.1220455829535
 20
376.2255802796127
 30
0.0
 11
476.0941532518875
 21
376.2255802796127
 31
0.0
  0
LINE
  5
30FE
330
18
100
AcDbEntity
  8
ROGO
 62
     4
100
AcDbLine
 10
467.6377314144673
 20
376.2255802796128
 30
0.0
 11
469.3284924257463
 21
376.2255802796128
 31
0.0
  0
LINE
  5
30FF
102
{ACAD_REACTORS
330
30E1
102
}
330
18
100
AcDbEntity
  8
ROGO
 62
     4
100
AcDbLine
 10
464.4695474878078
 20
376.2255802796127
 30
0.0
 11
465.8200662513711
 21
376.2255802796127
 31
0.0
  0
LINE
  5
3100
330
18
100
AcDbEntity
  8
ROGO
 62
     4
100
AcDbLine
 10
473.0776782628031
 20
376.2255802796127
 30
0.0
 11
474.768439274082
 21
376.2255802796127
 31
0.0
  0
LINE
  5
3101
102
{ACAD_REACTORS
330
30DD
102
}
330
18
100
AcDbEntity
  8
ROGO
 62
     4
100
AcDbLine
 10
470.2660678372298
 20
376.2326224185486
 30
0.0
 11
471.2309370384682
 21
376.2326224185486
 31
0.0
  0
LINE
  5
3102
330
18
100
AcDbEntity
  8
外形線
100
AcDbLine
 10
478.2049296756186
 20
388.0654283723026
 30
0.0
 11
478.2049296756186
 21
386.9932463538295
 31
0.0
  0
LINE
  5
3103
102
{ACAD_REACTORS
330
30DE
102
}
330
18
100
AcDbEntity
  8
ROGO
 62
     4
100
AcDbLine
 10
476.4056918212332
 20
376.2255802796127
 30
0.0
 11
477.3777782212333
 21
376.2255802796127
 31
0.0
  0
LINE
  5
3104
330
18
100
AcDbEntity
  8
外形線
100
AcDbLine
 10
451.2049296756186
 20
345.5826748799237
 30
0.0
 11
451.2049296756186
 21
335.43949404485
 31
0.0
  0
LINE
  5
3105
330
18
100
AcDbEntity
  8
外形線
100
AcDbLine
 10
483.2049296756186
 20
345.5826748799237
 30
0.0
 11
483.2049296756186
 21
335.43949404485
 31
0.0
  0
LINE
  5
3106
330
18
100
AcDbEntity
  8
外形線
100
AcDbLine
 10
452.2049296756185
 20
346.5826748799238
 30
0.0
 11
482.2049296756186
 21
346.5826748799238
 31
0.0
  0
ARC
  5
3107
330
18
100
AcDbEntity
  8
外形線
100
AcDbCircle
 10
467.2049296756186
 20
359.0826748799238
 30
0.0
 40
29.0
100
AcDbArc
 50
56.51462337700678
 51
123.4853766229932
  0
ARC
  5
3108
330
18
100
AcDbEntity
  8
外形線
100
AcDbCircle
 10
467.2049296756186
 20
359.0826748799238
 30
0.0
 40
29.0
100
AcDbArc
 50
237.6076345141536
 51
302.3923654858463
  0
ARC
  5
3109
330
18
100
AcDbEntity
  8
外形線
100
AcDbCircle
 10
452.2049296756185
 20
345.5826748799237
 30
0.0
 40
1.0
100
AcDbArc
 50
90.0
 51
180.0
  0
ARC
  5
310A
330
18
100
AcDbEntity
  8
外形線
100
AcDbCircle
 10
482.2049296756186
 20
345.5826748799237
 30
0.0
 40
1.0
100
AcDbArc
 50
0.0
 51
90.0
  0
ARC
  5
310B
330
18
100
AcDbEntity
  8
外形線
100
AcDbCircle
 10
482.2049296756186
 20
335.43949404485
 30
0.0
 40
1.0
100
AcDbArc
 50
302.3923654858419
 51
0.0
  0
ARC
  5
310C
330
18
100
AcDbEntity
  8
外形線
100
AcDbCircle
 10
452.2049296756185
 20
335.43949404485
 30
0.0
 40
1.0
100
AcDbArc
 50
180.0
 51
237.6076345141571
  0
ELLIPSE
  5
310D
330
18
100
AcDbEntity
  8
外形線
100
AcDbEllipse
 10
475.0537115632273
 20
339.1743914067445
 30
0.0
 11
-4.089143464216689
 21
0.0
 31
0.0
210
0.0
220
0.0
230
1.0
 40
0.6358299782710266
 41
0.0
 42
6.283185307179585
  0
ELLIPSE
  5
310E
330
18
100
AcDbEntity
  8
外形線
100
AcDbEllipse
 10
459.8775158662183
 20
339.1743914067445
 30
0.0
 11
-4.089143464216689
 21
0.0
 31
0.0
210
0.0
220
0.0
230
1.0
 40
0.6358299782710266
 41
0.0
 42
6.283185307179585
  0
TEXT
  5
310F
330
18
100
AcDbEntity
  8
寸法線
100
AcDbText
 10
473.3594259843166
 20
333.0399437144853
 30
0.0
 40
1.199999999999999
  1
SET
  7
STYLE4
100
AcDbText
  0
ELLIPSE
  5
3110
330
18
100
AcDbEntity
  8
外形線
100
AcDbEllipse
 10
475.0537115632273
 20
339.1743914067445
 30
0.0
 11
-5.473687379191061
 21
0.0
 31
0.0
210
0.0
220
0.0
230
1.0
 40
0.7307688077339824
 41
0.0
 42
6.283185307179585
  0
ELLIPSE
  5
3111
330
18
100
AcDbEntity
  8
外形線
100
AcDbEllipse
 10
459.8775158662183
 20
339.1743914067445
 30
0.0
 11
-5.473687379191061
 21
0.0
 31
0.0
210
0.0
220
0.0
230
1.0
 40
0.7307688077339824
 41
0.0
 42
6.283185307179585
  0
LINE
  5
3112
330
18
100
AcDbEntity
  8
外形線
100
AcDbLine
 10
461.2049296756186
 20
325.9826748799237
 30
0.0
 11
473.2049296756185
 21
325.9826748799238
 31
0.0
  0
LINE
  5
3113
330
18
100
AcDbEntity
  8
外形線
100
AcDbLine
 10
461.2049296756186
 20
325.9826748799237
 30
0.0
 11
462.2049296756186
 21
323.9826748799237
 31
0.0
  0
LINE
  5
3114
330
18
100
AcDbEntity
  8
外形線
100
AcDbLine
 10
473.2049296756185
 20
325.9826748799238
 30
0.0
 11
472.2049296756186
 21
323.9826748799238
 31
0.0
  0
LINE
  5
3115
330
18
100
AcDbEntity
  8
外形線
100
AcDbLine
 10
461.2049296756186
 20
326.4826748799237
 30
0.0
 11
473.2049296756185
 21
326.4826748799238
 31
0.0
  0
LINE
  5
3116
330
18
100
AcDbEntity
  8
中心線
 48
0.3
100
AcDbLine
 10
452.9079277686522
 20
339.1743914067445
 30
0.0
 11
466.8471039637844
 21
339.1743914067445
 31
0.0
  0
LINE
  5
3117
330
18
100
AcDbEntity
  8
中心線
 48
0.3
100
AcDbLine
 10
459.8775158662183
 20
344.4920013905349
 30
0.0
 11
459.8775158662183
 21
333.8931526502947
 31
0.0
  0
LINE
  5
3118
330
18
100
AcDbEntity
  8
中心線
 48
0.3
100
AcDbLine
 10
475.0537115632273
 20
344.4920013905349
 30
0.0
 11
475.0537115632273
 21
333.8931526502947
 31
0.0
  0
LINE
  5
3119
330
18
100
AcDbEntity
  8
中心線
 48
0.3
100
AcDbLine
 10
468.0841234656611
 20
339.1743914067445
 30
0.0
 11
482.0232996607933
 21
339.1743914067445
 31
0.0
  0
LINE
  5
311A
330
18
100
AcDbEntity
  8
外形線
100
AcDbLine
 10
463.4549296756186
 20
302.9826748799238
 30
0.0
 11
470.9549296756185
 21
302.9826748799238
 31
0.0
  0
LINE
  5
3176
330
18
100
AcDbEntity
  8
中心線
100
AcDbLine
 10
373.78438062335
 20
359.0826748799238
 30
0.0
 11
414.8333343185318
 21
359.0826748799238
 31
0.0
  0
LINE
  5
31C7
330
18
100
AcDbEntity
  8
中心線
 48
0.7
100
AcDbLine
 10
375.733340000628
 20
272.9826748799238
 30
0.0
 11
398.7049595858904
 21
272.9826748799238
 31
0.0
  0
LINE
  5
32D1
330
18
100
AcDbEntity
  8
中心線
100
AcDbLine
 10
387.2885367013847
 20
419.6072635313494
 30
0.0
 11
387.2885367013847
 21
260.397491423255
 31
0.0
  0
LINE
  5
32D3
330
18
100
AcDbEntity
  8
外形線
100
AcDbLine
 10
393.7885367013846
 20
388.4826748799238
 30
0.0
 11
377.7885367013847
 21
388.4826748799237
 31
0.0
  0
LINE
  5
32D4
330
18
100
AcDbEntity
  8
外形線
100
AcDbLine
 10
393.7885367013846
 20
329.6826748799237
 30
0.0
 11
377.7885367013845
 21
329.6826748799237
 31
0.0
  0
LINE
  5
32D5
330
18
100
AcDbEntity
  8
外形線
100
AcDbLine
 10
377.7885367013847
 20
388.4826748799237
 30
0.0
 11
377.7885367013845
 21
329.6826748799237
 31
0.0
  0
LINE
  5
32D6
330
18
100
AcDbEntity
  8
外形線
100
AcDbLine
 10
408.7885367013845
 20
389.0826748799237
 30
0.0
 11
408.7885367013845
 21
329.0826748799237
 31
0.0
  0
LINE
  5
32D7
330
18
100
AcDbEntity
  8
外形線
100
AcDbLine
 10
379.2885367013846
 20
388.4826748799237
 30
0.0
 11
379.2885367013846
 21
329.6826748799237
 31
0.0
  0
LINE
  5
32D8
330
18
100
AcDbEntity
  8
外形線
100
AcDbLine
 10
380.2885367013847
 20
388.4826748799237
 30
0.0
 11
380.2885367013845
 21
329.6826748799237
 31
0.0
  0
LINE
  5
32D9
330
18
100
AcDbEntity
  8
外形線
100
AcDbLine
 10
395.7885367013846
 20
390.0826748799237
 30
0.0
 11
395.7885367013845
 21
385.5826748799237
 31
0.0
  0
LINE
  5
32DA
330
18
100
AcDbEntity
  8
外形線
100
AcDbLine
 10
401.2885367013844
 20
390.0826748799237
 30
0.0
 11
401.2885367013844
 21
385.5826748799238
 31
0.0
  0
LINE
  5
32DB
330
18
100
AcDbEntity
  8
外形線
100
AcDbLine
 10
408.7885367013845
 20
389.0826748799237
 30
0.0
 11
401.2885367013844
 21
389.0826748799237
 31
0.0
  0
LINE
  5
32DC
330
18
100
AcDbEntity
  8
外形線
100
AcDbLine
 10
408.7885367013845
 20
329.0826748799237
 30
0.0
 11
395.7885367013844
 21
329.0826748799237
 31
0.0
  0
LINE
  5
32DD
330
18
100
AcDbEntity
  8
外形線
100
AcDbLine
 10
401.2885367013844
 20
390.0826748799237
 30
0.0
 11
395.7885367013846
 21
390.0826748799237
 31
0.0
  0
LINE
  5
32DE
330
18
100
AcDbEntity
  8
外形線
100
AcDbLine
 10
401.2885367013844
 20
386.5826748799237
 30
0.0
 11
395.7885367013846
 21
386.5826748799237
 31
0.0
  0
LINE
  5
32DF
330
18
100
AcDbEntity
  8
外形線
100
AcDbLine
 10
401.2885367013844
 20
385.5826748799238
 30
0.0
 11
395.7885367013845
 21
385.5826748799237
 31
0.0
  0
LINE
  5
32E0
330
18
100
AcDbEntity
  8
外形線
100
AcDbLine
 10
395.7885367013845
 20
385.5826748799237
 30
0.0
 11
395.7885367013845
 21
329.0826748799237
 31
0.0
  0
LINE
  5
32E1
330
18
100
AcDbEntity
  8
外形線
100
AcDbLine
 10
396.7885367013844
 20
331.5826748799237
 30
0.0
 11
396.7885367013845
 21
329.0826748799237
 31
0.0
  0
LINE
  5
32E2
330
18
100
AcDbEntity
  8
外形線
100
AcDbLine
 10
402.2885367013844
 20
331.5826748799237
 30
0.0
 11
402.2885367013843
 21
329.0826748799237
 31
0.0
  0
LINE
  5
32E3
330
18
100
AcDbEntity
  8
外形線
100
AcDbLine
 10
402.2885367013844
 20
331.5826748799237
 30
0.0
 11
396.7885367013844
 21
331.5826748799237
 31
0.0
  0
LINE
  5
32E4
330
18
100
AcDbEntity
  8
外形線
100
AcDbLine
 10
409.7885367013844
 20
359.0826748799238
 30
0.0
 11
409.7885367013844
 21
347.5826748799237
 31
0.0
  0
LINE
  5
32E5
330
18
100
AcDbEntity
  8
外形線
100
AcDbLine
 10
411.3885367013846
 20
347.5826748799237
 30
0.0
 11
409.7885367013844
 21
347.5826748799237
 31
0.0
  0
ARC
  5
32E6
330
18
100
AcDbEntity
  8
外形線
100
AcDbCircle
 10
230.1712824610581
 20
363.5934815377253
 30
0.0
 40
181.9206400838717
100
AcDbArc
 50
352.8920187336257
 51
354.9508749822956
  0
LINE
  5
32E7
330
18
100
AcDbEntity
  8
外形線
100
AcDbLine
 10
411.3859986369031
 20
341.0826748799237
 30
0.0
 11
410.3859986369031
 21
341.0826748799237
 31
0.0
  0
LINE
  5
32E8
330
18
100
AcDbEntity
  8
外形線
100
AcDbLine
 10
411.3859986369031
 20
337.0826748799237
 30
0.0
 11
409.3859986369031
 21
337.0826748799237
 31
0.0
  0
LINE
  5
32E9
330
18
100
AcDbEntity
  8
外形線
100
AcDbLine
 10
409.7885367013844
 20
359.0826748799238
 30
0.0
 11
408.7885367013845
 21
359.0826748799238
 31
0.0
  0
LINE
  5
32EA
330
18
100
AcDbEntity
  8
外形線
100
AcDbLine
 10
411.3859986369031
 20
341.0826748799237
 30
0.0
 11
411.3859986369031
 21
337.0826748799237
 31
0.0
  0
LINE
  5
32EB
330
18
100
AcDbEntity
  8
外形線
100
AcDbLine
 10
410.3859986369031
 20
341.0826748799237
 30
0.0
 11
409.3859986369031
 21
337.0826748799237
 31
0.0
  0
ARC
  5
32EC
330
18
100
AcDbEntity
  8
外形線
100
AcDbCircle
 10
230.1712824610581
 20
363.5934815377253
 30
0.0
 40
181.9206400838717
100
AcDbArc
 50
349.0645749835871
 51
351.620601274743
  0
LINE
  5
32ED
330
18
100
AcDbEntity
  8
外形線
100
AcDbLine
 10
393.7885367013846
 20
388.4826748799238
 30
0.0
 11
393.7885367013846
 21
329.6826748799237
 31
0.0
  0
LINE
  5
32EE
330
18
100
AcDbEntity
  8
外形線
100
AcDbLine
 10
395.7885367013844
 20
329.0826748799237
 30
0.0
 11
393.7885367013846
 21
329.6826748799237
 31
0.0
  0
LINE
  5
32EF
330
18
100
AcDbEntity
  8
外形線
100
AcDbLine
 10
393.7885367013846
 20
388.4826748799238
 30
0.0
 11
395.7885367013846
 21
389.0826748799237
 31
0.0
  0
LINE
  5
32F0
330
18
100
AcDbEntity
  8
外形線
100
AcDbLine
 10
381.2885367013844
 20
398.9826748799238
 30
0.0
 11
381.2885367013846
 21
388.4826748799237
 31
0.0
  0
LINE
  5
32F1
330
18
100
AcDbEntity
  8
外形線
100
AcDbLine
 10
393.2885367013844
 20
398.9826748799237
 30
0.0
 11
393.2885367013847
 21
388.4826748799237
 31
0.0
  0
LINE
  5
32FC
330
18
100
AcDbEntity
  8
外形線
100
AcDbLine
 10
392.2885367013847
 20
323.9826748799237
 30
0.0
 11
382.2885367013847
 21
323.9826748799238
 31
0.0
  0
POINT
  5
32FD
330
18
100
AcDbEntity
  8
DEFPOINTS
  6
ByBlock
 62
     0
100
AcDbPoint
 10
393.2885367013847
 20
328.0826748799237
 30
0.0
  0
LINE
  5
32FE
330
18
100
AcDbEntity
  8
外形線
100
AcDbLine
 10
393.2885367013847
 20
329.6887979665256
 30
0.0
 11
393.2885367013847
 21
325.9826748799237
 31
0.0
  0
LINE
  5
32FF
330
18
100
AcDbEntity
  8
外形線
100
AcDbLine
 10
381.2885367013846
 20
329.6887979665256
 30
0.0
 11
381.2885367013846
 21
325.9826748799238
 31
0.0
  0
LINE
  5
3300
330
18
100
AcDbEntity
  8
外形線
100
AcDbLine
 10
393.2885367013847
 20
325.9826748799237
 30
0.0
 11
381.2885367013846
 21
325.9826748799238
 31
0.0
  0
LINE
  5
3301
330
18
100
AcDbEntity
  8
外形線
100
AcDbLine
 10
393.2885367013847
 20
325.9826748799237
 30
0.0
 11
392.2885367013847
 21
323.9826748799237
 31
0.0
  0
LINE
  5
3302
330
18
100
AcDbEntity
  8
外形線
100
AcDbLine
 10
381.2885367013846
 20
325.9826748799238
 30
0.0
 11
382.2885367013847
 21
323.9826748799238
 31
0.0
  0
LINE
  5
3303
330
18
100
AcDbEntity
  8
外形線
100
AcDbLine
 10
393.2885367013847
 20
326.4826748799237
 30
0.0
 11
381.2885367013846
 21
326.4826748799238
 31
0.0
  0
LINE
  5
3304
330
18
100
AcDbEntity
  8
外形線
100
AcDbLine
 10
385.2885367013847
 20
302.9826748799238
 30
0.0
 11
385.2885367013847
 21
285.4826748799238
 31
0.0
  0
LINE
  5
3305
330
18
100
AcDbEntity
  8
外形線
100
AcDbLine
 10
389.2885367013846
 20
302.9826748799238
 30
0.0
 11
389.2885367013846
 21
285.4826748799238
 31
0.0
  0
LINE
  5
330A
330
18
100
AcDbEntity
  8
外形線
100
AcDbLine
 10
388.0385367013847
 20
303.4826748799238
 30
0.0
 11
386.5385367013845
 21
303.4826748799238
 31
0.0
  0
LINE
  5
330B
330
18
100
AcDbEntity
  8
外形線
100
AcDbLine
 10
388.0385367013847
 20
304.9826748799238
 30
0.0
 11
386.5385367013845
 21
304.9826748799238
 31
0.0
  0
LINE
  5
330C
330
18
100
AcDbEntity
  8
外形線
100
AcDbLine
 10
391.0385367013847
 20
302.9826748799238
 30
0.0
 11
383.5385367013847
 21
302.9826748799238
 31
0.0
  0
LINE
  5
3311
330
18
100
AcDbEntity
  8
外形線
100
AcDbLine
 10
388.0385367013845
 20
307.7826748799239
 30
0.0
 11
386.5385367013845
 21
307.7826748799239
 31
0.0
  0
LINE
  5
3312
330
18
100
AcDbEntity
  8
外形線
100
AcDbLine
 10
391.0385367013847
 20
302.9826748799238
 30
0.0
 11
383.5385367013847
 21
302.9826748799238
 31
0.0
  0
LINE
  5
3314
330
18
100
AcDbEntity
  8
外形線
100
AcDbLine
 10
381.2885367013846
 20
398.9826748799238
 30
0.0
 11
381.2885367013846
 21
388.4826748799237
 31
0.0
  0
LINE
  5
3315
330
18
100
AcDbEntity
  8
外形線
100
AcDbLine
 10
393.2885367013847
 20
398.9826748799237
 30
0.0
 11
393.2885367013847
 21
388.4826748799237
 31
0.0
  0
ARC
  5
332F
330
18
100
AcDbEntity
  8
外形線
100
AcDbCircle
 10
387.2885367013847
 20
272.9826748799238
 30
0.0
 40
9.0
100
AcDbArc
 50
141.7867892982618
 51
38.21321070173821
  0
LINE
  5
3330
330
18
100
AcDbEntity
  8
外形線
100
AcDbLine
 10
393.2885367013847
 20
320.9826748799238
 30
0.0
 11
393.2885367013847
 21
281.6429289177682
 31
0.0
  0
LINE
  5
3331
330
18
100
AcDbEntity
  8
外形線
100
AcDbLine
 10
381.2885367013846
 20
320.9826748799238
 30
0.0
 11
381.2885367013846
 21
281.6429289177682
 31
0.0
  0
ARC
  5
3332
330
18
100
AcDbEntity
  8
外形線
100
AcDbCircle
 10
376.2885367013845
 20
281.6429289177682
 30
0.0
 40
5.0
100
AcDbArc
 50
321.7867892982618
 51
0.0
  0
ARC
  5
3333
330
18
100
AcDbEntity
  8
外形線
100
AcDbCircle
 10
398.2885367013847
 20
281.6429289177682
 30
0.0
 40
5.0
100
AcDbArc
 50
180.0
 51
218.2132107017381
  0
LINE
  5
3334
330
18
100
AcDbEntity
  8
外形線
100
AcDbLine
 10
393.2885367013847
 20
302.9826748799238
 30
0.0
 11
388.0385367013845
 21
302.9826748799238
 31
0.0
  0
LINE
  5
3335
330
18
100
AcDbEntity
  8
外形線
100
AcDbLine
 10
393.2885367013847
 20
320.9826748799238
 30
0.0
 11
388.0385367013845
 21
320.9826748799238
 31
0.0
  0
LINE
  5
3336
330
18
100
AcDbEntity
  8
外形線
100
AcDbLine
 10
392.2885367013845
 20
323.9826748799237
 30
0.0
 11
392.2885367013845
 21
320.9826748799238
 31
0.0
  0
LINE
  5
3337
330
18
100
AcDbEntity
  8
外形線
100
AcDbLine
 10
382.2885367013845
 20
323.9826748799239
 30
0.0
 11
382.2885367013845
 21
320.9826748799238
 31
0.0
  0
LINE
  5
3338
330
18
100
AcDbEntity
  8
外形線
100
AcDbLine
 10
388.0385367013845
 20
320.9826748799238
 30
0.0
 11
388.0385367013845
 21
302.9826748799238
 31
0.0
  0
LINE
  5
3339
330
18
100
AcDbEntity
  8
外形線
100
AcDbLine
 10
386.5385367013845
 20
320.9826748799238
 30
0.0
 11
386.5385367013845
 21
302.9826748799238
 31
0.0
  0
LINE
  5
333A
330
18
100
AcDbEntity
  8
外形線
100
AcDbLine
 10
386.5385367013845
 20
320.9826748799238
 30
0.0
 11
381.2885367013846
 21
320.9826748799238
 31
0.0
  0
LINE
  5
333B
330
18
100
AcDbEntity
  8
外形線
100
AcDbLine
 10
386.5385367013845
 20
302.9826748799238
 30
0.0
 11
381.2885367013846
 21
302.9826748799238
 31
0.0
  0
CIRCLE
  5
333D
330
18
100
AcDbEntity
  8
外形線
100
AcDbCircle
 10
387.2885367013847
 20
272.9826748799238
 30
0.0
 40
2.5
  0
LINE
  5
333E
330
18
100
AcDbEntity
  8
外形線
100
AcDbLine
 10
384.7885367013845
 20
285.4826748799238
 30
0.0
 11
389.7885367013845
 21
285.4826748799238
 31
0.0
  0
LINE
  5
333F
330
18
100
AcDbEntity
  8
外形線
100
AcDbLine
 10
387.2885367013847
 20
280.4826748799238
 30
0.0
 11
389.7885367013845
 21
280.4826748799238
 31
0.0
  0
LINE
  5
3340
330
18
100
AcDbEntity
  8
外形線
100
AcDbLine
 10
389.7885367013845
 20
280.4826748799238
 30
0.0
 11
388.4385367013846
 21
275.4826748799238
 31
0.0
  0
LINE
  5
3341
330
18
100
AcDbEntity
  8
ﾊｯﾁﾝｸ
 62
     4
100
AcDbLine
 10
387.2885367013847
 20
281.7807776393761
 30
0.0
 11
385.5623136684144
 21
285.4826748799238
 31
0.0
  0
LINE
  5
3342
330
18
100
AcDbEntity
  8
ﾊｯﾁﾝｸ
 62
     4
100
AcDbLine
 10
386.8428844913776
 20
280.4826748799238
 30
0.0
 11
384.7885367013847
 21
284.8882379326972
 31
0.0
  0
LINE
  5
3343
330
18
100
AcDbEntity
  8
ﾊｯﾁﾝｸ
 62
     4
100
AcDbLine
 10
384.7885367013847
 20
280.5454967117727
 30
0.0
 11
387.2885367013847
 21
284.8756237306949
 31
0.0
  0
LINE
  5
3344
330
18
100
AcDbEntity
  8
ﾊｯﾁﾝｸ
 62
     4
100
AcDbLine
 10
384.7885367013847
 20
282.4504967117727
 30
0.0
 11
386.5391655829975
 21
285.4826748799238
 31
0.0
  0
LINE
  5
3345
330
18
100
AcDbEntity
  8
外形線
100
AcDbLine
 10
384.7885367013845
 20
285.4826748799238
 30
0.0
 11
384.7885367013847
 21
280.4826748799238
 31
0.0
  0
LINE
  5
3346
330
18
100
AcDbEntity
  8
外形線
100
AcDbLine
 10
384.7885367013847
 20
280.4826748799238
 30
0.0
 11
386.1385367013847
 21
275.4826748799238
 31
0.0
  0
LINE
  5
3347
330
18
100
AcDbEntity
  8
外形線
100
AcDbLine
 10
387.2885367013847
 20
275.4826748799238
 30
0.0
 11
388.4385367013846
 21
275.4826748799238
 31
0.0
  0
LINE
  5
3348
330
18
100
AcDbEntity
  8
外形線
100
AcDbLine
 10
387.2885367013847
 20
275.4826748799238
 30
0.0
 11
386.1385367013847
 21
275.4826748799238
 31
0.0
  0
LINE
  5
3349
330
18
100
AcDbEntity
  8
ﾊｯﾁﾝｸ
 62
     4
100
AcDbLine
 10
385.7919170235658
 20
280.4826748799238
 30
0.0
 11
384.7885367013847
 21
282.6344309247445
 31
0.0
  0
LINE
  5
334A
330
18
100
AcDbEntity
  8
外形線
100
AcDbLine
 10
387.2885367013847
 20
280.4826748799238
 30
0.0
 11
384.7885367013847
 21
280.4826748799238
 31
0.0
  0
LINE
  5
334B
330
18
100
AcDbEntity
  8
ﾊｯﾁﾝｸ
 62
     4
100
AcDbLine
 10
386.9519710254682
 20
280.4826748799238
 30
0.0
 11
387.2885367013847
 21
281.0656237306949
 31
0.0
  0
LINE
  5
334C
330
18
100
AcDbEntity
  8
ﾊｯﾁﾝｸ
 62
     4
100
AcDbLine
 10
385.8521187626619
 20
280.4826748799238
 30
0.0
 11
387.2885367013847
 21
282.9706237306949
 31
0.0
  0
LINE
  5
334D
330
18
100
AcDbEntity
  8
ﾊｯﾁﾝｸ
 62
     4
100
AcDbLine
 10
384.7885367013845
 20
284.3554967117727
 30
0.0
 11
385.4393133201913
 21
285.4826748799238
 31
0.0
  0
LINE
  5
334E
330
18
100
AcDbEntity
  8
ﾊｯﾁﾝｸ
 62
     4
100
AcDbLine
 10
387.2885367013847
 20
284.0345846473288
 30
0.0
 11
386.6132811362261
 21
285.4826748799238
 31
0.0
  0
LINE
  5
334F
330
18
100
AcDbEntity
  8
外形線
100
AcDbLine
 10
389.7885367013845
 20
285.4826748799238
 30
0.0
 11
389.7885367013845
 21
280.4826748799238
 31
0.0
  0
LINE
  5
3350
330
18
100
AcDbEntity
  8
外形線
100
AcDbLine
 10
389.2885367013844
 20
302.9826748799238
 30
0.0
 11
389.2885367013844
 21
285.4826748799238
 31
0.0
  0
LINE
  5
3351
330
18
100
AcDbEntity
  8
外形線
100
AcDbLine
 10
385.2885367013847
 20
302.9826748799238
 30
0.0
 11
385.2885367013847
 21
285.4826748799238
 31
0.0
  0
LINE
  5
3352
330
18
100
AcDbEntity
  8
中心線
 48
0.5
100
AcDbLine
 10
376.7794237739472
 20
311.9826748799238
 30
0.0
 11
398.1040690836693
 21
311.9826748799238
 31
0.0
  0
LINE
  5
3353
330
18
100
AcDbEntity
  8
外形線
100
AcDbLine
 10
386.5385367013845
 20
314.4826748799238
 30
0.0
 11
388.0385367013845
 21
314.4826748799238
 31
0.0
  0
LINE
  5
3354
330
18
100
AcDbEntity
  8
外形線
100
AcDbLine
 10
386.5385367013845
 20
309.4826748799238
 30
0.0
 11
388.0385367013845
 21
309.4826748799238
 31
0.0
  0
LINE
  5
3355
330
18
100
AcDbEntity
  8
中心線
 48
0.5
100
AcDbLine
 10
386.5385367013845
 20
313.9826748799238
 30
0.0
 11
388.0385367013845
 21
313.9826748799238
 31
0.0
  0
LINE
  5
3356
330
18
100
AcDbEntity
  8
中心線
 48
0.5
100
AcDbLine
 10
386.5385367013845
 20
309.9826748799238
 30
0.0
 11
388.0385367013845
 21
309.9826748799238
 31
0.0
  0
LINE
  5
3357
330
18
100
AcDbEntity
  8
外形線
100
AcDbLine
 10
393.7885367013846
 20
316.4826748799238
 30
0.0
 11
393.2885367013847
 21
316.4826748799238
 31
0.0
  0
LINE
  5
3358
330
18
100
AcDbEntity
  8
外形線
100
AcDbLine
 10
393.7885367013846
 20
307.4826748799238
 30
0.0
 11
393.2885367013847
 21
307.4826748799238
 31
0.0
  0
LINE
  5
3359
330
18
100
AcDbEntity
  8
外形線
100
AcDbLine
 10
394.7885367013845
 20
315.4826748799238
 30
0.0
 11
394.7885367013845
 21
308.4826748799238
 31
0.0
  0
ARC
  5
335A
330
18
100
AcDbEntity
  8
外形線
100
AcDbCircle
 10
393.7885367013846
 20
315.4826748799238
 30
0.0
 40
1.0
100
AcDbArc
 50
0.0
 51
90.0
  0
ARC
  5
335B
330
18
100
AcDbEntity
  8
外形線
100
AcDbCircle
 10
393.7885367013846
 20
308.4826748799238
 30
0.0
 40
1.0
100
AcDbArc
 50
270.0
 51
0.0
  0
LINE
  5
335C
330
18
100
AcDbEntity
  8
隠れ線2
 48
0.1
100
AcDbLine
 10
393.9588387287187
 20
311.9826748799238
 30
0.0
 11
394.7885367013845
 21
312.8123728525896
 31
0.0
  0
LINE
  5
335D
330
18
100
AcDbEntity
  8
隠れ線2
 48
0.1
100
AcDbLine
 10
393.9588387287187
 20
311.9826748799238
 30
0.0
 11
394.7885367013845
 21
311.152976907258
 31
0.0
  0
LINE
  5
3582
330
18
100
AcDbEntity
  8
外形線
100
AcDbLine
 10
381.2885367013846
 20
320.9826748799238
 30
0.0
 11
381.2885367013846
 21
329.6826748799237
 31
0.0
  0
LINE
  5
3583
330
18
100
AcDbEntity
  8
外形線
100
AcDbLine
 10
393.2885367013847
 20
320.9826748799238
 30
0.0
 11
393.2885367013847
 21
329.6887979665256
 31
0.0
  0
LINE
  5
3604
330
18
100
AcDbEntity
  8
外形線
100
AcDbLine
 10
489.2049296756185
 20
359.0826748799238
 30
0.0
 11
496.2049296756186
 21
359.0826748799238
 31
0.0
  0
LINE
  5
3BFE
330
18
100
AcDbEntity
  8
外形線
100
AcDbLine
 10
473.2049296756185
 20
398.0826748799237
 30
0.0
 11
473.2049296756185
 21
389.4964875314148
 31
0.0
  0
LINE
  5
3BFF
330
18
100
AcDbEntity
  8
外形線
100
AcDbLine
 10
461.2049296756191
 20
389.496487531415
 30
0.0
 11
461.2049296756186
 21
406.0826748799237
 31
0.0
  0
LINE
  5
3C01
330
18
100
AcDbEntity
  8
外形線
100
AcDbLine
 10
462.2049296756188
 20
406.0826748799237
 30
0.0
 11
472.2049296756188
 21
406.0826748799237
 31
0.0
  0
POINT
  5
3C02
330
18
100
AcDbEntity
  8
DEFPOINTS
  6
ByBlock
 62
     0
100
AcDbPoint
 10
462.2049296756188
 20
406.0826748799237
 30
0.0
  0
CIRCLE
  5
3C03
330
18
100
AcDbEntity
  8
外形線
100
AcDbCircle
 10
493.2049296756185
 20
403.5826748799236
 30
0.0
 40
1.149999999999999
  0
LINE
  5
3C04
330
18
100
AcDbEntity
  8
中心線
 48
0.2
100
AcDbLine
 10
493.2049296756185
 20
406.5168721534111
 30
0.0
 11
493.2049296756185
 21
400.6484776064363
 31
0.0
  0
LINE
  5
3C05
330
18
100
AcDbEntity
  8
外形線
100
AcDbLine
 10
459.2049296756186
 20
406.0826748799237
 30
0.0
 11
487.8223536701571
 21
406.0826748799237
 31
0.0
  0
LINE
  5
3C06
330
18
100
AcDbEntity
  8
隠れ線2
 48
0.7
100
AcDbLine
 10
487.8223536701571
 20
406.0826748799237
 30
0.0
 11
497.2049296756186
 21
406.0826748799237
 31
0.0
  0
LINE
  5
3C07
330
18
100
AcDbEntity
  8
外形線
100
AcDbLine
 10
459.2049296756186
 20
398.0826748799237
 30
0.0
 11
497.2049296756186
 21
398.0826748799237
 31
0.0
  0
LINE
  5
3C08
330
18
100
AcDbEntity
  8
外形線
100
AcDbLine
 10
459.2049296756186
 20
406.0826748799237
 30
0.0
 11
459.2049296756186
 21
398.0826748799237
 31
0.0
  0
LINE
  5
3C09
330
18
100
AcDbEntity
  8
隠れ線2
 48
0.7
100
AcDbLine
 10
497.2049296756186
 20
406.0826748799237
 30
0.0
 11
497.2049296756186
 21
401.5021101628159
 31
0.0
  0
LINE
  5
3C0A
330
18
100
AcDbEntity
  8
外形線
100
AcDbLine
 10
497.2049296756186
 20
401.5021101628159
 30
0.0
 11
497.2049296756186
 21
398.0826748799237
 31
0.0
  0
LINE
  5
3C0B
330
18
100
AcDbEntity
  8
外形線
100
AcDbLine
 10
484.2049296756186
 20
406.0826748799236
 30
0.0
 11
484.2049296756186
 21
398.0826748799236
 31
0.0
  0
LINE
  5
3C0C
330
18
100
AcDbEntity
  8
外形線
100
AcDbLine
 10
487.2049296756186
 20
406.0826748799237
 30
0.0
 11
487.2049296756186
 21
398.0826748799237
 31
0.0
  0
LINE
  5
3C0D
330
18
100
AcDbEntity
  8
中心線
 48
0.3
100
AcDbLine
 10
477.2049296756185
 20
407.3186334348488
 30
0.0
 11
477.2049296756185
 21
396.8467163249984
 31
0.0
  0
LINE
  5
3C0E
330
18
100
AcDbEntity
  8
中心線
 48
0.3
100
AcDbLine
 10
471.9689711206934
 20
402.0826748799237
 30
0.0
 11
482.4408882305439
 21
402.0826748799237
 31
0.0
  0
CIRCLE
  5
3C0F
330
18
100
AcDbEntity
  8
外形線
100
AcDbCircle
 10
477.2049296756185
 20
402.0826748799237
 30
0.0
 40
2.75
  0
LWPOLYLINE
  5
3C10
330
18
100
AcDbEntity
  8
外形線
100
AcDbPolyline
 90
        6
 70
     1
 43
0.0
 10
478.7676341441043
 20
401.1802023903157
 10
478.7678460120784
 20
402.984780403436
 10
477.2051415435925
 20
403.8872528930436
 10
475.6422252071327
 20
402.9851473695313
 10
475.6420133391586
 20
401.1805693564112
 10
477.2047178076446
 20
400.2780968668036
  0
CIRCLE
  5
3C11
330
18
100
AcDbEntity
  8
外形線
100
AcDbCircle
 10
477.2049296756185
 20
402.0826748799237
 30
0.0
 40
3.0
  0
LINE
  5
3C12
330
18
100
AcDbEntity
  8
中心線
 48
0.2
100
AcDbLine
 10
490.11140909679
 20
403.5826748799236
 30
0.0
 11
496.2984502544474
 21
403.5826748799236
 31
0.0
  0
CIRCLE
  5
3C13
330
18
100
AcDbEntity
  8
外形線
100
AcDbCircle
 10
493.2049296756185
 20
403.5826748799236
 30
0.0
 40
1.0
  0
LINE
  5
3C14
330
18
100
AcDbEntity
  8
外形線
100
AcDbLine
 10
463.7049296756186
 20
411.9826748799237
 30
0.0
 11
470.7049296756188
 21
411.9826748799237
 31
0.0
  0
LINE
  5
3C15
330
18
100
AcDbEntity
  8
外形線
100
AcDbLine
 10
463.2049296756186
 20
407.5826748799237
 30
0.0
 11
471.2049296756186
 21
407.5826748799237
 31
0.0
  0
LINE
  5
3C16
330
18
100
AcDbEntity
  8
外形線
100
AcDbLine
 10
463.2049296756186
 20
407.5826748799237
 30
0.0
 11
463.2049296756186
 21
406.0826748799237
 31
0.0
  0
LINE
  5
3C17
330
18
100
AcDbEntity
  8
外形線
100
AcDbLine
 10
471.2049296756186
 20
407.5826748799237
 30
0.0
 11
471.2049296756186
 21
406.0826748799237
 31
0.0
  0
LINE
  5
3C18
330
18
100
AcDbEntity
  8
外形線
100
AcDbLine
 10
464.2049296756188
 20
409.0826748799237
 30
0.0
 11
464.2049296756188
 21
407.5826748799237
 31
0.0
  0
LINE
  5
3C19
330
18
100
AcDbEntity
  8
外形線
100
AcDbLine
 10
470.2049296756188
 20
409.0826748799237
 30
0.0
 11
470.2049296756188
 21
407.5826748799237
 31
0.0
  0
LINE
  5
3C1A
330
18
100
AcDbEntity
  8
外形線
100
AcDbLine
 10
463.2049296756186
 20
409.0826748799237
 30
0.0
 11
471.2049296756186
 21
409.0826748799234
 31
0.0
  0
LINE
  5
3C1B
330
18
100
AcDbEntity
  8
外形線
100
AcDbLine
 10
463.2049296756186
 20
411.4826748799236
 30
0.0
 11
463.2049296756186
 21
409.0826748799237
 31
0.0
  0
LINE
  5
3C1C
330
18
100
AcDbEntity
  8
外形線
100
AcDbLine
 10
471.2049296756186
 20
411.4826748799236
 30
0.0
 11
471.2049296756186
 21
409.0826748799234
 31
0.0
  0
LINE
  5
3C1D
330
18
100
AcDbEntity
  8
外形線
100
AcDbLine
 10
465.2049296756188
 20
412.288223734034
 30
0.0
 11
465.2049296756188
 21
411.9826748799237
 31
0.0
  0
LINE
  5
3C1E
330
18
100
AcDbEntity
  8
外形線
100
AcDbLine
 10
469.2049296756188
 20
412.4606754164698
 30
0.0
 11
469.2049296756188
 21
411.9826748799237
 31
0.0
  0
LINE
  5
3C1F
330
18
100
AcDbEntity
  8
外形線
100
AcDbLine
 10
463.2049296756186
 20
411.4826748799236
 30
0.0
 11
463.7049296756186
 21
411.9826748799237
 31
0.0
  0
LINE
  5
3C20
330
18
100
AcDbEntity
  8
外形線
100
AcDbLine
 10
470.7049296756188
 20
411.9826748799237
 30
0.0
 11
471.2049296756186
 21
411.4826748799236
 31
0.0
  0
LINE
  5
3C21
330
18
100
AcDbEntity
  8
外形線
100
AcDbLine
 10
463.2049296756186
 20
411.4826748799236
 30
0.0
 11
471.2049296756186
 21
411.4826748799236
 31
0.0
  0
LINE
  5
3C22
330
18
100
AcDbEntity
  8
外形線
100
AcDbLine
 10
465.2049296756188
 20
414.3151602364078
 30
0.0
 11
465.2049296756188
 21
413.866989498168
 31
0.0
  0
LINE
  5
3C23
330
18
100
AcDbEntity
  8
外形線
100
AcDbLine
 10
469.2049296756188
 20
414.3151602364078
 30
0.0
 11
469.2049296756188
 21
414.0321775905543
 31
0.0
  0
LINE
  5
3C24
330
18
100
AcDbEntity
  8
外形線
100
AcDbLine
 10
462.9549296756186
 20
414.3151602364078
 30
0.0
 11
471.4549296756185
 21
414.3151602364076
 31
0.0
  0
LINE
  5
3C2E
330
18
100
AcDbEntity
  8
外形線
100
AcDbLine
 10
485.0528796704135
 20
412.1319269258605
 30
0.0
 11
489.7141273544671
 21
401.9505487681345
 31
0.0
  0
LINE
  5
3C2F
330
18
100
AcDbEntity
  8
外形線
100
AcDbLine
 10
495.8093779030074
 20
400.4235751303081
 30
0.0
 11
505.063057565813
 21
407.5751677059566
 31
0.0
  0
ARC
  5
3C30
330
18
100
AcDbEntity
  8
外形線
100
AcDbCircle
 10
493.363369057323
 20
403.5885460190896
 30
0.0
 40
4.0
100
AcDbArc
 50
204.1733862924478
 51
307.6982020679207
  0
LINE
  5
3C31
330
18
100
AcDbEntity
  8
外形線
100
AcDbLine
 10
484.5584838493146
 20
412.2105951480866
 30
0.0
 11
484.249219038457
 21
410.7408251035431
 31
0.0
  0
LINE
  5
3C32
330
18
100
AcDbEntity
  8
外形線
100
AcDbLine
 10
485.0528796704135
 20
412.1319269258605
 30
0.0
 11
484.7436532813277
 21
410.6623394794226
 31
0.0
  0
LINE
  5
3C33
330
18
100
AcDbEntity
  8
外形線
100
AcDbLine
 10
505.5384249223722
 20
407.4060673809109
 30
0.0
 11
505.2284442075448
 21
405.9328950281407
 31
0.0
  0
LINE
  5
3C34
330
18
100
AcDbEntity
  8
外形線
100
AcDbLine
 10
505.0634326395127
 20
407.5769502304106
 30
0.0
 11
504.7524547624131
 21
406.0990388993134
 31
0.0
  0
LINE
  5
3C35
330
18
100
AcDbEntity
  8
外形線
100
AcDbLine
 10
484.5561586723629
 20
412.1995448270943
 30
0.0
 11
483.1310862989226
 21
410.9136414986374
 31
0.0
  0
ARC
  5
3C36
330
18
100
AcDbEntity
  8
隠れ線2
 48
0.7
100
AcDbCircle
 10
453.139915438003
 20
213.1751157484071
 30
0.0
 40
200.0
100
AcDbArc
 50
78.11733186598491
 51
80.60009829598859
  0
ARC
  5
3C37
330
18
100
AcDbEntity
  8
外形線
100
AcDbCircle
 10
473.7307333211743
 20
311.0322474195431
 30
0.0
 40
100.0
100
AcDbArc
 50
62.47549668420597
 51
72.60833947687075
  0
ARC
  5
3C38
330
18
100
AcDbEntity
  8
隠れ線2
 48
0.7
100
AcDbCircle
 10
473.7307333211743
 20
311.0322474195431
 30
0.0
 40
100.0
100
AcDbArc
 50
72.60833947687075
 51
78.11733186598491
  0
ARC
  5
3C39
330
18
100
AcDbEntity
  8
外形線
100
AcDbCircle
 10
473.7307333211743
 20
311.0322474195431
 30
0.0
 40
101.5
100
AcDbArc
 50
62.49709628521715
 51
78.11733186598491
  0
ARC
  5
3C3A
330
18
100
AcDbEntity
  8
外形線
100
AcDbCircle
 10
526.2085013728587
 20
413.3425909333172
 30
0.0
 40
13.5
100
AcDbArc
 50
243.0815349963757
 51
291.253607191979
  0
ARC
  5
3C3B
330
18
100
AcDbEntity
  8
外形線
100
AcDbCircle
 10
526.2085013728587
 20
413.3425909333172
 30
0.0
 40
15.0
100
AcDbArc
 50
245.3127360061074
 51
291.196854021196
  0
LINE
  5
3C3C
330
18
100
AcDbEntity
  8
外形線
100
AcDbLine
 10
531.633197567096
 20
399.3545347377635
 30
0.0
 11
531.1022070163938
 21
400.7607927679343
 31
0.0
  0
ARC
  5
3C3D
330
18
100
AcDbEntity
  8
外形線
100
AcDbCircle
 10
457.7977810211308
 20
245.4958274705496
 30
0.0
 40
167.3539295215424
100
AcDbArc
 50
80.36611490834463
 51
85.98079412107615
  0
ARC
  5
3C3E
330
18
100
AcDbEntity
  8
外形線
100
AcDbCircle
 10
453.139915438003
 20
213.1751157484071
 30
0.0
 40
201.5
100
AcDbArc
 50
78.11733186598491
 51
85.41140345185956
  0
ARC
  5
3C3F
330
18
100
AcDbEntity
  8
外形線
100
AcDbCircle
 10
467.9754346815748
 20
392.4985026374456
 30
0.0
 40
19.99999999999998
100
AcDbArc
 50
85.54843338237336
 51
170.1082967648256
  0
ARC
  5
3C40
330
18
100
AcDbEntity
  8
外形線
100
AcDbCircle
 10
468.093485997597
 20
392.4333517351194
 30
0.0
 40
21.62740357469704
100
AcDbArc
 50
86.9080835997755
 51
170.1601663291244
  0
LINE
  5
3C41
330
18
100
AcDbEntity
  8
外形線
100
AcDbLine
 10
446.7842361103008
 20
396.1293569601649
 30
0.0
 11
448.2727504382096
 21
395.9342316148605
 31
0.0
  0
LINE
  5
3C42
330
18
100
AcDbEntity
  8
外形線
100
AcDbLine
 10
392.2885367013847
 20
406.9826748799236
 30
0.0
 11
391.2885367013847
 21
406.9826748799236
 31
0.0
  0
LINE
  5
3C43
330
18
100
AcDbEntity
  8
外形線
100
AcDbLine
 10
389.4385367013846
 20
406.9826748799236
 30
0.0
 11
385.1385367013845
 21
406.9826748799236
 31
0.0
  0
LINE
  5
3C44
330
18
100
AcDbEntity
  8
外形線
100
AcDbLine
 10
383.2885367013846
 20
406.9826748799236
 30
0.0
 11
382.2885367013847
 21
406.9826748799236
 31
0.0
  0
LINE
  5
3C45
330
18
100
AcDbEntity
  8
外形線
100
AcDbLine
 10
389.4385367013846
 20
407.7826748799237
 30
0.0
 11
385.1385367013845
 21
407.7826748799237
 31
0.0
  0
LINE
  5
3C46
330
18
100
AcDbEntity
  8
外形線
100
AcDbLine
 10
389.4385367013846
 20
408.5826748799235
 30
0.0
 11
385.1385367013845
 21
408.5826748799235
 31
0.0
  0
LINE
  5
3C47
330
18
100
AcDbEntity
  8
外形線
100
AcDbLine
 10
389.4385367013846
 20
412.7826748799237
 30
0.0
 11
385.1385367013845
 21
412.7826748799237
 31
0.0
  0
LINE
  5
3C48
330
18
100
AcDbEntity
  8
外形線
100
AcDbLine
 10
389.2885367013846
 20
413.2826748799237
 30
0.0
 11
385.2885367013847
 21
413.2826748799237
 31
0.0
  0
LINE
  5
3C49
330
18
100
AcDbEntity
  8
外形線
100
AcDbLine
 10
391.2885367013847
 20
407.7826748799237
 30
0.0
 11
391.2885367013847
 21
406.9826748799236
 31
0.0
  0
POINT
  5
3C4A
330
18
100
AcDbEntity
  8
外形線
  6
ByBlock
 62
     0
100
AcDbPoint
 10
392.2885367013847
 20
406.9826748799236
 30
0.0
  0
LINE
  5
3C4B
330
18
100
AcDbEntity
  8
外形線
100
AcDbLine
 10
383.2885367013846
 20
407.7826748799237
 30
0.0
 11
383.2885367013846
 21
406.9826748799236
 31
0.0
  0
LINE
  5
3C4C
330
18
100
AcDbEntity
  8
外形線
100
AcDbLine
 10
383.2885367013846
 20
412.2826748799237
 30
0.0
 11
383.2885367013846
 21
408.5826748799237
 31
0.0
  0
LINE
  5
3C4D
330
18
100
AcDbEntity
  8
外形線
100
AcDbLine
 10
391.2885367013847
 20
412.2826748799237
 30
0.0
 11
391.2885367013847
 21
408.5826748799237
 31
0.0
  0
LINE
  5
3C4E
330
18
100
AcDbEntity
  8
外形線
100
AcDbLine
 10
385.1385367013845
 20
412.2826748799237
 30
0.0
 11
389.4385367013846
 21
412.2826748799234
 31
0.0
  0
LINE
  5
3C4F
330
18
100
AcDbEntity
  8
外形線
100
AcDbLine
 10
385.2885367013847
 20
413.2826748799237
 30
0.0
 11
385.2885367013847
 21
412.7826748799237
 31
0.0
  0
LINE
  5
3C50
330
18
100
AcDbEntity
  8
外形線
100
AcDbLine
 10
389.2885367013846
 20
413.2826748799237
 30
0.0
 11
389.2885367013846
 21
412.7826748799237
 31
0.0
  0
LINE
  5
3C51
330
18
100
AcDbEntity
  8
外形線
100
AcDbLine
 10
389.2885367013846
 20
415.6151602364077
 30
0.0
 11
389.2885367013846
 21
413.2826748799237
 31
0.0
  0
LINE
  5
3C52
330
18
100
AcDbEntity
  8
外形線
100
AcDbLine
 10
385.2885367013847
 20
415.6151602364077
 30
0.0
 11
385.2885367013847
 21
413.2826748799237
 31
0.0
  0
LINE
  5
3C53
330
18
100
AcDbEntity
  8
外形線
100
AcDbLine
 10
391.2885367013847
 20
415.6151602364077
 30
0.0
 11
391.2885367013847
 21
395.9342316148605
 31
0.0
  0
LINE
  5
3C54
330
18
100
AcDbEntity
  8
外形線
100
AcDbLine
 10
383.2885367013846
 20
415.6151602364077
 30
0.0
 11
383.2885367013846
 21
395.9342316148605
 31
0.0
  0
LINE
  5
3C56
330
18
100
AcDbEntity
  8
外形線
100
AcDbLine
 10
389.2885367013846
 20
415.6151602364077
 30
0.0
 11
385.2885367013847
 21
415.6151602364077
 31
0.0
  0
LINE
  5
3C57
330
18
100
AcDbEntity
  8
外形線
100
AcDbLine
 10
391.5385367013847
 20
415.6151602364078
 30
0.0
 11
383.0385367013846
 21
415.6151602364077
 31
0.0
  0
LINE
  5
3C61
330
18
100
AcDbEntity
  8
外形線
100
AcDbLine
 10
385.1385367013845
 20
415.6151602364077
 30
0.0
 11
385.1385367013845
 21
395.9342316148605
 31
0.0
  0
LINE
  5
3C62
330
18
100
AcDbEntity
  8
外形線
100
AcDbLine
 10
389.4385367013846
 20
415.6151602364077
 30
0.0
 11
389.4385367013846
 21
395.9342316148605
 31
0.0
  0
LINE
  5
3C63
330
18
100
AcDbEntity
  8
外形線
100
AcDbLine
 10
394.2885367013847
 20
402.8842336032219
 30
0.0
 11
394.2885367013847
 21
398.9826748799238
 31
0.0
  0
LINE
  5
3C64
330
18
100
AcDbEntity
  8
外形線
100
AcDbLine
 10
380.2885367013847
 20
406.9826748799236
 30
0.0
 11
380.2885367013847
 21
402.8889240277703
 31
0.0
  0
LINE
  5
3C65
330
18
100
AcDbEntity
  8
外形線
100
AcDbLine
 10
380.2885367013847
 20
402.8889240277703
 30
0.0
 11
380.2885367013847
 21
398.9826748799238
 31
0.0
  0
LINE
  5
3C66
330
18
100
AcDbEntity
  8
外形線
100
AcDbLine
 10
380.2885367013847
 20
398.9826748799238
 30
0.0
 11
383.2885367013846
 21
398.9826748799238
 31
0.0
  0
LINE
  5
3C67
330
18
100
AcDbEntity
  8
外形線
100
AcDbLine
 10
385.1385367013845
 20
398.9826748799238
 30
0.0
 11
389.4385367013846
 21
398.9826748799237
 31
0.0
  0
LINE
  5
3C68
330
18
100
AcDbEntity
  8
外形線
100
AcDbLine
 10
391.2885367013847
 20
398.9826748799237
 30
0.0
 11
394.2885367013847
 21
398.9826748799237
 31
0.0
  0
LINE
  5
3C69
330
18
100
AcDbEntity
  8
外形線
100
AcDbLine
 10
394.2885367013847
 20
406.9826748799236
 30
0.0
 11
391.2885367013847
 21
406.9826748799236
 31
0.0
  0
LINE
  5
3C6A
330
18
100
AcDbEntity
  8
外形線
100
AcDbLine
 10
389.4385367013846
 20
406.9826748799236
 30
0.0
 11
385.1385367013845
 21
406.9826748799236
 31
0.0
  0
LINE
  5
3C6B
330
18
100
AcDbEntity
  8
外形線
100
AcDbLine
 10
383.2885367013846
 20
406.9826748799236
 30
0.0
 11
380.2885367013847
 21
406.9826748799236
 31
0.0
  0
LINE
  5
3C6C
330
18
100
AcDbEntity
  8
外形線
100
AcDbLine
 10
389.4385367013846
 20
413.7836313045081
 30
0.0
 11
391.2885367013847
 21
413.7836313045081
 31
0.0
  0
LINE
  5
3C6D
330
18
100
AcDbEntity
  8
外形線
100
AcDbLine
 10
385.1385367013845
 20
413.7836313045081
 30
0.0
 11
383.2885367013846
 21
413.7836313045081
 31
0.0
  0
LINE
  5
3C6E
330
18
100
AcDbEntity
  8
外形線
100
AcDbLine
 10
392.2885367013847
 20
406.9826748799236
 30
0.0
 11
392.2885367013847
 21
398.9826748799238
 31
0.0
  0
LINE
  5
3C6F
330
18
100
AcDbEntity
  8
外形線
100
AcDbLine
 10
382.2885367013847
 20
398.9826748799238
 30
0.0
 11
382.2885367013847
 21
406.9826748799236
 31
0.0
  0
LINE
  5
3C70
330
18
100
AcDbEntity
  8
外形線
100
AcDbLine
 10
381.7885367013847
 20
412.5109094946036
 30
0.0
 11
381.7885367013847
 21
406.9826748799237
 31
0.0
  0
LINE
  5
3C71
330
18
100
AcDbEntity
  8
外形線
100
AcDbLine
 10
394.2885367013847
 20
406.9826748799236
 30
0.0
 11
394.2885367013847
 21
402.8889240277703
 31
0.0
  0
ARC
  5
3C72
330
18
100
AcDbEntity
  8
外形線
100
AcDbCircle
 10
381.9885367013847
 20
412.5109094946036
 30
0.0
 40
0.2
100
AcDbArc
 50
90.0
 51
180.0
  0
LINE
  5
3C73
330
18
100
AcDbEntity
  8
外形線
100
AcDbLine
 10
381.9885367013847
 20
412.7109094946034
 30
0.0
 11
383.2885367013846
 21
412.7109094946034
 31
0.0
  0
LINE
  5
3C74
330
18
100
AcDbEntity
  8
外形線
100
AcDbLine
 10
392.7885367013848
 20
412.5109094946036
 30
0.0
 11
392.7885367013848
 21
406.9826748799237
 31
0.0
  0
ARC
  5
3C75
330
18
100
AcDbEntity
  8
外形線
100
AcDbCircle
 10
392.5885367013848
 20
412.5109094946036
 30
0.0
 40
0.2
100
AcDbArc
 50
0.0
 51
90.0
  0
LINE
  5
3C76
330
18
100
AcDbEntity
  8
外形線
100
AcDbLine
 10
392.5885367013848
 20
412.7109094946034
 30
0.0
 11
391.2885367013847
 21
412.7109094946034
 31
0.0
  0
LINE
  5
3C77
330
18
100
AcDbEntity
  8
外形線
100
AcDbLine
 10
391.2885367013847
 20
395.9342316148605
 30
0.0
 11
389.4385367013846
 21
395.9342316148605
 31
0.0
  0
LINE
  5
3C78
330
18
100
AcDbEntity
  8
外形線
100
AcDbLine
 10
385.1385367013845
 20
395.9342316148605
 30
0.0
 11
383.2885367013846
 21
395.9342316148605
 31
0.0
  0
LINE
  5
3C79
330
18
100
AcDbEntity
  8
外形線
100
AcDbLine
 10
391.2885367013847
 20
396.4543462774858
 30
0.0
 11
389.4385367013846
 21
396.4543462774857
 31
0.0
  0
LINE
  5
3C7A
330
18
100
AcDbEntity
  8
外形線
100
AcDbLine
 10
385.1385367013845
 20
396.4543462774858
 30
0.0
 11
383.2885367013846
 21
396.4543462774858
 31
0.0
  0
LINE
  5
3E0B
330
18
100
AcDbEntity
  8
外形線
100
AcDbLine
 10
462.9549296756185
 20
416.3151602364078
 30
0.0
 11
471.4549296756185
 21
416.3151602364075
 31
0.0
  0
LINE
  5
3E0C
330
18
100
AcDbEntity
  8
外形線
100
AcDbLine
 10
462.9549296756185
 20
416.3151602364076
 30
0.0
 11
462.9549296756186
 21
414.3151602364078
 31
0.0
  0
LINE
  5
3E0D
330
18
100
AcDbEntity
  8
外形線
100
AcDbLine
 10
471.4549296756185
 20
416.3151602364075
 30
0.0
 11
471.4549296756186
 21
414.3151602364076
 31
0.0
  0
LINE
  5
3E0E
330
18
100
AcDbEntity
  8
外形線
100
AcDbLine
 10
466.3047051787295
 20
416.3151602364076
 30
0.0
 11
466.3047051787295
 21
414.3151602364078
 31
0.0
  0
LINE
  5
3E0F
330
18
100
AcDbEntity
  8
外形線
100
AcDbLine
 10
465.3956854089231
 20
416.3151602364076
 30
0.0
 11
465.3956854089231
 21
414.3151602364078
 31
0.0
  0
LINE
  5
3E10
330
18
100
AcDbEntity
  8
外形線
100
AcDbLine
 10
464.5515955081028
 20
416.3151602364076
 30
0.0
 11
464.5515955081028
 21
414.3151602364078
 31
0.0
  0
LINE
  5
3E11
330
18
100
AcDbEntity
  8
外形線
100
AcDbLine
 10
463.7075064092821
 20
416.3151602364076
 30
0.0
 11
463.7075064092821
 21
414.3151602364078
 31
0.0
  0
LINE
  5
3E12
330
18
100
AcDbEntity
  8
外形線
100
AcDbLine
 10
467.2049296756183
 20
416.3151602364076
 30
0.0
 11
467.2049296756183
 21
414.3151602364078
 31
0.0
  0
LINE
  5
3E13
330
18
100
AcDbEntity
  8
外形線
100
AcDbLine
 10
383.0385367013845
 20
417.6151602364077
 30
0.0
 11
391.5385367013845
 21
417.6151602364076
 31
0.0
  0
LINE
  5
3E14
330
18
100
AcDbEntity
  8
外形線
100
AcDbLine
 10
383.0385367013845
 20
417.6151602364076
 30
0.0
 11
383.0385367013846
 21
415.6151602364077
 31
0.0
  0
LINE
  5
3E15
330
18
100
AcDbEntity
  8
外形線
100
AcDbLine
 10
391.5385367013845
 20
417.6151602364076
 30
0.0
 11
391.5385367013847
 21
415.6151602364076
 31
0.0
  0
LINE
  5
3E16
330
18
100
AcDbEntity
  8
外形線
100
AcDbLine
 10
386.3883122044955
 20
417.6151602364076
 30
0.0
 11
386.3883122044955
 21
415.6151602364078
 31
0.0
  0
LINE
  5
3E17
330
18
100
AcDbEntity
  8
外形線
100
AcDbLine
 10
385.479292434689
 20
417.6151602364076
 30
0.0
 11
385.479292434689
 21
415.6151602364078
 31
0.0
  0
LINE
  5
3E18
330
18
100
AcDbEntity
  8
外形線
100
AcDbLine
 10
384.6352025338689
 20
417.6151602364076
 30
0.0
 11
384.6352025338689
 21
415.6151602364078
 31
0.0
  0
LINE
  5
3E19
330
18
100
AcDbEntity
  8
外形線
100
AcDbLine
 10
383.7911134350481
 20
417.6151602364076
 30
0.0
 11
383.7911134350481
 21
415.6151602364078
 31
0.0
  0
LINE
  5
3E1A
330
18
100
AcDbEntity
  8
外形線
100
AcDbLine
 10
387.2885367013844
 20
417.6151602364076
 30
0.0
 11
387.2885367013844
 21
415.6151602364078
 31
0.0
  0
LINE
  5
3E31
330
18
100
AcDbEntity
  8
寸法線
 62
     2
100
AcDbLine
 10
466.054
 20
275.4826748799238
 30
0.0
 11
452.750751284137
 21
275.4826748799238
 31
0.0
  0
LINE
  5
3E32
330
18
100
AcDbEntity
  8
寸法線
 62
     2
100
AcDbLine
 10
464.7049296756185
 20
285.4826748799238
 30
0.0
 11
452.750751284137
 21
285.4826748799238
 31
0.0
  0
LINE
  5
3E33
330
18
100
AcDbEntity
  8
寸法線
 62
     2
100
AcDbLine
 10
454.0007512841368
 20
277.9826748799238
 30
0.0
 11
454.0007512841368
 21
282.9826748799238
 31
0.0
  0
INSERT
  5
3E34
330
18
100
AcDbEntity
  8
寸法線
 62
     2
100
AcDbBlockReference
  2
_OPEN
 10
454.0007512841368
 20
275.4826748799238
 30
0.0
 41
2.5
 42
2.5
 43
2.5
 50
270.0
  0
INSERT
  5
3E35
330
18
100
AcDbEntity
  8
寸法線
 62
     2
100
AcDbBlockReference
  2
_OPEN
 10
454.0007512841368
 20
285.4826748799238
 30
0.0
 41
2.5
 42
2.5
 43
2.5
 50
90.0
  0
MTEXT
  5
3E36
330
18
100
AcDbEntity
  8
寸法線
 62
     6
100
AcDbMText
 10
452.1257512841368
 20
280.4826748799239
 30
0.0
 40
2.5
 41
0.0
 71
     5
 72
     1
  1
\A1;10
  7
STYLE3
 11
0.0000000000000001
 21
1.0
 31
0.0
 73
     1
 44
1.0
  0
TEXT
  5
3E59
330
18
100
AcDbEntity
  8
文字
100
AcDbText
 10
414.6354503428795
 20
444.6144360622329
 30
0.0
 40
3.5
  1
Model No.P2-257 Digital Pipe Gauge
  7
STYLE3
100
AcDbText
  0
LINE
  5
3E5A
330
18
100
AcDbEntity
  8
外形線
100
AcDbLine
 10
414.2234213428793
 20
442.3296440622329
 30
0.0
 11
510.2234213428793
 21
442.3296440622329
 31
0.0
  0
LINE
  5
3E5B
330
18
100
AcDbEntity
  8
外形線
100
AcDbLine
 10
414.2234213428793
 20
441.3296440622329
 30
0.0
 11
510.2234213428793
 21
441.3296440622329
 31
0.0
  0
LINE
  5
3E5D
330
18
100
AcDbEntity
  8
外形線
100
AcDbLine
 10
415.1009575096153
 20
233.2201006340288
 30
0.0
 11
555.8923755096153
 21
233.2201006340288
 31
0.0
  0
LINE
  5
3E5E
330
18
100
AcDbEntity
  8
外形線
100
AcDbLine
 10
415.1009575096153
 20
222.4398946340288
 30
0.0
 11
555.8923755096153
 21
222.4398946340288
 31
0.0
  0
TEXT
  5
3E5F
330
18
100
AcDbEntity
  8
0
  6
Continuous
100
AcDbText
 10
416.5584245096153
 20
224.3378846340288
 30
0.0
 40
2.1
  1
Design and specifications are subject to change without notice for future improvement.
  7
STYLE3
100
AcDbText
  0
TEXT
  5
3E60
330
18
100
AcDbEntity
  8
0
  6
Continuous
100
AcDbText
 10
416.8499185096155
 20
228.2670326340288
 30
0.0
 40
3.5
  1
仕様及び外観は予告なく変更される場合がございますのでご了承下さい。
  7
STYLE3
100
AcDbText
  0
TEXT
  5
3E61
330
18
100
AcDbEntity
  8
0
  6
Continuous
100
AcDbText
 10
416.2669335096154
 20
214.5732566340289
 30
0.0
 40
2.1
  1
3RD Angle Projection
  7
STYLE3
100
AcDbText
  0
TEXT
  5
3E62
330
18
100
AcDbEntity
  8
0
  6
Continuous
100
AcDbText
 10
418.8903765096155
 20
218.0695396340289
 30
0.0
 40
3.0
  1
三　　角　　法
  7
STYLE3
100
AcDbText
  0
LINE
  5
3E63
330
18
100
AcDbEntity
  8
外形線
100
AcDbLine
 10
415.1009575096153
 20
212.8251166340288
 30
0.0
 11
415.1009575096153
 21
233.2201006340288
 31
0.0
  0
LINE
  5
3E64
330
18
100
AcDbEntity
  8
外形線
100
AcDbLine
 10
517.1237245096155
 20
222.4398946340288
 30
0.0
 11
517.1237245096155
 21
212.8251166340288
 31
0.0
  0
LINE
  5
3E65
330
18
100
AcDbEntity
  8
外形線
100
AcDbLine
 10
487.3913745096155
 20
222.4398946340288
 30
0.0
 11
487.3913745096155
 21
212.8251166340288
 31
0.0
  0
LINE
  5
3E66
330
18
100
AcDbEntity
  8
外形線
100
AcDbLine
 10
467.8613025096153
 20
222.4398946340288
 30
0.0
 11
467.8613025096153
 21
212.8251166340288
 31
0.0
  0
LINE
  5
3E67
330
18
100
AcDbEntity
  8
外形線
100
AcDbLine
 10
450.3716855096154
 20
222.4398946340288
 30
0.0
 11
450.3716855096154
 21
212.8251166340288
 31
0.0
  0
TEXT
  5
3E68
330
18
100
AcDbEntity
  8
0
  6
Continuous
100
AcDbText
 10
451.8291545096154
 20
218.0754946340289
 30
0.0
 40
3.0
  1
単位
  7
STYLE3
100
AcDbText
  0
TEXT
  5
3E69
330
18
100
AcDbEntity
  8
0
  6
Continuous
100
AcDbText
 10
452.0008755096155
 20
214.5732576340289
 30
0.0
 40
2.1
  1
Unit
  7
STYLE3
100
AcDbText
  0
TEXT
  5
3E6A
330
18
100
AcDbEntity
  8
0
  6
Continuous
100
AcDbText
 10
469.1470505096154
 20
217.7841366340288
 30
0.0
 40
3.0
  1
尺 度
  7
STYLE3
100
AcDbText
  0
TEXT
  5
3E6B
330
18
100
AcDbEntity
  8
0
  6
Continuous
100
AcDbText
 10
459.8712025096155
 20
216.3214006340288
 30
0.0
 40
2.399999999999999
  1
mm
  7
STYLE3
100
AcDbText
  0
TEXT
  5
3E6C
330
18
100
AcDbEntity
  8
0
  6
Continuous
100
AcDbText
 10
469.6102655096153
 20
214.8646146340289
 30
0.0
 40
2.1
  1
Scale
  7
STYLE3
100
AcDbText
  0
TEXT
  5
3E6D
330
18
100
AcDbEntity
  8
0
  6
Continuous
100
AcDbText
 10
479.2295545096155
 20
216.6127576340288
 30
0.0
 40
2.399999999999999
  1
1/1
  7
STYLE3
100
AcDbText
  0
TEXT
  5
3E6E
330
18
100
AcDbEntity
  8
0
  6
Continuous
100
AcDbText
 10
489.3233255096155
 20
214.5732586340288
 30
0.0
 40
2.1
  1
Date
  7
STYLE3
100
AcDbText
  0
TEXT
  5
3E6F
330
18
100
AcDbEntity
  8
0
  6
Continuous
100
AcDbText
 10
488.9399645096155
 20
217.9063416340288
 30
0.0
 40
3.0
  1
日 付
  7
STYLE3
100
AcDbText
  0
TEXT
  5
3E70
330
18
100
AcDbEntity
  8
0
  6
Continuous
100
AcDbText
 10
498.0681335096154
 20
216.3213996340288
 30
0.0
 40
2.1
  1
2010.07.01
  7
STYLE3
100
AcDbText
  0
TEXT
  5
3E71
330
18
100
AcDbEntity
  8
0
  6
Continuous
100
AcDbText
 10
518.4726875096155
 20
218.3608966340288
 30
0.0
 40
3.0
  1
株式会社　尾崎製作所
  7
STYLE3
100
AcDbText
  0
TEXT
  5
3E72
330
18
100
AcDbEntity
  8
0
  6
Continuous
100
AcDbText
 10
519.3471665096153
 20
214.5732576340289
 30
0.0
 40
2.1
  1
OZAKI MFG. CO., LTD.
  7
STYLE3
100
AcDbText
  0
VIEWPORT
  5
177
330
15
100
AcDbEntity
 67
     1
  8
0
100
AcDbViewport
 10
127.5041203589828
 20
97.49391214526822
 30
0.0
 40
418.3086347473813
 41
243.0346063651093
 68
     1
 69
     1
 12
127.5041203589828
 22
97.49391214526822
 13
0.0
 23
0.0
 14
10.0
 24
10.0
 15
10.0
 25
10.0
 16
0.0
 26
0.0
 36
1.0
 17
0.0
 27
0.0
 37
0.0
 42
50.0
 43
0.0
 44
0.0
 45
243.0346063651093
 50
0.0
 51
0.0
 72
   100
 90
    32800
  1

281
     0
 71
     1
 74
     0
110
0.0
120
0.0
130
0.0
111
1.0
121
0.0
131
0.0
112
0.0
122
1.0
132
0.0
 79
     0
146
0.0
170
     0
  0
ENDSEC
  0
SECTION
  2
OBJECTS
  0
DICTIONARY
  5
C
330
0
100
AcDbDictionary
281
     1
  3
ACAD_CIP_PREVIOUS_PRODUCT_INFO
350
3EC5
  3
ACAD_COLOR
350
2422
  3
ACAD_DETAILVIEWSTYLE
350
3EC1
  3
ACAD_GROUP
350
D
  3
ACAD_IMAGE_DICT
350
5BD
  3
ACAD_LAYOUT
350
2425
  3
ACAD_MATERIAL
350
2421
  3
ACAD_MLEADERSTYLE
350
3EBD
  3
ACAD_MLINESTYLE
350
1B
  3
ACAD_PLOTSETTINGS
350
2426
  3
ACAD_PLOTSTYLENAME
350
241F
  3
ACAD_SCALELIST
350
3EAB
  3
ACAD_SECTIONVIEWSTYLE
350
3EBF
  3
ACAD_TABLESTYLE
350
2423
  3
ACAD_VISUALSTYLE
350
3E92
  3
ACDB_RECOMPOSE_DATA
350
3EE5
  3
ACDBVARIABLEDICTIONARY
350
1790
  0
DICTIONARY
  5
36A7
330
2
100
AcDbDictionary
280
     1
281
     1
  3
ACAD_LAYERSTATES
360
36A8
  0
DICTIONARY
  5
3ECC
330
E
100
AcDbDictionary
280
     1
281
     1
  3
ADSK_XREC_LAYER_RECONCILED
360
3ECD
  0
DICTIONARY
  5
3ECE
330
25
100
AcDbDictionary
280
     1
281
     1
  3
ADSK_XREC_LAYER_RECONCILED
360
3ECF
  0
DICTIONARY
  5
3ED0
330
26
100
AcDbDictionary
280
     1
281
     1
  3
ADSK_XREC_LAYER_RECONCILED
360
3ED1
  0
DICTIONARY
  5
3ED2
330
27
100
AcDbDictionary
280
     1
281
     1
  3
ADSK_XREC_LAYER_RECONCILED
360
3ED3
  0
DICTIONARY
  5
3ED4
330
2A
100
AcDbDictionary
280
     1
281
     1
  3
ADSK_XREC_LAYER_RECONCILED
360
3ED5
  0
DICTIONARY
  5
3ED6
330
2B
100
AcDbDictionary
280
     1
281
     1
  3
ADSK_XREC_LAYER_RECONCILED
360
3ED7
  0
DICTIONARY
  5
3ED8
330
A5
100
AcDbDictionary
280
     1
281
     1
  3
ADSK_XREC_LAYER_RECONCILED
360
3ED9
  0
DICTIONARY
  5
3EDA
330
16A
100
AcDbDictionary
280
     1
281
     1
  3
ADSK_XREC_LAYER_RECONCILED
360
3EDB
  0
DICTIONARY
  5
3EDC
330
2DB
100
AcDbDictionary
280
     1
281
     1
  3
ADSK_XREC_LAYER_RECONCILED
360
3EDD
  0
DICTIONARY
  5
2D01
330
18
100
AcDbDictionary
280
     1
281
     1
  3
ACAD_SORTENTS
360
2D02
  0
XRECORD
  5
3EC5
102
{ACAD_REACTORS
330
C
102
}
330
C
100
AcDbXrecord
280
     1
300
ACDLT
300
2015
300
ACDLT_F_S
  0
DICTIONARY
  5
2422
102
{ACAD_REACTORS
330
C
102
}
330
C
100
AcDbDictionary
281
     1
  0
DICTIONARY
  5
3EC1
102
{ACAD_REACTORS
330
C
102
}
330
C
100
AcDbDictionary
281
     1
  3
Metric50
350
3EC2
  0
DICTIONARY
  5
D
102
{ACAD_REACTORS
330
C
102
}
330
C
100
AcDbDictionary
281
     1
  0
DICTIONARY
  5
5BD
102
{ACAD_REACTORS
330
C
102
}
330
C
100
AcDbDictionary
281
     1
  3
ROGO01
350
5BE
  0
DICTIONARY
  5
2425
102
{ACAD_REACTORS
330
C
102
}
330
C
100
AcDbDictionary
281
     1
  3
Model
350
2427
  3
レイアウト1
350
2428
  0
DICTIONARY
  5
2421
102
{ACAD_REACTORS
330
C
102
}
330
C
100
AcDbDictionary
281
     1
  3
ByBlock
350
3E82
  3
ByLayer
350
3E7A
  3
Global
350
3E8A
  0
DICTIONARY
  5
3EBD
102
{ACAD_REACTORS
330
C
102
}
330
C
100
AcDbDictionary
281
     1
  3
Standard
350
3EBE
  0
DICTIONARY
  5
1B
102
{ACAD_REACTORS
330
C
102
}
330
C
100
AcDbDictionary
281
     1
  3
STANDARD
350
1C
  0
DICTIONARY
  5
2426
102
{ACAD_REACTORS
330
C
102
}
330
C
100
AcDbDictionary
281
     1
  0
ACDBDICTIONARYWDFLT
  5
241F
102
{ACAD_REACTORS
330
C
102
}
330
C
100
AcDbDictionary
281
     1
  3
Normal
350
2420
100
AcDbDictionaryWithDefault
340
2420
  0
DICTIONARY
  5
3EAB
102
{ACAD_REACTORS
330
C
102
}
330
C
100
AcDbDictionary
281
     1
  3
A0
350
3EAC
  3
A1
350
3EAD
  3
A2
350
3EAE
  3
A3
350
3EAF
  3
A4
350
3EB0
  3
A5
350
3EB1
  3
A6
350
3EB2
  3
A7
350
3EB3
  3
A8
350
3EB4
  3
A9
350
3EB5
  3
B0
350
3EB6
  3
B1
350
3EB7
  3
B2
350
3EB8
  3
B3
350
3EB9
  3
B4
350
3EBA
  3
B5
350
3EBB
  3
B6
350
3EBC
  0
DICTIONARY
  5
3EBF
102
{ACAD_REACTORS
330
C
102
}
330
C
100
AcDbDictionary
281
     1
  3
Metric50
350
3EC0
  0
DICTIONARY
  5
2423
102
{ACAD_REACTORS
330
C
102
}
330
C
100
AcDbDictionary
281
     1
  3
Standard
350
2424
  0
DICTIONARY
  5
3E92
102
{ACAD_REACTORS
330
C
102
}
330
C
100
AcDbDictionary
281
     1
  3
2dWireframe
350
3E98
  3
Basic
350
3E97
  3
Brighten
350
3E9E
  3
ColorChange
350
3EA2
  3
Conceptual
350
3E9B
  3
Dim
350
3E9D
  3
EdgeColorOff
350
3EAA
  3
Facepattern
350
3EA1
  3
Flat
350
3E93
  3
FlatWithEdges
350
3E94
  3
Gouraud
350
3E95
  3
GouraudWithEdges
350
3E96
  3
Hidden
350
3E9A
  3
JitterOff
350
3EA8
  3
Linepattern
350
3EA0
  3
OverhangOff
350
3EA9
  3
Realistic
350
3E9C
  3
Shaded
350
3EA7
  3
Shaded with edges
350
3EA6
  3
Shades of Gray
350
3EA3
  3
Sketchy
350
3EA4
  3
Thicken
350
3E9F
  3
Wireframe
350
3E99
  3
X-Ray
350
3EA5
  0
XRECORD
  5
3EE5
102
{ACAD_REACTORS
330
C
102
}
330
C
100
AcDbXrecord
280
     1
 90
        1
330
2424
  0
DICTIONARY
  5
1790
102
{ACAD_REACTORS
330
C
102
}
330
C
100
AcDbDictionary
281
     1
  3
CANNOSCALE
350
3EE1
  3
CMLEADERSTYLE
350
3EDE
  3
CTABLESTYLE
350
2CDB
  3
CVIEWDETAILSTYLE
350
3EDF
  3
CVIEWSECTIONSTYLE
350
3EE0
  3
SORTENTS
350
1791
  0
DICTIONARY
  5
36A8
102
{ACAD_REACTORS
330
36A7
102
}
330
36A7
100
AcDbDictionary
281
     1
  0
XRECORD
  5
3ECD
102
{ACAD_REACTORS
330
3ECC
102
}
330
3ECC
100
AcDbXrecord
280
     1
290
     1
  0
XRECORD
  5
3ECF
102
{ACAD_REACTORS
330
3ECE
102
}
330
3ECE
100
AcDbXrecord
280
     1
290
     1
  0
XRECORD
  5
3ED1
102
{ACAD_REACTORS
330
3ED0
102
}
330
3ED0
100
AcDbXrecord
280
     1
290
     1
  0
XRECORD
  5
3ED3
102
{ACAD_REACTORS
330
3ED2
102
}
330
3ED2
100
AcDbXrecord
280
     1
290
     1
  0
XRECORD
  5
3ED5
102
{ACAD_REACTORS
330
3ED4
102
}
330
3ED4
100
AcDbXrecord
280
     1
290
     1
  0
XRECORD
  5
3ED7
102
{ACAD_REACTORS
330
3ED6
102
}
330
3ED6
100
AcDbXrecord
280
     1
290
     1
  0
XRECORD
  5
3ED9
102
{ACAD_REACTORS
330
3ED8
102
}
330
3ED8
100
AcDbXrecord
280
     1
290
     1
  0
XRECORD
  5
3EDB
102
{ACAD_REACTORS
330
3EDA
102
}
330
3EDA
100
AcDbXrecord
280
     1
290
     1
  0
XRECORD
  5
3EDD
102
{ACAD_REACTORS
330
3EDC
102
}
330
3EDC
100
AcDbXrecord
280
     1
290
     1
  0
SORTENTSTABLE
  5
2D02
102
{ACAD_REACTORS
330
2D01
102
}
330
2D01
100
AcDbSortentsTable
330
18
331
2D06
  5
2D07
331
2DED
  5
2DEF
331
2DE9
  5
2DEB
331
2F0D
  5
2F0F
331
334F
  5
3351
331
2F09
  5
2F0B
331
30AE
  5
30B0
331
30E5
  5
30E7
331
32FC
  5
32FE
331
334B
  5
334D
331
3347
  5
3349
331
30AA
  5
30AC
331
30E1
  5
30E3
331
2D93
  5
2D95
331
3343
  5
3345
331
2D8F
  5
2D91
331
30A6
  5
30A8
331
30D5
  5
30D7
331
2D50
  5
2D51
331
30D1
  5
30D3
331
32F0
  5
32FC
331
2D4C
  5
2D4D
331
30A2
  5
30A4
331
2D48
  5
2D49
331
3176
  5
31ED
331
311A
  5
311C
331
2DD6
  5
2DD8
331
2D34
  5
2D35
331
2DD2
  5
2DD4
331
2D0D
  5
2D0E
331
2DCE
  5
2DD0
331
2DCA
  5
2DCC
331
2D09
  5
2D0A
331
2D2C
  5
2D2D
331
2D28
  5
2D29
331
2DE5
  5
2DE7
331
333F
  5
3341
331
2DE1
  5
2DE3
331
30CD
  5
30CF
331
32EC
  5
32EE
331
333B
  5
333D
331
309E
  5
30A0
331
3337
  5
3339
331
309A
  5
309C
331
30C9
  5
30CB
331
32E8
  5
32EA
331
2D14
  5
2D15
331
2D83
  5
2D85
331
32E4
  5
32E6
331
3333
  5
3335
331
2D7F
  5
2D81
331
3096
  5
3098
331
30ED
  5
30EF
331
2D10
  5
2D11
331
32E0
  5
32E2
331
30E9
  5
30EB
331
1598
  5
1598
331
3116
  5
3118
331
3112
  5
3114
331
310E
  5
3110
331
6F0
  5
6F0
331
310A
  5
310C
331
2DC6
  5
2DC8
331
2D24
  5
2D25
331
2DC2
  5
2DC4
331
2D45
  5
2D46
331
2D20
  5
2D21
331
2DBE
  5
2DC0
331
2DBA
  5
2DBC
331
2D41
  5
2D42
331
2D1C
  5
2D1D
331
2D3D
  5
2D3E
331
332F
  5
3331
331
2D18
  5
2D19
331
2D39
  5
2D3A
331
30C5
  5
30C7
331
32DC
  5
32DE
331
332B
  5
332D
331
30C1
  5
30C3
331
32D8
  5
32DA
331
2D73
  5
2D75
331
335A
  5
335C
331
2D6F
  5
2D71
331
30DD
  5
30DF
331
32D4
  5
32D6
331
2D6B
  5
2D6D
331
2E1A
  5
2E20
331
30D9
  5
30DB
331
30F6
  5
30F8
331
30F2
  5
30F4
331
30FE
  5
3100
331
638
  5
638
331
30FA
  5
30FC
331
30BD
  5
30BF
331
2D67
  5
2D69
331
330B
  5
3311
331
2DF0
  5
2DF2
331
3356
  5
3358
331
30B9
  5
30BB
331
2D63
  5
2D65
331
3303
  5
3305
331
3352
  5
3354
331
2D5F
  5
2D61
331
2DDE
  5
2DE0
331
30B5
  5
30B7
331
3104
  5
3106
331
3100
  5
3102
331
2D5B
  5
2D5D
331
2DDA
  5
2DDC
331
30B1
  5
30B3
331
2D05
  5
2D06
331
2DEC
  5
2DEE
331
2DE8
  5
2DEA
331
2F0C
  5
2F0E
331
32FF
  5
3301
331
334E
  5
3350
331
2F08
  5
2F0A
331
30AD
  5
30AF
331
30E4
  5
30E6
331
334A
  5
334C
331
3346
  5
3348
331
2D92
  5
2D94
331
30A9
  5
30AB
331
30E0
  5
30E2
331
3342
  5
3344
331
2D8E
  5
2D90
331
30A5
  5
30A7
331
30D4
  5
30D6
331
2D4F
  5
2D50
331
30D0
  5
30D2
331
2D4B
  5
2D4C
331
30A1
  5
30A3
331
3119
  5
311B
331
2D37
  5
2D38
331
2DD5
  5
2DD7
331
2D33
  5
2D34
331
2DD1
  5
2DD3
331
2DCD
  5
2DCF
331
2D0C
  5
2D0D
331
2DC9
  5
2DCB
331
2D08
  5
2D09
331
2D2B
  5
2D2C
331
2DE4
  5
2DE6
331
32EF
  5
32F1
331
333E
  5
3340
331
2DE0
  5
2DE2
331
309D
  5
309F
331
30CC
  5
30CE
331
2D17
  5
2D18
331
32EB
  5
32ED
331
333A
  5
333C
331
3336
  5
3338
331
3099
  5
309B
331
30C8
  5
30CA
331
32E7
  5
32E9
331
2D13
  5
2D14
331
2D82
  5
2D84
331
32E3
  5
32E5
331
3332
  5
3334
331
2D7E
  5
2D80
331
3095
  5
3097
331
30EC
  5
30EE
331
30E8
  5
30EA
331
3115
  5
3117
331
3111
  5
3113
331
310D
  5
310F
331
3109
  5
310B
331
2D27
  5
2D28
331
2DC5
  5
2DC7
331
2D23
  5
2D24
331
2DC1
  5
2DC3
331
2D44
  5
2D45
331
2D1F
  5
2D20
331
2DBD
  5
2DBF
331
2D40
  5
2D41
331
2D1B
  5
2D1C
331
2D3C
  5
2D3D
331
32DF
  5
32E1
331
332E
  5
3330
331
2D38
  5
2D39
331
30C4
  5
30C6
331
1597
  5
1597
331
32DB
  5
32DD
331
332A
  5
332C
331
335D
  5
33A3
331
30C0
  5
30C2
331
32D7
  5
32D9
331
2D72
  5
2D74
331
32D3
  5
32D5
331
3312
  5
3315
331
3359
  5
335B
331
2D6E
  5
2D70
331
30DC
  5
30DE
331
2D6A
  5
2D6C
331
2E19
  5
2E1F
331
30D8
  5
30DA
331
30F5
  5
30F7
331
30F1
  5
30F3
331
30FD
  5
30FF
331
30F9
  5
30FB
331
2DF3
  5
2DF8
331
30BC
  5
30BE
331
2D66
  5
2D68
331
330A
  5
330C
331
3355
  5
3357
331
30B8
  5
30BA
331
3107
  5
3109
331
2D62
  5
2D64
331
3302
  5
3304
331
3351
  5
3353
331
2D5E
  5
2D60
331
2DDD
  5
2DDF
331
30B4
  5
30B6
331
3103
  5
3105
331
2D5A
  5
2D5C
331
2DD9
  5
2DDB
331
30B0
  5
30B2
331
2F12
  5
3072
331
2DEF
  5
2DF1
331
2DEB
  5
2DED
331
2F0F
  5
2F11
331
2F0B
  5
2F0D
331
30E7
  5
30E9
331
32FE
  5
3300
331
334D
  5
334F
331
3349
  5
334B
331
30AC
  5
30AE
331
30E3
  5
30E5
331
2D56
  5
2D57
331
2D95
  5
2D97
331
3345
  5
3347
331
2D91
  5
2D93
331
30A8
  5
30AA
331
30D7
  5
30D9
331
3341
  5
3343
331
2D4E
  5
2D4F
331
2D8D
  5
2D8F
331
30A4
  5
30A6
331
30D3
  5
30D5
331
2D4A
  5
2D4B
331
30A0
  5
30A2
331
D1E
  5
D1E
331
3118
  5
311A
331
2D36
  5
2D37
331
2DD4
  5
2DD6
331
2D32
  5
2D33
331
2DD0
  5
2DD2
331
2D0F
  5
2D10
331
2DCC
  5
2DCE
331
2D0B
  5
2D0C
331
2D2E
  5
2D2F
331
2DC8
  5
2DCA
331
2DE7
  5
2DE9
331
2D2A
  5
2D2B
331
2DE3
  5
2DE5
331
30CF
  5
30D1
331
32EE
  5
32F0
331
333D
  5
333F
331
309C
  5
309E
331
30CB
  5
30CD
331
2D16
  5
2D17
331
32EA
  5
32EC
331
3339
  5
333B
331
3335
  5
3337
331
2D81
  5
2D83
331
3098
  5
309A
331
30EF
  5
30F1
331
2D12
  5
2D13
331
32E6
  5
32E8
331
32E2
  5
32E4
331
3331
  5
3333
331
30EB
  5
30ED
331
3114
  5
3116
331
3110
  5
3112
331
310C
  5
310E
331
3108
  5
310A
331
2D26
  5
2D27
331
2DC4
  5
2DC6
331
2D22
  5
2D23
331
2DC0
  5
2DC2
331
2D47
  5
2D48
331
2DBC
  5
2DBE
331
2D43
  5
2D44
331
2D1E
  5
2D1F
331
2D3F
  5
2D40
331
2D1A
  5
2D1B
331
2D3B
  5
2D3C
331
30C7
  5
30C9
331
32DE
  5
32E0
331
332D
  5
332F
331
30C3
  5
30C5
331
1596
  5
1596
331
32DA
  5
32DC
331
3315
  5
3317
331
335C
  5
33A2
331
2E20
  5
2E89
331
30DF
  5
30E1
331
32D6
  5
32D8
331
2D71
  5
2D73
331
3311
  5
3314
331
3358
  5
335A
331
2D6D
  5
2D6F
331
30DB
  5
30DD
331
14AA
  5
14AA
331
2D69
  5
2D6B
331
30F4
  5
30F6
331
30F0
  5
30F2
331
30FC
  5
30FE
331
30F8
  5
30FA
331
2E14
  5
2E1A
331
30BF
  5
30C1
331
2DF2
  5
2DF7
331
30BB
  5
30BD
331
2D65
  5
2D67
331
3305
  5
330B
331
3354
  5
3356
331
30B7
  5
30B9
331
3106
  5
3108
331
2D61
  5
2D63
331
3102
  5
3104
331
3301
  5
3303
331
2D5D
  5
2D5F
331
2DDC
  5
2DDE
331
3350
  5
3352
331
2D59
  5
2D5B
331
2DD8
  5
2DDA
331
14A5
  5
14A5
331
31C7
  5
32D1
331
2F11
  5
306F
331
2D07
  5
2D08
331
2DEE
  5
2DF0
331
2DEA
  5
2DEC
331
31ED
  5
32D3
331
2F0E
  5
2F10
331
2F0A
  5
2F0C
331
30E6
  5
30E8
331
32FD
  5
32FF
331
334C
  5
334E
331
30AF
  5
30B1
331
3348
  5
334A
331
30AB
  5
30AD
331
30E2
  5
30E4
331
2D94
  5
2D96
331
3344
  5
3346
331
2D90
  5
2D92
331
30A7
  5
30A9
331
30D6
  5
30D8
331
32F1
  5
32FD
331
3340
  5
3342
331
2D4D
  5
2D4E
331
2D8C
  5
2D8E
331
30A3
  5
30A5
331
30D2
  5
30D4
331
2D49
  5
2D4A
331
D7D
  5
D7D
331
2DD7
  5
2DD9
331
2D35
  5
2D36
331
2DD3
  5
2DD5
331
2D0E
  5
2D0F
331
2D31
  5
2D32
331
2DCB
  5
2DCD
331
2D0A
  5
2D0B
331
2D2D
  5
2D2E
331
2DE6
  5
2DE8
331
2D29
  5
2D2A
331
30CE
  5
30D0
331
32ED
  5
32EF
331
2DE2
  5
2DE4
331
309F
  5
30A1
331
3338
  5
333A
331
309B
  5
309D
331
30CA
  5
30CC
331
32E9
  5
32EB
331
2D15
  5
2D16
331
2D84
  5
2D86
331
3334
  5
3336
331
2D80
  5
2D82
331
3097
  5
3099
331
30EE
  5
30F0
331
2D11
  5
2D12
331
32E5
  5
32E7
331
32E1
  5
32E3
331
3330
  5
3332
331
30EA
  5
30EC
331
1599
  5
1599
331
3117
  5
3119
331
CC5
  5
CC5
331
3113
  5
3115
331
310F
  5
3111
331
310B
  5
310D
331
2DC7
  5
2DC9
331
2D25
  5
2D26
331
2DC3
  5
2DC5
331
2D21
  5
2D22
331
2DBF
  5
2DC1
331
2D46
  5
2D47
331
2DBB
  5
2DBD
331
2D42
  5
2D43
331
2D3E
  5
2D3F
331
2D19
  5
2D1A
331
2D3A
  5
2D3B
331
30C6
  5
30C8
331
32DD
  5
32DF
331
30C2
  5
30C4
331
1595
  5
1595
331
32D9
  5
32DB
331
3314
  5
3316
331
335B
  5
335D
331
2D70
  5
2D72
331
2E1F
  5
2E88
331
30DE
  5
30E0
331
1591
  5
1591
331
32D5
  5
32D7
331
32D1
  5
32D4
331
2D6C
  5
2D6E
331
30DA
  5
30DC
331
14A9
  5
14A9
331
2D68
  5
2D6A
331
30F7
  5
30F9
331
30F3
  5
30F5
331
691
  5
691
331
30FF
  5
3101
331
30FB
  5
30FD
331
30BE
  5
30C0
331
330C
  5
3312
331
2DF1
  5
2DF3
331
3357
  5
3359
331
30BA
  5
30BC
331
2D64
  5
2D66
331
3304
  5
330A
331
3353
  5
3355
331
2DDF
  5
2DE1
331
30B6
  5
30B8
331
3105
  5
3107
331
2D60
  5
2D62
331
3101
  5
3103
331
3300
  5
3302
331
2D5C
  5
2D5E
331
2DDB
  5
2DDD
331
30B2
  5
30B4
331
2D58
  5
2D5A
331
2F10
  5
2F12
  0
ACDBDETAILVIEWSTYLE
  5
3EC2
102
{ACAD_XDICTIONARY
360
3F1D
102
}
102
{ACAD_REACTORS
330
3EC1
102
}
330
3EC1
100
AcDbModelDocViewStyle
 70
     0
  3
Metric50
290
     0
100
AcDbDetailViewStyle
 70
     0
 71
     0
 90
        3
 71
     1
340
F
 62
   256
 40
5.0
340
0
 62
   256
 40
5.0
300

 40
0.0
280
     1
 71
     2
340
14
 90
       25
 62
   256
 71
     3
340
F
 62
   256
 40
5.0
 90
        0
 40
15.0
 90
        1
300
%<\AcVar ViewDetailId>% (%<\AcVar ViewScale \f "%sn">%)
 71
     4
340
14
 90
       25
 62
   256
340
14
 90
       25
 62
   256
280
     0
  0
IMAGEDEF
  5
5BE
102
{ACAD_REACTORS
330
5BD
102
}
330
5BD
100
AcDbRasterImageDef
 90
        0
  1
D:\ﾃｽﾄ\rogo01.TIF
 10
3388.0
 20
4668.0
 11
0.0635
 21
0.0635
280
     1
281
     5
  0
LAYOUT
  5
2427
102
{ACAD_REACTORS
330
2425
102
}
330
2425
100
AcDbPlotSettings
  1

  2
WIDR Printer
  4
A4
  6

 40
3.174999952316283
 41
3.174999952316283
 42
3.175003051757812
 43
3.17498779296875
 44
210.0
 45
297.0
 46
0.0
 47
0.0
 48
0.0
 49
0.0
140
0.0
141
0.0
142
1.0
143
1.312794391701636
 70
 11952
 72
     1
 73
     1
 74
     0
  7
AutoCad LT 98.ctb
 75
     0
147
0.7617339061784123
 76
     0
 77
     2
 78
   300
148
-267.6915761189462
149
-211.0196822326442
100
AcDbLayout
  1
Model
 70
     1
 71
     0
 10
0.0
 20
0.0
 11
12.0
 21
9.0
 12
0.0
 22
0.0
 32
0.0
 14
0.0
 24
0.0
 34
0.0
 15
0.0
 25
0.0
 35
0.0
146
0.0
 13
0.0
 23
0.0
 33
0.0
 16
1.0
 26
0.0
 36
0.0
 17
0.0
 27
1.0
 37
0.0
 76
     0
330
18
331
3E73
1001
ACAD_PSEXT
1000
WIDR Printer
1000
WIDR Printer
1000
WIDR Port
1000

1070
     0
  0
LAYOUT
  5
2428
102
{ACAD_REACTORS
330
2425
102
}
330
2425
100
AcDbPlotSettings
  1

  2
WIDR Printer
  4

  6

 40
0.0
 41
0.0
 42
0.0
 43
0.0
 44
0.0
 45
0.0
 46
0.0
 47
0.0
 48
0.0
 49
0.0
140
0.0
141
0.0
142
1.0
143
1.0
 70
   688
 72
     0
 73
     0
 74
     5
  7
AutoCad LT 98.ctb
 75
    16
147
1.0
 76
     0
 77
     2
 78
   300
148
0.0
149
0.0
100
AcDbLayout
  1
レイアウト1
 70
     1
 71
     1
 10
0.0
 20
0.0
 11
420.0
 21
297.0
 12
0.0
 22
0.0
 32
0.0
 14
-0.2
 24
-0.2
 34
0.0
 15
255.2
 25
195.2
 35
0.0
146
0.0
 13
0.0
 23
0.0
 33
0.0
 16
1.0
 26
0.0
 36
0.0
 17
0.0
 27
1.0
 37
0.0
 76
     0
330
15
331
177
  0
MATERIAL
  5
3E82
102
{ACAD_XDICTIONARY
360
3E83
102
}
102
{ACAD_REACTORS
330
2421
102
}
330
2421
100
AcDbMaterial
  1
ByBlock
 72
     0
 43
0.0208333333333333
 43
0.0
 43
0.0
 43
0.0
 43
0.0
 43
0.0208333333333333
 43
0.0
 43
0.0
 43
0.0
 43
0.0
 43
1.0
 43
0.0
 43
0.0
 43
0.0
 43
0.0
 43
1.0
 77
     0
 47
0.0208333333333333
 47
0.0
 47
0.0
 47
0.0
 47
0.0
 47
0.0208333333333333
 47
0.0
 47
0.0
 47
0.0
 47
0.0
 47
1.0
 47
0.0
 47
0.0
 47
0.0
 47
0.0
 47
1.0
171
     0
 49
0.0208333333333333
 49
0.0
 49
0.0
 49
0.0
 49
0.0
 49
0.0208333333333333
 49
0.0
 49
0.0
 49
0.0
 49
0.0
 49
1.0
 49
0.0
 49
0.0
 49
0.0
 49
0.0
 49
1.0
175
     0
142
0.0208333333333333
142
0.0
142
0.0
142
0.0
142
0.0
142
0.0208333333333333
142
0.0
142
0.0
142
0.0
142
0.0
142
1.0
142
0.0
142
0.0
142
0.0
142
0.0
142
1.0
179
     0
144
0.0208333333333333
144
0.0
144
0.0
144
0.0
144
0.0
144
0.0208333333333333
144
0.0
144
0.0
144
0.0
144
0.0
144
1.0
144
0.0
144
0.0
144
0.0
144
0.0
144
1.0
147
0.0208333333333333
147
0.0
147
0.0
147
0.0
147
0.0
147
0.0208333333333333
147
0.0
147
0.0
147
0.0
147
0.0
147
1.0
147
0.0
147
0.0
147
0.0
147
0.0
147
1.0
  0
MATERIAL
  5
3E7A
102
{ACAD_XDICTIONARY
360
3E7B
102
}
102
{ACAD_REACTORS
330
2421
102
}
330
2421
100
AcDbMaterial
  1
ByLayer
 72
     0
 43
0.0208333333333333
 43
0.0
 43
0.0
 43
0.0
 43
0.0
 43
0.0208333333333333
 43
0.0
 43
0.0
 43
0.0
 43
0.0
 43
1.0
 43
0.0
 43
0.0
 43
0.0
 43
0.0
 43
1.0
 77
     0
 47
0.0208333333333333
 47
0.0
 47
0.0
 47
0.0
 47
0.0
 47
0.0208333333333333
 47
0.0
 47
0.0
 47
0.0
 47
0.0
 47
1.0
 47
0.0
 47
0.0
 47
0.0
 47
0.0
 47
1.0
171
     0
 49
0.0208333333333333
 49
0.0
 49
0.0
 49
0.0
 49
0.0
 49
0.0208333333333333
 49
0.0
 49
0.0
 49
0.0
 49
0.0
 49
1.0
 49
0.0
 49
0.0
 49
0.0
 49
0.0
 49
1.0
175
     0
142
0.0208333333333333
142
0.0
142
0.0
142
0.0
142
0.0
142
0.0208333333333333
142
0.0
142
0.0
142
0.0
142
0.0
142
1.0
142
0.0
142
0.0
142
0.0
142
0.0
142
1.0
179
     0
144
0.0208333333333333
144
0.0
144
0.0
144
0.0
144
0.0
144
0.0208333333333333
144
0.0
144
0.0
144
0.0
144
0.0
144
1.0
144
0.0
144
0.0
144
0.0
144
0.0
144
1.0
147
0.0208333333333333
147
0.0
147
0.0
147
0.0
147
0.0
147
0.0208333333333333
147
0.0
147
0.0
147
0.0
147
0.0
147
1.0
147
0.0
147
0.0
147
0.0
147
0.0
147
1.0
  0
MATERIAL
  5
3E8A
102
{ACAD_XDICTIONARY
360
3E8B
102
}
102
{ACAD_REACTORS
330
2421
102
}
330
2421
100
AcDbMaterial
  1
Global
 72
     0
 43
0.0208333333333333
 43
0.0
 43
0.0
 43
0.0
 43
0.0
 43
0.0208333333333333
 43
0.0
 43
0.0
 43
0.0
 43
0.0
 43
1.0
 43
0.0
 43
0.0
 43
0.0
 43
0.0
 43
1.0
 77
     0
 47
0.0208333333333333
 47
0.0
 47
0.0
 47
0.0
 47
0.0
 47
0.0208333333333333
 47
0.0
 47
0.0
 47
0.0
 47
0.0
 47
1.0
 47
0.0
 47
0.0
 47
0.0
 47
0.0
 47
1.0
171
     0
 49
0.0208333333333333
 49
0.0
 49
0.0
 49
0.0
 49
0.0
 49
0.0208333333333333
 49
0.0
 49
0.0
 49
0.0
 49
0.0
 49
1.0
 49
0.0
 49
0.0
 49
0.0
 49
0.0
 49
1.0
175
     0
142
0.0208333333333333
142
0.0
142
0.0
142
0.0
142
0.0
142
0.0208333333333333
142
0.0
142
0.0
142
0.0
142
0.0
142
1.0
142
0.0
142
0.0
142
0.0
142
0.0
142
1.0
179
     0
144
0.0208333333333333
144
0.0
144
0.0
144
0.0
144
0.0
144
0.0208333333333333
144
0.0
144
0.0
144
0.0
144
0.0
144
1.0
144
0.0
144
0.0
144
0.0
144
0.0
144
1.0
147
0.0208333333333333
147
0.0
147
0.0
147
0.0
147
0.0
147
0.0208333333333333
147
0.0
147
0.0
147
0.0
147
0.0
147
1.0
147
0.0
147
0.0
147
0.0
147
0.0
147
1.0
  0
MLEADERSTYLE
  5
3EBE
102
{ACAD_REACTORS
330
3EBD
102
}
330
3EBD
100
AcDbMLeaderStyle
170
     2
171
     1
172
     0
 90
        2
 40
0.0
 41
0.0
173
     1
 91
-1056964608
340
12
 92
       -2
290
     1
 42
2.0
291
     1
 43
0.36
  3
Standard
 44
4.0
300

342
F
174
     1
178
     6
175
     1
176
     0
 93
-1056964608
 45
4.0
292
     0
297
     0
 46
4.0
 94
-1056964608
 47
1.0
 49
1.0
140
1.0
293
     1
141
0.0
294
     1
177
     0
142
1.0
295
     0
296
     0
143
0.125
1001
ACAD_MLEADERVER
1070
     2
  0
MLINESTYLE
  5
1C
102
{ACAD_REACTORS
330
1B
102
}
330
1B
100
AcDbMlineStyle
  2
STANDARD
 70
     0
  3

 62
   256
 51
90.0
 52
90.0
 71
     2
 49
0.5
 62
   256
  6
BYLAYER
 49
-0.5
 62
   256
  6
BYLAYER
  0
ACDBPLACEHOLDER
  5
2420
102
{ACAD_REACTORS
330
241F
102
}
330
241F
  0
SCALE
  5
3EAC
102
{ACAD_REACTORS
330
3EAB
102
}
330
3EAB
100
AcDbScale
 70
     0
300
1:1
140
1.0
141
1.0
290
     1
  0
SCALE
  5
3EAD
102
{ACAD_REACTORS
330
3EAB
102
}
330
3EAB
100
AcDbScale
 70
     0
300
1:2
140
1.0
141
2.0
290
     0
  0
SCALE
  5
3EAE
102
{ACAD_REACTORS
330
3EAB
102
}
330
3EAB
100
AcDbScale
 70
     0
300
1:4
140
1.0
141
4.0
290
     0
  0
SCALE
  5
3EAF
102
{ACAD_REACTORS
330
3EAB
102
}
330
3EAB
100
AcDbScale
 70
     0
300
1:5
140
1.0
141
5.0
290
     0
  0
SCALE
  5
3EB0
102
{ACAD_REACTORS
330
3EAB
102
}
330
3EAB
100
AcDbScale
 70
     0
300
1:8
140
1.0
141
8.0
290
     0
  0
SCALE
  5
3EB1
102
{ACAD_REACTORS
330
3EAB
102
}
330
3EAB
100
AcDbScale
 70
     0
300
1:10
140
1.0
141
10.0
290
     0
  0
SCALE
  5
3EB2
102
{ACAD_REACTORS
330
3EAB
102
}
330
3EAB
100
AcDbScale
 70
     0
300
1:16
140
1.0
141
16.0
290
     0
  0
SCALE
  5
3EB3
102
{ACAD_REACTORS
330
3EAB
102
}
330
3EAB
100
AcDbScale
 70
     0
300
1:20
140
1.0
141
20.0
290
     0
  0
SCALE
  5
3EB4
102
{ACAD_REACTORS
330
3EAB
102
}
330
3EAB
100
AcDbScale
 70
     0
300
1:30
140
1.0
141
30.0
290
     0
  0
SCALE
  5
3EB5
102
{ACAD_REACTORS
330
3EAB
102
}
330
3EAB
100
AcDbScale
 70
     0
300
1:40
140
1.0
141
40.0
290
     0
  0
SCALE
  5
3EB6
102
{ACAD_REACTORS
330
3EAB
102
}
330
3EAB
100
AcDbScale
 70
     0
300
1:50
140
1.0
141
50.0
290
     0
  0
SCALE
  5
3EB7
102
{ACAD_REACTORS
330
3EAB
102
}
330
3EAB
100
AcDbScale
 70
     0
300
1:100
140
1.0
141
100.0
290
     0
  0
SCALE
  5
3EB8
102
{ACAD_REACTORS
330
3EAB
102
}
330
3EAB
100
AcDbScale
 70
     0
300
2:1
140
2.0
141
1.0
290
     0
  0
SCALE
  5
3EB9
102
{ACAD_REACTORS
330
3EAB
102
}
330
3EAB
100
AcDbScale
 70
     0
300
4:1
140
4.0
141
1.0
290
     0
  0
SCALE
  5
3EBA
102
{ACAD_REACTORS
330
3EAB
102
}
330
3EAB
100
AcDbScale
 70
     0
300
8:1
140
8.0
141
1.0
290
     0
  0
SCALE
  5
3EBB
102
{ACAD_REACTORS
330
3EAB
102
}
330
3EAB
100
AcDbScale
 70
     0
300
10:1
140
10.0
141
1.0
290
     0
  0
SCALE
  5
3EBC
102
{ACAD_REACTORS
330
3EAB
102
}
330
3EAB
100
AcDbScale
 70
     0
300
100:1
140
100.0
141
1.0
290
     0
  0
ACDBSECTIONVIEWSTYLE
  5
3EC0
102
{ACAD_XDICTIONARY
360
3F1B
102
}
102
{ACAD_REACTORS
330
3EBF
102
}
330
3EBF
100
AcDbModelDocViewStyle
 70
     0
  3
Metric50
290
     0
100
AcDbSectionViewStyle
 70
     0
 71
     0
 90
      102
 71
     1
340
F
 62
   256
 40
5.0
340
0
340
0
 62
   256
 40
5.0
300
I, O, Q, S, X, Z
 40
10.0
 90
        0
 40
2.5
 90
        0
 71
     2
340
14
 90
       25
 62
   256
340
14
 90
       50
 62
   256
 40
5.0
 40
2.5
 40
5.0
 71
     3
340
F
 62
   256
 40
5.0
 90
        0
 40
15.0
 90
        1
300
%<\AcVar ViewSectionStartId>%-%<\AcVar ViewSectionEndId>% (%<\AcVar ViewScale \f "%sn">%)
 71
     4
 62
   256
 62
   257
300
ANSI31
 40
1.0
 90
        0
290
     0
290
     0
 90
        6
 40
0.0
 40
1.570796326794896
 40
0.2617993877991494
 40
1.308996938995747
 40
-0.2617993877991494
 40
1.832595714594046
  0
TABLESTYLE
  5
2424
102
{ACAD_XDICTIONARY
360
3EE3
102
}
102
{ACAD_REACTORS
330
2423
102
}
330
2423
100
AcDbTableStyle
  3
Standard
 70
     0
 71
     0
 40
1.5
 41
1.5
280
     0
281
     0
  7
STANDARD
140
4.5
170
     2
 62
     0
 63
     7
283
     0
274
    -2
284
     1
 64
     0
275
    -2
285
     1
 65
     0
276
    -2
286
     1
 66
     0
277
    -2
287
     1
 67
     0
278
    -2
288
     1
 68
     0
279
    -2
289
     1
 69
     0
  7
STANDARD
140
6.0
170
     5
 62
     0
 63
     7
283
     0
274
    -2
284
     1
 64
     0
275
    -2
285
     1
 65
     0
276
    -2
286
     1
 66
     0
277
    -2
287
     1
 67
     0
278
    -2
288
     1
 68
     0
279
    -2
289
     1
 69
     0
  7
STANDARD
140
4.5
170
     5
 62
     0
 63
     7
283
     0
274
    -2
284
     1
 64
     0
275
    -2
285
     1
 65
     0
276
    -2
286
     1
 66
     0
277
    -2
287
     1
 67
     0
278
    -2
288
     1
 68
     0
279
    -2
289
     1
 69
     0
  0
VISUALSTYLE
  5
3E98
102
{ACAD_XDICTIONARY
360
3EF4
102
}
102
{ACAD_REACTORS
330
3E92
102
}
330
3E92
100
AcDbVisualStyle
  2
2dWireframe
 70
     4
 71
     0
 72
     2
 73
     0
 90
        0
 40
-0.6
 41
-30.0
 62
     5
 63
     7
421
 16777215
 74
     1
 91
        4
 64
     7
 65
   257
 75
     1
175
     1
 42
1.0
 92
        0
 66
   257
 43
1.0
 76
     1
 77
     6
 78
     2
 67
     7
 79
     5
170
     0
171
     0
290
     0
174
     0
 93
        1
 44
0.0
173
     0
291
     0
 45
0.0
1001
ACAD
1000
AcDbSavedByObjectVersion
1070
     0
  0
VISUALSTYLE
  5
3E97
102
{ACAD_XDICTIONARY
360
3EF2
102
}
102
{ACAD_REACTORS
330
3E92
102
}
330
3E92
100
AcDbVisualStyle
  2
Basic
 70
     7
 71
     1
 72
     0
 73
     1
 90
        0
 40
-0.6
 41
-30.0
 62
     5
 63
     7
421
 16777215
 74
     0
 91
        4
 64
     7
 65
   257
 75
     1
175
     1
 42
1.0
 92
        8
 66
     7
 43
1.0
 76
     1
 77
     6
 78
     2
 67
     7
 79
     5
170
     0
171
     0
290
     0
174
     0
 93
        1
 44
0.0
173
     0
291
     1
 45
0.0
1001
ACAD
1000
AcDbSavedByObjectVersion
1070
     0
  0
VISUALSTYLE
  5
3E9E
102
{ACAD_XDICTIONARY
360
3F00
102
}
102
{ACAD_REACTORS
330
3E92
102
}
330
3E92
100
AcDbVisualStyle
  2
Brighten
 70
    12
 71
     2
 72
     2
 73
     0
 90
        0
 40
-0.6
 41
-30.0
 62
     5
 63
     7
421
 16777215
 74
     1
 91
        4
 64
     7
 65
   257
 75
     1
175
     1
 42
1.0
 92
        8
 66
     7
 43
1.0
 76
     1
 77
     6
 78
     2
 67
     7
 79
     5
170
     0
171
     0
290
     0
174
     0
 93
        1
 44
50.0
173
     0
291
     1
 45
0.0
1001
ACAD
1000
AcDbSavedByObjectVersion
1070
     0
  0
VISUALSTYLE
  5
3EA2
102
{ACAD_XDICTIONARY
360
3F08
102
}
102
{ACAD_REACTORS
330
3E92
102
}
330
3E92
100
AcDbVisualStyle
  2
ColorChange
 70
    16
 71
     2
 72
     2
 73
     3
 90
        0
 40
-0.6
 41
-30.0
 62
     5
 63
     8
421
  8421504
 74
     1
 91
        4
 64
     7
 65
   257
 75
     1
175
     1
 42
1.0
 92
        8
 66
     8
424
  8421504
 43
1.0
 76
     1
 77
     6
 78
     2
 67
     7
 79
     5
170
     0
171
     0
290
     0
174
     0
 93
        1
 44
0.0
173
     0
291
     1
 45
0.0
1001
ACAD
1000
AcDbSavedByObjectVersion
1070
     0
  0
VISUALSTYLE
  5
3E9B
102
{ACAD_XDICTIONARY
360
3EFA
102
}
102
{ACAD_REACTORS
330
3E92
102
}
330
3E92
100
AcDbVisualStyle
  2
Conceptual
 70
     9
 71
     3
 72
     2
 73
     0
 90
        0
 40
-0.6
 41
-30.0
 62
     5
 63
     7
421
 16777215
 74
     2
 91
        2
 64
     7
 65
   257
 75
     1
175
     1
 42
179.0
 92
        8
 66
     7
 43
1.0
 76
     1
 77
     6
 78
     2
 67
     7
 79
     3
170
     0
171
     0
290
     0
174
     0
 93
        1
 44
0.0
173
     0
291
     0
 45
0.0
1001
ACAD
1000
AcDbSavedByObjectVersion
1070
     0
  0
VISUALSTYLE
  5
3E9D
102
{ACAD_XDICTIONARY
360
3EFE
102
}
102
{ACAD_REACTORS
330
3E92
102
}
330
3E92
100
AcDbVisualStyle
  2
Dim
 70
    11
 71
     2
 72
     2
 73
     0
 90
        0
 40
-0.6
 41
-30.0
 62
     5
 63
     7
421
 16777215
 74
     1
 91
        4
 64
     7
 65
   257
 75
     1
175
     1
 42
1.0
 92
        8
 66
     7
 43
1.0
 76
     1
 77
     6
 78
     2
 67
     7
 79
     5
170
     0
171
     0
290
     0
174
     0
 93
        1
 44
-50.0
173
     0
291
     1
 45
0.0
1001
ACAD
1000
AcDbSavedByObjectVersion
1070
     0
  0
VISUALSTYLE
  5
3EAA
102
{ACAD_XDICTIONARY
360
3F18
102
}
102
{ACAD_REACTORS
330
3E92
102
}
330
3E92
100
AcDbVisualStyle
  2
EdgeColorOff
 70
    22
 71
     2
 72
     2
 73
     0
 90
        0
 40
-0.6
 41
-30.0
 62
     5
 63
     7
421
 16777215
 74
     1
 91
        4
 64
     7
 65
   257
 75
     1
175
     1
 42
1.0
 92
        8
 66
     7
 43
1.0
 76
     1
 77
     6
 78
     2
 67
     7
 79
     5
170
     0
171
     0
290
     0
174
     0
 93
        1
 44
0.0
173
     0
291
     1
 45
0.0
1001
ACAD
1000
AcDbSavedByObjectVersion
1070
     0
  0
VISUALSTYLE
  5
3EA1
102
{ACAD_XDICTIONARY
360
3F06
102
}
102
{ACAD_REACTORS
330
3E92
102
}
330
3E92
100
AcDbVisualStyle
  2
Facepattern
 70
    15
 71
     2
 72
     2
 73
     0
 90
        0
 40
-0.6
 41
-30.0
 62
     5
 63
     7
421
 16777215
 74
     1
 91
        4
 64
     7
 65
   257
 75
     1
175
     1
 42
1.0
 92
        8
 66
     7
 43
1.0
 76
     1
 77
     6
 78
     2
 67
     7
 79
     5
170
     0
171
     0
290
     0
174
     0
 93
        1
 44
0.0
173
     0
291
     1
 45
0.0
1001
ACAD
1000
AcDbSavedByObjectVersion
1070
     0
  0
VISUALSTYLE
  5
3E93
102
{ACAD_XDICTIONARY
360
3EEA
102
}
102
{ACAD_REACTORS
330
3E92
102
}
330
3E92
100
AcDbVisualStyle
  2
Flat
 70
     0
 71
     2
 72
     1
 73
     1
 90
        2
 40
-0.6
 41
30.0
 62
     5
 63
     7
421
 16777215
 74
     0
 91
        0
 64
     7
 65
   257
 75
     1
175
     1
 42
1.0
 92
        8
 66
     7
 43
1.0
 76
     1
 77
     6
 78
     2
 67
     7
 79
     5
170
     0
171
     0
290
     0
174
     0
 93
       13
 44
0.0
173
     0
291
     1
 45
0.0
1001
ACAD
1000
AcDbSavedByObjectVersion
1070
     0
  0
VISUALSTYLE
  5
3E94
102
{ACAD_XDICTIONARY
360
3EEC
102
}
102
{ACAD_REACTORS
330
3E92
102
}
330
3E92
100
AcDbVisualStyle
  2
FlatWithEdges
 70
     1
 71
     2
 72
     1
 73
     1
 90
        2
 40
-0.6
 41
30.0
 62
     5
 63
     7
421
 16777215
 74
     1
 91
        0
 64
     7
 65
   257
 75
     1
175
     1
 42
1.0
 92
        0
 66
   257
 43
1.0
 76
     1
 77
     6
 78
     2
 67
     7
 79
     5
170
     0
171
     0
290
     0
174
     0
 93
       13
 44
0.0
173
     0
291
     1
 45
0.0
1001
ACAD
1000
AcDbSavedByObjectVersion
1070
     0
  0
VISUALSTYLE
  5
3E95
102
{ACAD_XDICTIONARY
360
3EEE
102
}
102
{ACAD_REACTORS
330
3E92
102
}
330
3E92
100
AcDbVisualStyle
  2
Gouraud
 70
     2
 71
     2
 72
     2
 73
     1
 90
        2
 40
-0.6
 41
30.0
 62
     5
 63
     7
421
 16777215
 74
     0
 91
        0
 64
     7
 65
   257
 75
     1
175
     1
 42
1.0
 92
        0
 66
     7
 43
1.0
 76
     1
 77
     6
 78
     2
 67
     7
 79
     5
170
     0
171
     0
290
     0
174
     0
 93
       13
 44
0.0
173
     0
291
     1
 45
0.0
1001
ACAD
1000
AcDbSavedByObjectVersion
1070
     0
  0
VISUALSTYLE
  5
3E96
102
{ACAD_XDICTIONARY
360
3EF0
102
}
102
{ACAD_REACTORS
330
3E92
102
}
330
3E92
100
AcDbVisualStyle
  2
GouraudWithEdges
 70
     3
 71
     2
 72
     2
 73
     1
 90
        2
 40
-0.6
 41
30.0
 62
     5
 63
     7
421
 16777215
 74
     1
 91
        0
 64
     7
 65
   257
 75
     1
175
     1
 42
1.0
 92
        0
 66
   257
 43
1.0
 76
     1
 77
     6
 78
     2
 67
     7
 79
     5
170
     0
171
     0
290
     0
174
     0
 93
       13
 44
0.0
173
     0
291
     1
 45
0.0
1001
ACAD
1000
AcDbSavedByObjectVersion
1070
     0
  0
VISUALSTYLE
  5
3E9A
102
{ACAD_XDICTIONARY
360
3EF8
102
}
102
{ACAD_REACTORS
330
3E92
102
}
330
3E92
100
AcDbVisualStyle
  2
Hidden
 70
     6
 71
     1
 72
     2
 73
     2
 90
        0
 40
-0.6
 41
-30.0
 62
     5
 63
     7
421
 16777215
 74
     2
 91
        2
 64
     7
 65
   257
 75
     2
175
     1
 42
40.0
 92
        0
 66
   257
 43
1.0
 76
     1
 77
     6
 78
     2
 67
     7
 79
     3
170
     0
171
     0
290
     0
174
     0
 93
        1
 44
0.0
173
     0
291
     0
 45
0.0
1001
ACAD
1000
AcDbSavedByObjectVersion
1070
     0
  0
VISUALSTYLE
  5
3EA8
102
{ACAD_XDICTIONARY
360
3F14
102
}
102
{ACAD_REACTORS
330
3E92
102
}
330
3E92
100
AcDbVisualStyle
  2
JitterOff
 70
    20
 71
     2
 72
     2
 73
     0
 90
        0
 40
-0.6
 41
-30.0
 62
     5
 63
     7
421
 16777215
 74
     1
 91
        4
 64
     7
 65
   257
 75
     1
175
     1
 42
1.0
 92
       10
 66
     7
 43
1.0
 76
     1
 77
     6
 78
     2
 67
     7
 79
     5
170
     0
171
     0
290
     0
174
     0
 93
        1
 44
0.0
173
     0
291
     1
 45
0.0
1001
ACAD
1000
AcDbSavedByObjectVersion
1070
     0
  0
VISUALSTYLE
  5
3EA0
102
{ACAD_XDICTIONARY
360
3F04
102
}
102
{ACAD_REACTORS
330
3E92
102
}
330
3E92
100
AcDbVisualStyle
  2
Linepattern
 70
    14
 71
     2
 72
     2
 73
     0
 90
        0
 40
-0.6
 41
-30.0
 62
     5
 63
     7
421
 16777215
 74
     1
 91
        4
 64
     7
 65
   257
 75
     7
175
     7
 42
1.0
 92
        8
 66
     7
 43
1.0
 76
     1
 77
     6
 78
     2
 67
     7
 79
     5
170
     0
171
     0
290
     0
174
     0
 93
        1
 44
0.0
173
     0
291
     1
 45
0.0
1001
ACAD
1000
AcDbSavedByObjectVersion
1070
     0
  0
VISUALSTYLE
  5
3EA9
102
{ACAD_XDICTIONARY
360
3F16
102
}
102
{ACAD_REACTORS
330
3E92
102
}
330
3E92
100
AcDbVisualStyle
  2
OverhangOff
 70
    21
 71
     2
 72
     2
 73
     0
 90
        0
 40
-0.6
 41
-30.0
 62
     5
 63
     7
421
 16777215
 74
     1
 91
        4
 64
     7
 65
   257
 75
     1
175
     1
 42
1.0
 92
        9
 66
     7
 43
1.0
 76
     1
 77
     6
 78
     2
 67
     7
 79
     5
170
     0
171
     0
290
     0
174
     0
 93
        1
 44
0.0
173
     0
291
     1
 45
0.0
1001
ACAD
1000
AcDbSavedByObjectVersion
1070
     0
  0
VISUALSTYLE
  5
3E9C
102
{ACAD_XDICTIONARY
360
3EFC
102
}
102
{ACAD_REACTORS
330
3E92
102
}
330
3E92
100
AcDbVisualStyle
  2
Realistic
 70
     8
 71
     2
 72
     3
 73
     0
 90
        2
 40
-0.6
 41
30.0
 62
     5
 63
     7
421
 16777215
 74
     0
 91
        0
 64
     7
 65
   257
 75
     1
175
     1
 42
1.0
 92
        8
 66
   257
 43
1.0
 76
     1
 77
     6
 78
     2
 67
     7
 79
     3
170
     0
171
     0
290
     0
174
     0
 93
       13
 44
0.0
173
     0
291
     0
 45
0.0
1001
ACAD
1000
AcDbSavedByObjectVersion
1070
     0
  0
VISUALSTYLE
  5
3EA7
102
{ACAD_XDICTIONARY
360
3F12
102
}
102
{ACAD_REACTORS
330
3E92
102
}
330
3E92
100
AcDbVisualStyle
  2
Shaded
 70
    27
 71
     2
 72
     2
 73
     1
 90
        2
 40
-0.6
 41
30.0
 62
     5
 63
     7
421
 16777215
 74
     0
 91
        4
 64
     7
 65
   257
 75
     1
175
     1
 42
1.0
 92
        8
 66
   257
 43
1.0
 76
     1
 77
     6
 78
     2
 67
     8
425
  7895160
 79
     3
170
     0
171
     0
290
     0
174
     0
 93
        5
 44
0.0
173
     0
291
     0
 45
0.0
1001
ACAD
1000
AcDbSavedByObjectVersion
1070
     0
  0
VISUALSTYLE
  5
3EA6
102
{ACAD_XDICTIONARY
360
3F10
102
}
102
{ACAD_REACTORS
330
3E92
102
}
330
3E92
100
AcDbVisualStyle
  2
Shaded with edges
 70
    26
 71
     2
 72
     2
 73
     1
 90
        2
 40
-0.6
 41
30.0
 62
     5
 63
     7
421
 16777215
 74
     1
 91
       10
 64
     7
 65
   257
 75
     2
175
     1
 42
1.0
 92
        8
 66
   257
 43
1.0
 76
     1
 77
     6
 78
     2
 67
     7
 79
     3
170
     0
171
     0
290
     0
174
     0
 93
        5
 44
0.0
173
     0
291
     0
 45
0.0
1001
ACAD
1000
AcDbSavedByObjectVersion
1070
     0
  0
VISUALSTYLE
  5
3EA3
102
{ACAD_XDICTIONARY
360
3F0A
102
}
102
{ACAD_REACTORS
330
3E92
102
}
330
3E92
100
AcDbVisualStyle
  2
Shades of Gray
 70
    23
 71
     2
 72
     2
 73
     3
 90
        0
 40
-0.6
 41
-30.0
 62
     5
 63
     7
421
 16777215
 74
     2
 91
        2
 64
     7
 65
     7
 75
     1
175
     1
 42
40.0
 92
        8
 66
     7
 43
1.0
 76
     1
 77
     6
 78
     2
 67
     7
 79
     3
170
     0
171
     0
290
     0
174
     0
 93
        1
 44
0.0
173
     0
291
     0
 45
0.0
1001
ACAD
1000
AcDbSavedByObjectVersion
1070
     0
  0
VISUALSTYLE
  5
3EA4
102
{ACAD_XDICTIONARY
360
3F0C
102
}
102
{ACAD_REACTORS
330
3E92
102
}
330
3E92
100
AcDbVisualStyle
  2
Sketchy
 70
    24
 71
     1
 72
     2
 73
     2
 90
        0
 40
-0.6
 41
-30.0
 62
     5
 63
     7
421
 16777215
 74
     2
 91
        2
 64
     7
 65
     7
 75
     1
175
     1
 42
40.0
 92
       11
 66
     7
 43
1.0
 76
     1
 77
     6
 78
     2
 67
     7
 79
     6
170
     0
171
     0
290
     0
174
     0
 93
        1
 44
0.0
173
     0
291
     0
 45
0.0
1001
ACAD
1000
AcDbSavedByObjectVersion
1070
     0
  0
VISUALSTYLE
  5
3E9F
102
{ACAD_XDICTIONARY
360
3F02
102
}
102
{ACAD_REACTORS
330
3E92
102
}
330
3E92
100
AcDbVisualStyle
  2
Thicken
 70
    13
 71
     2
 72
     2
 73
     0
 90
        0
 40
-0.6
 41
-30.0
 62
     5
 63
     7
421
 16777215
 74
     1
 91
        4
 64
     7
 65
   257
 75
     1
175
     1
 42
1.0
 92
       12
 66
     7
 43
1.0
 76
     1
 77
     6
 78
     2
 67
     7
 79
     5
170
     0
171
     0
290
     0
174
     0
 93
        1
 44
0.0
173
     0
291
     1
 45
0.0
1001
ACAD
1000
AcDbSavedByObjectVersion
1070
     0
  0
VISUALSTYLE
  5
3E99
102
{ACAD_XDICTIONARY
360
3EF6
102
}
102
{ACAD_REACTORS
330
3E92
102
}
330
3E92
100
AcDbVisualStyle
  2
Wireframe
 70
     5
 71
     0
 72
     2
 73
     0
 90
        0
 40
-0.6
 41
-30.0
 62
     5
 63
     7
421
 16777215
 74
     1
 91
        4
 64
     7
 65
   257
 75
     1
175
     1
 42
1.0
 92
        0
 66
   257
 43
1.0
 76
     1
 77
     6
 78
     2
 67
     7
 79
     3
170
     0
171
     0
290
     0
174
     0
 93
        1
 44
0.0
173
     0
291
     0
 45
0.0
1001
ACAD
1000
AcDbSavedByObjectVersion
1070
     0
  0
VISUALSTYLE
  5
3EA5
102
{ACAD_XDICTIONARY
360
3F0E
102
}
102
{ACAD_REACTORS
330
3E92
102
}
330
3E92
100
AcDbVisualStyle
  2
X-Ray
 70
    25
 71
     2
 72
     2
 73
     1
 90
        1
 40
0.5
 41
-30.0
 62
     5
 63
     7
421
 16777215
 74
     1
 91
        0
 64
     7
 65
   257
 75
     1
175
     1
 42
1.0
 92
        8
 66
     7
 43
1.0
 76
     1
 77
     6
 78
     2
 67
     7
 79
     3
170
     0
171
     0
290
     0
174
     0
 93
       13
 44
0.0
173
     0
291
     0
 45
0.0
1001
ACAD
1000
AcDbSavedByObjectVersion
1070
     0
  0
DICTIONARYVAR
  5
3EE1
102
{ACAD_REACTORS
330
1790
102
}
330
1790
100
DictionaryVariables
280
     0
  1
1:1
  0
DICTIONARYVAR
  5
3EDE
102
{ACAD_REACTORS
330
1790
102
}
330
1790
100
DictionaryVariables
280
     0
  1
STANDARD
  0
DICTIONARYVAR
  5
2CDB
102
{ACAD_REACTORS
330
1790
102
}
330
1790
100
DictionaryVariables
280
     0
  1
STANDARD
  0
DICTIONARYVAR
  5
3EDF
102
{ACAD_REACTORS
330
1790
102
}
330
1790
100
DictionaryVariables
280
     0
  1
Metric50
  0
DICTIONARYVAR
  5
3EE0
102
{ACAD_REACTORS
330
1790
102
}
330
1790
100
DictionaryVariables
280
     0
  1
Metric50
  0
DICTIONARYVAR
  5
1791
102
{ACAD_REACTORS
330
1790
102
}
330
1790
100
DictionaryVariables
280
     0
  1
96
  0
DICTIONARY
  5
3F1D
330
3EC2
100
AcDbDictionary
280
     1
281
     1
  3
ACAD_XREC_ROUNDTRIP
360
3F1E
  0
DICTIONARY
  5
3E83
330
3E82
100
AcDbDictionary
280
     1
281
     1
  3
ACAD_XREC_ROUNDTRIP
360
3EE8
  3
BUMPTILE
360
3E85
  3
DIFFUSETILE
360
3E84
  3
OPACITYTILE
360
3E88
  3
REFLECTIONTILE
360
3E87
  3
REFRACTIONTILE
360
3E89
  3
SPECULARTILE
360
3E86
  0
DICTIONARY
  5
3E7B
330
3E7A
100
AcDbDictionary
280
     1
281
     1
  3
ACAD_XREC_ROUNDTRIP
360
3EE7
  3
BUMPTILE
360
3E7D
  3
DIFFUSETILE
360
3E7C
  3
OPACITYTILE
360
3E80
  3
REFLECTIONTILE
360
3E7F
  3
REFRACTIONTILE
360
3E81
  3
SPECULARTILE
360
3E7E
  0
DICTIONARY
  5
3E8B
330
3E8A
100
AcDbDictionary
280
     1
281
     1
  3
ACAD_XREC_ROUNDTRIP
360
3EE9
  3
BUMPTILE
360
3E8D
  3
DIFFUSETILE
360
3E8C
  3
OPACITYTILE
360
3E90
  3
REFLECTIONTILE
360
3E8F
  3
REFRACTIONTILE
360
3E91
  3
SPECULARTILE
360
3E8E
  0
DICTIONARY
  5
3F1B
330
3EC0
100
AcDbDictionary
280
     1
281
     1
  3
ACAD_XREC_ROUNDTRIP
360
3F1C
  0
DICTIONARY
  5
3EE3
330
2424
100
AcDbDictionary
280
     1
281
     1
  3
ACAD_ROUNDTRIP_2008_TABLESTYLE_CELLSTYLEMAP
360
3EE4
  3
ACAD_XREC_ROUNDTRIP
360
3EE6
  0
DICTIONARY
  5
3EF4
330
3E98
100
AcDbDictionary
280
     1
281
     1
  3
ACAD_XREC_ROUNDTRIP
360
3EF5
  0
DICTIONARY
  5
3EF2
330
3E97
100
AcDbDictionary
280
     1
281
     1
  3
ACAD_XREC_ROUNDTRIP
360
3EF3
  0
DICTIONARY
  5
3F00
330
3E9E
100
AcDbDictionary
280
     1
281
     1
  3
ACAD_XREC_ROUNDTRIP
360
3F01
  0
DICTIONARY
  5
3F08
330
3EA2
100
AcDbDictionary
280
     1
281
     1
  3
ACAD_XREC_ROUNDTRIP
360
3F09
  0
DICTIONARY
  5
3EFA
330
3E9B
100
AcDbDictionary
280
     1
281
     1
  3
ACAD_XREC_ROUNDTRIP
360
3EFB
  0
DICTIONARY
  5
3EFE
330
3E9D
100
AcDbDictionary
280
     1
281
     1
  3
ACAD_XREC_ROUNDTRIP
360
3EFF
  0
DICTIONARY
  5
3F18
330
3EAA
100
AcDbDictionary
280
     1
281
     1
  3
ACAD_XREC_ROUNDTRIP
360
3F19
  0
DICTIONARY
  5
3F06
330
3EA1
100
AcDbDictionary
280
     1
281
     1
  3
ACAD_XREC_ROUNDTRIP
360
3F07
  0
DICTIONARY
  5
3EEA
330
3E93
100
AcDbDictionary
280
     1
281
     1
  3
ACAD_XREC_ROUNDTRIP
360
3EEB
  0
DICTIONARY
  5
3EEC
330
3E94
100
AcDbDictionary
280
     1
281
     1
  3
ACAD_XREC_ROUNDTRIP
360
3EED
  0
DICTIONARY
  5
3EEE
330
3E95
100
AcDbDictionary
280
     1
281
     1
  3
ACAD_XREC_ROUNDTRIP
360
3EEF
  0
DICTIONARY
  5
3EF0
330
3E96
100
AcDbDictionary
280
     1
281
     1
  3
ACAD_XREC_ROUNDTRIP
360
3EF1
  0
DICTIONARY
  5
3EF8
330
3E9A
100
AcDbDictionary
280
     1
281
     1
  3
ACAD_XREC_ROUNDTRIP
360
3EF9
  0
DICTIONARY
  5
3F14
330
3EA8
100
AcDbDictionary
280
     1
281
     1
  3
ACAD_XREC_ROUNDTRIP
360
3F15
  0
DICTIONARY
  5
3F04
330
3EA0
100
AcDbDictionary
280
     1
281
     1
  3
ACAD_XREC_ROUNDTRIP
360
3F05
  0
DICTIONARY
  5
3F16
330
3EA9
100
AcDbDictionary
280
     1
281
     1
  3
ACAD_XREC_ROUNDTRIP
360
3F17
  0
DICTIONARY
  5
3EFC
330
3E9C
100
AcDbDictionary
280
     1
281
     1
  3
ACAD_XREC_ROUNDTRIP
360
3EFD
  0
DICTIONARY
  5
3F12
330
3EA7
100
AcDbDictionary
280
     1
281
     1
  3
ACAD_XREC_ROUNDTRIP
360
3F13
  0
DICTIONARY
  5
3F10
330
3EA6
100
AcDbDictionary
280
     1
281
     1
  3
ACAD_XREC_ROUNDTRIP
360
3F11
  0
DICTIONARY
  5
3F0A
330
3EA3
100
AcDbDictionary
280
     1
281
     1
  3
ACAD_XREC_ROUNDTRIP
360
3F0B
  0
DICTIONARY
  5
3F0C
330
3EA4
100
AcDbDictionary
280
     1
281
     1
  3
ACAD_XREC_ROUNDTRIP
360
3F0D
  0
DICTIONARY
  5
3F02
330
3E9F
100
AcDbDictionary
280
     1
281
     1
  3
ACAD_XREC_ROUNDTRIP
360
3F03
  0
DICTIONARY
  5
3EF6
330
3E99
100
AcDbDictionary
280
     1
281
     1
  3
ACAD_XREC_ROUNDTRIP
360
3EF7
  0
DICTIONARY
  5
3F0E
330
3EA5
100
AcDbDictionary
280
     1
281
     1
  3
ACAD_XREC_ROUNDTRIP
360
3F0F
  0
XRECORD
  5
3F1E
102
{ACAD_REACTORS
330
3F1D
102
}
330
3F1D
100
AcDbXrecord
280
     1
102
DISPLAYNAME
  1
Metric50
102
FLAGS
 90
        0
  0
XRECORD
  5
3EE8
102
{ACAD_REACTORS
330
3E83
102
}
330
3E83
100
AcDbXrecord
280
     1
102
MATERIAL
148
0.0
149
0.0
149
0.0
 93
        0
 94
      127
282
     0
 72
     0
 77
     0
171
     0
175
     0
179
     0
273
     0
  0
XRECORD
  5
3E85
102
{ACAD_REACTORS
330
3E83
102
}
330
3E83
100
AcDbXrecord
280
     1
270
     1
271
     1
  0
XRECORD
  5
3E84
102
{ACAD_REACTORS
330
3E83
102
}
330
3E83
100
AcDbXrecord
280
     1
270
     1
271
     1
  0
XRECORD
  5
3E88
102
{ACAD_REACTORS
330
3E83
102
}
330
3E83
100
AcDbXrecord
280
     1
270
     1
271
     1
  0
XRECORD
  5
3E87
102
{ACAD_REACTORS
330
3E83
102
}
330
3E83
100
AcDbXrecord
280
     1
270
     1
271
     1
  0
XRECORD
  5
3E89
102
{ACAD_REACTORS
330
3E83
102
}
330
3E83
100
AcDbXrecord
280
     1
270
     1
271
     1
  0
XRECORD
  5
3E86
102
{ACAD_REACTORS
330
3E83
102
}
330
3E83
100
AcDbXrecord
280
     1
270
     1
271
     1
  0
XRECORD
  5
3EE7
102
{ACAD_REACTORS
330
3E7B
102
}
330
3E7B
100
AcDbXrecord
280
     1
102
MATERIAL
148
0.0
149
0.0
149
0.0
 93
        0
 94
      127
282
     0
 72
     0
 77
     0
171
     0
175
     0
179
     0
273
     0
  0
XRECORD
  5
3E7D
102
{ACAD_REACTORS
330
3E7B
102
}
330
3E7B
100
AcDbXrecord
280
     1
270
     1
271
     1
  0
XRECORD
  5
3E7C
102
{ACAD_REACTORS
330
3E7B
102
}
330
3E7B
100
AcDbXrecord
280
     1
270
     1
271
     1
  0
XRECORD
  5
3E80
102
{ACAD_REACTORS
330
3E7B
102
}
330
3E7B
100
AcDbXrecord
280
     1
270
     1
271
     1
  0
XRECORD
  5
3E7F
102
{ACAD_REACTORS
330
3E7B
102
}
330
3E7B
100
AcDbXrecord
280
     1
270
     1
271
     1
  0
XRECORD
  5
3E81
102
{ACAD_REACTORS
330
3E7B
102
}
330
3E7B
100
AcDbXrecord
280
     1
270
     1
271
     1
  0
XRECORD
  5
3E7E
102
{ACAD_REACTORS
330
3E7B
102
}
330
3E7B
100
AcDbXrecord
280
     1
270
     1
271
     1
  0
XRECORD
  5
3EE9
102
{ACAD_REACTORS
330
3E8B
102
}
330
3E8B
100
AcDbXrecord
280
     1
102
MATERIAL
148
0.0
149
0.0
149
0.0
 93
        0
 94
      127
282
     0
 72
     0
 77
     0
171
     0
175
     0
179
     0
273
     0
  0
XRECORD
  5
3E8D
102
{ACAD_REACTORS
330
3E8B
102
}
330
3E8B
100
AcDbXrecord
280
     1
270
     1
271
     1
  0
XRECORD
  5
3E8C
102
{ACAD_REACTORS
330
3E8B
102
}
330
3E8B
100
AcDbXrecord
280
     1
270
     1
271
     1
  0
XRECORD
  5
3E90
102
{ACAD_REACTORS
330
3E8B
102
}
330
3E8B
100
AcDbXrecord
280
     1
270
     1
271
     1
  0
XRECORD
  5
3E8F
102
{ACAD_REACTORS
330
3E8B
102
}
330
3E8B
100
AcDbXrecord
280
     1
270
     1
271
     1
  0
XRECORD
  5
3E91
102
{ACAD_REACTORS
330
3E8B
102
}
330
3E8B
100
AcDbXrecord
280
     1
270
     1
271
     1
  0
XRECORD
  5
3E8E
102
{ACAD_REACTORS
330
3E8B
102
}
330
3E8B
100
AcDbXrecord
280
     1
270
     1
271
     1
  0
XRECORD
  5
3F1C
102
{ACAD_REACTORS
330
3F1B
102
}
330
3F1B
100
AcDbXrecord
280
     1
102
DISPLAYNAME
  1
Metric50
102
FLAGS
 90
        0
  0
CELLSTYLEMAP
  5
3EE4
102
{ACAD_REACTORS
330
3EE3
102
}
330
3EE3
100
AcDbCellStyleMap
 90
        3
300
CELLSTYLE
  1
TABLEFORMAT_BEGIN
 90
        5
170
     1
 91
        0
 92
    32768
 62
   257
 93
        1
300
CONTENTFORMAT
  1
CONTENTFORMAT_BEGIN
 90
        0
 91
        0
 92
        4
 93
        0
300

 40
0.0
140
1.0
 94
        5
 62
     0
340
F
144
6.0
309
CONTENTFORMAT_END
171
     1
301
MARGIN
  1
CELLMARGIN_BEGIN
 40
1.5
 40
1.5
 40
1.5
 40
1.5
 40
0.18
 40
0.18
309
CELLMARGIN_END
 94
        6
 95
        1
302
GRIDFORMAT
  1
GRIDFORMAT_BEGIN
 90
        0
 91
        1
 62
     0
 92
       -2
340
0
 93
        0
 40
0.045
309
GRIDFORMAT_END
 95
        2
302
GRIDFORMAT
  1
GRIDFORMAT_BEGIN
 90
        0
 91
        1
 62
     0
 92
       -2
340
0
 93
        0
 40
0.045
309
GRIDFORMAT_END
 95
        4
302
GRIDFORMAT
  1
GRIDFORMAT_BEGIN
 90
        0
 91
        1
 62
     0
 92
       -2
340
0
 93
        0
 40
0.045
309
GRIDFORMAT_END
 95
        8
302
GRIDFORMAT
  1
GRIDFORMAT_BEGIN
 90
        0
 91
        1
 62
     0
 92
       -2
340
0
 93
        0
 40
0.045
309
GRIDFORMAT_END
 95
       16
302
GRIDFORMAT
  1
GRIDFORMAT_BEGIN
 90
        0
 91
        1
 62
     0
 92
       -2
340
0
 93
        0
 40
0.045
309
GRIDFORMAT_END
 95
       32
302
GRIDFORMAT
  1
GRIDFORMAT_BEGIN
 90
        0
 91
        1
 62
     0
 92
       -2
340
0
 93
        0
 40
0.045
309
GRIDFORMAT_END
309
TABLEFORMAT_END
  1
CELLSTYLE_BEGIN
 90
        1
 91
        1
300
_TITLE
309
CELLSTYLE_END
300
CELLSTYLE
  1
TABLEFORMAT_BEGIN
 90
        5
170
     1
 91
        0
 92
        0
 62
   257
 93
        1
300
CONTENTFORMAT
  1
CONTENTFORMAT_BEGIN
 90
        0
 91
        0
 92
        4
 93
        0
300

 40
0.0
140
1.0
 94
        5
 62
     0
340
F
144
4.5
309
CONTENTFORMAT_END
171
     1
301
MARGIN
  1
CELLMARGIN_BEGIN
 40
1.5
 40
1.5
 40
1.5
 40
1.5
 40
0.18
 40
0.18
309
CELLMARGIN_END
 94
        6
 95
        1
302
GRIDFORMAT
  1
GRIDFORMAT_BEGIN
 90
        0
 91
        1
 62
     0
 92
       -2
340
0
 93
        0
 40
0.045
309
GRIDFORMAT_END
 95
        2
302
GRIDFORMAT
  1
GRIDFORMAT_BEGIN
 90
        0
 91
        1
 62
     0
 92
       -2
340
0
 93
        0
 40
0.045
309
GRIDFORMAT_END
 95
        4
302
GRIDFORMAT
  1
GRIDFORMAT_BEGIN
 90
        0
 91
        1
 62
     0
 92
       -2
340
0
 93
        0
 40
0.045
309
GRIDFORMAT_END
 95
        8
302
GRIDFORMAT
  1
GRIDFORMAT_BEGIN
 90
        0
 91
        1
 62
     0
 92
       -2
340
0
 93
        0
 40
0.045
309
GRIDFORMAT_END
 95
       16
302
GRIDFORMAT
  1
GRIDFORMAT_BEGIN
 90
        0
 91
        1
 62
     0
 92
       -2
340
0
 93
        0
 40
0.045
309
GRIDFORMAT_END
 95
       32
302
GRIDFORMAT
  1
GRIDFORMAT_BEGIN
 90
        0
 91
        1
 62
     0
 92
       -2
340
0
 93
        0
 40
0.045
309
GRIDFORMAT_END
309
TABLEFORMAT_END
  1
CELLSTYLE_BEGIN
 90
        2
 91
        1
300
_HEADER
309
CELLSTYLE_END
300
CELLSTYLE
  1
TABLEFORMAT_BEGIN
 90
        5
170
     1
 91
        0
 92
        0
 62
   257
 93
        1
300
CONTENTFORMAT
  1
CONTENTFORMAT_BEGIN
 90
        0
 91
        0
 92
        4
 93
        0
300

 40
0.0
140
1.0
 94
        2
 62
     0
340
F
144
4.5
309
CONTENTFORMAT_END
171
     1
301
MARGIN
  1
CELLMARGIN_BEGIN
 40
1.5
 40
1.5
 40
1.5
 40
1.5
 40
0.18
 40
0.18
309
CELLMARGIN_END
 94
        6
 95
        1
302
GRIDFORMAT
  1
GRIDFORMAT_BEGIN
 90
        0
 91
        1
 62
     0
 92
       -2
340
0
 93
        0
 40
0.045
309
GRIDFORMAT_END
 95
        2
302
GRIDFORMAT
  1
GRIDFORMAT_BEGIN
 90
        0
 91
        1
 62
     0
 92
       -2
340
0
 93
        0
 40
0.045
309
GRIDFORMAT_END
 95
        4
302
GRIDFORMAT
  1
GRIDFORMAT_BEGIN
 90
        0
 91
        1
 62
     0
 92
       -2
340
0
 93
        0
 40
0.045
309
GRIDFORMAT_END
 95
        8
302
GRIDFORMAT
  1
GRIDFORMAT_BEGIN
 90
        0
 91
        1
 62
     0
 92
       -2
340
0
 93
        0
 40
0.045
309
GRIDFORMAT_END
 95
       16
302
GRIDFORMAT
  1
GRIDFORMAT_BEGIN
 90
        0
 91
        1
 62
     0
 92
       -2
340
0
 93
        0
 40
0.045
309
GRIDFORMAT_END
 95
       32
302
GRIDFORMAT
  1
GRIDFORMAT_BEGIN
 90
        0
 91
        1
 62
     0
 92
       -2
340
0
 93
        0
 40
0.045
309
GRIDFORMAT_END
309
TABLEFORMAT_END
  1
CELLSTYLE_BEGIN
 90
        3
 91
        2
300
_DATA
309
CELLSTYLE_END
  0
XRECORD
  5
3EE6
102
{ACAD_REACTORS
330
3EE3
102
}
330
3EE3
100
AcDbXrecord
280
     1
102
ACAD_ROUNDTRIP_PRE2007_TABLESTYLE
 90
        4
 91
        0
  1

 92
        4
 93
        0
  2

 94
        4
 95
        0
  3

  0
XRECORD
  5
3EF5
102
{ACAD_REACTORS
330
3EF4
102
}
330
3EF4
100
AcDbXrecord
280
     1
102
RTVSPost2010Prop28
280
     1
102
RTVSPost2010PropOp28
 70
     1
102
RTVSPost2010Prop29
280
     1
102
RTVSPost2010PropOp29
 70
     1
102
RTVSPost2010Prop30
280
     0
102
RTVSPost2010PropOp30
 70
     1
102
RTVSPost2010Prop31
280
     0
102
RTVSPost2010PropOp31
 70
     1
102
RTVSPost2010Prop32
280
     0
102
RTVSPost2010PropOp32
 70
     1
102
RTVSPost2010Prop33
280
     0
102
RTVSPost2010PropOp33
 70
     1
102
RTVSPost2010Prop34
280
     0
102
RTVSPost2010PropOp34
 70
     1
102
RTVSPost2010Prop35
280
     0
102
RTVSPost2010PropOp35
 70
     1
102
RTVSPost2010Prop36
280
     0
102
RTVSPost2010PropOp36
 70
     1
102
RTVSPost2010Prop37
 90
       50
102
RTVSPost2010PropOp37
 70
     1
102
RTVSPost2010Prop38
140
0.0
102
RTVSPost2010PropOp38
 70
     1
102
RTVSPost2010Prop39
140
1.0
102
RTVSPost2010PropOp39
 70
     1
102
RTVSPost2010Prop40
 90
        0
102
RTVSPost2010PropOp40
 70
     1
102
RTVSPost2010Prop41ColorIndex
 90
       18
102
RTVSPost2010Prop41ColorRGB
 90
        0
102
RTVSPost2010PropOp41
 70
     1
102
RTVSPost2010Prop42
 90
       50
102
RTVSPost2010PropOp42
 70
     1
102
RTVSPost2010Prop43
 90
        3
102
RTVSPost2010PropOp43
 70
     1
102
RTVSPost2010Prop44ColorIndex
 90
        5
102
RTVSPost2010Prop44ColorRGB
 90
      255
102
RTVSPost2010PropOp44
 70
     1
102
RTVSPost2010Prop45
280
     0
102
RTVSPost2010PropOp45
 70
     1
102
RTVSPost2010Prop46
 90
       50
102
RTVSPost2010PropOp46
 70
     1
102
RTVSPost2010Prop47
 90
       50
102
RTVSPost2010PropOp47
 70
     1
102
RTVSPost2010Prop48
 90
       50
102
RTVSPost2010PropOp48
 70
     1
102
RTVSPost2010Prop49
280
     0
102
RTVSPost2010PropOp49
 70
     1
102
RTVSPost2010Prop50
 90
       50
102
RTVSPost2010PropOp50
 70
     1
102
RTVSPost2010Prop51ColorIndex
 90
      256
102
RTVSPost2010Prop51ColorRGB
 90
-16777216
102
RTVSPost2010PropOp51
 70
     0
102
RTVSPost2010Prop52
140
1.0
102
RTVSPost2010PropOp52
 70
     0
102
RTVSPost2010Prop53
 90
        2
102
RTVSPost2010PropOp53
 70
     1
102
RTVSPost2010Prop54
  1
strokes_ogs.tif
102
RTVSPost2010PropOp54
 70
     1
102
RTVSPost2010Prop55
280
     0
102
RTVSPost2010PropOp55
 70
     1
102
RTVSPost2010Prop56
140
1.0
102
RTVSPost2010PropOp56
 70
     1
102
RTVSPost2010Prop57
140
1.0
102
RTVSPost2010PropOp57
 70
     1
102
RTVSPropertyOp0
 70
     1
102
RTVSPropertyOp1
 70
     1
102
RTVSPropertyOp2
 70
     1
102
RTVSPropertyOp3
 70
     1
102
RTVSPropertyOp4
 70
     1
102
RTVSPropertyOp5
 70
     1
102
RTVSPropertyOp6
 70
     1
102
RTVSPropertyOp7
 70
     1
102
RTVSPropertyOp8
 70
     1
102
RTVSPropertyOp9
 70
     1
102
RTVSPropertyOp10
 70
     1
102
RTVSPropertyOp11
 70
     1
102
RTVSPropertyOp12
 70
     1
102
RTVSPropertyOp13
 70
     1
102
RTVSPropertyOp14
 70
     1
102
RTVSPropertyOp15
 70
     1
102
RTVSPropertyOp16
 70
     1
102
RTVSPropertyOp17
 70
     1
102
RTVSPropertyOp18
 70
     1
102
RTVSPropertyOp19
 70
     1
102
RTVSPropertyOp20
 70
     1
102
RTVSPropertyOp21
 70
     1
102
RTVSPropertyOp22
 70
     1
102
RTVSPropertyOp23
 70
     1
102
RTVSPropertyOp24
 70
     1
102
RTVSPropertyOp25
 70
     1
102
RTVSPropertyOp26
 70
     1
102
RTVSPropertyOp27
 70
     1
102
RTVSPropertyOp28
 70
     1
102
RTVSPropertyOp29
 70
     1
102
RTVSPropertyOp30
 70
     1
102
RTVSPropertyOp31
 70
     1
102
RTVSPropertyOp32
 70
     1
102
RTVSPropertyOp33
 70
     1
102
RTVSPropertyOp34
 70
     1
102
RTVSPropertyOp35
 70
     1
102
RTVSPropertyOp36
 70
     1
102
RTVSPropertyOp37
 70
     1
102
RTVSPropertyOp38
 70
     1
102
RTVSPropertyOp39
 70
     1
102
RTVSPropertyOp40
 70
     1
102
RTVSPropertyOp41
 70
     1
102
RTVSPropertyOp42
 70
     1
102
RTVSPropertyOp43
 70
     1
102
RTVSPropertyOp44
 70
     1
102
RTVSPropertyOp45
 70
     1
102
RTVSPropertyOp46
 70
     1
102
RTVSPropertyOp47
 70
     1
102
RTVSPropertyOp48
 70
     1
102
RTVSPropertyOp49
 70
     1
102
RTVSPropertyOp50
 70
     1
102
RTVSPropertyOp51
 70
     0
102
RTVSPropertyOp52
 70
     0
102
RTVSPropertyOp53
 70
     1
102
RTVSPropertyOp54
 70
     1
102
RTVSPropertyOp55
 70
     1
102
RTVSPropertyOp56
 70
     1
102
RTVSPropertyOp57
 70
     1
102
RTVSPropertyOp58
 70
     1
102
RTVSPropertyOp59
 70
     1
102
RTVSPropertyOp60
 70
     1
102
RTVSPropertyOp61
 70
     1
102
RTVSPropertyOp62
 70
     1
  0
XRECORD
  5
3EF3
102
{ACAD_REACTORS
330
3EF2
102
}
330
3EF2
100
AcDbXrecord
280
     1
102
RTVSPost2010Prop28
280
     0
102
RTVSPost2010PropOp28
 70
     1
102
RTVSPost2010Prop29
280
     1
102
RTVSPost2010PropOp29
 70
     1
102
RTVSPost2010Prop30
280
     1
102
RTVSPost2010PropOp30
 70
     1
102
RTVSPost2010Prop31
280
     0
102
RTVSPost2010PropOp31
 70
     1
102
RTVSPost2010Prop32
280
     0
102
RTVSPost2010PropOp32
 70
     1
102
RTVSPost2010Prop33
280
     0
102
RTVSPost2010PropOp33
 70
     1
102
RTVSPost2010Prop34
280
     0
102
RTVSPost2010PropOp34
 70
     1
102
RTVSPost2010Prop35
280
     0
102
RTVSPost2010PropOp35
 70
     1
102
RTVSPost2010Prop36
280
     0
102
RTVSPost2010PropOp36
 70
     1
102
RTVSPost2010Prop37
 90
       50
102
RTVSPost2010PropOp37
 70
     1
102
RTVSPost2010Prop38
140
0.0
102
RTVSPost2010PropOp38
 70
     1
102
RTVSPost2010Prop39
140
1.0
102
RTVSPost2010PropOp39
 70
     1
102
RTVSPost2010Prop40
 90
        0
102
RTVSPost2010PropOp40
 70
     1
102
RTVSPost2010Prop41ColorIndex
 90
       18
102
RTVSPost2010Prop41ColorRGB
 90
        0
102
RTVSPost2010PropOp41
 70
     1
102
RTVSPost2010Prop42
 90
       50
102
RTVSPost2010PropOp42
 70
     1
102
RTVSPost2010Prop43
 90
        3
102
RTVSPost2010PropOp43
 70
     1
102
RTVSPost2010Prop44ColorIndex
 90
        5
102
RTVSPost2010Prop44ColorRGB
 90
      255
102
RTVSPost2010PropOp44
 70
     1
102
RTVSPost2010Prop45
280
     0
102
RTVSPost2010PropOp45
 70
     1
102
RTVSPost2010Prop46
 90
       50
102
RTVSPost2010PropOp46
 70
     1
102
RTVSPost2010Prop47
 90
       50
102
RTVSPost2010PropOp47
 70
     1
102
RTVSPost2010Prop48
 90
       50
102
RTVSPost2010PropOp48
 70
     1
102
RTVSPost2010Prop49
280
     0
102
RTVSPost2010PropOp49
 70
     1
102
RTVSPost2010Prop50
 90
       50
102
RTVSPost2010PropOp50
 70
     1
102
RTVSPost2010Prop51ColorIndex
 90
      256
102
RTVSPost2010Prop51ColorRGB
 90
-16777216
102
RTVSPost2010PropOp51
 70
     0
102
RTVSPost2010Prop52
140
1.0
102
RTVSPost2010PropOp52
 70
     0
102
RTVSPost2010Prop53
 90
        2
102
RTVSPost2010PropOp53
 70
     1
102
RTVSPost2010Prop54
  1
strokes_ogs.tif
102
RTVSPost2010PropOp54
 70
     1
102
RTVSPost2010Prop55
280
     0
102
RTVSPost2010PropOp55
 70
     1
102
RTVSPost2010Prop56
140
1.0
102
RTVSPost2010PropOp56
 70
     1
102
RTVSPost2010Prop57
140
1.0
102
RTVSPost2010PropOp57
 70
     1
102
RTVSPropertyOp0
 70
     1
102
RTVSPropertyOp1
 70
     1
102
RTVSPropertyOp2
 70
     1
102
RTVSPropertyOp3
 70
     1
102
RTVSPropertyOp4
 70
     1
102
RTVSPropertyOp5
 70
     1
102
RTVSPropertyOp6
 70
     1
102
RTVSPropertyOp7
 70
     1
102
RTVSPropertyOp8
 70
     1
102
RTVSPropertyOp9
 70
     1
102
RTVSPropertyOp10
 70
     1
102
RTVSPropertyOp11
 70
     1
102
RTVSPropertyOp12
 70
     1
102
RTVSPropertyOp13
 70
     1
102
RTVSPropertyOp14
 70
     1
102
RTVSPropertyOp15
 70
     1
102
RTVSPropertyOp16
 70
     1
102
RTVSPropertyOp17
 70
     1
102
RTVSPropertyOp18
 70
     1
102
RTVSPropertyOp19
 70
     1
102
RTVSPropertyOp20
 70
     1
102
RTVSPropertyOp21
 70
     1
102
RTVSPropertyOp22
 70
     1
102
RTVSPropertyOp23
 70
     1
102
RTVSPropertyOp24
 70
     1
102
RTVSPropertyOp25
 70
     1
102
RTVSPropertyOp26
 70
     1
102
RTVSPropertyOp27
 70
     1
102
RTVSPropertyOp28
 70
     1
102
RTVSPropertyOp29
 70
     1
102
RTVSPropertyOp30
 70
     1
102
RTVSPropertyOp31
 70
     1
102
RTVSPropertyOp32
 70
     1
102
RTVSPropertyOp33
 70
     1
102
RTVSPropertyOp34
 70
     1
102
RTVSPropertyOp35
 70
     1
102
RTVSPropertyOp36
 70
     1
102
RTVSPropertyOp37
 70
     1
102
RTVSPropertyOp38
 70
     1
102
RTVSPropertyOp39
 70
     1
102
RTVSPropertyOp40
 70
     1
102
RTVSPropertyOp41
 70
     1
102
RTVSPropertyOp42
 70
     1
102
RTVSPropertyOp43
 70
     1
102
RTVSPropertyOp44
 70
     1
102
RTVSPropertyOp45
 70
     1
102
RTVSPropertyOp46
 70
     1
102
RTVSPropertyOp47
 70
     1
102
RTVSPropertyOp48
 70
     1
102
RTVSPropertyOp49
 70
     1
102
RTVSPropertyOp50
 70
     1
102
RTVSPropertyOp51
 70
     0
102
RTVSPropertyOp52
 70
     0
102
RTVSPropertyOp53
 70
     1
102
RTVSPropertyOp54
 70
     1
102
RTVSPropertyOp55
 70
     1
102
RTVSPropertyOp56
 70
     1
102
RTVSPropertyOp57
 70
     1
102
RTVSPropertyOp58
 70
     1
102
RTVSPropertyOp59
 70
     1
102
RTVSPropertyOp60
 70
     1
102
RTVSPropertyOp61
 70
     1
102
RTVSPropertyOp62
 70
     1
  0
XRECORD
  5
3F01
102
{ACAD_REACTORS
330
3F00
102
}
330
3F00
100
AcDbXrecord
280
     1
102
RTVSPost2010Prop28
280
     0
102
RTVSPost2010PropOp28
 70
     1
102
RTVSPost2010Prop29
280
     1
102
RTVSPost2010PropOp29
 70
     1
102
RTVSPost2010Prop30
280
     1
102
RTVSPost2010PropOp30
 70
     1
102
RTVSPost2010Prop31
280
     0
102
RTVSPost2010PropOp31
 70
     1
102
RTVSPost2010Prop32
280
     0
102
RTVSPost2010PropOp32
 70
     1
102
RTVSPost2010Prop33
280
     0
102
RTVSPost2010PropOp33
 70
     1
102
RTVSPost2010Prop34
280
     0
102
RTVSPost2010PropOp34
 70
     1
102
RTVSPost2010Prop35
280
     0
102
RTVSPost2010PropOp35
 70
     1
102
RTVSPost2010Prop36
280
     0
102
RTVSPost2010PropOp36
 70
     1
102
RTVSPost2010Prop37
 90
       50
102
RTVSPost2010PropOp37
 70
     1
102
RTVSPost2010Prop38
140
0.0
102
RTVSPost2010PropOp38
 70
     1
102
RTVSPost2010Prop39
140
1.0
102
RTVSPost2010PropOp39
 70
     1
102
RTVSPost2010Prop40
 90
        0
102
RTVSPost2010PropOp40
 70
     1
102
RTVSPost2010Prop41ColorIndex
 90
       18
102
RTVSPost2010Prop41ColorRGB
 90
        0
102
RTVSPost2010PropOp41
 70
     1
102
RTVSPost2010Prop42
 90
       50
102
RTVSPost2010PropOp42
 70
     1
102
RTVSPost2010Prop43
 90
        3
102
RTVSPost2010PropOp43
 70
     1
102
RTVSPost2010Prop44ColorIndex
 90
        5
102
RTVSPost2010Prop44ColorRGB
 90
      255
102
RTVSPost2010PropOp44
 70
     1
102
RTVSPost2010Prop45
280
     0
102
RTVSPost2010PropOp45
 70
     1
102
RTVSPost2010Prop46
 90
       50
102
RTVSPost2010PropOp46
 70
     1
102
RTVSPost2010Prop47
 90
       50
102
RTVSPost2010PropOp47
 70
     1
102
RTVSPost2010Prop48
 90
       50
102
RTVSPost2010PropOp48
 70
     1
102
RTVSPost2010Prop49
280
     0
102
RTVSPost2010PropOp49
 70
     1
102
RTVSPost2010Prop50
 90
       50
102
RTVSPost2010PropOp50
 70
     1
102
RTVSPost2010Prop51ColorIndex
 90
      256
102
RTVSPost2010Prop51ColorRGB
 90
-16777216
102
RTVSPost2010PropOp51
 70
     0
102
RTVSPost2010Prop52
140
1.0
102
RTVSPost2010PropOp52
 70
     0
102
RTVSPost2010Prop53
 90
        2
102
RTVSPost2010PropOp53
 70
     1
102
RTVSPost2010Prop54
  1
strokes_ogs.tif
102
RTVSPost2010PropOp54
 70
     1
102
RTVSPost2010Prop55
280
     0
102
RTVSPost2010PropOp55
 70
     1
102
RTVSPost2010Prop56
140
1.0
102
RTVSPost2010PropOp56
 70
     1
102
RTVSPost2010Prop57
140
1.0
102
RTVSPost2010PropOp57
 70
     1
102
RTVSPropertyOp0
 70
     1
102
RTVSPropertyOp1
 70
     1
102
RTVSPropertyOp2
 70
     1
102
RTVSPropertyOp3
 70
     1
102
RTVSPropertyOp4
 70
     1
102
RTVSPropertyOp5
 70
     1
102
RTVSPropertyOp6
 70
     1
102
RTVSPropertyOp7
 70
     1
102
RTVSPropertyOp8
 70
     1
102
RTVSPropertyOp9
 70
     1
102
RTVSPropertyOp10
 70
     1
102
RTVSPropertyOp11
 70
     1
102
RTVSPropertyOp12
 70
     1
102
RTVSPropertyOp13
 70
     1
102
RTVSPropertyOp14
 70
     1
102
RTVSPropertyOp15
 70
     1
102
RTVSPropertyOp16
 70
     1
102
RTVSPropertyOp17
 70
     1
102
RTVSPropertyOp18
 70
     1
102
RTVSPropertyOp19
 70
     1
102
RTVSPropertyOp20
 70
     1
102
RTVSPropertyOp21
 70
     1
102
RTVSPropertyOp22
 70
     1
102
RTVSPropertyOp23
 70
     1
102
RTVSPropertyOp24
 70
     1
102
RTVSPropertyOp25
 70
     1
102
RTVSPropertyOp26
 70
     1
102
RTVSPropertyOp27
 70
     1
102
RTVSPropertyOp28
 70
     1
102
RTVSPropertyOp29
 70
     1
102
RTVSPropertyOp30
 70
     1
102
RTVSPropertyOp31
 70
     1
102
RTVSPropertyOp32
 70
     1
102
RTVSPropertyOp33
 70
     1
102
RTVSPropertyOp34
 70
     1
102
RTVSPropertyOp35
 70
     1
102
RTVSPropertyOp36
 70
     1
102
RTVSPropertyOp37
 70
     1
102
RTVSPropertyOp38
 70
     1
102
RTVSPropertyOp39
 70
     1
102
RTVSPropertyOp40
 70
     1
102
RTVSPropertyOp41
 70
     1
102
RTVSPropertyOp42
 70
     1
102
RTVSPropertyOp43
 70
     1
102
RTVSPropertyOp44
 70
     1
102
RTVSPropertyOp45
 70
     1
102
RTVSPropertyOp46
 70
     1
102
RTVSPropertyOp47
 70
     1
102
RTVSPropertyOp48
 70
     1
102
RTVSPropertyOp49
 70
     1
102
RTVSPropertyOp50
 70
     1
102
RTVSPropertyOp51
 70
     0
102
RTVSPropertyOp52
 70
     0
102
RTVSPropertyOp53
 70
     1
102
RTVSPropertyOp54
 70
     1
102
RTVSPropertyOp55
 70
     1
102
RTVSPropertyOp56
 70
     1
102
RTVSPropertyOp57
 70
     1
102
RTVSPropertyOp58
 70
     1
102
RTVSPropertyOp59
 70
     1
102
RTVSPropertyOp60
 70
     1
102
RTVSPropertyOp61
 70
     1
102
RTVSPropertyOp62
 70
     1
  0
XRECORD
  5
3F09
102
{ACAD_REACTORS
330
3F08
102
}
330
3F08
100
AcDbXrecord
280
     1
102
RTVSPost2010Prop28
280
     0
102
RTVSPost2010PropOp28
 70
     1
102
RTVSPost2010Prop29
280
     1
102
RTVSPost2010PropOp29
 70
     1
102
RTVSPost2010Prop30
280
     1
102
RTVSPost2010PropOp30
 70
     1
102
RTVSPost2010Prop31
280
     0
102
RTVSPost2010PropOp31
 70
     1
102
RTVSPost2010Prop32
280
     0
102
RTVSPost2010PropOp32
 70
     1
102
RTVSPost2010Prop33
280
     0
102
RTVSPost2010PropOp33
 70
     1
102
RTVSPost2010Prop34
280
     0
102
RTVSPost2010PropOp34
 70
     1
102
RTVSPost2010Prop35
280
     0
102
RTVSPost2010PropOp35
 70
     1
102
RTVSPost2010Prop36
280
     0
102
RTVSPost2010PropOp36
 70
     1
102
RTVSPost2010Prop37
 90
       50
102
RTVSPost2010PropOp37
 70
     1
102
RTVSPost2010Prop38
140
0.0
102
RTVSPost2010PropOp38
 70
     1
102
RTVSPost2010Prop39
140
1.0
102
RTVSPost2010PropOp39
 70
     1
102
RTVSPost2010Prop40
 90
        0
102
RTVSPost2010PropOp40
 70
     1
102
RTVSPost2010Prop41ColorIndex
 90
       18
102
RTVSPost2010Prop41ColorRGB
 90
        0
102
RTVSPost2010PropOp41
 70
     1
102
RTVSPost2010Prop42
 90
       50
102
RTVSPost2010PropOp42
 70
     1
102
RTVSPost2010Prop43
 90
        3
102
RTVSPost2010PropOp43
 70
     1
102
RTVSPost2010Prop44ColorIndex
 90
        5
102
RTVSPost2010Prop44ColorRGB
 90
      255
102
RTVSPost2010PropOp44
 70
     1
102
RTVSPost2010Prop45
280
     0
102
RTVSPost2010PropOp45
 70
     1
102
RTVSPost2010Prop46
 90
       50
102
RTVSPost2010PropOp46
 70
     1
102
RTVSPost2010Prop47
 90
       50
102
RTVSPost2010PropOp47
 70
     1
102
RTVSPost2010Prop48
 90
       50
102
RTVSPost2010PropOp48
 70
     1
102
RTVSPost2010Prop49
280
     0
102
RTVSPost2010PropOp49
 70
     1
102
RTVSPost2010Prop50
 90
       50
102
RTVSPost2010PropOp50
 70
     1
102
RTVSPost2010Prop51ColorIndex
 90
      256
102
RTVSPost2010Prop51ColorRGB
 90
-16777216
102
RTVSPost2010PropOp51
 70
     0
102
RTVSPost2010Prop52
140
1.0
102
RTVSPost2010PropOp52
 70
     0
102
RTVSPost2010Prop53
 90
        2
102
RTVSPost2010PropOp53
 70
     1
102
RTVSPost2010Prop54
  1
strokes_ogs.tif
102
RTVSPost2010PropOp54
 70
     1
102
RTVSPost2010Prop55
280
     0
102
RTVSPost2010PropOp55
 70
     1
102
RTVSPost2010Prop56
140
1.0
102
RTVSPost2010PropOp56
 70
     1
102
RTVSPost2010Prop57
140
1.0
102
RTVSPost2010PropOp57
 70
     1
102
RTVSPropertyOp0
 70
     1
102
RTVSPropertyOp1
 70
     1
102
RTVSPropertyOp2
 70
     1
102
RTVSPropertyOp3
 70
     1
102
RTVSPropertyOp4
 70
     1
102
RTVSPropertyOp5
 70
     1
102
RTVSPropertyOp6
 70
     1
102
RTVSPropertyOp7
 70
     1
102
RTVSPropertyOp8
 70
     1
102
RTVSPropertyOp9
 70
     1
102
RTVSPropertyOp10
 70
     1
102
RTVSPropertyOp11
 70
     1
102
RTVSPropertyOp12
 70
     1
102
RTVSPropertyOp13
 70
     1
102
RTVSPropertyOp14
 70
     1
102
RTVSPropertyOp15
 70
     1
102
RTVSPropertyOp16
 70
     1
102
RTVSPropertyOp17
 70
     1
102
RTVSPropertyOp18
 70
     1
102
RTVSPropertyOp19
 70
     1
102
RTVSPropertyOp20
 70
     1
102
RTVSPropertyOp21
 70
     1
102
RTVSPropertyOp22
 70
     1
102
RTVSPropertyOp23
 70
     1
102
RTVSPropertyOp24
 70
     1
102
RTVSPropertyOp25
 70
     1
102
RTVSPropertyOp26
 70
     1
102
RTVSPropertyOp27
 70
     1
102
RTVSPropertyOp28
 70
     1
102
RTVSPropertyOp29
 70
     1
102
RTVSPropertyOp30
 70
     1
102
RTVSPropertyOp31
 70
     1
102
RTVSPropertyOp32
 70
     1
102
RTVSPropertyOp33
 70
     1
102
RTVSPropertyOp34
 70
     1
102
RTVSPropertyOp35
 70
     1
102
RTVSPropertyOp36
 70
     1
102
RTVSPropertyOp37
 70
     1
102
RTVSPropertyOp38
 70
     1
102
RTVSPropertyOp39
 70
     1
102
RTVSPropertyOp40
 70
     1
102
RTVSPropertyOp41
 70
     1
102
RTVSPropertyOp42
 70
     1
102
RTVSPropertyOp43
 70
     1
102
RTVSPropertyOp44
 70
     1
102
RTVSPropertyOp45
 70
     1
102
RTVSPropertyOp46
 70
     1
102
RTVSPropertyOp47
 70
     1
102
RTVSPropertyOp48
 70
     1
102
RTVSPropertyOp49
 70
     1
102
RTVSPropertyOp50
 70
     1
102
RTVSPropertyOp51
 70
     0
102
RTVSPropertyOp52
 70
     0
102
RTVSPropertyOp53
 70
     1
102
RTVSPropertyOp54
 70
     1
102
RTVSPropertyOp55
 70
     1
102
RTVSPropertyOp56
 70
     1
102
RTVSPropertyOp57
 70
     1
102
RTVSPropertyOp58
 70
     1
102
RTVSPropertyOp59
 70
     1
102
RTVSPropertyOp60
 70
     1
102
RTVSPropertyOp61
 70
     1
102
RTVSPropertyOp62
 70
     1
  0
XRECORD
  5
3EFB
102
{ACAD_REACTORS
330
3EFA
102
}
330
3EFA
100
AcDbXrecord
280
     1
102
RTVSPost2010Prop28
280
     0
102
RTVSPost2010PropOp28
 70
     1
102
RTVSPost2010Prop29
280
     1
102
RTVSPost2010PropOp29
 70
     1
102
RTVSPost2010Prop30
280
     1
102
RTVSPost2010PropOp30
 70
     1
102
RTVSPost2010Prop31
280
     0
102
RTVSPost2010PropOp31
 70
     1
102
RTVSPost2010Prop32
280
     0
102
RTVSPost2010PropOp32
 70
     1
102
RTVSPost2010Prop33
280
     0
102
RTVSPost2010PropOp33
 70
     1
102
RTVSPost2010Prop34
280
     0
102
RTVSPost2010PropOp34
 70
     1
102
RTVSPost2010Prop35
280
     0
102
RTVSPost2010PropOp35
 70
     1
102
RTVSPost2010Prop36
280
     0
102
RTVSPost2010PropOp36
 70
     1
102
RTVSPost2010Prop37
 90
       50
102
RTVSPost2010PropOp37
 70
     1
102
RTVSPost2010Prop38
140
0.0
102
RTVSPost2010PropOp38
 70
     1
102
RTVSPost2010Prop39
140
1.0
102
RTVSPost2010PropOp39
 70
     1
102
RTVSPost2010Prop40
 90
        0
102
RTVSPost2010PropOp40
 70
     1
102
RTVSPost2010Prop41ColorIndex
 90
       18
102
RTVSPost2010Prop41ColorRGB
 90
        0
102
RTVSPost2010PropOp41
 70
     1
102
RTVSPost2010Prop42
 90
       50
102
RTVSPost2010PropOp42
 70
     1
102
RTVSPost2010Prop43
 90
        3
102
RTVSPost2010PropOp43
 70
     1
102
RTVSPost2010Prop44ColorIndex
 90
        5
102
RTVSPost2010Prop44ColorRGB
 90
      255
102
RTVSPost2010PropOp44
 70
     1
102
RTVSPost2010Prop45
280
     0
102
RTVSPost2010PropOp45
 70
     1
102
RTVSPost2010Prop46
 90
       50
102
RTVSPost2010PropOp46
 70
     1
102
RTVSPost2010Prop47
 90
       50
102
RTVSPost2010PropOp47
 70
     1
102
RTVSPost2010Prop48
 90
       50
102
RTVSPost2010PropOp48
 70
     1
102
RTVSPost2010Prop49
280
     0
102
RTVSPost2010PropOp49
 70
     1
102
RTVSPost2010Prop50
 90
       50
102
RTVSPost2010PropOp50
 70
     1
102
RTVSPost2010Prop51ColorIndex
 90
      256
102
RTVSPost2010Prop51ColorRGB
 90
-16777216
102
RTVSPost2010PropOp51
 70
     0
102
RTVSPost2010Prop52
140
1.0
102
RTVSPost2010PropOp52
 70
     0
102
RTVSPost2010Prop53
 90
        2
102
RTVSPost2010PropOp53
 70
     1
102
RTVSPost2010Prop54
  1
strokes_ogs.tif
102
RTVSPost2010PropOp54
 70
     1
102
RTVSPost2010Prop55
280
     0
102
RTVSPost2010PropOp55
 70
     1
102
RTVSPost2010Prop56
140
1.0
102
RTVSPost2010PropOp56
 70
     1
102
RTVSPost2010Prop57
140
1.0
102
RTVSPost2010PropOp57
 70
     1
102
RTVSPropertyOp0
 70
     1
102
RTVSPropertyOp1
 70
     1
102
RTVSPropertyOp2
 70
     1
102
RTVSPropertyOp3
 70
     1
102
RTVSPropertyOp4
 70
     1
102
RTVSPropertyOp5
 70
     1
102
RTVSPropertyOp6
 70
     1
102
RTVSPropertyOp7
 70
     1
102
RTVSPropertyOp8
 70
     1
102
RTVSPropertyOp9
 70
     1
102
RTVSPropertyOp10
 70
     1
102
RTVSPropertyOp11
 70
     1
102
RTVSPropertyOp12
 70
     1
102
RTVSPropertyOp13
 70
     1
102
RTVSPropertyOp14
 70
     1
102
RTVSPropertyOp15
 70
     1
102
RTVSPropertyOp16
 70
     1
102
RTVSPropertyOp17
 70
     1
102
RTVSPropertyOp18
 70
     1
102
RTVSPropertyOp19
 70
     1
102
RTVSPropertyOp20
 70
     1
102
RTVSPropertyOp21
 70
     1
102
RTVSPropertyOp22
 70
     1
102
RTVSPropertyOp23
 70
     1
102
RTVSPropertyOp24
 70
     1
102
RTVSPropertyOp25
 70
     1
102
RTVSPropertyOp26
 70
     1
102
RTVSPropertyOp27
 70
     1
102
RTVSPropertyOp28
 70
     1
102
RTVSPropertyOp29
 70
     1
102
RTVSPropertyOp30
 70
     1
102
RTVSPropertyOp31
 70
     1
102
RTVSPropertyOp32
 70
     1
102
RTVSPropertyOp33
 70
     1
102
RTVSPropertyOp34
 70
     1
102
RTVSPropertyOp35
 70
     1
102
RTVSPropertyOp36
 70
     1
102
RTVSPropertyOp37
 70
     1
102
RTVSPropertyOp38
 70
     1
102
RTVSPropertyOp39
 70
     1
102
RTVSPropertyOp40
 70
     1
102
RTVSPropertyOp41
 70
     1
102
RTVSPropertyOp42
 70
     1
102
RTVSPropertyOp43
 70
     1
102
RTVSPropertyOp44
 70
     1
102
RTVSPropertyOp45
 70
     1
102
RTVSPropertyOp46
 70
     1
102
RTVSPropertyOp47
 70
     1
102
RTVSPropertyOp48
 70
     1
102
RTVSPropertyOp49
 70
     1
102
RTVSPropertyOp50
 70
     1
102
RTVSPropertyOp51
 70
     0
102
RTVSPropertyOp52
 70
     0
102
RTVSPropertyOp53
 70
     1
102
RTVSPropertyOp54
 70
     1
102
RTVSPropertyOp55
 70
     1
102
RTVSPropertyOp56
 70
     1
102
RTVSPropertyOp57
 70
     1
102
RTVSPropertyOp58
 70
     1
102
RTVSPropertyOp59
 70
     1
102
RTVSPropertyOp60
 70
     1
102
RTVSPropertyOp61
 70
     1
102
RTVSPropertyOp62
 70
     1
  0
XRECORD
  5
3EFF
102
{ACAD_REACTORS
330
3EFE
102
}
330
3EFE
100
AcDbXrecord
280
     1
102
RTVSPost2010Prop28
280
     0
102
RTVSPost2010PropOp28
 70
     1
102
RTVSPost2010Prop29
280
     1
102
RTVSPost2010PropOp29
 70
     1
102
RTVSPost2010Prop30
280
     1
102
RTVSPost2010PropOp30
 70
     1
102
RTVSPost2010Prop31
280
     0
102
RTVSPost2010PropOp31
 70
     1
102
RTVSPost2010Prop32
280
     0
102
RTVSPost2010PropOp32
 70
     1
102
RTVSPost2010Prop33
280
     0
102
RTVSPost2010PropOp33
 70
     1
102
RTVSPost2010Prop34
280
     0
102
RTVSPost2010PropOp34
 70
     1
102
RTVSPost2010Prop35
280
     0
102
RTVSPost2010PropOp35
 70
     1
102
RTVSPost2010Prop36
280
     0
102
RTVSPost2010PropOp36
 70
     1
102
RTVSPost2010Prop37
 90
       50
102
RTVSPost2010PropOp37
 70
     1
102
RTVSPost2010Prop38
140
0.0
102
RTVSPost2010PropOp38
 70
     1
102
RTVSPost2010Prop39
140
1.0
102
RTVSPost2010PropOp39
 70
     1
102
RTVSPost2010Prop40
 90
        0
102
RTVSPost2010PropOp40
 70
     1
102
RTVSPost2010Prop41ColorIndex
 90
       18
102
RTVSPost2010Prop41ColorRGB
 90
        0
102
RTVSPost2010PropOp41
 70
     1
102
RTVSPost2010Prop42
 90
       50
102
RTVSPost2010PropOp42
 70
     1
102
RTVSPost2010Prop43
 90
        3
102
RTVSPost2010PropOp43
 70
     1
102
RTVSPost2010Prop44ColorIndex
 90
        5
102
RTVSPost2010Prop44ColorRGB
 90
      255
102
RTVSPost2010PropOp44
 70
     1
102
RTVSPost2010Prop45
280
     0
102
RTVSPost2010PropOp45
 70
     1
102
RTVSPost2010Prop46
 90
       50
102
RTVSPost2010PropOp46
 70
     1
102
RTVSPost2010Prop47
 90
       50
102
RTVSPost2010PropOp47
 70
     1
102
RTVSPost2010Prop48
 90
       50
102
RTVSPost2010PropOp48
 70
     1
102
RTVSPost2010Prop49
280
     0
102
RTVSPost2010PropOp49
 70
     1
102
RTVSPost2010Prop50
 90
       50
102
RTVSPost2010PropOp50
 70
     1
102
RTVSPost2010Prop51ColorIndex
 90
      256
102
RTVSPost2010Prop51ColorRGB
 90
-16777216
102
RTVSPost2010PropOp51
 70
     0
102
RTVSPost2010Prop52
140
1.0
102
RTVSPost2010PropOp52
 70
     0
102
RTVSPost2010Prop53
 90
        2
102
RTVSPost2010PropOp53
 70
     1
102
RTVSPost2010Prop54
  1
strokes_ogs.tif
102
RTVSPost2010PropOp54
 70
     1
102
RTVSPost2010Prop55
280
     0
102
RTVSPost2010PropOp55
 70
     1
102
RTVSPost2010Prop56
140
1.0
102
RTVSPost2010PropOp56
 70
     1
102
RTVSPost2010Prop57
140
1.0
102
RTVSPost2010PropOp57
 70
     1
102
RTVSPropertyOp0
 70
     1
102
RTVSPropertyOp1
 70
     1
102
RTVSPropertyOp2
 70
     1
102
RTVSPropertyOp3
 70
     1
102
RTVSPropertyOp4
 70
     1
102
RTVSPropertyOp5
 70
     1
102
RTVSPropertyOp6
 70
     1
102
RTVSPropertyOp7
 70
     1
102
RTVSPropertyOp8
 70
     1
102
RTVSPropertyOp9
 70
     1
102
RTVSPropertyOp10
 70
     1
102
RTVSPropertyOp11
 70
     1
102
RTVSPropertyOp12
 70
     1
102
RTVSPropertyOp13
 70
     1
102
RTVSPropertyOp14
 70
     1
102
RTVSPropertyOp15
 70
     1
102
RTVSPropertyOp16
 70
     1
102
RTVSPropertyOp17
 70
     1
102
RTVSPropertyOp18
 70
     1
102
RTVSPropertyOp19
 70
     1
102
RTVSPropertyOp20
 70
     1
102
RTVSPropertyOp21
 70
     1
102
RTVSPropertyOp22
 70
     1
102
RTVSPropertyOp23
 70
     1
102
RTVSPropertyOp24
 70
     1
102
RTVSPropertyOp25
 70
     1
102
RTVSPropertyOp26
 70
     1
102
RTVSPropertyOp27
 70
     1
102
RTVSPropertyOp28
 70
     1
102
RTVSPropertyOp29
 70
     1
102
RTVSPropertyOp30
 70
     1
102
RTVSPropertyOp31
 70
     1
102
RTVSPropertyOp32
 70
     1
102
RTVSPropertyOp33
 70
     1
102
RTVSPropertyOp34
 70
     1
102
RTVSPropertyOp35
 70
     1
102
RTVSPropertyOp36
 70
     1
102
RTVSPropertyOp37
 70
     1
102
RTVSPropertyOp38
 70
     1
102
RTVSPropertyOp39
 70
     1
102
RTVSPropertyOp40
 70
     1
102
RTVSPropertyOp41
 70
     1
102
RTVSPropertyOp42
 70
     1
102
RTVSPropertyOp43
 70
     1
102
RTVSPropertyOp44
 70
     1
102
RTVSPropertyOp45
 70
     1
102
RTVSPropertyOp46
 70
     1
102
RTVSPropertyOp47
 70
     1
102
RTVSPropertyOp48
 70
     1
102
RTVSPropertyOp49
 70
     1
102
RTVSPropertyOp50
 70
     1
102
RTVSPropertyOp51
 70
     0
102
RTVSPropertyOp52
 70
     0
102
RTVSPropertyOp53
 70
     1
102
RTVSPropertyOp54
 70
     1
102
RTVSPropertyOp55
 70
     1
102
RTVSPropertyOp56
 70
     1
102
RTVSPropertyOp57
 70
     1
102
RTVSPropertyOp58
 70
     1
102
RTVSPropertyOp59
 70
     1
102
RTVSPropertyOp60
 70
     1
102
RTVSPropertyOp61
 70
     1
102
RTVSPropertyOp62
 70
     1
  0
XRECORD
  5
3F19
102
{ACAD_REACTORS
330
3F18
102
}
330
3F18
100
AcDbXrecord
280
     1
102
RTVSPost2010Prop28
280
     0
102
RTVSPost2010PropOp28
 70
     1
102
RTVSPost2010Prop29
280
     1
102
RTVSPost2010PropOp29
 70
     1
102
RTVSPost2010Prop30
280
     1
102
RTVSPost2010PropOp30
 70
     1
102
RTVSPost2010Prop31
280
     0
102
RTVSPost2010PropOp31
 70
     1
102
RTVSPost2010Prop32
280
     0
102
RTVSPost2010PropOp32
 70
     1
102
RTVSPost2010Prop33
280
     0
102
RTVSPost2010PropOp33
 70
     1
102
RTVSPost2010Prop34
280
     0
102
RTVSPost2010PropOp34
 70
     1
102
RTVSPost2010Prop35
280
     0
102
RTVSPost2010PropOp35
 70
     1
102
RTVSPost2010Prop36
280
     0
102
RTVSPost2010PropOp36
 70
     1
102
RTVSPost2010Prop37
 90
       50
102
RTVSPost2010PropOp37
 70
     0
102
RTVSPost2010Prop38
140
0.0
102
RTVSPost2010PropOp38
 70
     0
102
RTVSPost2010Prop39
140
1.0
102
RTVSPost2010PropOp39
 70
     0
102
RTVSPost2010Prop40
 90
        0
102
RTVSPost2010PropOp40
 70
     0
102
RTVSPost2010Prop41ColorIndex
 90
       18
102
RTVSPost2010Prop41ColorRGB
 90
        0
102
RTVSPost2010PropOp41
 70
     0
102
RTVSPost2010Prop42
 90
       50
102
RTVSPost2010PropOp42
 70
     0
102
RTVSPost2010Prop43
 90
        3
102
RTVSPost2010PropOp43
 70
     0
102
RTVSPost2010Prop44ColorIndex
 90
        5
102
RTVSPost2010Prop44ColorRGB
 90
      255
102
RTVSPost2010PropOp44
 70
     0
102
RTVSPost2010Prop45
280
     0
102
RTVSPost2010PropOp45
 70
     1
102
RTVSPost2010Prop46
 90
       50
102
RTVSPost2010PropOp46
 70
     0
102
RTVSPost2010Prop47
 90
       50
102
RTVSPost2010PropOp47
 70
     0
102
RTVSPost2010Prop48
 90
       50
102
RTVSPost2010PropOp48
 70
     0
102
RTVSPost2010Prop49
280
     0
102
RTVSPost2010PropOp49
 70
     1
102
RTVSPost2010Prop50
 90
       50
102
RTVSPost2010PropOp50
 70
     0
102
RTVSPost2010Prop51ColorIndex
 90
      256
102
RTVSPost2010Prop51ColorRGB
 90
-16777216
102
RTVSPost2010PropOp51
 70
     0
102
RTVSPost2010Prop52
140
1.0
102
RTVSPost2010PropOp52
 70
     0
102
RTVSPost2010Prop53
 90
        2
102
RTVSPost2010PropOp53
 70
     0
102
RTVSPost2010Prop54
  1
strokes_ogs.tif
102
RTVSPost2010PropOp54
 70
     0
102
RTVSPost2010Prop55
280
     0
102
RTVSPost2010PropOp55
 70
     1
102
RTVSPost2010Prop56
140
1.0
102
RTVSPost2010PropOp56
 70
     0
102
RTVSPost2010Prop57
140
1.0
102
RTVSPost2010PropOp57
 70
     0
102
RTVSPropertyOp0
 70
     0
102
RTVSPropertyOp1
 70
     0
102
RTVSPropertyOp2
 70
     0
102
RTVSPropertyOp3
 70
     0
102
RTVSPropertyOp4
 70
     0
102
RTVSPropertyOp5
 70
     0
102
RTVSPropertyOp6
 70
     0
102
RTVSPropertyOp7
 70
     0
102
RTVSPropertyOp8
 70
     0
102
RTVSPropertyOp9
 70
     0
102
RTVSPropertyOp10
 70
     0
102
RTVSPropertyOp11
 70
     0
102
RTVSPropertyOp12
 70
     0
102
RTVSPropertyOp13
 70
     0
102
RTVSPropertyOp14
 70
     2
102
RTVSPropertyOp15
 70
     0
102
RTVSPropertyOp16
 70
     0
102
RTVSPropertyOp17
 70
     0
102
RTVSPropertyOp18
 70
     0
102
RTVSPropertyOp19
 70
     0
102
RTVSPropertyOp20
 70
     0
102
RTVSPropertyOp21
 70
     0
102
RTVSPropertyOp22
 70
     0
102
RTVSPropertyOp23
 70
     0
102
RTVSPropertyOp24
 70
     0
102
RTVSPropertyOp25
 70
     0
102
RTVSPropertyOp26
 70
     0
102
RTVSPropertyOp27
 70
     0
102
RTVSPropertyOp28
 70
     1
102
RTVSPropertyOp29
 70
     1
102
RTVSPropertyOp30
 70
     1
102
RTVSPropertyOp31
 70
     1
102
RTVSPropertyOp32
 70
     1
102
RTVSPropertyOp33
 70
     1
102
RTVSPropertyOp34
 70
     1
102
RTVSPropertyOp35
 70
     1
102
RTVSPropertyOp36
 70
     1
102
RTVSPropertyOp37
 70
     0
102
RTVSPropertyOp38
 70
     0
102
RTVSPropertyOp39
 70
     0
102
RTVSPropertyOp40
 70
     0
102
RTVSPropertyOp41
 70
     0
102
RTVSPropertyOp42
 70
     0
102
RTVSPropertyOp43
 70
     0
102
RTVSPropertyOp44
 70
     0
102
RTVSPropertyOp45
 70
     1
102
RTVSPropertyOp46
 70
     0
102
RTVSPropertyOp47
 70
     0
102
RTVSPropertyOp48
 70
     0
102
RTVSPropertyOp49
 70
     1
102
RTVSPropertyOp50
 70
     0
102
RTVSPropertyOp51
 70
     0
102
RTVSPropertyOp52
 70
     0
102
RTVSPropertyOp53
 70
     0
102
RTVSPropertyOp54
 70
     0
102
RTVSPropertyOp55
 70
     1
102
RTVSPropertyOp56
 70
     0
102
RTVSPropertyOp57
 70
     0
102
RTVSPropertyOp58
 70
     0
102
RTVSPropertyOp59
 70
     0
102
RTVSPropertyOp60
 70
     0
102
RTVSPropertyOp61
 70
     0
102
RTVSPropertyOp62
 70
     0
  0
XRECORD
  5
3F07
102
{ACAD_REACTORS
330
3F06
102
}
330
3F06
100
AcDbXrecord
280
     1
102
RTVSPost2010Prop28
280
     0
102
RTVSPost2010PropOp28
 70
     1
102
RTVSPost2010Prop29
280
     1
102
RTVSPost2010PropOp29
 70
     1
102
RTVSPost2010Prop30
280
     1
102
RTVSPost2010PropOp30
 70
     1
102
RTVSPost2010Prop31
280
     0
102
RTVSPost2010PropOp31
 70
     1
102
RTVSPost2010Prop32
280
     0
102
RTVSPost2010PropOp32
 70
     1
102
RTVSPost2010Prop33
280
     0
102
RTVSPost2010PropOp33
 70
     1
102
RTVSPost2010Prop34
280
     0
102
RTVSPost2010PropOp34
 70
     1
102
RTVSPost2010Prop35
280
     0
102
RTVSPost2010PropOp35
 70
     1
102
RTVSPost2010Prop36
280
     0
102
RTVSPost2010PropOp36
 70
     1
102
RTVSPost2010Prop37
 90
       50
102
RTVSPost2010PropOp37
 70
     1
102
RTVSPost2010Prop38
140
0.0
102
RTVSPost2010PropOp38
 70
     1
102
RTVSPost2010Prop39
140
1.0
102
RTVSPost2010PropOp39
 70
     1
102
RTVSPost2010Prop40
 90
        0
102
RTVSPost2010PropOp40
 70
     1
102
RTVSPost2010Prop41ColorIndex
 90
       18
102
RTVSPost2010Prop41ColorRGB
 90
        0
102
RTVSPost2010PropOp41
 70
     1
102
RTVSPost2010Prop42
 90
       50
102
RTVSPost2010PropOp42
 70
     1
102
RTVSPost2010Prop43
 90
        3
102
RTVSPost2010PropOp43
 70
     1
102
RTVSPost2010Prop44ColorIndex
 90
        5
102
RTVSPost2010Prop44ColorRGB
 90
      255
102
RTVSPost2010PropOp44
 70
     1
102
RTVSPost2010Prop45
280
     0
102
RTVSPost2010PropOp45
 70
     1
102
RTVSPost2010Prop46
 90
       50
102
RTVSPost2010PropOp46
 70
     1
102
RTVSPost2010Prop47
 90
       50
102
RTVSPost2010PropOp47
 70
     1
102
RTVSPost2010Prop48
 90
       50
102
RTVSPost2010PropOp48
 70
     1
102
RTVSPost2010Prop49
280
     0
102
RTVSPost2010PropOp49
 70
     1
102
RTVSPost2010Prop50
 90
       50
102
RTVSPost2010PropOp50
 70
     1
102
RTVSPost2010Prop51ColorIndex
 90
      256
102
RTVSPost2010Prop51ColorRGB
 90
-16777216
102
RTVSPost2010PropOp51
 70
     0
102
RTVSPost2010Prop52
140
1.0
102
RTVSPost2010PropOp52
 70
     0
102
RTVSPost2010Prop53
 90
        2
102
RTVSPost2010PropOp53
 70
     1
102
RTVSPost2010Prop54
  1
strokes_ogs.tif
102
RTVSPost2010PropOp54
 70
     1
102
RTVSPost2010Prop55
280
     0
102
RTVSPost2010PropOp55
 70
     1
102
RTVSPost2010Prop56
140
1.0
102
RTVSPost2010PropOp56
 70
     1
102
RTVSPost2010Prop57
140
1.0
102
RTVSPost2010PropOp57
 70
     1
102
RTVSPropertyOp0
 70
     1
102
RTVSPropertyOp1
 70
     1
102
RTVSPropertyOp2
 70
     1
102
RTVSPropertyOp3
 70
     1
102
RTVSPropertyOp4
 70
     1
102
RTVSPropertyOp5
 70
     1
102
RTVSPropertyOp6
 70
     1
102
RTVSPropertyOp7
 70
     1
102
RTVSPropertyOp8
 70
     1
102
RTVSPropertyOp9
 70
     1
102
RTVSPropertyOp10
 70
     1
102
RTVSPropertyOp11
 70
     1
102
RTVSPropertyOp12
 70
     1
102
RTVSPropertyOp13
 70
     1
102
RTVSPropertyOp14
 70
     1
102
RTVSPropertyOp15
 70
     1
102
RTVSPropertyOp16
 70
     1
102
RTVSPropertyOp17
 70
     1
102
RTVSPropertyOp18
 70
     1
102
RTVSPropertyOp19
 70
     1
102
RTVSPropertyOp20
 70
     1
102
RTVSPropertyOp21
 70
     1
102
RTVSPropertyOp22
 70
     1
102
RTVSPropertyOp23
 70
     1
102
RTVSPropertyOp24
 70
     1
102
RTVSPropertyOp25
 70
     1
102
RTVSPropertyOp26
 70
     1
102
RTVSPropertyOp27
 70
     1
102
RTVSPropertyOp28
 70
     1
102
RTVSPropertyOp29
 70
     1
102
RTVSPropertyOp30
 70
     1
102
RTVSPropertyOp31
 70
     1
102
RTVSPropertyOp32
 70
     1
102
RTVSPropertyOp33
 70
     1
102
RTVSPropertyOp34
 70
     1
102
RTVSPropertyOp35
 70
     1
102
RTVSPropertyOp36
 70
     1
102
RTVSPropertyOp37
 70
     1
102
RTVSPropertyOp38
 70
     1
102
RTVSPropertyOp39
 70
     1
102
RTVSPropertyOp40
 70
     1
102
RTVSPropertyOp41
 70
     1
102
RTVSPropertyOp42
 70
     1
102
RTVSPropertyOp43
 70
     1
102
RTVSPropertyOp44
 70
     1
102
RTVSPropertyOp45
 70
     1
102
RTVSPropertyOp46
 70
     1
102
RTVSPropertyOp47
 70
     1
102
RTVSPropertyOp48
 70
     1
102
RTVSPropertyOp49
 70
     1
102
RTVSPropertyOp50
 70
     1
102
RTVSPropertyOp51
 70
     0
102
RTVSPropertyOp52
 70
     0
102
RTVSPropertyOp53
 70
     1
102
RTVSPropertyOp54
 70
     1
102
RTVSPropertyOp55
 70
     1
102
RTVSPropertyOp56
 70
     1
102
RTVSPropertyOp57
 70
     1
102
RTVSPropertyOp58
 70
     1
102
RTVSPropertyOp59
 70
     1
102
RTVSPropertyOp60
 70
     1
102
RTVSPropertyOp61
 70
     1
102
RTVSPropertyOp62
 70
     1
  0
XRECORD
  5
3EEB
102
{ACAD_REACTORS
330
3EEA
102
}
330
3EEA
100
AcDbXrecord
280
     1
102
RTVSPost2010Prop28
280
     0
102
RTVSPost2010PropOp28
 70
     1
102
RTVSPost2010Prop29
280
     1
102
RTVSPost2010PropOp29
 70
     1
102
RTVSPost2010Prop30
280
     1
102
RTVSPost2010PropOp30
 70
     1
102
RTVSPost2010Prop31
280
     0
102
RTVSPost2010PropOp31
 70
     1
102
RTVSPost2010Prop32
280
     0
102
RTVSPost2010PropOp32
 70
     1
102
RTVSPost2010Prop33
280
     0
102
RTVSPost2010PropOp33
 70
     1
102
RTVSPost2010Prop34
280
     0
102
RTVSPost2010PropOp34
 70
     1
102
RTVSPost2010Prop35
280
     0
102
RTVSPost2010PropOp35
 70
     1
102
RTVSPost2010Prop36
280
     0
102
RTVSPost2010PropOp36
 70
     1
102
RTVSPost2010Prop37
 90
       50
102
RTVSPost2010PropOp37
 70
     1
102
RTVSPost2010Prop38
140
0.0
102
RTVSPost2010PropOp38
 70
     1
102
RTVSPost2010Prop39
140
1.0
102
RTVSPost2010PropOp39
 70
     1
102
RTVSPost2010Prop40
 90
        0
102
RTVSPost2010PropOp40
 70
     1
102
RTVSPost2010Prop41ColorIndex
 90
       18
102
RTVSPost2010Prop41ColorRGB
 90
        0
102
RTVSPost2010PropOp41
 70
     1
102
RTVSPost2010Prop42
 90
       50
102
RTVSPost2010PropOp42
 70
     1
102
RTVSPost2010Prop43
 90
        3
102
RTVSPost2010PropOp43
 70
     1
102
RTVSPost2010Prop44ColorIndex
 90
        5
102
RTVSPost2010Prop44ColorRGB
 90
      255
102
RTVSPost2010PropOp44
 70
     1
102
RTVSPost2010Prop45
280
     0
102
RTVSPost2010PropOp45
 70
     1
102
RTVSPost2010Prop46
 90
       50
102
RTVSPost2010PropOp46
 70
     1
102
RTVSPost2010Prop47
 90
       50
102
RTVSPost2010PropOp47
 70
     1
102
RTVSPost2010Prop48
 90
       50
102
RTVSPost2010PropOp48
 70
     1
102
RTVSPost2010Prop49
280
     0
102
RTVSPost2010PropOp49
 70
     1
102
RTVSPost2010Prop50
 90
       50
102
RTVSPost2010PropOp50
 70
     1
102
RTVSPost2010Prop51ColorIndex
 90
      256
102
RTVSPost2010Prop51ColorRGB
 90
-16777216
102
RTVSPost2010PropOp51
 70
     0
102
RTVSPost2010Prop52
140
1.0
102
RTVSPost2010PropOp52
 70
     0
102
RTVSPost2010Prop53
 90
        2
102
RTVSPost2010PropOp53
 70
     1
102
RTVSPost2010Prop54
  1
strokes_ogs.tif
102
RTVSPost2010PropOp54
 70
     1
102
RTVSPost2010Prop55
280
     0
102
RTVSPost2010PropOp55
 70
     1
102
RTVSPost2010Prop56
140
1.0
102
RTVSPost2010PropOp56
 70
     1
102
RTVSPost2010Prop57
140
1.0
102
RTVSPost2010PropOp57
 70
     1
102
RTVSPropertyOp0
 70
     1
102
RTVSPropertyOp1
 70
     1
102
RTVSPropertyOp2
 70
     1
102
RTVSPropertyOp3
 70
     1
102
RTVSPropertyOp4
 70
     1
102
RTVSPropertyOp5
 70
     1
102
RTVSPropertyOp6
 70
     1
102
RTVSPropertyOp7
 70
     1
102
RTVSPropertyOp8
 70
     1
102
RTVSPropertyOp9
 70
     1
102
RTVSPropertyOp10
 70
     1
102
RTVSPropertyOp11
 70
     1
102
RTVSPropertyOp12
 70
     1
102
RTVSPropertyOp13
 70
     1
102
RTVSPropertyOp14
 70
     1
102
RTVSPropertyOp15
 70
     1
102
RTVSPropertyOp16
 70
     1
102
RTVSPropertyOp17
 70
     1
102
RTVSPropertyOp18
 70
     1
102
RTVSPropertyOp19
 70
     1
102
RTVSPropertyOp20
 70
     1
102
RTVSPropertyOp21
 70
     1
102
RTVSPropertyOp22
 70
     1
102
RTVSPropertyOp23
 70
     1
102
RTVSPropertyOp24
 70
     1
102
RTVSPropertyOp25
 70
     1
102
RTVSPropertyOp26
 70
     1
102
RTVSPropertyOp27
 70
     1
102
RTVSPropertyOp28
 70
     1
102
RTVSPropertyOp29
 70
     1
102
RTVSPropertyOp30
 70
     1
102
RTVSPropertyOp31
 70
     1
102
RTVSPropertyOp32
 70
     1
102
RTVSPropertyOp33
 70
     1
102
RTVSPropertyOp34
 70
     1
102
RTVSPropertyOp35
 70
     1
102
RTVSPropertyOp36
 70
     1
102
RTVSPropertyOp37
 70
     1
102
RTVSPropertyOp38
 70
     1
102
RTVSPropertyOp39
 70
     1
102
RTVSPropertyOp40
 70
     1
102
RTVSPropertyOp41
 70
     1
102
RTVSPropertyOp42
 70
     1
102
RTVSPropertyOp43
 70
     1
102
RTVSPropertyOp44
 70
     1
102
RTVSPropertyOp45
 70
     1
102
RTVSPropertyOp46
 70
     1
102
RTVSPropertyOp47
 70
     1
102
RTVSPropertyOp48
 70
     1
102
RTVSPropertyOp49
 70
     1
102
RTVSPropertyOp50
 70
     1
102
RTVSPropertyOp51
 70
     0
102
RTVSPropertyOp52
 70
     0
102
RTVSPropertyOp53
 70
     1
102
RTVSPropertyOp54
 70
     1
102
RTVSPropertyOp55
 70
     1
102
RTVSPropertyOp56
 70
     1
102
RTVSPropertyOp57
 70
     1
102
RTVSPropertyOp58
 70
     1
102
RTVSPropertyOp59
 70
     1
102
RTVSPropertyOp60
 70
     1
102
RTVSPropertyOp61
 70
     1
102
RTVSPropertyOp62
 70
     1
  0
XRECORD
  5
3EED
102
{ACAD_REACTORS
330
3EEC
102
}
330
3EEC
100
AcDbXrecord
280
     1
102
RTVSPost2010Prop28
280
     0
102
RTVSPost2010PropOp28
 70
     1
102
RTVSPost2010Prop29
280
     1
102
RTVSPost2010PropOp29
 70
     1
102
RTVSPost2010Prop30
280
     1
102
RTVSPost2010PropOp30
 70
     1
102
RTVSPost2010Prop31
280
     0
102
RTVSPost2010PropOp31
 70
     1
102
RTVSPost2010Prop32
280
     0
102
RTVSPost2010PropOp32
 70
     1
102
RTVSPost2010Prop33
280
     0
102
RTVSPost2010PropOp33
 70
     1
102
RTVSPost2010Prop34
280
     0
102
RTVSPost2010PropOp34
 70
     1
102
RTVSPost2010Prop35
280
     0
102
RTVSPost2010PropOp35
 70
     1
102
RTVSPost2010Prop36
280
     0
102
RTVSPost2010PropOp36
 70
     1
102
RTVSPost2010Prop37
 90
       50
102
RTVSPost2010PropOp37
 70
     1
102
RTVSPost2010Prop38
140
0.0
102
RTVSPost2010PropOp38
 70
     1
102
RTVSPost2010Prop39
140
1.0
102
RTVSPost2010PropOp39
 70
     1
102
RTVSPost2010Prop40
 90
        0
102
RTVSPost2010PropOp40
 70
     1
102
RTVSPost2010Prop41ColorIndex
 90
       18
102
RTVSPost2010Prop41ColorRGB
 90
        0
102
RTVSPost2010PropOp41
 70
     1
102
RTVSPost2010Prop42
 90
       50
102
RTVSPost2010PropOp42
 70
     1
102
RTVSPost2010Prop43
 90
        3
102
RTVSPost2010PropOp43
 70
     1
102
RTVSPost2010Prop44ColorIndex
 90
        5
102
RTVSPost2010Prop44ColorRGB
 90
      255
102
RTVSPost2010PropOp44
 70
     1
102
RTVSPost2010Prop45
280
     0
102
RTVSPost2010PropOp45
 70
     1
102
RTVSPost2010Prop46
 90
       50
102
RTVSPost2010PropOp46
 70
     1
102
RTVSPost2010Prop47
 90
       50
102
RTVSPost2010PropOp47
 70
     1
102
RTVSPost2010Prop48
 90
       50
102
RTVSPost2010PropOp48
 70
     1
102
RTVSPost2010Prop49
280
     0
102
RTVSPost2010PropOp49
 70
     1
102
RTVSPost2010Prop50
 90
       50
102
RTVSPost2010PropOp50
 70
     1
102
RTVSPost2010Prop51ColorIndex
 90
      256
102
RTVSPost2010Prop51ColorRGB
 90
-16777216
102
RTVSPost2010PropOp51
 70
     0
102
RTVSPost2010Prop52
140
1.0
102
RTVSPost2010PropOp52
 70
     0
102
RTVSPost2010Prop53
 90
        2
102
RTVSPost2010PropOp53
 70
     1
102
RTVSPost2010Prop54
  1
strokes_ogs.tif
102
RTVSPost2010PropOp54
 70
     1
102
RTVSPost2010Prop55
280
     0
102
RTVSPost2010PropOp55
 70
     1
102
RTVSPost2010Prop56
140
1.0
102
RTVSPost2010PropOp56
 70
     1
102
RTVSPost2010Prop57
140
1.0
102
RTVSPost2010PropOp57
 70
     1
102
RTVSPropertyOp0
 70
     1
102
RTVSPropertyOp1
 70
     1
102
RTVSPropertyOp2
 70
     1
102
RTVSPropertyOp3
 70
     1
102
RTVSPropertyOp4
 70
     1
102
RTVSPropertyOp5
 70
     1
102
RTVSPropertyOp6
 70
     1
102
RTVSPropertyOp7
 70
     1
102
RTVSPropertyOp8
 70
     1
102
RTVSPropertyOp9
 70
     1
102
RTVSPropertyOp10
 70
     1
102
RTVSPropertyOp11
 70
     1
102
RTVSPropertyOp12
 70
     1
102
RTVSPropertyOp13
 70
     1
102
RTVSPropertyOp14
 70
     1
102
RTVSPropertyOp15
 70
     1
102
RTVSPropertyOp16
 70
     1
102
RTVSPropertyOp17
 70
     1
102
RTVSPropertyOp18
 70
     1
102
RTVSPropertyOp19
 70
     1
102
RTVSPropertyOp20
 70
     1
102
RTVSPropertyOp21
 70
     1
102
RTVSPropertyOp22
 70
     1
102
RTVSPropertyOp23
 70
     1
102
RTVSPropertyOp24
 70
     1
102
RTVSPropertyOp25
 70
     1
102
RTVSPropertyOp26
 70
     1
102
RTVSPropertyOp27
 70
     1
102
RTVSPropertyOp28
 70
     1
102
RTVSPropertyOp29
 70
     1
102
RTVSPropertyOp30
 70
     1
102
RTVSPropertyOp31
 70
     1
102
RTVSPropertyOp32
 70
     1
102
RTVSPropertyOp33
 70
     1
102
RTVSPropertyOp34
 70
     1
102
RTVSPropertyOp35
 70
     1
102
RTVSPropertyOp36
 70
     1
102
RTVSPropertyOp37
 70
     1
102
RTVSPropertyOp38
 70
     1
102
RTVSPropertyOp39
 70
     1
102
RTVSPropertyOp40
 70
     1
102
RTVSPropertyOp41
 70
     1
102
RTVSPropertyOp42
 70
     1
102
RTVSPropertyOp43
 70
     1
102
RTVSPropertyOp44
 70
     1
102
RTVSPropertyOp45
 70
     1
102
RTVSPropertyOp46
 70
     1
102
RTVSPropertyOp47
 70
     1
102
RTVSPropertyOp48
 70
     1
102
RTVSPropertyOp49
 70
     1
102
RTVSPropertyOp50
 70
     1
102
RTVSPropertyOp51
 70
     0
102
RTVSPropertyOp52
 70
     0
102
RTVSPropertyOp53
 70
     1
102
RTVSPropertyOp54
 70
     1
102
RTVSPropertyOp55
 70
     1
102
RTVSPropertyOp56
 70
     1
102
RTVSPropertyOp57
 70
     1
102
RTVSPropertyOp58
 70
     1
102
RTVSPropertyOp59
 70
     1
102
RTVSPropertyOp60
 70
     1
102
RTVSPropertyOp61
 70
     1
102
RTVSPropertyOp62
 70
     1
  0
XRECORD
  5
3EEF
102
{ACAD_REACTORS
330
3EEE
102
}
330
3EEE
100
AcDbXrecord
280
     1
102
RTVSPost2010Prop28
280
     0
102
RTVSPost2010PropOp28
 70
     1
102
RTVSPost2010Prop29
280
     1
102
RTVSPost2010PropOp29
 70
     1
102
RTVSPost2010Prop30
280
     1
102
RTVSPost2010PropOp30
 70
     1
102
RTVSPost2010Prop31
280
     0
102
RTVSPost2010PropOp31
 70
     1
102
RTVSPost2010Prop32
280
     0
102
RTVSPost2010PropOp32
 70
     1
102
RTVSPost2010Prop33
280
     0
102
RTVSPost2010PropOp33
 70
     1
102
RTVSPost2010Prop34
280
     0
102
RTVSPost2010PropOp34
 70
     1
102
RTVSPost2010Prop35
280
     0
102
RTVSPost2010PropOp35
 70
     1
102
RTVSPost2010Prop36
280
     0
102
RTVSPost2010PropOp36
 70
     1
102
RTVSPost2010Prop37
 90
       50
102
RTVSPost2010PropOp37
 70
     1
102
RTVSPost2010Prop38
140
0.0
102
RTVSPost2010PropOp38
 70
     1
102
RTVSPost2010Prop39
140
1.0
102
RTVSPost2010PropOp39
 70
     1
102
RTVSPost2010Prop40
 90
        0
102
RTVSPost2010PropOp40
 70
     1
102
RTVSPost2010Prop41ColorIndex
 90
       18
102
RTVSPost2010Prop41ColorRGB
 90
        0
102
RTVSPost2010PropOp41
 70
     1
102
RTVSPost2010Prop42
 90
       50
102
RTVSPost2010PropOp42
 70
     1
102
RTVSPost2010Prop43
 90
        3
102
RTVSPost2010PropOp43
 70
     1
102
RTVSPost2010Prop44ColorIndex
 90
        5
102
RTVSPost2010Prop44ColorRGB
 90
      255
102
RTVSPost2010PropOp44
 70
     1
102
RTVSPost2010Prop45
280
     0
102
RTVSPost2010PropOp45
 70
     1
102
RTVSPost2010Prop46
 90
       50
102
RTVSPost2010PropOp46
 70
     1
102
RTVSPost2010Prop47
 90
       50
102
RTVSPost2010PropOp47
 70
     1
102
RTVSPost2010Prop48
 90
       50
102
RTVSPost2010PropOp48
 70
     1
102
RTVSPost2010Prop49
280
     0
102
RTVSPost2010PropOp49
 70
     1
102
RTVSPost2010Prop50
 90
       50
102
RTVSPost2010PropOp50
 70
     1
102
RTVSPost2010Prop51ColorIndex
 90
      256
102
RTVSPost2010Prop51ColorRGB
 90
-16777216
102
RTVSPost2010PropOp51
 70
     0
102
RTVSPost2010Prop52
140
1.0
102
RTVSPost2010PropOp52
 70
     0
102
RTVSPost2010Prop53
 90
        2
102
RTVSPost2010PropOp53
 70
     1
102
RTVSPost2010Prop54
  1
strokes_ogs.tif
102
RTVSPost2010PropOp54
 70
     1
102
RTVSPost2010Prop55
280
     0
102
RTVSPost2010PropOp55
 70
     1
102
RTVSPost2010Prop56
140
1.0
102
RTVSPost2010PropOp56
 70
     1
102
RTVSPost2010Prop57
140
1.0
102
RTVSPost2010PropOp57
 70
     1
102
RTVSPropertyOp0
 70
     1
102
RTVSPropertyOp1
 70
     1
102
RTVSPropertyOp2
 70
     1
102
RTVSPropertyOp3
 70
     1
102
RTVSPropertyOp4
 70
     1
102
RTVSPropertyOp5
 70
     1
102
RTVSPropertyOp6
 70
     1
102
RTVSPropertyOp7
 70
     1
102
RTVSPropertyOp8
 70
     1
102
RTVSPropertyOp9
 70
     1
102
RTVSPropertyOp10
 70
     1
102
RTVSPropertyOp11
 70
     1
102
RTVSPropertyOp12
 70
     1
102
RTVSPropertyOp13
 70
     1
102
RTVSPropertyOp14
 70
     1
102
RTVSPropertyOp15
 70
     1
102
RTVSPropertyOp16
 70
     1
102
RTVSPropertyOp17
 70
     1
102
RTVSPropertyOp18
 70
     1
102
RTVSPropertyOp19
 70
     1
102
RTVSPropertyOp20
 70
     1
102
RTVSPropertyOp21
 70
     1
102
RTVSPropertyOp22
 70
     1
102
RTVSPropertyOp23
 70
     1
102
RTVSPropertyOp24
 70
     1
102
RTVSPropertyOp25
 70
     1
102
RTVSPropertyOp26
 70
     1
102
RTVSPropertyOp27
 70
     1
102
RTVSPropertyOp28
 70
     1
102
RTVSPropertyOp29
 70
     1
102
RTVSPropertyOp30
 70
     1
102
RTVSPropertyOp31
 70
     1
102
RTVSPropertyOp32
 70
     1
102
RTVSPropertyOp33
 70
     1
102
RTVSPropertyOp34
 70
     1
102
RTVSPropertyOp35
 70
     1
102
RTVSPropertyOp36
 70
     1
102
RTVSPropertyOp37
 70
     1
102
RTVSPropertyOp38
 70
     1
102
RTVSPropertyOp39
 70
     1
102
RTVSPropertyOp40
 70
     1
102
RTVSPropertyOp41
 70
     1
102
RTVSPropertyOp42
 70
     1
102
RTVSPropertyOp43
 70
     1
102
RTVSPropertyOp44
 70
     1
102
RTVSPropertyOp45
 70
     1
102
RTVSPropertyOp46
 70
     1
102
RTVSPropertyOp47
 70
     1
102
RTVSPropertyOp48
 70
     1
102
RTVSPropertyOp49
 70
     1
102
RTVSPropertyOp50
 70
     1
102
RTVSPropertyOp51
 70
     0
102
RTVSPropertyOp52
 70
     0
102
RTVSPropertyOp53
 70
     1
102
RTVSPropertyOp54
 70
     1
102
RTVSPropertyOp55
 70
     1
102
RTVSPropertyOp56
 70
     1
102
RTVSPropertyOp57
 70
     1
102
RTVSPropertyOp58
 70
     1
102
RTVSPropertyOp59
 70
     1
102
RTVSPropertyOp60
 70
     1
102
RTVSPropertyOp61
 70
     1
102
RTVSPropertyOp62
 70
     1
  0
XRECORD
  5
3EF1
102
{ACAD_REACTORS
330
3EF0
102
}
330
3EF0
100
AcDbXrecord
280
     1
102
RTVSPost2010Prop28
280
     0
102
RTVSPost2010PropOp28
 70
     1
102
RTVSPost2010Prop29
280
     1
102
RTVSPost2010PropOp29
 70
     1
102
RTVSPost2010Prop30
280
     1
102
RTVSPost2010PropOp30
 70
     1
102
RTVSPost2010Prop31
280
     0
102
RTVSPost2010PropOp31
 70
     1
102
RTVSPost2010Prop32
280
     0
102
RTVSPost2010PropOp32
 70
     1
102
RTVSPost2010Prop33
280
     0
102
RTVSPost2010PropOp33
 70
     1
102
RTVSPost2010Prop34
280
     0
102
RTVSPost2010PropOp34
 70
     1
102
RTVSPost2010Prop35
280
     0
102
RTVSPost2010PropOp35
 70
     1
102
RTVSPost2010Prop36
280
     0
102
RTVSPost2010PropOp36
 70
     1
102
RTVSPost2010Prop37
 90
       50
102
RTVSPost2010PropOp37
 70
     1
102
RTVSPost2010Prop38
140
0.0
102
RTVSPost2010PropOp38
 70
     1
102
RTVSPost2010Prop39
140
1.0
102
RTVSPost2010PropOp39
 70
     1
102
RTVSPost2010Prop40
 90
        0
102
RTVSPost2010PropOp40
 70
     1
102
RTVSPost2010Prop41ColorIndex
 90
       18
102
RTVSPost2010Prop41ColorRGB
 90
        0
102
RTVSPost2010PropOp41
 70
     1
102
RTVSPost2010Prop42
 90
       50
102
RTVSPost2010PropOp42
 70
     1
102
RTVSPost2010Prop43
 90
        3
102
RTVSPost2010PropOp43
 70
     1
102
RTVSPost2010Prop44ColorIndex
 90
        5
102
RTVSPost2010Prop44ColorRGB
 90
      255
102
RTVSPost2010PropOp44
 70
     1
102
RTVSPost2010Prop45
280
     0
102
RTVSPost2010PropOp45
 70
     1
102
RTVSPost2010Prop46
 90
       50
102
RTVSPost2010PropOp46
 70
     1
102
RTVSPost2010Prop47
 90
       50
102
RTVSPost2010PropOp47
 70
     1
102
RTVSPost2010Prop48
 90
       50
102
RTVSPost2010PropOp48
 70
     1
102
RTVSPost2010Prop49
280
     0
102
RTVSPost2010PropOp49
 70
     1
102
RTVSPost2010Prop50
 90
       50
102
RTVSPost2010PropOp50
 70
     1
102
RTVSPost2010Prop51ColorIndex
 90
      256
102
RTVSPost2010Prop51ColorRGB
 90
-16777216
102
RTVSPost2010PropOp51
 70
     0
102
RTVSPost2010Prop52
140
1.0
102
RTVSPost2010PropOp52
 70
     0
102
RTVSPost2010Prop53
 90
        2
102
RTVSPost2010PropOp53
 70
     1
102
RTVSPost2010Prop54
  1
strokes_ogs.tif
102
RTVSPost2010PropOp54
 70
     1
102
RTVSPost2010Prop55
280
     0
102
RTVSPost2010PropOp55
 70
     1
102
RTVSPost2010Prop56
140
1.0
102
RTVSPost2010PropOp56
 70
     1
102
RTVSPost2010Prop57
140
1.0
102
RTVSPost2010PropOp57
 70
     1
102
RTVSPropertyOp0
 70
     1
102
RTVSPropertyOp1
 70
     1
102
RTVSPropertyOp2
 70
     1
102
RTVSPropertyOp3
 70
     1
102
RTVSPropertyOp4
 70
     1
102
RTVSPropertyOp5
 70
     1
102
RTVSPropertyOp6
 70
     1
102
RTVSPropertyOp7
 70
     1
102
RTVSPropertyOp8
 70
     1
102
RTVSPropertyOp9
 70
     1
102
RTVSPropertyOp10
 70
     1
102
RTVSPropertyOp11
 70
     1
102
RTVSPropertyOp12
 70
     1
102
RTVSPropertyOp13
 70
     1
102
RTVSPropertyOp14
 70
     1
102
RTVSPropertyOp15
 70
     1
102
RTVSPropertyOp16
 70
     1
102
RTVSPropertyOp17
 70
     1
102
RTVSPropertyOp18
 70
     1
102
RTVSPropertyOp19
 70
     1
102
RTVSPropertyOp20
 70
     1
102
RTVSPropertyOp21
 70
     1
102
RTVSPropertyOp22
 70
     1
102
RTVSPropertyOp23
 70
     1
102
RTVSPropertyOp24
 70
     1
102
RTVSPropertyOp25
 70
     1
102
RTVSPropertyOp26
 70
     1
102
RTVSPropertyOp27
 70
     1
102
RTVSPropertyOp28
 70
     1
102
RTVSPropertyOp29
 70
     1
102
RTVSPropertyOp30
 70
     1
102
RTVSPropertyOp31
 70
     1
102
RTVSPropertyOp32
 70
     1
102
RTVSPropertyOp33
 70
     1
102
RTVSPropertyOp34
 70
     1
102
RTVSPropertyOp35
 70
     1
102
RTVSPropertyOp36
 70
     1
102
RTVSPropertyOp37
 70
     1
102
RTVSPropertyOp38
 70
     1
102
RTVSPropertyOp39
 70
     1
102
RTVSPropertyOp40
 70
     1
102
RTVSPropertyOp41
 70
     1
102
RTVSPropertyOp42
 70
     1
102
RTVSPropertyOp43
 70
     1
102
RTVSPropertyOp44
 70
     1
102
RTVSPropertyOp45
 70
     1
102
RTVSPropertyOp46
 70
     1
102
RTVSPropertyOp47
 70
     1
102
RTVSPropertyOp48
 70
     1
102
RTVSPropertyOp49
 70
     1
102
RTVSPropertyOp50
 70
     1
102
RTVSPropertyOp51
 70
     0
102
RTVSPropertyOp52
 70
     0
102
RTVSPropertyOp53
 70
     1
102
RTVSPropertyOp54
 70
     1
102
RTVSPropertyOp55
 70
     1
102
RTVSPropertyOp56
 70
     1
102
RTVSPropertyOp57
 70
     1
102
RTVSPropertyOp58
 70
     1
102
RTVSPropertyOp59
 70
     1
102
RTVSPropertyOp60
 70
     1
102
RTVSPropertyOp61
 70
     1
102
RTVSPropertyOp62
 70
     1
  0
XRECORD
  5
3EF9
102
{ACAD_REACTORS
330
3EF8
102
}
330
3EF8
100
AcDbXrecord
280
     1
102
RTVSPost2010Prop28
280
     0
102
RTVSPost2010PropOp28
 70
     1
102
RTVSPost2010Prop29
280
     1
102
RTVSPost2010PropOp29
 70
     1
102
RTVSPost2010Prop30
280
     1
102
RTVSPost2010PropOp30
 70
     1
102
RTVSPost2010Prop31
280
     0
102
RTVSPost2010PropOp31
 70
     1
102
RTVSPost2010Prop32
280
     0
102
RTVSPost2010PropOp32
 70
     1
102
RTVSPost2010Prop33
280
     0
102
RTVSPost2010PropOp33
 70
     1
102
RTVSPost2010Prop34
280
     0
102
RTVSPost2010PropOp34
 70
     1
102
RTVSPost2010Prop35
280
     0
102
RTVSPost2010PropOp35
 70
     1
102
RTVSPost2010Prop36
280
     0
102
RTVSPost2010PropOp36
 70
     1
102
RTVSPost2010Prop37
 90
       50
102
RTVSPost2010PropOp37
 70
     1
102
RTVSPost2010Prop38
140
0.0
102
RTVSPost2010PropOp38
 70
     1
102
RTVSPost2010Prop39
140
1.0
102
RTVSPost2010PropOp39
 70
     1
102
RTVSPost2010Prop40
 90
        0
102
RTVSPost2010PropOp40
 70
     1
102
RTVSPost2010Prop41ColorIndex
 90
       18
102
RTVSPost2010Prop41ColorRGB
 90
        0
102
RTVSPost2010PropOp41
 70
     1
102
RTVSPost2010Prop42
 90
       50
102
RTVSPost2010PropOp42
 70
     1
102
RTVSPost2010Prop43
 90
        3
102
RTVSPost2010PropOp43
 70
     1
102
RTVSPost2010Prop44ColorIndex
 90
        5
102
RTVSPost2010Prop44ColorRGB
 90
      255
102
RTVSPost2010PropOp44
 70
     1
102
RTVSPost2010Prop45
280
     0
102
RTVSPost2010PropOp45
 70
     1
102
RTVSPost2010Prop46
 90
       50
102
RTVSPost2010PropOp46
 70
     1
102
RTVSPost2010Prop47
 90
       50
102
RTVSPost2010PropOp47
 70
     1
102
RTVSPost2010Prop48
 90
       50
102
RTVSPost2010PropOp48
 70
     1
102
RTVSPost2010Prop49
280
     0
102
RTVSPost2010PropOp49
 70
     1
102
RTVSPost2010Prop50
 90
       50
102
RTVSPost2010PropOp50
 70
     1
102
RTVSPost2010Prop51ColorIndex
 90
      256
102
RTVSPost2010Prop51ColorRGB
 90
-16777216
102
RTVSPost2010PropOp51
 70
     0
102
RTVSPost2010Prop52
140
1.0
102
RTVSPost2010PropOp52
 70
     0
102
RTVSPost2010Prop53
 90
        2
102
RTVSPost2010PropOp53
 70
     1
102
RTVSPost2010Prop54
  1
strokes_ogs.tif
102
RTVSPost2010PropOp54
 70
     1
102
RTVSPost2010Prop55
280
     0
102
RTVSPost2010PropOp55
 70
     1
102
RTVSPost2010Prop56
140
1.0
102
RTVSPost2010PropOp56
 70
     1
102
RTVSPost2010Prop57
140
1.0
102
RTVSPost2010PropOp57
 70
     1
102
RTVSPropertyOp0
 70
     1
102
RTVSPropertyOp1
 70
     1
102
RTVSPropertyOp2
 70
     1
102
RTVSPropertyOp3
 70
     1
102
RTVSPropertyOp4
 70
     1
102
RTVSPropertyOp5
 70
     1
102
RTVSPropertyOp6
 70
     1
102
RTVSPropertyOp7
 70
     1
102
RTVSPropertyOp8
 70
     1
102
RTVSPropertyOp9
 70
     1
102
RTVSPropertyOp10
 70
     1
102
RTVSPropertyOp11
 70
     1
102
RTVSPropertyOp12
 70
     1
102
RTVSPropertyOp13
 70
     1
102
RTVSPropertyOp14
 70
     1
102
RTVSPropertyOp15
 70
     1
102
RTVSPropertyOp16
 70
     1
102
RTVSPropertyOp17
 70
     1
102
RTVSPropertyOp18
 70
     1
102
RTVSPropertyOp19
 70
     1
102
RTVSPropertyOp20
 70
     1
102
RTVSPropertyOp21
 70
     1
102
RTVSPropertyOp22
 70
     1
102
RTVSPropertyOp23
 70
     1
102
RTVSPropertyOp24
 70
     1
102
RTVSPropertyOp25
 70
     1
102
RTVSPropertyOp26
 70
     1
102
RTVSPropertyOp27
 70
     1
102
RTVSPropertyOp28
 70
     1
102
RTVSPropertyOp29
 70
     1
102
RTVSPropertyOp30
 70
     1
102
RTVSPropertyOp31
 70
     1
102
RTVSPropertyOp32
 70
     1
102
RTVSPropertyOp33
 70
     1
102
RTVSPropertyOp34
 70
     1
102
RTVSPropertyOp35
 70
     1
102
RTVSPropertyOp36
 70
     1
102
RTVSPropertyOp37
 70
     1
102
RTVSPropertyOp38
 70
     1
102
RTVSPropertyOp39
 70
     1
102
RTVSPropertyOp40
 70
     1
102
RTVSPropertyOp41
 70
     1
102
RTVSPropertyOp42
 70
     1
102
RTVSPropertyOp43
 70
     1
102
RTVSPropertyOp44
 70
     1
102
RTVSPropertyOp45
 70
     1
102
RTVSPropertyOp46
 70
     1
102
RTVSPropertyOp47
 70
     1
102
RTVSPropertyOp48
 70
     1
102
RTVSPropertyOp49
 70
     1
102
RTVSPropertyOp50
 70
     1
102
RTVSPropertyOp51
 70
     0
102
RTVSPropertyOp52
 70
     0
102
RTVSPropertyOp53
 70
     1
102
RTVSPropertyOp54
 70
     1
102
RTVSPropertyOp55
 70
     1
102
RTVSPropertyOp56
 70
     1
102
RTVSPropertyOp57
 70
     1
102
RTVSPropertyOp58
 70
     1
102
RTVSPropertyOp59
 70
     1
102
RTVSPropertyOp60
 70
     1
102
RTVSPropertyOp61
 70
     1
102
RTVSPropertyOp62
 70
     1
  0
XRECORD
  5
3F15
102
{ACAD_REACTORS
330
3F14
102
}
330
3F14
100
AcDbXrecord
280
     1
102
RTVSPost2010Prop28
280
     0
102
RTVSPost2010PropOp28
 70
     1
102
RTVSPost2010Prop29
280
     1
102
RTVSPost2010PropOp29
 70
     1
102
RTVSPost2010Prop30
280
     1
102
RTVSPost2010PropOp30
 70
     1
102
RTVSPost2010Prop31
280
     0
102
RTVSPost2010PropOp31
 70
     1
102
RTVSPost2010Prop32
280
     0
102
RTVSPost2010PropOp32
 70
     1
102
RTVSPost2010Prop33
280
     0
102
RTVSPost2010PropOp33
 70
     1
102
RTVSPost2010Prop34
280
     0
102
RTVSPost2010PropOp34
 70
     1
102
RTVSPost2010Prop35
280
     0
102
RTVSPost2010PropOp35
 70
     1
102
RTVSPost2010Prop36
280
     0
102
RTVSPost2010PropOp36
 70
     1
102
RTVSPost2010Prop37
 90
       50
102
RTVSPost2010PropOp37
 70
     0
102
RTVSPost2010Prop38
140
0.0
102
RTVSPost2010PropOp38
 70
     0
102
RTVSPost2010Prop39
140
1.0
102
RTVSPost2010PropOp39
 70
     0
102
RTVSPost2010Prop40
 90
        0
102
RTVSPost2010PropOp40
 70
     0
102
RTVSPost2010Prop41ColorIndex
 90
       18
102
RTVSPost2010Prop41ColorRGB
 90
        0
102
RTVSPost2010PropOp41
 70
     0
102
RTVSPost2010Prop42
 90
       50
102
RTVSPost2010PropOp42
 70
     0
102
RTVSPost2010Prop43
 90
        3
102
RTVSPost2010PropOp43
 70
     0
102
RTVSPost2010Prop44ColorIndex
 90
        5
102
RTVSPost2010Prop44ColorRGB
 90
      255
102
RTVSPost2010PropOp44
 70
     0
102
RTVSPost2010Prop45
280
     0
102
RTVSPost2010PropOp45
 70
     1
102
RTVSPost2010Prop46
 90
       50
102
RTVSPost2010PropOp46
 70
     0
102
RTVSPost2010Prop47
 90
       50
102
RTVSPost2010PropOp47
 70
     0
102
RTVSPost2010Prop48
 90
       50
102
RTVSPost2010PropOp48
 70
     0
102
RTVSPost2010Prop49
280
     0
102
RTVSPost2010PropOp49
 70
     1
102
RTVSPost2010Prop50
 90
       50
102
RTVSPost2010PropOp50
 70
     0
102
RTVSPost2010Prop51ColorIndex
 90
      256
102
RTVSPost2010Prop51ColorRGB
 90
-16777216
102
RTVSPost2010PropOp51
 70
     0
102
RTVSPost2010Prop52
140
1.0
102
RTVSPost2010PropOp52
 70
     0
102
RTVSPost2010Prop53
 90
        2
102
RTVSPost2010PropOp53
 70
     0
102
RTVSPost2010Prop54
  1
strokes_ogs.tif
102
RTVSPost2010PropOp54
 70
     0
102
RTVSPost2010Prop55
280
     0
102
RTVSPost2010PropOp55
 70
     1
102
RTVSPost2010Prop56
140
1.0
102
RTVSPost2010PropOp56
 70
     0
102
RTVSPost2010Prop57
140
1.0
102
RTVSPost2010PropOp57
 70
     0
102
RTVSPropertyOp0
 70
     0
102
RTVSPropertyOp1
 70
     0
102
RTVSPropertyOp2
 70
     0
102
RTVSPropertyOp3
 70
     0
102
RTVSPropertyOp4
 70
     0
102
RTVSPropertyOp5
 70
     0
102
RTVSPropertyOp6
 70
     0
102
RTVSPropertyOp7
 70
     0
102
RTVSPropertyOp8
 70
     0
102
RTVSPropertyOp9
 70
     0
102
RTVSPropertyOp10
 70
     0
102
RTVSPropertyOp11
 70
     0
102
RTVSPropertyOp12
 70
     0
102
RTVSPropertyOp13
 70
     0
102
RTVSPropertyOp14
 70
     2
102
RTVSPropertyOp15
 70
     0
102
RTVSPropertyOp16
 70
     0
102
RTVSPropertyOp17
 70
     0
102
RTVSPropertyOp18
 70
     0
102
RTVSPropertyOp19
 70
     0
102
RTVSPropertyOp20
 70
     0
102
RTVSPropertyOp21
 70
     0
102
RTVSPropertyOp22
 70
     0
102
RTVSPropertyOp23
 70
     0
102
RTVSPropertyOp24
 70
     0
102
RTVSPropertyOp25
 70
     0
102
RTVSPropertyOp26
 70
     0
102
RTVSPropertyOp27
 70
     0
102
RTVSPropertyOp28
 70
     1
102
RTVSPropertyOp29
 70
     1
102
RTVSPropertyOp30
 70
     1
102
RTVSPropertyOp31
 70
     1
102
RTVSPropertyOp32
 70
     1
102
RTVSPropertyOp33
 70
     1
102
RTVSPropertyOp34
 70
     1
102
RTVSPropertyOp35
 70
     1
102
RTVSPropertyOp36
 70
     1
102
RTVSPropertyOp37
 70
     0
102
RTVSPropertyOp38
 70
     0
102
RTVSPropertyOp39
 70
     0
102
RTVSPropertyOp40
 70
     0
102
RTVSPropertyOp41
 70
     0
102
RTVSPropertyOp42
 70
     0
102
RTVSPropertyOp43
 70
     0
102
RTVSPropertyOp44
 70
     0
102
RTVSPropertyOp45
 70
     1
102
RTVSPropertyOp46
 70
     0
102
RTVSPropertyOp47
 70
     0
102
RTVSPropertyOp48
 70
     0
102
RTVSPropertyOp49
 70
     1
102
RTVSPropertyOp50
 70
     0
102
RTVSPropertyOp51
 70
     0
102
RTVSPropertyOp52
 70
     0
102
RTVSPropertyOp53
 70
     0
102
RTVSPropertyOp54
 70
     0
102
RTVSPropertyOp55
 70
     1
102
RTVSPropertyOp56
 70
     0
102
RTVSPropertyOp57
 70
     0
102
RTVSPropertyOp58
 70
     0
102
RTVSPropertyOp59
 70
     0
102
RTVSPropertyOp60
 70
     0
102
RTVSPropertyOp61
 70
     0
102
RTVSPropertyOp62
 70
     0
  0
XRECORD
  5
3F05
102
{ACAD_REACTORS
330
3F04
102
}
330
3F04
100
AcDbXrecord
280
     1
102
RTVSPost2010Prop28
280
     0
102
RTVSPost2010PropOp28
 70
     1
102
RTVSPost2010Prop29
280
     1
102
RTVSPost2010PropOp29
 70
     1
102
RTVSPost2010Prop30
280
     1
102
RTVSPost2010PropOp30
 70
     1
102
RTVSPost2010Prop31
280
     0
102
RTVSPost2010PropOp31
 70
     1
102
RTVSPost2010Prop32
280
     0
102
RTVSPost2010PropOp32
 70
     1
102
RTVSPost2010Prop33
280
     0
102
RTVSPost2010PropOp33
 70
     1
102
RTVSPost2010Prop34
280
     0
102
RTVSPost2010PropOp34
 70
     1
102
RTVSPost2010Prop35
280
     0
102
RTVSPost2010PropOp35
 70
     1
102
RTVSPost2010Prop36
280
     0
102
RTVSPost2010PropOp36
 70
     1
102
RTVSPost2010Prop37
 90
       50
102
RTVSPost2010PropOp37
 70
     1
102
RTVSPost2010Prop38
140
0.0
102
RTVSPost2010PropOp38
 70
     1
102
RTVSPost2010Prop39
140
1.0
102
RTVSPost2010PropOp39
 70
     1
102
RTVSPost2010Prop40
 90
        0
102
RTVSPost2010PropOp40
 70
     1
102
RTVSPost2010Prop41ColorIndex
 90
       18
102
RTVSPost2010Prop41ColorRGB
 90
        0
102
RTVSPost2010PropOp41
 70
     1
102
RTVSPost2010Prop42
 90
       50
102
RTVSPost2010PropOp42
 70
     1
102
RTVSPost2010Prop43
 90
        3
102
RTVSPost2010PropOp43
 70
     1
102
RTVSPost2010Prop44ColorIndex
 90
        5
102
RTVSPost2010Prop44ColorRGB
 90
      255
102
RTVSPost2010PropOp44
 70
     1
102
RTVSPost2010Prop45
280
     0
102
RTVSPost2010PropOp45
 70
     1
102
RTVSPost2010Prop46
 90
       50
102
RTVSPost2010PropOp46
 70
     1
102
RTVSPost2010Prop47
 90
       50
102
RTVSPost2010PropOp47
 70
     1
102
RTVSPost2010Prop48
 90
       50
102
RTVSPost2010PropOp48
 70
     1
102
RTVSPost2010Prop49
280
     0
102
RTVSPost2010PropOp49
 70
     1
102
RTVSPost2010Prop50
 90
       50
102
RTVSPost2010PropOp50
 70
     1
102
RTVSPost2010Prop51ColorIndex
 90
      256
102
RTVSPost2010Prop51ColorRGB
 90
-16777216
102
RTVSPost2010PropOp51
 70
     0
102
RTVSPost2010Prop52
140
1.0
102
RTVSPost2010PropOp52
 70
     0
102
RTVSPost2010Prop53
 90
        2
102
RTVSPost2010PropOp53
 70
     1
102
RTVSPost2010Prop54
  1
strokes_ogs.tif
102
RTVSPost2010PropOp54
 70
     1
102
RTVSPost2010Prop55
280
     0
102
RTVSPost2010PropOp55
 70
     1
102
RTVSPost2010Prop56
140
1.0
102
RTVSPost2010PropOp56
 70
     1
102
RTVSPost2010Prop57
140
1.0
102
RTVSPost2010PropOp57
 70
     1
102
RTVSPropertyOp0
 70
     1
102
RTVSPropertyOp1
 70
     1
102
RTVSPropertyOp2
 70
     1
102
RTVSPropertyOp3
 70
     1
102
RTVSPropertyOp4
 70
     1
102
RTVSPropertyOp5
 70
     1
102
RTVSPropertyOp6
 70
     1
102
RTVSPropertyOp7
 70
     1
102
RTVSPropertyOp8
 70
     1
102
RTVSPropertyOp9
 70
     1
102
RTVSPropertyOp10
 70
     1
102
RTVSPropertyOp11
 70
     1
102
RTVSPropertyOp12
 70
     1
102
RTVSPropertyOp13
 70
     1
102
RTVSPropertyOp14
 70
     1
102
RTVSPropertyOp15
 70
     1
102
RTVSPropertyOp16
 70
     1
102
RTVSPropertyOp17
 70
     1
102
RTVSPropertyOp18
 70
     1
102
RTVSPropertyOp19
 70
     1
102
RTVSPropertyOp20
 70
     1
102
RTVSPropertyOp21
 70
     1
102
RTVSPropertyOp22
 70
     1
102
RTVSPropertyOp23
 70
     1
102
RTVSPropertyOp24
 70
     1
102
RTVSPropertyOp25
 70
     1
102
RTVSPropertyOp26
 70
     1
102
RTVSPropertyOp27
 70
     1
102
RTVSPropertyOp28
 70
     1
102
RTVSPropertyOp29
 70
     1
102
RTVSPropertyOp30
 70
     1
102
RTVSPropertyOp31
 70
     1
102
RTVSPropertyOp32
 70
     1
102
RTVSPropertyOp33
 70
     1
102
RTVSPropertyOp34
 70
     1
102
RTVSPropertyOp35
 70
     1
102
RTVSPropertyOp36
 70
     1
102
RTVSPropertyOp37
 70
     1
102
RTVSPropertyOp38
 70
     1
102
RTVSPropertyOp39
 70
     1
102
RTVSPropertyOp40
 70
     1
102
RTVSPropertyOp41
 70
     1
102
RTVSPropertyOp42
 70
     1
102
RTVSPropertyOp43
 70
     1
102
RTVSPropertyOp44
 70
     1
102
RTVSPropertyOp45
 70
     1
102
RTVSPropertyOp46
 70
     1
102
RTVSPropertyOp47
 70
     1
102
RTVSPropertyOp48
 70
     1
102
RTVSPropertyOp49
 70
     1
102
RTVSPropertyOp50
 70
     1
102
RTVSPropertyOp51
 70
     0
102
RTVSPropertyOp52
 70
     0
102
RTVSPropertyOp53
 70
     1
102
RTVSPropertyOp54
 70
     1
102
RTVSPropertyOp55
 70
     1
102
RTVSPropertyOp56
 70
     1
102
RTVSPropertyOp57
 70
     1
102
RTVSPropertyOp58
 70
     1
102
RTVSPropertyOp59
 70
     1
102
RTVSPropertyOp60
 70
     1
102
RTVSPropertyOp61
 70
     1
102
RTVSPropertyOp62
 70
     1
  0
XRECORD
  5
3F17
102
{ACAD_REACTORS
330
3F16
102
}
330
3F16
100
AcDbXrecord
280
     1
102
RTVSPost2010Prop28
280
     0
102
RTVSPost2010PropOp28
 70
     1
102
RTVSPost2010Prop29
280
     1
102
RTVSPost2010PropOp29
 70
     1
102
RTVSPost2010Prop30
280
     1
102
RTVSPost2010PropOp30
 70
     1
102
RTVSPost2010Prop31
280
     0
102
RTVSPost2010PropOp31
 70
     1
102
RTVSPost2010Prop32
280
     0
102
RTVSPost2010PropOp32
 70
     1
102
RTVSPost2010Prop33
280
     0
102
RTVSPost2010PropOp33
 70
     1
102
RTVSPost2010Prop34
280
     0
102
RTVSPost2010PropOp34
 70
     1
102
RTVSPost2010Prop35
280
     0
102
RTVSPost2010PropOp35
 70
     1
102
RTVSPost2010Prop36
280
     0
102
RTVSPost2010PropOp36
 70
     1
102
RTVSPost2010Prop37
 90
       50
102
RTVSPost2010PropOp37
 70
     0
102
RTVSPost2010Prop38
140
0.0
102
RTVSPost2010PropOp38
 70
     0
102
RTVSPost2010Prop39
140
1.0
102
RTVSPost2010PropOp39
 70
     0
102
RTVSPost2010Prop40
 90
        0
102
RTVSPost2010PropOp40
 70
     0
102
RTVSPost2010Prop41ColorIndex
 90
       18
102
RTVSPost2010Prop41ColorRGB
 90
        0
102
RTVSPost2010PropOp41
 70
     0
102
RTVSPost2010Prop42
 90
       50
102
RTVSPost2010PropOp42
 70
     0
102
RTVSPost2010Prop43
 90
        3
102
RTVSPost2010PropOp43
 70
     0
102
RTVSPost2010Prop44ColorIndex
 90
        5
102
RTVSPost2010Prop44ColorRGB
 90
      255
102
RTVSPost2010PropOp44
 70
     0
102
RTVSPost2010Prop45
280
     0
102
RTVSPost2010PropOp45
 70
     1
102
RTVSPost2010Prop46
 90
       50
102
RTVSPost2010PropOp46
 70
     0
102
RTVSPost2010Prop47
 90
       50
102
RTVSPost2010PropOp47
 70
     0
102
RTVSPost2010Prop48
 90
       50
102
RTVSPost2010PropOp48
 70
     0
102
RTVSPost2010Prop49
280
     0
102
RTVSPost2010PropOp49
 70
     1
102
RTVSPost2010Prop50
 90
       50
102
RTVSPost2010PropOp50
 70
     0
102
RTVSPost2010Prop51ColorIndex
 90
      256
102
RTVSPost2010Prop51ColorRGB
 90
-16777216
102
RTVSPost2010PropOp51
 70
     0
102
RTVSPost2010Prop52
140
1.0
102
RTVSPost2010PropOp52
 70
     0
102
RTVSPost2010Prop53
 90
        2
102
RTVSPost2010PropOp53
 70
     0
102
RTVSPost2010Prop54
  1
strokes_ogs.tif
102
RTVSPost2010PropOp54
 70
     0
102
RTVSPost2010Prop55
280
     0
102
RTVSPost2010PropOp55
 70
     1
102
RTVSPost2010Prop56
140
1.0
102
RTVSPost2010PropOp56
 70
     0
102
RTVSPost2010Prop57
140
1.0
102
RTVSPost2010PropOp57
 70
     0
102
RTVSPropertyOp0
 70
     0
102
RTVSPropertyOp1
 70
     0
102
RTVSPropertyOp2
 70
     0
102
RTVSPropertyOp3
 70
     0
102
RTVSPropertyOp4
 70
     0
102
RTVSPropertyOp5
 70
     0
102
RTVSPropertyOp6
 70
     0
102
RTVSPropertyOp7
 70
     0
102
RTVSPropertyOp8
 70
     0
102
RTVSPropertyOp9
 70
     0
102
RTVSPropertyOp10
 70
     0
102
RTVSPropertyOp11
 70
     0
102
RTVSPropertyOp12
 70
     0
102
RTVSPropertyOp13
 70
     0
102
RTVSPropertyOp14
 70
     2
102
RTVSPropertyOp15
 70
     0
102
RTVSPropertyOp16
 70
     0
102
RTVSPropertyOp17
 70
     0
102
RTVSPropertyOp18
 70
     0
102
RTVSPropertyOp19
 70
     0
102
RTVSPropertyOp20
 70
     0
102
RTVSPropertyOp21
 70
     0
102
RTVSPropertyOp22
 70
     0
102
RTVSPropertyOp23
 70
     0
102
RTVSPropertyOp24
 70
     0
102
RTVSPropertyOp25
 70
     0
102
RTVSPropertyOp26
 70
     0
102
RTVSPropertyOp27
 70
     0
102
RTVSPropertyOp28
 70
     1
102
RTVSPropertyOp29
 70
     1
102
RTVSPropertyOp30
 70
     1
102
RTVSPropertyOp31
 70
     1
102
RTVSPropertyOp32
 70
     1
102
RTVSPropertyOp33
 70
     1
102
RTVSPropertyOp34
 70
     1
102
RTVSPropertyOp35
 70
     1
102
RTVSPropertyOp36
 70
     1
102
RTVSPropertyOp37
 70
     0
102
RTVSPropertyOp38
 70
     0
102
RTVSPropertyOp39
 70
     0
102
RTVSPropertyOp40
 70
     0
102
RTVSPropertyOp41
 70
     0
102
RTVSPropertyOp42
 70
     0
102
RTVSPropertyOp43
 70
     0
102
RTVSPropertyOp44
 70
     0
102
RTVSPropertyOp45
 70
     1
102
RTVSPropertyOp46
 70
     0
102
RTVSPropertyOp47
 70
     0
102
RTVSPropertyOp48
 70
     0
102
RTVSPropertyOp49
 70
     1
102
RTVSPropertyOp50
 70
     0
102
RTVSPropertyOp51
 70
     0
102
RTVSPropertyOp52
 70
     0
102
RTVSPropertyOp53
 70
     0
102
RTVSPropertyOp54
 70
     0
102
RTVSPropertyOp55
 70
     1
102
RTVSPropertyOp56
 70
     0
102
RTVSPropertyOp57
 70
     0
102
RTVSPropertyOp58
 70
     0
102
RTVSPropertyOp59
 70
     0
102
RTVSPropertyOp60
 70
     0
102
RTVSPropertyOp61
 70
     0
102
RTVSPropertyOp62
 70
     0
  0
XRECORD
  5
3EFD
102
{ACAD_REACTORS
330
3EFC
102
}
330
3EFC
100
AcDbXrecord
280
     1
102
RTVSPost2010Prop28
280
     0
102
RTVSPost2010PropOp28
 70
     1
102
RTVSPost2010Prop29
280
     1
102
RTVSPost2010PropOp29
 70
     1
102
RTVSPost2010Prop30
280
     1
102
RTVSPost2010PropOp30
 70
     1
102
RTVSPost2010Prop31
280
     0
102
RTVSPost2010PropOp31
 70
     1
102
RTVSPost2010Prop32
280
     0
102
RTVSPost2010PropOp32
 70
     1
102
RTVSPost2010Prop33
280
     0
102
RTVSPost2010PropOp33
 70
     1
102
RTVSPost2010Prop34
280
     0
102
RTVSPost2010PropOp34
 70
     1
102
RTVSPost2010Prop35
280
     0
102
RTVSPost2010PropOp35
 70
     1
102
RTVSPost2010Prop36
280
     0
102
RTVSPost2010PropOp36
 70
     1
102
RTVSPost2010Prop37
 90
       50
102
RTVSPost2010PropOp37
 70
     1
102
RTVSPost2010Prop38
140
0.0
102
RTVSPost2010PropOp38
 70
     1
102
RTVSPost2010Prop39
140
1.0
102
RTVSPost2010PropOp39
 70
     1
102
RTVSPost2010Prop40
 90
        0
102
RTVSPost2010PropOp40
 70
     1
102
RTVSPost2010Prop41ColorIndex
 90
       18
102
RTVSPost2010Prop41ColorRGB
 90
        0
102
RTVSPost2010PropOp41
 70
     1
102
RTVSPost2010Prop42
 90
       50
102
RTVSPost2010PropOp42
 70
     1
102
RTVSPost2010Prop43
 90
        3
102
RTVSPost2010PropOp43
 70
     1
102
RTVSPost2010Prop44ColorIndex
 90
        5
102
RTVSPost2010Prop44ColorRGB
 90
      255
102
RTVSPost2010PropOp44
 70
     1
102
RTVSPost2010Prop45
280
     0
102
RTVSPost2010PropOp45
 70
     1
102
RTVSPost2010Prop46
 90
       50
102
RTVSPost2010PropOp46
 70
     1
102
RTVSPost2010Prop47
 90
       50
102
RTVSPost2010PropOp47
 70
     1
102
RTVSPost2010Prop48
 90
       50
102
RTVSPost2010PropOp48
 70
     1
102
RTVSPost2010Prop49
280
     0
102
RTVSPost2010PropOp49
 70
     1
102
RTVSPost2010Prop50
 90
       50
102
RTVSPost2010PropOp50
 70
     1
102
RTVSPost2010Prop51ColorIndex
 90
      256
102
RTVSPost2010Prop51ColorRGB
 90
-16777216
102
RTVSPost2010PropOp51
 70
     0
102
RTVSPost2010Prop52
140
1.0
102
RTVSPost2010PropOp52
 70
     0
102
RTVSPost2010Prop53
 90
        2
102
RTVSPost2010PropOp53
 70
     1
102
RTVSPost2010Prop54
  1
strokes_ogs.tif
102
RTVSPost2010PropOp54
 70
     1
102
RTVSPost2010Prop55
280
     0
102
RTVSPost2010PropOp55
 70
     1
102
RTVSPost2010Prop56
140
1.0
102
RTVSPost2010PropOp56
 70
     1
102
RTVSPost2010Prop57
140
1.0
102
RTVSPost2010PropOp57
 70
     1
102
RTVSPropertyOp0
 70
     1
102
RTVSPropertyOp1
 70
     1
102
RTVSPropertyOp2
 70
     1
102
RTVSPropertyOp3
 70
     1
102
RTVSPropertyOp4
 70
     1
102
RTVSPropertyOp5
 70
     1
102
RTVSPropertyOp6
 70
     1
102
RTVSPropertyOp7
 70
     1
102
RTVSPropertyOp8
 70
     1
102
RTVSPropertyOp9
 70
     1
102
RTVSPropertyOp10
 70
     1
102
RTVSPropertyOp11
 70
     1
102
RTVSPropertyOp12
 70
     1
102
RTVSPropertyOp13
 70
     1
102
RTVSPropertyOp14
 70
     1
102
RTVSPropertyOp15
 70
     1
102
RTVSPropertyOp16
 70
     1
102
RTVSPropertyOp17
 70
     1
102
RTVSPropertyOp18
 70
     1
102
RTVSPropertyOp19
 70
     1
102
RTVSPropertyOp20
 70
     1
102
RTVSPropertyOp21
 70
     1
102
RTVSPropertyOp22
 70
     1
102
RTVSPropertyOp23
 70
     1
102
RTVSPropertyOp24
 70
     1
102
RTVSPropertyOp25
 70
     1
102
RTVSPropertyOp26
 70
     1
102
RTVSPropertyOp27
 70
     1
102
RTVSPropertyOp28
 70
     1
102
RTVSPropertyOp29
 70
     1
102
RTVSPropertyOp30
 70
     1
102
RTVSPropertyOp31
 70
     1
102
RTVSPropertyOp32
 70
     1
102
RTVSPropertyOp33
 70
     1
102
RTVSPropertyOp34
 70
     1
102
RTVSPropertyOp35
 70
     1
102
RTVSPropertyOp36
 70
     1
102
RTVSPropertyOp37
 70
     1
102
RTVSPropertyOp38
 70
     1
102
RTVSPropertyOp39
 70
     1
102
RTVSPropertyOp40
 70
     1
102
RTVSPropertyOp41
 70
     1
102
RTVSPropertyOp42
 70
     1
102
RTVSPropertyOp43
 70
     1
102
RTVSPropertyOp44
 70
     1
102
RTVSPropertyOp45
 70
     1
102
RTVSPropertyOp46
 70
     1
102
RTVSPropertyOp47
 70
     1
102
RTVSPropertyOp48
 70
     1
102
RTVSPropertyOp49
 70
     1
102
RTVSPropertyOp50
 70
     1
102
RTVSPropertyOp51
 70
     0
102
RTVSPropertyOp52
 70
     0
102
RTVSPropertyOp53
 70
     1
102
RTVSPropertyOp54
 70
     1
102
RTVSPropertyOp55
 70
     1
102
RTVSPropertyOp56
 70
     1
102
RTVSPropertyOp57
 70
     1
102
RTVSPropertyOp58
 70
     1
102
RTVSPropertyOp59
 70
     1
102
RTVSPropertyOp60
 70
     1
102
RTVSPropertyOp61
 70
     1
102
RTVSPropertyOp62
 70
     1
  0
XRECORD
  5
3F13
102
{ACAD_REACTORS
330
3F12
102
}
330
3F12
100
AcDbXrecord
280
     1
102
RTVSPost2010Prop28
280
     0
102
RTVSPost2010PropOp28
 70
     1
102
RTVSPost2010Prop29
280
     1
102
RTVSPost2010PropOp29
 70
     1
102
RTVSPost2010Prop30
280
     1
102
RTVSPost2010PropOp30
 70
     1
102
RTVSPost2010Prop31
280
     0
102
RTVSPost2010PropOp31
 70
     1
102
RTVSPost2010Prop32
280
     0
102
RTVSPost2010PropOp32
 70
     1
102
RTVSPost2010Prop33
280
     0
102
RTVSPost2010PropOp33
 70
     1
102
RTVSPost2010Prop34
280
     0
102
RTVSPost2010PropOp34
 70
     1
102
RTVSPost2010Prop35
280
     0
102
RTVSPost2010PropOp35
 70
     1
102
RTVSPost2010Prop36
280
     0
102
RTVSPost2010PropOp36
 70
     1
102
RTVSPost2010Prop37
 90
       50
102
RTVSPost2010PropOp37
 70
     1
102
RTVSPost2010Prop38
140
0.0
102
RTVSPost2010PropOp38
 70
     1
102
RTVSPost2010Prop39
140
1.0
102
RTVSPost2010PropOp39
 70
     1
102
RTVSPost2010Prop40
 90
        0
102
RTVSPost2010PropOp40
 70
     1
102
RTVSPost2010Prop41ColorIndex
 90
       18
102
RTVSPost2010Prop41ColorRGB
 90
        0
102
RTVSPost2010PropOp41
 70
     1
102
RTVSPost2010Prop42
 90
       50
102
RTVSPost2010PropOp42
 70
     1
102
RTVSPost2010Prop43
 90
        3
102
RTVSPost2010PropOp43
 70
     1
102
RTVSPost2010Prop44ColorIndex
 90
        5
102
RTVSPost2010Prop44ColorRGB
 90
      255
102
RTVSPost2010PropOp44
 70
     1
102
RTVSPost2010Prop45
280
     0
102
RTVSPost2010PropOp45
 70
     1
102
RTVSPost2010Prop46
 90
       50
102
RTVSPost2010PropOp46
 70
     1
102
RTVSPost2010Prop47
 90
       50
102
RTVSPost2010PropOp47
 70
     1
102
RTVSPost2010Prop48
 90
       50
102
RTVSPost2010PropOp48
 70
     1
102
RTVSPost2010Prop49
280
     0
102
RTVSPost2010PropOp49
 70
     1
102
RTVSPost2010Prop50
 90
       50
102
RTVSPost2010PropOp50
 70
     1
102
RTVSPost2010Prop51ColorIndex
 90
      256
102
RTVSPost2010Prop51ColorRGB
 90
-16777216
102
RTVSPost2010PropOp51
 70
     0
102
RTVSPost2010Prop52
140
1.0
102
RTVSPost2010PropOp52
 70
     0
102
RTVSPost2010Prop53
 90
        2
102
RTVSPost2010PropOp53
 70
     1
102
RTVSPost2010Prop54
  1
strokes_ogs.tif
102
RTVSPost2010PropOp54
 70
     1
102
RTVSPost2010Prop55
280
     0
102
RTVSPost2010PropOp55
 70
     1
102
RTVSPost2010Prop56
140
1.0
102
RTVSPost2010PropOp56
 70
     1
102
RTVSPost2010Prop57
140
1.0
102
RTVSPost2010PropOp57
 70
     1
102
RTVSPropertyOp0
 70
     1
102
RTVSPropertyOp1
 70
     1
102
RTVSPropertyOp2
 70
     1
102
RTVSPropertyOp3
 70
     1
102
RTVSPropertyOp4
 70
     1
102
RTVSPropertyOp5
 70
     1
102
RTVSPropertyOp6
 70
     1
102
RTVSPropertyOp7
 70
     1
102
RTVSPropertyOp8
 70
     1
102
RTVSPropertyOp9
 70
     1
102
RTVSPropertyOp10
 70
     1
102
RTVSPropertyOp11
 70
     1
102
RTVSPropertyOp12
 70
     1
102
RTVSPropertyOp13
 70
     1
102
RTVSPropertyOp14
 70
     1
102
RTVSPropertyOp15
 70
     1
102
RTVSPropertyOp16
 70
     1
102
RTVSPropertyOp17
 70
     1
102
RTVSPropertyOp18
 70
     1
102
RTVSPropertyOp19
 70
     1
102
RTVSPropertyOp20
 70
     1
102
RTVSPropertyOp21
 70
     1
102
RTVSPropertyOp22
 70
     1
102
RTVSPropertyOp23
 70
     1
102
RTVSPropertyOp24
 70
     1
102
RTVSPropertyOp25
 70
     1
102
RTVSPropertyOp26
 70
     1
102
RTVSPropertyOp27
 70
     1
102
RTVSPropertyOp28
 70
     1
102
RTVSPropertyOp29
 70
     1
102
RTVSPropertyOp30
 70
     1
102
RTVSPropertyOp31
 70
     1
102
RTVSPropertyOp32
 70
     1
102
RTVSPropertyOp33
 70
     1
102
RTVSPropertyOp34
 70
     1
102
RTVSPropertyOp35
 70
     1
102
RTVSPropertyOp36
 70
     1
102
RTVSPropertyOp37
 70
     1
102
RTVSPropertyOp38
 70
     1
102
RTVSPropertyOp39
 70
     1
102
RTVSPropertyOp40
 70
     1
102
RTVSPropertyOp41
 70
     1
102
RTVSPropertyOp42
 70
     1
102
RTVSPropertyOp43
 70
     1
102
RTVSPropertyOp44
 70
     1
102
RTVSPropertyOp45
 70
     1
102
RTVSPropertyOp46
 70
     1
102
RTVSPropertyOp47
 70
     1
102
RTVSPropertyOp48
 70
     1
102
RTVSPropertyOp49
 70
     1
102
RTVSPropertyOp50
 70
     1
102
RTVSPropertyOp51
 70
     0
102
RTVSPropertyOp52
 70
     0
102
RTVSPropertyOp53
 70
     1
102
RTVSPropertyOp54
 70
     1
102
RTVSPropertyOp55
 70
     1
102
RTVSPropertyOp56
 70
     1
102
RTVSPropertyOp57
 70
     1
102
RTVSPropertyOp58
 70
     1
102
RTVSPropertyOp59
 70
     1
102
RTVSPropertyOp60
 70
     1
102
RTVSPropertyOp61
 70
     1
102
RTVSPropertyOp62
 70
     1
  0
XRECORD
  5
3F11
102
{ACAD_REACTORS
330
3F10
102
}
330
3F10
100
AcDbXrecord
280
     1
102
RTVSPost2010Prop28
280
     0
102
RTVSPost2010PropOp28
 70
     1
102
RTVSPost2010Prop29
280
     1
102
RTVSPost2010PropOp29
 70
     1
102
RTVSPost2010Prop30
280
     1
102
RTVSPost2010PropOp30
 70
     1
102
RTVSPost2010Prop31
280
     0
102
RTVSPost2010PropOp31
 70
     1
102
RTVSPost2010Prop32
280
     0
102
RTVSPost2010PropOp32
 70
     1
102
RTVSPost2010Prop33
280
     0
102
RTVSPost2010PropOp33
 70
     1
102
RTVSPost2010Prop34
280
     0
102
RTVSPost2010PropOp34
 70
     1
102
RTVSPost2010Prop35
280
     0
102
RTVSPost2010PropOp35
 70
     1
102
RTVSPost2010Prop36
280
     0
102
RTVSPost2010PropOp36
 70
     1
102
RTVSPost2010Prop37
 90
       50
102
RTVSPost2010PropOp37
 70
     1
102
RTVSPost2010Prop38
140
0.0
102
RTVSPost2010PropOp38
 70
     1
102
RTVSPost2010Prop39
140
1.0
102
RTVSPost2010PropOp39
 70
     1
102
RTVSPost2010Prop40
 90
        0
102
RTVSPost2010PropOp40
 70
     1
102
RTVSPost2010Prop41ColorIndex
 90
       18
102
RTVSPost2010Prop41ColorRGB
 90
        0
102
RTVSPost2010PropOp41
 70
     1
102
RTVSPost2010Prop42
 90
       50
102
RTVSPost2010PropOp42
 70
     1
102
RTVSPost2010Prop43
 90
        3
102
RTVSPost2010PropOp43
 70
     1
102
RTVSPost2010Prop44ColorIndex
 90
        5
102
RTVSPost2010Prop44ColorRGB
 90
      255
102
RTVSPost2010PropOp44
 70
     1
102
RTVSPost2010Prop45
280
     0
102
RTVSPost2010PropOp45
 70
     1
102
RTVSPost2010Prop46
 90
       50
102
RTVSPost2010PropOp46
 70
     1
102
RTVSPost2010Prop47
 90
       50
102
RTVSPost2010PropOp47
 70
     1
102
RTVSPost2010Prop48
 90
       50
102
RTVSPost2010PropOp48
 70
     1
102
RTVSPost2010Prop49
280
     0
102
RTVSPost2010PropOp49
 70
     1
102
RTVSPost2010Prop50
 90
       50
102
RTVSPost2010PropOp50
 70
     1
102
RTVSPost2010Prop51ColorIndex
 90
      256
102
RTVSPost2010Prop51ColorRGB
 90
-16777216
102
RTVSPost2010PropOp51
 70
     0
102
RTVSPost2010Prop52
140
1.0
102
RTVSPost2010PropOp52
 70
     0
102
RTVSPost2010Prop53
 90
        2
102
RTVSPost2010PropOp53
 70
     1
102
RTVSPost2010Prop54
  1
strokes_ogs.tif
102
RTVSPost2010PropOp54
 70
     1
102
RTVSPost2010Prop55
280
     0
102
RTVSPost2010PropOp55
 70
     1
102
RTVSPost2010Prop56
140
1.0
102
RTVSPost2010PropOp56
 70
     1
102
RTVSPost2010Prop57
140
1.0
102
RTVSPost2010PropOp57
 70
     1
102
RTVSPropertyOp0
 70
     1
102
RTVSPropertyOp1
 70
     1
102
RTVSPropertyOp2
 70
     1
102
RTVSPropertyOp3
 70
     1
102
RTVSPropertyOp4
 70
     1
102
RTVSPropertyOp5
 70
     1
102
RTVSPropertyOp6
 70
     1
102
RTVSPropertyOp7
 70
     1
102
RTVSPropertyOp8
 70
     1
102
RTVSPropertyOp9
 70
     1
102
RTVSPropertyOp10
 70
     1
102
RTVSPropertyOp11
 70
     1
102
RTVSPropertyOp12
 70
     1
102
RTVSPropertyOp13
 70
     1
102
RTVSPropertyOp14
 70
     1
102
RTVSPropertyOp15
 70
     1
102
RTVSPropertyOp16
 70
     1
102
RTVSPropertyOp17
 70
     1
102
RTVSPropertyOp18
 70
     1
102
RTVSPropertyOp19
 70
     1
102
RTVSPropertyOp20
 70
     1
102
RTVSPropertyOp21
 70
     1
102
RTVSPropertyOp22
 70
     1
102
RTVSPropertyOp23
 70
     1
102
RTVSPropertyOp24
 70
     1
102
RTVSPropertyOp25
 70
     1
102
RTVSPropertyOp26
 70
     1
102
RTVSPropertyOp27
 70
     1
102
RTVSPropertyOp28
 70
     1
102
RTVSPropertyOp29
 70
     1
102
RTVSPropertyOp30
 70
     1
102
RTVSPropertyOp31
 70
     1
102
RTVSPropertyOp32
 70
     1
102
RTVSPropertyOp33
 70
     1
102
RTVSPropertyOp34
 70
     1
102
RTVSPropertyOp35
 70
     1
102
RTVSPropertyOp36
 70
     1
102
RTVSPropertyOp37
 70
     1
102
RTVSPropertyOp38
 70
     1
102
RTVSPropertyOp39
 70
     1
102
RTVSPropertyOp40
 70
     1
102
RTVSPropertyOp41
 70
     1
102
RTVSPropertyOp42
 70
     1
102
RTVSPropertyOp43
 70
     1
102
RTVSPropertyOp44
 70
     1
102
RTVSPropertyOp45
 70
     1
102
RTVSPropertyOp46
 70
     1
102
RTVSPropertyOp47
 70
     1
102
RTVSPropertyOp48
 70
     1
102
RTVSPropertyOp49
 70
     1
102
RTVSPropertyOp50
 70
     1
102
RTVSPropertyOp51
 70
     0
102
RTVSPropertyOp52
 70
     0
102
RTVSPropertyOp53
 70
     1
102
RTVSPropertyOp54
 70
     1
102
RTVSPropertyOp55
 70
     1
102
RTVSPropertyOp56
 70
     1
102
RTVSPropertyOp57
 70
     1
102
RTVSPropertyOp58
 70
     1
102
RTVSPropertyOp59
 70
     1
102
RTVSPropertyOp60
 70
     1
102
RTVSPropertyOp61
 70
     1
102
RTVSPropertyOp62
 70
     1
  0
XRECORD
  5
3F0B
102
{ACAD_REACTORS
330
3F0A
102
}
330
3F0A
100
AcDbXrecord
280
     1
102
RTVSPost2010Prop28
280
     0
102
RTVSPost2010PropOp28
 70
     1
102
RTVSPost2010Prop29
280
     1
102
RTVSPost2010PropOp29
 70
     1
102
RTVSPost2010Prop30
280
     1
102
RTVSPost2010PropOp30
 70
     1
102
RTVSPost2010Prop31
280
     0
102
RTVSPost2010PropOp31
 70
     1
102
RTVSPost2010Prop32
280
     0
102
RTVSPost2010PropOp32
 70
     1
102
RTVSPost2010Prop33
280
     0
102
RTVSPost2010PropOp33
 70
     1
102
RTVSPost2010Prop34
280
     0
102
RTVSPost2010PropOp34
 70
     1
102
RTVSPost2010Prop35
280
     0
102
RTVSPost2010PropOp35
 70
     1
102
RTVSPost2010Prop36
280
     0
102
RTVSPost2010PropOp36
 70
     1
102
RTVSPost2010Prop37
 90
       50
102
RTVSPost2010PropOp37
 70
     1
102
RTVSPost2010Prop38
140
0.0
102
RTVSPost2010PropOp38
 70
     1
102
RTVSPost2010Prop39
140
1.0
102
RTVSPost2010PropOp39
 70
     1
102
RTVSPost2010Prop40
 90
        0
102
RTVSPost2010PropOp40
 70
     1
102
RTVSPost2010Prop41ColorIndex
 90
       18
102
RTVSPost2010Prop41ColorRGB
 90
        0
102
RTVSPost2010PropOp41
 70
     1
102
RTVSPost2010Prop42
 90
       50
102
RTVSPost2010PropOp42
 70
     1
102
RTVSPost2010Prop43
 90
        3
102
RTVSPost2010PropOp43
 70
     1
102
RTVSPost2010Prop44ColorIndex
 90
        5
102
RTVSPost2010Prop44ColorRGB
 90
      255
102
RTVSPost2010PropOp44
 70
     1
102
RTVSPost2010Prop45
280
     0
102
RTVSPost2010PropOp45
 70
     1
102
RTVSPost2010Prop46
 90
       50
102
RTVSPost2010PropOp46
 70
     1
102
RTVSPost2010Prop47
 90
       50
102
RTVSPost2010PropOp47
 70
     1
102
RTVSPost2010Prop48
 90
       50
102
RTVSPost2010PropOp48
 70
     1
102
RTVSPost2010Prop49
280
     0
102
RTVSPost2010PropOp49
 70
     1
102
RTVSPost2010Prop50
 90
       50
102
RTVSPost2010PropOp50
 70
     1
102
RTVSPost2010Prop51ColorIndex
 90
      256
102
RTVSPost2010Prop51ColorRGB
 90
-16777216
102
RTVSPost2010PropOp51
 70
     0
102
RTVSPost2010Prop52
140
1.0
102
RTVSPost2010PropOp52
 70
     0
102
RTVSPost2010Prop53
 90
        2
102
RTVSPost2010PropOp53
 70
     1
102
RTVSPost2010Prop54
  1
strokes_ogs.tif
102
RTVSPost2010PropOp54
 70
     1
102
RTVSPost2010Prop55
280
     0
102
RTVSPost2010PropOp55
 70
     1
102
RTVSPost2010Prop56
140
1.0
102
RTVSPost2010PropOp56
 70
     1
102
RTVSPost2010Prop57
140
1.0
102
RTVSPost2010PropOp57
 70
     1
102
RTVSPropertyOp0
 70
     1
102
RTVSPropertyOp1
 70
     1
102
RTVSPropertyOp2
 70
     1
102
RTVSPropertyOp3
 70
     1
102
RTVSPropertyOp4
 70
     1
102
RTVSPropertyOp5
 70
     1
102
RTVSPropertyOp6
 70
     1
102
RTVSPropertyOp7
 70
     1
102
RTVSPropertyOp8
 70
     1
102
RTVSPropertyOp9
 70
     1
102
RTVSPropertyOp10
 70
     1
102
RTVSPropertyOp11
 70
     1
102
RTVSPropertyOp12
 70
     1
102
RTVSPropertyOp13
 70
     1
102
RTVSPropertyOp14
 70
     1
102
RTVSPropertyOp15
 70
     1
102
RTVSPropertyOp16
 70
     1
102
RTVSPropertyOp17
 70
     1
102
RTVSPropertyOp18
 70
     1
102
RTVSPropertyOp19
 70
     1
102
RTVSPropertyOp20
 70
     1
102
RTVSPropertyOp21
 70
     1
102
RTVSPropertyOp22
 70
     1
102
RTVSPropertyOp23
 70
     1
102
RTVSPropertyOp24
 70
     1
102
RTVSPropertyOp25
 70
     1
102
RTVSPropertyOp26
 70
     1
102
RTVSPropertyOp27
 70
     1
102
RTVSPropertyOp28
 70
     1
102
RTVSPropertyOp29
 70
     1
102
RTVSPropertyOp30
 70
     1
102
RTVSPropertyOp31
 70
     1
102
RTVSPropertyOp32
 70
     1
102
RTVSPropertyOp33
 70
     1
102
RTVSPropertyOp34
 70
     1
102
RTVSPropertyOp35
 70
     1
102
RTVSPropertyOp36
 70
     1
102
RTVSPropertyOp37
 70
     1
102
RTVSPropertyOp38
 70
     1
102
RTVSPropertyOp39
 70
     1
102
RTVSPropertyOp40
 70
     1
102
RTVSPropertyOp41
 70
     1
102
RTVSPropertyOp42
 70
     1
102
RTVSPropertyOp43
 70
     1
102
RTVSPropertyOp44
 70
     1
102
RTVSPropertyOp45
 70
     1
102
RTVSPropertyOp46
 70
     1
102
RTVSPropertyOp47
 70
     1
102
RTVSPropertyOp48
 70
     1
102
RTVSPropertyOp49
 70
     1
102
RTVSPropertyOp50
 70
     1
102
RTVSPropertyOp51
 70
     0
102
RTVSPropertyOp52
 70
     0
102
RTVSPropertyOp53
 70
     1
102
RTVSPropertyOp54
 70
     1
102
RTVSPropertyOp55
 70
     1
102
RTVSPropertyOp56
 70
     1
102
RTVSPropertyOp57
 70
     1
102
RTVSPropertyOp58
 70
     1
102
RTVSPropertyOp59
 70
     1
102
RTVSPropertyOp60
 70
     1
102
RTVSPropertyOp61
 70
     1
102
RTVSPropertyOp62
 70
     1
  0
XRECORD
  5
3F0D
102
{ACAD_REACTORS
330
3F0C
102
}
330
3F0C
100
AcDbXrecord
280
     1
102
RTVSPost2010Prop28
280
     0
102
RTVSPost2010PropOp28
 70
     1
102
RTVSPost2010Prop29
280
     1
102
RTVSPost2010PropOp29
 70
     1
102
RTVSPost2010Prop30
280
     1
102
RTVSPost2010PropOp30
 70
     1
102
RTVSPost2010Prop31
280
     0
102
RTVSPost2010PropOp31
 70
     1
102
RTVSPost2010Prop32
280
     0
102
RTVSPost2010PropOp32
 70
     1
102
RTVSPost2010Prop33
280
     0
102
RTVSPost2010PropOp33
 70
     1
102
RTVSPost2010Prop34
280
     0
102
RTVSPost2010PropOp34
 70
     1
102
RTVSPost2010Prop35
280
     0
102
RTVSPost2010PropOp35
 70
     1
102
RTVSPost2010Prop36
280
     0
102
RTVSPost2010PropOp36
 70
     1
102
RTVSPost2010Prop37
 90
       50
102
RTVSPost2010PropOp37
 70
     1
102
RTVSPost2010Prop38
140
0.0
102
RTVSPost2010PropOp38
 70
     1
102
RTVSPost2010Prop39
140
1.0
102
RTVSPost2010PropOp39
 70
     1
102
RTVSPost2010Prop40
 90
        0
102
RTVSPost2010PropOp40
 70
     1
102
RTVSPost2010Prop41ColorIndex
 90
       18
102
RTVSPost2010Prop41ColorRGB
 90
        0
102
RTVSPost2010PropOp41
 70
     1
102
RTVSPost2010Prop42
 90
       50
102
RTVSPost2010PropOp42
 70
     1
102
RTVSPost2010Prop43
 90
        3
102
RTVSPost2010PropOp43
 70
     1
102
RTVSPost2010Prop44ColorIndex
 90
        5
102
RTVSPost2010Prop44ColorRGB
 90
      255
102
RTVSPost2010PropOp44
 70
     1
102
RTVSPost2010Prop45
280
     0
102
RTVSPost2010PropOp45
 70
     1
102
RTVSPost2010Prop46
 90
       50
102
RTVSPost2010PropOp46
 70
     1
102
RTVSPost2010Prop47
 90
       50
102
RTVSPost2010PropOp47
 70
     1
102
RTVSPost2010Prop48
 90
       50
102
RTVSPost2010PropOp48
 70
     1
102
RTVSPost2010Prop49
280
     0
102
RTVSPost2010PropOp49
 70
     1
102
RTVSPost2010Prop50
 90
       50
102
RTVSPost2010PropOp50
 70
     1
102
RTVSPost2010Prop51ColorIndex
 90
      256
102
RTVSPost2010Prop51ColorRGB
 90
-16777216
102
RTVSPost2010PropOp51
 70
     0
102
RTVSPost2010Prop52
140
1.0
102
RTVSPost2010PropOp52
 70
     0
102
RTVSPost2010Prop53
 90
        2
102
RTVSPost2010PropOp53
 70
     1
102
RTVSPost2010Prop54
  1
strokes_ogs.tif
102
RTVSPost2010PropOp54
 70
     1
102
RTVSPost2010Prop55
280
     0
102
RTVSPost2010PropOp55
 70
     1
102
RTVSPost2010Prop56
140
1.0
102
RTVSPost2010PropOp56
 70
     1
102
RTVSPost2010Prop57
140
1.0
102
RTVSPost2010PropOp57
 70
     1
102
RTVSPropertyOp0
 70
     1
102
RTVSPropertyOp1
 70
     1
102
RTVSPropertyOp2
 70
     1
102
RTVSPropertyOp3
 70
     1
102
RTVSPropertyOp4
 70
     1
102
RTVSPropertyOp5
 70
     1
102
RTVSPropertyOp6
 70
     1
102
RTVSPropertyOp7
 70
     1
102
RTVSPropertyOp8
 70
     1
102
RTVSPropertyOp9
 70
     1
102
RTVSPropertyOp10
 70
     1
102
RTVSPropertyOp11
 70
     1
102
RTVSPropertyOp12
 70
     1
102
RTVSPropertyOp13
 70
     1
102
RTVSPropertyOp14
 70
     1
102
RTVSPropertyOp15
 70
     1
102
RTVSPropertyOp16
 70
     1
102
RTVSPropertyOp17
 70
     1
102
RTVSPropertyOp18
 70
     1
102
RTVSPropertyOp19
 70
     1
102
RTVSPropertyOp20
 70
     1
102
RTVSPropertyOp21
 70
     1
102
RTVSPropertyOp22
 70
     1
102
RTVSPropertyOp23
 70
     1
102
RTVSPropertyOp24
 70
     1
102
RTVSPropertyOp25
 70
     1
102
RTVSPropertyOp26
 70
     1
102
RTVSPropertyOp27
 70
     1
102
RTVSPropertyOp28
 70
     1
102
RTVSPropertyOp29
 70
     1
102
RTVSPropertyOp30
 70
     1
102
RTVSPropertyOp31
 70
     1
102
RTVSPropertyOp32
 70
     1
102
RTVSPropertyOp33
 70
     1
102
RTVSPropertyOp34
 70
     1
102
RTVSPropertyOp35
 70
     1
102
RTVSPropertyOp36
 70
     1
102
RTVSPropertyOp37
 70
     1
102
RTVSPropertyOp38
 70
     1
102
RTVSPropertyOp39
 70
     1
102
RTVSPropertyOp40
 70
     1
102
RTVSPropertyOp41
 70
     1
102
RTVSPropertyOp42
 70
     1
102
RTVSPropertyOp43
 70
     1
102
RTVSPropertyOp44
 70
     1
102
RTVSPropertyOp45
 70
     1
102
RTVSPropertyOp46
 70
     1
102
RTVSPropertyOp47
 70
     1
102
RTVSPropertyOp48
 70
     1
102
RTVSPropertyOp49
 70
     1
102
RTVSPropertyOp50
 70
     1
102
RTVSPropertyOp51
 70
     0
102
RTVSPropertyOp52
 70
     0
102
RTVSPropertyOp53
 70
     1
102
RTVSPropertyOp54
 70
     1
102
RTVSPropertyOp55
 70
     1
102
RTVSPropertyOp56
 70
     1
102
RTVSPropertyOp57
 70
     1
102
RTVSPropertyOp58
 70
     1
102
RTVSPropertyOp59
 70
     1
102
RTVSPropertyOp60
 70
     1
102
RTVSPropertyOp61
 70
     1
102
RTVSPropertyOp62
 70
     1
  0
XRECORD
  5
3F03
102
{ACAD_REACTORS
330
3F02
102
}
330
3F02
100
AcDbXrecord
280
     1
102
RTVSPost2010Prop28
280
     0
102
RTVSPost2010PropOp28
 70
     1
102
RTVSPost2010Prop29
280
     1
102
RTVSPost2010PropOp29
 70
     1
102
RTVSPost2010Prop30
280
     1
102
RTVSPost2010PropOp30
 70
     1
102
RTVSPost2010Prop31
280
     0
102
RTVSPost2010PropOp31
 70
     1
102
RTVSPost2010Prop32
280
     0
102
RTVSPost2010PropOp32
 70
     1
102
RTVSPost2010Prop33
280
     0
102
RTVSPost2010PropOp33
 70
     1
102
RTVSPost2010Prop34
280
     0
102
RTVSPost2010PropOp34
 70
     1
102
RTVSPost2010Prop35
280
     0
102
RTVSPost2010PropOp35
 70
     1
102
RTVSPost2010Prop36
280
     0
102
RTVSPost2010PropOp36
 70
     1
102
RTVSPost2010Prop37
 90
       50
102
RTVSPost2010PropOp37
 70
     1
102
RTVSPost2010Prop38
140
0.0
102
RTVSPost2010PropOp38
 70
     1
102
RTVSPost2010Prop39
140
1.0
102
RTVSPost2010PropOp39
 70
     1
102
RTVSPost2010Prop40
 90
        0
102
RTVSPost2010PropOp40
 70
     1
102
RTVSPost2010Prop41ColorIndex
 90
       18
102
RTVSPost2010Prop41ColorRGB
 90
        0
102
RTVSPost2010PropOp41
 70
     1
102
RTVSPost2010Prop42
 90
       50
102
RTVSPost2010PropOp42
 70
     1
102
RTVSPost2010Prop43
 90
        3
102
RTVSPost2010PropOp43
 70
     1
102
RTVSPost2010Prop44ColorIndex
 90
        5
102
RTVSPost2010Prop44ColorRGB
 90
      255
102
RTVSPost2010PropOp44
 70
     1
102
RTVSPost2010Prop45
280
     0
102
RTVSPost2010PropOp45
 70
     1
102
RTVSPost2010Prop46
 90
       50
102
RTVSPost2010PropOp46
 70
     1
102
RTVSPost2010Prop47
 90
       50
102
RTVSPost2010PropOp47
 70
     1
102
RTVSPost2010Prop48
 90
       50
102
RTVSPost2010PropOp48
 70
     1
102
RTVSPost2010Prop49
280
     0
102
RTVSPost2010PropOp49
 70
     1
102
RTVSPost2010Prop50
 90
       50
102
RTVSPost2010PropOp50
 70
     1
102
RTVSPost2010Prop51ColorIndex
 90
      256
102
RTVSPost2010Prop51ColorRGB
 90
-16777216
102
RTVSPost2010PropOp51
 70
     0
102
RTVSPost2010Prop52
140
1.0
102
RTVSPost2010PropOp52
 70
     0
102
RTVSPost2010Prop53
 90
        2
102
RTVSPost2010PropOp53
 70
     1
102
RTVSPost2010Prop54
  1
strokes_ogs.tif
102
RTVSPost2010PropOp54
 70
     1
102
RTVSPost2010Prop55
280
     0
102
RTVSPost2010PropOp55
 70
     1
102
RTVSPost2010Prop56
140
1.0
102
RTVSPost2010PropOp56
 70
     1
102
RTVSPost2010Prop57
140
1.0
102
RTVSPost2010PropOp57
 70
     1
102
RTVSPropertyOp0
 70
     1
102
RTVSPropertyOp1
 70
     1
102
RTVSPropertyOp2
 70
     1
102
RTVSPropertyOp3
 70
     1
102
RTVSPropertyOp4
 70
     1
102
RTVSPropertyOp5
 70
     1
102
RTVSPropertyOp6
 70
     1
102
RTVSPropertyOp7
 70
     1
102
RTVSPropertyOp8
 70
     1
102
RTVSPropertyOp9
 70
     1
102
RTVSPropertyOp10
 70
     1
102
RTVSPropertyOp11
 70
     1
102
RTVSPropertyOp12
 70
     1
102
RTVSPropertyOp13
 70
     1
102
RTVSPropertyOp14
 70
     1
102
RTVSPropertyOp15
 70
     1
102
RTVSPropertyOp16
 70
     1
102
RTVSPropertyOp17
 70
     1
102
RTVSPropertyOp18
 70
     1
102
RTVSPropertyOp19
 70
     1
102
RTVSPropertyOp20
 70
     1
102
RTVSPropertyOp21
 70
     1
102
RTVSPropertyOp22
 70
     1
102
RTVSPropertyOp23
 70
     1
102
RTVSPropertyOp24
 70
     1
102
RTVSPropertyOp25
 70
     1
102
RTVSPropertyOp26
 70
     1
102
RTVSPropertyOp27
 70
     1
102
RTVSPropertyOp28
 70
     1
102
RTVSPropertyOp29
 70
     1
102
RTVSPropertyOp30
 70
     1
102
RTVSPropertyOp31
 70
     1
102
RTVSPropertyOp32
 70
     1
102
RTVSPropertyOp33
 70
     1
102
RTVSPropertyOp34
 70
     1
102
RTVSPropertyOp35
 70
     1
102
RTVSPropertyOp36
 70
     1
102
RTVSPropertyOp37
 70
     1
102
RTVSPropertyOp38
 70
     1
102
RTVSPropertyOp39
 70
     1
102
RTVSPropertyOp40
 70
     1
102
RTVSPropertyOp41
 70
     1
102
RTVSPropertyOp42
 70
     1
102
RTVSPropertyOp43
 70
     1
102
RTVSPropertyOp44
 70
     1
102
RTVSPropertyOp45
 70
     1
102
RTVSPropertyOp46
 70
     1
102
RTVSPropertyOp47
 70
     1
102
RTVSPropertyOp48
 70
     1
102
RTVSPropertyOp49
 70
     1
102
RTVSPropertyOp50
 70
     1
102
RTVSPropertyOp51
 70
     0
102
RTVSPropertyOp52
 70
     0
102
RTVSPropertyOp53
 70
     1
102
RTVSPropertyOp54
 70
     1
102
RTVSPropertyOp55
 70
     1
102
RTVSPropertyOp56
 70
     1
102
RTVSPropertyOp57
 70
     1
102
RTVSPropertyOp58
 70
     1
102
RTVSPropertyOp59
 70
     1
102
RTVSPropertyOp60
 70
     1
102
RTVSPropertyOp61
 70
     1
102
RTVSPropertyOp62
 70
     1
  0
XRECORD
  5
3EF7
102
{ACAD_REACTORS
330
3EF6
102
}
330
3EF6
100
AcDbXrecord
280
     1
102
RTVSPost2010Prop28
280
     0
102
RTVSPost2010PropOp28
 70
     1
102
RTVSPost2010Prop29
280
     1
102
RTVSPost2010PropOp29
 70
     1
102
RTVSPost2010Prop30
280
     1
102
RTVSPost2010PropOp30
 70
     1
102
RTVSPost2010Prop31
280
     0
102
RTVSPost2010PropOp31
 70
     1
102
RTVSPost2010Prop32
280
     0
102
RTVSPost2010PropOp32
 70
     1
102
RTVSPost2010Prop33
280
     0
102
RTVSPost2010PropOp33
 70
     1
102
RTVSPost2010Prop34
280
     0
102
RTVSPost2010PropOp34
 70
     1
102
RTVSPost2010Prop35
280
     0
102
RTVSPost2010PropOp35
 70
     1
102
RTVSPost2010Prop36
280
     0
102
RTVSPost2010PropOp36
 70
     1
102
RTVSPost2010Prop37
 90
       50
102
RTVSPost2010PropOp37
 70
     1
102
RTVSPost2010Prop38
140
0.0
102
RTVSPost2010PropOp38
 70
     1
102
RTVSPost2010Prop39
140
1.0
102
RTVSPost2010PropOp39
 70
     1
102
RTVSPost2010Prop40
 90
        0
102
RTVSPost2010PropOp40
 70
     1
102
RTVSPost2010Prop41ColorIndex
 90
       18
102
RTVSPost2010Prop41ColorRGB
 90
        0
102
RTVSPost2010PropOp41
 70
     1
102
RTVSPost2010Prop42
 90
       50
102
RTVSPost2010PropOp42
 70
     1
102
RTVSPost2010Prop43
 90
        3
102
RTVSPost2010PropOp43
 70
     1
102
RTVSPost2010Prop44ColorIndex
 90
        5
102
RTVSPost2010Prop44ColorRGB
 90
      255
102
RTVSPost2010PropOp44
 70
     1
102
RTVSPost2010Prop45
280
     0
102
RTVSPost2010PropOp45
 70
     1
102
RTVSPost2010Prop46
 90
       50
102
RTVSPost2010PropOp46
 70
     1
102
RTVSPost2010Prop47
 90
       50
102
RTVSPost2010PropOp47
 70
     1
102
RTVSPost2010Prop48
 90
       50
102
RTVSPost2010PropOp48
 70
     1
102
RTVSPost2010Prop49
280
     0
102
RTVSPost2010PropOp49
 70
     1
102
RTVSPost2010Prop50
 90
       50
102
RTVSPost2010PropOp50
 70
     1
102
RTVSPost2010Prop51ColorIndex
 90
      256
102
RTVSPost2010Prop51ColorRGB
 90
-16777216
102
RTVSPost2010PropOp51
 70
     0
102
RTVSPost2010Prop52
140
1.0
102
RTVSPost2010PropOp52
 70
     0
102
RTVSPost2010Prop53
 90
        2
102
RTVSPost2010PropOp53
 70
     1
102
RTVSPost2010Prop54
  1
strokes_ogs.tif
102
RTVSPost2010PropOp54
 70
     1
102
RTVSPost2010Prop55
280
     0
102
RTVSPost2010PropOp55
 70
     1
102
RTVSPost2010Prop56
140
1.0
102
RTVSPost2010PropOp56
 70
     1
102
RTVSPost2010Prop57
140
1.0
102
RTVSPost2010PropOp57
 70
     1
102
RTVSPropertyOp0
 70
     1
102
RTVSPropertyOp1
 70
     1
102
RTVSPropertyOp2
 70
     1
102
RTVSPropertyOp3
 70
     1
102
RTVSPropertyOp4
 70
     1
102
RTVSPropertyOp5
 70
     1
102
RTVSPropertyOp6
 70
     1
102
RTVSPropertyOp7
 70
     1
102
RTVSPropertyOp8
 70
     1
102
RTVSPropertyOp9
 70
     1
102
RTVSPropertyOp10
 70
     1
102
RTVSPropertyOp11
 70
     1
102
RTVSPropertyOp12
 70
     1
102
RTVSPropertyOp13
 70
     1
102
RTVSPropertyOp14
 70
     1
102
RTVSPropertyOp15
 70
     1
102
RTVSPropertyOp16
 70
     1
102
RTVSPropertyOp17
 70
     1
102
RTVSPropertyOp18
 70
     1
102
RTVSPropertyOp19
 70
     1
102
RTVSPropertyOp20
 70
     1
102
RTVSPropertyOp21
 70
     1
102
RTVSPropertyOp22
 70
     1
102
RTVSPropertyOp23
 70
     1
102
RTVSPropertyOp24
 70
     1
102
RTVSPropertyOp25
 70
     1
102
RTVSPropertyOp26
 70
     1
102
RTVSPropertyOp27
 70
     1
102
RTVSPropertyOp28
 70
     1
102
RTVSPropertyOp29
 70
     1
102
RTVSPropertyOp30
 70
     1
102
RTVSPropertyOp31
 70
     1
102
RTVSPropertyOp32
 70
     1
102
RTVSPropertyOp33
 70
     1
102
RTVSPropertyOp34
 70
     1
102
RTVSPropertyOp35
 70
     1
102
RTVSPropertyOp36
 70
     1
102
RTVSPropertyOp37
 70
     1
102
RTVSPropertyOp38
 70
     1
102
RTVSPropertyOp39
 70
     1
102
RTVSPropertyOp40
 70
     1
102
RTVSPropertyOp41
 70
     1
102
RTVSPropertyOp42
 70
     1
102
RTVSPropertyOp43
 70
     1
102
RTVSPropertyOp44
 70
     1
102
RTVSPropertyOp45
 70
     1
102
RTVSPropertyOp46
 70
     1
102
RTVSPropertyOp47
 70
     1
102
RTVSPropertyOp48
 70
     1
102
RTVSPropertyOp49
 70
     1
102
RTVSPropertyOp50
 70
     1
102
RTVSPropertyOp51
 70
     0
102
RTVSPropertyOp52
 70
     0
102
RTVSPropertyOp53
 70
     1
102
RTVSPropertyOp54
 70
     1
102
RTVSPropertyOp55
 70
     1
102
RTVSPropertyOp56
 70
     1
102
RTVSPropertyOp57
 70
     1
102
RTVSPropertyOp58
 70
     1
102
RTVSPropertyOp59
 70
     1
102
RTVSPropertyOp60
 70
     1
102
RTVSPropertyOp61
 70
     1
102
RTVSPropertyOp62
 70
     1
  0
XRECORD
  5
3F0F
102
{ACAD_REACTORS
330
3F0E
102
}
330
3F0E
100
AcDbXrecord
280
     1
102
RTVSPost2010Prop28
280
     0
102
RTVSPost2010PropOp28
 70
     1
102
RTVSPost2010Prop29
280
     1
102
RTVSPost2010PropOp29
 70
     1
102
RTVSPost2010Prop30
280
     1
102
RTVSPost2010PropOp30
 70
     1
102
RTVSPost2010Prop31
280
     0
102
RTVSPost2010PropOp31
 70
     1
102
RTVSPost2010Prop32
280
     0
102
RTVSPost2010PropOp32
 70
     1
102
RTVSPost2010Prop33
280
     0
102
RTVSPost2010PropOp33
 70
     1
102
RTVSPost2010Prop34
280
     0
102
RTVSPost2010PropOp34
 70
     1
102
RTVSPost2010Prop35
280
     0
102
RTVSPost2010PropOp35
 70
     1
102
RTVSPost2010Prop36
280
     0
102
RTVSPost2010PropOp36
 70
     1
102
RTVSPost2010Prop37
 90
       50
102
RTVSPost2010PropOp37
 70
     1
102
RTVSPost2010Prop38
140
0.0
102
RTVSPost2010PropOp38
 70
     1
102
RTVSPost2010Prop39
140
1.0
102
RTVSPost2010PropOp39
 70
     1
102
RTVSPost2010Prop40
 90
        0
102
RTVSPost2010PropOp40
 70
     1
102
RTVSPost2010Prop41ColorIndex
 90
       18
102
RTVSPost2010Prop41ColorRGB
 90
        0
102
RTVSPost2010PropOp41
 70
     1
102
RTVSPost2010Prop42
 90
       50
102
RTVSPost2010PropOp42
 70
     1
102
RTVSPost2010Prop43
 90
        3
102
RTVSPost2010PropOp43
 70
     1
102
RTVSPost2010Prop44ColorIndex
 90
        5
102
RTVSPost2010Prop44ColorRGB
 90
      255
102
RTVSPost2010PropOp44
 70
     1
102
RTVSPost2010Prop45
280
     0
102
RTVSPost2010PropOp45
 70
     1
102
RTVSPost2010Prop46
 90
       50
102
RTVSPost2010PropOp46
 70
     1
102
RTVSPost2010Prop47
 90
       50
102
RTVSPost2010PropOp47
 70
     1
102
RTVSPost2010Prop48
 90
       50
102
RTVSPost2010PropOp48
 70
     1
102
RTVSPost2010Prop49
280
     0
102
RTVSPost2010PropOp49
 70
     1
102
RTVSPost2010Prop50
 90
       50
102
RTVSPost2010PropOp50
 70
     1
102
RTVSPost2010Prop51ColorIndex
 90
      256
102
RTVSPost2010Prop51ColorRGB
 90
-16777216
102
RTVSPost2010PropOp51
 70
     0
102
RTVSPost2010Prop52
140
1.0
102
RTVSPost2010PropOp52
 70
     0
102
RTVSPost2010Prop53
 90
        2
102
RTVSPost2010PropOp53
 70
     1
102
RTVSPost2010Prop54
  1
strokes_ogs.tif
102
RTVSPost2010PropOp54
 70
     1
102
RTVSPost2010Prop55
280
     0
102
RTVSPost2010PropOp55
 70
     1
102
RTVSPost2010Prop56
140
1.0
102
RTVSPost2010PropOp56
 70
     1
102
RTVSPost2010Prop57
140
1.0
102
RTVSPost2010PropOp57
 70
     1
102
RTVSPropertyOp0
 70
     1
102
RTVSPropertyOp1
 70
     1
102
RTVSPropertyOp2
 70
     1
102
RTVSPropertyOp3
 70
     1
102
RTVSPropertyOp4
 70
     1
102
RTVSPropertyOp5
 70
     1
102
RTVSPropertyOp6
 70
     1
102
RTVSPropertyOp7
 70
     1
102
RTVSPropertyOp8
 70
     1
102
RTVSPropertyOp9
 70
     1
102
RTVSPropertyOp10
 70
     1
102
RTVSPropertyOp11
 70
     1
102
RTVSPropertyOp12
 70
     1
102
RTVSPropertyOp13
 70
     1
102
RTVSPropertyOp14
 70
     1
102
RTVSPropertyOp15
 70
     1
102
RTVSPropertyOp16
 70
     1
102
RTVSPropertyOp17
 70
     1
102
RTVSPropertyOp18
 70
     1
102
RTVSPropertyOp19
 70
     1
102
RTVSPropertyOp20
 70
     1
102
RTVSPropertyOp21
 70
     1
102
RTVSPropertyOp22
 70
     1
102
RTVSPropertyOp23
 70
     1
102
RTVSPropertyOp24
 70
     1
102
RTVSPropertyOp25
 70
     1
102
RTVSPropertyOp26
 70
     1
102
RTVSPropertyOp27
 70
     1
102
RTVSPropertyOp28
 70
     1
102
RTVSPropertyOp29
 70
     1
102
RTVSPropertyOp30
 70
     1
102
RTVSPropertyOp31
 70
     1
102
RTVSPropertyOp32
 70
     1
102
RTVSPropertyOp33
 70
     1
102
RTVSPropertyOp34
 70
     1
102
RTVSPropertyOp35
 70
     1
102
RTVSPropertyOp36
 70
     1
102
RTVSPropertyOp37
 70
     1
102
RTVSPropertyOp38
 70
     1
102
RTVSPropertyOp39
 70
     1
102
RTVSPropertyOp40
 70
     1
102
RTVSPropertyOp41
 70
     1
102
RTVSPropertyOp42
 70
     1
102
RTVSPropertyOp43
 70
     1
102
RTVSPropertyOp44
 70
     1
102
RTVSPropertyOp45
 70
     1
102
RTVSPropertyOp46
 70
     1
102
RTVSPropertyOp47
 70
     1
102
RTVSPropertyOp48
 70
     1
102
RTVSPropertyOp49
 70
     1
102
RTVSPropertyOp50
 70
     1
102
RTVSPropertyOp51
 70
     0
102
RTVSPropertyOp52
 70
     0
102
RTVSPropertyOp53
 70
     1
102
RTVSPropertyOp54
 70
     1
102
RTVSPropertyOp55
 70
     1
102
RTVSPropertyOp56
 70
     1
102
RTVSPropertyOp57
 70
     1
102
RTVSPropertyOp58
 70
     1
102
RTVSPropertyOp59
 70
     1
102
RTVSPropertyOp60
 70
     1
102
RTVSPropertyOp61
 70
     1
102
RTVSPropertyOp62
 70
     1
  0
ENDSEC
  0
EOF
